  0
SECTION
  2
HEADER
  9
$ACADVER
  1
AC1014
  9
$DWGCODEPAGE
  3
ANSI_932
  9
$LTSCALE
 40
20.0
  9
$FILLMODE
 70
     1
  9
$CLAYER
  8
0
  9
$PDMODE
 70
     0
  9
$SPLFRAME
 70
     0
  9
$SPLINETYPE
 70
     6
  9
$SPLINESEGS
 70
     8
  9
$DIMASZ
 40
2.000000
  9
$DIMEXE
 40
2.000000
  9
$DIMEXO
 40
0.800000
  9
$DIMTAD
 70
     1
  9
$DIMTIH
 70
     0
  9
$DIMTOH
 70
     0
  9
$DIMTVP
 40
0.500000
  9
$DIMTXT
 40
3.100000
  9
$EXTMIN
 10
0.000000
 20
0.000000
 30
0.000000
  9
$EXTMAX
 10
297.000000
 20
420.000000
 30
0.000000
  9
$MEASUREMENT
 70
  1
  9
$LIMMIN
 10
0.000000
 20
0.000000
  9
$LIMMAX
 10
297.000000
 20
420.000000
  9
$HANDLING
 70
     1
  9
$HANDSEED
  5
4CB
  9
$DIMBLK
  1
_OPEN
  9
$DIMDEC
 70
     3
  9
$DIMAUNIT
 70
     1
  9
$DIMZIN
 70
     8
  9
$DIMTOFL
 70
     1
  0
ENDSEC
  0
SECTION
  2
CLASSES
  0
ENDSEC
  0
SECTION
  2
TABLES
  0
TABLE
  2
VPORT
  5
47F
100
AcDbSymbolTable
 70
     1
  0
VPORT
  5
480
100
AcDbSymbolTableRecord
100
AcDbViewportTableRecord
  2
*ACTIVE
 70
     0
 12
799.810117
 22
566.946037
 40
1133.892074
 41
1.410734
  0
ENDTAB
  0
TABLE
  2
LTYPE
  5
481
100
AcDbSymbolTable
 70
     4
  0
LTYPE
  5
482
100
AcDbSymbolTableRecord
100
AcDbLinetypeTableRecord
  2
BYBLOCK
 70
     0
  3

 72
    65
 73
     0
 40
0.0
  0
LTYPE
  5
483
100
AcDbSymbolTableRecord
100
AcDbLinetypeTableRecord
  2
BYLAYER
 70
     0
  3

 72
    65
 73
     0
 40
0.0
  0
LTYPE
  5
484
100
AcDbSymbolTableRecord
100
AcDbLinetypeTableRecord
  2
CONTINUOUS
 70
     0
  3
Solid line (NEC CAE2D for Win R12.1 : 2020.02.28)
 72
    65
 73
     0
 40
0.0
  0
LTYPE
  5
485
100
AcDbSymbolTableRecord
100
AcDbLinetypeTableRecord
  2
HIDDEN
 70
     0
  3
__ __ __ __ __ __ __ __ __ __ __ __ __ __
 72
    65
 73
     2
 40
0.375
 49
0.25
 74
     0
 49
-0.125
 74
     0
  0
LTYPE
  5
486
100
AcDbSymbolTableRecord
100
AcDbLinetypeTableRecord
  2
CENTER
 70
     0
  3
____ _ ____ _ ____ _ ____ _ ____ _ ____
 72
    65
 73
     4
 40
2.0
 49
1.25
 74
     0
 49
-0.25
 74
     0
 49
0.25
 74
     0
 49
-0.25
 74
     0
  0
LTYPE
  5
487
100
AcDbSymbolTableRecord
100
AcDbLinetypeTableRecord
  2
PHANTOM
 70
     0
  3
______  __  __  ______  __  __  ______ 
 72
    65
 73
     6
 40
2.5
 49
1.25
 74
     0
 49
-0.25
 74
     0
 49
0.25
 74
     0
 49
-0.25
 74
     0
 49
0.25
 74
     0
 49
-0.25
 74
     0
  0
ENDTAB
  0
TABLE
  2
LAYER
  5
488
100
AcDbSymbolTable
 70
    10
  0
LAYER
  5
489
100
AcDbSymbolTableRecord
100
AcDbLayerTableRecord
  2
0
 70
     0
 62
     7
  6
CONTINUOUS
  0
LAYER
  5
48A
100
AcDbSymbolTableRecord
100
AcDbLayerTableRecord
  2
MAIN0
 70
     0
 62
     7
  6
CONTINUOUS
  0
LAYER
  5
48B
100
AcDbSymbolTableRecord
100
AcDbLayerTableRecord
  2
MAIN1
 70
     0
 62
     7
  6
CONTINUOUS
  0
LAYER
  5
48C
100
AcDbSymbolTableRecord
100
AcDbLayerTableRecord
  2
MAIN2
 70
     0
 62
     7
  6
CONTINUOUS
  0
LAYER
  5
48D
100
AcDbSymbolTableRecord
100
AcDbLayerTableRecord
  2
MAIN3
 70
     0
 62
     7
  6
CONTINUOUS
  0
LAYER
  5
48E
100
AcDbSymbolTableRecord
100
AcDbLayerTableRecord
  2
MAIN1023
 70
     0
 62
    16
  6
CONTINUOUS
  0
LAYER
  5
48F
100
AcDbSymbolTableRecord
100
AcDbLayerTableRecord
  2
WAKU0
 70
     0
 62
     7
  6
CONTINUOUS
  0
LAYER
  5
490
100
AcDbSymbolTableRecord
100
AcDbLayerTableRecord
  2
WAKU1023
 70
     0
 62
    16
  6
CONTINUOUS
  0
LAYER
  5
491
100
AcDbSymbolTableRecord
100
AcDbLayerTableRecord
  2
NOTE0
 70
     0
 62
     7
  6
CONTINUOUS
  0
LAYER
  5
492
100
AcDbSymbolTableRecord
100
AcDbLayerTableRecord
  2
NOTE1023
 70
     0
 62
    16
  6
CONTINUOUS
  0
ENDTAB
  0
TABLE
  2
STYLE
  5
493
100
AcDbSymbolTable
 70
     4
  0
STYLE
  5
494
100
AcDbSymbolTableRecord
100
AcDbTextStyleTableRecord
  2
STANDARD
 70
    64
 40
0.0
 41
1.0
 50
0.0
 71
     0
 42
7.749999761581421
  3
TXT
  4

  0
STYLE
  5
495
100
AcDbSymbolTableRecord
100
AcDbTextStyleTableRecord
  2
ANKTATE
 70
    68
 40
0.0
 41
1.0
 50
0.0
 71
     0
 42
7.749999761581421
  3
TXT
  4

  0
STYLE
  5
10C
100
AcDbSymbolTableRecord
100
AcDbTextStyleTableRecord
  2
KNJYOKO
 70
    64
 40
0.0
 41
1.0
 50
0.0
 71
     0
 42
7.749999761581421
  3
TXT
  4
BIGFONT
  0
STYLE
  5
496
100
AcDbSymbolTableRecord
100
AcDbTextStyleTableRecord
  2
KNJTATE
 70
    68
 40
0.0
 41
1.0
 50
0.0
 71
     0
 42
7.749999761581421
  3
TXT
  4
BIGFONT
  0
ENDTAB
  0
TABLE
  2
VIEW
  5
497
100
AcDbSymbolTable
 70
     0
  0
ENDTAB
  0
TABLE
  2
UCS
  5
498
100
AcDbSymbolTable
 70
     0
  0
ENDTAB
  0
TABLE
  2
APPID
  5
499
100
AcDbSymbolTable
 70
     1
  0
APPID
  5
49A
100
AcDbSymbolTableRecord
100
AcDbRegAppTableRecord
  2
ACAD
 70
     0
  0
ENDTAB
  0
TABLE
  2
DIMSTYLE
  5
49B
100
AcDbSymbolTable
 70
     1
  0
DIMSTYLE
105
49C
100
AcDbSymbolTableRecord
100
AcDbDimStyleTableRecord
  2
STANDARD
 70
     0
 41
2.000000
 44
2.000000
 42
0.800000
145
0.661290
140
3.100000
144
1.000000
146
0.903226
340
494
  0
DIMSTYLE
105
49D
100
AcDbSymbolTableRecord
100
AcDbDimStyleTableRecord
  2
MAIN001
 70
     0
 41
8.000000
 44
8.000000
 42
3.200000
145
0.540323
140
12.400000
144
1.000000
146
0.903226
 77
     1
 73
     0
 74
     0
271
     3
275
     1
 78
     8
172
     1
340
494
  0
DIMSTYLE
105
49E
100
AcDbSymbolTableRecord
100
AcDbDimStyleTableRecord
  2
WAKU002
 70
     0
 41
2.000000
 44
2.000000
 42
0.800000
145
0.661290
140
3.100000
144
1.000000
146
0.903226
 77
     1
 73
     0
 74
     0
271
     3
275
     1
 78
     8
172
     1
340
494
  0
DIMSTYLE
105
49F
100
AcDbSymbolTableRecord
100
AcDbDimStyleTableRecord
  2
NOTE003
 70
     0
 41
5.000000
 44
5.000000
 42
2.000000
145
0.564516
140
7.750000
144
1.000000
146
0.903226
 77
     1
 73
     0
 74
     0
271
     3
275
     1
 78
     8
172
     1
340
494
  0
ENDTAB
  0
TABLE
  2
BLOCK_RECORD
  5
4A0
100
AcDbSymbolTable
 70
    43
  0
BLOCK_RECORD
  5
4A1
100
AcDbSymbolTableRecord
100
AcDbBlockTableRecord
  2
*MODEL_SPACE
  0
BLOCK_RECORD
  5
4A2
100
AcDbSymbolTableRecord
100
AcDbBlockTableRecord
  2
*PAPER_SPACE
  0
BLOCK_RECORD
  5
1
100
AcDbSymbolTableRecord
100
AcDbBlockTableRecord
  2
_NONE
  0
BLOCK_RECORD
  5
4
100
AcDbSymbolTableRecord
100
AcDbBlockTableRecord
  2
_CLOSED
  0
BLOCK_RECORD
  5
B
100
AcDbSymbolTableRecord
100
AcDbBlockTableRecord
  2
_DOT
  0
BLOCK_RECORD
  5
13
100
AcDbSymbolTableRecord
100
AcDbBlockTableRecord
  2
_OPEN
  0
BLOCK_RECORD
  5
19
100
AcDbSymbolTableRecord
100
AcDbBlockTableRecord
  2
_ORIGIN
  0
BLOCK_RECORD
  5
1E
100
AcDbSymbolTableRecord
100
AcDbBlockTableRecord
  2
_OPEN30
  0
BLOCK_RECORD
  5
24
100
AcDbSymbolTableRecord
100
AcDbBlockTableRecord
  2
_BOXFILLED
  0
BLOCK_RECORD
  5
29
100
AcDbSymbolTableRecord
100
AcDbBlockTableRecord
  2
_BOXBLANK
  0
BLOCK_RECORD
  5
31
100
AcDbSymbolTableRecord
100
AcDbBlockTableRecord
  2
_OBLIQUE
  0
BLOCK_RECORD
  5
35
100
AcDbSymbolTableRecord
100
AcDbBlockTableRecord
  2
_OPEN90
  0
BLOCK_RECORD
  5
3B
100
AcDbSymbolTableRecord
100
AcDbBlockTableRecord
  2
_CLOSEDBLANK
  0
BLOCK_RECORD
  5
41
100
AcDbSymbolTableRecord
100
AcDbBlockTableRecord
  2
_DOTBLANK
  0
BLOCK_RECORD
  5
4A3
100
AcDbSymbolTableRecord
100
AcDbBlockTableRecord
  2
*D0
  0
BLOCK_RECORD
  5
4A4
100
AcDbSymbolTableRecord
100
AcDbBlockTableRecord
  2
*D1
  0
BLOCK_RECORD
  5
4A5
100
AcDbSymbolTableRecord
100
AcDbBlockTableRecord
  2
*D2
  0
BLOCK_RECORD
  5
4A6
100
AcDbSymbolTableRecord
100
AcDbBlockTableRecord
  2
*D3
  0
BLOCK_RECORD
  5
4A7
100
AcDbSymbolTableRecord
100
AcDbBlockTableRecord
  2
*D4
  0
BLOCK_RECORD
  5
4A8
100
AcDbSymbolTableRecord
100
AcDbBlockTableRecord
  2
*D5
  0
BLOCK_RECORD
  5
4A9
100
AcDbSymbolTableRecord
100
AcDbBlockTableRecord
  2
*D6
  0
BLOCK_RECORD
  5
4AA
100
AcDbSymbolTableRecord
100
AcDbBlockTableRecord
  2
*D7
  0
BLOCK_RECORD
  5
4AB
100
AcDbSymbolTableRecord
100
AcDbBlockTableRecord
  2
*D8
  0
BLOCK_RECORD
  5
4AC
100
AcDbSymbolTableRecord
100
AcDbBlockTableRecord
  2
*D9
  0
BLOCK_RECORD
  5
4AD
100
AcDbSymbolTableRecord
100
AcDbBlockTableRecord
  2
*D10
  0
BLOCK_RECORD
  5
4AE
100
AcDbSymbolTableRecord
100
AcDbBlockTableRecord
  2
*D11
  0
BLOCK_RECORD
  5
4AF
100
AcDbSymbolTableRecord
100
AcDbBlockTableRecord
  2
*D12
  0
BLOCK_RECORD
  5
4B0
100
AcDbSymbolTableRecord
100
AcDbBlockTableRecord
  2
*D13
  0
BLOCK_RECORD
  5
4B1
100
AcDbSymbolTableRecord
100
AcDbBlockTableRecord
  2
*D14
  0
BLOCK_RECORD
  5
4B2
100
AcDbSymbolTableRecord
100
AcDbBlockTableRecord
  2
*D15
  0
BLOCK_RECORD
  5
4B3
100
AcDbSymbolTableRecord
100
AcDbBlockTableRecord
  2
*D16
  0
BLOCK_RECORD
  5
4B4
100
AcDbSymbolTableRecord
100
AcDbBlockTableRecord
  2
*D17
  0
BLOCK_RECORD
  5
4B5
100
AcDbSymbolTableRecord
100
AcDbBlockTableRecord
  2
*D18
  0
BLOCK_RECORD
  5
4B6
100
AcDbSymbolTableRecord
100
AcDbBlockTableRecord
  2
*D19
  0
BLOCK_RECORD
  5
4B7
100
AcDbSymbolTableRecord
100
AcDbBlockTableRecord
  2
*D20
  0
BLOCK_RECORD
  5
4B8
100
AcDbSymbolTableRecord
100
AcDbBlockTableRecord
  2
*D21
  0
BLOCK_RECORD
  5
4B9
100
AcDbSymbolTableRecord
100
AcDbBlockTableRecord
  2
*D22
  0
BLOCK_RECORD
  5
4BA
100
AcDbSymbolTableRecord
100
AcDbBlockTableRecord
  2
*D23
  0
BLOCK_RECORD
  5
4BB
100
AcDbSymbolTableRecord
100
AcDbBlockTableRecord
  2
*D24
  0
BLOCK_RECORD
  5
4BC
100
AcDbSymbolTableRecord
100
AcDbBlockTableRecord
  2
*D25
  0
BLOCK_RECORD
  5
4BD
100
AcDbSymbolTableRecord
100
AcDbBlockTableRecord
  2
*D26
  0
BLOCK_RECORD
  5
4BE
100
AcDbSymbolTableRecord
100
AcDbBlockTableRecord
  2
*D27
  0
BLOCK_RECORD
  5
4BF
100
AcDbSymbolTableRecord
100
AcDbBlockTableRecord
  2
*X0
  0
BLOCK_RECORD
  5
4C0
100
AcDbSymbolTableRecord
100
AcDbBlockTableRecord
  2
*X1
  0
BLOCK_RECORD
  5
4C1
100
AcDbSymbolTableRecord
100
AcDbBlockTableRecord
  2
*X2
  0
ENDTAB
  0
ENDSEC
  0
SECTION
  2
BLOCKS
  0
BLOCK
  5
4C2
100
AcDbEntity
  8
0
100
AcDbBlockBegin
  2
*MODEL_SPACE
 70
     0
 10
0.0
 20
0.0
 30
0.0
  3
*MODEL_SPACE
  1

  0
ENDBLK
  5
4C3
100
AcDbEntity
  8
0
100
AcDbBlockEnd
  0
BLOCK
  5
4C4
100
AcDbEntity
  8
0
100
AcDbBlockBegin
  2
*PAPER_SPACE
 70
     0
 10
0.0
 20
0.0
 30
0.0
  3
*PAPER_SPACE
  1

  0
ENDBLK
  5
4C5
100
AcDbEntity
  8
0
100
AcDbBlockEnd
  0
BLOCK
  5
2
100
AcDbEntity
  8
0
100
AcDbBlockBegin
  2
_NONE
 70
     0
 10
0.0
 20
0.0
 30
0.0
  3
_NONE
  1

  0
ENDBLK
  5
3
100
AcDbEntity
  8
0
100
AcDbBlockEnd
  0
BLOCK
  5
5
100
AcDbEntity
  8
0
100
AcDbBlockBegin
  2
_CLOSED
 70
     0
 10
0.0
 20
0.0
 30
0.0
  3
_CLOSED
  1

  0
LINE
  5
6
100
AcDbEntity
  8
0
  6
BYBLOCK
 62
     0
100
AcDbLine
 10
-1.0
 20
0.166667
 30
0.0
 11
0.0
 21
0.0
 31
0.0
  0
LINE
  5
7
100
AcDbEntity
  8
0
  6
BYBLOCK
 62
     0
100
AcDbLine
 10
0.0
 20
0.0
 30
0.0
 11
-1.0
 21
-0.166667
 31
0.0
  0
LINE
  5
8
100
AcDbEntity
  8
0
  6
BYBLOCK
 62
     0
100
AcDbLine
 10
-1.0
 20
0.166667
 30
0.0
 11
-1.0
 21
-0.166667
 31
0.0
  0
LINE
  5
9
100
AcDbEntity
  8
0
  6
BYBLOCK
 62
     0
100
AcDbLine
 10
0.0
 20
0.0
 30
0.0
 11
-1.0
 21
0.0
 31
0.0
  0
ENDBLK
  5
A
100
AcDbEntity
  8
0
100
AcDbBlockEnd
  0
BLOCK
  5
C
100
AcDbEntity
  8
0
100
AcDbBlockBegin
  2
_DOT
 70
     0
 10
0.0
 20
0.0
 30
0.0
  3
_DOT
  1

  0
POLYLINE
  5
D
100
AcDbEntity
  8
0
  6
BYBLOCK
 62
     0
100
AcDb2dPolyline
 66
     1
 10
0.0
 20
0.0
 30
0.0
 70
     1
 40
0.5
 41
0.5
  0
VERTEX
  5
E
100
AcDbEntity
  8
0
  6
BYBLOCK
 62
     0
100
AcDbVertex
100
AcDb2dVertex
 10
-0.25
 20
0.0
 30
0.0
 42
1.0
  0
VERTEX
  5
F
100
AcDbEntity
  8
0
  6
BYBLOCK
 62
     0
100
AcDbVertex
100
AcDb2dVertex
 10
0.25
 20
0.0
 30
0.0
 42
1.0
  0
SEQEND
  5
10
100
AcDbEntity
  8
0
  6
BYBLOCK
 62
     0
  0
LINE
  5
11
100
AcDbEntity
  8
0
  6
BYBLOCK
 62
     0
100
AcDbLine
 10
-0.5
 20
0.0
 30
0.0
 11
-1.0
 21
0.0
 31
0.0
  0
ENDBLK
  5
12
100
AcDbEntity
  8
0
100
AcDbBlockEnd
  0
BLOCK
  5
14
100
AcDbEntity
  8
0
100
AcDbBlockBegin
  2
_OPEN
 70
     0
 10
0.0
 20
0.0
 30
0.0
  3
_OPEN
  1

  0
LINE
  5
15
100
AcDbEntity
  8
0
  6
BYBLOCK
 62
     0
100
AcDbLine
 10
-1.0
 20
0.166667
 30
0.0
 11
0.0
 21
0.0
 31
0.0
  0
LINE
  5
16
100
AcDbEntity
  8
0
  6
BYBLOCK
 62
     0
100
AcDbLine
 10
0.0
 20
0.0
 30
0.0
 11
-1.0
 21
-0.166667
 31
0.0
  0
LINE
  5
17
100
AcDbEntity
  8
0
  6
BYBLOCK
 62
     0
100
AcDbLine
 10
0.0
 20
0.0
 30
0.0
 11
-1.0
 21
0.0
 31
0.0
  0
ENDBLK
  5
18
100
AcDbEntity
  8
0
100
AcDbBlockEnd
  0
BLOCK
  5
1A
100
AcDbEntity
  8
0
100
AcDbBlockBegin
  2
_ORIGIN
 70
     0
 10
0.0
 20
0.0
 30
0.0
  3
_ORIGIN
  1

  0
CIRCLE
  5
1B
100
AcDbEntity
  8
0
  6
BYBLOCK
 62
     0
100
AcDbCircle
 10
0.0
 20
0.0
 30
0.0
 40
0.5
  0
LINE
  5
1C
100
AcDbEntity
  8
0
  6
BYBLOCK
 62
     0
100
AcDbLine
 10
0.0
 20
0.0
 30
0.0
 11
-1.0
 21
0.0
 31
0.0
  0
ENDBLK
  5
1D
100
AcDbEntity
  8
0
100
AcDbBlockEnd
  0
BLOCK
  5
1F
100
AcDbEntity
  8
0
100
AcDbBlockBegin
  2
_OPEN30
 70
     0
 10
0.0
 20
0.0
 30
0.0
  3
_OPEN30
  1

  0
LINE
  5
20
100
AcDbEntity
  8
0
  6
BYBLOCK
 62
     0
100
AcDbLine
 10
-1.0
 20
0.267949
 30
0.0
 11
0.0
 21
0.0
 31
0.0
  0
LINE
  5
21
100
AcDbEntity
  8
0
  6
BYBLOCK
 62
     0
100
AcDbLine
 10
0.0
 20
0.0
 30
0.0
 11
-1.0
 21
-0.267949
 31
0.0
  0
LINE
  5
22
100
AcDbEntity
  8
0
  6
BYBLOCK
 62
     0
100
AcDbLine
 10
0.0
 20
0.0
 30
0.0
 11
-1.0
 21
0.0
 31
0.0
  0
ENDBLK
  5
23
100
AcDbEntity
  8
0
100
AcDbBlockEnd
  0
BLOCK
  5
25
100
AcDbEntity
  8
0
100
AcDbBlockBegin
  2
_BOXFILLED
 70
     0
 10
0.0
 20
0.0
 30
0.0
  3
_BOXFILLED
  1

  0
SOLID
  5
26
100
AcDbEntity
  8
0
  6
BYBLOCK
 62
     0
100
AcDbTrace
 10
-0.5
 20
0.5
 30
0.0
 11
0.5
 21
0.5
 31
0.0
 12
-0.5
 22
-0.5
 32
0.0
 13
0.5
 23
-0.5
 33
0.0
  0
LINE
  5
27
100
AcDbEntity
  8
0
  6
BYBLOCK
 62
     0
100
AcDbLine
 10
-0.5
 20
0.0
 30
0.0
 11
-1.0
 21
0.0
 31
0.0
  0
ENDBLK
  5
28
100
AcDbEntity
  8
0
100
AcDbBlockEnd
  0
BLOCK
  5
2A
100
AcDbEntity
  8
0
100
AcDbBlockBegin
  2
_BOXBLANK
 70
     0
 10
0.0
 20
0.0
 30
0.0
  3
_BOXBLANK
  1

  0
LINE
  5
2B
100
AcDbEntity
  8
0
  6
BYBLOCK
 62
     0
100
AcDbLine
 10
-0.5
 20
-0.5
 30
0.0
 11
0.5
 21
-0.5
 31
0.0
  0
LINE
  5
2C
100
AcDbEntity
  8
0
  6
BYBLOCK
 62
     0
100
AcDbLine
 10
0.5
 20
-0.5
 30
0.0
 11
0.5
 21
0.5
 31
0.0
  0
LINE
  5
2D
100
AcDbEntity
  8
0
  6
BYBLOCK
 62
     0
100
AcDbLine
 10
0.5
 20
0.5
 30
0.0
 11
-0.5
 21
0.5
 31
0.0
  0
LINE
  5
2E
100
AcDbEntity
  8
0
  6
BYBLOCK
 62
     0
100
AcDbLine
 10
-0.5
 20
0.5
 30
0.0
 11
-0.5
 21
-0.5
 31
0.0
  0
LINE
  5
2F
100
AcDbEntity
  8
0
  6
BYBLOCK
 62
     0
100
AcDbLine
 10
-0.5
 20
0.0
 30
0.0
 11
-1.0
 21
0.0
 31
0.0
  0
ENDBLK
  5
30
100
AcDbEntity
  8
0
100
AcDbBlockEnd
  0
BLOCK
  5
32
100
AcDbEntity
  8
0
100
AcDbBlockBegin
  2
_OBLIQUE
 70
     0
 10
0.0
 20
0.0
 30
0.0
  3
_OBLIQUE
  1

  0
LINE
  5
33
100
AcDbEntity
  8
0
  6
BYBLOCK
 62
     0
100
AcDbLine
 10
-0.5
 20
-0.5
 30
0.0
 11
0.5
 21
0.5
 31
0.0
  0
ENDBLK
  5
34
100
AcDbEntity
  8
0
100
AcDbBlockEnd
  0
BLOCK
  5
36
100
AcDbEntity
  8
0
100
AcDbBlockBegin
  2
_OPEN90
 70
     0
 10
0.0
 20
0.0
 30
0.0
  3
_OPEN90
  1

  0
LINE
  5
37
100
AcDbEntity
  8
0
  6
BYBLOCK
 62
     0
100
AcDbLine
 10
-0.5
 20
0.5
 30
0.0
 11
0.0
 21
0.0
 31
0.0
  0
LINE
  5
38
100
AcDbEntity
  8
0
  6
BYBLOCK
 62
     0
100
AcDbLine
 10
0.0
 20
0.0
 30
0.0
 11
-0.5
 21
-0.5
 31
0.0
  0
LINE
  5
39
100
AcDbEntity
  8
0
  6
BYBLOCK
 62
     0
100
AcDbLine
 10
0.0
 20
0.0
 30
0.0
 11
-1.0
 21
0.0
 31
0.0
  0
ENDBLK
  5
3A
100
AcDbEntity
  8
0
100
AcDbBlockEnd
  0
BLOCK
  5
3C
100
AcDbEntity
  8
0
100
AcDbBlockBegin
  2
_CLOSEDBLANK
 70
     0
 10
0.0
 20
0.0
 30
0.0
  3
_CLOSEDBLANK
  1

  0
LINE
  5
3D
100
AcDbEntity
  8
0
  6
BYBLOCK
 62
     0
100
AcDbLine
 10
-1.0
 20
0.1666666666666666
 30
0.0
 11
0.0
 21
0.0
 31
0.0
  0
LINE
  5
3E
100
AcDbEntity
  8
0
  6
BYBLOCK
 62
     0
100
AcDbLine
 10
0.0
 20
0.0
 30
0.0
 11
-1.0
 21
-0.1666666666666666
 31
0.0
  0
LINE
  5
3F
100
AcDbEntity
  8
0
  6
BYBLOCK
 62
     0
100
AcDbLine
 10
-1.0
 20
0.1666666666666666
 30
0.0
 11
-1.0
 21
-0.1666666666666666
 31
0.0
  0
ENDBLK
  5
40
100
AcDbEntity
  8
0
100
AcDbBlockEnd
  0
BLOCK
  5
42
100
AcDbEntity
  8
0
100
AcDbBlockBegin
  2
_DOTBLANK
 70
     0
 10
0.0
 20
0.0
 30
0.0
  3
_DOTBLANK
  1

  0
CIRCLE
  5
43
100
AcDbEntity
  8
0
  6
BYBLOCK
 62
     0
100
AcDbCircle
 10
0.0
 20
0.0
 30
0.0
 40
0.5
  0
LINE
  5
44
100
AcDbEntity
  8
0
  6
BYBLOCK
 62
     0
100
AcDbLine
 10
-0.5
 20
0.0
 30
0.0
 11
-1.0
 21
0.0
 31
0.0
  0
ENDBLK
  5
45
100
AcDbEntity
  8
0
100
AcDbBlockEnd
  0
BLOCK
  5
B7
100
AcDbEntity
  8
MAIN0
  6
CONTINUOUS
 62
3
100
AcDbBlockBegin
  2
*D0
 70
    65
 10
0.0
 20
0.0
 30
0.0
  0
LINE
  5
B8
100
AcDbEntity
  8
MAIN0
  6
BYBLOCK
 62
0
100
AcDbLine
 10
1189.390745631607
 20
307.6420009005103
 30
0.0000000000000000
 11
1189.390745631607
 21
237.8112174757952
 31
0.0000000000000000
  0
LINE
  5
B9
100
AcDbEntity
  8
MAIN0
  6
BYBLOCK
 62
0
100
AcDbLine
 10
1181.390745631607
 20
245.8112174757952
 30
0.0000000000000000
 11
877.3907456316075
 21
245.8112174757952
 31
0.0000000000000000
  0
INSERT
  5
BA
100
AcDbEntity
  8
MAIN0
  6
BYBLOCK
 62
0
100
AcDbBlockReference
  2
_OPEN
 10
1189.390745631607
 20
245.8112174757952
 30
0.0000000000000000
 41
8.000000000000000
 42
8.000000000000000
 43
8.000000000000000
 50
360.0000000000000
  0
INSERT
  5
BB
100
AcDbEntity
  8
MAIN0
  6
BYBLOCK
 62
0
100
AcDbBlockReference
  2
_OPEN
 10
869.3907456316075
 20
245.8112174757952
 30
0.0000000000000000
 41
8.000000000000000
 42
8.000000000000000
 43
8.000000000000000
 50
180.0000000000000
  0
LINE
  5
BC
100
AcDbEntity
  8
MAIN0
  6
BYBLOCK
 62
0
100
AcDbLine
 10
869.3907456316075
 20
307.6420009005103
 30
0.0000000000000000
 11
869.3907456316075
 21
237.8112174757952
 31
0.0000000000000000
  0
MTEXT
  5
BD
100
AcDbEntity
  8
MAIN0
  6
BYBLOCK
 62
0
100
AcDbMText
 10
1029.390745631607
 20
252.5112172850603
 30
0.0000000000000000
 40
12.39999961853027
 41
0.0000000000000000
 71
     5
 72
     1
  1
\A1;320
 11
1.000000000000000
 21
0.0000000000000000
 31
0.0000000000000000
  7
STANDARD
  0
ENDBLK
  5
BE
100
AcDbEntity
  8
MAIN0
  6
CONTINUOUS
 62
3
100
AcDbBlockEnd
  0
BLOCK
  5
C0
100
AcDbEntity
  8
MAIN0
  6
CONTINUOUS
 62
3
100
AcDbBlockBegin
  2
*D1
 70
    65
 10
0.0
 20
0.0
 30
0.0
  0
LINE
  5
C1
100
AcDbEntity
  8
MAIN0
  6
BYBLOCK
 62
0
100
AcDbLine
 10
1131.890745631607
 20
302.6420009005855
 30
0.0000000000000000
 11
1131.890745631607
 21
272.3643262789908
 31
0.0000000000000000
  0
LINE
  5
C2
100
AcDbEntity
  8
MAIN0
  6
BYBLOCK
 62
0
100
AcDbLine
 10
1139.890745631607
 20
280.3643262789908
 30
0.0000000000000000
 11
1148.890745631607
 21
280.3643262789908
 31
0.0000000000000000
  0
INSERT
  5
C3
100
AcDbEntity
  8
MAIN0
  6
BYBLOCK
 62
0
100
AcDbBlockReference
  2
_OPEN
 10
1131.890745631607
 20
280.3643262789908
 30
0.0000000000000000
 41
8.000000000000000
 42
8.000000000000000
 43
8.000000000000000
 50
180.0000000000000
  0
INSERT
  5
C4
100
AcDbEntity
  8
MAIN0
  6
BYBLOCK
 62
0
100
AcDbBlockReference
  2
_OPEN
 10
1156.890745631607
 20
280.3643262789908
 30
0.0000000000000000
 41
8.000000000000000
 42
8.000000000000000
 43
8.000000000000000
 50
0.0000000000000000
  0
LINE
  5
C5
100
AcDbEntity
  8
MAIN0
  6
BYBLOCK
 62
0
100
AcDbLine
 10
1156.890745631607
 20
302.6420009005441
 30
0.0000000000000000
 11
1156.890745631607
 21
272.3643262789908
 31
0.0000000000000000
  0
MTEXT
  5
C6
100
AcDbEntity
  8
MAIN0
  6
BYBLOCK
 62
0
100
AcDbMText
 10
1144.390745631607
 20
287.0643260882559
 30
0.0000000000000000
 40
12.39999961853027
 41
0.0000000000000000
 71
     5
 72
     1
  1
\A1;25
 11
1.000000000000000
 21
0.0000000000000000
 31
0.0000000000000000
  7
STANDARD
  0
ENDBLK
  5
C7
100
AcDbEntity
  8
MAIN0
  6
CONTINUOUS
 62
3
100
AcDbBlockEnd
  0
BLOCK
  5
D2
100
AcDbEntity
  8
MAIN0
  6
CONTINUOUS
 62
3
100
AcDbBlockBegin
  2
*D2
 70
    65
 10
0.0
 20
0.0
 30
0.0
  0
LINE
  5
D3
100
AcDbEntity
  8
MAIN0
  6
BYBLOCK
 62
0
100
AcDbLine
 10
1310.025840854691
 20
620.8420009481940
 30
0.0000000000000000
 11
1449.607447554785
 21
620.8420009481940
 31
0.0000000000000000
  0
LINE
  5
D4
100
AcDbEntity
  8
MAIN0
  6
BYBLOCK
 62
0
100
AcDbLine
 10
1441.607447554785
 20
612.8420009481940
 30
0.0000000000000000
 11
1441.607447554785
 21
318.8420009481940
 31
0.0000000000000000
  0
INSERT
  5
D5
100
AcDbEntity
  8
MAIN0
  6
BYBLOCK
 62
0
100
AcDbBlockReference
  2
_OPEN
 10
1441.607447554785
 20
620.8420009481940
 30
0.0000000000000000
 41
8.000000000000000
 42
8.000000000000000
 43
8.000000000000000
 50
90.00000000000000
  0
INSERT
  5
D6
100
AcDbEntity
  8
MAIN0
  6
BYBLOCK
 62
0
100
AcDbBlockReference
  2
_OPEN
 10
1441.607447554785
 20
310.8420009481940
 30
0.0000000000000000
 41
8.000000000000000
 42
8.000000000000000
 43
8.000000000000000
 50
270.0000000000000
  0
LINE
  5
D7
100
AcDbEntity
  8
MAIN0
  6
BYBLOCK
 62
0
100
AcDbLine
 10
1192.590745679291
 20
310.8420009481940
 30
0.0000000000000000
 11
1449.607447554785
 21
310.8420009481940
 31
0.0000000000000000
  0
MTEXT
  5
D8
100
AcDbEntity
  8
MAIN0
  6
BYBLOCK
 62
0
100
AcDbMText
 10
1434.907447745519
 20
465.8420009481940
 30
0.0000000000000000
 40
12.39999961853027
 41
0.0000000000000000
 71
     5
 72
     1
  1
\A1;310
 11
6.123233995736766e-017
 21
1.000000000000000
 31
0.0000000000000000
  7
STANDARD
  0
ENDBLK
  5
D9
100
AcDbEntity
  8
MAIN0
  6
CONTINUOUS
 62
3
100
AcDbBlockEnd
  0
BLOCK
  5
DB
100
AcDbEntity
  8
MAIN0
  6
CONTINUOUS
 62
3
100
AcDbBlockBegin
  2
*D3
 70
    65
 10
0.0
 20
0.0
 30
0.0
  0
LINE
  5
DC
100
AcDbEntity
  8
MAIN0
  6
BYBLOCK
 62
0
100
AcDbLine
 10
1289.743997429686
 20
627.8420009482284
 30
0.0000000000000000
 11
1351.711361546124
 21
627.8420009482284
 31
0.0000000000000000
  0
LINE
  5
DD
100
AcDbEntity
  8
MAIN0
  6
BYBLOCK
 62
0
100
AcDbLine
 10
1343.711361546124
 20
627.8420009482284
 30
0.0000000000000000
 11
1343.711361546124
 21
613.8420009481736
 31
0.0000000000000000
  0
INSERT
  5
DE
100
AcDbEntity
  8
MAIN0
  6
BYBLOCK
 62
0
100
AcDbBlockReference
  2
_OPEN
 10
1343.711361546124
 20
627.8420009482284
 30
0.0000000000000000
 41
8.000000000000000
 42
8.000000000000000
 43
8.000000000000000
 50
270.0000000000000
  0
INSERT
  5
DF
100
AcDbEntity
  8
MAIN0
  6
BYBLOCK
 62
0
100
AcDbBlockReference
  2
_OPEN
 10
1343.711361546124
 20
613.8420009481736
 30
0.0000000000000000
 41
8.000000000000000
 42
8.000000000000000
 43
8.000000000000000
 50
90.00000000000000
  0
LINE
  5
E0
100
AcDbEntity
  8
MAIN0
  6
BYBLOCK
 62
0
100
AcDbLine
 10
1343.711361546124
 20
635.8420009482284
 30
0.0000000000000000
 11
1343.711361546124
 21
639.8420009482284
 31
0.0000000000000000
  0
LINE
  5
E1
100
AcDbEntity
  8
MAIN0
  6
BYBLOCK
 62
0
100
AcDbLine
 10
1343.711361546124
 20
605.8420009481736
 30
0.0000000000000000
 11
1343.711361546124
 21
581.7311913104363
 31
0.0000000000000000
  0
LINE
  5
E2
100
AcDbEntity
  8
MAIN0
  6
BYBLOCK
 62
0
100
AcDbLine
 10
1289.743997429686
 20
613.8420009481736
 30
0.0000000000000000
 11
1351.711361546124
 21
613.8420009481736
 31
0.0000000000000000
  0
MTEXT
  5
E3
100
AcDbEntity
  8
MAIN0
  6
BYBLOCK
 62
0
100
AcDbMText
 10
1336.011361736859
 20
595.1311909289666
 30
0.0000000000000000
 40
12.39999961853027
 41
0.0000000000000000
 71
     5
 72
     1
  1
\A1;\U+220514
 11
6.123233995736766e-017
 21
1.000000000000000
 31
0.0000000000000000
  7
STANDARD
  0
ENDBLK
  5
E4
100
AcDbEntity
  8
MAIN0
  6
CONTINUOUS
 62
3
100
AcDbBlockEnd
  0
BLOCK
  5
E6
100
AcDbEntity
  8
MAIN0
  6
CONTINUOUS
 62
3
100
AcDbBlockBegin
  2
*D4
 70
    65
 10
0.0
 20
0.0
 30
0.0
  0
LINE
  5
E7
100
AcDbEntity
  8
MAIN0
  6
BYBLOCK
 62
0
100
AcDbLine
 10
1175.590745679291
 20
670.8420009481938
 30
0.0000000000000000
 11
1502.213308227619
 21
670.8420009481938
 31
0.0000000000000000
  0
LINE
  5
E8
100
AcDbEntity
  8
MAIN0
  6
BYBLOCK
 62
0
100
AcDbLine
 10
1494.213308227619
 20
662.8420009481938
 30
0.0000000000000000
 11
1494.213308227619
 21
318.8420009481940
 31
0.0000000000000000
  0
INSERT
  5
E9
100
AcDbEntity
  8
MAIN0
  6
BYBLOCK
 62
0
100
AcDbBlockReference
  2
_OPEN
 10
1494.213308227619
 20
670.8420009481938
 30
0.0000000000000000
 41
8.000000000000000
 42
8.000000000000000
 43
8.000000000000000
 50
90.00000000000000
  0
INSERT
  5
EA
100
AcDbEntity
  8
MAIN0
  6
BYBLOCK
 62
0
100
AcDbBlockReference
  2
_OPEN
 10
1494.213308227619
 20
310.8420009481940
 30
0.0000000000000000
 41
8.000000000000000
 42
8.000000000000000
 43
8.000000000000000
 50
270.0000000000000
  0
LINE
  5
EB
100
AcDbEntity
  8
MAIN0
  6
BYBLOCK
 62
0
100
AcDbLine
 10
1192.590745679291
 20
310.8420009481940
 30
0.0000000000000000
 11
1502.213308227619
 21
310.8420009481940
 31
0.0000000000000000
  0
MTEXT
  5
EC
100
AcDbEntity
  8
MAIN0
  6
BYBLOCK
 62
0
100
AcDbMText
 10
1486.513308418354
 20
466.3320030569370
 30
0.0000000000000000
 40
12.39999961853027
 41
0.0000000000000000
 71
     5
 72
     1
  1
\A1;360
 11
6.123233995736766e-017
 21
1.000000000000000
 31
0.0000000000000000
  7
STANDARD
  0
ENDBLK
  5
ED
100
AcDbEntity
  8
MAIN0
  6
CONTINUOUS
 62
3
100
AcDbBlockEnd
  0
BLOCK
  5
EF
100
AcDbEntity
  8
MAIN0
  6
CONTINUOUS
 62
3
100
AcDbBlockBegin
  2
*D5
 70
    65
 10
0.0
 20
0.0
 30
0.0
  0
LINE
  5
F0
100
AcDbEntity
  8
MAIN0
  6
BYBLOCK
 62
0
100
AcDbLine
 10
909.3907456316075
 20
656.5420009958780
 30
0.0000000000000000
 11
909.3907456316075
 21
685.8117757829091
 31
0.0000000000000000
  0
LINE
  5
F1
100
AcDbEntity
  8
MAIN0
  6
BYBLOCK
 62
0
100
AcDbLine
 10
909.3907456316075
 20
677.8117757829091
 30
0.0000000000000000
 11
905.3907456316075
 21
677.8117757829091
 31
0.0000000000000000
  0
INSERT
  5
F2
100
AcDbEntity
  8
MAIN0
  6
BYBLOCK
 62
0
100
AcDbBlockReference
  2
_OPEN
 10
909.3907456316075
 20
677.8117757829091
 30
0.0000000000000000
 41
8.000000000000000
 42
8.000000000000000
 43
8.000000000000000
 50
180.0000000000000
  0
INSERT
  5
F3
100
AcDbEntity
  8
MAIN0
  6
BYBLOCK
 62
0
100
AcDbBlockReference
  2
_OPEN
 10
905.3907456316075
 20
677.8117757829091
 30
0.0000000000000000
 41
8.000000000000000
 42
8.000000000000000
 43
8.000000000000000
 50
360.0000000000000
  0
LINE
  5
F4
100
AcDbEntity
  8
MAIN0
  6
BYBLOCK
 62
0
100
AcDbLine
 10
917.3907456316075
 20
677.8117757829091
 30
0.0000000000000000
 11
921.3907456316075
 21
677.8117757829091
 31
0.0000000000000000
  0
LINE
  5
F5
100
AcDbEntity
  8
MAIN0
  6
BYBLOCK
 62
0
100
AcDbLine
 10
897.3907456316075
 20
677.8117757829091
 30
0.0000000000000000
 11
885.9896881107210
 21
677.8117757829091
 31
0.0000000000000000
  0
LINE
  5
F6
100
AcDbEntity
  8
MAIN0
  6
BYBLOCK
 62
0
100
AcDbLine
 10
905.3907456316075
 20
641.5420009958775
 30
0.0000000000000000
 11
905.3907456316075
 21
685.8117757829091
 31
0.0000000000000000
  0
MTEXT
  5
F7
100
AcDbEntity
  8
MAIN0
  6
BYBLOCK
 62
0
100
AcDbMText
 10
889.9896881107210
 20
685.5117755921742
 30
0.0000000000000000
 40
12.39999961853027
 41
0.0000000000000000
 71
     5
 72
     1
  1
\A1;4
 11
1.000000000000000
 21
0.0000000000000000
 31
0.0000000000000000
  7
STANDARD
  0
ENDBLK
  5
F8
100
AcDbEntity
  8
MAIN0
  6
CONTINUOUS
 62
3
100
AcDbBlockEnd
  0
BLOCK
  5
FA
100
AcDbEntity
  8
MAIN0
  6
CONTINUOUS
 62
3
100
AcDbBlockBegin
  2
*D6
 70
    65
 10
0.0
 20
0.0
 30
0.0
  0
LINE
  5
FB
100
AcDbEntity
  8
MAIN0
  6
BYBLOCK
 62
0
100
AcDbLine
 10
1172.590745679291
 20
1078.610901007432
 30
0.0000000000000000
 11
1351.711361546124
 21
1078.610901007432
 31
0.0000000000000000
  0
LINE
  5
FC
100
AcDbEntity
  8
MAIN0
  6
BYBLOCK
 62
0
100
AcDbLine
 10
1343.711361546124
 20
1070.610901007432
 30
0.0000000000000000
 11
1343.711361546124
 21
876.6109010074317
 31
0.0000000000000000
  0
INSERT
  5
FD
100
AcDbEntity
  8
MAIN0
  6
BYBLOCK
 62
0
100
AcDbBlockReference
  2
_OPEN
 10
1343.711361546124
 20
1078.610901007432
 30
0.0000000000000000
 41
8.000000000000000
 42
8.000000000000000
 43
8.000000000000000
 50
90.00000000000000
  0
INSERT
  5
FE
100
AcDbEntity
  8
MAIN0
  6
BYBLOCK
 62
0
100
AcDbBlockReference
  2
_OPEN
 10
1343.711361546124
 20
868.6109010074317
 30
0.0000000000000000
 41
8.000000000000000
 42
8.000000000000000
 43
8.000000000000000
 50
270.0000000000000
  0
LINE
  5
FF
100
AcDbEntity
  8
MAIN0
  6
BYBLOCK
 62
0
100
AcDbLine
 10
1172.590745679291
 20
868.6109010074317
 30
0.0000000000000000
 11
1351.711361546124
 21
868.6109010074317
 31
0.0000000000000000
  0
MTEXT
  5
100
100
AcDbEntity
  8
MAIN0
  6
BYBLOCK
 62
0
100
AcDbMText
 10
1337.011361736859
 20
973.6109010074317
 30
0.0000000000000000
 40
12.39999961853027
 41
0.0000000000000000
 71
     5
 72
     1
  1
\A1;210
 11
6.123233995736766e-017
 21
1.000000000000000
 31
0.0000000000000000
  7
STANDARD
  0
ENDBLK
  5
101
100
AcDbEntity
  8
MAIN0
  6
CONTINUOUS
 62
3
100
AcDbBlockEnd
  0
BLOCK
  5
103
100
AcDbEntity
  8
MAIN0
  6
CONTINUOUS
 62
3
100
AcDbBlockBegin
  2
*D7
 70
    65
 10
0.0
 20
0.0
 30
0.0
  0
LINE
  5
104
100
AcDbEntity
  8
MAIN0
  6
BYBLOCK
 62
0
100
AcDbLine
 10
1172.590745679291
 20
1078.610901007432
 30
0.0000000000000000
 11
1386.572280042252
 21
1078.610901007432
 31
0.0000000000000000
  0
LINE
  5
105
100
AcDbEntity
  8
MAIN0
  6
BYBLOCK
 62
0
100
AcDbLine
 10
1378.572280042252
 20
1070.610901007432
 30
0.0000000000000000
 11
1378.572280042252
 21
825.7541413718429
 31
0.0000000000000000
  0
INSERT
  5
106
100
AcDbEntity
  8
MAIN0
  6
BYBLOCK
 62
0
100
AcDbBlockReference
  2
_OPEN
 10
1378.572280042252
 20
1078.610901007432
 30
0.0000000000000000
 41
8.000000000000000
 42
8.000000000000000
 43
8.000000000000000
 50
90.00000000000000
  0
INSERT
  5
107
100
AcDbEntity
  8
MAIN0
  6
BYBLOCK
 62
0
100
AcDbBlockReference
  2
_OPEN
 10
1378.572280042252
 20
817.7541413718429
 30
0.0000000000000000
 41
8.000000000000000
 42
8.000000000000000
 43
8.000000000000000
 50
270.0000000000000
  0
LINE
  5
108
100
AcDbEntity
  8
MAIN0
  6
BYBLOCK
 62
0
100
AcDbLine
 10
1140.590745679330
 20
817.7541413718429
 30
0.0000000000000000
 11
1386.572280042252
 21
817.7541413718429
 31
0.0000000000000000
  0
MTEXT
  5
109
100
AcDbEntity
  8
MAIN0
  6
BYBLOCK
 62
0
100
AcDbMText
 10
1371.872280232987
 20
948.1825211896373
 30
0.0000000000000000
 40
12.39999961853027
 41
0.0000000000000000
 71
     5
 72
     1
  1
\A1;約　261
 11
6.123233995736766e-017
 21
1.000000000000000
 31
0.0000000000000000
  7
KNJYOKO
  0
ENDBLK
  5
10A
100
AcDbEntity
  8
MAIN0
  6
CONTINUOUS
 62
3
100
AcDbBlockEnd
  0
BLOCK
  5
11D
100
AcDbEntity
  8
MAIN0
  6
CONTINUOUS
 62
3
100
AcDbBlockBegin
  2
*D8
 70
    65
 10
0.0
 20
0.0
 30
0.0
  0
LINE
  5
11E
100
AcDbEntity
  8
MAIN0
  6
BYBLOCK
 62
0
100
AcDbLine
 10
322.4177120628249
 20
302.6420009005284
 30
0.0000000000000000
 11
322.4177120628249
 21
251.0740968688719
 31
0.0000000000000000
  0
LINE
  5
11F
100
AcDbEntity
  8
MAIN0
  6
BYBLOCK
 62
0
100
AcDbLine
 10
322.4177120628249
 20
259.0740968688719
 30
0.0000000000000000
 11
340.4177120628249
 21
259.0740968688719
 31
0.0000000000000000
  0
INSERT
  5
120
100
AcDbEntity
  8
MAIN0
  6
BYBLOCK
 62
0
100
AcDbBlockReference
  2
_OPEN
 10
322.4177120628249
 20
259.0740968688719
 30
0.0000000000000000
 41
8.000000000000000
 42
8.000000000000000
 43
8.000000000000000
 50
0.0000000000000000
  0
INSERT
  5
121
100
AcDbEntity
  8
MAIN0
  6
BYBLOCK
 62
0
100
AcDbBlockReference
  2
_OPEN
 10
340.4177120628249
 20
259.0740968688719
 30
0.0000000000000000
 41
8.000000000000000
 42
8.000000000000000
 43
8.000000000000000
 50
180.0000000000000
  0
LINE
  5
122
100
AcDbEntity
  8
MAIN0
  6
BYBLOCK
 62
0
100
AcDbLine
 10
314.4177120628249
 20
259.0740968688719
 30
0.0000000000000000
 11
310.4177120628249
 21
259.0740968688719
 31
0.0000000000000000
  0
LINE
  5
123
100
AcDbEntity
  8
MAIN0
  6
BYBLOCK
 62
0
100
AcDbLine
 10
348.4177120628249
 20
259.0740968688719
 30
0.0000000000000000
 11
378.1877323733743
 21
259.0740968688719
 31
0.0000000000000000
  0
LINE
  5
124
100
AcDbEntity
  8
MAIN0
  6
BYBLOCK
 62
0
100
AcDbLine
 10
340.4177120628249
 20
302.6420009004922
 30
0.0000000000000000
 11
340.4177120628249
 21
251.0740968688719
 31
0.0000000000000000
  0
MTEXT
  5
125
100
AcDbEntity
  8
MAIN0
  6
BYBLOCK
 62
0
100
AcDbMText
 10
361.5877319919046
 20
266.7740966781370
 30
0.0000000000000000
 40
12.39999961853027
 41
0.0000000000000000
 71
     5
 72
     1
  1
\A1;18h7
 11
1.000000000000000
 21
0.0000000000000000
 31
0.0000000000000000
  7
STANDARD
  0
ENDBLK
  5
126
100
AcDbEntity
  8
MAIN0
  6
CONTINUOUS
 62
3
100
AcDbBlockEnd
  0
BLOCK
  5
135
100
AcDbEntity
  8
MAIN0
  6
CONTINUOUS
 62
3
100
AcDbBlockBegin
  2
*D9
 70
    65
 10
0.0
 20
0.0
 30
0.0
  0
LINE
  5
136
100
AcDbEntity
  8
MAIN0
  6
BYBLOCK
 62
0
100
AcDbLine
 10
1172.390745631607
 20
557.6420009005103
 30
0.0000000000000000
 11
1172.390745631607
 21
469.3327694966554
 31
0.0000000000000000
  0
LINE
  5
137
100
AcDbEntity
  8
MAIN0
  6
BYBLOCK
 62
0
100
AcDbLine
 10
1172.390745631607
 20
477.3327694966554
 30
0.0000000000000000
 11
1189.390745631607
 21
477.3327694966554
 31
0.0000000000000000
  0
INSERT
  5
138
100
AcDbEntity
  8
MAIN0
  6
BYBLOCK
 62
0
100
AcDbBlockReference
  2
_OPEN
 10
1172.390745631607
 20
477.3327694966554
 30
0.0000000000000000
 41
8.000000000000000
 42
8.000000000000000
 43
8.000000000000000
 50
0.0000000000000000
  0
INSERT
  5
139
100
AcDbEntity
  8
MAIN0
  6
BYBLOCK
 62
0
100
AcDbBlockReference
  2
_OPEN
 10
1189.390745631607
 20
477.3327694966554
 30
0.0000000000000000
 41
8.000000000000000
 42
8.000000000000000
 43
8.000000000000000
 50
180.0000000000000
  0
LINE
  5
13A
100
AcDbEntity
  8
MAIN0
  6
BYBLOCK
 62
0
100
AcDbLine
 10
1164.390745631607
 20
477.3327694966554
 30
0.0000000000000000
 11
1160.390745631607
 21
477.3327694966554
 31
0.0000000000000000
  0
LINE
  5
13B
100
AcDbEntity
  8
MAIN0
  6
BYBLOCK
 62
0
100
AcDbLine
 10
1197.390745631607
 20
477.3327694966554
 30
0.0000000000000000
 11
1201.390745631607
 21
477.3327694966554
 31
0.0000000000000000
  0
LINE
  5
13C
100
AcDbEntity
  8
MAIN0
  6
BYBLOCK
 62
0
100
AcDbLine
 10
1189.390745631607
 20
349.0420009958777
 30
0.0000000000000000
 11
1189.390745631607
 21
485.3327694966554
 31
0.0000000000000000
  0
MTEXT
  5
13D
100
AcDbEntity
  8
MAIN0
  6
BYBLOCK
 62
0
100
AcDbMText
 10
1180.890745631607
 20
484.0327693059205
 30
0.0000000000000000
 40
12.39999961853027
 41
0.0000000000000000
 71
     5
 72
     1
  1
\A1;17
 11
1.000000000000000
 21
0.0000000000000000
 31
0.0000000000000000
  7
STANDARD
  0
ENDBLK
  5
13E
100
AcDbEntity
  8
MAIN0
  6
CONTINUOUS
 62
3
100
AcDbBlockEnd
  0
BLOCK
  5
140
100
AcDbEntity
  8
MAIN0
  6
CONTINUOUS
 62
3
100
AcDbBlockBegin
  2
*D10
 70
    65
 10
0.0
 20
0.0
 30
0.0
  0
LINE
  5
141
100
AcDbEntity
  8
MAIN0
  6
BYBLOCK
 62
0
100
AcDbLine
 10
1176.590745679291
 20
1006.110901007432
 30
0.0000000000000000
 11
1305.802327631609
 21
1006.110901007432
 31
0.0000000000000000
  0
LINE
  5
142
100
AcDbEntity
  8
MAIN0
  6
BYBLOCK
 62
0
100
AcDbLine
 10
1297.802327631609
 20
998.1109010074317
 30
0.0000000000000000
 11
1297.802327631609
 21
949.1109010074317
 31
0.0000000000000000
  0
INSERT
  5
143
100
AcDbEntity
  8
MAIN0
  6
BYBLOCK
 62
0
100
AcDbBlockReference
  2
_OPEN
 10
1297.802327631609
 20
1006.110901007432
 30
0.0000000000000000
 41
8.000000000000000
 42
8.000000000000000
 43
8.000000000000000
 50
90.00000000000000
  0
INSERT
  5
144
100
AcDbEntity
  8
MAIN0
  6
BYBLOCK
 62
0
100
AcDbBlockReference
  2
_OPEN
 10
1297.802327631609
 20
941.1109010074317
 30
0.0000000000000000
 41
8.000000000000000
 42
8.000000000000000
 43
8.000000000000000
 50
270.0000000000000
  0
LINE
  5
145
100
AcDbEntity
  8
MAIN0
  6
BYBLOCK
 62
0
100
AcDbLine
 10
1176.590745679291
 20
941.1109010074317
 30
0.0000000000000000
 11
1305.802327631609
 21
941.1109010074317
 31
0.0000000000000000
  0
MTEXT
  5
146
100
AcDbEntity
  8
MAIN0
  6
BYBLOCK
 62
0
100
AcDbMText
 10
1291.102327822344
 20
973.6109010074317
 30
0.0000000000000000
 40
12.39999961853027
 41
0.0000000000000000
 71
     5
 72
     1
  1
\A1;\U+220565
 11
6.123233995736766e-017
 21
1.000000000000000
 31
0.0000000000000000
  7
STANDARD
  0
ENDBLK
  5
147
100
AcDbEntity
  8
MAIN0
  6
CONTINUOUS
 62
3
100
AcDbBlockEnd
  0
BLOCK
  5
1DA
100
AcDbEntity
  8
MAIN0
  6
CONTINUOUS
 62
3
100
AcDbBlockBegin
  2
*D11
 70
    65
 10
0.0
 20
0.0
 30
0.0
  0
LINE
  5
1DB
100
AcDbEntity
  8
MAIN0
  6
BYBLOCK
 62
0
100
AcDbLine
 10
874.7984407384696
 20
360.3420009482201
 30
0.0000000000000000
 11
795.7151174619677
 21
360.3420009482201
 31
0.0000000000000000
  0
LINE
  5
1DC
100
AcDbEntity
  8
MAIN0
  6
BYBLOCK
 62
0
100
AcDbLine
 10
803.7151174619677
 20
352.3420009482201
 30
0.0000000000000000
 11
803.7151174619677
 21
298.8420009482202
 31
0.0000000000000000
  0
INSERT
  5
1DD
100
AcDbEntity
  8
MAIN0
  6
BYBLOCK
 62
0
100
AcDbBlockReference
  2
_OPEN
 10
803.7151174619677
 20
360.3420009482201
 30
0.0000000000000000
 41
8.000000000000000
 42
8.000000000000000
 43
8.000000000000000
 50
90.00000000000000
  0
INSERT
  5
1DE
100
AcDbEntity
  8
MAIN0
  6
BYBLOCK
 62
0
100
AcDbBlockReference
  2
_OPEN
 10
803.7151174619677
 20
290.8420009482202
 30
0.0000000000000000
 41
8.000000000000000
 42
8.000000000000000
 43
8.000000000000000
 50
270.0000000000000
  0
LINE
  5
1DF
100
AcDbEntity
  8
MAIN0
  6
BYBLOCK
 62
0
100
AcDbLine
 10
870.1907455839112
 20
290.8420009482202
 30
0.0000000000000000
 11
795.7151174619677
 21
290.8420009482202
 31
0.0000000000000000
  0
MTEXT
  5
1E0
100
AcDbEntity
  8
MAIN0
  6
BYBLOCK
 62
0
100
AcDbMText
 10
797.0151176527025
 20
325.5920009482202
 30
0.0000000000000000
 40
12.39999961853027
 41
0.0000000000000000
 71
     5
 72
     1
  1
\A1;69.5
 11
6.123233995736766e-017
 21
1.000000000000000
 31
0.0000000000000000
  7
STANDARD
  0
ENDBLK
  5
1E1
100
AcDbEntity
  8
MAIN0
  6
CONTINUOUS
 62
3
100
AcDbBlockEnd
  0
BLOCK
  5
1E3
100
AcDbEntity
  8
MAIN0
  6
CONTINUOUS
 62
3
100
AcDbBlockBegin
  2
*D12
 70
    65
 10
0.0
 20
0.0
 30
0.0
  0
LINE
  5
1E4
100
AcDbEntity
  8
MAIN0
  6
BYBLOCK
 62
0
100
AcDbLine
 10
870.1907455839112
 20
290.8420009482202
 30
0.0000000000000000
 11
795.7151174619677
 21
290.8420009482202
 31
0.0000000000000000
  0
LINE
  5
1E5
100
AcDbEntity
  8
MAIN0
  6
BYBLOCK
 62
0
100
AcDbLine
 10
803.7151174619677
 20
290.8420009482202
 30
0.0000000000000000
 11
803.7151174619677
 21
279.8420009482202
 31
0.0000000000000000
  0
INSERT
  5
1E6
100
AcDbEntity
  8
MAIN0
  6
BYBLOCK
 62
0
100
AcDbBlockReference
  2
_OPEN
 10
803.7151174619677
 20
290.8420009482202
 30
0.0000000000000000
 41
8.000000000000000
 42
8.000000000000000
 43
8.000000000000000
 50
270.0000000000000
  0
INSERT
  5
1E7
100
AcDbEntity
  8
MAIN0
  6
BYBLOCK
 62
0
100
AcDbBlockReference
  2
_OPEN
 10
803.7151174619677
 20
279.8420009482202
 30
0.0000000000000000
 41
8.000000000000000
 42
8.000000000000000
 43
8.000000000000000
 50
90.00000000000000
  0
LINE
  5
1E8
100
AcDbEntity
  8
MAIN0
  6
BYBLOCK
 62
0
100
AcDbLine
 10
803.7151174619677
 20
298.8420009482202
 30
0.0000000000000000
 11
803.7151174619677
 21
302.8420009482202
 31
0.0000000000000000
  0
LINE
  5
1E9
100
AcDbEntity
  8
MAIN0
  6
BYBLOCK
 62
0
100
AcDbLine
 10
803.7151174619677
 20
271.8420009482202
 30
0.0000000000000000
 11
803.7151174619677
 21
267.8420009482202
 31
0.0000000000000000
  0
LINE
  5
1EA
100
AcDbEntity
  8
MAIN0
  6
BYBLOCK
 62
0
100
AcDbLine
 10
870.1907455839112
 20
279.8420009482202
 30
0.0000000000000000
 11
795.7151174619677
 21
279.8420009482202
 31
0.0000000000000000
  0
MTEXT
  5
1EB
100
AcDbEntity
  8
MAIN0
  6
BYBLOCK
 62
0
100
AcDbMText
 10
797.0151176527025
 20
285.3420009482202
 30
0.0000000000000000
 40
12.39999961853027
 41
0.0000000000000000
 71
     5
 72
     1
  1
\A1;11
 11
6.123233995736766e-017
 21
1.000000000000000
 31
0.0000000000000000
  7
STANDARD
  0
ENDBLK
  5
1EC
100
AcDbEntity
  8
MAIN0
  6
CONTINUOUS
 62
3
100
AcDbBlockEnd
  0
BLOCK
  5
1EE
100
AcDbEntity
  8
MAIN0
  6
CONTINUOUS
 62
3
100
AcDbBlockBegin
  2
*D13
 70
    65
 10
0.0
 20
0.0
 30
0.0
  0
LINE
  5
1EF
100
AcDbEntity
  8
MAIN0
  6
BYBLOCK
 62
0
100
AcDbLine
 10
870.1907455839112
 20
290.8420009482202
 30
0.0000000000000000
 11
828.7670747002661
 21
290.8420009482202
 31
0.0000000000000000
  0
LINE
  5
1F0
100
AcDbEntity
  8
MAIN0
  6
BYBLOCK
 62
0
100
AcDbLine
 10
836.7670747002661
 20
290.8420009482202
 30
0.0000000000000000
 11
836.7670747002661
 21
310.8420009481940
 31
0.0000000000000000
  0
INSERT
  5
1F1
100
AcDbEntity
  8
MAIN0
  6
BYBLOCK
 62
0
100
AcDbBlockReference
  2
_OPEN
 10
836.7670747002661
 20
290.8420009482202
 30
0.0000000000000000
 41
8.000000000000000
 42
8.000000000000000
 43
8.000000000000000
 50
90.00000000000000
  0
INSERT
  5
1F2
100
AcDbEntity
  8
MAIN0
  6
BYBLOCK
 62
0
100
AcDbBlockReference
  2
_OPEN
 10
836.7670747002661
 20
310.8420009481940
 30
0.0000000000000000
 41
8.000000000000000
 42
8.000000000000000
 43
8.000000000000000
 50
270.0000000000000
  0
LINE
  5
1F3
100
AcDbEntity
  8
MAIN0
  6
BYBLOCK
 62
0
100
AcDbLine
 10
836.7670747002661
 20
282.8420009482202
 30
0.0000000000000000
 11
836.7670747002661
 21
278.8420009482202
 31
0.0000000000000000
  0
LINE
  5
1F4
100
AcDbEntity
  8
MAIN0
  6
BYBLOCK
 62
0
100
AcDbLine
 10
836.7670747002661
 20
318.8420009481940
 30
0.0000000000000000
 11
836.7670747002661
 21
322.8420009481940
 31
0.0000000000000000
  0
LINE
  5
1F5
100
AcDbEntity
  8
MAIN0
  6
BYBLOCK
 62
0
100
AcDbLine
 10
866.1907455839238
 20
310.8420009481940
 30
0.0000000000000000
 11
828.7670747002661
 21
310.8420009481940
 31
0.0000000000000000
  0
MTEXT
  5
1F6
100
AcDbEntity
  8
MAIN0
  6
BYBLOCK
 62
0
100
AcDbMText
 10
830.0670748910010
 20
300.8420009482071
 30
0.0000000000000000
 40
12.39999961853027
 41
0.0000000000000000
 71
     5
 72
     1
  1
\A1;20
 11
6.123233995736766e-017
 21
1.000000000000000
 31
0.0000000000000000
  7
STANDARD
  0
ENDBLK
  5
1F7
100
AcDbEntity
  8
MAIN0
  6
CONTINUOUS
 62
3
100
AcDbBlockEnd
  0
BLOCK
  5
1F9
100
AcDbEntity
  8
MAIN0
  6
CONTINUOUS
 62
3
100
AcDbBlockBegin
  2
*D14
 70
    65
 10
0.0
 20
0.0
 30
0.0
  0
LINE
  5
1FA
100
AcDbEntity
  8
MAIN0
  6
BYBLOCK
 62
0
100
AcDbLine
 10
866.1907455839238
 20
310.8420009481940
 30
0.0000000000000000
 11
828.7670747002661
 21
310.8420009481940
 31
0.0000000000000000
  0
LINE
  5
1FB
100
AcDbEntity
  8
MAIN0
  6
BYBLOCK
 62
0
100
AcDbLine
 10
836.7670747002661
 20
318.8420009481940
 30
0.0000000000000000
 11
836.7670747002661
 21
337.8420009481940
 31
0.0000000000000000
  0
INSERT
  5
1FC
100
AcDbEntity
  8
MAIN0
  6
BYBLOCK
 62
0
100
AcDbBlockReference
  2
_OPEN
 10
836.7670747002661
 20
310.8420009481940
 30
0.0000000000000000
 41
8.000000000000000
 42
8.000000000000000
 43
8.000000000000000
 50
270.0000000000000
  0
INSERT
  5
1FD
100
AcDbEntity
  8
MAIN0
  6
BYBLOCK
 62
0
100
AcDbBlockReference
  2
_OPEN
 10
836.7670747002661
 20
345.8420009481940
 30
0.0000000000000000
 41
8.000000000000000
 42
8.000000000000000
 43
8.000000000000000
 50
90.00000000000000
  0
LINE
  5
1FE
100
AcDbEntity
  8
MAIN0
  6
BYBLOCK
 62
0
100
AcDbLine
 10
866.1907455839238
 20
345.8420009481940
 30
0.0000000000000000
 11
828.7670747002661
 21
345.8420009481940
 31
0.0000000000000000
  0
MTEXT
  5
1FF
100
AcDbEntity
  8
MAIN0
  6
BYBLOCK
 62
0
100
AcDbMText
 10
830.0670748910010
 20
328.3420009481940
 30
0.0000000000000000
 40
12.39999961853027
 41
0.0000000000000000
 71
     5
 72
     1
  1
\A1;35
 11
6.123233995736766e-017
 21
1.000000000000000
 31
0.0000000000000000
  7
STANDARD
  0
ENDBLK
  5
200
100
AcDbEntity
  8
MAIN0
  6
CONTINUOUS
 62
3
100
AcDbBlockEnd
  0
BLOCK
  5
20D
100
AcDbEntity
  8
MAIN0
  6
CONTINUOUS
 62
3
100
AcDbBlockBegin
  2
*D15
 70
    65
 10
0.0
 20
0.0
 30
0.0
  0
LINE
  5
20E
100
AcDbEntity
  8
MAIN0
  6
BYBLOCK
 62
0
100
AcDbLine
 10
870.1907455838939
 20
178.9129558308803
 30
0.0000000000000000
 11
828.7670747002661
 21
178.9129558308803
 31
0.0000000000000000
  0
LINE
  5
20F
100
AcDbEntity
  8
MAIN0
  6
BYBLOCK
 62
0
100
AcDbLine
 10
836.7670747002661
 20
170.9129558308803
 30
0.0000000000000000
 11
836.7670747002661
 21
158.4129558308803
 31
0.0000000000000000
  0
INSERT
  5
210
100
AcDbEntity
  8
MAIN0
  6
BYBLOCK
 62
0
100
AcDbBlockReference
  2
_OPEN
 10
836.7670747002661
 20
178.9129558308803
 30
0.0000000000000000
 41
8.000000000000000
 42
8.000000000000000
 43
8.000000000000000
 50
90.00000000000000
  0
INSERT
  5
211
100
AcDbEntity
  8
MAIN0
  6
BYBLOCK
 62
0
100
AcDbBlockReference
  2
_OPEN
 10
836.7670747002661
 20
150.4129558308803
 30
0.0000000000000000
 41
8.000000000000000
 42
8.000000000000000
 43
8.000000000000000
 50
270.0000000000000
  0
LINE
  5
212
100
AcDbEntity
  8
MAIN0
  6
BYBLOCK
 62
0
100
AcDbLine
 10
870.1907455839290
 20
150.4129558308803
 30
0.0000000000000000
 11
828.7670747002661
 21
150.4129558308803
 31
0.0000000000000000
  0
MTEXT
  5
213
100
AcDbEntity
  8
MAIN0
  6
BYBLOCK
 62
0
100
AcDbMText
 10
830.0670748910010
 20
164.6629558308803
 30
0.0000000000000000
 40
12.39999961853027
 41
0.0000000000000000
 71
     5
 72
     1
  1
\A1;28.5
 11
6.123233995736766e-017
 21
1.000000000000000
 31
0.0000000000000000
  7
STANDARD
  0
ENDBLK
  5
214
100
AcDbEntity
  8
MAIN0
  6
CONTINUOUS
 62
3
100
AcDbBlockEnd
  0
BLOCK
  5
216
100
AcDbEntity
  8
MAIN0
  6
CONTINUOUS
 62
3
100
AcDbBlockBegin
  2
*D16
 70
    65
 10
0.0
 20
0.0
 30
0.0
  0
LINE
  5
217
100
AcDbEntity
  8
MAIN0
  6
BYBLOCK
 62
0
100
AcDbLine
 10
873.3907456316128
 20
147.2129557831966
 30
0.0000000000000000
 11
873.3907456316126
 21
110.0647789492388
 31
0.0000000000000000
  0
LINE
  5
218
100
AcDbEntity
  8
MAIN0
  6
BYBLOCK
 62
0
100
AcDbLine
 10
881.3907456316126
 20
118.0647789492388
 30
0.0000000000000000
 11
895.3907456317347
 21
118.0647789492388
 31
0.0000000000000000
  0
INSERT
  5
219
100
AcDbEntity
  8
MAIN0
  6
BYBLOCK
 62
0
100
AcDbBlockReference
  2
_OPEN
 10
873.3907456316126
 20
118.0647789492388
 30
0.0000000000000000
 41
8.000000000000000
 42
8.000000000000000
 43
8.000000000000000
 50
180.0000000000000
  0
INSERT
  5
21A
100
AcDbEntity
  8
MAIN0
  6
BYBLOCK
 62
0
100
AcDbBlockReference
  2
_OPEN
 10
903.3907456317347
 20
118.0647789492388
 30
0.0000000000000000
 41
8.000000000000000
 42
8.000000000000000
 43
8.000000000000000
 50
0.0000000000000000
  0
LINE
  5
21B
100
AcDbEntity
  8
MAIN0
  6
BYBLOCK
 62
0
100
AcDbLine
 10
903.3907456317347
 20
147.2129557831899
 30
0.0000000000000000
 11
903.3907456317347
 21
110.0647789492388
 31
0.0000000000000000
  0
MTEXT
  5
21C
100
AcDbEntity
  8
MAIN0
  6
BYBLOCK
 62
0
100
AcDbMText
 10
888.3907456316737
 20
124.7647787585040
 30
0.0000000000000000
 40
12.39999961853027
 41
0.0000000000000000
 71
     5
 72
     1
  1
\A1;30
 11
1.000000000000000
 21
0.0000000000000000
 31
0.0000000000000000
  7
STANDARD
  0
ENDBLK
  5
21D
100
AcDbEntity
  8
MAIN0
  6
CONTINUOUS
 62
3
100
AcDbBlockEnd
  0
BLOCK
  5
21F
100
AcDbEntity
  8
MAIN0
  6
CONTINUOUS
 62
3
100
AcDbBlockBegin
  2
*D17
 70
    65
 10
0.0
 20
0.0
 30
0.0
  0
LINE
  5
220
100
AcDbEntity
  8
MAIN0
  6
BYBLOCK
 62
0
100
AcDbLine
 10
905.5907456794184
 20
173.4129558308738
 30
0.0000000000000000
 11
934.2026846613662
 21
173.4129558308738
 31
0.0000000000000000
  0
LINE
  5
221
100
AcDbEntity
  8
MAIN0
  6
BYBLOCK
 62
0
100
AcDbLine
 10
926.2026846613662
 20
173.4129558308738
 30
0.0000000000000000
 11
926.2026846613662
 21
155.9129558308738
 31
0.0000000000000000
  0
INSERT
  5
222
100
AcDbEntity
  8
MAIN0
  6
BYBLOCK
 62
0
100
AcDbBlockReference
  2
_OPEN
 10
926.2026846613662
 20
173.4129558308738
 30
0.0000000000000000
 41
8.000000000000000
 42
8.000000000000000
 43
8.000000000000000
 50
270.0000000000000
  0
INSERT
  5
223
100
AcDbEntity
  8
MAIN0
  6
BYBLOCK
 62
0
100
AcDbBlockReference
  2
_OPEN
 10
926.2026846613662
 20
155.9129558308738
 30
0.0000000000000000
 41
8.000000000000000
 42
8.000000000000000
 43
8.000000000000000
 50
90.00000000000000
  0
LINE
  5
224
100
AcDbEntity
  8
MAIN0
  6
BYBLOCK
 62
0
100
AcDbLine
 10
926.2026846613662
 20
181.4129558308738
 30
0.0000000000000000
 11
926.2026846613662
 21
204.8167160909039
 31
0.0000000000000000
  0
LINE
  5
225
100
AcDbEntity
  8
MAIN0
  6
BYBLOCK
 62
0
100
AcDbLine
 10
926.2026846613662
 20
147.9129558308738
 30
0.0000000000000000
 11
926.2026846613662
 21
143.9129558308738
 31
0.0000000000000000
  0
LINE
  5
226
100
AcDbEntity
  8
MAIN0
  6
BYBLOCK
 62
0
100
AcDbLine
 10
905.5907456794184
 20
155.9129558308738
 30
0.0000000000000000
 11
934.2026846613662
 21
155.9129558308738
 31
0.0000000000000000
  0
MTEXT
  5
227
100
AcDbEntity
  8
MAIN0
  6
BYBLOCK
 62
0
100
AcDbMText
 10
918.5026848521011
 20
190.2167157094342
 30
0.0000000000000000
 40
12.39999961853027
 41
0.0000000000000000
 71
     5
 72
     1
  1
\A1;17.5
 11
6.123233995736766e-017
 21
1.000000000000000
 31
0.0000000000000000
  7
STANDARD
  0
ENDBLK
  5
228
100
AcDbEntity
  8
MAIN0
  6
CONTINUOUS
 62
3
100
AcDbBlockEnd
  0
BLOCK
  5
23F
100
AcDbEntity
  8
MAIN0
  6
CONTINUOUS
 62
3
100
AcDbBlockBegin
  2
*D18
 70
    65
 10
0.0
 20
0.0
 30
0.0
  0
LINE
  5
240
100
AcDbEntity
  8
MAIN0
  6
BYBLOCK
 62
0
100
AcDbLine
 10
1540.867435799202
 20
924.9600023775784
 30
0.0000000000000000
 11
1540.867435799202
 21
898.1829050655141
 31
0.0000000000000000
  0
LINE
  5
241
100
AcDbEntity
  8
MAIN0
  6
BYBLOCK
 62
0
100
AcDbLine
 10
1532.867435799202
 20
906.1829050655141
 30
0.0000000000000000
 11
1520.367435799181
 21
906.1829050655141
 31
0.0000000000000000
  0
INSERT
  5
242
100
AcDbEntity
  8
MAIN0
  6
BYBLOCK
 62
0
100
AcDbBlockReference
  2
_OPEN
 10
1540.867435799202
 20
906.1829050655141
 30
0.0000000000000000
 41
8.000000000000000
 42
8.000000000000000
 43
8.000000000000000
 50
360.0000000000000
  0
INSERT
  5
243
100
AcDbEntity
  8
MAIN0
  6
BYBLOCK
 62
0
100
AcDbBlockReference
  2
_OPEN
 10
1512.367435799181
 20
906.1829050655141
 30
0.0000000000000000
 41
8.000000000000000
 42
8.000000000000000
 43
8.000000000000000
 50
180.0000000000000
  0
LINE
  5
244
100
AcDbEntity
  8
MAIN0
  6
BYBLOCK
 62
0
100
AcDbLine
 10
1512.367435799181
 20
965.4109009596559
 30
0.0000000000000000
 11
1512.367435799181
 21
898.1829050655141
 31
0.0000000000000000
  0
MTEXT
  5
245
100
AcDbEntity
  8
MAIN0
  6
BYBLOCK
 62
0
100
AcDbMText
 10
1526.617435799191
 20
912.8829048747792
 30
0.0000000000000000
 40
12.39999961853027
 41
0.0000000000000000
 71
     5
 72
     1
  1
\A1;28.5
 11
1.000000000000000
 21
0.0000000000000000
 31
0.0000000000000000
  7
STANDARD
  0
ENDBLK
  5
246
100
AcDbEntity
  8
MAIN0
  6
CONTINUOUS
 62
3
100
AcDbBlockEnd
  0
BLOCK
  5
248
100
AcDbEntity
  8
MAIN0
  6
CONTINUOUS
 62
3
100
AcDbBlockBegin
  2
*D19
 70
    65
 10
0.0
 20
0.0
 30
0.0
  0
LINE
  5
249
100
AcDbEntity
  8
MAIN0
  6
BYBLOCK
 62
0
100
AcDbLine
 10
1543.067435846859
 20
978.1109010073494
 30
0.0000000000000000
 11
1579.585288921279
 21
978.1109010073494
 31
0.0000000000000000
  0
LINE
  5
24A
100
AcDbEntity
  8
MAIN0
  6
BYBLOCK
 62
0
100
AcDbLine
 10
1571.585288921279
 20
978.1109010073494
 30
0.0000000000000000
 11
1571.585288921279
 21
959.1109010073494
 31
0.0000000000000000
  0
INSERT
  5
24B
100
AcDbEntity
  8
MAIN0
  6
BYBLOCK
 62
0
100
AcDbBlockReference
  2
_OPEN
 10
1571.585288921279
 20
978.1109010073494
 30
0.0000000000000000
 41
8.000000000000000
 42
8.000000000000000
 43
8.000000000000000
 50
270.0000000000000
  0
INSERT
  5
24C
100
AcDbEntity
  8
MAIN0
  6
BYBLOCK
 62
0
100
AcDbBlockReference
  2
_OPEN
 10
1571.585288921279
 20
959.1109010073494
 30
0.0000000000000000
 41
8.000000000000000
 42
8.000000000000000
 43
8.000000000000000
 50
90.00000000000000
  0
LINE
  5
24D
100
AcDbEntity
  8
MAIN0
  6
BYBLOCK
 62
0
100
AcDbLine
 10
1571.585288921279
 20
986.1109010073494
 30
0.0000000000000000
 11
1571.585288921279
 21
990.1109010073494
 31
0.0000000000000000
  0
LINE
  5
24E
100
AcDbEntity
  8
MAIN0
  6
BYBLOCK
 62
0
100
AcDbLine
 10
1571.585288921279
 20
951.1109010073494
 30
0.0000000000000000
 11
1571.585288921279
 21
947.1109010073494
 31
0.0000000000000000
  0
LINE
  5
24F
100
AcDbEntity
  8
MAIN0
  6
BYBLOCK
 62
0
100
AcDbLine
 10
1543.067435846869
 20
959.1109010073494
 30
0.0000000000000000
 11
1579.585288921279
 21
959.1109010073494
 31
0.0000000000000000
  0
MTEXT
  5
250
100
AcDbEntity
  8
MAIN0
  6
BYBLOCK
 62
0
100
AcDbMText
 10
1564.885289112014
 20
968.6109010073494
 30
0.0000000000000000
 40
12.39999961853027
 41
0.0000000000000000
 71
     5
 72
     1
  1
\A1;19
 11
6.123233995736766e-017
 21
1.000000000000000
 31
0.0000000000000000
  7
STANDARD
  0
ENDBLK
  5
251
100
AcDbEntity
  8
MAIN0
  6
CONTINUOUS
 62
3
100
AcDbBlockEnd
  0
BLOCK
  5
253
100
AcDbEntity
  8
MAIN0
  6
CONTINUOUS
 62
3
100
AcDbBlockBegin
  2
*D20
 70
    65
 10
0.0
 20
0.0
 30
0.0
  0
LINE
  5
254
100
AcDbEntity
  8
MAIN0
  6
BYBLOCK
 62
0
100
AcDbLine
 10
1540.867435799166
 20
1013.141170278797
 30
0.0000000000000000
 11
1540.867435799192
 21
1025.635130323181
 31
0.0000000000000000
  0
LINE
  5
255
100
AcDbEntity
  8
MAIN0
  6
BYBLOCK
 62
0
100
AcDbLine
 10
1532.867435799175
 20
1017.635130323181
 30
0.0000000000000000
 11
1508.867435799180
 21
1017.635130323181
 31
0.0000000000000000
  0
INSERT
  5
256
100
AcDbEntity
  8
MAIN0
  6
BYBLOCK
 62
0
100
AcDbBlockReference
  2
_OPEN
 10
1540.867435799175
 20
1017.635130323181
 30
0.0000000000000000
 41
8.000000000000000
 42
8.000000000000000
 43
8.000000000000000
 50
360.0000000000000
  0
INSERT
  5
257
100
AcDbEntity
  8
MAIN0
  6
BYBLOCK
 62
0
100
AcDbBlockReference
  2
_OPEN
 10
1500.867435799180
 20
1017.635130323181
 30
0.0000000000000000
 41
8.000000000000000
 42
8.000000000000000
 43
8.000000000000000
 50
180.0000000000000
  0
LINE
  5
258
100
AcDbEntity
  8
MAIN0
  6
BYBLOCK
 62
0
100
AcDbLine
 10
1500.867435799180
 20
971.8109010550187
 30
0.0000000000000000
 11
1500.867435799180
 21
1025.635130323181
 31
0.0000000000000000
  0
MTEXT
  5
259
100
AcDbEntity
  8
MAIN0
  6
BYBLOCK
 62
0
100
AcDbMText
 10
1520.867435799178
 20
1024.335130132446
 30
0.0000000000000000
 40
12.39999961853027
 41
0.0000000000000000
 71
     5
 72
     1
  1
\A1;40
 11
1.000000000000000
 21
0.0000000000000000
 31
0.0000000000000000
  7
STANDARD
  0
ENDBLK
  5
25A
100
AcDbEntity
  8
MAIN0
  6
CONTINUOUS
 62
3
100
AcDbBlockEnd
  0
BLOCK
  5
265
100
AcDbEntity
  8
MAIN0
  6
CONTINUOUS
 62
3
100
AcDbBlockBegin
  2
*D21
 70
    65
 10
0.0
 20
0.0
 30
0.0
  0
LINE
  5
266
100
AcDbEntity
  8
MAIN0
  6
BYBLOCK
 62
0
100
AcDbLine
 10
343.6177121105086
 20
305.8420009481759
 30
0.0000000000000000
 11
397.8170279501576
 21
305.8420009481759
 31
0.0000000000000000
  0
LINE
  5
267
100
AcDbEntity
  8
MAIN0
  6
BYBLOCK
 62
0
100
AcDbLine
 10
389.8170279501576
 20
305.8420009481759
 30
0.0000000000000000
 11
389.8170279501576
 21
310.8420009481940
 31
0.0000000000000000
  0
INSERT
  5
268
100
AcDbEntity
  8
MAIN0
  6
BYBLOCK
 62
0
100
AcDbBlockReference
  2
_OPEN
 10
389.8170279501576
 20
305.8420009481759
 30
0.0000000000000000
 41
8.000000000000000
 42
8.000000000000000
 43
8.000000000000000
 50
90.00000000000000
  0
INSERT
  5
269
100
AcDbEntity
  8
MAIN0
  6
BYBLOCK
 62
0
100
AcDbBlockReference
  2
_OPEN
 10
389.8170279501576
 20
310.8420009481940
 30
0.0000000000000000
 41
8.000000000000000
 42
8.000000000000000
 43
8.000000000000000
 50
270.0000000000000
  0
LINE
  5
26A
100
AcDbEntity
  8
MAIN0
  6
BYBLOCK
 62
0
100
AcDbLine
 10
389.8170279501576
 20
297.8420009481759
 30
0.0000000000000000
 11
389.8170279501576
 21
286.8024404753224
 31
0.0000000000000000
  0
LINE
  5
26B
100
AcDbEntity
  8
MAIN0
  6
BYBLOCK
 62
0
100
AcDbLine
 10
389.8170279501576
 20
318.8420009481940
 30
0.0000000000000000
 11
389.8170279501576
 21
322.8420009481940
 31
0.0000000000000000
  0
MTEXT
  5
26C
100
AcDbEntity
  8
MAIN0
  6
BYBLOCK
 62
0
100
AcDbMText
 10
381.6170281408924
 20
290.8024404753224
 30
0.0000000000000000
 40
12.39999961853027
 41
0.0000000000000000
 71
     5
 72
     1
  1
\A1;5
 11
6.123233995736766e-017
 21
1.000000000000000
 31
0.0000000000000000
  7
STANDARD
  0
ENDBLK
  5
26D
100
AcDbEntity
  8
MAIN0
  6
CONTINUOUS
 62
3
100
AcDbBlockEnd
  0
BLOCK
  5
27F
100
AcDbEntity
  8
MAIN0
  6
CONTINUOUS
 62
3
100
AcDbBlockBegin
  2
*D22
 70
    65
 10
0.0
 20
0.0
 30
0.0
  0
LINE
  5
280
100
AcDbEntity
  8
MAIN0
  6
BYBLOCK
 62
0
100
AcDbLine
 10
827.6907455839233
 20
1043.610901007556
 30
0.0000000000000000
 11
616.0437063717934
 21
1043.610901007556
 31
0.0000000000000000
  0
LINE
  5
281
100
AcDbEntity
  8
MAIN0
  6
BYBLOCK
 62
0
100
AcDbLine
 10
624.0437063717934
 20
1035.610901007556
 30
0.0000000000000000
 11
624.0437063717934
 21
911.6109010075564
 31
0.0000000000000000
  0
INSERT
  5
282
100
AcDbEntity
  8
MAIN0
  6
BYBLOCK
 62
0
100
AcDbBlockReference
  2
_OPEN
 10
624.0437063717934
 20
1043.610901007556
 30
0.0000000000000000
 41
8.000000000000000
 42
8.000000000000000
 43
8.000000000000000
 50
90.00000000000000
  0
INSERT
  5
283
100
AcDbEntity
  8
MAIN0
  6
BYBLOCK
 62
0
100
AcDbBlockReference
  2
_OPEN
 10
624.0437063717934
 20
903.6109010075564
 30
0.0000000000000000
 41
8.000000000000000
 42
8.000000000000000
 43
8.000000000000000
 50
270.0000000000000
  0
LINE
  5
284
100
AcDbEntity
  8
MAIN0
  6
BYBLOCK
 62
0
100
AcDbLine
 10
827.6907455839233
 20
903.6109010075564
 30
0.0000000000000000
 11
616.0437063717934
 21
903.6109010075564
 31
0.0000000000000000
  0
MTEXT
  5
285
100
AcDbEntity
  8
MAIN0
  6
BYBLOCK
 62
0
100
AcDbMText
 10
617.3437065625283
 20
973.6109010075563
 30
0.0000000000000000
 40
12.39999961853027
 41
0.0000000000000000
 71
     5
 72
     1
  1
\A1;\U+2205140
 11
6.123233995736766e-017
 21
1.000000000000000
 31
0.0000000000000000
  7
STANDARD
  0
ENDBLK
  5
286
100
AcDbEntity
  8
MAIN0
  6
CONTINUOUS
 62
3
100
AcDbBlockEnd
  0
BLOCK
  5
288
100
AcDbEntity
  8
MAIN0
  6
CONTINUOUS
 62
3
100
AcDbBlockBegin
  2
*D23
 70
    65
 10
0.0
 20
0.0
 30
0.0
  0
LINE
  5
289
100
AcDbEntity
  8
MAIN0
  6
BYBLOCK
 62
0
100
AcDbLine
 10
827.6907455839232
 20
690.8420009481944
 30
0.0000000000000000
 11
616.0437063717934
 21
690.8420009481944
 31
0.0000000000000000
  0
LINE
  5
28A
100
AcDbEntity
  8
MAIN0
  6
BYBLOCK
 62
0
100
AcDbLine
 10
624.0437063717934
 20
682.8420009481944
 30
0.0000000000000000
 11
624.0437063717934
 21
318.8420009481940
 31
0.0000000000000000
  0
INSERT
  5
28B
100
AcDbEntity
  8
MAIN0
  6
BYBLOCK
 62
0
100
AcDbBlockReference
  2
_OPEN
 10
624.0437063717934
 20
690.8420009481944
 30
0.0000000000000000
 41
8.000000000000000
 42
8.000000000000000
 43
8.000000000000000
 50
90.00000000000000
  0
INSERT
  5
28C
100
AcDbEntity
  8
MAIN0
  6
BYBLOCK
 62
0
100
AcDbBlockReference
  2
_OPEN
 10
624.0437063717934
 20
310.8420009481940
 30
0.0000000000000000
 41
8.000000000000000
 42
8.000000000000000
 43
8.000000000000000
 50
270.0000000000000
  0
LINE
  5
28D
100
AcDbEntity
  8
MAIN0
  6
BYBLOCK
 62
0
100
AcDbLine
 10
866.1907455839238
 20
310.8420009481940
 30
0.0000000000000000
 11
616.0437063717934
 21
310.8420009481940
 31
0.0000000000000000
  0
MTEXT
  5
28E
100
AcDbEntity
  8
MAIN0
  6
BYBLOCK
 62
0
100
AcDbMText
 10
617.3437065625283
 20
500.8420009481941
 30
0.0000000000000000
 40
12.39999961853027
 41
0.0000000000000000
 71
     5
 72
     1
  1
\A1;380
 11
6.123233995736766e-017
 21
1.000000000000000
 31
0.0000000000000000
  7
STANDARD
  0
ENDBLK
  5
28F
100
AcDbEntity
  8
MAIN0
  6
CONTINUOUS
 62
3
100
AcDbBlockEnd
  0
BLOCK
  5
291
100
AcDbEntity
  8
MAIN0
  6
CONTINUOUS
 62
3
100
AcDbBlockBegin
  2
*D24
 70
    65
 10
0.0
 20
0.0
 30
0.0
  0
LINE
  5
292
100
AcDbEntity
  8
MAIN0
  6
BYBLOCK
 62
0
100
AcDbLine
 10
771.3907456316092
 20
682.0420009958777
 30
0.0000000000000000
 11
771.3907456316092
 21
717.6956908430213
 31
0.0000000000000000
  0
LINE
  5
293
100
AcDbEntity
  8
MAIN0
  6
BYBLOCK
 62
0
100
AcDbLine
 10
779.3907456316092
 20
709.6956908430213
 30
0.0000000000000000
 11
1164.390745631607
 21
709.6956908430213
 31
0.0000000000000000
  0
INSERT
  5
294
100
AcDbEntity
  8
MAIN0
  6
BYBLOCK
 62
0
100
AcDbBlockReference
  2
_OPEN
 10
771.3907456316092
 20
709.6956908430213
 30
0.0000000000000000
 41
8.000000000000000
 42
8.000000000000000
 43
8.000000000000000
 50
180.0000000000000
  0
INSERT
  5
295
100
AcDbEntity
  8
MAIN0
  6
BYBLOCK
 62
0
100
AcDbBlockReference
  2
_OPEN
 10
1172.390745631607
 20
709.6956908430213
 30
0.0000000000000000
 41
8.000000000000000
 42
8.000000000000000
 43
8.000000000000000
 50
0.0000000000000000
  0
LINE
  5
296
100
AcDbEntity
  8
MAIN0
  6
BYBLOCK
 62
0
100
AcDbLine
 10
1172.390745631607
 20
674.0420009958775
 30
0.0000000000000000
 11
1172.390745631607
 21
717.6956908430213
 31
0.0000000000000000
  0
MTEXT
  5
297
100
AcDbEntity
  8
MAIN0
  6
BYBLOCK
 62
0
100
AcDbMText
 10
971.8907456316083
 20
716.3956906522865
 30
0.0000000000000000
 40
12.39999961853027
 41
0.0000000000000000
 71
     5
 72
     1
  1
\A1;401
 11
1.000000000000000
 21
0.0000000000000000
 31
0.0000000000000000
  7
STANDARD
  0
ENDBLK
  5
298
100
AcDbEntity
  8
MAIN0
  6
CONTINUOUS
 62
3
100
AcDbBlockEnd
  0
BLOCK
  5
29A
100
AcDbEntity
  8
MAIN0
  6
CONTINUOUS
 62
3
100
AcDbBlockBegin
  2
*D25
 70
    65
 10
0.0
 20
0.0
 30
0.0
  0
LINE
  5
29B
100
AcDbEntity
  8
MAIN0
  6
BYBLOCK
 62
0
100
AcDbLine
 10
1172.390745631607
 20
674.0420009958775
 30
0.0000000000000000
 11
1172.390745631607
 21
717.6956908430213
 31
0.0000000000000000
  0
LINE
  5
29C
100
AcDbEntity
  8
MAIN0
  6
BYBLOCK
 62
0
100
AcDbLine
 10
1172.390745631607
 20
709.6956908430213
 30
0.0000000000000000
 11
1174.390745631607
 21
709.6956908430213
 31
0.0000000000000000
  0
INSERT
  5
29D
100
AcDbEntity
  8
MAIN0
  6
BYBLOCK
 62
0
100
AcDbBlockReference
  2
_OPEN
 10
1172.390745631607
 20
709.6956908430213
 30
0.0000000000000000
 41
8.000000000000000
 42
8.000000000000000
 43
8.000000000000000
 50
0.0000000000000000
  0
INSERT
  5
29E
100
AcDbEntity
  8
MAIN0
  6
BYBLOCK
 62
0
100
AcDbBlockReference
  2
_DOT
 10
1175.390745631607
 20
709.6956908430213
 30
0.0000000000000000
 41
4.000000000000000
 42
4.000000000000000
 43
4.000000000000000
 50
0.0000000000000000
  0
LINE
  5
29F
100
AcDbEntity
  8
MAIN0
  6
BYBLOCK
 62
0
100
AcDbLine
 10
1164.390745631607
 20
709.6956908430213
 30
0.0000000000000000
 11
1154.490570704851
 21
709.6956908430213
 31
0.0000000000000000
  0
LINE
  5
2A0
100
AcDbEntity
  8
MAIN0
  6
BYBLOCK
 62
0
100
AcDbLine
 10
1175.390745631607
 20
655.3873004576421
 30
0.0000000000000000
 11
1175.390745631607
 21
717.6956908430213
 31
0.0000000000000000
  0
MTEXT
  5
2A1
100
AcDbEntity
  8
MAIN0
  6
BYBLOCK
 62
0
100
AcDbMText
 10
1158.490570704851
 20
717.8956906522865
 30
0.0000000000000000
 40
12.39999961853027
 41
0.0000000000000000
 71
     5
 72
     1
  1
\A1;3
 11
1.000000000000000
 21
0.0000000000000000
 31
0.0000000000000000
  7
STANDARD
  0
ENDBLK
  5
2A2
100
AcDbEntity
  8
MAIN0
  6
CONTINUOUS
 62
3
100
AcDbBlockEnd
  0
BLOCK
  5
2A4
100
AcDbEntity
  8
MAIN0
  6
CONTINUOUS
 62
3
100
AcDbBlockBegin
  2
*D26
 70
    65
 10
0.0
 20
0.0
 30
0.0
  0
LINE
  5
2A5
100
AcDbEntity
  8
MAIN0
  6
BYBLOCK
 62
0
100
AcDbLine
 10
1175.390745631607
 20
655.3873004576421
 30
0.0000000000000000
 11
1175.390745631607
 21
717.6956908430213
 31
0.0000000000000000
  0
LINE
  5
2A6
100
AcDbEntity
  8
MAIN0
  6
BYBLOCK
 62
0
100
AcDbLine
 10
1176.390745631607
 20
709.6956908430213
 30
0.0000000000000000
 11
1227.802327631609
 21
709.6956908430213
 31
0.0000000000000000
  0
INSERT
  5
2A7
100
AcDbEntity
  8
MAIN0
  6
BYBLOCK
 62
0
100
AcDbBlockReference
  2
_DOT
 10
1175.390745631607
 20
709.6956908430213
 30
0.0000000000000000
 41
4.000000000000000
 42
4.000000000000000
 43
4.000000000000000
 50
180.0000000000000
  0
INSERT
  5
2A8
100
AcDbEntity
  8
MAIN0
  6
BYBLOCK
 62
0
100
AcDbBlockReference
  2
_OPEN
 10
1227.802327631609
 20
709.6956908430213
 30
0.0000000000000000
 41
8.000000000000000
 42
8.000000000000000
 43
8.000000000000000
 50
180.0000000000000
  0
LINE
  5
2A9
100
AcDbEntity
  8
MAIN0
  6
BYBLOCK
 62
0
100
AcDbLine
 10
1235.802327631609
 20
709.6956908430213
 30
0.0000000000000000
 11
1239.802327631609
 21
709.6956908430213
 31
0.0000000000000000
  0
LINE
  5
2AA
100
AcDbEntity
  8
MAIN0
  6
BYBLOCK
 62
0
100
AcDbLine
 10
1227.802327631609
 20
624.5420009956835
 30
0.0000000000000000
 11
1227.802327631609
 21
717.6956908430213
 31
0.0000000000000000
  0
MTEXT
  5
2AB
100
AcDbEntity
  8
MAIN0
  6
BYBLOCK
 62
0
100
AcDbMText
 10
1201.596536631608
 20
716.3956906522865
 30
0.0000000000000000
 40
12.39999961853027
 41
0.0000000000000000
 71
     5
 72
     1
  1
\A1;52.4
 11
1.000000000000000
 21
0.0000000000000000
 31
0.0000000000000000
  7
STANDARD
  0
ENDBLK
  5
2AC
100
AcDbEntity
  8
MAIN0
  6
CONTINUOUS
 62
3
100
AcDbBlockEnd
  0
BLOCK
  5
2AE
100
AcDbEntity
  8
MAIN0
  6
CONTINUOUS
 62
3
100
AcDbBlockBegin
  2
*D27
 70
    65
 10
0.0
 20
0.0
 30
0.0
  0
LINE
  5
2AF
100
AcDbEntity
  8
MAIN0
  6
BYBLOCK
 62
0
100
AcDbLine
 10
1227.802327631609
 20
624.5420009956835
 30
0.0000000000000000
 11
1227.802327631609
 21
717.6956908430213
 31
0.0000000000000000
  0
LINE
  5
2B0
100
AcDbEntity
  8
MAIN0
  6
BYBLOCK
 62
0
100
AcDbLine
 10
1235.802327631609
 20
709.6956908430213
 30
0.0000000000000000
 11
1289.802327631609
 21
709.6956908430213
 31
0.0000000000000000
  0
INSERT
  5
2B1
100
AcDbEntity
  8
MAIN0
  6
BYBLOCK
 62
0
100
AcDbBlockReference
  2
_OPEN
 10
1227.802327631609
 20
709.6956908430213
 30
0.0000000000000000
 41
8.000000000000000
 42
8.000000000000000
 43
8.000000000000000
 50
180.0000000000000
  0
INSERT
  5
2B2
100
AcDbEntity
  8
MAIN0
  6
BYBLOCK
 62
0
100
AcDbBlockReference
  2
_OPEN
 10
1297.802327631609
 20
709.6956908430213
 30
0.0000000000000000
 41
8.000000000000000
 42
8.000000000000000
 43
8.000000000000000
 50
0.0000000000000000
  0
LINE
  5
2B3
100
AcDbEntity
  8
MAIN0
  6
BYBLOCK
 62
0
100
AcDbLine
 10
1297.802327631609
 20
709.6956908430213
 30
0.0000000000000000
 11
1370.746056041819
 21
709.6956908430213
 31
0.0000000000000000
  0
LINE
  5
2B4
100
AcDbEntity
  8
MAIN0
  6
BYBLOCK
 62
0
100
AcDbLine
 10
1297.802327631609
 20
624.5420009956835
 30
0.0000000000000000
 11
1297.802327631609
 21
717.6956908430213
 31
0.0000000000000000
  0
MTEXT
  5
2B5
100
AcDbEntity
  8
MAIN0
  6
BYBLOCK
 62
0
100
AcDbMText
 10
1336.346054515940
 20
717.8956906522865
 30
0.0000000000000000
 40
12.39999961853027
 41
0.0000000000000000
 71
     5
 72
     1
  1
\A1;0～MAX 70
 11
1.000000000000000
 21
0.0000000000000000
 31
0.0000000000000000
  7
KNJYOKO
  0
ENDBLK
  5
2B6
100
AcDbEntity
  8
MAIN0
  6
CONTINUOUS
 62
3
100
AcDbBlockEnd
  0
BLOCK
  5
2D4
100
AcDbEntity
  8
MAIN0
  6
BYBLOCK
 62
3
100
AcDbBlockBegin
  2
*X0
 70
     1
 10
0.0
 20
0.0
 30
0.0
  0
LINE
  5
2D5
100
AcDbEntity
  8
MAIN0
  6
BYBLOCK
 62
0
100
AcDbLine
 10
1286.543997382002
 20
620.8420009482014
 30
0.0000000000000000
 11
1290.981819555531
 21
625.2798231217296
 31
0.0000000000000000
  0
LINE
  5
2D6
100
AcDbEntity
  8
MAIN0
  6
BYBLOCK
 62
0
100
AcDbLine
 10
1286.543997382002
 20
625.0846416353207
 30
0.0000000000000000
 11
1288.292093139025
 21
626.8327373923446
 31
0.0000000000000000
  0
LINE
  5
2D7
100
AcDbEntity
  8
MAIN0
  6
BYBLOCK
 62
0
100
AcDbLine
 10
1286.543997382003
 20
616.5993602610818
 30
0.0000000000000000
 11
1293.671545972037
 21
623.7269088511164
 31
0.0000000000000000
  0
LINE
  5
2D8
100
AcDbEntity
  8
MAIN0
  6
BYBLOCK
 62
0
100
AcDbLine
 10
1290.058210845155
 20
615.8709330371141
 30
0.0000000000000000
 11
1296.361272388542
 21
622.1739945805011
 31
0.0000000000000000
  0
ENDBLK
  5
2D9
100
AcDbEntity
  8
MAIN0
  6
BYBLOCK
 62
3
100
AcDbBlockEnd
  0
BLOCK
  5
316
100
AcDbEntity
  8
MAIN0
  6
BYBLOCK
 62
3
100
AcDbBlockBegin
  2
*X1
 70
     1
 10
0.0
 20
0.0
 30
0.0
  0
LINE
  5
317
100
AcDbEntity
  8
MAIN0
  6
BYBLOCK
 62
0
100
AcDbLine
 10
1216.543997382264
 20
973.6109010072881
 30
0.0000000000000000
 11
1220.981819555792
 21
978.0487231808164
 31
0.0000000000000000
  0
LINE
  5
318
100
AcDbEntity
  8
MAIN0
  6
BYBLOCK
 62
0
100
AcDbLine
 10
1216.543997382264
 20
977.8535416944078
 30
0.0000000000000000
 11
1218.292093139287
 21
979.6016374514315
 31
0.0000000000000000
  0
LINE
  5
319
100
AcDbEntity
  8
MAIN0
  6
BYBLOCK
 62
0
100
AcDbLine
 10
1216.543997382264
 20
969.3682603201687
 30
0.0000000000000000
 11
1223.671545972299
 21
976.4958089102034
 31
0.0000000000000000
  0
LINE
  5
31A
100
AcDbEntity
  8
MAIN0
  6
BYBLOCK
 62
0
100
AcDbLine
 10
1220.058210845417
 20
968.6398330962007
 30
0.0000000000000000
 11
1226.361272388804
 21
974.9428946395881
 31
0.0000000000000000
  0
ENDBLK
  5
31B
100
AcDbEntity
  8
MAIN0
  6
BYBLOCK
 62
3
100
AcDbBlockEnd
  0
BLOCK
  5
419
100
AcDbEntity
  8
MAIN0
  6
BYBLOCK
 62
3
100
AcDbBlockBegin
  2
*X2
 70
     1
 10
0.0
 20
0.0
 30
0.0
  0
LINE
  5
41A
100
AcDbEntity
  8
MAIN0
  6
BYBLOCK
 62
0
100
AcDbLine
 10
1216.543997382264
 20
620.8420009480503
 30
0.0000000000000000
 11
1220.981819555793
 21
625.2798231215786
 31
0.0000000000000000
  0
LINE
  5
41B
100
AcDbEntity
  8
MAIN0
  6
BYBLOCK
 62
0
100
AcDbLine
 10
1216.543997382264
 20
625.0846416351700
 30
0.0000000000000000
 11
1218.292093139287
 21
626.8327373921937
 31
0.0000000000000000
  0
LINE
  5
41C
100
AcDbEntity
  8
MAIN0
  6
BYBLOCK
 62
0
100
AcDbLine
 10
1216.543997382264
 20
616.5993602609309
 30
0.0000000000000000
 11
1223.671545972299
 21
623.7269088509656
 31
0.0000000000000000
  0
LINE
  5
41D
100
AcDbEntity
  8
MAIN0
  6
BYBLOCK
 62
0
100
AcDbLine
 10
1220.058210845417
 20
615.8709330369630
 30
0.0000000000000000
 11
1226.361272388804
 21
622.1739945803504
 31
0.0000000000000000
  0
ENDBLK
  5
41E
100
AcDbEntity
  8
MAIN0
  6
BYBLOCK
 62
3
100
AcDbBlockEnd
  0
ENDSEC
  0
SECTION
  2
ENTITIES
  0
LINE
  5
46
100
AcDbEntity
  8
MAIN0
  6
CONTINUOUS
 62
3
100
AcDbLine
 10
869.3907456316075
 20
310.8420009481940
 30
0.0000000000000000
 11
1189.390745631607
 21
310.8420009481940
 31
0.0000000000000000
  0
LINE
  5
47
100
AcDbEntity
  8
MAIN0
  6
CONTINUOUS
 62
3
100
AcDbLine
 10
1149.390745631607
 20
345.8420009481940
 30
0.0000000000000000
 11
1189.390745631607
 21
345.8420009481940
 31
0.0000000000000000
  0
LINE
  5
48
100
AcDbEntity
  8
MAIN0
  6
CONTINUOUS
 62
3
100
AcDbLine
 10
869.3907456316075
 20
565.8420009481940
 30
0.0000000000000000
 11
909.3907456316075
 21
565.8420009481940
 31
0.0000000000000000
  0
LINE
  5
49
100
AcDbEntity
  8
MAIN0
  6
CENTER
 62
3
100
AcDbLine
 10
817.7050966389223
 20
620.8420009481940
 30
0.0000000000000000
 11
1306.825840807007
 21
620.8420009481940
 31
0.0000000000000000
  0
LINE
  5
4A
100
AcDbEntity
  8
MAIN0
  6
CONTINUOUS
 62
3
100
AcDbLine
 10
1189.390745631607
 20
345.8420009481940
 30
0.0000000000000000
 11
1189.390745631607
 21
310.8420009481940
 31
0.0000000000000000
  0
LINE
  5
4B
100
AcDbEntity
  8
MAIN0
  6
CONTINUOUS
 62
3
100
AcDbLine
 10
869.3907456316075
 20
345.8420009481940
 30
0.0000000000000000
 11
869.3907456316075
 21
310.8420009481940
 31
0.0000000000000000
  0
LINE
  5
4C
100
AcDbEntity
  8
MAIN0
  6
CONTINUOUS
 62
3
100
AcDbLine
 10
915.3907456316075
 20
559.8420009481940
 30
0.0000000000000000
 11
915.3907456316075
 21
349.8420009481940
 31
0.0000000000000000
  0
ARC
  5
4D
100
AcDbEntity
  8
MAIN0
  6
CONTINUOUS
 62
3
100
AcDbCircle
 10
1185.390745631607
 20
339.8420009481940
 30
0.0000000000000000
 40
4.000000000000000
100
AcDbArc
 50
0.0000000000000000
 51
90.00000000000000
  0
ARC
  5
4E
100
AcDbEntity
  8
MAIN0
  6
CONTINUOUS
 62
3
100
AcDbCircle
 10
873.3907456316075
 20
339.8420009481940
 30
0.0000000000000000
 40
4.000000000000000
100
AcDbArc
 50
90.00000000000000
 51
180.0000000000000
  0
LINE
  5
4F
100
AcDbEntity
  8
MAIN0
  6
CONTINUOUS
 62
3
100
AcDbLine
 10
873.3907456316075
 20
343.8420009481940
 30
0.0000000000000000
 11
909.3907456316075
 21
343.8420009481940
 31
0.0000000000000000
  0
LINE
  5
50
100
AcDbEntity
  8
MAIN0
  6
CONTINUOUS
 62
3
100
AcDbLine
 10
1147.994707556973
 20
343.8420009481940
 30
0.0000000000000000
 11
1185.390745631607
 21
343.8420009481940
 31
0.0000000000000000
  0
ARC
  5
51
100
AcDbEntity
  8
MAIN0
  6
CONTINUOUS
 62
3
100
AcDbCircle
 10
1149.390745631607
 20
349.8420009481940
 30
0.0000000000000000
 40
6.000000000000000
100
AcDbArc
 50
180.0000000000000
 51
270.0000000000000
  0
LINE
  5
52
100
AcDbEntity
  8
MAIN0
  6
CONTINUOUS
 62
3
100
AcDbLine
 10
884.3907456316075
 20
666.3420009481938
 30
0.0000000000000000
 11
1164.390745631607
 21
666.3420009481938
 31
0.0000000000000000
  0
ARC
  5
53
100
AcDbEntity
  8
MAIN0
  6
CONTINUOUS
 62
3
100
AcDbCircle
 10
909.3907456316075
 20
349.8420009481940
 30
0.0000000000000000
 40
6.000000000000000
100
AcDbArc
 50
270.0000000000000
 51
360.0000000000000
  0
LINE
  5
54
100
AcDbEntity
  8
MAIN0
  6
CONTINUOUS
 62
3
100
AcDbLine
 10
901.8907456316075
 20
305.8420009482279
 30
0.0000000000000000
 11
901.8907456316075
 21
310.8420009481940
 31
0.0000000000000000
  0
LINE
  5
55
100
AcDbEntity
  8
MAIN0
  6
CONTINUOUS
 62
3
100
AcDbLine
 10
901.8907456316074
 20
305.8420009482280
 30
0.0000000000000000
 11
926.8907456316076
 21
305.8420009482691
 31
0.0000000000000000
  0
LINE
  5
56
100
AcDbEntity
  8
MAIN0
  6
CONTINUOUS
 62
3
100
AcDbLine
 10
926.8907456316075
 20
305.8420009482692
 30
0.0000000000000000
 11
926.8907456316075
 21
310.8420009481940
 31
0.0000000000000000
  0
ARC
  5
57
100
AcDbEntity
  8
MAIN0
  6
CONTINUOUS
 62
3
100
AcDbCircle
 10
1147.994707556973
 20
349.8420009481940
 30
0.0000000000000000
 40
6.000000000000000
100
AcDbArc
 50
195.0000000000697
 51
270.0000000000000
  0
LINE
  5
58
100
AcDbEntity
  8
MAIN0
  6
HIDDEN
 62
3
100
AcDbLine
 10
909.3907456316075
 20
588.3420009481940
 30
0.0000000000000000
 11
884.3907456316075
 21
588.3420009481940
 31
0.0000000000000000
  0
LINE
  5
59
100
AcDbEntity
  8
MAIN0
  6
HIDDEN
 62
3
100
AcDbLine
 10
909.3907456316075
 20
653.3420009481938
 30
0.0000000000000000
 11
884.3907456316075
 21
653.3420009481938
 31
0.0000000000000000
  0
LINE
  5
5A
100
AcDbEntity
  8
MAIN0
  6
CONTINUOUS
 62
3
100
AcDbLine
 10
884.3907456316075
 20
670.8420009481938
 30
0.0000000000000000
 11
1164.390745631607
 21
670.8420009481938
 31
0.0000000000000000
  0
LINE
  5
5B
100
AcDbEntity
  8
MAIN0
  6
CONTINUOUS
 62
3
100
AcDbLine
 10
869.3907456316075
 20
670.8420009481938
 30
0.0000000000000000
 11
1164.390745631608
 21
670.8420009481938
 31
0.0000000000000000
  0
LINE
  5
5C
100
AcDbEntity
  8
MAIN0
  6
CENTER
 62
3
100
AcDbLine
 10
766.1134275556512
 20
973.6109010074317
 30
0.0000000000000000
 11
1241.203587274255
 21
973.6109010074317
 31
0.0000000000000000
  0
LINE
  5
5D
100
AcDbEntity
  8
MAIN0
  6
CONTINUOUS
 62
3
100
AcDbLine
 10
889.3907456316075
 20
1078.610901007432
 30
0.0000000000000000
 11
1169.390745631607
 21
1078.610901007432
 31
0.0000000000000000
  0
LINE
  5
5E
100
AcDbEntity
  8
MAIN0
  6
CENTER
 62
3
100
AcDbLine
 10
1137.390745631607
 20
858.2232667411097
 30
0.0000000000000000
 11
1137.390745631607
 21
1056.770776060958
 31
0.0000000000000000
  0
LINE
  5
5F
100
AcDbEntity
  8
MAIN0
  6
CONTINUOUS
 62
3
100
AcDbLine
 10
884.3907456316074
 20
911.6109010074317
 30
0.0000000000000000
 11
1164.390745631607
 21
911.6109010074317
 31
0.0000000000000000
  0
LINE
  5
60
100
AcDbEntity
  8
MAIN0
  6
CONTINUOUS
 62
3
100
AcDbLine
 10
884.3907456316075
 20
1035.610901007432
 30
0.0000000000000000
 11
1164.390745631607
 21
1035.610901007432
 31
0.0000000000000000
  0
LINE
  5
61
100
AcDbEntity
  8
MAIN0
  6
CONTINUOUS
 62
3
100
AcDbLine
 10
1110.390745631608
 20
911.6109010074446
 30
0.0000000000000000
 11
1110.390745631629
 21
892.6109010110439
 31
0.0000000000000000
  0
LINE
  5
62
100
AcDbEntity
  8
MAIN0
  6
CONTINUOUS
 62
3
100
AcDbLine
 10
1110.390745632938
 20
892.6109010074440
 30
0.0000000000000000
 11
1164.390745630318
 21
892.6109010075032
 31
0.0000000000000000
  0
LINE
  5
63
100
AcDbEntity
  8
MAIN0
  6
CONTINUOUS
 62
3
100
AcDbLine
 10
1116.214269381208
 20
876.6109010074413
 30
0.0000000000000000
 11
1110.390745632938
 21
892.6109010074440
 31
0.0000000000000000
  0
LINE
  5
64
100
AcDbEntity
  8
MAIN0
  6
CONTINUOUS
 62
3
100
AcDbLine
 10
1116.214269381207
 20
876.6109010074418
 30
0.0000000000000000
 11
1158.567221882084
 21
876.6109010074883
 31
0.0000000000000000
  0
LINE
  5
65
100
AcDbEntity
  8
MAIN0
  6
CONTINUOUS
 62
3
100
AcDbLine
 10
1158.567221882085
 20
876.6109010074881
 30
0.0000000000000000
 11
1164.390745630318
 21
892.6109010075029
 31
0.0000000000000000
  0
LINE
  5
66
100
AcDbEntity
  8
MAIN0
  6
CONTINUOUS
 62
3
100
AcDbLine
 10
1164.390745631607
 20
911.6109010075033
 30
0.0000000000000000
 11
1164.390745631628
 21
892.6109010111027
 31
0.0000000000000000
  0
ARC
  5
67
100
AcDbEntity
  8
MAIN0
  6
CONTINUOUS
 62
3
100
AcDbCircle
 10
1137.390745631719
 20
837.7541413718431
 30
0.0000000000000000
 40
20.00000000000000
100
AcDbArc
 50
110.4873151149946
 51
429.5126848855494
  0
LINE
  5
68
100
AcDbEntity
  8
MAIN0
  6
CONTINUOUS
 62
3
100
AcDbLine
 10
1164.390745631607
 20
911.6109010074317
 30
0.0000000000000000
 11
1164.390745631607
 21
1048.610901007432
 31
0.0000000000000000
  0
LINE
  5
69
100
AcDbEntity
  8
MAIN0
  6
CONTINUOUS
 62
3
100
AcDbLine
 10
1172.390745631607
 20
928.6109010074317
 30
0.0000000000000000
 11
1172.390745631607
 21
1018.610901007432
 31
0.0000000000000000
  0
LINE
  5
6A
100
AcDbEntity
  8
MAIN0
  6
CONTINUOUS
 62
3
100
AcDbLine
 10
1110.390745631607
 20
1048.610901007432
 30
0.0000000000000000
 11
1110.390745631607
 21
1035.610901007432
 31
0.0000000000000000
  0
LINE
  5
6B
100
AcDbEntity
  8
MAIN0
  6
CONTINUOUS
 62
3
100
AcDbLine
 10
1110.390745631607
 20
1048.610901007432
 30
0.0000000000000000
 11
1164.390745631607
 21
1048.610901007432
 31
0.0000000000000000
  0
LINE
  5
6C
100
AcDbEntity
  8
MAIN0
  6
CONTINUOUS
 62
3
100
AcDbLine
 10
869.3907456316075
 20
918.6109010074317
 30
0.0000000000000000
 11
869.3907456316075
 21
1028.610901007432
 31
0.0000000000000000
  0
LINE
  5
6D
100
AcDbEntity
  8
MAIN0
  6
CONTINUOUS
 62
3
100
AcDbLine
 10
884.3907456316075
 20
911.6109010074317
 30
0.0000000000000000
 11
884.3907456316075
 21
1035.610901007432
 31
0.0000000000000000
  0
ARC
  5
6E
100
AcDbEntity
  8
MAIN0
  6
CONTINUOUS
 62
3
100
AcDbCircle
 10
1169.390745631607
 20
1058.610901007432
 30
0.0000000000000000
 40
20.00000000000000
100
AcDbArc
 50
0.0000000000000000
 51
90.00000000000000
  0
ARC
  5
6F
100
AcDbEntity
  8
MAIN0
  6
CONTINUOUS
 62
3
100
AcDbCircle
 10
1169.390745631607
 20
888.6109010074317
 30
0.0000000000000000
 40
20.00000000000000
100
AcDbArc
 50
270.0000000000000
 51
360.0000000000000
  0
ARC
  5
70
100
AcDbEntity
  8
MAIN0
  6
CONTINUOUS
 62
3
100
AcDbCircle
 10
889.3907456316075
 20
888.6109010074317
 30
0.0000000000000000
 40
20.00000000000000
100
AcDbArc
 50
180.0000000000000
 51
270.0000000000000
  0
ARC
  5
71
100
AcDbEntity
  8
MAIN0
  6
CONTINUOUS
 62
3
100
AcDbCircle
 10
889.3907456316075
 20
1058.610901007432
 30
0.0000000000000000
 40
20.00000000000000
100
AcDbArc
 50
90.00000000000000
 51
180.0000000000000
  0
ARC
  5
72
100
AcDbEntity
  8
MAIN0
  6
CONTINUOUS
 62
3
100
AcDbCircle
 10
1149.390745631607
 20
354.8420009481940
 30
0.0000000000000000
 40
6.000000000000000
100
AcDbArc
 50
180.0000000000000
 51
270.0000000000000
  0
LINE
  5
73
100
AcDbEntity
  8
MAIN0
  6
CONTINUOUS
 62
3
100
AcDbLine
 10
1149.390745631607
 20
348.8420009481940
 30
0.0000000000000000
 11
1149.390745631607
 21
345.8420009481940
 31
0.0000000000000000
  0
LINE
  5
74
100
AcDbEntity
  8
MAIN0
  6
HIDDEN
 62
3
100
AcDbLine
 10
909.3907456316075
 20
348.8420009481940
 30
0.0000000000000000
 11
909.3907456316075
 21
345.8420009481940
 31
0.0000000000000000
  0
ARC
  5
75
100
AcDbEntity
  8
MAIN0
  6
CONTINUOUS
 62
3
100
AcDbCircle
 10
909.3907456316075
 20
354.8420009481940
 30
0.0000000000000000
 40
6.000000000000000
100
AcDbArc
 50
270.0000000000000
 51
360.0000000000000
  0
LINE
  5
76
100
AcDbEntity
  8
MAIN0
  6
CENTER
 62
3
100
AcDbLine
 10
860.2060163644477
 20
646.8420009481938
 30
0.0000000000000000
 11
911.4846947336516
 21
646.8420009481938
 31
0.0000000000000000
  0
LINE
  5
77
100
AcDbEntity
  8
MAIN0
  6
CENTER
 62
3
100
AcDbLine
 10
331.4177120628249
 20
291.2644798587602
 30
0.0000000000000000
 11
331.4177120628249
 21
702.0358948270891
 31
0.0000000000000000
  0
LINE
  5
78
100
AcDbEntity
  8
MAIN0
  6
CONTINUOUS
 62
3
100
AcDbLine
 10
436.4177120628249
 20
310.8420009481942
 30
0.0000000000000000
 11
436.4177120628249
 21
343.8420009481940
 31
0.0000000000000000
  0
LINE
  5
79
100
AcDbEntity
  8
MAIN0
  6
CONTINUOUS
 62
3
100
AcDbLine
 10
226.4177120628249
 20
310.8420009481940
 30
0.0000000000000000
 11
226.4177120628249
 21
343.8420009481940
 31
0.0000000000000000
  0
LINE
  5
7A
100
AcDbEntity
  8
MAIN0
  6
CONTINUOUS
 62
3
100
AcDbLine
 10
340.4177120628249
 20
315.8420009481940
 30
0.0000000000000000
 11
322.4177120628249
 21
315.8420009481940
 31
0.0000000000000000
  0
LINE
  5
7B
100
AcDbEntity
  8
MAIN0
  6
CONTINUOUS
 62
3
100
AcDbLine
 10
340.4177120628249
 20
305.8420009481759
 30
0.0000000000000000
 11
340.4177120628249
 21
315.8420009481940
 31
0.0000000000000000
  0
LINE
  5
7C
100
AcDbEntity
  8
MAIN0
  6
CONTINUOUS
 62
3
100
AcDbLine
 10
322.4177120628249
 20
305.8420009482121
 30
0.0000000000000000
 11
322.4177120628249
 21
315.8420009481940
 31
0.0000000000000000
  0
LINE
  5
7D
100
AcDbEntity
  8
MAIN0
  6
CONTINUOUS
 62
3
100
AcDbLine
 10
436.4177120628249
 20
310.8420009481940
 30
0.0000000000000000
 11
340.4177120628249
 21
310.8420009481940
 31
0.0000000000000000
  0
LINE
  5
7E
100
AcDbEntity
  8
MAIN0
  6
CONTINUOUS
 62
3
100
AcDbLine
 10
322.4177120628249
 20
310.8420009481940
 30
0.0000000000000000
 11
226.4177120628249
 21
310.8420009481940
 31
0.0000000000000000
  0
LINE
  5
7F
100
AcDbEntity
  8
MAIN0
  6
CONTINUOUS
 62
3
100
AcDbLine
 10
351.4177120628253
 20
345.8420009481940
 30
0.0000000000000000
 11
311.4177120628249
 21
345.8420009481940
 31
0.0000000000000000
  0
LINE
  5
80
100
AcDbEntity
  8
MAIN0
  6
CENTER
 62
3
100
AcDbLine
 10
409.9506622235313
 20
620.8420009481940
 30
0.0000000000000000
 11
252.0895743985400
 21
620.8420009481940
 31
0.0000000000000000
  0
LINE
  5
81
100
AcDbEntity
  8
MAIN0
  6
CONTINUOUS
 62
3
100
AcDbLine
 10
436.4177120628249
 20
343.8420009481940
 30
0.0000000000000000
 11
354.8818136779628
 21
343.8420009481940
 31
0.0000000000000000
  0
LINE
  5
82
100
AcDbEntity
  8
MAIN0
  6
CONTINUOUS
 62
3
100
AcDbLine
 10
307.9536104476870
 20
343.8420009481940
 30
0.0000000000000000
 11
226.4177120628249
 21
343.8420009481940
 31
0.0000000000000000
  0
LINE
  5
83
100
AcDbEntity
  8
MAIN0
  6
CONTINUOUS
 62
3
100
AcDbLine
 10
256.4177120628249
 20
530.8420009481940
 30
0.0000000000000000
 11
256.4177120628249
 21
666.3420009481938
 31
0.0000000000000000
  0
LINE
  5
84
100
AcDbEntity
  8
MAIN0
  6
CONTINUOUS
 62
3
100
AcDbLine
 10
269.4177120628251
 20
530.8420009481940
 30
0.0000000000000000
 11
256.4177120628249
 21
530.8420009481940
 31
0.0000000000000000
  0
LINE
  5
85
100
AcDbEntity
  8
MAIN0
  6
CENTER
 62
3
100
AcDbLine
 10
434.8836635476334
 20
578.3420009481940
 30
0.0000000000000000
 11
384.0449664675468
 21
578.3420009481940
 31
0.0000000000000000
  0
LINE
  5
86
100
AcDbEntity
  8
MAIN0
  6
CONTINUOUS
 62
3
100
AcDbLine
 10
347.4656151908673
 20
348.8420009481940
 30
0.0000000000000000
 11
315.3698089347824
 21
348.8420009481940
 31
0.0000000000000000
  0
ARC
  5
87
100
AcDbEntity
  8
MAIN0
  6
CONTINUOUS
 62
3
100
AcDbCircle
 10
315.3698089347824
 20
344.8420009481940
 30
0.0000000000000000
 40
4.000000000000000
100
AcDbArc
 50
90.00000000000000
 51
157.9756871629579
  0
ARC
  5
88
100
AcDbEntity
  8
MAIN0
  6
CONTINUOUS
 62
3
100
AcDbCircle
 10
347.4656151908673
 20
344.8420009481940
 30
0.0000000000000000
 40
4.000000000000000
100
AcDbArc
 50
22.02431283704215
 51
90.00000000000000
  0
ARC
  5
89
100
AcDbEntity
  8
MAIN0
  6
CONTINUOUS
 62
3
100
AcDbCircle
 10
307.9536104476867
 20
347.8420009481940
 30
0.0000000000000000
 40
4.000000000000000
100
AcDbArc
 50
330.0000000000003
 51
337.9756871629580
  0
ARC
  5
8A
100
AcDbEntity
  8
MAIN0
  6
CONTINUOUS
 62
3
100
AcDbCircle
 10
307.9536104476867
 20
347.8420009481940
 30
0.0000000000000000
 40
4.000000000000000
100
AcDbArc
 50
270.0000000000000
 51
330.0000000000003
  0
ARC
  5
8B
100
AcDbEntity
  8
MAIN0
  6
CONTINUOUS
 62
3
100
AcDbCircle
 10
354.8818136779630
 20
347.8420009481940
 30
0.0000000000000000
 40
4.000000000000000
100
AcDbArc
 50
210.0000000000000
 51
270.0000000000000
  0
ARC
  5
8C
100
AcDbEntity
  8
MAIN0
  6
CONTINUOUS
 62
3
100
AcDbCircle
 10
354.8818136779630
 20
347.8420009481940
 30
0.0000000000000000
 40
4.000000000000000
100
AcDbArc
 50
202.0243128370421
 51
210.0000000000000
  0
ARC
  5
8D
100
AcDbEntity
  8
MAIN0
  6
CONTINUOUS
 62
3
100
AcDbCircle
 10
909.3907456316075
 20
559.8420009481940
 30
0.0000000000000000
 40
6.000000000000000
100
AcDbArc
 50
0.0000000000000000
 51
90.00000000000000
  0
LINE
  5
8E
100
AcDbEntity
  8
MAIN0
  6
CONTINUOUS
 62
3
100
AcDbLine
 10
1164.390745631607
 20
560.8420009481940
 30
0.0000000000000000
 11
1172.390745631607
 21
560.8420009481940
 31
0.0000000000000000
  0
LINE
  5
8F
100
AcDbEntity
  8
MAIN0
  6
CONTINUOUS
 62
3
100
AcDbLine
 10
1172.390745631607
 20
1018.610901007432
 30
0.0000000000000000
 11
1164.390745631607
 21
1018.610901007432
 31
0.0000000000000000
  0
LINE
  5
90
100
AcDbEntity
  8
MAIN0
  6
CONTINUOUS
 62
3
100
AcDbLine
 10
1172.390745631607
 20
928.6109010074317
 30
0.0000000000000000
 11
1164.390745631607
 21
928.6109010074317
 31
0.0000000000000000
  0
LINE
  5
91
100
AcDbEntity
  8
MAIN0
  6
CONTINUOUS
 62
3
100
AcDbLine
 10
869.3907456316074
 20
1028.610901007432
 30
0.0000000000000000
 11
884.3907456316075
 21
1028.610901007432
 31
0.0000000000000000
  0
LINE
  5
92
100
AcDbEntity
  8
MAIN0
  6
CONTINUOUS
 62
3
100
AcDbLine
 10
869.3907456316075
 20
918.6109010074317
 30
0.0000000000000000
 11
884.3907456316074
 21
918.6109010074317
 31
0.0000000000000000
  0
LINE
  5
93
100
AcDbEntity
  8
MAIN0
  6
CONTINUOUS
 62
3
100
AcDbLine
 10
884.3907456316075
 20
996.5237794829905
 30
0.0000000000000000
 11
869.3907456316075
 21
996.5237794829592
 31
0.0000000000000000
  0
LINE
  5
94
100
AcDbEntity
  8
MAIN0
  6
CONTINUOUS
 62
3
100
AcDbLine
 10
884.3907456316075
 20
950.6980225318735
 30
0.0000000000000000
 11
869.3907456316075
 21
950.6980225319048
 31
0.0000000000000000
  0
LINE
  5
95
100
AcDbEntity
  8
MAIN0
  6
CONTINUOUS
 62
3
100
AcDbLine
 10
1156.890745631607
 20
305.8420009482279
 30
0.0000000000000000
 11
1156.890745631607
 21
310.8420009481940
 31
0.0000000000000000
  0
LINE
  5
96
100
AcDbEntity
  8
MAIN0
  6
CONTINUOUS
 62
3
100
AcDbLine
 10
1156.890745631608
 20
305.8420009482280
 30
0.0000000000000000
 11
1131.890745631607
 21
305.8420009482691
 31
0.0000000000000000
  0
LINE
  5
97
100
AcDbEntity
  8
MAIN0
  6
CONTINUOUS
 62
3
100
AcDbLine
 10
1131.890745631607
 20
305.8420009482692
 30
0.0000000000000000
 11
1131.890745631607
 21
310.8420009481940
 31
0.0000000000000000
  0
LINE
  5
98
100
AcDbEntity
  8
MAIN0
  6
CONTINUOUS
 62
3
100
AcDbLine
 10
393.4177120628249
 20
530.8420009481938
 30
0.0000000000000000
 11
393.4177120628249
 21
588.3458473296639
 31
0.0000000000000000
  0
LINE
  5
99
100
AcDbEntity
  8
MAIN0
  6
CONTINUOUS
 62
3
100
AcDbLine
 10
393.4177120628249
 20
653.3381545667239
 30
0.0000000000000000
 11
393.4177120628249
 21
670.8420009481938
 31
0.0000000000000000
  0
LINE
  5
9A
100
AcDbEntity
  8
MAIN0
  6
CONTINUOUS
 62
3
100
AcDbLine
 10
269.4177120628249
 20
565.8420009481940
 30
0.0000000000000000
 11
288.1164418736133
 21
565.8420009481940
 31
0.0000000000000000
  0
LINE
  5
9B
100
AcDbEntity
  8
MAIN0
  6
CONTINUOUS
 62
3
100
AcDbLine
 10
374.7189822520364
 20
565.8420009481940
 30
0.0000000000000000
 11
393.4177120628249
 21
565.8420009481940
 31
0.0000000000000000
  0
LINE
  5
9C
100
AcDbEntity
  8
MAIN0
  6
CONTINUOUS
 62
3
100
AcDbLine
 10
269.4177120628249
 20
530.8420009481938
 30
0.0000000000000000
 11
269.4177120628249
 21
588.3458473296639
 31
0.0000000000000000
  0
LINE
  5
9D
100
AcDbEntity
  8
MAIN0
  6
CONTINUOUS
 62
3
100
AcDbLine
 10
269.4177120628249
 20
653.3381545667239
 30
0.0000000000000000
 11
269.4177120628249
 21
670.8420009481938
 31
0.0000000000000000
  0
LINE
  5
9E
100
AcDbEntity
  8
MAIN0
  6
CONTINUOUS
 62
3
100
AcDbLine
 10
278.2223175253358
 20
666.3420009481938
 30
0.0000000000000000
 11
256.4177120628249
 21
666.3420009481938
 31
0.0000000000000000
  0
LINE
  5
9F
100
AcDbEntity
  8
MAIN0
  6
CONTINUOUS
 62
3
100
AcDbLine
 10
319.3781618827071
 20
666.3420009481938
 30
0.0000000000000000
 11
306.2433203124847
 21
666.3420009481938
 31
0.0000000000000000
  0
LINE
  5
A0
100
AcDbEntity
  8
MAIN0
  6
CONTINUOUS
 62
3
100
AcDbLine
 10
356.5921038131651
 20
666.3420009481938
 30
0.0000000000000000
 11
343.4572622429424
 21
666.3420009481938
 31
0.0000000000000000
  0
LINE
  5
A1
100
AcDbEntity
  8
MAIN0
  6
CONTINUOUS
 62
3
100
AcDbLine
 10
393.4177120628249
 20
666.3420009481938
 30
0.0000000000000000
 11
384.6131066003139
 21
666.3420009481938
 31
0.0000000000000000
  0
LINE
  5
A2
100
AcDbEntity
  8
MAIN0
  6
CONTINUOUS
 62
3
100
AcDbLine
 10
282.4279172071703
 20
670.8420009481938
 30
0.0000000000000000
 11
269.4177120628249
 21
670.8420009481938
 31
0.0000000000000000
  0
LINE
  5
A3
100
AcDbEntity
  8
MAIN0
  6
CONTINUOUS
 62
3
100
AcDbLine
 10
393.4177120628249
 20
670.8420009481938
 30
0.0000000000000000
 11
380.4075069184795
 21
670.8420009481938
 31
0.0000000000000000
  0
LINE
  5
A4
100
AcDbEntity
  8
MAIN0
  6
CONTINUOUS
 62
3
100
AcDbLine
 10
1175.390745631607
 20
993.6109010074317
 30
0.0000000000000000
 11
1185.390745631607
 21
993.6109010074317
 31
0.0000000000000000
  0
LINE
  5
A5
100
AcDbEntity
  8
MAIN0
  6
CONTINUOUS
 62
3
100
AcDbLine
 10
1175.390745631607
 20
953.6109010074317
 30
0.0000000000000000
 11
1185.390745631607
 21
953.6109010074317
 31
0.0000000000000000
  0
ARC
  5
A6
100
AcDbEntity
  8
MAIN0
  6
CONTINUOUS
 62
3
100
AcDbCircle
 10
1185.390745631607
 20
989.6109010074317
 30
0.0000000000000000
 40
4.000000000000000
100
AcDbArc
 50
0.0000000000000000
 51
90.00000000000000
  0
ARC
  5
A7
100
AcDbEntity
  8
MAIN0
  6
CONTINUOUS
 62
3
100
AcDbCircle
 10
1185.390745631608
 20
957.6109010074317
 30
0.0000000000000000
 40
4.000000000000000
100
AcDbArc
 50
270.0000000000000
 51
360.0000000000000
  0
LINE
  5
A8
100
AcDbEntity
  8
MAIN0
  6
CONTINUOUS
 62
3
100
AcDbLine
 10
1189.390745631607
 20
888.6109010074317
 30
0.0000000000000000
 11
1189.390745631607
 21
957.8109010074347
 31
0.0000000000000000
  0
LINE
  5
A9
100
AcDbEntity
  8
MAIN0
  6
CONTINUOUS
 62
3
100
AcDbLine
 10
1189.390745631607
 20
989.4109010074346
 30
0.0000000000000000
 11
1189.390745631607
 21
1058.610901007432
 31
0.0000000000000000
  0
LINE
  5
AA
100
AcDbEntity
  8
MAIN0
  6
CONTINUOUS
 62
3
100
AcDbLine
 10
889.3907456316075
 20
868.6109010074317
 30
0.0000000000000000
 11
1130.390745631625
 21
868.6109010074317
 31
0.0000000000000000
  0
LINE
  5
AB
100
AcDbEntity
  8
MAIN0
  6
CONTINUOUS
 62
3
100
AcDbLine
 10
1144.390745631625
 20
868.6109010074317
 30
0.0000000000000000
 11
1169.390745631607
 21
868.6109010074317
 31
0.0000000000000000
  0
LINE
  5
AC
100
AcDbEntity
  8
MAIN0
  6
CONTINUOUS
 62
3
100
AcDbLine
 10
869.3907456316075
 20
888.6109010074317
 30
0.0000000000000000
 11
869.3907456316075
 21
918.6109010074317
 31
0.0000000000000000
  0
LINE
  5
AD
100
AcDbEntity
  8
MAIN0
  6
CONTINUOUS
 62
3
100
AcDbLine
 10
869.3907456316075
 20
1028.610901007432
 30
0.0000000000000000
 11
869.3907456316075
 21
1058.610901007432
 31
0.0000000000000000
  0
LINE
  5
AE
100
AcDbEntity
  8
MAIN0
  6
CONTINUOUS
 62
3
100
AcDbLine
 10
1164.390745631607
 20
525.8420009481940
 30
0.0000000000000000
 11
1164.390745631607
 21
670.8420009481938
 31
0.0000000000000000
  0
LINE
  5
AF
100
AcDbEntity
  8
MAIN0
  6
CONTINUOUS
 62
3
100
AcDbLine
 10
1143.390745631607
 20
349.8420009481940
 30
0.0000000000000000
 11
1143.390745631607
 21
406.4370897478786
 31
0.0000000000000000
  0
LINE
  5
B0
100
AcDbEntity
  8
MAIN0
  6
HIDDEN
 62
3
100
AcDbLine
 10
1143.390745631607
 20
406.4370897478786
 30
0.0000000000000000
 11
1143.390745631607
 21
519.8420009481940
 31
0.0000000000000000
  0
ARC
  5
B1
100
AcDbEntity
  8
MAIN0
  6
CONTINUOUS
 62
3
100
AcDbCircle
 10
1149.390745631607
 20
519.8420009481940
 30
0.0000000000000000
 40
6.000000000000000
100
AcDbArc
 50
90.00000000000000
 51
146.4426902371849
  0
ARC
  5
B2
100
AcDbEntity
  8
MAIN0
  6
HIDDEN
 62
3
100
AcDbCircle
 10
1149.390745631607
 20
519.8420009481940
 30
0.0000000000000000
 40
6.000000000000000
100
AcDbArc
 50
146.4426902371849
 51
180.0000000000000
  0
LINE
  5
B3
100
AcDbEntity
  8
MAIN0
  6
CONTINUOUS
 62
3
100
AcDbLine
 10
1144.390745631656
 20
525.8420009481940
 30
0.0000000000000000
 11
1164.390745631607
 21
525.8420009481940
 31
0.0000000000000000
  0
LINE
  5
B4
100
AcDbEntity
  8
MAIN0
  6
CONTINUOUS
 62
3
100
AcDbLine
 10
1102.443344843461
 20
525.8420009481940
 30
0.0000000000000000
 11
1130.390745631656
 21
525.8420009481940
 31
0.0000000000000000
  0
LINE
  5
B5
100
AcDbEntity
  8
MAIN0
  6
HIDDEN
 62
3
100
AcDbLine
 10
1130.390745631656
 20
525.8420009481940
 30
0.0000000000000000
 11
1144.390745631656
 21
525.8420009481940
 31
0.0000000000000000
  0
LINE
  5
B6
100
AcDbEntity
  8
MAIN0
  6
CONTINUOUS
 62
3
100
AcDbLine
 10
884.3907456316075
 20
565.8420009481940
 30
0.0000000000000000
 11
884.3907456316075
 21
670.8420009481938
 31
0.0000000000000000
  0
DIMENSION
  5
BF
100
AcDbEntity
  8
MAIN0
  6
CONTINUOUS
 62
3
100
AcDbDimension
  2
*D0
 10
1189.390745631607
 20
245.8112174757952
 30
0.0000000000000000
 11
1029.390745631607
 21
246.3112174757952
 31
0.0000000000000000
 70
32
  3
MAIN001
100
AcDbAlignedDimension
 13
869.3907456316075
 23
310.8420009481940
 33
0.0000000000000000
 14
1189.390745631607
 24
310.8420009481940
 34
0.0000000000000000
100
AcDbRotatedDimension
1001
ACAD
1000
DSTYLE
1002
{
1070
   173
1070
     1
1070
     6
1000
_OPEN
1070
     7
1000
_OPEN
1070
    41
1040
8.000000
1002
}
  0
DIMENSION
  5
C8
100
AcDbEntity
  8
MAIN0
  6
CONTINUOUS
 62
3
100
AcDbDimension
  2
*D1
 10
1131.890745631607
 20
280.3643262789908
 30
0.0000000000000000
 11
1144.390745631607
 21
280.8643262789908
 31
0.0000000000000000
 70
32
  3
MAIN001
100
AcDbAlignedDimension
 13
1156.890745631607
 23
305.8420009482279
 33
0.0000000000000000
 14
1131.890745631607
 24
305.8420009482692
 34
0.0000000000000000
100
AcDbRotatedDimension
1001
ACAD
1000
DSTYLE
1002
{
1070
   173
1070
     1
1070
     6
1000
_OPEN
1070
     7
1000
_OPEN
1070
    41
1040
8.000000
1002
}
  0
LINE
  5
C9
100
AcDbEntity
  8
MAIN0
  6
CONTINUOUS
 62
3
100
AcDbLine
 10
869.3907456316075
 20
565.8420009481940
 30
0.0000000000000000
 11
869.3907456316075
 21
670.8420009481938
 31
0.0000000000000000
  0
ARC
  5
CA
100
AcDbEntity
  8
MAIN0
  6
CONTINUOUS
 62
3
100
AcDbCircle
 10
919.3907456316075
 20
1074.610901007432
 30
0.0000000000000000
 40
4.000000000000000
100
AcDbArc
 50
90.00000000000000
 51
180.0000000000000
  0
ARC
  5
CB
100
AcDbEntity
  8
MAIN0
  6
CONTINUOUS
 62
3
100
AcDbCircle
 10
919.3907456316075
 20
872.6109010074317
 30
0.0000000000000000
 40
4.000000000000000
100
AcDbArc
 50
180.0000000000000
 51
270.0000000000000
  0
LINE
  5
CC
100
AcDbEntity
  8
MAIN0
  6
CONTINUOUS
 62
3
100
AcDbLine
 10
915.3907456316075
 20
872.6109010074317
 30
0.0000000000000000
 11
915.3907456316075
 21
911.6109010074317
 31
0.0000000000000000
  0
LINE
  5
CD
100
AcDbEntity
  8
MAIN0
  6
CONTINUOUS
 62
3
100
AcDbLine
 10
915.3907456316075
 20
1035.610901007432
 30
0.0000000000000000
 11
915.3907456316075
 21
1074.610901007432
 31
0.0000000000000000
  0
LINE
  5
CE
100
AcDbEntity
  8
MAIN0
  6
CONTINUOUS
 62
3
100
AcDbLine
 10
1139.416582128870
 20
1075.222930931756
 30
0.0000000000000000
 11
1095.083463082125
 21
1037.428995028452
 31
0.0000000000000000
  0
LINE
  5
CF
100
AcDbEntity
  8
MAIN0
  6
CONTINUOUS
 62
3
100
AcDbLine
 10
1143.390745631607
 20
1048.610901007432
 30
0.0000000000000000
 11
1143.390745631607
 21
1074.610901007432
 31
0.0000000000000000
  0
ARC
  5
D0
100
AcDbEntity
  8
MAIN0
  6
CONTINUOUS
 62
3
100
AcDbCircle
 10
1139.390745631607
 20
1074.610901007432
 30
0.0000000000000000
 40
4.000000000000000
100
AcDbArc
 50
0.0000000000000000
 51
90.00000000000000
  0
CIRCLE
  5
D1
100
AcDbEntity
  8
MAIN0
  6
CONTINUOUS
 62
3
100
AcDbCircle
 10
1099.390745631607
 20
923.6109010074316
 30
0.0000000000000000
 40
5.500000000000000
  0
DIMENSION
  5
DA
100
AcDbEntity
  8
MAIN0
  6
CONTINUOUS
 62
3
100
AcDbDimension
  2
*D2
 10
1441.607447554785
 20
620.8420009481940
 30
0.0000000000000000
 11
1441.107447554785
 21
465.8420009481940
 31
0.0000000000000000
 70
32
  3
MAIN001
100
AcDbAlignedDimension
 13
1189.390745631607
 23
310.8420009481940
 33
0.0000000000000000
 14
1306.825840807007
 24
620.8420009481940
 34
0.0000000000000000
 50
90.00000000000000
100
AcDbRotatedDimension
1001
ACAD
1000
DSTYLE
1002
{
1070
   173
1070
     1
1070
     6
1000
_OPEN
1070
     7
1000
_OPEN
1070
    41
1040
8.000000
1002
}
  0
DIMENSION
  5
E5
100
AcDbEntity
  8
MAIN0
  6
CONTINUOUS
 62
3
100
AcDbDimension
  2
*D3
 10
1343.711361546124
 20
627.8420009482284
 30
0.0000000000000000
 11
1342.211361546124
 21
595.1311909289666
 31
0.0000000000000000
 70
160
  1
\A1;\U+220514
  3
MAIN001
100
AcDbAlignedDimension
 13
1286.543997382002
 23
613.8420009481736
 33
0.0000000000000000
 14
1286.543997382002
 24
627.8420009482284
 34
0.0000000000000000
 50
90.00000000000000
100
AcDbRotatedDimension
1001
ACAD
1000
DSTYLE
1002
{
1070
   173
1070
     1
1070
     6
1000
_OPEN
1070
     7
1000
_OPEN
1070
    41
1040
8.000000
1070
   287
1070
     0
1002
}
  0
DIMENSION
  5
EE
100
AcDbEntity
  8
MAIN0
  6
CONTINUOUS
 62
3
100
AcDbDimension
  2
*D4
 10
1494.213308227619
 20
670.8420009481938
 30
0.0000000000000000
 11
1492.713308227619
 21
466.3320030569370
 31
0.0000000000000000
 70
160
  3
MAIN001
100
AcDbAlignedDimension
 13
1189.390745631607
 23
310.8420009481940
 33
0.0000000000000000
 14
1172.390745631607
 24
670.8420009481938
 34
0.0000000000000000
 50
90.00000000000000
100
AcDbRotatedDimension
1001
ACAD
1000
DSTYLE
1002
{
1070
   173
1070
     1
1070
     6
1000
_OPEN
1070
     7
1000
_OPEN
1070
    41
1040
8.000000
1002
}
  0
DIMENSION
  5
F9
100
AcDbEntity
  8
MAIN0
  6
CONTINUOUS
 62
3
100
AcDbDimension
  2
*D5
 10
909.3907456316075
 20
677.8117757829091
 30
0.0000000000000000
 11
889.9896881107210
 21
679.3117757829091
 31
0.0000000000000000
 70
160
  3
MAIN001
100
AcDbAlignedDimension
 13
905.3907456316075
 23
638.3420009481938
 33
0.0000000000000000
 14
909.3907456316075
 24
653.3420009481943
 34
0.0000000000000000
100
AcDbRotatedDimension
1001
ACAD
1000
DSTYLE
1002
{
1070
   173
1070
     1
1070
     6
1000
_OPEN
1070
     7
1000
_OPEN
1070
    41
1040
8.000000
1070
   287
1070
     0
1002
}
  0
DIMENSION
  5
102
100
AcDbEntity
  8
MAIN0
  6
CONTINUOUS
 62
3
100
AcDbDimension
  2
*D6
 10
1343.711361546124
 20
1078.610901007432
 30
0.0000000000000000
 11
1343.211361546124
 21
973.6109010074317
 31
0.0000000000000000
 70
32
  3
MAIN001
100
AcDbAlignedDimension
 13
1169.390745631607
 23
868.6109010074317
 33
0.0000000000000000
 14
1169.390745631607
 24
1078.610901007432
 34
0.0000000000000000
 50
90.00000000000000
100
AcDbRotatedDimension
1001
ACAD
1000
DSTYLE
1002
{
1070
   173
1070
     1
1070
     6
1000
_OPEN
1070
     7
1000
_OPEN
1070
    41
1040
8.000000
1002
}
  0
DIMENSION
  5
10B
100
AcDbEntity
  8
MAIN0
  6
CONTINUOUS
 62
3
100
AcDbDimension
  2
*D7
 10
1378.572280042252
 20
1078.610901007432
 30
0.0000000000000000
 11
1378.072280042252
 21
948.1825211896373
 31
0.0000000000000000
 70
32
  1
\A1;約　261
  3
MAIN001
100
AcDbAlignedDimension
 13
1137.390745631647
 23
817.7541413718429
 33
0.0000000000000000
 14
1169.390745631607
 24
1078.610901007432
 34
0.0000000000000000
 50
90.00000000000000
100
AcDbRotatedDimension
1001
ACAD
1000
DSTYLE
1002
{
1070
   173
1070
     1
1070
     6
1000
_OPEN
1070
     7
1000
_OPEN
1070
    41
1040
8.000000
1070
   340
1005
10C
1002
}
  0
LEADER
  5
10D
100
AcDbEntity
  8
MAIN0
  6
CONTINUOUS
 62
3
100
AcDbLeader
  3
MAIN001
 73
     0
 74
     0
 75
     1
 40
12.39999961853027
 41
145.4446271917600
 76
     3
 10
461.4257658878740
 20
414.0019638145579
 30
0.0000000000000000
 10
451.5739840064207
 20
311.7657949925069
 30
0.0000000000000000
 10
458.7169837957779
 20
311.7657949925069
 30
0.0000000000000000
340
10E
213
5.355372909567961
223
-2.000000000000000
233
0.0000000000000000
1001
ACAD
1000
DSTYLE
1002
{
1070
   147
1040
0.0
1070
    77
1070
     1
1070
   173
1070
     1
1070
     6
1000
_DOT
1070
     7
1000
_DOT
1002
}
  0
MTEXT
  5
10E
102
{ACAD_REACTORS
330
10D
102
}
100
AcDbEntity
  8
MAIN0
  6
CONTINUOUS
 62
3
100
AcDbMText
 10
453.3616108862099
 20
326.1657946110372
 30
0.0000000000000000
 40
12.39999961853027
 41
0.0000000000000000
 71
     1
 72
     1
  1
{\H0.71x;{センタクランプレバー\PCENTER CLAMP LEVER}}
 11
1.000000000000000
 21
0.0000000000000000
 31
0.0000000000000000
  7
KNJYOKO
  0
LEADER
  5
10F
100
AcDbEntity
  8
MAIN0
  6
CONTINUOUS
 62
3
100
AcDbLeader
  3
MAIN001
 73
     0
 75
     1
 40
12.39999961853027
 41
277.4790081253052
 76
     3
 10
865.8387909276318
 20
649.7957925486157
 30
0.0000000000000000
 10
783.1005135171308
 20
816.9229290611307
 30
0.0000000000000000
 10
775.3955137402907
 20
816.9229290611306
 30
0.0000000000000000
340
110
213
0.0000000000000000
223
-2.000000000000000
233
0.0000000000000000
1001
ACAD
1000
DSTYLE
1002
{
1070
   147
1040
0.0
1070
    77
1070
     1
1070
   173
1070
     1
1070
     6
1000
_DOT
1070
     7
1000
_DOT
1002
}
  0
MTEXT
  5
110
102
{ACAD_REACTORS
330
10F
102
}
100
AcDbEntity
  8
MAIN0
  6
CONTINUOUS
 62
3
100
AcDbMText
 10
497.9165056149855
 20
831.3229286796609
 30
0.0000000000000000
 40
12.39999961853027
 41
0.0000000000000000
 71
     1
 72
     1
  1
{\H0.94x;{センタ取外し用ネジ\PBOLT FOR CENTER DETACHING}}
 11
1.000000000000000
 21
0.0000000000000000
 31
0.0000000000000000
  7
KNJYOKO
  0
MTEXT
  5
111
100
AcDbEntity
  8
MAIN0
  6
CONTINUOUS
 62
3
100
AcDbMText
 10
517.5204200526191
 20
795.9574917074217
 30
0.0000000000000000
 40
12.39999961853027
 41
0.0000000000000000
 71
     1
 72
     1
  1
{\H0.94x;{通常　　　；締め切り}}
 11
1.000000000000000
 21
0.0000000000000000
 31
0.0000000000000000
  7
KNJYOKO
  0
MTEXT
  5
112
100
AcDbEntity
  8
MAIN0
  6
CONTINUOUS
 62
3
100
AcDbMText
 10
517.5204200526191
 20
777.9574917074217
 30
0.0000000000000000
 40
12.39999961853027
 41
0.0000000000000000
 71
     1
 72
     1
  1
{\H0.94x;{取り外し時；4mm緩める}}
 11
1.000000000000000
 21
0.0000000000000000
 31
0.0000000000000000
  7
KNJYOKO
  0
MTEXT
  5
113
100
AcDbEntity
  8
MAIN0
  6
CONTINUOUS
 62
3
100
AcDbMText
 10
494.2294496924244
 20
796.8025682334597
 30
0.0000000000000000
 40
32.00000000000000
 41
0.0000000000000000
 71
     1
 72
     1
  1
{\H0.83x;{(      )}}
 11
1.000000000000000
 21
0.0000000000000000
 31
0.0000000000000000
  7
STANDARD
  0
LEADER
  5
114
100
AcDbEntity
  8
MAIN0
  6
CONTINUOUS
 62
3
100
AcDbLeader
  3
MAIN001
 73
     0
 74
     0
 75
     1
 40
12.39999961853027
 41
192.8010001311302
 76
     3
 10
1184.232450281105
 20
615.3994567044338
 30
0.0000000000000000
 10
1225.237184806565
 20
512.3283218963260
 30
0.0000000000000000
 10
1232.380184595922
 20
512.3283218963260
 30
0.0000000000000000
340
115
213
0.0000000000000000
223
-2.000000000000000
233
0.0000000000000000
1001
ACAD
1000
DSTYLE
1002
{
1070
   147
1040
0.0
1070
    77
1070
     1
1070
   173
1070
     1
1070
     6
1000
_DOT
1070
     7
1000
_DOT
1002
}
  0
MTEXT
  5
115
102
{ACAD_REACTORS
330
114
102
}
100
AcDbEntity
  8
MAIN0
  6
CONTINUOUS
 62
3
100
AcDbMText
 10
1232.381184595922
 20
526.7283215148563
 30
0.0000000000000000
 40
12.39999961853027
 41
0.0000000000000000
 71
     1
 72
     1
  1
{\H0.71x;{超硬センタ　MT-4\PCEMENTED CARBIDE CENTER\PMT-4}}
 11
1.000000000000000
 21
0.0000000000000000
 31
0.0000000000000000
  7
KNJYOKO
  0
LEADER
  5
116
100
AcDbEntity
  8
MAIN0
  6
CONTINUOUS
 62
3
100
AcDbLeader
  3
MAIN001
 73
     0
 75
     1
 40
12.39999961853027
 41
66.79900004172328
 76
     3
 10
1097.564785880759
 20
918.9562397965291
 30
0.0000000000000000
 10
962.8133423981205
 20
817.8852413016650
 30
0.0000000000000000
 10
955.6683426087634
 20
817.8852413016650
 30
0.0000000000000000
340
117
213
0.0000000000000000
223
-2.000000000000000
233
0.0000000000000000
1001
ACAD
1000
DSTYLE
1002
{
1070
   147
1040
0.0
1070
    77
1070
     1
1070
   173
1070
     1
1070
     6
1000
_OPEN
1070
     7
1000
_OPEN
1002
}
  0
MTEXT
  5
117
102
{ACAD_REACTORS
330
116
102
}
100
AcDbEntity
  8
MAIN0
  6
CONTINUOUS
 62
3
100
AcDbMText
 10
888.8693425670401
 20
832.2852409201953
 30
0.0000000000000000
 40
12.39999961853027
 41
0.0000000000000000
 71
     1
 72
     1
  1
{\H0.70x;{2-M10\Pアイボルト\PEYE BOLT}}
 11
1.000000000000000
 21
0.0000000000000000
 31
0.0000000000000000
  7
KNJYOKO
  0
LINE
  5
118
100
AcDbEntity
  8
MAIN0
  6
CONTINUOUS
 62
3
100
AcDbLine
 10
340.4177120628249
 20
305.8420009481759
 30
0.0000000000000000
 11
322.4177120628249
 21
305.8420009482121
 31
0.0000000000000000
  0
LINE
  5
119
100
AcDbEntity
  8
MAIN0
  6
CONTINUOUS
 62
3
100
AcDbLine
 10
226.4177120628245
 20
343.8420009481941
 30
0.0000000000000000
 11
269.4177120628245
 21
530.8420009481938
 31
0.0000000000000000
  0
LINE
  5
11A
100
AcDbEntity
  8
MAIN0
  6
CONTINUOUS
 62
3
100
AcDbLine
 10
393.4177120628248
 20
530.8420009481940
 30
0.0000000000000000
 11
436.4177120628248
 21
343.8420009481941
 31
0.0000000000000000
  0
LINE
  5
11B
100
AcDbEntity
  8
MAIN0
  6
CONTINUOUS
 62
3
100
AcDbLine
 10
1110.390745631624
 20
896.7433652153613
 30
0.0000000000000000
 11
1095.083463082125
 21
909.7928069864117
 31
0.0000000000000000
  0
ARC
  5
11C
100
AcDbEntity
  8
MAIN0
  6
CONTINUOUS
 62
3
100
AcDbCircle
 10
1102.443344843461
 20
519.8420009481940
 30
0.0000000000000000
 40
6.000000000000000
100
AcDbArc
 50
90.00000000000000
 51
195.0000000000693
  0
DIMENSION
  5
127
100
AcDbEntity
  8
MAIN0
  6
CONTINUOUS
 62
3
100
AcDbDimension
  2
*D8
 10
322.4177120628249
 20
259.0740968688719
 30
0.0000000000000000
 11
361.5877319919046
 21
260.5740968688719
 31
0.0000000000000000
 70
160
  1
\A1;18h7
  3
MAIN001
100
AcDbAlignedDimension
 13
340.4177120628249
 23
305.8420009481759
 33
0.0000000000000000
 14
322.4177120628249
 24
305.8420009482121
 34
0.0000000000000000
100
AcDbRotatedDimension
1001
ACAD
1000
DSTYLE
1002
{
1070
   173
1070
     1
1070
     6
1000
_OPEN
1070
     7
1000
_OPEN
1070
    41
1040
8.000000
1070
   287
1070
     0
1002
}
  0
LINE
  5
128
100
AcDbEntity
  8
MAIN0
  6
CONTINUOUS
 62
3
100
AcDbLine
 10
1172.390745631607
 20
1012.722919620577
 30
0.0000000000000000
 11
1164.390745631607
 21
1012.722919620577
 31
0.0000000000000000
  0
LINE
  5
129
100
AcDbEntity
  8
MAIN0
  6
CONTINUOUS
 62
3
100
AcDbLine
 10
1172.390745631607
 20
934.4988823942867
 30
0.0000000000000000
 11
1164.390745631607
 21
934.4988823942867
 31
0.0000000000000000
  0
LINE
  5
12A
100
AcDbEntity
  8
MAIN0
  6
CONTINUOUS
 62
3
100
AcDbLine
 10
903.3907456317345
 20
298.8420009482204
 30
0.0000000000000000
 11
873.3907456315949
 21
298.8420009482204
 31
0.0000000000000000
  0
LINE
  5
12B
100
AcDbEntity
  8
MAIN0
  6
CONTINUOUS
 62
3
100
AcDbLine
 10
903.3907456317345
 20
290.8420009482202
 30
0.0000000000000000
 11
873.3907456315949
 21
290.8420009482202
 31
0.0000000000000000
  0
LINE
  5
12C
100
AcDbEntity
  8
MAIN0
  6
CONTINUOUS
 62
3
100
AcDbLine
 10
903.3907456317344
 20
279.8420009482202
 30
0.0000000000000000
 11
873.3907456315949
 21
279.8420009482202
 31
0.0000000000000000
  0
LINE
  5
12D
100
AcDbEntity
  8
MAIN0
  6
CONTINUOUS
 62
3
100
AcDbLine
 10
873.3907456315949
 20
298.8420009482204
 30
0.0000000000000000
 11
873.3907456315949
 21
279.8420009482203
 31
0.0000000000000000
  0
LINE
  5
12E
100
AcDbEntity
  8
MAIN0
  6
CONTINUOUS
 62
3
100
AcDbLine
 10
903.3907456317345
 20
298.8420009482204
 30
0.0000000000000000
 11
903.3907456317345
 21
279.8420009482203
 31
0.0000000000000000
  0
LINE
  5
12F
100
AcDbEntity
  8
MAIN0
  6
CONTINUOUS
 62
3
100
AcDbLine
 10
1164.390745631607
 20
660.5282706151936
 30
0.0000000000000000
 11
1172.390745631608
 21
660.5282706151936
 31
0.0000000000000000
  0
LINE
  5
130
100
AcDbEntity
  8
MAIN0
  6
CONTINUOUS
 62
3
100
AcDbLine
 10
1164.390745631607
 20
581.1557312815696
 30
0.0000000000000000
 11
1172.390745631608
 21
581.1557312815760
 31
0.0000000000000000
  0
LINE
  5
131
100
AcDbEntity
  8
MAIN0
  6
CONTINUOUS
 62
3
100
AcDbLine
 10
1172.390745631607
 20
1006.110901007432
 30
0.0000000000000000
 11
1173.390745631607
 21
1006.110901007432
 31
0.0000000000000000
  0
LINE
  5
132
100
AcDbEntity
  8
MAIN0
  6
CONTINUOUS
 62
3
100
AcDbLine
 10
1172.390745631607
 20
941.1109010074317
 30
0.0000000000000000
 11
1173.390745631607
 21
941.1109010074317
 31
0.0000000000000000
  0
LINE
  5
133
100
AcDbEntity
  8
MAIN0
  6
CONTINUOUS
 62
3
100
AcDbLine
 10
340.9177120628249
 20
310.8420009481940
 30
0.0000000000000000
 11
340.9177120628249
 21
345.8420009481940
 31
0.0000000000000000
  0
LINE
  5
134
100
AcDbEntity
  8
MAIN0
  6
CONTINUOUS
 62
3
100
AcDbLine
 10
321.9177120628249
 20
310.8420009481940
 30
0.0000000000000000
 11
321.9177120628249
 21
345.8420009481937
 31
0.0000000000000000
  0
DIMENSION
  5
13F
100
AcDbEntity
  8
MAIN0
  6
CONTINUOUS
 62
3
100
AcDbDimension
  2
*D9
 10
1172.390745631607
 20
477.3327694966554
 30
0.0000000000000000
 11
1180.890745631607
 21
477.8327694966554
 31
0.0000000000000000
 70
32
  3
MAIN001
100
AcDbAlignedDimension
 13
1189.390745631607
 23
345.8420009481940
 33
0.0000000000000000
 14
1172.390745631607
 24
560.8420009481940
 34
0.0000000000000000
100
AcDbRotatedDimension
1001
ACAD
1000
DSTYLE
1002
{
1070
   173
1070
     1
1070
     6
1000
_OPEN
1070
     7
1000
_OPEN
1070
    41
1040
8.000000
1070
   287
1070
     0
1002
}
  0
DIMENSION
  5
148
100
AcDbEntity
  8
MAIN0
  6
CONTINUOUS
 62
3
100
AcDbDimension
  2
*D10
 10
1297.802327631609
 20
1006.110901007432
 30
0.0000000000000000
 11
1297.302327631609
 21
973.6109010074317
 31
0.0000000000000000
 70
32
  1
\A1;\U+220565
  3
MAIN001
100
AcDbAlignedDimension
 13
1173.390745631607
 23
941.1109010074317
 33
0.0000000000000000
 14
1173.390745631607
 24
1006.110901007432
 34
0.0000000000000000
 50
90.00000000000000
100
AcDbRotatedDimension
1001
ACAD
1000
DSTYLE
1002
{
1070
   173
1070
     1
1070
     6
1000
_OPEN
1070
     7
1000
_OPEN
1070
    41
1040
8.000000
1002
}
  0
MTEXT
  5
149
100
AcDbEntity
  8
MAIN0
  6
CONTINUOUS
 62
3
100
AcDbMText
 10
509.8990733842744
 20
759.8840259851322
 30
0.0000000000000000
 40
12.39999961853027
 41
0.0000000000000000
 71
     1
 72
     1
  1
{\H0.94x;{NOMAL USE；TIGHTENING}}
 11
1.000000000000000
 21
0.0000000000000000
 31
0.0000000000000000
  7
KNJYOKO
  0
MTEXT
  5
14A
100
AcDbEntity
  8
MAIN0
  6
CONTINUOUS
 62
3
100
AcDbMText
 10
509.8990733842744
 20
743.8840259851322
 30
0.0000000000000000
 40
12.39999961853027
 41
0.0000000000000000
 71
     1
 72
     1
  1
{\H0.94x;{DETACHING；LOOSE 4mm}}
 11
1.000000000000000
 21
0.0000000000000000
 31
0.0000000000000000
  7
KNJYOKO
  0
MTEXT
  5
14B
100
AcDbEntity
  8
MAIN0
  6
CONTINUOUS
 62
3
100
AcDbMText
 10
493.6081030240797
 20
762.7291025111703
 30
0.0000000000000000
 40
32.00000000000000
 41
0.0000000000000000
 71
     1
 72
     1
  1
{\H0.84x;{( 　      )}}
 11
1.000000000000000
 21
0.0000000000000000
 31
0.0000000000000000
  7
KNJYOKO
  0
LINE
  5
14C
100
AcDbEntity
  8
MAIN0
  6
CONTINUOUS
 62
3
100
AcDbLine
 10
893.1407456316076
 20
1022.889213170945
 30
0.0000000000000000
 11
894.3907456316076
 21
1022.167525334458
 31
0.0000000000000000
  0
LINE
  5
14D
100
AcDbEntity
  8
MAIN0
  6
CONTINUOUS
 62
3
100
AcDbLine
 10
893.1407456316075
 20
1024.332588843919
 30
0.0000000000000000
 11
893.1407456316075
 21
1022.889213170945
 31
0.0000000000000000
  0
LINE
  5
14E
100
AcDbEntity
  8
MAIN0
  6
CONTINUOUS
 62
3
100
AcDbLine
 10
894.3907456316076
 20
1025.054276680406
 30
0.0000000000000000
 11
893.1407456316076
 21
1024.332588843919
 31
0.0000000000000000
  0
LINE
  5
14F
100
AcDbEntity
  8
MAIN0
  6
CONTINUOUS
 62
3
100
AcDbLine
 10
895.6407456316075
 20
1024.332588843919
 30
0.0000000000000000
 11
894.3907456316075
 21
1025.054276680406
 31
0.0000000000000000
  0
LINE
  5
150
100
AcDbEntity
  8
MAIN0
  6
CONTINUOUS
 62
3
100
AcDbLine
 10
895.6407456316075
 20
1022.889213170945
 30
0.0000000000000000
 11
895.6407456316075
 21
1024.332588843919
 31
0.0000000000000000
  0
LINE
  5
151
100
AcDbEntity
  8
MAIN0
  6
CONTINUOUS
 62
3
100
AcDbLine
 10
894.3907456316074
 20
1022.167525334458
 30
0.0000000000000000
 11
895.6407456316076
 21
1022.889213170945
 31
0.0000000000000000
  0
CIRCLE
  5
152
100
AcDbEntity
  8
MAIN0
  6
CONTINUOUS
 62
3
100
AcDbCircle
 10
894.3907456316075
 20
1023.610901007432
 30
0.0000000000000000
 40
3.500000000000000
  0
CIRCLE
  5
153
100
AcDbEntity
  8
MAIN0
  6
CONTINUOUS
 62
3
100
AcDbCircle
 10
894.3907456316075
 20
1023.610901007432
 30
0.0000000000000000
 40
4.000000000000000
  0
LINE
  5
154
100
AcDbEntity
  8
MAIN0
  6
CONTINUOUS
 62
3
100
AcDbLine
 10
893.1407456316077
 20
922.8892131709442
 30
0.0000000000000000
 11
894.3907456316077
 21
922.1675253344572
 31
0.0000000000000000
  0
LINE
  5
155
100
AcDbEntity
  8
MAIN0
  6
CONTINUOUS
 62
3
100
AcDbLine
 10
893.1407456316075
 20
924.3325888439185
 30
0.0000000000000000
 11
893.1407456316075
 21
922.8892131709445
 31
0.0000000000000000
  0
LINE
  5
156
100
AcDbEntity
  8
MAIN0
  6
CONTINUOUS
 62
3
100
AcDbLine
 10
894.3907456316076
 20
925.0542766804056
 30
0.0000000000000000
 11
893.1407456316076
 21
924.3325888439185
 31
0.0000000000000000
  0
LINE
  5
157
100
AcDbEntity
  8
MAIN0
  6
CONTINUOUS
 62
3
100
AcDbLine
 10
895.6407456316076
 20
924.3325888439181
 30
0.0000000000000000
 11
894.3907456316076
 21
925.0542766804051
 31
0.0000000000000000
  0
LINE
  5
158
100
AcDbEntity
  8
MAIN0
  6
CONTINUOUS
 62
3
100
AcDbLine
 10
895.6407456316075
 20
922.8892131709445
 30
0.0000000000000000
 11
895.6407456316075
 21
924.3325888439185
 31
0.0000000000000000
  0
LINE
  5
159
100
AcDbEntity
  8
MAIN0
  6
CONTINUOUS
 62
3
100
AcDbLine
 10
894.3907456316074
 20
922.1675253344575
 30
0.0000000000000000
 11
895.6407456316076
 21
922.8892131709446
 31
0.0000000000000000
  0
CIRCLE
  5
15A
100
AcDbEntity
  8
MAIN0
  6
CONTINUOUS
 62
3
100
AcDbCircle
 10
894.3907456316075
 20
923.6109010074315
 30
0.0000000000000000
 40
3.500000000000000
  0
CIRCLE
  5
15B
100
AcDbEntity
  8
MAIN0
  6
CONTINUOUS
 62
3
100
AcDbCircle
 10
894.3907456316075
 20
923.6109010074315
 30
0.0000000000000000
 40
4.000000000000000
  0
LINE
  5
15C
100
AcDbEntity
  8
MAIN0
  6
CONTINUOUS
 62
3
100
AcDbLine
 10
1023.140745631608
 20
922.8892131709443
 30
0.0000000000000000
 11
1024.390745631608
 21
922.1675253344573
 31
0.0000000000000000
  0
LINE
  5
15D
100
AcDbEntity
  8
MAIN0
  6
CONTINUOUS
 62
3
100
AcDbLine
 10
1023.140745631608
 20
924.3325888439185
 30
0.0000000000000000
 11
1023.140745631608
 21
922.8892131709445
 31
0.0000000000000000
  0
LINE
  5
15E
100
AcDbEntity
  8
MAIN0
  6
CONTINUOUS
 62
3
100
AcDbLine
 10
1024.390745631608
 20
925.0542766804056
 30
0.0000000000000000
 11
1023.140745631608
 21
924.3325888439185
 31
0.0000000000000000
  0
LINE
  5
15F
100
AcDbEntity
  8
MAIN0
  6
CONTINUOUS
 62
3
100
AcDbLine
 10
1025.640745631608
 20
924.3325888439182
 30
0.0000000000000000
 11
1024.390745631608
 21
925.0542766804052
 31
0.0000000000000000
  0
LINE
  5
160
100
AcDbEntity
  8
MAIN0
  6
CONTINUOUS
 62
3
100
AcDbLine
 10
1025.640745631607
 20
922.8892131709445
 30
0.0000000000000000
 11
1025.640745631607
 21
924.3325888439185
 31
0.0000000000000000
  0
LINE
  5
161
100
AcDbEntity
  8
MAIN0
  6
CONTINUOUS
 62
3
100
AcDbLine
 10
1024.390745631607
 20
922.1675253344574
 30
0.0000000000000000
 11
1025.640745631608
 21
922.8892131709446
 31
0.0000000000000000
  0
CIRCLE
  5
162
100
AcDbEntity
  8
MAIN0
  6
CONTINUOUS
 62
3
100
AcDbCircle
 10
1024.390745631607
 20
923.6109010074315
 30
0.0000000000000000
 40
3.500000000000000
  0
CIRCLE
  5
163
100
AcDbEntity
  8
MAIN0
  6
CONTINUOUS
 62
3
100
AcDbCircle
 10
1024.390745631607
 20
923.6109010074315
 30
0.0000000000000000
 40
4.000000000000000
  0
LINE
  5
164
100
AcDbEntity
  8
MAIN0
  6
CONTINUOUS
 62
3
100
AcDbLine
 10
1023.140745631608
 20
1022.889213170945
 30
0.0000000000000000
 11
1024.390745631608
 21
1022.167525334457
 31
0.0000000000000000
  0
LINE
  5
165
100
AcDbEntity
  8
MAIN0
  6
CONTINUOUS
 62
3
100
AcDbLine
 10
1023.140745631608
 20
1024.332588843919
 30
0.0000000000000000
 11
1023.140745631608
 21
1022.889213170945
 31
0.0000000000000000
  0
LINE
  5
166
100
AcDbEntity
  8
MAIN0
  6
CONTINUOUS
 62
3
100
AcDbLine
 10
1024.390745631608
 20
1025.054276680406
 30
0.0000000000000000
 11
1023.140745631608
 21
1024.332588843919
 31
0.0000000000000000
  0
LINE
  5
167
100
AcDbEntity
  8
MAIN0
  6
CONTINUOUS
 62
3
100
AcDbLine
 10
1025.640745631608
 20
1024.332588843918
 30
0.0000000000000000
 11
1024.390745631608
 21
1025.054276680405
 31
0.0000000000000000
  0
LINE
  5
168
100
AcDbEntity
  8
MAIN0
  6
CONTINUOUS
 62
3
100
AcDbLine
 10
1025.640745631607
 20
1022.889213170945
 30
0.0000000000000000
 11
1025.640745631607
 21
1024.332588843919
 31
0.0000000000000000
  0
LINE
  5
169
100
AcDbEntity
  8
MAIN0
  6
CONTINUOUS
 62
3
100
AcDbLine
 10
1024.390745631607
 20
1022.167525334458
 30
0.0000000000000000
 11
1025.640745631608
 21
1022.889213170945
 31
0.0000000000000000
  0
CIRCLE
  5
16A
100
AcDbEntity
  8
MAIN0
  6
CONTINUOUS
 62
3
100
AcDbCircle
 10
1024.390745631607
 20
1023.610901007432
 30
0.0000000000000000
 40
3.500000000000000
  0
CIRCLE
  5
16B
100
AcDbEntity
  8
MAIN0
  6
CONTINUOUS
 62
3
100
AcDbCircle
 10
1024.390745631607
 20
1023.610901007432
 30
0.0000000000000000
 40
4.000000000000000
  0
LINE
  5
16C
100
AcDbEntity
  8
MAIN0
  6
CONTINUOUS
 62
3
100
AcDbLine
 10
1153.140745631608
 20
1010.889213170945
 30
0.0000000000000000
 11
1154.390745631608
 21
1010.167525334457
 31
0.0000000000000000
  0
LINE
  5
16D
100
AcDbEntity
  8
MAIN0
  6
CONTINUOUS
 62
3
100
AcDbLine
 10
1153.140745631607
 20
1012.332588843919
 30
0.0000000000000000
 11
1153.140745631607
 21
1010.889213170945
 31
0.0000000000000000
  0
LINE
  5
16E
100
AcDbEntity
  8
MAIN0
  6
CONTINUOUS
 62
3
100
AcDbLine
 10
1154.390745631608
 20
1013.054276680406
 30
0.0000000000000000
 11
1153.140745631608
 21
1012.332588843919
 31
0.0000000000000000
  0
LINE
  5
16F
100
AcDbEntity
  8
MAIN0
  6
CONTINUOUS
 62
3
100
AcDbLine
 10
1155.640745631607
 20
1012.332588843918
 30
0.0000000000000000
 11
1154.390745631607
 21
1013.054276680405
 31
0.0000000000000000
  0
LINE
  5
170
100
AcDbEntity
  8
MAIN0
  6
CONTINUOUS
 62
3
100
AcDbLine
 10
1155.640745631607
 20
1010.889213170945
 30
0.0000000000000000
 11
1155.640745631607
 21
1012.332588843919
 31
0.0000000000000000
  0
LINE
  5
171
100
AcDbEntity
  8
MAIN0
  6
CONTINUOUS
 62
3
100
AcDbLine
 10
1154.390745631607
 20
1010.167525334458
 30
0.0000000000000000
 11
1155.640745631608
 21
1010.889213170945
 31
0.0000000000000000
  0
CIRCLE
  5
172
100
AcDbEntity
  8
MAIN0
  6
CONTINUOUS
 62
3
100
AcDbCircle
 10
1154.390745631607
 20
1011.610901007432
 30
0.0000000000000000
 40
3.500000000000000
  0
CIRCLE
  5
173
100
AcDbEntity
  8
MAIN0
  6
CONTINUOUS
 62
3
100
AcDbCircle
 10
1154.390745631607
 20
1011.610901007432
 30
0.0000000000000000
 40
4.000000000000000
  0
LINE
  5
174
100
AcDbEntity
  8
MAIN0
  6
CONTINUOUS
 62
3
100
AcDbLine
 10
1153.140745631608
 20
934.8892131709442
 30
0.0000000000000000
 11
1154.390745631608
 21
934.1675253344572
 31
0.0000000000000000
  0
LINE
  5
175
100
AcDbEntity
  8
MAIN0
  6
CONTINUOUS
 62
3
100
AcDbLine
 10
1153.140745631607
 20
936.3325888439185
 30
0.0000000000000000
 11
1153.140745631607
 21
934.8892131709445
 31
0.0000000000000000
  0
LINE
  5
176
100
AcDbEntity
  8
MAIN0
  6
CONTINUOUS
 62
3
100
AcDbLine
 10
1154.390745631608
 20
937.0542766804056
 30
0.0000000000000000
 11
1153.140745631608
 21
936.3325888439185
 31
0.0000000000000000
  0
LINE
  5
177
100
AcDbEntity
  8
MAIN0
  6
CONTINUOUS
 62
3
100
AcDbLine
 10
1155.640745631607
 20
936.3325888439181
 30
0.0000000000000000
 11
1154.390745631607
 21
937.0542766804051
 31
0.0000000000000000
  0
LINE
  5
178
100
AcDbEntity
  8
MAIN0
  6
CONTINUOUS
 62
3
100
AcDbLine
 10
1155.640745631607
 20
934.8892131709445
 30
0.0000000000000000
 11
1155.640745631607
 21
936.3325888439185
 31
0.0000000000000000
  0
LINE
  5
179
100
AcDbEntity
  8
MAIN0
  6
CONTINUOUS
 62
3
100
AcDbLine
 10
1154.390745631607
 20
934.1675253344575
 30
0.0000000000000000
 11
1155.640745631608
 21
934.8892131709447
 31
0.0000000000000000
  0
CIRCLE
  5
17A
100
AcDbEntity
  8
MAIN0
  6
CONTINUOUS
 62
3
100
AcDbCircle
 10
1154.390745631607
 20
935.6109010074315
 30
0.0000000000000000
 40
3.500000000000000
  0
CIRCLE
  5
17B
100
AcDbEntity
  8
MAIN0
  6
CONTINUOUS
 62
3
100
AcDbCircle
 10
1154.390745631607
 20
935.6109010074315
 30
0.0000000000000000
 40
4.000000000000000
  0
CIRCLE
  5
17C
100
AcDbEntity
  8
MAIN0
  6
CONTINUOUS
 62
3
100
AcDbCircle
 10
924.3907456316075
 20
973.6109010075772
 30
0.0000000000000000
 40
6.500000000000000
  0
CIRCLE
  5
17D
100
AcDbEntity
  8
MAIN0
  6
CONTINUOUS
 62
3
100
AcDbCircle
 10
924.3907456316075
 20
973.6109010075772
 30
0.0000000000000000
 40
6.750000000318323
  0
LINE
  5
17E
100
AcDbEntity
  8
MAIN0
  6
CONTINUOUS
 62
3
100
AcDbLine
 10
922.3907456316075
 20
972.4562004691981
 30
0.0000000000000000
 11
924.3907456316075
 21
971.3014999308190
 31
0.0000000000000000
  0
LINE
  5
17F
100
AcDbEntity
  8
MAIN0
  6
CONTINUOUS
 62
3
100
AcDbLine
 10
922.3907456316075
 20
974.7656015459565
 30
0.0000000000000000
 11
922.3907456316075
 21
972.4562004691979
 31
0.0000000000000000
  0
LINE
  5
180
100
AcDbEntity
  8
MAIN0
  6
CONTINUOUS
 62
3
100
AcDbLine
 10
924.3907456316076
 20
975.9203020843353
 30
0.0000000000000000
 11
922.3907456316076
 21
974.7656015459562
 31
0.0000000000000000
  0
LINE
  5
181
100
AcDbEntity
  8
MAIN0
  6
CONTINUOUS
 62
3
100
AcDbLine
 10
926.3907456316075
 20
974.7656015459567
 30
0.0000000000000000
 11
924.3907456316075
 21
975.9203020843357
 31
0.0000000000000000
  0
LINE
  5
182
100
AcDbEntity
  8
MAIN0
  6
CONTINUOUS
 62
3
100
AcDbLine
 10
926.3907456316075
 20
972.4562004691979
 30
0.0000000000000000
 11
926.3907456316075
 21
974.7656015459565
 31
0.0000000000000000
  0
LINE
  5
183
100
AcDbEntity
  8
MAIN0
  6
CONTINUOUS
 62
3
100
AcDbLine
 10
924.3907456316071
 20
971.3014999308182
 30
0.0000000000000000
 11
926.3907456316071
 21
972.4562004691974
 31
0.0000000000000000
  0
LINE
  5
184
100
AcDbEntity
  8
MAIN0
  6
CONTINUOUS
 62
3
100
AcDbLine
 10
947.8907456316074
 20
955.1109010074324
 30
0.0000000000000000
 11
947.8907456316075
 21
992.1109010074322
 31
0.0000000000000000
  0
MTEXT
  5
185
100
AcDbEntity
  8
MAIN0
  6
CONTINUOUS
 62
3
100
AcDbMText
 10
943.2284384798978
 20
959.9108989532494
 30
0.0000000000000000
 40
3.000000000000000
 41
0.0000000000000000
 71
     1
 72
     1
  1
{\H0.59x;{LUBRICATION PORT}}
 11
1.393499969507555e-015
 21
1.000000000000000
 31
0.0000000000000000
  7
STANDARD
  0
LINE
  5
186
100
AcDbEntity
  8
MAIN0
  6
CONTINUOUS
 62
3
100
AcDbLine
 10
937.8907456316075
 20
953.1109010074316
 30
0.0000000000000000
 11
945.8907456316075
 21
953.1109010074320
 31
0.0000000000000000
  0
LINE
  5
187
100
AcDbEntity
  8
MAIN0
  6
CONTINUOUS
 62
3
100
AcDbLine
 10
935.8907456316074
 20
955.1109010074320
 30
0.0000000000000000
 11
935.8907456316075
 21
992.1109010074320
 31
0.0000000000000000
  0
LINE
  5
188
100
AcDbEntity
  8
MAIN0
  6
CONTINUOUS
 62
3
100
AcDbLine
 10
937.8907456316074
 20
994.1109010074316
 30
0.0000000000000000
 11
945.8907456316074
 21
994.1109010074320
 31
0.0000000000000000
  0
MTEXT
  5
189
100
AcDbEntity
  8
MAIN0
  6
CONTINUOUS
 62
3
100
AcDbMText
 10
937.5907456316074
 20
960.4909010074323
 30
0.0000000000000000
 40
4.000000000000000
 41
0.0000000000000000
 71
     1
 72
     1
  1
{\H0.93x;{潤滑油供給口}}
 11
1.393499969507555e-015
 21
1.000000000000000
 31
0.0000000000000000
  7
KNJYOKO
  0
LINE
  5
18A
100
AcDbEntity
  8
MAIN0
  6
CENTER
 62
3
100
AcDbLine
 10
937.9521038944389
 20
957.1109010074317
 30
0.0000000000000000
 11
945.0386832972229
 21
957.1109010074321
 31
0.0000000000000000
  0
LINE
  5
18B
100
AcDbEntity
  8
MAIN0
  6
CENTER
 62
3
100
AcDbLine
 10
938.1322721529043
 20
990.1109010074317
 30
0.0000000000000000
 11
946.2998542658593
 21
990.1109010074322
 31
0.0000000000000000
  0
LINE
  5
18C
100
AcDbEntity
  8
MAIN0
  6
CENTER
 62
3
100
AcDbLine
 10
941.8907456316053
 20
952.3314700259368
 30
0.0000000000000000
 11
941.8907456316055
 21
959.5786629561164
 31
0.0000000000000000
  0
LINE
  5
18D
100
AcDbEntity
  8
MAIN0
  6
CENTER
 62
3
100
AcDbLine
 10
941.8907456316055
 20
988.1051511059241
 30
0.0000000000000000
 11
941.8907456316055
 21
994.6917327889149
 31
0.0000000000000000
  0
ARC
  5
18E
100
AcDbEntity
  8
MAIN0
  6
CONTINUOUS
 62
3
100
AcDbCircle
 10
937.8907456316075
 20
992.1109010074318
 30
0.0000000000000000
 40
2.000000000000000
100
AcDbArc
 50
89.99999999999993
 51
179.9999999999999
  0
ARC
  5
18F
100
AcDbEntity
  8
MAIN0
  6
CONTINUOUS
 62
3
100
AcDbCircle
 10
945.8907456316075
 20
992.1109010074322
 30
0.0000000000000000
 40
2.000000000000000
100
AcDbArc
 50
359.9999999999999
 51
449.9999999999999
  0
ARC
  5
190
100
AcDbEntity
  8
MAIN0
  6
CONTINUOUS
 62
3
100
AcDbCircle
 10
945.8907456316075
 20
955.1109010074323
 30
0.0000000000000000
 40
2.000000000000000
100
AcDbArc
 50
269.9999999999999
 51
359.9999999999999
  0
ARC
  5
191
100
AcDbEntity
  8
MAIN0
  6
CONTINUOUS
 62
3
100
AcDbCircle
 10
937.8907456316075
 20
955.1109010074318
 30
0.0000000000000000
 40
2.000000000000000
100
AcDbArc
 50
179.9999999999999
 51
269.9999999999999
  0
LINE
  5
192
100
AcDbEntity
  8
MAIN0
  6
CONTINUOUS
 62
3
100
AcDbLine
 10
943.1281824986818
 20
991.3483378745082
 30
0.0000000000000000
 11
940.6533087645289
 21
988.8734641403552
 31
0.0000000000000000
  0
LINE
  5
193
100
AcDbEntity
  8
MAIN0
  6
CONTINUOUS
 62
3
100
AcDbLine
 10
943.1281824986818
 20
988.8734641403554
 30
0.0000000000000000
 11
940.6533087645289
 21
991.3483378745083
 31
0.0000000000000000
  0
CIRCLE
  5
194
100
AcDbEntity
  8
MAIN0
  6
CONTINUOUS
 62
3
100
AcDbCircle
 10
941.8907456316053
 20
990.1109010074320
 30
0.0000000000000000
 40
2.750000000000000
  0
CIRCLE
  5
195
100
AcDbEntity
  8
MAIN0
  6
CONTINUOUS
 62
3
100
AcDbCircle
 10
941.8907456316055
 20
957.1109010074322
 30
0.0000000000000000
 40
2.750000000000000
  0
LINE
  5
196
100
AcDbEntity
  8
MAIN0
  6
CONTINUOUS
 62
3
100
AcDbLine
 10
943.1281824986820
 20
958.3483378745085
 30
0.0000000000000000
 11
940.6533087645291
 21
955.8734641403555
 31
0.0000000000000000
  0
LINE
  5
197
100
AcDbEntity
  8
MAIN0
  6
CONTINUOUS
 62
3
100
AcDbLine
 10
943.1281824986821
 20
955.8734641403555
 30
0.0000000000000000
 11
940.6533087645291
 21
958.3483378745084
 31
0.0000000000000000
  0
CIRCLE
  5
198
100
AcDbEntity
  8
MAIN0
  6
CONTINUOUS
 62
3
100
AcDbCircle
 10
1155.390745631607
 20
973.6109010075772
 30
0.0000000000000000
 40
6.500000000000000
  0
CIRCLE
  5
199
100
AcDbEntity
  8
MAIN0
  6
CONTINUOUS
 62
3
100
AcDbCircle
 10
1155.390745631607
 20
973.6109010075772
 30
0.0000000000000000
 40
6.750000000318323
  0
LINE
  5
19A
100
AcDbEntity
  8
MAIN0
  6
CENTER
 62
3
100
AcDbLine
 10
1155.390745631607
 20
963.9708405394686
 30
0.0000000000000000
 11
1155.390745631607
 21
983.1214886494829
 31
0.0000000000000000
  0
LINE
  5
19B
100
AcDbEntity
  8
MAIN0
  6
CONTINUOUS
 62
3
100
AcDbLine
 10
1153.390745631607
 20
972.4562004691981
 30
0.0000000000000000
 11
1155.390745631607
 21
971.3014999308189
 31
0.0000000000000000
  0
LINE
  5
19C
100
AcDbEntity
  8
MAIN0
  6
CONTINUOUS
 62
3
100
AcDbLine
 10
1153.390745631607
 20
974.7656015459565
 30
0.0000000000000000
 11
1153.390745631607
 21
972.4562004691979
 31
0.0000000000000000
  0
LINE
  5
19D
100
AcDbEntity
  8
MAIN0
  6
CONTINUOUS
 62
3
100
AcDbLine
 10
1155.390745631607
 20
975.9203020843353
 30
0.0000000000000000
 11
1153.390745631607
 21
974.7656015459562
 31
0.0000000000000000
  0
LINE
  5
19E
100
AcDbEntity
  8
MAIN0
  6
CONTINUOUS
 62
3
100
AcDbLine
 10
1157.390745631607
 20
974.7656015459564
 30
0.0000000000000000
 11
1155.390745631607
 21
975.9203020843357
 31
0.0000000000000000
  0
LINE
  5
19F
100
AcDbEntity
  8
MAIN0
  6
CONTINUOUS
 62
3
100
AcDbLine
 10
1157.390745631607
 20
972.4562004691979
 30
0.0000000000000000
 11
1157.390745631607
 21
974.7656015459565
 31
0.0000000000000000
  0
LINE
  5
1A0
100
AcDbEntity
  8
MAIN0
  6
CONTINUOUS
 62
3
100
AcDbLine
 10
1155.390745631607
 20
971.3014999308182
 30
0.0000000000000000
 11
1157.390745631607
 21
972.4562004691974
 31
0.0000000000000000
  0
LINE
  5
1A1
100
AcDbEntity
  8
MAIN0
  6
CONTINUOUS
 62
3
100
AcDbLine
 10
1143.890745631609
 20
955.1109010074325
 30
0.0000000000000000
 11
1143.890745631609
 21
992.1109010074323
 31
0.0000000000000000
  0
MTEXT
  5
1A2
100
AcDbEntity
  8
MAIN0
  6
CONTINUOUS
 62
3
100
AcDbMText
 10
1139.228438479900
 20
959.9108989532497
 30
0.0000000000000000
 40
3.000000000000000
 41
0.0000000000000000
 71
     1
 72
     1
  1
{\H0.59x;{LUBRICATION PORT}}
 11
1.393499969507555e-015
 21
1.000000000000000
 31
0.0000000000000000
  7
STANDARD
  0
LINE
  5
1A3
100
AcDbEntity
  8
MAIN0
  6
CONTINUOUS
 62
3
100
AcDbLine
 10
1133.890745631610
 20
953.1109010074317
 30
0.0000000000000000
 11
1141.890745631610
 21
953.1109010074322
 31
0.0000000000000000
  0
LINE
  5
1A4
100
AcDbEntity
  8
MAIN0
  6
CONTINUOUS
 62
3
100
AcDbLine
 10
1131.890745631609
 20
955.1109010074321
 30
0.0000000000000000
 11
1131.890745631609
 21
992.1109010074321
 31
0.0000000000000000
  0
LINE
  5
1A5
100
AcDbEntity
  8
MAIN0
  6
CONTINUOUS
 62
3
100
AcDbLine
 10
1133.890745631609
 20
994.1109010074317
 30
0.0000000000000000
 11
1141.890745631609
 21
994.1109010074322
 31
0.0000000000000000
  0
MTEXT
  5
1A6
100
AcDbEntity
  8
MAIN0
  6
CONTINUOUS
 62
3
100
AcDbMText
 10
1133.590745631610
 20
960.4909010074325
 30
0.0000000000000000
 40
4.000000000000000
 41
0.0000000000000000
 71
     1
 72
     1
  1
{\H0.93x;{潤滑油供給口}}
 11
1.393499969507555e-015
 21
1.000000000000000
 31
0.0000000000000000
  7
KNJYOKO
  0
LINE
  5
1A7
100
AcDbEntity
  8
MAIN0
  6
CENTER
 62
3
100
AcDbLine
 10
1133.952103894441
 20
957.1109010074318
 30
0.0000000000000000
 11
1141.038683297225
 21
957.1109010074323
 31
0.0000000000000000
  0
LINE
  5
1A8
100
AcDbEntity
  8
MAIN0
  6
CENTER
 62
3
100
AcDbLine
 10
1134.132272152906
 20
990.1109010074320
 30
0.0000000000000000
 11
1142.299854265861
 21
990.1109010074324
 31
0.0000000000000000
  0
LINE
  5
1A9
100
AcDbEntity
  8
MAIN0
  6
CENTER
 62
3
100
AcDbLine
 10
1137.890745631607
 20
952.3314700259369
 30
0.0000000000000000
 11
1137.890745631607
 21
959.5786629561166
 31
0.0000000000000000
  0
LINE
  5
1AA
100
AcDbEntity
  8
MAIN0
  6
CENTER
 62
3
100
AcDbLine
 10
1137.890745631607
 20
988.1051511059242
 30
0.0000000000000000
 11
1137.890745631607
 21
994.6917327889150
 31
0.0000000000000000
  0
ARC
  5
1AB
100
AcDbEntity
  8
MAIN0
  6
CONTINUOUS
 62
3
100
AcDbCircle
 10
1133.890745631610
 20
992.1109010074321
 30
0.0000000000000000
 40
2.000000000000000
100
AcDbArc
 50
89.99999999999993
 51
179.9999999999999
  0
ARC
  5
1AC
100
AcDbEntity
  8
MAIN0
  6
CONTINUOUS
 62
3
100
AcDbCircle
 10
1141.890745631610
 20
992.1109010074324
 30
0.0000000000000000
 40
2.000000000000000
100
AcDbArc
 50
359.9999999999999
 51
449.9999999999999
  0
ARC
  5
1AD
100
AcDbEntity
  8
MAIN0
  6
CONTINUOUS
 62
3
100
AcDbCircle
 10
1141.890745631610
 20
955.1109010074325
 30
0.0000000000000000
 40
2.000000000000000
100
AcDbArc
 50
269.9999999999999
 51
359.9999999999999
  0
ARC
  5
1AE
100
AcDbEntity
  8
MAIN0
  6
CONTINUOUS
 62
3
100
AcDbCircle
 10
1133.890745631610
 20
955.1109010074321
 30
0.0000000000000000
 40
2.000000000000000
100
AcDbArc
 50
179.9999999999999
 51
269.9999999999999
  0
LINE
  5
1AF
100
AcDbEntity
  8
MAIN0
  6
CONTINUOUS
 62
3
100
AcDbLine
 10
1139.128182498684
 20
991.3483378745085
 30
0.0000000000000000
 11
1136.653308764531
 21
988.8734641403555
 31
0.0000000000000000
  0
LINE
  5
1B0
100
AcDbEntity
  8
MAIN0
  6
CONTINUOUS
 62
3
100
AcDbLine
 10
1139.128182498684
 20
988.8734641403557
 30
0.0000000000000000
 11
1136.653308764531
 21
991.3483378745087
 31
0.0000000000000000
  0
CIRCLE
  5
1B1
100
AcDbEntity
  8
MAIN0
  6
CONTINUOUS
 62
3
100
AcDbCircle
 10
1137.890745631607
 20
990.1109010074322
 30
0.0000000000000000
 40
2.750000000000000
  0
CIRCLE
  5
1B2
100
AcDbEntity
  8
MAIN0
  6
CONTINUOUS
 62
3
100
AcDbCircle
 10
1137.890745631607
 20
957.1109010074324
 30
0.0000000000000000
 40
2.750000000000000
  0
LINE
  5
1B3
100
AcDbEntity
  8
MAIN0
  6
CONTINUOUS
 62
3
100
AcDbLine
 10
1139.128182498684
 20
958.3483378745087
 30
0.0000000000000000
 11
1136.653308764531
 21
955.8734641403559
 31
0.0000000000000000
  0
LINE
  5
1B4
100
AcDbEntity
  8
MAIN0
  6
CONTINUOUS
 62
3
100
AcDbLine
 10
1139.128182498684
 20
955.8734641403557
 30
0.0000000000000000
 11
1136.653308764531
 21
958.3483378745087
 31
0.0000000000000000
  0
LINE
  5
1B5
100
AcDbEntity
  8
MAIN0
  6
CONTINUOUS
 62
3
100
AcDbLine
 10
948.0030193314341
 20
671.8420009481935
 30
0.0000000000000000
 11
948.0030193314336
 21
670.8420009481935
 31
0.0000000000000000
  0
LINE
  5
1B6
100
AcDbEntity
  8
MAIN0
  6
CONTINUOUS
 62
3
100
AcDbLine
 10
936.0030193313719
 20
671.8420009482472
 30
0.0000000000000000
 11
948.0030193314340
 21
671.8420009481933
 31
0.0000000000000000
  0
LINE
  5
1B7
100
AcDbEntity
  8
MAIN0
  6
CONTINUOUS
 62
3
100
AcDbLine
 10
936.0030193313719
 20
671.8420009482475
 30
0.0000000000000000
 11
936.0030193313716
 21
670.8420009482474
 31
0.0000000000000000
  0
LINE
  5
1B8
100
AcDbEntity
  8
MAIN0
  6
CONTINUOUS
 62
3
100
AcDbLine
 10
939.2530193316511
 20
672.8420009482204
 30
0.0000000000000000
 11
939.2530193316511
 21
671.8420009482204
 31
0.0000000000000000
  0
ARC
  5
1B9
100
AcDbEntity
  8
MAIN0
  6
CONTINUOUS
 62
3
100
AcDbCircle
 10
940.2530193316511
 20
672.8420009482204
 30
0.0000000000000000
 40
1.000000000000000
100
AcDbArc
 50
90.00000000000000
 51
180.0000000000000
  0
LINE
  5
1BA
100
AcDbEntity
  8
MAIN0
  6
CONTINUOUS
 62
3
100
AcDbLine
 10
943.7530193316511
 20
673.8420009482204
 30
0.0000000000000000
 11
940.2530193316511
 21
673.8420009482204
 31
0.0000000000000000
  0
ARC
  5
1BB
100
AcDbEntity
  8
MAIN0
  6
CONTINUOUS
 62
3
100
AcDbCircle
 10
943.7530193316511
 20
672.8420009482204
 30
0.0000000000000000
 40
1.000000000000000
100
AcDbArc
 50
0.0000000000000000
 51
90.00000000000000
  0
LINE
  5
1BC
100
AcDbEntity
  8
MAIN0
  6
CONTINUOUS
 62
3
100
AcDbLine
 10
944.7530193316511
 20
671.8420009482204
 30
0.0000000000000000
 11
944.7530193316511
 21
672.8420009482204
 31
0.0000000000000000
  0
LINE
  5
1BD
100
AcDbEntity
  8
MAIN0
  6
CONTINUOUS
 62
3
100
AcDbLine
 10
917.6407456315512
 20
672.0420009483000
 30
0.0000000000000000
 11
931.1407456315512
 21
672.0420009483023
 31
0.0000000000000000
  0
LINE
  5
1BE
100
AcDbEntity
  8
MAIN0
  6
CONTINUOUS
 62
3
100
AcDbLine
 10
931.1407456315458
 20
670.8420009482993
 30
0.0000000000000000
 11
931.1407456315512
 21
672.0420009482994
 31
0.0000000000000000
  0
LINE
  5
1BF
100
AcDbEntity
  8
MAIN0
  6
CONTINUOUS
 62
3
100
AcDbLine
 10
930.8907456315566
 20
672.0420009483024
 30
0.0000000000000000
 11
930.8907456314804
 21
673.5420009483025
 31
0.0000000000000000
  0
LINE
  5
1C0
100
AcDbEntity
  8
MAIN0
  6
CONTINUOUS
 62
3
100
AcDbLine
 10
930.8907456314805
 20
673.5420009483024
 30
0.0000000000000000
 11
917.8907456314804
 21
673.5420009483024
 31
0.0000000000000000
  0
LINE
  5
1C1
100
AcDbEntity
  8
MAIN0
  6
CONTINUOUS
 62
3
100
AcDbLine
 10
917.8907456314804
 20
673.5420009483025
 30
0.0000000000000000
 11
917.8907456315566
 21
672.0420009483025
 31
0.0000000000000000
  0
LINE
  5
1C2
100
AcDbEntity
  8
MAIN0
  6
CONTINUOUS
 62
3
100
AcDbLine
 10
917.6407456315458
 20
670.8420009482993
 30
0.0000000000000000
 11
917.6407456315512
 21
672.0420009482994
 31
0.0000000000000000
  0
LINE
  5
1C3
100
AcDbEntity
  8
MAIN0
  6
CENTER
 62
3
100
AcDbLine
 10
942.0030193316505
 20
674.9545886803412
 30
0.0000000000000000
 11
942.0030193316514
 21
668.9507690963779
 31
0.0000000000000000
  0
LINE
  5
1C4
100
AcDbEntity
  8
MAIN0
  6
HIDDEN
 62
3
100
AcDbLine
 10
919.8907456315636
 20
652.3420009481936
 30
0.0000000000000000
 11
928.8907456315636
 21
652.3420009481936
 31
0.0000000000000000
  0
LINE
  5
1C5
100
AcDbEntity
  8
MAIN0
  6
HIDDEN
 62
3
100
AcDbLine
 10
918.8907456312136
 20
653.3420009481940
 30
0.0000000000000000
 11
919.8907456312182
 21
652.3420009481932
 31
0.0000000000000000
  0
LINE
  5
1C6
100
AcDbEntity
  8
MAIN0
  6
HIDDEN
 62
3
100
AcDbLine
 10
929.8907456319134
 20
653.3420009481938
 30
0.0000000000000000
 11
928.8907456319090
 21
652.3420009481933
 31
0.0000000000000000
  0
LINE
  5
1C7
100
AcDbEntity
  8
MAIN0
  6
HIDDEN
 62
3
100
AcDbLine
 10
919.8907456315636
 20
589.3420009481936
 30
0.0000000000000000
 11
928.8907456315636
 21
589.3420009481936
 31
0.0000000000000000
  0
LINE
  5
1C8
100
AcDbEntity
  8
MAIN0
  6
HIDDEN
 62
3
100
AcDbLine
 10
918.8907456312139
 20
588.3420009481933
 30
0.0000000000000000
 11
919.8907456312184
 21
589.3420009481938
 31
0.0000000000000000
  0
LINE
  5
1C9
100
AcDbEntity
  8
MAIN0
  6
HIDDEN
 62
3
100
AcDbLine
 10
929.8907456319131
 20
588.3420009481941
 30
0.0000000000000000
 11
928.8907456319090
 21
589.3420009481943
 31
0.0000000000000000
  0
LINE
  5
1CA
100
AcDbEntity
  8
MAIN0
  6
CENTER
 62
3
100
AcDbLine
 10
1155.390745631632
 20
667.6458430696027
 30
0.0000000000000000
 11
1155.390745631631
 21
676.8297157510573
 31
0.0000000000000000
  0
LINE
  5
1CB
100
AcDbEntity
  8
MAIN0
  6
CONTINUOUS
 62
3
100
AcDbLine
 10
1148.640745631619
 20
672.0420009483000
 30
0.0000000000000000
 11
1162.140745631619
 21
672.0420009483023
 31
0.0000000000000000
  0
LINE
  5
1CC
100
AcDbEntity
  8
MAIN0
  6
CONTINUOUS
 62
3
100
AcDbLine
 10
1162.140745631613
 20
670.8420009482993
 30
0.0000000000000000
 11
1162.140745631619
 21
672.0420009482994
 31
0.0000000000000000
  0
LINE
  5
1CD
100
AcDbEntity
  8
MAIN0
  6
CONTINUOUS
 62
3
100
AcDbLine
 10
1161.890745631624
 20
672.0420009483024
 30
0.0000000000000000
 11
1161.890745631548
 21
673.5420009483025
 31
0.0000000000000000
  0
LINE
  5
1CE
100
AcDbEntity
  8
MAIN0
  6
CONTINUOUS
 62
3
100
AcDbLine
 10
1161.890745631548
 20
673.5420009483024
 30
0.0000000000000000
 11
1148.890745631548
 21
673.5420009483024
 31
0.0000000000000000
  0
LINE
  5
1CF
100
AcDbEntity
  8
MAIN0
  6
CONTINUOUS
 62
3
100
AcDbLine
 10
1148.890745631548
 20
673.5420009483025
 30
0.0000000000000000
 11
1148.890745631624
 21
672.0420009483025
 31
0.0000000000000000
  0
LINE
  5
1D0
100
AcDbEntity
  8
MAIN0
  6
CONTINUOUS
 62
3
100
AcDbLine
 10
1148.640745631613
 20
670.8420009482993
 30
0.0000000000000000
 11
1148.640745631619
 21
672.0420009482994
 31
0.0000000000000000
  0
LINE
  5
1D1
100
AcDbEntity
  8
MAIN0
  6
CONTINUOUS
 62
3
100
AcDbLine
 10
1143.890745631415
 20
671.8420009481935
 30
0.0000000000000000
 11
1143.890745631414
 21
670.8420009481935
 31
0.0000000000000000
  0
LINE
  5
1D2
100
AcDbEntity
  8
MAIN0
  6
CONTINUOUS
 62
3
100
AcDbLine
 10
1131.890745631352
 20
671.8420009482472
 30
0.0000000000000000
 11
1143.890745631414
 21
671.8420009481935
 31
0.0000000000000000
  0
LINE
  5
1D3
100
AcDbEntity
  8
MAIN0
  6
CONTINUOUS
 62
3
100
AcDbLine
 10
1131.890745631352
 20
671.8420009482475
 30
0.0000000000000000
 11
1131.890745631352
 21
670.8420009482472
 31
0.0000000000000000
  0
LINE
  5
1D4
100
AcDbEntity
  8
MAIN0
  6
CONTINUOUS
 62
3
100
AcDbLine
 10
1135.140745631632
 20
672.8420009482204
 30
0.0000000000000000
 11
1135.140745631632
 21
671.8420009482204
 31
0.0000000000000000
  0
ARC
  5
1D5
100
AcDbEntity
  8
MAIN0
  6
CONTINUOUS
 62
3
100
AcDbCircle
 10
1136.140745631632
 20
672.8420009482204
 30
0.0000000000000000
 40
1.000000000000000
100
AcDbArc
 50
90.00000000000000
 51
180.0000000000000
  0
LINE
  5
1D6
100
AcDbEntity
  8
MAIN0
  6
CONTINUOUS
 62
3
100
AcDbLine
 10
1139.640745631632
 20
673.8420009482204
 30
0.0000000000000000
 11
1136.140745631632
 21
673.8420009482204
 31
0.0000000000000000
  0
ARC
  5
1D7
100
AcDbEntity
  8
MAIN0
  6
CONTINUOUS
 62
3
100
AcDbCircle
 10
1139.640745631632
 20
672.8420009482204
 30
0.0000000000000000
 40
1.000000000000000
100
AcDbArc
 50
0.0000000000000000
 51
90.00000000000000
  0
LINE
  5
1D8
100
AcDbEntity
  8
MAIN0
  6
CONTINUOUS
 62
3
100
AcDbLine
 10
1140.640745631632
 20
671.8420009482204
 30
0.0000000000000000
 11
1140.640745631632
 21
672.8420009482204
 31
0.0000000000000000
  0
LINE
  5
1D9
100
AcDbEntity
  8
MAIN0
  6
CENTER
 62
3
100
AcDbLine
 10
1137.890745631631
 20
674.9545886803412
 30
0.0000000000000000
 11
1137.890745631632
 21
668.9507690963779
 31
0.0000000000000000
  0
DIMENSION
  5
1E2
100
AcDbEntity
  8
MAIN0
  6
CONTINUOUS
 62
3
100
AcDbDimension
  2
*D11
 10
803.7151174619677
 20
360.3420009482201
 30
0.0000000000000000
 11
803.2151174619677
 21
325.5920009482202
 31
0.0000000000000000
 70
32
  3
MAIN001
100
AcDbAlignedDimension
 13
873.3907456315949
 23
290.8420009482202
 33
0.0000000000000000
 14
877.9984407861533
 24
360.3420009482201
 34
0.0000000000000000
 50
90.00000000000000
100
AcDbRotatedDimension
1001
ACAD
1000
DSTYLE
1002
{
1070
   173
1070
     1
1070
     6
1000
_OPEN
1070
     7
1000
_OPEN
1070
    41
1040
8.000000
1002
}
  0
DIMENSION
  5
1ED
100
AcDbEntity
  8
MAIN0
  6
CONTINUOUS
 62
3
100
AcDbDimension
  2
*D12
 10
803.7151174619677
 20
290.8420009482202
 30
0.0000000000000000
 11
803.2151174619677
 21
285.3420009482202
 31
0.0000000000000000
 70
32
  3
MAIN001
100
AcDbAlignedDimension
 13
873.3907456315949
 23
279.8420009482202
 33
0.0000000000000000
 14
873.3907456315949
 24
290.8420009482202
 34
0.0000000000000000
 50
90.00000000000000
100
AcDbRotatedDimension
1001
ACAD
1000
DSTYLE
1002
{
1070
   173
1070
     1
1070
     6
1000
_OPEN
1070
     7
1000
_OPEN
1070
    41
1040
8.000000
1070
   287
1070
     0
1002
}
  0
DIMENSION
  5
1F8
100
AcDbEntity
  8
MAIN0
  6
CONTINUOUS
 62
3
100
AcDbDimension
  2
*D13
 10
836.7670747002661
 20
290.8420009482202
 30
0.0000000000000000
 11
836.2670747002661
 21
300.8420009482071
 31
0.0000000000000000
 70
32
  3
MAIN001
100
AcDbAlignedDimension
 13
869.3907456316075
 23
310.8420009481940
 33
0.0000000000000000
 14
873.3907456315949
 24
290.8420009482202
 34
0.0000000000000000
 50
90.00000000000000
100
AcDbRotatedDimension
1001
ACAD
1000
DSTYLE
1002
{
1070
   173
1070
     1
1070
     6
1000
_OPEN
1070
     7
1000
_OPEN
1070
    41
1040
8.000000
1070
   287
1070
     0
1002
}
  0
DIMENSION
  5
201
100
AcDbEntity
  8
MAIN0
  6
CONTINUOUS
 62
3
100
AcDbDimension
  2
*D14
 10
836.7670747002661
 20
310.8420009481940
 30
0.0000000000000000
 11
836.2670747002661
 21
328.3420009481940
 31
0.0000000000000000
 70
32
  3
MAIN001
100
AcDbAlignedDimension
 13
869.3907456316075
 23
345.8420009481940
 33
0.0000000000000000
 14
869.3907456316075
 24
310.8420009481940
 34
0.0000000000000000
 50
90.00000000000000
100
AcDbRotatedDimension
1001
ACAD
1000
DSTYLE
1002
{
1070
   173
1070
     1
1070
     6
1000
_OPEN
1070
     7
1000
_OPEN
1070
    41
1040
8.000000
1002
}
  0
LINE
  5
202
100
AcDbEntity
  8
MAIN0
  6
CONTINUOUS
 62
3
100
AcDbLine
 10
873.3907456316130
 20
150.4129558308803
 30
0.0000000000000000
 11
873.3907456315772
 21
178.9129558308803
 31
0.0000000000000000
  0
LINE
  5
203
100
AcDbEntity
  8
MAIN0
  6
CONTINUOUS
 62
3
100
AcDbLine
 10
903.3907456317347
 20
150.4129558308736
 30
0.0000000000000000
 11
903.3907456317347
 21
178.9129558308736
 31
0.0000000000000000
  0
LINE
  5
204
100
AcDbEntity
  8
MAIN0
  6
CONTINUOUS
 62
3
100
AcDbLine
 10
873.3907456315776
 20
178.9129558308803
 30
0.0000000000000000
 11
903.3907456317348
 21
178.9129558308736
 31
0.0000000000000000
  0
LINE
  5
205
100
AcDbEntity
  8
MAIN0
  6
CONTINUOUS
 62
3
100
AcDbLine
 10
873.3907456316127
 20
150.4129558308803
 30
0.0000000000000000
 11
903.3907456317347
 21
150.4129558308736
 31
0.0000000000000000
  0
LINE
  5
206
100
AcDbEntity
  8
MAIN0
  6
CENTER
 62
3
100
AcDbLine
 10
864.7737324205701
 20
164.6629558308822
 30
0.0000000000000000
 11
912.8391948472913
 21
164.6629558308715
 31
0.0000000000000000
  0
CIRCLE
  5
207
100
AcDbEntity
  8
MAIN0
  6
CONTINUOUS
 62
3
100
AcDbCircle
 10
888.3907456316075
 20
164.6629558308769
 30
0.0000000000000000
 40
8.000000000000000
  0
CIRCLE
  5
208
100
AcDbEntity
  8
MAIN0
  6
CONTINUOUS
 62
3
100
AcDbCircle
 10
888.3907456316075
 20
164.6629558308769
 30
0.0000000000000000
 40
7.000000000000000
  0
LINE
  5
209
100
AcDbEntity
  8
MAIN0
  6
HIDDEN
 62
3
100
AcDbLine
 10
873.3907456315841
 20
173.4129558308803
 30
0.0000000000000000
 11
903.3907456317347
 21
173.4129558308736
 31
0.0000000000000000
  0
LINE
  5
20A
100
AcDbEntity
  8
MAIN0
  6
HIDDEN
 62
3
100
AcDbLine
 10
873.3907456316061
 20
155.9129558308803
 30
0.0000000000000000
 11
903.3907456317348
 21
155.9129558308736
 31
0.0000000000000000
  0
LEADER
  5
20B
100
AcDbEntity
  8
MAIN0
  6
CONTINUOUS
 62
3
100
AcDbLeader
  3
MAIN001
 73
     0
 75
     1
 40
12.39999961853027
 41
31.95900099182131
 76
     3
 10
883.6560814380941
 20
158.2144711271142
 30
0.0000000000000000
 10
853.6441460482330
 20
118.0647789492388
 30
0.0000000000000000
 10
845.9391462713928
 20
118.0647789492388
 30
0.0000000000000000
340
20C
213
0.0000000000000000
223
-2.000000000000000
233
0.0000000000000000
1001
ACAD
1000
DSTYLE
1002
{
1070
   147
1040
0.0
1070
    77
1070
     1
1070
   173
1070
     1
1070
     6
1000
_OPEN
1070
     7
1000
_OPEN
1002
}
  0
MTEXT
  5
20C
102
{ACAD_REACTORS
330
20B
102
}
100
AcDbEntity
  8
MAIN0
  6
CONTINUOUS
 62
3
100
AcDbMText
 10
813.9801452795715
 20
132.4647785677691
 30
0.0000000000000000
 40
12.39999961853027
 41
0.0000000000000000
 71
     1
 72
     1
  1
{\H0.90x;{M16}}
 11
1.000000000000000
 21
0.0000000000000000
 31
0.0000000000000000
  7
STANDARD
  0
DIMENSION
  5
215
100
AcDbEntity
  8
MAIN0
  6
CONTINUOUS
 62
3
100
AcDbDimension
  2
*D15
 10
836.7670747002661
 20
178.9129558308803
 30
0.0000000000000000
 11
836.2670747002661
 21
164.6629558308803
 31
0.0000000000000000
 70
32
  3
MAIN001
100
AcDbAlignedDimension
 13
873.3907456316127
 23
150.4129558308803
 33
0.0000000000000000
 14
873.3907456315776
 24
178.9129558308803
 34
0.0000000000000000
 50
90.00000000000000
100
AcDbRotatedDimension
1001
ACAD
1000
DSTYLE
1002
{
1070
   173
1070
     1
1070
     6
1000
_OPEN
1070
     7
1000
_OPEN
1070
    41
1040
8.000000
1002
}
  0
DIMENSION
  5
21E
100
AcDbEntity
  8
MAIN0
  6
CONTINUOUS
 62
3
100
AcDbDimension
  2
*D16
 10
873.3907456316126
 20
118.0647789492388
 30
0.0000000000000000
 11
888.3907456316737
 21
118.5647789492388
 31
0.0000000000000000
 70
32
  3
MAIN001
100
AcDbAlignedDimension
 13
903.3907456317347
 23
150.4129558308736
 33
0.0000000000000000
 14
873.3907456316130
 24
150.4129558308803
 34
0.0000000000000000
100
AcDbRotatedDimension
1001
ACAD
1000
DSTYLE
1002
{
1070
   173
1070
     1
1070
     6
1000
_OPEN
1070
     7
1000
_OPEN
1070
    41
1040
8.000000
1002
}
  0
DIMENSION
  5
229
100
AcDbEntity
  8
MAIN0
  6
CONTINUOUS
 62
3
100
AcDbDimension
  2
*D17
 10
926.2026846613662
 20
173.4129558308738
 30
0.0000000000000000
 11
924.7026846613662
 21
190.2167157094342
 31
0.0000000000000000
 70
160
  3
MAIN001
100
AcDbAlignedDimension
 13
902.3907456317347
 23
155.9129558308738
 33
0.0000000000000000
 14
902.3907456317347
 24
173.4129558308738
 34
0.0000000000000000
 50
90.00000000000000
100
AcDbRotatedDimension
1001
ACAD
1000
DSTYLE
1002
{
1070
   173
1070
     1
1070
     6
1000
_OPEN
1070
     7
1000
_OPEN
1070
    41
1040
8.000000
1070
   287
1070
     0
1002
}
  0
LINE
  5
22A
100
AcDbEntity
  8
MAIN0
  6
CONTINUOUS
 62
3
100
AcDbLine
 10
909.3907456316075
 20
348.8420009481940
 30
0.0000000000000000
 11
897.1985096959685
 21
348.8420009481940
 31
0.0000000000000000
  0
LINE
  5
22B
100
AcDbEntity
  8
MAIN0
  6
CONTINUOUS
 62
3
100
AcDbLine
 10
897.1985096959696
 20
345.8420009481940
 30
0.0000000000000000
 11
897.1985096959685
 21
348.8420009481940
 31
0.0000000000000000
  0
LINE
  5
22C
100
AcDbEntity
  8
MAIN0
  6
CONTINUOUS
 62
3
100
AcDbLine
 10
869.3907456316075
 20
345.8420009481940
 30
0.0000000000000000
 11
897.1985096959696
 21
345.8420009481940
 31
0.0000000000000000
  0
LINE
  5
22D
100
AcDbEntity
  8
MAIN0
  6
HIDDEN
 62
3
100
AcDbLine
 10
897.1985096959696
 20
345.8420009481940
 30
0.0000000000000000
 11
909.3907456316075
 21
345.8420009481940
 31
0.0000000000000000
  0
LINE
  5
22E
100
AcDbEntity
  8
MAIN0
  6
CENTER
 62
3
100
AcDbLine
 10
1547.023013521559
 20
968.6109010073521
 30
0.0000000000000000
 11
1485.027626458218
 21
968.6109010073293
 31
0.0000000000000000
  0
LINE
  5
22F
100
AcDbEntity
  8
MAIN0
  6
CONTINUOUS
 62
3
100
AcDbLine
 10
1536.867435799171
 20
988.6109010073487
 30
0.0000000000000000
 11
1500.867435799169
 21
988.6109010073354
 31
0.0000000000000000
  0
LINE
  5
230
100
AcDbEntity
  8
MAIN0
  6
CONTINUOUS
 62
3
100
AcDbLine
 10
1536.867435799190
 20
948.6109010073484
 30
0.0000000000000000
 11
1500.867435799192
 21
948.6109010073351
 31
0.0000000000000000
  0
LINE
  5
231
100
AcDbEntity
  8
MAIN0
  6
CENTER
 62
3
100
AcDbLine
 10
1521.867435799194
 20
943.9886236647450
 30
0.0000000000000000
 11
1521.867435799167
 21
994.5522426989575
 31
0.0000000000000000
  0
LINE
  5
232
100
AcDbEntity
  8
MAIN0
  6
CONTINUOUS
 62
3
100
AcDbLine
 10
1494.867435799202
 20
928.1600024252382
 30
0.0000000000000000
 11
1494.867435799159
 21
1009.941170231090
 31
0.0000000000000000
  0
LINE
  5
233
100
AcDbEntity
  8
MAIN0
  6
CONTINUOUS
 62
3
100
AcDbLine
 10
1540.867435799202
 20
928.1600024252620
 30
0.0000000000000000
 11
1540.867435799186
 21
958.1109010073496
 31
0.0000000000000000
  0
LINE
  5
234
100
AcDbEntity
  8
MAIN0
  6
CONTINUOUS
 62
3
100
AcDbLine
 10
1540.867435799175
 20
979.1109010073494
 30
0.0000000000000000
 11
1540.867435799159
 21
1009.941170231113
 31
0.0000000000000000
  0
ARC
  5
235
100
AcDbEntity
  8
MAIN0
  6
CONTINUOUS
 62
3
100
AcDbCircle
 10
1500.867435799167
 20
994.6109010073352
 30
0.0000000000000000
 40
6.000000000000000
100
AcDbArc
 50
180.0000000000000
 51
270.0000000000000
  0
ARC
  5
236
100
AcDbEntity
  8
MAIN0
  6
CONTINUOUS
 62
3
100
AcDbCircle
 10
1500.867435799194
 20
942.6109010073352
 30
0.0000000000000000
 40
6.000000000000000
100
AcDbArc
 50
90.00000000000000
 51
180.0000000000000
  0
ARC
  5
237
100
AcDbEntity
  8
MAIN0
  6
CONTINUOUS
 62
3
100
AcDbCircle
 10
1536.867435799189
 20
952.6109010073484
 30
0.0000000000000000
 40
4.000000000000000
100
AcDbArc
 50
270.0000000000000
 51
360.0000000000000
  0
ARC
  5
238
100
AcDbEntity
  8
MAIN0
  6
CONTINUOUS
 62
3
100
AcDbCircle
 10
1536.867435799172
 20
984.6109010073484
 30
0.0000000000000000
 40
4.000000000000000
100
AcDbArc
 50
0.0000000000000000
 51
90.00000000000000
  0
LINE
  5
239
100
AcDbEntity
  8
MAIN0
  6
CONTINUOUS
 62
3
100
AcDbLine
 10
1539.867435799175
 20
978.1109010073493
 30
0.0000000000000000
 11
1521.867435799177
 21
978.1109010073427
 31
0.0000000000000000
  0
LINE
  5
23A
100
AcDbEntity
  8
MAIN0
  6
CONTINUOUS
 62
3
100
AcDbLine
 10
1539.867435799186
 20
959.1109010073493
 30
0.0000000000000000
 11
1521.867435799184
 21
959.1109010073427
 31
0.0000000000000000
  0
ARC
  5
23B
100
AcDbEntity
  8
MAIN0
  6
CONTINUOUS
 62
3
100
AcDbCircle
 10
1521.867435799181
 20
968.6109010073392
 30
0.0000000000000000
 40
9.500000000003574
100
AcDbArc
 50
90.00000000000000
 51
270.0000000000000
  0
LINE
  5
23C
100
AcDbEntity
  8
MAIN0
  6
CONTINUOUS
 62
3
100
AcDbLine
 10
1539.867435799175
 20
978.1109010073494
 30
0.0000000000000000
 11
1540.867435799175
 21
979.1109010073498
 31
0.0000000000000000
  0
LINE
  5
23D
100
AcDbEntity
  8
MAIN0
  6
CONTINUOUS
 62
3
100
AcDbLine
 10
1539.867435799185
 20
959.1109010073493
 30
0.0000000000000000
 11
1540.867435799186
 21
958.1109010073495
 31
0.0000000000000000
  0
ARC
  5
23E
100
AcDbEntity
  8
MAIN0
  6
CONTINUOUS
 62
3
100
AcDbCircle
 10
1523.367435799180
 20
968.6109010073433
 30
0.0000000000000000
 40
22.50000000000000
100
AcDbArc
 50
117.2660444507519
 51
242.7339555492883
  0
DIMENSION
  5
247
100
AcDbEntity
  8
MAIN0
  6
CONTINUOUS
 62
3
100
AcDbDimension
  2
*D18
 10
1540.867435799202
 20
906.1829050655141
 30
0.0000000000000000
 11
1526.617435799191
 21
906.6829050655141
 31
0.0000000000000000
 70
32
  3
MAIN001
100
AcDbAlignedDimension
 13
1512.367435799181
 23
968.6109010073396
 33
0.0000000000000000
 14
1540.867435799202
 24
928.1600024252621
 34
0.0000000000000000
100
AcDbRotatedDimension
1001
ACAD
1000
DSTYLE
1002
{
1070
   173
1070
     1
1070
     6
1000
_OPEN
1070
     7
1000
_OPEN
1070
    41
1040
8.000000
1002
}
  0
DIMENSION
  5
252
100
AcDbEntity
  8
MAIN0
  6
CONTINUOUS
 62
3
100
AcDbDimension
  2
*D19
 10
1571.585288921279
 20
978.1109010073494
 30
0.0000000000000000
 11
1571.085288921279
 21
968.6109010073494
 31
0.0000000000000000
 70
32
  3
MAIN001
100
AcDbAlignedDimension
 13
1539.867435799186
 23
959.1109010073494
 33
0.0000000000000000
 14
1539.867435799175
 24
978.1109010073494
 34
0.0000000000000000
 50
90.00000000000000
100
AcDbRotatedDimension
1001
ACAD
1000
DSTYLE
1002
{
1070
   173
1070
     1
1070
     6
1000
_OPEN
1070
     7
1000
_OPEN
1070
    41
1040
8.000000
1070
   287
1070
     0
1002
}
  0
DIMENSION
  5
25B
100
AcDbEntity
  8
MAIN0
  6
CONTINUOUS
 62
3
100
AcDbDimension
  2
*D20
 10
1540.867435799175
 20
1017.635130323181
 30
0.0000000000000000
 11
1520.867435799178
 21
1018.135130323181
 31
0.0000000000000000
 70
32
  3
MAIN001
100
AcDbAlignedDimension
 13
1500.867435799180
 23
968.6109010073350
 33
0.0000000000000000
 14
1540.867435799159
 24
1009.941170231114
 34
0.0000000000000000
100
AcDbRotatedDimension
1001
ACAD
1000
DSTYLE
1002
{
1070
   173
1070
     1
1070
     6
1000
_OPEN
1070
     7
1000
_OPEN
1070
    41
1040
8.000000
1002
}
  0
MTEXT
  5
25C
100
AcDbEntity
  8
MAIN0
  6
CONTINUOUS
 62
3
100
AcDbMText
 10
1468.067219281187
 20
869.7726936578683
 30
0.0000000000000000
 40
12.40000152587891
 41
0.0000000000000000
 71
     1
 72
     1
  1
{\H0.94x;{取付ボルト取付部}}
 11
1.000000000000000
 21
0.0000000000000000
 31
0.0000000000000000
  7
KNJYOKO
  0
LINE
  5
25D
100
AcDbEntity
  8
MAIN0
  6
CONTINUOUS
 62
4
100
AcDbLine
 10
1588.494531315309
 20
854.0644185287707
 30
0.0000000000000000
 11
1455.693024592760
 21
854.0644185287707
 31
0.0000000000000000
  0
MTEXT
  5
25E
100
AcDbEntity
  8
MAIN0
  6
CONTINUOUS
 62
3
100
AcDbMText
 10
1492.550338616455
 20
850.5749616095508
 30
0.0000000000000000
 40
12.40000152587891
 41
0.0000000000000000
 71
     1
 72
     1
  1
{\H0.92x;{U-SLOT}}
 11
1.000000000000000
 21
0.0000000000000000
 31
0.0000000000000000
  7
STANDARD
  0
MTEXT
  5
25F
100
AcDbEntity
  8
MAIN0
  6
CONTINUOUS
 62
3
100
AcDbMText
 10
1457.220239628644
 20
832.3524243044151
 30
0.0000000000000000
 40
12.39999961853027
 41
0.0000000000000000
 71
     1
 72
     1
  1
{\H0.71x;{FOR CLAMPING BOLT}}
 11
1.000000000000000
 21
0.0000000000000000
 31
0.0000000000000000
  7
STANDARD
  0
MTEXT
  5
260
100
AcDbEntity
  8
MAIN0
  6
CONTINUOUS
 62
3
100
AcDbMText
 10
1383.858131835090
 20
908.9344573771622
 30
0.0000000000000000
 40
12.39999961853027
 41
0.0000000000000000
 71
     1
 72
     1
  1
{\H0.70x;{ABOUT　261}}
 11
6.123233995736766e-017
 21
1.000000000000000
 31
0.0000000000000000
  7
KNJYOKO
  0
LEADER
  5
261
100
AcDbEntity
  8
MAIN0
  6
CONTINUOUS
 62
3
100
AcDbLeader
  3
MAIN001
 73
     0
 75
     1
 40
12.39999961853027
 41
200.6843045204373
 76
     3
 10
833.6947400229033
 20
550.8420009482379
 30
0.0000000000000000
 10
861.0631146928263
 20
487.5757718065131
 30
0.0000000000000000
 10
853.9181149034691
 20
487.5757718065131
 30
0.0000000000000000
340
262
213
0.0000000000000000
223
-2.000000000000000
233
0.0000000000000000
1001
ACAD
1000
DSTYLE
1002
{
1070
   147
1040
0.0
1070
    77
1070
     1
1070
   173
1070
     1
1070
     6
1000
_OPEN
1070
     7
1000
_OPEN
1002
}
  0
MTEXT
  5
262
102
{ACAD_REACTORS
330
261
102
}
100
AcDbEntity
  8
MAIN0
  6
CONTINUOUS
 62
3
100
AcDbMText
 10
653.2338103830318
 20
501.9757714250433
 30
0.0000000000000000
 40
12.39999961853027
 41
0.0000000000000000
 71
     1
 72
     1
  1
{\H0.71x;{センタ前後進用ハンドル\PHANDLE FOR CENTER TRAVEL}}
 11
1.000000000000000
 21
0.0000000000000000
 31
0.0000000000000000
  7
KNJYOKO
  0
LEADER
  5
263
100
AcDbEntity
  8
MAIN0
  6
CONTINUOUS
 62
3
100
AcDbLeader
  3
MAIN001
 73
     0
 75
     1
 40
12.39999961853027
 41
117.1990000774861
 76
     3
 10
881.9943635370174
 20
360.3420009482201
 30
0.0000000000000000
 10
825.7245425066343
 20
420.1230624926923
 30
0.0000000000000000
 10
818.5795427172772
 20
420.1230624926923
 30
0.0000000000000000
340
264
213
0.0000000000000000
223
-2.000000000000000
233
0.0000000000000000
1001
ACAD
1000
DSTYLE
1002
{
1070
   147
1040
0.0
1070
    77
1070
     1
1070
   173
1070
     1
1070
     6
1000
_OPEN
1070
     7
1000
_OPEN
1002
}
  0
MTEXT
  5
264
102
{ACAD_REACTORS
330
263
102
}
100
AcDbEntity
  8
MAIN0
  6
CONTINUOUS
 62
3
100
AcDbMText
 10
701.3805426397911
 20
434.5230621112226
 30
0.0000000000000000
 40
12.39999961853027
 41
0.0000000000000000
 71
     1
 72
     1
  1
{\H0.71x;{クランプ器具  ２個\PCLAMPING PARTS\P(2 SETS)}}
 11
1.000000000000000
 21
0.0000000000000000
 31
0.0000000000000000
  7
KNJYOKO
  0
DIMENSION
  5
26E
100
AcDbEntity
  8
MAIN0
  6
CONTINUOUS
 62
3
100
AcDbDimension
  2
*D21
 10
389.8170279501576
 20
305.8420009481759
 30
0.0000000000000000
 11
387.8170279501576
 21
290.8024404753224
 31
0.0000000000000000
 70
160
  3
MAIN001
100
AcDbAlignedDimension
 13
436.4177120628249
 23
310.8420009481940
 33
0.0000000000000000
 14
340.4177120628249
 24
305.8420009481759
 34
0.0000000000000000
 50
90.00000000000000
100
AcDbRotatedDimension
1001
ACAD
1000
DSTYLE
1002
{
1070
   173
1070
     1
1070
     6
1000
_OPEN
1070
     7
1000
_OPEN
1070
    41
1040
8.000000
1070
   287
1070
     0
1002
}
  0
LINE
  5
26F
100
AcDbEntity
  8
MAIN0
  6
CENTER
 62
3
100
AcDbLine
 10
888.3907456316075
 20
142.2366565400589
 30
0.0000000000000000
 11
888.3907456316075
 21
190.3094851993643
 31
0.0000000000000000
  0
LINE
  5
270
100
AcDbEntity
  8
MAIN0
  6
CENTER
 62
3
100
AcDbLine
 10
888.3907456316075
 20
272.2168725365586
 30
0.0000000000000000
 11
888.3907456316075
 21
370.7634941151221
 31
0.0000000000000000
  0
LEADER
  5
271
100
AcDbEntity
  8
MAIN0
  6
CONTINUOUS
 62
3
100
AcDbLeader
  3
MAIN001
 73
     0
 74
     0
 75
     1
 40
12.39999961853027
 41
142.4010000953674
 76
     3
 10
927.9706478571214
 20
979.3333829918266
 30
0.0000000000000000
 10
1064.195520367883
 20
1119.492074081522
 30
0.0000000000000000
 10
1071.338520157240
 20
1119.492074081522
 30
0.0000000000000000
340
272
213
0.0000000000000000
223
-2.000000000000000
233
0.0000000000000000
1001
ACAD
1000
DSTYLE
1002
{
1070
   147
1040
0.0
1070
    77
1070
     1
1070
   173
1070
     1
1070
     6
1000
_OPEN
1070
     7
1000
_OPEN
1002
}
  0
MTEXT
  5
272
102
{ACAD_REACTORS
330
271
102
}
100
AcDbEntity
  8
MAIN0
  6
CONTINUOUS
 62
3
100
AcDbMText
 10
1071.339520157240
 20
1133.892073700053
 30
0.0000000000000000
 40
12.39999961853027
 41
0.0000000000000000
 71
     1
 72
     1
  1
{\H0.71x;{ 潤滑油供給口\P LUBRICATION PORT}}
 11
1.000000000000000
 21
0.0000000000000000
 31
0.0000000000000000
  7
KNJYOKO
  0
LEADER
  5
273
100
AcDbEntity
  8
MAIN0
  6
CONTINUOUS
 62
3
100
AcDbLeader
  3
MAIN001
 73
     3
 74
     0
 75
     0
 76
     2
 10
1152.845834491218
 20
979.8627749100018
 30
0.0000000000000000
 10
1064.195520367883
 20
1119.492074081522
 30
0.0000000000000000
1001
ACAD
1000
DSTYLE
1002
{
1070
   173
1070
     1
1070
     6
1000
_OPEN
1070
     7
1000
_OPEN
1002
}
  0
CIRCLE
  5
274
100
AcDbEntity
  8
MAIN0
  6
CONTINUOUS
 62
3
100
AcDbCircle
 10
949.3907456306193
 20
1023.610901007432
 30
0.0000000000000000
 40
5.500000000000000
  0
LINE
  5
275
100
AcDbEntity
  8
MAIN0
  6
CONTINUOUS
 62
3
100
AcDbLine
 10
1144.390745631622
 20
876.6109010074728
 30
0.0000000000000000
 11
1144.390745631632
 21
853.1684806637419
 31
0.0000000000000000
  0
LINE
  5
276
100
AcDbEntity
  8
MAIN0
  6
CENTER
 62
3
100
AcDbLine
 10
1137.390745631594
 20
944.7565489129527
 30
0.0000000000000000
 11
1137.390745631651
 21
808.5569971069047
 31
0.0000000000000000
  0
LINE
  5
277
100
AcDbEntity
  8
MAIN0
  6
CONTINUOUS
 62
3
100
AcDbLine
 10
1130.390745631622
 20
876.6109010074573
 30
0.0000000000000000
 11
1130.390745631632
 21
853.1684806637361
 31
0.0000000000000000
  0
ELLIPSE
  5
278
100
AcDbEntity
  8
MAIN0
  6
CONTINUOUS
 62
3
100
AcDbEllipse
 10
1137.390745631694
 20
853.1684806638833
 30
0.0000000000000000
 11
-7.000000000000000
 21
0.0000000000000000
 31
0.0000000000000000
210
0.0000000000000000
220
0.0000000000000000
230
1.000000000000000
 40
0.9099971915428576
 41
0.0000000000000000
 42
3.141592653589793
  0
LINE
  5
279
100
AcDbEntity
  8
MAIN0
  6
CENTER
 62
3
100
AcDbLine
 10
1108.193601366949
 20
837.7541413718008
 30
0.0000000000000000
 11
1166.473782899647
 21
837.7541413718009
 31
0.0000000000000000
  0
ELLIPSE
  5
27A
100
AcDbEntity
  8
MAIN0
  6
CONTINUOUS
 62
3
100
AcDbEllipse
 10
420.4177120626450
 20
554.2537628236155
 30
0.0000000000000000
 11
6.577848345501359
 21
2.394141003279679
 31
0.0000000000000000
210
0.0000000000000000
220
0.0000000000000000
230
1.000000000000000
 40
0.3928975396428572
 41
6.283185245740524
 42
3.141592592150732
  0
LINE
  5
27B
100
AcDbEntity
  8
MAIN0
  6
CONTINUOUS
 62
3
100
AcDbLine
 10
1110.390745631607
 20
525.8420009481940
 30
0.0000000000000000
 11
1110.390745631607
 21
666.3420009481938
 31
0.0000000000000000
  0
LINE
  5
27C
100
AcDbEntity
  8
MAIN0
  6
CONTINUOUS
 62
3
100
AcDbLine
 10
1096.647789885729
 20
518.2890866775720
 30
0.0000000000000000
 11
1119.249933751805
 21
433.9367374098038
 31
0.0000000000000000
  0
LINE
  5
27D
100
AcDbEntity
  8
MAIN0
  6
CONTINUOUS
 62
3
100
AcDbLine
 10
1125.890773515252
 20
409.1527860078152
 30
0.0000000000000000
 11
1142.199152599240
 21
348.2890866775715
 31
0.0000000000000000
  0
LINE
  5
27E
100
AcDbEntity
  8
MAIN0
  6
HIDDEN
 62
3
100
AcDbLine
 10
1119.249933751805
 20
433.9367374098038
 30
0.0000000000000000
 11
1125.890773515252
 21
409.1527860078153
 31
0.0000000000000000
  0
DIMENSION
  5
287
100
AcDbEntity
  8
MAIN0
  6
CONTINUOUS
 62
3
100
AcDbDimension
  2
*D22
 10
624.0437063717934
 20
1043.610901007556
 30
0.0000000000000000
 11
623.5437063717934
 21
973.6109010075563
 31
0.0000000000000000
 70
32
  1
\A1;\U+2205140
  3
MAIN001
100
AcDbAlignedDimension
 13
830.8907456316071
 23
903.6109010075564
 33
0.0000000000000000
 14
830.8907456316071
 24
1043.610901007556
 34
0.0000000000000000
 50
90.00000000000000
100
AcDbRotatedDimension
1001
ACAD
1000
DSTYLE
1002
{
1070
   173
1070
     1
1070
     6
1000
_OPEN
1070
     7
1000
_OPEN
1070
    41
1040
8.000000
1002
}
  0
DIMENSION
  5
290
100
AcDbEntity
  8
MAIN0
  6
CONTINUOUS
 62
3
100
AcDbDimension
  2
*D23
 10
624.0437063717934
 20
690.8420009481944
 30
0.0000000000000000
 11
623.5437063717934
 21
500.8420009481941
 31
0.0000000000000000
 70
32
  3
MAIN001
100
AcDbAlignedDimension
 13
869.3907456316075
 23
310.8420009481940
 33
0.0000000000000000
 14
830.8907456316069
 24
690.8420009481944
 34
0.0000000000000000
 50
90.00000000000000
100
AcDbRotatedDimension
1001
ACAD
1000
DSTYLE
1002
{
1070
   173
1070
     1
1070
     6
1000
_OPEN
1070
     7
1000
_OPEN
1070
    41
1040
8.000000
1002
}
  0
DIMENSION
  5
299
100
AcDbEntity
  8
MAIN0
  6
CONTINUOUS
 62
3
100
AcDbDimension
  2
*D24
 10
771.3907456316092
 20
709.6956908430213
 30
0.0000000000000000
 11
971.8907456316083
 21
710.1956908430213
 31
0.0000000000000000
 70
32
  3
MAIN001
100
AcDbAlignedDimension
 13
1172.390745631607
 23
670.8420009481938
 33
0.0000000000000000
 14
771.3907456316092
 24
678.8420009481940
 34
0.0000000000000000
100
AcDbRotatedDimension
1001
ACAD
1000
DSTYLE
1002
{
1070
   173
1070
     1
1070
     6
1000
_OPEN
1070
     7
1000
_OPEN
1070
    41
1040
8.000000
1002
}
  0
DIMENSION
  5
2A3
100
AcDbEntity
  8
MAIN0
  6
CONTINUOUS
 62
3
100
AcDbDimension
  2
*D25
 10
1172.390745631607
 20
709.6956908430213
 30
0.0000000000000000
 11
1158.490570704851
 21
711.6956908430213
 31
0.0000000000000000
 70
160
  3
MAIN001
100
AcDbAlignedDimension
 13
1175.390745631607
 23
652.1873004099584
 33
0.0000000000000000
 14
1172.390745631607
 24
670.8420009481938
 34
0.0000000000000000
100
AcDbRotatedDimension
1001
ACAD
1000
DSTYLE
1002
{
1070
   173
1070
     1
1070
     6
1000
_DOT
1070
     7
1000
_OPEN
1070
    41
1040
8.000000
1070
   287
1070
     0
1002
}
  0
DIMENSION
  5
2AD
100
AcDbEntity
  8
MAIN0
  6
CONTINUOUS
 62
3
100
AcDbDimension
  2
*D26
 10
1175.390745631607
 20
709.6956908430213
 30
0.0000000000000000
 11
1201.596536631608
 21
710.1956908430213
 31
0.0000000000000000
 70
32
  3
MAIN001
100
AcDbAlignedDimension
 13
1227.802327631609
 23
621.3420009479997
 33
0.0000000000000000
 14
1175.390745631607
 24
652.1873004099584
 34
0.0000000000000000
100
AcDbRotatedDimension
1001
ACAD
1000
DSTYLE
1002
{
1070
   173
1070
     1
1070
     6
1000
_OPEN
1070
     7
1000
_DOT
1070
    41
1040
8.000000
1070
   287
1070
     0
1002
}
  0
DIMENSION
  5
2B7
100
AcDbEntity
  8
MAIN0
  6
CONTINUOUS
 62
3
100
AcDbDimension
  2
*D27
 10
1227.802327631609
 20
709.6956908430213
 30
0.0000000000000000
 11
1336.346054515940
 21
711.6956908430213
 31
0.0000000000000000
 70
160
  1
\A1;0～MAX 70
  3
MAIN001
100
AcDbAlignedDimension
 13
1297.802327631609
 23
621.3420009479997
 33
0.0000000000000000
 14
1227.802327631609
 24
621.3420009479997
 34
0.0000000000000000
100
AcDbRotatedDimension
1001
ACAD
1000
DSTYLE
1002
{
1070
   173
1070
     1
1070
     6
1000
_OPEN
1070
     7
1000
_OPEN
1070
    41
1040
8.000000
1070
   340
1005
10C
1002
}
  0
LINE
  5
2B8
100
AcDbEntity
  8
MAIN0
  6
CONTINUOUS
 62
3
100
AcDbLine
 10
857.3907456317975
 20
603.3420009481951
 30
0.0000000000000000
 11
857.3907456317700
 21
638.3420009481929
 31
0.0000000000000000
  0
LINE
  5
2B9
100
AcDbEntity
  8
MAIN0
  6
CONTINUOUS
 62
3
100
AcDbLine
 10
856.5247202281971
 20
601.8420009481951
 30
0.0000000000000000
 11
856.5247202281971
 21
639.8420009481930
 31
0.0000000000000000
  0
LINE
  5
2BA
100
AcDbEntity
  8
MAIN0
  6
CENTER
 62
3
100
AcDbLine
 10
1137.390745631840
 20
399.3333908788370
 30
0.0000000000000000
 11
1137.390745631565
 21
610.6756087967149
 31
0.0000000000000000
  0
ARC
  5
2BB
100
AcDbEntity
  8
MAIN0
  6
CONTINUOUS
 62
3
100
AcDbCircle
 10
1137.390745631607
 20
578.3420009481937
 30
0.0000000000000000
 40
27.00000000000000
100
AcDbArc
 50
285.0261137591938
 51
614.9738862409549
  0
CIRCLE
  5
2BC
100
AcDbEntity
  8
MAIN0
  6
CONTINUOUS
 62
3
100
AcDbCircle
 10
1137.390745631607
 20
578.3420009481938
 30
0.0000000000000000
 40
21.17650000000000
  0
LINE
  5
2BD
100
AcDbEntity
  8
MAIN0
  6
CENTER
 62
3
100
AcDbLine
 10
1102.946518298028
 20
578.3420009481563
 30
0.0000000000000000
 11
1171.909166687284
 21
578.3420009482320
 31
0.0000000000000000
  0
LINE
  5
2BE
100
AcDbEntity
  8
MAIN0
  6
CONTINUOUS
 62
3
100
AcDbLine
 10
1144.390745631781
 20
444.2508677714843
 30
0.0000000000000000
 11
1144.390745631641
 21
552.3375088338377
 31
0.0000000000000000
  0
LINE
  5
2BF
100
AcDbEntity
  8
MAIN0
  6
CONTINUOUS
 62
3
100
AcDbLine
 10
1130.390745631782
 20
444.2508677714661
 30
0.0000000000000000
 11
1130.390745631641
 21
552.3375088338373
 31
0.0000000000000000
  0
ELLIPSE
  5
2C0
100
AcDbEntity
  8
MAIN0
  6
CONTINUOUS
 62
3
100
AcDbEllipse
 10
1137.390745631640
 20
552.3375088338376
 30
0.0000000000000000
 11
7.000000000000000
 21
0.0000000000000000
 31
0.0000000000000000
210
0.0000000000000000
220
0.0000000000000000
230
1.000000000000000
 40
0.3928975396428572
 41
0.0000000000000000
 42
3.141592653589793
  0
CIRCLE
  5
2C1
100
AcDbEntity
  8
MAIN0
  6
HIDDEN
 62
3
100
AcDbCircle
 10
1137.390745631916
 20
578.3420009482620
 30
0.0000000000000000
 40
8.250000000000000
  0
LINE
  5
2C2
100
AcDbEntity
  8
MAIN0
  6
CENTER
 62
3
100
AcDbLine
 10
1110.719549459212
 20
425.5158737762798
 30
0.0000000000000000
 11
1163.573410586896
 21
425.5158737762798
 31
0.0000000000000000
  0
CIRCLE
  5
2C3
100
AcDbEntity
  8
MAIN0
  6
CONTINUOUS
 62
3
100
AcDbCircle
 10
1137.390745631806
 20
425.5158737762799
 30
0.0000000000000000
 40
20.00000000000000
  0
LINE
  5
2C4
100
AcDbEntity
  8
MAIN0
  6
PHANTOM
 62
3
100
AcDbLine
 10
1251.802327631602
 20
605.0420009481954
 30
0.0000000000000000
 11
1245.390745631613
 21
605.2085009481939
 31
0.0000000000000000
  0
LINE
  5
2C5
100
AcDbEntity
  8
MAIN0
  6
PHANTOM
 62
3
100
AcDbLine
 10
1251.802327631639
 20
636.6420009481958
 30
0.0000000000000000
 11
1245.390745631607
 21
636.4755009481938
 31
0.0000000000000000
  0
LINE
  5
2C6
100
AcDbEntity
  8
MAIN0
  6
PHANTOM
 62
3
100
AcDbLine
 10
1251.802327631639
 20
636.6420009481954
 30
0.0000000000000000
 11
1271.301950275431
 21
636.6420009481990
 31
0.0000000000000000
  0
LINE
  5
2C7
100
AcDbEntity
  8
MAIN0
  6
PHANTOM
 62
3
100
AcDbLine
 10
1251.802327631608
 20
605.0420009481950
 30
0.0000000000000000
 11
1251.802327631609
 21
636.6420009481951
 31
0.0000000000000000
  0
LINE
  5
2C8
100
AcDbEntity
  8
MAIN0
  6
PHANTOM
 62
3
100
AcDbLine
 10
1297.802327631609
 20
620.3420009484079
 30
0.0000000000000000
 11
1297.802327631609
 21
621.3420009479997
 31
0.0000000000000000
  0
LINE
  5
2C9
100
AcDbEntity
  8
MAIN0
  6
PHANTOM
 62
3
100
AcDbLine
 10
1271.301950275431
 20
636.6420009481985
 30
0.0000000000000000
 11
1297.802327631609
 21
621.3420009479995
 31
0.0000000000000000
  0
LINE
  5
2CA
100
AcDbEntity
  8
MAIN0
  6
PHANTOM
 62
3
100
AcDbLine
 10
1271.351313723452
 20
605.0705009481992
 30
0.0000000000000000
 11
1297.802327631609
 21
620.3420009484082
 31
0.0000000000000000
  0
LINE
  5
2CB
100
AcDbEntity
  8
MAIN0
  6
PHANTOM
 62
3
100
AcDbLine
 10
1251.802327631645
 20
605.0420009481951
 30
0.0000000000000000
 11
1271.301950275437
 21
605.0420009481987
 31
0.0000000000000000
  0
LINE
  5
2CC
100
AcDbEntity
  8
MAIN0
  6
PHANTOM
 62
3
100
AcDbLine
 10
1271.301950275432
 20
605.0420009481987
 30
0.0000000000000000
 11
1271.301950275431
 21
636.6420009481989
 31
0.0000000000000000
  0
LINE
  5
2CD
100
AcDbEntity
  8
MAIN0
  6
PHANTOM
 62
3
100
AcDbLine
 10
1243.390745631855
 20
653.3420009481941
 30
0.0000000000000000
 11
1245.390745631607
 21
652.1873004099583
 31
0.0000000000000000
  0
LINE
  5
2CE
100
AcDbEntity
  8
MAIN0
  6
PHANTOM
 62
3
100
AcDbLine
 10
1245.390745631607
 20
652.1873004099582
 30
0.0000000000000000
 11
1245.390745631607
 21
589.4967014864299
 31
0.0000000000000000
  0
LINE
  5
2CF
100
AcDbEntity
  8
MAIN0
  6
PHANTOM
 62
3
100
AcDbLine
 10
1243.390745631855
 20
588.3420009481939
 30
0.0000000000000000
 11
1245.390745631607
 21
589.4967014864299
 31
0.0000000000000000
  0
LINE
  5
2D0
100
AcDbEntity
  8
MAIN0
  6
PHANTOM
 62
3
100
AcDbLine
 10
1243.390745631607
 20
653.3420009481938
 30
0.0000000000000000
 11
1243.390745631607
 21
588.3420009481940
 31
0.0000000000000000
  0
LINE
  5
2D1
100
AcDbEntity
  8
MAIN0
  6
PHANTOM
 62
3
100
AcDbLine
 10
1190.922167091300
 20
588.3420009481940
 30
0.0000000000000000
 11
1243.390745631607
 21
588.3420009481940
 31
0.0000000000000000
  0
LINE
  5
2D2
100
AcDbEntity
  8
MAIN0
  6
PHANTOM
 62
3
100
AcDbLine
 10
1190.922167091300
 20
653.3420009481938
 30
0.0000000000000000
 11
1243.390745631607
 21
653.3420009481938
 31
0.0000000000000000
  0
LINE
  5
2D3
100
AcDbEntity
  8
MAIN0
  6
PHANTOM
 62
3
100
AcDbLine
 10
1286.543997382002
 20
613.8420009481736
 30
0.0000000000000000
 11
1286.543997382002
 21
627.8420009482284
 31
0.0000000000000000
  0
INSERT
  5
2DA
100
AcDbEntity
  8
MAIN0
  6
CONTINUOUS
 62
3
100
AcDbBlockReference
  2
*X0
 10
0.0000000000000000
 20
0.0000000000000000
 30
0.0000000000000000
 50
0.0000000000000000
  0
LINE
  5
2DB
100
AcDbEntity
  8
MAIN0
  6
CONTINUOUS
 62
3
100
AcDbLine
 10
1175.390745631607
 20
652.1873004099584
 30
0.0000000000000000
 11
1175.390745631607
 21
589.4967014864299
 31
0.0000000000000000
  0
LINE
  5
2DC
100
AcDbEntity
  8
MAIN0
  6
HIDDEN
 62
3
100
AcDbLine
 10
1068.390745631607
 20
634.0920009481938
 30
0.0000000000000000
 11
1083.606927630905
 21
634.0920009481938
 31
0.0000000000000000
  0
LINE
  5
2DD
100
AcDbEntity
  8
MAIN0
  6
HIDDEN
 62
3
100
AcDbLine
 10
1068.390745631607
 20
607.5920009481940
 30
0.0000000000000000
 11
1083.606927630905
 21
607.5920009481940
 31
0.0000000000000000
  0
LINE
  5
2DE
100
AcDbEntity
  8
MAIN0
  6
HIDDEN
 62
3
100
AcDbLine
 10
1083.606927630680
 20
607.5920009481940
 30
0.0000000000000000
 11
1083.606927630680
 21
634.0920009481938
 31
0.0000000000000000
  0
LINE
  5
2DF
100
AcDbEntity
  8
MAIN0
  6
HIDDEN
 62
3
100
AcDbLine
 10
1061.390745631189
 20
632.8420009481938
 30
0.0000000000000000
 11
1068.390745631607
 21
632.8420009481938
 31
0.0000000000000000
  0
LINE
  5
2E0
100
AcDbEntity
  8
MAIN0
  6
HIDDEN
 62
3
100
AcDbLine
 10
1060.813395362000
 20
631.8420009481937
 30
0.0000000000000000
 11
1061.390745631189
 21
632.8420009481940
 31
0.0000000000000000
  0
LINE
  5
2E1
100
AcDbEntity
  8
MAIN0
  6
HIDDEN
 62
3
100
AcDbLine
 10
1061.390745631189
 20
608.8420009481940
 30
0.0000000000000000
 11
1068.390745631607
 21
608.8420009481940
 31
0.0000000000000000
  0
LINE
  5
2E2
100
AcDbEntity
  8
MAIN0
  6
HIDDEN
 62
3
100
AcDbLine
 10
1060.813395362000
 20
609.8420009481939
 30
0.0000000000000000
 11
1061.390745631188
 21
608.8420009481940
 31
0.0000000000000000
  0
LINE
  5
2E3
100
AcDbEntity
  8
MAIN0
  6
CONTINUOUS
 62
3
100
AcDbLine
 10
1173.390745631607
 20
653.3420009481938
 30
0.0000000000000000
 11
1173.390745631607
 21
588.3420009481940
 31
0.0000000000000000
  0
LINE
  5
2E4
100
AcDbEntity
  8
MAIN0
  6
CONTINUOUS
 62
3
100
AcDbLine
 10
1173.390745631855
 20
653.3420009481943
 30
0.0000000000000000
 11
1175.390745631607
 21
652.1873004099583
 31
0.0000000000000000
  0
LINE
  5
2E5
100
AcDbEntity
  8
MAIN0
  6
CONTINUOUS
 62
3
100
AcDbLine
 10
1173.390745631855
 20
588.3420009481939
 30
0.0000000000000000
 11
1175.390745631607
 21
589.4967014864299
 31
0.0000000000000000
  0
LINE
  5
2E6
100
AcDbEntity
  8
MAIN0
  6
HIDDEN
 62
3
100
AcDbLine
 10
905.3907456316075
 20
630.8420009481938
 30
0.0000000000000000
 11
1042.390745631607
 21
630.8420009481938
 31
0.0000000000000000
  0
LINE
  5
2E7
100
AcDbEntity
  8
MAIN0
  6
HIDDEN
 62
3
100
AcDbLine
 10
909.3907456316076
 20
630.0300009481854
 30
0.0000000000000000
 11
1043.202745631637
 21
630.0300009481648
 31
0.0000000000000000
  0
LINE
  5
2E8
100
AcDbEntity
  8
MAIN0
  6
HIDDEN
 62
3
100
AcDbLine
 10
1070.890745631607
 20
628.8420009481938
 30
0.0000000000000000
 11
1070.890745631607
 21
612.8420009481940
 31
0.0000000000000000
  0
LINE
  5
2E9
100
AcDbEntity
  8
MAIN0
  6
HIDDEN
 62
3
100
AcDbLine
 10
1044.390745631607
 20
628.8420009481938
 30
0.0000000000000000
 11
1044.390745631607
 21
612.8420009481940
 31
0.0000000000000000
  0
LINE
  5
2EA
100
AcDbEntity
  8
MAIN0
  6
HIDDEN
 62
3
100
AcDbLine
 10
1042.390745631607
 20
630.8420009481938
 30
0.0000000000000000
 11
1042.390745631607
 21
610.8420009481940
 31
0.0000000000000000
  0
LINE
  5
2EB
100
AcDbEntity
  8
MAIN0
  6
HIDDEN
 62
3
100
AcDbLine
 10
905.3907456316075
 20
610.8420009481940
 30
0.0000000000000000
 11
1042.390745631607
 21
610.8420009481940
 31
0.0000000000000000
  0
LINE
  5
2EC
100
AcDbEntity
  8
MAIN0
  6
HIDDEN
 62
3
100
AcDbLine
 10
909.3907456316074
 20
611.6540009482030
 30
0.0000000000000000
 11
1043.202745631637
 21
611.6540009482230
 31
0.0000000000000000
  0
LINE
  5
2ED
100
AcDbEntity
  8
MAIN0
  6
HIDDEN
 62
3
100
AcDbLine
 10
1044.390745631607
 20
628.8420009481937
 30
0.0000000000000000
 11
1042.390745631607
 21
630.8420009481937
 31
0.0000000000000000
  0
LINE
  5
2EE
100
AcDbEntity
  8
MAIN0
  6
HIDDEN
 62
3
100
AcDbLine
 10
1044.390745631607
 20
612.8420009481936
 30
0.0000000000000000
 11
1042.390745631607
 21
610.8420009481936
 31
0.0000000000000000
  0
LINE
  5
2EF
100
AcDbEntity
  8
MAIN0
  6
HIDDEN
 62
3
100
AcDbLine
 10
1068.390745631607
 20
609.9701794126102
 30
0.0000000000000000
 11
1068.390745631607
 21
607.5920009481940
 31
0.0000000000000000
  0
LINE
  5
2F0
100
AcDbEntity
  8
MAIN0
  6
HIDDEN
 62
3
100
AcDbLine
 10
1068.390745631607
 20
634.0920009481938
 30
0.0000000000000000
 11
1068.390745631607
 21
631.8813531316469
 31
0.0000000000000000
  0
LINE
  5
2F1
100
AcDbEntity
  8
MAIN0
  6
HIDDEN
 62
3
100
AcDbLine
 10
1044.390745631607
 20
628.8420009481938
 30
0.0000000000000000
 11
1070.890745631608
 21
628.8420009481938
 31
0.0000000000000000
  0
LINE
  5
2F2
100
AcDbEntity
  8
MAIN0
  6
HIDDEN
 62
3
100
AcDbLine
 10
1044.390745631607
 20
612.8420009481940
 30
0.0000000000000000
 11
1070.890745631608
 21
612.8420009481940
 31
0.0000000000000000
  0
LINE
  5
2F3
100
AcDbEntity
  8
MAIN0
  6
HIDDEN
 62
3
100
AcDbLine
 10
1042.390745631607
 20
631.8420009481938
 30
0.0000000000000000
 11
1060.813395362000
 21
631.8420009481938
 31
0.0000000000000000
  0
LINE
  5
2F4
100
AcDbEntity
  8
MAIN0
  6
HIDDEN
 62
3
100
AcDbLine
 10
1042.390745631607
 20
609.8420009481940
 30
0.0000000000000000
 11
1060.813395362000
 21
609.8420009481940
 31
0.0000000000000000
  0
LINE
  5
2F5
100
AcDbEntity
  8
MAIN0
  6
HIDDEN
 62
3
100
AcDbLine
 10
909.3907456316075
 20
610.8420009481940
 30
0.0000000000000000
 11
909.3907456316075
 21
588.3420009481940
 31
0.0000000000000000
  0
LINE
  5
2F6
100
AcDbEntity
  8
MAIN0
  6
HIDDEN
 62
3
100
AcDbLine
 10
909.3907456316075
 20
653.3420009481943
 30
0.0000000000000000
 11
909.3907456316075
 21
630.8420009481938
 31
0.0000000000000000
  0
LINE
  5
2F7
100
AcDbEntity
  8
MAIN0
  6
HIDDEN
 62
3
100
AcDbLine
 10
839.3907456316063
 20
627.8420009481938
 30
0.0000000000000000
 11
884.3907456316075
 21
627.8420009481938
 31
0.0000000000000000
  0
LINE
  5
2F8
100
AcDbEntity
  8
MAIN0
  6
HIDDEN
 62
3
100
AcDbLine
 10
839.3907456316063
 20
613.8420009481940
 30
0.0000000000000000
 11
884.3907456316075
 21
613.8420009481940
 31
0.0000000000000000
  0
LINE
  5
2F9
100
AcDbEntity
  8
MAIN0
  6
CENTER
 62
3
100
AcDbLine
 10
863.3907456316075
 20
626.1238175982962
 30
0.0000000000000000
 11
863.3907456316075
 21
615.5132388229549
 31
0.0000000000000000
  0
CIRCLE
  5
2FA
100
AcDbEntity
  8
MAIN0
  6
CONTINUOUS
 62
3
100
AcDbCircle
 10
863.3907456316075
 20
620.8420009481940
 30
0.0000000000000000
 40
2.000000000000000
  0
LINE
  5
2FB
100
AcDbEntity
  8
MAIN0
  6
HIDDEN
 62
3
100
AcDbLine
 10
909.3907456316075
 20
630.8420009481938
 30
0.0000000000000000
 11
909.3907456316075
 21
610.8420009481940
 31
0.0000000000000000
  0
LINE
  5
2FC
100
AcDbEntity
  8
MAIN0
  6
HIDDEN
 62
3
100
AcDbLine
 10
884.3907456316076
 20
603.3420009481940
 30
0.0000000000000000
 11
905.3907456316075
 21
603.3420009481940
 31
0.0000000000000000
  0
LINE
  5
2FD
100
AcDbEntity
  8
MAIN0
  6
HIDDEN
 62
3
100
AcDbLine
 10
905.3907456316075
 20
610.8420009481940
 30
0.0000000000000000
 11
905.3907456316075
 21
603.3420009481940
 31
0.0000000000000000
  0
LINE
  5
2FE
100
AcDbEntity
  8
MAIN0
  6
HIDDEN
 62
3
100
AcDbLine
 10
884.3907456316076
 20
638.3420009481938
 30
0.0000000000000000
 11
905.3907456316075
 21
638.3420009481938
 31
0.0000000000000000
  0
LINE
  5
2FF
100
AcDbEntity
  8
MAIN0
  6
HIDDEN
 62
3
100
AcDbLine
 10
905.3907456316075
 20
630.8420009481943
 30
0.0000000000000000
 11
905.3907456316075
 21
638.3420009481938
 31
0.0000000000000000
  0
LINE
  5
300
100
AcDbEntity
  8
MAIN0
  6
HIDDEN
 62
3
100
AcDbLine
 10
1061.390745631607
 20
609.8420009481940
 30
0.0000000000000000
 11
1061.390745631607
 21
608.8420009481940
 31
0.0000000000000000
  0
LINE
  5
301
100
AcDbEntity
  8
MAIN0
  6
HIDDEN
 62
3
100
AcDbLine
 10
1061.390745631607
 20
632.8420009481938
 30
0.0000000000000000
 11
1061.390745631607
 21
631.8420009481938
 31
0.0000000000000000
  0
LINE
  5
302
100
AcDbEntity
  8
MAIN0
  6
HIDDEN
 62
3
100
AcDbLine
 10
909.3907456316075
 20
653.3420009481938
 30
0.0000000000000000
 11
1172.390745631607
 21
653.3420009481938
 31
0.0000000000000000
  0
LINE
  5
303
100
AcDbEntity
  8
MAIN0
  6
CONTINUOUS
 62
3
100
AcDbLine
 10
1172.390745631607
 20
653.3420009481938
 30
0.0000000000000000
 11
1173.390745631607
 21
653.3420009481938
 31
0.0000000000000000
  0
LINE
  5
304
100
AcDbEntity
  8
MAIN0
  6
HIDDEN
 62
3
100
AcDbLine
 10
909.3907456316075
 20
588.3420009481940
 30
0.0000000000000000
 11
1172.390745631607
 21
588.3420009481940
 31
0.0000000000000000
  0
LINE
  5
305
100
AcDbEntity
  8
MAIN0
  6
CONTINUOUS
 62
3
100
AcDbLine
 10
1172.390745631607
 20
588.3420009481940
 30
0.0000000000000000
 11
1173.390745631607
 21
588.3420009481940
 31
0.0000000000000000
  0
LINE
  5
306
100
AcDbEntity
  8
MAIN0
  6
CONTINUOUS
 62
3
100
AcDbLine
 10
1164.390745631607
 20
670.8420009481938
 30
0.0000000000000000
 11
1172.390745631607
 21
670.8420009481938
 31
0.0000000000000000
  0
LINE
  5
307
100
AcDbEntity
  8
MAIN0
  6
CONTINUOUS
 62
3
100
AcDbLine
 10
1172.390745631607
 20
560.8420009481940
 30
0.0000000000000000
 11
1172.390745631607
 21
670.8420009481938
 31
0.0000000000000000
  0
LINE
  5
308
100
AcDbEntity
  8
MAIN0
  6
CONTINUOUS
 62
3
100
AcDbLine
 10
1181.802327631602
 20
957.8109010074331
 30
0.0000000000000000
 11
1175.390745631613
 21
957.9774010074316
 31
0.0000000000000000
  0
LINE
  5
309
100
AcDbEntity
  8
MAIN0
  6
CONTINUOUS
 62
3
100
AcDbLine
 10
1181.802327631639
 20
989.4109010074342
 30
0.0000000000000000
 11
1175.390745631607
 21
989.2444010074321
 31
0.0000000000000000
  0
LINE
  5
30A
100
AcDbEntity
  8
MAIN0
  6
CONTINUOUS
 62
3
100
AcDbLine
 10
1181.802327631639
 20
989.4109010074332
 30
0.0000000000000000
 11
1201.301950275431
 21
989.4109010074368
 31
0.0000000000000000
  0
LINE
  5
30B
100
AcDbEntity
  8
MAIN0
  6
CONTINUOUS
 62
3
100
AcDbLine
 10
1181.802327631608
 20
957.8109010074331
 30
0.0000000000000000
 11
1181.802327631609
 21
989.4109010074330
 31
0.0000000000000000
  0
LINE
  5
30C
100
AcDbEntity
  8
MAIN0
  6
CONTINUOUS
 62
3
100
AcDbLine
 10
1227.802327631609
 20
973.1109010076457
 30
0.0000000000000000
 11
1227.802327631609
 21
974.1109010072373
 31
0.0000000000000000
  0
LINE
  5
30D
100
AcDbEntity
  8
MAIN0
  6
CONTINUOUS
 62
3
100
AcDbLine
 10
1201.301950275431
 20
989.4109010074368
 30
0.0000000000000000
 11
1227.802327631609
 21
974.1109010072377
 31
0.0000000000000000
  0
LINE
  5
30E
100
AcDbEntity
  8
MAIN0
  6
CONTINUOUS
 62
3
100
AcDbLine
 10
1201.351313723452
 20
957.8394010074370
 30
0.0000000000000000
 11
1227.802327631609
 21
973.1109010076461
 31
0.0000000000000000
  0
LINE
  5
30F
100
AcDbEntity
  8
MAIN0
  6
CONTINUOUS
 62
3
100
AcDbLine
 10
1181.802327631645
 20
957.8109010074332
 30
0.0000000000000000
 11
1201.301950275437
 21
957.8109010074369
 31
0.0000000000000000
  0
LINE
  5
310
100
AcDbEntity
  8
MAIN0
  6
CONTINUOUS
 62
3
100
AcDbLine
 10
1201.301950275432
 20
957.8109010074370
 30
0.0000000000000000
 11
1201.301950275431
 21
989.4109010074369
 31
0.0000000000000000
  0
LINE
  5
311
100
AcDbEntity
  8
MAIN0
  6
CONTINUOUS
 62
3
100
AcDbLine
 10
1173.390745631855
 20
1006.110901007432
 30
0.0000000000000000
 11
1175.390745631608
 21
1004.956200469196
 31
0.0000000000000000
  0
LINE
  5
312
100
AcDbEntity
  8
MAIN0
  6
CONTINUOUS
 62
3
100
AcDbLine
 10
1175.390745631607
 20
1004.956200469196
 30
0.0000000000000000
 11
1175.390745631607
 21
942.2656015456676
 31
0.0000000000000000
  0
LINE
  5
313
100
AcDbEntity
  8
MAIN0
  6
CONTINUOUS
 62
3
100
AcDbLine
 10
1173.390745631855
 20
941.1109010074318
 30
0.0000000000000000
 11
1175.390745631608
 21
942.2656015456677
 31
0.0000000000000000
  0
LINE
  5
314
100
AcDbEntity
  8
MAIN0
  6
CONTINUOUS
 62
3
100
AcDbLine
 10
1173.390745631607
 20
1006.110901007432
 30
0.0000000000000000
 11
1173.390745631607
 21
941.1109010074317
 31
0.0000000000000000
  0
LINE
  5
315
100
AcDbEntity
  8
MAIN0
  6
CONTINUOUS
 62
3
100
AcDbLine
 10
1216.543997382271
 20
966.6109010075668
 30
0.0000000000000000
 11
1216.543997382264
 21
980.6109010073153
 31
0.0000000000000000
  0
INSERT
  5
31C
100
AcDbEntity
  8
MAIN0
  6
CONTINUOUS
 62
3
100
AcDbBlockReference
  2
*X1
 10
0.0000000000000000
 20
0.0000000000000000
 30
0.0000000000000000
 50
0.0000000000000000
  0
LINE
  5
31D
100
AcDbEntity
  8
MAIN0
  6
CONTINUOUS
 62
3
100
AcDbLine
 10
869.3907456316075
 20
641.8420009481938
 30
0.0000000000000000
 11
863.9907456316075
 21
641.8420009481938
 31
0.0000000000000000
  0
LINE
  5
31E
100
AcDbEntity
  8
MAIN0
  6
CONTINUOUS
 62
3
100
AcDbLine
 10
863.9907456316076
 20
641.8420009481941
 30
0.0000000000000000
 11
863.3907456316076
 21
642.8812314327353
 31
0.0000000000000000
  0
LINE
  5
31F
100
AcDbEntity
  8
MAIN0
  6
CONTINUOUS
 62
3
100
AcDbLine
 10
863.3907456316075
 20
642.8812314327352
 30
0.0000000000000000
 11
863.3907456316075
 21
650.8027704636529
 31
0.0000000000000000
  0
LINE
  5
320
100
AcDbEntity
  8
MAIN0
  6
CONTINUOUS
 62
3
100
AcDbLine
 10
863.3907456316074
 20
650.8027704636529
 30
0.0000000000000000
 11
863.9907456316073
 21
651.8420009481941
 31
0.0000000000000000
  0
LINE
  5
321
100
AcDbEntity
  8
MAIN0
  6
CONTINUOUS
 62
3
100
AcDbLine
 10
863.9907456316075
 20
651.8420009481938
 30
0.0000000000000000
 11
869.3907456316075
 21
651.8420009481938
 31
0.0000000000000000
  0
LINE
  5
322
100
AcDbEntity
  8
MAIN0
  6
CONTINUOUS
 62
3
100
AcDbLine
 10
863.9907456316075
 20
641.8420009481938
 30
0.0000000000000000
 11
863.9907456316075
 21
651.8420009481938
 31
0.0000000000000000
  0
LINE
  5
323
100
AcDbEntity
  8
MAIN0
  6
HIDDEN
 62
3
100
AcDbLine
 10
869.3907456316075
 20
643.8420009481938
 30
0.0000000000000000
 11
909.3907456316075
 21
643.8420009481938
 31
0.0000000000000000
  0
LINE
  5
324
100
AcDbEntity
  8
MAIN0
  6
HIDDEN
 62
3
100
AcDbLine
 10
909.3907456316075
 20
649.8420009481938
 30
0.0000000000000000
 11
869.3907456316075
 21
649.8420009481938
 31
0.0000000000000000
  0
LINE
  5
325
100
AcDbEntity
  8
MAIN0
  6
HIDDEN
 62
3
100
AcDbLine
 10
869.3907456316075
 20
644.3832669481940
 30
0.0000000000000000
 11
909.3907456316075
 21
644.3832669481940
 31
0.0000000000000000
  0
LINE
  5
326
100
AcDbEntity
  8
MAIN0
  6
HIDDEN
 62
3
100
AcDbLine
 10
869.3907456316075
 20
649.3007349481941
 30
0.0000000000000000
 11
909.3907456316075
 21
649.3007349481941
 31
0.0000000000000000
  0
LINE
  5
327
100
AcDbEntity
  8
MAIN0
  6
CENTER
 62
3
100
AcDbLine
 10
924.3907456316075
 20
963.9236341476204
 30
0.0000000000000000
 11
924.3907456316075
 21
983.1994488279496
 31
0.0000000000000000
  0
LINE
  5
328
100
AcDbEntity
  8
MAIN0
  6
CENTER
 62
3
100
AcDbLine
 10
1155.390745631607
 20
967.3649862876312
 30
0.0000000000000000
 11
1155.390745631607
 21
979.7293357723804
 31
0.0000000000000000
  0
ARC
  5
329
100
AcDbEntity
  8
MAIN0
  6
CONTINUOUS
 62
3
100
AcDbCircle
 10
371.2548806369084
 20
643.8420009481940
 30
0.0000000000000000
 40
6.500000000000000
100
AcDbArc
 50
54.12927577989247
 51
365.8707242201092
  0
LINE
  5
32A
100
AcDbEntity
  8
MAIN0
  6
CONTINUOUS
 62
3
100
AcDbLine
 10
371.2548806369082
 20
647.3061025633317
 30
0.0000000000000000
 11
368.2548806369082
 21
645.5740517557629
 31
0.0000000000000000
  0
LINE
  5
32B
100
AcDbEntity
  8
MAIN0
  6
CONTINUOUS
 62
3
100
AcDbLine
 10
368.2548806369084
 20
645.5740517557626
 30
0.0000000000000000
 11
368.2548806369084
 21
642.1099501406250
 31
0.0000000000000000
  0
LINE
  5
32C
100
AcDbEntity
  8
MAIN0
  6
CONTINUOUS
 62
3
100
AcDbLine
 10
368.2548806369084
 20
642.1099501406250
 30
0.0000000000000000
 11
371.2548806369084
 21
640.3778993330562
 31
0.0000000000000000
  0
LINE
  5
32D
100
AcDbEntity
  8
MAIN0
  6
CONTINUOUS
 62
3
100
AcDbLine
 10
371.2548806369082
 20
640.3778993330564
 30
0.0000000000000000
 11
374.2548806369082
 21
642.1099501406252
 31
0.0000000000000000
  0
LINE
  5
32E
100
AcDbEntity
  8
MAIN0
  6
CONTINUOUS
 62
3
100
AcDbLine
 10
374.2548806369084
 20
642.1099501406250
 30
0.0000000000000000
 11
374.2548806369084
 21
645.5740517557626
 31
0.0000000000000000
  0
LINE
  5
32F
100
AcDbEntity
  8
MAIN0
  6
CONTINUOUS
 62
3
100
AcDbLine
 10
374.2548806369084
 20
645.5740517557629
 30
0.0000000000000000
 11
371.2548806369083
 21
647.3061025633317
 31
0.0000000000000000
  0
ARC
  5
330
100
AcDbEntity
  8
MAIN0
  6
CENTER
 62
3
100
AcDbCircle
 10
331.4177120628248
 20
620.8420009481938
 30
0.0000000000000000
 40
45.99999999999966
100
AcDbArc
 50
16.04130904843998
 51
43.97645860220287
  0
LINE
  5
331
100
AcDbEntity
  8
MAIN0
  6
CONTINUOUS
 62
3
100
AcDbLine
 10
869.3907456316075
 20
978.6109010074317
 30
0.0000000000000000
 11
863.9907456316075
 21
978.6109010074317
 31
0.0000000000000000
  0
LINE
  5
332
100
AcDbEntity
  8
MAIN0
  6
CONTINUOUS
 62
3
100
AcDbLine
 10
863.9907456316075
 20
978.6109010074318
 30
0.0000000000000000
 11
863.3907456316076
 21
977.5716705228905
 31
0.0000000000000000
  0
LINE
  5
333
100
AcDbEntity
  8
MAIN0
  6
CONTINUOUS
 62
3
100
AcDbLine
 10
863.3907456316075
 20
977.5716705228904
 30
0.0000000000000000
 11
863.3907456316075
 21
969.6501314919731
 31
0.0000000000000000
  0
LINE
  5
334
100
AcDbEntity
  8
MAIN0
  6
CONTINUOUS
 62
3
100
AcDbLine
 10
863.3907456316076
 20
969.6501314919730
 30
0.0000000000000000
 11
863.9907456316075
 21
968.6109010074318
 31
0.0000000000000000
  0
LINE
  5
335
100
AcDbEntity
  8
MAIN0
  6
CONTINUOUS
 62
3
100
AcDbLine
 10
863.9907456316075
 20
968.6109010074317
 30
0.0000000000000000
 11
869.3907456316075
 21
968.6109010074317
 31
0.0000000000000000
  0
LINE
  5
336
100
AcDbEntity
  8
MAIN0
  6
CONTINUOUS
 62
3
100
AcDbLine
 10
863.9907456316075
 20
978.6109010074317
 30
0.0000000000000000
 11
863.9907456316075
 21
968.6109010074317
 31
0.0000000000000000
  0
LINE
  5
337
100
AcDbEntity
  8
MAIN0
  6
CONTINUOUS
 62
3
100
AcDbLine
 10
872.3907456315666
 20
345.8420009482201
 30
0.0000000000000000
 11
872.3907456315666
 21
350.3420009482201
 31
0.0000000000000000
  0
LINE
  5
338
100
AcDbEntity
  8
MAIN0
  6
CONTINUOUS
 62
3
100
AcDbLine
 10
872.3907456315666
 20
350.3420009482201
 30
0.0000000000000000
 11
904.3907456315666
 21
350.3420009482201
 31
0.0000000000000000
  0
LINE
  5
339
100
AcDbEntity
  8
MAIN0
  6
HIDDEN
 62
3
100
AcDbLine
 10
904.3907456315666
 20
345.8420009482201
 30
0.0000000000000000
 11
904.3907456315666
 21
348.8420009481940
 31
0.0000000000000000
  0
LINE
  5
33A
100
AcDbEntity
  8
MAIN0
  6
CONTINUOUS
 62
3
100
AcDbLine
 10
904.3907456315666
 20
348.8420009481940
 30
0.0000000000000000
 11
904.3907456315666
 21
350.3420009482201
 31
0.0000000000000000
  0
LINE
  5
33B
100
AcDbEntity
  8
MAIN0
  6
CONTINUOUS
 62
3
100
AcDbLine
 10
896.3907456315666
 20
310.8420009481940
 30
0.0000000000000000
 11
896.3907456315666
 21
298.8420009482204
 31
0.0000000000000000
  0
LINE
  5
33C
100
AcDbEntity
  8
MAIN0
  6
CONTINUOUS
 62
3
100
AcDbLine
 10
880.3907456315666
 20
298.8420009482204
 30
0.0000000000000000
 11
880.3907456315666
 21
310.8420009481940
 31
0.0000000000000000
  0
LINE
  5
33D
100
AcDbEntity
  8
MAIN0
  6
CONTINUOUS
 62
3
100
AcDbLine
 10
898.7830504769798
 20
360.3420009482201
 30
0.0000000000000000
 11
877.9984407861533
 21
360.3420009482201
 31
0.0000000000000000
  0
LINE
  5
33E
100
AcDbEntity
  8
MAIN0
  6
CONTINUOUS
 62
3
100
AcDbLine
 10
902.2471520921176
 20
350.3420009482201
 30
0.0000000000000000
 11
902.2471520921176
 21
358.3420009482201
 31
0.0000000000000000
  0
LINE
  5
33F
100
AcDbEntity
  8
MAIN0
  6
CONTINUOUS
 62
3
100
AcDbLine
 10
874.5343391710155
 20
350.3420009482201
 30
0.0000000000000000
 11
874.5343391710155
 21
358.3420009482201
 31
0.0000000000000000
  0
LINE
  5
340
100
AcDbEntity
  8
MAIN0
  6
CONTINUOUS
 62
3
100
AcDbLine
 10
895.3189488618421
 20
358.3420009482201
 30
0.0000000000000000
 11
895.3189488618421
 21
350.3420009482201
 31
0.0000000000000000
  0
LINE
  5
341
100
AcDbEntity
  8
MAIN0
  6
CONTINUOUS
 62
3
100
AcDbLine
 10
881.4625424012911
 20
358.3420009482201
 30
0.0000000000000000
 11
881.4625424012911
 21
350.3420009482201
 31
0.0000000000000000
  0
LINE
  5
342
100
AcDbEntity
  8
MAIN0
  6
CONTINUOUS
 62
3
100
AcDbLine
 10
895.3082136315666
 20
310.8420009481940
 30
0.0000000000000000
 11
895.3082136315666
 21
298.8420009482204
 31
0.0000000000000000
  0
LINE
  5
343
100
AcDbEntity
  8
MAIN0
  6
CONTINUOUS
 62
3
100
AcDbLine
 10
881.4732776315666
 20
310.8420009481940
 30
0.0000000000000000
 11
881.4732776315666
 21
298.8420009482204
 31
0.0000000000000000
  0
ARC
  5
344
100
AcDbEntity
  8
MAIN0
  6
CONTINUOUS
 62
3
100
AcDbCircle
 10
888.3907456315666
 20
347.3420009482200
 30
0.0000000000000000
 40
13.00000000000013
100
AcDbArc
 50
57.79577249602824
 51
122.2042275039718
  0
ARC
  5
345
100
AcDbEntity
  8
MAIN0
  6
CONTINUOUS
 62
3
100
AcDbCircle
 10
898.7830504769798
 20
356.3420009482201
 30
0.0000000000000000
 40
3.999999999999977
100
AcDbArc
 50
29.99999999999996
 51
150.0000000000000
  0
ARC
  5
346
100
AcDbEntity
  8
MAIN0
  6
CONTINUOUS
 62
3
100
AcDbCircle
 10
877.9984407861533
 20
356.3420009482201
 30
0.0000000000000000
 40
3.999999999999977
100
AcDbArc
 50
29.99999999999996
 51
150.0000000000000
  0
LINE
  5
347
100
AcDbEntity
  8
MAIN0
  6
CENTER
 62
3
100
AcDbLine
 10
1148.390745631606
 20
1011.610901007926
 30
0.0000000000000000
 11
1160.390745631609
 21
1011.610901007926
 31
0.0000000000000000
  0
LINE
  5
348
100
AcDbEntity
  8
MAIN0
  6
CENTER
 62
3
100
AcDbLine
 10
1154.390745631114
 20
1005.610901007430
 30
0.0000000000000000
 11
1154.390745631114
 21
1017.610901007433
 31
0.0000000000000000
  0
LINE
  5
349
100
AcDbEntity
  8
MAIN0
  6
CENTER
 62
3
100
AcDbLine
 10
1148.390745631606
 20
935.6109010079256
 30
0.0000000000000000
 11
1160.390745631609
 21
935.6109010079256
 31
0.0000000000000000
  0
LINE
  5
34A
100
AcDbEntity
  8
MAIN0
  6
CENTER
 62
3
100
AcDbLine
 10
1154.390745631114
 20
929.6109010074299
 30
0.0000000000000000
 11
1154.390745631114
 21
941.6109010074332
 31
0.0000000000000000
  0
LINE
  5
34B
100
AcDbEntity
  8
MAIN0
  6
CENTER
 62
3
100
AcDbLine
 10
1018.390745631606
 20
923.6109010079256
 30
0.0000000000000000
 11
1030.390745631609
 21
923.6109010079256
 31
0.0000000000000000
  0
LINE
  5
34C
100
AcDbEntity
  8
MAIN0
  6
CENTER
 62
3
100
AcDbLine
 10
1024.390745631114
 20
917.6109010074299
 30
0.0000000000000000
 11
1024.390745631114
 21
929.6109010074332
 31
0.0000000000000000
  0
LINE
  5
34D
100
AcDbEntity
  8
MAIN0
  6
CENTER
 62
3
100
AcDbLine
 10
888.3907456316059
 20
923.6109010079256
 30
0.0000000000000000
 11
900.3907456316092
 21
923.6109010079256
 31
0.0000000000000000
  0
LINE
  5
34E
100
AcDbEntity
  8
MAIN0
  6
CENTER
 62
3
100
AcDbLine
 10
894.3907456311134
 20
917.6109010074299
 30
0.0000000000000000
 11
894.3907456311134
 21
929.6109010074332
 31
0.0000000000000000
  0
LINE
  5
34F
100
AcDbEntity
  8
MAIN0
  6
CENTER
 62
3
100
AcDbLine
 10
888.3907456316059
 20
1023.610901007926
 30
0.0000000000000000
 11
900.3907456316092
 21
1023.610901007926
 31
0.0000000000000000
  0
LINE
  5
350
100
AcDbEntity
  8
MAIN0
  6
CENTER
 62
3
100
AcDbLine
 10
894.3907456311134
 20
1017.610901007430
 30
0.0000000000000000
 11
894.3907456311134
 21
1029.610901007433
 31
0.0000000000000000
  0
LINE
  5
351
100
AcDbEntity
  8
MAIN0
  6
CENTER
 62
3
100
AcDbLine
 10
1018.390745631606
 20
1023.610901007926
 30
0.0000000000000000
 11
1030.390745631609
 21
1023.610901007926
 31
0.0000000000000000
  0
LINE
  5
352
100
AcDbEntity
  8
MAIN0
  6
CENTER
 62
3
100
AcDbLine
 10
1024.390745631114
 20
1017.610901007430
 30
0.0000000000000000
 11
1024.390745631114
 21
1029.610901007433
 31
0.0000000000000000
  0
CIRCLE
  5
353
100
AcDbEntity
  8
MAIN0
  6
CONTINUOUS
 62
3
100
AcDbCircle
 10
1099.390745631607
 20
923.6109010074316
 30
0.0000000000000000
 40
5.000000000000000
  0
CIRCLE
  5
354
100
AcDbEntity
  8
MAIN0
  6
CONTINUOUS
 62
3
100
AcDbCircle
 10
1099.390745631607
 20
923.6109010074316
 30
0.0000000000000000
 40
4.250000000000000
  0
LINE
  5
355
100
AcDbEntity
  8
MAIN0
  6
CENTER
 62
3
100
AcDbLine
 10
1099.390745631607
 20
913.6109010074345
 30
0.0000000000000000
 11
1099.390745631607
 21
933.6109010074287
 31
0.0000000000000000
  0
LINE
  5
356
100
AcDbEntity
  8
MAIN0
  6
CENTER
 62
3
100
AcDbLine
 10
1109.390745631605
 20
923.6109010074316
 30
0.0000000000000000
 11
1089.390745631611
 21
923.6109010074316
 31
0.0000000000000000
  0
CIRCLE
  5
357
100
AcDbEntity
  8
MAIN0
  6
CONTINUOUS
 62
3
100
AcDbCircle
 10
949.3907456306193
 20
1023.610901007432
 30
0.0000000000000000
 40
5.000000000000000
  0
CIRCLE
  5
358
100
AcDbEntity
  8
MAIN0
  6
CONTINUOUS
 62
3
100
AcDbCircle
 10
949.3907456306193
 20
1023.610901007432
 30
0.0000000000000000
 40
4.250000000000000
  0
LINE
  5
359
100
AcDbEntity
  8
MAIN0
  6
CENTER
 62
3
100
AcDbLine
 10
949.3907456306193
 20
1013.610901007435
 30
0.0000000000000000
 11
949.3907456306193
 21
1033.610901007429
 31
0.0000000000000000
  0
LINE
  5
35A
100
AcDbEntity
  8
MAIN0
  6
CENTER
 62
3
100
AcDbLine
 10
959.3907456306165
 20
1023.610901007432
 30
0.0000000000000000
 11
939.3907456306223
 21
1023.610901007432
 31
0.0000000000000000
  0
ARC
  5
35B
100
AcDbEntity
  8
MAIN0
  6
CONTINUOUS
 62
3
100
AcDbCircle
 10
291.5805434887409
 20
643.8420009481933
 30
0.0000000000000000
 40
6.500000000000000
100
AcDbArc
 50
174.1292757798925
 51
485.8707242201093
  0
LINE
  5
35C
100
AcDbEntity
  8
MAIN0
  6
CONTINUOUS
 62
3
100
AcDbLine
 10
288.5805434887408
 20
642.1099501406244
 30
0.0000000000000000
 11
291.5805434887409
 21
640.3778993330554
 31
0.0000000000000000
  0
LINE
  5
35D
100
AcDbEntity
  8
MAIN0
  6
CONTINUOUS
 62
3
100
AcDbLine
 10
291.5805434887411
 20
640.3778993330557
 30
0.0000000000000000
 11
294.5805434887411
 21
642.1099501406245
 31
0.0000000000000000
  0
LINE
  5
35E
100
AcDbEntity
  8
MAIN0
  6
CONTINUOUS
 62
3
100
AcDbLine
 10
294.5805434887410
 20
642.1099501406241
 30
0.0000000000000000
 11
294.5805434887410
 21
645.5740517557617
 31
0.0000000000000000
  0
LINE
  5
35F
100
AcDbEntity
  8
MAIN0
  6
CONTINUOUS
 62
3
100
AcDbLine
 10
294.5805434887408
 20
645.5740517557622
 30
0.0000000000000000
 11
291.5805434887409
 21
647.3061025633310
 31
0.0000000000000000
  0
LINE
  5
360
100
AcDbEntity
  8
MAIN0
  6
CONTINUOUS
 62
3
100
AcDbLine
 10
291.5805434887411
 20
647.3061025633310
 30
0.0000000000000000
 11
288.5805434887411
 21
645.5740517557622
 31
0.0000000000000000
  0
LINE
  5
361
100
AcDbEntity
  8
MAIN0
  6
CONTINUOUS
 62
3
100
AcDbLine
 10
288.5805434887410
 20
645.5740517557620
 30
0.0000000000000000
 11
288.5805434887410
 21
642.1099501406241
 31
0.0000000000000000
  0
ARC
  5
362
100
AcDbEntity
  8
MAIN0
  6
CENTER
 62
3
100
AcDbCircle
 10
331.4177120628249
 20
620.8420009481938
 30
0.0000000000000000
 40
45.99999999999966
100
AcDbArc
 50
136.0413090484400
 51
163.9764586022029
  0
LINE
  5
363
100
AcDbEntity
  8
MAIN0
  6
CENTER
 62
3
100
AcDbLine
 10
414.5090828965730
 20
570.4875880372521
 30
0.0000000000000000
 11
476.9243657845433
 21
399.0030076744990
 31
0.0000000000000000
  0
LINE
  5
364
100
AcDbEntity
  8
MAIN0
  6
CONTINUOUS
 62
3
100
AcDbLine
 10
426.9955604081429
 20
556.6479038269051
 30
0.0000000000000000
 11
468.0379776073962
 21
443.8847893326588
 31
0.0000000000000000
  0
LINE
  5
365
100
AcDbEntity
  8
MAIN0
  6
CONTINUOUS
 62
3
100
AcDbLine
 10
413.8398637171471
 20
551.8596218203259
 30
0.0000000000000000
 11
454.8822809164001
 21
439.0965073260801
 31
0.0000000000000000
  0
LINE
  5
366
100
AcDbEntity
  8
MAIN0
  6
CONTINUOUS
 62
3
100
AcDbLine
 10
471.3604053486044
 20
445.0940541359646
 30
0.0000000000000000
 11
451.5598531751930
 21
437.8872425227751
 31
0.0000000000000000
  0
LINE
  5
367
100
AcDbEntity
  8
MAIN0
  6
CONTINUOUS
 62
3
100
AcDbLine
 10
428.4177120627480
 20
599.5184771987049
 30
0.0000000000000000
 11
412.4177120627267
 21
605.3420009469230
 31
0.0000000000000000
  0
LINE
  5
368
100
AcDbEntity
  8
MAIN0
  6
CONTINUOUS
 62
3
100
AcDbLine
 10
428.4177120628356
 20
557.1655246978281
 30
0.0000000000000000
 11
428.4177120627476
 21
599.5184771987048
 31
0.0000000000000000
  0
LINE
  5
369
100
AcDbEntity
  8
MAIN0
  6
CONTINUOUS
 62
3
100
AcDbLine
 10
394.4177120628388
 20
551.3420009481956
 30
0.0000000000000000
 11
412.4177120592394
 21
551.3420009482329
 31
0.0000000000000000
  0
LINE
  5
36A
100
AcDbEntity
  8
MAIN0
  6
CONTINUOUS
 62
3
100
AcDbLine
 10
399.6800735807178
 20
605.3420009482068
 30
0.0000000000000000
 11
412.4177120591271
 21
605.3420009482331
 31
0.0000000000000000
  0
LINE
  5
36B
100
AcDbEntity
  8
MAIN0
  6
CONTINUOUS
 62
3
100
AcDbLine
 10
393.4177120628327
 20
563.3420009481943
 30
0.0000000000000000
 11
394.4177120628327
 21
563.3420009481963
 31
0.0000000000000000
  0
LINE
  5
36C
100
AcDbEntity
  8
MAIN0
  6
CENTER
 62
3
100
AcDbLine
 10
495.8799993638130
 20
435.9274343817330
 30
0.0000000000000000
 11
440.2096913814838
 21
415.6650993436408
 31
0.0000000000000000
  0
ARC
  5
36D
100
AcDbEntity
  8
MAIN0
  6
CONTINUOUS
 62
3
100
AcDbCircle
 10
467.2744716984587
 20
425.5158737760182
 30
0.0000000000000000
 40
20.00000000000000
100
AcDbArc
 50
141.7883306171352
 51
438.2116693830320
  0
LINE
  5
36E
100
AcDbEntity
  8
MAIN0
  6
CONTINUOUS
 62
3
100
AcDbLine
 10
394.4177120628389
 20
551.3420009481956
 30
0.0000000000000000
 11
394.4177120628187
 21
590.3297083434113
 31
0.0000000000000000
  0
LINE
  5
36F
100
AcDbEntity
  8
MAIN0
  6
CONTINUOUS
 62
3
100
AcDbLine
 10
412.4177120628395
 20
551.3420009495429
 30
0.0000000000000000
 11
413.8398637171471
 21
551.8596218203257
 31
0.0000000000000000
  0
LINE
  5
370
100
AcDbEntity
  8
MAIN0
  6
CONTINUOUS
 62
3
100
AcDbLine
 10
426.9955604081429
 20
556.6479038269052
 30
0.0000000000000000
 11
428.4177120628358
 21
557.1655246978282
 31
0.0000000000000000
  0
LINE
  5
371
100
AcDbEntity
  8
MAIN1
  6
CONTINUOUS
 62
7
100
AcDbLine
 10
839.3907456316063
 20
682.3420009481941
 30
0.0000000000000000
 11
839.3907456316063
 21
559.3420009481940
 31
0.0000000000000000
  0
LINE
  5
372
100
AcDbEntity
  8
MAIN1
  6
CONTINUOUS
 62
7
100
AcDbLine
 10
857.3907456316073
 20
638.3420009481931
 30
0.0000000000000000
 11
856.5247202278231
 21
639.8420009481932
 31
0.0000000000000000
  0
LINE
  5
373
100
AcDbEntity
  8
MAIN1
  6
CONTINUOUS
 62
7
100
AcDbLine
 10
857.3907456316073
 20
603.3420009481949
 30
0.0000000000000000
 11
856.5247202278229
 21
601.8420009481949
 31
0.0000000000000000
  0
LINE
  5
374
100
AcDbEntity
  8
MAIN1
  6
CONTINUOUS
 62
7
100
AcDbLine
 10
856.5247202278231
 20
639.8420009481930
 30
0.0000000000000000
 11
853.8849847879012
 21
639.8420009481931
 31
0.0000000000000000
  0
LINE
  5
375
100
AcDbEntity
  8
MAIN1
  6
CONTINUOUS
 62
7
100
AcDbLine
 10
822.3907456316078
 20
559.3420009481940
 30
0.0000000000000000
 11
822.3907456316078
 21
682.3420009481941
 31
0.0000000000000000
  0
ARC
  5
376
100
AcDbEntity
  8
MAIN1
  6
CONTINUOUS
 62
7
100
AcDbCircle
 10
830.8907456316069
 20
682.3420009481941
 30
0.0000000000000000
 40
8.499999999999901
100
AcDbArc
 50
0.0000000000000000
 51
180.0000000000000
  0
ARC
  5
377
100
AcDbEntity
  8
MAIN1
  6
CONTINUOUS
 62
7
100
AcDbCircle
 10
830.8907456316069
 20
559.3420009481940
 30
0.0000000000000000
 40
8.499999999999901
100
AcDbArc
 50
180.0000000000000
 51
360.0000000000000
  0
LINE
  5
378
100
AcDbEntity
  8
MAIN1
  6
CONTINUOUS
 62
7
100
AcDbLine
 10
869.3907456316075
 20
604.3420009481951
 30
0.0000000000000000
 11
869.3907456316075
 21
637.3420009481929
 31
0.0000000000000000
  0
LINE
  5
379
100
AcDbEntity
  8
MAIN2
  6
CENTER
 62
1
100
AcDbLine
 10
830.8907456316069
 20
547.3856454633250
 30
0.0000000000000000
 11
830.8907456316069
 21
692.5437298166886
 31
0.0000000000000000
  0
ARC
  5
37A
100
AcDbEntity
  8
MAIN3
  6
CONTINUOUS
 62
2
100
AcDbCircle
 10
846.8907456316128
 20
620.8420009481940
 30
0.0000000000000000
 40
20.00000000000000
100
AcDbArc
 50
71.80512766122467
 51
112.0243128370632
  0
LINE
  5
37B
100
AcDbEntity
  8
MAIN1
  6
CONTINUOUS
 62
7
100
AcDbLine
 10
839.3907456316063
 20
667.4837919929742
 30
0.0000000000000000
 11
850.9059809203250
 21
643.4221063150633
 31
0.0000000000000000
  0
ARC
  5
37C
100
AcDbEntity
  8
MAIN1
  6
CONTINUOUS
 62
7
100
AcDbCircle
 10
859.4752199101138
 20
647.5230992601780
 30
0.0000000000000000
 40
9.500000000000000
100
AcDbArc
 50
205.5744447721023
 51
233.9532049802872
  0
ARC
  5
37D
100
AcDbEntity
  8
MAIN3
  6
CONTINUOUS
 62
2
100
AcDbCircle
 10
846.8907456316128
 20
620.8420009481940
 30
0.0000000000000000
 40
20.00000000000000
100
AcDbArc
 50
247.9756871629368
 51
276.2460642093892
  0
LINE
  5
37E
100
AcDbEntity
  8
MAIN1
  6
CONTINUOUS
 62
7
100
AcDbLine
 10
856.5247202278231
 20
601.8420009481952
 30
0.0000000000000000
 11
853.1357436300153
 21
601.8420009481949
 31
0.0000000000000000
  0
LINE
  5
37F
100
AcDbEntity
  8
MAIN1
  6
CONTINUOUS
 62
7
100
AcDbLine
 10
839.3907456316072
 20
591.7334385409042
 30
0.0000000000000000
 11
840.1033346823153
 21
592.3998618330136
 31
0.0000000000000000
  0
LINE
  5
380
100
AcDbEntity
  8
MAIN1
  6
CONTINUOUS
 62
7
100
AcDbLine
 10
840.1033346823155
 20
592.3998618330131
 30
0.0000000000000000
 11
841.3765211335420
 21
593.5941435357089
 31
0.0000000000000000
  0
LINE
  5
381
100
AcDbEntity
  8
MAIN1
  6
CONTINUOUS
 62
7
100
AcDbLine
 10
841.3765211335419
 20
593.5941435357094
 30
0.0000000000000000
 11
842.4521502671371
 21
594.6063263357310
 31
0.0000000000000000
  0
LINE
  5
382
100
AcDbEntity
  8
MAIN1
  6
CONTINUOUS
 62
7
100
AcDbLine
 10
842.4521502671373
 20
594.6063263357307
 30
0.0000000000000000
 11
843.3440554716678
 21
595.4483276012056
 31
0.0000000000000000
  0
LINE
  5
383
100
AcDbEntity
  8
MAIN1
  6
CONTINUOUS
 62
7
100
AcDbLine
 10
843.3440554716673
 20
595.4483276012059
 30
0.0000000000000000
 11
844.6076393554479
 21
596.6463143953799
 31
0.0000000000000000
  0
LINE
  5
384
100
AcDbEntity
  8
MAIN1
  6
CONTINUOUS
 62
7
100
AcDbLine
 10
844.6076393554479
 20
596.6463143953797
 30
0.0000000000000000
 11
846.1871668773981
 21
598.1547146667160
 31
0.0000000000000000
  0
LINE
  5
385
100
AcDbEntity
  8
MAIN1
  6
CONTINUOUS
 62
7
100
AcDbLine
 10
846.1871668773982
 20
598.1547146667160
 30
0.0000000000000000
 11
848.0685324066233
 21
599.9735541918210
 31
0.0000000000000000
  0
LINE
  5
386
100
AcDbEntity
  8
MAIN1
  6
CONTINUOUS
 62
7
100
AcDbLine
 10
848.0685324066235
 20
599.9735541918212
 30
0.0000000000000000
 11
849.0667174391201
 21
600.9607246638875
 31
0.0000000000000000
  0
LINE
  5
387
100
AcDbEntity
  8
MAIN3
  6
CONTINUOUS
 62
2
100
AcDbLine
 10
853.1357436300141
 20
639.8420009481931
 30
0.0000000000000000
 11
853.8849847879010
 21
639.8420009481931
 31
0.0000000000000000
  0
ARC
  5
388
100
AcDbEntity
  8
MAIN1
  6
CONTINUOUS
 62
7
100
AcDbCircle
 10
846.8907456316128
 20
620.8420009481940
 30
0.0000000000000000
 40
20.00000000000000
100
AcDbArc
 50
276.2460642093892
 51
288.1948723387753
  0
ARC
  5
389
100
AcDbEntity
  8
MAIN1
  6
CONTINUOUS
 62
7
100
AcDbCircle
 10
774.3907456316091
 20
678.8420009481940
 30
0.0000000000000000
 40
3.000000000000000
100
AcDbArc
 50
126.8698976458441
 51
233.1301023541565
  0
ARC
  5
38A
100
AcDbEntity
  8
MAIN1
  6
CONTINUOUS
 62
7
100
AcDbCircle
 10
789.3907456316090
 20
658.8420009481940
 30
0.0000000000000000
 40
28.00000000000000
100
AcDbArc
 50
66.56924438292488
 51
126.8698976458440
  0
ARC
  5
38B
100
AcDbEntity
  8
MAIN1
  6
CONTINUOUS
 62
7
100
AcDbCircle
 10
789.3907456316090
 20
698.8420009481940
 30
0.0000000000000000
 40
28.00000000000000
100
AcDbArc
 50
233.1301023541559
 51
293.4307556170751
  0
LINE
  5
38C
100
AcDbEntity
  8
MAIN1
  6
CONTINUOUS
 62
7
100
AcDbLine
 10
817.3907456316076
 20
683.8420009481940
 30
0.0000000000000000
 11
817.3907456316076
 21
673.8420009481940
 31
0.0000000000000000
  0
ARC
  5
38D
100
AcDbEntity
  8
MAIN1
  6
CONTINUOUS
 62
7
100
AcDbCircle
 10
808.3607456316079
 20
655.8420009481940
 30
0.0000000000000000
 40
19.00000000000000
100
AcDbArc
 50
71.32828193599299
 51
114.3572336206431
  0
ARC
  5
38E
100
AcDbEntity
  8
MAIN1
  6
CONTINUOUS
 62
7
100
AcDbCircle
 10
808.3607456316079
 20
701.8420009481940
 30
0.0000000000000000
 40
19.00000000000000
100
AcDbArc
 50
245.6427663793568
 51
288.6717180640079
  0
LINE
  5
38F
100
AcDbEntity
  8
MAIN1
  6
CONTINUOUS
 62
7
100
AcDbLine
 10
817.3907456316078
 20
683.8420009481940
 30
0.0000000000000000
 11
822.5241453662662
 21
683.8420009481940
 31
0.0000000000000000
  0
LINE
  5
390
100
AcDbEntity
  8
MAIN1
  6
CONTINUOUS
 62
7
100
AcDbLine
 10
817.3907456316078
 20
673.8420009481940
 30
0.0000000000000000
 11
822.3907456316078
 21
673.8420009481940
 31
0.0000000000000000
  0
LINE
  5
391
100
AcDbEntity
  8
MAIN1
  6
CONTINUOUS
 62
7
100
AcDbLine
 10
817.3907456316078
 20
673.8420009481943
 30
0.0000000000000000
 11
814.4435081619058
 21
673.8420009481943
 31
0.0000000000000000
  0
LINE
  5
392
100
AcDbEntity
  8
MAIN1
  6
CONTINUOUS
 62
7
100
AcDbLine
 10
817.3907456316077
 20
683.8420009481938
 30
0.0000000000000000
 11
814.4435081619057
 21
683.8420009481938
 31
0.0000000000000000
  0
LINE
  5
393
100
AcDbEntity
  8
MAIN1
  6
CONTINUOUS
 62
7
100
AcDbLine
 10
814.4435081619058
 20
683.8420009481940
 30
0.0000000000000000
 11
814.4435081619058
 21
673.8420009481941
 31
0.0000000000000000
  0
LINE
  5
394
100
AcDbEntity
  8
MAIN2
  6
CENTER
 62
1
100
AcDbLine
 10
837.8907456316092
 20
678.8420009481940
 30
0.0000000000000000
 11
766.8907456316092
 21
678.8420009481940
 31
0.0000000000000000
  0
CIRCLE
  5
395
100
AcDbEntity
  8
MAIN0
  6
CONTINUOUS
 62
3
100
AcDbCircle
 10
863.3907456316075
 20
620.8420009481940
 30
0.0000000000000000
 40
2.000000000000000
  0
LINE
  5
396
100
AcDbEntity
  8
MAIN0
  6
CONTINUOUS
 62
3
100
AcDbLine
 10
868.9907456316075
 20
627.8420009481940
 30
0.0000000000000000
 11
869.3907456316074
 21
628.2420009481941
 31
0.0000000000000000
  0
LINE
  5
397
100
AcDbEntity
  8
MAIN0
  6
CONTINUOUS
 62
3
100
AcDbLine
 10
868.9907456316073
 20
613.8420009481941
 30
0.0000000000000000
 11
869.3907456316074
 21
613.4420009481941
 31
0.0000000000000000
  0
LINE
  5
398
100
AcDbEntity
  8
MAIN1
  6
CONTINUOUS
 62
7
100
AcDbLine
 10
822.3907456316078
 20
675.8420009481941
 30
0.0000000000000000
 11
819.3907456316090
 21
675.8420009481941
 31
0.0000000000000000
  0
LINE
  5
399
100
AcDbEntity
  8
MAIN1
  6
CONTINUOUS
 62
7
100
AcDbLine
 10
819.3907456316090
 20
681.8420009481941
 30
0.0000000000000000
 11
819.3907456316090
 21
675.8420009481941
 31
0.0000000000000000
  0
LINE
  5
39A
100
AcDbEntity
  8
MAIN3
  6
CONTINUOUS
 62
3
100
AcDbLine
 10
819.3907456316092
 20
681.8420009481940
 30
0.0000000000000000
 11
822.3907456316082
 21
678.2420009481953
 31
0.0000000000000000
  0
LINE
  5
39B
100
AcDbEntity
  8
MAIN1
  6
CONTINUOUS
 62
7
100
AcDbLine
 10
822.3907456316078
 20
681.8420009481941
 30
0.0000000000000000
 11
819.3907456316090
 21
681.8420009481941
 31
0.0000000000000000
  0
LINE
  5
39C
100
AcDbEntity
  8
MAIN3
  6
CONTINUOUS
 62
3
100
AcDbLine
 10
819.3907456316090
 20
675.8420009481938
 30
0.0000000000000000
 11
822.3907456316078
 21
679.4420009481926
 31
0.0000000000000000
  0
LINE
  5
39D
100
AcDbEntity
  8
MAIN1
  6
CONTINUOUS
 62
7
100
AcDbLine
 10
857.3907456316074
 20
638.3420009481929
 30
0.0000000000000000
 11
868.3907456316075
 21
638.3420009481929
 31
0.0000000000000000
  0
LINE
  5
39E
100
AcDbEntity
  8
MAIN1
  6
PHANTOM
 62
7
100
AcDbLine
 10
867.8190370239277
 20
638.3420009481929
 30
0.0000000000000000
 11
868.3907456316075
 21
638.3420009481929
 31
0.0000000000000000
  0
LINE
  5
39F
100
AcDbEntity
  8
MAIN1
  6
CONTINUOUS
 62
7
100
AcDbLine
 10
857.3907456316074
 20
603.3420009481951
 30
0.0000000000000000
 11
868.3907456316075
 21
603.3420009481951
 31
0.0000000000000000
  0
ARC
  5
3A0
100
AcDbEntity
  8
MAIN1
  6
CONTINUOUS
 62
7
100
AcDbCircle
 10
868.3907456316075
 20
604.3420009481951
 30
0.0000000000000000
 40
1.000000000000000
100
AcDbArc
 50
270.0000000000000
 51
360.0000000000000
  0
ARC
  5
3A1
100
AcDbEntity
  8
MAIN1
  6
CONTINUOUS
 62
7
100
AcDbCircle
 10
868.3907456316075
 20
637.3420009481929
 30
0.0000000000000000
 40
1.000000000000000
100
AcDbArc
 50
0.0000000000000000
 51
90.00000000000000
  0
LINE
  5
3A2
100
AcDbEntity
  8
MAIN1
  6
CONTINUOUS
 62
7
100
AcDbLine
 10
856.5247202278233
 20
954.6109010075572
 30
0.0000000000000000
 11
853.1357436300154
 21
954.6109010075571
 31
0.0000000000000000
  0
ARC
  5
3A3
100
AcDbEntity
  8
MAIN1
  6
CONTINUOUS
 62
7
100
AcDbCircle
 10
859.4752199101141
 20
946.9298026955720
 30
0.0000000000000000
 40
9.500000000000000
100
AcDbArc
 50
126.0467950197129
 51
154.4255552279021
  0
LINE
  5
3A4
100
AcDbEntity
  8
MAIN1
  6
CONTINUOUS
 62
7
100
AcDbLine
 10
839.3907456316065
 20
926.9691099627752
 30
0.0000000000000000
 11
850.9059809203252
 21
951.0307956406867
 31
0.0000000000000000
  0
LINE
  5
3A5
100
AcDbEntity
  8
MAIN1
  6
CONTINUOUS
 62
7
100
AcDbLine
 10
839.3907456316063
 20
948.4469665813136
 30
0.0000000000000000
 11
839.8427935107129
 21
949.4844535169676
 31
0.0000000000000000
  0
ARC
  5
3A6
100
AcDbEntity
  8
MAIN1
  6
CONTINUOUS
 62
7
100
AcDbCircle
 10
835.2590062261371
 20
951.4816751195341
 30
0.0000000000000000
 40
5.000000000000000
100
AcDbArc
 50
336.4565551325584
 51
394.2746153623827
  0
ARC
  5
3A7
100
AcDbEntity
  8
MAIN1
  6
CONTINUOUS
 62
7
100
AcDbCircle
 10
846.8907456316132
 20
973.6109010075562
 30
0.0000000000000000
 40
20.00000000000000
100
AcDbArc
 50
247.9756871629368
 51
288.1948723387753
  0
ARC
  5
3A8
100
AcDbEntity
  8
MAIN1
  6
CONTINUOUS
 62
7
100
AcDbCircle
 10
859.4752199101141
 20
1000.291999319540
 30
0.0000000000000000
 40
9.500000000000000
100
AcDbArc
 50
205.5744447721023
 51
233.9532049802871
  0
ARC
  5
3A9
100
AcDbEntity
  8
MAIN1
  6
CONTINUOUS
 62
7
100
AcDbCircle
 10
835.2590062261371
 20
995.7401268955783
 30
0.0000000000000000
 40
5.000000000000000
100
AcDbArc
 50
325.7253846376173
 51
383.5434448674449
  0
LINE
  5
3AA
100
AcDbEntity
  8
MAIN1
  6
CONTINUOUS
 62
7
100
AcDbLine
 10
839.3907456316064
 20
1020.252692052337
 30
0.0000000000000000
 11
850.9059809203251
 21
996.1910063744256
 31
0.0000000000000000
  0
LINE
  5
3AB
100
AcDbEntity
  8
MAIN1
  6
CONTINUOUS
 62
7
100
AcDbLine
 10
839.3907456316068
 20
998.7748354337982
 30
0.0000000000000000
 11
839.8427935107135
 21
997.7373484981442
 31
0.0000000000000000
  0
ARC
  5
3AC
100
AcDbEntity
  8
MAIN1
  6
CONTINUOUS
 62
7
100
AcDbCircle
 10
846.8907456316132
 20
973.6109010075562
 30
0.0000000000000000
 40
20.00000000000000
100
AcDbArc
 50
71.80512766122470
 51
112.0243128370633
  0
LINE
  5
3AD
100
AcDbEntity
  8
MAIN2
  6
CENTER
 62
1
100
AcDbLine
 10
830.8907456316071
 20
893.6109010075562
 30
0.0000000000000000
 11
830.8907456316071
 21
1053.610901007556
 31
0.0000000000000000
  0
LINE
  5
3AE
100
AcDbEntity
  8
MAIN1
  6
CONTINUOUS
 62
7
100
AcDbLine
 10
869.3907456316075
 20
957.1109010075572
 30
0.0000000000000000
 11
869.3907456316075
 21
990.1109010075553
 31
0.0000000000000000
  0
ARC
  5
3AF
100
AcDbEntity
  8
MAIN1
  6
CONTINUOUS
 62
7
100
AcDbCircle
 10
830.8907456316073
 20
912.1109010075563
 30
0.0000000000000000
 40
8.499999999999901
100
AcDbArc
 50
180.0000000000000
 51
360.0000000000000
  0
ARC
  5
3B0
100
AcDbEntity
  8
MAIN1
  6
CONTINUOUS
 62
7
100
AcDbCircle
 10
830.8907456316073
 20
1035.110901007556
 30
0.0000000000000000
 40
8.499999999999901
100
AcDbArc
 50
0.0000000000000000
 51
180.0000000000000
  0
LINE
  5
3B1
100
AcDbEntity
  8
MAIN1
  6
CONTINUOUS
 62
7
100
AcDbLine
 10
822.3907456316081
 20
912.1109010075561
 30
0.0000000000000000
 11
822.3907456316081
 21
1035.110901007557
 31
0.0000000000000000
  0
LINE
  5
3B2
100
AcDbEntity
  8
MAIN1
  6
CONTINUOUS
 62
7
100
AcDbLine
 10
856.5247202278232
 20
992.6109010075553
 30
0.0000000000000000
 11
853.1357436300153
 21
992.6109010075553
 31
0.0000000000000000
  0
LINE
  5
3B3
100
AcDbEntity
  8
MAIN1
  6
CONTINUOUS
 62
7
100
AcDbLine
 10
868.3907456316075
 20
956.1109010075572
 30
0.0000000000000000
 11
857.3907456316075
 21
956.1109010075572
 31
0.0000000000000000
  0
LINE
  5
3B4
100
AcDbEntity
  8
MAIN1
  6
CONTINUOUS
 62
7
100
AcDbLine
 10
868.3907456316075
 20
991.1109010075553
 30
0.0000000000000000
 11
857.3907456316075
 21
991.1109010075553
 31
0.0000000000000000
  0
LINE
  5
3B5
100
AcDbEntity
  8
MAIN1
  6
CONTINUOUS
 62
7
100
AcDbLine
 10
857.3907456316075
 20
956.1109010075563
 30
0.0000000000000000
 11
857.3907456316075
 21
991.1109010075553
 31
0.0000000000000000
  0
LINE
  5
3B6
100
AcDbEntity
  8
MAIN1
  6
CONTINUOUS
 62
7
100
AcDbLine
 10
857.3907456316076
 20
956.1109010075571
 30
0.0000000000000000
 11
856.5247202278233
 21
954.6109010075571
 31
0.0000000000000000
  0
LINE
  5
3B7
100
AcDbEntity
  8
MAIN1
  6
CONTINUOUS
 62
7
100
AcDbLine
 10
857.3907456316076
 20
991.1109010075551
 30
0.0000000000000000
 11
856.5247202278233
 21
992.6109010075551
 31
0.0000000000000000
  0
LINE
  5
3B8
100
AcDbEntity
  8
MAIN1
  6
CONTINUOUS
 62
7
100
AcDbLine
 10
856.5247202278232
 20
954.6109010075572
 30
0.0000000000000000
 11
856.5247202278232
 21
992.6109010075555
 31
0.0000000000000000
  0
ARC
  5
3B9
100
AcDbEntity
  8
MAIN1
  6
CONTINUOUS
 62
7
100
AcDbCircle
 10
868.3907456316077
 20
957.1109010075571
 30
0.0000000000000000
 40
1.000000000000000
100
AcDbArc
 50
270.0000000000000
 51
360.0000000000000
  0
ARC
  5
3BA
100
AcDbEntity
  8
MAIN1
  6
CONTINUOUS
 62
7
100
AcDbCircle
 10
868.3907456316077
 20
990.1109010075551
 30
0.0000000000000000
 40
1.000000000000000
100
AcDbArc
 50
0.0000000000000000
 51
90.00000000000000
  0
LINE
  5
3BB
100
AcDbEntity
  8
MAIN1
  6
CONTINUOUS
 62
7
100
AcDbLine
 10
839.3907456316064
 20
1035.110901007557
 30
0.0000000000000000
 11
839.3907456316064
 21
912.1109010075561
 31
0.0000000000000000
  0
LINE
  5
3BC
100
AcDbEntity
  8
MAIN1
  6
CONTINUOUS
 62
7
100
AcDbLine
 10
849.6139612610250
 20
962.4109812413136
 30
0.0000000000000000
 11
848.5130813434853
 21
962.5238140314740
 31
0.0000000000000000
  0
LINE
  5
3BD
100
AcDbEntity
  8
MAIN1
  6
CONTINUOUS
 62
7
100
AcDbLine
 10
848.5130813434856
 20
962.5238140314741
 30
0.0000000000000000
 11
847.6135890986070
 21
962.6460705953302
 31
0.0000000000000000
  0
LINE
  5
3BE
100
AcDbEntity
  8
MAIN1
  6
CONTINUOUS
 62
7
100
AcDbLine
 10
847.6135890986074
 20
962.6460705953302
 30
0.0000000000000000
 11
846.1382164268703
 21
962.8785769730771
 31
0.0000000000000000
  0
LINE
  5
3BF
100
AcDbEntity
  8
MAIN1
  6
CONTINUOUS
 62
7
100
AcDbLine
 10
846.1382164268703
 20
962.8785769730768
 30
0.0000000000000000
 11
844.4099114246076
 21
963.1453895046757
 31
0.0000000000000000
  0
LINE
  5
3C0
100
AcDbEntity
  8
MAIN1
  6
CONTINUOUS
 62
7
100
AcDbLine
 10
844.4099114246073
 20
963.1453895046764
 30
0.0000000000000000
 11
842.8679808467429
 21
963.3801315993394
 31
0.0000000000000000
  0
LINE
  5
3C1
100
AcDbEntity
  8
MAIN1
  6
CONTINUOUS
 62
7
100
AcDbLine
 10
842.8679808467431
 20
963.3801315993392
 30
0.0000000000000000
 11
841.1298209486074
 21
963.6422612270357
 31
0.0000000000000000
  0
LINE
  5
3C2
100
AcDbEntity
  8
MAIN1
  6
CONTINUOUS
 62
7
100
AcDbLine
 10
841.1298209486075
 20
963.6422612270354
 30
0.0000000000000000
 11
839.6844586093151
 21
963.8587732887471
 31
0.0000000000000000
  0
LINE
  5
3C3
100
AcDbEntity
  8
MAIN1
  6
CONTINUOUS
 62
7
100
AcDbLine
 10
839.6844586093154
 20
963.8587732887470
 30
0.0000000000000000
 11
839.3907456316074
 21
963.9025629733458
 31
0.0000000000000000
  0
LINE
  5
3C4
100
AcDbEntity
  8
MAIN1
  6
CONTINUOUS
 62
7
100
AcDbLine
 10
849.6139612359078
 20
984.8108207751042
 30
0.0000000000000000
 11
848.5130813424794
 21
984.6979879836678
 31
0.0000000000000000
  0
LINE
  5
3C5
100
AcDbEntity
  8
MAIN1
  6
CONTINUOUS
 62
7
100
AcDbLine
 10
848.5130813424792
 20
984.6979879836675
 30
0.0000000000000000
 11
847.6135890986072
 21
984.5757314197814
 31
0.0000000000000000
  0
LINE
  5
3C6
100
AcDbEntity
  8
MAIN1
  6
CONTINUOUS
 62
7
100
AcDbLine
 10
847.6135890986071
 20
984.5757314197816
 30
0.0000000000000000
 11
846.1381795588247
 21
984.3432189922127
 31
0.0000000000000000
  0
LINE
  5
3C7
100
AcDbEntity
  8
MAIN1
  6
CONTINUOUS
 62
7
100
AcDbLine
 10
846.1381795588245
 20
984.3432189922129
 30
0.0000000000000000
 11
844.4100113925263
 21
984.0764278153446
 31
0.0000000000000000
  0
LINE
  5
3C8
100
AcDbEntity
  8
MAIN1
  6
CONTINUOUS
 62
7
100
AcDbLine
 10
844.4100113925263
 20
984.0764278153445
 30
0.0000000000000000
 11
842.8678500951244
 21
983.8416506459873
 31
0.0000000000000000
  0
LINE
  5
3C9
100
AcDbEntity
  8
MAIN1
  6
CONTINUOUS
 62
7
100
AcDbLine
 10
842.8678500951241
 20
983.8416506459873
 30
0.0000000000000000
 11
841.1299137717743
 21
983.5795547308856
 31
0.0000000000000000
  0
LINE
  5
3CA
100
AcDbEntity
  8
MAIN1
  6
CONTINUOUS
 62
7
100
AcDbLine
 10
841.1299137717745
 20
983.5795547308854
 30
0.0000000000000000
 11
839.6844174012859
 21
983.3630227632083
 31
0.0000000000000000
  0
LINE
  5
3CB
100
AcDbEntity
  8
MAIN1
  6
CONTINUOUS
 62
7
100
AcDbLine
 10
839.6844174012861
 20
983.3630227632084
 30
0.0000000000000000
 11
839.3907456316073
 21
983.3192392238493
 31
0.0000000000000000
  0
LINE
  5
3CC
100
AcDbEntity
  8
MAIN1
  6
CONTINUOUS
 62
7
100
AcDbLine
 10
849.6139611103019
 20
984.8108207509372
 30
0.0000000000000000
 11
850.7993002056267
 21
984.6672701980604
 31
0.0000000000000000
  0
LINE
  5
3CD
100
AcDbEntity
  8
MAIN1
  6
CONTINUOUS
 62
7
100
AcDbLine
 10
850.7993002056269
 20
984.6672701980604
 30
0.0000000000000000
 11
851.6604700978348
 21
984.3069558399366
 31
0.0000000000000000
  0
LINE
  5
3CE
100
AcDbEntity
  8
MAIN1
  6
CONTINUOUS
 62
7
100
AcDbLine
 10
851.6604700978346
 20
984.3069558399362
 30
0.0000000000000000
 11
852.3173129434158
 21
983.6990839241668
 31
0.0000000000000000
  0
LINE
  5
3CF
100
AcDbEntity
  8
MAIN1
  6
CONTINUOUS
 62
7
100
AcDbLine
 10
852.3173129434156
 20
983.6990839241669
 30
0.0000000000000000
 11
852.6344771543224
 21
983.0201845266098
 31
0.0000000000000000
  0
LINE
  5
3D0
100
AcDbEntity
  8
MAIN1
  6
CONTINUOUS
 62
7
100
AcDbLine
 10
852.6344771543226
 20
983.0201845266097
 30
0.0000000000000000
 11
852.7214778451825
 21
982.3329188406090
 31
0.0000000000000000
  0
LINE
  5
3D1
100
AcDbEntity
  8
MAIN1
  6
CONTINUOUS
 62
7
100
AcDbLine
 10
852.7214775166576
 20
964.8888830949391
 30
0.0000000000000000
 11
852.5869115202090
 21
964.0475582656661
 31
0.0000000000000000
  0
LINE
  5
3D2
100
AcDbEntity
  8
MAIN1
  6
CONTINUOUS
 62
7
100
AcDbLine
 10
852.5869115202090
 20
964.0475582656662
 30
0.0000000000000000
 11
852.1418633851420
 21
963.3072403905320
 31
0.0000000000000000
  0
LINE
  5
3D3
100
AcDbEntity
  8
MAIN1
  6
CONTINUOUS
 62
7
100
AcDbLine
 10
852.1418633851422
 20
963.3072403905321
 30
0.0000000000000000
 11
851.4975314101375
 21
962.8215895094193
 31
0.0000000000000000
  0
LINE
  5
3D4
100
AcDbEntity
  8
MAIN1
  6
CONTINUOUS
 62
7
100
AcDbLine
 10
851.4975314101375
 20
962.8215895094193
 30
0.0000000000000000
 11
850.7148101181697
 21
962.5333482393638
 31
0.0000000000000000
  0
LINE
  5
3D5
100
AcDbEntity
  8
MAIN1
  6
CONTINUOUS
 62
7
100
AcDbLine
 10
850.7148101181692
 20
962.5333482393639
 30
0.0000000000000000
 11
849.6139611153109
 21
962.4109812644452
 31
0.0000000000000000
  0
LINE
  5
3D6
100
AcDbEntity
  8
MAIN1
  6
CONTINUOUS
 62
7
100
AcDbLine
 10
814.4435081619769
 20
978.6109010074792
 30
0.0000000000000000
 11
814.4435081619772
 21
968.6109010074792
 31
0.0000000000000000
  0
LINE
  5
3D7
100
AcDbEntity
  8
MAIN1
  6
CONTINUOUS
 62
7
100
AcDbLine
 10
817.3907456316792
 20
978.6109010074794
 30
0.0000000000000000
 11
817.3907456316792
 21
968.6109010074794
 31
0.0000000000000000
  0
LINE
  5
3D8
100
AcDbEntity
  8
MAIN1
  6
CONTINUOUS
 62
7
100
AcDbLine
 10
814.4435081619774
 20
978.6109010074794
 30
0.0000000000000000
 11
819.3907456316805
 21
978.6109010074794
 31
0.0000000000000000
  0
LINE
  5
3D9
100
AcDbEntity
  8
MAIN1
  6
CONTINUOUS
 62
7
100
AcDbLine
 10
814.4435081619772
 20
968.6109010074794
 30
0.0000000000000000
 11
819.3907456316805
 21
968.6109010074794
 31
0.0000000000000000
  0
ARC
  5
3DA
100
AcDbEntity
  8
MAIN1
  6
CONTINUOUS
 62
7
100
AcDbCircle
 10
808.3607456316793
 20
950.6109010074794
 30
0.0000000000000000
 40
19.00000000000000
100
AcDbArc
 50
71.32828193599291
 51
114.3572336206432
  0
ARC
  5
3DB
100
AcDbEntity
  8
MAIN1
  6
CONTINUOUS
 62
7
100
AcDbCircle
 10
808.3607456316793
 20
996.6109010074794
 30
0.0000000000000000
 40
19.00000000000000
100
AcDbArc
 50
245.6427663793569
 51
288.6717180640078
  0
LINE
  5
3DC
100
AcDbEntity
  8
MAIN1
  6
CONTINUOUS
 62
7
100
AcDbLine
 10
822.3907456316081
 20
969.6109010074792
 30
0.0000000000000000
 11
819.3907456316804
 21
969.6109010074792
 31
0.0000000000000000
  0
LINE
  5
3DD
100
AcDbEntity
  8
MAIN1
  6
CONTINUOUS
 62
7
100
AcDbLine
 10
819.3907456316804
 20
968.6109010074794
 30
0.0000000000000000
 11
819.3907456316805
 21
969.6109010074791
 31
0.0000000000000000
  0
LINE
  5
3DE
100
AcDbEntity
  8
MAIN1
  6
CONTINUOUS
 62
7
100
AcDbLine
 10
819.3907456316805
 20
978.6109010074794
 30
0.0000000000000000
 11
819.3907456316805
 21
977.6109010074791
 31
0.0000000000000000
  0
ARC
  5
3DF
100
AcDbEntity
  8
MAIN1
  6
CONTINUOUS
 62
7
100
AcDbCircle
 10
774.3907456316806
 20
973.6109010074792
 30
0.0000000000000000
 40
3.000000000000000
100
AcDbArc
 50
126.8698976458440
 51
233.1301023541565
  0
ARC
  5
3E0
100
AcDbEntity
  8
MAIN1
  6
CONTINUOUS
 62
7
100
AcDbCircle
 10
789.3907456316804
 20
953.6109010074792
 30
0.0000000000000000
 40
28.00000000000000
100
AcDbArc
 50
66.56924438292478
 51
126.8698976458440
  0
ARC
  5
3E1
100
AcDbEntity
  8
MAIN1
  6
CONTINUOUS
 62
7
100
AcDbCircle
 10
789.3907456316804
 20
993.6109010074794
 30
0.0000000000000000
 40
28.00000000000000
100
AcDbArc
 50
233.1301023541560
 51
293.4307556170751
  0
LINE
  5
3E2
100
AcDbEntity
  8
MAIN1
  6
CONTINUOUS
 62
7
100
AcDbLine
 10
822.3907456316081
 20
977.6109010074794
 30
0.0000000000000000
 11
819.3907456316804
 21
977.6109010074794
 31
0.0000000000000000
  0
CIRCLE
  5
3E3
100
AcDbEntity
  8
MAIN1
  6
CONTINUOUS
 62
7
100
AcDbCircle
 10
331.4177120628249
 20
620.8420009481940
 30
0.0000000000000000
 40
18.10386699022856
  0
ARC
  5
3E4
100
AcDbEntity
  8
MAIN1
  6
CONTINUOUS
 62
7
100
AcDbCircle
 10
364.0560564882751
 20
585.6462842604253
 30
0.0000000000000000
 40
5.000000000000000
100
AcDbArc
 50
312.8409478433765
 51
423.9909130984315
  0
ARC
  5
3E5
100
AcDbEntity
  8
MAIN1
  6
CONTINUOUS
 62
7
100
AcDbCircle
 10
340.0265220348456
 20
597.3709892344728
 30
0.0000000000000000
 40
5.000000000000000
100
AcDbArc
 50
63.99091309843147
 51
110.1422688076731
  0
ARC
  5
3E6
100
AcDbEntity
  8
MAIN1
  6
CONTINUOUS
 62
7
100
AcDbCircle
 10
322.8089020908044
 20
597.3709892344730
 30
0.0000000000000000
 40
5.000000000000000
100
AcDbArc
 50
69.85773119232698
 51
116.0090869015685
  0
ARC
  5
3E7
100
AcDbEntity
  8
MAIN1
  6
CONTINUOUS
 62
7
100
AcDbCircle
 10
298.7793676373744
 20
585.6462842604253
 30
0.0000000000000000
 40
5.000000000000000
100
AcDbArc
 50
116.0090869015685
 51
227.1590521566233
  0
ARC
  5
3E8
100
AcDbEntity
  8
MAIN1
  6
CONTINUOUS
 62
7
100
AcDbCircle
 10
284.6181550940919
 20
610.1742238821726
 30
0.0000000000000000
 40
5.000000000000000
100
AcDbArc
 50
192.8409478433762
 51
303.9909130984262
  0
ARC
  5
3E9
100
AcDbEntity
  8
MAIN1
  6
CONTINUOUS
 62
7
100
AcDbCircle
 10
306.7868146802100
 20
625.1220586729320
 30
0.0000000000000000
 40
5.000000000000000
100
AcDbArc
 50
303.9909130984262
 51
350.1422688076747
  0
ARC
  5
3EA
100
AcDbEntity
  8
MAIN1
  6
CONTINUOUS
 62
7
100
AcDbCircle
 10
315.3956246522303
 20
640.0329549371770
 30
0.0000000000000000
 40
5.000000000000000
100
AcDbArc
 50
309.8577311923236
 51
356.0090869015709
  0
ARC
  5
3EB
100
AcDbEntity
  8
MAIN1
  6
CONTINUOUS
 62
7
100
AcDbCircle
 10
378.2172690315578
 20
610.1742238821726
 30
0.0000000000000000
 40
5.000000000000000
100
AcDbArc
 50
236.0090869015738
 51
347.1590521566255
  0
ARC
  5
3EC
100
AcDbEntity
  8
MAIN1
  6
CONTINUOUS
 62
7
100
AcDbCircle
 10
356.0486094454398
 20
625.1220586729321
 30
0.0000000000000000
 40
5.000000000000000
100
AcDbArc
 50
189.8577311923254
 51
236.0090869015738
  0
ARC
  5
3ED
100
AcDbEntity
  8
MAIN1
  6
CONTINUOUS
 62
7
100
AcDbCircle
 10
347.4397994734190
 20
640.0329549371770
 30
0.0000000000000000
 40
5.000000000000000
100
AcDbArc
 50
183.9909130984286
 51
230.1422688076767
  0
ARC
  5
3EE
100
AcDbEntity
  8
MAIN1
  6
CONTINUOUS
 62
7
100
AcDbCircle
 10
317.2564995195421
 20
666.7054947019847
 30
0.0000000000000000
 40
5.000000000000000
100
AcDbArc
 50
356.0090869015709
 51
467.1590521566262
  0
ARC
  5
3EF
100
AcDbEntity
  8
MAIN1
  6
CONTINUOUS
 62
7
100
AcDbCircle
 10
317.7813833678299
 20
675.6717423275045
 30
0.0000000000000000
 40
5.000000000000000
100
AcDbArc
 50
13.08798417152311
 51
103.9662882617980
  0
ARC
  5
3F0
100
AcDbEntity
  8
MAIN1
  6
CONTINUOUS
 62
7
100
AcDbCircle
 10
345.0540407578199
 20
675.6717423275046
 30
0.0000000000000000
 40
5.000000000000000
100
AcDbArc
 50
76.03371173820197
 51
166.9120158284773
  0
ARC
  5
3F1
100
AcDbEntity
  8
MAIN1
  6
CONTINUOUS
 62
7
100
AcDbCircle
 10
345.5789246061074
 20
666.7054947019847
 30
0.0000000000000000
 40
5.000000000000000
100
AcDbArc
 50
72.84094784337380
 51
183.9909130984286
  0
ARC
  5
3F2
100
AcDbEntity
  8
MAIN1
  6
CONTINUOUS
 62
7
100
AcDbCircle
 10
331.4177120628249
 20
620.8420009481940
 30
0.0000000000000000
 40
53.00000000000008
100
AcDbArc
 50
227.1590521566233
 51
312.8409478433767
  0
ARC
  5
3F3
100
AcDbEntity
  8
MAIN1
  6
CONTINUOUS
 62
7
100
AcDbCircle
 10
331.4177120628249
 20
620.8420009481940
 30
0.0000000000000000
 40
53.00000000000008
100
AcDbArc
 50
107.1590521566262
 51
192.8409478433744
  0
ARC
  5
3F4
100
AcDbEntity
  8
MAIN1
  6
CONTINUOUS
 62
7
100
AcDbCircle
 10
331.4177120628249
 20
620.8420009481940
 30
0.0000000000000000
 40
20.00000000000000
100
AcDbArc
 50
129.8577311923285
 51
170.1422688076746
  0
ARC
  5
3F5
100
AcDbEntity
  8
MAIN1
  6
CONTINUOUS
 62
7
100
AcDbCircle
 10
331.4177120628249
 20
620.8420009481940
 30
0.0000000000000000
 40
20.00000000000000
100
AcDbArc
 50
249.8577311923268
 51
290.1422688076732
  0
LINE
  5
3F6
100
AcDbEntity
  8
MAIN1
  6
CONTINUOUS
 62
7
100
AcDbLine
 10
287.4134621646151
 20
606.0285926417603
 30
0.0000000000000000
 11
309.5821217507332
 21
620.9764274325196
 31
0.0000000000000000
  0
LINE
  5
3F7
100
AcDbEntity
  8
MAIN1
  6
CONTINUOUS
 62
7
100
AcDbLine
 10
320.6163336571465
 20
601.8646117891308
 30
0.0000000000000000
 11
296.5867992037170
 21
590.1399068150830
 31
0.0000000000000000
  0
LINE
  5
3F8
100
AcDbEntity
  8
MAIN1
  6
CONTINUOUS
 62
7
100
AcDbLine
 10
375.4219619610343
 20
606.0285926417603
 30
0.0000000000000000
 11
353.2533023749163
 21
620.9764274325198
 31
0.0000000000000000
  0
LINE
  5
3F9
100
AcDbEntity
  8
MAIN1
  6
CONTINUOUS
 62
7
100
AcDbLine
 10
342.2190904685036
 20
601.8646117891303
 30
0.0000000000000000
 11
366.2486249219332
 21
590.1399068150827
 31
0.0000000000000000
  0
LINE
  5
3FA
100
AcDbEntity
  8
MAIN1
  6
CONTINUOUS
 62
7
100
AcDbLine
 10
340.5910491019263
 20
666.3575033877395
 30
0.0000000000000000
 11
342.4519239692380
 21
639.6849636229320
 31
0.0000000000000000
  0
LINE
  5
3FB
100
AcDbEntity
  8
MAIN1
  6
CONTINUOUS
 62
7
100
AcDbLine
 10
320.3835001564114
 20
639.6849636229318
 30
0.0000000000000000
 11
322.2443750237230
 21
666.3575033877393
 31
0.0000000000000000
  0
ARC
  5
3FC
100
AcDbEntity
  8
MAIN1
  6
CONTINUOUS
 62
7
100
AcDbCircle
 10
331.4177120628249
 20
678.8420009481940
 30
0.0000000000000000
 40
9.000000000000000
100
AcDbArc
 50
193.0879841715231
 51
346.9120158284769
  0
ARC
  5
3FD
100
AcDbEntity
  8
MAIN1
  6
CONTINUOUS
 62
7
100
AcDbCircle
 10
331.4177120628249
 20
620.8420009481940
 30
0.0000000000000000
 40
61.50000000000012
100
AcDbArc
 50
103.9662882617980
 51
436.0337117382020
  0
ARC
  5
3FE
100
AcDbEntity
  8
MAIN1
  6
CONTINUOUS
 62
7
100
AcDbCircle
 10
331.4177120628249
 20
620.8420009481940
 30
0.0000000000000000
 40
53.00000000000008
100
AcDbArc
 50
347.1590521566255
 51
432.8409478433737
  0
ARC
  5
3FF
100
AcDbEntity
  8
MAIN1
  6
CONTINUOUS
 62
7
100
AcDbCircle
 10
331.4177120628249
 20
620.8420009481940
 30
0.0000000000000000
 40
20.00000000000000
100
AcDbArc
 50
9.857731192325375
 51
50.14226880767669
  0
CIRCLE
  5
400
100
AcDbEntity
  8
MAIN1
  6
CONTINUOUS
 62
7
100
AcDbCircle
 10
331.4177120628249
 20
620.8420009481940
 30
0.0000000000000000
 40
70.00000000000000
  0
LINE
  5
401
100
AcDbEntity
  8
MAIN2
  6
CENTER
 62
1
100
AcDbLine
 10
341.6677120628249
 20
678.8420009481940
 30
0.0000000000000000
 11
321.1677120628249
 21
678.8420009481940
 31
0.0000000000000000
  0
LINE
  5
402
100
AcDbEntity
  8
MAIN2
  6
CENTER
 62
1
100
AcDbLine
 10
331.4177120628249
 20
620.8420009481939
 30
0.0000000000000000
 11
400.6997443655798
 21
580.8420009481941
 31
0.0000000000000000
  0
LINE
  5
403
100
AcDbEntity
  8
MAIN2
  6
CENTER
 62
1
100
AcDbLine
 10
331.4177120628244
 20
620.8420009481941
 30
0.0000000000000000
 11
262.1356797600695
 21
580.8420009481943
 31
0.0000000000000000
  0
CIRCLE
  5
404
100
AcDbEntity
  8
MAIN1
  6
CONTINUOUS
 62
7
100
AcDbCircle
 10
331.4177120628249
 20
678.8420009481940
 30
0.0000000000000000
 40
8.000000000000000
  0
LINE
  5
405
100
AcDbEntity
  8
MAIN2
  6
CENTER
 62
1
100
AcDbLine
 10
331.4177120628249
 20
689.3420009481940
 30
0.0000000000000000
 11
331.4177120628249
 21
668.3420009481940
 31
0.0000000000000000
  0
LINE
  5
406
100
AcDbEntity
  8
MAIN0
  6
HIDDEN
 62
3
100
AcDbLine
 10
841.1907456316076
 20
614.0420009481937
 30
0.0000000000000000
 11
841.1907456316076
 21
627.6420009481936
 31
0.0000000000000000
  0
LINE
  5
407
100
AcDbEntity
  8
MAIN0
  6
HIDDEN
 62
3
100
AcDbLine
 10
841.1907456316076
 20
627.6420009481939
 30
0.0000000000000000
 11
841.3907456316075
 21
627.8420009481938
 31
0.0000000000000000
  0
LINE
  5
408
100
AcDbEntity
  8
MAIN0
  6
HIDDEN
 62
3
100
AcDbLine
 10
841.1907456316076
 20
614.0420009481939
 30
0.0000000000000000
 11
841.3907456316074
 21
613.8420009481938
 31
0.0000000000000000
  0
LINE
  5
409
100
AcDbEntity
  8
MAIN0
  6
CONTINUOUS
 62
3
100
AcDbLine
 10
1181.802327631639
 20
636.6420009481954
 30
0.0000000000000000
 11
1201.301950275431
 21
636.6420009481989
 31
0.0000000000000000
  0
LINE
  5
40A
100
AcDbEntity
  8
MAIN0
  6
CONTINUOUS
 62
3
100
AcDbLine
 10
1181.802327631608
 20
605.0420009481950
 30
0.0000000000000000
 11
1181.802327631609
 21
636.6420009481951
 31
0.0000000000000000
  0
LINE
  5
40B
100
AcDbEntity
  8
MAIN0
  6
HIDDEN
 62
3
100
AcDbLine
 10
1072.802327631608
 20
608.3420009481754
 30
0.0000000000000000
 11
1072.802327631610
 21
633.3420009481749
 31
0.0000000000000000
  0
LINE
  5
40C
100
AcDbEntity
  8
MAIN0
  6
HIDDEN
 62
3
100
AcDbLine
 10
1072.802327631610
 20
633.3420009481752
 30
0.0000000000000000
 11
1081.802327631610
 21
633.3420009481768
 31
0.0000000000000000
  0
LINE
  5
40D
100
AcDbEntity
  8
MAIN0
  6
HIDDEN
 62
3
100
AcDbLine
 10
1072.802327631615
 20
608.3420009481753
 30
0.0000000000000000
 11
1081.802327631615
 21
608.3420009481770
 31
0.0000000000000000
  0
LINE
  5
40E
100
AcDbEntity
  8
MAIN0
  6
HIDDEN
 62
3
100
AcDbLine
 10
1081.802327631608
 20
607.6388639376858
 30
0.0000000000000000
 11
1081.802327631610
 21
634.0451379586677
 31
0.0000000000000000
  0
LINE
  5
40F
100
AcDbEntity
  8
MAIN0
  6
CONTINUOUS
 62
3
100
AcDbLine
 10
1227.802327631609
 20
620.3420009484079
 30
0.0000000000000000
 11
1227.802327631609
 21
621.3420009479997
 31
0.0000000000000000
  0
LINE
  5
410
100
AcDbEntity
  8
MAIN0
  6
CONTINUOUS
 62
3
100
AcDbLine
 10
1201.301950275431
 20
636.6420009481985
 30
0.0000000000000000
 11
1227.802327631609
 21
621.3420009479995
 31
0.0000000000000000
  0
LINE
  5
411
100
AcDbEntity
  8
MAIN0
  6
CONTINUOUS
 62
3
100
AcDbLine
 10
1201.351313723452
 20
605.0705009481991
 30
0.0000000000000000
 11
1227.802327631609
 21
620.3420009484082
 31
0.0000000000000000
  0
LINE
  5
412
100
AcDbEntity
  8
MAIN0
  6
CONTINUOUS
 62
3
100
AcDbLine
 10
1181.802327631645
 20
605.0420009481951
 30
0.0000000000000000
 11
1201.301950275437
 21
605.0420009481987
 31
0.0000000000000000
  0
LINE
  5
413
100
AcDbEntity
  8
MAIN0
  6
CONTINUOUS
 62
3
100
AcDbLine
 10
1201.301950275432
 20
605.0420009481985
 30
0.0000000000000000
 11
1201.301950275431
 21
636.6420009481989
 31
0.0000000000000000
  0
LINE
  5
414
100
AcDbEntity
  8
MAIN0
  6
CONTINUOUS
 62
3
100
AcDbLine
 10
1216.543997382271
 20
613.8420009483289
 30
0.0000000000000000
 11
1216.543997382264
 21
627.8420009480774
 31
0.0000000000000000
  0
LINE
  5
415
100
AcDbEntity
  8
MAIN0
  6
HIDDEN
 62
3
100
AcDbLine
 10
1081.802327631610
 20
634.0451379586673
 30
0.0000000000000000
 11
1175.390745631607
 21
636.4755009481935
 31
0.0000000000000000
  0
LINE
  5
416
100
AcDbEntity
  8
MAIN0
  6
CONTINUOUS
 62
3
100
AcDbLine
 10
1175.390745631608
 20
636.4755009481937
 30
0.0000000000000000
 11
1181.802327631639
 21
636.6420009481957
 31
0.0000000000000000
  0
LINE
  5
417
100
AcDbEntity
  8
MAIN0
  6
HIDDEN
 62
3
100
AcDbLine
 10
1081.802327631608
 20
607.6388639376855
 30
0.0000000000000000
 11
1175.390745631607
 21
605.2085009481941
 31
0.0000000000000000
  0
LINE
  5
418
100
AcDbEntity
  8
MAIN0
  6
CONTINUOUS
 62
3
100
AcDbLine
 10
1175.390745631608
 20
605.2085009481941
 30
0.0000000000000000
 11
1181.802327631602
 21
605.0420009481954
 31
0.0000000000000000
  0
INSERT
  5
41F
100
AcDbEntity
  8
MAIN0
  6
CONTINUOUS
 62
3
100
AcDbBlockReference
  2
*X2
 10
0.0000000000000000
 20
0.0000000000000000
 30
0.0000000000000000
 50
0.0000000000000000
  0
ARC
  5
420
100
AcDbEntity
  8
MAIN0
  6
CONTINUOUS
 62
3
100
AcDbCircle
 10
371.2548806369084
 20
643.8420009481940
 30
0.0000000000000000
 40
7.000000000000000
100
AcDbArc
 50
63.17988236192433
 51
356.8201176380770
  0
LINE
  5
421
100
AcDbEntity
  8
MAIN0
  6
CENTER
 62
3
100
AcDbLine
 10
362.8111329500075
 20
638.9670009481987
 30
0.0000000000000000
 11
379.6986283238098
 21
648.7170009481894
 31
0.0000000000000000
  0
ARC
  5
422
100
AcDbEntity
  8
MAIN0
  6
CONTINUOUS
 62
3
100
AcDbCircle
 10
291.5805434887409
 20
643.8420009481933
 30
0.0000000000000000
 40
7.000000000000000
100
AcDbArc
 50
183.1798823619243
 51
476.8201176380771
  0
LINE
  5
423
100
AcDbEntity
  8
MAIN0
  6
CENTER
 62
3
100
AcDbLine
 10
300.0242911756365
 20
638.9670009481886
 30
0.0000000000000000
 11
283.1367958018451
 21
648.7170009481981
 31
0.0000000000000000
  0
LINE
  5
424
100
AcDbEntity
  8
WAKU0
  6
CONTINUOUS
 62
3
100
AcDbLine
 10
240.0000000000000
 20
51.00000000000000
 30
0.0000000000000000
 11
410.0000000000000
 21
51.00000000000000
 31
0.0000000000000000
  0
LINE
  5
425
100
AcDbEntity
  8
WAKU0
  6
CONTINUOUS
 62
3
100
AcDbLine
 10
240.0000000000000
 20
51.00000000000000
 30
0.0000000000000000
 11
240.0000000000000
 21
12.00000000000000
 31
0.0000000000000000
  0
LINE
  5
426
100
AcDbEntity
  8
WAKU0
  6
CONTINUOUS
 62
3
100
AcDbLine
 10
312.0000000000000
 20
51.00000000000000
 30
0.0000000000000000
 11
312.0000000000000
 21
12.00000000000000
 31
0.0000000000000000
  0
LINE
  5
427
100
AcDbEntity
  8
WAKU0
  6
CONTINUOUS
 62
3
100
AcDbLine
 10
332.0000000000000
 20
51.00000000000000
 30
0.0000000000000000
 11
332.0000000000000
 21
12.00000000000000
 31
0.0000000000000000
  0
LINE
  5
428
100
AcDbEntity
  8
WAKU0
  6
CONTINUOUS
 62
3
100
AcDbLine
 10
344.0000000000000
 20
51.00000000000000
 30
0.0000000000000000
 11
344.0000000000000
 21
12.00000000000000
 31
0.0000000000000000
  0
LINE
  5
429
100
AcDbEntity
  8
WAKU0
  6
CONTINUOUS
 62
3
100
AcDbLine
 10
344.0000000000000
 20
37.00000000000000
 30
0.0000000000000000
 11
410.0000000000000
 21
37.00000000000000
 31
0.0000000000000000
  0
LINE
  5
42A
100
AcDbEntity
  8
WAKU0
  6
CONTINUOUS
 62
3
100
AcDbLine
 10
332.0000000000000
 20
23.00000000000000
 30
0.0000000000000000
 11
410.0000000000000
 21
23.00000000000000
 31
0.0000000000000000
  0
LINE
  5
42B
100
AcDbEntity
  8
WAKU0
  6
CONTINUOUS
 62
3
100
AcDbLine
 10
375.0000000000000
 20
51.00000000000000
 30
0.0000000000000000
 11
375.0000000000000
 21
44.00000000000000
 31
0.0000000000000000
  0
LINE
  5
42C
100
AcDbEntity
  8
WAKU0
  6
CONTINUOUS
 62
3
100
AcDbLine
 10
387.0000000000000
 20
51.00000000000000
 30
0.0000000000000000
 11
387.0000000000000
 21
44.00000000000000
 31
0.0000000000000000
  0
LINE
  5
42D
100
AcDbEntity
  8
WAKU0
  6
CONTINUOUS
 62
3
100
AcDbLine
 10
312.0000000000000
 20
31.50000000000000
 30
0.0000000000000000
 11
332.0000000000000
 21
31.50000000000000
 31
0.0000000000000000
  0
LINE
  5
42E
100
AcDbEntity
  8
WAKU0
  6
CONTINUOUS
 62
3
100
AcDbLine
 10
332.0000000000000
 20
44.00000000000000
 30
0.0000000000000000
 11
410.0000000000000
 21
44.00000000000000
 31
0.0000000000000000
  0
LINE
  5
42F
100
AcDbEntity
  8
WAKU0
  6
CONTINUOUS
 62
3
100
AcDbLine
 10
240.0000000000000
 20
37.00000000000000
 30
0.0000000000000000
 11
312.0000000000000
 21
37.00000000000000
 31
0.0000000000000000
  0
LINE
  5
430
100
AcDbEntity
  8
WAKU0
  6
CONTINUOUS
 62
3
100
AcDbLine
 10
240.0000000000000
 20
23.00000000000000
 30
0.0000000000000000
 11
312.0000000000000
 21
23.00000000000000
 31
0.0000000000000000
  0
LINE
  5
431
100
AcDbEntity
  8
WAKU0
  6
CONTINUOUS
 62
3
100
AcDbLine
 10
288.0000000000000
 20
37.00000000000000
 30
0.0000000000000000
 11
288.0000000000000
 21
12.00000000000000
 31
0.0000000000000000
  0
LINE
  5
432
100
AcDbEntity
  8
WAKU0
  6
CONTINUOUS
 62
3
100
AcDbLine
 10
264.0000000000000
 20
37.00000000000000
 30
0.0000000000000000
 11
264.0000000000000
 21
23.00000000000000
 31
0.0000000000000000
  0
LINE
  5
433
100
AcDbEntity
  8
WAKU0
  6
CONTINUOUS
 62
3
100
AcDbLine
 10
300.0000000000000
 20
26.00000000000000
 30
0.0000000000000000
 11
300.0000000000000
 21
23.00000000000000
 31
0.0000000000000000
  0
LINE
  5
434
100
AcDbEntity
  8
WAKU0
  6
CONTINUOUS
 62
3
100
AcDbLine
 10
276.0000000000000
 20
26.00000000000000
 30
0.0000000000000000
 11
276.0000000000000
 21
23.00000000000000
 31
0.0000000000000000
  0
LINE
  5
435
100
AcDbEntity
  8
WAKU0
  6
CONTINUOUS
 62
3
100
AcDbLine
 10
252.0000000000000
 20
26.00000000000000
 30
0.0000000000000000
 11
252.0000000000000
 21
23.00000000000000
 31
0.0000000000000000
  0
LINE
  5
436
100
AcDbEntity
  8
WAKU0
  6
CONTINUOUS
 62
3
100
AcDbLine
 10
258.0000000000000
 20
51.00000000000000
 30
0.0000000000000000
 11
258.0000000000000
 21
37.00000000000000
 31
0.0000000000000000
  0
LINE
  5
437
100
AcDbEntity
  8
WAKU0
  6
CONTINUOUS
 62
3
100
AcDbLine
 10
240.0000000000000
 20
45.00000000000000
 30
0.0000000000000000
 11
312.0000000000000
 21
45.00000000000000
 31
0.0000000000000000
  0
LINE
  5
438
100
AcDbEntity
  8
WAKU0
  6
HIDDEN
 62
3
100
AcDbLine
 10
360.5000000000000
 20
23.00000000000000
 30
0.0000000000000000
 11
360.5000000000000
 21
12.00000000000000
 31
0.0000000000000000
  0
LINE
  5
439
100
AcDbEntity
  8
WAKU0
  6
HIDDEN
 62
3
100
AcDbLine
 10
372.9000000000000
 20
23.00000000000000
 30
0.0000000000000000
 11
372.9000000000000
 21
12.00000000000000
 31
0.0000000000000000
  0
MTEXT
  5
43A
100
AcDbEntity
  8
WAKU0
  6
CONTINUOUS
 62
3
100
AcDbMText
 10
344.4820000243485
 20
49.04999995231628
 30
0.0000000000000000
 40
3.099999904632568
 41
0.0000000000000000
 71
     1
 72
     1
  1
{\H0.92x;{TS500RN}}
 11
1.000000000000000
 21
0.0000000000000000
 31
0.0000000000000000
  7
STANDARD
  0
MTEXT
  5
43B
100
AcDbEntity
  8
WAKU0
  6
CONTINUOUS
 62
3
100
AcDbMText
 10
348.4499999843538
 20
42.04999995231628
 30
0.0000000000000000
 40
3.099999904632568
 41
0.0000000000000000
 71
     1
 72
     1
  1
{\H0.71x;{ＮＣテーブル　ＮＣ　ＲＯＴＡＲＹ　ＴＡＢＬＥ}}
 11
1.000000000000000
 21
0.0000000000000000
 31
0.0000000000000000
  7
KNJYOKO
  0
MTEXT
  5
43C
100
AcDbEntity
  8
WAKU0
  6
CONTINUOUS
 62
3
100
AcDbMText
 10
348.4499999843538
 20
34.23333326975504
 30
0.0000000000000000
 40
3.099999904632568
 41
0.0000000000000000
 71
     1
 72
     1
  1
{\H0.71x;{テールストック　ガイケイ\PＴＡＩＬＳＴＯＣＫ　ＯＵＴＳＩＤＥ　ＶＩＥＷ}}
 11
1.000000000000000
 21
0.0000000000000000
 31
0.0000000000000000
  7
KNJYOKO
  0
MTEXT
  5
43D
100
AcDbEntity
  8
WAKU0
  6
CONTINUOUS
 62
3
100
AcDbMText
 10
318.0049998760223
 20
39.29999995231628
 30
0.0000000000000000
 40
3.099999904632568
 41
0.0000000000000000
 71
     1
 72
     1
  1
{\H0.90x;{1:4}}
 11
1.000000000000000
 21
0.0000000000000000
 31
0.0000000000000000
  7
STANDARD
  0
MTEXT
  5
43E
100
AcDbEntity
  8
WAKU0
  6
CONTINUOUS
 62
3
100
AcDbMText
 10
374.4000001549721
 20
20.15000009536743
 30
0.0000000000000000
 40
5.300000190734863
 41
0.0000000000000000
 71
     1
 72
     1
  1
{\H0.90x;{2235}}
 11
1.000000000000000
 21
0.0000000000000000
 31
0.0000000000000000
  7
STANDARD
  0
MTEXT
  5
43F
100
AcDbEntity
  8
WAKU0
  6
CONTINUOUS
 62
3
100
AcDbMText
 10
362.3000000834465
 20
20.15000009536743
 30
0.0000000000000000
 40
5.300000190734863
 41
0.0000000000000000
 71
     1
 72
     1
  1
{\H0.87x;{37}}
 11
1.000000000000000
 21
0.0000000000000000
 31
0.0000000000000000
  7
STANDARD
  0
MTEXT
  5
440
100
AcDbEntity
  8
WAKU0
  6
CONTINUOUS
 62
3
100
AcDbMText
 10
345.5000001192093
 20
20.15000009536743
 30
0.0000000000000000
 40
5.300000190734863
 41
0.0000000000000000
 71
     1
 72
     1
  1
{\H0.89x;{61E}}
 11
1.000000000000000
 21
0.0000000000000000
 31
0.0000000000000000
  7
STANDARD
  0
MTEXT
  5
441
100
AcDbEntity
  8
WAKU0
  6
CONTINUOUS
 62
3
100
AcDbMText
 10
400.0000000476837
 20
20.15000009536743
 30
0.0000000000000000
 40
5.300000190734863
 41
0.0000000000000000
 71
     1
 72
     1
  1
{\H0.81x;{1}}
 11
1.000000000000000
 21
0.0000000000000000
 31
0.0000000000000000
  7
STANDARD
  0
MTEXT
  5
442
100
AcDbEntity
  8
WAKU0
  6
CONTINUOUS
 62
3
100
AcDbMText
 10
400.0000000819564
 20
44.84999990463257
 30
0.0000000000000000
 40
5.300000190734863
 41
0.0000000000000000
 71
     7
 72
     1
  1
{\H0.81x;{ }}
 11
1.000000000000000
 21
0.0000000000000000
 31
0.0000000000000000
  7
STANDARD
  0
MTEXT
  5
443
100
AcDbEntity
  8
WAKU0
  6
CONTINUOUS
 62
3
100
AcDbMText
 10
289.3850002884865
 20
33.00000000000000
 30
0.0000000000000000
 40
3.000000000000000
 41
0.0000000000000000
 71
     7
 72
     1
  1
{\H0.93x;{DRAWN BY}}
 11
1.000000000000000
 21
0.0000000000000000
 31
0.0000000000000000
  7
STANDARD
  0
MTEXT
  5
444
100
AcDbEntity
  8
WAKU0
  6
CONTINUOUS
 62
3
100
AcDbMText
 10
269.2149997949600
 20
32.95000004768372
 30
0.0000000000000000
 40
3.099999904632568
 41
0.0000000000000000
 71
     7
 72
     1
  1
{\H0.92x;{CHIEF}}
 11
1.000000000000000
 21
0.0000000000000000
 31
0.0000000000000000
  7
STANDARD
  0
MTEXT
  5
445
100
AcDbEntity
  8
WAKU0
  6
CONTINUOUS
 62
3
100
AcDbMText
 10
242.4249997138977
 20
32.95000004768372
 30
0.0000000000000000
 40
3.099999904632568
 41
0.0000000000000000
 71
     7
 72
     1
  1
{\H0.92x;{MANAGER}}
 11
1.000000000000000
 21
0.0000000000000000
 31
0.0000000000000000
  7
STANDARD
  0
MTEXT
  5
446
100
AcDbEntity
  8
WAKU0
  6
CONTINUOUS
 62
3
100
AcDbMText
 10
244.6599994301796
 20
18.13333336512248
 30
0.0000000000000000
 40
3.099999904632568
 41
0.0000000000000000
 71
     7
 72
     1
  1
{\H0.93x;{KITAGAWA IRON\PWORKS CO.,LTD.}}
 11
1.000000000000000
 21
0.0000000000000000
 31
0.0000000000000000
  7
STANDARD
  0
MTEXT
  5
447
100
AcDbEntity
  8
WAKU0
  6
CONTINUOUS
 62
3
100
AcDbMText
 10
241.0850002169609
 20
46.50000000000000
 30
0.0000000000000000
 40
3.000000000000000
 41
0.0000000000000000
 71
     7
 72
     1
  1
{\H0.92x;{CAREER}}
 11
1.000000000000000
 21
0.0000000000000000
 31
0.0000000000000000
  7
STANDARD
  0
MTEXT
  5
448
100
AcDbEntity
  8
WAKU0
  6
CONTINUOUS
 62
3
100
AcDbMText
 10
294.6099998354912
 20
18.95000004768372
 30
0.0000000000000000
 40
3.099999904632568
 41
0.0000000000000000
 71
     7
 72
     1
  1
{\H0.91x;{DATE}}
 11
1.000000000000000
 21
0.0000000000000000
 31
0.0000000000000000
  7
STANDARD
  0
MTEXT
  5
449
100
AcDbEntity
  8
WAKU0
  6
CONTINUOUS
 62
3
100
AcDbMText
 10
313.9000002145767
 20
26.50000000000000
 30
0.0000000000000000
 40
3.000000000000000
 41
0.0000000000000000
 71
     7
 72
     1
  1
{\H0.63x;{3RD ANGLE}}
 11
1.000000000000000
 21
0.0000000000000000
 31
0.0000000000000000
  7
STANDARD
  0
MTEXT
  5
44A
100
AcDbEntity
  8
WAKU0
  6
CONTINUOUS
 62
3
100
AcDbMText
 10
315.2149997949600
 20
45.95000004768372
 30
0.0000000000000000
 40
3.099999904632568
 41
0.0000000000000000
 71
     7
 72
     1
  1
{\H0.92x;{SCALE}}
 11
1.000000000000000
 21
0.0000000000000000
 31
0.0000000000000000
  7
STANDARD
  0
MTEXT
  5
44B
100
AcDbEntity
  8
WAKU0
  6
CONTINUOUS
 62
3
100
AcDbMText
 10
405.7000000476837
 20
46.00000000000000
 30
0.0000000000000000
 40
3.000000000000000
 41
0.0000000000000000
 71
     7
 72
     1
  1
{\H0.63x;{kg}}
 11
1.000000000000000
 21
0.0000000000000000
 31
0.0000000000000000
  7
STANDARD
  0
MTEXT
  5
44C
100
AcDbEntity
  8
WAKU0
  6
CONTINUOUS
 62
3
100
AcDbMText
 10
375.6000001430512
 20
46.00000000000000
 30
0.0000000000000000
 40
3.000000000000000
 41
0.0000000000000000
 71
     7
 72
     1
  1
{\H0.63x;{WEIGHT}}
 11
1.000000000000000
 21
0.0000000000000000
 31
0.0000000000000000
  7
STANDARD
  0
MTEXT
  5
44D
100
AcDbEntity
  8
WAKU0
  6
CONTINUOUS
 62
3
100
AcDbMText
 10
334.0049998760223
 20
18.13333336512248
 30
0.0000000000000000
 40
3.099999904632568
 41
0.0000000000000000
 71
     7
 72
     1
  1
{\H0.90x;{DRW\PNO.}}
 11
1.000000000000000
 21
0.0000000000000000
 31
0.0000000000000000
  7
STANDARD
  0
MTEXT
  5
44E
100
AcDbEntity
  8
WAKU0
  6
CONTINUOUS
 62
3
100
AcDbMText
 10
332.6099998354912
 20
31.95000004768372
 30
0.0000000000000000
 40
3.099999904632568
 41
0.0000000000000000
 71
     7
 72
     1
  1
{\H0.91x;{NAME}}
 11
1.000000000000000
 21
0.0000000000000000
 31
0.0000000000000000
  7
STANDARD
  0
MTEXT
  5
44F
100
AcDbEntity
  8
WAKU0
  6
CONTINUOUS
 62
3
100
AcDbMText
 10
332.6099998354912
 20
45.95000004768372
 30
0.0000000000000000
 40
3.099999904632568
 41
0.0000000000000000
 71
     7
 72
     1
  1
{\H0.91x;{TYPE}}
 11
1.000000000000000
 21
0.0000000000000000
 31
0.0000000000000000
  7
STANDARD
  0
LINE
  5
450
100
AcDbEntity
  8
WAKU0
  6
HIDDEN
 62
3
100
AcDbLine
 10
407.1599564743885
 20
13.84999990463257
 30
0.0000000000000000
 11
396.9400436209789
 21
13.84999990463257
 31
0.0000000000000000
  0
LINE
  5
451
100
AcDbEntity
  8
WAKU0
  6
HIDDEN
 62
3
100
AcDbLine
 10
407.1599564743885
 20
13.84999990463250
 30
0.0000000000000000
 11
402.0500000476852
 21
22.70070406014901
 31
0.0000000000000000
  0
LINE
  5
452
100
AcDbEntity
  8
WAKU0
  6
HIDDEN
 62
3
100
AcDbLine
 10
402.0500000476852
 20
22.70070406014902
 30
0.0000000000000000
 11
396.9400436209789
 21
13.84999990463248
 31
0.0000000000000000
  0
LINE
  5
453
100
AcDbEntity
  8
WAKU0
  6
CONTINUOUS
 62
3
100
AcDbLine
 10
330.4713877753800
 20
15.78041421262812
 30
0.0000000000000000
 11
330.4713877753800
 21
21.78041421262815
 31
0.0000000000000000
  0
LINE
  5
454
100
AcDbEntity
  8
WAKU0
  6
CONTINUOUS
 62
3
100
AcDbLine
 10
323.9336941228225
 20
17.28041421262811
 30
0.0000000000000000
 11
323.9336941228225
 21
20.28041421262824
 31
0.0000000000000000
  0
LINE
  5
455
100
AcDbEntity
  8
WAKU0
  6
CENTER
 62
12
100
AcDbLine
 10
313.4321805514995
 20
18.78041421262813
 30
0.0000000000000000
 11
331.2765788964694
 21
18.78041421262813
 31
0.0000000000000000
  0
LINE
  5
456
100
AcDbEntity
  8
WAKU0
  6
CENTER
 62
12
100
AcDbLine
 10
317.4474565857986
 20
14.55921662918448
 30
0.0000000000000000
 11
317.4474565857986
 21
22.89865102149943
 31
0.0000000000000000
  0
LINE
  5
457
100
AcDbEntity
  8
WAKU0
  6
CONTINUOUS
 62
3
100
AcDbLine
 10
323.9336941228225
 20
20.28041421262797
 30
0.0000000000000000
 11
330.4713877753800
 21
21.78041421262795
 31
0.0000000000000000
  0
LINE
  5
458
100
AcDbEntity
  8
WAKU0
  6
CONTINUOUS
 62
3
100
AcDbLine
 10
323.9336941228225
 20
17.28041421262811
 30
0.0000000000000000
 11
330.4713877753799
 21
15.78041421262812
 31
0.0000000000000000
  0
CIRCLE
  5
459
100
AcDbEntity
  8
WAKU0
  6
CONTINUOUS
 62
3
100
AcDbCircle
 10
317.4474565857986
 20
18.78041421262813
 30
0.0000000000000000
 40
1.499999999999972
  0
CIRCLE
  5
45A
100
AcDbEntity
  8
WAKU0
  6
CONTINUOUS
 62
3
100
AcDbCircle
 10
317.4474565857986
 20
18.78041421262813
 30
0.0000000000000000
 40
2.999999999999979
  0
MTEXT
  5
45B
100
AcDbEntity
  8
NOTE0
  6
CONTINUOUS
 62
3
100
AcDbMText
 10
76.16987928878434
 20
672.2971256463900
 30
0.0000000000000000
 40
7.749999761581421
 41
0.0000000000000000
 71
     1
 72
     1
  1
{\H0.89x;{仕様}}
 11
1.000000000000000
 21
0.0000000000000000
 31
0.0000000000000000
  7
KNJYOKO
  0
LINE
  5
45C
100
AcDbEntity
  8
NOTE0
  6
CONTINUOUS
 62
3
100
AcDbLine
 10
78.11044127381418
 20
649.8187363037031
 30
0.0000000000000000
 11
269.4307842533393
 21
649.8187363037494
 31
0.0000000000000000
  0
MTEXT
  5
45D
100
AcDbEntity
  8
NOTE0
  6
CONTINUOUS
 62
3
100
AcDbMText
 10
86.34271330154407
 20
657.7964213937989
 30
0.0000000000000000
 40
7.500000000000000
 41
0.0000000000000000
 71
     1
 72
     1
  1
{\H0.93x;{センタ高さ　}}
 11
1.000000000000000
 21
0.0000000000000000
 31
0.0000000000000000
  7
KNJYOKO
  0
MTEXT
  5
45E
100
AcDbEntity
  8
NOTE0
  6
CONTINUOUS
 62
3
100
AcDbMText
 10
86.34271330159409
 20
645.5464223474733
 30
0.0000000000000000
 40
7.750000953674316
 41
0.0000000000000000
 71
     1
 72
     1
  1
{\H0.94x;{ストローク　　　}}
 11
1.000000000000000
 21
0.0000000000000000
 31
0.0000000000000000
  7
KNJYOKO
  0
LINE
  5
45F
100
AcDbEntity
  8
NOTE0
  6
CONTINUOUS
 62
3
100
AcDbLine
 10
77.81223636700435
 20
637.3187363037033
 30
0.0000000000000000
 11
269.4307842533423
 21
637.3187363037495
 31
0.0000000000000000
  0
MTEXT
  5
460
100
AcDbEntity
  8
NOTE0
  6
CONTINUOUS
 62
3
100
AcDbMText
 10
86.34271330164411
 20
633.0464211553804
 30
0.0000000000000000
 40
7.749999761581421
 41
0.0000000000000000
 71
     1
 72
     1
  1
{\H0.91x;{センタ}}
 11
1.000000000000000
 21
0.0000000000000000
 31
0.0000000000000000
  7
KNJYOKO
  0
LINE
  5
461
100
AcDbEntity
  8
NOTE0
  6
CONTINUOUS
 62
3
100
AcDbLine
 10
77.81223636710415
 20
583.9854029703697
 30
0.0000000000000000
 11
269.4307842533550
 21
583.9854029704156
 31
0.0000000000000000
  0
MTEXT
  5
462
100
AcDbEntity
  8
NOTE0
  6
CONTINUOUS
 62
3
100
AcDbMText
 10
86.34271330174416
 20
579.7130878220473
 30
0.0000000000000000
 40
7.749999761581421
 41
0.0000000000000000
 71
     1
 72
     1
  1
{\H0.93x;{超硬チップ径}}
 11
1.000000000000000
 21
0.0000000000000000
 31
0.0000000000000000
  7
KNJYOKO
  0
MTEXT
  5
463
100
AcDbEntity
  8
NOTE0
  6
CONTINUOUS
 62
3
100
AcDbMText
 10
226.5927133017442
 20
579.7130878220473
 30
0.0000000000000000
 40
7.749999761581421
 41
0.0000000000000000
 71
     1
 72
     1
  1
{\H0.90x;{\U+220514}}
 11
1.000000000000000
 21
0.0000000000000000
 31
0.0000000000000000
  7
STANDARD
  0
MTEXT
  5
464
100
AcDbEntity
  8
NOTE0
  6
CONTINUOUS
 62
3
100
AcDbMText
 10
226.5927133015441
 20
658.0464211553804
 30
0.0000000000000000
 40
7.749999761581421
 41
0.0000000000000000
 71
     1
 72
     1
  1
{\H0.90x;{310}}
 11
1.000000000000000
 21
0.0000000000000000
 31
0.0000000000000000
  7
STANDARD
  0
MTEXT
  5
465
100
AcDbEntity
  8
NOTE0
  6
CONTINUOUS
 62
3
100
AcDbMText
 10
226.5927133015941
 20
645.5464211553804
 30
0.0000000000000000
 40
7.749999761581421
 41
0.0000000000000000
 71
     1
 72
     1
  1
{\H0.90x;{ 70}}
 11
1.000000000000000
 21
0.0000000000000000
 31
0.0000000000000000
  7
STANDARD
  0
MTEXT
  5
466
100
AcDbEntity
  8
NOTE0
  6
CONTINUOUS
 62
3
100
AcDbMText
 10
253.2507126854875
 20
658.0464211553804
 30
0.0000000000000000
 40
7.749999761581421
 41
0.0000000000000000
 71
     1
 72
     1
  1
{\H0.88x;{mm}}
 11
1.000000000000000
 21
0.0000000000000000
 31
0.0000000000000000
  7
STANDARD
  0
MTEXT
  5
467
100
AcDbEntity
  8
NOTE0
  6
CONTINUOUS
 62
3
100
AcDbMText
 10
253.2507126855375
 20
645.5464211553804
 30
0.0000000000000000
 40
7.749999761581421
 41
0.0000000000000000
 71
     1
 72
     1
  1
{\H0.88x;{mm}}
 11
1.000000000000000
 21
0.0000000000000000
 31
0.0000000000000000
  7
STANDARD
  0
LINE
  5
468
100
AcDbEntity
  8
NOTE0
  6
CONTINUOUS
 62
3
100
AcDbLine
 10
77.81223636715467
 20
571.4854029703697
 30
0.0000000000000000
 11
269.4307842533580
 21
571.4854029704156
 31
0.0000000000000000
  0
MTEXT
  5
469
100
AcDbEntity
  8
NOTE0
  6
CONTINUOUS
 62
3
100
AcDbMText
 10
253.2507126856876
 20
579.7130878220473
 30
0.0000000000000000
 40
7.749999761581421
 41
0.0000000000000000
 71
     1
 72
     1
  1
{\H0.88x;{mm}}
 11
1.000000000000000
 21
0.0000000000000000
 31
0.0000000000000000
  7
STANDARD
  0
LINE
  5
46A
100
AcDbEntity
  8
NOTE0
  6
CONTINUOUS
 62
3
100
AcDbLine
 10
74.01922753739594
 20
662.0088985728788
 30
0.0000000000000000
 11
198.8859239907698
 21
662.0088985727402
 31
0.0000000000000000
  0
MTEXT
  5
46B
100
AcDbEntity
  8
NOTE0
  6
CONTINUOUS
 62
3
100
AcDbMText
 10
106.1698792887843
 20
672.2971256463900
 30
0.0000000000000000
 40
7.749999761581421
 41
0.0000000000000000
 71
     1
 72
     1
  1
{\H0.93x;{SPECIFICATION}}
 11
1.000000000000000
 21
0.0000000000000000
 31
0.0000000000000000
  7
STANDARD
  0
LINE
  5
46C
100
AcDbEntity
  8
NOTE0
  6
CONTINUOUS
 62
3
100
AcDbLine
 10
74.01922753739584
 20
662.0088985728788
 30
0.0000000000000000
 11
74.01922753738344
 21
675.0088985728786
 31
0.0000000000000000
  0
LINE
  5
46D
100
AcDbEntity
  8
NOTE0
  6
CONTINUOUS
 62
3
100
AcDbLine
 10
74.01922753738376
 20
675.0088985728786
 30
0.0000000000000000
 11
198.8859239907699
 21
675.0088985727401
 31
0.0000000000000000
  0
LINE
  5
46E
100
AcDbEntity
  8
NOTE0
  6
CONTINUOUS
 62
3
100
AcDbLine
 10
198.8859239907698
 20
662.0088985727405
 30
0.0000000000000000
 11
198.8859239907698
 21
675.0088985727402
 31
0.0000000000000000
  0
MTEXT
  5
46F
100
AcDbEntity
  8
NOTE0
  6
CONTINUOUS
 62
3
100
AcDbMText
 10
136.3427133015441
 20
657.7964213937989
 30
0.0000000000000000
 40
7.500000000000000
 41
0.0000000000000000
 71
     1
 72
     1
  1
{\H0.63x;{CENTER HEIGHT}}
 11
1.000000000000000
 21
0.0000000000000000
 31
0.0000000000000000
  7
STANDARD
  0
MTEXT
  5
470
100
AcDbEntity
  8
NOTE0
  6
CONTINUOUS
 62
3
100
AcDbMText
 10
136.3427133015941
 20
645.2964213937989
 30
0.0000000000000000
 40
7.500000000000000
 41
0.0000000000000000
 71
     1
 72
     1
  1
{\H0.63x;{STROKE}}
 11
1.000000000000000
 21
0.0000000000000000
 31
0.0000000000000000
  7
STANDARD
  0
MTEXT
  5
471
100
AcDbEntity
  8
NOTE0
  6
CONTINUOUS
 62
3
100
AcDbMText
 10
86.34271330169413
 20
607.7964213937989
 30
0.0000000000000000
 40
7.500000000000000
 41
0.0000000000000000
 71
     1
 72
     1
  1
{\H0.63x;{CENTER}}
 11
1.000000000000000
 21
0.0000000000000000
 31
0.0000000000000000
  7
STANDARD
  0
MTEXT
  5
472
100
AcDbEntity
  8
NOTE0
  6
CONTINUOUS
 62
3
100
AcDbMText
 10
167.5927133016941
 20
595.2964213937994
 30
0.0000000000000000
 40
7.500000000000000
 41
0.0000000000000000
 71
     1
 72
     1
  1
{\H0.63x;{(DETACHABLE)}}
 11
1.000000000000000
 21
0.0000000000000000
 31
0.0000000000000000
  7
STANDARD
  0
MTEXT
  5
473
100
AcDbEntity
  8
NOTE0
  6
CONTINUOUS
 62
3
100
AcDbMText
 10
146.3427133017441
 20
579.4630880604659
 30
0.0000000000000000
 40
7.500000000000000
 41
0.0000000000000000
 71
     1
 72
     1
  1
{\H0.61x;{CARBIDE CHIP DIA.}}
 11
1.000000000000000
 21
0.0000000000000000
 31
0.0000000000000000
  7
STANDARD
  0
MTEXT
  5
474
100
AcDbEntity
  8
NOTE0
  6
CONTINUOUS
 62
3
100
AcDbMText
 10
136.3427133016971
 20
607.7964213938010
 30
0.0000000000000000
 40
7.500000000000000
 41
0.0000000000000000
 71
     1
 72
     1
  1
{\H0.63x;{CENTER W/CARBIDE CHIP MT-4}}
 11
1.000000000000000
 21
0.0000000000000000
 31
0.0000000000000000
  7
STANDARD
  0
MTEXT
  5
475
100
AcDbEntity
  8
NOTE0
  6
CONTINUOUS
 62
3
100
AcDbMText
 10
136.3427133016441
 20
633.0464211553804
 30
0.0000000000000000
 40
7.749999761581421
 41
0.0000000000000000
 71
     1
 72
     1
  1
{\H0.70x;{超硬センタ MT-4}}
 11
1.000000000000000
 21
0.0000000000000000
 31
0.0000000000000000
  7
KNJYOKO
  0
MTEXT
  5
476
100
AcDbEntity
  8
NOTE0
  6
CONTINUOUS
 62
3
100
AcDbMText
 10
136.3427133016941
 20
620.5464211553804
 30
0.0000000000000000
 40
7.749999761581421
 41
0.0000000000000000
 71
     1
 72
     1
  1
{\H0.70x;{（着脱式）}}
 11
1.000000000000000
 21
0.0000000000000000
 31
0.0000000000000000
  7
KNJYOKO
  0
LINE
  5
477
100
AcDbEntity
  8
NOTE0
  6
CONTINUOUS
 62
3
100
AcDbLine
 10
77.81223636705431
 20
624.8187363037033
 30
0.0000000000000000
 11
269.4307842533923
 21
624.8187363037495
 31
0.0000000000000000
  0
LINE
  5
478
100
AcDbEntity
  8
NOTE0
  6
CONTINUOUS
 62
3
100
AcDbLine
 10
77.81223636710439
 20
612.3187363037033
 30
0.0000000000000000
 11
269.4307842534423
 21
612.3187363037495
 31
0.0000000000000000
  0
LINE
  5
479
100
AcDbEntity
  8
NOTE0
  6
CONTINUOUS
 62
3
100
AcDbLine
 10
77.81223636715434
 20
599.8187363037033
 30
0.0000000000000000
 11
269.4307842534923
 21
599.8187363037495
 31
0.0000000000000000
  0
LINE
  5
47A
100
AcDbEntity
  8
NOTE0
  6
CONTINUOUS
 62
3
100
AcDbLine
 10
77.81223636715768
 20
558.9854029703693
 30
0.0000000000000000
 11
269.4307842535412
 21
558.9854029704154
 31
0.0000000000000000
  0
MTEXT
  5
47B
100
AcDbEntity
  8
NOTE0
  6
CONTINUOUS
 62
3
100
AcDbMText
 10
86.34271330174717
 20
567.2130890141398
 30
0.0000000000000000
 40
7.750000953674316
 41
0.0000000000000000
 71
     1
 72
     1
  1
{\H0.92x;{製品質量}}
 11
1.000000000000000
 21
0.0000000000000000
 31
0.0000000000000000
  7
KNJYOKO
  0
MTEXT
  5
47C
100
AcDbEntity
  8
NOTE0
  6
CONTINUOUS
 62
3
100
AcDbMText
 10
136.3427133017070
 20
567.2130878220469
 30
0.0000000000000000
 40
7.749999761581421
 41
0.0000000000000000
 71
     1
 72
     1
  1
{\H0.71x;{MASS OF TAILSTOCK}}
 11
1.000000000000000
 21
0.0000000000000000
 31
0.0000000000000000
  7
STANDARD
  0
MTEXT
  5
47D
100
AcDbEntity
  8
NOTE0
  6
CONTINUOUS
 62
3
100
AcDbMText
 10
226.5927133017472
 20
567.2130878220430
 30
0.0000000000000000
 40
7.749999761581421
 41
0.0000000000000000
 71
     1
 72
     1
  1
{\H0.90x;{ 80}}
 11
1.000000000000000
 21
0.0000000000000000
 31
0.0000000000000000
  7
STANDARD
  0
MTEXT
  5
47E
100
AcDbEntity
  8
NOTE0
  6
CONTINUOUS
 62
3
100
AcDbMText
 10
253.2507126856906
 20
567.2130878220430
 30
0.0000000000000000
 40
7.749999761581421
 41
0.0000000000000000
 71
     1
 72
     1
  1
{\H0.88x;{kg}}
 11
1.000000000000000
 21
0.0000000000000000
 31
0.0000000000000000
  7
STANDARD
  0
ENDSEC
  0
SECTION
  2
OBJECTS
  0
DICTIONARY
  5
4C6
100
AcDbDictionary
  3
ACAD_GROUP
350
4C7
  3
ACAD_MLINESTYLE
350
4C8
  3
DWGPROPS
350
4C9
  0
DICTIONARY
  5
4C7
102
{ACAD_REACTORS
330
4C6
102
}
100
AcDbDictionary
  0
DICTIONARY
  5
4C8
102
{ACAD_REACTORS
330
4C6
102
}
100
AcDbDictionary
  3
STANDARD
350
4CA
  0
MLINESTYLE
  5
4CA
102
{ACAD_REACTORS
330
4C8
102
}
100
AcDbMlineStyle
  2
STANDARD
 70
     0
  3

 62
   256
 51
90.00
 52
90.00
 71
     2
 49
0.50
 62
   256
  6
BYLAYER
 49
-0.50
 62
   256
  6
BYLAYER
  0
XRECORD
  5
4C9
102
{ACAD_REACTORS
330
4C6
102
}
100
AcDbXrecord
280
     1
  1
DWGPROPS COOKIE
  2
テールストック　ガイケイ
  3

  4

  6
ＮＣテーブル
  7

  8

  9

300
=
301
=
302
=
303
=
304
=
305
=
306
=
307
=
308
=
309
=
 40
0.000000
 41
0.000000
 42
0.000000
  1

 90
        0
  0
ENDSEC
  0
EOF
