  0
SECTION
  2
HEADER
  9
$ACADVER
  1
AC1014
  9
$DWGCODEPAGE
  3
ANSI_932
  9
$LTSCALE
 40
20.0
  9
$FILLMODE
 70
     1
  9
$CLAYER
  8
0
  9
$PDMODE
 70
     0
  9
$SPLFRAME
 70
     0
  9
$SPLINETYPE
 70
     6
  9
$SPLINESEGS
 70
     8
  9
$DIMASZ
 40
2.000000
  9
$DIMEXE
 40
2.000000
  9
$DIMEXO
 40
0.800000
  9
$DIMTAD
 70
     1
  9
$DIMTIH
 70
     0
  9
$DIMTOH
 70
     0
  9
$DIMTVP
 40
0.500000
  9
$DIMTXT
 40
3.100000
  9
$EXTMIN
 10
0.000000
 20
0.000000
 30
0.000000
  9
$EXTMAX
 10
297.000000
 20
420.000000
 30
0.000000
  9
$MEASUREMENT
 70
  1
  9
$LIMMIN
 10
0.000000
 20
0.000000
  9
$LIMMAX
 10
297.000000
 20
420.000000
  9
$HANDLING
 70
     1
  9
$HANDSEED
  5
666
  9
$DIMBLK
  1
_OPEN
  9
$DIMDEC
 70
     3
  9
$DIMAUNIT
 70
     1
  9
$DIMZIN
 70
     8
  9
$DIMTOFL
 70
     1
  0
ENDSEC
  0
SECTION
  2
CLASSES
  0
ENDSEC
  0
SECTION
  2
TABLES
  0
TABLE
  2
VPORT
  5
602
100
AcDbSymbolTable
 70
     1
  0
VPORT
  5
603
100
AcDbSymbolTableRecord
100
AcDbViewportTableRecord
  2
*ACTIVE
 70
     0
 12
291.998280
 22
181.227766
 40
1310.998721
 41
1.320896
  0
ENDTAB
  0
TABLE
  2
LTYPE
  5
604
100
AcDbSymbolTable
 70
     3
  0
LTYPE
  5
605
100
AcDbSymbolTableRecord
100
AcDbLinetypeTableRecord
  2
BYBLOCK
 70
     0
  3

 72
    65
 73
     0
 40
0.0
  0
LTYPE
  5
606
100
AcDbSymbolTableRecord
100
AcDbLinetypeTableRecord
  2
BYLAYER
 70
     0
  3

 72
    65
 73
     0
 40
0.0
  0
LTYPE
  5
607
100
AcDbSymbolTableRecord
100
AcDbLinetypeTableRecord
  2
CONTINUOUS
 70
     0
  3
Solid line (NEC CAE2D for Win R12.1 : 2017.06.26)
 72
    65
 73
     0
 40
0.0
  0
LTYPE
  5
608
100
AcDbSymbolTableRecord
100
AcDbLinetypeTableRecord
  2
HIDDEN
 70
     0
  3
__ __ __ __ __ __ __ __ __ __ __ __ __ __
 72
    65
 73
     2
 40
0.375
 49
0.25
 74
     0
 49
-0.125
 74
     0
  0
LTYPE
  5
609
100
AcDbSymbolTableRecord
100
AcDbLinetypeTableRecord
  2
CENTER
 70
     0
  3
____ _ ____ _ ____ _ ____ _ ____ _ ____
 72
    65
 73
     4
 40
2.0
 49
1.25
 74
     0
 49
-0.25
 74
     0
 49
0.25
 74
     0
 49
-0.25
 74
     0
  0
ENDTAB
  0
TABLE
  2
LAYER
  5
60A
100
AcDbSymbolTable
 70
     5
  0
LAYER
  5
60B
100
AcDbSymbolTableRecord
100
AcDbLayerTableRecord
  2
0
 70
     0
 62
     7
  6
CONTINUOUS
  0
LAYER
  5
60C
100
AcDbSymbolTableRecord
100
AcDbLayerTableRecord
  2
MAIN0
 70
     0
 62
     7
  6
CONTINUOUS
  0
LAYER
  5
60D
100
AcDbSymbolTableRecord
100
AcDbLayerTableRecord
  2
MAIN1023
 70
     0
 62
    16
  6
CONTINUOUS
  0
LAYER
  5
60E
100
AcDbSymbolTableRecord
100
AcDbLayerTableRecord
  2
WAKU0
 70
     0
 62
     7
  6
CONTINUOUS
  0
LAYER
  5
60F
100
AcDbSymbolTableRecord
100
AcDbLayerTableRecord
  2
WAKU1023
 70
     0
 62
    16
  6
CONTINUOUS
  0
ENDTAB
  0
TABLE
  2
STYLE
  5
610
100
AcDbSymbolTable
 70
     4
  0
STYLE
  5
611
100
AcDbSymbolTableRecord
100
AcDbTextStyleTableRecord
  2
STANDARD
 70
    64
 40
0.0
 41
1.0
 50
0.0
 71
     0
 42
3.099999904632568
  3
TXT
  4

  0
STYLE
  5
612
100
AcDbSymbolTableRecord
100
AcDbTextStyleTableRecord
  2
ANKTATE
 70
    68
 40
0.0
 41
1.0
 50
0.0
 71
     0
 42
3.099999904632568
  3
TXT
  4

  0
STYLE
  5
613
100
AcDbSymbolTableRecord
100
AcDbTextStyleTableRecord
  2
KNJYOKO
 70
    64
 40
0.0
 41
1.0
 50
0.0
 71
     0
 42
3.099999904632568
  3
TXT
  4
BIGFONT
  0
STYLE
  5
614
100
AcDbSymbolTableRecord
100
AcDbTextStyleTableRecord
  2
KNJTATE
 70
    68
 40
0.0
 41
1.0
 50
0.0
 71
     0
 42
3.099999904632568
  3
TXT
  4
BIGFONT
  0
ENDTAB
  0
TABLE
  2
VIEW
  5
615
100
AcDbSymbolTable
 70
     0
  0
ENDTAB
  0
TABLE
  2
UCS
  5
616
100
AcDbSymbolTable
 70
     0
  0
ENDTAB
  0
TABLE
  2
APPID
  5
617
100
AcDbSymbolTable
 70
     1
  0
APPID
  5
618
100
AcDbSymbolTableRecord
100
AcDbRegAppTableRecord
  2
ACAD
 70
     0
  0
ENDTAB
  0
TABLE
  2
DIMSTYLE
  5
619
100
AcDbSymbolTable
 70
     1
  0
DIMSTYLE
105
61A
100
AcDbSymbolTableRecord
100
AcDbDimStyleTableRecord
  2
STANDARD
 70
     0
 41
2.000000
 44
2.000000
 42
0.800000
145
0.661290
140
3.100000
144
1.000000
146
0.903226
340
611
  0
DIMSTYLE
105
61B
100
AcDbSymbolTableRecord
100
AcDbDimStyleTableRecord
  2
MAIN001
 70
     0
 41
4.000000
 44
4.000000
 42
1.600000
145
0.580645
140
6.200000
144
1.000000
146
0.903226
 77
     1
 73
     0
 74
     0
271
     3
275
     1
 78
     8
172
     1
340
611
  0
DIMSTYLE
105
61C
100
AcDbSymbolTableRecord
100
AcDbDimStyleTableRecord
  2
WAKU002
 70
     0
 41
2.000000
 44
2.000000
 42
0.800000
145
0.661290
140
3.100000
144
1.000000
146
0.903226
 77
     1
 73
     0
 74
     0
271
     3
275
     1
 78
     8
172
     1
340
611
  0
ENDTAB
  0
TABLE
  2
BLOCK_RECORD
  5
61D
100
AcDbSymbolTable
 70
    74
  0
BLOCK_RECORD
  5
61E
100
AcDbSymbolTableRecord
100
AcDbBlockTableRecord
  2
*MODEL_SPACE
  0
BLOCK_RECORD
  5
61F
100
AcDbSymbolTableRecord
100
AcDbBlockTableRecord
  2
*PAPER_SPACE
  0
BLOCK_RECORD
  5
1
100
AcDbSymbolTableRecord
100
AcDbBlockTableRecord
  2
_NONE
  0
BLOCK_RECORD
  5
4
100
AcDbSymbolTableRecord
100
AcDbBlockTableRecord
  2
_CLOSED
  0
BLOCK_RECORD
  5
B
100
AcDbSymbolTableRecord
100
AcDbBlockTableRecord
  2
_DOT
  0
BLOCK_RECORD
  5
13
100
AcDbSymbolTableRecord
100
AcDbBlockTableRecord
  2
_OPEN
  0
BLOCK_RECORD
  5
19
100
AcDbSymbolTableRecord
100
AcDbBlockTableRecord
  2
_ORIGIN
  0
BLOCK_RECORD
  5
1E
100
AcDbSymbolTableRecord
100
AcDbBlockTableRecord
  2
_OPEN30
  0
BLOCK_RECORD
  5
24
100
AcDbSymbolTableRecord
100
AcDbBlockTableRecord
  2
_BOXFILLED
  0
BLOCK_RECORD
  5
29
100
AcDbSymbolTableRecord
100
AcDbBlockTableRecord
  2
_BOXBLANK
  0
BLOCK_RECORD
  5
31
100
AcDbSymbolTableRecord
100
AcDbBlockTableRecord
  2
_OBLIQUE
  0
BLOCK_RECORD
  5
35
100
AcDbSymbolTableRecord
100
AcDbBlockTableRecord
  2
_OPEN90
  0
BLOCK_RECORD
  5
3B
100
AcDbSymbolTableRecord
100
AcDbBlockTableRecord
  2
_CLOSEDBLANK
  0
BLOCK_RECORD
  5
41
100
AcDbSymbolTableRecord
100
AcDbBlockTableRecord
  2
_DOTBLANK
  0
BLOCK_RECORD
  5
620
100
AcDbSymbolTableRecord
100
AcDbBlockTableRecord
  2
*D0
  0
BLOCK_RECORD
  5
621
100
AcDbSymbolTableRecord
100
AcDbBlockTableRecord
  2
*D1
  0
BLOCK_RECORD
  5
622
100
AcDbSymbolTableRecord
100
AcDbBlockTableRecord
  2
*D2
  0
BLOCK_RECORD
  5
623
100
AcDbSymbolTableRecord
100
AcDbBlockTableRecord
  2
*D3
  0
BLOCK_RECORD
  5
624
100
AcDbSymbolTableRecord
100
AcDbBlockTableRecord
  2
*D4
  0
BLOCK_RECORD
  5
625
100
AcDbSymbolTableRecord
100
AcDbBlockTableRecord
  2
*D5
  0
BLOCK_RECORD
  5
626
100
AcDbSymbolTableRecord
100
AcDbBlockTableRecord
  2
*D6
  0
BLOCK_RECORD
  5
627
100
AcDbSymbolTableRecord
100
AcDbBlockTableRecord
  2
*D7
  0
BLOCK_RECORD
  5
628
100
AcDbSymbolTableRecord
100
AcDbBlockTableRecord
  2
*D8
  0
BLOCK_RECORD
  5
629
100
AcDbSymbolTableRecord
100
AcDbBlockTableRecord
  2
*D9
  0
BLOCK_RECORD
  5
62A
100
AcDbSymbolTableRecord
100
AcDbBlockTableRecord
  2
*D10
  0
BLOCK_RECORD
  5
62B
100
AcDbSymbolTableRecord
100
AcDbBlockTableRecord
  2
*D11
  0
BLOCK_RECORD
  5
62C
100
AcDbSymbolTableRecord
100
AcDbBlockTableRecord
  2
*D12
  0
BLOCK_RECORD
  5
62D
100
AcDbSymbolTableRecord
100
AcDbBlockTableRecord
  2
*D13
  0
BLOCK_RECORD
  5
62E
100
AcDbSymbolTableRecord
100
AcDbBlockTableRecord
  2
*D14
  0
BLOCK_RECORD
  5
62F
100
AcDbSymbolTableRecord
100
AcDbBlockTableRecord
  2
*D15
  0
BLOCK_RECORD
  5
630
100
AcDbSymbolTableRecord
100
AcDbBlockTableRecord
  2
*D16
  0
BLOCK_RECORD
  5
631
100
AcDbSymbolTableRecord
100
AcDbBlockTableRecord
  2
*D17
  0
BLOCK_RECORD
  5
632
100
AcDbSymbolTableRecord
100
AcDbBlockTableRecord
  2
*D18
  0
BLOCK_RECORD
  5
633
100
AcDbSymbolTableRecord
100
AcDbBlockTableRecord
  2
*D19
  0
BLOCK_RECORD
  5
634
100
AcDbSymbolTableRecord
100
AcDbBlockTableRecord
  2
*D20
  0
BLOCK_RECORD
  5
635
100
AcDbSymbolTableRecord
100
AcDbBlockTableRecord
  2
*D21
  0
BLOCK_RECORD
  5
636
100
AcDbSymbolTableRecord
100
AcDbBlockTableRecord
  2
*D22
  0
BLOCK_RECORD
  5
637
100
AcDbSymbolTableRecord
100
AcDbBlockTableRecord
  2
*D23
  0
BLOCK_RECORD
  5
638
100
AcDbSymbolTableRecord
100
AcDbBlockTableRecord
  2
*D24
  0
BLOCK_RECORD
  5
639
100
AcDbSymbolTableRecord
100
AcDbBlockTableRecord
  2
*D25
  0
BLOCK_RECORD
  5
63A
100
AcDbSymbolTableRecord
100
AcDbBlockTableRecord
  2
*D26
  0
BLOCK_RECORD
  5
63B
100
AcDbSymbolTableRecord
100
AcDbBlockTableRecord
  2
*D27
  0
BLOCK_RECORD
  5
63C
100
AcDbSymbolTableRecord
100
AcDbBlockTableRecord
  2
*D28
  0
BLOCK_RECORD
  5
63D
100
AcDbSymbolTableRecord
100
AcDbBlockTableRecord
  2
*D29
  0
BLOCK_RECORD
  5
63E
100
AcDbSymbolTableRecord
100
AcDbBlockTableRecord
  2
*D30
  0
BLOCK_RECORD
  5
63F
100
AcDbSymbolTableRecord
100
AcDbBlockTableRecord
  2
*D31
  0
BLOCK_RECORD
  5
640
100
AcDbSymbolTableRecord
100
AcDbBlockTableRecord
  2
*D32
  0
BLOCK_RECORD
  5
641
100
AcDbSymbolTableRecord
100
AcDbBlockTableRecord
  2
*D33
  0
BLOCK_RECORD
  5
642
100
AcDbSymbolTableRecord
100
AcDbBlockTableRecord
  2
*D34
  0
BLOCK_RECORD
  5
643
100
AcDbSymbolTableRecord
100
AcDbBlockTableRecord
  2
*D35
  0
BLOCK_RECORD
  5
644
100
AcDbSymbolTableRecord
100
AcDbBlockTableRecord
  2
*D36
  0
BLOCK_RECORD
  5
645
100
AcDbSymbolTableRecord
100
AcDbBlockTableRecord
  2
*D37
  0
BLOCK_RECORD
  5
646
100
AcDbSymbolTableRecord
100
AcDbBlockTableRecord
  2
*D38
  0
BLOCK_RECORD
  5
647
100
AcDbSymbolTableRecord
100
AcDbBlockTableRecord
  2
*D39
  0
BLOCK_RECORD
  5
648
100
AcDbSymbolTableRecord
100
AcDbBlockTableRecord
  2
*D40
  0
BLOCK_RECORD
  5
649
100
AcDbSymbolTableRecord
100
AcDbBlockTableRecord
  2
*D41
  0
BLOCK_RECORD
  5
64A
100
AcDbSymbolTableRecord
100
AcDbBlockTableRecord
  2
*D42
  0
BLOCK_RECORD
  5
64B
100
AcDbSymbolTableRecord
100
AcDbBlockTableRecord
  2
*D43
  0
BLOCK_RECORD
  5
64C
100
AcDbSymbolTableRecord
100
AcDbBlockTableRecord
  2
*D44
  0
BLOCK_RECORD
  5
64D
100
AcDbSymbolTableRecord
100
AcDbBlockTableRecord
  2
*D45
  0
BLOCK_RECORD
  5
64E
100
AcDbSymbolTableRecord
100
AcDbBlockTableRecord
  2
*D46
  0
BLOCK_RECORD
  5
64F
100
AcDbSymbolTableRecord
100
AcDbBlockTableRecord
  2
*D47
  0
BLOCK_RECORD
  5
650
100
AcDbSymbolTableRecord
100
AcDbBlockTableRecord
  2
*D48
  0
BLOCK_RECORD
  5
651
100
AcDbSymbolTableRecord
100
AcDbBlockTableRecord
  2
*D49
  0
BLOCK_RECORD
  5
652
100
AcDbSymbolTableRecord
100
AcDbBlockTableRecord
  2
*D50
  0
BLOCK_RECORD
  5
653
100
AcDbSymbolTableRecord
100
AcDbBlockTableRecord
  2
*D51
  0
BLOCK_RECORD
  5
654
100
AcDbSymbolTableRecord
100
AcDbBlockTableRecord
  2
*D52
  0
BLOCK_RECORD
  5
655
100
AcDbSymbolTableRecord
100
AcDbBlockTableRecord
  2
*D53
  0
BLOCK_RECORD
  5
656
100
AcDbSymbolTableRecord
100
AcDbBlockTableRecord
  2
*D54
  0
BLOCK_RECORD
  5
657
100
AcDbSymbolTableRecord
100
AcDbBlockTableRecord
  2
*D55
  0
BLOCK_RECORD
  5
658
100
AcDbSymbolTableRecord
100
AcDbBlockTableRecord
  2
*D56
  0
BLOCK_RECORD
  5
659
100
AcDbSymbolTableRecord
100
AcDbBlockTableRecord
  2
*D57
  0
BLOCK_RECORD
  5
65A
100
AcDbSymbolTableRecord
100
AcDbBlockTableRecord
  2
*D58
  0
BLOCK_RECORD
  5
65B
100
AcDbSymbolTableRecord
100
AcDbBlockTableRecord
  2
*D59
  0
BLOCK_RECORD
  5
65C
100
AcDbSymbolTableRecord
100
AcDbBlockTableRecord
  2
*D60
  0
BLOCK_RECORD
  5
65D
100
AcDbSymbolTableRecord
100
AcDbBlockTableRecord
  2
*D61
  0
ENDTAB
  0
ENDSEC
  0
SECTION
  2
BLOCKS
  0
BLOCK
  5
65E
100
AcDbEntity
  8
0
100
AcDbBlockBegin
  2
*MODEL_SPACE
 70
     0
 10
0.0
 20
0.0
 30
0.0
  3
*MODEL_SPACE
  1

  0
ENDBLK
  5
65F
100
AcDbEntity
  8
0
100
AcDbBlockEnd
  0
BLOCK
  5
660
100
AcDbEntity
  8
0
100
AcDbBlockBegin
  2
*PAPER_SPACE
 70
     0
 10
0.0
 20
0.0
 30
0.0
  3
*PAPER_SPACE
  1

  0
ENDBLK
  5
661
100
AcDbEntity
  8
0
100
AcDbBlockEnd
  0
BLOCK
  5
2
100
AcDbEntity
  8
0
100
AcDbBlockBegin
  2
_NONE
 70
     0
 10
0.0
 20
0.0
 30
0.0
  3
_NONE
  1

  0
ENDBLK
  5
3
100
AcDbEntity
  8
0
100
AcDbBlockEnd
  0
BLOCK
  5
5
100
AcDbEntity
  8
0
100
AcDbBlockBegin
  2
_CLOSED
 70
     0
 10
0.0
 20
0.0
 30
0.0
  3
_CLOSED
  1

  0
LINE
  5
6
100
AcDbEntity
  8
0
  6
BYBLOCK
 62
     0
100
AcDbLine
 10
-1.0
 20
0.166667
 30
0.0
 11
0.0
 21
0.0
 31
0.0
  0
LINE
  5
7
100
AcDbEntity
  8
0
  6
BYBLOCK
 62
     0
100
AcDbLine
 10
0.0
 20
0.0
 30
0.0
 11
-1.0
 21
-0.166667
 31
0.0
  0
LINE
  5
8
100
AcDbEntity
  8
0
  6
BYBLOCK
 62
     0
100
AcDbLine
 10
-1.0
 20
0.166667
 30
0.0
 11
-1.0
 21
-0.166667
 31
0.0
  0
LINE
  5
9
100
AcDbEntity
  8
0
  6
BYBLOCK
 62
     0
100
AcDbLine
 10
0.0
 20
0.0
 30
0.0
 11
-1.0
 21
0.0
 31
0.0
  0
ENDBLK
  5
A
100
AcDbEntity
  8
0
100
AcDbBlockEnd
  0
BLOCK
  5
C
100
AcDbEntity
  8
0
100
AcDbBlockBegin
  2
_DOT
 70
     0
 10
0.0
 20
0.0
 30
0.0
  3
_DOT
  1

  0
POLYLINE
  5
D
100
AcDbEntity
  8
0
  6
BYBLOCK
 62
     0
100
AcDb2dPolyline
 66
     1
 10
0.0
 20
0.0
 30
0.0
 70
     1
 40
0.5
 41
0.5
  0
VERTEX
  5
E
100
AcDbEntity
  8
0
  6
BYBLOCK
 62
     0
100
AcDbVertex
100
AcDb2dVertex
 10
-0.25
 20
0.0
 30
0.0
 42
1.0
  0
VERTEX
  5
F
100
AcDbEntity
  8
0
  6
BYBLOCK
 62
     0
100
AcDbVertex
100
AcDb2dVertex
 10
0.25
 20
0.0
 30
0.0
 42
1.0
  0
SEQEND
  5
10
100
AcDbEntity
  8
0
  6
BYBLOCK
 62
     0
  0
LINE
  5
11
100
AcDbEntity
  8
0
  6
BYBLOCK
 62
     0
100
AcDbLine
 10
-0.5
 20
0.0
 30
0.0
 11
-1.0
 21
0.0
 31
0.0
  0
ENDBLK
  5
12
100
AcDbEntity
  8
0
100
AcDbBlockEnd
  0
BLOCK
  5
14
100
AcDbEntity
  8
0
100
AcDbBlockBegin
  2
_OPEN
 70
     0
 10
0.0
 20
0.0
 30
0.0
  3
_OPEN
  1

  0
LINE
  5
15
100
AcDbEntity
  8
0
  6
BYBLOCK
 62
     0
100
AcDbLine
 10
-1.0
 20
0.166667
 30
0.0
 11
0.0
 21
0.0
 31
0.0
  0
LINE
  5
16
100
AcDbEntity
  8
0
  6
BYBLOCK
 62
     0
100
AcDbLine
 10
0.0
 20
0.0
 30
0.0
 11
-1.0
 21
-0.166667
 31
0.0
  0
LINE
  5
17
100
AcDbEntity
  8
0
  6
BYBLOCK
 62
     0
100
AcDbLine
 10
0.0
 20
0.0
 30
0.0
 11
-1.0
 21
0.0
 31
0.0
  0
ENDBLK
  5
18
100
AcDbEntity
  8
0
100
AcDbBlockEnd
  0
BLOCK
  5
1A
100
AcDbEntity
  8
0
100
AcDbBlockBegin
  2
_ORIGIN
 70
     0
 10
0.0
 20
0.0
 30
0.0
  3
_ORIGIN
  1

  0
CIRCLE
  5
1B
100
AcDbEntity
  8
0
  6
BYBLOCK
 62
     0
100
AcDbCircle
 10
0.0
 20
0.0
 30
0.0
 40
0.5
  0
LINE
  5
1C
100
AcDbEntity
  8
0
  6
BYBLOCK
 62
     0
100
AcDbLine
 10
0.0
 20
0.0
 30
0.0
 11
-1.0
 21
0.0
 31
0.0
  0
ENDBLK
  5
1D
100
AcDbEntity
  8
0
100
AcDbBlockEnd
  0
BLOCK
  5
1F
100
AcDbEntity
  8
0
100
AcDbBlockBegin
  2
_OPEN30
 70
     0
 10
0.0
 20
0.0
 30
0.0
  3
_OPEN30
  1

  0
LINE
  5
20
100
AcDbEntity
  8
0
  6
BYBLOCK
 62
     0
100
AcDbLine
 10
-1.0
 20
0.267949
 30
0.0
 11
0.0
 21
0.0
 31
0.0
  0
LINE
  5
21
100
AcDbEntity
  8
0
  6
BYBLOCK
 62
     0
100
AcDbLine
 10
0.0
 20
0.0
 30
0.0
 11
-1.0
 21
-0.267949
 31
0.0
  0
LINE
  5
22
100
AcDbEntity
  8
0
  6
BYBLOCK
 62
     0
100
AcDbLine
 10
0.0
 20
0.0
 30
0.0
 11
-1.0
 21
0.0
 31
0.0
  0
ENDBLK
  5
23
100
AcDbEntity
  8
0
100
AcDbBlockEnd
  0
BLOCK
  5
25
100
AcDbEntity
  8
0
100
AcDbBlockBegin
  2
_BOXFILLED
 70
     0
 10
0.0
 20
0.0
 30
0.0
  3
_BOXFILLED
  1

  0
SOLID
  5
26
100
AcDbEntity
  8
0
  6
BYBLOCK
 62
     0
100
AcDbTrace
 10
-0.5
 20
0.5
 30
0.0
 11
0.5
 21
0.5
 31
0.0
 12
-0.5
 22
-0.5
 32
0.0
 13
0.5
 23
-0.5
 33
0.0
  0
LINE
  5
27
100
AcDbEntity
  8
0
  6
BYBLOCK
 62
     0
100
AcDbLine
 10
-0.5
 20
0.0
 30
0.0
 11
-1.0
 21
0.0
 31
0.0
  0
ENDBLK
  5
28
100
AcDbEntity
  8
0
100
AcDbBlockEnd
  0
BLOCK
  5
2A
100
AcDbEntity
  8
0
100
AcDbBlockBegin
  2
_BOXBLANK
 70
     0
 10
0.0
 20
0.0
 30
0.0
  3
_BOXBLANK
  1

  0
LINE
  5
2B
100
AcDbEntity
  8
0
  6
BYBLOCK
 62
     0
100
AcDbLine
 10
-0.5
 20
-0.5
 30
0.0
 11
0.5
 21
-0.5
 31
0.0
  0
LINE
  5
2C
100
AcDbEntity
  8
0
  6
BYBLOCK
 62
     0
100
AcDbLine
 10
0.5
 20
-0.5
 30
0.0
 11
0.5
 21
0.5
 31
0.0
  0
LINE
  5
2D
100
AcDbEntity
  8
0
  6
BYBLOCK
 62
     0
100
AcDbLine
 10
0.5
 20
0.5
 30
0.0
 11
-0.5
 21
0.5
 31
0.0
  0
LINE
  5
2E
100
AcDbEntity
  8
0
  6
BYBLOCK
 62
     0
100
AcDbLine
 10
-0.5
 20
0.5
 30
0.0
 11
-0.5
 21
-0.5
 31
0.0
  0
LINE
  5
2F
100
AcDbEntity
  8
0
  6
BYBLOCK
 62
     0
100
AcDbLine
 10
-0.5
 20
0.0
 30
0.0
 11
-1.0
 21
0.0
 31
0.0
  0
ENDBLK
  5
30
100
AcDbEntity
  8
0
100
AcDbBlockEnd
  0
BLOCK
  5
32
100
AcDbEntity
  8
0
100
AcDbBlockBegin
  2
_OBLIQUE
 70
     0
 10
0.0
 20
0.0
 30
0.0
  3
_OBLIQUE
  1

  0
LINE
  5
33
100
AcDbEntity
  8
0
  6
BYBLOCK
 62
     0
100
AcDbLine
 10
-0.5
 20
-0.5
 30
0.0
 11
0.5
 21
0.5
 31
0.0
  0
ENDBLK
  5
34
100
AcDbEntity
  8
0
100
AcDbBlockEnd
  0
BLOCK
  5
36
100
AcDbEntity
  8
0
100
AcDbBlockBegin
  2
_OPEN90
 70
     0
 10
0.0
 20
0.0
 30
0.0
  3
_OPEN90
  1

  0
LINE
  5
37
100
AcDbEntity
  8
0
  6
BYBLOCK
 62
     0
100
AcDbLine
 10
-0.5
 20
0.5
 30
0.0
 11
0.0
 21
0.0
 31
0.0
  0
LINE
  5
38
100
AcDbEntity
  8
0
  6
BYBLOCK
 62
     0
100
AcDbLine
 10
0.0
 20
0.0
 30
0.0
 11
-0.5
 21
-0.5
 31
0.0
  0
LINE
  5
39
100
AcDbEntity
  8
0
  6
BYBLOCK
 62
     0
100
AcDbLine
 10
0.0
 20
0.0
 30
0.0
 11
-1.0
 21
0.0
 31
0.0
  0
ENDBLK
  5
3A
100
AcDbEntity
  8
0
100
AcDbBlockEnd
  0
BLOCK
  5
3C
100
AcDbEntity
  8
0
100
AcDbBlockBegin
  2
_CLOSEDBLANK
 70
     0
 10
0.0
 20
0.0
 30
0.0
  3
_CLOSEDBLANK
  1

  0
LINE
  5
3D
100
AcDbEntity
  8
0
  6
BYBLOCK
 62
     0
100
AcDbLine
 10
-1.0
 20
0.1666666666666666
 30
0.0
 11
0.0
 21
0.0
 31
0.0
  0
LINE
  5
3E
100
AcDbEntity
  8
0
  6
BYBLOCK
 62
     0
100
AcDbLine
 10
0.0
 20
0.0
 30
0.0
 11
-1.0
 21
-0.1666666666666666
 31
0.0
  0
LINE
  5
3F
100
AcDbEntity
  8
0
  6
BYBLOCK
 62
     0
100
AcDbLine
 10
-1.0
 20
0.1666666666666666
 30
0.0
 11
-1.0
 21
-0.1666666666666666
 31
0.0
  0
ENDBLK
  5
40
100
AcDbEntity
  8
0
100
AcDbBlockEnd
  0
BLOCK
  5
42
100
AcDbEntity
  8
0
100
AcDbBlockBegin
  2
_DOTBLANK
 70
     0
 10
0.0
 20
0.0
 30
0.0
  3
_DOTBLANK
  1

  0
CIRCLE
  5
43
100
AcDbEntity
  8
0
  6
BYBLOCK
 62
     0
100
AcDbCircle
 10
0.0
 20
0.0
 30
0.0
 40
0.5
  0
LINE
  5
44
100
AcDbEntity
  8
0
  6
BYBLOCK
 62
     0
100
AcDbLine
 10
-0.5
 20
0.0
 30
0.0
 11
-1.0
 21
0.0
 31
0.0
  0
ENDBLK
  5
45
100
AcDbEntity
  8
0
100
AcDbBlockEnd
  0
BLOCK
  5
100
100
AcDbEntity
  8
MAIN0
  6
CONTINUOUS
 62
3
100
AcDbBlockBegin
  2
*D0
 70
    65
 10
0.0
 20
0.0
 30
0.0
  0
LINE
  5
101
100
AcDbEntity
  8
MAIN0
  6
BYBLOCK
 62
0
100
AcDbLine
 10
665.3838328392006
 20
233.3999999744704
 30
0.0000000000000000
 11
665.3838328392006
 21
208.4187400650875
 31
0.0000000000000000
  0
LINE
  5
102
100
AcDbEntity
  8
MAIN0
  6
BYBLOCK
 62
0
100
AcDbLine
 10
669.3838328392006
 20
212.4187400650875
 30
0.0000000000000000
 11
679.3838328392006
 21
212.4187400650875
 31
0.0000000000000000
  0
INSERT
  5
103
100
AcDbEntity
  8
MAIN0
  6
BYBLOCK
 62
0
100
AcDbBlockReference
  2
_OPEN
 10
665.3838328392006
 20
212.4187400650875
 30
0.0000000000000000
 41
4.000000000000000
 42
4.000000000000000
 43
4.000000000000000
 50
180.0000000000000
  0
INSERT
  5
104
100
AcDbEntity
  8
MAIN0
  6
BYBLOCK
 62
0
100
AcDbBlockReference
  2
_OPEN
 10
683.3838328392006
 20
212.4187400650875
 30
0.0000000000000000
 41
4.000000000000000
 42
4.000000000000000
 43
4.000000000000000
 50
0.0000000000000000
  0
LINE
  5
105
100
AcDbEntity
  8
MAIN0
  6
BYBLOCK
 62
0
100
AcDbLine
 10
683.3838328392006
 20
212.4187400650875
 30
0.0000000000000000
 11
704.1688138478223
 21
212.4187400650875
 31
0.0000000000000000
  0
LINE
  5
106
100
AcDbEntity
  8
MAIN0
  6
BYBLOCK
 62
0
100
AcDbLine
 10
683.3838328392006
 20
233.3999999744706
 30
0.0000000000000000
 11
683.3838328392006
 21
208.4187400650875
 31
0.0000000000000000
  0
MTEXT
  5
107
100
AcDbEntity
  8
MAIN0
  6
BYBLOCK
 62
0
100
AcDbMText
 10
695.8688139402095
 20
216.5187399697201
 30
0.0000000000000000
 40
6.199999809265137
 41
0.0000000000000000
 71
     5
 72
     1
  1
\A1;18h7
 11
1.000000000000000
 21
0.0000000000000000
 31
0.0000000000000000
  7
STANDARD
  0
ENDBLK
  5
108
100
AcDbEntity
  8
MAIN0
  6
CONTINUOUS
 62
3
100
AcDbBlockEnd
  0
BLOCK
  5
10A
100
AcDbEntity
  8
MAIN0
  6
CONTINUOUS
 62
3
100
AcDbBlockBegin
  2
*D1
 70
    65
 10
0.0
 20
0.0
 30
0.0
  0
LINE
  5
10B
100
AcDbEntity
  8
MAIN0
  6
BYBLOCK
 62
0
100
AcDbLine
 10
663.7838328153588
 20
234.9999999983125
 30
0.0000000000000000
 11
645.2921046543347
 21
234.9999999983125
 31
0.0000000000000000
  0
LINE
  5
10C
100
AcDbEntity
  8
MAIN0
  6
BYBLOCK
 62
0
100
AcDbLine
 10
649.2921046543347
 20
234.9999999983125
 30
0.0000000000000000
 11
649.2921046543347
 21
239.9999999983124
 31
0.0000000000000000
  0
INSERT
  5
10D
100
AcDbEntity
  8
MAIN0
  6
BYBLOCK
 62
0
100
AcDbBlockReference
  2
_OPEN
 10
649.2921046543347
 20
234.9999999983125
 30
0.0000000000000000
 41
4.000000000000000
 42
4.000000000000000
 43
4.000000000000000
 50
90.00000000000000
  0
INSERT
  5
10E
100
AcDbEntity
  8
MAIN0
  6
BYBLOCK
 62
0
100
AcDbBlockReference
  2
_OPEN
 10
649.2921046543347
 20
239.9999999983124
 30
0.0000000000000000
 41
4.000000000000000
 42
4.000000000000000
 43
4.000000000000000
 50
270.0000000000000
  0
LINE
  5
10F
100
AcDbEntity
  8
MAIN0
  6
BYBLOCK
 62
0
100
AcDbLine
 10
649.2921046543347
 20
230.9999999983125
 30
0.0000000000000000
 11
649.2921046543347
 21
222.9658664332497
 31
0.0000000000000000
  0
LINE
  5
110
100
AcDbEntity
  8
MAIN0
  6
BYBLOCK
 62
0
100
AcDbLine
 10
649.2921046543347
 20
243.9999999983124
 30
0.0000000000000000
 11
649.2921046543347
 21
245.9999999983124
 31
0.0000000000000000
  0
MTEXT
  5
111
100
AcDbEntity
  8
MAIN0
  6
BYBLOCK
 62
0
100
AcDbMText
 10
645.1921047497021
 20
224.9658664332497
 30
0.0000000000000000
 40
6.199999809265137
 41
0.0000000000000000
 71
     5
 72
     1
  1
\A1;5
 11
6.123233995736766e-017
 21
1.000000000000000
 31
0.0000000000000000
  7
STANDARD
  0
ENDBLK
  5
112
100
AcDbEntity
  8
MAIN0
  6
CONTINUOUS
 62
3
100
AcDbBlockEnd
  0
BLOCK
  5
114
100
AcDbEntity
  8
MAIN0
  6
CONTINUOUS
 62
3
100
AcDbBlockBegin
  2
*D2
 70
    65
 10
0.0
 20
0.0
 30
0.0
  0
LINE
  5
115
100
AcDbEntity
  8
MAIN0
  6
BYBLOCK
 62
0
100
AcDbLine
 10
534.3838328392006
 20
238.7999999744705
 30
0.0000000000000000
 11
534.3838328392006
 21
143.5133616430891
 31
0.0000000000000000
  0
LINE
  5
116
100
AcDbEntity
  8
MAIN0
  6
BYBLOCK
 62
0
100
AcDbLine
 10
538.3838328392006
 20
147.5133616430891
 30
0.0000000000000000
 11
810.3838328392008
 21
147.5133616430891
 31
0.0000000000000000
  0
INSERT
  5
117
100
AcDbEntity
  8
MAIN0
  6
BYBLOCK
 62
0
100
AcDbBlockReference
  2
_OPEN
 10
534.3838328392006
 20
147.5133616430891
 30
0.0000000000000000
 41
4.000000000000000
 42
4.000000000000000
 43
4.000000000000000
 50
180.0000000000000
  0
INSERT
  5
118
100
AcDbEntity
  8
MAIN0
  6
BYBLOCK
 62
0
100
AcDbBlockReference
  2
_OPEN
 10
814.3838328392008
 20
147.5133616430891
 30
0.0000000000000000
 41
4.000000000000000
 42
4.000000000000000
 43
4.000000000000000
 50
0.0000000000000000
  0
LINE
  5
119
100
AcDbEntity
  8
MAIN0
  6
BYBLOCK
 62
0
100
AcDbLine
 10
814.3838328392008
 20
238.7999999744706
 30
0.0000000000000000
 11
814.3838328392008
 21
143.5133616430891
 31
0.0000000000000000
  0
MTEXT
  5
11A
100
AcDbEntity
  8
MAIN0
  6
BYBLOCK
 62
0
100
AcDbMText
 10
674.3838328392008
 20
151.1133615477216
 30
0.0000000000000000
 40
6.199999809265137
 41
0.0000000000000000
 71
     5
 72
     1
  1
\A1;280
 11
1.000000000000000
 21
0.0000000000000000
 31
0.0000000000000000
  7
STANDARD
  0
ENDBLK
  5
11B
100
AcDbEntity
  8
MAIN0
  6
CONTINUOUS
 62
3
100
AcDbBlockEnd
  0
BLOCK
  5
11D
100
AcDbEntity
  8
MAIN0
  6
CONTINUOUS
 62
3
100
AcDbBlockBegin
  2
*D3
 70
    65
 10
0.0
 20
0.0
 30
0.0
  0
LINE
  5
11E
100
AcDbEntity
  8
MAIN0
  6
BYBLOCK
 62
0
100
AcDbLine
 10
533.1838328153586
 20
264.9999999983124
 30
0.0000000000000000
 11
520.8546401967597
 21
264.9999999983124
 31
0.0000000000000000
  0
LINE
  5
11F
100
AcDbEntity
  8
MAIN0
  6
BYBLOCK
 62
0
100
AcDbLine
 10
524.8546401967597
 20
260.9999999983124
 30
0.0000000000000000
 11
524.8546401967597
 21
243.9999999983124
 31
0.0000000000000000
  0
INSERT
  5
120
100
AcDbEntity
  8
MAIN0
  6
BYBLOCK
 62
0
100
AcDbBlockReference
  2
_OPEN
 10
524.8546401967597
 20
264.9999999983124
 30
0.0000000000000000
 41
4.000000000000000
 42
4.000000000000000
 43
4.000000000000000
 50
90.00000000000000
  0
INSERT
  5
121
100
AcDbEntity
  8
MAIN0
  6
BYBLOCK
 62
0
100
AcDbBlockReference
  2
_OPEN
 10
524.8546401967597
 20
239.9999999983124
 30
0.0000000000000000
 41
4.000000000000000
 42
4.000000000000000
 43
4.000000000000000
 50
270.0000000000000
  0
LINE
  5
122
100
AcDbEntity
  8
MAIN0
  6
BYBLOCK
 62
0
100
AcDbLine
 10
533.1838328153586
 20
239.9999999983124
 30
0.0000000000000000
 11
520.8546401967597
 21
239.9999999983124
 31
0.0000000000000000
  0
MTEXT
  5
123
100
AcDbEntity
  8
MAIN0
  6
BYBLOCK
 62
0
100
AcDbMText
 10
521.2546402921271
 20
252.4999999983124
 30
0.0000000000000000
 40
6.199999809265137
 41
0.0000000000000000
 71
     5
 72
     1
  1
\A1;25
 11
6.123233995736766e-017
 21
1.000000000000000
 31
0.0000000000000000
  7
STANDARD
  0
ENDBLK
  5
124
100
AcDbEntity
  8
MAIN0
  6
CONTINUOUS
 62
3
100
AcDbBlockEnd
  0
BLOCK
  5
126
100
AcDbEntity
  8
MAIN0
  6
CONTINUOUS
 62
3
100
AcDbBlockBegin
  2
*D4
 70
    65
 10
0.0
 20
0.0
 30
0.0
  0
LINE
  5
127
100
AcDbEntity
  8
MAIN0
  6
BYBLOCK
 62
0
100
AcDbLine
 10
533.1838328153586
 20
239.9999999983124
 30
0.0000000000000000
 11
520.8546401967597
 21
239.9999999983124
 31
0.0000000000000000
  0
LINE
  5
128
100
AcDbEntity
  8
MAIN0
  6
BYBLOCK
 62
0
100
AcDbLine
 10
524.8546401967597
 20
235.9999999983124
 30
0.0000000000000000
 11
524.8546401967597
 21
218.9999999983124
 31
0.0000000000000000
  0
INSERT
  5
129
100
AcDbEntity
  8
MAIN0
  6
BYBLOCK
 62
0
100
AcDbBlockReference
  2
_OPEN
 10
524.8546401967597
 20
239.9999999983124
 30
0.0000000000000000
 41
4.000000000000000
 42
4.000000000000000
 43
4.000000000000000
 50
90.00000000000000
  0
INSERT
  5
12A
100
AcDbEntity
  8
MAIN0
  6
BYBLOCK
 62
0
100
AcDbBlockReference
  2
_OPEN
 10
524.8546401967597
 20
214.9999999983124
 30
0.0000000000000000
 41
4.000000000000000
 42
4.000000000000000
 43
4.000000000000000
 50
270.0000000000000
  0
LINE
  5
12B
100
AcDbEntity
  8
MAIN0
  6
BYBLOCK
 62
0
100
AcDbLine
 10
564.7838328153588
 20
214.9999999983124
 30
0.0000000000000000
 11
520.8546401967597
 21
214.9999999983124
 31
0.0000000000000000
  0
MTEXT
  5
12C
100
AcDbEntity
  8
MAIN0
  6
BYBLOCK
 62
0
100
AcDbMText
 10
521.2546402921271
 20
227.4999999983124
 30
0.0000000000000000
 40
6.199999809265137
 41
0.0000000000000000
 71
     5
 72
     1
  1
\A1;25
 11
6.123233995736766e-017
 21
1.000000000000000
 31
0.0000000000000000
  7
STANDARD
  0
ENDBLK
  5
12D
100
AcDbEntity
  8
MAIN0
  6
CONTINUOUS
 62
3
100
AcDbBlockEnd
  0
BLOCK
  5
12F
100
AcDbEntity
  8
MAIN0
  6
CONTINUOUS
 62
3
100
AcDbBlockBegin
  2
*D5
 70
    65
 10
0.0
 20
0.0
 30
0.0
  0
LINE
  5
130
100
AcDbEntity
  8
MAIN0
  6
BYBLOCK
 62
0
100
AcDbLine
 10
533.1838328153586
 20
239.9999999983124
 30
0.0000000000000000
 11
508.6867165617070
 21
239.9999999983124
 31
0.0000000000000000
  0
LINE
  5
131
100
AcDbEntity
  8
MAIN0
  6
BYBLOCK
 62
0
100
AcDbLine
 10
512.6867165617070
 20
243.9999999983124
 30
0.0000000000000000
 11
512.6867165617070
 21
375.9999999983124
 31
0.0000000000000000
  0
INSERT
  5
132
100
AcDbEntity
  8
MAIN0
  6
BYBLOCK
 62
0
100
AcDbBlockReference
  2
_OPEN
 10
512.6867165617070
 20
239.9999999983124
 30
0.0000000000000000
 41
4.000000000000000
 42
4.000000000000000
 43
4.000000000000000
 50
270.0000000000000
  0
INSERT
  5
133
100
AcDbEntity
  8
MAIN0
  6
BYBLOCK
 62
0
100
AcDbBlockReference
  2
_OPEN
 10
512.6867165617070
 20
379.9999999983124
 30
0.0000000000000000
 41
4.000000000000000
 42
4.000000000000000
 43
4.000000000000000
 50
90.00000000000000
  0
LINE
  5
134
100
AcDbEntity
  8
MAIN0
  6
BYBLOCK
 62
0
100
AcDbLine
 10
553.9629352945831
 20
379.9999999983124
 30
0.0000000000000000
 11
508.6867165617070
 21
379.9999999983124
 31
0.0000000000000000
  0
MTEXT
  5
135
100
AcDbEntity
  8
MAIN0
  6
BYBLOCK
 62
0
100
AcDbMText
 10
509.0867166570745
 20
309.9999999983124
 30
0.0000000000000000
 40
6.199999809265137
 41
0.0000000000000000
 71
     5
 72
     1
  1
\A1;140\U+00B10.01
 11
6.123233995736766e-017
 21
1.000000000000000
 31
0.0000000000000000
  7
STANDARD
  0
ENDBLK
  5
136
100
AcDbEntity
  8
MAIN0
  6
CONTINUOUS
 62
3
100
AcDbBlockEnd
  0
BLOCK
  5
138
100
AcDbEntity
  8
MAIN0
  6
CONTINUOUS
 62
3
100
AcDbBlockBegin
  2
*D6
 70
    65
 10
0.0
 20
0.0
 30
0.0
  0
LINE
  5
139
100
AcDbEntity
  8
MAIN0
  6
BYBLOCK
 62
0
100
AcDbLine
 10
553.9629352945831
 20
379.9999999983124
 30
0.0000000000000000
 11
508.6867165617070
 21
379.9999999983124
 31
0.0000000000000000
  0
LINE
  5
13A
100
AcDbEntity
  8
MAIN0
  6
BYBLOCK
 62
0
100
AcDbLine
 10
512.6867165617070
 20
383.9999999983124
 30
0.0000000000000000
 11
512.6867165617070
 21
481.9999999983124
 31
0.0000000000000000
  0
INSERT
  5
13B
100
AcDbEntity
  8
MAIN0
  6
BYBLOCK
 62
0
100
AcDbBlockReference
  2
_OPEN
 10
512.6867165617070
 20
379.9999999983124
 30
0.0000000000000000
 41
4.000000000000000
 42
4.000000000000000
 43
4.000000000000000
 50
270.0000000000000
  0
INSERT
  5
13C
100
AcDbEntity
  8
MAIN0
  6
BYBLOCK
 62
0
100
AcDbBlockReference
  2
_OPEN
 10
512.6867165617070
 20
485.9999999983124
 30
0.0000000000000000
 41
4.000000000000000
 42
4.000000000000000
 43
4.000000000000000
 50
90.00000000000000
  0
LINE
  5
13D
100
AcDbEntity
  8
MAIN0
  6
BYBLOCK
 62
0
100
AcDbLine
 10
608.7838328154417
 20
485.9999999983124
 30
0.0000000000000000
 11
508.6867165617070
 21
485.9999999983124
 31
0.0000000000000000
  0
MTEXT
  5
13E
100
AcDbEntity
  8
MAIN0
  6
BYBLOCK
 62
0
100
AcDbMText
 10
509.0867166570745
 20
432.9999999983124
 30
0.0000000000000000
 40
6.199999809265137
 41
0.0000000000000000
 71
     5
 72
     1
  1
\A1;106
 11
6.123233995736766e-017
 21
1.000000000000000
 31
0.0000000000000000
  7
STANDARD
  0
ENDBLK
  5
13F
100
AcDbEntity
  8
MAIN0
  6
CONTINUOUS
 62
3
100
AcDbBlockEnd
  0
BLOCK
  5
141
100
AcDbEntity
  8
MAIN0
  6
CONTINUOUS
 62
3
100
AcDbBlockBegin
  2
*D7
 70
    65
 10
0.0
 20
0.0
 30
0.0
  0
LINE
  5
142
100
AcDbEntity
  8
MAIN0
  6
BYBLOCK
 62
0
100
AcDbLine
 10
533.1838328153586
 20
239.9999999983124
 30
0.0000000000000000
 11
495.7075939110417
 21
239.9999999983124
 31
0.0000000000000000
  0
LINE
  5
143
100
AcDbEntity
  8
MAIN0
  6
BYBLOCK
 62
0
100
AcDbLine
 10
499.7075939110417
 20
243.9999999983124
 30
0.0000000000000000
 11
499.7075939110417
 21
481.9999999983124
 31
0.0000000000000000
  0
INSERT
  5
144
100
AcDbEntity
  8
MAIN0
  6
BYBLOCK
 62
0
100
AcDbBlockReference
  2
_OPEN
 10
499.7075939110417
 20
239.9999999983124
 30
0.0000000000000000
 41
4.000000000000000
 42
4.000000000000000
 43
4.000000000000000
 50
270.0000000000000
  0
INSERT
  5
145
100
AcDbEntity
  8
MAIN0
  6
BYBLOCK
 62
0
100
AcDbBlockReference
  2
_OPEN
 10
499.7075939110417
 20
485.9999999983124
 30
0.0000000000000000
 41
4.000000000000000
 42
4.000000000000000
 43
4.000000000000000
 50
90.00000000000000
  0
LINE
  5
146
100
AcDbEntity
  8
MAIN0
  6
BYBLOCK
 62
0
100
AcDbLine
 10
608.7838328154417
 20
485.9999999983124
 30
0.0000000000000000
 11
495.7075939110417
 21
485.9999999983124
 31
0.0000000000000000
  0
MTEXT
  5
147
100
AcDbEntity
  8
MAIN0
  6
BYBLOCK
 62
0
100
AcDbMText
 10
496.1075940064092
 20
362.9999999983124
 30
0.0000000000000000
 40
6.199999809265137
 41
0.0000000000000000
 71
     5
 72
     1
  1
\A1;246
 11
6.123233995736766e-017
 21
1.000000000000000
 31
0.0000000000000000
  7
STANDARD
  0
ENDBLK
  5
148
100
AcDbEntity
  8
MAIN0
  6
CONTINUOUS
 62
3
100
AcDbBlockEnd
  0
BLOCK
  5
14A
100
AcDbEntity
  8
MAIN0
  6
CONTINUOUS
 62
3
100
AcDbBlockBegin
  2
*D8
 70
    65
 10
0.0
 20
0.0
 30
0.0
  0
LINE
  5
14B
100
AcDbEntity
  8
MAIN0
  6
BYBLOCK
 62
0
100
AcDbLine
 10
739.3838328392822
 20
486.1000000221543
 30
0.0000000000000000
 11
739.3838328392822
 21
510.5463688450070
 31
0.0000000000000000
  0
LINE
  5
14C
100
AcDbEntity
  8
MAIN0
  6
BYBLOCK
 62
0
100
AcDbLine
 10
735.3838328392822
 20
506.5463688450070
 30
0.0000000000000000
 11
613.3838328392828
 21
506.5463688450070
 31
0.0000000000000000
  0
INSERT
  5
14D
100
AcDbEntity
  8
MAIN0
  6
BYBLOCK
 62
0
100
AcDbBlockReference
  2
_OPEN
 10
739.3838328392822
 20
506.5463688450070
 30
0.0000000000000000
 41
4.000000000000000
 42
4.000000000000000
 43
4.000000000000000
 50
360.0000000000000
  0
INSERT
  5
14E
100
AcDbEntity
  8
MAIN0
  6
BYBLOCK
 62
0
100
AcDbBlockReference
  2
_OPEN
 10
609.3838328392828
 20
506.5463688450070
 30
0.0000000000000000
 41
4.000000000000000
 42
4.000000000000000
 43
4.000000000000000
 50
180.0000000000000
  0
LINE
  5
14F
100
AcDbEntity
  8
MAIN0
  6
BYBLOCK
 62
0
100
AcDbLine
 10
609.3838328392828
 20
486.1000000221543
 30
0.0000000000000000
 11
609.3838328392828
 21
510.5463688450070
 31
0.0000000000000000
  0
MTEXT
  5
150
100
AcDbEntity
  8
MAIN0
  6
BYBLOCK
 62
0
100
AcDbMText
 10
674.3838328392825
 20
510.1463687496396
 30
0.0000000000000000
 40
6.199999809265137
 41
0.0000000000000000
 71
     5
 72
     1
  1
\A1;130
 11
1.000000000000000
 21
0.0000000000000000
 31
0.0000000000000000
  7
STANDARD
  0
ENDBLK
  5
151
100
AcDbEntity
  8
MAIN0
  6
CONTINUOUS
 62
3
100
AcDbBlockEnd
  0
BLOCK
  5
153
100
AcDbEntity
  8
MAIN0
  6
CONTINUOUS
 62
3
100
AcDbBlockBegin
  2
*D9
 70
    65
 10
0.0
 20
0.0
 30
0.0
  0
LINE
  5
154
100
AcDbEntity
  8
MAIN0
  6
BYBLOCK
 62
0
100
AcDbLine
 10
267.8541207415127
 20
395.9999999979914
 30
0.0000000000000000
 11
259.6970260046512
 21
395.9999999979914
 31
0.0000000000000000
  0
LINE
  5
155
100
AcDbEntity
  8
MAIN0
  6
BYBLOCK
 62
0
100
AcDbLine
 10
263.6970260046512
 20
391.9999999979914
 30
0.0000000000000000
 11
263.6970260046512
 21
383.9999999980823
 31
0.0000000000000000
  0
INSERT
  5
156
100
AcDbEntity
  8
MAIN0
  6
BYBLOCK
 62
0
100
AcDbBlockReference
  2
_OPEN
 10
263.6970260046512
 20
395.9999999979914
 30
0.0000000000000000
 41
4.000000000000000
 42
4.000000000000000
 43
4.000000000000000
 50
90.00000000000000
  0
INSERT
  5
157
100
AcDbEntity
  8
MAIN0
  6
BYBLOCK
 62
0
100
AcDbBlockReference
  2
_OPEN
 10
263.6970260046512
 20
379.9999999980823
 30
0.0000000000000000
 41
4.000000000000000
 42
4.000000000000000
 43
4.000000000000000
 50
270.0000000000000
  0
MTEXT
  5
158
100
AcDbEntity
  8
MAIN0
  6
BYBLOCK
 62
0
100
AcDbMText
 10
260.0970261000186
 20
387.9999999980369
 30
0.0000000000000000
 40
6.199999809265137
 41
0.0000000000000000
 71
     5
 72
     1
  1
\A1;16
 11
6.123233995736766e-017
 21
1.000000000000000
 31
0.0000000000000000
  7
STANDARD
  0
ENDBLK
  5
159
100
AcDbEntity
  8
MAIN0
  6
CONTINUOUS
 62
3
100
AcDbBlockEnd
  0
BLOCK
  5
15B
100
AcDbEntity
  8
MAIN0
  6
CONTINUOUS
 62
3
100
AcDbBlockBegin
  2
*D10
 70
    65
 10
0.0
 20
0.0
 30
0.0
  0
LINE
  5
15C
100
AcDbEntity
  8
MAIN0
  6
BYBLOCK
 62
0
100
AcDbLine
 10
263.6970260046512
 20
375.9999999980823
 30
0.0000000000000000
 11
263.6970260046512
 21
367.9999999979914
 31
0.0000000000000000
  0
INSERT
  5
15D
100
AcDbEntity
  8
MAIN0
  6
BYBLOCK
 62
0
100
AcDbBlockReference
  2
_OPEN
 10
263.6970260046512
 20
379.9999999980823
 30
0.0000000000000000
 41
4.000000000000000
 42
4.000000000000000
 43
4.000000000000000
 50
90.00000000000000
  0
INSERT
  5
15E
100
AcDbEntity
  8
MAIN0
  6
BYBLOCK
 62
0
100
AcDbBlockReference
  2
_OPEN
 10
263.6970260046512
 20
363.9999999979914
 30
0.0000000000000000
 41
4.000000000000000
 42
4.000000000000000
 43
4.000000000000000
 50
270.0000000000000
  0
LINE
  5
15F
100
AcDbEntity
  8
MAIN0
  6
BYBLOCK
 62
0
100
AcDbLine
 10
267.8953939886167
 20
363.9999999979914
 30
0.0000000000000000
 11
259.6970260046512
 21
363.9999999979914
 31
0.0000000000000000
  0
MTEXT
  5
160
100
AcDbEntity
  8
MAIN0
  6
BYBLOCK
 62
0
100
AcDbMText
 10
260.0970261000186
 20
371.9999999980369
 30
0.0000000000000000
 40
6.199999809265137
 41
0.0000000000000000
 71
     5
 72
     1
  1
\A1;16
 11
6.123233995736766e-017
 21
1.000000000000000
 31
0.0000000000000000
  7
STANDARD
  0
ENDBLK
  5
161
100
AcDbEntity
  8
MAIN0
  6
CONTINUOUS
 62
3
100
AcDbBlockEnd
  0
BLOCK
  5
163
100
AcDbEntity
  8
MAIN0
  6
CONTINUOUS
 62
3
100
AcDbBlockBegin
  2
*D11
 70
    65
 10
0.0
 20
0.0
 30
0.0
  0
LINE
  5
164
100
AcDbEntity
  8
MAIN0
  6
BYBLOCK
 62
0
100
AcDbLine
 10
228.1451168642654
 20
443.9999999979787
 30
0.0000000000000000
 11
252.0872324382226
 21
443.9999999975913
 31
0.0000000000000000
  0
LINE
  5
165
100
AcDbEntity
  8
MAIN0
  6
BYBLOCK
 62
0
100
AcDbLine
 10
248.0872324382226
 20
439.9999999976560
 30
0.0000000000000000
 11
248.0872324382226
 21
383.9999999977338
 31
0.0000000000000000
  0
INSERT
  5
166
100
AcDbEntity
  8
MAIN0
  6
BYBLOCK
 62
0
100
AcDbBlockReference
  2
_OPEN
 10
248.0872324382226
 20
443.9999999976560
 30
0.0000000000000000
 41
4.000000000000000
 42
4.000000000000000
 43
4.000000000000000
 50
90.00000000000000
  0
INSERT
  5
167
100
AcDbEntity
  8
MAIN0
  6
BYBLOCK
 62
0
100
AcDbBlockReference
  2
_OPEN
 10
248.0872324382226
 20
379.9999999977338
 30
0.0000000000000000
 41
4.000000000000000
 42
4.000000000000000
 43
4.000000000000000
 50
270.0000000000000
  0
MTEXT
  5
168
100
AcDbEntity
  8
MAIN0
  6
BYBLOCK
 62
0
100
AcDbMText
 10
244.4872325335900
 20
411.9999999976949
 30
0.0000000000000000
 40
6.199999809265137
 41
0.0000000000000000
 71
     5
 72
     1
  1
\A1;64
 11
6.123233995736766e-017
 21
1.000000000000000
 31
0.0000000000000000
  7
STANDARD
  0
ENDBLK
  5
169
100
AcDbEntity
  8
MAIN0
  6
CONTINUOUS
 62
3
100
AcDbBlockEnd
  0
BLOCK
  5
16B
100
AcDbEntity
  8
MAIN0
  6
CONTINUOUS
 62
3
100
AcDbBlockBegin
  2
*D12
 70
    65
 10
0.0
 20
0.0
 30
0.0
  0
LINE
  5
16C
100
AcDbEntity
  8
MAIN0
  6
BYBLOCK
 62
0
100
AcDbLine
 10
103.8953939886166
 20
395.9999999979914
 30
0.0000000000000000
 11
66.09078121226065
 21
395.9999999979914
 31
0.0000000000000000
  0
LINE
  5
16D
100
AcDbEntity
  8
MAIN0
  6
BYBLOCK
 62
0
100
AcDbLine
 10
70.09078121226065
 20
391.9999999979914
 30
0.0000000000000000
 11
70.09078121226065
 21
383.9999999977338
 31
0.0000000000000000
  0
INSERT
  5
16E
100
AcDbEntity
  8
MAIN0
  6
BYBLOCK
 62
0
100
AcDbBlockReference
  2
_OPEN
 10
70.09078121226065
 20
395.9999999979914
 30
0.0000000000000000
 41
4.000000000000000
 42
4.000000000000000
 43
4.000000000000000
 50
90.00000000000000
  0
INSERT
  5
16F
100
AcDbEntity
  8
MAIN0
  6
BYBLOCK
 62
0
100
AcDbBlockReference
  2
_OPEN
 10
70.09078121226065
 20
379.9999999977338
 30
0.0000000000000000
 41
4.000000000000000
 42
4.000000000000000
 43
4.000000000000000
 50
270.0000000000000
  0
LINE
  5
170
100
AcDbEntity
  8
MAIN0
  6
BYBLOCK
 62
0
100
AcDbLine
 10
70.11666563084998
 20
379.9999999977338
 30
0.0000000000000000
 11
66.09078121226065
 21
379.9999999977338
 31
0.0000000000000000
  0
MTEXT
  5
171
100
AcDbEntity
  8
MAIN0
  6
BYBLOCK
 62
0
100
AcDbMText
 10
66.49078130762808
 20
387.9999999978626
 30
0.0000000000000000
 40
6.199999809265137
 41
0.0000000000000000
 71
     5
 72
     1
  1
\A1;16
 11
6.123233995736766e-017
 21
1.000000000000000
 31
0.0000000000000000
  7
STANDARD
  0
ENDBLK
  5
172
100
AcDbEntity
  8
MAIN0
  6
CONTINUOUS
 62
3
100
AcDbBlockEnd
  0
BLOCK
  5
174
100
AcDbEntity
  8
MAIN0
  6
CONTINUOUS
 62
3
100
AcDbBlockBegin
  2
*D13
 70
    65
 10
0.0
 20
0.0
 30
0.0
  0
LINE
  5
175
100
AcDbEntity
  8
MAIN0
  6
BYBLOCK
 62
0
100
AcDbLine
 10
70.11666563084998
 20
379.9999999977338
 30
0.0000000000000000
 11
66.09078121226065
 21
379.9999999977338
 31
0.0000000000000000
  0
LINE
  5
176
100
AcDbEntity
  8
MAIN0
  6
BYBLOCK
 62
0
100
AcDbLine
 10
70.09078121226065
 20
375.9999999977338
 30
0.0000000000000000
 11
70.09078121226065
 21
367.9999999979914
 31
0.0000000000000000
  0
INSERT
  5
177
100
AcDbEntity
  8
MAIN0
  6
BYBLOCK
 62
0
100
AcDbBlockReference
  2
_OPEN
 10
70.09078121226065
 20
379.9999999977338
 30
0.0000000000000000
 41
4.000000000000000
 42
4.000000000000000
 43
4.000000000000000
 50
90.00000000000000
  0
INSERT
  5
178
100
AcDbEntity
  8
MAIN0
  6
BYBLOCK
 62
0
100
AcDbBlockReference
  2
_OPEN
 10
70.09078121226065
 20
363.9999999979914
 30
0.0000000000000000
 41
4.000000000000000
 42
4.000000000000000
 43
4.000000000000000
 50
270.0000000000000
  0
LINE
  5
179
100
AcDbEntity
  8
MAIN0
  6
BYBLOCK
 62
0
100
AcDbLine
 10
103.8953939886163
 20
363.9999999979914
 30
0.0000000000000000
 11
66.09078121226065
 21
363.9999999979914
 31
0.0000000000000000
  0
MTEXT
  5
17A
100
AcDbEntity
  8
MAIN0
  6
BYBLOCK
 62
0
100
AcDbMText
 10
66.49078130762808
 20
371.9999999978626
 30
0.0000000000000000
 40
6.199999809265137
 41
0.0000000000000000
 71
     5
 72
     1
  1
\A1;16
 11
6.123233995736766e-017
 21
1.000000000000000
 31
0.0000000000000000
  7
STANDARD
  0
ENDBLK
  5
17B
100
AcDbEntity
  8
MAIN0
  6
CONTINUOUS
 62
3
100
AcDbBlockEnd
  0
BLOCK
  5
17D
100
AcDbEntity
  8
MAIN0
  6
CONTINUOUS
 62
3
100
AcDbBlockBegin
  2
*D14
 70
    65
 10
0.0
 20
0.0
 30
0.0
  0
LINE
  5
17E
100
AcDbEntity
  8
MAIN0
  6
BYBLOCK
 62
0
100
AcDbLine
 10
168.7234265960837
 20
247.9999999979054
 30
0.0000000000000000
 11
151.0383508673307
 21
247.9999999979054
 31
0.0000000000000000
  0
LINE
  5
17F
100
AcDbEntity
  8
MAIN0
  6
BYBLOCK
 62
0
100
AcDbLine
 10
155.0383508673307
 20
247.9999999979054
 30
0.0000000000000000
 11
155.0383508673307
 21
239.9999999978976
 31
0.0000000000000000
  0
INSERT
  5
180
100
AcDbEntity
  8
MAIN0
  6
BYBLOCK
 62
0
100
AcDbBlockReference
  2
_OPEN
 10
155.0383508673307
 20
247.9999999979054
 30
0.0000000000000000
 41
4.000000000000000
 42
4.000000000000000
 43
4.000000000000000
 50
270.0000000000000
  0
INSERT
  5
181
100
AcDbEntity
  8
MAIN0
  6
BYBLOCK
 62
0
100
AcDbBlockReference
  2
_OPEN
 10
155.0383508673307
 20
239.9999999978976
 30
0.0000000000000000
 41
4.000000000000000
 42
4.000000000000000
 43
4.000000000000000
 50
90.00000000000000
  0
LINE
  5
182
100
AcDbEntity
  8
MAIN0
  6
BYBLOCK
 62
0
100
AcDbLine
 10
155.0383508673307
 20
251.9999999979054
 30
0.0000000000000000
 11
155.0383508673307
 21
253.9999999979054
 31
0.0000000000000000
  0
LINE
  5
183
100
AcDbEntity
  8
MAIN0
  6
BYBLOCK
 62
0
100
AcDbLine
 10
155.0383508673307
 20
235.9999999978976
 30
0.0000000000000000
 11
155.0383508673307
 21
229.3004162344300
 31
0.0000000000000000
  0
MTEXT
  5
184
100
AcDbEntity
  8
MAIN0
  6
BYBLOCK
 62
0
100
AcDbMText
 10
151.1883509626981
 20
231.3004162344300
 30
0.0000000000000000
 40
6.199999809265137
 41
0.0000000000000000
 71
     5
 72
     1
  1
\A1;8
 11
6.123233995736766e-017
 21
1.000000000000000
 31
0.0000000000000000
  7
STANDARD
  0
ENDBLK
  5
185
100
AcDbEntity
  8
MAIN0
  6
CONTINUOUS
 62
3
100
AcDbBlockEnd
  0
BLOCK
  5
189
100
AcDbEntity
  8
MAIN0
  6
CONTINUOUS
 62
3
100
AcDbBlockBegin
  2
*D15
 70
    65
 10
0.0
 20
0.0
 30
0.0
  0
LINE
  5
18A
100
AcDbEntity
  8
MAIN0
  6
BYBLOCK
 62
0
100
AcDbLine
 10
708.8731177490517
 20
390.3193617231062
 30
0.0000000000000000
 11
639.8945479293495
 21
369.6806382735186
 31
0.0000000000000000
  0
INSERT
  5
18B
100
AcDbEntity
  8
MAIN0
  6
BYBLOCK
 62
0
100
AcDbBlockReference
  2
_OPEN
 10
712.7052605168128
 20
391.4659574703056
 30
0.0000000000000000
 41
4.000000000000000
 42
4.000000000000000
 43
4.000000000000000
 50
16.65743870403560
  0
INSERT
  5
18C
100
AcDbEntity
  8
MAIN0
  6
BYBLOCK
 62
0
100
AcDbBlockReference
  2
_OPEN
 10
636.0624051615885
 20
368.5340425263193
 30
0.0000000000000000
 41
4.000000000000000
 42
4.000000000000000
 43
4.000000000000000
 50
196.6574387040356
  0
LINE
  5
18D
100
AcDbEntity
  8
MAIN0
  6
BYBLOCK
 62
0
100
AcDbLine
 10
636.0624051615885
 20
368.5340425263193
 30
0.0000000000000000
 11
542.8409320402431
 21
340.6417245449007
 31
0.0000000000000000
  0
MTEXT
  5
18E
100
AcDbEntity
  8
MAIN0
  6
BYBLOCK
 62
0
100
AcDbMText
 10
554.1680372000975
 20
348.3104394138061
 30
0.0000000000000000
 40
6.199999809265137
 41
0.0000000000000000
 71
     5
 72
     1
  1
\A1;\U+220580\H0.903226x;\U+00B10.2
 11
0.9580356919402999
 21
0.2866489367998261
 31
0.0000000000000000
  7
STANDARD
  0
ENDBLK
  5
18F
100
AcDbEntity
  8
MAIN0
  6
CONTINUOUS
 62
3
100
AcDbBlockEnd
  0
BLOCK
  5
19D
100
AcDbEntity
  8
MAIN0
  6
CONTINUOUS
 62
3
100
AcDbBlockBegin
  2
*D16
 70
    65
 10
0.0
 20
0.0
 30
0.0
  0
LINE
  5
19E
100
AcDbEntity
  8
MAIN0
  6
BYBLOCK
 62
0
100
AcDbLine
 10
713.7619113406802
 20
412.4093649030941
 30
0.0000000000000000
 11
635.0057543377207
 21
347.5906350935308
 31
0.0000000000000000
  0
INSERT
  5
19F
100
AcDbEntity
  8
MAIN0
  6
BYBLOCK
 62
0
100
AcDbBlockReference
  2
_OPEN
 10
716.8503880858943
 20
414.9512758760181
 30
0.0000000000000000
 41
4.000000000000000
 42
4.000000000000000
 43
4.000000000000000
 50
39.45542680150220
  0
INSERT
  5
1A0
100
AcDbEntity
  8
MAIN0
  6
BYBLOCK
 62
0
100
AcDbBlockReference
  2
_OPEN
 10
631.9172775925065
 20
345.0487241206067
 30
0.0000000000000000
 41
4.000000000000000
 42
4.000000000000000
 43
4.000000000000000
 50
219.4554268015022
  0
LINE
  5
1A1
100
AcDbEntity
  8
MAIN0
  6
BYBLOCK
 62
0
100
AcDbLine
 10
631.9172775925065
 20
345.0487241206067
 30
0.0000000000000000
 11
569.0494611600830
 21
293.3065853199876
 31
0.0000000000000000
  0
MTEXT
  5
1A2
100
AcDbEntity
  8
MAIN0
  6
BYBLOCK
 62
0
100
AcDbMText
 10
578.1416082886059
 20
306.0997618375670
 30
0.0000000000000000
 40
6.199999809265137
 41
0.0000000000000000
 71
     5
 72
     1
  1
\A1;\U+2205110\H0.903226x;\U+00B10.2
 11
0.7721191863035257
 21
0.6354777432310130
 31
0.0000000000000000
  7
STANDARD
  0
ENDBLK
  5
1A3
100
AcDbEntity
  8
MAIN0
  6
CONTINUOUS
 62
3
100
AcDbBlockEnd
  0
BLOCK
  5
1AB
100
AcDbEntity
  8
MAIN0
  6
CONTINUOUS
 62
3
100
AcDbBlockBegin
  2
*D17
 70
    65
 10
0.0
 20
0.0
 30
0.0
  0
LINE
  5
1AC
100
AcDbEntity
  8
MAIN0
  6
BYBLOCK
 62
0
100
AcDbLine
 10
358.3999999763677
 20
399.9999999996709
 30
0.0000000000000000
 11
341.0843840646318
 21
399.9999999996709
 31
0.0000000000000000
  0
LINE
  5
1AD
100
AcDbEntity
  8
MAIN0
  6
BYBLOCK
 62
0
100
AcDbLine
 10
345.0843840646318
 20
395.9999999996709
 30
0.0000000000000000
 11
345.0843840646318
 21
363.9999999996709
 31
0.0000000000000000
  0
INSERT
  5
1AE
100
AcDbEntity
  8
MAIN0
  6
BYBLOCK
 62
0
100
AcDbBlockReference
  2
_OPEN
 10
345.0843840646318
 20
399.9999999996709
 30
0.0000000000000000
 41
4.000000000000000
 42
4.000000000000000
 43
4.000000000000000
 50
90.00000000000000
  0
INSERT
  5
1AF
100
AcDbEntity
  8
MAIN0
  6
BYBLOCK
 62
0
100
AcDbBlockReference
  2
_OPEN
 10
345.0843840646318
 20
359.9999999996709
 30
0.0000000000000000
 41
4.000000000000000
 42
4.000000000000000
 43
4.000000000000000
 50
270.0000000000000
  0
LINE
  5
1B0
100
AcDbEntity
  8
MAIN0
  6
BYBLOCK
 62
0
100
AcDbLine
 10
358.3999999762513
 20
359.9999999996709
 30
0.0000000000000000
 11
341.0843840646318
 21
359.9999999996709
 31
0.0000000000000000
  0
MTEXT
  5
1B1
100
AcDbEntity
  8
MAIN0
  6
BYBLOCK
 62
0
100
AcDbMText
 10
341.4843841599992
 20
380.0000000238853
 30
0.0000000000000000
 40
6.199999809265137
 41
0.0000000000000000
 71
     5
 72
     1
  1
\A1;\U+220540H8
 11
6.123233995736766e-017
 21
1.000000000000000
 31
0.0000000000000000
  7
STANDARD
  0
ENDBLK
  5
1B2
100
AcDbEntity
  8
MAIN0
  6
CONTINUOUS
 62
3
100
AcDbBlockEnd
  0
BLOCK
  5
1B4
100
AcDbEntity
  8
MAIN0
  6
CONTINUOUS
 62
3
100
AcDbBlockBegin
  2
*D18
 70
    65
 10
0.0
 20
0.0
 30
0.0
  0
LINE
  5
1B5
100
AcDbEntity
  8
MAIN0
  6
BYBLOCK
 62
0
100
AcDbLine
 10
357.9999999783163
 20
410.0000000008743
 30
0.0000000000000000
 11
328.0206759045897
 21
410.0000000008743
 31
0.0000000000000000
  0
LINE
  5
1B6
100
AcDbEntity
  8
MAIN0
  6
BYBLOCK
 62
0
100
AcDbLine
 10
332.0206759045897
 20
406.0000000008743
 30
0.0000000000000000
 11
332.0206759045897
 21
353.9999999988565
 31
0.0000000000000000
  0
INSERT
  5
1B7
100
AcDbEntity
  8
MAIN0
  6
BYBLOCK
 62
0
100
AcDbBlockReference
  2
_OPEN
 10
332.0206759045897
 20
410.0000000008743
 30
0.0000000000000000
 41
4.000000000000000
 42
4.000000000000000
 43
4.000000000000000
 50
90.00000000000000
  0
INSERT
  5
1B8
100
AcDbEntity
  8
MAIN0
  6
BYBLOCK
 62
0
100
AcDbBlockReference
  2
_OPEN
 10
332.0206759045897
 20
349.9999999988565
 30
0.0000000000000000
 41
4.000000000000000
 42
4.000000000000000
 43
4.000000000000000
 50
270.0000000000000
  0
LINE
  5
1B9
100
AcDbEntity
  8
MAIN0
  6
BYBLOCK
 62
0
100
AcDbLine
 10
357.9999999776608
 20
349.9999999988565
 30
0.0000000000000000
 11
328.0206759045897
 21
349.9999999988565
 31
0.0000000000000000
  0
MTEXT
  5
1BA
100
AcDbEntity
  8
MAIN0
  6
BYBLOCK
 62
0
100
AcDbMText
 10
328.4206759999571
 20
379.9999999998654
 30
0.0000000000000000
 40
6.199999809265137
 41
0.0000000000000000
 71
     5
 72
     1
  1
\A1;\U+220560
 11
6.123233995736766e-017
 21
1.000000000000000
 31
0.0000000000000000
  7
STANDARD
  0
ENDBLK
  5
1BB
100
AcDbEntity
  8
MAIN0
  6
CONTINUOUS
 62
3
100
AcDbBlockEnd
  0
BLOCK
  5
1BD
100
AcDbEntity
  8
MAIN0
  6
CONTINUOUS
 62
3
100
AcDbBlockBegin
  2
*D19
 70
    65
 10
0.0
 20
0.0
 30
0.0
  0
LINE
  5
1BE
100
AcDbEntity
  8
MAIN0
  6
BYBLOCK
 62
0
100
AcDbLine
 10
358.7999999761377
 20
485.0000000011598
 30
0.0000000000000000
 11
316.5837169154649
 21
485.0000000011598
 31
0.0000000000000000
  0
LINE
  5
1BF
100
AcDbEntity
  8
MAIN0
  6
BYBLOCK
 62
0
100
AcDbLine
 10
320.5837169154649
 20
481.0000000011598
 30
0.0000000000000000
 11
320.5837169154649
 21
278.9999999988176
 31
0.0000000000000000
  0
INSERT
  5
1C0
100
AcDbEntity
  8
MAIN0
  6
BYBLOCK
 62
0
100
AcDbBlockReference
  2
_OPEN
 10
320.5837169154649
 20
485.0000000011598
 30
0.0000000000000000
 41
4.000000000000000
 42
4.000000000000000
 43
4.000000000000000
 50
90.00000000000000
  0
INSERT
  5
1C1
100
AcDbEntity
  8
MAIN0
  6
BYBLOCK
 62
0
100
AcDbBlockReference
  2
_OPEN
 10
320.5837169154649
 20
274.9999999988176
 30
0.0000000000000000
 41
4.000000000000000
 42
4.000000000000000
 43
4.000000000000000
 50
270.0000000000000
  0
LINE
  5
1C2
100
AcDbEntity
  8
MAIN0
  6
BYBLOCK
 62
0
100
AcDbLine
 10
358.7999999753012
 20
274.9999999988176
 30
0.0000000000000000
 11
316.5837169154649
 21
274.9999999988176
 31
0.0000000000000000
  0
MTEXT
  5
1C3
100
AcDbEntity
  8
MAIN0
  6
BYBLOCK
 62
0
100
AcDbMText
 10
316.9837170108323
 20
379.9999999999888
 30
0.0000000000000000
 40
6.199999809265137
 41
0.0000000000000000
 71
     5
 72
     1
  1
\A1;\U+2205210
 11
6.123233995736766e-017
 21
1.000000000000000
 31
0.0000000000000000
  7
STANDARD
  0
ENDBLK
  5
1C4
100
AcDbEntity
  8
MAIN0
  6
CONTINUOUS
 62
3
100
AcDbBlockEnd
  0
BLOCK
  5
1C6
100
AcDbEntity
  8
MAIN0
  6
CONTINUOUS
 62
3
100
AcDbBlockBegin
  2
*D20
 70
    65
 10
0.0
 20
0.0
 30
0.0
  0
LINE
  5
1C7
100
AcDbEntity
  8
MAIN0
  6
BYBLOCK
 62
0
100
AcDbLine
 10
357.9999999999999
 20
388.7358974254581
 30
0.0000000000000000
 11
367.9999999999999
 21
388.7358974254581
 31
0.0000000000000000
  0
INSERT
  5
1C8
100
AcDbEntity
  8
MAIN0
  6
BYBLOCK
 62
0
100
AcDbBlockReference
  2
_OPEN
 10
357.9999999999999
 20
388.7358974254581
 30
0.0000000000000000
 41
4.000000000000000
 42
4.000000000000000
 43
4.000000000000000
 50
0.0000000000000000
  0
INSERT
  5
1C9
100
AcDbEntity
  8
MAIN0
  6
BYBLOCK
 62
0
100
AcDbBlockReference
  2
_OPEN
 10
367.9999999999999
 20
388.7358974254581
 30
0.0000000000000000
 41
4.000000000000000
 42
4.000000000000000
 43
4.000000000000000
 50
180.0000000000000
  0
LINE
  5
1CA
100
AcDbEntity
  8
MAIN0
  6
BYBLOCK
 62
0
100
AcDbLine
 10
353.9999999999999
 20
388.7358974254581
 30
0.0000000000000000
 11
351.9999999999999
 21
388.7358974254581
 31
0.0000000000000000
  0
LINE
  5
1CB
100
AcDbEntity
  8
MAIN0
  6
BYBLOCK
 62
0
100
AcDbLine
 10
371.9999999999999
 20
388.7358974254581
 30
0.0000000000000000
 11
383.8965268435392
 21
388.7358974254581
 31
0.0000000000000000
  0
MTEXT
  5
1CC
100
AcDbEntity
  8
MAIN0
  6
BYBLOCK
 62
0
100
AcDbMText
 10
379.7965269389066
 20
392.8358973300907
 30
0.0000000000000000
 40
6.199999809265137
 41
0.0000000000000000
 71
     5
 72
     1
  1
\A1;10
 11
1.000000000000000
 21
0.0000000000000000
 31
0.0000000000000000
  7
STANDARD
  0
ENDBLK
  5
1CD
100
AcDbEntity
  8
MAIN0
  6
CONTINUOUS
 62
3
100
AcDbBlockEnd
  0
BLOCK
  5
1CF
100
AcDbEntity
  8
MAIN0
  6
CONTINUOUS
 62
3
100
AcDbBlockBegin
  2
*D21
 70
    65
 10
0.0
 20
0.0
 30
0.0
  0
LINE
  5
1D0
100
AcDbEntity
  8
MAIN0
  6
BYBLOCK
 62
0
100
AcDbLine
 10
402.5646999688170
 20
395.9999999995724
 30
0.0000000000000000
 11
402.5646999688170
 21
363.9999999995725
 31
0.0000000000000000
  0
INSERT
  5
1D1
100
AcDbEntity
  8
MAIN0
  6
BYBLOCK
 62
0
100
AcDbBlockReference
  2
_OPEN
 10
402.5646999688170
 20
399.9999999995724
 30
0.0000000000000000
 41
4.000000000000000
 42
4.000000000000000
 43
4.000000000000000
 50
90.00000000000000
  0
INSERT
  5
1D2
100
AcDbEntity
  8
MAIN0
  6
BYBLOCK
 62
0
100
AcDbBlockReference
  2
_OPEN
 10
402.5646999688170
 20
359.9999999995725
 30
0.0000000000000000
 41
4.000000000000000
 42
4.000000000000000
 43
4.000000000000000
 50
270.0000000000000
  0
MTEXT
  5
1D3
100
AcDbEntity
  8
MAIN0
  6
BYBLOCK
 62
0
100
AcDbMText
 10
398.9647000641844
 20
380.0000000051604
 30
0.0000000000000000
 40
6.199999809265137
 41
0.0000000000000000
 71
     5
 72
     1
  1
\A1;\U+220540\H0.903226x;\S+0.3^ +0.1;
 11
6.123233995736766e-017
 21
1.000000000000000
 31
0.0000000000000000
  7
STANDARD
  0
ENDBLK
  5
1D4
100
AcDbEntity
  8
MAIN0
  6
CONTINUOUS
 62
3
100
AcDbBlockEnd
  0
BLOCK
  5
1D6
100
AcDbEntity
  8
MAIN0
  6
CONTINUOUS
 62
3
100
AcDbBlockBegin
  2
*D22
 70
    65
 10
0.0
 20
0.0
 30
0.0
  0
LINE
  5
1D7
100
AcDbEntity
  8
MAIN0
  6
BYBLOCK
 62
0
100
AcDbLine
 10
455.5000000229475
 20
404.9999999996761
 30
0.0000000000000000
 11
472.8310586861979
 21
404.9999999996761
 31
0.0000000000000000
  0
LINE
  5
1D8
100
AcDbEntity
  8
MAIN0
  6
BYBLOCK
 62
0
100
AcDbLine
 10
468.8310586861979
 20
400.9999999996761
 30
0.0000000000000000
 11
468.8310586861979
 21
358.9999999996761
 31
0.0000000000000000
  0
INSERT
  5
1D9
100
AcDbEntity
  8
MAIN0
  6
BYBLOCK
 62
0
100
AcDbBlockReference
  2
_OPEN
 10
468.8310586861979
 20
404.9999999996761
 30
0.0000000000000000
 41
4.000000000000000
 42
4.000000000000000
 43
4.000000000000000
 50
90.00000000000000
  0
INSERT
  5
1DA
100
AcDbEntity
  8
MAIN0
  6
BYBLOCK
 62
0
100
AcDbBlockReference
  2
_OPEN
 10
468.8310586861979
 20
354.9999999996761
 30
0.0000000000000000
 41
4.000000000000000
 42
4.000000000000000
 43
4.000000000000000
 50
270.0000000000000
  0
LINE
  5
1DB
100
AcDbEntity
  8
MAIN0
  6
BYBLOCK
 62
0
100
AcDbLine
 10
455.5000000227481
 20
354.9999999996761
 30
0.0000000000000000
 11
472.8310586861979
 21
354.9999999996761
 31
0.0000000000000000
  0
MTEXT
  5
1DC
100
AcDbEntity
  8
MAIN0
  6
BYBLOCK
 62
0
100
AcDbMText
 10
465.2310587815654
 20
380.0000000238905
 30
0.0000000000000000
 40
6.199999809265137
 41
0.0000000000000000
 71
     5
 72
     1
  1
\A1;\U+220550H7
 11
6.123233995736766e-017
 21
1.000000000000000
 31
0.0000000000000000
  7
STANDARD
  0
ENDBLK
  5
1DD
100
AcDbEntity
  8
MAIN0
  6
CONTINUOUS
 62
3
100
AcDbBlockEnd
  0
BLOCK
  5
1DF
100
AcDbEntity
  8
MAIN0
  6
CONTINUOUS
 62
3
100
AcDbBlockBegin
  2
*D23
 70
    65
 10
0.0
 20
0.0
 30
0.0
  0
LINE
  5
1E0
100
AcDbEntity
  8
MAIN0
  6
BYBLOCK
 62
0
100
AcDbLine
 10
450.4999999990626
 20
337.2275664434553
 30
0.0000000000000000
 11
439.4999999999546
 21
337.2275664434553
 31
0.0000000000000000
  0
INSERT
  5
1E1
100
AcDbEntity
  8
MAIN0
  6
BYBLOCK
 62
0
100
AcDbBlockReference
  2
_OPEN
 10
454.4999999990626
 20
337.2275664434553
 30
0.0000000000000000
 41
4.000000000000000
 42
4.000000000000000
 43
4.000000000000000
 50
360.0000000000000
  0
INSERT
  5
1E2
100
AcDbEntity
  8
MAIN0
  6
BYBLOCK
 62
0
100
AcDbBlockReference
  2
_OPEN
 10
435.4999999999546
 20
337.2275664434553
 30
0.0000000000000000
 41
4.000000000000000
 42
4.000000000000000
 43
4.000000000000000
 50
180.0000000000000
  0
LINE
  5
1E3
100
AcDbEntity
  8
MAIN0
  6
BYBLOCK
 62
0
100
AcDbLine
 10
435.4999999999546
 20
354.3237604065168
 30
0.0000000000000000
 11
435.4999999999546
 21
333.2275664434553
 31
0.0000000000000000
  0
MTEXT
  5
1E4
100
AcDbEntity
  8
MAIN0
  6
BYBLOCK
 62
0
100
AcDbMText
 10
448.1054901154724
 20
341.3275663480879
 30
0.0000000000000000
 40
6.199999809265137
 41
0.0000000000000000
 71
     5
 72
     1
  1
\A1;19
 11
1.000000000000000
 21
0.0000000000000000
 31
0.0000000000000000
  7
STANDARD
  0
ENDBLK
  5
1E5
100
AcDbEntity
  8
MAIN0
  6
CONTINUOUS
 62
3
100
AcDbBlockEnd
  0
BLOCK
  5
1E7
100
AcDbEntity
  8
MAIN0
  6
CONTINUOUS
 62
3
100
AcDbBlockBegin
  2
*D24
 70
    65
 10
0.0
 20
0.0
 30
0.0
  0
LINE
  5
1E8
100
AcDbEntity
  8
MAIN0
  6
BYBLOCK
 62
0
100
AcDbLine
 10
447.9999999995117
 20
238.7999999758137
 30
0.0000000000000000
 11
447.9999999995117
 21
195.9477338850467
 31
0.0000000000000000
  0
LINE
  5
1E9
100
AcDbEntity
  8
MAIN0
  6
BYBLOCK
 62
0
100
AcDbLine
 10
447.9999999995117
 20
199.9477338850467
 30
0.0000000000000000
 11
447.4999999995117
 21
199.9477338850467
 31
0.0000000000000000
  0
INSERT
  5
1EA
100
AcDbEntity
  8
MAIN0
  6
BYBLOCK
 62
0
100
AcDbBlockReference
  2
_OPEN
 10
447.9999999995117
 20
199.9477338850467
 30
0.0000000000000000
 41
4.000000000000000
 42
4.000000000000000
 43
4.000000000000000
 50
180.0000000000000
  0
INSERT
  5
1EB
100
AcDbEntity
  8
MAIN0
  6
BYBLOCK
 62
0
100
AcDbBlockReference
  2
_OPEN
 10
447.4999999995117
 20
199.9477338850467
 30
0.0000000000000000
 41
4.000000000000000
 42
4.000000000000000
 43
4.000000000000000
 50
360.0000000000000
  0
LINE
  5
1EC
100
AcDbEntity
  8
MAIN0
  6
BYBLOCK
 62
0
100
AcDbLine
 10
451.9999999995117
 20
199.9477338850467
 30
0.0000000000000000
 11
468.8088680622396
 21
199.9477338850467
 31
0.0000000000000000
  0
LINE
  5
1ED
100
AcDbEntity
  8
MAIN0
  6
BYBLOCK
 62
0
100
AcDbLine
 10
443.4999999995117
 20
199.9477338850467
 30
0.0000000000000000
 11
441.4999999995117
 21
199.9477338850467
 31
0.0000000000000000
  0
LINE
  5
1EE
100
AcDbEntity
  8
MAIN0
  6
BYBLOCK
 62
0
100
AcDbLine
 10
447.4999999995117
 20
233.3999999758136
 30
0.0000000000000000
 11
447.4999999995117
 21
195.9477338850467
 31
0.0000000000000000
  0
MTEXT
  5
1EF
100
AcDbEntity
  8
MAIN0
  6
BYBLOCK
 62
0
100
AcDbMText
 10
463.6088682529745
 20
204.0477337896792
 30
0.0000000000000000
 40
6.199999809265137
 41
0.0000000000000000
 71
     5
 72
     1
  1
\A1;0.5
 11
1.000000000000000
 21
0.0000000000000000
 31
0.0000000000000000
  7
STANDARD
  0
ENDBLK
  5
1F0
100
AcDbEntity
  8
MAIN0
  6
CONTINUOUS
 62
3
100
AcDbBlockEnd
  0
BLOCK
  5
1F2
100
AcDbEntity
  8
MAIN0
  6
CONTINUOUS
 62
3
100
AcDbBlockBegin
  2
*D25
 70
    65
 10
0.0
 20
0.0
 30
0.0
  0
LINE
  5
1F3
100
AcDbEntity
  8
MAIN0
  6
BYBLOCK
 62
0
100
AcDbLine
 10
447.4999999995117
 20
233.3999999758136
 30
0.0000000000000000
 11
447.4999999995117
 21
195.9477338850467
 31
0.0000000000000000
  0
LINE
  5
1F4
100
AcDbEntity
  8
MAIN0
  6
BYBLOCK
 62
0
100
AcDbLine
 10
443.4999999995117
 20
199.9477338850467
 30
0.0000000000000000
 11
426.4999999995117
 21
199.9477338850467
 31
0.0000000000000000
  0
INSERT
  5
1F5
100
AcDbEntity
  8
MAIN0
  6
BYBLOCK
 62
0
100
AcDbBlockReference
  2
_OPEN
 10
447.4999999995117
 20
199.9477338850467
 30
0.0000000000000000
 41
4.000000000000000
 42
4.000000000000000
 43
4.000000000000000
 50
360.0000000000000
  0
INSERT
  5
1F6
100
AcDbEntity
  8
MAIN0
  6
BYBLOCK
 62
0
100
AcDbBlockReference
  2
_OPEN
 10
422.4999999995117
 20
199.9477338850467
 30
0.0000000000000000
 41
4.000000000000000
 42
4.000000000000000
 43
4.000000000000000
 50
180.0000000000000
  0
LINE
  5
1F7
100
AcDbEntity
  8
MAIN0
  6
BYBLOCK
 62
0
100
AcDbLine
 10
422.4999999995117
 20
233.3999999758136
 30
0.0000000000000000
 11
422.4999999995117
 21
195.9477338850467
 31
0.0000000000000000
  0
MTEXT
  5
1F8
100
AcDbEntity
  8
MAIN0
  6
BYBLOCK
 62
0
100
AcDbMText
 10
438.9906366033124
 20
204.0477337896792
 30
0.0000000000000000
 40
6.199999809265137
 41
0.0000000000000000
 71
     5
 72
     1
  1
\A1;25
 11
1.000000000000000
 21
0.0000000000000000
 31
0.0000000000000000
  7
STANDARD
  0
ENDBLK
  5
1F9
100
AcDbEntity
  8
MAIN0
  6
CONTINUOUS
 62
3
100
AcDbBlockEnd
  0
BLOCK
  5
1FB
100
AcDbEntity
  8
MAIN0
  6
CONTINUOUS
 62
3
100
AcDbBlockBegin
  2
*D26
 70
    65
 10
0.0
 20
0.0
 30
0.0
  0
LINE
  5
1FC
100
AcDbEntity
  8
MAIN0
  6
BYBLOCK
 62
0
100
AcDbLine
 10
403.4999999995117
 20
233.3999999758136
 30
0.0000000000000000
 11
403.4999999995117
 21
195.9477338850467
 31
0.0000000000000000
  0
LINE
  5
1FD
100
AcDbEntity
  8
MAIN0
  6
BYBLOCK
 62
0
100
AcDbLine
 10
399.4999999995117
 20
199.9477338850467
 30
0.0000000000000000
 11
382.4999999995117
 21
199.9477338850467
 31
0.0000000000000000
  0
INSERT
  5
1FE
100
AcDbEntity
  8
MAIN0
  6
BYBLOCK
 62
0
100
AcDbBlockReference
  2
_OPEN
 10
403.4999999995117
 20
199.9477338850467
 30
0.0000000000000000
 41
4.000000000000000
 42
4.000000000000000
 43
4.000000000000000
 50
360.0000000000000
  0
INSERT
  5
1FF
100
AcDbEntity
  8
MAIN0
  6
BYBLOCK
 62
0
100
AcDbBlockReference
  2
_OPEN
 10
378.4999999995117
 20
199.9477338850467
 30
0.0000000000000000
 41
4.000000000000000
 42
4.000000000000000
 43
4.000000000000000
 50
180.0000000000000
  0
LINE
  5
200
100
AcDbEntity
  8
MAIN0
  6
BYBLOCK
 62
0
100
AcDbLine
 10
378.4999999995117
 20
233.3999999758136
 30
0.0000000000000000
 11
378.4999999995117
 21
195.9477338850467
 31
0.0000000000000000
  0
MTEXT
  5
201
100
AcDbEntity
  8
MAIN0
  6
BYBLOCK
 62
0
100
AcDbMText
 10
386.7908963312104
 20
204.0477337896792
 30
0.0000000000000000
 40
6.199999809265137
 41
0.0000000000000000
 71
     5
 72
     1
  1
\A1;25
 11
1.000000000000000
 21
0.0000000000000000
 31
0.0000000000000000
  7
STANDARD
  0
ENDBLK
  5
202
100
AcDbEntity
  8
MAIN0
  6
CONTINUOUS
 62
3
100
AcDbBlockEnd
  0
BLOCK
  5
204
100
AcDbEntity
  8
MAIN0
  6
CONTINUOUS
 62
3
100
AcDbBlockBegin
  2
*D27
 70
    65
 10
0.0
 20
0.0
 30
0.0
  0
LINE
  5
205
100
AcDbEntity
  8
MAIN0
  6
BYBLOCK
 62
0
100
AcDbLine
 10
378.4999999995117
 20
233.3999999758136
 30
0.0000000000000000
 11
378.4999999995117
 21
195.9477338850467
 31
0.0000000000000000
  0
LINE
  5
206
100
AcDbEntity
  8
MAIN0
  6
BYBLOCK
 62
0
100
AcDbLine
 10
378.4999999995117
 20
199.9477338850467
 30
0.0000000000000000
 11
377.9999999995117
 21
199.9477338850467
 31
0.0000000000000000
  0
INSERT
  5
207
100
AcDbEntity
  8
MAIN0
  6
BYBLOCK
 62
0
100
AcDbBlockReference
  2
_OPEN
 10
378.4999999995117
 20
199.9477338850467
 30
0.0000000000000000
 41
4.000000000000000
 42
4.000000000000000
 43
4.000000000000000
 50
180.0000000000000
  0
INSERT
  5
208
100
AcDbEntity
  8
MAIN0
  6
BYBLOCK
 62
0
100
AcDbBlockReference
  2
_OPEN
 10
377.9999999995117
 20
199.9477338850467
 30
0.0000000000000000
 41
4.000000000000000
 42
4.000000000000000
 43
4.000000000000000
 50
360.0000000000000
  0
LINE
  5
209
100
AcDbEntity
  8
MAIN0
  6
BYBLOCK
 62
0
100
AcDbLine
 10
382.4999999995117
 20
199.9477338850467
 30
0.0000000000000000
 11
384.4999999995117
 21
199.9477338850467
 31
0.0000000000000000
  0
LINE
  5
20A
100
AcDbEntity
  8
MAIN0
  6
BYBLOCK
 62
0
100
AcDbLine
 10
373.9999999995117
 20
199.9477338850467
 30
0.0000000000000000
 11
363.8645781968382
 21
199.9477338850467
 31
0.0000000000000000
  0
LINE
  5
20B
100
AcDbEntity
  8
MAIN0
  6
BYBLOCK
 62
0
100
AcDbLine
 10
377.9999999995117
 20
238.7999999758135
 30
0.0000000000000000
 11
377.9999999995117
 21
195.9477338850467
 31
0.0000000000000000
  0
MTEXT
  5
20C
100
AcDbEntity
  8
MAIN0
  6
BYBLOCK
 62
0
100
AcDbMText
 10
369.0645780061034
 20
204.0477337896792
 30
0.0000000000000000
 40
6.199999809265137
 41
0.0000000000000000
 71
     5
 72
     1
  1
\A1;0.5
 11
1.000000000000000
 21
0.0000000000000000
 31
0.0000000000000000
  7
STANDARD
  0
ENDBLK
  5
20D
100
AcDbEntity
  8
MAIN0
  6
CONTINUOUS
 62
3
100
AcDbBlockEnd
  0
BLOCK
  5
211
100
AcDbEntity
  8
MAIN0
  6
CONTINUOUS
 62
3
100
AcDbBlockBegin
  2
*D28
 70
    65
 10
0.0
 20
0.0
 30
0.0
  0
LINE
  5
212
100
AcDbEntity
  8
MAIN0
  6
BYBLOCK
 62
0
100
AcDbLine
 10
447.9999999995117
 20
238.7999999758137
 30
0.0000000000000000
 11
447.9999999995117
 21
176.7256252661813
 31
0.0000000000000000
  0
LINE
  5
213
100
AcDbEntity
  8
MAIN0
  6
BYBLOCK
 62
0
100
AcDbLine
 10
443.9999999995117
 20
180.7256252661813
 30
0.0000000000000000
 11
436.9999999995118
 21
180.7256252661813
 31
0.0000000000000000
  0
INSERT
  5
214
100
AcDbEntity
  8
MAIN0
  6
BYBLOCK
 62
0
100
AcDbBlockReference
  2
_OPEN
 10
447.9999999995117
 20
180.7256252661813
 30
0.0000000000000000
 41
4.000000000000000
 42
4.000000000000000
 43
4.000000000000000
 50
360.0000000000000
  0
INSERT
  5
215
100
AcDbEntity
  8
MAIN0
  6
BYBLOCK
 62
0
100
AcDbBlockReference
  2
_OPEN
 10
432.9999999995118
 20
180.7256252661813
 30
0.0000000000000000
 41
4.000000000000000
 42
4.000000000000000
 43
4.000000000000000
 50
180.0000000000000
  0
LINE
  5
216
100
AcDbEntity
  8
MAIN0
  6
BYBLOCK
 62
0
100
AcDbLine
 10
432.9999999995117
 20
208.6820940797387
 30
0.0000000000000000
 11
432.9999999995117
 21
176.7256252661814
 31
0.0000000000000000
  0
MTEXT
  5
217
100
AcDbEntity
  8
MAIN0
  6
BYBLOCK
 62
0
100
AcDbMText
 10
440.4999999995117
 20
184.3256251708139
 30
0.0000000000000000
 40
6.199999809265137
 41
0.0000000000000000
 71
     5
 72
     1
  1
\A1;15
 11
1.000000000000000
 21
0.0000000000000000
 31
0.0000000000000000
  7
STANDARD
  0
ENDBLK
  5
218
100
AcDbEntity
  8
MAIN0
  6
CONTINUOUS
 62
3
100
AcDbBlockEnd
  0
BLOCK
  5
21A
100
AcDbEntity
  8
MAIN0
  6
CONTINUOUS
 62
3
100
AcDbBlockBegin
  2
*D29
 70
    65
 10
0.0
 20
0.0
 30
0.0
  0
LINE
  5
21B
100
AcDbEntity
  8
MAIN0
  6
BYBLOCK
 62
0
100
AcDbLine
 10
432.9999999995117
 20
208.6820940797387
 30
0.0000000000000000
 11
432.9999999995117
 21
176.7256252661814
 31
0.0000000000000000
  0
LINE
  5
21C
100
AcDbEntity
  8
MAIN0
  6
BYBLOCK
 62
0
100
AcDbLine
 10
428.9999999995118
 20
180.7256252661813
 30
0.0000000000000000
 11
396.9999999995117
 21
180.7256252661813
 31
0.0000000000000000
  0
INSERT
  5
21D
100
AcDbEntity
  8
MAIN0
  6
BYBLOCK
 62
0
100
AcDbBlockReference
  2
_OPEN
 10
432.9999999995118
 20
180.7256252661813
 30
0.0000000000000000
 41
4.000000000000000
 42
4.000000000000000
 43
4.000000000000000
 50
360.0000000000000
  0
INSERT
  5
21E
100
AcDbEntity
  8
MAIN0
  6
BYBLOCK
 62
0
100
AcDbBlockReference
  2
_OPEN
 10
392.9999999995117
 20
180.7256252661813
 30
0.0000000000000000
 41
4.000000000000000
 42
4.000000000000000
 43
4.000000000000000
 50
180.0000000000000
  0
LINE
  5
21F
100
AcDbEntity
  8
MAIN0
  6
BYBLOCK
 62
0
100
AcDbLine
 10
392.9999999995117
 20
210.9786242242629
 30
0.0000000000000000
 11
392.9999999995117
 21
176.7256252661813
 31
0.0000000000000000
  0
MTEXT
  5
220
100
AcDbEntity
  8
MAIN0
  6
BYBLOCK
 62
0
100
AcDbMText
 10
412.9999999808853
 20
184.3256251708139
 30
0.0000000000000000
 40
6.199999809265137
 41
0.0000000000000000
 71
     5
 72
     1
  1
\A1;40\H0.903226x;\U+00B10.2
 11
1.000000000000000
 21
0.0000000000000000
 31
0.0000000000000000
  7
STANDARD
  0
ENDBLK
  5
221
100
AcDbEntity
  8
MAIN0
  6
CONTINUOUS
 62
3
100
AcDbBlockEnd
  0
BLOCK
  5
223
100
AcDbEntity
  8
MAIN0
  6
CONTINUOUS
 62
3
100
AcDbBlockBegin
  2
*D30
 70
    65
 10
0.0
 20
0.0
 30
0.0
  0
LINE
  5
224
100
AcDbEntity
  8
MAIN0
  6
BYBLOCK
 62
0
100
AcDbLine
 10
392.9999999995117
 20
210.9786242242629
 30
0.0000000000000000
 11
392.9999999995117
 21
176.7256252661813
 31
0.0000000000000000
  0
LINE
  5
225
100
AcDbEntity
  8
MAIN0
  6
BYBLOCK
 62
0
100
AcDbLine
 10
388.9999999995117
 20
180.7256252661813
 30
0.0000000000000000
 11
381.9999999995117
 21
180.7256252661813
 31
0.0000000000000000
  0
INSERT
  5
226
100
AcDbEntity
  8
MAIN0
  6
BYBLOCK
 62
0
100
AcDbBlockReference
  2
_OPEN
 10
392.9999999995117
 20
180.7256252661813
 30
0.0000000000000000
 41
4.000000000000000
 42
4.000000000000000
 43
4.000000000000000
 50
360.0000000000000
  0
INSERT
  5
227
100
AcDbEntity
  8
MAIN0
  6
BYBLOCK
 62
0
100
AcDbBlockReference
  2
_OPEN
 10
377.9999999995117
 20
180.7256252661813
 30
0.0000000000000000
 41
4.000000000000000
 42
4.000000000000000
 43
4.000000000000000
 50
180.0000000000000
  0
LINE
  5
228
100
AcDbEntity
  8
MAIN0
  6
BYBLOCK
 62
0
100
AcDbLine
 10
377.9999999995117
 20
238.7999999758135
 30
0.0000000000000000
 11
377.9999999995117
 21
176.7256252661813
 31
0.0000000000000000
  0
MTEXT
  5
229
100
AcDbEntity
  8
MAIN0
  6
BYBLOCK
 62
0
100
AcDbMText
 10
385.4999999995117
 20
184.3256251708139
 30
0.0000000000000000
 40
6.199999809265137
 41
0.0000000000000000
 71
     5
 72
     1
  1
\A1;15
 11
1.000000000000000
 21
0.0000000000000000
 31
0.0000000000000000
  7
STANDARD
  0
ENDBLK
  5
22A
100
AcDbEntity
  8
MAIN0
  6
CONTINUOUS
 62
3
100
AcDbBlockEnd
  0
BLOCK
  5
22C
100
AcDbEntity
  8
MAIN0
  6
CONTINUOUS
 62
3
100
AcDbBlockBegin
  2
*D31
 70
    65
 10
0.0
 20
0.0
 30
0.0
  0
LINE
  5
22D
100
AcDbEntity
  8
MAIN0
  6
BYBLOCK
 62
0
100
AcDbLine
 10
454.4999999985483
 20
313.8999999757681
 30
0.0000000000000000
 11
454.4999999985483
 21
159.9775653100289
 31
0.0000000000000000
  0
LINE
  5
22E
100
AcDbEntity
  8
MAIN0
  6
BYBLOCK
 62
0
100
AcDbLine
 10
454.4999999985483
 20
163.9775653100289
 30
0.0000000000000000
 11
447.9999999995117
 21
163.9775653100289
 31
0.0000000000000000
  0
INSERT
  5
22F
100
AcDbEntity
  8
MAIN0
  6
BYBLOCK
 62
0
100
AcDbBlockReference
  2
_OPEN
 10
454.4999999985483
 20
163.9775653100289
 30
0.0000000000000000
 41
4.000000000000000
 42
4.000000000000000
 43
4.000000000000000
 50
180.0000000000000
  0
INSERT
  5
230
100
AcDbEntity
  8
MAIN0
  6
BYBLOCK
 62
0
100
AcDbBlockReference
  2
_OPEN
 10
447.9999999995117
 20
163.9775653100289
 30
0.0000000000000000
 41
4.000000000000000
 42
4.000000000000000
 43
4.000000000000000
 50
360.0000000000000
  0
LINE
  5
231
100
AcDbEntity
  8
MAIN0
  6
BYBLOCK
 62
0
100
AcDbLine
 10
458.4999999985483
 20
163.9775653100289
 30
0.0000000000000000
 11
470.5724740198511
 21
163.9775653100289
 31
0.0000000000000000
  0
LINE
  5
232
100
AcDbEntity
  8
MAIN0
  6
BYBLOCK
 62
0
100
AcDbLine
 10
443.9999999995117
 20
163.9775653100289
 30
0.0000000000000000
 11
441.9999999995117
 21
163.9775653100289
 31
0.0000000000000000
  0
LINE
  5
233
100
AcDbEntity
  8
MAIN0
  6
BYBLOCK
 62
0
100
AcDbLine
 10
447.9999999995117
 20
238.7999999758137
 30
0.0000000000000000
 11
447.9999999995117
 21
159.9775653100289
 31
0.0000000000000000
  0
MTEXT
  5
234
100
AcDbEntity
  8
MAIN0
  6
BYBLOCK
 62
0
100
AcDbMText
 10
465.3724742105860
 20
168.0775652146614
 30
0.0000000000000000
 40
6.199999809265137
 41
0.0000000000000000
 71
     5
 72
     1
  1
\A1;6.5
 11
1.000000000000000
 21
0.0000000000000000
 31
0.0000000000000000
  7
STANDARD
  0
ENDBLK
  5
235
100
AcDbEntity
  8
MAIN0
  6
CONTINUOUS
 62
3
100
AcDbBlockEnd
  0
BLOCK
  5
237
100
AcDbEntity
  8
MAIN0
  6
CONTINUOUS
 62
3
100
AcDbBlockBegin
  2
*D32
 70
    65
 10
0.0
 20
0.0
 30
0.0
  0
LINE
  5
238
100
AcDbEntity
  8
MAIN0
  6
BYBLOCK
 62
0
100
AcDbLine
 10
447.9999999995117
 20
238.7999999758137
 30
0.0000000000000000
 11
447.9999999995117
 21
159.9775653100289
 31
0.0000000000000000
  0
LINE
  5
239
100
AcDbEntity
  8
MAIN0
  6
BYBLOCK
 62
0
100
AcDbLine
 10
443.9999999995117
 20
163.9775653100289
 30
0.0000000000000000
 11
381.9999999995117
 21
163.9775653100289
 31
0.0000000000000000
  0
INSERT
  5
23A
100
AcDbEntity
  8
MAIN0
  6
BYBLOCK
 62
0
100
AcDbBlockReference
  2
_OPEN
 10
447.9999999995117
 20
163.9775653100289
 30
0.0000000000000000
 41
4.000000000000000
 42
4.000000000000000
 43
4.000000000000000
 50
360.0000000000000
  0
INSERT
  5
23B
100
AcDbEntity
  8
MAIN0
  6
BYBLOCK
 62
0
100
AcDbBlockReference
  2
_OPEN
 10
377.9999999995117
 20
163.9775653100289
 30
0.0000000000000000
 41
4.000000000000000
 42
4.000000000000000
 43
4.000000000000000
 50
180.0000000000000
  0
LINE
  5
23C
100
AcDbEntity
  8
MAIN0
  6
BYBLOCK
 62
0
100
AcDbLine
 10
377.9999999995117
 20
238.7999999758135
 30
0.0000000000000000
 11
377.9999999995117
 21
159.9775653100289
 31
0.0000000000000000
  0
MTEXT
  5
23D
100
AcDbEntity
  8
MAIN0
  6
BYBLOCK
 62
0
100
AcDbMText
 10
412.9999999995117
 20
167.5775652146614
 30
0.0000000000000000
 40
6.199999809265137
 41
0.0000000000000000
 71
     5
 72
     1
  1
\A1;70
 11
1.000000000000000
 21
0.0000000000000000
 31
0.0000000000000000
  7
STANDARD
  0
ENDBLK
  5
23E
100
AcDbEntity
  8
MAIN0
  6
CONTINUOUS
 62
3
100
AcDbBlockEnd
  0
BLOCK
  5
25D
100
AcDbEntity
  8
MAIN0
  6
CONTINUOUS
 62
3
100
AcDbBlockBegin
  2
*D33
 70
    65
 10
0.0
 20
0.0
 30
0.0
  0
LINE
  5
25E
100
AcDbEntity
  8
MAIN0
  6
BYBLOCK
 62
0
100
AcDbLine
 10
534.3838328392006
 20
238.7999999744705
 30
0.0000000000000000
 11
534.3838328392006
 21
159.9775653100289
 31
0.0000000000000000
  0
LINE
  5
25F
100
AcDbEntity
  8
MAIN0
  6
BYBLOCK
 62
0
100
AcDbLine
 10
534.3838328392006
 20
163.9775653100289
 30
0.0000000000000000
 11
549.3838328392004
 21
163.9775653100289
 31
0.0000000000000000
  0
INSERT
  5
260
100
AcDbEntity
  8
MAIN0
  6
BYBLOCK
 62
0
100
AcDbBlockReference
  2
_OPEN
 10
534.3838328392006
 20
163.9775653100289
 30
0.0000000000000000
 41
4.000000000000000
 42
4.000000000000000
 43
4.000000000000000
 50
0.0000000000000000
  0
INSERT
  5
261
100
AcDbEntity
  8
MAIN0
  6
BYBLOCK
 62
0
100
AcDbBlockReference
  2
_OPEN
 10
549.3838328392004
 20
163.9775653100289
 30
0.0000000000000000
 41
4.000000000000000
 42
4.000000000000000
 43
4.000000000000000
 50
180.0000000000000
  0
LINE
  5
262
100
AcDbEntity
  8
MAIN0
  6
BYBLOCK
 62
0
100
AcDbLine
 10
530.3838328392006
 20
163.9775653100289
 30
0.0000000000000000
 11
528.3838328392006
 21
163.9775653100289
 31
0.0000000000000000
  0
LINE
  5
263
100
AcDbEntity
  8
MAIN0
  6
BYBLOCK
 62
0
100
AcDbLine
 10
553.3838328392004
 20
163.9775653100289
 30
0.0000000000000000
 11
555.3838328392004
 21
163.9775653100289
 31
0.0000000000000000
  0
LINE
  5
264
100
AcDbEntity
  8
MAIN0
  6
BYBLOCK
 62
0
100
AcDbLine
 10
549.3838328392004
 20
234.6081776505338
 30
0.0000000000000000
 11
549.3838328392004
 21
159.9775653100289
 31
0.0000000000000000
  0
MTEXT
  5
265
100
AcDbEntity
  8
MAIN0
  6
BYBLOCK
 62
0
100
AcDbMText
 10
541.8838328392005
 20
167.5775652146614
 30
0.0000000000000000
 40
6.199999809265137
 41
0.0000000000000000
 71
     5
 72
     1
  1
\A1;15
 11
1.000000000000000
 21
0.0000000000000000
 31
0.0000000000000000
  7
STANDARD
  0
ENDBLK
  5
266
100
AcDbEntity
  8
MAIN0
  6
CONTINUOUS
 62
3
100
AcDbBlockEnd
  0
BLOCK
  5
268
100
AcDbEntity
  8
MAIN0
  6
CONTINUOUS
 62
3
100
AcDbBlockBegin
  2
*D34
 70
    65
 10
0.0
 20
0.0
 30
0.0
  0
LINE
  5
269
100
AcDbEntity
  8
MAIN0
  6
BYBLOCK
 62
0
100
AcDbLine
 10
549.3838328392004
 20
234.6081776505338
 30
0.0000000000000000
 11
549.3838328392004
 21
159.9775653100289
 31
0.0000000000000000
  0
LINE
  5
26A
100
AcDbEntity
  8
MAIN0
  6
BYBLOCK
 62
0
100
AcDbLine
 10
553.3838328392004
 20
163.9775653100289
 30
0.0000000000000000
 11
570.3838328392006
 21
163.9775653100289
 31
0.0000000000000000
  0
INSERT
  5
26B
100
AcDbEntity
  8
MAIN0
  6
BYBLOCK
 62
0
100
AcDbBlockReference
  2
_OPEN
 10
549.3838328392004
 20
163.9775653100289
 30
0.0000000000000000
 41
4.000000000000000
 42
4.000000000000000
 43
4.000000000000000
 50
180.0000000000000
  0
INSERT
  5
26C
100
AcDbEntity
  8
MAIN0
  6
BYBLOCK
 62
0
100
AcDbBlockReference
  2
_OPEN
 10
574.3838328392006
 20
163.9775653100289
 30
0.0000000000000000
 41
4.000000000000000
 42
4.000000000000000
 43
4.000000000000000
 50
0.0000000000000000
  0
LINE
  5
26D
100
AcDbEntity
  8
MAIN0
  6
BYBLOCK
 62
0
100
AcDbLine
 10
574.3838328392006
 20
209.7913170935357
 30
0.0000000000000000
 11
574.3838328392006
 21
159.9775653100289
 31
0.0000000000000000
  0
MTEXT
  5
26E
100
AcDbEntity
  8
MAIN0
  6
BYBLOCK
 62
0
100
AcDbMText
 10
561.8838328392005
 20
167.5775652146614
 30
0.0000000000000000
 40
6.199999809265137
 41
0.0000000000000000
 71
     5
 72
     1
  1
\A1;25
 11
1.000000000000000
 21
0.0000000000000000
 31
0.0000000000000000
  7
STANDARD
  0
ENDBLK
  5
26F
100
AcDbEntity
  8
MAIN0
  6
CONTINUOUS
 62
3
100
AcDbBlockEnd
  0
BLOCK
  5
271
100
AcDbEntity
  8
MAIN0
  6
CONTINUOUS
 62
3
100
AcDbBlockBegin
  2
*D35
 70
    65
 10
0.0
 20
0.0
 30
0.0
  0
LINE
  5
272
100
AcDbEntity
  8
MAIN0
  6
BYBLOCK
 62
0
100
AcDbLine
 10
574.3838328392006
 20
209.7913170935357
 30
0.0000000000000000
 11
574.3838328392006
 21
159.9775653100289
 31
0.0000000000000000
  0
LINE
  5
273
100
AcDbEntity
  8
MAIN0
  6
BYBLOCK
 62
0
100
AcDbLine
 10
578.3838328392006
 20
163.9775653100289
 30
0.0000000000000000
 11
770.3838328392008
 21
163.9775653100289
 31
0.0000000000000000
  0
INSERT
  5
274
100
AcDbEntity
  8
MAIN0
  6
BYBLOCK
 62
0
100
AcDbBlockReference
  2
_OPEN
 10
574.3838328392006
 20
163.9775653100289
 30
0.0000000000000000
 41
4.000000000000000
 42
4.000000000000000
 43
4.000000000000000
 50
180.0000000000000
  0
INSERT
  5
275
100
AcDbEntity
  8
MAIN0
  6
BYBLOCK
 62
0
100
AcDbBlockReference
  2
_OPEN
 10
774.3838328392008
 20
163.9775653100289
 30
0.0000000000000000
 41
4.000000000000000
 42
4.000000000000000
 43
4.000000000000000
 50
0.0000000000000000
  0
LINE
  5
276
100
AcDbEntity
  8
MAIN0
  6
BYBLOCK
 62
0
100
AcDbLine
 10
774.3838328392008
 20
233.2211607144438
 30
0.0000000000000000
 11
774.3838328392008
 21
159.9775653100289
 31
0.0000000000000000
  0
MTEXT
  5
277
100
AcDbEntity
  8
MAIN0
  6
BYBLOCK
 62
0
100
AcDbMText
 10
674.3838328447886
 20
167.5775652146614
 30
0.0000000000000000
 40
6.199999809265137
 41
0.0000000000000000
 71
     5
 72
     1
  1
\A1;200\H0.903226x;\U+00B10.2
 11
1.000000000000000
 21
0.0000000000000000
 31
0.0000000000000000
  7
STANDARD
  0
ENDBLK
  5
278
100
AcDbEntity
  8
MAIN0
  6
CONTINUOUS
 62
3
100
AcDbBlockEnd
  0
BLOCK
  5
27A
100
AcDbEntity
  8
MAIN0
  6
CONTINUOUS
 62
3
100
AcDbBlockBegin
  2
*D36
 70
    65
 10
0.0
 20
0.0
 30
0.0
  0
LINE
  5
27B
100
AcDbEntity
  8
MAIN0
  6
BYBLOCK
 62
0
100
AcDbLine
 10
774.3838328392008
 20
233.2211607144438
 30
0.0000000000000000
 11
774.3838328392008
 21
159.9775653100289
 31
0.0000000000000000
  0
LINE
  5
27C
100
AcDbEntity
  8
MAIN0
  6
BYBLOCK
 62
0
100
AcDbLine
 10
778.3838328392008
 20
163.9775653100289
 30
0.0000000000000000
 11
795.3838328392005
 21
163.9775653100289
 31
0.0000000000000000
  0
INSERT
  5
27D
100
AcDbEntity
  8
MAIN0
  6
BYBLOCK
 62
0
100
AcDbBlockReference
  2
_OPEN
 10
774.3838328392008
 20
163.9775653100289
 30
0.0000000000000000
 41
4.000000000000000
 42
4.000000000000000
 43
4.000000000000000
 50
180.0000000000000
  0
INSERT
  5
27E
100
AcDbEntity
  8
MAIN0
  6
BYBLOCK
 62
0
100
AcDbBlockReference
  2
_OPEN
 10
799.3838328392005
 20
163.9775653100289
 30
0.0000000000000000
 41
4.000000000000000
 42
4.000000000000000
 43
4.000000000000000
 50
0.0000000000000000
  0
LINE
  5
27F
100
AcDbEntity
  8
MAIN0
  6
BYBLOCK
 62
0
100
AcDbLine
 10
799.3838328392005
 20
234.6081776505336
 30
0.0000000000000000
 11
799.3838328392005
 21
159.9775653100289
 31
0.0000000000000000
  0
MTEXT
  5
280
100
AcDbEntity
  8
MAIN0
  6
BYBLOCK
 62
0
100
AcDbMText
 10
786.8838328392005
 20
167.5775652146614
 30
0.0000000000000000
 40
6.199999809265137
 41
0.0000000000000000
 71
     5
 72
     1
  1
\A1;25
 11
1.000000000000000
 21
0.0000000000000000
 31
0.0000000000000000
  7
STANDARD
  0
ENDBLK
  5
281
100
AcDbEntity
  8
MAIN0
  6
CONTINUOUS
 62
3
100
AcDbBlockEnd
  0
BLOCK
  5
283
100
AcDbEntity
  8
MAIN0
  6
CONTINUOUS
 62
3
100
AcDbBlockBegin
  2
*D37
 70
    65
 10
0.0
 20
0.0
 30
0.0
  0
LINE
  5
284
100
AcDbEntity
  8
MAIN0
  6
BYBLOCK
 62
0
100
AcDbLine
 10
799.3838328392005
 20
234.6081776505336
 30
0.0000000000000000
 11
799.3838328392005
 21
159.9775653100289
 31
0.0000000000000000
  0
LINE
  5
285
100
AcDbEntity
  8
MAIN0
  6
BYBLOCK
 62
0
100
AcDbLine
 10
799.3838328392005
 20
163.9775653100289
 30
0.0000000000000000
 11
814.3838328392008
 21
163.9775653100289
 31
0.0000000000000000
  0
INSERT
  5
286
100
AcDbEntity
  8
MAIN0
  6
BYBLOCK
 62
0
100
AcDbBlockReference
  2
_OPEN
 10
799.3838328392005
 20
163.9775653100289
 30
0.0000000000000000
 41
4.000000000000000
 42
4.000000000000000
 43
4.000000000000000
 50
0.0000000000000000
  0
INSERT
  5
287
100
AcDbEntity
  8
MAIN0
  6
BYBLOCK
 62
0
100
AcDbBlockReference
  2
_OPEN
 10
814.3838328392008
 20
163.9775653100289
 30
0.0000000000000000
 41
4.000000000000000
 42
4.000000000000000
 43
4.000000000000000
 50
180.0000000000000
  0
LINE
  5
288
100
AcDbEntity
  8
MAIN0
  6
BYBLOCK
 62
0
100
AcDbLine
 10
795.3838328392005
 20
163.9775653100289
 30
0.0000000000000000
 11
793.3838328392005
 21
163.9775653100289
 31
0.0000000000000000
  0
LINE
  5
289
100
AcDbEntity
  8
MAIN0
  6
BYBLOCK
 62
0
100
AcDbLine
 10
818.3838328392008
 20
163.9775653100289
 30
0.0000000000000000
 11
820.3838328392008
 21
163.9775653100289
 31
0.0000000000000000
  0
LINE
  5
28A
100
AcDbEntity
  8
MAIN0
  6
BYBLOCK
 62
0
100
AcDbLine
 10
814.3838328392008
 20
238.7999999744706
 30
0.0000000000000000
 11
814.3838328392008
 21
159.9775653100289
 31
0.0000000000000000
  0
MTEXT
  5
28B
100
AcDbEntity
  8
MAIN0
  6
BYBLOCK
 62
0
100
AcDbMText
 10
806.8838328392006
 20
167.5775652146614
 30
0.0000000000000000
 40
6.199999809265137
 41
0.0000000000000000
 71
     5
 72
     1
  1
\A1;15
 11
1.000000000000000
 21
0.0000000000000000
 31
0.0000000000000000
  7
STANDARD
  0
ENDBLK
  5
28C
100
AcDbEntity
  8
MAIN0
  6
CONTINUOUS
 62
3
100
AcDbBlockEnd
  0
BLOCK
  5
298
100
AcDbEntity
  8
MAIN0
  6
CONTINUOUS
 62
3
100
AcDbBlockBegin
  2
*D38
 70
    65
 10
0.0
 20
0.0
 30
0.0
  0
LINE
  5
299
100
AcDbEntity
  8
MAIN0
  6
BYBLOCK
 62
0
100
AcDbLine
 10
208.6787631583976
 20
351.1035569958166
 30
0.0000000000000000
 11
216.9962419065750
 21
336.6972612131482
 31
0.0000000000000000
  0
ARC
  5
29A
100
AcDbEntity
  8
MAIN0
  6
BYBLOCK
 62
0
100
AcDbCircle
 10
191.9953940124584
 20
379.9999999979116
 30
0.0000000000000000
 40
46.00169578810515
100
AcDbArc
 50
274.9820580335103
 51
295.0179419666591
  0
INSERT
  5
29B
100
AcDbEntity
  8
MAIN0
  6
BYBLOCK
 62
0
100
AcDbBlockReference
  2
_OPEN
 10
191.9953940125264
 20
333.9983042098065
 30
0.0000000000000000
 41
4.000000000000000
 42
4.000000000000000
 43
4.000000000000000
 50
180.0000000000846
  0
INSERT
  5
29C
100
AcDbEntity
  8
MAIN0
  6
BYBLOCK
 62
0
100
AcDbBlockReference
  2
_OPEN
 10
214.9962419065699
 20
340.1613628282829
 30
0.0000000000000000
 41
4.000000000000000
 42
4.000000000000000
 43
4.000000000000000
 50
30.00000000008464
  0
MTEXT
  5
29D
100
AcDbEntity
  8
MAIN0
  6
BYBLOCK
 62
0
100
AcDbMText
 10
202.9697604518068
 20
339.0431068656268
 30
0.0000000000000000
 40
6.199999809265137
 41
0.0000000000000000
 71
     5
 72
     1
  1
\A1;30\U+00B0
 11
0.9659258262886858
 21
0.2588190451039480
 31
0.0000000000000000
  7
STANDARD
  0
ENDBLK
  5
29E
100
AcDbEntity
  8
MAIN0
  6
CONTINUOUS
 62
3
100
AcDbBlockEnd
  0
BLOCK
  5
2A0
100
AcDbEntity
  8
MAIN0
  6
CONTINUOUS
 62
3
100
AcDbBlockBegin
  2
*D39
 70
    65
 10
0.0
 20
0.0
 30
0.0
  0
LINE
  5
2A1
100
AcDbEntity
  8
MAIN0
  6
BYBLOCK
 62
0
100
AcDbLine
 10
208.6787631583976
 20
351.1035569958166
 30
0.0000000000000000
 11
216.9962419065750
 21
336.6972612131482
 31
0.0000000000000000
  0
ARC
  5
2A2
100
AcDbEntity
  8
MAIN0
  6
BYBLOCK
 62
0
100
AcDbCircle
 10
191.9953940124584
 20
379.9999999979116
 30
0.0000000000000000
 40
46.00169578810515
100
AcDbArc
 50
304.9820580335102
 51
355.0179419665744
  0
INSERT
  5
2A3
100
AcDbEntity
  8
MAIN0
  6
BYBLOCK
 62
0
100
AcDbBlockReference
  2
_OPEN
 10
214.9962419065699
 20
340.1613628282829
 30
0.0000000000000000
 41
4.000000000000000
 42
4.000000000000000
 43
4.000000000000000
 50
210.0000000000846
  0
INSERT
  5
2A4
100
AcDbEntity
  8
MAIN0
  6
BYBLOCK
 62
0
100
AcDbBlockReference
  2
_OPEN
 10
237.9970898005636
 20
379.9999999979116
 30
0.0000000000000000
 41
4.000000000000000
 42
4.000000000000000
 43
4.000000000000000
 50
90.00000000000000
  0
MTEXT
  5
2A5
100
AcDbEntity
  8
MAIN0
  6
BYBLOCK
 62
0
100
AcDbMText
 10
228.7163398111034
 20
358.7991520562024
 30
0.0000000000000000
 40
6.199999809265137
 41
0.0000000000000000
 71
     5
 72
     1
  1
\A1;60\U+00B0
 11
0.4999999999993604
 21
0.8660254037848080
 31
0.0000000000000000
  7
STANDARD
  0
ENDBLK
  5
2A6
100
AcDbEntity
  8
MAIN0
  6
CONTINUOUS
 62
3
100
AcDbBlockEnd
  0
BLOCK
  5
2A8
100
AcDbEntity
  8
MAIN0
  6
CONTINUOUS
 62
3
100
AcDbBlockBegin
  2
*D40
 70
    65
 10
0.0
 20
0.0
 30
0.0
  0
LINE
  5
2A9
100
AcDbEntity
  8
MAIN0
  6
BYBLOCK
 62
0
100
AcDbLine
 10
208.6787631583120
 20
408.8964430000559
 30
0.0000000000000000
 11
216.9962419064469
 21
423.3027387827491
 31
0.0000000000000000
  0
ARC
  5
2AA
100
AcDbEntity
  8
MAIN0
  6
BYBLOCK
 62
0
100
AcDbCircle
 10
191.9953940124584
 20
379.9999999979116
 30
0.0000000000000000
 40
46.00169578810515
100
AcDbArc
 50
4.982058033425588
 51
55.01794196665930
  0
INSERT
  5
2AB
100
AcDbEntity
  8
MAIN0
  6
BYBLOCK
 62
0
100
AcDbBlockReference
  2
_OPEN
 10
237.9970898005636
 20
379.9999999979116
 30
0.0000000000000000
 41
4.000000000000000
 42
4.000000000000000
 43
4.000000000000000
 50
270.0000000000000
  0
INSERT
  5
2AC
100
AcDbEntity
  8
MAIN0
  6
BYBLOCK
 62
0
100
AcDbBlockReference
  2
_OPEN
 10
214.9962419064520
 20
419.8386371676084
 30
0.0000000000000000
 41
4.000000000000000
 42
4.000000000000000
 43
4.000000000000000
 50
150.0000000000849
  0
MTEXT
  5
2AD
100
AcDbEntity
  8
MAIN0
  6
BYBLOCK
 62
0
100
AcDbMText
 10
228.7163398110721
 20
401.2008479396751
 30
0.0000000000000000
 40
6.199999809265137
 41
0.0000000000000000
 71
     5
 72
     1
  1
\A1;60\U+00B0
 11
-0.5000000000006417
 21
0.8660254037840681
 31
0.0000000000000000
  7
STANDARD
  0
ENDBLK
  5
2AE
100
AcDbEntity
  8
MAIN0
  6
CONTINUOUS
 62
3
100
AcDbBlockEnd
  0
BLOCK
  5
2B0
100
AcDbEntity
  8
MAIN0
  6
CONTINUOUS
 62
3
100
AcDbBlockBegin
  2
*D41
 70
    65
 10
0.0
 20
0.0
 30
0.0
  0
LINE
  5
2B1
100
AcDbEntity
  8
MAIN0
  6
BYBLOCK
 62
0
100
AcDbLine
 10
208.6787631583120
 20
408.8964430000559
 30
0.0000000000000000
 11
216.9962419064469
 21
423.3027387827491
 31
0.0000000000000000
  0
ARC
  5
2B2
100
AcDbEntity
  8
MAIN0
  6
BYBLOCK
 62
0
100
AcDbCircle
 10
191.9953940124584
 20
379.9999999979116
 30
0.0000000000000000
 40
46.00169578810515
100
AcDbArc
 50
64.98205803351047
 51
85.01794196665915
  0
INSERT
  5
2B3
100
AcDbEntity
  8
MAIN0
  6
BYBLOCK
 62
0
100
AcDbBlockReference
  2
_OPEN
 10
214.9962419064520
 20
419.8386371676084
 30
0.0000000000000000
 41
4.000000000000000
 42
4.000000000000000
 43
4.000000000000000
 50
330.0000000000849
  0
INSERT
  5
2B4
100
AcDbEntity
  8
MAIN0
  6
BYBLOCK
 62
0
100
AcDbBlockReference
  2
_OPEN
 10
191.9953940123904
 20
426.0016957860168
 30
0.0000000000000000
 41
4.000000000000000
 42
4.000000000000000
 43
4.000000000000000
 50
180.0000000000847
  0
MTEXT
  5
2B5
100
AcDbEntity
  8
MAIN0
  6
BYBLOCK
 62
0
100
AcDbMText
 10
204.8332575270477
 20
427.9115588952773
 30
0.0000000000000000
 40
6.199999809265137
 41
0.0000000000000000
 71
     5
 72
     1
  1
\A1;30\U+00B0
 11
0.9659258262894512
 21
-0.2588190451010914
 31
0.0000000000000000
  7
STANDARD
  0
ENDBLK
  5
2B6
100
AcDbEntity
  8
MAIN0
  6
CONTINUOUS
 62
3
100
AcDbBlockEnd
  0
BLOCK
  5
2EB
100
AcDbEntity
  8
MAIN0
  6
CONTINUOUS
 62
3
100
AcDbBlockBegin
  2
*D42
 70
    65
 10
0.0
 20
0.0
 30
0.0
  0
LINE
  5
2EC
100
AcDbEntity
  8
MAIN0
  6
BYBLOCK
 62
0
100
AcDbLine
 10
454.4999999985539
 20
314.5999999757673
 30
0.0000000000000000
 11
454.4999999985539
 21
143.5133616430891
 31
0.0000000000000000
  0
LINE
  5
2ED
100
AcDbEntity
  8
MAIN0
  6
BYBLOCK
 62
0
100
AcDbLine
 10
450.4999999985539
 20
147.5133616430891
 30
0.0000000000000000
 11
361.9999999985539
 21
147.5133616430891
 31
0.0000000000000000
  0
INSERT
  5
2EE
100
AcDbEntity
  8
MAIN0
  6
BYBLOCK
 62
0
100
AcDbBlockReference
  2
_OPEN
 10
454.4999999985539
 20
147.5133616430891
 30
0.0000000000000000
 41
4.000000000000000
 42
4.000000000000000
 43
4.000000000000000
 50
360.0000000000000
  0
INSERT
  5
2EF
100
AcDbEntity
  8
MAIN0
  6
BYBLOCK
 62
0
100
AcDbBlockReference
  2
_OPEN
 10
357.9999999985539
 20
147.5133616430891
 30
0.0000000000000000
 41
4.000000000000000
 42
4.000000000000000
 43
4.000000000000000
 50
180.0000000000000
  0
LINE
  5
2F0
100
AcDbEntity
  8
MAIN0
  6
BYBLOCK
 62
0
100
AcDbLine
 10
357.9999999985539
 20
288.3999999756974
 30
0.0000000000000000
 11
357.9999999985539
 21
143.5133616430891
 31
0.0000000000000000
  0
MTEXT
  5
2F1
100
AcDbEntity
  8
MAIN0
  6
BYBLOCK
 62
0
100
AcDbMText
 10
406.2499999985539
 20
151.1133615477216
 30
0.0000000000000000
 40
6.199999809265137
 41
0.0000000000000000
 71
     5
 72
     1
  1
\A1;96.5
 11
1.000000000000000
 21
0.0000000000000000
 31
0.0000000000000000
  7
STANDARD
  0
ENDBLK
  5
2F2
100
AcDbEntity
  8
MAIN0
  6
CONTINUOUS
 62
3
100
AcDbBlockEnd
  0
BLOCK
  5
2F4
100
AcDbEntity
  8
MAIN0
  6
CONTINUOUS
 62
3
100
AcDbBlockBegin
  2
*D43
 70
    65
 10
0.0
 20
0.0
 30
0.0
  0
LINE
  5
2F5
100
AcDbEntity
  8
MAIN0
  6
BYBLOCK
 62
0
100
AcDbLine
 10
377.9999999995117
 20
238.7999999758135
 30
0.0000000000000000
 11
377.9999999995117
 21
159.9775653100289
 31
0.0000000000000000
  0
LINE
  5
2F6
100
AcDbEntity
  8
MAIN0
  6
BYBLOCK
 62
0
100
AcDbLine
 10
373.9999999995117
 20
163.9775653100289
 30
0.0000000000000000
 11
361.9999999985539
 21
163.9775653100289
 31
0.0000000000000000
  0
INSERT
  5
2F7
100
AcDbEntity
  8
MAIN0
  6
BYBLOCK
 62
0
100
AcDbBlockReference
  2
_OPEN
 10
377.9999999995117
 20
163.9775653100289
 30
0.0000000000000000
 41
4.000000000000000
 42
4.000000000000000
 43
4.000000000000000
 50
360.0000000000000
  0
INSERT
  5
2F8
100
AcDbEntity
  8
MAIN0
  6
BYBLOCK
 62
0
100
AcDbBlockReference
  2
_OPEN
 10
357.9999999985539
 20
163.9775653100289
 30
0.0000000000000000
 41
4.000000000000000
 42
4.000000000000000
 43
4.000000000000000
 50
180.0000000000000
  0
LINE
  5
2F9
100
AcDbEntity
  8
MAIN0
  6
BYBLOCK
 62
0
100
AcDbLine
 10
357.9999999985539
 20
288.3999999756974
 30
0.0000000000000000
 11
357.9999999985539
 21
159.9775653100289
 31
0.0000000000000000
  0
MTEXT
  5
2FA
100
AcDbEntity
  8
MAIN0
  6
BYBLOCK
 62
0
100
AcDbMText
 10
367.9999999990328
 20
167.5775652146614
 30
0.0000000000000000
 40
6.199999809265137
 41
0.0000000000000000
 71
     5
 72
     1
  1
\A1;20
 11
1.000000000000000
 21
0.0000000000000000
 31
0.0000000000000000
  7
STANDARD
  0
ENDBLK
  5
2FB
100
AcDbEntity
  8
MAIN0
  6
CONTINUOUS
 62
3
100
AcDbBlockEnd
  0
BLOCK
  5
312
100
AcDbEntity
  8
MAIN0
  6
CONTINUOUS
 62
3
100
AcDbBlockBegin
  2
*D44
 70
    65
 10
0.0
 20
0.0
 30
0.0
  0
LINE
  5
313
100
AcDbEntity
  8
MAIN0
  6
BYBLOCK
 62
0
100
AcDbLine
 10
206.2350466774482
 20
395.4347754086665
 30
0.0000000000000000
 11
177.7557413474684
 21
364.5652245871566
 31
0.0000000000000000
  0
INSERT
  5
314
100
AcDbEntity
  8
MAIN0
  6
BYBLOCK
 62
0
100
AcDbBlockReference
  2
_OPEN
 10
208.9473614707796
 20
398.3747326297627
 30
0.0000000000000000
 41
4.000000000000000
 42
4.000000000000000
 43
4.000000000000000
 50
47.30631242249604
  0
INSERT
  5
315
100
AcDbEntity
  8
MAIN0
  6
BYBLOCK
 62
0
100
AcDbBlockReference
  2
_OPEN
 10
175.0434265541370
 20
361.6252673660604
 30
0.0000000000000000
 41
4.000000000000000
 42
4.000000000000000
 43
4.000000000000000
 50
227.3063124224960
  0
LINE
  5
316
100
AcDbEntity
  8
MAIN0
  6
BYBLOCK
 62
0
100
AcDbLine
 10
175.0434265541370
 20
361.6252673660604
 30
0.0000000000000000
 11
148.9968103846497
 21
333.3925793753901
 31
0.0000000000000000
  0
MTEXT
  5
317
100
AcDbEntity
  8
MAIN0
  6
BYBLOCK
 62
0
100
AcDbMText
 10
154.8322813118169
 20
345.7643124027861
 30
0.0000000000000000
 40
6.199999809265137
 41
0.0000000000000000
 71
     5
 72
     1
  1
\A1;\U+220550\H0.903226x;\U+00B10.2
 11
0.6780786983328528
 21
0.7349893052740455
 31
0.0000000000000000
  7
STANDARD
  0
ENDBLK
  5
318
100
AcDbEntity
  8
MAIN0
  6
CONTINUOUS
 62
3
100
AcDbBlockEnd
  0
BLOCK
  5
31F
100
AcDbEntity
  8
MAIN0
  6
CONTINUOUS
 62
3
100
AcDbBlockBegin
  2
*D45
 70
    65
 10
0.0
 20
0.0
 30
0.0
  0
LINE
  5
320
100
AcDbEntity
  8
MAIN0
  6
BYBLOCK
 62
0
100
AcDbLine
 10
455.1000000229046
 20
444.7999999996116
 30
0.0000000000000000
 11
486.3664308787960
 21
444.7999999996116
 31
0.0000000000000000
  0
LINE
  5
321
100
AcDbEntity
  8
MAIN0
  6
BYBLOCK
 62
0
100
AcDbLine
 10
482.3664308787960
 20
440.7999999996116
 30
0.0000000000000000
 11
482.3664308787960
 21
319.1999999996114
 31
0.0000000000000000
  0
INSERT
  5
322
100
AcDbEntity
  8
MAIN0
  6
BYBLOCK
 62
0
100
AcDbBlockReference
  2
_OPEN
 10
482.3664308787960
 20
444.7999999996116
 30
0.0000000000000000
 41
4.000000000000000
 42
4.000000000000000
 43
4.000000000000000
 50
90.00000000000000
  0
INSERT
  5
323
100
AcDbEntity
  8
MAIN0
  6
BYBLOCK
 62
0
100
AcDbBlockReference
  2
_OPEN
 10
482.3664308787960
 20
315.1999999996114
 30
0.0000000000000000
 41
4.000000000000000
 42
4.000000000000000
 43
4.000000000000000
 50
270.0000000000000
  0
LINE
  5
324
100
AcDbEntity
  8
MAIN0
  6
BYBLOCK
 62
0
100
AcDbLine
 10
455.1000000223886
 20
315.1999999996114
 30
0.0000000000000000
 11
486.3664308787960
 21
315.1999999996114
 31
0.0000000000000000
  0
MTEXT
  5
325
100
AcDbEntity
  8
MAIN0
  6
BYBLOCK
 62
0
100
AcDbMText
 10
478.7664309741634
 20
379.9999999996115
 30
0.0000000000000000
 40
6.199999809265137
 41
0.0000000000000000
 71
     5
 72
     1
  1
\A1;\U+2205130
 11
6.123233995736766e-017
 21
1.000000000000000
 31
0.0000000000000000
  7
STANDARD
  0
ENDBLK
  5
326
100
AcDbEntity
  8
MAIN0
  6
CONTINUOUS
 62
3
100
AcDbBlockEnd
  0
BLOCK
  5
328
100
AcDbEntity
  8
MAIN0
  6
CONTINUOUS
 62
3
100
AcDbBlockBegin
  2
*D46
 70
    65
 10
0.0
 20
0.0
 30
0.0
  0
LINE
  5
329
100
AcDbEntity
  8
MAIN0
  6
BYBLOCK
 62
0
100
AcDbLine
 10
442.4999999998935
 20
463.6000000235234
 30
0.0000000000000000
 11
442.4999999998935
 21
506.4419454604350
 31
0.0000000000000000
  0
LINE
  5
32A
100
AcDbEntity
  8
MAIN0
  6
BYBLOCK
 62
0
100
AcDbLine
 10
438.4999999998935
 20
502.4419454604350
 30
0.0000000000000000
 11
412.4999999995026
 21
502.4419454604350
 31
0.0000000000000000
  0
INSERT
  5
32B
100
AcDbEntity
  8
MAIN0
  6
BYBLOCK
 62
0
100
AcDbBlockReference
  2
_OPEN
 10
442.4999999998935
 20
502.4419454604350
 30
0.0000000000000000
 41
4.000000000000000
 42
4.000000000000000
 43
4.000000000000000
 50
360.0000000000000
  0
INSERT
  5
32C
100
AcDbEntity
  8
MAIN0
  6
BYBLOCK
 62
0
100
AcDbBlockReference
  2
_OPEN
 10
408.4999999995026
 20
502.4419454604350
 30
0.0000000000000000
 41
4.000000000000000
 42
4.000000000000000
 43
4.000000000000000
 50
180.0000000000000
  0
LINE
  5
32D
100
AcDbEntity
  8
MAIN0
  6
BYBLOCK
 62
0
100
AcDbLine
 10
408.4999999995026
 20
494.6510724805693
 30
0.0000000000000000
 11
408.4999999995026
 21
506.4419454604350
 31
0.0000000000000000
  0
MTEXT
  5
32E
100
AcDbEntity
  8
MAIN0
  6
BYBLOCK
 62
0
100
AcDbMText
 10
425.4999999996981
 20
506.0419453650675
 30
0.0000000000000000
 40
6.199999809265137
 41
0.0000000000000000
 71
     5
 72
     1
  1
\A1;34
 11
1.000000000000000
 21
0.0000000000000000
 31
0.0000000000000000
  7
STANDARD
  0
ENDBLK
  5
32F
100
AcDbEntity
  8
MAIN0
  6
CONTINUOUS
 62
3
100
AcDbBlockEnd
  0
BLOCK
  5
331
100
AcDbEntity
  8
MAIN0
  6
CONTINUOUS
 62
3
100
AcDbBlockBegin
  2
*D47
 70
    65
 10
0.0
 20
0.0
 30
0.0
  0
LINE
  5
332
100
AcDbEntity
  8
MAIN0
  6
BYBLOCK
 62
0
100
AcDbLine
 10
707.3582389980312
 20
322.8866531818051
 30
0.0000000000000000
 11
723.8986659324621
 21
294.2377933524900
 31
0.0000000000000000
  0
ARC
  5
333
100
AcDbEntity
  8
MAIN0
  6
BYBLOCK
 62
0
100
AcDbCircle
 10
674.3838328392004
 20
379.9999999983122
 30
0.0000000000000000
 40
95.02966618652340
100
AcDbArc
 50
272.4117007588187
 51
297.5882992411812
  0
INSERT
  5
334
100
AcDbEntity
  8
MAIN0
  6
BYBLOCK
 62
0
100
AcDbBlockReference
  2
_OPEN
 10
674.3838328392004
 20
284.9703338117888
 30
0.0000000000000000
 41
4.000000000000000
 42
4.000000000000000
 43
4.000000000000000
 50
180.0000000000000
  0
INSERT
  5
335
100
AcDbEntity
  8
MAIN0
  6
BYBLOCK
 62
0
100
AcDbBlockReference
  2
_OPEN
 10
721.8986659324620
 20
297.7018949676278
 30
0.0000000000000000
 41
4.000000000000000
 42
4.000000000000000
 43
4.000000000000000
 50
30.00000000000000
  0
MTEXT
  5
336
100
AcDbEntity
  8
MAIN0
  6
BYBLOCK
 62
0
100
AcDbMText
 10
698.0475717603215
 20
291.6857240476430
 30
0.0000000000000000
 40
6.199999809265137
 41
0.0000000000000000
 71
     5
 72
     1
  1
\A1;30\U+00B0
 11
0.9659258262890683
 21
0.2588190451025205
 31
0.0000000000000000
  7
STANDARD
  0
ENDBLK
  5
337
100
AcDbEntity
  8
MAIN0
  6
CONTINUOUS
 62
3
100
AcDbBlockEnd
  0
BLOCK
  5
339
100
AcDbEntity
  8
MAIN0
  6
CONTINUOUS
 62
3
100
AcDbBlockBegin
  2
*D48
 70
    65
 10
0.0
 20
0.0
 30
0.0
  0
LINE
  5
33A
100
AcDbEntity
  8
MAIN0
  6
BYBLOCK
 62
0
100
AcDbLine
 10
707.3582389980312
 20
322.8866531818051
 30
0.0000000000000000
 11
723.8986659324621
 21
294.2377933524900
 31
0.0000000000000000
  0
LINE
  5
33B
100
AcDbEntity
  8
MAIN0
  6
BYBLOCK
 62
0
100
AcDbLine
 10
718.2047182913296
 20
354.6999999863959
 30
0.0000000000000000
 11
760.1460394850211
 21
330.4851669050482
 31
0.0000000000000000
  0
ARC
  5
33C
100
AcDbEntity
  8
MAIN0
  6
BYBLOCK
 62
0
100
AcDbCircle
 10
674.3838328392004
 20
379.9999999983122
 30
0.0000000000000000
 40
95.02966618652340
100
AcDbArc
 50
302.4117007588187
 51
327.5882992411798
  0
INSERT
  5
33D
100
AcDbEntity
  8
MAIN0
  6
BYBLOCK
 62
0
100
AcDbBlockReference
  2
_OPEN
 10
721.8986659324620
 20
297.7018949676278
 30
0.0000000000000000
 41
4.000000000000000
 42
4.000000000000000
 43
4.000000000000000
 50
210.0000000000000
  0
INSERT
  5
33E
100
AcDbEntity
  8
MAIN0
  6
BYBLOCK
 62
0
100
AcDbBlockReference
  2
_OPEN
 10
756.6819378698835
 20
332.4851669050483
 30
0.0000000000000000
 41
4.000000000000000
 42
4.000000000000000
 43
4.000000000000000
 50
59.99999999999852
  0
MTEXT
  5
33F
100
AcDbEntity
  8
MAIN0
  6
BYBLOCK
 62
0
100
AcDbMText
 10
739.0343698687475
 20
315.3494629687633
 30
0.0000000000000000
 40
6.199999809265137
 41
0.0000000000000000
 71
     5
 72
     1
  1
\A1;30\U+00B0
 11
0.7071067811865570
 21
0.7071067811865381
 31
0.0000000000000000
  7
STANDARD
  0
ENDBLK
  5
340
100
AcDbEntity
  8
MAIN0
  6
CONTINUOUS
 62
3
100
AcDbBlockEnd
  0
BLOCK
  5
342
100
AcDbEntity
  8
MAIN0
  6
CONTINUOUS
 62
3
100
AcDbBlockBegin
  2
*D49
 70
    65
 10
0.0
 20
0.0
 30
0.0
  0
LINE
  5
343
100
AcDbEntity
  8
MAIN0
  6
BYBLOCK
 62
0
100
AcDbLine
 10
718.2047182913296
 20
354.6999999863959
 30
0.0000000000000000
 11
760.1460394850211
 21
330.4851669050482
 31
0.0000000000000000
  0
ARC
  5
344
100
AcDbEntity
  8
MAIN0
  6
BYBLOCK
 62
0
100
AcDbCircle
 10
674.3838328392004
 20
379.9999999983122
 30
0.0000000000000000
 40
95.02966618652340
100
AcDbArc
 50
332.4117007588172
 51
357.5882992411813
  0
INSERT
  5
345
100
AcDbEntity
  8
MAIN0
  6
BYBLOCK
 62
0
100
AcDbBlockReference
  2
_OPEN
 10
756.6819378698835
 20
332.4851669050483
 30
0.0000000000000000
 41
4.000000000000000
 42
4.000000000000000
 43
4.000000000000000
 50
239.9999999999985
  0
INSERT
  5
346
100
AcDbEntity
  8
MAIN0
  6
BYBLOCK
 62
0
100
AcDbBlockReference
  2
_OPEN
 10
769.4134990257238
 20
379.9999999983122
 30
0.0000000000000000
 41
4.000000000000000
 42
4.000000000000000
 43
4.000000000000000
 50
90.00000000000000
  0
MTEXT
  5
347
100
AcDbEntity
  8
MAIN0
  6
BYBLOCK
 62
0
100
AcDbMText
 10
762.6981087898691
 20
356.3362610771899
 30
0.0000000000000000
 40
6.199999809265137
 41
0.0000000000000000
 71
     5
 72
     1
  1
\A1;30\U+00B0
 11
0.2588190451025334
 21
0.9659258262890649
 31
0.0000000000000000
  7
STANDARD
  0
ENDBLK
  5
348
100
AcDbEntity
  8
MAIN0
  6
CONTINUOUS
 62
3
100
AcDbBlockEnd
  0
BLOCK
  5
34A
100
AcDbEntity
  8
MAIN0
  6
CONTINUOUS
 62
3
100
AcDbBlockBegin
  2
*D50
 70
    65
 10
0.0
 20
0.0
 30
0.0
  0
LINE
  5
34B
100
AcDbEntity
  8
MAIN0
  6
BYBLOCK
 62
0
100
AcDbLine
 10
718.2047182913393
 20
405.3000000102456
 30
0.0000000000000000
 11
760.1460394850112
 21
429.5148330915934
 31
0.0000000000000000
  0
ARC
  5
34C
100
AcDbEntity
  8
MAIN0
  6
BYBLOCK
 62
0
100
AcDbCircle
 10
674.3838328392004
 20
379.9999999983122
 30
0.0000000000000000
 40
95.02966618652340
100
AcDbArc
 50
2.411700758818732
 51
27.58829924119435
  0
INSERT
  5
34D
100
AcDbEntity
  8
MAIN0
  6
BYBLOCK
 62
0
100
AcDbBlockReference
  2
_OPEN
 10
769.4134990257238
 20
379.9999999983122
 30
0.0000000000000000
 41
4.000000000000000
 42
4.000000000000000
 43
4.000000000000000
 50
270.0000000000000
  0
INSERT
  5
34E
100
AcDbEntity
  8
MAIN0
  6
BYBLOCK
 62
0
100
AcDbBlockReference
  2
_OPEN
 10
756.6819378698739
 20
427.5148330915927
 30
0.0000000000000000
 41
4.000000000000000
 42
4.000000000000000
 43
4.000000000000000
 50
120.0000000000131
  0
MTEXT
  5
34F
100
AcDbEntity
  8
MAIN0
  6
BYBLOCK
 62
0
100
AcDbMText
 10
762.6981087898671
 20
403.6637389194434
 30
0.0000000000000000
 40
6.199999809265137
 41
0.0000000000000000
 71
     5
 72
     1
  1
\A1;30\U+00B0
 11
-0.2588190451026311
 21
0.9659258262890388
 31
0.0000000000000000
  7
STANDARD
  0
ENDBLK
  5
350
100
AcDbEntity
  8
MAIN0
  6
CONTINUOUS
 62
3
100
AcDbBlockEnd
  0
BLOCK
  5
352
100
AcDbEntity
  8
MAIN0
  6
CONTINUOUS
 62
3
100
AcDbBlockBegin
  2
*D51
 70
    65
 10
0.0
 20
0.0
 30
0.0
  0
LINE
  5
353
100
AcDbEntity
  8
MAIN0
  6
BYBLOCK
 62
0
100
AcDbLine
 10
718.2047182913393
 20
405.3000000102456
 30
0.0000000000000000
 11
760.1460394850112
 21
429.5148330915934
 31
0.0000000000000000
  0
LINE
  5
354
100
AcDbEntity
  8
MAIN0
  6
BYBLOCK
 62
0
100
AcDbLine
 10
707.3582389980318
 20
437.1133468148195
 30
0.0000000000000000
 11
723.8986659324626
 21
465.7622066441340
 31
0.0000000000000000
  0
ARC
  5
355
100
AcDbEntity
  8
MAIN0
  6
BYBLOCK
 62
0
100
AcDbCircle
 10
674.3838328392004
 20
379.9999999983122
 30
0.0000000000000000
 40
95.02966618652340
100
AcDbArc
 50
32.41170075883181
 51
57.58829924118095
  0
INSERT
  5
356
100
AcDbEntity
  8
MAIN0
  6
BYBLOCK
 62
0
100
AcDbBlockReference
  2
_OPEN
 10
756.6819378698739
 20
427.5148330915927
 30
0.0000000000000000
 41
4.000000000000000
 42
4.000000000000000
 43
4.000000000000000
 50
300.0000000000131
  0
INSERT
  5
357
100
AcDbEntity
  8
MAIN0
  6
BYBLOCK
 62
0
100
AcDbBlockReference
  2
_OPEN
 10
721.8986659324626
 20
462.2981050289963
 30
0.0000000000000000
 41
4.000000000000000
 42
4.000000000000000
 43
4.000000000000000
 50
149.9999999999997
  0
MTEXT
  5
358
100
AcDbEntity
  8
MAIN0
  6
BYBLOCK
 62
0
100
AcDbMText
 10
747.1689857768195
 20
446.5592408676334
 30
0.0000000000000000
 40
6.199999809265137
 41
0.0000000000000000
 71
     5
 72
     1
  1
\A1;30\U+00B0
 11
0.6748399696274499
 21
-0.7379641016968390
 31
0.0000000000000000
  7
STANDARD
  0
ENDBLK
  5
359
100
AcDbEntity
  8
MAIN0
  6
CONTINUOUS
 62
3
100
AcDbBlockEnd
  0
BLOCK
  5
35B
100
AcDbEntity
  8
MAIN0
  6
CONTINUOUS
 62
3
100
AcDbBlockBegin
  2
*D52
 70
    65
 10
0.0
 20
0.0
 30
0.0
  0
LINE
  5
35C
100
AcDbEntity
  8
MAIN0
  6
BYBLOCK
 62
0
100
AcDbLine
 10
707.3582389980318
 20
437.1133468148195
 30
0.0000000000000000
 11
723.8986659324626
 21
465.7622066441340
 31
0.0000000000000000
  0
ARC
  5
35D
100
AcDbEntity
  8
MAIN0
  6
BYBLOCK
 62
0
100
AcDbCircle
 10
674.3838328392004
 20
379.9999999983122
 30
0.0000000000000000
 40
95.02966618652340
100
AcDbArc
 50
62.41170075881841
 51
87.58829924118128
  0
INSERT
  5
35E
100
AcDbEntity
  8
MAIN0
  6
BYBLOCK
 62
0
100
AcDbBlockReference
  2
_OPEN
 10
721.8986659324626
 20
462.2981050289963
 30
0.0000000000000000
 41
4.000000000000000
 42
4.000000000000000
 43
4.000000000000000
 50
329.9999999999997
  0
INSERT
  5
35F
100
AcDbEntity
  8
MAIN0
  6
BYBLOCK
 62
0
100
AcDbBlockReference
  2
_OPEN
 10
674.3838328392004
 20
475.0296661848356
 30
0.0000000000000000
 41
4.000000000000000
 42
4.000000000000000
 43
4.000000000000000
 50
180.0000000000000
  0
MTEXT
  5
360
100
AcDbEntity
  8
MAIN0
  6
BYBLOCK
 62
0
100
AcDbMText
 10
716.5328501966039
 20
469.1699016975863
 30
0.0000000000000000
 40
6.199999809265137
 41
0.0000000000000000
 71
     5
 72
     1
  1
\A1;30\U+00B0
 11
0.9040880419980448
 21
-0.4273462440646244
 31
0.0000000000000000
  7
STANDARD
  0
ENDBLK
  5
361
100
AcDbEntity
  8
MAIN0
  6
CONTINUOUS
 62
3
100
AcDbBlockEnd
  0
BLOCK
  5
369
100
AcDbEntity
  8
MAIN0
  6
CONTINUOUS
 62
3
100
AcDbBlockBegin
  2
*D53
 70
    65
 10
0.0
 20
0.0
 30
0.0
  0
LINE
  5
36A
100
AcDbEntity
  8
MAIN0
  6
BYBLOCK
 62
0
100
AcDbLine
 10
161.9953940125174
 20
450.1000000218154
 30
0.0000000000000000
 11
161.9953940125174
 21
506.4419454604350
 31
0.0000000000000000
  0
LINE
  5
36B
100
AcDbEntity
  8
MAIN0
  6
BYBLOCK
 62
0
100
AcDbLine
 10
165.9953940125174
 20
502.4419454604350
 30
0.0000000000000000
 11
187.9953940122912
 21
502.4419454604350
 31
0.0000000000000000
  0
INSERT
  5
36C
100
AcDbEntity
  8
MAIN0
  6
BYBLOCK
 62
0
100
AcDbBlockReference
  2
_OPEN
 10
161.9953940125174
 20
502.4419454604350
 30
0.0000000000000000
 41
4.000000000000000
 42
4.000000000000000
 43
4.000000000000000
 50
180.0000000000000
  0
INSERT
  5
36D
100
AcDbEntity
  8
MAIN0
  6
BYBLOCK
 62
0
100
AcDbBlockReference
  2
_OPEN
 10
191.9953940122912
 20
502.4419454604350
 30
0.0000000000000000
 41
4.000000000000000
 42
4.000000000000000
 43
4.000000000000000
 50
0.0000000000000000
  0
LINE
  5
36E
100
AcDbEntity
  8
MAIN0
  6
BYBLOCK
 62
0
100
AcDbLine
 10
191.9953940122912
 20
494.6510724802490
 30
0.0000000000000000
 11
191.9953940122912
 21
506.4419454604350
 31
0.0000000000000000
  0
MTEXT
  5
36F
100
AcDbEntity
  8
MAIN0
  6
BYBLOCK
 62
0
100
AcDbMText
 10
176.9953940124043
 20
506.0419453650675
 30
0.0000000000000000
 40
6.199999809265137
 41
0.0000000000000000
 71
     5
 72
     1
  1
\A1;30
 11
1.000000000000000
 21
0.0000000000000000
 31
0.0000000000000000
  7
STANDARD
  0
ENDBLK
  5
370
100
AcDbEntity
  8
MAIN0
  6
CONTINUOUS
 62
3
100
AcDbBlockEnd
  0
BLOCK
  5
372
100
AcDbEntity
  8
MAIN0
  6
CONTINUOUS
 62
3
100
AcDbBlockBegin
  2
*D54
 70
    65
 10
0.0
 20
0.0
 30
0.0
  0
LINE
  5
373
100
AcDbEntity
  8
MAIN0
  6
BYBLOCK
 62
0
100
AcDbLine
 10
191.9953940122912
 20
494.6510724802490
 30
0.0000000000000000
 11
191.9953940122912
 21
506.4419454604350
 31
0.0000000000000000
  0
LINE
  5
374
100
AcDbEntity
  8
MAIN0
  6
BYBLOCK
 62
0
100
AcDbLine
 10
195.9953940122912
 20
502.4419454604350
 30
0.0000000000000000
 11
217.9953940124018
 21
502.4419454604350
 31
0.0000000000000000
  0
INSERT
  5
375
100
AcDbEntity
  8
MAIN0
  6
BYBLOCK
 62
0
100
AcDbBlockReference
  2
_OPEN
 10
191.9953940122912
 20
502.4419454604350
 30
0.0000000000000000
 41
4.000000000000000
 42
4.000000000000000
 43
4.000000000000000
 50
180.0000000000000
  0
INSERT
  5
376
100
AcDbEntity
  8
MAIN0
  6
BYBLOCK
 62
0
100
AcDbBlockReference
  2
_OPEN
 10
221.9953940124018
 20
502.4419454604350
 30
0.0000000000000000
 41
4.000000000000000
 42
4.000000000000000
 43
4.000000000000000
 50
0.0000000000000000
  0
LINE
  5
377
100
AcDbEntity
  8
MAIN0
  6
BYBLOCK
 62
0
100
AcDbLine
 10
221.9953940124018
 20
450.1000000218153
 30
0.0000000000000000
 11
221.9953940124018
 21
506.4419454604350
 31
0.0000000000000000
  0
MTEXT
  5
378
100
AcDbEntity
  8
MAIN0
  6
BYBLOCK
 62
0
100
AcDbMText
 10
206.9953940123465
 20
506.0419453650675
 30
0.0000000000000000
 40
6.199999809265137
 41
0.0000000000000000
 71
     5
 72
     1
  1
\A1;30
 11
1.000000000000000
 21
0.0000000000000000
 31
0.0000000000000000
  7
STANDARD
  0
ENDBLK
  5
379
100
AcDbEntity
  8
MAIN0
  6
CONTINUOUS
 62
3
100
AcDbBlockEnd
  0
BLOCK
  5
37B
100
AcDbEntity
  8
MAIN0
  6
CONTINUOUS
 62
3
100
AcDbBlockBegin
  2
*D55
 70
    65
 10
0.0
 20
0.0
 30
0.0
  0
LINE
  5
37C
100
AcDbEntity
  8
MAIN0
  6
BYBLOCK
 62
0
100
AcDbLine
 10
454.4999999990623
 20
445.3500000234473
 30
0.0000000000000000
 11
454.4999999990623
 21
519.6822372369666
 31
0.0000000000000000
  0
LINE
  5
37D
100
AcDbEntity
  8
MAIN0
  6
BYBLOCK
 62
0
100
AcDbLine
 10
454.4999999990623
 20
515.6822372369666
 30
0.0000000000000000
 11
442.4999999998935
 21
515.6822372369666
 31
0.0000000000000000
  0
INSERT
  5
37E
100
AcDbEntity
  8
MAIN0
  6
BYBLOCK
 62
0
100
AcDbBlockReference
  2
_OPEN
 10
454.4999999990623
 20
515.6822372369666
 30
0.0000000000000000
 41
4.000000000000000
 42
4.000000000000000
 43
4.000000000000000
 50
180.0000000000000
  0
INSERT
  5
37F
100
AcDbEntity
  8
MAIN0
  6
BYBLOCK
 62
0
100
AcDbBlockReference
  2
_OPEN
 10
442.4999999998935
 20
515.6822372369666
 30
0.0000000000000000
 41
4.000000000000000
 42
4.000000000000000
 43
4.000000000000000
 50
360.0000000000000
  0
LINE
  5
380
100
AcDbEntity
  8
MAIN0
  6
BYBLOCK
 62
0
100
AcDbLine
 10
458.4999999990623
 20
515.6822372369666
 30
0.0000000000000000
 11
460.4999999990623
 21
515.6822372369666
 31
0.0000000000000000
  0
LINE
  5
381
100
AcDbEntity
  8
MAIN0
  6
BYBLOCK
 62
0
100
AcDbLine
 10
438.4999999998935
 20
515.6822372369666
 30
0.0000000000000000
 11
436.4999999998935
 21
515.6822372369666
 31
0.0000000000000000
  0
LINE
  5
382
100
AcDbEntity
  8
MAIN0
  6
BYBLOCK
 62
0
100
AcDbLine
 10
442.4999999998935
 20
463.6000000235234
 30
0.0000000000000000
 11
442.4999999998935
 21
519.6822372369666
 31
0.0000000000000000
  0
MTEXT
  5
383
100
AcDbEntity
  8
MAIN0
  6
BYBLOCK
 62
0
100
AcDbMText
 10
448.4999999994780
 20
519.2822371415991
 30
0.0000000000000000
 40
6.199999809265137
 41
0.0000000000000000
 71
     5
 72
     1
  1
\A1;12
 11
1.000000000000000
 21
0.0000000000000000
 31
0.0000000000000000
  7
STANDARD
  0
ENDBLK
  5
384
100
AcDbEntity
  8
MAIN0
  6
CONTINUOUS
 62
3
100
AcDbBlockEnd
  0
BLOCK
  5
386
100
AcDbEntity
  8
MAIN0
  6
CONTINUOUS
 62
3
100
AcDbBlockBegin
  2
*D56
 70
    65
 10
0.0
 20
0.0
 30
0.0
  0
LINE
  5
387
100
AcDbEntity
  8
MAIN0
  6
BYBLOCK
 62
0
100
AcDbLine
 10
442.4999999998935
 20
463.6000000235234
 30
0.0000000000000000
 11
442.4999999998935
 21
519.6822372369666
 31
0.0000000000000000
  0
LINE
  5
388
100
AcDbEntity
  8
MAIN0
  6
BYBLOCK
 62
0
100
AcDbLine
 10
438.4999999998935
 20
515.6822372369666
 30
0.0000000000000000
 11
361.9999999989029
 21
515.6822372369666
 31
0.0000000000000000
  0
INSERT
  5
389
100
AcDbEntity
  8
MAIN0
  6
BYBLOCK
 62
0
100
AcDbBlockReference
  2
_OPEN
 10
442.4999999998935
 20
515.6822372369666
 30
0.0000000000000000
 41
4.000000000000000
 42
4.000000000000000
 43
4.000000000000000
 50
360.0000000000000
  0
INSERT
  5
38A
100
AcDbEntity
  8
MAIN0
  6
BYBLOCK
 62
0
100
AcDbBlockReference
  2
_OPEN
 10
357.9999999989029
 20
515.6822372369666
 30
0.0000000000000000
 41
4.000000000000000
 42
4.000000000000000
 43
4.000000000000000
 50
180.0000000000000
  0
LINE
  5
38B
100
AcDbEntity
  8
MAIN0
  6
BYBLOCK
 62
0
100
AcDbLine
 10
357.9999999989029
 20
471.6000000238914
 30
0.0000000000000000
 11
357.9999999989029
 21
519.6822372369666
 31
0.0000000000000000
  0
MTEXT
  5
38C
100
AcDbEntity
  8
MAIN0
  6
BYBLOCK
 62
0
100
AcDbMText
 10
400.2499999993982
 20
519.2822371415991
 30
0.0000000000000000
 40
6.199999809265137
 41
0.0000000000000000
 71
     5
 72
     1
  1
\A1;84.5
 11
1.000000000000000
 21
0.0000000000000000
 31
0.0000000000000000
  7
STANDARD
  0
ENDBLK
  5
38D
100
AcDbEntity
  8
MAIN0
  6
CONTINUOUS
 62
3
100
AcDbBlockEnd
  0
BLOCK
  5
38F
100
AcDbEntity
  8
MAIN0
  6
CONTINUOUS
 62
3
100
AcDbBlockBegin
  2
*D57
 70
    65
 10
0.0
 20
0.0
 30
0.0
  0
LINE
  5
390
100
AcDbEntity
  8
MAIN0
  6
BYBLOCK
 62
0
100
AcDbLine
 10
109.9953940124582
 20
357.8999999741496
 30
0.0000000000000000
 11
109.9953940124582
 21
195.9477338850467
 31
0.0000000000000000
  0
LINE
  5
391
100
AcDbEntity
  8
MAIN0
  6
BYBLOCK
 62
0
100
AcDbLine
 10
113.9953940124582
 20
199.9477338850467
 30
0.0000000000000000
 11
187.9953940125693
 21
199.9477338850467
 31
0.0000000000000000
  0
INSERT
  5
392
100
AcDbEntity
  8
MAIN0
  6
BYBLOCK
 62
0
100
AcDbBlockReference
  2
_OPEN
 10
109.9953940124582
 20
199.9477338850467
 30
0.0000000000000000
 41
4.000000000000000
 42
4.000000000000000
 43
4.000000000000000
 50
180.0000000000000
  0
INSERT
  5
393
100
AcDbEntity
  8
MAIN0
  6
BYBLOCK
 62
0
100
AcDbBlockReference
  2
_OPEN
 10
191.9953940125693
 20
199.9477338850467
 30
0.0000000000000000
 41
4.000000000000000
 42
4.000000000000000
 43
4.000000000000000
 50
0.0000000000000000
  0
LINE
  5
394
100
AcDbEntity
  8
MAIN0
  6
BYBLOCK
 62
0
100
AcDbLine
 10
191.9953940126790
 20
224.3338106213196
 30
0.0000000000000000
 11
191.9953940125513
 21
195.9477338850467
 31
0.0000000000000000
  0
MTEXT
  5
395
100
AcDbEntity
  8
MAIN0
  6
BYBLOCK
 62
0
100
AcDbMText
 10
150.9953940125137
 20
203.5477337896792
 30
0.0000000000000000
 40
6.199999809265137
 41
0.0000000000000000
 71
     5
 72
     1
  1
\A1;82
 11
1.000000000000000
 21
0.0000000000000000
 31
0.0000000000000000
  7
STANDARD
  0
ENDBLK
  5
396
100
AcDbEntity
  8
MAIN0
  6
CONTINUOUS
 62
3
100
AcDbBlockEnd
  0
BLOCK
  5
398
100
AcDbEntity
  8
MAIN0
  6
CONTINUOUS
 62
3
100
AcDbBlockBegin
  2
*D58
 70
    65
 10
0.0
 20
0.0
 30
0.0
  0
LINE
  5
399
100
AcDbEntity
  8
MAIN0
  6
BYBLOCK
 62
0
100
AcDbLine
 10
191.9953940126790
 20
224.3338106213196
 30
0.0000000000000000
 11
191.9953940125513
 21
195.9477338850467
 31
0.0000000000000000
  0
LINE
  5
39A
100
AcDbEntity
  8
MAIN0
  6
BYBLOCK
 62
0
100
AcDbLine
 10
195.9953940125693
 20
199.9477338850467
 30
0.0000000000000000
 11
269.9953940124585
 21
199.9477338850467
 31
0.0000000000000000
  0
INSERT
  5
39B
100
AcDbEntity
  8
MAIN0
  6
BYBLOCK
 62
0
100
AcDbBlockReference
  2
_OPEN
 10
191.9953940125693
 20
199.9477338850467
 30
0.0000000000000000
 41
4.000000000000000
 42
4.000000000000000
 43
4.000000000000000
 50
180.0000000000000
  0
INSERT
  5
39C
100
AcDbEntity
  8
MAIN0
  6
BYBLOCK
 62
0
100
AcDbBlockReference
  2
_OPEN
 10
273.9953940124585
 20
199.9477338850467
 30
0.0000000000000000
 41
4.000000000000000
 42
4.000000000000000
 43
4.000000000000000
 50
0.0000000000000000
  0
LINE
  5
39D
100
AcDbEntity
  8
MAIN0
  6
BYBLOCK
 62
0
100
AcDbLine
 10
273.9953940124585
 20
357.8999999741496
 30
0.0000000000000000
 11
273.9953940124585
 21
195.9477338850467
 31
0.0000000000000000
  0
MTEXT
  5
39E
100
AcDbEntity
  8
MAIN0
  6
BYBLOCK
 62
0
100
AcDbMText
 10
232.9953940125139
 20
203.5477337896792
 30
0.0000000000000000
 40
6.199999809265137
 41
0.0000000000000000
 71
     5
 72
     1
  1
\A1;82
 11
1.000000000000000
 21
0.0000000000000000
 31
0.0000000000000000
  7
STANDARD
  0
ENDBLK
  5
39F
100
AcDbEntity
  8
MAIN0
  6
CONTINUOUS
 62
3
100
AcDbBlockEnd
  0
BLOCK
  5
3A1
100
AcDbEntity
  8
MAIN0
  6
CONTINUOUS
 62
3
100
AcDbBlockBegin
  2
*D59
 70
    65
 10
0.0
 20
0.0
 30
0.0
  0
LINE
  5
3A2
100
AcDbEntity
  8
MAIN0
  6
BYBLOCK
 62
0
100
AcDbLine
 10
207.9953940127909
 20
240.2849077627222
 30
0.0000000000000000
 11
207.9953940127909
 21
210.9999999980475
 31
0.0000000000000000
  0
LINE
  5
3A3
100
AcDbEntity
  8
MAIN0
  6
BYBLOCK
 62
0
100
AcDbLine
 10
207.9953940127909
 20
214.9999999980475
 30
0.0000000000000000
 11
192.9953940126863
 21
214.9999999980475
 31
0.0000000000000000
  0
INSERT
  5
3A4
100
AcDbEntity
  8
MAIN0
  6
BYBLOCK
 62
0
100
AcDbBlockReference
  2
_OPEN
 10
207.9953940127909
 20
214.9999999980475
 30
0.0000000000000000
 41
4.000000000000000
 42
4.000000000000000
 43
4.000000000000000
 50
180.0000000000000
  0
INSERT
  5
3A5
100
AcDbEntity
  8
MAIN0
  6
BYBLOCK
 62
0
100
AcDbBlockReference
  2
_DOT
 10
191.9953940126863
 20
214.9999999980475
 30
0.0000000000000000
 41
2.000000000000000
 42
2.000000000000000
 43
2.000000000000000
 50
180.0000000000000
  0
LINE
  5
3A6
100
AcDbEntity
  8
MAIN0
  6
BYBLOCK
 62
0
100
AcDbLine
 10
211.9953940127909
 20
214.9999999980475
 30
0.0000000000000000
 11
213.9953940127909
 21
214.9999999980475
 31
0.0000000000000000
  0
LINE
  5
3A7
100
AcDbEntity
  8
MAIN0
  6
BYBLOCK
 62
0
100
AcDbLine
 10
191.9953940126863
 20
224.3338106213195
 30
0.0000000000000000
 11
191.9953940126863
 21
210.9999999980475
 31
0.0000000000000000
  0
MTEXT
  5
3A8
100
AcDbEntity
  8
MAIN0
  6
BYBLOCK
 62
0
100
AcDbMText
 10
199.9953940127386
 20
218.5999999026800
 30
0.0000000000000000
 40
6.199999809265137
 41
0.0000000000000000
 71
     5
 72
     1
  1
\A1;16
 11
1.000000000000000
 21
0.0000000000000000
 31
0.0000000000000000
  7
STANDARD
  0
ENDBLK
  5
3A9
100
AcDbEntity
  8
MAIN0
  6
CONTINUOUS
 62
3
100
AcDbBlockEnd
  0
BLOCK
  5
3AB
100
AcDbEntity
  8
MAIN0
  6
CONTINUOUS
 62
3
100
AcDbBlockBegin
  2
*D60
 70
    65
 10
0.0
 20
0.0
 30
0.0
  0
LINE
  5
3AC
100
AcDbEntity
  8
MAIN0
  6
BYBLOCK
 62
0
100
AcDbLine
 10
191.9953940126863
 20
224.3338106213195
 30
0.0000000000000000
 11
191.9953940126863
 21
210.9999999980475
 31
0.0000000000000000
  0
LINE
  5
3AD
100
AcDbEntity
  8
MAIN0
  6
BYBLOCK
 62
0
100
AcDbLine
 10
190.9953940126863
 20
214.9999999980475
 30
0.0000000000000000
 11
175.9953940127908
 21
214.9999999980475
 31
0.0000000000000000
  0
INSERT
  5
3AE
100
AcDbEntity
  8
MAIN0
  6
BYBLOCK
 62
0
100
AcDbBlockReference
  2
_DOT
 10
191.9953940126863
 20
214.9999999980475
 30
0.0000000000000000
 41
2.000000000000000
 42
2.000000000000000
 43
2.000000000000000
 50
360.0000000000000
  0
INSERT
  5
3AF
100
AcDbEntity
  8
MAIN0
  6
BYBLOCK
 62
0
100
AcDbBlockReference
  2
_OPEN
 10
175.9953940127908
 20
214.9999999980475
 30
0.0000000000000000
 41
4.000000000000000
 42
4.000000000000000
 43
4.000000000000000
 50
360.0000000000000
  0
LINE
  5
3B0
100
AcDbEntity
  8
MAIN0
  6
BYBLOCK
 62
0
100
AcDbLine
 10
171.9953940127908
 20
214.9999999980475
 30
0.0000000000000000
 11
169.9953940127908
 21
214.9999999980475
 31
0.0000000000000000
  0
LINE
  5
3B1
100
AcDbEntity
  8
MAIN0
  6
BYBLOCK
 62
0
100
AcDbLine
 10
175.9953940127908
 20
240.2849077626882
 30
0.0000000000000000
 11
175.9953940127908
 21
210.9999999980475
 31
0.0000000000000000
  0
MTEXT
  5
3B2
100
AcDbEntity
  8
MAIN0
  6
BYBLOCK
 62
0
100
AcDbMText
 10
183.9953940127385
 20
218.5999999026800
 30
0.0000000000000000
 40
6.199999809265137
 41
0.0000000000000000
 71
     5
 72
     1
  1
\A1;16
 11
1.000000000000000
 21
0.0000000000000000
 31
0.0000000000000000
  7
STANDARD
  0
ENDBLK
  5
3B3
100
AcDbEntity
  8
MAIN0
  6
CONTINUOUS
 62
3
100
AcDbBlockEnd
  0
BLOCK
  5
3B5
100
AcDbEntity
  8
MAIN0
  6
CONTINUOUS
 62
3
100
AcDbBlockBegin
  2
*D61
 70
    65
 10
0.0
 20
0.0
 30
0.0
  0
LINE
  5
3B6
100
AcDbEntity
  8
MAIN0
  6
BYBLOCK
 62
0
100
AcDbLine
 10
783.1338328392008
 20
238.9862210820533
 30
0.0000000000000000
 11
783.1338328392008
 21
208.4187400650875
 31
0.0000000000000000
  0
LINE
  5
3B7
100
AcDbEntity
  8
MAIN0
  6
BYBLOCK
 62
0
100
AcDbLine
 10
783.1338328392008
 20
212.4187400650875
 30
0.0000000000000000
 11
765.6338328392008
 21
212.4187400650875
 31
0.0000000000000000
  0
INSERT
  5
3B8
100
AcDbEntity
  8
MAIN0
  6
BYBLOCK
 62
0
100
AcDbBlockReference
  2
_OPEN
 10
783.1338328392008
 20
212.4187400650875
 30
0.0000000000000000
 41
4.000000000000000
 42
4.000000000000000
 43
4.000000000000000
 50
180.0000000000000
  0
INSERT
  5
3B9
100
AcDbEntity
  8
MAIN0
  6
BYBLOCK
 62
0
100
AcDbBlockReference
  2
_OPEN
 10
765.6338328392008
 20
212.4187400650875
 30
0.0000000000000000
 41
4.000000000000000
 42
4.000000000000000
 43
4.000000000000000
 50
360.0000000000000
  0
LINE
  5
3BA
100
AcDbEntity
  8
MAIN0
  6
BYBLOCK
 62
0
100
AcDbLine
 10
787.1338328392008
 20
212.4187400650875
 30
0.0000000000000000
 11
789.1338328392008
 21
212.4187400650875
 31
0.0000000000000000
  0
LINE
  5
3BB
100
AcDbEntity
  8
MAIN0
  6
BYBLOCK
 62
0
100
AcDbLine
 10
761.6338328392008
 20
212.4187400650875
 30
0.0000000000000000
 11
732.9387048262740
 21
212.4187400650875
 31
0.0000000000000000
  0
LINE
  5
3BC
100
AcDbEntity
  8
MAIN0
  6
BYBLOCK
 62
0
100
AcDbLine
 10
765.6338328392008
 20
238.9862204220787
 30
0.0000000000000000
 11
765.6338328392008
 21
208.4187400650875
 31
0.0000000000000000
  0
MTEXT
  5
3BD
100
AcDbEntity
  8
MAIN0
  6
BYBLOCK
 62
0
100
AcDbMText
 10
747.0387052077438
 20
216.5187399697201
 30
0.0000000000000000
 40
6.199999809265137
 41
0.0000000000000000
 71
     5
 72
     1
  1
\A1;8-\U+220517.5
 11
1.000000000000000
 21
0.0000000000000000
 31
0.0000000000000000
  7
STANDARD
  0
ENDBLK
  5
3BE
100
AcDbEntity
  8
MAIN0
  6
CONTINUOUS
 62
3
100
AcDbBlockEnd
  0
ENDSEC
  0
SECTION
  2
ENTITIES
  0
CIRCLE
  5
46
100
AcDbEntity
  8
MAIN0
  6
CONTINUOUS
 62
3
100
AcDbCircle
 10
646.8838328392006
 20
427.6313972064567
 30
0.0000000000000000
 40
5.000000000000000
  0
CIRCLE
  5
47
100
AcDbEntity
  8
MAIN0
  6
CONTINUOUS
 62
3
100
AcDbCircle
 10
646.8838328392006
 20
427.6313972064567
 30
0.0000000000000000
 40
4.250000000000000
  0
LINE
  5
48
100
AcDbEntity
  8
MAIN0
  6
CENTER
 62
3
100
AcDbLine
 10
610.0350205453806
 20
379.9999999983125
 30
0.0000000000000000
 11
626.0456806746690
 21
379.9999999983126
 31
0.0000000000000000
  0
CIRCLE
  5
49
100
AcDbEntity
  8
MAIN0
  6
CONTINUOUS
 62
3
100
AcDbCircle
 10
619.3838328392004
 20
379.9999999983125
 30
0.0000000000000000
 40
5.000000000000000
  0
CIRCLE
  5
4A
100
AcDbEntity
  8
MAIN0
  6
CONTINUOUS
 62
3
100
AcDbCircle
 10
619.3838328392004
 20
379.9999999983125
 30
0.0000000000000000
 40
4.250000000000000
  0
LINE
  5
4B
100
AcDbEntity
  8
MAIN0
  6
CONTINUOUS
 62
3
100
AcDbLine
 10
739.3838328392461
 20
438.5064099036083
 30
0.0000000000000000
 11
739.3838328392825
 21
484.9999999983124
 31
0.0000000000000000
  0
LINE
  5
4C
100
AcDbEntity
  8
MAIN0
  6
CONTINUOUS
 62
3
100
AcDbLine
 10
609.3838328392462
 20
438.5064099036083
 30
0.0000000000000000
 11
609.3838328392832
 21
484.9999999983124
 31
0.0000000000000000
  0
CIRCLE
  5
4D
100
AcDbEntity
  8
MAIN0
  6
CONTINUOUS
 62
3
100
AcDbCircle
 10
674.3838328392005
 20
379.9999999983124
 30
0.0000000000000000
 40
20.00000000000000
  0
LINE
  5
4E
100
AcDbEntity
  8
MAIN0
  6
CONTINUOUS
 62
3
100
AcDbLine
 10
683.3838328392006
 20
234.9999999983125
 30
0.0000000000000000
 11
665.3838328392006
 21
234.9999999983125
 31
0.0000000000000000
  0
LINE
  5
4F
100
AcDbEntity
  8
MAIN0
  6
HIDDEN
 62
3
100
AcDbLine
 10
668.8838328392005
 20
234.9999999983124
 30
0.0000000000000000
 11
668.8838328392005
 21
241.4999999983124
 31
0.0000000000000000
  0
LINE
  5
50
100
AcDbEntity
  8
MAIN0
  6
HIDDEN
 62
3
100
AcDbLine
 10
668.8838328392006
 20
241.4999999983125
 30
0.0000000000000000
 11
679.8838328392006
 21
241.4999999983124
 31
0.0000000000000000
  0
LINE
  5
51
100
AcDbEntity
  8
MAIN0
  6
HIDDEN
 62
3
100
AcDbLine
 10
679.8838328392005
 20
234.9999999983124
 30
0.0000000000000000
 11
679.8838328392005
 21
241.4999999983124
 31
0.0000000000000000
  0
LINE
  5
52
100
AcDbEntity
  8
MAIN0
  6
CENTER
 62
3
100
AcDbLine
 10
674.3838328392003
 20
230.5449760315178
 30
0.0000000000000000
 11
674.3838328392005
 21
501.3452869902219
 31
0.0000000000000000
  0
LINE
  5
53
100
AcDbEntity
  8
MAIN0
  6
CONTINUOUS
 62
3
100
AcDbLine
 10
534.7838328392005
 20
264.9999999983124
 30
0.0000000000000000
 11
590.3838328392005
 21
264.9999999983124
 31
0.0000000000000000
  0
LINE
  5
54
100
AcDbEntity
  8
MAIN0
  6
CONTINUOUS
 62
3
100
AcDbLine
 10
534.3838328392006
 20
264.5999999983125
 30
0.0000000000000000
 11
534.3838328392006
 21
240.3999999983124
 31
0.0000000000000000
  0
LINE
  5
55
100
AcDbEntity
  8
MAIN0
  6
CENTER
 62
3
100
AcDbLine
 10
574.3838328392006
 20
285.4377055587637
 30
0.0000000000000000
 11
574.3838328392006
 21
211.3913171173776
 31
0.0000000000000000
  0
LINE
  5
56
100
AcDbEntity
  8
MAIN0
  6
CONTINUOUS
 62
3
100
AcDbLine
 10
683.3838328392006
 20
244.9999999983124
 30
0.0000000000000000
 11
683.3838328392006
 21
234.9999999983125
 31
0.0000000000000000
  0
LINE
  5
57
100
AcDbEntity
  8
MAIN0
  6
CONTINUOUS
 62
3
100
AcDbLine
 10
665.3838328392006
 20
244.9999999983124
 30
0.0000000000000000
 11
665.3838328392006
 21
234.9999999983123
 31
0.0000000000000000
  0
LINE
  5
58
100
AcDbEntity
  8
MAIN0
  6
CONTINUOUS
 62
3
100
AcDbLine
 10
665.3838328392006
 20
244.9999999983124
 30
0.0000000000000000
 11
683.3838328392006
 21
244.9999999983124
 31
0.0000000000000000
  0
LINE
  5
59
100
AcDbEntity
  8
MAIN0
  6
CONTINUOUS
 62
3
100
AcDbLine
 10
534.7838328392005
 20
239.9999999983124
 30
0.0000000000000000
 11
664.9838328392007
 21
239.9999999983124
 31
0.0000000000000000
  0
LINE
  5
5A
100
AcDbEntity
  8
MAIN0
  6
CONTINUOUS
 62
3
100
AcDbLine
 10
683.7838328392007
 20
239.9999999983124
 30
0.0000000000000000
 11
813.9838328392006
 21
239.9999999983124
 31
0.0000000000000000
  0
LINE
  5
5B
100
AcDbEntity
  8
MAIN0
  6
CONTINUOUS
 62
3
100
AcDbLine
 10
814.3838328392008
 20
264.5999999983123
 30
0.0000000000000000
 11
814.3838328392008
 21
240.3999999983124
 31
0.0000000000000000
  0
LINE
  5
5C
100
AcDbEntity
  8
MAIN0
  6
CONTINUOUS
 62
3
100
AcDbLine
 10
813.9838328392006
 20
264.9999999983124
 30
0.0000000000000000
 11
758.3838328392008
 21
264.9999999983124
 31
0.0000000000000000
  0
LINE
  5
5D
100
AcDbEntity
  8
MAIN0
  6
CONTINUOUS
 62
3
100
AcDbLine
 10
758.3838328392008
 20
268.3431457488200
 30
0.0000000000000000
 11
758.3838328392008
 21
264.9999999983124
 31
0.0000000000000000
  0
LINE
  5
5E
100
AcDbEntity
  8
MAIN0
  6
CONTINUOUS
 62
3
100
AcDbLine
 10
590.3838328392005
 20
268.8038475756057
 30
0.0000000000000000
 11
590.3838328392005
 21
264.9999999983124
 31
0.0000000000000000
  0
LINE
  5
5F
100
AcDbEntity
  8
MAIN0
  6
CONTINUOUS
 62
3
100
AcDbLine
 10
534.7838328392006
 20
264.9999999983123
 30
0.0000000000000000
 11
534.3838328392005
 21
264.5999999983124
 31
0.0000000000000000
  0
LINE
  5
60
100
AcDbEntity
  8
MAIN0
  6
CONTINUOUS
 62
3
100
AcDbLine
 10
534.3838328392005
 20
240.3999999983125
 30
0.0000000000000000
 11
534.7838328392004
 21
239.9999999983126
 31
0.0000000000000000
  0
LINE
  5
61
100
AcDbEntity
  8
MAIN0
  6
CONTINUOUS
 62
3
100
AcDbLine
 10
813.9838328392006
 20
264.9999999983123
 30
0.0000000000000000
 11
814.3838328392005
 21
264.5999999983125
 31
0.0000000000000000
  0
LINE
  5
62
100
AcDbEntity
  8
MAIN0
  6
CONTINUOUS
 62
3
100
AcDbLine
 10
814.3838328392005
 20
240.3999999983126
 30
0.0000000000000000
 11
813.9838328392004
 21
239.9999999983125
 31
0.0000000000000000
  0
LINE
  5
63
100
AcDbEntity
  8
MAIN0
  6
HIDDEN
 62
3
100
AcDbLine
 10
564.3838328392006
 20
244.9999999983124
 30
0.0000000000000000
 11
584.3838328392006
 21
244.9999999983124
 31
0.0000000000000000
  0
LINE
  5
64
100
AcDbEntity
  8
MAIN0
  6
HIDDEN
 62
3
100
AcDbLine
 10
584.3838328392006
 20
244.9999999983124
 30
0.0000000000000000
 11
584.3838328392006
 21
240.5999999983123
 31
0.0000000000000000
  0
LINE
  5
65
100
AcDbEntity
  8
MAIN0
  6
HIDDEN
 62
3
100
AcDbLine
 10
564.3838328392006
 20
244.9999999983124
 30
0.0000000000000000
 11
564.3838328392006
 21
240.5999999983123
 31
0.0000000000000000
  0
LINE
  5
66
100
AcDbEntity
  8
MAIN0
  6
CONTINUOUS
 62
3
100
AcDbLine
 10
665.3838328392005
 20
240.3999999983125
 30
0.0000000000000000
 11
664.9838328392004
 21
239.9999999983124
 31
0.0000000000000000
  0
LINE
  5
67
100
AcDbEntity
  8
MAIN0
  6
CONTINUOUS
 62
3
100
AcDbLine
 10
683.3838328392008
 20
240.3999999983123
 30
0.0000000000000000
 11
683.7838328392008
 21
239.9999999983122
 31
0.0000000000000000
  0
LINE
  5
68
100
AcDbEntity
  8
MAIN0
  6
HIDDEN
 62
3
100
AcDbLine
 10
563.7838328392007
 20
239.9999999983124
 30
0.0000000000000000
 11
564.3838328392008
 21
240.5999999983123
 31
0.0000000000000000
  0
LINE
  5
69
100
AcDbEntity
  8
MAIN0
  6
HIDDEN
 62
3
100
AcDbLine
 10
584.9838328392006
 20
239.9999999983123
 30
0.0000000000000000
 11
584.3838328392005
 21
240.5999999983123
 31
0.0000000000000000
  0
LINE
  5
6A
100
AcDbEntity
  8
MAIN0
  6
CENTER
 62
3
100
AcDbLine
 10
799.3838328392005
 20
236.2081776743755
 30
0.0000000000000000
 11
799.3838328392005
 21
268.9106137099207
 31
0.0000000000000000
  0
LINE
  5
6B
100
AcDbEntity
  8
MAIN0
  6
CENTER
 62
3
100
AcDbLine
 10
549.3838328392004
 20
236.2081776743757
 30
0.0000000000000000
 11
549.3838328392004
 21
268.9106137099207
 31
0.0000000000000000
  0
LINE
  5
6C
100
AcDbEntity
  8
MAIN0
  6
HIDDEN
 62
3
100
AcDbLine
 10
540.0338328392012
 20
239.9999999983124
 30
0.0000000000000000
 11
540.6338328392003
 21
240.5999999983124
 31
0.0000000000000000
  0
LINE
  5
6D
100
AcDbEntity
  8
MAIN0
  6
HIDDEN
 62
3
100
AcDbLine
 10
540.0338328391741
 20
264.9999999983126
 30
0.0000000000000000
 11
540.6338328391749
 21
264.3999999983125
 31
0.0000000000000000
  0
LINE
  5
6E
100
AcDbEntity
  8
MAIN0
  6
CONTINUOUS
 62
3
100
AcDbLine
 10
596.2633574828492
 20
266.9999999988081
 30
0.0000000000000000
 11
752.6369000451136
 21
266.9999999983179
 31
0.0000000000000000
  0
LINE
  5
6F
100
AcDbEntity
  8
MAIN0
  6
CENTER
 62
3
100
AcDbLine
 10
555.5629353184249
 20
379.9999999983124
 30
0.0000000000000000
 11
790.4595963622726
 21
379.9999999983124
 31
0.0000000000000000
  0
LINE
  5
70
100
AcDbEntity
  8
MAIN0
  6
HIDDEN
 62
3
100
AcDbLine
 10
669.3838328392004
 20
241.4999999983124
 30
0.0000000000000000
 11
669.3838328392004
 21
236.0999999983124
 31
0.0000000000000000
  0
LINE
  5
71
100
AcDbEntity
  8
MAIN0
  6
HIDDEN
 62
3
100
AcDbLine
 10
669.3838328392005
 20
236.0999999983123
 30
0.0000000000000000
 11
670.4230633237419
 21
235.4999999983123
 31
0.0000000000000000
  0
LINE
  5
72
100
AcDbEntity
  8
MAIN0
  6
HIDDEN
 62
3
100
AcDbLine
 10
670.4230633237418
 20
235.4999999983124
 30
0.0000000000000000
 11
678.3446023546592
 21
235.4999999983124
 31
0.0000000000000000
  0
LINE
  5
73
100
AcDbEntity
  8
MAIN0
  6
HIDDEN
 62
3
100
AcDbLine
 10
678.3446023546591
 20
235.4999999983125
 30
0.0000000000000000
 11
679.3838328392004
 21
236.0999999983125
 31
0.0000000000000000
  0
LINE
  5
74
100
AcDbEntity
  8
MAIN0
  6
HIDDEN
 62
3
100
AcDbLine
 10
679.3838328392005
 20
236.0999999983124
 30
0.0000000000000000
 11
679.3838328392005
 21
241.4999999983124
 31
0.0000000000000000
  0
LINE
  5
75
100
AcDbEntity
  8
MAIN0
  6
HIDDEN
 62
3
100
AcDbLine
 10
669.3838328392004
 20
236.0999999983124
 30
0.0000000000000000
 11
679.3838328392005
 21
236.0999999983124
 31
0.0000000000000000
  0
LINE
  5
76
100
AcDbEntity
  8
MAIN0
  6
HIDDEN
 62
3
100
AcDbLine
 10
671.3838328392004
 20
241.4999999983124
 30
0.0000000000000000
 11
671.3838328392004
 21
253.4999999983124
 31
0.0000000000000000
  0
LINE
  5
77
100
AcDbEntity
  8
MAIN0
  6
HIDDEN
 62
3
100
AcDbLine
 10
671.3838328392004
 20
253.4999999983124
 30
0.0000000000000000
 11
677.3838328392005
 21
253.4999999983124
 31
0.0000000000000000
  0
LINE
  5
78
100
AcDbEntity
  8
MAIN0
  6
HIDDEN
 62
3
100
AcDbLine
 10
677.3838328392005
 20
253.4999999983124
 30
0.0000000000000000
 11
677.3838328392005
 21
241.4999999983124
 31
0.0000000000000000
  0
LINE
  5
79
100
AcDbEntity
  8
MAIN0
  6
HIDDEN
 62
3
100
AcDbLine
 10
671.9250988392005
 20
241.4999999983124
 30
0.0000000000000000
 11
671.9250988392005
 21
253.4999999983124
 31
0.0000000000000000
  0
LINE
  5
7A
100
AcDbEntity
  8
MAIN0
  6
HIDDEN
 62
3
100
AcDbLine
 10
676.8425668392005
 20
241.4999999983124
 30
0.0000000000000000
 11
676.8425668392005
 21
253.4999999983124
 31
0.0000000000000000
  0
LINE
  5
7B
100
AcDbEntity
  8
MAIN0
  6
CONTINUOUS
 62
3
100
AcDbLine
 10
586.3838328392006
 20
264.9999999983124
 30
0.0000000000000000
 11
586.3838328392006
 21
279.3999999983124
 31
0.0000000000000000
  0
LINE
  5
7C
100
AcDbEntity
  8
MAIN0
  6
CONTINUOUS
 62
3
100
AcDbLine
 10
586.3838328392009
 20
279.3999999983122
 30
0.0000000000000000
 11
583.6125515470906
 21
280.9999999983122
 31
0.0000000000000000
  0
LINE
  5
7D
100
AcDbEntity
  8
MAIN0
  6
CONTINUOUS
 62
3
100
AcDbLine
 10
583.6125515470905
 20
280.9999999983124
 30
0.0000000000000000
 11
565.1551141313108
 21
280.9999999983124
 31
0.0000000000000000
  0
LINE
  5
7E
100
AcDbEntity
  8
MAIN0
  6
CONTINUOUS
 62
3
100
AcDbLine
 10
565.1551141313108
 20
280.9999999983123
 30
0.0000000000000000
 11
562.3838328392008
 21
279.3999999983124
 31
0.0000000000000000
  0
LINE
  5
7F
100
AcDbEntity
  8
MAIN0
  6
CONTINUOUS
 62
3
100
AcDbLine
 10
562.3838328392006
 20
279.3999999983124
 30
0.0000000000000000
 11
562.3838328392006
 21
264.9999999983124
 31
0.0000000000000000
  0
LINE
  5
80
100
AcDbEntity
  8
MAIN0
  6
CONTINUOUS
 62
3
100
AcDbLine
 10
586.3838328392006
 20
279.3999999983124
 30
0.0000000000000000
 11
562.3838328392006
 21
279.3999999983124
 31
0.0000000000000000
  0
LINE
  5
81
100
AcDbEntity
  8
MAIN0
  6
CONTINUOUS
 62
3
100
AcDbLine
 10
582.3838328392006
 20
214.9999999983124
 30
0.0000000000000000
 11
566.3838328392006
 21
214.9999999983124
 31
0.0000000000000000
  0
LINE
  5
82
100
AcDbEntity
  8
MAIN0
  6
CONTINUOUS
 62
3
100
AcDbLine
 10
566.3838328392006
 20
214.9999999983124
 30
0.0000000000000000
 11
566.3838328392008
 21
239.9999999983124
 31
0.0000000000000000
  0
LINE
  5
83
100
AcDbEntity
  8
MAIN0
  6
HIDDEN
 62
3
100
AcDbLine
 10
566.3838328392008
 20
239.9999999983124
 30
0.0000000000000000
 11
566.3838328392008
 21
264.9999999983124
 31
0.0000000000000000
  0
LINE
  5
84
100
AcDbEntity
  8
MAIN0
  6
CONTINUOUS
 62
3
100
AcDbLine
 10
567.4663648392005
 20
214.9999999983124
 30
0.0000000000000000
 11
567.4663648392007
 21
239.9999999983124
 31
0.0000000000000000
  0
LINE
  5
85
100
AcDbEntity
  8
MAIN0
  6
HIDDEN
 62
3
100
AcDbLine
 10
567.4663648392007
 20
239.9999999983124
 30
0.0000000000000000
 11
567.4663648392007
 21
264.9999999983125
 31
0.0000000000000000
  0
LINE
  5
86
100
AcDbEntity
  8
MAIN0
  6
CONTINUOUS
 62
3
100
AcDbLine
 10
581.3013008392006
 20
214.9999999983124
 30
0.0000000000000000
 11
581.3013008392006
 21
239.9999999983124
 31
0.0000000000000000
  0
LINE
  5
87
100
AcDbEntity
  8
MAIN0
  6
HIDDEN
 62
3
100
AcDbLine
 10
581.3013008392006
 20
239.9999999983124
 30
0.0000000000000000
 11
581.3013008392006
 21
264.9999999983124
 31
0.0000000000000000
  0
LINE
  5
88
100
AcDbEntity
  8
MAIN0
  6
CONTINUOUS
 62
3
100
AcDbLine
 10
582.3838328392006
 20
214.9999999983124
 30
0.0000000000000000
 11
582.3838328392006
 21
239.9999999983124
 31
0.0000000000000000
  0
LINE
  5
89
100
AcDbEntity
  8
MAIN0
  6
HIDDEN
 62
3
100
AcDbLine
 10
582.3838328392006
 20
239.9999999983124
 30
0.0000000000000000
 11
582.3838328392006
 21
264.9999999983124
 31
0.0000000000000000
  0
LINE
  5
8A
100
AcDbEntity
  8
MAIN0
  6
CENTER
 62
3
100
AcDbLine
 10
549.3838328392004
 20
269.8652939499476
 30
0.0000000000000000
 11
549.3838328392004
 21
254.2146353326623
 31
0.0000000000000000
  0
LINE
  5
8B
100
AcDbEntity
  8
MAIN0
  6
CONTINUOUS
 62
3
100
AcDbLine
 10
539.0838328391135
 20
264.9999999983140
 30
0.0000000000000000
 11
559.6838328391136
 21
264.9999999983110
 31
0.0000000000000000
  0
CIRCLE
  5
8C
100
AcDbEntity
  8
MAIN0
  6
CONTINUOUS
 62
3
100
AcDbCircle
 10
674.3838328391915
 20
379.9999999983049
 30
0.0000000000000000
 40
25.00000000000000
  0
LINE
  5
8D
100
AcDbEntity
  8
MAIN0
  6
CONTINUOUS
 62
3
100
AcDbLine
 10
600.7929341511731
 20
273.9999999983124
 30
0.0000000000000000
 11
747.9747315272277
 21
273.9999999983124
 31
0.0000000000000000
  0
CIRCLE
  5
8E
100
AcDbEntity
  8
MAIN0
  6
CONTINUOUS
 62
3
100
AcDbCircle
 10
656.6338328392005
 20
410.7439018326601
 30
0.0000000000000000
 40
8.000000000000000
  0
LINE
  5
8F
100
AcDbEntity
  8
MAIN0
  6
CONTINUOUS
 62
3
100
AcDbLine
 10
654.3244317624420
 20
414.7439018326603
 30
0.0000000000000000
 11
652.0150306856835
 21
410.7439018326603
 31
0.0000000000000000
  0
LINE
  5
90
100
AcDbEntity
  8
MAIN0
  6
CONTINUOUS
 62
3
100
AcDbLine
 10
652.0150306856835
 20
410.7439018326601
 30
0.0000000000000000
 11
654.3244317624420
 21
406.7439018326601
 31
0.0000000000000000
  0
LINE
  5
91
100
AcDbEntity
  8
MAIN0
  6
CONTINUOUS
 62
3
100
AcDbLine
 10
654.3244317624422
 20
406.7439018326602
 30
0.0000000000000000
 11
658.9432339159591
 21
406.7439018326601
 31
0.0000000000000000
  0
LINE
  5
92
100
AcDbEntity
  8
MAIN0
  6
CONTINUOUS
 62
3
100
AcDbLine
 10
658.9432339159590
 20
406.7439018326604
 30
0.0000000000000000
 11
661.2526349927175
 21
410.7439018326604
 31
0.0000000000000000
  0
LINE
  5
93
100
AcDbEntity
  8
MAIN0
  6
CONTINUOUS
 62
3
100
AcDbLine
 10
661.2526349927175
 20
410.7439018326601
 30
0.0000000000000000
 11
658.9432339159591
 21
414.7439018326601
 31
0.0000000000000000
  0
LINE
  5
94
100
AcDbEntity
  8
MAIN0
  6
CONTINUOUS
 62
3
100
AcDbLine
 10
658.9432339159589
 20
414.7439018326601
 30
0.0000000000000000
 11
654.3244317624422
 21
414.7439018326602
 31
0.0000000000000000
  0
CIRCLE
  5
95
100
AcDbEntity
  8
MAIN0
  6
CONTINUOUS
 62
3
100
AcDbCircle
 10
656.6338328392005
 20
410.7439018326601
 30
0.0000000000000000
 40
8.500000000000000
  0
CIRCLE
  5
96
100
AcDbEntity
  8
MAIN0
  6
CONTINUOUS
 62
3
100
AcDbCircle
 10
692.1338328392005
 20
349.2560981639650
 30
0.0000000000000000
 40
8.500000000000000
  0
CIRCLE
  5
97
100
AcDbEntity
  8
MAIN0
  6
CONTINUOUS
 62
3
100
AcDbCircle
 10
692.1338328392005
 20
349.2560981639650
 30
0.0000000000000000
 40
8.000000000000000
  0
LINE
  5
98
100
AcDbEntity
  8
MAIN0
  6
CONTINUOUS
 62
3
100
AcDbLine
 10
689.8244317624422
 20
353.2560981639648
 30
0.0000000000000000
 11
687.5150306856835
 21
349.2560981639649
 31
0.0000000000000000
  0
LINE
  5
99
100
AcDbEntity
  8
MAIN0
  6
CONTINUOUS
 62
3
100
AcDbLine
 10
687.5150306856837
 20
349.2560981639650
 30
0.0000000000000000
 11
689.8244317624422
 21
345.2560981639650
 31
0.0000000000000000
  0
LINE
  5
9A
100
AcDbEntity
  8
MAIN0
  6
CONTINUOUS
 62
3
100
AcDbLine
 10
689.8244317624426
 20
345.2560981639648
 30
0.0000000000000000
 11
694.4432339159594
 21
345.2560981639648
 31
0.0000000000000000
  0
LINE
  5
9B
100
AcDbEntity
  8
MAIN0
  6
CONTINUOUS
 62
3
100
AcDbLine
 10
694.4432339159591
 20
345.2560981639648
 30
0.0000000000000000
 11
696.7526349927176
 21
349.2560981639648
 31
0.0000000000000000
  0
LINE
  5
9C
100
AcDbEntity
  8
MAIN0
  6
CONTINUOUS
 62
3
100
AcDbLine
 10
694.4432339159594
 20
353.2560981639647
 30
0.0000000000000000
 11
689.8244317624424
 21
353.2560981639647
 31
0.0000000000000000
  0
LINE
  5
9D
100
AcDbEntity
  8
MAIN0
  6
CONTINUOUS
 62
3
100
AcDbLine
 10
696.7526349927176
 20
349.2560981639650
 30
0.0000000000000000
 11
694.4432339159591
 21
353.2560981639650
 31
0.0000000000000000
  0
CIRCLE
  5
9E
100
AcDbEntity
  8
MAIN0
  6
CONTINUOUS
 62
3
100
AcDbCircle
 10
638.8838328392005
 20
379.9999999983126
 30
0.0000000000000000
 40
8.000000000000000
  0
LINE
  5
9F
100
AcDbEntity
  8
MAIN0
  6
CONTINUOUS
 62
3
100
AcDbLine
 10
634.2650306856831
 20
379.9999999983126
 30
0.0000000000000000
 11
636.5744317624417
 21
375.9999999983127
 31
0.0000000000000000
  0
LINE
  5
A0
100
AcDbEntity
  8
MAIN0
  6
CONTINUOUS
 62
3
100
AcDbLine
 10
636.5744317624420
 20
375.9999999983126
 30
0.0000000000000000
 11
641.1932339159590
 21
375.9999999983126
 31
0.0000000000000000
  0
LINE
  5
A1
100
AcDbEntity
  8
MAIN0
  6
CONTINUOUS
 62
3
100
AcDbLine
 10
641.1932339159591
 20
375.9999999983127
 30
0.0000000000000000
 11
643.5026349927176
 21
379.9999999983127
 31
0.0000000000000000
  0
LINE
  5
A2
100
AcDbEntity
  8
MAIN0
  6
CONTINUOUS
 62
3
100
AcDbLine
 10
643.5026349927172
 20
379.9999999983127
 30
0.0000000000000000
 11
641.1932339159587
 21
383.9999999983126
 31
0.0000000000000000
  0
LINE
  5
A3
100
AcDbEntity
  8
MAIN0
  6
CONTINUOUS
 62
3
100
AcDbLine
 10
641.1932339159590
 20
383.9999999983126
 30
0.0000000000000000
 11
636.5744317624420
 21
383.9999999983126
 31
0.0000000000000000
  0
LINE
  5
A4
100
AcDbEntity
  8
MAIN0
  6
CONTINUOUS
 62
3
100
AcDbLine
 10
636.5744317624420
 20
383.9999999983125
 30
0.0000000000000000
 11
634.2650306856835
 21
379.9999999983127
 31
0.0000000000000000
  0
CIRCLE
  5
A5
100
AcDbEntity
  8
MAIN0
  6
CONTINUOUS
 62
3
100
AcDbCircle
 10
638.8838328392005
 20
379.9999999983126
 30
0.0000000000000000
 40
8.500000000000000
  0
CIRCLE
  5
A6
100
AcDbEntity
  8
MAIN0
  6
CONTINUOUS
 62
3
100
AcDbCircle
 10
656.6338328392003
 20
349.2560981639651
 30
0.0000000000000000
 40
8.000000000000000
  0
LINE
  5
A7
100
AcDbEntity
  8
MAIN0
  6
CONTINUOUS
 62
3
100
AcDbLine
 10
654.3244317624417
 20
345.2560981639647
 30
0.0000000000000000
 11
658.9432339159587
 21
345.2560981639647
 31
0.0000000000000000
  0
LINE
  5
A8
100
AcDbEntity
  8
MAIN0
  6
CONTINUOUS
 62
3
100
AcDbLine
 10
658.9432339159591
 20
345.2560981639649
 30
0.0000000000000000
 11
661.2526349927175
 21
349.2560981639648
 31
0.0000000000000000
  0
LINE
  5
A9
100
AcDbEntity
  8
MAIN0
  6
CONTINUOUS
 62
3
100
AcDbLine
 10
661.2526349927173
 20
349.2560981639651
 30
0.0000000000000000
 11
658.9432339159588
 21
353.2560981639651
 31
0.0000000000000000
  0
LINE
  5
AA
100
AcDbEntity
  8
MAIN0
  6
CONTINUOUS
 62
3
100
AcDbLine
 10
658.9432339159587
 20
353.2560981639647
 30
0.0000000000000000
 11
654.3244317624417
 21
353.2560981639647
 31
0.0000000000000000
  0
LINE
  5
AB
100
AcDbEntity
  8
MAIN0
  6
CONTINUOUS
 62
3
100
AcDbLine
 10
654.3244317624420
 20
353.2560981639649
 30
0.0000000000000000
 11
652.0150306856835
 21
349.2560981639649
 31
0.0000000000000000
  0
LINE
  5
AC
100
AcDbEntity
  8
MAIN0
  6
CONTINUOUS
 62
3
100
AcDbLine
 10
652.0150306856833
 20
349.2560981639649
 30
0.0000000000000000
 11
654.3244317624417
 21
345.2560981639652
 31
0.0000000000000000
  0
CIRCLE
  5
AD
100
AcDbEntity
  8
MAIN0
  6
CONTINUOUS
 62
3
100
AcDbCircle
 10
656.6338328392003
 20
349.2560981639651
 30
0.0000000000000000
 40
8.500000000000000
  0
CIRCLE
  5
AE
100
AcDbEntity
  8
MAIN0
  6
CONTINUOUS
 62
3
100
AcDbCircle
 10
709.8838328392003
 20
379.9999999983122
 30
0.0000000000000000
 40
8.000000000000000
  0
LINE
  5
AF
100
AcDbEntity
  8
MAIN0
  6
CONTINUOUS
 62
3
100
AcDbLine
 10
714.5026349927178
 20
379.9999999983124
 30
0.0000000000000000
 11
712.1932339159594
 21
383.9999999983124
 31
0.0000000000000000
  0
LINE
  5
B0
100
AcDbEntity
  8
MAIN0
  6
CONTINUOUS
 62
3
100
AcDbLine
 10
712.1932339159590
 20
383.9999999983124
 30
0.0000000000000000
 11
707.5744317624420
 21
383.9999999983124
 31
0.0000000000000000
  0
LINE
  5
B1
100
AcDbEntity
  8
MAIN0
  6
CONTINUOUS
 62
3
100
AcDbLine
 10
707.5744317624417
 20
383.9999999983122
 30
0.0000000000000000
 11
705.2650306856831
 21
379.9999999983123
 31
0.0000000000000000
  0
LINE
  5
B2
100
AcDbEntity
  8
MAIN0
  6
CONTINUOUS
 62
3
100
AcDbLine
 10
705.2650306856838
 20
379.9999999983124
 30
0.0000000000000000
 11
707.5744317624424
 21
375.9999999983124
 31
0.0000000000000000
  0
LINE
  5
B3
100
AcDbEntity
  8
MAIN0
  6
CONTINUOUS
 62
3
100
AcDbLine
 10
707.5744317624419
 20
375.9999999983124
 30
0.0000000000000000
 11
712.1932339159589
 21
375.9999999983124
 31
0.0000000000000000
  0
LINE
  5
B4
100
AcDbEntity
  8
MAIN0
  6
CONTINUOUS
 62
3
100
AcDbLine
 10
712.1932339159587
 20
375.9999999983124
 30
0.0000000000000000
 11
714.5026349927172
 21
379.9999999983122
 31
0.0000000000000000
  0
CIRCLE
  5
B5
100
AcDbEntity
  8
MAIN0
  6
CONTINUOUS
 62
3
100
AcDbCircle
 10
709.8838328392003
 20
379.9999999983122
 30
0.0000000000000000
 40
8.500000000000000
  0
CIRCLE
  5
B6
100
AcDbEntity
  8
MAIN0
  6
CONTINUOUS
 62
3
100
AcDbCircle
 10
692.1338328392005
 20
410.7439018326598
 30
0.0000000000000000
 40
8.000000000000000
  0
LINE
  5
B7
100
AcDbEntity
  8
MAIN0
  6
CONTINUOUS
 62
3
100
AcDbLine
 10
694.4432339159594
 20
414.7439018326602
 30
0.0000000000000000
 11
689.8244317624424
 21
414.7439018326603
 31
0.0000000000000000
  0
LINE
  5
B8
100
AcDbEntity
  8
MAIN0
  6
CONTINUOUS
 62
3
100
AcDbLine
 10
689.8244317624422
 20
414.7439018326601
 30
0.0000000000000000
 11
687.5150306856835
 21
410.7439018326601
 31
0.0000000000000000
  0
LINE
  5
B9
100
AcDbEntity
  8
MAIN0
  6
CONTINUOUS
 62
3
100
AcDbLine
 10
687.5150306856835
 20
410.7439018326599
 30
0.0000000000000000
 11
689.8244317624420
 21
406.7439018326599
 31
0.0000000000000000
  0
LINE
  5
BA
100
AcDbEntity
  8
MAIN0
  6
CONTINUOUS
 62
3
100
AcDbLine
 10
689.8244317624424
 20
406.7439018326603
 30
0.0000000000000000
 11
694.4432339159594
 21
406.7439018326602
 31
0.0000000000000000
  0
LINE
  5
BB
100
AcDbEntity
  8
MAIN0
  6
CONTINUOUS
 62
3
100
AcDbLine
 10
694.4432339159591
 20
406.7439018326601
 30
0.0000000000000000
 11
696.7526349927175
 21
410.7439018326601
 31
0.0000000000000000
  0
LINE
  5
BC
100
AcDbEntity
  8
MAIN0
  6
CONTINUOUS
 62
3
100
AcDbLine
 10
696.7526349927175
 20
410.7439018326601
 30
0.0000000000000000
 11
694.4432339159591
 21
414.7439018326598
 31
0.0000000000000000
  0
CIRCLE
  5
BD
100
AcDbEntity
  8
MAIN0
  6
CONTINUOUS
 62
3
100
AcDbCircle
 10
692.1338328392005
 20
410.7439018326598
 30
0.0000000000000000
 40
8.500000000000000
  0
CIRCLE
  5
BE
100
AcDbEntity
  8
MAIN0
  6
CONTINUOUS
 62
3
100
AcDbCircle
 10
639.7428166878214
 20
399.9999999983249
 30
0.0000000000000000
 40
4.250000000000000
  0
CIRCLE
  5
BF
100
AcDbEntity
  8
MAIN0
  6
CONTINUOUS
 62
3
100
AcDbCircle
 10
639.7428166878214
 20
399.9999999983249
 30
0.0000000000000000
 40
5.000000000000000
  0
CIRCLE
  5
C0
100
AcDbEntity
  8
MAIN0
  6
CONTINUOUS
 62
3
100
AcDbCircle
 10
639.7428166878211
 20
359.9999999983248
 30
0.0000000000000000
 40
4.250000000000000
  0
CIRCLE
  5
C1
100
AcDbEntity
  8
MAIN0
  6
CONTINUOUS
 62
3
100
AcDbCircle
 10
674.3838328391989
 20
339.9999999983247
 30
0.0000000000000000
 40
4.250000000000000
  0
CIRCLE
  5
C2
100
AcDbEntity
  8
MAIN0
  6
CONTINUOUS
 62
3
100
AcDbCircle
 10
674.3838328391989
 20
339.9999999983247
 30
0.0000000000000000
 40
5.000000000000000
  0
CIRCLE
  5
C3
100
AcDbEntity
  8
MAIN0
  6
CONTINUOUS
 62
3
100
AcDbCircle
 10
709.0248489905767
 20
359.9999999983246
 30
0.0000000000000000
 40
4.250000000000000
  0
CIRCLE
  5
C4
100
AcDbEntity
  8
MAIN0
  6
CONTINUOUS
 62
3
100
AcDbCircle
 10
709.0248489905767
 20
359.9999999983246
 30
0.0000000000000000
 40
5.000000000000000
  0
CIRCLE
  5
C5
100
AcDbEntity
  8
MAIN0
  6
CONTINUOUS
 62
3
100
AcDbCircle
 10
709.0248489905766
 20
399.9999999983248
 30
0.0000000000000000
 40
4.250000000000000
  0
CIRCLE
  5
C6
100
AcDbEntity
  8
MAIN0
  6
CONTINUOUS
 62
3
100
AcDbCircle
 10
709.0248489905766
 20
399.9999999983248
 30
0.0000000000000000
 40
5.000000000000000
  0
CIRCLE
  5
C7
100
AcDbEntity
  8
MAIN0
  6
CONTINUOUS
 62
3
100
AcDbCircle
 10
674.3838328391992
 20
419.9999999983249
 30
0.0000000000000000
 40
4.250000000000000
  0
CIRCLE
  5
C8
100
AcDbEntity
  8
MAIN0
  6
CONTINUOUS
 62
3
100
AcDbCircle
 10
674.3838328391992
 20
419.9999999983249
 30
0.0000000000000000
 40
5.000000000000000
  0
LINE
  5
C9
100
AcDbEntity
  8
MAIN0
  6
CENTER
 62
3
100
AcDbLine
 10
674.3838328391992
 20
428.9999999983248
 30
0.0000000000000000
 11
674.3838328391992
 21
410.9999999983249
 31
0.0000000000000000
  0
LINE
  5
CA
100
AcDbEntity
  8
MAIN0
  6
CENTER
 62
3
100
AcDbLine
 10
716.8190776246368
 20
404.4999999983244
 30
0.0000000000000000
 11
701.2306203565167
 21
395.4999999983245
 31
0.0000000000000000
  0
LINE
  5
CB
100
AcDbEntity
  8
MAIN0
  6
CENTER
 62
3
100
AcDbLine
 10
674.3838328391988
 20
330.9999999983245
 30
0.0000000000000000
 11
674.3838328391989
 21
348.9999999983244
 31
0.0000000000000000
  0
LINE
  5
CC
100
AcDbEntity
  8
MAIN0
  6
CENTER
 62
3
100
AcDbLine
 10
631.9485880537612
 20
355.4999999983247
 30
0.0000000000000000
 11
647.5370453218811
 21
364.4999999983247
 31
0.0000000000000000
  0
CIRCLE
  5
CD
100
AcDbEntity
  8
MAIN0
  6
CONTINUOUS
 62
3
100
AcDbCircle
 10
639.7428166878211
 20
359.9999999983248
 30
0.0000000000000000
 40
5.000000000000000
  0
LINE
  5
CE
100
AcDbEntity
  8
MAIN0
  6
CENTER
 62
3
100
AcDbLine
 10
631.9485880537518
 20
404.4999999983172
 30
0.0000000000000000
 11
647.5370453218716
 21
395.4999999983172
 31
0.0000000000000000
  0
LINE
  5
CF
100
AcDbEntity
  8
MAIN0
  6
CENTER
 62
3
100
AcDbLine
 10
716.8190776246270
 20
355.4999999983169
 30
0.0000000000000000
 11
701.2306203565074
 21
364.4999999983169
 31
0.0000000000000000
  0
CIRCLE
  5
D0
100
AcDbEntity
  8
MAIN0
  6
CENTER
 62
3
100
AcDbCircle
 10
674.3838328392008
 20
379.9999999983124
 30
0.0000000000000000
 40
40.00000000000021
  0
LINE
  5
D1
100
AcDbEntity
  8
MAIN0
  6
CONTINUOUS
 62
3
100
AcDbLine
 10
593.3838328392003
 20
273.9999999983135
 30
0.0000000000000000
 11
593.3838328392003
 21
350.0834493950096
 31
0.0000000000000000
  0
ARC
  5
D2
100
AcDbEntity
  8
MAIN0
  6
CONTINUOUS
 62
3
100
AcDbCircle
 10
587.3838328392003
 20
273.9999999983135
 30
0.0000000000000000
 40
6.000000000000000
100
AcDbArc
 50
300.0000000000019
 51
360.0000000000000
  0
LINE
  5
D3
100
AcDbEntity
  8
MAIN0
  6
CONTINUOUS
 62
3
100
AcDbLine
 10
755.3838328392010
 20
273.5392981715265
 30
0.0000000000000000
 11
755.3838328392010
 21
350.0834493950094
 31
0.0000000000000000
  0
ARC
  5
D4
100
AcDbEntity
  8
MAIN0
  6
CONTINUOUS
 62
3
100
AcDbCircle
 10
761.3838328392009
 20
273.5392981715266
 30
0.0000000000000000
 40
6.000000000000000
100
AcDbArc
 50
179.9999999999999
 51
239.9999999999981
  0
LINE
  5
D5
100
AcDbEntity
  8
MAIN0
  6
CONTINUOUS
 62
3
100
AcDbLine
 10
610.3838328392835
 20
485.9999999983124
 30
0.0000000000000000
 11
738.3838328392830
 21
485.9999999983124
 31
0.0000000000000000
  0
ARC
  5
D6
100
AcDbEntity
  8
MAIN0
  6
CONTINUOUS
 62
3
100
AcDbCircle
 10
674.3838328392005
 20
379.9999999983124
 30
0.0000000000000000
 40
105.0000000000000
100
AcDbArc
 50
129.7649535814369
 51
218.3916673618523
  0
ARC
  5
D7
100
AcDbEntity
  8
MAIN0
  6
CONTINUOUS
 62
3
100
AcDbCircle
 10
674.3838328392005
 20
379.9999999983124
 30
0.0000000000000000
 40
105.0000000000000
100
AcDbArc
 50
321.6083326381473
 51
410.2350464184733
  0
ARC
  5
D8
100
AcDbEntity
  8
MAIN0
  6
CONTINUOUS
 62
3
100
AcDbCircle
 10
603.3838328392676
 20
465.3229160291744
 30
0.0000000000000000
 40
6.000000000000000
100
AcDbArc
 50
309.7649535814371
 51
360.0000000000000
  0
ARC
  5
D9
100
AcDbEntity
  8
MAIN0
  6
CONTINUOUS
 62
3
100
AcDbCircle
 10
761.3838328392003
 20
311.0652482398563
 30
0.0000000000000000
 40
6.000000000000000
100
AcDbArc
 50
141.6083326381475
 51
179.9999999999999
  0
ARC
  5
DA
100
AcDbEntity
  8
MAIN0
  6
CONTINUOUS
 62
3
100
AcDbCircle
 10
587.3838328392005
 20
311.0652482398564
 30
0.0000000000000000
 40
6.000000000000000
100
AcDbArc
 50
0.0000000000000000
 51
38.39166736185248
  0
LINE
  5
DB
100
AcDbEntity
  8
MAIN0
  6
CONTINUOUS
 62
3
100
AcDbLine
 10
738.3838328392830
 20
485.9999999983124
 30
0.0000000000000000
 11
739.3838328392822
 21
484.9999999983124
 31
0.0000000000000000
  0
LINE
  5
DC
100
AcDbEntity
  8
MAIN0
  6
CONTINUOUS
 62
3
100
AcDbLine
 10
610.3838328392836
 20
485.9999999983125
 30
0.0000000000000000
 11
609.3838328392828
 21
484.9999999983125
 31
0.0000000000000000
  0
ARC
  5
DD
100
AcDbEntity
  8
MAIN0
  6
CONTINUOUS
 62
3
100
AcDbCircle
 10
745.3838328392671
 20
465.3229160290632
 30
0.0000000000000000
 40
6.000000000000000
100
AcDbArc
 50
180.0000000000000
 51
230.2350464184733
  0
ARC
  5
DE
100
AcDbEntity
  8
MAIN0
  6
CONTINUOUS
 62
3
100
AcDbCircle
 10
761.3838328392003
 20
311.0652482398558
 30
0.0000000000000000
 40
6.000000000000000
100
AcDbArc
 50
141.6083326381474
 51
180.0000000000000
  0
ARC
  5
DF
100
AcDbEntity
  8
MAIN0
  6
CONTINUOUS
 62
3
100
AcDbCircle
 10
587.3838328392003
 20
311.0652482398564
 30
0.0000000000000000
 40
6.000000000000000
100
AcDbArc
 50
0.0000000000000000
 51
38.39166736185232
  0
LINE
  5
E0
100
AcDbEntity
  8
MAIN0
  6
HIDDEN
 62
3
100
AcDbLine
 10
100.7453940126620
 20
244.9999999977267
 30
0.0000000000000000
 11
100.7453940126665
 21
264.3999999977267
 31
0.0000000000000000
  0
LINE
  5
E1
100
AcDbEntity
  8
MAIN0
  6
HIDDEN
 62
3
100
AcDbLine
 10
83.24539401266202
 20
244.9999999977268
 30
0.0000000000000000
 11
83.24539401266645
 21
264.3999999977267
 31
0.0000000000000000
  0
LINE
  5
E2
100
AcDbEntity
  8
MAIN0
  6
HIDDEN
 62
3
100
AcDbLine
 10
81.99539401266566
 20
244.9999999977267
 30
0.0000000000000000
 11
101.9953940126657
 21
244.9999999977267
 31
0.0000000000000000
  0
LINE
  5
E3
100
AcDbEntity
  8
MAIN0
  6
HIDDEN
 62
3
100
AcDbLine
 10
101.9953940126657
 20
244.9999999977267
 30
0.0000000000000000
 11
101.9953940126657
 21
240.5999999977267
 31
0.0000000000000000
  0
LINE
  5
E4
100
AcDbEntity
  8
MAIN0
  6
HIDDEN
 62
3
100
AcDbLine
 10
81.99539401266566
 20
244.9999999977267
 30
0.0000000000000000
 11
81.99539401266566
 21
240.5999999977267
 31
0.0000000000000000
  0
LINE
  5
E5
100
AcDbEntity
  8
MAIN0
  6
HIDDEN
 62
3
100
AcDbLine
 10
81.39539401266575
 20
239.9999999977267
 30
0.0000000000000000
 11
81.99539401266571
 21
240.5999999977266
 31
0.0000000000000000
  0
LINE
  5
E6
100
AcDbEntity
  8
MAIN0
  6
HIDDEN
 62
3
100
AcDbLine
 10
102.5953940126655
 20
239.9999999977266
 30
0.0000000000000000
 11
101.9953940126654
 21
240.5999999977266
 31
0.0000000000000000
  0
LINE
  5
E7
100
AcDbEntity
  8
MAIN0
  6
HIDDEN
 62
3
100
AcDbLine
 10
82.89539401266552
 20
264.9999999977267
 30
0.0000000000000000
 11
83.49539401266554
 21
264.3999999977266
 31
0.0000000000000000
  0
LINE
  5
E8
100
AcDbEntity
  8
MAIN0
  6
HIDDEN
 62
3
100
AcDbLine
 10
101.3453940126656
 20
264.9999999977267
 30
0.0000000000000000
 11
100.7453940126655
 21
264.3999999977267
 31
0.0000000000000000
  0
LINE
  5
E9
100
AcDbEntity
  8
MAIN0
  6
CENTER
 62
3
100
AcDbLine
 10
66.99539401266537
 20
236.2081776737900
 30
0.0000000000000000
 11
66.99539401266537
 21
269.8652939497315
 31
0.0000000000000000
  0
LINE
  5
EA
100
AcDbEntity
  8
MAIN0
  6
HIDDEN
 62
3
100
AcDbLine
 10
75.74539401269124
 20
240.5999999977267
 30
0.0000000000000000
 11
75.74539401265929
 21
264.3999999977267
 31
0.0000000000000000
  0
LINE
  5
EB
100
AcDbEntity
  8
MAIN0
  6
HIDDEN
 62
3
100
AcDbLine
 10
58.24539401269124
 20
240.5999999977268
 30
0.0000000000000000
 11
58.24539401265929
 21
264.3999999977267
 31
0.0000000000000000
  0
LINE
  5
EC
100
AcDbEntity
  8
MAIN0
  6
HIDDEN
 62
3
100
AcDbLine
 10
76.34539401269205
 20
239.9999999977269
 30
0.0000000000000000
 11
75.74539401269124
 21
240.5999999977269
 31
0.0000000000000000
  0
LINE
  5
ED
100
AcDbEntity
  8
MAIN0
  6
HIDDEN
 62
3
100
AcDbLine
 10
57.64539401269224
 20
239.9999999977267
 30
0.0000000000000000
 11
58.24539401269146
 21
240.5999999977267
 31
0.0000000000000000
  0
LINE
  5
EE
100
AcDbEntity
  8
MAIN0
  6
HIDDEN
 62
3
100
AcDbLine
 10
57.64539401266535
 20
264.9999999977269
 30
0.0000000000000000
 11
58.24539401266617
 21
264.3999999977269
 31
0.0000000000000000
  0
LINE
  5
EF
100
AcDbEntity
  8
MAIN0
  6
HIDDEN
 62
3
100
AcDbLine
 10
76.34539401266522
 20
264.9999999977269
 30
0.0000000000000000
 11
75.74539401266600
 21
264.3999999977269
 31
0.0000000000000000
  0
LINE
  5
F0
100
AcDbEntity
  8
MAIN0
  6
CONTINUOUS
 62
3
100
AcDbLine
 10
103.9953940126657
 20
264.9999999977267
 30
0.0000000000000000
 11
103.9953940126657
 21
279.3999999977267
 31
0.0000000000000000
  0
LINE
  5
F1
100
AcDbEntity
  8
MAIN0
  6
CONTINUOUS
 62
3
100
AcDbLine
 10
103.9953940126659
 20
279.3999999977265
 30
0.0000000000000000
 11
101.2241127205556
 21
280.9999999977265
 31
0.0000000000000000
  0
LINE
  5
F2
100
AcDbEntity
  8
MAIN0
  6
CONTINUOUS
 62
3
100
AcDbLine
 10
101.2241127205555
 20
280.9999999977267
 30
0.0000000000000000
 11
82.76667530477585
 21
280.9999999977267
 31
0.0000000000000000
  0
LINE
  5
F3
100
AcDbEntity
  8
MAIN0
  6
CONTINUOUS
 62
3
100
AcDbLine
 10
82.76667530477596
 20
280.9999999977266
 30
0.0000000000000000
 11
79.99539401266588
 21
279.3999999977267
 31
0.0000000000000000
  0
LINE
  5
F4
100
AcDbEntity
  8
MAIN0
  6
CONTINUOUS
 62
3
100
AcDbLine
 10
79.99539401266566
 20
279.3999999977267
 30
0.0000000000000000
 11
79.99539401266566
 21
264.9999999977267
 31
0.0000000000000000
  0
LINE
  5
F5
100
AcDbEntity
  8
MAIN0
  6
CONTINUOUS
 62
3
100
AcDbLine
 10
103.9953940126657
 20
279.3999999977267
 30
0.0000000000000000
 11
79.99539401266566
 21
279.3999999977267
 31
0.0000000000000000
  0
LINE
  5
F6
100
AcDbEntity
  8
MAIN0
  6
CONTINUOUS
 62
3
100
AcDbLine
 10
99.99539401266566
 20
214.9999999977267
 30
0.0000000000000000
 11
83.99539401266566
 21
214.9999999977267
 31
0.0000000000000000
  0
LINE
  5
F7
100
AcDbEntity
  8
MAIN0
  6
CONTINUOUS
 62
3
100
AcDbLine
 10
83.99539401266571
 20
214.9999999977266
 30
0.0000000000000000
 11
83.99539401266571
 21
239.9999999977267
 31
0.0000000000000000
  0
LINE
  5
F8
100
AcDbEntity
  8
MAIN0
  6
HIDDEN
 62
3
100
AcDbLine
 10
83.99539401266571
 20
239.9999999977267
 30
0.0000000000000000
 11
83.99539401266571
 21
264.9999999977267
 31
0.0000000000000000
  0
LINE
  5
F9
100
AcDbEntity
  8
MAIN0
  6
CONTINUOUS
 62
3
100
AcDbLine
 10
85.07792601266561
 20
214.9999999977266
 30
0.0000000000000000
 11
85.07792601266561
 21
239.9999999977267
 31
0.0000000000000000
  0
LINE
  5
FA
100
AcDbEntity
  8
MAIN0
  6
HIDDEN
 62
3
100
AcDbLine
 10
85.07792601266561
 20
239.9999999977267
 30
0.0000000000000000
 11
85.07792601266561
 21
264.9999999977267
 31
0.0000000000000000
  0
LINE
  5
FB
100
AcDbEntity
  8
MAIN0
  6
CONTINUOUS
 62
3
100
AcDbLine
 10
98.91286201266564
 20
214.9999999977267
 30
0.0000000000000000
 11
98.91286201266564
 21
239.9999999977267
 31
0.0000000000000000
  0
LINE
  5
FC
100
AcDbEntity
  8
MAIN0
  6
HIDDEN
 62
3
100
AcDbLine
 10
98.91286201266564
 20
239.9999999977267
 30
0.0000000000000000
 11
98.91286201266564
 21
264.9999999977267
 31
0.0000000000000000
  0
LINE
  5
FD
100
AcDbEntity
  8
MAIN0
  6
CONTINUOUS
 62
3
100
AcDbLine
 10
99.99539401266566
 20
214.9999999977267
 30
0.0000000000000000
 11
99.99539401266566
 21
239.9999999977267
 31
0.0000000000000000
  0
LINE
  5
FE
100
AcDbEntity
  8
MAIN0
  6
HIDDEN
 62
3
100
AcDbLine
 10
99.99539401266566
 20
239.9999999977267
 30
0.0000000000000000
 11
99.99539401266566
 21
264.9999999977267
 31
0.0000000000000000
  0
LINE
  5
FF
100
AcDbEntity
  8
MAIN0
  6
CONTINUOUS
 62
3
100
AcDbLine
 10
56.69539401257867
 20
264.9999999977284
 30
0.0000000000000000
 11
77.29539401257881
 21
264.9999999977253
 31
0.0000000000000000
  0
DIMENSION
  5
109
100
AcDbEntity
  8
MAIN0
  6
CONTINUOUS
 62
3
100
AcDbDimension
  2
*D0
 10
665.3838328392006
 20
212.4187400650875
 30
0.0000000000000000
 11
691.6688139372293
 21
213.4187400650875
 31
0.0000000000000000
 70
160
  1
\A1;18h7
  3
MAIN001
100
AcDbAlignedDimension
 13
683.3838328392006
 23
234.9999999983125
 33
0.0000000000000000
 14
665.3838328392006
 24
234.9999999983123
 34
0.0000000000000000
100
AcDbRotatedDimension
1001
ACAD
1000
DSTYLE
1002
{
1070
   173
1070
     1
1070
     6
1000
_OPEN
1070
     7
1000
_OPEN
1070
    41
1040
4.000000
1002
}
  0
DIMENSION
  5
113
100
AcDbEntity
  8
MAIN0
  6
CONTINUOUS
 62
3
100
AcDbDimension
  2
*D1
 10
649.2921046543347
 20
234.9999999983125
 30
0.0000000000000000
 11
648.2921046543347
 21
224.9658664332497
 31
0.0000000000000000
 70
160
  3
MAIN001
100
AcDbAlignedDimension
 13
664.9838328392007
 23
239.9999999983124
 33
0.0000000000000000
 14
665.3838328392006
 24
234.9999999983125
 34
0.0000000000000000
 50
90.00000000000000
100
AcDbRotatedDimension
1001
ACAD
1000
DSTYLE
1002
{
1070
   173
1070
     1
1070
     6
1000
_OPEN
1070
     7
1000
_OPEN
1070
    41
1040
4.000000
1070
   287
1070
     0
1002
}
  0
DIMENSION
  5
11C
100
AcDbEntity
  8
MAIN0
  6
CONTINUOUS
 62
3
100
AcDbDimension
  2
*D2
 10
534.3838328392006
 20
147.5133616430891
 30
0.0000000000000000
 11
674.3838328392008
 21
148.0133616430891
 31
0.0000000000000000
 70
32
  3
MAIN001
100
AcDbAlignedDimension
 13
814.3838328392008
 23
240.3999999983124
 33
0.0000000000000000
 14
534.3838328392006
 24
240.3999999983124
 34
0.0000000000000000
100
AcDbRotatedDimension
1001
ACAD
1000
DSTYLE
1002
{
1070
   173
1070
     1
1070
     6
1000
_OPEN
1070
     7
1000
_OPEN
1070
    41
1040
4.000000
1002
}
  0
DIMENSION
  5
125
100
AcDbEntity
  8
MAIN0
  6
CONTINUOUS
 62
3
100
AcDbDimension
  2
*D3
 10
524.8546401967597
 20
264.9999999983124
 30
0.0000000000000000
 11
524.3546401967597
 21
252.4999999983124
 31
0.0000000000000000
 70
32
  3
MAIN001
100
AcDbAlignedDimension
 13
534.7838328392005
 23
239.9999999983124
 33
0.0000000000000000
 14
534.7838328392005
 24
264.9999999983124
 34
0.0000000000000000
 50
90.00000000000000
100
AcDbRotatedDimension
1001
ACAD
1000
DSTYLE
1002
{
1070
   173
1070
     1
1070
     6
1000
_OPEN
1070
     7
1000
_OPEN
1070
    41
1040
4.000000
1002
}
  0
DIMENSION
  5
12E
100
AcDbEntity
  8
MAIN0
  6
CONTINUOUS
 62
3
100
AcDbDimension
  2
*D4
 10
524.8546401967597
 20
239.9999999983124
 30
0.0000000000000000
 11
524.3546401967597
 21
227.4999999983124
 31
0.0000000000000000
 70
32
  3
MAIN001
100
AcDbAlignedDimension
 13
566.3838328392006
 23
214.9999999983124
 33
0.0000000000000000
 14
534.7838328392005
 24
239.9999999983124
 34
0.0000000000000000
 50
90.00000000000000
100
AcDbRotatedDimension
1001
ACAD
1000
DSTYLE
1002
{
1070
   173
1070
     1
1070
     6
1000
_OPEN
1070
     7
1000
_OPEN
1070
    41
1040
4.000000
1002
}
  0
DIMENSION
  5
137
100
AcDbEntity
  8
MAIN0
  6
CONTINUOUS
 62
3
100
AcDbDimension
  2
*D5
 10
512.6867165617070
 20
239.9999999983124
 30
0.0000000000000000
 11
512.1867165617070
 21
309.9999999983124
 31
0.0000000000000000
 70
32
  1
\A1;140\U+00B10.01
  3
MAIN001
100
AcDbAlignedDimension
 13
555.5629353184249
 23
379.9999999983124
 33
0.0000000000000000
 14
534.7838328392005
 24
239.9999999983124
 34
0.0000000000000000
 50
90.00000000000000
100
AcDbRotatedDimension
1001
ACAD
1000
DSTYLE
1002
{
1070
   173
1070
     1
1070
     6
1000
_OPEN
1070
     7
1000
_OPEN
1070
    41
1040
4.000000
1002
}
  0
DIMENSION
  5
140
100
AcDbEntity
  8
MAIN0
  6
CONTINUOUS
 62
3
100
AcDbDimension
  2
*D6
 10
512.6867165617070
 20
379.9999999983124
 30
0.0000000000000000
 11
512.1867165617070
 21
432.9999999983124
 31
0.0000000000000000
 70
32
  3
MAIN001
100
AcDbAlignedDimension
 13
610.3838328392835
 23
485.9999999983124
 33
0.0000000000000000
 14
555.5629353184249
 24
379.9999999983124
 34
0.0000000000000000
 50
90.00000000000000
100
AcDbRotatedDimension
1001
ACAD
1000
DSTYLE
1002
{
1070
   173
1070
     1
1070
     6
1000
_OPEN
1070
     7
1000
_OPEN
1070
    41
1040
4.000000
1002
}
  0
DIMENSION
  5
149
100
AcDbEntity
  8
MAIN0
  6
CONTINUOUS
 62
3
100
AcDbDimension
  2
*D7
 10
499.7075939110417
 20
239.9999999983124
 30
0.0000000000000000
 11
499.2075939110417
 21
362.9999999983124
 31
0.0000000000000000
 70
32
  3
MAIN001
100
AcDbAlignedDimension
 13
610.3838328392835
 23
485.9999999983124
 33
0.0000000000000000
 14
534.7838328392005
 24
239.9999999983124
 34
0.0000000000000000
 50
90.00000000000000
100
AcDbRotatedDimension
1001
ACAD
1000
DSTYLE
1002
{
1070
   173
1070
     1
1070
     6
1000
_OPEN
1070
     7
1000
_OPEN
1070
    41
1040
4.000000
1002
}
  0
DIMENSION
  5
152
100
AcDbEntity
  8
MAIN0
  6
CONTINUOUS
 62
3
100
AcDbDimension
  2
*D8
 10
739.3838328392822
 20
506.5463688450070
 30
0.0000000000000000
 11
674.3838328392825
 21
507.0463688450070
 31
0.0000000000000000
 70
32
  3
MAIN001
100
AcDbAlignedDimension
 13
609.3838328392828
 23
484.4999999983124
 33
0.0000000000000000
 14
739.3838328392822
 24
484.4999999983124
 34
0.0000000000000000
100
AcDbRotatedDimension
1001
ACAD
1000
DSTYLE
1002
{
1070
   173
1070
     1
1070
     6
1000
_OPEN
1070
     7
1000
_OPEN
1070
    41
1040
4.000000
1002
}
  0
DIMENSION
  5
15A
100
AcDbEntity
  8
MAIN0
  6
CONTINUOUS
 62
3
100
AcDbDimension
  2
*D9
 10
263.6970260046512
 20
395.9999999979914
 30
0.0000000000000000
 11
263.1970260046512
 21
387.9999999980369
 31
0.0000000000000000
 70
32
  3
MAIN001
100
AcDbAlignedDimension
 13
71.71666565469178
 23
379.9999999977338
 33
0.0000000000000000
 14
269.4541207653546
 24
395.9999999979914
 34
0.0000000000000000
 50
90.00000000000000
100
AcDbRotatedDimension
1001
ACAD
1000
DSTYLE
1002
{
1070
   173
1070
     1
1070
     6
1000
_OPEN
1070
     7
1000
_OPEN
1070
    41
1040
4.000000
1002
}
  0
DIMENSION
  5
162
100
AcDbEntity
  8
MAIN0
  6
CONTINUOUS
 62
3
100
AcDbDimension
  2
*D10
 10
263.6970260046512
 20
379.9999999980823
 30
0.0000000000000000
 11
263.1970260046512
 21
371.9999999980369
 31
0.0000000000000000
 70
32
  3
MAIN001
100
AcDbAlignedDimension
 13
269.4953940124585
 23
363.9999999979914
 33
0.0000000000000000
 14
71.71666565469178
 24
379.9999999977338
 34
0.0000000000000000
 50
90.00000000000000
100
AcDbRotatedDimension
1001
ACAD
1000
DSTYLE
1002
{
1070
   173
1070
     1
1070
     6
1000
_OPEN
1070
     7
1000
_OPEN
1070
    41
1040
4.000000
1002
}
  0
DIMENSION
  5
16A
100
AcDbEntity
  8
MAIN0
  6
CONTINUOUS
 62
3
100
AcDbDimension
  2
*D11
 10
248.0872324382226
 20
443.9999999976560
 30
0.0000000000000000
 11
247.5872324382226
 21
411.9999999976949
 31
0.0000000000000000
 70
32
  3
MAIN001
100
AcDbAlignedDimension
 13
71.71666565469184
 23
379.9999999977338
 33
0.0000000000000000
 14
226.5451168404235
 24
443.9999999980046
 34
0.0000000000000000
 50
90.00000000000000
100
AcDbRotatedDimension
1001
ACAD
1000
DSTYLE
1002
{
1070
   173
1070
     1
1070
     6
1000
_OPEN
1070
     7
1000
_OPEN
1070
    41
1040
4.000000
1002
}
  0
DIMENSION
  5
173
100
AcDbEntity
  8
MAIN0
  6
CONTINUOUS
 62
3
100
AcDbDimension
  2
*D12
 10
70.09078121226065
 20
395.9999999979914
 30
0.0000000000000000
 11
69.59078121226065
 21
387.9999999978626
 31
0.0000000000000000
 70
32
  3
MAIN001
100
AcDbAlignedDimension
 13
71.71666565469184
 23
379.9999999977338
 33
0.0000000000000000
 14
105.4953940124584
 24
395.9999999979914
 34
0.0000000000000000
 50
90.00000000000000
100
AcDbRotatedDimension
1001
ACAD
1000
DSTYLE
1002
{
1070
   173
1070
     1
1070
     6
1000
_OPEN
1070
     7
1000
_OPEN
1070
    41
1040
4.000000
1002
}
  0
DIMENSION
  5
17C
100
AcDbEntity
  8
MAIN0
  6
CONTINUOUS
 62
3
100
AcDbDimension
  2
*D13
 10
70.09078121226065
 20
379.9999999977338
 30
0.0000000000000000
 11
69.59078121226065
 21
371.9999999978626
 31
0.0000000000000000
 70
32
  3
MAIN001
100
AcDbAlignedDimension
 13
105.4953940124581
 23
363.9999999979914
 33
0.0000000000000000
 14
71.71666565469184
 24
379.9999999977338
 34
0.0000000000000000
 50
90.00000000000000
100
AcDbRotatedDimension
1001
ACAD
1000
DSTYLE
1002
{
1070
   173
1070
     1
1070
     6
1000
_OPEN
1070
     7
1000
_OPEN
1070
    41
1040
4.000000
1002
}
  0
DIMENSION
  5
186
100
AcDbEntity
  8
MAIN0
  6
CONTINUOUS
 62
3
100
AcDbDimension
  2
*D14
 10
155.0383508673307
 20
247.9999999979054
 30
0.0000000000000000
 11
154.2883508673307
 21
231.3004162344300
 31
0.0000000000000000
 70
160
  3
MAIN001
100
AcDbAlignedDimension
 13
182.5953940126651
 23
239.9999999978976
 33
0.0000000000000000
 14
170.3234266199256
 24
247.9999999979054
 34
0.0000000000000000
 50
90.00000000000000
100
AcDbRotatedDimension
1001
ACAD
1000
DSTYLE
1002
{
1070
   173
1070
     1
1070
     6
1000
_OPEN
1070
     7
1000
_OPEN
1070
    41
1040
4.000000
1070
   287
1070
     0
1002
}
  0
LEADER
  5
187
100
AcDbEntity
  8
MAIN0
  6
CONTINUOUS
 62
3
100
AcDbLeader
  3
MAIN001
 73
     0
 75
     1
 40
6.199999809265137
 41
33.39900002086165
 76
     3
 10
643.5382965522088
 20
431.3472264480152
 30
0.0000000000000000
 10
575.8329626186594
 20
506.5463688450070
 30
0.0000000000000000
 10
572.2599627239808
 20
506.5463688450070
 30
0.0000000000000000
340
188
213
0.0000000000000000
223
-1.000000000000000
233
0.0000000000000000
1001
ACAD
1000
DSTYLE
1002
{
1070
   147
1040
0.0
1070
    77
1070
     1
1070
   173
1070
     1
1070
     6
1000
_OPEN
1070
     7
1000
_OPEN
1002
}
  0
MTEXT
  5
188
102
{ACAD_REACTORS
330
187
102
}
100
AcDbEntity
  8
MAIN0
  6
CONTINUOUS
 62
3
100
AcDbMText
 10
538.8609627031192
 20
513.7463686542722
 30
0.0000000000000000
 40
6.199999809265137
 41
0.0000000000000000
 71
     1
 72
     1
  1
{\H0.70x;{6-M10\Pネジ深18\PDEPTH 18}}
 11
1.000000000000000
 21
0.0000000000000000
 31
0.0000000000000000
  7
KNJYOKO
  0
DIMENSION
  5
190
100
AcDbEntity
  8
MAIN0
  6
CONTINUOUS
 62
3
100
AcDbDimension
  2
*D15
 10
712.7052605168128
 20
391.4659574703056
 30
0.0000000000000000
 11
548.9731220567124
 21
343.5203080587259
 31
0.0000000000000000
 70
163
  3
MAIN001
100
AcDbDiametricDimension
 15
636.0624051615885
 25
368.5340425263193
 35
0.0000000000000000
1001
ACAD
1000
DSTYLE
1002
{
1070
   287
1070
     2
1070
   173
1070
     1
1070
     6
1000
_OPEN
1070
     7
1000
_OPEN
1070
    41
1040
4.000000
1070
   272
1070
     1
1070
    47
1040
0.200000
1070
    48
1040
0.200000
1070
    71
1070
     1
1002
}
  0
CIRCLE
  5
191
100
AcDbEntity
  8
MAIN0
  6
CENTER
 62
3
100
AcDbCircle
 10
674.3838328392004
 20
379.9999999983125
 30
0.0000000000000000
 40
55.00000000000000
  0
LINE
  5
192
100
AcDbEntity
  8
MAIN0
  6
CENTER
 62
3
100
AcDbLine
 10
642.2094266922903
 20
324.2722938485081
 30
0.0000000000000000
 11
650.2147567569347
 21
338.1379322518307
 31
0.0000000000000000
  0
CIRCLE
  5
193
100
AcDbEntity
  8
MAIN0
  6
CONTINUOUS
 62
3
100
AcDbCircle
 10
646.8838328392003
 20
332.3686027901684
 30
0.0000000000000000
 40
5.000000000000000
  0
CIRCLE
  5
194
100
AcDbEntity
  8
MAIN0
  6
CONTINUOUS
 62
3
100
AcDbCircle
 10
646.8838328392003
 20
332.3686027901684
 30
0.0000000000000000
 40
4.250000000000000
  0
LINE
  5
195
100
AcDbEntity
  8
MAIN0
  6
CENTER
 62
3
100
AcDbLine
 10
706.5582389861103
 20
324.2722938485078
 30
0.0000000000000000
 11
698.5529089214659
 21
338.1379322518305
 31
0.0000000000000000
  0
CIRCLE
  5
196
100
AcDbEntity
  8
MAIN0
  6
CONTINUOUS
 62
3
100
AcDbCircle
 10
701.8838328392003
 20
332.3686027901682
 30
0.0000000000000000
 40
5.000000000000000
  0
CIRCLE
  5
197
100
AcDbEntity
  8
MAIN0
  6
CONTINUOUS
 62
3
100
AcDbCircle
 10
701.8838328392003
 20
332.3686027901682
 30
0.0000000000000000
 40
4.250000000000000
  0
CIRCLE
  5
198
100
AcDbEntity
  8
MAIN0
  6
CONTINUOUS
 62
3
100
AcDbCircle
 10
729.3838328392005
 20
379.9999999983122
 30
0.0000000000000000
 40
5.000000000000000
  0
CIRCLE
  5
199
100
AcDbEntity
  8
MAIN0
  6
CONTINUOUS
 62
3
100
AcDbCircle
 10
729.3838328392005
 20
379.9999999983122
 30
0.0000000000000000
 40
4.250000000000000
  0
LINE
  5
19A
100
AcDbEntity
  8
MAIN0
  6
CENTER
 62
3
100
AcDbLine
 10
706.5582389861108
 20
435.7277061481167
 30
0.0000000000000000
 11
698.5529089214665
 21
421.8620677447941
 31
0.0000000000000000
  0
CIRCLE
  5
19B
100
AcDbEntity
  8
MAIN0
  6
CONTINUOUS
 62
3
100
AcDbCircle
 10
701.8838328392008
 20
427.6313972064564
 30
0.0000000000000000
 40
5.000000000000000
  0
CIRCLE
  5
19C
100
AcDbEntity
  8
MAIN0
  6
CONTINUOUS
 62
3
100
AcDbCircle
 10
701.8838328392008
 20
427.6313972064564
 30
0.0000000000000000
 40
4.250000000000000
  0
DIMENSION
  5
1A4
100
AcDbEntity
  8
MAIN0
  6
CONTINUOUS
 62
3
100
AcDbDimension
  2
*D16
 10
716.8503880858943
 20
414.9512758760181
 30
0.0000000000000000
 11
575.2086324035929
 21
299.6709087679319
 31
0.0000000000000000
 70
163
  3
MAIN001
100
AcDbDiametricDimension
 15
631.9172775925065
 25
345.0487241206067
 35
0.0000000000000000
1001
ACAD
1000
DSTYLE
1002
{
1070
   287
1070
     2
1070
   173
1070
     1
1070
     6
1000
_OPEN
1070
     7
1000
_OPEN
1070
    41
1040
4.000000
1070
   272
1070
     1
1070
    47
1040
0.200000
1070
    48
1040
0.200000
1070
    71
1070
     1
1002
}
  0
LINE
  5
1A5
100
AcDbEntity
  8
MAIN0
  6
CENTER
 62
3
100
AcDbLine
 10
408.4999999995026
 20
446.5087039512569
 30
0.0000000000000000
 11
408.4999999995026
 21
493.0510724567274
 31
0.0000000000000000
  0
LINE
  5
1A6
100
AcDbEntity
  8
MAIN0
  6
CONTINUOUS
 62
3
100
AcDbLine
 10
378.4999999995117
 20
234.9999999996554
 30
0.0000000000000000
 11
378.4999999995117
 21
239.9999999996554
 31
0.0000000000000000
  0
LINE
  5
1A7
100
AcDbEntity
  8
MAIN0
  6
CONTINUOUS
 62
3
100
AcDbLine
 10
422.4999999995117
 20
239.9999999996554
 30
0.0000000000000000
 11
422.4999999995117
 21
234.9999999996554
 31
0.0000000000000000
  0
LINE
  5
1A8
100
AcDbEntity
  8
MAIN0
  6
CONTINUOUS
 62
3
100
AcDbLine
 10
447.4999999995117
 20
239.9999999996554
 30
0.0000000000000000
 11
447.4999999995117
 21
234.9999999996554
 31
0.0000000000000000
  0
LINE
  5
1A9
100
AcDbEntity
  8
MAIN0
  6
CONTINUOUS
 62
3
100
AcDbLine
 10
403.4999999995117
 20
234.9999999996554
 30
0.0000000000000000
 11
403.4999999995117
 21
239.9999999996554
 31
0.0000000000000000
  0
LINE
  5
1AA
100
AcDbEntity
  8
MAIN0
  6
CONTINUOUS
 62
3
100
AcDbLine
 10
422.4999999995117
 20
234.9999999996554
 30
0.0000000000000000
 11
424.9999999995117
 21
234.9999999996554
 31
0.0000000000000000
  0
DIMENSION
  5
1B3
100
AcDbEntity
  8
MAIN0
  6
CONTINUOUS
 62
3
100
AcDbDimension
  2
*D17
 10
345.0843840646318
 20
399.9999999996709
 30
0.0000000000000000
 11
344.5843840646318
 21
377.8999999981808
 31
0.0000000000000000
 70
32
  1
\A1;\U+220540H8
  3
MAIN001
100
AcDbAlignedDimension
 13
360.0000000000931
 23
359.9999999996709
 33
0.0000000000000000
 14
360.0000000002095
 24
399.9999999996709
 34
0.0000000000000000
 50
90.00000000000000
100
AcDbRotatedDimension
1001
ACAD
1000
DSTYLE
1002
{
1070
   173
1070
     1
1070
     6
1000
_OPEN
1070
     7
1000
_OPEN
1070
    41
1040
4.000000
1002
}
  0
DIMENSION
  5
1BC
100
AcDbEntity
  8
MAIN0
  6
CONTINUOUS
 62
3
100
AcDbDimension
  2
*D18
 10
332.0206759045897
 20
410.0000000008743
 30
0.0000000000000000
 11
331.5206759045897
 21
379.9999999998654
 31
0.0000000000000000
 70
32
  1
\A1;\U+220560
  3
MAIN001
100
AcDbAlignedDimension
 13
359.6000000015026
 23
349.9999999988565
 33
0.0000000000000000
 14
359.6000000021582
 24
410.0000000008743
 34
0.0000000000000000
 50
90.00000000000000
100
AcDbRotatedDimension
1001
ACAD
1000
DSTYLE
1002
{
1070
   173
1070
     1
1070
     6
1000
_OPEN
1070
     7
1000
_OPEN
1070
    41
1040
4.000000
1002
}
  0
DIMENSION
  5
1C5
100
AcDbEntity
  8
MAIN0
  6
CONTINUOUS
 62
3
100
AcDbDimension
  2
*D19
 10
320.5837169154649
 20
485.0000000011598
 30
0.0000000000000000
 11
320.0837169154649
 21
379.9999999999888
 31
0.0000000000000000
 70
32
  1
\A1;\U+2205210
  3
MAIN001
100
AcDbAlignedDimension
 13
360.3999999991431
 23
274.9999999988176
 33
0.0000000000000000
 14
360.3999999999795
 24
485.0000000011598
 34
0.0000000000000000
 50
90.00000000000000
100
AcDbRotatedDimension
1001
ACAD
1000
DSTYLE
1002
{
1070
   173
1070
     1
1070
     6
1000
_OPEN
1070
     7
1000
_OPEN
1070
    41
1040
4.000000
1002
}
  0
DIMENSION
  5
1CE
100
AcDbEntity
  8
MAIN0
  6
CONTINUOUS
 62
3
100
AcDbDimension
  2
*D20
 10
357.9999999999999
 20
388.7358974254581
 30
0.0000000000000000
 11
379.7965269389066
 21
389.7358974254581
 31
0.0000000000000000
 70
160
  3
MAIN001
100
AcDbAlignedDimension
 13
367.9999999999999
 23
399.9999999995724
 33
0.0000000000000000
 14
357.9999999999999
 24
409.0762395689245
 34
0.0000000000000000
100
AcDbRotatedDimension
1001
ACAD
1000
DSTYLE
1002
{
1070
   173
1070
     1
1070
     6
1000
_OPEN
1070
     7
1000
_OPEN
1070
    41
1040
4.000000
1070
   287
1070
     0
1002
}
  0
DIMENSION
  5
1D5
100
AcDbEntity
  8
MAIN0
  6
CONTINUOUS
 62
3
100
AcDbDimension
  2
*D21
 10
402.5646999688170
 20
399.9999999995724
 30
0.0000000000000000
 11
402.0646999688170
 21
376.8249999131457
 31
0.0000000000000000
 70
32
  1
\A1;\U+220540\H0.903226x;\S+0.3^ +0.1;
  3
MAIN001
100
AcDbAlignedDimension
 13
367.9999999999999
 23
359.9999999995725
 33
0.0000000000000000
 14
367.9999999999999
 24
399.9999999995724
 34
0.0000000000000000
 50
90.00000000000000
100
AcDbRotatedDimension
1001
ACAD
1000
DSTYLE
1002
{
1070
   173
1070
     1
1070
     6
1000
_OPEN
1070
     7
1000
_OPEN
1070
    41
1040
4.000000
1070
   272
1070
     1
1070
    47
1040
0.300000
1070
    48
1040
-0.100000
1070
    71
1070
     1
1002
}
  0
DIMENSION
  5
1DE
100
AcDbEntity
  8
MAIN0
  6
CONTINUOUS
 62
3
100
AcDbDimension
  2
*D22
 10
468.8310586861979
 20
404.9999999996761
 30
0.0000000000000000
 11
468.3310586861979
 21
377.8999999981860
 31
0.0000000000000000
 70
32
  1
\A1;\U+220550H7
  3
MAIN001
100
AcDbAlignedDimension
 13
453.8999999989063
 23
354.9999999996761
 33
0.0000000000000000
 14
453.8999999991056
 24
404.9999999996761
 34
0.0000000000000000
 50
90.00000000000000
100
AcDbRotatedDimension
1001
ACAD
1000
DSTYLE
1002
{
1070
   173
1070
     1
1070
     6
1000
_OPEN
1070
     7
1000
_OPEN
1070
    41
1040
4.000000
1002
}
  0
DIMENSION
  5
1E6
100
AcDbEntity
  8
MAIN0
  6
CONTINUOUS
 62
3
100
AcDbDimension
  2
*D23
 10
454.4999999990626
 20
337.2275664434553
 30
0.0000000000000000
 11
448.1054901154724
 21
338.2275664434553
 31
0.0000000000000000
 70
160
  3
MAIN001
100
AcDbAlignedDimension
 13
435.4999999999546
 23
355.9237604303587
 33
0.0000000000000000
 14
454.4999999990626
 24
379.9999999996056
 34
0.0000000000000000
100
AcDbRotatedDimension
1001
ACAD
1000
DSTYLE
1002
{
1070
   173
1070
     1
1070
     6
1000
_OPEN
1070
     7
1000
_OPEN
1070
    41
1040
4.000000
1002
}
  0
DIMENSION
  5
1F1
100
AcDbEntity
  8
MAIN0
  6
CONTINUOUS
 62
3
100
AcDbDimension
  2
*D24
 10
447.9999999995117
 20
199.9477338850467
 30
0.0000000000000000
 11
463.6088682529745
 21
200.9477338850467
 31
0.0000000000000000
 70
160
  3
MAIN001
100
AcDbAlignedDimension
 13
447.4999999995117
 23
234.9999999996554
 33
0.0000000000000000
 14
447.9999999995117
 24
240.3999999996555
 34
0.0000000000000000
100
AcDbRotatedDimension
1001
ACAD
1000
DSTYLE
1002
{
1070
   173
1070
     1
1070
     6
1000
_OPEN
1070
     7
1000
_OPEN
1070
    41
1040
4.000000
1070
   287
1070
     0
1002
}
  0
DIMENSION
  5
1FA
100
AcDbEntity
  8
MAIN0
  6
CONTINUOUS
 62
3
100
AcDbDimension
  2
*D25
 10
447.4999999995117
 20
199.9477338850467
 30
0.0000000000000000
 11
438.9906366033124
 21
200.9477338850467
 31
0.0000000000000000
 70
160
  3
MAIN001
100
AcDbAlignedDimension
 13
422.4999999995117
 23
234.9999999996554
 33
0.0000000000000000
 14
447.4999999995117
 24
234.9999999996554
 34
0.0000000000000000
100
AcDbRotatedDimension
1001
ACAD
1000
DSTYLE
1002
{
1070
   173
1070
     1
1070
     6
1000
_OPEN
1070
     7
1000
_OPEN
1070
    41
1040
4.000000
1002
}
  0
DIMENSION
  5
203
100
AcDbEntity
  8
MAIN0
  6
CONTINUOUS
 62
3
100
AcDbDimension
  2
*D26
 10
403.4999999995117
 20
199.9477338850467
 30
0.0000000000000000
 11
386.7908963312104
 21
200.9477338850467
 31
0.0000000000000000
 70
160
  3
MAIN001
100
AcDbAlignedDimension
 13
378.4999999995117
 23
234.9999999996554
 33
0.0000000000000000
 14
403.4999999995117
 24
234.9999999996554
 34
0.0000000000000000
100
AcDbRotatedDimension
1001
ACAD
1000
DSTYLE
1002
{
1070
   173
1070
     1
1070
     6
1000
_OPEN
1070
     7
1000
_OPEN
1070
    41
1040
4.000000
1002
}
  0
DIMENSION
  5
20E
100
AcDbEntity
  8
MAIN0
  6
CONTINUOUS
 62
3
100
AcDbDimension
  2
*D27
 10
378.4999999995117
 20
199.9477338850467
 30
0.0000000000000000
 11
369.0645780061034
 21
200.9477338850467
 31
0.0000000000000000
 70
160
  3
MAIN001
100
AcDbAlignedDimension
 13
377.9999999995117
 23
240.3999999996554
 33
0.0000000000000000
 14
378.4999999995117
 24
234.9999999996554
 34
0.0000000000000000
100
AcDbRotatedDimension
1001
ACAD
1000
DSTYLE
1002
{
1070
   173
1070
     1
1070
     6
1000
_OPEN
1070
     7
1000
_OPEN
1070
    41
1040
4.000000
1070
   287
1070
     0
1002
}
  0
LINE
  5
20F
100
AcDbEntity
  8
MAIN0
  6
CENTER
 62
3
100
AcDbLine
 10
432.9999999995117
 20
210.2820941035805
 30
0.0000000000000000
 11
432.9999999995118
 21
284.5364040751872
 31
0.0000000000000000
  0
LINE
  5
210
100
AcDbEntity
  8
MAIN0
  6
CENTER
 62
3
100
AcDbLine
 10
392.9999999995117
 20
212.5786242481048
 30
0.0000000000000000
 11
392.9999999995117
 21
284.5364040751872
 31
0.0000000000000000
  0
DIMENSION
  5
219
100
AcDbEntity
  8
MAIN0
  6
CONTINUOUS
 62
3
100
AcDbDimension
  2
*D28
 10
447.9999999995117
 20
180.7256252661813
 30
0.0000000000000000
 11
440.4999999995117
 21
181.2256252661813
 31
0.0000000000000000
 70
32
  3
MAIN001
100
AcDbAlignedDimension
 13
432.9999999995117
 23
210.2820941035805
 33
0.0000000000000000
 14
447.9999999995117
 24
240.3999999996555
 34
0.0000000000000000
100
AcDbRotatedDimension
1001
ACAD
1000
DSTYLE
1002
{
1070
   173
1070
     1
1070
     6
1000
_OPEN
1070
     7
1000
_OPEN
1070
    41
1040
4.000000
1002
}
  0
DIMENSION
  5
222
100
AcDbEntity
  8
MAIN0
  6
CONTINUOUS
 62
3
100
AcDbDimension
  2
*D29
 10
432.9999999995118
 20
180.7256252661813
 30
0.0000000000000000
 11
409.8249999130850
 21
181.2256252661813
 31
0.0000000000000000
 70
32
  3
MAIN001
100
AcDbAlignedDimension
 13
392.9999999995117
 23
212.5786242481048
 33
0.0000000000000000
 14
432.9999999995117
 24
210.2820941035805
 34
0.0000000000000000
100
AcDbRotatedDimension
1001
ACAD
1000
DSTYLE
1002
{
1070
   173
1070
     1
1070
     6
1000
_OPEN
1070
     7
1000
_OPEN
1070
    41
1040
4.000000
1070
   272
1070
     1
1070
    47
1040
0.200000
1070
    48
1040
0.200000
1070
    71
1070
     1
1002
}
  0
DIMENSION
  5
22B
100
AcDbEntity
  8
MAIN0
  6
CONTINUOUS
 62
3
100
AcDbDimension
  2
*D30
 10
392.9999999995117
 20
180.7256252661813
 30
0.0000000000000000
 11
385.4999999995117
 21
181.2256252661813
 31
0.0000000000000000
 70
32
  3
MAIN001
100
AcDbAlignedDimension
 13
377.9999999995117
 23
240.3999999996554
 33
0.0000000000000000
 14
392.9999999995117
 24
212.5786242481048
 34
0.0000000000000000
100
AcDbRotatedDimension
1001
ACAD
1000
DSTYLE
1002
{
1070
   173
1070
     1
1070
     6
1000
_OPEN
1070
     7
1000
_OPEN
1070
    41
1040
4.000000
1002
}
  0
DIMENSION
  5
236
100
AcDbEntity
  8
MAIN0
  6
CONTINUOUS
 62
3
100
AcDbDimension
  2
*D31
 10
454.4999999985483
 20
163.9775653100289
 30
0.0000000000000000
 11
465.3724742105860
 21
164.9775653100289
 31
0.0000000000000000
 70
160
  3
MAIN001
100
AcDbAlignedDimension
 13
447.9999999995117
 23
240.3999999996555
 33
0.0000000000000000
 14
454.4999999985483
 24
315.4999999996099
 34
0.0000000000000000
100
AcDbRotatedDimension
1001
ACAD
1000
DSTYLE
1002
{
1070
   173
1070
     1
1070
     6
1000
_OPEN
1070
     7
1000
_OPEN
1070
    41
1040
4.000000
1070
   287
1070
     0
1002
}
  0
DIMENSION
  5
23F
100
AcDbEntity
  8
MAIN0
  6
CONTINUOUS
 62
3
100
AcDbDimension
  2
*D32
 10
447.9999999995117
 20
163.9775653100289
 30
0.0000000000000000
 11
412.9999999995117
 21
164.4775653100289
 31
0.0000000000000000
 70
32
  3
MAIN001
100
AcDbAlignedDimension
 13
377.9999999995117
 23
240.3999999996554
 33
0.0000000000000000
 14
447.9999999995117
 24
240.3999999996555
 34
0.0000000000000000
100
AcDbRotatedDimension
1001
ACAD
1000
DSTYLE
1002
{
1070
   173
1070
     1
1070
     6
1000
_OPEN
1070
     7
1000
_OPEN
1070
    41
1040
4.000000
1002
}
  0
LEADER
  5
240
100
AcDbEntity
  8
MAIN0
  6
CONTINUOUS
 62
3
100
AcDbLeader
  3
MAIN001
 73
     0
 74
     0
 75
     1
 40
6.199999809265137
 41
98.20100006258497
 76
     3
 10
674.3838328392005
 20
485.9999999983125
 30
0.0000000000000000
 10
699.0841406239708
 20
533.7184936305212
 30
0.0000000000000000
 10
702.6551405186494
 20
533.7184936305213
 30
0.0000000000000000
340
241
213
-0.001000000000090040
223
-1.000000000000000
233
0.0000000000000000
1001
ACAD
1000
DSTYLE
1002
{
1070
   147
1040
0.0
1070
    77
1070
     1
1070
   173
1070
     1
1070
     6
1000
_OPEN
1070
     7
1000
_OPEN
1002
}
  0
MTEXT
  5
241
102
{ACAD_REACTORS
330
240
102
}
100
AcDbEntity
  8
MAIN0
  6
CONTINUOUS
 62
3
100
AcDbMText
 10
702.6561405186495
 20
540.9184934397864
 30
0.0000000000000000
 40
6.199999809265137
 41
0.0000000000000000
 71
     1
 72
     1
  1
{\H0.71x;{M12 ネジ深24　DEPTH 24\P(アイボルト用)(FOR EYE BOLT)}}
 11
1.000000000000000
 21
0.0000000000000000
 31
0.0000000000000000
  7
KNJYOKO
  0
LINE
  5
242
100
AcDbEntity
  8
MAIN0
  6
CONTINUOUS
 62
3
100
AcDbLine
 10
404.9999999995117
 20
279.3999999980797
 30
0.0000000000000000
 11
380.9999999995117
 21
279.3999999980797
 31
0.0000000000000000
  0
LINE
  5
243
100
AcDbEntity
  8
MAIN0
  6
CONTINUOUS
 62
3
100
AcDbLine
 10
402.2287187074015
 20
280.9999999980797
 30
0.0000000000000000
 11
383.7712812916220
 21
280.9999999980797
 31
0.0000000000000000
  0
LINE
  5
244
100
AcDbEntity
  8
MAIN0
  6
CONTINUOUS
 62
3
100
AcDbLine
 10
383.7712812916219
 20
280.9999999980797
 30
0.0000000000000000
 11
380.9999999995117
 21
279.3999999980798
 31
0.0000000000000000
  0
LINE
  5
245
100
AcDbEntity
  8
MAIN0
  6
CONTINUOUS
 62
3
100
AcDbLine
 10
380.9999999995117
 20
279.3999999980797
 30
0.0000000000000000
 11
380.9999999995117
 21
264.9999999980797
 31
0.0000000000000000
  0
LINE
  5
246
100
AcDbEntity
  8
MAIN0
  6
CONTINUOUS
 62
3
100
AcDbLine
 10
404.9999999995117
 20
264.9999999980797
 30
0.0000000000000000
 11
404.9999999995117
 21
279.3999999980797
 31
0.0000000000000000
  0
LINE
  5
247
100
AcDbEntity
  8
MAIN0
  6
CONTINUOUS
 62
3
100
AcDbLine
 10
404.9999999995118
 20
279.3999999980798
 30
0.0000000000000000
 11
402.2287187074015
 21
280.9999999980797
 31
0.0000000000000000
  0
LINE
  5
248
100
AcDbEntity
  8
MAIN0
  6
CONTINUOUS
 62
3
100
AcDbLine
 10
400.9999999995117
 20
239.9999999996554
 30
0.0000000000000000
 11
400.9999999995117
 21
214.9999999980797
 31
0.0000000000000000
  0
LINE
  5
249
100
AcDbEntity
  8
MAIN0
  6
CONTINUOUS
 62
3
100
AcDbLine
 10
399.9174679995118
 20
239.9999999996554
 30
0.0000000000000000
 11
399.9174679995117
 21
214.9999999980797
 31
0.0000000000000000
  0
LINE
  5
24A
100
AcDbEntity
  8
MAIN0
  6
CONTINUOUS
 62
3
100
AcDbLine
 10
400.9999999995117
 20
214.9999999980797
 30
0.0000000000000000
 11
384.9999999995117
 21
214.9999999980797
 31
0.0000000000000000
  0
LINE
  5
24B
100
AcDbEntity
  8
MAIN0
  6
CONTINUOUS
 62
3
100
AcDbLine
 10
386.0825319995117
 20
239.9999999996554
 30
0.0000000000000000
 11
386.0825319995117
 21
214.9999999980797
 31
0.0000000000000000
  0
LINE
  5
24C
100
AcDbEntity
  8
MAIN0
  6
CONTINUOUS
 62
3
100
AcDbLine
 10
384.9999999995117
 20
214.9999999980797
 30
0.0000000000000000
 11
384.9999999995117
 21
239.9999999996554
 31
0.0000000000000000
  0
LINE
  5
24D
100
AcDbEntity
  8
MAIN0
  6
CONTINUOUS
 62
3
100
AcDbLine
 10
400.9999999995117
 20
234.9999999996554
 30
0.0000000000000000
 11
403.4999999995117
 21
234.9999999996554
 31
0.0000000000000000
  0
LINE
  5
24E
100
AcDbEntity
  8
MAIN0
  6
HIDDEN
 62
3
100
AcDbLine
 10
424.9999999995118
 20
234.9999999996554
 30
0.0000000000000000
 11
440.9999999995117
 21
234.9999999996554
 31
0.0000000000000000
  0
LINE
  5
24F
100
AcDbEntity
  8
MAIN0
  6
CONTINUOUS
 62
3
100
AcDbLine
 10
440.9999999995117
 20
234.9999999996554
 30
0.0000000000000000
 11
447.4999999995117
 21
234.9999999996554
 31
0.0000000000000000
  0
LINE
  5
250
100
AcDbEntity
  8
MAIN0
  6
CONTINUOUS
 62
3
100
AcDbLine
 10
378.4999999995117
 20
234.9999999996554
 30
0.0000000000000000
 11
384.9999999995117
 21
234.9999999996554
 31
0.0000000000000000
  0
LINE
  5
251
100
AcDbEntity
  8
MAIN0
  6
HIDDEN
 62
3
100
AcDbLine
 10
384.9999999995117
 20
234.9999999996554
 30
0.0000000000000000
 11
400.9999999995118
 21
234.9999999996554
 31
0.0000000000000000
  0
LINE
  5
252
100
AcDbEntity
  8
MAIN0
  6
CONTINUOUS
 62
3
100
AcDbLine
 10
422.6999999994249
 20
264.9999999980814
 30
0.0000000000000000
 11
443.2999999994250
 21
264.9999999980782
 31
0.0000000000000000
  0
LINE
  5
253
100
AcDbEntity
  8
MAIN0
  6
CONTINUOUS
 62
3
100
AcDbLine
 10
382.6999999994249
 20
264.9999999980813
 30
0.0000000000000000
 11
403.2999999994250
 21
264.9999999980782
 31
0.0000000000000000
  0
LINE
  5
254
100
AcDbEntity
  8
MAIN0
  6
HIDDEN
 62
3
100
AcDbLine
 10
401.7499999994858
 20
240.5999999980799
 30
0.0000000000000000
 11
401.7499999995177
 21
264.3999999980798
 31
0.0000000000000000
  0
LINE
  5
255
100
AcDbEntity
  8
MAIN0
  6
HIDDEN
 62
3
100
AcDbLine
 10
384.2499999994858
 20
240.5999999980799
 30
0.0000000000000000
 11
384.2499999995177
 21
264.3999999980798
 31
0.0000000000000000
  0
LINE
  5
256
100
AcDbEntity
  8
MAIN0
  6
HIDDEN
 62
3
100
AcDbLine
 10
383.6499999995119
 20
264.9999999980797
 30
0.0000000000000000
 11
384.2499999995110
 21
264.3999999980798
 31
0.0000000000000000
  0
LINE
  5
257
100
AcDbEntity
  8
MAIN0
  6
HIDDEN
 62
3
100
AcDbLine
 10
402.3499999995115
 20
264.9999999980801
 30
0.0000000000000000
 11
401.7499999995107
 21
264.3999999980801
 31
0.0000000000000000
  0
LINE
  5
258
100
AcDbEntity
  8
MAIN0
  6
HIDDEN
 62
3
100
AcDbLine
 10
402.3499999994849
 20
239.9999999980798
 30
0.0000000000000000
 11
401.7499999994856
 21
240.5999999980798
 31
0.0000000000000000
  0
LINE
  5
259
100
AcDbEntity
  8
MAIN0
  6
HIDDEN
 62
3
100
AcDbLine
 10
383.6499999994851
 20
239.9999999980797
 30
0.0000000000000000
 11
384.2499999994859
 21
240.5999999980797
 31
0.0000000000000000
  0
LEADER
  5
25A
100
AcDbEntity
  8
MAIN0
  6
CONTINUOUS
 62
3
100
AcDbLeader
  3
MAIN001
 73
     0
 75
     1
 40
6.199999809265137
 41
35.39900002086165
 76
     3
 10
572.4413314428612
 20
227.1306244019515
 30
0.0000000000000000
 10
518.5378607336804
 20
187.1129092680506
 30
0.0000000000000000
 10
514.9648608390019
 20
187.1129092680506
 30
0.0000000000000000
340
25B
213
0.0000000000000000
223
-1.000000000000000
233
0.0000000000000000
1001
ACAD
1000
DSTYLE
1002
{
1070
   147
1040
0.0
1070
    77
1070
     1
1070
   173
1070
     1
1070
     6
1000
_DOT
1070
     7
1000
_DOT
1002
}
  0
MTEXT
  5
25B
102
{ACAD_REACTORS
330
25A
102
}
100
AcDbEntity
  8
MAIN0
  6
CONTINUOUS
 62
3
100
AcDbMText
 10
479.5658608181402
 20
194.3129090773157
 30
0.0000000000000000
 40
6.199999809265137
 41
0.0000000000000000
 71
     1
 72
     1
  1
{\H0.70x;{4ーM16×50}}
 11
1.000000000000000
 21
0.0000000000000000
 31
0.0000000000000000
  7
KNJYOKO
  0
LINE
  5
25C
100
AcDbEntity
  8
MAIN0
  6
CENTER
 62
3
100
AcDbLine
 10
774.3838328392008
 20
234.8211607382856
 30
0.0000000000000000
 11
774.3838328392008
 21
268.9106137099207
 31
0.0000000000000000
  0
DIMENSION
  5
267
100
AcDbEntity
  8
MAIN0
  6
CONTINUOUS
 62
3
100
AcDbDimension
  2
*D33
 10
534.3838328392006
 20
163.9775653100289
 30
0.0000000000000000
 11
541.8838328392005
 21
164.4775653100289
 31
0.0000000000000000
 70
32
  3
MAIN001
100
AcDbAlignedDimension
 13
549.3838328392004
 23
236.2081776743757
 33
0.0000000000000000
 14
534.3838328392006
 24
240.3999999983124
 34
0.0000000000000000
100
AcDbRotatedDimension
1001
ACAD
1000
DSTYLE
1002
{
1070
   173
1070
     1
1070
     6
1000
_OPEN
1070
     7
1000
_OPEN
1070
    41
1040
4.000000
1070
   287
1070
     0
1002
}
  0
DIMENSION
  5
270
100
AcDbEntity
  8
MAIN0
  6
CONTINUOUS
 62
3
100
AcDbDimension
  2
*D34
 10
549.3838328392004
 20
163.9775653100289
 30
0.0000000000000000
 11
561.8838328392005
 21
164.4775653100289
 31
0.0000000000000000
 70
32
  3
MAIN001
100
AcDbAlignedDimension
 13
574.3838328392006
 23
211.3913171173776
 33
0.0000000000000000
 14
549.3838328392004
 24
236.2081776743757
 34
0.0000000000000000
100
AcDbRotatedDimension
1001
ACAD
1000
DSTYLE
1002
{
1070
   173
1070
     1
1070
     6
1000
_OPEN
1070
     7
1000
_OPEN
1070
    41
1040
4.000000
1002
}
  0
DIMENSION
  5
279
100
AcDbEntity
  8
MAIN0
  6
CONTINUOUS
 62
3
100
AcDbDimension
  2
*D35
 10
574.3838328392006
 20
163.9775653100289
 30
0.0000000000000000
 11
671.2088327527739
 21
164.4775653100289
 31
0.0000000000000000
 70
32
  3
MAIN001
100
AcDbAlignedDimension
 13
774.3838328392008
 23
234.8211607382856
 33
0.0000000000000000
 14
574.3838328392006
 24
211.3913171173776
 34
0.0000000000000000
100
AcDbRotatedDimension
1001
ACAD
1000
DSTYLE
1002
{
1070
   173
1070
     1
1070
     6
1000
_OPEN
1070
     7
1000
_OPEN
1070
    41
1040
4.000000
1070
   272
1070
     1
1070
    47
1040
0.200000
1070
    48
1040
0.200000
1070
    71
1070
     1
1002
}
  0
DIMENSION
  5
282
100
AcDbEntity
  8
MAIN0
  6
CONTINUOUS
 62
3
100
AcDbDimension
  2
*D36
 10
774.3838328392008
 20
163.9775653100289
 30
0.0000000000000000
 11
786.8838328392005
 21
164.4775653100289
 31
0.0000000000000000
 70
32
  3
MAIN001
100
AcDbAlignedDimension
 13
799.3838328392005
 23
236.2081776743755
 33
0.0000000000000000
 14
774.3838328392008
 24
234.8211607382856
 34
0.0000000000000000
100
AcDbRotatedDimension
1001
ACAD
1000
DSTYLE
1002
{
1070
   173
1070
     1
1070
     6
1000
_OPEN
1070
     7
1000
_OPEN
1070
    41
1040
4.000000
1002
}
  0
DIMENSION
  5
28D
100
AcDbEntity
  8
MAIN0
  6
CONTINUOUS
 62
3
100
AcDbDimension
  2
*D37
 10
799.3838328392005
 20
163.9775653100289
 30
0.0000000000000000
 11
806.8838328392006
 21
164.4775653100289
 31
0.0000000000000000
 70
32
  3
MAIN001
100
AcDbAlignedDimension
 13
814.3838328392008
 23
240.3999999983124
 33
0.0000000000000000
 14
799.3838328392005
 24
236.2081776743755
 34
0.0000000000000000
100
AcDbRotatedDimension
1001
ACAD
1000
DSTYLE
1002
{
1070
   173
1070
     1
1070
     6
1000
_OPEN
1070
     7
1000
_OPEN
1070
    41
1040
4.000000
1070
   287
1070
     0
1002
}
  0
LEADER
  5
28E
100
AcDbEntity
  8
MAIN0
  6
CONTINUOUS
 62
3
100
AcDbLeader
  3
MAIN001
 73
     0
 75
     1
 40
6.199999809265137
 41
33.39900002086165
 76
     3
 10
636.2991484734047
 20
403.6250723050544
 30
0.0000000000000000
 10
574.2908051419629
 20
468.8998648233170
 30
0.0000000000000000
 10
570.7178052472843
 20
468.8998648233170
 30
0.0000000000000000
340
28F
213
0.0000000000000000
223
-1.000000000000000
233
0.0000000000000000
1001
ACAD
1000
DSTYLE
1002
{
1070
   147
1040
0.0
1070
    77
1070
     1
1070
   173
1070
     1
1070
     6
1000
_OPEN
1070
     7
1000
_OPEN
1002
}
  0
MTEXT
  5
28F
102
{ACAD_REACTORS
330
28E
102
}
100
AcDbEntity
  8
MAIN0
  6
CONTINUOUS
 62
3
100
AcDbMText
 10
537.3188052264227
 20
476.0998646325821
 30
0.0000000000000000
 40
6.199999809265137
 41
0.0000000000000000
 71
     1
 72
     1
  1
{\H0.70x;{6-M10\Pネジ深18\PDEPTH 18}}
 11
1.000000000000000
 21
0.0000000000000000
 31
0.0000000000000000
  7
KNJYOKO
  0
LEADER
  5
290
100
AcDbEntity
  8
MAIN0
  6
CONTINUOUS
 62
3
100
AcDbLeader
  3
MAIN001
 73
     0
 74
     0
 75
     1
 40
6.199999809265137
 41
34.38553492181953
 76
     3
 10
108.5474123219116
 20
366.6274225037643
 30
0.0000000000000000
 10
49.74911046394522
 20
473.3193666156599
 30
0.0000000000000000
 10
53.32011035862382
 20
473.3193666156599
 30
0.0000000000000000
340
291
213
-5.185534903938141
223
-1.000000000000000
233
0.0000000000000000
1001
ACAD
1000
DSTYLE
1002
{
1070
   147
1040
0.0
1070
    77
1070
     1
1070
   173
1070
     1
1070
     6
1000
_OPEN
1070
     7
1000
_OPEN
1002
}
  0
MTEXT
  5
291
102
{ACAD_REACTORS
330
290
102
}
100
AcDbEntity
  8
MAIN0
  6
CONTINUOUS
 62
3
100
AcDbMText
 10
58.50564526256196
 20
480.5193664249251
 30
0.0000000000000000
 40
6.199999809265137
 41
0.0000000000000000
 71
     1
 72
     1
  1
{\H0.70x;{2×2-M6\Pネジ深 8\PDEPTH 8}}
 11
1.000000000000000
 21
0.0000000000000000
 31
0.0000000000000000
  7
KNJYOKO
  0
LEADER
  5
292
100
AcDbEntity
  8
MAIN0
  6
CONTINUOUS
 62
3
100
AcDbLeader
  3
MAIN001
 73
     0
 74
     0
 75
     1
 40
6.199999809265137
 41
31.43914630800552
 76
     3
 10
180.7529250230450
 20
355.5537874828154
 30
0.0000000000000000
 10
174.4569675512525
 20
323.4075509605391
 30
0.0000000000000000
 10
178.0279674459311
 20
323.4075509605391
 30
0.0000000000000000
340
293
213
1.960853712856107
223
-1.000000000000000
233
0.0000000000000000
1001
ACAD
1000
DSTYLE
1002
{
1070
   147
1040
0.0
1070
    77
1070
     1
1070
   173
1070
     1
1070
     6
1000
_OPEN
1070
     7
1000
_OPEN
1002
}
  0
MTEXT
  5
293
102
{ACAD_REACTORS
330
292
102
}
100
AcDbEntity
  8
MAIN0
  6
CONTINUOUS
 62
3
100
AcDbMText
 10
176.0671137330750
 20
330.6075507698043
 30
0.0000000000000000
 40
6.199999809265137
 41
0.0000000000000000
 71
     1
 72
     1
  1
{\H0.70x;{6-M6\Pネジ深10\PDEPTH 10}}
 11
1.000000000000000
 21
0.0000000000000000
 31
0.0000000000000000
  7
KNJYOKO
  0
LEADER
  5
294
100
AcDbEntity
  8
MAIN0
  6
CONTINUOUS
 62
3
100
AcDbLeader
  3
MAIN001
 73
     0
 75
     1
 40
6.199999809265137
 41
29.19900001788139
 76
     3
 10
160.7315542806902
 20
446.1570139367915
 30
0.0000000000000000
 10
127.7530317581447
 20
502.4419454604350
 30
0.0000000000000000
 10
124.1800318634661
 20
502.4419454604350
 30
0.0000000000000000
340
295
213
0.0000000000000000
223
-1.000000000000000
233
0.0000000000000000
1001
ACAD
1000
DSTYLE
1002
{
1070
   147
1040
0.0
1070
    77
1070
     1
1070
   173
1070
     1
1070
     6
1000
_OPEN
1070
     7
1000
_OPEN
1002
}
  0
MTEXT
  5
295
102
{ACAD_REACTORS
330
294
102
}
100
AcDbEntity
  8
MAIN0
  6
CONTINUOUS
 62
3
100
AcDbMText
 10
94.98103184558468
 20
509.6419452697002
 30
0.0000000000000000
 40
6.199999809265137
 41
0.0000000000000000
 71
     1
 72
     1
  1
{\H0.70x;{2-M5\Pネジ深8\PDEPTH 8\P}
 11
1.000000000000000
 21
0.0000000000000000
 31
0.0000000000000000
  7
KNJYOKO
  0
LEADER
  5
296
100
AcDbEntity
  8
MAIN0
  6
CONTINUOUS
 62
3
100
AcDbLeader
  3
MAIN001
 73
     0
 74
     0
 75
     1
 40
6.199999809265137
 41
81.20100004768372
 76
     3
 10
196.8450996646366
 20
466.4448866500044
 30
0.0000000000000000
 10
238.5675793025116
 20
504.6846698585899
 30
0.0000000000000000
 10
242.1385791971902
 20
504.6846698585899
 30
0.0000000000000000
340
297
213
-0.001000000000004775
223
-1.000000000000000
233
0.0000000000000000
1001
ACAD
1000
DSTYLE
1002
{
1070
   147
1040
0.0
1070
    77
1070
     1
1070
   173
1070
     1
1070
     6
1000
_OPEN
1070
     7
1000
_OPEN
1002
}
  0
MTEXT
  5
297
102
{ACAD_REACTORS
330
296
102
}
100
AcDbEntity
  8
MAIN0
  6
CONTINUOUS
 62
3
100
AcDbMText
 10
242.1395791971902
 20
511.8846696678551
 30
0.0000000000000000
 40
6.199999809265137
 41
0.0000000000000000
 71
     1
 72
     1
  1
{\H0.71x;{Rc1/4(クランプ用空圧供給口)\P(PNEUMATIC PORT \P FOR TABLE CLAMP)\P}
 11
1.000000000000000
 21
0.0000000000000000
 31
0.0000000000000000
  7
KNJYOKO
  0
DIMENSION
  5
29F
100
AcDbEntity
  8
MAIN0
  6
CONTINUOUS
 62
3
100
AcDbDimension
  2
*D38
 10
207.8787631464746
 20
352.4891976625182
 30
0.0000000000000000
 11
203.7720994669461
 21
336.0487368962498
 31
0.0000000000000000
 70
162
  3
MAIN001
100
AcDb2LineAngularDimension
 13
191.9953940125264
 23
333.9983042098065
 33
0.0000000000000000
 14
191.9953940124584
 24
379.9999999979116
 34
0.0000000000000000
 15
207.3787631464733
 25
353.3552230663019
 35
0.0000000000000000
 16
203.9015089894981
 26
335.5657739831054
 36
0.0000000000000000
1001
ACAD
1000
DSTYLE
1002
{
1070
   173
1070
     1
1070
     6
1000
_OPEN
1070
     7
1000
_OPEN
1070
    41
1040
4.000000
1002
}
  0
DIMENSION
  5
2A7
100
AcDbEntity
  8
MAIN0
  6
CONTINUOUS
 62
3
100
AcDbDimension
  2
*D39
 10
237.9970898005636
 20
379.9999999979116
 30
0.0000000000000000
 11
231.4010184802457
 21
357.2491521038882
 31
0.0000000000000000
 70
162
  3
MAIN001
100
AcDb2LineAngularDimension
 13
207.8787631464746
 23
352.4891976625182
 33
0.0000000000000000
 14
207.3787631464733
 24
353.3552230663019
 34
0.0000000000000000
 15
191.9953940124584
 25
379.9999999979116
 35
0.0000000000000000
 16
231.8340311821381
 26
356.9991521038885
 36
0.0000000000000000
1001
ACAD
1000
DSTYLE
1002
{
1070
   173
1070
     1
1070
     6
1000
_OPEN
1070
     7
1000
_OPEN
1070
    41
1040
4.000000
1002
}
  0
DIMENSION
  5
2AF
100
AcDbEntity
  8
MAIN0
  6
CONTINUOUS
 62
3
100
AcDbDimension
  2
*D40
 10
207.8787631463931
 20
407.5108023333519
 30
0.0000000000000000
 11
231.4010184802120
 21
402.7508478919934
 31
0.0000000000000000
 70
162
  3
MAIN001
100
AcDb2LineAngularDimension
 13
237.9970898005636
 23
379.9999999979116
 33
0.0000000000000000
 14
191.9953940124584
 24
379.9999999979116
 34
0.0000000000000000
 15
207.3787631463944
 25
406.6447769295668
 35
0.0000000000000000
 16
231.8340311821041
 26
403.0008478919937
 36
0.0000000000000000
1001
ACAD
1000
DSTYLE
1002
{
1070
   173
1070
     1
1070
     6
1000
_OPEN
1070
     7
1000
_OPEN
1070
    41
1040
4.000000
1002
}
  0
DIMENSION
  5
2B7
100
AcDbEntity
  8
MAIN0
  6
CONTINUOUS
 62
3
100
AcDbDimension
  2
*D41
 10
191.9953940123904
 20
426.0016957860168
 30
0.0000000000000000
 11
204.0309185119172
 21
424.9171889258978
 31
0.0000000000000000
 70
162
  3
MAIN001
100
AcDb2LineAngularDimension
 13
207.8787631463931
 23
407.5108023333519
 33
0.0000000000000000
 14
207.3787631463944
 24
406.6447769295668
 34
0.0000000000000000
 15
191.9953940124584
 25
379.9999999979116
 35
0.0000000000000000
 16
203.9015089893667
 26
424.4342260127531
 36
0.0000000000000000
1001
ACAD
1000
DSTYLE
1002
{
1070
   173
1070
     1
1070
     6
1000
_OPEN
1070
     7
1000
_OPEN
1070
    41
1040
4.000000
1002
}
  0
ARC
  5
2B8
100
AcDbEntity
  8
MAIN0
  6
CONTINUOUS
 62
3
100
AcDbCircle
 10
549.3838328392003
 20
232.4166666650172
 30
0.0000000000000000
 40
34.08333333327150
100
AcDbArc
 50
72.93846878022426
 51
107.0615312197757
  0
LINE
  5
2B9
100
AcDbEntity
  8
MAIN0
  6
HIDDEN
 62
3
100
AcDbLine
 10
540.6338328392103
 20
256.1999999982886
 30
0.0000000000000000
 11
558.1338328391902
 21
256.1999999982886
 31
0.0000000000000000
  0
LINE
  5
2BA
100
AcDbEntity
  8
MAIN0
  6
HIDDEN
 62
3
100
AcDbLine
 10
540.6338328392104
 20
256.1999999982886
 30
0.0000000000000000
 11
540.6338328391986
 21
264.9999999983124
 31
0.0000000000000000
  0
LINE
  5
2BB
100
AcDbEntity
  8
MAIN0
  6
HIDDEN
 62
3
100
AcDbLine
 10
558.1338328391902
 20
256.1999999982886
 30
0.0000000000000000
 11
558.1338328392019
 21
264.9999999983124
 31
0.0000000000000000
  0
CIRCLE
  5
2BC
100
AcDbEntity
  8
MAIN0
  6
CONTINUOUS
 62
3
100
AcDbCircle
 10
674.3838328392004
 20
379.9999999983124
 30
0.0000000000000000
 40
80.00000000000000
  0
CIRCLE
  5
2BD
100
AcDbEntity
  8
MAIN0
  6
CONTINUOUS
 62
3
100
AcDbCircle
 10
674.3838328392004
 20
379.9999999983124
 30
0.0000000000000000
 40
65.00000000000000
  0
ARC
  5
2BE
100
AcDbEntity
  8
MAIN0
  6
CONTINUOUS
 62
3
100
AcDbCircle
 10
674.3838328392004
 20
379.9999999983124
 30
0.0000000000000000
 40
86.00000000000000
100
AcDbArc
 50
341.0235256007047
 51
558.9764743992953
  0
ARC
  5
2BF
100
AcDbEntity
  8
MAIN0
  6
CONTINUOUS
 62
3
100
AcDbCircle
 10
603.3838328392462
 20
438.5064099036083
 30
0.0000000000000000
 40
6.000000000000000
100
AcDbArc
 50
320.5103191387238
 51
360.0000000000000
  0
ARC
  5
2C0
100
AcDbEntity
  8
MAIN0
  6
CONTINUOUS
 62
3
100
AcDbCircle
 10
587.3838328392003
 20
350.0834493950096
 30
0.0000000000000000
 40
6.000000000000000
100
AcDbArc
 50
0.0000000000000000
 51
18.97647439929527
  0
ARC
  5
2C1
100
AcDbEntity
  8
MAIN0
  6
CONTINUOUS
 62
3
100
AcDbCircle
 10
761.3838328392004
 20
350.0834493950094
 30
0.0000000000000000
 40
6.000000000000000
100
AcDbArc
 50
161.0235256007047
 51
179.9999999999999
  0
ARC
  5
2C2
100
AcDbEntity
  8
MAIN0
  6
CONTINUOUS
 62
3
100
AcDbCircle
 10
745.3838328391546
 20
438.5064099036083
 30
0.0000000000000000
 40
6.000000000000000
100
AcDbArc
 50
180.0000000000000
 51
219.4896808612762
  0
ARC
  5
2C3
100
AcDbEntity
  8
MAIN0
  6
CONTINUOUS
 62
3
100
AcDbCircle
 10
443.9999999992493
 20
266.3431457502442
 30
0.0000000000000000
 40
4.000000000000000
100
AcDbArc
 50
0.0000000000000000
 51
45.00000000479938
  0
ARC
  5
2C4
100
AcDbEntity
  8
MAIN0
  6
CONTINUOUS
 62
3
100
AcDbCircle
 10
438.4999999992535
 20
461.9999999997133
 30
0.0000000000000000
 40
4.000000000000000
100
AcDbArc
 50
0.0000000000000000
 51
90.00000000000000
  0
LINE
  5
2C5
100
AcDbEntity
  8
MAIN0
  6
CONTINUOUS
 62
3
100
AcDbLine
 10
436.4999999992402
 20
465.9999999997133
 30
0.0000000000000000
 11
438.4999999992535
 21
465.9999999997133
 31
0.0000000000000000
  0
ARC
  5
2C6
100
AcDbEntity
  8
MAIN0
  6
CONTINUOUS
 62
3
100
AcDbCircle
 10
436.4999999992402
 20
469.9999999997133
 30
0.0000000000000000
 40
4.000000000000000
100
AcDbArc
 50
180.0000000000000
 51
270.0000000000000
  0
LINE
  5
2C7
100
AcDbEntity
  8
MAIN0
  6
CONTINUOUS
 62
3
100
AcDbLine
 10
432.4999999992402
 20
469.9999999997133
 30
0.0000000000000000
 11
432.4999999992402
 21
485.0000000011825
 31
0.0000000000000000
  0
LINE
  5
2C8
100
AcDbEntity
  8
MAIN0
  6
CONTINUOUS
 62
3
100
AcDbLine
 10
431.4999999992401
 20
486.0000000011823
 30
0.0000000000000000
 11
432.4999999992401
 21
485.0000000011827
 31
0.0000000000000000
  0
ARC
  5
2C9
100
AcDbEntity
  8
MAIN0
  6
CONTINUOUS
 62
3
100
AcDbCircle
 10
457.4999999984406
 20
279.7132034361529
 30
0.0000000000000000
 40
15.00000000000000
100
AcDbArc
 50
213.5573097693224
 51
225.0000000048001
  0
LINE
  5
2CA
100
AcDbEntity
  8
MAIN0
  6
CONTINUOUS
 62
3
100
AcDbLine
 10
442.4999999984496
 20
280.8433756716670
 30
0.0000000000000000
 11
442.4999999998935
 21
461.9999999996816
 31
0.0000000000000000
  0
LINE
  5
2CB
100
AcDbEntity
  8
MAIN0
  6
CONTINUOUS
 62
3
100
AcDbLine
 10
432.4999999995026
 20
438.3116328996230
 30
0.0000000000000000
 11
432.4999999995026
 21
485.0000000011842
 31
0.0000000000000000
  0
ARC
  5
2CC
100
AcDbEntity
  8
MAIN0
  6
CONTINUOUS
 62
3
100
AcDbCircle
 10
375.0000000003705
 20
488.0000000011816
 30
0.0000000000000000
 40
3.000000000000000
100
AcDbArc
 50
270.0000000000000
 51
318.1896851036062
  0
LINE
  5
2CD
100
AcDbEntity
  8
MAIN0
  6
CONTINUOUS
 62
3
100
AcDbLine
 10
375.0000000003466
 20
485.0000000011816
 30
0.0000000000000000
 11
372.9000000003889
 21
485.0000000011983
 31
0.0000000000000000
  0
LINE
  5
2CE
100
AcDbEntity
  8
MAIN0
  6
CONTINUOUS
 62
3
100
AcDbLine
 10
372.5000000003433
 20
484.6000000011558
 30
0.0000000000000000
 11
372.9000000003887
 21
485.0000000011983
 31
0.0000000000000000
  0
LINE
  5
2CF
100
AcDbEntity
  8
MAIN0
  6
CONTINUOUS
 62
3
100
AcDbLine
 10
372.0999999994779
 20
485.0000000011633
 30
0.0000000000000000
 11
372.4999999994779
 21
484.6000000011635
 31
0.0000000000000000
  0
LINE
  5
2D0
100
AcDbEntity
  8
MAIN0
  6
CENTER
 62
3
100
AcDbLine
 10
642.2094266922903
 20
435.7277061481169
 30
0.0000000000000000
 11
650.2147567569347
 21
421.8620677447942
 31
0.0000000000000000
  0
LINE
  5
2D1
100
AcDbEntity
  8
MAIN0
  6
CONTINUOUS
 62
3
100
AcDbLine
 10
444.4999999990623
 20
444.9999999996475
 30
0.0000000000000000
 11
444.6999999990631
 21
444.7999999996467
 31
0.0000000000000000
  0
LINE
  5
2D2
100
AcDbEntity
  8
MAIN0
  6
CONTINUOUS
 62
3
100
AcDbLine
 10
444.6999999990631
 20
444.7999999996467
 30
0.0000000000000000
 11
453.4999999990627
 21
444.7999999996116
 31
0.0000000000000000
  0
LINE
  5
2D3
100
AcDbEntity
  8
MAIN0
  6
CONTINUOUS
 62
3
100
AcDbLine
 10
453.4999999990622
 20
444.7999999996096
 30
0.0000000000000000
 11
454.4999999990623
 21
443.7999999996055
 31
0.0000000000000000
  0
LINE
  5
2D4
100
AcDbEntity
  8
MAIN0
  6
CONTINUOUS
 62
3
100
AcDbLine
 10
444.6999999985461
 20
315.1999999996465
 30
0.0000000000000000
 11
453.4999999985467
 21
315.1999999996114
 31
0.0000000000000000
  0
LINE
  5
2D5
100
AcDbEntity
  8
MAIN0
  6
CONTINUOUS
 62
3
100
AcDbLine
 10
453.4999999985462
 20
315.1999999996135
 30
0.0000000000000000
 11
454.4999999985544
 21
316.1999999996096
 31
0.0000000000000000
  0
LINE
  5
2D6
100
AcDbEntity
  8
MAIN0
  6
CONTINUOUS
 62
3
100
AcDbLine
 10
444.4999999985445
 20
314.9999999996480
 30
0.0000000000000000
 11
444.6999999985461
 21
315.1999999996464
 31
0.0000000000000000
  0
CIRCLE
  5
2D7
100
AcDbEntity
  8
MAIN0
  6
CONTINUOUS
 62
3
100
AcDbCircle
 10
674.3838328392004
 20
379.9999999983124
 30
0.0000000000000000
 40
64.80000000000000
  0
LINE
  5
2D8
100
AcDbEntity
  8
MAIN0
  6
CONTINUOUS
 62
3
100
AcDbLine
 10
619.3838328392619
 20
457.8652682506390
 30
0.0000000000000000
 11
619.3838328392715
 21
469.9999999983174
 31
0.0000000000000000
  0
ARC
  5
2D9
100
AcDbEntity
  8
MAIN0
  6
CONTINUOUS
 62
3
100
AcDbCircle
 10
625.3838328392714
 20
469.9999999983124
 30
0.0000000000000000
 40
6.000000000000000
100
AcDbArc
 50
90.00000000000000
 51
180.0000000000000
  0
LINE
  5
2DA
100
AcDbEntity
  8
MAIN0
  6
CONTINUOUS
 62
3
100
AcDbLine
 10
625.3838328392714
 20
475.9999999983124
 30
0.0000000000000000
 11
723.3838328392707
 21
475.9999999983124
 31
0.0000000000000000
  0
ARC
  5
2DB
100
AcDbEntity
  8
MAIN0
  6
CONTINUOUS
 62
3
100
AcDbCircle
 10
723.3838328392707
 20
469.9999999983124
 30
0.0000000000000000
 40
6.000000000000000
100
AcDbArc
 50
0.0000000000000000
 51
90.00000000000000
  0
LINE
  5
2DC
100
AcDbEntity
  8
MAIN0
  6
CONTINUOUS
 62
3
100
AcDbLine
 10
729.3838328392612
 20
457.8652682506292
 30
0.0000000000000000
 11
729.3838328392708
 21
469.9999999983079
 31
0.0000000000000000
  0
ARC
  5
2DD
100
AcDbEntity
  8
MAIN0
  6
CONTINUOUS
 62
3
100
AcDbCircle
 10
723.3838328391393
 20
457.8652682506339
 30
0.0000000000000000
 40
6.000000000000000
100
AcDbArc
 50
237.8181160796418
 51
359.9999999999999
  0
ARC
  5
2DE
100
AcDbEntity
  8
MAIN0
  6
CONTINUOUS
 62
3
100
AcDbCircle
 10
674.3838328392004
 20
379.9999999983124
 30
0.0000000000000000
 40
86.00000000000000
100
AcDbArc
 50
57.81811607964144
 51
122.1818839203586
  0
ARC
  5
2DF
100
AcDbEntity
  8
MAIN0
  6
CONTINUOUS
 62
3
100
AcDbCircle
 10
625.3838328392616
 20
457.8652682506340
 30
0.0000000000000000
 40
6.000000000000000
100
AcDbArc
 50
180.0000000000000
 51
302.1818839203581
  0
LINE
  5
2E0
100
AcDbEntity
  8
MAIN0
  6
CONTINUOUS
 62
3
100
AcDbLine
 10
359.9999999987245
 20
484.6000000009048
 30
0.0000000000000000
 11
359.9999999988781
 21
472.0000000000422
 31
0.0000000000000000
  0
LINE
  5
2E1
100
AcDbEntity
  8
MAIN0
  6
CONTINUOUS
 62
3
100
AcDbLine
 10
357.9999999988947
 20
470.0000000000415
 30
0.0000000000000000
 11
359.9999999988704
 21
472.0000000000338
 31
0.0000000000000000
  0
LINE
  5
2E2
100
AcDbEntity
  8
MAIN0
  6
CONTINUOUS
 62
3
100
AcDbLine
 10
357.9999999989029
 20
470.0000000000496
 30
0.0000000000000000
 11
358.0000000000000
 21
380.0000000000000
 31
0.0000000000000000
  0
LINE
  5
2E3
100
AcDbEntity
  8
MAIN0
  6
CONTINUOUS
 62
3
100
AcDbLine
 10
357.9999999985539
 20
289.9999999995393
 30
0.0000000000000000
 11
358.0000000000001
 21
380.0000000000000
 31
0.0000000000000000
  0
LINE
  5
2E4
100
AcDbEntity
  8
MAIN0
  6
CONTINUOUS
 62
3
100
AcDbLine
 10
357.9999999985453
 20
289.9999999995474
 30
0.0000000000000000
 11
359.9999999985131
 21
287.9999999995473
 31
0.0000000000000000
  0
CIRCLE
  5
2E5
100
AcDbEntity
  8
MAIN0
  6
CONTINUOUS
 62
3
100
AcDbCircle
 10
191.9953940124584
 20
379.9999999979115
 30
0.0000000000000000
 40
90.00000000202900
  0
CIRCLE
  5
2E6
100
AcDbEntity
  8
MAIN0
  6
CONTINUOUS
 62
3
100
AcDbCircle
 10
191.9953940124584
 20
379.9999999979116
 30
0.0000000000000000
 40
92.00000000249463
  0
CIRCLE
  5
2E7
100
AcDbEntity
  8
MAIN0
  6
CONTINUOUS
 62
3
100
AcDbCircle
 10
289.6527128577596
 20
392.8568299317309
 30
0.0000000000000000
 40
3.000000000000000
  0
CIRCLE
  5
2E8
100
AcDbEntity
  8
MAIN0
  6
CONTINUOUS
 62
3
100
AcDbCircle
 10
289.6527128577596
 20
392.8568299317309
 30
0.0000000000000000
 40
2.500000000000000
  0
CIRCLE
  5
2E9
100
AcDbEntity
  8
MAIN0
  6
CONTINUOUS
 62
3
100
AcDbCircle
 10
94.33807516715706
 20
367.1431700640922
 30
0.0000000000000000
 40
3.000000000000000
  0
CIRCLE
  5
2EA
100
AcDbEntity
  8
MAIN0
  6
CONTINUOUS
 62
3
100
AcDbCircle
 10
94.33807516715706
 20
367.1431700640922
 30
0.0000000000000000
 40
2.500000000000000
  0
DIMENSION
  5
2F3
100
AcDbEntity
  8
MAIN0
  6
CONTINUOUS
 62
3
100
AcDbDimension
  2
*D42
 10
454.4999999985539
 20
147.5133616430891
 30
0.0000000000000000
 11
406.2499999985539
 21
148.0133616430891
 31
0.0000000000000000
 70
32
  3
MAIN001
100
AcDbAlignedDimension
 13
357.9999999985539
 23
289.9999999995393
 33
0.0000000000000000
 14
454.4999999985539
 24
316.1999999996092
 34
0.0000000000000000
100
AcDbRotatedDimension
1001
ACAD
1000
DSTYLE
1002
{
1070
   173
1070
     1
1070
     6
1000
_OPEN
1070
     7
1000
_OPEN
1070
    41
1040
4.000000
1002
}
  0
DIMENSION
  5
2FC
100
AcDbEntity
  8
MAIN0
  6
CONTINUOUS
 62
3
100
AcDbDimension
  2
*D43
 10
377.9999999995117
 20
163.9775653100289
 30
0.0000000000000000
 11
367.9999999990328
 21
164.4775653100289
 31
0.0000000000000000
 70
32
  3
MAIN001
100
AcDbAlignedDimension
 13
357.9999999985539
 23
289.9999999995393
 33
0.0000000000000000
 14
377.9999999995117
 24
240.3999999996554
 34
0.0000000000000000
100
AcDbRotatedDimension
1001
ACAD
1000
DSTYLE
1002
{
1070
   173
1070
     1
1070
     6
1000
_OPEN
1070
     7
1000
_OPEN
1070
    41
1040
4.000000
1002
}
  0
CIRCLE
  5
2FD
100
AcDbEntity
  8
MAIN0
  6
CONTINUOUS
 62
3
100
AcDbCircle
 10
191.9953940124584
 20
379.9999999979116
 30
0.0000000000000000
 40
37.50000000000000
  0
LINE
  5
2FE
100
AcDbEntity
  8
MAIN0
  6
HIDDEN
 62
3
100
AcDbLine
 10
765.6338328392008
 20
240.5862204459205
 30
0.0000000000000000
 11
765.6338328392008
 21
264.3862204459460
 31
0.0000000000000000
  0
LINE
  5
2FF
100
AcDbEntity
  8
MAIN0
  6
HIDDEN
 62
3
100
AcDbLine
 10
783.1338328392008
 20
240.5862211058952
 30
0.0000000000000000
 11
783.1338328392008
 21
264.3862211058951
 31
0.0000000000000000
  0
LINE
  5
300
100
AcDbEntity
  8
MAIN0
  6
HIDDEN
 62
3
100
AcDbLine
 10
790.6338328392005
 20
240.5999781900004
 30
0.0000000000000000
 11
790.6338328392005
 21
264.3999781900005
 31
0.0000000000000000
  0
LINE
  5
301
100
AcDbEntity
  8
MAIN0
  6
HIDDEN
 62
3
100
AcDbLine
 10
808.1338328392005
 20
240.5999781899819
 30
0.0000000000000000
 11
808.1338328392005
 21
264.3999781899931
 31
0.0000000000000000
  0
LINE
  5
302
100
AcDbEntity
  8
MAIN0
  6
HIDDEN
 62
3
100
AcDbLine
 10
558.1338328392004
 20
240.5999999983126
 30
0.0000000000000000
 11
558.1338328392004
 21
264.3999999983379
 31
0.0000000000000000
  0
LINE
  5
303
100
AcDbEntity
  8
MAIN0
  6
HIDDEN
 62
3
100
AcDbLine
 10
540.6338328392004
 20
240.5999999983123
 30
0.0000000000000000
 11
540.6338328392004
 21
264.3999999983125
 31
0.0000000000000000
  0
LINE
  5
304
100
AcDbEntity
  8
MAIN0
  6
HIDDEN
 62
3
100
AcDbLine
 10
565.6338328392006
 20
264.3989260755027
 30
0.0000000000000000
 11
565.6338328392006
 21
244.9999999983124
 31
0.0000000000000000
  0
LINE
  5
305
100
AcDbEntity
  8
MAIN0
  6
HIDDEN
 62
3
100
AcDbLine
 10
583.1338328392006
 20
264.3989260755027
 30
0.0000000000000000
 11
583.1338328392006
 21
244.9999999983124
 31
0.0000000000000000
  0
LINE
  5
306
100
AcDbEntity
  8
MAIN0
  6
HIDDEN
 62
3
100
AcDbLine
 10
783.7338328392265
 20
264.9862211058951
 30
0.0000000000000000
 11
783.1338328392257
 21
264.3862211058952
 31
0.0000000000000000
  0
LINE
  5
307
100
AcDbEntity
  8
MAIN0
  6
HIDDEN
 62
3
100
AcDbLine
 10
783.7338328391998
 20
239.9862211058952
 30
0.0000000000000000
 11
783.1338328392005
 21
240.5862211058952
 31
0.0000000000000000
  0
LINE
  5
308
100
AcDbEntity
  8
MAIN0
  6
HIDDEN
 62
3
100
AcDbLine
 10
765.0338328392269
 20
264.9862204459207
 30
0.0000000000000000
 11
765.6338328392260
 21
264.3862204459207
 31
0.0000000000000000
  0
LINE
  5
309
100
AcDbEntity
  8
MAIN0
  6
HIDDEN
 62
3
100
AcDbLine
 10
765.0338328392002
 20
239.9862204459207
 30
0.0000000000000000
 11
765.6338328392010
 21
240.5862204459207
 31
0.0000000000000000
  0
LINE
  5
30A
100
AcDbEntity
  8
MAIN0
  6
HIDDEN
 62
3
100
AcDbLine
 10
808.7338328392084
 20
264.9999781900000
 30
0.0000000000000000
 11
808.1338328392076
 21
264.3999781900000
 31
0.0000000000000000
  0
LINE
  5
30B
100
AcDbEntity
  8
MAIN0
  6
HIDDEN
 62
3
100
AcDbLine
 10
808.7338328391818
 20
239.9999781899998
 30
0.0000000000000000
 11
808.1338328391827
 21
240.5999781899997
 31
0.0000000000000000
  0
LINE
  5
30C
100
AcDbEntity
  8
MAIN0
  6
HIDDEN
 62
3
100
AcDbLine
 10
790.0338328392014
 20
264.9999781900003
 30
0.0000000000000000
 11
790.6338328392005
 21
264.3999781900004
 31
0.0000000000000000
  0
LINE
  5
30D
100
AcDbEntity
  8
MAIN0
  6
HIDDEN
 62
3
100
AcDbLine
 10
790.0338328391747
 20
239.9999781900004
 30
0.0000000000000000
 11
790.6338328391755
 21
240.5999781900003
 31
0.0000000000000000
  0
LINE
  5
30E
100
AcDbEntity
  8
MAIN0
  6
HIDDEN
 62
3
100
AcDbLine
 10
583.7338328392008
 20
264.9989260755027
 30
0.0000000000000000
 11
583.1338328392006
 21
264.3989260755027
 31
0.0000000000000000
  0
LINE
  5
30F
100
AcDbEntity
  8
MAIN0
  6
HIDDEN
 62
3
100
AcDbLine
 10
565.0338328392006
 20
264.9989260755028
 30
0.0000000000000000
 11
565.6338328392006
 21
264.3989260755027
 31
0.0000000000000000
  0
LINE
  5
310
100
AcDbEntity
  8
MAIN0
  6
HIDDEN
 62
3
100
AcDbLine
 10
558.7338328391743
 20
264.9999999983127
 30
0.0000000000000000
 11
558.1338328391751
 21
264.3999999983127
 31
0.0000000000000000
  0
LINE
  5
311
100
AcDbEntity
  8
MAIN0
  6
HIDDEN
 62
3
100
AcDbLine
 10
558.7338328392012
 20
239.9999999983126
 30
0.0000000000000000
 11
558.1338328392004
 21
240.5999999983125
 31
0.0000000000000000
  0
DIMENSION
  5
319
100
AcDbEntity
  8
MAIN0
  6
CONTINUOUS
 62
3
100
AcDbDimension
  2
*D44
 10
208.9473614707796
 20
398.3747326297627
 30
0.0000000000000000
 11
152.8049482288724
 21
338.9950862788711
 31
0.0000000000000000
 70
163
  3
MAIN001
100
AcDbDiametricDimension
 15
175.0434265541370
 25
361.6252673660604
 35
0.0000000000000000
1001
ACAD
1000
DSTYLE
1002
{
1070
   287
1070
     2
1070
   173
1070
     1
1070
     6
1000
_OPEN
1070
     7
1000
_OPEN
1070
    41
1040
4.000000
1070
   272
1070
     1
1070
    47
1040
0.200000
1070
    48
1040
0.200000
1070
    71
1070
     1
1002
}
  0
LINE
  5
31A
100
AcDbEntity
  8
MAIN0
  6
CONTINUOUS
 62
12
100
AcDbLine
 10
24.51977514475288
 20
47.01756248905872
 30
0.0000000000000000
 11
162.0197751447529
 21
47.01756248905872
 31
0.0000000000000000
  0
MTEXT
  5
31B
100
AcDbEntity
  8
MAIN0
  6
CONTINUOUS
 62
3
100
AcDbMText
 10
32.08816604278405
 20
53.74858879280384
 30
0.0000000000000000
 40
4.500000000000000
 41
0.0000000000000000
 71
     1
 72
     1
  1
{\H0.63x;{MAXIMUM PNEUMATIC PRESS}}
 11
1.000000000000000
 21
0.0000000000000000
 31
0.0000000000000000
  7
STANDARD
  0
MTEXT
  5
31C
100
AcDbEntity
  8
MAIN0
  6
CONTINUOUS
 62
3
100
AcDbMText
 10
32.01977514475294
 20
60.16756306126331
 30
0.0000000000000000
 40
4.650000572204590
 41
0.0000000000000000
 71
     1
 72
     1
  1
{\H0.94x;{許容最大空圧力}}
 11
1.000000000000000
 21
0.0000000000000000
 31
0.0000000000000000
  7
KNJYOKO
  0
MTEXT
  5
31D
100
AcDbEntity
  8
MAIN0
  6
CONTINUOUS
 62
3
100
AcDbMText
 10
123.0197751447529
 20
57.16756306126337
 30
0.0000000000000000
 40
4.650000572204590
 41
0.0000000000000000
 71
     1
 72
     1
  1
{\H0.81x;{ 0.7}}
 11
1.000000000000000
 21
0.0000000000000000
 31
0.0000000000000000
  7
STANDARD
  0
MTEXT
  5
31E
100
AcDbEntity
  8
MAIN0
  6
CONTINUOUS
 62
4
100
AcDbMText
 10
145.5197751447529
 20
57.16756306126337
 30
0.0000000000000000
 40
4.650000572204590
 41
0.0000000000000000
 71
     1
 72
     1
  1
{\H0.62x;{ＭＰa}}
 11
1.000000000000000
 21
0.0000000000000000
 31
0.0000000000000000
  7
KNJYOKO
  0
DIMENSION
  5
327
100
AcDbEntity
  8
MAIN0
  6
CONTINUOUS
 62
3
100
AcDbDimension
  2
*D45
 10
482.3664308787960
 20
444.7999999996116
 30
0.0000000000000000
 11
481.8664308787960
 21
379.9999999996115
 31
0.0000000000000000
 70
32
  1
\A1;\U+2205130
  3
MAIN001
100
AcDbAlignedDimension
 13
453.4999999985467
 23
315.1999999996114
 33
0.0000000000000000
 14
453.4999999990627
 24
444.7999999996116
 34
0.0000000000000000
 50
90.00000000000000
100
AcDbRotatedDimension
1001
ACAD
1000
DSTYLE
1002
{
1070
   173
1070
     1
1070
     6
1000
_OPEN
1070
     7
1000
_OPEN
1070
    41
1040
4.000000
1002
}
  0
DIMENSION
  5
330
100
AcDbEntity
  8
MAIN0
  6
CONTINUOUS
 62
3
100
AcDbDimension
  2
*D46
 10
442.4999999998935
 20
502.4419454604350
 30
0.0000000000000000
 11
425.4999999996981
 21
502.9419454604350
 31
0.0000000000000000
 70
32
  3
MAIN001
100
AcDbAlignedDimension
 13
408.4999999995026
 23
493.0510724567274
 33
0.0000000000000000
 14
442.4999999998935
 24
461.9999999996816
 34
0.0000000000000000
100
AcDbRotatedDimension
1001
ACAD
1000
DSTYLE
1002
{
1070
   173
1070
     1
1070
     6
1000
_OPEN
1070
     7
1000
_OPEN
1070
    41
1040
4.000000
1002
}
  0
DIMENSION
  5
338
100
AcDbEntity
  8
MAIN0
  6
CONTINUOUS
 62
3
100
AcDbDimension
  2
*D47
 10
706.5582389861103
 20
324.2722938485078
 30
0.0000000000000000
 11
698.8499107754565
 21
288.6913540782648
 31
0.0000000000000000
 70
162
  3
MAIN001
100
AcDb2LineAngularDimension
 13
674.3838328392004
 23
284.9703338117888
 33
0.0000000000000000
 14
674.3838328392004
 24
379.9999999983122
 34
0.0000000000000000
 15
706.0582389861103
 25
325.1383192522923
 35
0.0000000000000000
 16
698.9793202980077
 26
288.2083911651202
 36
0.0000000000000000
1001
ACAD
1000
DSTYLE
1002
{
1070
   173
1070
     1
1070
     6
1000
_OPEN
1070
     7
1000
_OPEN
1070
    41
1040
4.000000
1002
}
  0
DIMENSION
  5
341
100
AcDbEntity
  8
MAIN0
  6
CONTINUOUS
 62
3
100
AcDbDimension
  2
*D48
 10
716.8190776246270
 20
355.4999999983169
 30
0.0000000000000000
 11
741.2264008229909
 21
313.1574320145199
 31
0.0000000000000000
 70
162
  3
MAIN001
100
AcDb2LineAngularDimension
 13
706.5582389861103
 23
324.2722938485078
 33
0.0000000000000000
 14
706.0582389861103
 24
325.1383192522923
 34
0.0000000000000000
 15
715.9530522208426
 25
355.9999999983170
 35
0.0000000000000000
 16
741.5799542135842
 26
312.8038786239266
 36
0.0000000000000000
1001
ACAD
1000
DSTYLE
1002
{
1070
   173
1070
     1
1070
     6
1000
_OPEN
1070
     7
1000
_OPEN
1070
    41
1040
4.000000
1002
}
  0
DIMENSION
  5
349
100
AcDbEntity
  8
MAIN0
  6
CONTINUOUS
 62
3
100
AcDbDimension
  2
*D49
 10
769.4134990257238
 20
379.9999999983122
 30
0.0000000000000000
 11
765.6924787592475
 21
355.5339220620550
 31
0.0000000000000000
 70
162
  3
MAIN001
100
AcDb2LineAngularDimension
 13
716.8190776246270
 23
355.4999999983169
 33
0.0000000000000000
 14
715.9530522208426
 24
355.9999999983170
 34
0.0000000000000000
 15
674.3838328392004
 25
379.9999999983122
 35
0.0000000000000000
 16
766.1754416723920
 26
355.4045125395036
 36
0.0000000000000000
1001
ACAD
1000
DSTYLE
1002
{
1070
   173
1070
     1
1070
     6
1000
_OPEN
1070
     7
1000
_OPEN
1070
    41
1040
4.000000
1002
}
  0
DIMENSION
  5
351
100
AcDbEntity
  8
MAIN0
  6
CONTINUOUS
 62
3
100
AcDbDimension
  2
*D50
 10
716.8190776246368
 20
404.4999999983244
 30
0.0000000000000000
 11
765.6924787592452
 21
404.4660779345787
 31
0.0000000000000000
 70
162
  3
MAIN001
100
AcDb2LineAngularDimension
 13
769.4134990257238
 23
379.9999999983122
 33
0.0000000000000000
 14
674.3838328392004
 24
379.9999999983122
 34
0.0000000000000000
 15
715.9530522208524
 25
403.9999999983242
 35
0.0000000000000000
 16
766.1754416723895
 26
404.5954874571299
 36
0.0000000000000000
1001
ACAD
1000
DSTYLE
1002
{
1070
   173
1070
     1
1070
     6
1000
_OPEN
1070
     7
1000
_OPEN
1070
    41
1040
4.000000
1002
}
  0
DIMENSION
  5
35A
100
AcDbEntity
  8
MAIN0
  6
CONTINUOUS
 62
3
100
AcDbDimension
  2
*D51
 10
706.5582389861108
 20
435.7277061481168
 30
0.0000000000000000
 11
744.8812971319370
 21
444.4672370261460
 31
0.0000000000000000
 70
162
  3
MAIN001
100
AcDb2LineAngularDimension
 13
716.8190776246368
 23
404.4999999983244
 33
0.0000000000000000
 14
715.9530522208524
 24
403.9999999983242
 34
0.0000000000000000
 15
706.0582389861108
 25
434.8616807443323
 35
0.0000000000000000
 16
741.5799542135776
 26
447.1961213727043
 36
0.0000000000000000
1001
ACAD
1000
DSTYLE
1002
{
1070
   173
1070
     1
1070
     6
1000
_OPEN
1070
     7
1000
_OPEN
1070
    41
1040
4.000000
1002
}
  0
DIMENSION
  5
362
100
AcDbEntity
  8
MAIN0
  6
CONTINUOUS
 62
3
100
AcDbDimension
  2
*D52
 10
674.3838328392004
 20
475.0296661848356
 30
0.0000000000000000
 11
715.2080768807585
 21
466.3672288536129
 31
0.0000000000000000
 70
162
  3
MAIN001
100
AcDb2LineAngularDimension
 13
706.5582389861108
 23
435.7277061481168
 33
0.0000000000000000
 14
706.0582389861108
 24
434.8616807443323
 34
0.0000000000000000
 15
674.3838328392004
 25
379.9999999983122
 35
0.0000000000000000
 16
698.9793202980079
 26
471.7916088315041
 36
0.0000000000000000
1001
ACAD
1000
DSTYLE
1002
{
1070
   173
1070
     1
1070
     6
1000
_OPEN
1070
     7
1000
_OPEN
1070
    41
1040
4.000000
1002
}
  0
LINE
  5
363
100
AcDbEntity
  8
MAIN0
  6
CENTER
 62
3
100
AcDbLine
 10
294.6099371646277
 20
393.5094608928385
 30
0.0000000000000000
 11
284.6954885508915
 21
392.2041989706233
 31
0.0000000000000000
  0
ARC
  5
364
100
AcDbEntity
  8
MAIN0
  6
CENTER
 62
3
100
AcDbCircle
 10
191.9953940124584
 20
379.9999999979116
 30
0.0000000000000000
 40
98.49999999999993
100
AcDbArc
 50
4.591517341741064
 51
10.40848265842823
  0
LINE
  5
365
100
AcDbEntity
  8
MAIN0
  6
CENTER
 62
3
100
AcDbLine
 10
89.38085086028895
 20
366.4905391029846
 30
0.0000000000000000
 11
99.29529947402517
 21
367.7958010251998
 31
0.0000000000000000
  0
ARC
  5
366
100
AcDbEntity
  8
MAIN0
  6
CENTER
 62
3
100
AcDbCircle
 10
191.9953940124584
 20
379.9999999979116
 30
0.0000000000000000
 40
98.50000000000001
100
AcDbArc
 50
184.5915173417411
 51
190.4084826584282
  0
LINE
  5
367
100
AcDbEntity
  8
MAIN0
  6
CENTER
 62
3
100
AcDbLine
 10
166.4953940125174
 20
443.9999999979735
 30
0.0000000000000000
 11
157.4953940125174
 21
443.9999999979735
 31
0.0000000000000000
  0
LINE
  5
368
100
AcDbEntity
  8
MAIN0
  6
CENTER
 62
3
100
AcDbLine
 10
161.9953940125174
 20
448.4999999979735
 30
0.0000000000000000
 11
161.9953940125174
 21
439.4999999979735
 31
0.0000000000000000
  0
DIMENSION
  5
371
100
AcDbEntity
  8
MAIN0
  6
CONTINUOUS
 62
3
100
AcDbDimension
  2
*D53
 10
161.9953940125174
 20
502.4419454604350
 30
0.0000000000000000
 11
176.9953940124043
 21
502.9419454604350
 31
0.0000000000000000
 70
32
  3
MAIN001
100
AcDbAlignedDimension
 13
191.9953940122912
 23
493.0510724564072
 33
0.0000000000000000
 14
161.9953940125174
 24
448.4999999979735
 34
0.0000000000000000
100
AcDbRotatedDimension
1001
ACAD
1000
DSTYLE
1002
{
1070
   173
1070
     1
1070
     6
1000
_OPEN
1070
     7
1000
_OPEN
1070
    41
1040
4.000000
1002
}
  0
DIMENSION
  5
37A
100
AcDbEntity
  8
MAIN0
  6
CONTINUOUS
 62
3
100
AcDbDimension
  2
*D54
 10
191.9953940122912
 20
502.4419454604350
 30
0.0000000000000000
 11
206.9953940123465
 21
502.9419454604350
 31
0.0000000000000000
 70
32
  3
MAIN001
100
AcDbAlignedDimension
 13
221.9953940124018
 23
448.4999999979734
 33
0.0000000000000000
 14
191.9953940122912
 24
493.0510724564072
 34
0.0000000000000000
100
AcDbRotatedDimension
1001
ACAD
1000
DSTYLE
1002
{
1070
   173
1070
     1
1070
     6
1000
_OPEN
1070
     7
1000
_OPEN
1070
    41
1040
4.000000
1002
}
  0
DIMENSION
  5
385
100
AcDbEntity
  8
MAIN0
  6
CONTINUOUS
 62
3
100
AcDbDimension
  2
*D55
 10
454.4999999990623
 20
515.6822372369666
 30
0.0000000000000000
 11
448.4999999994780
 21
516.1822372369666
 31
0.0000000000000000
 70
32
  3
MAIN001
100
AcDbAlignedDimension
 13
442.4999999998935
 23
461.9999999996816
 33
0.0000000000000000
 14
454.4999999990623
 24
443.7499999996055
 34
0.0000000000000000
100
AcDbRotatedDimension
1001
ACAD
1000
DSTYLE
1002
{
1070
   173
1070
     1
1070
     6
1000
_OPEN
1070
     7
1000
_OPEN
1070
    41
1040
4.000000
1070
   287
1070
     0
1002
}
  0
DIMENSION
  5
38E
100
AcDbEntity
  8
MAIN0
  6
CONTINUOUS
 62
3
100
AcDbDimension
  2
*D56
 10
442.4999999998935
 20
515.6822372369666
 30
0.0000000000000000
 11
400.2499999993982
 21
516.1822372369666
 31
0.0000000000000000
 70
32
  3
MAIN001
100
AcDbAlignedDimension
 13
357.9999999989029
 23
470.0000000000496
 33
0.0000000000000000
 14
442.4999999998935
 24
461.9999999996816
 34
0.0000000000000000
100
AcDbRotatedDimension
1001
ACAD
1000
DSTYLE
1002
{
1070
   173
1070
     1
1070
     6
1000
_OPEN
1070
     7
1000
_OPEN
1070
    41
1040
4.000000
1002
}
  0
DIMENSION
  5
397
100
AcDbEntity
  8
MAIN0
  6
CONTINUOUS
 62
3
100
AcDbDimension
  2
*D57
 10
109.9953940124582
 20
199.9477338850467
 30
0.0000000000000000
 11
150.9953940125137
 21
200.4477338850467
 31
0.0000000000000000
 70
32
  3
MAIN001
100
AcDbAlignedDimension
 13
191.9953940126862
 23
225.9338106451614
 33
0.0000000000000000
 14
109.9953940124582
 24
359.4999999979915
 34
0.0000000000000000
100
AcDbRotatedDimension
1001
ACAD
1000
DSTYLE
1002
{
1070
   173
1070
     1
1070
     6
1000
_OPEN
1070
     7
1000
_OPEN
1070
    41
1040
4.000000
1002
}
  0
DIMENSION
  5
3A0
100
AcDbEntity
  8
MAIN0
  6
CONTINUOUS
 62
3
100
AcDbDimension
  2
*D58
 10
191.9953940125693
 20
199.9477338850467
 30
0.0000000000000000
 11
232.9953940125139
 21
200.4477338850467
 31
0.0000000000000000
 70
32
  3
MAIN001
100
AcDbAlignedDimension
 13
273.9953940124585
 23
359.4999999979915
 33
0.0000000000000000
 14
191.9953940126862
 24
225.9338106451614
 34
0.0000000000000000
100
AcDbRotatedDimension
1001
ACAD
1000
DSTYLE
1002
{
1070
   173
1070
     1
1070
     6
1000
_OPEN
1070
     7
1000
_OPEN
1070
    41
1040
4.000000
1002
}
  0
DIMENSION
  5
3AA
100
AcDbEntity
  8
MAIN0
  6
CONTINUOUS
 62
3
100
AcDbDimension
  2
*D59
 10
207.9953940127909
 20
214.9999999980475
 30
0.0000000000000000
 11
199.9953940127386
 21
215.4999999980475
 31
0.0000000000000000
 70
32
  3
MAIN001
100
AcDbAlignedDimension
 13
191.9953940126863
 23
225.9338106451614
 33
0.0000000000000000
 14
207.9953940127909
 24
241.8849077865641
 34
0.0000000000000000
100
AcDbRotatedDimension
1001
ACAD
1000
DSTYLE
1002
{
1070
   173
1070
     1
1070
     6
1000
_DOT
1070
     7
1000
_OPEN
1070
    41
1040
4.000000
1070
   287
1070
     0
1002
}
  0
DIMENSION
  5
3B4
100
AcDbEntity
  8
MAIN0
  6
CONTINUOUS
 62
3
100
AcDbDimension
  2
*D60
 10
191.9953940126863
 20
214.9999999980475
 30
0.0000000000000000
 11
183.9953940127385
 21
215.4999999980475
 31
0.0000000000000000
 70
32
  3
MAIN001
100
AcDbAlignedDimension
 13
175.9953940127908
 23
241.8849077865300
 33
0.0000000000000000
 14
191.9953940126863
 24
225.9338106451614
 34
0.0000000000000000
100
AcDbRotatedDimension
1001
ACAD
1000
DSTYLE
1002
{
1070
   173
1070
     1
1070
     6
1000
_OPEN
1070
     7
1000
_DOT
1070
    41
1040
4.000000
1070
   287
1070
     0
1002
}
  0
DIMENSION
  5
3BF
100
AcDbEntity
  8
MAIN0
  6
CONTINUOUS
 62
3
100
AcDbDimension
  2
*D61
 10
783.1338328392008
 20
212.4187400650875
 30
0.0000000000000000
 11
747.0387052077438
 21
213.4187400650875
 31
0.0000000000000000
 70
160
  1
\A1;8-\U+220517.5
  3
MAIN001
100
AcDbAlignedDimension
 13
765.6338328392008
 23
240.5862204459205
 33
0.0000000000000000
 14
783.1338328392008
 24
240.5862211058952
 34
0.0000000000000000
100
AcDbRotatedDimension
1001
ACAD
1000
DSTYLE
1002
{
1070
   173
1070
     1
1070
     6
1000
_OPEN
1070
     7
1000
_OPEN
1070
    41
1040
4.000000
1070
   287
1070
     0
1002
}
  0
LINE
  5
3C0
100
AcDbEntity
  8
MAIN0
  6
HIDDEN
 62
3
100
AcDbLine
 10
681.0838328392003
 20
485.9999999983125
 30
0.0000000000000000
 11
679.4838328392004
 21
484.3999999983125
 31
0.0000000000000000
  0
LINE
  5
3C1
100
AcDbEntity
  8
MAIN0
  6
HIDDEN
 62
3
100
AcDbLine
 10
679.4838328392004
 20
484.3999999983125
 30
0.0000000000000000
 11
669.2838328392004
 21
484.3999999983125
 31
0.0000000000000000
  0
LINE
  5
3C2
100
AcDbEntity
  8
MAIN0
  6
HIDDEN
 62
3
100
AcDbLine
 10
669.2838328392004
 20
484.3999999983125
 30
0.0000000000000000
 11
667.6838328392005
 21
485.9999999983125
 31
0.0000000000000000
  0
LINE
  5
3C3
100
AcDbEntity
  8
MAIN0
  6
HIDDEN
 62
3
100
AcDbLine
 10
680.3838328392005
 20
485.2999999983124
 30
0.0000000000000000
 11
680.3838328392005
 21
461.9999999983124
 31
0.0000000000000000
  0
LINE
  5
3C4
100
AcDbEntity
  8
MAIN0
  6
HIDDEN
 62
3
100
AcDbLine
 10
680.3838328392005
 20
461.9999999983124
 30
0.0000000000000000
 11
668.3838328392005
 21
461.9999999983124
 31
0.0000000000000000
  0
LINE
  5
3C5
100
AcDbEntity
  8
MAIN0
  6
HIDDEN
 62
3
100
AcDbLine
 10
668.3838328392005
 20
461.9999999983124
 30
0.0000000000000000
 11
668.3838328392005
 21
485.2999999983124
 31
0.0000000000000000
  0
LINE
  5
3C6
100
AcDbEntity
  8
MAIN0
  6
HIDDEN
 62
3
100
AcDbLine
 10
679.4838328392004
 20
484.3999999983125
 30
0.0000000000000000
 11
679.4838328392004
 21
453.9999999983124
 31
0.0000000000000000
  0
LINE
  5
3C7
100
AcDbEntity
  8
MAIN0
  6
HIDDEN
 62
3
100
AcDbLine
 10
679.4838328392004
 20
453.9999999983124
 30
0.0000000000000000
 11
669.2838328392004
 21
453.9999999983124
 31
0.0000000000000000
  0
LINE
  5
3C8
100
AcDbEntity
  8
MAIN0
  6
HIDDEN
 62
3
100
AcDbLine
 10
669.2838328392004
 20
453.9999999983124
 30
0.0000000000000000
 11
669.2838328392004
 21
484.3999999983125
 31
0.0000000000000000
  0
LINE
  5
3C9
100
AcDbEntity
  8
MAIN0
  6
HIDDEN
 62
3
100
AcDbLine
 10
679.4838328392006
 20
453.9999999983124
 30
0.0000000000000000
 11
674.3838328392005
 21
451.0555136254453
 31
0.0000000000000000
  0
LINE
  5
3CA
100
AcDbEntity
  8
MAIN0
  6
HIDDEN
 62
3
100
AcDbLine
 10
674.3838328392005
 20
451.0555136254453
 30
0.0000000000000000
 11
669.2838328392004
 21
453.9999999983124
 31
0.0000000000000000
  0
LINE
  5
3CB
100
AcDbEntity
  8
MAIN0
  6
CONTINUOUS
 62
3
100
AcDbLine
 10
182.9953940126725
 20
234.9999999978983
 30
0.0000000000000000
 11
200.9953940126725
 21
234.9999999979249
 31
0.0000000000000000
  0
LINE
  5
3CC
100
AcDbEntity
  8
MAIN0
  6
HIDDEN
 62
3
100
AcDbLine
 10
197.4953940126727
 20
234.9999999979196
 30
0.0000000000000000
 11
197.4953940126631
 21
241.4999999979196
 31
0.0000000000000000
  0
LINE
  5
3CD
100
AcDbEntity
  8
MAIN0
  6
HIDDEN
 62
3
100
AcDbLine
 10
197.4953940126630
 20
241.4999999979197
 30
0.0000000000000000
 11
186.4953940126630
 21
241.4999999979034
 31
0.0000000000000000
  0
LINE
  5
3CE
100
AcDbEntity
  8
MAIN0
  6
HIDDEN
 62
3
100
AcDbLine
 10
186.4953940126727
 20
234.9999999979034
 30
0.0000000000000000
 11
186.4953940126631
 21
241.4999999979034
 31
0.0000000000000000
  0
LINE
  5
3CF
100
AcDbEntity
  8
MAIN0
  6
CONTINUOUS
 62
3
100
AcDbLine
 10
331.5953940126283
 20
264.9999999981179
 30
0.0000000000000000
 11
275.9953940126283
 21
264.9999999980357
 31
0.0000000000000000
  0
LINE
  5
3D0
100
AcDbEntity
  8
MAIN0
  6
CONTINUOUS
 62
3
100
AcDbLine
 10
331.9953940126288
 20
264.5999999981185
 30
0.0000000000000000
 11
331.9953940126646
 21
240.3999999981184
 31
0.0000000000000000
  0
LINE
  5
3D1
100
AcDbEntity
  8
MAIN0
  6
CENTER
 62
3
100
AcDbLine
 10
291.9953940125980
 20
285.4377055585106
 30
0.0000000000000000
 11
291.9953940127074
 21
211.3913171171245
 31
0.0000000000000000
  0
LINE
  5
3D2
100
AcDbEntity
  8
MAIN0
  6
CONTINUOUS
 62
3
100
AcDbLine
 10
182.9953940126578
 20
244.9999999978982
 30
0.0000000000000000
 11
182.9953940126725
 21
234.9999999978983
 31
0.0000000000000000
  0
LINE
  5
3D3
100
AcDbEntity
  8
MAIN0
  6
CONTINUOUS
 62
3
100
AcDbLine
 10
200.9953940126578
 20
244.9999999979248
 30
0.0000000000000000
 11
200.9953940126725
 21
234.9999999979247
 31
0.0000000000000000
  0
LINE
  5
3D4
100
AcDbEntity
  8
MAIN0
  6
CONTINUOUS
 62
3
100
AcDbLine
 10
200.9953940126578
 20
244.9999999979248
 30
0.0000000000000000
 11
182.9953940126578
 21
244.9999999978982
 31
0.0000000000000000
  0
LINE
  5
3D5
100
AcDbEntity
  8
MAIN0
  6
CONTINUOUS
 62
3
100
AcDbLine
 10
331.5953940126653
 20
239.9999999981179
 30
0.0000000000000000
 11
201.3953940126651
 21
239.9999999979254
 31
0.0000000000000000
  0
LINE
  5
3D6
100
AcDbEntity
  8
MAIN0
  6
CONTINUOUS
 62
3
100
AcDbLine
 10
182.5953940126651
 20
239.9999999978976
 30
0.0000000000000000
 11
52.39539401266524
 21
239.9999999977051
 31
0.0000000000000000
  0
LINE
  5
3D7
100
AcDbEntity
  8
MAIN0
  6
CONTINUOUS
 62
3
100
AcDbLine
 10
51.99539401262871
 20
264.5999999977043
 30
0.0000000000000000
 11
51.99539401266446
 21
240.3999999977045
 31
0.0000000000000000
  0
LINE
  5
3D8
100
AcDbEntity
  8
MAIN0
  6
CONTINUOUS
 62
3
100
AcDbLine
 10
52.39539401262829
 20
264.9999999977051
 30
0.0000000000000000
 11
107.9953940126282
 21
264.9999999977873
 31
0.0000000000000000
  0
LINE
  5
3D9
100
AcDbEntity
  8
MAIN0
  6
CENTER
 62
3
100
AcDbLine
 10
91.99539401260012
 20
283.9468125155721
 30
0.0000000000000000
 11
91.99539401270590
 21
212.4061599755924
 31
0.0000000000000000
  0
LINE
  5
3DA
100
AcDbEntity
  8
MAIN0
  6
CONTINUOUS
 62
3
100
AcDbLine
 10
107.9953940126232
 20
268.3431457482949
 30
0.0000000000000000
 11
107.9953940126282
 21
264.9999999977873
 31
0.0000000000000000
  0
LINE
  5
3DB
100
AcDbEntity
  8
MAIN0
  6
CONTINUOUS
 62
3
100
AcDbLine
 10
275.9953940126227
 20
268.8038475753290
 30
0.0000000000000000
 11
275.9953940126283
 21
264.9999999980357
 31
0.0000000000000000
  0
LINE
  5
3DC
100
AcDbEntity
  8
MAIN0
  6
CONTINUOUS
 62
3
100
AcDbLine
 10
331.5953940126283
 20
264.9999999981178
 30
0.0000000000000000
 11
331.9953940126288
 21
264.5999999981185
 31
0.0000000000000000
  0
LINE
  5
3DD
100
AcDbEntity
  8
MAIN0
  6
CONTINUOUS
 62
3
100
AcDbLine
 10
331.9953940126646
 20
240.3999999981186
 30
0.0000000000000000
 11
331.5953940126653
 21
239.9999999981180
 31
0.0000000000000000
  0
LINE
  5
3DE
100
AcDbEntity
  8
MAIN0
  6
CONTINUOUS
 62
3
100
AcDbLine
 10
52.39539401262829
 20
264.9999999977051
 30
0.0000000000000000
 11
51.99539401262894
 21
264.5999999977046
 31
0.0000000000000000
  0
LINE
  5
3DF
100
AcDbEntity
  8
MAIN0
  6
CONTINUOUS
 62
3
100
AcDbLine
 10
51.99539401266480
 20
240.3999999977048
 30
0.0000000000000000
 11
52.39539401266552
 21
239.9999999977053
 31
0.0000000000000000
  0
LINE
  5
3E0
100
AcDbEntity
  8
MAIN0
  6
CONTINUOUS
 62
3
100
AcDbLine
 10
200.9953940126646
 20
240.3999999979248
 30
0.0000000000000000
 11
201.3953940126653
 21
239.9999999979253
 31
0.0000000000000000
  0
LINE
  5
3E1
100
AcDbEntity
  8
MAIN0
  6
CONTINUOUS
 62
3
100
AcDbLine
 10
182.9953940126646
 20
240.3999999978983
 30
0.0000000000000000
 11
182.5953940126651
 21
239.9999999978975
 31
0.0000000000000000
  0
LINE
  5
3E2
100
AcDbEntity
  8
MAIN0
  6
HIDDEN
 62
3
100
AcDbLine
 10
82.64539401262834
 20
264.9999999977505
 30
0.0000000000000000
 11
83.24539401263002
 21
264.3999999977514
 31
0.0000000000000000
  0
LINE
  5
3E3
100
AcDbEntity
  8
MAIN0
  6
HIDDEN
 62
3
100
AcDbLine
 10
101.3453940126281
 20
264.9999999977771
 30
0.0000000000000000
 11
100.7453940126297
 21
264.3999999977763
 31
0.0000000000000000
  0
LINE
  5
3E4
100
AcDbEntity
  8
MAIN0
  6
CENTER
 62
3
100
AcDbLine
 10
66.99539401267094
 20
236.2081776737898
 30
0.0000000000000000
 11
66.99539401262263
 21
268.9106137093350
 31
0.0000000000000000
  0
LINE
  5
3E5
100
AcDbEntity
  8
MAIN0
  6
HIDDEN
 62
3
100
AcDbLine
 10
75.74539401269033
 20
240.5999999977393
 30
0.0000000000000000
 11
75.74539401262319
 21
264.3999999977392
 31
0.0000000000000000
  0
LINE
  5
3E6
100
AcDbEntity
  8
MAIN0
  6
HIDDEN
 62
3
100
AcDbLine
 10
58.24539401269033
 20
240.5999999977142
 30
0.0000000000000000
 11
58.24539401262319
 21
264.3999999977141
 31
0.0000000000000000
  0
LINE
  5
3E7
100
AcDbEntity
  8
MAIN0
  6
HIDDEN
 62
3
100
AcDbLine
 10
76.34539401269200
 20
239.9999999977401
 30
0.0000000000000000
 11
75.74539401269027
 21
240.5999999977392
 31
0.0000000000000000
  0
LINE
  5
3E8
100
AcDbEntity
  8
MAIN0
  6
HIDDEN
 62
3
100
AcDbLine
 10
57.64539401269218
 20
239.9999999977133
 30
0.0000000000000000
 11
58.24539401269050
 21
240.5999999977141
 31
0.0000000000000000
  0
LINE
  5
3E9
100
AcDbEntity
  8
MAIN0
  6
HIDDEN
 62
3
100
AcDbLine
 10
57.64539401262869
 20
264.9999999977136
 30
0.0000000000000000
 11
58.24539401263036
 21
264.3999999977145
 31
0.0000000000000000
  0
LINE
  5
3EA
100
AcDbEntity
  8
MAIN0
  6
HIDDEN
 62
3
100
AcDbLine
 10
76.34539401262839
 20
264.9999999977403
 30
0.0000000000000000
 11
75.74539401263007
 21
264.3999999977394
 31
0.0000000000000000
  0
LINE
  5
3EB
100
AcDbEntity
  8
MAIN0
  6
HIDDEN
 62
3
100
AcDbLine
 10
196.9953940126632
 20
241.4999999979189
 30
0.0000000000000000
 11
196.9953940126711
 21
236.0999999979189
 31
0.0000000000000000
  0
LINE
  5
3EC
100
AcDbEntity
  8
MAIN0
  6
HIDDEN
 62
3
100
AcDbLine
 10
196.9953940126711
 20
236.0999999979188
 30
0.0000000000000000
 11
195.9561635281306
 21
235.4999999979173
 31
0.0000000000000000
  0
LINE
  5
3ED
100
AcDbEntity
  8
MAIN0
  6
HIDDEN
 62
3
100
AcDbLine
 10
195.9561635281307
 20
235.4999999979174
 30
0.0000000000000000
 11
188.0346244972133
 21
235.4999999979057
 31
0.0000000000000000
  0
LINE
  5
3EE
100
AcDbEntity
  8
MAIN0
  6
HIDDEN
 62
3
100
AcDbLine
 10
188.0346244972134
 20
235.4999999979057
 30
0.0000000000000000
 11
186.9953940126711
 21
236.0999999979042
 31
0.0000000000000000
  0
LINE
  5
3EF
100
AcDbEntity
  8
MAIN0
  6
HIDDEN
 62
3
100
AcDbLine
 10
186.9953940126710
 20
236.0999999979041
 30
0.0000000000000000
 11
186.9953940126630
 21
241.4999999979041
 31
0.0000000000000000
  0
LINE
  5
3F0
100
AcDbEntity
  8
MAIN0
  6
HIDDEN
 62
3
100
AcDbLine
 10
196.9953940126711
 20
236.0999999979189
 30
0.0000000000000000
 11
186.9953940126710
 21
236.0999999979042
 31
0.0000000000000000
  0
LINE
  5
3F1
100
AcDbEntity
  8
MAIN0
  6
HIDDEN
 62
3
100
AcDbLine
 10
194.9953940126632
 20
241.4999999979159
 30
0.0000000000000000
 11
194.9953940126454
 21
253.4999999979159
 31
0.0000000000000000
  0
LINE
  5
3F2
100
AcDbEntity
  8
MAIN0
  6
HIDDEN
 62
3
100
AcDbLine
 10
194.9953940126454
 20
253.4999999979159
 30
0.0000000000000000
 11
188.9953940126453
 21
253.4999999979071
 31
0.0000000000000000
  0
LINE
  5
3F3
100
AcDbEntity
  8
MAIN0
  6
HIDDEN
 62
3
100
AcDbLine
 10
188.9953940126453
 20
253.4999999979071
 30
0.0000000000000000
 11
188.9953940126630
 21
241.4999999979070
 31
0.0000000000000000
  0
LINE
  5
3F4
100
AcDbEntity
  8
MAIN0
  6
HIDDEN
 62
3
100
AcDbLine
 10
194.4541280126631
 20
241.4999999979151
 30
0.0000000000000000
 11
194.4541280126454
 21
253.4999999979151
 31
0.0000000000000000
  0
LINE
  5
3F5
100
AcDbEntity
  8
MAIN0
  6
HIDDEN
 62
3
100
AcDbLine
 10
189.5366600126631
 20
241.4999999979078
 30
0.0000000000000000
 11
189.5366600126454
 21
253.4999999979079
 31
0.0000000000000000
  0
LINE
  5
3F6
100
AcDbEntity
  8
MAIN0
  6
CONTINUOUS
 62
3
100
AcDbLine
 10
279.9953940126282
 20
264.9999999980416
 30
0.0000000000000000
 11
279.9953940126069
 21
279.3999999980416
 31
0.0000000000000000
  0
LINE
  5
3F7
100
AcDbEntity
  8
MAIN0
  6
CONTINUOUS
 62
3
100
AcDbLine
 10
279.9953940126067
 20
279.3999999980414
 30
0.0000000000000000
 11
282.7666753047146
 21
280.9999999980455
 31
0.0000000000000000
  0
LINE
  5
3F8
100
AcDbEntity
  8
MAIN0
  6
CONTINUOUS
 62
3
100
AcDbLine
 10
282.7666753047147
 20
280.9999999980457
 30
0.0000000000000000
 11
301.2241127204944
 21
280.9999999980730
 31
0.0000000000000000
  0
LINE
  5
3F9
100
AcDbEntity
  8
MAIN0
  6
CONTINUOUS
 62
3
100
AcDbLine
 10
301.2241127204943
 20
280.9999999980728
 30
0.0000000000000000
 11
303.9953940126068
 21
279.3999999980770
 31
0.0000000000000000
  0
LINE
  5
3FA
100
AcDbEntity
  8
MAIN0
  6
CONTINUOUS
 62
3
100
AcDbLine
 10
303.9953940126069
 20
279.3999999980770
 30
0.0000000000000000
 11
303.9953940126282
 21
264.9999999980770
 31
0.0000000000000000
  0
LINE
  5
3FB
100
AcDbEntity
  8
MAIN0
  6
CONTINUOUS
 62
3
100
AcDbLine
 10
279.9953940126069
 20
279.3999999980416
 30
0.0000000000000000
 11
303.9953940126069
 21
279.3999999980770
 31
0.0000000000000000
  0
LINE
  5
3FC
100
AcDbEntity
  8
MAIN0
  6
CONTINUOUS
 62
3
100
AcDbLine
 10
283.9953940127021
 20
214.9999999980475
 30
0.0000000000000000
 11
299.9953940127022
 21
214.9999999980712
 31
0.0000000000000000
  0
LINE
  5
3FD
100
AcDbEntity
  8
MAIN0
  6
CONTINUOUS
 62
3
100
AcDbLine
 10
299.9953940127021
 20
214.9999999980711
 30
0.0000000000000000
 11
299.9953940126651
 21
239.9999999980712
 31
0.0000000000000000
  0
LINE
  5
3FE
100
AcDbEntity
  8
MAIN0
  6
CONTINUOUS
 62
3
100
AcDbLine
 10
298.9128620127022
 20
214.9999999980695
 30
0.0000000000000000
 11
298.9128620126652
 21
239.9999999980696
 31
0.0000000000000000
  0
LINE
  5
3FF
100
AcDbEntity
  8
MAIN0
  6
CONTINUOUS
 62
3
100
AcDbLine
 10
285.0779260127021
 20
214.9999999980491
 30
0.0000000000000000
 11
285.0779260126652
 21
239.9999999980491
 31
0.0000000000000000
  0
LINE
  5
400
100
AcDbEntity
  8
MAIN0
  6
CONTINUOUS
 62
3
100
AcDbLine
 10
283.9953940127021
 20
214.9999999980475
 30
0.0000000000000000
 11
283.9953940126651
 21
239.9999999980475
 31
0.0000000000000000
  0
LINE
  5
401
100
AcDbEntity
  8
MAIN0
  6
CENTER
 62
3
100
AcDbLine
 10
316.9953940126213
 20
269.8652939497315
 30
0.0000000000000000
 11
316.9953940126710
 21
236.2081776741593
 31
0.0000000000000000
  0
LINE
  5
402
100
AcDbEntity
  8
MAIN0
  6
CONTINUOUS
 62
3
100
AcDbLine
 10
327.2953940127153
 20
264.9999999981131
 30
0.0000000000000000
 11
306.6953940127152
 21
264.9999999980796
 31
0.0000000000000000
  0
LINE
  5
403
100
AcDbEntity
  8
MAIN0
  6
CONTINUOUS
 62
3
100
AcDbLine
 10
272.9953940126152
 20
273.9999999980324
 30
0.0000000000000000
 11
272.9953940125604
 21
311.0652482395752
 31
0.0000000000000000
  0
ARC
  5
404
100
AcDbEntity
  8
MAIN0
  6
CONTINUOUS
 62
3
100
AcDbCircle
 10
278.9953940126152
 20
273.9999999980412
 30
0.0000000000000000
 40
6.000000000000000
100
AcDbArc
 50
180.0000000000847
 51
240.0000000000828
  0
LINE
  5
405
100
AcDbEntity
  8
MAIN0
  6
CONTINUOUS
 62
3
100
AcDbLine
 10
110.9953940126152
 20
273.5392981710060
 30
0.0000000000000000
 11
110.9953940125598
 21
311.0652482393351
 31
0.0000000000000000
  0
ARC
  5
406
100
AcDbEntity
  8
MAIN0
  6
CONTINUOUS
 62
3
100
AcDbCircle
 10
104.9953940126154
 20
273.5392981709971
 30
0.0000000000000000
 40
6.000000000000000
100
AcDbArc
 50
300.0000000000867
 51
360.0000000000848
  0
LINE
  5
407
100
AcDbEntity
  8
MAIN0
  6
CONTINUOUS
 62
3
100
AcDbLine
 10
255.9953940122193
 20
485.9999999980062
 30
0.0000000000000000
 11
127.9953940122199
 21
485.9999999978170
 31
0.0000000000000000
  0
ARC
  5
408
100
AcDbEntity
  8
MAIN0
  6
CONTINUOUS
 62
3
100
AcDbCircle
 10
191.9953940124583
 20
379.9999999979116
 30
0.0000000000000000
 40
105.0000000000000
100
AcDbArc
 50
321.6083326382324
 51
410.2350464186478
  0
ARC
  5
409
100
AcDbEntity
  8
MAIN0
  6
CONTINUOUS
 62
3
100
AcDbCircle
 10
191.9953940124583
 20
379.9999999979116
 30
0.0000000000000000
 40
105.0000000000000
100
AcDbArc
 50
129.7649535816114
 51
218.3916673619374
  0
ARC
  5
40A
100
AcDbEntity
  8
MAIN0
  6
CONTINUOUS
 62
3
100
AcDbCircle
 10
262.9953940122651
 20
465.3229160288785
 30
0.0000000000000000
 40
6.000000000000000
100
AcDbArc
 50
180.0000000000847
 51
230.2350464186477
  0
ARC
  5
40B
100
AcDbEntity
  8
MAIN0
  6
CONTINUOUS
 62
3
100
AcDbCircle
 10
104.9953940125605
 20
311.0652482393268
 30
0.0000000000000000
 40
6.000000000000000
100
AcDbArc
 50
8.478086558909150e-011
 51
38.39166736193726
  0
ARC
  5
40C
100
AcDbEntity
  8
MAIN0
  6
CONTINUOUS
 62
3
100
AcDbCircle
 10
278.9953940125603
 20
311.0652482395841
 30
0.0000000000000000
 40
6.000000000000000
100
AcDbArc
 50
141.6083326382322
 51
180.0000000000847
  0
LINE
  5
40D
100
AcDbEntity
  8
MAIN0
  6
CONTINUOUS
 62
3
100
AcDbLine
 10
127.9953940122199
 20
485.9999999978170
 30
0.0000000000000000
 11
126.9953940122222
 21
484.9999999978155
 31
0.0000000000000000
  0
LINE
  5
40E
100
AcDbEntity
  8
MAIN0
  6
CONTINUOUS
 62
3
100
AcDbLine
 10
255.9953940122193
 20
485.9999999980062
 30
0.0000000000000000
 11
256.9953940122216
 21
484.9999999980076
 31
0.0000000000000000
  0
ARC
  5
40F
100
AcDbEntity
  8
MAIN0
  6
CONTINUOUS
 62
3
100
AcDbCircle
 10
120.9953940122656
 20
465.3229160285573
 30
0.0000000000000000
 40
6.000000000000000
100
AcDbArc
 50
309.7649535816114
 51
360.0000000000847
  0
ARC
  5
410
100
AcDbEntity
  8
MAIN0
  6
CONTINUOUS
 62
3
100
AcDbCircle
 10
104.9953940125605
 20
311.0652482393263
 30
0.0000000000000000
 40
6.000000000000000
100
AcDbArc
 50
8.467908783928468e-011
 51
38.39166736193736
  0
ARC
  5
411
100
AcDbEntity
  8
MAIN0
  6
CONTINUOUS
 62
3
100
AcDbCircle
 10
278.9953940125605
 20
311.0652482395841
 30
0.0000000000000000
 40
6.000000000000000
100
AcDbArc
 50
141.6083326382324
 51
180.0000000000847
  0
LINE
  5
412
100
AcDbEntity
  8
MAIN0
  6
CENTER
 62
3
100
AcDbLine
 10
71.71666565469184
 20
379.9999999977338
 30
0.0000000000000000
 11
307.5079364365291
 21
379.9999999980823
 31
0.0000000000000000
  0
CIRCLE
  5
413
100
AcDbEntity
  8
MAIN0
  6
CONTINUOUS
 62
3
100
AcDbCircle
 10
191.9953940124584
 20
379.9999999979115
 30
0.0000000000000000
 40
20.00000000000000
  0
CIRCLE
  5
414
100
AcDbEntity
  8
MAIN0
  6
CENTER
 62
3
100
AcDbCircle
 10
191.9953940124584
 20
379.9999999979115
 30
0.0000000000000000
 40
25.00000000000000
  0
CIRCLE
  5
415
100
AcDbEntity
  8
MAIN0
  6
CONTINUOUS
 62
3
100
AcDbCircle
 10
191.9953940124584
 20
379.9999999979115
 30
0.0000000000000000
 40
30.00000000000000
  0
LINE
  5
416
100
AcDbEntity
  8
MAIN0
  6
CENTER
 62
3
100
AcDbLine
 10
181.9953940124329
 20
397.3205080735855
 30
0.0000000000000000
 11
176.1794756082595
 21
407.3939742422543
 31
0.0000000000000000
  0
LINE
  5
417
100
AcDbEntity
  8
MAIN0
  6
CENTER
 62
3
100
AcDbLine
 10
207.8787631464746
 20
352.4891976625182
 30
0.0000000000000000
 11
201.9953940124840
 21
362.6794919222376
 31
0.0000000000000000
  0
CIRCLE
  5
418
100
AcDbEntity
  8
MAIN0
  6
CONTINUOUS
 62
3
100
AcDbCircle
 10
166.9953940124584
 20
379.9999999978747
 30
0.0000000000000000
 40
3.000000000000000
  0
CIRCLE
  5
419
100
AcDbEntity
  8
MAIN0
  6
CONTINUOUS
 62
3
100
AcDbCircle
 10
166.9953940124584
 20
379.9999999978747
 30
0.0000000000000000
 40
2.500000000000000
  0
CIRCLE
  5
41A
100
AcDbEntity
  8
MAIN0
  6
CONTINUOUS
 62
3
100
AcDbCircle
 10
216.9953940124582
 20
379.9999999979486
 30
0.0000000000000000
 40
3.000000000000000
  0
CIRCLE
  5
41B
100
AcDbEntity
  8
MAIN0
  6
CONTINUOUS
 62
3
100
AcDbCircle
 10
216.9953940124582
 20
379.9999999979486
 30
0.0000000000000000
 40
2.500000000000000
  0
LINE
  5
41C
100
AcDbEntity
  8
MAIN0
  6
CENTER
 62
3
100
AcDbLine
 10
171.9953940124584
 20
379.9999999978821
 30
0.0000000000000000
 11
160.3635572041415
 21
379.9999999978650
 31
0.0000000000000000
  0
LINE
  5
41D
100
AcDbEntity
  8
MAIN0
  6
CENTER
 62
3
100
AcDbLine
 10
223.7621322804094
 20
379.9999999979586
 30
0.0000000000000000
 11
211.9953940124584
 21
379.9999999979412
 31
0.0000000000000000
  0
CIRCLE
  5
41E
100
AcDbEntity
  8
MAIN0
  6
CONTINUOUS
 62
3
100
AcDbCircle
 10
179.4953940124902
 20
358.3493649032822
 30
0.0000000000000000
 40
3.000000000000000
  0
CIRCLE
  5
41F
100
AcDbEntity
  8
MAIN0
  6
CONTINUOUS
 62
3
100
AcDbCircle
 10
179.4953940124902
 20
358.3493649032822
 30
0.0000000000000000
 40
2.500000000000000
  0
CIRCLE
  5
420
100
AcDbEntity
  8
MAIN0
  6
CONTINUOUS
 62
3
100
AcDbCircle
 10
204.4953940124263
 20
401.6506350925409
 30
0.0000000000000000
 40
3.000000000000000
  0
CIRCLE
  5
421
100
AcDbEntity
  8
MAIN0
  6
CONTINUOUS
 62
3
100
AcDbCircle
 10
204.4953940124263
 20
401.6506350925409
 30
0.0000000000000000
 40
2.500000000000000
  0
LINE
  5
422
100
AcDbEntity
  8
MAIN0
  6
CENTER
 62
3
100
AcDbLine
 10
181.9953940124838
 20
362.6794919222082
 30
0.0000000000000000
 11
176.1794756083402
 21
352.6060257535222
 31
0.0000000000000000
  0
LINE
  5
423
100
AcDbEntity
  8
MAIN0
  6
CENTER
 62
3
100
AcDbLine
 10
207.8787631463932
 20
407.5108023333519
 30
0.0000000000000000
 11
201.9953940124327
 21
397.3205080736151
 31
0.0000000000000000
  0
LINE
  5
424
100
AcDbEntity
  8
MAIN0
  6
CONTINUOUS
 62
3
100
AcDbLine
 10
256.9953940122652
 20
465.3229160288648
 30
0.0000000000000000
 11
256.9953940122205
 21
484.9999999980076
 31
0.0000000000000000
  0
LINE
  5
425
100
AcDbEntity
  8
MAIN0
  6
CONTINUOUS
 62
3
100
AcDbLine
 10
126.9953940122656
 20
465.3229160285708
 30
0.0000000000000000
 11
126.9953940122211
 21
484.9999999978155
 31
0.0000000000000000
  0
CIRCLE
  5
426
100
AcDbEntity
  8
MAIN0
  6
CONTINUOUS
 62
3
100
AcDbCircle
 10
175.9953940127843
 20
247.9999999979070
 30
0.0000000000000000
 40
3.000000000000000
  0
CIRCLE
  5
427
100
AcDbEntity
  8
MAIN0
  6
CONTINUOUS
 62
3
100
AcDbCircle
 10
175.9953940127843
 20
247.9999999979070
 30
0.0000000000000000
 40
2.500000000000000
  0
LINE
  5
428
100
AcDbEntity
  8
MAIN0
  6
CENTER
 62
3
100
AcDbLine
 10
181.6673614056430
 20
247.9999999979086
 30
0.0000000000000000
 11
170.3234266199256
 21
247.9999999979054
 31
0.0000000000000000
  0
LINE
  5
429
100
AcDbEntity
  8
MAIN0
  6
CENTER
 62
3
100
AcDbLine
 10
175.9953940127908
 20
241.8849077865300
 30
0.0000000000000000
 11
175.9953940127778
 21
254.1150922092840
 31
0.0000000000000000
  0
CIRCLE
  5
42A
100
AcDbEntity
  8
MAIN0
  6
CONTINUOUS
 62
3
100
AcDbCircle
 10
207.9953940127844
 20
247.9999999979410
 30
0.0000000000000000
 40
3.000000000000000
  0
CIRCLE
  5
42B
100
AcDbEntity
  8
MAIN0
  6
CONTINUOUS
 62
3
100
AcDbCircle
 10
207.9953940127844
 20
247.9999999979410
 30
0.0000000000000000
 40
2.500000000000000
  0
LINE
  5
42C
100
AcDbEntity
  8
MAIN0
  6
CENTER
 62
3
100
AcDbLine
 10
202.3234266199256
 20
247.9999999979306
 30
0.0000000000000000
 11
213.6673614056431
 21
247.9999999979515
 31
0.0000000000000000
  0
LINE
  5
42D
100
AcDbEntity
  8
MAIN0
  6
CENTER
 62
3
100
AcDbLine
 10
207.9953940127909
 20
241.8849077865641
 30
0.0000000000000000
 11
207.9953940127779
 21
254.1150922093180
 31
0.0000000000000000
  0
LEADER
  5
42E
100
AcDbEntity
  8
MAIN0
  6
CONTINUOUS
 62
3
100
AcDbLeader
  3
MAIN001
 73
     0
 74
     0
 75
     1
 40
6.199999809265137
 41
32.42586913902761
 76
     3
 10
175.0478247793263
 20
245.1535789911331
 30
0.0000000000000000
 10
153.7998557616742
 20
181.3264060230838
 30
0.0000000000000000
 10
157.3708556563528
 20
181.3264060230838
 30
0.0000000000000000
340
42F
213
0.9741308818340144
223
-1.000000000000000
233
0.0000000000000000
1001
ACAD
1000
DSTYLE
1002
{
1070
   147
1040
0.0
1070
    77
1070
     1
1070
   173
1070
     1
1070
     6
1000
_OPEN
1070
     7
1000
_OPEN
1002
}
  0
MTEXT
  5
42F
102
{ACAD_REACTORS
330
42E
102
}
100
AcDbEntity
  8
MAIN0
  6
CONTINUOUS
 62
3
100
AcDbMText
 10
156.3967247745187
 20
188.5264058323489
 30
0.0000000000000000
 40
6.199999809265137
 41
0.0000000000000000
 71
     1
 72
     1
  1
{\H0.70x;{2-M6\Pネジ深10\PDEPTH 10}}
 11
1.000000000000000
 21
0.0000000000000000
 31
0.0000000000000000
  7
KNJYOKO
  0
LINE
  5
430
100
AcDbEntity
  8
MAIN0
  6
CENTER
 62
3
100
AcDbLine
 10
191.9953940126862
 20
225.9338106451614
 30
0.0000000000000000
 11
191.9953940125693
 21
305.0075513420089
 31
0.0000000000000000
  0
LINE
  5
431
100
AcDbEntity
  8
MAIN0
  6
CENTER
 62
3
100
AcDbLine
 10
71.71666565469184
 20
379.9999999977338
 30
0.0000000000000000
 11
307.5079364365291
 21
379.9999999980823
 31
0.0000000000000000
  0
CIRCLE
  5
432
100
AcDbEntity
  8
MAIN0
  6
CONTINUOUS
 62
3
100
AcDbCircle
 10
191.9953940124584
 20
379.9999999979116
 30
0.0000000000000000
 40
20.00000000000000
  0
CIRCLE
  5
433
100
AcDbEntity
  8
MAIN0
  6
CENTER
 62
3
100
AcDbCircle
 10
191.9953940124584
 20
379.9999999979116
 30
0.0000000000000000
 40
25.00000000000000
  0
CIRCLE
  5
434
100
AcDbEntity
  8
MAIN0
  6
CONTINUOUS
 62
3
100
AcDbCircle
 10
191.9953940124584
 20
379.9999999979116
 30
0.0000000000000000
 40
30.00000000000000
  0
CIRCLE
  5
435
100
AcDbEntity
  8
MAIN0
  6
CONTINUOUS
 62
3
100
AcDbCircle
 10
179.4953940124264
 20
401.6506350925041
 30
0.0000000000000000
 40
3.000000000000000
  0
CIRCLE
  5
436
100
AcDbEntity
  8
MAIN0
  6
CONTINUOUS
 62
3
100
AcDbCircle
 10
179.4953940124264
 20
401.6506350925041
 30
0.0000000000000000
 40
2.500000000000000
  0
CIRCLE
  5
437
100
AcDbEntity
  8
MAIN0
  6
CONTINUOUS
 62
3
100
AcDbCircle
 10
204.4953940124904
 20
358.3493649033192
 30
0.0000000000000000
 40
3.000000000000000
  0
CIRCLE
  5
438
100
AcDbEntity
  8
MAIN0
  6
CONTINUOUS
 62
3
100
AcDbCircle
 10
204.4953940124904
 20
358.3493649033192
 30
0.0000000000000000
 40
2.500000000000000
  0
LINE
  5
439
100
AcDbEntity
  8
MAIN0
  6
CENTER
 62
3
100
AcDbLine
 10
181.9953940124329
 20
397.3205080735855
 30
0.0000000000000000
 11
176.1794756082595
 21
407.3939742422543
 31
0.0000000000000000
  0
LINE
  5
43A
100
AcDbEntity
  8
MAIN0
  6
CENTER
 62
3
100
AcDbLine
 10
207.8787631464746
 20
352.4891976625182
 30
0.0000000000000000
 11
201.9953940124840
 21
362.6794919222376
 31
0.0000000000000000
  0
CIRCLE
  5
43B
100
AcDbEntity
  8
MAIN0
  6
CONTINUOUS
 62
3
100
AcDbCircle
 10
166.9953940124584
 20
379.9999999978747
 30
0.0000000000000000
 40
3.000000000000000
  0
CIRCLE
  5
43C
100
AcDbEntity
  8
MAIN0
  6
CONTINUOUS
 62
3
100
AcDbCircle
 10
166.9953940124584
 20
379.9999999978747
 30
0.0000000000000000
 40
2.500000000000000
  0
CIRCLE
  5
43D
100
AcDbEntity
  8
MAIN0
  6
CONTINUOUS
 62
3
100
AcDbCircle
 10
216.9953940124582
 20
379.9999999979486
 30
0.0000000000000000
 40
3.000000000000000
  0
CIRCLE
  5
43E
100
AcDbEntity
  8
MAIN0
  6
CONTINUOUS
 62
3
100
AcDbCircle
 10
216.9953940124582
 20
379.9999999979486
 30
0.0000000000000000
 40
2.500000000000000
  0
LINE
  5
43F
100
AcDbEntity
  8
MAIN0
  6
CENTER
 62
3
100
AcDbLine
 10
171.9953940124584
 20
379.9999999978821
 30
0.0000000000000000
 11
160.3635572041415
 21
379.9999999978649
 31
0.0000000000000000
  0
LINE
  5
440
100
AcDbEntity
  8
MAIN0
  6
CENTER
 62
3
100
AcDbLine
 10
223.7621322804094
 20
379.9999999979586
 30
0.0000000000000000
 11
211.9953940124584
 21
379.9999999979412
 31
0.0000000000000000
  0
CIRCLE
  5
441
100
AcDbEntity
  8
MAIN0
  6
CONTINUOUS
 62
3
100
AcDbCircle
 10
179.4953940124902
 20
358.3493649032822
 30
0.0000000000000000
 40
3.000000000000000
  0
CIRCLE
  5
442
100
AcDbEntity
  8
MAIN0
  6
CONTINUOUS
 62
3
100
AcDbCircle
 10
179.4953940124902
 20
358.3493649032822
 30
0.0000000000000000
 40
2.500000000000000
  0
CIRCLE
  5
443
100
AcDbEntity
  8
MAIN0
  6
CONTINUOUS
 62
3
100
AcDbCircle
 10
204.4953940124263
 20
401.6506350925409
 30
0.0000000000000000
 40
3.000000000000000
  0
CIRCLE
  5
444
100
AcDbEntity
  8
MAIN0
  6
CONTINUOUS
 62
3
100
AcDbCircle
 10
204.4953940124263
 20
401.6506350925409
 30
0.0000000000000000
 40
2.500000000000000
  0
LINE
  5
445
100
AcDbEntity
  8
MAIN0
  6
CENTER
 62
3
100
AcDbLine
 10
181.9953940124838
 20
362.6794919222082
 30
0.0000000000000000
 11
176.1794756083402
 21
352.6060257535222
 31
0.0000000000000000
  0
LINE
  5
446
100
AcDbEntity
  8
MAIN0
  6
CENTER
 62
3
100
AcDbLine
 10
207.8787631463932
 20
407.5108023333519
 30
0.0000000000000000
 11
201.9953940124327
 21
397.3205080736151
 31
0.0000000000000000
  0
CIRCLE
  5
447
100
AcDbEntity
  8
MAIN0
  6
CONTINUOUS
 62
3
100
AcDbCircle
 10
191.9953940124584
 20
379.9999999979116
 30
0.0000000000000000
 40
105.0000000000000
  0
LINE
  5
448
100
AcDbEntity
  8
MAIN0
  6
CENTER
 62
3
100
AcDbLine
 10
181.2084934100198
 20
461.9999999994749
 30
0.0000000000000000
 11
202.7822946146546
 21
461.9999999994749
 31
0.0000000000000000
  0
CIRCLE
  5
449
100
AcDbEntity
  8
MAIN0
  6
CONTINUOUS
 62
3
100
AcDbCircle
 10
191.9953940123372
 20
461.9999999994749
 30
0.0000000000000000
 40
6.578500000000002
  0
CIRCLE
  5
44A
100
AcDbEntity
  8
MAIN0
  6
CONTINUOUS
 62
3
100
AcDbCircle
 10
191.9953940123372
 20
461.9999999994749
 30
0.0000000000000000
 40
5.722500000000000
  0
CIRCLE
  5
44B
100
AcDbEntity
  8
MAIN0
  6
CONTINUOUS
 62
3
100
AcDbCircle
 10
221.9953940124016
 20
443.9999999980046
 30
0.0000000000000000
 40
2.500000000000000
  0
CIRCLE
  5
44C
100
AcDbEntity
  8
MAIN0
  6
CONTINUOUS
 62
3
100
AcDbCircle
 10
221.9953940124016
 20
443.9999999980046
 30
0.0000000000000000
 40
2.100000000000000
  0
LINE
  5
44D
100
AcDbEntity
  8
MAIN0
  6
CENTER
 62
3
100
AcDbLine
 10
221.9953940124018
 20
448.4999999979734
 30
0.0000000000000000
 11
221.9953940124018
 21
439.4999999979735
 31
0.0000000000000000
  0
LINE
  5
44E
100
AcDbEntity
  8
MAIN0
  6
CENTER
 62
3
100
AcDbLine
 10
226.5451168404235
 20
443.9999999980046
 30
0.0000000000000000
 11
217.0279147440464
 21
443.9999999980046
 31
0.0000000000000000
  0
CIRCLE
  5
44F
100
AcDbEntity
  8
MAIN0
  6
CONTINUOUS
 62
3
100
AcDbCircle
 10
161.9953940125174
 20
443.9999999979735
 30
0.0000000000000000
 40
2.500000000000000
  0
CIRCLE
  5
450
100
AcDbEntity
  8
MAIN0
  6
CONTINUOUS
 62
3
100
AcDbCircle
 10
161.9953940125174
 20
443.9999999979735
 30
0.0000000000000000
 40
2.100000000000000
  0
CIRCLE
  5
451
100
AcDbEntity
  8
MAIN0
  6
CONTINUOUS
 62
3
100
AcDbCircle
 10
109.9953940124582
 20
395.9999999979914
 30
0.0000000000000000
 40
2.500000000000000
  0
CIRCLE
  5
452
100
AcDbEntity
  8
MAIN0
  6
CONTINUOUS
 62
3
100
AcDbCircle
 10
109.9953940124582
 20
395.9999999979914
 30
0.0000000000000000
 40
3.000000000000000
  0
LINE
  5
453
100
AcDbEntity
  8
MAIN0
  6
CENTER
 62
3
100
AcDbLine
 10
105.4953940124584
 20
395.9999999979914
 30
0.0000000000000000
 11
114.5366672595620
 21
395.9999999979913
 31
0.0000000000000000
  0
LINE
  5
454
100
AcDbEntity
  8
MAIN0
  6
CENTER
 62
3
100
AcDbLine
 10
109.9953940124582
 20
359.4999999979915
 30
0.0000000000000000
 11
109.9953940124584
 21
400.4999999979914
 31
0.0000000000000000
  0
CIRCLE
  5
455
100
AcDbEntity
  8
MAIN0
  6
CONTINUOUS
 62
3
100
AcDbCircle
 10
109.9953940124581
 20
363.9999999979914
 30
0.0000000000000000
 40
3.000000000000000
  0
CIRCLE
  5
456
100
AcDbEntity
  8
MAIN0
  6
CONTINUOUS
 62
3
100
AcDbCircle
 10
109.9953940124581
 20
363.9999999979914
 30
0.0000000000000000
 40
2.500000000000000
  0
LINE
  5
457
100
AcDbEntity
  8
MAIN0
  6
CENTER
 62
3
100
AcDbLine
 10
114.4953940124581
 20
363.9999999979914
 30
0.0000000000000000
 11
105.4953940124581
 21
363.9999999979914
 31
0.0000000000000000
  0
CIRCLE
  5
458
100
AcDbEntity
  8
MAIN0
  6
CONTINUOUS
 62
3
100
AcDbCircle
 10
273.9953940124583
 20
395.9999999979914
 30
0.0000000000000000
 40
3.000000000000000
  0
CIRCLE
  5
459
100
AcDbEntity
  8
MAIN0
  6
CONTINUOUS
 62
3
100
AcDbCircle
 10
273.9953940124583
 20
395.9999999979914
 30
0.0000000000000000
 40
2.500000000000000
  0
LINE
  5
45A
100
AcDbEntity
  8
MAIN0
  6
CENTER
 62
3
100
AcDbLine
 10
278.4953940124584
 20
395.9999999979915
 30
0.0000000000000000
 11
269.4541207653546
 21
395.9999999979914
 31
0.0000000000000000
  0
LINE
  5
45B
100
AcDbEntity
  8
MAIN0
  6
CENTER
 62
3
100
AcDbLine
 10
273.9953940124585
 20
359.4999999979915
 30
0.0000000000000000
 11
273.9953940124583
 21
400.4999999979913
 31
0.0000000000000000
  0
CIRCLE
  5
45C
100
AcDbEntity
  8
MAIN0
  6
CONTINUOUS
 62
3
100
AcDbCircle
 10
273.9953940124585
 20
363.9999999979914
 30
0.0000000000000000
 40
3.000000000000000
  0
CIRCLE
  5
45D
100
AcDbEntity
  8
MAIN0
  6
CONTINUOUS
 62
3
100
AcDbCircle
 10
273.9953940124585
 20
363.9999999979914
 30
0.0000000000000000
 40
2.500000000000000
  0
LINE
  5
45E
100
AcDbEntity
  8
MAIN0
  6
CENTER
 62
3
100
AcDbLine
 10
269.4953940124585
 20
363.9999999979914
 30
0.0000000000000000
 11
278.4953940124585
 21
363.9999999979914
 31
0.0000000000000000
  0
CIRCLE
  5
45F
100
AcDbEntity
  8
MAIN0
  6
CONTINUOUS
 62
3
100
AcDbCircle
 10
241.2453940125845
 20
294.6964977252172
 30
0.0000000000000000
 40
5.500000000000000
  0
CIRCLE
  5
460
100
AcDbEntity
  8
MAIN0
  6
CONTINUOUS
 62
3
100
AcDbCircle
 10
142.7453940123323
 20
465.3035022706060
 30
0.0000000000000000
 40
5.500000000000000
  0
CIRCLE
  5
461
100
AcDbEntity
  8
MAIN0
  6
CONTINUOUS
 62
3
100
AcDbCircle
 10
142.7453940123323
 20
465.3035022706060
 30
0.0000000000000000
 40
5.000000000000000
  0
LINE
  5
462
100
AcDbEntity
  8
MAIN0
  6
CONTINUOUS
 62
3
100
AcDbLine
 10
141.3020183393581
 20
467.8035022706060
 30
0.0000000000000000
 11
139.8586426663841
 21
465.3035022706060
 31
0.0000000000000000
  0
LINE
  5
463
100
AcDbEntity
  8
MAIN0
  6
CONTINUOUS
 62
3
100
AcDbLine
 10
139.8586426663841
 20
465.3035022706060
 30
0.0000000000000000
 11
141.3020183393581
 21
462.8035022706060
 31
0.0000000000000000
  0
LINE
  5
464
100
AcDbEntity
  8
MAIN0
  6
CONTINUOUS
 62
3
100
AcDbLine
 10
141.3020183393582
 20
462.8035022706060
 30
0.0000000000000000
 11
144.1887696853064
 21
462.8035022706060
 31
0.0000000000000000
  0
LINE
  5
465
100
AcDbEntity
  8
MAIN0
  6
CONTINUOUS
 62
3
100
AcDbLine
 10
144.1887696853063
 20
462.8035022706059
 30
0.0000000000000000
 11
145.6321453582804
 21
465.3035022706060
 31
0.0000000000000000
  0
LINE
  5
466
100
AcDbEntity
  8
MAIN0
  6
CONTINUOUS
 62
3
100
AcDbLine
 10
145.6321453582804
 20
465.3035022706060
 30
0.0000000000000000
 11
144.1887696853063
 21
467.8035022706060
 31
0.0000000000000000
  0
LINE
  5
467
100
AcDbEntity
  8
MAIN0
  6
CONTINUOUS
 62
3
100
AcDbLine
 10
144.1887696853063
 20
467.8035022706060
 30
0.0000000000000000
 11
141.3020183393582
 21
467.8035022706060
 31
0.0000000000000000
  0
CIRCLE
  5
468
100
AcDbEntity
  8
MAIN0
  6
CONTINUOUS
 62
3
100
AcDbCircle
 10
241.2453940125845
 20
294.6964977252172
 30
0.0000000000000000
 40
5.000000000000000
  0
LINE
  5
469
100
AcDbEntity
  8
MAIN0
  6
CONTINUOUS
 62
3
100
AcDbLine
 10
239.8020183396105
 20
297.1964977252172
 30
0.0000000000000000
 11
238.3586426666364
 21
294.6964977252172
 31
0.0000000000000000
  0
LINE
  5
46A
100
AcDbEntity
  8
MAIN0
  6
CONTINUOUS
 62
3
100
AcDbLine
 10
238.3586426666363
 20
294.6964977252172
 30
0.0000000000000000
 11
239.8020183396104
 21
292.1964977252172
 31
0.0000000000000000
  0
LINE
  5
46B
100
AcDbEntity
  8
MAIN0
  6
CONTINUOUS
 62
3
100
AcDbLine
 10
239.8020183396104
 20
292.1964977252173
 30
0.0000000000000000
 11
242.6887696855585
 21
292.1964977252173
 31
0.0000000000000000
  0
LINE
  5
46C
100
AcDbEntity
  8
MAIN0
  6
CONTINUOUS
 62
3
100
AcDbLine
 10
242.6887696855586
 20
292.1964977252172
 30
0.0000000000000000
 11
244.1321453585327
 21
294.6964977252172
 31
0.0000000000000000
  0
LINE
  5
46D
100
AcDbEntity
  8
MAIN0
  6
CONTINUOUS
 62
3
100
AcDbLine
 10
244.1321453585326
 20
294.6964977252172
 30
0.0000000000000000
 11
242.6887696855585
 21
297.1964977252172
 31
0.0000000000000000
  0
LINE
  5
46E
100
AcDbEntity
  8
MAIN0
  6
CONTINUOUS
 62
3
100
AcDbLine
 10
242.6887696855585
 20
297.1964977252173
 30
0.0000000000000000
 11
239.8020183396104
 21
297.1964977252173
 31
0.0000000000000000
  0
CIRCLE
  5
46F
100
AcDbEntity
  8
MAIN0
  6
CONTINUOUS
 62
3
100
AcDbCircle
 10
277.2988962852984
 20
330.7499999980377
 30
0.0000000000000000
 40
5.500000000000000
  0
CIRCLE
  5
470
100
AcDbEntity
  8
MAIN0
  6
CONTINUOUS
 62
3
100
AcDbCircle
 10
106.6918917396184
 20
429.2499999977856
 30
0.0000000000000000
 40
5.500000000000000
  0
CIRCLE
  5
471
100
AcDbEntity
  8
MAIN0
  6
CONTINUOUS
 62
3
100
AcDbCircle
 10
106.6918917396184
 20
429.2499999977856
 30
0.0000000000000000
 40
5.000000000000000
  0
LINE
  5
472
100
AcDbEntity
  8
MAIN0
  6
CONTINUOUS
 62
3
100
AcDbLine
 10
104.1918917396184
 20
430.6933756707596
 30
0.0000000000000000
 11
104.1918917396185
 21
427.8066243248114
 31
0.0000000000000000
  0
LINE
  5
473
100
AcDbEntity
  8
MAIN0
  6
CONTINUOUS
 62
3
100
AcDbLine
 10
104.1918917396184
 20
427.8066243248114
 30
0.0000000000000000
 11
106.6918917396184
 21
426.3632486518374
 31
0.0000000000000000
  0
LINE
  5
474
100
AcDbEntity
  8
MAIN0
  6
CONTINUOUS
 62
3
100
AcDbLine
 10
106.6918917396184
 20
426.3632486518374
 30
0.0000000000000000
 11
109.1918917396184
 21
427.8066243248114
 31
0.0000000000000000
  0
LINE
  5
475
100
AcDbEntity
  8
MAIN0
  6
CONTINUOUS
 62
3
100
AcDbLine
 10
109.1918917396185
 20
427.8066243248114
 30
0.0000000000000000
 11
109.1918917396184
 21
430.6933756707596
 31
0.0000000000000000
  0
LINE
  5
476
100
AcDbEntity
  8
MAIN0
  6
CONTINUOUS
 62
3
100
AcDbLine
 10
109.1918917396184
 20
430.6933756707596
 30
0.0000000000000000
 11
106.6918917396184
 21
432.1367513437336
 31
0.0000000000000000
  0
LINE
  5
477
100
AcDbEntity
  8
MAIN0
  6
CONTINUOUS
 62
3
100
AcDbLine
 10
106.6918917396184
 20
432.1367513437336
 30
0.0000000000000000
 11
104.1918917396184
 21
430.6933756707596
 31
0.0000000000000000
  0
CIRCLE
  5
478
100
AcDbEntity
  8
MAIN0
  6
CONTINUOUS
 62
3
100
AcDbCircle
 10
277.2988962852984
 20
330.7499999980377
 30
0.0000000000000000
 40
5.000000000000000
  0
LINE
  5
479
100
AcDbEntity
  8
MAIN0
  6
CONTINUOUS
 62
3
100
AcDbLine
 10
274.7988962852984
 20
332.1933756710118
 30
0.0000000000000000
 11
274.7988962852984
 21
329.3066243250638
 31
0.0000000000000000
  0
LINE
  5
47A
100
AcDbEntity
  8
MAIN0
  6
CONTINUOUS
 62
3
100
AcDbLine
 10
274.7988962852983
 20
329.3066243250637
 30
0.0000000000000000
 11
277.2988962852983
 21
327.8632486520896
 31
0.0000000000000000
  0
LINE
  5
47B
100
AcDbEntity
  8
MAIN0
  6
CONTINUOUS
 62
3
100
AcDbLine
 10
277.2988962852982
 20
327.8632486520896
 30
0.0000000000000000
 11
279.7988962852983
 21
329.3066243250636
 31
0.0000000000000000
  0
LINE
  5
47C
100
AcDbEntity
  8
MAIN0
  6
CONTINUOUS
 62
3
100
AcDbLine
 10
279.7988962852984
 20
329.3066243250636
 30
0.0000000000000000
 11
279.7988962852984
 21
332.1933756710118
 31
0.0000000000000000
  0
LINE
  5
47D
100
AcDbEntity
  8
MAIN0
  6
CONTINUOUS
 62
3
100
AcDbLine
 10
279.7988962852983
 20
332.1933756710118
 30
0.0000000000000000
 11
277.2988962852983
 21
333.6367513439859
 31
0.0000000000000000
  0
LINE
  5
47E
100
AcDbEntity
  8
MAIN0
  6
CONTINUOUS
 62
3
100
AcDbLine
 10
277.2988962852983
 20
333.6367513439859
 30
0.0000000000000000
 11
274.7988962852983
 21
332.1933756710118
 31
0.0000000000000000
  0
CIRCLE
  5
47F
100
AcDbEntity
  8
MAIN0
  6
CONTINUOUS
 62
3
100
AcDbCircle
 10
93.49539401245835
 20
379.9999999977661
 30
0.0000000000000000
 40
5.500000000000000
  0
CIRCLE
  5
480
100
AcDbEntity
  8
MAIN0
  6
CONTINUOUS
 62
3
100
AcDbCircle
 10
93.49539401245835
 20
379.9999999977661
 30
0.0000000000000000
 40
5.000000000000000
  0
LINE
  5
481
100
AcDbEntity
  8
MAIN0
  6
CONTINUOUS
 62
3
100
AcDbLine
 10
90.60864266651021
 20
379.9999999977661
 30
0.0000000000000000
 11
92.05201833948428
 21
377.4999999977661
 31
0.0000000000000000
  0
LINE
  5
482
100
AcDbEntity
  8
MAIN0
  6
CONTINUOUS
 62
3
100
AcDbLine
 10
92.05201833948433
 20
377.4999999977661
 30
0.0000000000000000
 11
94.93876968543248
 21
377.4999999977661
 31
0.0000000000000000
  0
LINE
  5
483
100
AcDbEntity
  8
MAIN0
  6
CONTINUOUS
 62
3
100
AcDbLine
 10
94.93876968543236
 20
377.4999999977661
 30
0.0000000000000000
 11
96.38214535840643
 21
379.9999999977661
 31
0.0000000000000000
  0
LINE
  5
484
100
AcDbEntity
  8
MAIN0
  6
CONTINUOUS
 62
3
100
AcDbLine
 10
96.38214535840649
 20
379.9999999977662
 30
0.0000000000000000
 11
94.93876968543242
 21
382.4999999977662
 31
0.0000000000000000
  0
LINE
  5
485
100
AcDbEntity
  8
MAIN0
  6
CONTINUOUS
 62
3
100
AcDbLine
 10
94.93876968543248
 20
382.4999999977661
 30
0.0000000000000000
 11
92.05201833948433
 21
382.4999999977661
 31
0.0000000000000000
  0
LINE
  5
486
100
AcDbEntity
  8
MAIN0
  6
CONTINUOUS
 62
3
100
AcDbLine
 10
92.05201833948422
 20
382.4999999977661
 30
0.0000000000000000
 11
90.60864266651021
 21
379.9999999977661
 31
0.0000000000000000
  0
CIRCLE
  5
487
100
AcDbEntity
  8
MAIN0
  6
CONTINUOUS
 62
3
100
AcDbCircle
 10
290.4953940124584
 20
379.9999999980571
 30
0.0000000000000000
 40
5.000000000000000
  0
LINE
  5
488
100
AcDbEntity
  8
MAIN0
  6
CONTINUOUS
 62
3
100
AcDbLine
 10
287.6086426665102
 20
379.9999999980572
 30
0.0000000000000000
 11
289.0520183394842
 21
377.4999999980573
 31
0.0000000000000000
  0
LINE
  5
489
100
AcDbEntity
  8
MAIN0
  6
CONTINUOUS
 62
3
100
AcDbLine
 10
289.0520183394842
 20
377.4999999980572
 30
0.0000000000000000
 11
291.9387696854323
 21
377.4999999980572
 31
0.0000000000000000
  0
LINE
  5
48A
100
AcDbEntity
  8
MAIN0
  6
CONTINUOUS
 62
3
100
AcDbLine
 10
291.9387696854323
 20
377.4999999980572
 30
0.0000000000000000
 11
293.3821453584063
 21
379.9999999980572
 31
0.0000000000000000
  0
LINE
  5
48B
100
AcDbEntity
  8
MAIN0
  6
CONTINUOUS
 62
3
100
AcDbLine
 10
293.3821453584064
 20
379.9999999980572
 30
0.0000000000000000
 11
291.9387696854324
 21
382.4999999980572
 31
0.0000000000000000
  0
LINE
  5
48C
100
AcDbEntity
  8
MAIN0
  6
CONTINUOUS
 62
3
100
AcDbLine
 10
291.9387696854323
 20
382.4999999980572
 30
0.0000000000000000
 11
289.0520183394842
 21
382.4999999980572
 31
0.0000000000000000
  0
LINE
  5
48D
100
AcDbEntity
  8
MAIN0
  6
CONTINUOUS
 62
3
100
AcDbLine
 10
289.0520183394841
 20
382.4999999980570
 30
0.0000000000000000
 11
287.6086426665100
 21
379.9999999980572
 31
0.0000000000000000
  0
CIRCLE
  5
48E
100
AcDbEntity
  8
MAIN0
  6
CONTINUOUS
 62
3
100
AcDbCircle
 10
277.2988962851529
 20
429.2499999980376
 30
0.0000000000000000
 40
5.500000000000000
  0
CIRCLE
  5
48F
100
AcDbEntity
  8
MAIN0
  6
CONTINUOUS
 62
3
100
AcDbCircle
 10
106.6918917397638
 20
330.7499999977857
 30
0.0000000000000000
 40
5.500000000000000
  0
CIRCLE
  5
490
100
AcDbEntity
  8
MAIN0
  6
CONTINUOUS
 62
3
100
AcDbCircle
 10
106.6918917397638
 20
330.7499999977857
 30
0.0000000000000000
 40
5.000000000000000
  0
LINE
  5
491
100
AcDbEntity
  8
MAIN0
  6
CONTINUOUS
 62
3
100
AcDbLine
 10
104.1918917397640
 20
329.3066243248116
 30
0.0000000000000000
 11
106.6918917397640
 21
327.8632486518375
 31
0.0000000000000000
  0
LINE
  5
492
100
AcDbEntity
  8
MAIN0
  6
CONTINUOUS
 62
3
100
AcDbLine
 10
106.6918917397638
 20
327.8632486518375
 30
0.0000000000000000
 11
109.1918917397638
 21
329.3066243248116
 31
0.0000000000000000
  0
LINE
  5
493
100
AcDbEntity
  8
MAIN0
  6
CONTINUOUS
 62
3
100
AcDbLine
 10
109.1918917397638
 20
329.3066243248115
 30
0.0000000000000000
 11
109.1918917397638
 21
332.1933756707597
 31
0.0000000000000000
  0
LINE
  5
494
100
AcDbEntity
  8
MAIN0
  6
CONTINUOUS
 62
3
100
AcDbLine
 10
109.1918917397640
 20
332.1933756707597
 30
0.0000000000000000
 11
106.6918917397640
 21
333.6367513437338
 31
0.0000000000000000
  0
LINE
  5
495
100
AcDbEntity
  8
MAIN0
  6
CONTINUOUS
 62
3
100
AcDbLine
 10
106.6918917397638
 20
333.6367513437338
 30
0.0000000000000000
 11
104.1918917397638
 21
332.1933756707597
 31
0.0000000000000000
  0
LINE
  5
496
100
AcDbEntity
  8
MAIN0
  6
CONTINUOUS
 62
3
100
AcDbLine
 10
104.1918917397638
 20
332.1933756707596
 30
0.0000000000000000
 11
104.1918917397638
 21
329.3066243248115
 31
0.0000000000000000
  0
CIRCLE
  5
497
100
AcDbEntity
  8
MAIN0
  6
CONTINUOUS
 62
3
100
AcDbCircle
 10
277.2988962851529
 20
429.2499999980376
 30
0.0000000000000000
 40
5.000000000000000
  0
LINE
  5
498
100
AcDbEntity
  8
MAIN0
  6
CONTINUOUS
 62
3
100
AcDbLine
 10
274.7988962851529
 20
427.8066243250635
 30
0.0000000000000000
 11
277.2988962851528
 21
426.3632486520895
 31
0.0000000000000000
  0
LINE
  5
499
100
AcDbEntity
  8
MAIN0
  6
CONTINUOUS
 62
3
100
AcDbLine
 10
277.2988962851526
 20
426.3632486520895
 30
0.0000000000000000
 11
279.7988962851526
 21
427.8066243250635
 31
0.0000000000000000
  0
LINE
  5
49A
100
AcDbEntity
  8
MAIN0
  6
CONTINUOUS
 62
3
100
AcDbLine
 10
279.7988962851526
 20
427.8066243250634
 30
0.0000000000000000
 11
279.7988962851526
 21
430.6933756710116
 31
0.0000000000000000
  0
LINE
  5
49B
100
AcDbEntity
  8
MAIN0
  6
CONTINUOUS
 62
3
100
AcDbLine
 10
279.7988962851529
 20
430.6933756710116
 30
0.0000000000000000
 11
277.2988962851529
 21
432.1367513439857
 31
0.0000000000000000
  0
LINE
  5
49C
100
AcDbEntity
  8
MAIN0
  6
CONTINUOUS
 62
3
100
AcDbLine
 10
277.2988962851526
 20
432.1367513439857
 30
0.0000000000000000
 11
274.7988962851526
 21
430.6933756710117
 31
0.0000000000000000
  0
LINE
  5
49D
100
AcDbEntity
  8
MAIN0
  6
CONTINUOUS
 62
3
100
AcDbLine
 10
274.7988962851526
 20
430.6933756710115
 30
0.0000000000000000
 11
274.7988962851526
 21
427.8066243250635
 31
0.0000000000000000
  0
CIRCLE
  5
49E
100
AcDbEntity
  8
MAIN0
  6
CONTINUOUS
 62
3
100
AcDbCircle
 10
241.2453940123324
 20
465.3035022707516
 30
0.0000000000000000
 40
5.500000000000000
  0
CIRCLE
  5
49F
100
AcDbEntity
  8
MAIN0
  6
CONTINUOUS
 62
3
100
AcDbCircle
 10
142.7453940125841
 20
294.6964977250717
 30
0.0000000000000000
 40
5.500000000000000
  0
CIRCLE
  5
4A0
100
AcDbEntity
  8
MAIN0
  6
CONTINUOUS
 62
3
100
AcDbCircle
 10
142.7453940125841
 20
294.6964977250717
 30
0.0000000000000000
 40
5.000000000000000
  0
LINE
  5
4A1
100
AcDbEntity
  8
MAIN0
  6
CONTINUOUS
 62
3
100
AcDbLine
 10
141.3020183396102
 20
292.1964977250717
 30
0.0000000000000000
 11
144.1887696855584
 21
292.1964977250717
 31
0.0000000000000000
  0
LINE
  5
4A2
100
AcDbEntity
  8
MAIN0
  6
CONTINUOUS
 62
3
100
AcDbLine
 10
144.1887696855582
 20
292.1964977250716
 30
0.0000000000000000
 11
145.6321453585322
 21
294.6964977250716
 31
0.0000000000000000
  0
LINE
  5
4A3
100
AcDbEntity
  8
MAIN0
  6
CONTINUOUS
 62
3
100
AcDbLine
 10
145.6321453585324
 20
294.6964977250717
 30
0.0000000000000000
 11
144.1887696855584
 21
297.1964977250717
 31
0.0000000000000000
  0
LINE
  5
4A4
100
AcDbEntity
  8
MAIN0
  6
CONTINUOUS
 62
3
100
AcDbLine
 10
144.1887696855584
 20
297.1964977250717
 30
0.0000000000000000
 11
141.3020183396103
 21
297.1964977250717
 31
0.0000000000000000
  0
LINE
  5
4A5
100
AcDbEntity
  8
MAIN0
  6
CONTINUOUS
 62
3
100
AcDbLine
 10
141.3020183396100
 20
297.1964977250716
 30
0.0000000000000000
 11
139.8586426666359
 21
294.6964977250716
 31
0.0000000000000000
  0
LINE
  5
4A6
100
AcDbEntity
  8
MAIN0
  6
CONTINUOUS
 62
3
100
AcDbLine
 10
139.8586426666362
 20
294.6964977250716
 30
0.0000000000000000
 11
141.3020183396102
 21
292.1964977250717
 31
0.0000000000000000
  0
CIRCLE
  5
4A7
100
AcDbEntity
  8
MAIN0
  6
CONTINUOUS
 62
3
100
AcDbCircle
 10
241.2453940123324
 20
465.3035022707516
 30
0.0000000000000000
 40
5.000000000000000
  0
LINE
  5
4A8
100
AcDbEntity
  8
MAIN0
  6
CONTINUOUS
 62
3
100
AcDbLine
 10
239.8020183393584
 20
462.8035022707514
 30
0.0000000000000000
 11
242.6887696853064
 21
462.8035022707514
 31
0.0000000000000000
  0
LINE
  5
4A9
100
AcDbEntity
  8
MAIN0
  6
CONTINUOUS
 62
3
100
AcDbLine
 10
242.6887696853062
 20
462.8035022707514
 30
0.0000000000000000
 11
244.1321453582803
 21
465.3035022707514
 31
0.0000000000000000
  0
LINE
  5
4AA
100
AcDbEntity
  8
MAIN0
  6
CONTINUOUS
 62
3
100
AcDbLine
 10
244.1321453582805
 20
465.3035022707513
 30
0.0000000000000000
 11
242.6887696853064
 21
467.8035022707513
 31
0.0000000000000000
  0
LINE
  5
4AB
100
AcDbEntity
  8
MAIN0
  6
CONTINUOUS
 62
3
100
AcDbLine
 10
242.6887696853065
 20
467.8035022707514
 30
0.0000000000000000
 11
239.8020183393584
 21
467.8035022707514
 31
0.0000000000000000
  0
LINE
  5
4AC
100
AcDbEntity
  8
MAIN0
  6
CONTINUOUS
 62
3
100
AcDbLine
 10
239.8020183393581
 20
467.8035022707515
 30
0.0000000000000000
 11
238.3586426663840
 21
465.3035022707515
 31
0.0000000000000000
  0
LINE
  5
4AD
100
AcDbEntity
  8
MAIN0
  6
CONTINUOUS
 62
3
100
AcDbLine
 10
238.3586426663843
 20
465.3035022707512
 30
0.0000000000000000
 11
239.8020183393583
 21
462.8035022707513
 31
0.0000000000000000
  0
LINE
  5
4AE
100
AcDbEntity
  8
MAIN0
  6
CENTER
 62
3
100
AcDbLine
 10
191.9953940125280
 20
332.9666314215790
 30
0.0000000000000000
 11
191.9953940122912
 21
493.0510724564072
 31
0.0000000000000000
  0
LINE
  5
4AF
100
AcDbEntity
  8
MAIN0
  6
CONTINUOUS
 62
3
100
AcDbLine
 10
173.8724260458937
 20
436.8657302635404
 30
0.0000000000000000
 11
209.8724260458937
 21
436.8657302635404
 31
0.0000000000000000
  0
MTEXT
  5
4B0
100
AcDbEntity
  8
MAIN0
  6
CONTINUOUS
 62
3
100
AcDbMText
 10
178.5285702763913
 20
442.1552799112716
 30
0.0000000000000000
 40
3.400000095367432
 41
0.0000000000000000
 71
     1
 72
     1
  1
{\H0.59x;{PNEUMATIC PORT}}
 11
1.000000000000000
 21
0.0000000000000000
 31
0.0000000000000000
  7
STANDARD
  0
LINE
  5
4B1
100
AcDbEntity
  8
MAIN0
  6
CONTINUOUS
 62
3
100
AcDbLine
 10
173.8724260458932
 20
448.8657302635402
 30
0.0000000000000000
 11
173.8724260458939
 21
436.8657302635402
 31
0.0000000000000000
  0
LINE
  5
4B2
100
AcDbEntity
  8
MAIN0
  6
CONTINUOUS
 62
3
100
AcDbLine
 10
173.8724260458937
 20
448.8657302635404
 30
0.0000000000000000
 11
209.8724260458932
 21
448.8657302635404
 31
0.0000000000000000
  0
LINE
  5
4B3
100
AcDbEntity
  8
MAIN0
  6
CONTINUOUS
 62
3
100
AcDbLine
 10
209.8724260458932
 20
448.8657302635403
 30
0.0000000000000000
 11
209.8724260458939
 21
436.8657302635405
 31
0.0000000000000000
  0
MTEXT
  5
4B4
100
AcDbEntity
  8
MAIN0
  6
CONTINUOUS
 62
3
100
AcDbMText
 10
181.0524260458938
 20
447.1657302635404
 30
0.0000000000000000
 40
4.000000000000000
 41
0.0000000000000000
 71
     1
 72
     1
  1
{\H0.93x;{空圧供給口}}
 11
1.000000000000000
 21
0.0000000000000000
 31
0.0000000000000000
  7
KNJYOKO
  0
LINE
  5
4B5
100
AcDbEntity
  8
MAIN0
  6
CONTINUOUS
 62
3
100
AcDbLine
 10
454.4999999990623
 20
443.7499999996055
 30
0.0000000000000000
 11
454.4999999990625
 21
379.9999999996057
 31
0.0000000000000000
  0
LINE
  5
4B6
100
AcDbEntity
  8
MAIN0
  6
HIDDEN
 62
3
100
AcDbLine
 10
453.8999999991056
 20
404.9999999996760
 30
0.0000000000000000
 11
454.4999999991057
 21
405.5999999996761
 31
0.0000000000000000
  0
LINE
  5
4B7
100
AcDbEntity
  8
MAIN0
  6
CONTINUOUS
 62
3
100
AcDbLine
 10
454.4999999985540
 20
316.1999999996092
 30
0.0000000000000000
 11
454.4999999990626
 21
379.9999999996056
 31
0.0000000000000000
  0
LINE
  5
4B8
100
AcDbEntity
  8
MAIN0
  6
HIDDEN
 62
3
100
AcDbLine
 10
453.8999999989061
 20
354.9999999995441
 30
0.0000000000000000
 11
454.4999999989014
 21
354.3999999995392
 31
0.0000000000000000
  0
LINE
  5
4B9
100
AcDbEntity
  8
MAIN0
  6
HIDDEN
 62
3
100
AcDbLine
 10
437.8395939011239
 20
354.9999999996761
 30
0.0000000000000000
 11
453.8999999989063
 21
354.9999999996761
 31
0.0000000000000000
  0
LINE
  5
4BA
100
AcDbEntity
  8
MAIN0
  6
CONTINUOUS
 62
3
100
AcDbLine
 10
442.4999999987218
 20
314.9999999996554
 30
0.0000000000000000
 11
444.4999999985454
 21
314.9999999996475
 31
0.0000000000000000
  0
LINE
  5
4BB
100
AcDbEntity
  8
MAIN0
  6
HIDDEN
 62
3
100
AcDbLine
 10
436.7675664051420
 20
404.9999999996762
 30
0.0000000000000000
 11
453.8999999991056
 21
404.9999999996761
 31
0.0000000000000000
  0
LINE
  5
4BC
100
AcDbEntity
  8
MAIN0
  6
CONTINUOUS
 62
3
100
AcDbLine
 10
442.4999999997619
 20
444.9999999996555
 30
0.0000000000000000
 11
444.4999999990633
 21
444.9999999996475
 31
0.0000000000000000
  0
LINE
  5
4BD
100
AcDbEntity
  8
MAIN0
  6
CENTER
 62
3
100
AcDbLine
 10
352.5493581315743
 20
380.0000000000137
 30
0.0000000000000000
 11
385.3952610320063
 21
379.9999999998829
 31
0.0000000000000000
  0
LINE
  5
4BE
100
AcDbEntity
  8
MAIN0
  6
CENTER
 62
3
100
AcDbLine
 10
407.4169465753217
 20
379.9999999997951
 30
0.0000000000000000
 11
457.8335721255013
 21
379.9999999995943
 31
0.0000000000000000
  0
LINE
  5
4BF
100
AcDbEntity
  8
MAIN0
  6
CONTINUOUS
 62
3
100
AcDbLine
 10
381.9999999995117
 20
313.1868276442872
 30
0.0000000000000000
 11
406.4349999998449
 21
313.1868276442935
 31
0.0000000000000000
  0
LINE
  5
4C0
100
AcDbEntity
  8
MAIN0
  6
CONTINUOUS
 62
3
100
AcDbLine
 10
372.5000000001665
 20
462.3971125106215
 30
0.0000000000000000
 11
406.4349999998766
 21
462.3971125106303
 31
0.0000000000000000
  0
LINE
  5
4C1
100
AcDbEntity
  8
MAIN0
  6
CONTINUOUS
 62
3
100
AcDbLine
 10
377.9999999995118
 20
264.9999999980797
 30
0.0000000000000000
 11
447.9999999995118
 21
264.9999999980797
 31
0.0000000000000000
  0
ARC
  5
4C2
100
AcDbEntity
  8
MAIN0
  6
CONTINUOUS
 62
3
100
AcDbCircle
 10
444.9999999995117
 20
264.9999999982009
 30
0.0000000000000000
 40
3.000000000000000
100
AcDbArc
 50
0.0000000000000000
 51
90.00000000000000
  0
ARC
  5
4C3
100
AcDbEntity
  8
MAIN0
  6
CONTINUOUS
 62
3
100
AcDbCircle
 10
380.9999999995118
 20
264.9999999981842
 30
0.0000000000000000
 40
3.000000000000000
100
AcDbArc
 50
90.00000000000000
 51
180.0000000000000
  0
ARC
  5
4C4
100
AcDbEntity
  8
MAIN0
  6
CONTINUOUS
 62
3
100
AcDbCircle
 10
381.9999999995117
 20
309.1868276442872
 30
0.0000000000000000
 40
4.000000000000000
100
AcDbArc
 50
90.00000000000000
 51
180.0000000000000
  0
LINE
  5
4C5
100
AcDbEntity
  8
MAIN0
  6
CONTINUOUS
 62
3
100
AcDbLine
 10
447.9999999995117
 20
266.3431457502442
 30
0.0000000000000000
 11
447.9999999995117
 21
240.3999999996555
 31
0.0000000000000000
  0
LINE
  5
4C6
100
AcDbEntity
  8
MAIN0
  6
CONTINUOUS
 62
3
100
AcDbLine
 10
447.9999999995118
 20
240.3999999996555
 30
0.0000000000000000
 11
447.5999999995117
 21
239.9999999996554
 31
0.0000000000000000
  0
LINE
  5
4C7
100
AcDbEntity
  8
MAIN0
  6
CONTINUOUS
 62
3
100
AcDbLine
 10
372.4999999995099
 20
275.5999999987193
 30
0.0000000000000000
 11
372.4999999995099
 21
379.9999999999424
 31
0.0000000000000000
  0
LINE
  5
4C8
100
AcDbEntity
  8
MAIN0
  6
CONTINUOUS
 62
3
100
AcDbLine
 10
377.9999999995122
 20
240.3999999996554
 30
0.0000000000000000
 11
378.3999999995120
 21
239.9999999996555
 31
0.0000000000000000
  0
LINE
  5
4C9
100
AcDbEntity
  8
MAIN0
  6
CONTINUOUS
 62
3
100
AcDbLine
 10
377.9999999995117
 20
240.3999999996554
 30
0.0000000000000000
 11
377.9999999995117
 21
309.1868276442872
 31
0.0000000000000000
  0
LINE
  5
4CA
100
AcDbEntity
  8
MAIN0
  6
CONTINUOUS
 62
3
100
AcDbLine
 10
378.3999999995121
 20
239.9999999996554
 30
0.0000000000000000
 11
447.5999999995116
 21
239.9999999996554
 31
0.0000000000000000
  0
LINE
  5
4CB
100
AcDbEntity
  8
MAIN0
  6
CONTINUOUS
 62
3
100
AcDbLine
 10
372.5000000003434
 20
484.6000000011560
 30
0.0000000000000000
 11
372.4999999995100
 21
379.9999999999424
 31
0.0000000000000000
  0
LINE
  5
4CC
100
AcDbEntity
  8
MAIN0
  6
CONTINUOUS
 62
3
100
AcDbLine
 10
431.4999999992401
 20
486.0000000011841
 30
0.0000000000000000
 11
377.2360679778578
 21
486.0000000011675
 31
0.0000000000000000
  0
LINE
  5
4CD
100
AcDbEntity
  8
MAIN0
  6
CONTINUOUS
 62
3
100
AcDbLine
 10
373.0999999995099
 20
274.9999999987143
 30
0.0000000000000000
 11
373.9999999995118
 21
274.9999999987069
 31
0.0000000000000000
  0
LINE
  5
4CE
100
AcDbEntity
  8
MAIN0
  6
CONTINUOUS
 62
3
100
AcDbLine
 10
373.0999999995098
 20
274.9999999987143
 30
0.0000000000000000
 11
372.4999999995098
 21
275.5999999987192
 31
0.0000000000000000
  0
LINE
  5
4CF
100
AcDbEntity
  8
MAIN0
  6
CONTINUOUS
 62
3
100
AcDbLine
 10
404.9999999995118
 20
267.9999999981905
 30
0.0000000000000000
 11
420.9999999995118
 21
267.9999999981946
 31
0.0000000000000000
  0
ARC
  5
4D0
100
AcDbEntity
  8
MAIN0
  6
CONTINUOUS
 62
3
100
AcDbCircle
 10
373.9999999995117
 20
270.9999999987069
 30
0.0000000000000000
 40
4.000000000000000
100
AcDbArc
 50
0.0000000000000000
 51
90.00000000000000
  0
LINE
  5
4D1
100
AcDbEntity
  8
MAIN0
  6
HIDDEN
 62
3
100
AcDbLine
 10
415.1999999995027
 20
486.0000000011770
 30
0.0000000000000000
 11
413.5999999995026
 21
484.4000000011770
 31
0.0000000000000000
  0
LINE
  5
4D2
100
AcDbEntity
  8
MAIN0
  6
HIDDEN
 62
3
100
AcDbLine
 10
413.5999999995026
 20
484.4000000011770
 30
0.0000000000000000
 11
403.3999999995027
 21
484.4000000011770
 31
0.0000000000000000
  0
LINE
  5
4D3
100
AcDbEntity
  8
MAIN0
  6
HIDDEN
 62
3
100
AcDbLine
 10
403.3999999995027
 20
484.4000000011770
 30
0.0000000000000000
 11
401.7999999995026
 21
486.0000000011770
 31
0.0000000000000000
  0
LINE
  5
4D4
100
AcDbEntity
  8
MAIN0
  6
HIDDEN
 62
3
100
AcDbLine
 10
414.4999999995027
 20
485.3000000011770
 30
0.0000000000000000
 11
414.4999999995026
 21
462.0000000011770
 31
0.0000000000000000
  0
LINE
  5
4D5
100
AcDbEntity
  8
MAIN0
  6
HIDDEN
 62
3
100
AcDbLine
 10
414.4999999995026
 20
462.0000000011770
 30
0.0000000000000000
 11
402.4999999995026
 21
462.0000000011770
 31
0.0000000000000000
  0
LINE
  5
4D6
100
AcDbEntity
  8
MAIN0
  6
HIDDEN
 62
3
100
AcDbLine
 10
402.4999999995026
 20
462.0000000011770
 30
0.0000000000000000
 11
402.4999999995027
 21
485.3000000011770
 31
0.0000000000000000
  0
LINE
  5
4D7
100
AcDbEntity
  8
MAIN0
  6
HIDDEN
 62
3
100
AcDbLine
 10
413.5999999995026
 20
484.4000000011770
 30
0.0000000000000000
 11
413.5999999995026
 21
454.0000000011770
 31
0.0000000000000000
  0
LINE
  5
4D8
100
AcDbEntity
  8
MAIN0
  6
HIDDEN
 62
3
100
AcDbLine
 10
413.5999999995026
 20
454.0000000011770
 30
0.0000000000000000
 11
403.3999999995027
 21
454.0000000011770
 31
0.0000000000000000
  0
LINE
  5
4D9
100
AcDbEntity
  8
MAIN0
  6
HIDDEN
 62
3
100
AcDbLine
 10
403.3999999995027
 20
454.0000000011770
 30
0.0000000000000000
 11
403.3999999995027
 21
484.4000000011770
 31
0.0000000000000000
  0
LINE
  5
4DA
100
AcDbEntity
  8
MAIN0
  6
HIDDEN
 62
3
100
AcDbLine
 10
413.5999999995026
 20
454.0000000011770
 30
0.0000000000000000
 11
408.4999999995026
 21
451.0555136283099
 31
0.0000000000000000
  0
LINE
  5
4DB
100
AcDbEntity
  8
MAIN0
  6
HIDDEN
 62
3
100
AcDbLine
 10
408.4999999995026
 20
451.0555136283099
 30
0.0000000000000000
 11
403.3999999995027
 21
454.0000000011770
 31
0.0000000000000000
  0
LINE
  5
4DC
100
AcDbEntity
  8
MAIN0
  6
CONTINUOUS
 62
3
100
AcDbLine
 10
444.9999999995117
 20
264.9999999980797
 30
0.0000000000000000
 11
444.9999999995117
 21
279.3999999980797
 31
0.0000000000000000
  0
LINE
  5
4DD
100
AcDbEntity
  8
MAIN0
  6
CONTINUOUS
 62
3
100
AcDbLine
 10
444.9999999995118
 20
279.3999999980797
 30
0.0000000000000000
 11
442.2287187074015
 21
280.9999999980797
 31
0.0000000000000000
  0
LINE
  5
4DE
100
AcDbEntity
  8
MAIN0
  6
CONTINUOUS
 62
3
100
AcDbLine
 10
442.2287187074015
 20
280.9999999980797
 30
0.0000000000000000
 11
423.7712812916220
 21
280.9999999980797
 31
0.0000000000000000
  0
LINE
  5
4DF
100
AcDbEntity
  8
MAIN0
  6
CONTINUOUS
 62
3
100
AcDbLine
 10
423.7712812916219
 20
280.9999999980797
 30
0.0000000000000000
 11
420.9999999995117
 21
279.3999999980798
 31
0.0000000000000000
  0
LINE
  5
4E0
100
AcDbEntity
  8
MAIN0
  6
CONTINUOUS
 62
3
100
AcDbLine
 10
420.9999999995117
 20
279.3999999980797
 30
0.0000000000000000
 11
420.9999999995117
 21
264.9999999980797
 31
0.0000000000000000
  0
LINE
  5
4E1
100
AcDbEntity
  8
MAIN0
  6
CONTINUOUS
 62
3
100
AcDbLine
 10
444.9999999995117
 20
279.3999999980797
 30
0.0000000000000000
 11
420.9999999995117
 21
279.3999999980797
 31
0.0000000000000000
  0
LINE
  5
4E2
100
AcDbEntity
  8
MAIN0
  6
CONTINUOUS
 62
3
100
AcDbLine
 10
440.9999999995118
 20
239.9999999996554
 30
0.0000000000000000
 11
440.9999999995118
 21
214.9999999980797
 31
0.0000000000000000
  0
LINE
  5
4E3
100
AcDbEntity
  8
MAIN0
  6
CONTINUOUS
 62
3
100
AcDbLine
 10
440.9999999995117
 20
214.9999999980797
 30
0.0000000000000000
 11
424.9999999995117
 21
214.9999999980797
 31
0.0000000000000000
  0
LINE
  5
4E4
100
AcDbEntity
  8
MAIN0
  6
CONTINUOUS
 62
3
100
AcDbLine
 10
424.9999999995118
 20
214.9999999980797
 30
0.0000000000000000
 11
424.9999999995118
 21
239.9999999996554
 31
0.0000000000000000
  0
LINE
  5
4E5
100
AcDbEntity
  8
MAIN0
  6
CONTINUOUS
 62
3
100
AcDbLine
 10
439.9174679995118
 20
239.9999999996554
 30
0.0000000000000000
 11
439.9174679995118
 21
214.9999999980797
 31
0.0000000000000000
  0
LINE
  5
4E6
100
AcDbEntity
  8
MAIN0
  6
CONTINUOUS
 62
3
100
AcDbLine
 10
426.0825319995118
 20
239.9999999996554
 30
0.0000000000000000
 11
426.0825319995117
 21
214.9999999980797
 31
0.0000000000000000
  0
MTEXT
  5
4E7
100
AcDbEntity
  8
MAIN0
  6
CONTINUOUS
 62
4
100
AcDbMText
 10
32.01977514475288
 20
77.16756306126365
 30
0.0000000000000000
 40
4.650000572204590
 41
0.0000000000000000
 71
     1
 72
     1
  1
{\H0.93x;{クランプ力}}
 11
1.000000000000000
 21
0.0000000000000000
 31
0.0000000000000000
  7
KNJYOKO
  0
MTEXT
  5
4E8
100
AcDbEntity
  8
MAIN0
  6
CONTINUOUS
 62
3
100
AcDbMText
 10
50.56978201120796
 20
119.4975625081324
 30
0.0000000000000000
 40
6.480000019073486
 41
0.0000000000000000
 71
     1
 72
     1
  1
{\H0.87x;{仕　様}}
 11
1.000000000000000
 21
0.0000000000000000
 31
0.0000000000000000
  7
KNJYOKO
  0
MTEXT
  5
4E9
100
AcDbEntity
  8
MAIN0
  6
CONTINUOUS
 62
4
100
AcDbMText
 10
32.01977514475288
 20
44.66756306126331
 30
0.0000000000000000
 40
4.650000572204590
 41
0.0000000000000000
 71
     1
 72
     1
  1
{\H0.92x;{質　　量}}
 11
1.000000000000000
 21
0.0000000000000000
 31
0.0000000000000000
  7
KNJYOKO
  0
LINE
  5
4EA
100
AcDbEntity
  8
MAIN0
  6
CONTINUOUS
 62
3
100
AcDbLine
 10
24.51977514475288
 20
122.5175624890590
 30
0.0000000000000000
 11
162.0197751447529
 21
122.5175624890590
 31
0.0000000000000000
  0
LINE
  5
4EB
100
AcDbEntity
  8
MAIN0
  6
CONTINUOUS
 62
3
100
AcDbLine
 10
24.51977514475288
 20
37.51756248905872
 30
0.0000000000000000
 11
24.51977514475288
 21
122.5175624890590
 31
0.0000000000000000
  0
LINE
  5
4EC
100
AcDbEntity
  8
MAIN0
  6
CONTINUOUS
 62
3
100
AcDbLine
 10
24.51977514475288
 20
110.5175624890586
 30
0.0000000000000000
 11
162.0197751447529
 21
110.5175624890586
 31
0.0000000000000000
  0
LINE
  5
4ED
100
AcDbEntity
  8
MAIN0
  6
CONTINUOUS
 62
3
100
AcDbLine
 10
162.0197751447529
 20
37.51756248905872
 30
0.0000000000000000
 11
162.0197751447529
 21
122.5175624890590
 31
0.0000000000000000
  0
LINE
  5
4EE
100
AcDbEntity
  8
MAIN0
  6
CONTINUOUS
 62
12
100
AcDbLine
 10
24.51977514475288
 20
79.51756248905906
 30
0.0000000000000000
 11
162.0197751447529
 21
79.51756248905906
 31
0.0000000000000000
  0
LINE
  5
4EF
100
AcDbEntity
  8
MAIN0
  6
CONTINUOUS
 62
12
100
AcDbLine
 10
24.51977514475288
 20
62.51756248905872
 30
0.0000000000000000
 11
162.0197751447529
 21
62.51756248905872
 31
0.0000000000000000
  0
LINE
  5
4F0
100
AcDbEntity
  8
MAIN0
  6
CONTINUOUS
 62
12
100
AcDbLine
 10
96.01977514475294
 20
37.51756248905872
 30
0.0000000000000000
 11
96.01977514475294
 21
110.5175624890586
 31
0.0000000000000000
  0
LINE
  5
4F1
100
AcDbEntity
  8
MAIN0
  6
CONTINUOUS
 62
3
100
AcDbLine
 10
24.51977514475288
 20
37.51756248905872
 30
0.0000000000000000
 11
162.0197751447529
 21
37.51756248905872
 31
0.0000000000000000
  0
MTEXT
  5
4F2
100
AcDbEntity
  8
MAIN0
  6
CONTINUOUS
 62
4
100
AcDbMText
 10
145.5197751447529
 20
44.66756306126331
 30
0.0000000000000000
 40
4.650000572204590
 41
0.0000000000000000
 71
     1
 72
     1
  1
{\H0.57x;{ｋｇ}}
 11
1.000000000000000
 21
0.0000000000000000
 31
0.0000000000000000
  7
KNJYOKO
  0
MTEXT
  5
4F3
100
AcDbEntity
  8
MAIN0
  6
CONTINUOUS
 62
4
100
AcDbMText
 10
126.0197751447529
 20
44.20256290867542
 30
0.0000000000000000
 40
4.185000419616699
 41
0.0000000000000000
 71
     1
 72
     1
  1
{\H0.92x;{　　21}}
 11
1.000000000000000
 21
0.0000000000000000
 31
0.0000000000000000
  7
KNJYOKO
  0
MTEXT
  5
4F4
100
AcDbEntity
  8
MAIN0
  6
CONTINUOUS
 62
3
100
AcDbMText
 10
123.0197751447529
 20
77.01756248905906
 30
0.0000000000000000
 40
4.500000000000000
 41
0.0000000000000000
 71
     1
 72
     1
  1
{\H0.61x;{   450  N・m}}
 11
1.000000000000000
 21
0.0000000000000000
 31
0.0000000000000000
  7
KNJYOKO
  0
MTEXT
  5
4F5
100
AcDbEntity
  8
MAIN0
  6
CONTINUOUS
 62
3
100
AcDbMText
 10
123.0197751447529
 20
69.66756210758899
 30
0.0000000000000000
 40
4.649999618530273
 41
0.0000000000000000
 71
     1
 72
     1
  1
{\H0.67x;{   0.5 MPa}}
 11
1.000000000000000
 21
0.0000000000000000
 31
0.0000000000000000
  7
STANDARD
  0
MTEXT
  5
4F6
100
AcDbEntity
  8
MAIN0
  6
CONTINUOUS
 62
3
100
AcDbMText
 10
153.5197751447529
 20
69.66756210758899
 30
0.0000000000000000
 40
4.649999618530273
 41
0.0000000000000000
 71
     1
 72
     1
  1
{\H0.67x;{]}}
 11
1.000000000000000
 21
0.0000000000000000
 31
0.0000000000000000
  7
STANDARD
  0
MTEXT
  5
4F7
100
AcDbEntity
  8
MAIN0
  6
CONTINUOUS
 62
4
100
AcDbMText
 10
65.00444913902629
 20
43.92476075503589
 30
0.0000000000000000
 40
3.750000000000000
 41
0.0000000000000000
 71
     1
 72
     1
  1
{\H0.80x;{MASS}}
 11
1.000000000000000
 21
0.0000000000000000
 31
0.0000000000000000
  7
STANDARD
  0
MTEXT
  5
4F8
100
AcDbEntity
  8
MAIN0
  6
CONTINUOUS
 62
4
100
AcDbMText
 10
32.01977514475288
 20
70.26756248905906
 30
0.0000000000000000
 40
4.500000000000000
 41
0.0000000000000000
 71
     1
 72
     1
  1
{\H0.81x;{CLAMPING TORQUE}}
 11
1.000000000000000
 21
0.0000000000000000
 31
0.0000000000000000
  7
STANDARD
  0
MTEXT
  5
4F9
100
AcDbEntity
  8
MAIN0
  6
CONTINUOUS
 62
3
100
AcDbMText
 10
98.33094541717782
 20
69.74358594517389
 30
0.0000000000000000
 40
4.000000000000000
 41
0.0000000000000000
 71
     1
 72
     1
  1
{\H0.71x;{空圧}}
 11
1.000000000000000
 21
0.0000000000000000
 31
0.0000000000000000
  7
KNJYOKO
  0
MTEXT
  5
4FA
100
AcDbEntity
  8
MAIN0
  6
CONTINUOUS
 62
4
100
AcDbMText
 10
106.5067375574001
 20
71.22144588423362
 30
0.0000000000000000
 40
3.168000221252441
 41
0.0000000000000000
 71
     1
 72
     1
  1
{\H0.63x;{  PNEUMATIC}}
 11
1.000000000000000
 21
0.0000000000000000
 31
0.0000000000000000
  7
STANDARD
  0
MTEXT
  5
4FB
100
AcDbEntity
  8
MAIN0
  6
CONTINUOUS
 62
4
100
AcDbMText
 10
106.5067375574001
 20
67.47144588423362
 30
0.0000000000000000
 40
3.168000221252441
 41
0.0000000000000000
 71
     1
 72
     1
  1
{\H0.63x;{  PRESS}}
 11
1.000000000000000
 21
0.0000000000000000
 31
0.0000000000000000
  7
STANDARD
  0
MTEXT
  5
4FC
100
AcDbEntity
  8
MAIN0
  6
CONTINUOUS
 62
4
100
AcDbMText
 10
103.1972095512089
 20
69.61030628451658
 30
0.0000000000000000
 40
4.650000572204590
 41
0.0000000000000000
 71
     1
 72
     1
  1
{\H0.71x;{ [}}
 11
1.000000000000000
 21
0.0000000000000000
 31
0.0000000000000000
  7
STANDARD
  0
MTEXT
  5
4FD
100
AcDbEntity
  8
MAIN0
  6
CONTINUOUS
 62
3
100
AcDbMText
 10
80.56978201120802
 20
118.8495627446437
 30
0.0000000000000000
 40
5.832000255584717
 41
0.0000000000000000
 71
     1
 72
     1
  1
{\H0.63x;{SPECIFICATIONS}}
 11
1.000000000000000
 21
0.0000000000000000
 31
0.0000000000000000
  7
STANDARD
  0
MTEXT
  5
4FE
100
AcDbEntity
  8
MAIN0
  6
CONTINUOUS
 62
3
100
AcDbMText
 10
32.01977514475294
 20
92.66756306126365
 30
0.0000000000000000
 40
4.650000572204590
 41
0.0000000000000000
 71
     1
 72
     1
  1
{\H0.92x;{貫通穴径}}
 11
1.000000000000000
 21
0.0000000000000000
 31
0.0000000000000000
  7
KNJYOKO
  0
MTEXT
  5
4FF
100
AcDbEntity
  8
MAIN0
  6
CONTINUOUS
 62
3
100
AcDbMText
 10
123.0197751447529
 20
89.66756306126365
 30
0.0000000000000000
 40
4.650000572204590
 41
0.0000000000000000
 71
     1
 72
     1
  1
{\H0.92x;{ \U+220540}}
 11
1.000000000000000
 21
0.0000000000000000
 31
0.0000000000000000
  7
STANDARD
  0
MTEXT
  5
500
100
AcDbEntity
  8
MAIN0
  6
CONTINUOUS
 62
4
100
AcDbMText
 10
145.5197751447529
 20
89.66756306126365
 30
0.0000000000000000
 40
4.650000572204590
 41
0.0000000000000000
 71
     1
 72
     1
  1
{\H0.57x;{ｍｍ}}
 11
1.000000000000000
 21
0.0000000000000000
 31
0.0000000000000000
  7
KNJYOKO
  0
LINE
  5
501
100
AcDbEntity
  8
MAIN0
  6
CONTINUOUS
 62
3
100
AcDbLine
 10
24.51977514475288
 20
95.01756248934152
 30
0.0000000000000000
 11
162.0197751447529
 21
95.01756248944315
 31
0.0000000000000000
  0
MTEXT
  5
502
100
AcDbEntity
  8
MAIN0
  6
CONTINUOUS
 62
3
100
AcDbMText
 10
123.0197751447529
 20
105.1675630615953
 30
0.0000000000000000
 40
4.650000572204590
 41
0.0000000000000000
 71
     1
 72
     1
  1
{\H0.91x;{ 140}}
 11
1.000000000000000
 21
0.0000000000000000
 31
0.0000000000000000
  7
STANDARD
  0
MTEXT
  5
503
100
AcDbEntity
  8
MAIN0
  6
CONTINUOUS
 62
4
100
AcDbMText
 10
145.5197751447529
 20
105.1675630615953
 30
0.0000000000000000
 40
4.650000572204590
 41
0.0000000000000000
 71
     1
 72
     1
  1
{\H0.57x;{ｍｍ}}
 11
1.000000000000000
 21
0.0000000000000000
 31
0.0000000000000000
  7
KNJYOKO
  0
MTEXT
  5
504
100
AcDbEntity
  8
MAIN0
  6
CONTINUOUS
 62
3
100
AcDbMText
 10
32.01977514475294
 20
108.1675630615953
 30
0.0000000000000000
 40
4.650000572204590
 41
0.0000000000000000
 71
     1
 72
     1
  1
{\H0.93x;{センタハイト}}
 11
1.000000000000000
 21
0.0000000000000000
 31
0.0000000000000000
  7
KNJYOKO
  0
MTEXT
  5
505
100
AcDbEntity
  8
MAIN0
  6
CONTINUOUS
 62
3
100
AcDbMText
 10
32.01977514475294
 20
102.0175624893907
 30
0.0000000000000000
 40
4.500000000000000
 41
0.0000000000000000
 71
     1
 72
     1
  1
{\H0.81x;{CENTER HEIGHT}}
 11
1.000000000000000
 21
0.0000000000000000
 31
0.0000000000000000
  7
STANDARD
  0
MTEXT
  5
506
100
AcDbEntity
  8
MAIN0
  6
CONTINUOUS
 62
3
100
AcDbMText
 10
32.08816604278405
 20
86.24858879280419
 30
0.0000000000000000
 40
4.500000000000000
 41
0.0000000000000000
 71
     1
 72
     1
  1
{\H0.63x;{THRU HOLE DIAMETER}}
 11
1.000000000000000
 21
0.0000000000000000
 31
0.0000000000000000
  7
STANDARD
  0
CIRCLE
  5
507
100
AcDbEntity
  8
MAIN0
  6
CONTINUOUS
 62
3
100
AcDbCircle
 10
179.4953940124264
 20
401.6506350925041
 30
0.0000000000000000
 40
3.000000000000000
  0
CIRCLE
  5
508
100
AcDbEntity
  8
MAIN0
  6
CONTINUOUS
 62
3
100
AcDbCircle
 10
179.4953940124264
 20
401.6506350925041
 30
0.0000000000000000
 40
2.500000000000000
  0
CIRCLE
  5
509
100
AcDbEntity
  8
MAIN0
  6
CONTINUOUS
 62
3
100
AcDbCircle
 10
204.4953940124904
 20
358.3493649033192
 30
0.0000000000000000
 40
3.000000000000000
  0
CIRCLE
  5
50A
100
AcDbEntity
  8
MAIN0
  6
CONTINUOUS
 62
3
100
AcDbCircle
 10
204.4953940124904
 20
358.3493649033192
 30
0.0000000000000000
 40
2.500000000000000
  0
CIRCLE
  5
50B
100
AcDbEntity
  8
MAIN0
  6
CONTINUOUS
 62
3
100
AcDbCircle
 10
191.9953940126040
 20
281.4999999979116
 30
0.0000000000000000
 40
5.500000000000000
  0
CIRCLE
  5
50C
100
AcDbEntity
  8
MAIN0
  6
CONTINUOUS
 62
3
100
AcDbCircle
 10
191.9953940123127
 20
478.4999999979116
 30
0.0000000000000000
 40
5.500000000000000
  0
CIRCLE
  5
50D
100
AcDbEntity
  8
MAIN0
  6
CONTINUOUS
 62
3
100
AcDbCircle
 10
191.9953940123127
 20
478.4999999979116
 30
0.0000000000000000
 40
5.000000000000000
  0
LINE
  5
50E
100
AcDbEntity
  8
MAIN0
  6
CONTINUOUS
 62
3
100
AcDbLine
 10
191.9953940123128
 20
481.3867513438597
 30
0.0000000000000000
 11
189.4953940123127
 21
479.9433756708856
 31
0.0000000000000000
  0
LINE
  5
50F
100
AcDbEntity
  8
MAIN0
  6
CONTINUOUS
 62
3
100
AcDbLine
 10
189.4953940123127
 20
479.9433756708856
 30
0.0000000000000000
 11
189.4953940123127
 21
477.0566243249375
 31
0.0000000000000000
  0
LINE
  5
510
100
AcDbEntity
  8
MAIN0
  6
CONTINUOUS
 62
3
100
AcDbLine
 10
189.4953940123127
 20
477.0566243249375
 30
0.0000000000000000
 11
191.9953940123127
 21
475.6132486519634
 31
0.0000000000000000
  0
LINE
  5
511
100
AcDbEntity
  8
MAIN0
  6
CONTINUOUS
 62
3
100
AcDbLine
 10
191.9953940123128
 20
475.6132486519634
 30
0.0000000000000000
 11
194.4953940123127
 21
477.0566243249375
 31
0.0000000000000000
  0
LINE
  5
512
100
AcDbEntity
  8
MAIN0
  6
CONTINUOUS
 62
3
100
AcDbLine
 10
194.4953940123127
 20
477.0566243249375
 30
0.0000000000000000
 11
194.4953940123127
 21
479.9433756708856
 31
0.0000000000000000
  0
LINE
  5
513
100
AcDbEntity
  8
MAIN0
  6
CONTINUOUS
 62
3
100
AcDbLine
 10
194.4953940123127
 20
479.9433756708856
 30
0.0000000000000000
 11
191.9953940123128
 21
481.3867513438597
 31
0.0000000000000000
  0
CIRCLE
  5
514
100
AcDbEntity
  8
MAIN0
  6
CONTINUOUS
 62
3
100
AcDbCircle
 10
191.9953940126040
 20
281.4999999979116
 30
0.0000000000000000
 40
5.000000000000000
  0
LINE
  5
515
100
AcDbEntity
  8
MAIN0
  6
CONTINUOUS
 62
3
100
AcDbLine
 10
191.9953940126041
 20
284.3867513438597
 30
0.0000000000000000
 11
189.4953940126041
 21
282.9433756708857
 31
0.0000000000000000
  0
LINE
  5
516
100
AcDbEntity
  8
MAIN0
  6
CONTINUOUS
 62
3
100
AcDbLine
 10
189.4953940126040
 20
282.9433756708856
 30
0.0000000000000000
 11
189.4953940126040
 21
280.0566243249375
 31
0.0000000000000000
  0
LINE
  5
517
100
AcDbEntity
  8
MAIN0
  6
CONTINUOUS
 62
3
100
AcDbLine
 10
189.4953940126041
 20
280.0566243249375
 30
0.0000000000000000
 11
191.9953940126041
 21
278.6132486519634
 31
0.0000000000000000
  0
LINE
  5
518
100
AcDbEntity
  8
MAIN0
  6
CONTINUOUS
 62
3
100
AcDbLine
 10
191.9953940126041
 20
278.6132486519635
 30
0.0000000000000000
 11
194.4953940126041
 21
280.0566243249376
 31
0.0000000000000000
  0
LINE
  5
519
100
AcDbEntity
  8
MAIN0
  6
CONTINUOUS
 62
3
100
AcDbLine
 10
194.4953940126040
 20
280.0566243249375
 30
0.0000000000000000
 11
194.4953940126040
 21
282.9433756708856
 31
0.0000000000000000
  0
LINE
  5
51A
100
AcDbEntity
  8
MAIN0
  6
CONTINUOUS
 62
3
100
AcDbLine
 10
194.4953940126041
 20
282.9433756708856
 30
0.0000000000000000
 11
191.9953940126041
 21
284.3867513438597
 31
0.0000000000000000
  0
LINE
  5
51B
100
AcDbEntity
  8
MAIN0
  6
CONTINUOUS
 62
3
100
AcDbLine
 10
412.4349999998449
 20
319.1868276439574
 30
0.0000000000000000
 11
412.4349999998766
 21
456.3971125102942
 31
0.0000000000000000
  0
LINE
  5
51C
100
AcDbEntity
  8
MAIN0
  6
CONTINUOUS
 62
3
100
AcDbLine
 10
420.9523489497245
 20
351.1036334443793
 30
0.0000000000000000
 11
440.4999999990533
 21
351.1036334443793
 31
0.0000000000000000
  0
LINE
  5
51D
100
AcDbEntity
  8
MAIN0
  6
CONTINUOUS
 62
3
100
AcDbLine
 10
422.2145560969142
 20
436.3116328992866
 30
0.0000000000000000
 11
430.4999999990537
 21
436.3116328992883
 31
0.0000000000000000
  0
ARC
  5
51E
100
AcDbEntity
  8
MAIN0
  6
CONTINUOUS
 62
3
100
AcDbCircle
 10
430.4999999990533
 20
438.3116328992883
 30
0.0000000000000000
 40
2.000000000000000
100
AcDbArc
 50
270.0000000000000
 51
360.0000000000000
  0
LINE
  5
51F
100
AcDbEntity
  8
MAIN0
  6
CONTINUOUS
 62
3
100
AcDbLine
 10
417.4999999988228
 20
351.1036334443793
 30
0.0000000000000000
 11
417.4999999995019
 21
436.3116328992859
 31
0.0000000000000000
  0
ARC
  5
520
100
AcDbEntity
  8
MAIN0
  6
CONTINUOUS
 62
3
100
AcDbCircle
 10
420.9523489497245
 20
347.1036334443793
 30
0.0000000000000000
 40
4.000000000000000
100
AcDbArc
 50
90.00000000000000
 51
171.5941155980107
  0
ARC
  5
521
100
AcDbEntity
  8
MAIN0
  6
CONTINUOUS
 62
3
100
AcDbCircle
 10
406.4349999998766
 20
456.3971125102955
 30
0.0000000000000000
 40
6.000000000000000
100
AcDbArc
 50
0.0000000000000000
 51
90.00000000000000
  0
LINE
  5
522
100
AcDbEntity
  8
MAIN0
  6
CONTINUOUS
 62
3
100
AcDbLine
 10
416.3848240050389
 20
440.8923993959575
 30
0.0000000000000000
 11
412.2647320917506
 21
457.8163460136259
 31
0.0000000000000000
  0
ARC
  5
523
100
AcDbEntity
  8
MAIN0
  6
CONTINUOUS
 62
3
100
AcDbCircle
 10
422.2145560969130
 20
442.3116328992869
 30
0.0000000000000000
 40
6.000000000000000
100
AcDbArc
 50
193.6823540506332
 51
270.0000000000000
  0
ARC
  5
524
100
AcDbEntity
  8
MAIN0
  6
CONTINUOUS
 62
3
100
AcDbCircle
 10
406.4349999998449
 20
319.1868276439589
 30
0.0000000000000000
 40
6.000000000000000
100
AcDbArc
 50
270.0000000000000
 51
360.0000000000000
  0
LINE
  5
525
100
AcDbEntity
  8
MAIN0
  6
CONTINUOUS
 62
3
100
AcDbLine
 10
416.9665291326454
 20
347.6928750328094
 30
0.0000000000000000
 11
412.3629290178978
 21
318.2596504457233
 31
0.0000000000000000
  0
LINE
  5
526
100
AcDbEntity
  8
MAIN0
  6
CONTINUOUS
 62
3
100
AcDbLine
 10
247.1493002315071
 20
242.0310688139267
 30
0.0000000000000000
 11
313.1493002315071
 21
242.0310688138233
 31
0.0000000000000000
  0
LINE
  5
527
100
AcDbEntity
  8
MAIN0
  6
CONTINUOUS
 62
3
100
AcDbLine
 10
247.1493002315401
 20
263.0310688139267
 30
0.0000000000000000
 11
313.1493002315401
 21
263.0310688138233
 31
0.0000000000000000
  0
LINE
  5
528
100
AcDbEntity
  8
MAIN0
  6
CONTINUOUS
 62
3
100
AcDbLine
 10
245.6493002315377
 20
261.5310688139291
 30
0.0000000000000000
 11
245.6493002315095
 21
243.5310688139291
 31
0.0000000000000000
  0
LINE
  5
529
100
AcDbEntity
  8
MAIN0
  6
CONTINUOUS
 62
3
100
AcDbLine
 10
314.6493002315377
 20
261.5310688138209
 30
0.0000000000000000
 11
314.6493002315095
 21
243.5310688138209
 31
0.0000000000000000
  0
ARC
  5
52A
100
AcDbEntity
  8
MAIN0
  6
CONTINUOUS
 62
3
100
AcDbCircle
 10
313.1493002315377
 20
261.5310688138232
 30
0.0000000000000000
 40
1.500000000000000
100
AcDbArc
 50
359.9999999999101
 51
449.9999999993357
  0
ARC
  5
52B
100
AcDbEntity
  8
MAIN0
  6
CONTINUOUS
 62
3
100
AcDbCircle
 10
247.1493002315377
 20
261.5310688139267
 30
0.0000000000000000
 40
1.500000000000000
100
AcDbArc
 50
89.99999999990688
 51
179.9999999999066
  0
ARC
  5
52C
100
AcDbEntity
  8
MAIN0
  6
CONTINUOUS
 62
3
100
AcDbCircle
 10
247.1493002315095
 20
243.5310688139267
 30
0.0000000000000000
 40
1.500000000000000
100
AcDbArc
 50
179.9999999999066
 51
269.9999999999066
  0
ARC
  5
52D
100
AcDbEntity
  8
MAIN0
  6
CONTINUOUS
 62
3
100
AcDbCircle
 10
313.1493002315095
 20
243.5310688138232
 30
0.0000000000000000
 40
1.500000000000000
100
AcDbArc
 50
270.0000000004779
 51
359.9999999999035
  0
LINE
  5
52E
100
AcDbEntity
  8
MAIN0
  6
CONTINUOUS
 62
3
100
AcDbLine
 10
249.6493002315221
 20
251.5310688139227
 30
0.0000000000000000
 11
249.6493002315143
 21
246.5310688139227
 31
0.0000000000000000
  0
LINE
  5
52F
100
AcDbEntity
  8
MAIN0
  6
CONTINUOUS
 62
3
100
AcDbLine
 10
291.6493002315220
 20
251.5310688138571
 30
0.0000000000000000
 11
291.6493002315142
 21
246.5310688138570
 31
0.0000000000000000
  0
LINE
  5
530
100
AcDbEntity
  8
MAIN0
  6
CONTINUOUS
 62
3
100
AcDbLine
 10
292.6493002315220
 20
251.5310688138555
 30
0.0000000000000000
 11
292.6493002315142
 21
246.5310688138554
 31
0.0000000000000000
  0
LINE
  5
531
100
AcDbEntity
  8
MAIN0
  6
CONTINUOUS
 62
3
100
AcDbLine
 10
310.6493002315220
 20
251.5310688138273
 30
0.0000000000000000
 11
310.6493002315142
 21
246.5310688138272
 31
0.0000000000000000
  0
LINE
  5
532
100
AcDbEntity
  8
MAIN0
  6
CONTINUOUS
 62
3
100
AcDbLine
 10
249.6493002315220
 20
251.5310688139229
 30
0.0000000000000000
 11
291.6493002315220
 21
251.5310688138571
 31
0.0000000000000000
  0
LINE
  5
533
100
AcDbEntity
  8
MAIN0
  6
CONTINUOUS
 62
3
100
AcDbLine
 10
292.6493002315220
 20
251.5310688138555
 30
0.0000000000000000
 11
310.6493002315220
 21
251.5310688138273
 31
0.0000000000000000
  0
LINE
  5
534
100
AcDbEntity
  8
MAIN0
  6
CONTINUOUS
 62
3
100
AcDbLine
 10
249.6493002315142
 20
246.5310688139228
 30
0.0000000000000000
 11
291.6493002315142
 21
246.5310688138570
 31
0.0000000000000000
  0
LINE
  5
535
100
AcDbEntity
  8
MAIN0
  6
CONTINUOUS
 62
3
100
AcDbLine
 10
292.6493002315142
 20
246.5310688138554
 30
0.0000000000000000
 11
310.6493002315142
 21
246.5310688138272
 31
0.0000000000000000
  0
LINE
  5
536
100
AcDbEntity
  8
MAIN0
  6
HIDDEN
 62
3
100
AcDbLine
 10
358.0000000013214
 20
468.5784999994228
 30
0.0000000000000000
 11
367.4000000013215
 21
468.2847499994228
 31
0.0000000000000000
  0
LINE
  5
537
100
AcDbEntity
  8
MAIN0
  6
HIDDEN
 62
3
100
AcDbLine
 10
367.4000000013212
 20
468.2847499994229
 30
0.0000000000000000
 11
367.4000000013212
 21
455.7152499994228
 31
0.0000000000000000
  0
LINE
  5
538
100
AcDbEntity
  8
MAIN0
  6
HIDDEN
 62
3
100
AcDbLine
 10
367.4000000013210
 20
455.7152499994228
 30
0.0000000000000000
 11
358.0000000013210
 21
455.4214999994227
 31
0.0000000000000000
  0
LINE
  5
539
100
AcDbEntity
  8
MAIN0
  6
HIDDEN
 62
3
100
AcDbLine
 10
358.0000000013213
 20
467.7224999994228
 30
0.0000000000000000
 11
367.4000000013214
 21
467.4287499994229
 31
0.0000000000000000
  0
LINE
  5
53A
100
AcDbEntity
  8
MAIN0
  6
HIDDEN
 62
3
100
AcDbLine
 10
358.0000000013210
 20
456.2774999994228
 30
0.0000000000000000
 11
367.4000000013209
 21
456.5712499994228
 31
0.0000000000000000
  0
LINE
  5
53B
100
AcDbEntity
  8
MAIN0
  6
HIDDEN
 62
12
100
AcDbLine
 10
358.4000000006465
 20
410.0000000008935
 30
0.0000000000000000
 11
358.0000000006529
 21
410.4000000009027
 31
0.0000000000000000
  0
LINE
  5
53C
100
AcDbEntity
  8
MAIN0
  6
HIDDEN
 62
12
100
AcDbLine
 10
358.3999999996823
 20
349.9999999988270
 30
0.0000000000000000
 11
357.9999999996759
 21
349.5999999988310
 31
0.0000000000000000
  0
LINE
  5
53D
100
AcDbEntity
  8
MAIN0
  6
CONTINUOUS
 62
3
100
AcDbLine
 10
359.9999999991460
 20
275.3999999988168
 30
0.0000000000000000
 11
360.3999999991427
 21
274.9999999988136
 31
0.0000000000000000
  0
LINE
  5
53E
100
AcDbEntity
  8
MAIN0
  6
CONTINUOUS
 62
3
100
AcDbLine
 10
359.9999999983190
 20
275.3999999988168
 30
0.0000000000000000
 11
359.9999999999999
 21
380.0000000000357
 31
0.0000000000000000
  0
LINE
  5
53F
100
AcDbEntity
  8
MAIN0
  6
CONTINUOUS
 62
3
100
AcDbLine
 10
372.5000000001645
 20
275.5999999987174
 30
0.0000000000000000
 11
371.9000000001644
 21
274.9999999987173
 31
0.0000000000000000
  0
LINE
  5
540
100
AcDbEntity
  8
MAIN0
  6
CONTINUOUS
 62
3
100
AcDbLine
 10
372.0999999994778
 20
485.0000000011634
 30
0.0000000000000000
 11
360.3999999999795
 21
485.0000000011598
 31
0.0000000000000000
  0
LINE
  5
541
100
AcDbEntity
  8
MAIN0
  6
CONTINUOUS
 62
3
100
AcDbLine
 10
359.9999999999795
 20
484.6000000011637
 30
0.0000000000000000
 11
360.3999999999794
 21
485.0000000011637
 31
0.0000000000000000
  0
LINE
  5
542
100
AcDbEntity
  8
MAIN0
  6
CONTINUOUS
 62
3
100
AcDbLine
 10
359.9999999991524
 20
484.6000000011637
 30
0.0000000000000000
 11
359.9999999999999
 21
380.0000000000357
 31
0.0000000000000000
  0
LINE
  5
543
100
AcDbEntity
  8
MAIN0
  6
CONTINUOUS
 62
3
100
AcDbLine
 10
360.3999999991431
 20
274.9999999988176
 30
0.0000000000000000
 11
371.9000000001644
 21
274.9999999987224
 31
0.0000000000000000
  0
LINE
  5
544
100
AcDbEntity
  8
MAIN0
  6
CENTER
 62
3
100
AcDbLine
 10
353.6201926823236
 20
461.9999999993175
 30
0.0000000000000000
 11
372.0567456154180
 21
461.9999999996222
 31
0.0000000000000000
  0
LINE
  5
545
100
AcDbEntity
  8
MAIN0
  6
HIDDEN
 62
3
100
AcDbLine
 10
367.4000000013212
 20
467.3999999994229
 30
0.0000000000000000
 11
372.8000000002064
 21
467.3999999994229
 31
0.0000000000000000
  0
LINE
  5
546
100
AcDbEntity
  8
MAIN0
  6
HIDDEN
 62
3
100
AcDbLine
 10
367.4000000013212
 20
456.5999999994228
 30
0.0000000000000000
 11
372.8000000001203
 21
456.5999999994228
 31
0.0000000000000000
  0
LINE
  5
547
100
AcDbEntity
  8
MAIN0
  6
CONTINUOUS
 62
3
100
AcDbLine
 10
372.4999999994805
 20
476.2496806059759
 30
0.0000000000000000
 11
372.4999999994780
 21
484.4000000026819
 31
0.0000000000000000
  0
LINE
  5
548
100
AcDbEntity
  8
MAIN0
  6
HIDDEN
 62
3
100
AcDbLine
 10
367.9999999999999
 20
399.9999999995724
 30
0.0000000000000000
 11
367.9999999999999
 21
359.9999999995725
 31
0.0000000000000000
  0
LINE
  5
549
100
AcDbEntity
  8
MAIN0
  6
HIDDEN
 62
3
100
AcDbLine
 10
360.0000000000931
 20
359.9999999996709
 30
0.0000000000000000
 11
367.9999999999999
 21
359.9999999996709
 31
0.0000000000000000
  0
LINE
  5
54A
100
AcDbEntity
  8
MAIN0
  6
HIDDEN
 62
3
100
AcDbLine
 10
359.9999999999999
 20
399.9999999996709
 30
0.0000000000000000
 11
359.9999999999999
 21
359.9999999996709
 31
0.0000000000000000
  0
LINE
  5
54B
100
AcDbEntity
  8
MAIN0
  6
HIDDEN
 62
3
100
AcDbLine
 10
357.9999999999999
 20
358.8452994612376
 30
0.0000000000000000
 11
360.0000000000931
 21
359.9999999996708
 31
0.0000000000000000
  0
LINE
  5
54C
100
AcDbEntity
  8
MAIN0
  6
HIDDEN
 62
3
100
AcDbLine
 10
357.9999999999999
 20
401.1547005381714
 30
0.0000000000000000
 11
359.9999999999998
 21
399.9999999997917
 31
0.0000000000000000
  0
LINE
  5
54D
100
AcDbEntity
  8
MAIN0
  6
HIDDEN
 62
3
100
AcDbLine
 10
360.0000000002095
 20
399.9999999996709
 30
0.0000000000000000
 11
367.9999999999999
 21
399.9999999996709
 31
0.0000000000000000
  0
LINE
  5
54E
100
AcDbEntity
  8
MAIN0
  6
HIDDEN
 62
3
100
AcDbLine
 10
373.9999999999999
 20
402.4999999996709
 30
0.0000000000000000
 11
358.8000000000001
 21
402.4999999996709
 31
0.0000000000000000
  0
LINE
  5
54F
100
AcDbEntity
  8
MAIN0
  6
HIDDEN
 62
3
100
AcDbLine
 10
368.9999999999999
 20
401.9999999996709
 30
0.0000000000000000
 11
358.3000000000001
 21
401.9999999996709
 31
0.0000000000000000
  0
LINE
  5
550
100
AcDbEntity
  8
MAIN0
  6
HIDDEN
 62
3
100
AcDbLine
 10
358.8000000000001
 20
407.4999999996709
 30
0.0000000000000000
 11
358.8000000000001
 21
402.4999999996709
 31
0.0000000000000000
  0
LINE
  5
551
100
AcDbEntity
  8
MAIN0
  6
HIDDEN
 62
3
100
AcDbLine
 10
358.8000000000001
 20
402.4999999996712
 30
0.0000000000000000
 11
357.9999999999999
 21
401.6999999996710
 31
0.0000000000000000
  0
LINE
  5
552
100
AcDbEntity
  8
MAIN0
  6
CENTER
 62
3
100
AcDbLine
 10
356.5743595601338
 20
404.9999999996709
 30
0.0000000000000000
 11
377.4745069131280
 21
404.9999999996709
 31
0.0000000000000000
  0
LINE
  5
553
100
AcDbEntity
  8
MAIN0
  6
HIDDEN
 62
3
100
AcDbLine
 10
358.8000000000001
 20
407.4999999996709
 30
0.0000000000000000
 11
373.9999999999999
 21
407.4999999996709
 31
0.0000000000000000
  0
LINE
  5
554
100
AcDbEntity
  8
MAIN0
  6
HIDDEN
 62
3
100
AcDbLine
 10
357.9999999999999
 20
408.2999999996709
 30
0.0000000000000000
 11
358.8000000000000
 21
407.4999999996709
 31
0.0000000000000000
  0
LINE
  5
555
100
AcDbEntity
  8
MAIN0
  6
HIDDEN
 62
3
100
AcDbLine
 10
358.3000000000001
 20
407.9999999996709
 30
0.0000000000000000
 11
368.9999999999999
 21
407.9999999996709
 31
0.0000000000000000
  0
LINE
  5
556
100
AcDbEntity
  8
MAIN0
  6
HIDDEN
 62
3
100
AcDbLine
 10
368.9999999999999
 20
407.9999999996709
 30
0.0000000000000000
 11
368.9999999999999
 21
401.9999999996709
 31
0.0000000000000000
  0
LINE
  5
557
100
AcDbEntity
  8
MAIN0
  6
HIDDEN
 62
3
100
AcDbLine
 10
373.9999999999999
 20
407.4999999996709
 30
0.0000000000000000
 11
373.9999999999999
 21
402.4999999996709
 31
0.0000000000000000
  0
LINE
  5
558
100
AcDbEntity
  8
MAIN0
  6
HIDDEN
 62
3
100
AcDbLine
 10
373.9999999999997
 20
407.4999999996708
 30
0.0000000000000000
 11
375.4433756729737
 21
404.9999999996708
 31
0.0000000000000000
  0
LINE
  5
559
100
AcDbEntity
  8
MAIN0
  6
HIDDEN
 62
3
100
AcDbLine
 10
375.4433756729741
 20
404.9999999996709
 30
0.0000000000000000
 11
374.0000000000001
 21
402.4999999996709
 31
0.0000000000000000
  0
LINE
  5
55A
100
AcDbEntity
  8
MAIN0
  6
HIDDEN
 62
3
100
AcDbLine
 10
367.9999999999999
 20
399.9999999995724
 30
0.0000000000000000
 11
434.5499999999394
 21
399.9999999995724
 31
0.0000000000000000
  0
LINE
  5
55B
100
AcDbEntity
  8
MAIN0
  6
HIDDEN
 62
3
100
AcDbLine
 10
367.9999999999999
 20
359.9999999995725
 30
0.0000000000000000
 11
434.5499999999396
 21
359.9999999995725
 31
0.0000000000000000
  0
LINE
  5
55C
100
AcDbEntity
  8
MAIN0
  6
HIDDEN
 62
3
100
AcDbLine
 10
434.5499999999394
 20
399.9999999995724
 30
0.0000000000000000
 11
435.4999999999433
 21
400.9499999995726
 31
0.0000000000000000
  0
LINE
  5
55D
100
AcDbEntity
  8
MAIN0
  6
HIDDEN
 62
3
100
AcDbLine
 10
434.5499999999396
 20
359.9999999995727
 30
0.0000000000000000
 11
435.4999999999433
 21
359.0499999995727
 31
0.0000000000000000
  0
LINE
  5
55E
100
AcDbEntity
  8
MAIN0
  6
CENTER
 62
3
100
AcDbLine
 10
356.5743595599342
 20
355.0000000002769
 30
0.0000000000000000
 11
377.4745069129285
 21
355.0000000001103
 31
0.0000000000000000
  0
LINE
  5
55F
100
AcDbEntity
  8
MAIN0
  6
HIDDEN
 62
3
100
AcDbLine
 10
357.9999999999999
 20
350.9237604304278
 30
0.0000000000000000
 11
357.9999999999999
 21
409.0762395689245
 31
0.0000000000000000
  0
LINE
  5
560
100
AcDbEntity
  8
MAIN0
  6
HIDDEN
 62
3
100
AcDbLine
 10
435.4999999999546
 20
355.9237604303587
 30
0.0000000000000000
 11
435.4999999999546
 21
404.0762395689935
 31
0.0000000000000000
  0
LINE
  5
561
100
AcDbEntity
  8
MAIN0
  6
HIDDEN
 62
3
100
AcDbLine
 10
433.8999999999857
 20
404.9999999996762
 30
0.0000000000000000
 11
435.4999999999548
 21
404.0762395689937
 31
0.0000000000000000
  0
LINE
  5
562
100
AcDbEntity
  8
MAIN0
  6
HIDDEN
 62
3
100
AcDbLine
 10
358.0000000000002
 20
409.0762395689246
 30
0.0000000000000000
 11
359.6000000000827
 21
409.9999999996761
 31
0.0000000000000000
  0
LINE
  5
563
100
AcDbEntity
  8
MAIN0
  6
HIDDEN
 62
3
100
AcDbLine
 10
358.0000000000001
 20
350.9237604304278
 30
0.0000000000000000
 11
359.6000000000826
 21
349.9999999996765
 31
0.0000000000000000
  0
LINE
  5
564
100
AcDbEntity
  8
MAIN0
  6
HIDDEN
 62
3
100
AcDbLine
 10
433.8999999997864
 20
354.9999999997031
 30
0.0000000000000000
 11
435.4999999997629
 21
355.9237604303729
 31
0.0000000000000000
  0
LINE
  5
565
100
AcDbEntity
  8
MAIN0
  6
HIDDEN
 62
3
100
AcDbLine
 10
421.3879081507996
 20
404.9999999996761
 30
0.0000000000000000
 11
433.8999999999859
 21
404.9999999996761
 31
0.0000000000000000
  0
LINE
  5
566
100
AcDbEntity
  8
MAIN0
  6
HIDDEN
 62
12
100
AcDbLine
 10
358.4000000006382
 20
410.0000000009019
 30
0.0000000000000000
 11
379.4389796734527
 21
410.0000000004173
 31
0.0000000000000000
  0
LINE
  5
567
100
AcDbEntity
  8
MAIN0
  6
HIDDEN
 62
12
100
AcDbLine
 10
358.3999999996823
 20
349.9999999988684
 30
0.0000000000000000
 11
379.1767975017226
 21
349.9999999986624
 31
0.0000000000000000
  0
LINE
  5
568
100
AcDbEntity
  8
MAIN0
  6
HIDDEN
 62
3
100
AcDbLine
 10
418.2417320445600
 20
354.9999999998279
 30
0.0000000000000000
 11
433.8999999997867
 21
354.9999999997032
 31
0.0000000000000000
  0
LINE
  5
569
100
AcDbEntity
  8
MAIN0
  6
CENTER
 62
3
100
AcDbLine
 10
352.5493581315743
 20
380.0000000000138
 30
0.0000000000000000
 11
385.3952610320063
 21
379.9999999998829
 31
0.0000000000000000
  0
LINE
  5
56A
100
AcDbEntity
  8
MAIN0
  6
CENTER
 62
3
100
AcDbLine
 10
407.4169465753217
 20
379.9999999997951
 30
0.0000000000000000
 11
444.9841741977458
 21
379.9999999996455
 31
0.0000000000000000
  0
LINE
  5
56B
100
AcDbEntity
  8
MAIN0
  6
CONTINUOUS
 62
3
100
AcDbLine
 10
255.6493002315332
 20
260.0311084241000
 30
0.0000000000000000
 11
257.3837064262576
 21
260.0311084240973
 31
0.0000000000000000
  0
LINE
  5
56C
100
AcDbEntity
  8
MAIN0
  6
CONTINUOUS
 62
3
100
AcDbLine
 10
257.3837064262575
 20
258.2328985189502
 30
0.0000000000000000
 11
259.5088616027073
 21
260.0311084241002
 31
0.0000000000000000
  0
LINE
  5
56D
100
AcDbEntity
  8
MAIN0
  6
CONTINUOUS
 62
3
100
AcDbLine
 10
261.6669276339101
 20
260.0311084240968
 30
0.0000000000000000
 11
259.3443357638297
 21
257.9196607813314
 31
0.0000000000000000
  0
LINE
  5
56E
100
AcDbEntity
  8
MAIN0
  6
CONTINUOUS
 62
3
100
AcDbLine
 10
259.3443357638298
 20
257.9196607813316
 30
0.0000000000000000
 11
262.3305248590218
 21
255.4311688139033
 31
0.0000000000000000
  0
LINE
  5
56F
100
AcDbEntity
  8
MAIN0
  6
CONTINUOUS
 62
3
100
AcDbLine
 10
259.8973312620061
 20
255.4311688139071
 30
0.0000000000000000
 11
257.3837064262565
 21
257.5857063442953
 31
0.0000000000000000
  0
LINE
  5
570
100
AcDbEntity
  8
MAIN0
  6
CONTINUOUS
 62
3
100
AcDbLine
 10
270.4294394841124
 20
260.0311084240768
 30
0.0000000000000000
 11
264.9245929194246
 21
260.0311084240855
 31
0.0000000000000000
  0
LINE
  5
571
100
AcDbEntity
  8
MAIN0
  6
CONTINUOUS
 62
3
100
AcDbLine
 10
269.4491248153175
 20
255.4311688138944
 30
0.0000000000000000
 11
271.3493768405016
 21
255.4311688138915
 31
0.0000000000000000
  0
LINE
  5
572
100
AcDbEntity
  8
MAIN0
  6
CONTINUOUS
 62
3
100
AcDbLine
 10
289.1082958586737
 20
260.0311084240532
 30
0.0000000000000000
 11
291.0249373629125
 21
255.4311688138597
 31
0.0000000000000000
  0
LINE
  5
573
100
AcDbEntity
  8
MAIN0
  6
CONTINUOUS
 62
3
100
AcDbLine
 10
292.9937724571994
 20
260.0311084240467
 30
0.0000000000000000
 11
292.0842798808453
 21
257.1510418527929
 31
0.0000000000000000
  0
LINE
  5
574
100
AcDbEntity
  8
MAIN0
  6
CONTINUOUS
 62
3
100
AcDbLine
 10
278.4227808928342
 20
255.4311688138804
 30
0.0000000000000000
 11
279.5539138668092
 21
255.4311688138786
 31
0.0000000000000000
  0
LINE
  5
575
100
AcDbEntity
  8
MAIN0
  6
CONTINUOUS
 62
3
100
AcDbLine
 10
279.7047292953804
 20
257.8662150869988
 30
0.0000000000000000
 11
279.7047292953793
 21
257.2020295587508
 31
0.0000000000000000
  0
LINE
  5
576
100
AcDbEntity
  8
MAIN0
  6
CONTINUOUS
 62
3
100
AcDbLine
 10
285.5996201773756
 20
260.0311084240585
 30
0.0000000000000000
 11
282.9031083401061
 21
255.4311688138717
 31
0.0000000000000000
  0
LINE
  5
577
100
AcDbEntity
  8
MAIN0
  6
CONTINUOUS
 62
3
100
AcDbLine
 10
285.9084884438905
 20
257.3163904371605
 30
0.0000000000000000
 11
286.5669348534924
 21
257.3163904371594
 31
0.0000000000000000
  0
LINE
  5
578
100
AcDbEntity
  8
MAIN0
  6
CONTINUOUS
 62
3
100
AcDbLine
 10
277.8396526402531
 20
255.4311688138797
 30
0.0000000000000000
 11
281.5384221743435
 21
255.4311688138740
 31
0.0000000000000000
  0
LINE
  5
579
100
AcDbEntity
  8
MAIN0
  6
CONTINUOUS
 62
3
100
AcDbLine
 10
255.6493002315362
 20
260.0311084241066
 30
0.0000000000000000
 11
255.6493002315281
 21
255.4311688139135
 31
0.0000000000000000
  0
LINE
  5
57A
100
AcDbEntity
  8
MAIN0
  6
CONTINUOUS
 62
3
100
AcDbLine
 10
264.3213225752915
 20
260.0311084240927
 30
0.0000000000000000
 11
264.3213225752848
 21
255.4311688139003
 31
0.0000000000000000
  0
LINE
  5
57B
100
AcDbEntity
  8
MAIN0
  6
CONTINUOUS
 62
3
100
AcDbLine
 10
262.5869163805672
 20
260.0311084240956
 30
0.0000000000000000
 11
262.5869163805605
 21
255.4311688139029
 31
0.0000000000000000
  0
LINE
  5
57C
100
AcDbEntity
  8
MAIN0
  6
CONTINUOUS
 62
3
100
AcDbLine
 10
270.4294394841169
 20
260.0311084240768
 30
0.0000000000000000
 11
270.4294394841144
 21
258.6779632479124
 31
0.0000000000000000
  0
LINE
  5
57D
100
AcDbEntity
  8
MAIN0
  6
CONTINUOUS
 62
3
100
AcDbLine
 10
264.9245929194286
 20
260.0311084240917
 30
0.0000000000000000
 11
264.9245929194261
 21
258.6779632479221
 31
0.0000000000000000
  0
LINE
  5
57E
100
AcDbEntity
  8
MAIN0
  6
CONTINUOUS
 62
3
100
AcDbLine
 10
268.5442293165202
 20
258.6779632479156
 30
0.0000000000000000
 11
268.5442293165153
 21
255.4311688138936
 31
0.0000000000000000
  0
LINE
  5
57F
100
AcDbEntity
  8
MAIN0
  6
CONTINUOUS
 62
3
100
AcDbLine
 10
266.8098030870120
 20
258.6779632479187
 30
0.0000000000000000
 11
266.8098030870071
 21
255.4311688138963
 31
0.0000000000000000
  0
LINE
  5
580
100
AcDbEntity
  8
MAIN0
  6
CONTINUOUS
 62
3
100
AcDbLine
 10
264.9245929194261
 20
258.6779632479220
 30
0.0000000000000000
 11
266.8098030870120
 21
258.6779632479187
 31
0.0000000000000000
  0
LINE
  5
581
100
AcDbEntity
  8
MAIN0
  6
CONTINUOUS
 62
3
100
AcDbLine
 10
268.5442293165202
 20
258.6779632479156
 30
0.0000000000000000
 11
270.4294394841145
 21
258.6779632479123
 31
0.0000000000000000
  0
LINE
  5
582
100
AcDbEntity
  8
MAIN0
  6
CONTINUOUS
 62
3
100
AcDbLine
 10
287.2253812630945
 20
257.3163904371593
 30
0.0000000000000000
 11
286.5669348534925
 21
257.3163904371593
 31
0.0000000000000000
  0
LINE
  5
583
100
AcDbEntity
  8
MAIN0
  6
CONTINUOUS
 62
3
100
AcDbLine
 10
287.5342495296135
 20
260.0311084240570
 30
0.0000000000000000
 11
290.2307613668756
 21
255.4311688138659
 31
0.0000000000000000
  0
LINE
  5
584
100
AcDbEntity
  8
MAIN0
  6
CONTINUOUS
 62
3
100
AcDbLine
 10
285.1228075058210
 20
255.9761089601639
 30
0.0000000000000000
 11
288.0110622011632
 21
255.9761089601591
 31
0.0000000000000000
  0
LINE
  5
585
100
AcDbEntity
  8
MAIN0
  6
CONTINUOUS
 62
3
100
AcDbLine
 10
286.5669348534934
 20
258.4396244162795
 30
0.0000000000000000
 11
287.2253812630945
 21
257.3163904371594
 31
0.0000000000000000
  0
LINE
  5
586
100
AcDbEntity
  8
MAIN0
  6
CONTINUOUS
 62
3
100
AcDbLine
 10
288.0110622011629
 20
255.9761089601590
 30
0.0000000000000000
 11
288.3305093416911
 21
255.4311688138662
 31
0.0000000000000000
  0
LINE
  5
587
100
AcDbEntity
  8
MAIN0
  6
CONTINUOUS
 62
3
100
AcDbLine
 10
285.1228075058208
 20
255.9761089601637
 30
0.0000000000000000
 11
284.8033603652903
 21
255.4311688138690
 31
0.0000000000000000
  0
LINE
  5
588
100
AcDbEntity
  8
MAIN0
  6
CONTINUOUS
 62
3
100
AcDbLine
 10
286.5669348534932
 20
258.4396244162791
 30
0.0000000000000000
 11
285.9084884438904
 21
257.3163904371603
 31
0.0000000000000000
  0
LINE
  5
589
100
AcDbEntity
  8
MAIN0
  6
CONTINUOUS
 62
3
100
AcDbLine
 10
272.1456366525868
 20
260.0311084240811
 30
0.0000000000000000
 11
269.4491248153173
 21
255.4311688138944
 31
0.0000000000000000
  0
LINE
  5
58A
100
AcDbEntity
  8
MAIN0
  6
CONTINUOUS
 62
3
100
AcDbLine
 10
273.1129513287044
 20
258.4396244163016
 30
0.0000000000000000
 11
272.4545049191016
 21
257.3163904371828
 31
0.0000000000000000
  0
LINE
  5
58B
100
AcDbEntity
  8
MAIN0
  6
CONTINUOUS
 62
3
100
AcDbLine
 10
273.1129513287045
 20
258.4396244163020
 30
0.0000000000000000
 11
273.7713977383056
 21
257.3163904371820
 31
0.0000000000000000
  0
LINE
  5
58C
100
AcDbEntity
  8
MAIN0
  6
CONTINUOUS
 62
3
100
AcDbLine
 10
273.7713977383055
 20
257.3163904371820
 30
0.0000000000000000
 11
273.1129513287035
 21
257.3163904371821
 31
0.0000000000000000
  0
LINE
  5
58D
100
AcDbEntity
  8
MAIN0
  6
CONTINUOUS
 62
3
100
AcDbLine
 10
271.6688239810322
 20
255.9761089601865
 30
0.0000000000000000
 11
274.5570786763744
 21
255.9761089601817
 31
0.0000000000000000
  0
LINE
  5
58E
100
AcDbEntity
  8
MAIN0
  6
CONTINUOUS
 62
3
100
AcDbLine
 10
271.6688239810319
 20
255.9761089601866
 30
0.0000000000000000
 11
271.3493768405014
 21
255.4311688138917
 31
0.0000000000000000
  0
LINE
  5
58F
100
AcDbEntity
  8
MAIN0
  6
CONTINUOUS
 62
3
100
AcDbLine
 10
274.5570786763743
 20
255.9761089601815
 30
0.0000000000000000
 11
274.8765258169045
 21
255.4311688138853
 31
0.0000000000000000
  0
LINE
  5
590
100
AcDbEntity
  8
MAIN0
  6
CONTINUOUS
 62
3
100
AcDbLine
 10
274.0802660048246
 20
260.0311084240797
 30
0.0000000000000000
 11
276.7767778420867
 21
255.4311688138885
 31
0.0000000000000000
  0
LINE
  5
591
100
AcDbEntity
  8
MAIN0
  6
CONTINUOUS
 62
3
100
AcDbLine
 10
272.4545049191017
 20
257.3163904371830
 30
0.0000000000000000
 11
273.1129513287036
 21
257.3163904371820
 31
0.0000000000000000
  0
LINE
  5
592
100
AcDbEntity
  8
MAIN0
  6
CONTINUOUS
 62
3
100
AcDbLine
 10
290.8842521428270
 20
260.0311084240503
 30
0.0000000000000000
 11
292.0842798808455
 21
257.1510418527930
 31
0.0000000000000000
  0
LINE
  5
593
100
AcDbEntity
  8
MAIN0
  6
CONTINUOUS
 62
3
100
AcDbLine
 10
294.0324136324001
 20
258.4205806267151
 30
0.0000000000000000
 11
293.0883910606314
 21
255.4311688138565
 31
0.0000000000000000
  0
LINE
  5
594
100
AcDbEntity
  8
MAIN0
  6
CONTINUOUS
 62
3
100
AcDbLine
 10
298.9565314061238
 20
260.0311084240371
 30
0.0000000000000000
 11
297.0398899018817
 21
255.4311688138500
 31
0.0000000000000000
  0
LINE
  5
595
100
AcDbEntity
  8
MAIN0
  6
CONTINUOUS
 62
3
100
AcDbLine
 10
297.1805751219752
 20
260.0311084240468
 30
0.0000000000000000
 11
295.9805473839535
 21
257.1510418527910
 31
0.0000000000000000
  0
LINE
  5
596
100
AcDbEntity
  8
MAIN0
  6
CONTINUOUS
 62
3
100
AcDbLine
 10
295.0710548076025
 20
260.0311084240458
 30
0.0000000000000000
 11
295.9805473839534
 21
257.1510418527910
 31
0.0000000000000000
  0
LINE
  5
597
100
AcDbEntity
  8
MAIN0
  6
CONTINUOUS
 62
3
100
AcDbLine
 10
294.0324136324002
 20
258.4205806267150
 30
0.0000000000000000
 11
294.9764362041657
 21
255.4311688138553
 31
0.0000000000000000
  0
LINE
  5
598
100
AcDbEntity
  8
MAIN0
  6
CONTINUOUS
 62
3
100
AcDbLine
 10
300.4151882506822
 20
260.0311084240361
 30
0.0000000000000000
 11
297.7186764134127
 21
255.4311688138493
 31
0.0000000000000000
  0
LINE
  5
599
100
AcDbEntity
  8
MAIN0
  6
CONTINUOUS
 62
3
100
AcDbLine
 10
301.3825029267998
 20
258.4396244162570
 30
0.0000000000000000
 11
300.7240565171969
 21
257.3163904371381
 31
0.0000000000000000
  0
LINE
  5
59A
100
AcDbEntity
  8
MAIN0
  6
CONTINUOUS
 62
3
100
AcDbLine
 10
301.3825029267999
 20
258.4396244162566
 30
0.0000000000000000
 11
302.0409493364010
 21
257.3163904371367
 31
0.0000000000000000
  0
LINE
  5
59B
100
AcDbEntity
  8
MAIN0
  6
CONTINUOUS
 62
3
100
AcDbLine
 10
300.7240565171970
 20
257.3163904371378
 30
0.0000000000000000
 11
301.3825029267990
 21
257.3163904371368
 31
0.0000000000000000
  0
LINE
  5
59C
100
AcDbEntity
  8
MAIN0
  6
CONTINUOUS
 62
3
100
AcDbLine
 10
299.9383755791276
 20
255.9761089601413
 30
0.0000000000000000
 11
302.8266302744697
 21
255.9761089601365
 31
0.0000000000000000
  0
LINE
  5
59D
100
AcDbEntity
  8
MAIN0
  6
CONTINUOUS
 62
3
100
AcDbLine
 10
299.9383755791273
 20
255.9761089601411
 30
0.0000000000000000
 11
299.6189284385968
 21
255.4311688138464
 31
0.0000000000000000
  0
LINE
  5
59E
100
AcDbEntity
  8
MAIN0
  6
CONTINUOUS
 62
3
100
AcDbLine
 10
302.8266302744697
 20
255.9761089601365
 30
0.0000000000000000
 11
303.1460774149979
 21
255.4311688138437
 31
0.0000000000000000
  0
LINE
  5
59F
100
AcDbEntity
  8
MAIN0
  6
CONTINUOUS
 62
3
100
AcDbLine
 10
302.0409493364009
 20
257.3163904371368
 30
0.0000000000000000
 11
301.3825029267989
 21
257.3163904371369
 31
0.0000000000000000
  0
LINE
  5
5A0
100
AcDbEntity
  8
MAIN0
  6
CONTINUOUS
 62
3
100
AcDbLine
 10
302.3498176029199
 20
260.0311084240344
 30
0.0000000000000000
 11
305.0463294401820
 21
255.4311688138432
 31
0.0000000000000000
  0
LINE
  5
5A1
100
AcDbEntity
  8
MAIN0
  6
CONTINUOUS
 62
3
100
AcDbLine
 10
279.7047292953804
 20
257.8662150869988
 30
0.0000000000000000
 11
282.7679303710688
 21
257.8662150869940
 31
0.0000000000000000
  0
LINE
  5
5A2
100
AcDbEntity
  8
MAIN0
  6
CONTINUOUS
 62
3
100
AcDbLine
 10
281.2031553878181
 20
258.3727971385555
 30
0.0000000000000000
 11
282.7679303710698
 21
258.3727971385529
 31
0.0000000000000000
  0
LINE
  5
5A3
100
AcDbEntity
  8
MAIN0
  6
CONTINUOUS
 62
3
100
AcDbLine
 10
278.5847346074723
 20
258.9356660847276
 30
0.0000000000000000
 11
280.7933193222451
 21
258.9356660847242
 31
0.0000000000000000
  0
LINE
  5
5A4
100
AcDbEntity
  8
MAIN0
  6
CONTINUOUS
 62
3
100
AcDbLine
 10
278.5847346074679
 20
256.4702999287305
 30
0.0000000000000000
 11
280.7933193222420
 21
256.4702999287271
 31
0.0000000000000000
  0
LINE
  5
5A5
100
AcDbEntity
  8
MAIN0
  6
CONTINUOUS
 62
3
100
AcDbLine
 10
276.6101444435377
 20
258.8016002273521
 30
0.0000000000000000
 11
276.6101444435335
 21
256.6606770106033
 31
0.0000000000000000
  0
ARC
  5
5A6
100
AcDbEntity
  8
MAIN0
  6
CONTINUOUS
 62
3
100
AcDbCircle
 10
277.8396526402591
 20
258.8016002273498
 30
0.0000000000000000
 40
1.229508196721312
100
AcDbArc
 50
89.99999999991013
 51
179.9999999999101
  0
ARC
  5
5A7
100
AcDbEntity
  8
MAIN0
  6
CONTINUOUS
 62
3
100
AcDbCircle
 10
281.5384221743493
 20
258.8016002273438
 30
0.0000000000000000
 40
1.229508196721312
100
AcDbArc
 50
359.9999999999101
 51
449.9999999999101
  0
ARC
  5
5A8
100
AcDbEntity
  8
MAIN0
  6
CONTINUOUS
 62
3
100
AcDbCircle
 10
281.5384221743453
 20
256.6606770105953
 30
0.0000000000000000
 40
1.229508196721312
100
AcDbArc
 50
269.9999999999101
 51
359.9999999999101
  0
ARC
  5
5A9
100
AcDbEntity
  8
MAIN0
  6
CONTINUOUS
 62
3
100
AcDbCircle
 10
277.8396526402549
 20
256.6606770106009
 30
0.0000000000000000
 40
1.229508196721312
100
AcDbArc
 50
179.9999999999101
 51
269.9999999999101
  0
LINE
  5
5AA
100
AcDbEntity
  8
MAIN0
  6
CONTINUOUS
 62
3
100
AcDbLine
 10
282.7679303710689
 20
257.8662150869940
 30
0.0000000000000000
 11
282.7679303710667
 21
256.6606770105930
 31
0.0000000000000000
  0
LINE
  5
5AB
100
AcDbEntity
  8
MAIN0
  6
CONTINUOUS
 62
3
100
AcDbLine
 10
282.7679303710708
 20
258.8016002273416
 30
0.0000000000000000
 11
282.7679303710700
 21
258.3727971385528
 31
0.0000000000000000
  0
LINE
  5
5AC
100
AcDbEntity
  8
MAIN0
  6
CONTINUOUS
 62
3
100
AcDbLine
 10
281.2031553878167
 20
257.2020295587486
 30
0.0000000000000000
 11
281.2031553878163
 21
256.8801359943003
 31
0.0000000000000000
  0
LINE
  5
5AD
100
AcDbEntity
  8
MAIN0
  6
CONTINUOUS
 62
3
100
AcDbLine
 10
281.2031553878183
 20
258.5258300191500
 30
0.0000000000000000
 11
281.2031553878181
 21
258.3727971385554
 31
0.0000000000000000
  0
LINE
  5
5AE
100
AcDbEntity
  8
MAIN0
  6
CONTINUOUS
 62
3
100
AcDbLine
 10
279.7047292953794
 20
257.2020295587509
 30
0.0000000000000000
 11
281.2031553878167
 21
257.2020295587487
 31
0.0000000000000000
  0
LINE
  5
5AF
100
AcDbEntity
  8
MAIN0
  6
CONTINUOUS
 62
3
100
AcDbLine
 10
278.1748985418980
 20
258.5258300191547
 30
0.0000000000000000
 11
278.1748985418948
 21
256.8801359943051
 31
0.0000000000000000
  0
ARC
  5
5B0
100
AcDbEntity
  8
MAIN0
  6
CONTINUOUS
 62
3
100
AcDbCircle
 10
278.5847346074717
 20
258.5258300191539
 30
0.0000000000000000
 40
0.4098360655737705
100
AcDbArc
 50
89.99999999991013
 51
179.9999999999101
  0
ARC
  5
5B1
100
AcDbEntity
  8
MAIN0
  6
CONTINUOUS
 62
3
100
AcDbCircle
 10
280.7933193222445
 20
258.5258300191504
 30
0.0000000000000000
 40
0.4098360655737705
100
AcDbArc
 50
359.9999999999101
 51
449.9999999999101
  0
ARC
  5
5B2
100
AcDbEntity
  8
MAIN0
  6
CONTINUOUS
 62
3
100
AcDbCircle
 10
278.5847346074685
 20
256.8801359943043
 30
0.0000000000000000
 40
0.4098360655737705
100
AcDbArc
 50
179.9999999999101
 51
269.9999999999101
  0
ARC
  5
5B3
100
AcDbEntity
  8
MAIN0
  6
CONTINUOUS
 62
3
100
AcDbCircle
 10
280.7933193222426
 20
256.8801359943009
 30
0.0000000000000000
 40
0.4098360655737705
100
AcDbArc
 50
269.9999999999101
 51
359.9999999999101
  0
LINE
  5
5B4
100
AcDbEntity
  8
MAIN0
  6
CONTINUOUS
 62
3
100
AcDbLine
 10
300.4151882506803
 20
260.0311084240323
 30
0.0000000000000000
 11
302.3498176029231
 21
260.0311084240291
 31
0.0000000000000000
  0
LINE
  5
5B5
100
AcDbEntity
  8
MAIN0
  6
CONTINUOUS
 62
3
100
AcDbLine
 10
297.7186764134127
 20
255.4311688138491
 30
0.0000000000000000
 11
299.6189284385969
 21
255.4311688138461
 31
0.0000000000000000
  0
LINE
  5
5B6
100
AcDbEntity
  8
MAIN0
  6
CONTINUOUS
 62
3
100
AcDbLine
 10
303.1460774149978
 20
255.4311688138404
 30
0.0000000000000000
 11
305.0463294401820
 21
255.4311688138374
 31
0.0000000000000000
  0
LINE
  5
5B7
100
AcDbEntity
  8
MAIN0
  6
CONTINUOUS
 62
3
100
AcDbLine
 10
297.1805751219715
 20
260.0311084240378
 30
0.0000000000000000
 11
298.9565314061229
 21
260.0311084240348
 31
0.0000000000000000
  0
LINE
  5
5B8
100
AcDbEntity
  8
MAIN0
  6
CONTINUOUS
 62
3
100
AcDbLine
 10
292.9937724571989
 20
260.0311084240448
 30
0.0000000000000000
 11
295.0710548076040
 21
260.0311084240414
 31
0.0000000000000000
  0
LINE
  5
5B9
100
AcDbEntity
  8
MAIN0
  6
CONTINUOUS
 62
3
100
AcDbLine
 10
289.1082958586745
 20
260.0311084240512
 30
0.0000000000000000
 11
290.8842521428276
 21
260.0311084240483
 31
0.0000000000000000
  0
LINE
  5
5BA
100
AcDbEntity
  8
MAIN0
  6
CONTINUOUS
 62
3
100
AcDbLine
 10
285.5996201773749
 20
260.0311084240572
 30
0.0000000000000000
 11
287.5342495296152
 21
260.0311084240539
 31
0.0000000000000000
  0
LINE
  5
5BB
100
AcDbEntity
  8
MAIN0
  6
CONTINUOUS
 62
3
100
AcDbLine
 10
277.8396526402612
 20
260.0311084240701
 30
0.0000000000000000
 11
281.5384221743514
 21
260.0311084240640
 31
0.0000000000000000
  0
LINE
  5
5BC
100
AcDbEntity
  8
MAIN0
  6
CONTINUOUS
 62
3
100
AcDbLine
 10
272.1456366525860
 20
260.0311084240796
 30
0.0000000000000000
 11
274.0802660048266
 21
260.0311084240763
 31
0.0000000000000000
  0
LINE
  5
5BD
100
AcDbEntity
  8
MAIN0
  6
CONTINUOUS
 62
3
100
AcDbLine
 10
259.5088616027077
 20
260.0311084241006
 30
0.0000000000000000
 11
261.6669276339102
 21
260.0311084240970
 31
0.0000000000000000
  0
LINE
  5
5BE
100
AcDbEntity
  8
MAIN0
  6
CONTINUOUS
 62
3
100
AcDbLine
 10
262.5869163805672
 20
260.0311084240954
 30
0.0000000000000000
 11
264.3213225752916
 21
260.0311084240924
 31
0.0000000000000000
  0
LINE
  5
5BF
100
AcDbEntity
  8
MAIN0
  6
CONTINUOUS
 62
3
100
AcDbLine
 10
255.6493002315282
 20
255.4311688139160
 30
0.0000000000000000
 11
257.3837064262527
 21
255.4311688139133
 31
0.0000000000000000
  0
LINE
  5
5C0
100
AcDbEntity
  8
MAIN0
  6
CONTINUOUS
 62
3
100
AcDbLine
 10
259.8973312620034
 20
255.4311688139093
 30
0.0000000000000000
 11
262.3305248590191
 21
255.4311688139054
 31
0.0000000000000000
  0
LINE
  5
5C1
100
AcDbEntity
  8
MAIN0
  6
CONTINUOUS
 62
3
100
AcDbLine
 10
262.5869163805604
 20
255.4311688139050
 30
0.0000000000000000
 11
264.3213225752847
 21
255.4311688139022
 31
0.0000000000000000
  0
LINE
  5
5C2
100
AcDbEntity
  8
MAIN0
  6
CONTINUOUS
 62
3
100
AcDbLine
 10
266.8098030870070
 20
255.4311688138982
 30
0.0000000000000000
 11
268.5442293165153
 21
255.4311688138955
 31
0.0000000000000000
  0
LINE
  5
5C3
100
AcDbEntity
  8
MAIN0
  6
CONTINUOUS
 62
3
100
AcDbLine
 10
274.8765258169025
 20
255.4311688138855
 30
0.0000000000000000
 11
276.7767778420903
 21
255.4311688138825
 31
0.0000000000000000
  0
LINE
  5
5C4
100
AcDbEntity
  8
MAIN0
  6
CONTINUOUS
 62
3
100
AcDbLine
 10
282.9031083401066
 20
255.4311688138727
 30
0.0000000000000000
 11
284.8033603652904
 21
255.4311688138697
 31
0.0000000000000000
  0
LINE
  5
5C5
100
AcDbEntity
  8
MAIN0
  6
CONTINUOUS
 62
3
100
AcDbLine
 10
288.3305093416913
 20
255.4311688138641
 30
0.0000000000000000
 11
290.2307613668784
 21
255.4311688138610
 31
0.0000000000000000
  0
LINE
  5
5C6
100
AcDbEntity
  8
MAIN0
  6
CONTINUOUS
 62
3
100
AcDbLine
 10
291.0249373629126
 20
255.4311688138596
 30
0.0000000000000000
 11
293.0883910606315
 21
255.4311688138563
 31
0.0000000000000000
  0
LINE
  5
5C7
100
AcDbEntity
  8
MAIN0
  6
CONTINUOUS
 62
3
100
AcDbLine
 10
294.9764362041663
 20
255.4311688138533
 30
0.0000000000000000
 11
297.0398899018818
 21
255.4311688138500
 31
0.0000000000000000
  0
LINE
  5
5C8
100
AcDbEntity
  8
MAIN0
  6
CONTINUOUS
 62
3
100
AcDbLine
 10
257.3837064262564
 20
257.5857063442953
 30
0.0000000000000000
 11
257.3837064262526
 21
255.4311688139108
 31
0.0000000000000000
  0
LINE
  5
5C9
100
AcDbEntity
  8
MAIN0
  6
CONTINUOUS
 62
3
100
AcDbLine
 10
257.3837064262609
 20
260.0311084241039
 30
0.0000000000000000
 11
257.3837064262577
 21
258.2328985189505
 31
0.0000000000000000
  0
LINE
  5
5CA
100
AcDbEntity
  8
MAIN0
  6
CONTINUOUS
 62
3
100
AcDbLine
 10
263.2976284963472
 20
260.0311084240942
 30
0.0000000000000000
 11
264.0670383032402
 21
260.0311084240929
 31
0.0000000000000000
  0
LINE
  5
5CB
100
AcDbEntity
  8
WAKU0
  6
CONTINUOUS
 62
3
100
AcDbLine
 10
240.0000000000000
 20
51.00000000000000
 30
0.0000000000000000
 11
410.0000000000000
 21
51.00000000000000
 31
0.0000000000000000
  0
LINE
  5
5CC
100
AcDbEntity
  8
WAKU0
  6
CONTINUOUS
 62
3
100
AcDbLine
 10
240.0000000000000
 20
51.00000000000000
 30
0.0000000000000000
 11
240.0000000000000
 21
12.00000000000000
 31
0.0000000000000000
  0
LINE
  5
5CD
100
AcDbEntity
  8
WAKU0
  6
CONTINUOUS
 62
3
100
AcDbLine
 10
312.0000000000000
 20
51.00000000000000
 30
0.0000000000000000
 11
312.0000000000000
 21
12.00000000000000
 31
0.0000000000000000
  0
LINE
  5
5CE
100
AcDbEntity
  8
WAKU0
  6
CONTINUOUS
 62
3
100
AcDbLine
 10
332.0000000000000
 20
51.00000000000000
 30
0.0000000000000000
 11
332.0000000000000
 21
12.00000000000000
 31
0.0000000000000000
  0
LINE
  5
5CF
100
AcDbEntity
  8
WAKU0
  6
CONTINUOUS
 62
3
100
AcDbLine
 10
344.0000000000000
 20
51.00000000000000
 30
0.0000000000000000
 11
344.0000000000000
 21
12.00000000000000
 31
0.0000000000000000
  0
LINE
  5
5D0
100
AcDbEntity
  8
WAKU0
  6
CONTINUOUS
 62
3
100
AcDbLine
 10
344.0000000000000
 20
37.00000000000000
 30
0.0000000000000000
 11
410.0000000000000
 21
37.00000000000000
 31
0.0000000000000000
  0
LINE
  5
5D1
100
AcDbEntity
  8
WAKU0
  6
CONTINUOUS
 62
3
100
AcDbLine
 10
332.0000000000000
 20
23.00000000000000
 30
0.0000000000000000
 11
410.0000000000000
 21
23.00000000000000
 31
0.0000000000000000
  0
LINE
  5
5D2
100
AcDbEntity
  8
WAKU0
  6
CONTINUOUS
 62
3
100
AcDbLine
 10
375.0000000000000
 20
51.00000000000000
 30
0.0000000000000000
 11
375.0000000000000
 21
44.00000000000000
 31
0.0000000000000000
  0
LINE
  5
5D3
100
AcDbEntity
  8
WAKU0
  6
CONTINUOUS
 62
3
100
AcDbLine
 10
387.0000000000000
 20
51.00000000000000
 30
0.0000000000000000
 11
387.0000000000000
 21
44.00000000000000
 31
0.0000000000000000
  0
LINE
  5
5D4
100
AcDbEntity
  8
WAKU0
  6
CONTINUOUS
 62
3
100
AcDbLine
 10
312.0000000000000
 20
31.50000000000000
 30
0.0000000000000000
 11
332.0000000000000
 21
31.50000000000000
 31
0.0000000000000000
  0
LINE
  5
5D5
100
AcDbEntity
  8
WAKU0
  6
CONTINUOUS
 62
3
100
AcDbLine
 10
332.0000000000000
 20
44.00000000000000
 30
0.0000000000000000
 11
410.0000000000000
 21
44.00000000000000
 31
0.0000000000000000
  0
LINE
  5
5D6
100
AcDbEntity
  8
WAKU0
  6
CONTINUOUS
 62
3
100
AcDbLine
 10
240.0000000000000
 20
37.00000000000000
 30
0.0000000000000000
 11
312.0000000000000
 21
37.00000000000000
 31
0.0000000000000000
  0
LINE
  5
5D7
100
AcDbEntity
  8
WAKU0
  6
CONTINUOUS
 62
3
100
AcDbLine
 10
240.0000000000000
 20
23.00000000000000
 30
0.0000000000000000
 11
312.0000000000000
 21
23.00000000000000
 31
0.0000000000000000
  0
LINE
  5
5D8
100
AcDbEntity
  8
WAKU0
  6
CONTINUOUS
 62
3
100
AcDbLine
 10
288.0000000000000
 20
37.00000000000000
 30
0.0000000000000000
 11
288.0000000000000
 21
12.00000000000000
 31
0.0000000000000000
  0
LINE
  5
5D9
100
AcDbEntity
  8
WAKU0
  6
CONTINUOUS
 62
3
100
AcDbLine
 10
264.0000000000000
 20
37.00000000000000
 30
0.0000000000000000
 11
264.0000000000000
 21
23.00000000000000
 31
0.0000000000000000
  0
LINE
  5
5DA
100
AcDbEntity
  8
WAKU0
  6
CONTINUOUS
 62
3
100
AcDbLine
 10
300.0000000000000
 20
26.00000000000000
 30
0.0000000000000000
 11
300.0000000000000
 21
23.00000000000000
 31
0.0000000000000000
  0
LINE
  5
5DB
100
AcDbEntity
  8
WAKU0
  6
CONTINUOUS
 62
3
100
AcDbLine
 10
276.0000000000000
 20
26.00000000000000
 30
0.0000000000000000
 11
276.0000000000000
 21
23.00000000000000
 31
0.0000000000000000
  0
LINE
  5
5DC
100
AcDbEntity
  8
WAKU0
  6
CONTINUOUS
 62
3
100
AcDbLine
 10
252.0000000000000
 20
26.00000000000000
 30
0.0000000000000000
 11
252.0000000000000
 21
23.00000000000000
 31
0.0000000000000000
  0
LINE
  5
5DD
100
AcDbEntity
  8
WAKU0
  6
CONTINUOUS
 62
3
100
AcDbLine
 10
258.0000000000000
 20
51.00000000000000
 30
0.0000000000000000
 11
258.0000000000000
 21
37.00000000000000
 31
0.0000000000000000
  0
LINE
  5
5DE
100
AcDbEntity
  8
WAKU0
  6
CONTINUOUS
 62
3
100
AcDbLine
 10
240.0000000000000
 20
45.00000000000000
 30
0.0000000000000000
 11
312.0000000000000
 21
45.00000000000000
 31
0.0000000000000000
  0
LINE
  5
5DF
100
AcDbEntity
  8
WAKU0
  6
HIDDEN
 62
3
100
AcDbLine
 10
360.5000000000000
 20
23.00000000000000
 30
0.0000000000000000
 11
360.5000000000000
 21
12.00000000000000
 31
0.0000000000000000
  0
LINE
  5
5E0
100
AcDbEntity
  8
WAKU0
  6
HIDDEN
 62
3
100
AcDbLine
 10
372.9000000000000
 20
23.00000000000000
 30
0.0000000000000000
 11
372.9000000000000
 21
12.00000000000000
 31
0.0000000000000000
  0
MTEXT
  5
5E1
100
AcDbEntity
  8
WAKU0
  6
CONTINUOUS
 62
3
100
AcDbMText
 10
344.4820000243485
 20
49.04999995231628
 30
0.0000000000000000
 40
3.099999904632568
 41
0.0000000000000000
 71
     1
 72
     1
  1
{\H0.92x;{MSR142A}}
 11
1.000000000000000
 21
0.0000000000000000
 31
0.0000000000000000
  7
STANDARD
  0
MTEXT
  5
5E2
100
AcDbEntity
  8
WAKU0
  6
CONTINUOUS
 62
3
100
AcDbMText
 10
351.0499999858439
 20
42.04999995231628
 30
0.0000000000000000
 40
3.099999904632568
 41
0.0000000000000000
 71
     1
 72
     1
  1
{\H0.70x;{テールスピンドル　ＴＡＩＬＳＰＩＮＤＬＥ}}
 11
1.000000000000000
 21
0.0000000000000000
 31
0.0000000000000000
  7
KNJYOKO
  0
MTEXT
  5
5E3
100
AcDbEntity
  8
WAKU0
  6
CONTINUOUS
 62
3
100
AcDbMText
 10
356.3099995255470
 20
34.23333326975504
 30
0.0000000000000000
 40
3.099999904632568
 41
0.0000000000000000
 71
     1
 72
     1
  1
{\H0.94x;{ＭＳＲ１４２Ａ　ガイケイ\PＯＵＴＳＩＤＥ　ＶＩＥＷ}}
 11
1.000000000000000
 21
0.0000000000000000
 31
0.0000000000000000
  7
KNJYOKO
  0
MTEXT
  5
5E4
100
AcDbEntity
  8
WAKU0
  6
CONTINUOUS
 62
3
100
AcDbMText
 10
318.0049998760223
 20
39.29999995231628
 30
0.0000000000000000
 40
3.099999904632568
 41
0.0000000000000000
 71
     1
 72
     1
  1
{\H0.90x;{1:2}}
 11
1.000000000000000
 21
0.0000000000000000
 31
0.0000000000000000
  7
STANDARD
  0
MTEXT
  5
5E5
100
AcDbEntity
  8
WAKU0
  6
CONTINUOUS
 62
3
100
AcDbMText
 10
374.4000001549721
 20
20.15000009536743
 30
0.0000000000000000
 40
5.300000190734863
 41
0.0000000000000000
 71
     1
 72
     1
  1
{\H0.90x;{2118}}
 11
1.000000000000000
 21
0.0000000000000000
 31
0.0000000000000000
  7
STANDARD
  0
MTEXT
  5
5E6
100
AcDbEntity
  8
WAKU0
  6
CONTINUOUS
 62
3
100
AcDbMText
 10
362.3000000834465
 20
20.15000009536743
 30
0.0000000000000000
 40
5.300000190734863
 41
0.0000000000000000
 71
     1
 72
     1
  1
{\H0.87x;{81}}
 11
1.000000000000000
 21
0.0000000000000000
 31
0.0000000000000000
  7
STANDARD
  0
MTEXT
  5
5E7
100
AcDbEntity
  8
WAKU0
  6
CONTINUOUS
 62
3
100
AcDbMText
 10
345.5000001192093
 20
20.15000009536743
 30
0.0000000000000000
 40
5.300000190734863
 41
0.0000000000000000
 71
     1
 72
     1
  1
{\H0.89x;{61E}}
 11
1.000000000000000
 21
0.0000000000000000
 31
0.0000000000000000
  7
STANDARD
  0
MTEXT
  5
5E8
100
AcDbEntity
  8
WAKU0
  6
CONTINUOUS
 62
3
100
AcDbMText
 10
400.0000000476837
 20
20.15000009536743
 30
0.0000000000000000
 40
5.300000190734863
 41
0.0000000000000000
 71
     1
 72
     1
  1
{\H0.81x;{0}}
 11
1.000000000000000
 21
0.0000000000000000
 31
0.0000000000000000
  7
STANDARD
  0
MTEXT
  5
5E9
100
AcDbEntity
  8
WAKU0
  6
CONTINUOUS
 62
3
100
AcDbMText
 10
400.0000000819564
 20
44.84999990463257
 30
0.0000000000000000
 40
5.300000190734863
 41
0.0000000000000000
 71
     7
 72
     1
  1
{\H0.81x;{ }}
 11
1.000000000000000
 21
0.0000000000000000
 31
0.0000000000000000
  7
STANDARD
  0
MTEXT
  5
5EA
100
AcDbEntity
  8
WAKU0
  6
CONTINUOUS
 62
3
100
AcDbMText
 10
289.3850002884865
 20
33.00000000000000
 30
0.0000000000000000
 40
3.000000000000000
 41
0.0000000000000000
 71
     7
 72
     1
  1
{\H0.93x;{DRAWN BY}}
 11
1.000000000000000
 21
0.0000000000000000
 31
0.0000000000000000
  7
STANDARD
  0
MTEXT
  5
5EB
100
AcDbEntity
  8
WAKU0
  6
CONTINUOUS
 62
3
100
AcDbMText
 10
269.2149997949600
 20
32.95000004768372
 30
0.0000000000000000
 40
3.099999904632568
 41
0.0000000000000000
 71
     7
 72
     1
  1
{\H0.92x;{CHIEF}}
 11
1.000000000000000
 21
0.0000000000000000
 31
0.0000000000000000
  7
STANDARD
  0
MTEXT
  5
5EC
100
AcDbEntity
  8
WAKU0
  6
CONTINUOUS
 62
3
100
AcDbMText
 10
242.4249997138977
 20
32.95000004768372
 30
0.0000000000000000
 40
3.099999904632568
 41
0.0000000000000000
 71
     7
 72
     1
  1
{\H0.92x;{MANAGER}}
 11
1.000000000000000
 21
0.0000000000000000
 31
0.0000000000000000
  7
STANDARD
  0
MTEXT
  5
5ED
100
AcDbEntity
  8
WAKU0
  6
CONTINUOUS
 62
3
100
AcDbMText
 10
244.6599994301796
 20
18.13333336512248
 30
0.0000000000000000
 40
3.099999904632568
 41
0.0000000000000000
 71
     7
 72
     1
  1
{\H0.93x;{KITAGAWA IRON\PWORKS CO.,LTD.}}
 11
1.000000000000000
 21
0.0000000000000000
 31
0.0000000000000000
  7
STANDARD
  0
MTEXT
  5
5EE
100
AcDbEntity
  8
WAKU0
  6
CONTINUOUS
 62
3
100
AcDbMText
 10
241.0850002169609
 20
46.50000000000000
 30
0.0000000000000000
 40
3.000000000000000
 41
0.0000000000000000
 71
     7
 72
     1
  1
{\H0.92x;{CAREER}}
 11
1.000000000000000
 21
0.0000000000000000
 31
0.0000000000000000
  7
STANDARD
  0
MTEXT
  5
5EF
100
AcDbEntity
  8
WAKU0
  6
CONTINUOUS
 62
3
100
AcDbMText
 10
294.6099998354912
 20
18.95000004768372
 30
0.0000000000000000
 40
3.099999904632568
 41
0.0000000000000000
 71
     7
 72
     1
  1
{\H0.91x;{DATE}}
 11
1.000000000000000
 21
0.0000000000000000
 31
0.0000000000000000
  7
STANDARD
  0
MTEXT
  5
5F0
100
AcDbEntity
  8
WAKU0
  6
CONTINUOUS
 62
3
100
AcDbMText
 10
313.9000002145767
 20
26.50000000000000
 30
0.0000000000000000
 40
3.000000000000000
 41
0.0000000000000000
 71
     7
 72
     1
  1
{\H0.63x;{3RD ANGLE}}
 11
1.000000000000000
 21
0.0000000000000000
 31
0.0000000000000000
  7
STANDARD
  0
MTEXT
  5
5F1
100
AcDbEntity
  8
WAKU0
  6
CONTINUOUS
 62
3
100
AcDbMText
 10
315.2149997949600
 20
45.95000004768372
 30
0.0000000000000000
 40
3.099999904632568
 41
0.0000000000000000
 71
     7
 72
     1
  1
{\H0.92x;{SCALE}}
 11
1.000000000000000
 21
0.0000000000000000
 31
0.0000000000000000
  7
STANDARD
  0
MTEXT
  5
5F2
100
AcDbEntity
  8
WAKU0
  6
CONTINUOUS
 62
3
100
AcDbMText
 10
405.7000000476837
 20
46.00000000000000
 30
0.0000000000000000
 40
3.000000000000000
 41
0.0000000000000000
 71
     7
 72
     1
  1
{\H0.63x;{kg}}
 11
1.000000000000000
 21
0.0000000000000000
 31
0.0000000000000000
  7
STANDARD
  0
MTEXT
  5
5F3
100
AcDbEntity
  8
WAKU0
  6
CONTINUOUS
 62
3
100
AcDbMText
 10
375.6000001430512
 20
46.00000000000000
 30
0.0000000000000000
 40
3.000000000000000
 41
0.0000000000000000
 71
     7
 72
     1
  1
{\H0.63x;{WEIGHT}}
 11
1.000000000000000
 21
0.0000000000000000
 31
0.0000000000000000
  7
STANDARD
  0
MTEXT
  5
5F4
100
AcDbEntity
  8
WAKU0
  6
CONTINUOUS
 62
3
100
AcDbMText
 10
334.0049998760223
 20
18.13333336512248
 30
0.0000000000000000
 40
3.099999904632568
 41
0.0000000000000000
 71
     7
 72
     1
  1
{\H0.90x;{DRW\PNO.}}
 11
1.000000000000000
 21
0.0000000000000000
 31
0.0000000000000000
  7
STANDARD
  0
MTEXT
  5
5F5
100
AcDbEntity
  8
WAKU0
  6
CONTINUOUS
 62
3
100
AcDbMText
 10
332.6099998354912
 20
31.95000004768372
 30
0.0000000000000000
 40
3.099999904632568
 41
0.0000000000000000
 71
     7
 72
     1
  1
{\H0.91x;{NAME}}
 11
1.000000000000000
 21
0.0000000000000000
 31
0.0000000000000000
  7
STANDARD
  0
MTEXT
  5
5F6
100
AcDbEntity
  8
WAKU0
  6
CONTINUOUS
 62
3
100
AcDbMText
 10
332.6099998354912
 20
45.95000004768372
 30
0.0000000000000000
 40
3.099999904632568
 41
0.0000000000000000
 71
     7
 72
     1
  1
{\H0.91x;{TYPE}}
 11
1.000000000000000
 21
0.0000000000000000
 31
0.0000000000000000
  7
STANDARD
  0
LINE
  5
5F7
100
AcDbEntity
  8
WAKU0
  6
HIDDEN
 62
3
100
AcDbLine
 10
407.1599564743885
 20
13.84999990463257
 30
0.0000000000000000
 11
396.9400436209789
 21
13.84999990463257
 31
0.0000000000000000
  0
LINE
  5
5F8
100
AcDbEntity
  8
WAKU0
  6
HIDDEN
 62
3
100
AcDbLine
 10
407.1599564743885
 20
13.84999990463250
 30
0.0000000000000000
 11
402.0500000476852
 21
22.70070406014901
 31
0.0000000000000000
  0
LINE
  5
5F9
100
AcDbEntity
  8
WAKU0
  6
HIDDEN
 62
3
100
AcDbLine
 10
402.0500000476852
 20
22.70070406014902
 30
0.0000000000000000
 11
396.9400436209789
 21
13.84999990463248
 31
0.0000000000000000
  0
LINE
  5
5FA
100
AcDbEntity
  8
WAKU0
  6
CONTINUOUS
 62
3
100
AcDbLine
 10
330.4713877753800
 20
15.78041421262812
 30
0.0000000000000000
 11
330.4713877753800
 21
21.78041421262815
 31
0.0000000000000000
  0
LINE
  5
5FB
100
AcDbEntity
  8
WAKU0
  6
CONTINUOUS
 62
3
100
AcDbLine
 10
323.9336941228225
 20
17.28041421262811
 30
0.0000000000000000
 11
323.9336941228225
 21
20.28041421262824
 31
0.0000000000000000
  0
LINE
  5
5FC
100
AcDbEntity
  8
WAKU0
  6
CENTER
 62
12
100
AcDbLine
 10
313.4321805514995
 20
18.78041421262813
 30
0.0000000000000000
 11
331.2765788964694
 21
18.78041421262813
 31
0.0000000000000000
  0
LINE
  5
5FD
100
AcDbEntity
  8
WAKU0
  6
CENTER
 62
12
100
AcDbLine
 10
317.4474565857986
 20
14.55921662918448
 30
0.0000000000000000
 11
317.4474565857986
 21
22.89865102149943
 31
0.0000000000000000
  0
LINE
  5
5FE
100
AcDbEntity
  8
WAKU0
  6
CONTINUOUS
 62
3
100
AcDbLine
 10
323.9336941228225
 20
20.28041421262797
 30
0.0000000000000000
 11
330.4713877753800
 21
21.78041421262795
 31
0.0000000000000000
  0
LINE
  5
5FF
100
AcDbEntity
  8
WAKU0
  6
CONTINUOUS
 62
3
100
AcDbLine
 10
323.9336941228225
 20
17.28041421262811
 30
0.0000000000000000
 11
330.4713877753799
 21
15.78041421262812
 31
0.0000000000000000
  0
CIRCLE
  5
600
100
AcDbEntity
  8
WAKU0
  6
CONTINUOUS
 62
3
100
AcDbCircle
 10
317.4474565857986
 20
18.78041421262813
 30
0.0000000000000000
 40
1.499999999999972
  0
CIRCLE
  5
601
100
AcDbEntity
  8
WAKU0
  6
CONTINUOUS
 62
3
100
AcDbCircle
 10
317.4474565857986
 20
18.78041421262813
 30
0.0000000000000000
 40
2.999999999999979
  0
ENDSEC
  0
SECTION
  2
OBJECTS
  0
DICTIONARY
  5
662
100
AcDbDictionary
  3
ACAD_GROUP
350
663
  3
ACAD_MLINESTYLE
350
664
  0
DICTIONARY
  5
663
102
{ACAD_REACTORS
330
662
102
}
100
AcDbDictionary
  0
DICTIONARY
  5
664
102
{ACAD_REACTORS
330
662
102
}
100
AcDbDictionary
  3
STANDARD
350
665
  0
MLINESTYLE
  5
665
102
{ACAD_REACTORS
330
664
102
}
100
AcDbMlineStyle
  2
STANDARD
 70
     0
  3

 62
   256
 51
90.00
 52
90.00
 71
     2
 49
0.50
 62
   256
  6
BYLAYER
 49
-0.50
 62
   256
  6
BYLAYER
  0
ENDSEC
  0
EOF
