  0
SECTION
  2
HEADER
  9
$ACADVER
  1
AC1021
  9
$DWGCODEPAGE
  3
ANSI_932
  9
$TITLE
  1
ＭＶ１２５　ガイケイ
  9
$COMMENTS
  1
パワーバイス
  9
$LTSCALE
 40
20.0
  9
$FILLMODE
 70
     1
  9
$CLAYER
  8
0
  9
$PDMODE
 70
     0
  9
$SPLFRAME
 70
     0
  9
$SPLINETYPE
 70
     6
  9
$SPLINESEGS
 70
     8
  9
$DIMASZ
 40
2.000000
  9
$DIMEXE
 40
2.000000
  9
$DIMEXO
 40
0.800000
  9
$DIMTAD
 70
     1
  9
$DIMTIH
 70
     0
  9
$DIMTOH
 70
     0
  9
$DIMTVP
 40
0.500000
  9
$DIMTXT
 40
3.100000
  9
$EXTMIN
 10
0.000000
 20
0.000000
 30
0.000000
  9
$EXTMAX
 10
420.000000
 20
594.000000
 30
0.000000
  9
$MEASUREMENT
 70
  1
  9
$LIMMIN
 10
0.000000
 20
0.000000
  9
$LIMMAX
 10
420.000000
 20
594.000000
  9
$HANDSEED
  5
56E
  9
$LWDISPLAY
290
     0
  9
$DIMBLK
  1
_OPEN
  9
$DIMDEC
 70
     3
  9
$DIMADEC
 70
     4
  9
$DIMAUNIT
 70
     1
  9
$DIMZIN
 70
     8
  9
$DIMAZIN
 70
     2
  9
$DIMTOFL
 70
     1
  0
ENDSEC
  0
SECTION
  2
CLASSES
  0
ENDSEC
  0
SECTION
  2
TABLES
  0
TABLE
  2
VPORT
  5
50E
100
AcDbSymbolTable
 70
     1
  0
VPORT
  5
50F
100
AcDbSymbolTableRecord
100
AcDbViewportTableRecord
  2
*ACTIVE
 70
     0
 12
161.879810
 22
426.857891
 40
829.715781
 41
1.310990
  0
ENDTAB
  0
TABLE
  2
LTYPE
  5
510
100
AcDbSymbolTable
 70
     4
  0
LTYPE
  5
511
100
AcDbSymbolTableRecord
100
AcDbLinetypeTableRecord
  2
BYBLOCK
 70
     0
  3

 72
    65
 73
     0
 40
0.0
  0
LTYPE
  5
512
100
AcDbSymbolTableRecord
100
AcDbLinetypeTableRecord
  2
BYLAYER
 70
     0
  3

 72
    65
 73
     0
 40
0.0
  0
LTYPE
  5
513
100
AcDbSymbolTableRecord
100
AcDbLinetypeTableRecord
  2
CONTINUOUS
 70
     0
  3
Solid line (NEC CAE2D for Win R14.2 : 2024.04.19)
 72
    65
 73
     0
 40
0.0
  0
LTYPE
  5
514
100
AcDbSymbolTableRecord
100
AcDbLinetypeTableRecord
  2
HIDDEN
 70
     0
  3
__ __ __ __ __ __ __ __ __ __ __ __ __ __
 72
    65
 73
     2
 40
0.375
 49
0.25
 74
     0
 49
-0.125
 74
     0
  0
LTYPE
  5
515
100
AcDbSymbolTableRecord
100
AcDbLinetypeTableRecord
  2
CENTER
 70
     0
  3
____ _ ____ _ ____ _ ____ _ ____ _ ____
 72
    65
 73
     4
 40
2.0
 49
1.25
 74
     0
 49
-0.25
 74
     0
 49
0.25
 74
     0
 49
-0.25
 74
     0
  0
LTYPE
  5
516
100
AcDbSymbolTableRecord
100
AcDbLinetypeTableRecord
  2
PHANTOM
 70
     0
  3
______  __  __  ______  __  __  ______ 
 72
    65
 73
     6
 40
2.5
 49
1.25
 74
     0
 49
-0.25
 74
     0
 49
0.25
 74
     0
 49
-0.25
 74
     0
 49
0.25
 74
     0
 49
-0.25
 74
     0
  0
ENDTAB
  0
TABLE
  2
LAYER
  5
517
100
AcDbSymbolTable
 70
    14
  0
LAYER
  5
518
100
AcDbSymbolTableRecord
100
AcDbLayerTableRecord
  2
0
 70
     0
 62
     7
  6
CONTINUOUS
370
    -3
390

  0
LAYER
  5
519
100
AcDbSymbolTableRecord
100
AcDbLayerTableRecord
  2
MAIN0
 70
     0
 62
     7
  6
CONTINUOUS
370
    -3
390

  0
LAYER
  5
51A
100
AcDbSymbolTableRecord
100
AcDbLayerTableRecord
  2
MAIN1
 70
     0
 62
     7
  6
CONTINUOUS
370
    -3
390

  0
LAYER
  5
51B
100
AcDbSymbolTableRecord
100
AcDbLayerTableRecord
  2
MAIN2
 70
     0
 62
     5
  6
CONTINUOUS
370
    -3
390

  0
LAYER
  5
51C
100
AcDbSymbolTableRecord
100
AcDbLayerTableRecord
  2
MAIN3
 70
     0
 62
    14
  6
CONTINUOUS
370
    -3
390

  0
LAYER
  5
51D
100
AcDbSymbolTableRecord
100
AcDbLayerTableRecord
  2
MAIN4
 70
     0
 62
     9
  6
CONTINUOUS
370
    -3
390

  0
LAYER
  5
51E
100
AcDbSymbolTableRecord
100
AcDbLayerTableRecord
  2
MAIN5
 70
     0
 62
     9
  6
CONTINUOUS
370
    -3
390

  0
LAYER
  5
51F
100
AcDbSymbolTableRecord
100
AcDbLayerTableRecord
  2
MAIN6
 70
     0
 62
    10
  6
CONTINUOUS
370
    -3
390

  0
LAYER
  5
520
100
AcDbSymbolTableRecord
100
AcDbLayerTableRecord
  2
MAIN7
 70
     0
 62
     7
  6
CONTINUOUS
370
    -3
390

  0
LAYER
  5
521
100
AcDbSymbolTableRecord
100
AcDbLayerTableRecord
  2
MAIN8
 70
     0
 62
    12
  6
CONTINUOUS
370
    -3
390

  0
LAYER
  5
522
100
AcDbSymbolTableRecord
100
AcDbLayerTableRecord
  2
MAIN9
 70
     0
 62
     8
  6
CONTINUOUS
370
    -3
390

  0
LAYER
  5
523
100
AcDbSymbolTableRecord
100
AcDbLayerTableRecord
  2
MAIN1023
 70
     0
 62
    16
  6
CONTINUOUS
370
    -3
390

  0
LAYER
  5
524
100
AcDbSymbolTableRecord
100
AcDbLayerTableRecord
  2
WAKU0
 70
     0
 62
     7
  6
CONTINUOUS
370
    -3
390

  0
LAYER
  5
525
100
AcDbSymbolTableRecord
100
AcDbLayerTableRecord
  2
WAKU1023
 70
     0
 62
    16
  6
CONTINUOUS
370
    -3
390

  0
ENDTAB
  0
TABLE
  2
STYLE
  5
526
100
AcDbSymbolTable
 70
     4
  0
STYLE
  5
527
100
AcDbSymbolTableRecord
100
AcDbTextStyleTableRecord
  2
STANDARD
 70
    64
 40
0.0
 41
1.0
 50
0.0
 71
     0
 42
3.099999904632568
  3
TXT
  4

  0
STYLE
  5
528
100
AcDbSymbolTableRecord
100
AcDbTextStyleTableRecord
  2
ANKTATE
 70
    68
 40
0.0
 41
1.0
 50
0.0
 71
     0
 42
3.099999904632568
  3
TXT
  4

  0
STYLE
  5
1B6
100
AcDbSymbolTableRecord
100
AcDbTextStyleTableRecord
  2
KNJYOKO
 70
    64
 40
0.0
 41
1.0
 50
0.0
 71
     0
 42
3.099999904632568
  3
TXT
  4
BIGFONT
  0
STYLE
  5
529
100
AcDbSymbolTableRecord
100
AcDbTextStyleTableRecord
  2
KNJTATE
 70
    68
 40
0.0
 41
1.0
 50
0.0
 71
     0
 42
3.099999904632568
  3
TXT
  4
BIGFONT
  0
ENDTAB
  0
TABLE
  2
VIEW
  5
52A
100
AcDbSymbolTable
 70
     0
  0
ENDTAB
  0
TABLE
  2
UCS
  5
52B
100
AcDbSymbolTable
 70
     0
  0
ENDTAB
  0
TABLE
  2
APPID
  5
52C
100
AcDbSymbolTable
 70
     1
  0
APPID
  5
52D
100
AcDbSymbolTableRecord
100
AcDbRegAppTableRecord
  2
ACAD
 70
     0
  0
ENDTAB
  0
TABLE
  2
DIMSTYLE
  5
52E
100
AcDbSymbolTable
 70
     3
100
AcDbDimStyleTable
  0
DIMSTYLE
105
52F
100
AcDbSymbolTableRecord
100
AcDbDimStyleTableRecord
  2
STANDARD
 70
     0
 41
2.000000
 44
2.000000
 42
0.800000
145
0.661290
140
3.100000
144
1.000000
146
0.903226
340
527
  0
DIMSTYLE
105
530
100
AcDbSymbolTableRecord
100
AcDbDimStyleTableRecord
  2
MAIN001
 70
     0
 41
2.000000
 44
2.000000
 42
0.800000
145
0.661290
140
3.100000
144
1.000000
146
0.903226
 77
     1
 73
     0
 74
     0
271
     3
179
     4
275
     1
 78
     8
 79
     2
172
     1
340
527
  0
DIMSTYLE
105
531
100
AcDbSymbolTableRecord
100
AcDbDimStyleTableRecord
  2
WAKU002
 70
     0
 41
2.000000
 44
2.000000
 42
0.800000
145
0.661290
140
3.100000
144
1.000000
146
0.903226
 77
     1
 73
     0
 74
     0
271
     3
179
     4
275
     1
 78
     8
 79
     2
172
     1
340
527
  0
ENDTAB
  0
TABLE
  2
BLOCK_RECORD
  5
532
100
AcDbSymbolTable
 70
    54
  0
BLOCK_RECORD
  5
533
100
AcDbSymbolTableRecord
100
AcDbBlockTableRecord
  2
*MODEL_SPACE
  0
BLOCK_RECORD
  5
534
100
AcDbSymbolTableRecord
100
AcDbBlockTableRecord
  2
*PAPER_SPACE
  0
BLOCK_RECORD
  5
535
100
AcDbSymbolTableRecord
100
AcDbBlockTableRecord
  2
*PAPER_SPACE0
  0
BLOCK_RECORD
  5
1
100
AcDbSymbolTableRecord
100
AcDbBlockTableRecord
  2
_NONE
  0
BLOCK_RECORD
  5
4
100
AcDbSymbolTableRecord
100
AcDbBlockTableRecord
  2
_CLOSED
  0
BLOCK_RECORD
  5
B
100
AcDbSymbolTableRecord
100
AcDbBlockTableRecord
  2
_DOT
  0
BLOCK_RECORD
  5
13
100
AcDbSymbolTableRecord
100
AcDbBlockTableRecord
  2
_OPEN
  0
BLOCK_RECORD
  5
19
100
AcDbSymbolTableRecord
100
AcDbBlockTableRecord
  2
_ORIGIN
  0
BLOCK_RECORD
  5
1E
100
AcDbSymbolTableRecord
100
AcDbBlockTableRecord
  2
_OPEN30
  0
BLOCK_RECORD
  5
24
100
AcDbSymbolTableRecord
100
AcDbBlockTableRecord
  2
_BOXFILLED
  0
BLOCK_RECORD
  5
29
100
AcDbSymbolTableRecord
100
AcDbBlockTableRecord
  2
_BOXBLANK
  0
BLOCK_RECORD
  5
31
100
AcDbSymbolTableRecord
100
AcDbBlockTableRecord
  2
_OBLIQUE
  0
BLOCK_RECORD
  5
35
100
AcDbSymbolTableRecord
100
AcDbBlockTableRecord
  2
_OPEN90
  0
BLOCK_RECORD
  5
3B
100
AcDbSymbolTableRecord
100
AcDbBlockTableRecord
  2
_CLOSEDBLANK
  0
BLOCK_RECORD
  5
41
100
AcDbSymbolTableRecord
100
AcDbBlockTableRecord
  2
_DOTBLANK
  0
BLOCK_RECORD
  5
536
100
AcDbSymbolTableRecord
100
AcDbBlockTableRecord
  2
*D0
  0
BLOCK_RECORD
  5
537
100
AcDbSymbolTableRecord
100
AcDbBlockTableRecord
  2
D1
  0
BLOCK_RECORD
  5
538
100
AcDbSymbolTableRecord
100
AcDbBlockTableRecord
  2
*D2
  0
BLOCK_RECORD
  5
539
100
AcDbSymbolTableRecord
100
AcDbBlockTableRecord
  2
D3
  0
BLOCK_RECORD
  5
53A
100
AcDbSymbolTableRecord
100
AcDbBlockTableRecord
  2
*D4
  0
BLOCK_RECORD
  5
53B
100
AcDbSymbolTableRecord
100
AcDbBlockTableRecord
  2
*D5
  0
BLOCK_RECORD
  5
53C
100
AcDbSymbolTableRecord
100
AcDbBlockTableRecord
  2
*D6
  0
BLOCK_RECORD
  5
53D
100
AcDbSymbolTableRecord
100
AcDbBlockTableRecord
  2
*D7
  0
BLOCK_RECORD
  5
53E
100
AcDbSymbolTableRecord
100
AcDbBlockTableRecord
  2
*D8
  0
BLOCK_RECORD
  5
53F
100
AcDbSymbolTableRecord
100
AcDbBlockTableRecord
  2
*D9
  0
BLOCK_RECORD
  5
540
100
AcDbSymbolTableRecord
100
AcDbBlockTableRecord
  2
*D10
  0
BLOCK_RECORD
  5
541
100
AcDbSymbolTableRecord
100
AcDbBlockTableRecord
  2
*D11
  0
BLOCK_RECORD
  5
542
100
AcDbSymbolTableRecord
100
AcDbBlockTableRecord
  2
*D12
  0
BLOCK_RECORD
  5
543
100
AcDbSymbolTableRecord
100
AcDbBlockTableRecord
  2
*D13
  0
BLOCK_RECORD
  5
544
100
AcDbSymbolTableRecord
100
AcDbBlockTableRecord
  2
*D14
  0
BLOCK_RECORD
  5
545
100
AcDbSymbolTableRecord
100
AcDbBlockTableRecord
  2
*D15
  0
BLOCK_RECORD
  5
546
100
AcDbSymbolTableRecord
100
AcDbBlockTableRecord
  2
*D16
  0
BLOCK_RECORD
  5
547
100
AcDbSymbolTableRecord
100
AcDbBlockTableRecord
  2
*D17
  0
BLOCK_RECORD
  5
548
100
AcDbSymbolTableRecord
100
AcDbBlockTableRecord
  2
*D18
  0
BLOCK_RECORD
  5
549
100
AcDbSymbolTableRecord
100
AcDbBlockTableRecord
  2
*D19
  0
BLOCK_RECORD
  5
54A
100
AcDbSymbolTableRecord
100
AcDbBlockTableRecord
  2
*D20
  0
BLOCK_RECORD
  5
54B
100
AcDbSymbolTableRecord
100
AcDbBlockTableRecord
  2
*D21
  0
BLOCK_RECORD
  5
54C
100
AcDbSymbolTableRecord
100
AcDbBlockTableRecord
  2
*D22
  0
BLOCK_RECORD
  5
54D
100
AcDbSymbolTableRecord
100
AcDbBlockTableRecord
  2
*D23
  0
BLOCK_RECORD
  5
54E
100
AcDbSymbolTableRecord
100
AcDbBlockTableRecord
  2
*D24
  0
BLOCK_RECORD
  5
54F
100
AcDbSymbolTableRecord
100
AcDbBlockTableRecord
  2
*D25
  0
BLOCK_RECORD
  5
550
100
AcDbSymbolTableRecord
100
AcDbBlockTableRecord
  2
*D26
  0
BLOCK_RECORD
  5
551
100
AcDbSymbolTableRecord
100
AcDbBlockTableRecord
  2
*D27
  0
BLOCK_RECORD
  5
552
100
AcDbSymbolTableRecord
100
AcDbBlockTableRecord
  2
*D28
  0
BLOCK_RECORD
  5
553
100
AcDbSymbolTableRecord
100
AcDbBlockTableRecord
  2
*D29
  0
BLOCK_RECORD
  5
554
100
AcDbSymbolTableRecord
100
AcDbBlockTableRecord
  2
*D30
  0
BLOCK_RECORD
  5
555
100
AcDbSymbolTableRecord
100
AcDbBlockTableRecord
  2
*D31
  0
BLOCK_RECORD
  5
556
100
AcDbSymbolTableRecord
100
AcDbBlockTableRecord
  2
*D32
  0
BLOCK_RECORD
  5
557
100
AcDbSymbolTableRecord
100
AcDbBlockTableRecord
  2
*D33
  0
BLOCK_RECORD
  5
558
100
AcDbSymbolTableRecord
100
AcDbBlockTableRecord
  2
*D34
  0
BLOCK_RECORD
  5
559
100
AcDbSymbolTableRecord
100
AcDbBlockTableRecord
  2
*D35
  0
BLOCK_RECORD
  5
55A
100
AcDbSymbolTableRecord
100
AcDbBlockTableRecord
  2
*D36
  0
BLOCK_RECORD
  5
55B
100
AcDbSymbolTableRecord
100
AcDbBlockTableRecord
  2
*D37
  0
BLOCK_RECORD
  5
55C
100
AcDbSymbolTableRecord
100
AcDbBlockTableRecord
  2
*D38
  0
BLOCK_RECORD
  5
55D
100
AcDbSymbolTableRecord
100
AcDbBlockTableRecord
  2
*D39
  0
BLOCK_RECORD
  5
55E
100
AcDbSymbolTableRecord
100
AcDbBlockTableRecord
  2
*D40
  0
BLOCK_RECORD
  5
55F
100
AcDbSymbolTableRecord
100
AcDbBlockTableRecord
  2
M0
  0
ENDTAB
  0
ENDSEC
  0
SECTION
  2
BLOCKS
  0
BLOCK
  5
560
100
AcDbEntity
  8
0
100
AcDbBlockBegin
  2
*MODEL_SPACE
 70
     0
 10
0.0
 20
0.0
 30
0.0
  3
*MODEL_SPACE
  1

  0
ENDBLK
  5
561
100
AcDbEntity
  8
0
100
AcDbBlockEnd
  0
BLOCK
  5
562
100
AcDbEntity
  8
0
100
AcDbBlockBegin
  2
*PAPER_SPACE
 70
     0
 10
0.0
 20
0.0
 30
0.0
  3
*PAPER_SPACE
  1

  0
ENDBLK
  5
563
100
AcDbEntity
  8
0
100
AcDbBlockEnd
  0
BLOCK
  5
564
100
AcDbEntity
  8
0
100
AcDbBlockBegin
  2
*PAPER_SPACE0
 70
     0
 10
0.0
 20
0.0
 30
0.0
  3
*PAPER_SPACE0
  1

  0
ENDBLK
  5
565
100
AcDbEntity
  8
0
100
AcDbBlockEnd
  0
BLOCK
  5
2
330
1
100
AcDbEntity
  8
0
100
AcDbBlockBegin
  2
_NONE
 70
     0
 10
0.0
 20
0.0
 30
0.0
  3
_NONE
  1

  0
ENDBLK
  5
3
330
1
100
AcDbEntity
  8
0
100
AcDbBlockEnd
  0
BLOCK
  5
5
330
4
100
AcDbEntity
  8
0
100
AcDbBlockBegin
  2
_CLOSED
 70
     0
 10
0.0
 20
0.0
 30
0.0
  3
_CLOSED
  1

  0
LINE
  5
6
330
4
100
AcDbEntity
  8
0
  6
BYBLOCK
 62
     0
370
    -2
100
AcDbLine
 10
-1.0
 20
0.166667
 30
0.0
 11
0.0
 21
0.0
 31
0.0
  0
LINE
  5
7
330
4
100
AcDbEntity
  8
0
  6
BYBLOCK
 62
     0
370
    -2
100
AcDbLine
 10
0.0
 20
0.0
 30
0.0
 11
-1.0
 21
-0.166667
 31
0.0
  0
LINE
  5
8
330
4
100
AcDbEntity
  8
0
  6
BYBLOCK
 62
     0
370
    -2
100
AcDbLine
 10
-1.0
 20
0.166667
 30
0.0
 11
-1.0
 21
-0.166667
 31
0.0
  0
LINE
  5
9
330
4
100
AcDbEntity
  8
0
  6
BYBLOCK
 62
     0
370
    -2
100
AcDbLine
 10
0.0
 20
0.0
 30
0.0
 11
-1.0
 21
0.0
 31
0.0
  0
ENDBLK
  5
A
330
4
100
AcDbEntity
  8
0
100
AcDbBlockEnd
  0
BLOCK
  5
C
330
B
100
AcDbEntity
  8
0
100
AcDbBlockBegin
  2
_DOT
 70
     0
 10
0.0
 20
0.0
 30
0.0
  3
_DOT
  1

  0
POLYLINE
  5
D
330
B
100
AcDbEntity
  8
0
  6
BYBLOCK
 62
     0
370
    -2
100
AcDb2dPolyline
 66
     1
 10
0.0
 20
0.0
 30
0.0
 70
     1
 40
0.5
 41
0.5
  0
VERTEX
  5
E
330
B
100
AcDbEntity
  8
0
  6
BYBLOCK
 62
     0
370
    -2
100
AcDbVertex
100
AcDb2dVertex
 10
-0.25
 20
0.0
 30
0.0
 42
1.0
  0
VERTEX
  5
F
330
B
100
AcDbEntity
  8
0
  6
BYBLOCK
 62
     0
370
    -2
100
AcDbVertex
100
AcDb2dVertex
 10
0.25
 20
0.0
 30
0.0
 42
1.0
  0
SEQEND
  5
10
330
B
100
AcDbEntity
  8
0
  6
BYBLOCK
 62
     0
370
    -2
  0
LINE
  5
11
330
B
100
AcDbEntity
  8
0
  6
BYBLOCK
 62
     0
370
    -2
100
AcDbLine
 10
-0.5
 20
0.0
 30
0.0
 11
-1.0
 21
0.0
 31
0.0
  0
ENDBLK
  5
12
330
B
100
AcDbEntity
  8
0
100
AcDbBlockEnd
  0
BLOCK
  5
14
330
13
100
AcDbEntity
  8
0
100
AcDbBlockBegin
  2
_OPEN
 70
     0
 10
0.0
 20
0.0
 30
0.0
  3
_OPEN
  1

  0
LINE
  5
15
330
13
100
AcDbEntity
  8
0
  6
BYBLOCK
 62
     0
370
    -2
100
AcDbLine
 10
-1.0
 20
0.166667
 30
0.0
 11
0.0
 21
0.0
 31
0.0
  0
LINE
  5
16
330
13
100
AcDbEntity
  8
0
  6
BYBLOCK
 62
     0
370
    -2
100
AcDbLine
 10
0.0
 20
0.0
 30
0.0
 11
-1.0
 21
-0.166667
 31
0.0
  0
LINE
  5
17
330
13
100
AcDbEntity
  8
0
  6
BYBLOCK
 62
     0
370
    -2
100
AcDbLine
 10
0.0
 20
0.0
 30
0.0
 11
-1.0
 21
0.0
 31
0.0
  0
ENDBLK
  5
18
330
13
100
AcDbEntity
  8
0
100
AcDbBlockEnd
  0
BLOCK
  5
1A
330
19
100
AcDbEntity
  8
0
100
AcDbBlockBegin
  2
_ORIGIN
 70
     0
 10
0.0
 20
0.0
 30
0.0
  3
_ORIGIN
  1

  0
CIRCLE
  5
1B
330
19
100
AcDbEntity
  8
0
  6
BYBLOCK
 62
     0
370
    -2
100
AcDbCircle
 10
0.0
 20
0.0
 30
0.0
 40
0.5
  0
LINE
  5
1C
330
19
100
AcDbEntity
  8
0
  6
BYBLOCK
 62
     0
370
    -2
100
AcDbLine
 10
0.0
 20
0.0
 30
0.0
 11
-1.0
 21
0.0
 31
0.0
  0
ENDBLK
  5
1D
330
19
100
AcDbEntity
  8
0
100
AcDbBlockEnd
  0
BLOCK
  5
1F
330
1E
100
AcDbEntity
  8
0
100
AcDbBlockBegin
  2
_OPEN30
 70
     0
 10
0.0
 20
0.0
 30
0.0
  3
_OPEN30
  1

  0
LINE
  5
20
330
1E
100
AcDbEntity
  8
0
  6
BYBLOCK
 62
     0
370
    -2
100
AcDbLine
 10
-1.0
 20
0.267949
 30
0.0
 11
0.0
 21
0.0
 31
0.0
  0
LINE
  5
21
330
1E
100
AcDbEntity
  8
0
  6
BYBLOCK
 62
     0
370
    -2
100
AcDbLine
 10
0.0
 20
0.0
 30
0.0
 11
-1.0
 21
-0.267949
 31
0.0
  0
LINE
  5
22
330
1E
100
AcDbEntity
  8
0
  6
BYBLOCK
 62
     0
370
    -2
100
AcDbLine
 10
0.0
 20
0.0
 30
0.0
 11
-1.0
 21
0.0
 31
0.0
  0
ENDBLK
  5
23
330
1E
100
AcDbEntity
  8
0
100
AcDbBlockEnd
  0
BLOCK
  5
25
330
24
100
AcDbEntity
  8
0
100
AcDbBlockBegin
  2
_BOXFILLED
 70
     0
 10
0.0
 20
0.0
 30
0.0
  3
_BOXFILLED
  1

  0
SOLID
  5
26
330
24
100
AcDbEntity
  8
0
  6
BYBLOCK
 62
     0
370
    -2
100
AcDbTrace
 10
-0.5
 20
0.5
 30
0.0
 11
0.5
 21
0.5
 31
0.0
 12
-0.5
 22
-0.5
 32
0.0
 13
0.5
 23
-0.5
 33
0.0
  0
LINE
  5
27
330
24
100
AcDbEntity
  8
0
  6
BYBLOCK
 62
     0
370
    -2
100
AcDbLine
 10
-0.5
 20
0.0
 30
0.0
 11
-1.0
 21
0.0
 31
0.0
  0
ENDBLK
  5
28
330
24
100
AcDbEntity
  8
0
100
AcDbBlockEnd
  0
BLOCK
  5
2A
330
29
100
AcDbEntity
  8
0
100
AcDbBlockBegin
  2
_BOXBLANK
 70
     0
 10
0.0
 20
0.0
 30
0.0
  3
_BOXBLANK
  1

  0
LINE
  5
2B
330
29
100
AcDbEntity
  8
0
  6
BYBLOCK
 62
     0
370
    -2
100
AcDbLine
 10
-0.5
 20
-0.5
 30
0.0
 11
0.5
 21
-0.5
 31
0.0
  0
LINE
  5
2C
330
29
100
AcDbEntity
  8
0
  6
BYBLOCK
 62
     0
370
    -2
100
AcDbLine
 10
0.5
 20
-0.5
 30
0.0
 11
0.5
 21
0.5
 31
0.0
  0
LINE
  5
2D
330
29
100
AcDbEntity
  8
0
  6
BYBLOCK
 62
     0
370
    -2
100
AcDbLine
 10
0.5
 20
0.5
 30
0.0
 11
-0.5
 21
0.5
 31
0.0
  0
LINE
  5
2E
330
29
100
AcDbEntity
  8
0
  6
BYBLOCK
 62
     0
370
    -2
100
AcDbLine
 10
-0.5
 20
0.5
 30
0.0
 11
-0.5
 21
-0.5
 31
0.0
  0
LINE
  5
2F
330
29
100
AcDbEntity
  8
0
  6
BYBLOCK
 62
     0
370
    -2
100
AcDbLine
 10
-0.5
 20
0.0
 30
0.0
 11
-1.0
 21
0.0
 31
0.0
  0
ENDBLK
  5
30
330
29
100
AcDbEntity
  8
0
100
AcDbBlockEnd
  0
BLOCK
  5
32
330
31
100
AcDbEntity
  8
0
100
AcDbBlockBegin
  2
_OBLIQUE
 70
     0
 10
0.0
 20
0.0
 30
0.0
  3
_OBLIQUE
  1

  0
LINE
  5
33
330
31
100
AcDbEntity
  8
0
  6
BYBLOCK
 62
     0
370
    -2
100
AcDbLine
 10
-0.5
 20
-0.5
 30
0.0
 11
0.5
 21
0.5
 31
0.0
  0
ENDBLK
  5
34
330
31
100
AcDbEntity
  8
0
100
AcDbBlockEnd
  0
BLOCK
  5
36
330
35
100
AcDbEntity
  8
0
100
AcDbBlockBegin
  2
_OPEN90
 70
     0
 10
0.0
 20
0.0
 30
0.0
  3
_OPEN90
  1

  0
LINE
  5
37
330
35
100
AcDbEntity
  8
0
  6
BYBLOCK
 62
     0
370
    -2
100
AcDbLine
 10
-0.5
 20
0.5
 30
0.0
 11
0.0
 21
0.0
 31
0.0
  0
LINE
  5
38
330
35
100
AcDbEntity
  8
0
  6
BYBLOCK
 62
     0
370
    -2
100
AcDbLine
 10
0.0
 20
0.0
 30
0.0
 11
-0.5
 21
-0.5
 31
0.0
  0
LINE
  5
39
330
35
100
AcDbEntity
  8
0
  6
BYBLOCK
 62
     0
370
    -2
100
AcDbLine
 10
0.0
 20
0.0
 30
0.0
 11
-1.0
 21
0.0
 31
0.0
  0
ENDBLK
  5
3A
330
35
100
AcDbEntity
  8
0
100
AcDbBlockEnd
  0
BLOCK
  5
3C
330
3B
100
AcDbEntity
  8
0
100
AcDbBlockBegin
  2
_CLOSEDBLANK
 70
     0
 10
0.0
 20
0.0
 30
0.0
  3
_CLOSEDBLANK
  1

  0
LINE
  5
3D
330
3B
100
AcDbEntity
  8
0
  6
BYBLOCK
 62
     0
370
    -2
100
AcDbLine
 10
-1.0
 20
0.1666666666666666
 30
0.0
 11
0.0
 21
0.0
 31
0.0
  0
LINE
  5
3E
330
3B
100
AcDbEntity
  8
0
  6
BYBLOCK
 62
     0
370
    -2
100
AcDbLine
 10
0.0
 20
0.0
 30
0.0
 11
-1.0
 21
-0.1666666666666666
 31
0.0
  0
LINE
  5
3F
330
3B
100
AcDbEntity
  8
0
  6
BYBLOCK
 62
     0
370
    -2
100
AcDbLine
 10
-1.0
 20
0.1666666666666666
 30
0.0
 11
-1.0
 21
-0.1666666666666666
 31
0.0
  0
ENDBLK
  5
40
330
3B
100
AcDbEntity
  8
0
100
AcDbBlockEnd
  0
BLOCK
  5
42
330
41
100
AcDbEntity
  8
0
100
AcDbBlockBegin
  2
_DOTBLANK
 70
     0
 10
0.0
 20
0.0
 30
0.0
  3
_DOTBLANK
  1

  0
CIRCLE
  5
43
330
41
100
AcDbEntity
  8
0
  6
BYBLOCK
 62
     0
370
    -2
100
AcDbCircle
 10
0.0
 20
0.0
 30
0.0
 40
0.5
  0
LINE
  5
44
330
41
100
AcDbEntity
  8
0
  6
BYBLOCK
 62
     0
370
    -2
100
AcDbLine
 10
-0.5
 20
0.0
 30
0.0
 11
-1.0
 21
0.0
 31
0.0
  0
ENDBLK
  5
45
330
41
100
AcDbEntity
  8
0
100
AcDbBlockEnd
  0
BLOCK
  5
14F
100
AcDbEntity
  8
MAIN0
  6
CONTINUOUS
 62
3
100
AcDbBlockBegin
  2
*D0
 70
    65
 10
0.0
 20
0.0
 30
0.0
  0
LINE
  5
150
100
AcDbEntity
  8
MAIN0
  6
BYBLOCK
 62
0
370
    -2
100
AcDbLine
 10
-69.39079418215557
 20
575.1512169709986
 30
0.0000000000000000
 11
-69.39079418215557
 21
728.1203012955306
 31
0.0000000000000000
  0
LINE
  5
151
100
AcDbEntity
  8
MAIN0
  6
BYBLOCK
 62
0
370
    -2
100
AcDbLine
 10
-71.39079418215557
 20
726.1203012955306
 30
0.0000000000000000
 11
-167.3907941821556
 21
726.1203012955306
 31
0.0000000000000000
  0
INSERT
  5
152
100
AcDbEntity
  8
MAIN0
  6
BYBLOCK
 62
0
100
AcDbBlockReference
  2
_OPEN
 10
-69.39079418215557
 20
726.1203012955306
 30
0.0000000000000000
 41
2.000000000000000
 42
2.000000000000000
 43
2.000000000000000
 50
360.0000000000000
  0
INSERT
  5
153
100
AcDbEntity
  8
MAIN0
  6
BYBLOCK
 62
0
100
AcDbBlockReference
  2
_OPEN
 10
-169.3907941821556
 20
726.1203012955306
 30
0.0000000000000000
 41
2.000000000000000
 42
2.000000000000000
 43
2.000000000000000
 50
180.0000000000000
  0
LINE
  5
154
100
AcDbEntity
  8
MAIN0
  6
BYBLOCK
 62
0
370
    -2
100
AcDbLine
 10
-169.3907941821556
 20
661.0485352426431
 30
0.0000000000000000
 11
-169.3907941821556
 21
728.1203012955306
 31
0.0000000000000000
  0
MTEXT
  5
155
100
AcDbEntity
  8
MAIN0
  6
BYBLOCK
 62
0
100
AcDbMText
 10
-119.3907941821556
 20
728.1703012478469
 30
0.0000000000000000
 40
3.099999904632568
 41
0.0000000000000000
 44
0.7741935722041460
 71
     5
 72
     1
  1
\A1;100
 11
1.000000000000000
 21
0.0000000000000000
 31
0.0000000000000000
  7
STANDARD
  0
ENDBLK
  5
156
100
AcDbEntity
  8
MAIN0
  6
CONTINUOUS
 62
3
100
AcDbBlockEnd
  0
BLOCK
  5
158
100
AcDbEntity
  8
MAIN0
  6
CONTINUOUS
 62
3
100
AcDbBlockBegin
  2
D1
 70
    64
 10
0.0
 20
0.0
 30
0.0
  0
LINE
  5
159
100
AcDbEntity
  8
MAIN0
  6
BYBLOCK
 62
0
370
    -2
100
AcDbLine
 10
-18.31654195755849
 20
89.71863578103239
 30
0.0000000000000000
 11
250.0000000000000
 21
89.71863578103239
 31
0.0000000000000000
  0
LINE
  5
15A
100
AcDbEntity
  8
MAIN0
  6
BYBLOCK
 62
0
370
    -2
100
AcDbLine
 10
248.0000000000000
 20
90.31863580487425
 30
0.0000000000000000
 11
250.0000000000000
 21
89.71863578103239
 31
0.0000000000000000
  0
LINE
  5
15B
100
AcDbEntity
  8
MAIN0
  6
BYBLOCK
 62
0
370
    -2
100
AcDbLine
 10
250.0000000000000
 20
89.71863578103239
 30
0.0000000000000000
 11
248.0000000000000
 21
89.11863575719053
 31
0.0000000000000000
  0
LINE
  5
15C
100
AcDbEntity
  8
MAIN0
  6
BYBLOCK
 62
0
370
    -2
100
AcDbLine
 10
250.0000000000000
 20
-1.097318259723465
 30
0.0000000000000000
 11
250.0000000000000
 21
91.71863578103239
 31
0.0000000000000000
  0
MTEXT
  5
15D
100
AcDbEntity
  8
MAIN0
  6
BYBLOCK
 62
0
100
AcDbMText
 10
-1.466541948617788
 20
91.76863573334867
 30
0.0000000000000000
 40
3.099999904632568
 41
0.0000000000000000
 44
0.7741935722041460
 71
     5
 72
     1
  1
\A1;□500（パレット寸法）
 11
1.000000000000000
 21
0.0000000000000000
 31
0.0000000000000000
  7
KNJYOKO
  0
ENDBLK
  5
15E
100
AcDbEntity
  8
MAIN0
  6
CONTINUOUS
 62
3
100
AcDbBlockEnd
  0
BLOCK
  5
160
100
AcDbEntity
  8
MAIN0
  6
CONTINUOUS
 62
3
100
AcDbBlockBegin
  2
*D2
 70
    65
 10
0.0
 20
0.0
 30
0.0
  0
LINE
  5
161
100
AcDbEntity
  8
MAIN0
  6
BYBLOCK
 62
0
370
    -2
100
AcDbLine
 10
-89.39079418215556
 20
361.5512169471568
 30
0.0000000000000000
 11
-89.39079418215556
 21
224.8005438179549
 31
0.0000000000000000
  0
LINE
  5
162
100
AcDbEntity
  8
MAIN0
  6
BYBLOCK
 62
0
370
    -2
100
AcDbLine
 10
-91.39079418215556
 20
226.8005438179549
 30
0.0000000000000000
 11
-167.3907941821556
 21
226.8005438179549
 31
0.0000000000000000
  0
INSERT
  5
163
100
AcDbEntity
  8
MAIN0
  6
BYBLOCK
 62
0
100
AcDbBlockReference
  2
_OPEN
 10
-89.39079418215556
 20
226.8005438179549
 30
0.0000000000000000
 41
2.000000000000000
 42
2.000000000000000
 43
2.000000000000000
 50
360.0000000000000
  0
INSERT
  5
164
100
AcDbEntity
  8
MAIN0
  6
BYBLOCK
 62
0
100
AcDbBlockReference
  2
_OPEN
 10
-169.3907941821556
 20
226.8005438179549
 30
0.0000000000000000
 41
2.000000000000000
 42
2.000000000000000
 43
2.000000000000000
 50
180.0000000000000
  0
LINE
  5
165
100
AcDbEntity
  8
MAIN0
  6
BYBLOCK
 62
0
370
    -2
100
AcDbLine
 10
-169.3907941821556
 20
248.0062602248857
 30
0.0000000000000000
 11
-169.3907941821556
 21
224.8005438179549
 31
0.0000000000000000
  0
MTEXT
  5
166
100
AcDbEntity
  8
MAIN0
  6
BYBLOCK
 62
0
100
AcDbMText
 10
-129.3907941821556
 20
228.8505437702711
 30
0.0000000000000000
 40
3.099999904632568
 41
0.0000000000000000
 44
0.7741935722041460
 71
     5
 72
     1
  1
\A1;80
 11
1.000000000000000
 21
0.0000000000000000
 31
0.0000000000000000
  7
STANDARD
  0
ENDBLK
  5
167
100
AcDbEntity
  8
MAIN0
  6
CONTINUOUS
 62
3
100
AcDbBlockEnd
  0
BLOCK
  5
169
100
AcDbEntity
  8
MAIN0
  6
CONTINUOUS
 62
3
100
AcDbBlockBegin
  2
D3
 70
    64
 10
0.0
 20
0.0
 30
0.0
  0
LINE
  5
16A
100
AcDbEntity
  8
MAIN0
  6
BYBLOCK
 62
0
370
    -2
100
AcDbLine
 10
-19.03773305927109
 20
-58.93426499220999
 30
0.0000000000000000
 11
200.0000000000000
 21
-58.93426499221005
 31
0.0000000000000000
  0
LINE
  5
16B
100
AcDbEntity
  8
MAIN0
  6
BYBLOCK
 62
0
370
    -2
100
AcDbLine
 10
198.0000000000000
 20
-58.33426496836819
 30
0.0000000000000000
 11
200.0000000000000
 21
-58.93426499221005
 31
0.0000000000000000
  0
LINE
  5
16C
100
AcDbEntity
  8
MAIN0
  6
BYBLOCK
 62
0
370
    -2
100
AcDbLine
 10
200.0000000000000
 20
-58.93426499221005
 30
0.0000000000000000
 11
198.0000000000000
 21
-59.53426501605190
 31
0.0000000000000000
  0
LINE
  5
16D
100
AcDbEntity
  8
MAIN0
  6
BYBLOCK
 62
0
370
    -2
100
AcDbLine
 10
200.0000000000000
 20
58.74495671035021
 30
0.0000000000000000
 11
200.0000000000000
 21
-60.93426499221005
 31
0.0000000000000000
  0
MTEXT
  5
16E
100
AcDbEntity
  8
MAIN0
  6
BYBLOCK
 62
0
100
AcDbMText
 10
-2.187733050330394
 20
-56.88426503989371
 30
0.0000000000000000
 40
3.099999904632568
 41
0.0000000000000000
 44
0.7741935722041460
 71
     5
 72
     1
  1
\A1;□400（パレット寸法）
 11
1.000000000000000
 21
0.0000000000000000
 31
0.0000000000000000
  7
KNJYOKO
  0
ENDBLK
  5
16F
100
AcDbEntity
  8
MAIN0
  6
CONTINUOUS
 62
3
100
AcDbBlockEnd
  0
BLOCK
  5
171
100
AcDbEntity
  8
MAIN0
  6
CONTINUOUS
 62
3
100
AcDbBlockBegin
  2
*D4
 70
    65
 10
0.0
 20
0.0
 30
0.0
  0
LINE
  5
172
100
AcDbEntity
  8
MAIN0
  6
BYBLOCK
 62
0
370
    -2
100
AcDbLine
 10
20.90920582976537
 20
520.6012169590778
 30
0.0000000000000000
 11
102.5520290692005
 21
520.6012169590778
 31
0.0000000000000000
  0
LINE
  5
173
100
AcDbEntity
  8
MAIN0
  6
BYBLOCK
 62
0
370
    -2
100
AcDbLine
 10
100.5520290692005
 20
518.6012169590778
 30
0.0000000000000000
 11
100.5520290692005
 21
398.1012169590778
 31
0.0000000000000000
  0
INSERT
  5
174
100
AcDbEntity
  8
MAIN0
  6
BYBLOCK
 62
0
100
AcDbBlockReference
  2
_OPEN
 10
100.5520290692005
 20
520.6012169590778
 30
0.0000000000000000
 41
2.000000000000000
 42
2.000000000000000
 43
2.000000000000000
 50
90.00000000000000
  0
INSERT
  5
175
100
AcDbEntity
  8
MAIN0
  6
BYBLOCK
 62
0
100
AcDbBlockReference
  2
_OPEN
 10
100.5520290692005
 20
396.1012169590778
 30
0.0000000000000000
 41
2.000000000000000
 42
2.000000000000000
 43
2.000000000000000
 50
270.0000000000000
  0
LINE
  5
176
100
AcDbEntity
  8
MAIN0
  6
BYBLOCK
 62
0
370
    -2
100
AcDbLine
 10
20.90920582976537
 20
396.1012169590778
 30
0.0000000000000000
 11
102.5520290692005
 21
396.1012169590778
 31
0.0000000000000000
  0
MTEXT
  5
177
100
AcDbEntity
  8
MAIN0
  6
BYBLOCK
 62
0
100
AcDbMText
 10
98.00202911688422
 20
481.7833601291146
 30
0.0000000000000000
 40
3.099999904632568
 41
0.0000000000000000
 44
0.7741935722041460
 71
     5
 72
     1
  1
\A1;124.5
 11
6.123233995736766e-017
 21
1.000000000000000
 31
0.0000000000000000
  7
STANDARD
  0
ENDBLK
  5
178
100
AcDbEntity
  8
MAIN0
  6
CONTINUOUS
 62
3
100
AcDbBlockEnd
  0
BLOCK
  5
17A
100
AcDbEntity
  8
MAIN0
  6
CONTINUOUS
 62
3
100
AcDbBlockBegin
  2
*D5
 70
    65
 10
0.0
 20
0.0
 30
0.0
  0
LINE
  5
17B
100
AcDbEntity
  8
MAIN0
  6
BYBLOCK
 62
0
370
    -2
100
AcDbLine
 10
-105.5907941702347
 20
308.3512169590778
 30
0.0000000000000000
 11
124.8263789832074
 21
308.3512169590778
 31
0.0000000000000000
  0
LINE
  5
17C
100
AcDbEntity
  8
MAIN0
  6
BYBLOCK
 62
0
370
    -2
100
AcDbLine
 10
122.8263789832074
 20
310.3512169590778
 30
0.0000000000000000
 11
122.8263789832074
 21
606.3512169590778
 31
0.0000000000000000
  0
INSERT
  5
17D
100
AcDbEntity
  8
MAIN0
  6
BYBLOCK
 62
0
100
AcDbBlockReference
  2
_OPEN
 10
122.8263789832074
 20
308.3512169590778
 30
0.0000000000000000
 41
2.000000000000000
 42
2.000000000000000
 43
2.000000000000000
 50
270.0000000000000
  0
INSERT
  5
17E
100
AcDbEntity
  8
MAIN0
  6
BYBLOCK
 62
0
100
AcDbBlockReference
  2
_OPEN
 10
122.8263789832074
 20
608.3512169590778
 30
0.0000000000000000
 41
2.000000000000000
 42
2.000000000000000
 43
2.000000000000000
 50
90.00000000000000
  0
LINE
  5
17F
100
AcDbEntity
  8
MAIN0
  6
BYBLOCK
 62
0
370
    -2
100
AcDbLine
 10
-105.5907941702346
 20
608.3512169590778
 30
0.0000000000000000
 11
124.8263789832074
 21
608.3512169590778
 31
0.0000000000000000
  0
MTEXT
  5
180
100
AcDbEntity
  8
MAIN0
  6
BYBLOCK
 62
0
100
AcDbMText
 10
120.7763790308911
 20
458.3512169590778
 30
0.0000000000000000
 40
3.099999904632568
 41
0.0000000000000000
 44
0.7741935722041460
 71
     5
 72
     1
  1
\A1;300
 11
6.123233995736766e-017
 21
1.000000000000000
 31
0.0000000000000000
  7
STANDARD
  0
ENDBLK
  5
181
100
AcDbEntity
  8
MAIN0
  6
CONTINUOUS
 62
3
100
AcDbBlockEnd
  0
BLOCK
  5
183
100
AcDbEntity
  8
MAIN0
  6
CONTINUOUS
 62
3
100
AcDbBlockBegin
  2
*D6
 70
    65
 10
0.0
 20
0.0
 30
0.0
  0
LINE
  5
184
100
AcDbEntity
  8
MAIN0
  6
BYBLOCK
 62
0
370
    -2
100
AcDbLine
 10
-106.3407941702346
 20
647.8512169590778
 30
0.0000000000000000
 11
147.3372176934445
 21
647.8512169590778
 31
0.0000000000000000
  0
LINE
  5
185
100
AcDbEntity
  8
MAIN0
  6
BYBLOCK
 62
0
370
    -2
100
AcDbLine
 10
145.3372176934445
 20
645.8512169590778
 30
0.0000000000000000
 11
145.3372176934445
 21
270.8512169590778
 31
0.0000000000000000
  0
INSERT
  5
186
100
AcDbEntity
  8
MAIN0
  6
BYBLOCK
 62
0
100
AcDbBlockReference
  2
_OPEN
 10
145.3372176934445
 20
647.8512169590778
 30
0.0000000000000000
 41
2.000000000000000
 42
2.000000000000000
 43
2.000000000000000
 50
90.00000000000000
  0
INSERT
  5
187
100
AcDbEntity
  8
MAIN0
  6
BYBLOCK
 62
0
100
AcDbBlockReference
  2
_OPEN
 10
145.3372176934445
 20
268.8512169590778
 30
0.0000000000000000
 41
2.000000000000000
 42
2.000000000000000
 43
2.000000000000000
 50
270.0000000000000
  0
LINE
  5
188
100
AcDbEntity
  8
MAIN0
  6
BYBLOCK
 62
0
370
    -2
100
AcDbLine
 10
-106.3407941702347
 20
268.8512169590778
 30
0.0000000000000000
 11
147.3372176934445
 21
268.8512169590778
 31
0.0000000000000000
  0
MTEXT
  5
189
100
AcDbEntity
  8
MAIN0
  6
BYBLOCK
 62
0
100
AcDbMText
 10
143.2872177411283
 20
458.3512169590778
 30
0.0000000000000000
 40
3.099999904632568
 41
0.0000000000000000
 44
0.7741935722041460
 71
     5
 72
     1
  1
\A1;379
 11
6.123233995736766e-017
 21
1.000000000000000
 31
0.0000000000000000
  7
STANDARD
  0
ENDBLK
  5
18A
100
AcDbEntity
  8
MAIN0
  6
CONTINUOUS
 62
3
100
AcDbBlockEnd
  0
BLOCK
  5
18C
100
AcDbEntity
  8
MAIN0
  6
CONTINUOUS
 62
3
100
AcDbBlockBegin
  2
*D7
 70
    65
 10
0.0
 20
0.0
 30
0.0
  0
LINE
  5
18D
100
AcDbEntity
  8
MAIN0
  6
BYBLOCK
 62
0
370
    -2
100
AcDbLine
 10
-105.5907941702347
 20
308.3512169590778
 30
0.0000000000000000
 11
124.8263789832074
 21
308.3512169590778
 31
0.0000000000000000
  0
LINE
  5
18E
100
AcDbEntity
  8
MAIN0
  6
BYBLOCK
 62
0
370
    -2
100
AcDbLine
 10
122.8263789832074
 20
306.3512169590778
 30
0.0000000000000000
 11
122.8263789832074
 21
270.8512169590778
 31
0.0000000000000000
  0
INSERT
  5
18F
100
AcDbEntity
  8
MAIN0
  6
BYBLOCK
 62
0
100
AcDbBlockReference
  2
_OPEN
 10
122.8263789832074
 20
308.3512169590778
 30
0.0000000000000000
 41
2.000000000000000
 42
2.000000000000000
 43
2.000000000000000
 50
90.00000000000000
  0
INSERT
  5
190
100
AcDbEntity
  8
MAIN0
  6
BYBLOCK
 62
0
100
AcDbBlockReference
  2
_OPEN
 10
122.8263789832074
 20
268.8512169590778
 30
0.0000000000000000
 41
2.000000000000000
 42
2.000000000000000
 43
2.000000000000000
 50
270.0000000000000
  0
LINE
  5
191
100
AcDbEntity
  8
MAIN0
  6
BYBLOCK
 62
0
370
    -2
100
AcDbLine
 10
-106.3407941702347
 20
268.8512169590778
 30
0.0000000000000000
 11
124.8263789832074
 21
268.8512169590778
 31
0.0000000000000000
  0
MTEXT
  5
192
100
AcDbEntity
  8
MAIN0
  6
BYBLOCK
 62
0
100
AcDbMText
 10
120.7763790308911
 20
288.6012169590778
 30
0.0000000000000000
 40
3.099999904632568
 41
0.0000000000000000
 44
0.7741935722041460
 71
     5
 72
     1
  1
\A1;39.5
 11
6.123233995736766e-017
 21
1.000000000000000
 31
0.0000000000000000
  7
STANDARD
  0
ENDBLK
  5
193
100
AcDbEntity
  8
MAIN0
  6
CONTINUOUS
 62
3
100
AcDbBlockEnd
  0
BLOCK
  5
195
100
AcDbEntity
  8
MAIN0
  6
CONTINUOUS
 62
3
100
AcDbBlockBegin
  2
*D8
 70
    65
 10
0.0
 20
0.0
 30
0.0
  0
LINE
  5
196
100
AcDbEntity
  8
MAIN0
  6
BYBLOCK
 62
0
370
    -2
100
AcDbLine
 10
-105.5907941702346
 20
608.3512169590778
 30
0.0000000000000000
 11
124.8263789832074
 21
608.3512169590778
 31
0.0000000000000000
  0
LINE
  5
197
100
AcDbEntity
  8
MAIN0
  6
BYBLOCK
 62
0
370
    -2
100
AcDbLine
 10
122.8263789832074
 20
610.3512169590778
 30
0.0000000000000000
 11
122.8263789832074
 21
645.8512169590778
 31
0.0000000000000000
  0
INSERT
  5
198
100
AcDbEntity
  8
MAIN0
  6
BYBLOCK
 62
0
100
AcDbBlockReference
  2
_OPEN
 10
122.8263789832074
 20
608.3512169590778
 30
0.0000000000000000
 41
2.000000000000000
 42
2.000000000000000
 43
2.000000000000000
 50
270.0000000000000
  0
INSERT
  5
199
100
AcDbEntity
  8
MAIN0
  6
BYBLOCK
 62
0
100
AcDbBlockReference
  2
_OPEN
 10
122.8263789832074
 20
647.8512169590778
 30
0.0000000000000000
 41
2.000000000000000
 42
2.000000000000000
 43
2.000000000000000
 50
90.00000000000000
  0
LINE
  5
19A
100
AcDbEntity
  8
MAIN0
  6
BYBLOCK
 62
0
370
    -2
100
AcDbLine
 10
-106.3407941702346
 20
647.8512169590778
 30
0.0000000000000000
 11
124.8263789832074
 21
647.8512169590778
 31
0.0000000000000000
  0
MTEXT
  5
19B
100
AcDbEntity
  8
MAIN0
  6
BYBLOCK
 62
0
100
AcDbMText
 10
120.7763790308911
 20
628.1012169590778
 30
0.0000000000000000
 40
3.099999904632568
 41
0.0000000000000000
 44
0.7741935722041460
 71
     5
 72
     1
  1
\A1;39.5
 11
6.123233995736766e-017
 21
1.000000000000000
 31
0.0000000000000000
  7
STANDARD
  0
ENDBLK
  5
19C
100
AcDbEntity
  8
MAIN0
  6
CONTINUOUS
 62
3
100
AcDbBlockEnd
  0
BLOCK
  5
1A4
100
AcDbEntity
  8
MAIN0
  6
CONTINUOUS
 62
3
100
AcDbBlockBegin
  2
*D9
 70
    65
 10
0.0
 20
0.0
 30
0.0
  0
LINE
  5
1A5
100
AcDbEntity
  8
MAIN0
  6
BYBLOCK
 62
0
370
    -2
100
AcDbLine
 10
107.0284262544636
 20
239.6319098839730
 30
0.0000000000000000
 11
120.6018978542435
 21
253.2053814837527
 31
0.0000000000000000
  0
LINE
  5
1A6
100
AcDbEntity
  8
MAIN0
  6
BYBLOCK
 62
0
370
    -2
100
AcDbLine
 10
120.6018978542435
 20
250.3769543590067
 30
0.0000000000000000
 11
133.3298199156014
 21
237.6490322976487
 31
0.0000000000000000
  0
INSERT
  5
1A7
100
AcDbEntity
  8
MAIN0
  6
BYBLOCK
 62
0
100
AcDbBlockReference
  2
_OPEN
 10
119.1876842918704
 20
251.7911679213798
 30
0.0000000000000000
 41
2.000000000000000
 42
2.000000000000000
 43
2.000000000000000
 50
135.0000000000000
  0
INSERT
  5
1A8
100
AcDbEntity
  8
MAIN0
  6
BYBLOCK
 62
0
100
AcDbBlockReference
  2
_OPEN
 10
134.7440334779745
 20
236.2348187352757
 30
0.0000000000000000
 41
2.000000000000000
 42
2.000000000000000
 43
2.000000000000000
 50
315.0000000000000
  0
LINE
  5
1A9
100
AcDbEntity
  8
MAIN0
  6
BYBLOCK
 62
0
370
    -2
100
AcDbLine
 10
122.5847754405678
 20
224.0755606978689
 30
0.0000000000000000
 11
136.1582470403477
 21
237.6490322976486
 31
0.0000000000000000
  0
MTEXT
  5
1AA
100
AcDbEntity
  8
MAIN0
  6
BYBLOCK
 62
0
100
AcDbMText
 10
128.4154277526374
 20
245.4625621960427
 30
0.0000000000000000
 40
3.099999904632568
 41
0.0000000000000000
 44
0.7741935722041460
 71
     5
 72
     1
  1
\A1;22
 11
0.7071067811865474
 21
-0.7071067811865477
 31
0.0000000000000000
  7
STANDARD
  0
ENDBLK
  5
1AB
100
AcDbEntity
  8
MAIN0
  6
CONTINUOUS
 62
3
100
AcDbBlockEnd
  0
BLOCK
  5
1AD
100
AcDbEntity
  8
MAIN0
  6
CONTINUOUS
 62
3
100
AcDbBlockBegin
  2
*D10
 70
    65
 10
0.0
 20
0.0
 30
0.0
  0
LINE
  5
1AE
100
AcDbEntity
  8
MAIN0
  6
BYBLOCK
 62
0
370
    -2
100
AcDbLine
 10
119.6468036250266
 20
191.4391040724930
 30
0.0000000000000000
 11
151.0074894452648
 21
222.7997898927313
 31
0.0000000000000000
  0
LINE
  5
1AF
100
AcDbEntity
  8
MAIN0
  6
BYBLOCK
 62
0
370
    -2
100
AcDbLine
 10
148.1790623205188
 20
222.7997898927313
 30
0.0000000000000000
 11
136.1582470403475
 21
234.8206051729026
 31
0.0000000000000000
  0
INSERT
  5
1B0
100
AcDbEntity
  8
MAIN0
  6
BYBLOCK
 62
0
100
AcDbBlockReference
  2
_OPEN
 10
149.5932758828919
 20
221.3855763303582
 30
0.0000000000000000
 41
2.000000000000000
 42
2.000000000000000
 43
2.000000000000000
 50
315.0000000000000
  0
INSERT
  5
1B1
100
AcDbEntity
  8
MAIN0
  6
BYBLOCK
 62
0
100
AcDbBlockReference
  2
_OPEN
 10
134.7440334779744
 20
236.2348187352757
 30
0.0000000000000000
 41
2.000000000000000
 42
2.000000000000000
 43
2.000000000000000
 50
135.0000000000000
  0
LINE
  5
1B2
100
AcDbEntity
  8
MAIN0
  6
BYBLOCK
 62
0
370
    -2
100
AcDbLine
 10
122.5847754405677
 20
224.0755606978690
 30
0.0000000000000000
 11
136.1582470403476
 21
237.6490322976488
 31
0.0000000000000000
  0
MTEXT
  5
1B3
100
AcDbEntity
  8
MAIN0
  6
BYBLOCK
 62
0
100
AcDbMText
 10
143.6182235481481
 20
230.2597664005319
 30
0.0000000000000000
 40
3.099999904632568
 41
0.0000000000000000
 44
0.7741935722041460
 71
     5
 72
     1
  1
\A1;（21）
 11
0.7071067811865480
 21
-0.7071067811865470
 31
0.0000000000000000
  7
KNJYOKO
  0
ENDBLK
  5
1B4
100
AcDbEntity
  8
MAIN0
  6
CONTINUOUS
 62
3
100
AcDbBlockEnd
  0
BLOCK
  5
1B7
100
AcDbEntity
  8
MAIN0
  6
CONTINUOUS
 62
3
100
AcDbBlockBegin
  2
*D11
 70
    65
 10
0.0
 20
0.0
 30
0.0
  0
LINE
  5
1B8
100
AcDbEntity
  8
MAIN0
  6
BYBLOCK
 62
0
370
    -2
100
AcDbLine
 10
664.8394978055263
 20
483.3512169590778
 30
0.0000000000000000
 11
690.8656293332892
 21
483.3512169590778
 31
0.0000000000000000
  0
LINE
  5
1B9
100
AcDbEntity
  8
MAIN0
  6
BYBLOCK
 62
0
370
    -2
100
AcDbLine
 10
688.8656293332892
 20
481.3512169590778
 30
0.0000000000000000
 11
688.8656293332892
 21
435.3512169590778
 31
0.0000000000000000
  0
INSERT
  5
1BA
100
AcDbEntity
  8
MAIN0
  6
BYBLOCK
 62
0
100
AcDbBlockReference
  2
_OPEN
 10
688.8656293332892
 20
483.3512169590778
 30
0.0000000000000000
 41
2.000000000000000
 42
2.000000000000000
 43
2.000000000000000
 50
90.00000000000000
  0
INSERT
  5
1BB
100
AcDbEntity
  8
MAIN0
  6
BYBLOCK
 62
0
100
AcDbBlockReference
  2
_OPEN
 10
688.8656293332892
 20
433.3512169590778
 30
0.0000000000000000
 41
2.000000000000000
 42
2.000000000000000
 43
2.000000000000000
 50
270.0000000000000
  0
LINE
  5
1BC
100
AcDbEntity
  8
MAIN0
  6
BYBLOCK
 62
0
370
    -2
100
AcDbLine
 10
664.8394978055263
 20
433.3512169590778
 30
0.0000000000000000
 11
690.8656293332892
 21
433.3512169590778
 31
0.0000000000000000
  0
MTEXT
  5
1BD
100
AcDbEntity
  8
MAIN0
  6
BYBLOCK
 62
0
100
AcDbMText
 10
686.8156293809730
 20
458.3512169832922
 30
0.0000000000000000
 40
3.099999904632568
 41
0.0000000000000000
 44
0.7741935722041460
 71
     5
 72
     1
  1
\A1;\U+220550h6
 11
6.123233995736766e-017
 21
1.000000000000000
 31
0.0000000000000000
  7
STANDARD
  0
ENDBLK
  5
1BE
100
AcDbEntity
  8
MAIN0
  6
CONTINUOUS
 62
3
100
AcDbBlockEnd
  0
BLOCK
  5
1C0
100
AcDbEntity
  8
MAIN0
  6
CONTINUOUS
 62
3
100
AcDbBlockBegin
  2
*D12
 70
    65
 10
0.0
 20
0.0
 30
0.0
  0
LINE
  5
1C1
100
AcDbEntity
  8
MAIN0
  6
BYBLOCK
 62
0
370
    -2
100
AcDbLine
 10
644.8394978055263
 20
513.3512169590778
 30
0.0000000000000000
 11
705.7544443360314
 21
513.3512169590778
 31
0.0000000000000000
  0
LINE
  5
1C2
100
AcDbEntity
  8
MAIN0
  6
BYBLOCK
 62
0
370
    -2
100
AcDbLine
 10
703.7544443360314
 20
511.3512169590778
 30
0.0000000000000000
 11
703.7544443360314
 21
405.3512169590778
 31
0.0000000000000000
  0
INSERT
  5
1C3
100
AcDbEntity
  8
MAIN0
  6
BYBLOCK
 62
0
100
AcDbBlockReference
  2
_OPEN
 10
703.7544443360314
 20
513.3512169590778
 30
0.0000000000000000
 41
2.000000000000000
 42
2.000000000000000
 43
2.000000000000000
 50
90.00000000000000
  0
INSERT
  5
1C4
100
AcDbEntity
  8
MAIN0
  6
BYBLOCK
 62
0
100
AcDbBlockReference
  2
_OPEN
 10
703.7544443360314
 20
403.3512169590778
 30
0.0000000000000000
 41
2.000000000000000
 42
2.000000000000000
 43
2.000000000000000
 50
270.0000000000000
  0
LINE
  5
1C5
100
AcDbEntity
  8
MAIN0
  6
BYBLOCK
 62
0
370
    -2
100
AcDbLine
 10
644.8394978055263
 20
403.3512169590778
 30
0.0000000000000000
 11
705.7544443360314
 21
403.3512169590778
 31
0.0000000000000000
  0
MTEXT
  5
1C6
100
AcDbEntity
  8
MAIN0
  6
BYBLOCK
 62
0
100
AcDbMText
 10
701.7044443837151
 20
458.3512168882972
 30
0.0000000000000000
 40
3.099999904632568
 41
0.0000000000000000
 44
0.7741935722041460
 71
     5
 72
     1
  1
\A1;\U+2205110H7
 11
6.123233995736766e-017
 21
1.000000000000000
 31
0.0000000000000000
  7
STANDARD
  0
ENDBLK
  5
1C7
100
AcDbEntity
  8
MAIN0
  6
CONTINUOUS
 62
3
100
AcDbBlockEnd
  0
BLOCK
  5
1CB
100
AcDbEntity
  8
MAIN0
  6
CONTINUOUS
 62
3
100
AcDbBlockBegin
  2
*D13
 70
    65
 10
0.0
 20
0.0
 30
0.0
  0
LINE
  5
1CC
100
AcDbEntity
  8
MAIN0
  6
BYBLOCK
 62
0
370
    -2
100
AcDbLine
 10
281.0394977936054
 20
357.9684481453720
 30
0.0000000000000000
 11
352.0394977936053
 21
357.9684481453720
 31
0.0000000000000000
  0
INSERT
  5
1CD
100
AcDbEntity
  8
MAIN0
  6
BYBLOCK
 62
0
100
AcDbBlockReference
  2
_OPEN
 10
279.0394977936054
 20
357.9684481453720
 30
0.0000000000000000
 41
2.000000000000000
 42
2.000000000000000
 43
2.000000000000000
 50
180.0000000000000
  0
INSERT
  5
1CE
100
AcDbEntity
  8
MAIN0
  6
BYBLOCK
 62
0
100
AcDbBlockReference
  2
_OPEN
 10
354.0394977936053
 20
357.9684481453720
 30
0.0000000000000000
 41
2.000000000000000
 42
2.000000000000000
 43
2.000000000000000
 50
0.0000000000000000
  0
LINE
  5
1CF
100
AcDbEntity
  8
MAIN0
  6
BYBLOCK
 62
0
370
    -2
100
AcDbLine
 10
354.0394977936053
 20
342.1512169709987
 30
0.0000000000000000
 11
354.0394977936053
 21
359.9684481453720
 31
0.0000000000000000
  0
MTEXT
  5
1D0
100
AcDbEntity
  8
MAIN0
  6
BYBLOCK
 62
0
100
AcDbMText
 10
316.5394977936053
 20
360.0184480976882
 30
0.0000000000000000
 40
3.099999904632568
 41
0.0000000000000000
 44
0.7741935722041460
 71
     5
 72
     1
  1
\A1;75
 11
1.000000000000000
 21
0.0000000000000000
 31
0.0000000000000000
  7
STANDARD
  0
ENDBLK
  5
1D1
100
AcDbEntity
  8
MAIN0
  6
CONTINUOUS
 62
3
100
AcDbBlockEnd
  0
BLOCK
  5
1D3
100
AcDbEntity
  8
MAIN0
  6
CONTINUOUS
 62
3
100
AcDbBlockBegin
  2
*D14
 70
    65
 10
0.0
 20
0.0
 30
0.0
  0
LINE
  5
1D4
100
AcDbEntity
  8
MAIN0
  6
BYBLOCK
 62
0
370
    -2
100
AcDbLine
 10
354.0394977936053
 20
342.1512169709987
 30
0.0000000000000000
 11
354.0394977936053
 21
359.9684481453720
 31
0.0000000000000000
  0
LINE
  5
1D5
100
AcDbEntity
  8
MAIN0
  6
BYBLOCK
 62
0
370
    -2
100
AcDbLine
 10
356.0394977936053
 20
357.9684481453720
 30
0.0000000000000000
 11
427.0394977936054
 21
357.9684481453720
 31
0.0000000000000000
  0
INSERT
  5
1D6
100
AcDbEntity
  8
MAIN0
  6
BYBLOCK
 62
0
100
AcDbBlockReference
  2
_OPEN
 10
354.0394977936053
 20
357.9684481453720
 30
0.0000000000000000
 41
2.000000000000000
 42
2.000000000000000
 43
2.000000000000000
 50
180.0000000000000
  0
INSERT
  5
1D7
100
AcDbEntity
  8
MAIN0
  6
BYBLOCK
 62
0
100
AcDbBlockReference
  2
_OPEN
 10
429.0394977936054
 20
357.9684481453720
 30
0.0000000000000000
 41
2.000000000000000
 42
2.000000000000000
 43
2.000000000000000
 50
0.0000000000000000
  0
LINE
  5
1D8
100
AcDbEntity
  8
MAIN0
  6
BYBLOCK
 62
0
370
    -2
100
AcDbLine
 10
429.0394977936054
 20
342.1512169709987
 30
0.0000000000000000
 11
429.0394977936054
 21
359.9684481453720
 31
0.0000000000000000
  0
MTEXT
  5
1D9
100
AcDbEntity
  8
MAIN0
  6
BYBLOCK
 62
0
100
AcDbMText
 10
391.5394977936053
 20
360.0184480976882
 30
0.0000000000000000
 40
3.099999904632568
 41
0.0000000000000000
 44
0.7741935722041460
 71
     5
 72
     1
  1
\A1;75
 11
1.000000000000000
 21
0.0000000000000000
 31
0.0000000000000000
  7
STANDARD
  0
ENDBLK
  5
1DA
100
AcDbEntity
  8
MAIN0
  6
CONTINUOUS
 62
3
100
AcDbBlockEnd
  0
BLOCK
  5
1DC
100
AcDbEntity
  8
MAIN0
  6
CONTINUOUS
 62
3
100
AcDbBlockBegin
  2
*D15
 70
    65
 10
0.0
 20
0.0
 30
0.0
  0
LINE
  5
1DD
100
AcDbEntity
  8
MAIN0
  6
BYBLOCK
 62
0
370
    -2
100
AcDbLine
 10
429.0394977936054
 20
342.1512169709987
 30
0.0000000000000000
 11
429.0394977936054
 21
359.9684481453720
 31
0.0000000000000000
  0
LINE
  5
1DE
100
AcDbEntity
  8
MAIN0
  6
BYBLOCK
 62
0
370
    -2
100
AcDbLine
 10
431.0394977936054
 20
357.9684481453720
 30
0.0000000000000000
 11
502.0394977936052
 21
357.9684481453720
 31
0.0000000000000000
  0
INSERT
  5
1DF
100
AcDbEntity
  8
MAIN0
  6
BYBLOCK
 62
0
100
AcDbBlockReference
  2
_OPEN
 10
429.0394977936054
 20
357.9684481453720
 30
0.0000000000000000
 41
2.000000000000000
 42
2.000000000000000
 43
2.000000000000000
 50
180.0000000000000
  0
INSERT
  5
1E0
100
AcDbEntity
  8
MAIN0
  6
BYBLOCK
 62
0
100
AcDbBlockReference
  2
_OPEN
 10
504.0394977936052
 20
357.9684481453720
 30
0.0000000000000000
 41
2.000000000000000
 42
2.000000000000000
 43
2.000000000000000
 50
0.0000000000000000
  0
LINE
  5
1E1
100
AcDbEntity
  8
MAIN0
  6
BYBLOCK
 62
0
370
    -2
100
AcDbLine
 10
504.0394977936052
 20
342.1512169709987
 30
0.0000000000000000
 11
504.0394977936052
 21
359.9684481453720
 31
0.0000000000000000
  0
MTEXT
  5
1E2
100
AcDbEntity
  8
MAIN0
  6
BYBLOCK
 62
0
100
AcDbMText
 10
466.5394977936053
 20
360.0184480976882
 30
0.0000000000000000
 40
3.099999904632568
 41
0.0000000000000000
 44
0.7741935722041460
 71
     5
 72
     1
  1
\A1;75
 11
1.000000000000000
 21
0.0000000000000000
 31
0.0000000000000000
  7
STANDARD
  0
ENDBLK
  5
1E3
100
AcDbEntity
  8
MAIN0
  6
CONTINUOUS
 62
3
100
AcDbBlockEnd
  0
BLOCK
  5
1E5
100
AcDbEntity
  8
MAIN0
  6
CONTINUOUS
 62
3
100
AcDbBlockBegin
  2
*D16
 70
    65
 10
0.0
 20
0.0
 30
0.0
  0
LINE
  5
1E6
100
AcDbEntity
  8
MAIN0
  6
BYBLOCK
 62
0
370
    -2
100
AcDbLine
 10
345.2394977816844
 20
333.3512169590778
 30
0.0000000000000000
 11
318.5667926853886
 21
333.3512169590778
 31
0.0000000000000000
  0
LINE
  5
1E7
100
AcDbEntity
  8
MAIN0
  6
BYBLOCK
 62
0
370
    -2
100
AcDbLine
 10
320.5667926853886
 20
331.3512169590778
 30
0.0000000000000000
 11
320.5667926853886
 21
310.3512169590778
 31
0.0000000000000000
  0
INSERT
  5
1E8
100
AcDbEntity
  8
MAIN0
  6
BYBLOCK
 62
0
100
AcDbBlockReference
  2
_OPEN
 10
320.5667926853886
 20
333.3512169590778
 30
0.0000000000000000
 41
2.000000000000000
 42
2.000000000000000
 43
2.000000000000000
 50
90.00000000000000
  0
INSERT
  5
1E9
100
AcDbEntity
  8
MAIN0
  6
BYBLOCK
 62
0
100
AcDbBlockReference
  2
_OPEN
 10
320.5667926853886
 20
308.3512169590778
 30
0.0000000000000000
 41
2.000000000000000
 42
2.000000000000000
 43
2.000000000000000
 50
270.0000000000000
  0
MTEXT
  5
1EA
100
AcDbEntity
  8
MAIN0
  6
BYBLOCK
 62
0
100
AcDbMText
 10
318.5167927330724
 20
320.8512169590778
 30
0.0000000000000000
 40
3.099999904632568
 41
0.0000000000000000
 44
0.7741935722041460
 71
     5
 72
     1
  1
\A1;25
 11
6.123233995736766e-017
 21
1.000000000000000
 31
0.0000000000000000
  7
STANDARD
  0
ENDBLK
  5
1EB
100
AcDbEntity
  8
MAIN0
  6
CONTINUOUS
 62
3
100
AcDbBlockEnd
  0
BLOCK
  5
1ED
100
AcDbEntity
  8
MAIN0
  6
CONTINUOUS
 62
3
100
AcDbBlockBegin
  2
*D17
 70
    65
 10
0.0
 20
0.0
 30
0.0
  0
LINE
  5
1EE
100
AcDbEntity
  8
MAIN0
  6
BYBLOCK
 62
0
370
    -2
100
AcDbLine
 10
558.0394977936054
 20
270.0512169471568
 30
0.0000000000000000
 11
558.0394977936054
 21
237.4805454127203
 31
0.0000000000000000
  0
LINE
  5
1EF
100
AcDbEntity
  8
MAIN0
  6
BYBLOCK
 62
0
370
    -2
100
AcDbLine
 10
556.0394977936054
 20
239.4805454127203
 30
0.0000000000000000
 11
521.0394977936054
 21
239.4805454127203
 31
0.0000000000000000
  0
INSERT
  5
1F0
100
AcDbEntity
  8
MAIN0
  6
BYBLOCK
 62
0
100
AcDbBlockReference
  2
_OPEN
 10
558.0394977936054
 20
239.4805454127203
 30
0.0000000000000000
 41
2.000000000000000
 42
2.000000000000000
 43
2.000000000000000
 50
360.0000000000000
  0
INSERT
  5
1F1
100
AcDbEntity
  8
MAIN0
  6
BYBLOCK
 62
0
100
AcDbBlockReference
  2
_OPEN
 10
519.0394977936054
 20
239.4805454127203
 30
0.0000000000000000
 41
2.000000000000000
 42
2.000000000000000
 43
2.000000000000000
 50
180.0000000000000
  0
LINE
  5
1F2
100
AcDbEntity
  8
MAIN0
  6
BYBLOCK
 62
0
370
    -2
100
AcDbLine
 10
519.0394977936054
 20
268.0512169471568
 30
0.0000000000000000
 11
519.0394977936054
 21
237.4805454127203
 31
0.0000000000000000
  0
MTEXT
  5
1F3
100
AcDbEntity
  8
MAIN0
  6
BYBLOCK
 62
0
100
AcDbMText
 10
538.5394977936054
 20
241.5305453650366
 30
0.0000000000000000
 40
3.099999904632568
 41
0.0000000000000000
 44
0.7741935722041460
 71
     5
 72
     1
  1
\A1;39
 11
1.000000000000000
 21
0.0000000000000000
 31
0.0000000000000000
  7
STANDARD
  0
ENDBLK
  5
1F4
100
AcDbEntity
  8
MAIN0
  6
CONTINUOUS
 62
3
100
AcDbBlockEnd
  0
BLOCK
  5
1F6
100
AcDbEntity
  8
MAIN0
  6
CONTINUOUS
 62
3
100
AcDbBlockBegin
  2
*D18
 70
    65
 10
0.0
 20
0.0
 30
0.0
  0
LINE
  5
1F7
100
AcDbEntity
  8
MAIN0
  6
BYBLOCK
 62
0
370
    -2
100
AcDbLine
 10
644.0394977936054
 20
307.5512169471568
 30
0.0000000000000000
 11
644.0394977936054
 21
216.5709227033406
 31
0.0000000000000000
  0
LINE
  5
1F8
100
AcDbEntity
  8
MAIN0
  6
BYBLOCK
 62
0
370
    -2
100
AcDbLine
 10
642.0394977936054
 20
218.5709227033406
 30
0.0000000000000000
 11
599.0394977936054
 21
218.5709227033406
 31
0.0000000000000000
  0
INSERT
  5
1F9
100
AcDbEntity
  8
MAIN0
  6
BYBLOCK
 62
0
100
AcDbBlockReference
  2
_OPEN
 10
644.0394977936054
 20
218.5709227033406
 30
0.0000000000000000
 41
2.000000000000000
 42
2.000000000000000
 43
2.000000000000000
 50
360.0000000000000
  0
INSERT
  5
1FA
100
AcDbEntity
  8
MAIN0
  6
BYBLOCK
 62
0
100
AcDbBlockReference
  2
_OPEN
 10
597.0394977936054
 20
218.5709227033406
 30
0.0000000000000000
 41
2.000000000000000
 42
2.000000000000000
 43
2.000000000000000
 50
180.0000000000000
  0
LINE
  5
1FB
100
AcDbEntity
  8
MAIN0
  6
BYBLOCK
 62
0
370
    -2
100
AcDbLine
 10
597.0394977936054
 20
268.0512169471568
 30
0.0000000000000000
 11
597.0394977936054
 21
216.5709227033406
 31
0.0000000000000000
  0
MTEXT
  5
1FC
100
AcDbEntity
  8
MAIN0
  6
BYBLOCK
 62
0
100
AcDbMText
 10
620.5394977936054
 20
220.6209226556568
 30
0.0000000000000000
 40
3.099999904632568
 41
0.0000000000000000
 44
0.7741935722041460
 71
     5
 72
     1
  1
\A1;47
 11
1.000000000000000
 21
0.0000000000000000
 31
0.0000000000000000
  7
STANDARD
  0
ENDBLK
  5
1FD
100
AcDbEntity
  8
MAIN0
  6
CONTINUOUS
 62
3
100
AcDbBlockEnd
  0
BLOCK
  5
1FF
100
AcDbEntity
  8
MAIN0
  6
CONTINUOUS
 62
3
100
AcDbBlockBegin
  2
*D19
 70
    65
 10
0.0
 20
0.0
 30
0.0
  0
LINE
  5
200
100
AcDbEntity
  8
MAIN0
  6
BYBLOCK
 62
0
370
    -2
100
AcDbLine
 10
597.0394977936054
 20
268.0512169471568
 30
0.0000000000000000
 11
597.0394977936054
 21
216.5709227033406
 31
0.0000000000000000
  0
LINE
  5
201
100
AcDbEntity
  8
MAIN0
  6
BYBLOCK
 62
0
370
    -2
100
AcDbLine
 10
595.0394977936054
 20
218.5709227033406
 30
0.0000000000000000
 11
521.0394977936054
 21
218.5709227033406
 31
0.0000000000000000
  0
INSERT
  5
202
100
AcDbEntity
  8
MAIN0
  6
BYBLOCK
 62
0
100
AcDbBlockReference
  2
_OPEN
 10
597.0394977936054
 20
218.5709227033406
 30
0.0000000000000000
 41
2.000000000000000
 42
2.000000000000000
 43
2.000000000000000
 50
360.0000000000000
  0
INSERT
  5
203
100
AcDbEntity
  8
MAIN0
  6
BYBLOCK
 62
0
100
AcDbBlockReference
  2
_OPEN
 10
519.0394977936054
 20
218.5709227033406
 30
0.0000000000000000
 41
2.000000000000000
 42
2.000000000000000
 43
2.000000000000000
 50
180.0000000000000
  0
LINE
  5
204
100
AcDbEntity
  8
MAIN0
  6
BYBLOCK
 62
0
370
    -2
100
AcDbLine
 10
519.0394977936054
 20
268.0512169471568
 30
0.0000000000000000
 11
519.0394977936054
 21
216.5709227033406
 31
0.0000000000000000
  0
MTEXT
  5
205
100
AcDbEntity
  8
MAIN0
  6
BYBLOCK
 62
0
100
AcDbMText
 10
558.0394977936054
 20
220.6209226556568
 30
0.0000000000000000
 40
3.099999904632568
 41
0.0000000000000000
 44
0.7741935722041460
 71
     5
 72
     1
  1
\A1;78
 11
1.000000000000000
 21
0.0000000000000000
 31
0.0000000000000000
  7
STANDARD
  0
ENDBLK
  5
206
100
AcDbEntity
  8
MAIN0
  6
CONTINUOUS
 62
3
100
AcDbBlockEnd
  0
BLOCK
  5
208
100
AcDbEntity
  8
MAIN0
  6
CONTINUOUS
 62
3
100
AcDbBlockBegin
  2
*D20
 70
    65
 10
0.0
 20
0.0
 30
0.0
  0
LINE
  5
209
100
AcDbEntity
  8
MAIN0
  6
BYBLOCK
 62
0
370
    -2
100
AcDbLine
 10
644.0394977936054
 20
307.5512169471568
 30
0.0000000000000000
 11
644.0394977936054
 21
195.6612898157525
 31
0.0000000000000000
  0
LINE
  5
20A
100
AcDbEntity
  8
MAIN0
  6
BYBLOCK
 62
0
370
    -2
100
AcDbLine
 10
642.0394977936054
 20
197.6612898157525
 30
0.0000000000000000
 11
521.0394977936054
 21
197.6612898157525
 31
0.0000000000000000
  0
INSERT
  5
20B
100
AcDbEntity
  8
MAIN0
  6
BYBLOCK
 62
0
100
AcDbBlockReference
  2
_OPEN
 10
644.0394977936054
 20
197.6612898157525
 30
0.0000000000000000
 41
2.000000000000000
 42
2.000000000000000
 43
2.000000000000000
 50
360.0000000000000
  0
INSERT
  5
20C
100
AcDbEntity
  8
MAIN0
  6
BYBLOCK
 62
0
100
AcDbBlockReference
  2
_OPEN
 10
519.0394977936054
 20
197.6612898157525
 30
0.0000000000000000
 41
2.000000000000000
 42
2.000000000000000
 43
2.000000000000000
 50
180.0000000000000
  0
LINE
  5
20D
100
AcDbEntity
  8
MAIN0
  6
BYBLOCK
 62
0
370
    -2
100
AcDbLine
 10
519.0394977936054
 20
268.0512169471568
 30
0.0000000000000000
 11
519.0394977936054
 21
195.6612898157525
 31
0.0000000000000000
  0
MTEXT
  5
20E
100
AcDbEntity
  8
MAIN0
  6
BYBLOCK
 62
0
100
AcDbMText
 10
581.5394977936054
 20
199.7112897680688
 30
0.0000000000000000
 40
3.099999904632568
 41
0.0000000000000000
 44
0.7741935722041460
 71
     5
 72
     1
  1
\A1;125
 11
1.000000000000000
 21
0.0000000000000000
 31
0.0000000000000000
  7
STANDARD
  0
ENDBLK
  5
20F
100
AcDbEntity
  8
MAIN0
  6
CONTINUOUS
 62
3
100
AcDbBlockEnd
  0
BLOCK
  5
211
100
AcDbEntity
  8
MAIN0
  6
CONTINUOUS
 62
3
100
AcDbBlockBegin
  2
*D21
 70
    65
 10
0.0
 20
0.0
 30
0.0
  0
LINE
  5
212
100
AcDbEntity
  8
MAIN0
  6
BYBLOCK
 62
0
370
    -2
100
AcDbLine
 10
519.0394977936054
 20
268.0512169471568
 30
0.0000000000000000
 11
519.0394977936054
 21
195.6612898157525
 31
0.0000000000000000
  0
LINE
  5
213
100
AcDbEntity
  8
MAIN0
  6
BYBLOCK
 62
0
370
    -2
100
AcDbLine
 10
517.0394977936054
 20
197.6612898157525
 30
0.0000000000000000
 11
416.0394977936054
 21
197.6612898157525
 31
0.0000000000000000
  0
INSERT
  5
214
100
AcDbEntity
  8
MAIN0
  6
BYBLOCK
 62
0
100
AcDbBlockReference
  2
_OPEN
 10
519.0394977936054
 20
197.6612898157525
 30
0.0000000000000000
 41
2.000000000000000
 42
2.000000000000000
 43
2.000000000000000
 50
360.0000000000000
  0
INSERT
  5
215
100
AcDbEntity
  8
MAIN0
  6
BYBLOCK
 62
0
100
AcDbBlockReference
  2
_OPEN
 10
414.0394977936054
 20
197.6612898157525
 30
0.0000000000000000
 41
2.000000000000000
 42
2.000000000000000
 43
2.000000000000000
 50
180.0000000000000
  0
LINE
  5
216
100
AcDbEntity
  8
MAIN0
  6
BYBLOCK
 62
0
370
    -2
100
AcDbLine
 10
414.0394977936054
 20
268.0512169471568
 30
0.0000000000000000
 11
414.0394977936054
 21
195.6612898157525
 31
0.0000000000000000
  0
MTEXT
  5
217
100
AcDbEntity
  8
MAIN0
  6
BYBLOCK
 62
0
100
AcDbMText
 10
466.5394977936054
 20
199.7112897680688
 30
0.0000000000000000
 40
3.099999904632568
 41
0.0000000000000000
 44
0.7741935722041460
 71
     5
 72
     1
  1
\A1;MAX168
 11
1.000000000000000
 21
0.0000000000000000
 31
0.0000000000000000
  7
STANDARD
  0
ENDBLK
  5
218
100
AcDbEntity
  8
MAIN0
  6
CONTINUOUS
 62
3
100
AcDbBlockEnd
  0
BLOCK
  5
21A
100
AcDbEntity
  8
MAIN0
  6
CONTINUOUS
 62
3
100
AcDbBlockBegin
  2
*D22
 70
    65
 10
0.0
 20
0.0
 30
0.0
  0
LINE
  5
21B
100
AcDbEntity
  8
MAIN0
  6
BYBLOCK
 62
0
370
    -2
100
AcDbLine
 10
644.0394977936054
 20
307.5512169471568
 30
0.0000000000000000
 11
644.0394977936054
 21
177.4323730907067
 31
0.0000000000000000
  0
LINE
  5
21C
100
AcDbEntity
  8
MAIN0
  6
BYBLOCK
 62
0
370
    -2
100
AcDbLine
 10
642.0394977936054
 20
179.4323730907067
 30
0.0000000000000000
 11
281.0394977936054
 21
179.4323730907067
 31
0.0000000000000000
  0
INSERT
  5
21D
100
AcDbEntity
  8
MAIN0
  6
BYBLOCK
 62
0
100
AcDbBlockReference
  2
_OPEN
 10
644.0394977936054
 20
179.4323730907067
 30
0.0000000000000000
 41
2.000000000000000
 42
2.000000000000000
 43
2.000000000000000
 50
360.0000000000000
  0
INSERT
  5
21E
100
AcDbEntity
  8
MAIN0
  6
BYBLOCK
 62
0
100
AcDbBlockReference
  2
_OPEN
 10
279.0394977936054
 20
179.4323730907067
 30
0.0000000000000000
 41
2.000000000000000
 42
2.000000000000000
 43
2.000000000000000
 50
180.0000000000000
  0
LINE
  5
21F
100
AcDbEntity
  8
MAIN0
  6
BYBLOCK
 62
0
370
    -2
100
AcDbLine
 10
279.0394977936054
 20
307.5512169471568
 30
0.0000000000000000
 11
279.0394977936054
 21
177.4323730907067
 31
0.0000000000000000
  0
MTEXT
  5
220
100
AcDbEntity
  8
MAIN0
  6
BYBLOCK
 62
0
100
AcDbMText
 10
461.5394977936054
 20
181.4823730430230
 30
0.0000000000000000
 40
3.099999904632568
 41
0.0000000000000000
 44
0.7741935722041460
 71
     5
 72
     1
  1
\A1;365
 11
1.000000000000000
 21
0.0000000000000000
 31
0.0000000000000000
  7
STANDARD
  0
ENDBLK
  5
221
100
AcDbEntity
  8
MAIN0
  6
CONTINUOUS
 62
3
100
AcDbBlockEnd
  0
BLOCK
  5
223
100
AcDbEntity
  8
MAIN0
  6
CONTINUOUS
 62
3
100
AcDbBlockBegin
  2
*D23
 70
    65
 10
0.0
 20
0.0
 30
0.0
  0
LINE
  5
224
100
AcDbEntity
  8
MAIN0
  6
BYBLOCK
 62
0
370
    -2
100
AcDbLine
 10
279.0394977936054
 20
307.5512169471568
 30
0.0000000000000000
 11
279.0394977936054
 21
177.4323730907067
 31
0.0000000000000000
  0
LINE
  5
225
100
AcDbEntity
  8
MAIN0
  6
BYBLOCK
 62
0
370
    -2
100
AcDbLine
 10
277.0394977936054
 20
179.4323730907067
 30
0.0000000000000000
 11
194.5394977936055
 21
179.4323730907067
 31
0.0000000000000000
  0
INSERT
  5
226
100
AcDbEntity
  8
MAIN0
  6
BYBLOCK
 62
0
100
AcDbBlockReference
  2
_OPEN
 10
279.0394977936054
 20
179.4323730907067
 30
0.0000000000000000
 41
2.000000000000000
 42
2.000000000000000
 43
2.000000000000000
 50
360.0000000000000
  0
INSERT
  5
227
100
AcDbEntity
  8
MAIN0
  6
BYBLOCK
 62
0
100
AcDbBlockReference
  2
_OPEN
 10
192.5394977936055
 20
179.4323730907067
 30
0.0000000000000000
 41
2.000000000000000
 42
2.000000000000000
 43
2.000000000000000
 50
180.0000000000000
  0
LINE
  5
228
100
AcDbEntity
  8
MAIN0
  6
BYBLOCK
 62
0
370
    -2
100
AcDbLine
 10
192.5394977936055
 20
321.5512169471556
 30
0.0000000000000000
 11
192.5394977936055
 21
177.4323730907067
 31
0.0000000000000000
  0
MTEXT
  5
229
100
AcDbEntity
  8
MAIN0
  6
BYBLOCK
 62
0
100
AcDbMText
 10
235.7894977936055
 20
181.4823730430230
 30
0.0000000000000000
 40
3.099999904632568
 41
0.0000000000000000
 44
0.7741935722041460
 71
     5
 72
     1
  1
\A1;86.5
 11
1.000000000000000
 21
0.0000000000000000
 31
0.0000000000000000
  7
STANDARD
  0
ENDBLK
  5
22A
100
AcDbEntity
  8
MAIN0
  6
CONTINUOUS
 62
3
100
AcDbBlockEnd
  0
BLOCK
  5
22C
100
AcDbEntity
  8
MAIN0
  6
CONTINUOUS
 62
3
100
AcDbBlockBegin
  2
*D24
 70
    65
 10
0.0
 20
0.0
 30
0.0
  0
LINE
  5
22D
100
AcDbEntity
  8
MAIN0
  6
BYBLOCK
 62
0
370
    -2
100
AcDbLine
 10
664.0394977936054
 20
432.5512169471568
 30
0.0000000000000000
 11
664.0394977936054
 21
155.9866030775352
 31
0.0000000000000000
  0
LINE
  5
22E
100
AcDbEntity
  8
MAIN0
  6
BYBLOCK
 62
0
370
    -2
100
AcDbLine
 10
662.0394977936054
 20
157.9866030775352
 30
0.0000000000000000
 11
646.0394977936054
 21
157.9866030775352
 31
0.0000000000000000
  0
INSERT
  5
22F
100
AcDbEntity
  8
MAIN0
  6
BYBLOCK
 62
0
100
AcDbBlockReference
  2
_OPEN
 10
664.0394977936054
 20
157.9866030775352
 30
0.0000000000000000
 41
2.000000000000000
 42
2.000000000000000
 43
2.000000000000000
 50
360.0000000000000
  0
INSERT
  5
230
100
AcDbEntity
  8
MAIN0
  6
BYBLOCK
 62
0
100
AcDbBlockReference
  2
_OPEN
 10
644.0394977936054
 20
157.9866030775352
 30
0.0000000000000000
 41
2.000000000000000
 42
2.000000000000000
 43
2.000000000000000
 50
180.0000000000000
  0
LINE
  5
231
100
AcDbEntity
  8
MAIN0
  6
BYBLOCK
 62
0
370
    -2
100
AcDbLine
 10
644.0394977936054
 20
307.5512169471568
 30
0.0000000000000000
 11
644.0394977936054
 21
155.9866030775352
 31
0.0000000000000000
  0
MTEXT
  5
232
100
AcDbEntity
  8
MAIN0
  6
BYBLOCK
 62
0
100
AcDbMText
 10
654.0394977936054
 20
160.0366030298515
 30
0.0000000000000000
 40
3.099999904632568
 41
0.0000000000000000
 44
0.7741935722041460
 71
     5
 72
     1
  1
\A1;20
 11
1.000000000000000
 21
0.0000000000000000
 31
0.0000000000000000
  7
STANDARD
  0
ENDBLK
  5
233
100
AcDbEntity
  8
MAIN0
  6
CONTINUOUS
 62
3
100
AcDbBlockEnd
  0
BLOCK
  5
235
100
AcDbEntity
  8
MAIN0
  6
CONTINUOUS
 62
3
100
AcDbBlockBegin
  2
*D25
 70
    65
 10
0.0
 20
0.0
 30
0.0
  0
LINE
  5
236
100
AcDbEntity
  8
MAIN0
  6
BYBLOCK
 62
0
370
    -2
100
AcDbLine
 10
644.0394977936054
 20
307.5512169471568
 30
0.0000000000000000
 11
644.0394977936054
 21
155.9866030775352
 31
0.0000000000000000
  0
LINE
  5
237
100
AcDbEntity
  8
MAIN0
  6
BYBLOCK
 62
0
370
    -2
100
AcDbLine
 10
642.0394977936054
 20
157.9866030775352
 30
0.0000000000000000
 11
194.5394977936055
 21
157.9866030775352
 31
0.0000000000000000
  0
INSERT
  5
238
100
AcDbEntity
  8
MAIN0
  6
BYBLOCK
 62
0
100
AcDbBlockReference
  2
_OPEN
 10
644.0394977936054
 20
157.9866030775352
 30
0.0000000000000000
 41
2.000000000000000
 42
2.000000000000000
 43
2.000000000000000
 50
360.0000000000000
  0
INSERT
  5
239
100
AcDbEntity
  8
MAIN0
  6
BYBLOCK
 62
0
100
AcDbBlockReference
  2
_OPEN
 10
192.5394977936055
 20
157.9866030775352
 30
0.0000000000000000
 41
2.000000000000000
 42
2.000000000000000
 43
2.000000000000000
 50
180.0000000000000
  0
LINE
  5
23A
100
AcDbEntity
  8
MAIN0
  6
BYBLOCK
 62
0
370
    -2
100
AcDbLine
 10
192.5394977936055
 20
321.5512169471556
 30
0.0000000000000000
 11
192.5394977936055
 21
155.9866030775352
 31
0.0000000000000000
  0
MTEXT
  5
23B
100
AcDbEntity
  8
MAIN0
  6
BYBLOCK
 62
0
100
AcDbMText
 10
418.2894977936055
 20
160.0366030298515
 30
0.0000000000000000
 40
3.099999904632568
 41
0.0000000000000000
 44
0.7741935722041460
 71
     5
 72
     1
  1
\A1;451.5
 11
1.000000000000000
 21
0.0000000000000000
 31
0.0000000000000000
  7
STANDARD
  0
ENDBLK
  5
23C
100
AcDbEntity
  8
MAIN0
  6
CONTINUOUS
 62
3
100
AcDbBlockEnd
  0
BLOCK
  5
240
100
AcDbEntity
  8
MAIN0
  6
CONTINUOUS
 62
3
100
AcDbBlockBegin
  2
*D26
 70
    65
 10
0.0
 20
0.0
 30
0.0
  0
LINE
  5
241
100
AcDbEntity
  8
MAIN0
  6
BYBLOCK
 62
0
370
    -2
100
AcDbLine
 10
566.8394978055263
 20
298.8512169590778
 30
0.0000000000000000
 11
592.9244728593096
 21
298.8512169590778
 31
0.0000000000000000
  0
LINE
  5
242
100
AcDbEntity
  8
MAIN0
  6
BYBLOCK
 62
0
370
    -2
100
AcDbLine
 10
590.9244728593096
 20
296.8512169590778
 30
0.0000000000000000
 11
590.9244728593096
 21
280.8512169590778
 31
0.0000000000000000
  0
INSERT
  5
243
100
AcDbEntity
  8
MAIN0
  6
BYBLOCK
 62
0
100
AcDbBlockReference
  2
_OPEN
 10
590.9244728593096
 20
298.8512169590778
 30
0.0000000000000000
 41
2.000000000000000
 42
2.000000000000000
 43
2.000000000000000
 50
90.00000000000000
  0
INSERT
  5
244
100
AcDbEntity
  8
MAIN0
  6
BYBLOCK
 62
0
100
AcDbBlockReference
  2
_OPEN
 10
590.9244728593096
 20
278.8512169590778
 30
0.0000000000000000
 41
2.000000000000000
 42
2.000000000000000
 43
2.000000000000000
 50
270.0000000000000
  0
LINE
  5
245
100
AcDbEntity
  8
MAIN0
  6
BYBLOCK
 62
0
370
    -2
100
AcDbLine
 10
566.8394978055263
 20
278.8512169590778
 30
0.0000000000000000
 11
592.9244728593096
 21
278.8512169590778
 31
0.0000000000000000
  0
MTEXT
  5
246
100
AcDbEntity
  8
MAIN0
  6
BYBLOCK
 62
0
100
AcDbMText
 10
588.8744729069933
 20
288.8512169590778
 30
0.0000000000000000
 40
3.099999904632568
 41
0.0000000000000000
 44
0.7741935722041460
 71
     5
 72
     1
  1
\A1;20
 11
6.123233995736766e-017
 21
1.000000000000000
 31
0.0000000000000000
  7
STANDARD
  0
ENDBLK
  5
247
100
AcDbEntity
  8
MAIN0
  6
CONTINUOUS
 62
3
100
AcDbBlockEnd
  0
BLOCK
  5
249
100
AcDbEntity
  8
MAIN0
  6
CONTINUOUS
 62
3
100
AcDbBlockBegin
  2
*D27
 70
    65
 10
0.0
 20
0.0
 30
0.0
  0
LINE
  5
24A
100
AcDbEntity
  8
MAIN0
  6
BYBLOCK
 62
0
370
    -2
100
AcDbLine
 10
566.8394978055263
 20
278.8512169590778
 30
0.0000000000000000
 11
592.9244728593096
 21
278.8512169590778
 31
0.0000000000000000
  0
LINE
  5
24B
100
AcDbEntity
  8
MAIN0
  6
BYBLOCK
 62
0
370
    -2
100
AcDbLine
 10
590.9244728593096
 20
278.8512169590778
 30
0.0000000000000000
 11
590.9244728593096
 21
268.8512169590778
 31
0.0000000000000000
  0
INSERT
  5
24C
100
AcDbEntity
  8
MAIN0
  6
BYBLOCK
 62
0
100
AcDbBlockReference
  2
_OPEN
 10
590.9244728593096
 20
278.8512169590778
 30
0.0000000000000000
 41
2.000000000000000
 42
2.000000000000000
 43
2.000000000000000
 50
270.0000000000000
  0
INSERT
  5
24D
100
AcDbEntity
  8
MAIN0
  6
BYBLOCK
 62
0
100
AcDbBlockReference
  2
_OPEN
 10
590.9244728593096
 20
268.8512169590778
 30
0.0000000000000000
 41
2.000000000000000
 42
2.000000000000000
 43
2.000000000000000
 50
90.00000000000000
  0
LINE
  5
24E
100
AcDbEntity
  8
MAIN0
  6
BYBLOCK
 62
0
370
    -2
100
AcDbLine
 10
590.9244728593096
 20
280.8512169590778
 30
0.0000000000000000
 11
590.9244728593096
 21
281.8512169590778
 31
0.0000000000000000
  0
LINE
  5
24F
100
AcDbEntity
  8
MAIN0
  6
BYBLOCK
 62
0
370
    -2
100
AcDbLine
 10
590.9244728593096
 20
266.8512169590778
 30
0.0000000000000000
 11
590.9244728593096
 21
256.6395031681842
 31
0.0000000000000000
  0
MTEXT
  5
250
100
AcDbEntity
  8
MAIN0
  6
BYBLOCK
 62
0
100
AcDbMText
 10
588.3744729069933
 20
258.7395034531614
 30
0.0000000000000000
 40
3.099999904632568
 41
0.0000000000000000
 44
0.7741935722041460
 71
     5
 72
     1
  1
\A1;10
 11
6.123233995736766e-017
 21
1.000000000000000
 31
0.0000000000000000
  7
STANDARD
  0
ENDBLK
  5
251
100
AcDbEntity
  8
MAIN0
  6
CONTINUOUS
 62
3
100
AcDbBlockEnd
  0
BLOCK
  5
2AA
100
AcDbEntity
  8
MAIN0
  6
CONTINUOUS
 62
3
100
AcDbBlockBegin
  2
*D28
 70
    65
 10
0.0
 20
0.0
 30
0.0
  0
LINE
  5
2AB
100
AcDbEntity
  8
MAIN0
  6
BYBLOCK
 62
0
370
    -2
100
AcDbLine
 10
594.0030988464102
 20
433.3512169590778
 30
0.0000000000000000
 11
620.5964211747496
 21
433.3512169590778
 31
0.0000000000000000
  0
LINE
  5
2AC
100
AcDbEntity
  8
MAIN0
  6
BYBLOCK
 62
0
370
    -2
100
AcDbLine
 10
618.5964211747496
 20
435.3512169590778
 30
0.0000000000000000
 11
618.5964211747496
 21
481.3512169590778
 31
0.0000000000000000
  0
INSERT
  5
2AD
100
AcDbEntity
  8
MAIN0
  6
BYBLOCK
 62
0
100
AcDbBlockReference
  2
_OPEN
 10
618.5964211747496
 20
433.3512169590778
 30
0.0000000000000000
 41
2.000000000000000
 42
2.000000000000000
 43
2.000000000000000
 50
270.0000000000000
  0
INSERT
  5
2AE
100
AcDbEntity
  8
MAIN0
  6
BYBLOCK
 62
0
100
AcDbBlockReference
  2
_OPEN
 10
618.5964211747496
 20
483.3512169590778
 30
0.0000000000000000
 41
2.000000000000000
 42
2.000000000000000
 43
2.000000000000000
 50
90.00000000000000
  0
LINE
  5
2AF
100
AcDbEntity
  8
MAIN0
  6
BYBLOCK
 62
0
370
    -2
100
AcDbLine
 10
594.0030988464102
 20
483.3512169590778
 30
0.0000000000000000
 11
620.5964211747496
 21
483.3512169590778
 31
0.0000000000000000
  0
MTEXT
  5
2B0
100
AcDbEntity
  8
MAIN0
  6
BYBLOCK
 62
0
100
AcDbMText
 10
616.5464212224333
 20
458.3512169590778
 30
0.0000000000000000
 40
3.099999904632568
 41
0.0000000000000000
 44
0.7741935722041460
 71
     5
 72
     1
  1
\A1;50
 11
6.123233995736766e-017
 21
1.000000000000000
 31
0.0000000000000000
  7
STANDARD
  0
ENDBLK
  5
2B1
100
AcDbEntity
  8
MAIN0
  6
CONTINUOUS
 62
3
100
AcDbBlockEnd
  0
BLOCK
  5
2B3
100
AcDbEntity
  8
MAIN0
  6
CONTINUOUS
 62
3
100
AcDbBlockBegin
  2
*D29
 70
    65
 10
0.0
 20
0.0
 30
0.0
  0
LINE
  5
2B4
100
AcDbEntity
  8
MAIN0
  6
BYBLOCK
 62
0
370
    -2
100
AcDbLine
 10
343.9482387350922
 20
418.3512169590778
 30
0.0000000000000000
 11
318.5667926853886
 21
418.3512169590778
 31
0.0000000000000000
  0
LINE
  5
2B5
100
AcDbEntity
  8
MAIN0
  6
BYBLOCK
 62
0
370
    -2
100
AcDbLine
 10
320.5667926853886
 20
420.3512169590778
 30
0.0000000000000000
 11
320.5667926853886
 21
496.3512169590778
 31
0.0000000000000000
  0
INSERT
  5
2B6
100
AcDbEntity
  8
MAIN0
  6
BYBLOCK
 62
0
100
AcDbBlockReference
  2
_OPEN
 10
320.5667926853886
 20
418.3512169590778
 30
0.0000000000000000
 41
2.000000000000000
 42
2.000000000000000
 43
2.000000000000000
 50
270.0000000000000
  0
INSERT
  5
2B7
100
AcDbEntity
  8
MAIN0
  6
BYBLOCK
 62
0
100
AcDbBlockReference
  2
_OPEN
 10
320.5667926853886
 20
498.3512169590778
 30
0.0000000000000000
 41
2.000000000000000
 42
2.000000000000000
 43
2.000000000000000
 50
90.00000000000000
  0
LINE
  5
2B8
100
AcDbEntity
  8
MAIN0
  6
BYBLOCK
 62
0
370
    -2
100
AcDbLine
 10
343.9482387350922
 20
498.3512169590778
 30
0.0000000000000000
 11
318.5667926853886
 21
498.3512169590778
 31
0.0000000000000000
  0
MTEXT
  5
2B9
100
AcDbEntity
  8
MAIN0
  6
BYBLOCK
 62
0
100
AcDbMText
 10
318.5167927330724
 20
458.3512169590778
 30
0.0000000000000000
 40
3.099999904632568
 41
0.0000000000000000
 44
0.7741935722041460
 71
     5
 72
     1
  1
\A1;80
 11
6.123233995736766e-017
 21
1.000000000000000
 31
0.0000000000000000
  7
STANDARD
  0
ENDBLK
  5
2BA
100
AcDbEntity
  8
MAIN0
  6
CONTINUOUS
 62
3
100
AcDbBlockEnd
  0
BLOCK
  5
2BC
100
AcDbEntity
  8
MAIN0
  6
CONTINUOUS
 62
3
100
AcDbBlockBegin
  2
*D30
 70
    65
 10
0.0
 20
0.0
 30
0.0
  0
LINE
  5
2BD
100
AcDbEntity
  8
MAIN0
  6
BYBLOCK
 62
0
370
    -2
100
AcDbLine
 10
354.0394977936054
 20
407.9866415174633
 30
0.0000000000000000
 11
354.0394977936054
 21
373.9997137951023
 31
0.0000000000000000
  0
LINE
  5
2BE
100
AcDbEntity
  8
MAIN0
  6
BYBLOCK
 62
0
370
    -2
100
AcDbLine
 10
356.0394977936054
 20
375.9997137951023
 30
0.0000000000000000
 11
402.0394977936054
 21
375.9997137951023
 31
0.0000000000000000
  0
INSERT
  5
2BF
100
AcDbEntity
  8
MAIN0
  6
BYBLOCK
 62
0
100
AcDbBlockReference
  2
_OPEN
 10
354.0394977936054
 20
375.9997137951023
 30
0.0000000000000000
 41
2.000000000000000
 42
2.000000000000000
 43
2.000000000000000
 50
180.0000000000000
  0
INSERT
  5
2C0
100
AcDbEntity
  8
MAIN0
  6
BYBLOCK
 62
0
100
AcDbBlockReference
  2
_OPEN
 10
404.0394977936054
 20
375.9997137951023
 30
0.0000000000000000
 41
2.000000000000000
 42
2.000000000000000
 43
2.000000000000000
 50
0.0000000000000000
  0
LINE
  5
2C1
100
AcDbEntity
  8
MAIN0
  6
BYBLOCK
 62
0
370
    -2
100
AcDbLine
 10
404.0394977936054
 20
407.9866415174633
 30
0.0000000000000000
 11
404.0394977936054
 21
373.9997137951023
 31
0.0000000000000000
  0
MTEXT
  5
2C2
100
AcDbEntity
  8
MAIN0
  6
BYBLOCK
 62
0
100
AcDbMText
 10
379.0394977936054
 20
378.0497137474185
 30
0.0000000000000000
 40
3.099999904632568
 41
0.0000000000000000
 44
0.7741935722041460
 71
     5
 72
     1
  1
\A1;50
 11
1.000000000000000
 21
0.0000000000000000
 31
0.0000000000000000
  7
STANDARD
  0
ENDBLK
  5
2C3
100
AcDbEntity
  8
MAIN0
  6
CONTINUOUS
 62
3
100
AcDbBlockEnd
  0
BLOCK
  5
2C5
100
AcDbEntity
  8
MAIN0
  6
CONTINUOUS
 62
3
100
AcDbBlockBegin
  2
*D31
 70
    65
 10
0.0
 20
0.0
 30
0.0
  0
LINE
  5
2C6
100
AcDbEntity
  8
MAIN0
  6
BYBLOCK
 62
0
370
    -2
100
AcDbLine
 10
404.0394977936054
 20
407.9866415174633
 30
0.0000000000000000
 11
404.0394977936054
 21
373.9997137951023
 31
0.0000000000000000
  0
LINE
  5
2C7
100
AcDbEntity
  8
MAIN0
  6
BYBLOCK
 62
0
370
    -2
100
AcDbLine
 10
404.0394977936054
 20
375.9997137951023
 30
0.0000000000000000
 11
414.0394977936054
 21
375.9997137951023
 31
0.0000000000000000
  0
INSERT
  5
2C8
100
AcDbEntity
  8
MAIN0
  6
BYBLOCK
 62
0
100
AcDbBlockReference
  2
_OPEN
 10
404.0394977936054
 20
375.9997137951023
 30
0.0000000000000000
 41
2.000000000000000
 42
2.000000000000000
 43
2.000000000000000
 50
0.0000000000000000
  0
INSERT
  5
2C9
100
AcDbEntity
  8
MAIN0
  6
BYBLOCK
 62
0
100
AcDbBlockReference
  2
_OPEN
 10
414.0394977936054
 20
375.9997137951023
 30
0.0000000000000000
 41
2.000000000000000
 42
2.000000000000000
 43
2.000000000000000
 50
180.0000000000000
  0
LINE
  5
2CA
100
AcDbEntity
  8
MAIN0
  6
BYBLOCK
 62
0
370
    -2
100
AcDbLine
 10
402.0394977936054
 20
375.9997137951023
 30
0.0000000000000000
 11
401.0394977936054
 21
375.9997137951023
 31
0.0000000000000000
  0
LINE
  5
2CB
100
AcDbEntity
  8
MAIN0
  6
BYBLOCK
 62
0
370
    -2
100
AcDbLine
 10
416.0394977936054
 20
375.9997137951023
 30
0.0000000000000000
 11
417.0394977936054
 21
375.9997137951023
 31
0.0000000000000000
  0
LINE
  5
2CC
100
AcDbEntity
  8
MAIN0
  6
BYBLOCK
 62
0
370
    -2
100
AcDbLine
 10
414.0394977936054
 20
395.3012169471568
 30
0.0000000000000000
 11
414.0394977936054
 21
373.9997137951023
 31
0.0000000000000000
  0
MTEXT
  5
2CD
100
AcDbEntity
  8
MAIN0
  6
BYBLOCK
 62
0
100
AcDbMText
 10
409.0394977936054
 20
378.0497137474185
 30
0.0000000000000000
 40
3.099999904632568
 41
0.0000000000000000
 44
0.7741935722041460
 71
     5
 72
     1
  1
\A1;10
 11
1.000000000000000
 21
0.0000000000000000
 31
0.0000000000000000
  7
STANDARD
  0
ENDBLK
  5
2CE
100
AcDbEntity
  8
MAIN0
  6
CONTINUOUS
 62
3
100
AcDbBlockEnd
  0
BLOCK
  5
2D0
100
AcDbEntity
  8
MAIN0
  6
CONTINUOUS
 62
3
100
AcDbBlockBegin
  2
*D32
 70
    65
 10
0.0
 20
0.0
 30
0.0
  0
LINE
  5
2D1
100
AcDbEntity
  8
MAIN0
  6
BYBLOCK
 62
0
370
    -2
100
AcDbLine
 10
519.0394977936054
 20
395.3012169471568
 30
0.0000000000000000
 11
519.0394977936054
 21
373.9997137951023
 31
0.0000000000000000
  0
LINE
  5
2D2
100
AcDbEntity
  8
MAIN0
  6
BYBLOCK
 62
0
370
    -2
100
AcDbLine
 10
519.0394977936054
 20
375.9997137951023
 30
0.0000000000000000
 11
529.0394977936054
 21
375.9997137951023
 31
0.0000000000000000
  0
INSERT
  5
2D3
100
AcDbEntity
  8
MAIN0
  6
BYBLOCK
 62
0
100
AcDbBlockReference
  2
_OPEN
 10
519.0394977936054
 20
375.9997137951023
 30
0.0000000000000000
 41
2.000000000000000
 42
2.000000000000000
 43
2.000000000000000
 50
0.0000000000000000
  0
INSERT
  5
2D4
100
AcDbEntity
  8
MAIN0
  6
BYBLOCK
 62
0
100
AcDbBlockReference
  2
_OPEN
 10
529.0394977936054
 20
375.9997137951023
 30
0.0000000000000000
 41
2.000000000000000
 42
2.000000000000000
 43
2.000000000000000
 50
180.0000000000000
  0
LINE
  5
2D5
100
AcDbEntity
  8
MAIN0
  6
BYBLOCK
 62
0
370
    -2
100
AcDbLine
 10
517.0394977936054
 20
375.9997137951023
 30
0.0000000000000000
 11
516.0394977936054
 21
375.9997137951023
 31
0.0000000000000000
  0
LINE
  5
2D6
100
AcDbEntity
  8
MAIN0
  6
BYBLOCK
 62
0
370
    -2
100
AcDbLine
 10
531.0394977936054
 20
375.9997137951023
 30
0.0000000000000000
 11
532.0394977936054
 21
375.9997137951023
 31
0.0000000000000000
  0
LINE
  5
2D7
100
AcDbEntity
  8
MAIN0
  6
BYBLOCK
 62
0
370
    -2
100
AcDbLine
 10
529.0394977936054
 20
423.1654779133166
 30
0.0000000000000000
 11
529.0394977936054
 21
373.9997137951023
 31
0.0000000000000000
  0
MTEXT
  5
2D8
100
AcDbEntity
  8
MAIN0
  6
BYBLOCK
 62
0
100
AcDbMText
 10
524.0394977936054
 20
378.0497137474185
 30
0.0000000000000000
 40
3.099999904632568
 41
0.0000000000000000
 44
0.7741935722041460
 71
     5
 72
     1
  1
\A1;10
 11
1.000000000000000
 21
0.0000000000000000
 31
0.0000000000000000
  7
STANDARD
  0
ENDBLK
  5
2D9
100
AcDbEntity
  8
MAIN0
  6
CONTINUOUS
 62
3
100
AcDbBlockEnd
  0
BLOCK
  5
2DB
100
AcDbEntity
  8
MAIN0
  6
CONTINUOUS
 62
3
100
AcDbBlockBegin
  2
*D33
 70
    65
 10
0.0
 20
0.0
 30
0.0
  0
LINE
  5
2DC
100
AcDbEntity
  8
MAIN0
  6
BYBLOCK
 62
0
370
    -2
100
AcDbLine
 10
529.0394977936054
 20
423.1654779133166
 30
0.0000000000000000
 11
529.0394977936054
 21
373.9997137951023
 31
0.0000000000000000
  0
LINE
  5
2DD
100
AcDbEntity
  8
MAIN0
  6
BYBLOCK
 62
0
370
    -2
100
AcDbLine
 10
531.0394977936054
 20
375.9997137951023
 30
0.0000000000000000
 11
582.0394977936054
 21
375.9997137951023
 31
0.0000000000000000
  0
INSERT
  5
2DE
100
AcDbEntity
  8
MAIN0
  6
BYBLOCK
 62
0
100
AcDbBlockReference
  2
_OPEN
 10
529.0394977936054
 20
375.9997137951023
 30
0.0000000000000000
 41
2.000000000000000
 42
2.000000000000000
 43
2.000000000000000
 50
180.0000000000000
  0
INSERT
  5
2DF
100
AcDbEntity
  8
MAIN0
  6
BYBLOCK
 62
0
100
AcDbBlockReference
  2
_OPEN
 10
584.0394977936054
 20
375.9997137951023
 30
0.0000000000000000
 41
2.000000000000000
 42
2.000000000000000
 43
2.000000000000000
 50
0.0000000000000000
  0
LINE
  5
2E0
100
AcDbEntity
  8
MAIN0
  6
BYBLOCK
 62
0
370
    -2
100
AcDbLine
 10
584.0394977936054
 20
423.1654779133166
 30
0.0000000000000000
 11
584.0394977936054
 21
373.9997137951023
 31
0.0000000000000000
  0
MTEXT
  5
2E1
100
AcDbEntity
  8
MAIN0
  6
BYBLOCK
 62
0
100
AcDbMText
 10
556.5394977936054
 20
378.0497137474185
 30
0.0000000000000000
 40
3.099999904632568
 41
0.0000000000000000
 44
0.7741935722041460
 71
     5
 72
     1
  1
\A1;55
 11
1.000000000000000
 21
0.0000000000000000
 31
0.0000000000000000
  7
STANDARD
  0
ENDBLK
  5
2E2
100
AcDbEntity
  8
MAIN0
  6
CONTINUOUS
 62
3
100
AcDbBlockEnd
  0
BLOCK
  5
2E4
100
AcDbEntity
  8
MAIN0
  6
CONTINUOUS
 62
3
100
AcDbBlockBegin
  2
*D34
 70
    65
 10
0.0
 20
0.0
 30
0.0
  0
LINE
  5
2E5
100
AcDbEntity
  8
MAIN0
  6
BYBLOCK
 62
0
370
    -2
100
AcDbLine
 10
377.0394977936054
 20
472.1512169709987
 30
0.0000000000000000
 11
377.0394977936054
 21
541.9675685337439
 31
0.0000000000000000
  0
LINE
  5
2E6
100
AcDbEntity
  8
MAIN0
  6
BYBLOCK
 62
0
370
    -2
100
AcDbLine
 10
379.0394977936054
 20
539.9675685337439
 30
0.0000000000000000
 11
412.0394977936054
 21
539.9675685337439
 31
0.0000000000000000
  0
INSERT
  5
2E7
100
AcDbEntity
  8
MAIN0
  6
BYBLOCK
 62
0
100
AcDbBlockReference
  2
_OPEN
 10
377.0394977936054
 20
539.9675685337439
 30
0.0000000000000000
 41
2.000000000000000
 42
2.000000000000000
 43
2.000000000000000
 50
180.0000000000000
  0
INSERT
  5
2E8
100
AcDbEntity
  8
MAIN0
  6
BYBLOCK
 62
0
100
AcDbBlockReference
  2
_OPEN
 10
414.0394977936054
 20
539.9675685337439
 30
0.0000000000000000
 41
2.000000000000000
 42
2.000000000000000
 43
2.000000000000000
 50
0.0000000000000000
  0
LINE
  5
2E9
100
AcDbEntity
  8
MAIN0
  6
BYBLOCK
 62
0
370
    -2
100
AcDbLine
 10
414.0394977936054
 20
521.4012169709987
 30
0.0000000000000000
 11
414.0394977936054
 21
541.9675685337439
 31
0.0000000000000000
  0
MTEXT
  5
2EA
100
AcDbEntity
  8
MAIN0
  6
BYBLOCK
 62
0
100
AcDbMText
 10
395.5394977936054
 20
542.0175684860602
 30
0.0000000000000000
 40
3.099999904632568
 41
0.0000000000000000
 44
0.7741935722041460
 71
     5
 72
     1
  1
\A1;37
 11
1.000000000000000
 21
0.0000000000000000
 31
0.0000000000000000
  7
STANDARD
  0
ENDBLK
  5
2EB
100
AcDbEntity
  8
MAIN0
  6
CONTINUOUS
 62
3
100
AcDbBlockEnd
  0
BLOCK
  5
2ED
100
AcDbEntity
  8
MAIN0
  6
CONTINUOUS
 62
3
100
AcDbBlockBegin
  2
*D35
 70
    65
 10
0.0
 20
0.0
 30
0.0
  0
LINE
  5
2EE
100
AcDbEntity
  8
MAIN0
  6
BYBLOCK
 62
0
370
    -2
100
AcDbLine
 10
519.0394977936054
 20
521.4012169709987
 30
0.0000000000000000
 11
519.0394977936054
 21
541.9675685337439
 31
0.0000000000000000
  0
LINE
  5
2EF
100
AcDbEntity
  8
MAIN0
  6
BYBLOCK
 62
0
370
    -2
100
AcDbLine
 10
521.0394977936054
 20
539.9675685337439
 30
0.0000000000000000
 11
556.0394977936054
 21
539.9675685337439
 31
0.0000000000000000
  0
INSERT
  5
2F0
100
AcDbEntity
  8
MAIN0
  6
BYBLOCK
 62
0
100
AcDbBlockReference
  2
_OPEN
 10
519.0394977936054
 20
539.9675685337439
 30
0.0000000000000000
 41
2.000000000000000
 42
2.000000000000000
 43
2.000000000000000
 50
180.0000000000000
  0
INSERT
  5
2F1
100
AcDbEntity
  8
MAIN0
  6
BYBLOCK
 62
0
100
AcDbBlockReference
  2
_OPEN
 10
558.0394977936054
 20
539.9675685337439
 30
0.0000000000000000
 41
2.000000000000000
 42
2.000000000000000
 43
2.000000000000000
 50
0.0000000000000000
  0
LINE
  5
2F2
100
AcDbEntity
  8
MAIN0
  6
BYBLOCK
 62
0
370
    -2
100
AcDbLine
 10
558.0394977936054
 20
472.1512169709987
 30
0.0000000000000000
 11
558.0394977936054
 21
541.9675685337439
 31
0.0000000000000000
  0
MTEXT
  5
2F3
100
AcDbEntity
  8
MAIN0
  6
BYBLOCK
 62
0
100
AcDbMText
 10
538.5394977936054
 20
542.0175684860602
 30
0.0000000000000000
 40
3.099999904632568
 41
0.0000000000000000
 44
0.7741935722041460
 71
     5
 72
     1
  1
\A1;39
 11
1.000000000000000
 21
0.0000000000000000
 31
0.0000000000000000
  7
STANDARD
  0
ENDBLK
  5
2F4
100
AcDbEntity
  8
MAIN0
  6
CONTINUOUS
 62
3
100
AcDbBlockEnd
  0
BLOCK
  5
397
100
AcDbEntity
  8
MAIN0
  6
CONTINUOUS
 62
3
100
AcDbBlockBegin
  2
*D36
 70
    65
 10
0.0
 20
0.0
 30
0.0
  0
LINE
  5
398
100
AcDbEntity
  8
MAIN0
  6
BYBLOCK
 62
0
370
    -2
100
AcDbLine
 10
644.0394977936054
 20
307.5512169471568
 30
0.0000000000000000
 11
644.0394977936054
 21
237.4805454127203
 31
0.0000000000000000
  0
LINE
  5
399
100
AcDbEntity
  8
MAIN0
  6
BYBLOCK
 62
0
370
    -2
100
AcDbLine
 10
642.0394977936054
 20
239.4805454127203
 30
0.0000000000000000
 11
625.0394977936054
 21
239.4805454127203
 31
0.0000000000000000
  0
INSERT
  5
39A
100
AcDbEntity
  8
MAIN0
  6
BYBLOCK
 62
0
100
AcDbBlockReference
  2
_OPEN
 10
644.0394977936054
 20
239.4805454127203
 30
0.0000000000000000
 41
2.000000000000000
 42
2.000000000000000
 43
2.000000000000000
 50
360.0000000000000
  0
INSERT
  5
39B
100
AcDbEntity
  8
MAIN0
  6
BYBLOCK
 62
0
100
AcDbBlockReference
  2
_OPEN
 10
623.0394977936054
 20
239.4805454127203
 30
0.0000000000000000
 41
2.000000000000000
 42
2.000000000000000
 43
2.000000000000000
 50
180.0000000000000
  0
LINE
  5
39C
100
AcDbEntity
  8
MAIN0
  6
BYBLOCK
 62
0
370
    -2
100
AcDbLine
 10
623.0394977936054
 20
307.5512169471568
 30
0.0000000000000000
 11
623.0394977936054
 21
237.4805454127203
 31
0.0000000000000000
  0
MTEXT
  5
39D
100
AcDbEntity
  8
MAIN0
  6
BYBLOCK
 62
0
100
AcDbMText
 10
633.5394977936054
 20
241.5305453650366
 30
0.0000000000000000
 40
3.099999904632568
 41
0.0000000000000000
 44
0.7741935722041460
 71
     5
 72
     1
  1
\A1;21
 11
1.000000000000000
 21
0.0000000000000000
 31
0.0000000000000000
  7
STANDARD
  0
ENDBLK
  5
39E
100
AcDbEntity
  8
MAIN0
  6
CONTINUOUS
 62
3
100
AcDbBlockEnd
  0
BLOCK
  5
3A0
100
AcDbEntity
  8
MAIN0
  6
CONTINUOUS
 62
3
100
AcDbBlockBegin
  2
*D37
 70
    65
 10
0.0
 20
0.0
 30
0.0
  0
LINE
  5
3A1
100
AcDbEntity
  8
MAIN0
  6
BYBLOCK
 62
0
370
    -2
100
AcDbLine
 10
623.0394977936054
 20
307.5512169471568
 30
0.0000000000000000
 11
623.0394977936054
 21
237.4805454127203
 31
0.0000000000000000
  0
LINE
  5
3A2
100
AcDbEntity
  8
MAIN0
  6
BYBLOCK
 62
0
370
    -2
100
AcDbLine
 10
621.0394977936054
 20
239.4805454127203
 30
0.0000000000000000
 11
600.0394977936054
 21
239.4805454127203
 31
0.0000000000000000
  0
INSERT
  5
3A3
100
AcDbEntity
  8
MAIN0
  6
BYBLOCK
 62
0
100
AcDbBlockReference
  2
_OPEN
 10
623.0394977936054
 20
239.4805454127203
 30
0.0000000000000000
 41
2.000000000000000
 42
2.000000000000000
 43
2.000000000000000
 50
360.0000000000000
  0
INSERT
  5
3A4
100
AcDbEntity
  8
MAIN0
  6
BYBLOCK
 62
0
100
AcDbBlockReference
  2
_OPEN
 10
598.0394977936054
 20
239.4805454127203
 30
0.0000000000000000
 41
2.000000000000000
 42
2.000000000000000
 43
2.000000000000000
 50
180.0000000000000
  0
LINE
  5
3A5
100
AcDbEntity
  8
MAIN0
  6
BYBLOCK
 62
0
370
    -2
100
AcDbLine
 10
598.0394977936054
 20
307.5512169471568
 30
0.0000000000000000
 11
598.0394977936054
 21
237.4805454127203
 31
0.0000000000000000
  0
MTEXT
  5
3A6
100
AcDbEntity
  8
MAIN0
  6
BYBLOCK
 62
0
100
AcDbMText
 10
610.5394977936054
 20
241.5305453650366
 30
0.0000000000000000
 40
3.099999904632568
 41
0.0000000000000000
 44
0.7741935722041460
 71
     5
 72
     1
  1
\A1;25
 11
1.000000000000000
 21
0.0000000000000000
 31
0.0000000000000000
  7
STANDARD
  0
ENDBLK
  5
3A7
100
AcDbEntity
  8
MAIN0
  6
CONTINUOUS
 62
3
100
AcDbBlockEnd
  0
BLOCK
  5
3AE
100
AcDbEntity
  8
MAIN0
  6
CONTINUOUS
 62
3
100
AcDbBlockBegin
  2
*D38
 70
    65
 10
0.0
 20
0.0
 30
0.0
  0
LINE
  5
3AF
100
AcDbEntity
  8
MAIN0
  6
BYBLOCK
 62
0
370
    -2
100
AcDbLine
 10
274.1523397694406
 20
714.6815657958114
 30
0.0000000000000000
 11
203.2816287570404
 21
643.8108547834112
 31
0.0000000000000000
  0
LINE
  5
3B0
100
AcDbEntity
  8
MAIN0
  6
BYBLOCK
 62
0
370
    -2
100
AcDbLine
 10
203.2816287570405
 20
646.6392819081574
 30
0.0000000000000000
 11
191.2608134768691
 21
658.6600971883288
 31
0.0000000000000000
  0
INSERT
  5
3B1
100
AcDbEntity
  8
MAIN0
  6
BYBLOCK
 62
0
100
AcDbBlockReference
  2
_OPEN
 10
204.6958423194135
 20
645.2250683457843
 30
0.0000000000000000
 41
2.000000000000000
 42
2.000000000000000
 43
2.000000000000000
 50
315.0000000000000
  0
INSERT
  5
3B2
100
AcDbEntity
  8
MAIN0
  6
BYBLOCK
 62
0
100
AcDbBlockReference
  2
_OPEN
 10
189.8465999144960
 20
660.0743107507019
 30
0.0000000000000000
 41
2.000000000000000
 42
2.000000000000000
 43
2.000000000000000
 50
135.0000000000000
  0
LINE
  5
3B3
100
AcDbEntity
  8
MAIN0
  6
BYBLOCK
 62
0
370
    -2
100
AcDbLine
 10
202.7345548695992
 20
672.9622657058051
 30
0.0000000000000000
 11
188.4323863521229
 21
658.6600971883288
 31
0.0000000000000000
  0
MTEXT
  5
3B4
100
AcDbEntity
  8
MAIN0
  6
BYBLOCK
 62
0
100
AcDbMText
 10
198.7207899846697
 20
654.0992584159581
 30
0.0000000000000000
 40
3.099999904632568
 41
0.0000000000000000
 44
0.7741935722041460
 71
     5
 72
     1
  1
\A1;21
 11
0.7071067811865474
 21
-0.7071067811865477
 31
0.0000000000000000
  7
STANDARD
  0
ENDBLK
  5
3B5
100
AcDbEntity
  8
MAIN0
  6
CONTINUOUS
 62
3
100
AcDbBlockEnd
  0
BLOCK
  5
3B7
100
AcDbEntity
  8
MAIN0
  6
CONTINUOUS
 62
3
100
AcDbBlockBegin
  2
*D39
 70
    65
 10
0.0
 20
0.0
 30
0.0
  0
LINE
  5
3B8
100
AcDbEntity
  8
MAIN0
  6
BYBLOCK
 62
0
370
    -2
100
AcDbLine
 10
202.7345548695992
 20
672.9622657058051
 30
0.0000000000000000
 11
188.4323863521229
 21
658.6600971883288
 31
0.0000000000000000
  0
LINE
  5
3B9
100
AcDbEntity
  8
MAIN0
  6
BYBLOCK
 62
0
370
    -2
100
AcDbLine
 10
189.8465999144960
 20
660.0743107507019
 30
0.0000000000000000
 11
183.4826388838170
 21
666.4382717813808
 31
0.0000000000000000
  0
INSERT
  5
3BA
100
AcDbEntity
  8
MAIN0
  6
BYBLOCK
 62
0
100
AcDbBlockReference
  2
_OPEN
 10
189.8465999144960
 20
660.0743107507019
 30
0.0000000000000000
 41
2.000000000000000
 42
2.000000000000000
 43
2.000000000000000
 50
135.0000000000004
  0
INSERT
  5
3BB
100
AcDbEntity
  8
MAIN0
  6
BYBLOCK
 62
0
100
AcDbBlockReference
  2
_OPEN
 10
183.4826388838170
 20
666.4382717813808
 30
0.0000000000000000
 41
2.000000000000000
 42
2.000000000000000
 43
2.000000000000000
 50
315.0000000000003
  0
LINE
  5
3BC
100
AcDbEntity
  8
MAIN0
  6
BYBLOCK
 62
0
370
    -2
100
AcDbLine
 10
191.2608134768691
 20
658.6600971883288
 30
0.0000000000000000
 11
191.9679202580556
 21
657.9529904071422
 31
0.0000000000000000
  0
LINE
  5
3BD
100
AcDbEntity
  8
MAIN0
  6
BYBLOCK
 62
0
370
    -2
100
AcDbLine
 10
182.0684253214440
 20
667.8524853437539
 30
0.0000000000000000
 11
181.3613185402574
 21
668.5595921249404
 31
0.0000000000000000
  0
LINE
  5
3BE
100
AcDbEntity
  8
MAIN0
  6
BYBLOCK
 62
0
370
    -2
100
AcDbLine
 10
196.3705938389203
 20
679.3262267364841
 30
0.0000000000000000
 11
182.0684253214439
 21
665.0240582190077
 31
0.0000000000000000
  0
MTEXT
  5
3BF
100
AcDbEntity
  8
MAIN0
  6
BYBLOCK
 62
0
100
AcDbMText
 10
188.1141882668715
 20
664.7058601337564
 30
0.0000000000000000
 40
3.099999904632568
 41
0.0000000000000000
 44
0.7741935722041460
 71
     5
 72
     1
  1
\A1;9
 11
0.7071067811865474
 21
-0.7071067811865477
 31
0.0000000000000000
  7
STANDARD
  0
ENDBLK
  5
3C0
100
AcDbEntity
  8
MAIN0
  6
CONTINUOUS
 62
3
100
AcDbBlockEnd
  0
BLOCK
  5
3C2
100
AcDbEntity
  8
MAIN0
  6
CONTINUOUS
 62
3
100
AcDbBlockBegin
  2
*D40
 70
    65
 10
0.0
 20
0.0
 30
0.0
  0
LINE
  5
3C3
100
AcDbEntity
  8
MAIN0
  6
BYBLOCK
 62
0
370
    -2
100
AcDbLine
 10
261.1415750124668
 20
744.0972079100304
 30
0.0000000000000000
 11
275.7609424945902
 21
758.7165753921537
 31
0.0000000000000000
  0
LINE
  5
3C4
100
AcDbEntity
  8
MAIN0
  6
BYBLOCK
 62
0
370
    -2
100
AcDbLine
 10
275.7609424945902
 20
755.8881482674075
 30
0.0000000000000000
 11
294.1457188054404
 21
737.5033719565573
 31
0.0000000000000000
  0
INSERT
  5
3C5
100
AcDbEntity
  8
MAIN0
  6
BYBLOCK
 62
0
100
AcDbBlockReference
  2
_OPEN
 10
274.3467289322171
 20
757.3023618297806
 30
0.0000000000000000
 41
2.000000000000000
 42
2.000000000000000
 43
2.000000000000000
 50
135.0000000000002
  0
INSERT
  5
3C6
100
AcDbEntity
  8
MAIN0
  6
BYBLOCK
 62
0
100
AcDbBlockReference
  2
_OPEN
 10
295.5599323678135
 20
736.0891583941842
 30
0.0000000000000000
 41
2.000000000000000
 42
2.000000000000000
 43
2.000000000000000
 50
315.0000000000002
  0
LINE
  5
3C7
100
AcDbEntity
  8
MAIN0
  6
BYBLOCK
 62
0
370
    -2
100
AcDbLine
 10
282.3547784480633
 20
722.8840044744341
 30
0.0000000000000000
 11
296.9741459301866
 21
737.5033719565573
 31
0.0000000000000000
  0
MTEXT
  5
3C8
100
AcDbEntity
  8
MAIN0
  6
BYBLOCK
 62
0
100
AcDbMText
 10
286.4028995177301
 20
748.1453289796974
 30
0.0000000000000000
 40
3.099999904632568
 41
0.0000000000000000
 44
0.7741935722041460
 71
     5
 72
     1
  1
\A1;30
 11
0.7071067811865474
 21
-0.7071067811865477
 31
0.0000000000000000
  7
STANDARD
  0
ENDBLK
  5
3C9
100
AcDbEntity
  8
MAIN0
  6
CONTINUOUS
 62
3
100
AcDbBlockEnd
  0
BLOCK
  5
3D9
100
AcDbEntity
  8
MAIN0
  6
BYBLOCK
 62
3
100
AcDbBlockBegin
  2
M0
 70
    64
 10
0.0
 20
0.0
 30
0.0
  0
POINT
  5
3DA
100
AcDbEntity
  8
MAIN0
  6
BYBLOCK
 62
0
370
    -2
100
AcDbPoint
 10
-340.5820096345056
 20
120.7341298694224
 30
0.0000000000000000
  0
LINE
  5
3DB
100
AcDbEntity
  8
MAIN0
  6
BYBLOCK
 62
0
370
    -2
100
AcDbLine
 10
-340.5820096345058
 20
120.7341298694224
 30
0.0000000000000000
 11
-313.2820081205477
 21
120.7341298694224
 31
0.0000000000000000
  0
LINE
  5
3DC
100
AcDbEntity
  8
MAIN0
  6
BYBLOCK
 62
0
370
    -2
100
AcDbLine
 10
-313.2820081205477
 20
126.1341298455805
 30
0.0000000000000000
 11
-340.5820096345058
 21
126.1341298455805
 31
0.0000000000000000
  0
LINE
  5
3DD
100
AcDbEntity
  8
MAIN0
  6
BYBLOCK
 62
0
370
    -2
100
AcDbLine
 10
-340.5820096345058
 20
126.1341298455805
 30
0.0000000000000000
 11
-340.5820096345058
 21
120.7341298694224
 31
0.0000000000000000
  0
MTEXT
  5
3DE
100
AcDbEntity
  8
MAIN0
  6
BYBLOCK
 62
0
370
    -2
100
AcDbMText
 10
-339.8820096464267
 20
125.4341298575018
 30
0.0000000000000000
 40
4.000000000000000
 41
0.0000000000000000
 44
0.6720000028610229
 71
     1
 72
     1
  1
{\H0.91x;注記 NOTE}
 11
1.000000000000000
 21
0.0000000000000000
 31
0.0000000000000000
  7
KNJYOKO
  0
ENDBLK
  5
3DF
100
AcDbEntity
  8
MAIN0
  6
BYBLOCK
 62
3
100
AcDbBlockEnd
  0
ENDSEC
  0
SECTION
  2
ENTITIES
  0
LINE
  5
46
100
AcDbEntity
  8
MAIN0
  6
CENTER
 62
3
100
AcDbLine
 10
-169.3907941821556
 20
248.8062602368066
 30
0.0000000000000000
 11
-169.3907941821556
 21
660.2485352307222
 31
0.0000000000000000
  0
LINE
  5
47
100
AcDbEntity
  8
MAIN0
  6
CONTINUOUS
 62
3
100
AcDbLine
 10
-232.3907941821556
 20
608.3512169590778
 30
0.0000000000000000
 11
-106.3907941821555
 21
608.3512169590778
 31
0.0000000000000000
  0
LINE
  5
48
100
AcDbEntity
  8
MAIN0
  6
CONTINUOUS
 62
3
100
AcDbLine
 10
-232.3907941821556
 20
308.3512169590778
 30
0.0000000000000000
 11
-106.3907941821556
 21
308.3512169590778
 31
0.0000000000000000
  0
LINE
  5
49
100
AcDbEntity
  8
MAIN0
  6
CONTINUOUS
 62
3
100
AcDbLine
 10
-231.6407941821556
 20
268.8512169590778
 30
0.0000000000000000
 11
-107.1407941821556
 21
268.8512169590778
 31
0.0000000000000000
  0
LINE
  5
4A
100
AcDbEntity
  8
MAIN0
  6
CONTINUOUS
 62
3
100
AcDbLine
 10
-231.6407941821555
 20
647.8512169590778
 30
0.0000000000000000
 11
-107.1407941821556
 21
647.8512169590778
 31
0.0000000000000000
  0
LINE
  5
4B
100
AcDbEntity
  8
MAIN0
  6
CONTINUOUS
 62
3
100
AcDbLine
 10
-114.3907941821556
 20
403.3512169590778
 30
0.0000000000000000
 11
-114.3907941821556
 21
513.3512169590778
 31
0.0000000000000000
  0
LINE
  5
4C
100
AcDbEntity
  8
MAIN0
  6
CONTINUOUS
 62
3
100
AcDbLine
 10
-224.3907941821556
 20
403.3512169590778
 30
0.0000000000000000
 11
-224.3907941821556
 21
513.3512169590778
 31
0.0000000000000000
  0
LINE
  5
4D
100
AcDbEntity
  8
MAIN0
  6
CONTINUOUS
 62
3
100
AcDbLine
 10
-224.3907941821556
 20
403.3512169590778
 30
0.0000000000000000
 11
-114.3907941821556
 21
403.3512169590778
 31
0.0000000000000000
  0
LINE
  5
4E
100
AcDbEntity
  8
MAIN0
  6
CONTINUOUS
 62
3
100
AcDbLine
 10
-224.3907941821556
 20
513.3512169590778
 30
0.0000000000000000
 11
-114.3907941821556
 21
513.3512169590778
 31
0.0000000000000000
  0
LINE
  5
4F
100
AcDbEntity
  8
MAIN0
  6
CONTINUOUS
 62
3
100
AcDbLine
 10
-319.3907941821556
 20
395.3512169590778
 30
0.0000000000000000
 11
-319.3907941821556
 21
521.3512169590778
 31
0.0000000000000000
  0
LINE
  5
50
100
AcDbEntity
  8
MAIN0
  6
CONTINUOUS
 62
3
100
AcDbLine
 10
-19.39079418215556
 20
395.3512169590778
 30
0.0000000000000000
 11
-19.39079418215556
 21
521.3512169590778
 31
0.0000000000000000
  0
LINE
  5
51
100
AcDbEntity
  8
MAIN0
  6
CONTINUOUS
 62
3
100
AcDbLine
 10
-358.8907941821556
 20
396.1012169590778
 30
0.0000000000000000
 11
-358.8907941821556
 21
520.6012169590778
 31
0.0000000000000000
  0
LINE
  5
52
100
AcDbEntity
  8
MAIN0
  6
CONTINUOUS
 62
3
100
AcDbLine
 10
20.10920581784444
 20
396.1012169590778
 30
0.0000000000000000
 11
20.10920581784444
 21
520.6012169590779
 31
0.0000000000000000
  0
LINE
  5
53
100
AcDbEntity
  8
MAIN0
  6
CONTINUOUS
 62
3
100
AcDbLine
 10
-231.6407941821556
 20
608.3512169590778
 30
0.0000000000000000
 11
-231.6407941821556
 21
647.8512169590778
 31
0.0000000000000000
  0
LINE
  5
54
100
AcDbEntity
  8
MAIN0
  6
CONTINUOUS
 62
3
100
AcDbLine
 10
-231.6407941821556
 20
268.8512169590778
 30
0.0000000000000000
 11
-231.6407941821556
 21
308.3512169590778
 31
0.0000000000000000
  0
LINE
  5
55
100
AcDbEntity
  8
MAIN0
  6
CONTINUOUS
 62
3
100
AcDbLine
 10
-107.1407941821556
 20
268.8512169590778
 30
0.0000000000000000
 11
-107.1407941821556
 21
308.3512169590778
 31
0.0000000000000000
  0
LINE
  5
56
100
AcDbEntity
  8
MAIN0
  6
CONTINUOUS
 62
3
100
AcDbLine
 10
-19.39079418215556
 20
520.6012169590778
 30
0.0000000000000000
 11
20.10920581784444
 21
520.6012169590778
 31
0.0000000000000000
  0
LINE
  5
57
100
AcDbEntity
  8
MAIN0
  6
CONTINUOUS
 62
3
100
AcDbLine
 10
-107.1407941821556
 20
608.3512169590778
 30
0.0000000000000000
 11
-107.1407941821556
 21
647.8512169590778
 31
0.0000000000000000
  0
LINE
  5
58
100
AcDbEntity
  8
MAIN0
  6
CONTINUOUS
 62
3
100
AcDbLine
 10
-19.39079418215556
 20
396.1012169590778
 30
0.0000000000000000
 11
20.10920581784444
 21
396.1012169590778
 31
0.0000000000000000
  0
LINE
  5
59
100
AcDbEntity
  8
MAIN0
  6
CONTINUOUS
 62
3
100
AcDbLine
 10
-358.8907941821556
 20
396.1012169590778
 30
0.0000000000000000
 11
-319.3907941821556
 21
396.1012169590778
 31
0.0000000000000000
  0
LINE
  5
5A
100
AcDbEntity
  8
MAIN0
  6
CONTINUOUS
 62
3
100
AcDbLine
 10
-358.8907941821556
 20
520.6012169590778
 30
0.0000000000000000
 11
-319.3907941821556
 21
520.6012169590778
 31
0.0000000000000000
  0
LINE
  5
5B
100
AcDbEntity
  8
MAIN0
  6
CENTER
 62
3
100
AcDbLine
 10
-381.9948251584866
 20
458.3512169590778
 30
0.0000000000000000
 11
109.6601682762625
 21
458.3512169590778
 31
0.0000000000000000
  0
LINE
  5
5C
100
AcDbEntity
  8
MAIN0
  6
CONTINUOUS
 62
3
100
AcDbLine
 10
-101.3907941821556
 20
521.3512169590778
 30
0.0000000000000000
 11
-19.39079418215553
 21
521.3512169590778
 31
0.0000000000000000
  0
LINE
  5
5D
100
AcDbEntity
  8
MAIN0
  6
CONTINUOUS
 62
3
100
AcDbLine
 10
-319.3907941821556
 20
521.3512169590778
 30
0.0000000000000000
 11
-237.3907941821556
 21
521.3512169590778
 31
0.0000000000000000
  0
LINE
  5
5E
100
AcDbEntity
  8
MAIN0
  6
CONTINUOUS
 62
3
100
AcDbLine
 10
-106.3907941821556
 20
526.3512169590778
 30
0.0000000000000000
 11
-106.3907941821556
 21
608.3512169590778
 31
0.0000000000000000
  0
LINE
  5
5F
100
AcDbEntity
  8
MAIN0
  6
CONTINUOUS
 62
3
100
AcDbLine
 10
-106.3907941821556
 20
308.3512169590778
 30
0.0000000000000000
 11
-106.3907941821556
 21
390.3512169590778
 31
0.0000000000000000
  0
LINE
  5
60
100
AcDbEntity
  8
MAIN0
  6
CONTINUOUS
 62
3
100
AcDbLine
 10
-101.3907941821556
 20
395.3512169590778
 30
0.0000000000000000
 11
-19.39079418215553
 21
395.3512169590778
 31
0.0000000000000000
  0
LINE
  5
61
100
AcDbEntity
  8
MAIN0
  6
CONTINUOUS
 62
3
100
AcDbLine
 10
-319.3907941821556
 20
395.3512169590778
 30
0.0000000000000000
 11
-237.3907941821556
 21
395.3512169590778
 31
0.0000000000000000
  0
LINE
  5
62
100
AcDbEntity
  8
MAIN0
  6
CONTINUOUS
 62
3
100
AcDbLine
 10
-232.3907941821556
 20
308.3512169590778
 30
0.0000000000000000
 11
-232.3907941821556
 21
390.3512169590778
 31
0.0000000000000000
  0
LINE
  5
63
100
AcDbEntity
  8
MAIN0
  6
CONTINUOUS
 62
3
100
AcDbLine
 10
-232.3907941821555
 20
526.3512169590778
 30
0.0000000000000000
 11
-232.3907941821555
 21
608.3512169590778
 31
0.0000000000000000
  0
LINE
  5
64
100
AcDbEntity
  8
MAIN0
  6
CONTINUOUS
 62
3
100
AcDbLine
 10
-106.3907941821556
 20
390.3512169590778
 30
0.0000000000000000
 11
-101.3907941821556
 21
390.3512169590778
 31
0.0000000000000000
  0
LINE
  5
65
100
AcDbEntity
  8
MAIN0
  6
CONTINUOUS
 62
3
100
AcDbLine
 10
-101.3907941821556
 20
390.3512169590778
 30
0.0000000000000000
 11
-101.3907941821556
 21
396.3512169590778
 31
0.0000000000000000
  0
LINE
  5
66
100
AcDbEntity
  8
MAIN0
  6
CONTINUOUS
 62
3
100
AcDbLine
 10
-237.3907941821556
 20
390.3512169590778
 30
0.0000000000000000
 11
-237.3907941821556
 21
395.3512169590778
 31
0.0000000000000000
  0
LINE
  5
67
100
AcDbEntity
  8
MAIN0
  6
CONTINUOUS
 62
3
100
AcDbLine
 10
-237.3907941821556
 20
390.3512169590778
 30
0.0000000000000000
 11
-231.3907941821556
 21
390.3512169590778
 31
0.0000000000000000
  0
LINE
  5
68
100
AcDbEntity
  8
MAIN0
  6
CONTINUOUS
 62
3
100
AcDbLine
 10
-237.3907941821556
 20
526.3512169590778
 30
0.0000000000000000
 11
-232.3907941821556
 21
526.3512169590778
 31
0.0000000000000000
  0
LINE
  5
69
100
AcDbEntity
  8
MAIN0
  6
CONTINUOUS
 62
3
100
AcDbLine
 10
-237.3907941821556
 20
520.3512169590778
 30
0.0000000000000000
 11
-237.3907941821556
 21
526.3512169590778
 31
0.0000000000000000
  0
LINE
  5
6A
100
AcDbEntity
  8
MAIN0
  6
CONTINUOUS
 62
3
100
AcDbLine
 10
-101.3907941821556
 20
521.3512169590778
 30
0.0000000000000000
 11
-101.3907941821556
 21
526.3512169590778
 31
0.0000000000000000
  0
LINE
  5
6B
100
AcDbEntity
  8
MAIN0
  6
CONTINUOUS
 62
3
100
AcDbLine
 10
-107.3907941821556
 20
526.3512169590778
 30
0.0000000000000000
 11
-101.3907941821556
 21
526.3512169590778
 31
0.0000000000000000
  0
LINE
  5
6C
100
AcDbEntity
  8
MAIN0
  6
CONTINUOUS
 62
3
100
AcDbLine
 10
-277.3907941821556
 20
520.3512169590778
 30
0.0000000000000000
 11
-237.3907941821556
 21
520.3512169590778
 31
0.0000000000000000
  0
LINE
  5
6D
100
AcDbEntity
  8
MAIN0
  6
CONTINUOUS
 62
3
100
AcDbLine
 10
-231.3907941821556
 20
350.3512169590778
 30
0.0000000000000000
 11
-231.3907941821556
 21
390.3512169590778
 31
0.0000000000000000
  0
LINE
  5
6E
100
AcDbEntity
  8
MAIN0
  6
CONTINUOUS
 62
3
100
AcDbLine
 10
-101.3907941821556
 20
396.3512169590778
 30
0.0000000000000000
 11
-61.39079418215556
 21
396.3512169590778
 31
0.0000000000000000
  0
LINE
  5
6F
100
AcDbEntity
  8
MAIN0
  6
CONTINUOUS
 62
3
100
AcDbLine
 10
-107.3907941821556
 20
526.3512169590778
 30
0.0000000000000000
 11
-107.3907941821556
 21
566.3512169590778
 31
0.0000000000000000
  0
LINE
  5
70
100
AcDbEntity
  8
MAIN0
  6
CONTINUOUS
 62
3
100
AcDbLine
 10
-277.3907941821556
 20
520.3512169590778
 30
0.0000000000000000
 11
-277.3907941821556
 21
521.3512169590778
 31
0.0000000000000000
  0
LINE
  5
71
100
AcDbEntity
  8
MAIN0
  6
CONTINUOUS
 62
3
100
AcDbLine
 10
-232.3907941821556
 20
350.3512169590778
 30
0.0000000000000000
 11
-231.3907941821556
 21
350.3512169590778
 31
0.0000000000000000
  0
LINE
  5
72
100
AcDbEntity
  8
MAIN0
  6
CONTINUOUS
 62
3
100
AcDbLine
 10
-61.39079418215556
 20
395.3512169590778
 30
0.0000000000000000
 11
-61.39079418215556
 21
396.3512169590778
 31
0.0000000000000000
  0
LINE
  5
73
100
AcDbEntity
  8
MAIN0
  6
CONTINUOUS
 62
3
100
AcDbLine
 10
-107.3907941821556
 20
566.3512169590778
 30
0.0000000000000000
 11
-106.3907941821556
 21
566.3512169590778
 31
0.0000000000000000
  0
LINE
  5
74
100
AcDbEntity
  8
MAIN0
  6
CENTER
 62
3
100
AcDbLine
 10
-277.5500880052301
 20
708.3512169590778
 30
0.0000000000000000
 11
30.60920581784444
 21
708.3512169590778
 31
0.0000000000000000
  0
LINE
  5
75
100
AcDbEntity
  8
MAIN0
  6
CENTER
 62
3
100
AcDbLine
 10
80.60920581784444
 20
458.3512169590778
 30
0.0000000000000000
 11
80.60920581784444
 21
658.3512169590778
 31
0.0000000000000000
  0
LINE
  5
76
100
AcDbEntity
  8
MAIN0
  6
CENTER
 62
3
100
AcDbLine
 10
30.60920581784444
 20
308.3512169590778
 30
0.0000000000000000
 11
30.60920581784444
 21
458.3512169590778
 31
0.0000000000000000
  0
LINE
  5
77
100
AcDbEntity
  8
MAIN0
  6
CENTER
 62
3
100
AcDbLine
 10
-256.9998361413167
 20
258.3512169590778
 30
0.0000000000000000
 11
-19.39079418215559
 21
258.3512169590778
 31
0.0000000000000000
  0
LINE
  5
78
100
AcDbEntity
  8
MAIN0
  6
CENTER
 62
3
100
AcDbLine
 10
30.60920581784438
 20
708.3512169590777
 30
0.0000000000000000
 11
80.60920581784438
 21
658.3512169590777
 31
0.0000000000000000
  0
LINE
  5
79
100
AcDbEntity
  8
MAIN0
  6
CENTER
 62
3
100
AcDbLine
 10
-19.39079418215559
 20
258.3512169590778
 30
0.0000000000000000
 11
30.60920581784441
 21
308.3512169590778
 31
0.0000000000000000
  0
LINE
  5
7A
100
AcDbEntity
  8
MAIN0
  6
CENTER
 62
3
100
AcDbLine
 10
-232.3907941821556
 20
343.3512169590778
 30
0.0000000000000000
 11
-106.3907941821556
 21
343.3512169590778
 31
0.0000000000000000
  0
LINE
  5
7B
100
AcDbEntity
  8
MAIN0
  6
CENTER
 62
3
100
AcDbLine
 10
-54.39079418215556
 20
395.3512169590778
 30
0.0000000000000000
 11
-54.39079418215556
 21
521.3512169590778
 31
0.0000000000000000
  0
LINE
  5
7C
100
AcDbEntity
  8
MAIN0
  6
CENTER
 62
3
100
AcDbLine
 10
-232.3907941821556
 20
573.3512169590778
 30
0.0000000000000000
 11
-106.3907941821555
 21
573.3512169590778
 31
0.0000000000000000
  0
LINE
  5
7D
100
AcDbEntity
  8
MAIN0
  6
CENTER
 62
3
100
AcDbLine
 10
-284.3907941821556
 20
395.3512169590778
 30
0.0000000000000000
 11
-284.3907941821556
 21
521.3512169590778
 31
0.0000000000000000
  0
CIRCLE
  5
7E
100
AcDbEntity
  8
MAIN0
  6
CONTINUOUS
 62
3
100
AcDbCircle
 10
-54.39079418215556
 20
458.3512169590778
 30
0.0000000000000000
 40
12.00000000000000
  0
CIRCLE
  5
7F
100
AcDbEntity
  8
MAIN0
  6
CONTINUOUS
 62
3
100
AcDbCircle
 10
-54.39079418215552
 20
458.3512169590778
 30
0.0000000000000000
 40
21.00000000000000
  0
CIRCLE
  5
80
100
AcDbEntity
  8
MAIN0
  6
CONTINUOUS
 62
3
100
AcDbCircle
 10
-54.39079418215552
 20
458.3512169590778
 30
0.0000000000000000
 40
24.75000000000000
  0
LINE
  5
81
100
AcDbEntity
  8
MAIN0
  6
CENTER
 62
3
100
AcDbLine
 10
-99.68456119210833
 20
528.0574499491252
 30
0.0000000000000000
 11
-30.83712330893462
 21
596.9048878322988
 31
0.0000000000000000
  0
LINE
  5
82
100
AcDbEntity
  8
MAIN0
  6
CENTER
 62
3
100
AcDbLine
 10
-53.39079418215557
 20
558.3512169590777
 30
0.0000000000000000
 11
-85.39079418215557
 21
558.3512169590777
 31
0.0000000000000000
  0
LINE
  5
83
100
AcDbEntity
  8
MAIN0
  6
CENTER
 62
3
100
AcDbLine
 10
-69.39079418215557
 20
574.3512169590777
 30
0.0000000000000000
 11
-69.39079418215557
 21
542.3512169590777
 31
0.0000000000000000
  0
LEADER
  5
84
100
AcDbEntity
  8
MAIN0
  6
CONTINUOUS
 62
3
100
AcDbLeader
  3
MAIN001
 73
     3
 74
     0
 75
     0
 76
     4
 10
-31.16863062195105
 20
539.6524582511593
 30
0.0000000000000000
 10
-24.09756281008239
 20
532.5813904392970
 30
0.0000000000000000
 10
82.13066376691617
 20
638.8096170162215
 30
0.0000000000000000
 10
89.20173157878648
 20
631.7385492043605
 30
0.0000000000000000
1001
ACAD
1000
DSTYLE
1002
{
1070
   341
1005
13
1070
    41
1040
2.000000
1002
}
  0
LINE
  5
85
100
AcDbEntity
  8
MAIN0
  6
CENTER
 62
3
100
AcDbLine
 10
-73.39079418215556
 20
378.3512169590778
 30
0.0000000000000000
 11
-105.3907941821556
 21
378.3512169590778
 31
0.0000000000000000
  0
LINE
  5
86
100
AcDbEntity
  8
MAIN0
  6
CENTER
 62
3
100
AcDbLine
 10
-89.39079418215556
 20
394.3512169590778
 30
0.0000000000000000
 11
-89.39079418215556
 21
362.3512169590778
 31
0.0000000000000000
  0
CIRCLE
  5
87
100
AcDbEntity
  8
MAIN0
  6
CONTINUOUS
 62
3
100
AcDbCircle
 10
-123.3907941821556
 20
412.3512169590764
 30
0.0000000000000000
 40
8.000000000000000
  0
LINE
  5
88
100
AcDbEntity
  8
MAIN0
  6
CONTINUOUS
 62
3
100
AcDbLine
 10
-123.3907941821556
 20
407.7324148055594
 30
0.0000000000000000
 11
-127.3907941821556
 21
410.0418158823179
 31
0.0000000000000000
  0
LINE
  5
89
100
AcDbEntity
  8
MAIN0
  6
CONTINUOUS
 62
3
100
AcDbLine
 10
-127.3907941821556
 20
410.0418158823179
 30
0.0000000000000000
 11
-127.3907941821556
 21
414.6606180358349
 31
0.0000000000000000
  0
LINE
  5
8A
100
AcDbEntity
  8
MAIN0
  6
CONTINUOUS
 62
3
100
AcDbLine
 10
-127.3907941821556
 20
414.6606180358349
 30
0.0000000000000000
 11
-123.3907941821556
 21
416.9700191125934
 31
0.0000000000000000
  0
LINE
  5
8B
100
AcDbEntity
  8
MAIN0
  6
CONTINUOUS
 62
3
100
AcDbLine
 10
-123.3907941821555
 20
416.9700191125934
 30
0.0000000000000000
 11
-119.3907941821556
 21
414.6606180358349
 31
0.0000000000000000
  0
LINE
  5
8C
100
AcDbEntity
  8
MAIN0
  6
CONTINUOUS
 62
3
100
AcDbLine
 10
-119.3907941821556
 20
414.6606180358349
 30
0.0000000000000000
 11
-119.3907941821556
 21
410.0418158823179
 31
0.0000000000000000
  0
LINE
  5
8D
100
AcDbEntity
  8
MAIN0
  6
CONTINUOUS
 62
3
100
AcDbLine
 10
-119.3907941821556
 20
410.0418158823179
 30
0.0000000000000000
 11
-123.3907941821556
 21
407.7324148055594
 31
0.0000000000000000
  0
LINE
  5
8E
100
AcDbEntity
  8
MAIN0
  6
CENTER
 62
3
100
AcDbLine
 10
-111.3907941821556
 20
412.3512169590764
 30
0.0000000000000000
 11
-135.3907941821556
 21
412.3512169590764
 31
0.0000000000000000
  0
LINE
  5
8F
100
AcDbEntity
  8
MAIN0
  6
CENTER
 62
3
100
AcDbLine
 10
-123.3907941821556
 20
400.3512169590764
 30
0.0000000000000000
 11
-123.3907941821556
 21
424.3512169590764
 31
0.0000000000000000
  0
CIRCLE
  5
90
100
AcDbEntity
  8
MAIN0
  6
CONTINUOUS
 62
3
100
AcDbCircle
 10
-215.3907941821556
 20
412.3512169590764
 30
0.0000000000000000
 40
8.000000000000000
  0
LINE
  5
91
100
AcDbEntity
  8
MAIN0
  6
CONTINUOUS
 62
3
100
AcDbLine
 10
-215.3907941821556
 20
407.7324148055595
 30
0.0000000000000000
 11
-211.3907941821556
 21
410.0418158823180
 31
0.0000000000000000
  0
LINE
  5
92
100
AcDbEntity
  8
MAIN0
  6
CONTINUOUS
 62
3
100
AcDbLine
 10
-211.3907941821556
 20
410.0418158823179
 30
0.0000000000000000
 11
-211.3907941821556
 21
414.6606180358349
 31
0.0000000000000000
  0
LINE
  5
93
100
AcDbEntity
  8
MAIN0
  6
CONTINUOUS
 62
3
100
AcDbLine
 10
-211.3907941821556
 20
414.6606180358349
 30
0.0000000000000000
 11
-215.3907941821556
 21
416.9700191125934
 31
0.0000000000000000
  0
LINE
  5
94
100
AcDbEntity
  8
MAIN0
  6
CONTINUOUS
 62
3
100
AcDbLine
 10
-215.3907941821556
 20
416.9700191125934
 30
0.0000000000000000
 11
-219.3907941821556
 21
414.6606180358349
 31
0.0000000000000000
  0
LINE
  5
95
100
AcDbEntity
  8
MAIN0
  6
CONTINUOUS
 62
3
100
AcDbLine
 10
-219.3907941821556
 20
414.6606180358349
 30
0.0000000000000000
 11
-219.3907941821556
 21
410.0418158823179
 31
0.0000000000000000
  0
LINE
  5
96
100
AcDbEntity
  8
MAIN0
  6
CONTINUOUS
 62
3
100
AcDbLine
 10
-219.3907941821556
 20
410.0418158823179
 30
0.0000000000000000
 11
-215.3907941821556
 21
407.7324148055594
 31
0.0000000000000000
  0
LINE
  5
97
100
AcDbEntity
  8
MAIN0
  6
CENTER
 62
3
100
AcDbLine
 10
-227.3907941821556
 20
412.3512169590764
 30
0.0000000000000000
 11
-203.3907941821556
 21
412.3512169590764
 31
0.0000000000000000
  0
LINE
  5
98
100
AcDbEntity
  8
MAIN0
  6
CENTER
 62
3
100
AcDbLine
 10
-215.3907941821556
 20
400.3512169590764
 30
0.0000000000000000
 11
-215.3907941821556
 21
424.3512169590764
 31
0.0000000000000000
  0
LINE
  5
99
100
AcDbEntity
  8
MAIN0
  6
CENTER
 62
3
100
AcDbLine
 10
-227.3907941821556
 20
504.3512169590791
 30
0.0000000000000000
 11
-203.3907941821556
 21
504.3512169590791
 31
0.0000000000000000
  0
LINE
  5
9A
100
AcDbEntity
  8
MAIN0
  6
CENTER
 62
3
100
AcDbLine
 10
-215.3907941821556
 20
516.3512169590791
 30
0.0000000000000000
 11
-215.3907941821556
 21
492.3512169590791
 31
0.0000000000000000
  0
LINE
  5
9B
100
AcDbEntity
  8
MAIN0
  6
CONTINUOUS
 62
3
100
AcDbLine
 10
-21.89079418215556
 20
412.7469408437835
 30
0.0000000000000000
 11
-21.89079418215556
 21
503.9554930743720
 31
0.0000000000000000
  0
ARC
  5
9C
100
AcDbEntity
  8
MAIN0
  6
CONTINUOUS
 62
3
100
AcDbCircle
 10
-54.39079418215556
 20
458.3512169590778
 30
0.0000000000000000
 40
56.00000000000000
100
AcDbArc
 50
54.52433391386575
 51
305.4756660861343
  0
ARC
  5
9D
100
AcDbEntity
  8
MAIN0
  6
CONTINUOUS
 62
3
100
AcDbCircle
 10
-54.39079418215556
 20
458.3512169590778
 30
0.0000000000000000
 40
38.00000000000000
100
AcDbArc
 50
31.21118049826684
 51
328.7888195017331
  0
CIRCLE
  5
9E
100
AcDbEntity
  8
MAIN0
  6
CONTINUOUS
 62
3
100
AcDbCircle
 10
-284.3907941821556
 20
458.3512169590778
 30
0.0000000000000000
 40
12.00000000000000
  0
CIRCLE
  5
9F
100
AcDbEntity
  8
MAIN0
  6
CONTINUOUS
 62
3
100
AcDbCircle
 10
-284.3907941821556
 20
458.3512169590778
 30
0.0000000000000000
 40
21.00000000000000
  0
CIRCLE
  5
A0
100
AcDbEntity
  8
MAIN0
  6
CONTINUOUS
 62
3
100
AcDbCircle
 10
-284.3907941821556
 20
458.3512169590778
 30
0.0000000000000000
 40
24.75000000000000
  0
LINE
  5
A1
100
AcDbEntity
  8
MAIN0
  6
CONTINUOUS
 62
3
100
AcDbLine
 10
-280.5178108359482
 20
465.3512169590778
 30
0.0000000000000000
 11
-288.2637775283630
 21
465.3512169590778
 31
0.0000000000000000
  0
LINE
  5
A2
100
AcDbEntity
  8
MAIN0
  6
CONTINUOUS
 62
3
100
AcDbLine
 10
-280.5178108359482
 20
451.3512169590778
 30
0.0000000000000000
 11
-288.2637775283630
 21
451.3512169590778
 31
0.0000000000000000
  0
LINE
  5
A3
100
AcDbEntity
  8
MAIN0
  6
CONTINUOUS
 62
3
100
AcDbLine
 10
-288.2637775283631
 20
465.3512169590778
 30
0.0000000000000000
 11
-292.3907941821557
 21
458.3512169590778
 31
0.0000000000000000
  0
LINE
  5
A4
100
AcDbEntity
  8
MAIN0
  6
CONTINUOUS
 62
3
100
AcDbLine
 10
-292.3907941821557
 20
458.3512169590779
 30
0.0000000000000000
 11
-288.2637775283630
 21
451.3512169590778
 31
0.0000000000000000
  0
LINE
  5
A5
100
AcDbEntity
  8
MAIN0
  6
CONTINUOUS
 62
3
100
AcDbLine
 10
-280.5178108359482
 20
451.3512169590778
 30
0.0000000000000000
 11
-276.3907941821557
 21
458.3512169590778
 31
0.0000000000000000
  0
LINE
  5
A6
100
AcDbEntity
  8
MAIN0
  6
CONTINUOUS
 62
3
100
AcDbLine
 10
-276.3907941821557
 20
458.3512169590780
 30
0.0000000000000000
 11
-280.5178108359482
 21
465.3512169590779
 31
0.0000000000000000
  0
LINE
  5
A7
100
AcDbEntity
  8
MAIN0
  6
CONTINUOUS
 62
3
100
AcDbLine
 10
-316.8907941821556
 20
412.7469408437835
 30
0.0000000000000000
 11
-316.8907941821556
 21
503.9554930743721
 31
0.0000000000000000
  0
ARC
  5
A8
100
AcDbEntity
  8
MAIN0
  6
CONTINUOUS
 62
3
100
AcDbCircle
 10
-284.3907941821556
 20
458.3512169590778
 30
0.0000000000000000
 40
56.00000000000000
100
AcDbArc
 50
234.5243339138658
 51
485.4756660861342
  0
ARC
  5
A9
100
AcDbEntity
  8
MAIN0
  6
CONTINUOUS
 62
3
100
AcDbCircle
 10
-284.3907941821556
 20
458.3512169590778
 30
0.0000000000000000
 40
38.00000000000000
100
AcDbArc
 50
211.2111804982669
 51
508.7888195017331
  0
CIRCLE
  5
AA
100
AcDbEntity
  8
MAIN0
  6
CONTINUOUS
 62
3
100
AcDbCircle
 10
-169.3907941821555
 20
343.3512169590778
 30
0.0000000000000000
 40
12.00000000000000
  0
CIRCLE
  5
AB
100
AcDbEntity
  8
MAIN0
  6
CONTINUOUS
 62
3
100
AcDbCircle
 10
-169.3907941821555
 20
343.3512169590777
 30
0.0000000000000000
 40
21.00000000000000
  0
CIRCLE
  5
AC
100
AcDbEntity
  8
MAIN0
  6
CONTINUOUS
 62
3
100
AcDbCircle
 10
-169.3907941821555
 20
343.3512169590777
 30
0.0000000000000000
 40
24.75000000000000
  0
LINE
  5
AD
100
AcDbEntity
  8
MAIN0
  6
CONTINUOUS
 62
3
100
AcDbLine
 10
-176.3907941821555
 20
347.2242003052851
 30
0.0000000000000000
 11
-176.3907941821555
 21
339.4782336128703
 31
0.0000000000000000
  0
LINE
  5
AE
100
AcDbEntity
  8
MAIN0
  6
CONTINUOUS
 62
3
100
AcDbLine
 10
-162.3907941821555
 20
347.2242003052851
 30
0.0000000000000000
 11
-162.3907941821555
 21
339.4782336128703
 31
0.0000000000000000
  0
LINE
  5
AF
100
AcDbEntity
  8
MAIN0
  6
CONTINUOUS
 62
3
100
AcDbLine
 10
-176.3907941821556
 20
339.4782336128702
 30
0.0000000000000000
 11
-169.3907941821556
 21
335.3512169590776
 31
0.0000000000000000
  0
LINE
  5
B0
100
AcDbEntity
  8
MAIN0
  6
CONTINUOUS
 62
3
100
AcDbLine
 10
-169.3907941821556
 20
335.3512169590778
 30
0.0000000000000000
 11
-162.3907941821556
 21
339.4782336128704
 31
0.0000000000000000
  0
LINE
  5
B1
100
AcDbEntity
  8
MAIN0
  6
CONTINUOUS
 62
3
100
AcDbLine
 10
-162.3907941821556
 20
347.2242003052850
 30
0.0000000000000000
 11
-169.3907941821556
 21
351.3512169590777
 31
0.0000000000000000
  0
LINE
  5
B2
100
AcDbEntity
  8
MAIN0
  6
CONTINUOUS
 62
3
100
AcDbLine
 10
-169.3907941821557
 20
351.3512169590776
 30
0.0000000000000000
 11
-176.3907941821556
 21
347.2242003052851
 31
0.0000000000000000
  0
LINE
  5
B3
100
AcDbEntity
  8
MAIN0
  6
CONTINUOUS
 62
3
100
AcDbLine
 10
-123.7865180668613
 20
310.8512169590777
 30
0.0000000000000000
 11
-214.9950702974498
 21
310.8512169590779
 31
0.0000000000000000
  0
ARC
  5
B4
100
AcDbEntity
  8
MAIN0
  6
CONTINUOUS
 62
3
100
AcDbCircle
 10
-169.3907941821555
 20
343.3512169590778
 30
0.0000000000000000
 40
56.00000000000000
100
AcDbArc
 50
324.5243339138656
 51
575.4756660861341
  0
ARC
  5
B5
100
AcDbEntity
  8
MAIN0
  6
CONTINUOUS
 62
3
100
AcDbCircle
 10
-169.3907941821555
 20
343.3512169590778
 30
0.0000000000000000
 40
38.00000000000000
100
AcDbArc
 50
301.2111804982667
 51
598.7888195017331
  0
ARC
  5
B6
100
AcDbEntity
  8
MAIN0
  6
CONTINUOUS
 62
3
100
AcDbCircle
 10
-169.3907941821555
 20
573.3512169590778
 30
0.0000000000000000
 40
56.00000000000000
100
AcDbArc
 50
144.5243339138659
 51
395.4756660861344
  0
LINE
  5
B7
100
AcDbEntity
  8
MAIN0
  6
CONTINUOUS
 62
3
100
AcDbLine
 10
-123.7865180668613
 20
605.8512169590778
 30
0.0000000000000000
 11
-214.9950702974499
 21
605.8512169590777
 31
0.0000000000000000
  0
ARC
  5
B8
100
AcDbEntity
  8
MAIN0
  6
CONTINUOUS
 62
3
100
AcDbCircle
 10
-169.3907941821555
 20
573.3512169590778
 30
0.0000000000000000
 40
38.00000000000000
100
AcDbArc
 50
121.2111804982669
 51
418.7888195017332
  0
CIRCLE
  5
B9
100
AcDbEntity
  8
MAIN0
  6
CONTINUOUS
 62
3
100
AcDbCircle
 10
-169.3907941821555
 20
573.3512169590779
 30
0.0000000000000000
 40
24.75000000000000
  0
CIRCLE
  5
BA
100
AcDbEntity
  8
MAIN0
  6
CONTINUOUS
 62
3
100
AcDbCircle
 10
-169.3907941821555
 20
573.3512169590779
 30
0.0000000000000000
 40
21.00000000000000
  0
CIRCLE
  5
BB
100
AcDbEntity
  8
MAIN0
  6
CONTINUOUS
 62
3
100
AcDbCircle
 10
-169.3907941821555
 20
573.3512169590778
 30
0.0000000000000000
 40
12.00000000000000
  0
LINE
  5
BC
100
AcDbEntity
  8
MAIN0
  6
CONTINUOUS
 62
3
100
AcDbLine
 10
-169.3907941821557
 20
581.3512169590778
 30
0.0000000000000000
 11
-162.3907941821556
 21
577.2242003052852
 31
0.0000000000000000
  0
LINE
  5
BD
100
AcDbEntity
  8
MAIN0
  6
CONTINUOUS
 62
3
100
AcDbLine
 10
-176.3907941821556
 20
577.2242003052854
 30
0.0000000000000000
 11
-169.3907941821557
 21
581.3512169590780
 31
0.0000000000000000
  0
LINE
  5
BE
100
AcDbEntity
  8
MAIN0
  6
CONTINUOUS
 62
3
100
AcDbLine
 10
-176.3907941821555
 20
569.4782336128704
 30
0.0000000000000000
 11
-176.3907941821555
 21
577.2242003052852
 31
0.0000000000000000
  0
LINE
  5
BF
100
AcDbEntity
  8
MAIN0
  6
CONTINUOUS
 62
3
100
AcDbLine
 10
-169.3907941821557
 20
565.3512169590779
 30
0.0000000000000000
 11
-176.3907941821556
 21
569.4782336128704
 31
0.0000000000000000
  0
LINE
  5
C0
100
AcDbEntity
  8
MAIN0
  6
CONTINUOUS
 62
3
100
AcDbLine
 10
-162.3907941821556
 20
569.4782336128704
 30
0.0000000000000000
 11
-169.3907941821556
 21
565.3512169590779
 31
0.0000000000000000
  0
LINE
  5
C1
100
AcDbEntity
  8
MAIN0
  6
CONTINUOUS
 62
3
100
AcDbLine
 10
-162.3907941821555
 20
569.4782336128704
 30
0.0000000000000000
 11
-162.3907941821555
 21
577.2242003052852
 31
0.0000000000000000
  0
ARC
  5
C2
100
AcDbEntity
  8
MAIN0
  6
CONTINUOUS
 62
3
100
AcDbCircle
 10
-54.39079418215552
 20
458.3512169590778
 30
0.0000000000000000
 40
37.00000000000000
100
AcDbArc
 50
28.55263736018242
 51
331.4473626398176
  0
ARC
  5
C3
100
AcDbEntity
  8
MAIN0
  6
CONTINUOUS
 62
3
100
AcDbCircle
 10
-169.3907941821556
 20
573.3512169590778
 30
0.0000000000000000
 40
37.00000000000000
100
AcDbArc
 50
118.5526373601825
 51
421.4473626398176
  0
ARC
  5
C4
100
AcDbEntity
  8
MAIN0
  6
CONTINUOUS
 62
3
100
AcDbCircle
 10
-284.3907941821556
 20
458.3512169590778
 30
0.0000000000000000
 40
37.00000000000000
100
AcDbArc
 50
208.5526373601824
 51
511.4473626398176
  0
ARC
  5
C5
100
AcDbEntity
  8
MAIN0
  6
CONTINUOUS
 62
3
100
AcDbCircle
 10
-169.3907941821556
 20
343.3512169590778
 30
0.0000000000000000
 40
37.00000000000000
100
AcDbArc
 50
298.5526373601824
 51
601.4473626398175
  0
LINE
  5
C6
100
AcDbEntity
  8
MAIN0
  6
CONTINUOUS
 62
3
100
AcDbLine
 10
192.5394977936053
 20
552.3512169590767
 30
0.0000000000000000
 11
215.0394977936051
 21
552.3512169590767
 31
0.0000000000000000
  0
LINE
  5
C7
100
AcDbEntity
  8
MAIN0
  6
CONTINUOUS
 62
3
100
AcDbLine
 10
215.0394977936052
 20
536.3512169590775
 30
0.0000000000000000
 11
215.0394977936052
 21
605.8512169590779
 31
0.0000000000000000
  0
LINE
  5
C8
100
AcDbEntity
  8
MAIN0
  6
CONTINUOUS
 62
3
100
AcDbLine
 10
192.5394977936054
 20
552.3512169590767
 30
0.0000000000000000
 11
192.5394977936055
 21
594.3512169590789
 31
0.0000000000000000
  0
LINE
  5
C9
100
AcDbEntity
  8
MAIN0
  6
CONTINUOUS
 62
3
100
AcDbLine
 10
192.5394977936052
 20
594.3512169590790
 30
0.0000000000000000
 11
215.0394977936056
 21
594.3512169590790
 31
0.0000000000000000
  0
LINE
  5
CA
100
AcDbEntity
  8
MAIN0
  6
CONTINUOUS
 62
3
100
AcDbLine
 10
215.0394977936052
 20
605.3512169590774
 30
0.0000000000000000
 11
215.0394977936052
 21
598.3512169590774
 31
0.0000000000000000
  0
LINE
  5
CB
100
AcDbEntity
  8
MAIN0
  6
CONTINUOUS
 62
3
100
AcDbLine
 10
215.0394977936052
 20
536.3512169590775
 30
0.0000000000000000
 11
240.0394977936052
 21
536.3512169590775
 31
0.0000000000000000
  0
LINE
  5
CC
100
AcDbEntity
  8
MAIN0
  6
CONTINUOUS
 62
3
100
AcDbLine
 10
240.0394977936052
 20
535.3512169590774
 30
0.0000000000000000
 11
259.0394977936052
 21
535.3512169590774
 31
0.0000000000000000
  0
LINE
  5
CD
100
AcDbEntity
  8
MAIN0
  6
CONTINUOUS
 62
3
100
AcDbLine
 10
259.0394977936052
 20
517.3512169590774
 30
0.0000000000000000
 11
279.0394977936052
 21
517.3512169590774
 31
0.0000000000000000
  0
LINE
  5
CE
100
AcDbEntity
  8
MAIN0
  6
CONTINUOUS
 62
3
100
AcDbLine
 10
259.0394977936053
 20
605.8512169590779
 30
0.0000000000000000
 11
259.0394977936053
 21
517.3512169590773
 31
0.0000000000000000
  0
LINE
  5
CF
100
AcDbEntity
  8
MAIN0
  6
CONTINUOUS
 62
3
100
AcDbLine
 10
279.0394977936054
 20
605.8512169590779
 30
0.0000000000000000
 11
215.0394977936053
 21
605.8512169590779
 31
0.0000000000000000
  0
LINE
  5
D0
100
AcDbEntity
  8
MAIN0
  6
PHANTOM
 62
3
100
AcDbLine
 10
664.0394977936054
 20
483.3512169590778
 30
0.0000000000000000
 11
664.0394977936054
 21
433.3512169590778
 31
0.0000000000000000
  0
LINE
  5
D1
100
AcDbEntity
  8
MAIN0
  6
CONTINUOUS
 62
3
100
AcDbLine
 10
240.0394977936052
 20
535.3512169590774
 30
0.0000000000000000
 11
240.0394977936052
 21
605.8512169590779
 31
0.0000000000000000
  0
LINE
  5
D2
100
AcDbEntity
  8
MAIN0
  6
CENTER
 62
3
100
AcDbLine
 10
181.7796844490408
 20
573.3512169590778
 30
0.0000000000000000
 11
298.3697392822946
 21
573.3512169590778
 31
0.0000000000000000
  0
LINE
  5
D3
100
AcDbEntity
  8
MAIN0
  6
CONTINUOUS
 62
3
100
AcDbLine
 10
192.5394977936053
 20
364.3512169590788
 30
0.0000000000000000
 11
215.0394977936052
 21
364.3512169590787
 31
0.0000000000000000
  0
LINE
  5
D4
100
AcDbEntity
  8
MAIN0
  6
CONTINUOUS
 62
3
100
AcDbLine
 10
215.0394977936052
 20
380.3512169590780
 30
0.0000000000000000
 11
215.0394977936052
 21
310.8512169590777
 31
0.0000000000000000
  0
LINE
  5
D5
100
AcDbEntity
  8
MAIN0
  6
CONTINUOUS
 62
3
100
AcDbLine
 10
192.5394977936054
 20
364.3512169590787
 30
0.0000000000000000
 11
192.5394977936055
 21
322.3512169590766
 31
0.0000000000000000
  0
LINE
  5
D6
100
AcDbEntity
  8
MAIN0
  6
CONTINUOUS
 62
3
100
AcDbLine
 10
192.5394977936052
 20
322.3512169590766
 30
0.0000000000000000
 11
215.0394977936056
 21
322.3512169590766
 31
0.0000000000000000
  0
LINE
  5
D7
100
AcDbEntity
  8
MAIN0
  6
CONTINUOUS
 62
3
100
AcDbLine
 10
215.0394977936052
 20
311.3512169590781
 30
0.0000000000000000
 11
215.0394977936052
 21
318.3512169590781
 31
0.0000000000000000
  0
LINE
  5
D8
100
AcDbEntity
  8
MAIN0
  6
CONTINUOUS
 62
3
100
AcDbLine
 10
215.0394977936052
 20
380.3512169590780
 30
0.0000000000000000
 11
240.0394977936052
 21
380.3512169590780
 31
0.0000000000000000
  0
LINE
  5
D9
100
AcDbEntity
  8
MAIN0
  6
CONTINUOUS
 62
3
100
AcDbLine
 10
240.0394977936052
 20
381.3512169590781
 30
0.0000000000000000
 11
259.0394977936052
 21
381.3512169590781
 31
0.0000000000000000
  0
LINE
  5
DA
100
AcDbEntity
  8
MAIN0
  6
CONTINUOUS
 62
3
100
AcDbLine
 10
259.0394977936052
 20
399.3512169590781
 30
0.0000000000000000
 11
279.0394977936052
 21
399.3512169590781
 31
0.0000000000000000
  0
LINE
  5
DB
100
AcDbEntity
  8
MAIN0
  6
CONTINUOUS
 62
3
100
AcDbLine
 10
259.0394977936053
 20
310.8512169590777
 30
0.0000000000000000
 11
259.0394977936053
 21
399.3512169590782
 31
0.0000000000000000
  0
LINE
  5
DC
100
AcDbEntity
  8
MAIN0
  6
CONTINUOUS
 62
3
100
AcDbLine
 10
279.0394977936055
 20
310.8512169590777
 30
0.0000000000000000
 11
215.0394977936052
 21
310.8512169590776
 31
0.0000000000000000
  0
LINE
  5
DD
100
AcDbEntity
  8
MAIN0
  6
CONTINUOUS
 62
3
100
AcDbLine
 10
240.0394977936052
 20
381.3512169590781
 30
0.0000000000000000
 11
240.0394977936052
 21
310.8512169590777
 31
0.0000000000000000
  0
LINE
  5
DE
100
AcDbEntity
  8
MAIN0
  6
CENTER
 62
3
100
AcDbLine
 10
181.7796844490408
 20
343.3512169590778
 30
0.0000000000000000
 11
298.3697392822946
 21
343.3512169590778
 31
0.0000000000000000
  0
LINE
  5
DF
100
AcDbEntity
  8
MAIN0
  6
CONTINUOUS
 62
3
100
AcDbLine
 10
279.0394977936054
 20
608.3512169590778
 30
0.0000000000000000
 11
279.0394977936054
 21
308.3512169590778
 31
0.0000000000000000
  0
LINE
  5
E0
100
AcDbEntity
  8
MAIN0
  6
PHANTOM
 62
3
100
AcDbLine
 10
646.6739749923401
 20
483.3512169590778
 30
0.0000000000000000
 11
664.0394977936054
 21
483.3512169590778
 31
0.0000000000000000
  0
LINE
  5
E1
100
AcDbEntity
  8
MAIN0
  6
PHANTOM
 62
3
100
AcDbLine
 10
646.6739749923401
 20
433.3512169590778
 30
0.0000000000000000
 11
664.0394977936054
 21
433.3512169590778
 31
0.0000000000000000
  0
LINE
  5
E2
100
AcDbEntity
  8
MAIN0
  6
CONTINUOUS
 62
3
100
AcDbLine
 10
519.0394977936055
 20
647.8512169590778
 30
0.0000000000000000
 11
597.0394977936055
 21
647.8512169590778
 31
0.0000000000000000
  0
LINE
  5
E3
100
AcDbEntity
  8
MAIN0
  6
CONTINUOUS
 62
3
100
AcDbLine
 10
519.0394977936054
 20
268.8512169590778
 30
0.0000000000000000
 11
597.0394977936054
 21
268.8512169590778
 31
0.0000000000000000
  0
LINE
  5
E4
100
AcDbEntity
  8
MAIN0
  6
CONTINUOUS
 62
3
100
AcDbLine
 10
597.0394977936054
 20
268.8512169590778
 30
0.0000000000000000
 11
597.0394977936054
 21
308.3512169590778
 31
0.0000000000000000
  0
LINE
  5
E5
100
AcDbEntity
  8
MAIN0
  6
CONTINUOUS
 62
3
100
AcDbLine
 10
519.0394977936054
 20
268.8512169590778
 30
0.0000000000000000
 11
519.0394977936054
 21
308.3512169590778
 31
0.0000000000000000
  0
LINE
  5
E6
100
AcDbEntity
  8
MAIN0
  6
CONTINUOUS
 62
3
100
AcDbLine
 10
519.0394977936054
 20
608.3512169590778
 30
0.0000000000000000
 11
519.0394977936054
 21
647.8512169590778
 31
0.0000000000000000
  0
LINE
  5
E7
100
AcDbEntity
  8
MAIN0
  6
CENTER
 62
3
100
AcDbLine
 10
566.0394977936054
 20
278.8512169590778
 30
0.0000000000000000
 11
550.0394977936054
 21
278.8512169590778
 31
0.0000000000000000
  0
LINE
  5
E8
100
AcDbEntity
  8
MAIN0
  6
CENTER
 62
3
100
AcDbLine
 10
566.0394977936054
 20
298.8512169590778
 30
0.0000000000000000
 11
550.0394977936054
 21
298.8512169590778
 31
0.0000000000000000
  0
LINE
  5
E9
100
AcDbEntity
  8
MAIN0
  6
CENTER
 62
3
100
AcDbLine
 10
566.0394977936054
 20
637.8512169590778
 30
0.0000000000000000
 11
550.0394977936054
 21
637.8512169590778
 31
0.0000000000000000
  0
LINE
  5
EA
100
AcDbEntity
  8
MAIN0
  6
CENTER
 62
3
100
AcDbLine
 10
566.0394977936054
 20
617.8512169590778
 30
0.0000000000000000
 11
550.0394977936054
 21
617.8512169590778
 31
0.0000000000000000
  0
CIRCLE
  5
EB
100
AcDbEntity
  8
MAIN0
  6
CONTINUOUS
 62
3
100
AcDbCircle
 10
429.0394977936054
 20
333.3512169590778
 30
0.0000000000000000
 40
4.000000000000000
  0
CIRCLE
  5
EC
100
AcDbEntity
  8
MAIN0
  6
CONTINUOUS
 62
3
100
AcDbCircle
 10
429.0394977936054
 20
333.3512169590778
 30
0.0000000000000000
 40
3.400000000000000
  0
CIRCLE
  5
ED
100
AcDbEntity
  8
MAIN0
  6
CONTINUOUS
 62
3
100
AcDbCircle
 10
504.0394977936052
 20
333.3512169590778
 30
0.0000000000000000
 40
4.000000000000000
  0
CIRCLE
  5
EE
100
AcDbEntity
  8
MAIN0
  6
CONTINUOUS
 62
3
100
AcDbCircle
 10
504.0394977936052
 20
333.3512169590778
 30
0.0000000000000000
 40
3.400000000000000
  0
LINE
  5
EF
100
AcDbEntity
  8
MAIN0
  6
CENTER
 62
3
100
AcDbLine
 10
362.0394977936053
 20
333.3512169590778
 30
0.0000000000000000
 11
346.0394977936053
 21
333.3512169590778
 31
0.0000000000000000
  0
LINE
  5
F0
100
AcDbEntity
  8
MAIN0
  6
CENTER
 62
3
100
AcDbLine
 10
354.0394977936053
 20
341.3512169590778
 30
0.0000000000000000
 11
354.0394977936053
 21
325.3512169590778
 31
0.0000000000000000
  0
LINE
  5
F1
100
AcDbEntity
  8
MAIN0
  6
CENTER
 62
3
100
AcDbLine
 10
437.0394977936054
 20
333.3512169590778
 30
0.0000000000000000
 11
421.0394977936054
 21
333.3512169590778
 31
0.0000000000000000
  0
LINE
  5
F2
100
AcDbEntity
  8
MAIN0
  6
CENTER
 62
3
100
AcDbLine
 10
429.0394977936054
 20
341.3512169590778
 30
0.0000000000000000
 11
429.0394977936054
 21
325.3512169590778
 31
0.0000000000000000
  0
LINE
  5
F3
100
AcDbEntity
  8
MAIN0
  6
CENTER
 62
3
100
AcDbLine
 10
512.0394977936052
 20
333.3512169590778
 30
0.0000000000000000
 11
496.0394977936052
 21
333.3512169590778
 31
0.0000000000000000
  0
LINE
  5
F4
100
AcDbEntity
  8
MAIN0
  6
CENTER
 62
3
100
AcDbLine
 10
504.0394977936052
 20
341.3512169590778
 30
0.0000000000000000
 11
504.0394977936052
 21
325.3512169590778
 31
0.0000000000000000
  0
CIRCLE
  5
F5
100
AcDbEntity
  8
MAIN0
  6
CONTINUOUS
 62
3
100
AcDbCircle
 10
354.0394977936053
 20
583.3512169590778
 30
0.0000000000000000
 40
4.000000000000000
  0
CIRCLE
  5
F6
100
AcDbEntity
  8
MAIN0
  6
CONTINUOUS
 62
3
100
AcDbCircle
 10
354.0394977936053
 20
583.3512169590778
 30
0.0000000000000000
 40
3.400000000000000
  0
CIRCLE
  5
F7
100
AcDbEntity
  8
MAIN0
  6
CONTINUOUS
 62
3
100
AcDbCircle
 10
429.0394977936054
 20
583.3512169590778
 30
0.0000000000000000
 40
4.000000000000000
  0
CIRCLE
  5
F8
100
AcDbEntity
  8
MAIN0
  6
CONTINUOUS
 62
3
100
AcDbCircle
 10
429.0394977936054
 20
583.3512169590778
 30
0.0000000000000000
 40
3.400000000000000
  0
CIRCLE
  5
F9
100
AcDbEntity
  8
MAIN0
  6
CONTINUOUS
 62
3
100
AcDbCircle
 10
504.0394977936052
 20
583.3512169590778
 30
0.0000000000000000
 40
4.000000000000000
  0
CIRCLE
  5
FA
100
AcDbEntity
  8
MAIN0
  6
CONTINUOUS
 62
3
100
AcDbCircle
 10
504.0394977936052
 20
583.3512169590778
 30
0.0000000000000000
 40
3.400000000000000
  0
LINE
  5
FB
100
AcDbEntity
  8
MAIN0
  6
CENTER
 62
3
100
AcDbLine
 10
362.0394977936053
 20
583.3512169590778
 30
0.0000000000000000
 11
346.0394977936053
 21
583.3512169590778
 31
0.0000000000000000
  0
LINE
  5
FC
100
AcDbEntity
  8
MAIN0
  6
CENTER
 62
3
100
AcDbLine
 10
354.0394977936053
 20
575.3512169590778
 30
0.0000000000000000
 11
354.0394977936053
 21
591.3512169590778
 31
0.0000000000000000
  0
LINE
  5
FD
100
AcDbEntity
  8
MAIN0
  6
CENTER
 62
3
100
AcDbLine
 10
437.0394977936054
 20
583.3512169590778
 30
0.0000000000000000
 11
421.0394977936054
 21
583.3512169590778
 31
0.0000000000000000
  0
LINE
  5
FE
100
AcDbEntity
  8
MAIN0
  6
CENTER
 62
3
100
AcDbLine
 10
429.0394977936054
 20
575.3512169590778
 30
0.0000000000000000
 11
429.0394977936054
 21
591.3512169590778
 31
0.0000000000000000
  0
LINE
  5
FF
100
AcDbEntity
  8
MAIN0
  6
CENTER
 62
3
100
AcDbLine
 10
512.0394977936052
 20
583.3512169590778
 30
0.0000000000000000
 11
496.0394977936052
 21
583.3512169590778
 31
0.0000000000000000
  0
LINE
  5
100
100
AcDbEntity
  8
MAIN0
  6
CENTER
 62
3
100
AcDbLine
 10
504.0394977936052
 20
575.3512169590778
 30
0.0000000000000000
 11
504.0394977936052
 21
591.3512169590778
 31
0.0000000000000000
  0
LINE
  5
101
100
AcDbEntity
  8
MAIN0
  6
CONTINUOUS
 62
3
100
AcDbLine
 10
519.0394977936054
 20
396.1012169590778
 30
0.0000000000000000
 11
519.0394977936054
 21
520.6012169590778
 31
0.0000000000000000
  0
LINE
  5
102
100
AcDbEntity
  8
MAIN0
  6
CONTINUOUS
 62
3
100
AcDbLine
 10
519.0394977936054
 20
520.6012169590778
 30
0.0000000000000000
 11
597.0394977936054
 21
520.6012169590778
 31
0.0000000000000000
  0
LINE
  5
103
100
AcDbEntity
  8
MAIN0
  6
CONTINUOUS
 62
3
100
AcDbLine
 10
519.0394977936054
 20
396.1012169590778
 30
0.0000000000000000
 11
597.0394977936054
 21
396.1012169590778
 31
0.0000000000000000
  0
LINE
  5
104
100
AcDbEntity
  8
MAIN0
  6
CENTER
 62
3
100
AcDbLine
 10
593.5394977936054
 20
414.3512169590778
 30
0.0000000000000000
 11
567.5394977936054
 21
414.3512169590778
 31
0.0000000000000000
  0
LINE
  5
105
100
AcDbEntity
  8
MAIN0
  6
CENTER
 62
3
100
AcDbLine
 10
580.5394977936054
 20
427.3512169590778
 30
0.0000000000000000
 11
580.5394977936054
 21
401.3512169590778
 31
0.0000000000000000
  0
LINE
  5
106
100
AcDbEntity
  8
MAIN0
  6
CENTER
 62
3
100
AcDbLine
 10
548.5394977936054
 20
414.3512169590778
 30
0.0000000000000000
 11
522.5394977936054
 21
414.3512169590778
 31
0.0000000000000000
  0
LINE
  5
107
100
AcDbEntity
  8
MAIN0
  6
CENTER
 62
3
100
AcDbLine
 10
535.5394977936054
 20
427.3512169590778
 30
0.0000000000000000
 11
535.5394977936054
 21
401.3512169590778
 31
0.0000000000000000
  0
LINE
  5
108
100
AcDbEntity
  8
MAIN0
  6
CENTER
 62
3
100
AcDbLine
 10
548.5394977936054
 20
502.3512169590778
 30
0.0000000000000000
 11
522.5394977936054
 21
502.3512169590778
 31
0.0000000000000000
  0
LINE
  5
109
100
AcDbEntity
  8
MAIN0
  6
CENTER
 62
3
100
AcDbLine
 10
535.5394977936054
 20
515.3512169590778
 30
0.0000000000000000
 11
535.5394977936054
 21
489.3512169590778
 31
0.0000000000000000
  0
LINE
  5
10A
100
AcDbEntity
  8
MAIN0
  6
CENTER
 62
3
100
AcDbLine
 10
593.5394977936054
 20
502.3512169590778
 30
0.0000000000000000
 11
567.5394977936054
 21
502.3512169590778
 31
0.0000000000000000
  0
LINE
  5
10B
100
AcDbEntity
  8
MAIN0
  6
CENTER
 62
3
100
AcDbLine
 10
580.5394977936054
 20
515.3512169590778
 30
0.0000000000000000
 11
580.5394977936054
 21
489.3512169590778
 31
0.0000000000000000
  0
LINE
  5
10C
100
AcDbEntity
  8
MAIN0
  6
CONTINUOUS
 62
3
100
AcDbLine
 10
414.0394977936054
 20
268.8512169590778
 30
0.0000000000000000
 11
414.0394977936054
 21
308.3512169590778
 31
0.0000000000000000
  0
LINE
  5
10D
100
AcDbEntity
  8
MAIN0
  6
CONTINUOUS
 62
3
100
AcDbLine
 10
414.0394977936054
 20
608.3512169590778
 30
0.0000000000000000
 11
414.0394977936054
 21
647.8512169590778
 31
0.0000000000000000
  0
LINE
  5
10E
100
AcDbEntity
  8
MAIN0
  6
CONTINUOUS
 62
3
100
AcDbLine
 10
340.0394977936053
 20
268.8512169590778
 30
0.0000000000000000
 11
340.0394977936053
 21
308.3512169590778
 31
0.0000000000000000
  0
LINE
  5
10F
100
AcDbEntity
  8
MAIN0
  6
CONTINUOUS
 62
3
100
AcDbLine
 10
340.0394977936053
 20
608.3512169590778
 30
0.0000000000000000
 11
340.0394977936053
 21
647.8512169590778
 31
0.0000000000000000
  0
LINE
  5
110
100
AcDbEntity
  8
MAIN0
  6
CONTINUOUS
 62
3
100
AcDbLine
 10
340.0394977936053
 20
268.8512169590778
 30
0.0000000000000000
 11
414.0394977936054
 21
268.8512169590778
 31
0.0000000000000000
  0
LINE
  5
111
100
AcDbEntity
  8
MAIN0
  6
CONTINUOUS
 62
3
100
AcDbLine
 10
340.0394977936053
 20
647.8512169590778
 30
0.0000000000000000
 11
414.0394977936054
 21
647.8512169590778
 31
0.0000000000000000
  0
LINE
  5
112
100
AcDbEntity
  8
MAIN0
  6
CONTINUOUS
 62
3
100
AcDbLine
 10
414.0394977936054
 20
520.6012169590778
 30
0.0000000000000000
 11
414.0394977936054
 21
396.1012169590778
 31
0.0000000000000000
  0
LINE
  5
113
100
AcDbEntity
  8
MAIN0
  6
CONTINUOUS
 62
3
100
AcDbLine
 10
340.0394977936053
 20
520.6012169590778
 30
0.0000000000000000
 11
340.0394977936053
 21
396.1012169590778
 31
0.0000000000000000
  0
LINE
  5
114
100
AcDbEntity
  8
MAIN0
  6
CONTINUOUS
 62
3
100
AcDbLine
 10
340.0394977936053
 20
520.6012169590778
 30
0.0000000000000000
 11
414.0394977936054
 21
520.6012169590778
 31
0.0000000000000000
  0
LINE
  5
115
100
AcDbEntity
  8
MAIN0
  6
CONTINUOUS
 62
3
100
AcDbLine
 10
340.0394977936053
 20
396.1012169590778
 30
0.0000000000000000
 11
414.0394977936054
 21
396.1012169590778
 31
0.0000000000000000
  0
LINE
  5
116
100
AcDbEntity
  8
MAIN0
  6
CENTER
 62
3
100
AcDbLine
 10
411.0394977936054
 20
475.8512169590778
 30
0.0000000000000000
 11
385.0394977936054
 21
475.8512169590778
 31
0.0000000000000000
  0
LINE
  5
117
100
AcDbEntity
  8
MAIN0
  6
CENTER
 62
3
100
AcDbLine
 10
398.0394977936054
 20
488.8512169590778
 30
0.0000000000000000
 11
398.0394977936054
 21
462.8512169590778
 31
0.0000000000000000
  0
LINE
  5
118
100
AcDbEntity
  8
MAIN0
  6
CENTER
 62
3
100
AcDbLine
 10
411.0394977936054
 20
440.8512169590778
 30
0.0000000000000000
 11
385.0394977936054
 21
440.8512169590778
 31
0.0000000000000000
  0
LINE
  5
119
100
AcDbEntity
  8
MAIN0
  6
CENTER
 62
3
100
AcDbLine
 10
398.0394977936054
 20
453.8512169590778
 30
0.0000000000000000
 11
398.0394977936054
 21
427.8512169590778
 31
0.0000000000000000
  0
LINE
  5
11A
100
AcDbEntity
  8
MAIN0
  6
CENTER
 62
3
100
AcDbLine
 10
369.0394977936053
 20
440.8512169590778
 30
0.0000000000000000
 11
343.0394977936053
 21
440.8512169590778
 31
0.0000000000000000
  0
LINE
  5
11B
100
AcDbEntity
  8
MAIN0
  6
CENTER
 62
3
100
AcDbLine
 10
356.0394977936053
 20
453.8512169590778
 30
0.0000000000000000
 11
356.0394977936053
 21
427.8512169590778
 31
0.0000000000000000
  0
LINE
  5
11C
100
AcDbEntity
  8
MAIN0
  6
CENTER
 62
3
100
AcDbLine
 10
369.0394977936053
 20
475.8512169590778
 30
0.0000000000000000
 11
343.0394977936053
 21
475.8512169590778
 31
0.0000000000000000
  0
LINE
  5
11D
100
AcDbEntity
  8
MAIN0
  6
CENTER
 62
3
100
AcDbLine
 10
356.0394977936053
 20
488.8512169590778
 30
0.0000000000000000
 11
356.0394977936053
 21
462.8512169590778
 31
0.0000000000000000
  0
LINE
  5
11E
100
AcDbEntity
  8
MAIN0
  6
CONTINUOUS
 62
3
100
AcDbLine
 10
546.0394977936054
 20
599.3512169590778
 30
0.0000000000000000
 11
570.0394977936054
 21
599.3512169590778
 31
0.0000000000000000
  0
LINE
  5
11F
100
AcDbEntity
  8
MAIN0
  6
CONTINUOUS
 62
3
100
AcDbLine
 10
546.0394977936054
 20
317.3512169590778
 30
0.0000000000000000
 11
570.0394977936056
 21
317.3512169590778
 31
0.0000000000000000
  0
LINE
  5
120
100
AcDbEntity
  8
MAIN0
  6
CONTINUOUS
 62
3
100
AcDbLine
 10
570.0394977936054
 20
308.3512169590778
 30
0.0000000000000000
 11
570.0394977936054
 21
317.3512169590778
 31
0.0000000000000000
  0
LINE
  5
121
100
AcDbEntity
  8
MAIN0
  6
CONTINUOUS
 62
3
100
AcDbLine
 10
570.0394977936054
 20
599.3512169590778
 30
0.0000000000000000
 11
570.0394977936054
 21
608.3512169590778
 31
0.0000000000000000
  0
LINE
  5
122
100
AcDbEntity
  8
MAIN0
  6
CONTINUOUS
 62
3
100
AcDbLine
 10
546.0394977936054
 20
308.3512169590778
 30
0.0000000000000000
 11
546.0394977936054
 21
317.3512169590778
 31
0.0000000000000000
  0
LINE
  5
123
100
AcDbEntity
  8
MAIN0
  6
CONTINUOUS
 62
3
100
AcDbLine
 10
546.0394977936054
 20
599.3512169590778
 30
0.0000000000000000
 11
546.0394977936054
 21
608.3512169590778
 31
0.0000000000000000
  0
LINE
  5
124
100
AcDbEntity
  8
MAIN0
  6
CONTINUOUS
 62
3
100
AcDbLine
 10
279.0394977936053
 20
308.3512169590778
 30
0.0000000000000000
 11
546.0394977936054
 21
308.3512169590778
 31
0.0000000000000000
  0
LINE
  5
125
100
AcDbEntity
  8
MAIN0
  6
CONTINUOUS
 62
3
100
AcDbLine
 10
570.0394977936054
 20
308.3512169590778
 30
0.0000000000000000
 11
644.0394977936056
 21
308.3512169590778
 31
0.0000000000000000
  0
LINE
  5
126
100
AcDbEntity
  8
MAIN0
  6
CONTINUOUS
 62
3
100
AcDbLine
 10
279.0394977936055
 20
608.3512169590778
 30
0.0000000000000000
 11
546.0394977936054
 21
608.3512169590778
 31
0.0000000000000000
  0
LINE
  5
127
100
AcDbEntity
  8
MAIN0
  6
CONTINUOUS
 62
3
100
AcDbLine
 10
598.0394977936054
 20
514.3512169590778
 30
0.0000000000000000
 11
623.0394977936054
 21
514.3512169590778
 31
0.0000000000000000
  0
LINE
  5
128
100
AcDbEntity
  8
MAIN0
  6
CONTINUOUS
 62
3
100
AcDbLine
 10
598.0394977936054
 20
402.3512169590778
 30
0.0000000000000000
 11
623.0394977936054
 21
402.3512169590778
 31
0.0000000000000000
  0
LINE
  5
129
100
AcDbEntity
  8
MAIN0
  6
CONTINUOUS
 62
3
100
AcDbLine
 10
279.0394977936054
 20
526.3512169590778
 30
0.0000000000000000
 11
598.0394977936055
 21
526.3512169590778
 31
0.0000000000000000
  0
LINE
  5
12A
100
AcDbEntity
  8
MAIN0
  6
CONTINUOUS
 62
3
100
AcDbLine
 10
623.0394977936054
 20
526.3512169590778
 30
0.0000000000000000
 11
644.0394977936056
 21
526.3512169590778
 31
0.0000000000000000
  0
LINE
  5
12B
100
AcDbEntity
  8
MAIN0
  6
CONTINUOUS
 62
3
100
AcDbLine
 10
279.0394977936055
 20
390.3512169590778
 30
0.0000000000000000
 11
598.0394977936055
 21
390.3512169590778
 31
0.0000000000000000
  0
LINE
  5
12C
100
AcDbEntity
  8
MAIN0
  6
CONTINUOUS
 62
3
100
AcDbLine
 10
623.0394977936054
 20
390.3512169590778
 30
0.0000000000000000
 11
644.0394977936054
 21
390.3512169590778
 31
0.0000000000000000
  0
LINE
  5
12D
100
AcDbEntity
  8
MAIN0
  6
CONTINUOUS
 62
3
100
AcDbLine
 10
279.0394977936055
 20
395.3512169590778
 30
0.0000000000000000
 11
598.0394977936055
 21
395.3512169590778
 31
0.0000000000000000
  0
LINE
  5
12E
100
AcDbEntity
  8
MAIN0
  6
CONTINUOUS
 62
3
100
AcDbLine
 10
623.0394977936054
 20
395.3512169590778
 30
0.0000000000000000
 11
644.0394977936054
 21
395.3512169590778
 31
0.0000000000000000
  0
LINE
  5
12F
100
AcDbEntity
  8
MAIN0
  6
CONTINUOUS
 62
3
100
AcDbLine
 10
279.0394977936053
 20
521.3512169590778
 30
0.0000000000000000
 11
598.0394977936054
 21
521.3512169590778
 31
0.0000000000000000
  0
LINE
  5
130
100
AcDbEntity
  8
MAIN0
  6
CONTINUOUS
 62
3
100
AcDbLine
 10
623.0394977936054
 20
521.3512169590778
 30
0.0000000000000000
 11
644.0394977936054
 21
521.3512169590778
 31
0.0000000000000000
  0
LINE
  5
131
100
AcDbEntity
  8
MAIN0
  6
HIDDEN
 62
3
100
AcDbLine
 10
279.0394977936054
 20
510.3512169590778
 30
0.0000000000000000
 11
632.0394977936054
 21
510.3512169590778
 31
0.0000000000000000
  0
LINE
  5
132
100
AcDbEntity
  8
MAIN0
  6
HIDDEN
 62
3
100
AcDbLine
 10
279.0394977936054
 20
406.3512169590778
 30
0.0000000000000000
 11
632.0394977936054
 21
406.3512169590778
 31
0.0000000000000000
  0
LINE
  5
133
100
AcDbEntity
  8
MAIN0
  6
HIDDEN
 62
3
100
AcDbLine
 10
632.0394977936054
 20
513.3512169590778
 30
0.0000000000000000
 11
632.0394977936054
 21
403.3512169590778
 31
0.0000000000000000
  0
LINE
  5
134
100
AcDbEntity
  8
MAIN0
  6
HIDDEN
 62
3
100
AcDbLine
 10
632.0394977936054
 20
513.3512169590778
 30
0.0000000000000000
 11
644.0394977936054
 21
513.3512169590778
 31
0.0000000000000000
  0
LINE
  5
135
100
AcDbEntity
  8
MAIN0
  6
HIDDEN
 62
3
100
AcDbLine
 10
632.0394977936054
 20
403.3512169590778
 30
0.0000000000000000
 11
644.0394977936054
 21
403.3512169590778
 31
0.0000000000000000
  0
LINE
  5
136
100
AcDbEntity
  8
MAIN0
  6
CONTINUOUS
 62
3
100
AcDbLine
 10
623.0394977936054
 20
308.3512169590778
 30
0.0000000000000000
 11
623.0394977936054
 21
402.3512169590778
 31
0.0000000000000000
  0
LINE
  5
137
100
AcDbEntity
  8
MAIN0
  6
CONTINUOUS
 62
3
100
AcDbLine
 10
623.0394977936054
 20
514.3512169590778
 30
0.0000000000000000
 11
623.0394977936054
 21
608.3512169590778
 31
0.0000000000000000
  0
LINE
  5
138
100
AcDbEntity
  8
MAIN0
  6
CONTINUOUS
 62
3
100
AcDbLine
 10
279.0394977936055
 20
566.3512169590778
 30
0.0000000000000000
 11
597.0394977930129
 21
566.3512169590778
 31
0.0000000000000000
  0
CIRCLE
  5
139
100
AcDbEntity
  8
MAIN0
  6
HIDDEN
 62
3
100
AcDbCircle
 10
-169.3907941821556
 20
458.3512169590778
 30
0.0000000000000000
 40
52.00000000000000
  0
LINE
  5
13A
100
AcDbEntity
  8
MAIN0
  6
CONTINUOUS
 62
3
100
AcDbLine
 10
597.0394977936054
 20
428.3512169590778
 30
0.0000000000000000
 11
644.0394977936054
 21
428.3512169590778
 31
0.0000000000000000
  0
LINE
  5
13B
100
AcDbEntity
  8
MAIN0
  6
CONTINUOUS
 62
3
100
AcDbLine
 10
414.0394977936054
 20
428.3512169590778
 30
0.0000000000000000
 11
519.0394977936054
 21
428.3512169590778
 31
0.0000000000000000
  0
LINE
  5
13C
100
AcDbEntity
  8
MAIN0
  6
CONTINUOUS
 62
3
100
AcDbLine
 10
279.0394977936054
 20
428.3512169590778
 30
0.0000000000000000
 11
340.0394977936053
 21
428.3512169590778
 31
0.0000000000000000
  0
LINE
  5
13D
100
AcDbEntity
  8
MAIN0
  6
CONTINUOUS
 62
3
100
AcDbLine
 10
279.0394977936054
 20
488.3512169590778
 30
0.0000000000000000
 11
340.0394977936053
 21
488.3512169590778
 31
0.0000000000000000
  0
LINE
  5
13E
100
AcDbEntity
  8
MAIN0
  6
CONTINUOUS
 62
3
100
AcDbLine
 10
414.0394977936054
 20
488.3512169590778
 30
0.0000000000000000
 11
519.0394977936054
 21
488.3512169590778
 31
0.0000000000000000
  0
LINE
  5
13F
100
AcDbEntity
  8
MAIN0
  6
CONTINUOUS
 62
3
100
AcDbLine
 10
597.0394977936054
 20
488.3512169590778
 30
0.0000000000000000
 11
644.0394977936054
 21
488.3512169590778
 31
0.0000000000000000
  0
LINE
  5
140
100
AcDbEntity
  8
MAIN0
  6
CONTINUOUS
 62
3
100
AcDbLine
 10
570.0394977936054
 20
608.3512169590778
 30
0.0000000000000000
 11
598.0394977936054
 21
608.3512169590778
 31
0.0000000000000000
  0
LINE
  5
141
100
AcDbEntity
  8
MAIN0
  6
CONTINUOUS
 62
3
100
AcDbLine
 10
598.0394977936055
 20
608.3512169590778
 30
0.0000000000000000
 11
644.0394977936054
 21
608.3512169590778
 31
0.0000000000000000
  0
LINE
  5
142
100
AcDbEntity
  8
MAIN0
  6
PHANTOM
 62
3
100
AcDbLine
 10
601.0394977936055
 20
401.6857407381897
 30
0.0000000000000000
 11
623.0394977936054
 21
401.6857407381897
 31
0.0000000000000000
  0
LINE
  5
143
100
AcDbEntity
  8
MAIN0
  6
PHANTOM
 62
3
100
AcDbLine
 10
601.0394977936055
 20
335.9248100878849
 30
0.0000000000000000
 11
623.0394977936054
 21
335.9248100878849
 31
0.0000000000000000
  0
LINE
  5
144
100
AcDbEntity
  8
MAIN0
  6
PHANTOM
 62
3
100
AcDbLine
 10
601.0394977936054
 20
335.9248100878849
 30
0.0000000000000000
 11
601.0394977936054
 21
401.6857407381897
 31
0.0000000000000000
  0
LINE
  5
145
100
AcDbEntity
  8
MAIN0
  6
CENTER
 62
3
100
AcDbLine
 10
578.3990920452085
 20
378.3512169590778
 30
0.0000000000000000
 11
667.3420928936856
 21
378.3512169590778
 31
0.0000000000000000
  0
LINE
  5
146
100
AcDbEntity
  8
MAIN0
  6
PHANTOM
 62
3
100
AcDbLine
 10
614.0394977936054
 20
515.5712566972331
 30
0.0000000000000000
 11
623.0394977936055
 21
515.5712566972331
 31
0.0000000000000000
  0
LINE
  5
147
100
AcDbEntity
  8
MAIN0
  6
PHANTOM
 62
3
100
AcDbLine
 10
623.0394977936054
 20
522.9958778995880
 30
0.0000000000000000
 11
643.0394977936055
 21
522.9958778995880
 31
0.0000000000000000
  0
LINE
  5
148
100
AcDbEntity
  8
MAIN0
  6
PHANTOM
 62
3
100
AcDbLine
 10
614.0394977936054
 20
616.6875264069679
 30
0.0000000000000000
 11
644.0394977936054
 21
616.6875264069679
 31
0.0000000000000000
  0
LINE
  5
149
100
AcDbEntity
  8
MAIN0
  6
PHANTOM
 62
3
100
AcDbLine
 10
643.0394977936054
 20
563.6545178179766
 30
0.0000000000000000
 11
644.0394977936055
 21
563.6545178179766
 31
0.0000000000000000
  0
LINE
  5
14A
100
AcDbEntity
  8
MAIN0
  6
PHANTOM
 62
3
100
AcDbLine
 10
614.0394977936054
 20
515.5712566972331
 30
0.0000000000000000
 11
614.0394977936054
 21
616.6875264069679
 31
0.0000000000000000
  0
LINE
  5
14B
100
AcDbEntity
  8
MAIN0
  6
PHANTOM
 62
3
100
AcDbLine
 10
644.0394977936054
 20
616.6875264069679
 30
0.0000000000000000
 11
644.0394977936054
 21
608.3512169590778
 31
0.0000000000000000
  0
LINE
  5
14C
100
AcDbEntity
  8
MAIN0
  6
PHANTOM
 62
3
100
AcDbLine
 10
614.0394977936054
 20
570.7255856298420
 30
0.0000000000000000
 11
644.0394977936054
 21
570.7255856298420
 31
0.0000000000000000
  0
LINE
  5
14D
100
AcDbEntity
  8
MAIN0
  6
CONTINUOUS
 62
3
100
AcDbLine
 10
623.0394977936054
 20
608.3512169590778
 30
0.0000000000000000
 11
623.0394977936053
 21
598.3512169590778
 31
0.0000000000000000
  0
LINE
  5
14E
100
AcDbEntity
  8
MAIN0
  6
CENTER
 62
3
100
AcDbLine
 10
591.3709357961013
 20
558.3512169590777
 30
0.0000000000000000
 11
652.5922255024746
 21
558.3512169590777
 31
0.0000000000000000
  0
DIMENSION
  5
157
100
AcDbEntity
  8
MAIN0
  6
CONTINUOUS
 62
3
100
AcDbDimension
  2
*D0
 10
-69.39079418215557
 20
726.1203012955306
 30
0.0000000000000000
 11
-119.3907941821556
 21
726.6203012955306
 31
0.0000000000000000
 70
32
 71
5
 42
100.000000
  3
MAIN001
100
AcDbAlignedDimension
 13
-169.3907941821556
 23
660.2485352307222
 33
0.0000000000000000
 14
-69.39079418215557
 24
574.3512169590777
 34
0.0000000000000000
100
AcDbRotatedDimension
1001
ACAD
1000
DSTYLE
1002
{
1070
   173
1070
     1
1070
     6
1000
_OPEN
1070
     7
1000
_OPEN
1070
    41
1040
2.000000
1002
}
  0
INSERT
  5
15F
100
AcDbEntity
  8
MAIN0
  6
CONTINUOUS
 62
3
100
AcDbBlockReference
  2
D1
 10
-169.3907941821555
 20
660.2485352307222
 30
0.0000000000000000
 50
0.0000000000000000
  0
DIMENSION
  5
168
100
AcDbEntity
  8
MAIN0
  6
CONTINUOUS
 62
3
100
AcDbDimension
  2
*D2
 10
-89.39079418215556
 20
226.8005438179549
 30
0.0000000000000000
 11
-129.3907941821556
 21
227.3005438179549
 31
0.0000000000000000
 70
32
 71
5
 42
80.000000
  3
MAIN001
100
AcDbAlignedDimension
 13
-169.3907941821556
 23
248.8062602368066
 33
0.0000000000000000
 14
-89.39079418215556
 24
362.3512169590778
 34
0.0000000000000000
100
AcDbRotatedDimension
1001
ACAD
1000
DSTYLE
1002
{
1070
   173
1070
     1
1070
     6
1000
_OPEN
1070
     7
1000
_OPEN
1070
    41
1040
2.000000
1002
}
  0
INSERT
  5
170
100
AcDbEntity
  8
MAIN0
  6
CONTINUOUS
 62
3
100
AcDbBlockReference
  2
D3
 10
-169.3907941821556
 20
248.8062602368066
 30
0.0000000000000000
 50
0.0000000000000000
  0
DIMENSION
  5
179
100
AcDbEntity
  8
MAIN0
  6
CONTINUOUS
 62
3
100
AcDbDimension
  2
*D4
 10
100.5520290692005
 20
520.6012169590778
 30
0.0000000000000000
 11
99.55202906920050
 21
481.7833601291146
 31
0.0000000000000000
 70
160
 71
5
 42
124.500000
  3
MAIN001
100
AcDbAlignedDimension
 13
20.10920581784444
 23
396.1012169590778
 33
0.0000000000000000
 14
20.10920581784444
 24
520.6012169590778
 34
0.0000000000000000
 50
90.00000000000000
100
AcDbRotatedDimension
1001
ACAD
1000
DSTYLE
1002
{
1070
   173
1070
     1
1070
     6
1000
_OPEN
1070
     7
1000
_OPEN
1070
    41
1040
2.000000
1002
}
  0
DIMENSION
  5
182
100
AcDbEntity
  8
MAIN0
  6
CONTINUOUS
 62
3
100
AcDbDimension
  2
*D5
 10
122.8263789832074
 20
308.3512169590778
 30
0.0000000000000000
 11
122.3263789832074
 21
458.3512169590778
 31
0.0000000000000000
 70
32
 71
5
 42
300.000000
  3
MAIN001
100
AcDbAlignedDimension
 13
-106.3907941821555
 23
608.3512169590778
 33
0.0000000000000000
 14
-106.3907941821556
 24
308.3512169590778
 34
0.0000000000000000
 50
90.00000000000000
100
AcDbRotatedDimension
1001
ACAD
1000
DSTYLE
1002
{
1070
   173
1070
     1
1070
     6
1000
_OPEN
1070
     7
1000
_OPEN
1070
    41
1040
2.000000
1002
}
  0
DIMENSION
  5
18B
100
AcDbEntity
  8
MAIN0
  6
CONTINUOUS
 62
3
100
AcDbDimension
  2
*D6
 10
145.3372176934445
 20
647.8512169590778
 30
0.0000000000000000
 11
144.8372176934445
 21
458.3512169590778
 31
0.0000000000000000
 70
32
 71
5
 42
379.000000
  3
MAIN001
100
AcDbAlignedDimension
 13
-107.1407941821556
 23
268.8512169590778
 33
0.0000000000000000
 14
-107.1407941821556
 24
647.8512169590778
 34
0.0000000000000000
 50
90.00000000000000
100
AcDbRotatedDimension
1001
ACAD
1000
DSTYLE
1002
{
1070
   173
1070
     1
1070
     6
1000
_OPEN
1070
     7
1000
_OPEN
1070
    41
1040
2.000000
1002
}
  0
DIMENSION
  5
194
100
AcDbEntity
  8
MAIN0
  6
CONTINUOUS
 62
3
100
AcDbDimension
  2
*D7
 10
122.8263789832074
 20
308.3512169590778
 30
0.0000000000000000
 11
122.3263789832074
 21
288.6012169590778
 31
0.0000000000000000
 70
32
 71
5
 42
39.500000
  3
MAIN001
100
AcDbAlignedDimension
 13
-107.1407941821556
 23
268.8512169590778
 33
0.0000000000000000
 14
-106.3907941821556
 24
308.3512169590778
 34
0.0000000000000000
 50
90.00000000000000
100
AcDbRotatedDimension
1001
ACAD
1000
DSTYLE
1002
{
1070
   173
1070
     1
1070
     6
1000
_OPEN
1070
     7
1000
_OPEN
1070
    41
1040
2.000000
1002
}
  0
DIMENSION
  5
19D
100
AcDbEntity
  8
MAIN0
  6
CONTINUOUS
 62
3
100
AcDbDimension
  2
*D8
 10
122.8263789832074
 20
608.3512169590778
 30
0.0000000000000000
 11
122.3263789832074
 21
628.1012169590778
 31
0.0000000000000000
 70
32
 71
5
 42
39.500000
  3
MAIN001
100
AcDbAlignedDimension
 13
-107.1407941821556
 23
647.8512169590778
 33
0.0000000000000000
 14
-106.3907941821555
 24
608.3512169590778
 34
0.0000000000000000
 50
90.00000000000000
100
AcDbRotatedDimension
1001
ACAD
1000
DSTYLE
1002
{
1070
   173
1070
     1
1070
     6
1000
_OPEN
1070
     7
1000
_OPEN
1070
    41
1040
2.000000
1002
}
  0
MTEXT
  5
19E
100
AcDbEntity
  8
MAIN0
  6
CONTINUOUS
 62
3
100
AcDbMText
 10
-52.72935666960990
 20
568.4084441289874
 30
0.0000000000000000
 40
3.099999904632568
 41
0.0000000000000000
 44
0.6677419652551825
 71
     1
 72
     1
  1
{\H0.90x;{M16}}
 11
1.000000000000000
 21
0.0000000000000000
 31
0.0000000000000000
  7
STANDARD
  0
MTEXT
  5
19F
100
AcDbEntity
  8
MAIN0
  6
CONTINUOUS
 62
3
100
AcDbMText
 10
-75.22992024443005
 20
386.6613894105626
 30
0.0000000000000000
 40
3.099999904632568
 41
0.0000000000000000
 44
0.6677419652551825
 71
     1
 72
     1
  1
{\H0.90x;{M16}}
 11
1.000000000000000
 21
0.0000000000000000
 31
0.0000000000000000
  7
STANDARD
  0
LEADER
  5
1A0
100
AcDbEntity
  8
MAIN0
  6
CONTINUOUS
 62
3
100
AcDbLeader
  3
MAIN001
 73
     0
 74
     0
 75
     1
 40
3.099999904632568
 41
33.22152298105468
 76
     3
 10
-45.66858088352868
 20
605.3396817791056
 30
0.0000000000000000
 10
-48.32110422904292
 20
632.8966044989039
 30
0.0000000000000000
 10
-46.39610428483287
 20
632.8966044989039
 30
0.0000000000000000
340
1A1
213
1.198477810495000
223
-0.5000000000000000
233
0.0000000000000000
1001
ACAD
1000
DSTYLE
1002
{
1070
   147
1040
0.0
1070
    77
1070
     1
1070
   341
1005
13
1070
    41
1040
2.000000
1002
}
  0
MTEXT
  5
1A1
102
{ACAD_REACTORS
330
1A0
102
}
100
AcDbEntity
  8
MAIN0
  6
CONTINUOUS
 62
3
100
AcDbMText
 10
-47.59458209532787
 20
636.4966044035365
 30
0.0000000000000000
 40
3.099999904632568
 41
0.0000000000000000
 44
0.7935483930510365
 71
     1
 72
     1
  1
{\H0.94x;{クランプ（標準付属）\P（□500）}}
 11
1.000000000000000
 21
0.0000000000000000
 31
0.0000000000000000
  7
KNJYOKO
  0
LEADER
  5
1A2
100
AcDbEntity
  8
MAIN0
  6
CONTINUOUS
 62
3
100
AcDbLeader
  3
MAIN001
 73
     0
 74
     0
 75
     1
 40
3.099999904632568
 41
34.42100079154968
 76
     3
 10
-71.82688324872228
 20
367.6308566450491
 30
0.0000000000000000
 10
-69.98729723762143
 20
358.4929358024545
 30
0.0000000000000000
 10
-68.06229729341138
 20
358.4929358024545
 30
0.0000000000000000
340
1A3
213
0.0000000000000000
223
-0.5000000000000000
233
0.0000000000000000
1001
ACAD
1000
DSTYLE
1002
{
1070
   147
1040
0.0
1070
    77
1070
     1
1070
   341
1005
13
1070
    41
1040
2.000000
1002
}
  0
MTEXT
  5
1A3
102
{ACAD_REACTORS
330
1A2
102
}
100
AcDbEntity
  8
MAIN0
  6
CONTINUOUS
 62
3
100
AcDbMText
 10
-68.06129729341139
 20
362.0929357070871
 30
0.0000000000000000
 40
3.099999904632568
 41
0.0000000000000000
 44
0.7935483930510365
 71
     1
 72
     1
  1
{\H0.94x;{クランプ（特別付属）\P（□400）}}
 11
1.000000000000000
 21
0.0000000000000000
 31
0.0000000000000000
  7
KNJYOKO
  0
DIMENSION
  5
1AC
100
AcDbEntity
  8
MAIN0
  6
CONTINUOUS
 62
3
100
AcDbDimension
  2
*D9
 10
119.1876842918704
 20
251.7911679213798
 30
0.0000000000000000
 11
127.3194122755157
 21
244.3665467189210
 31
0.0000000000000000
 70
33
 71
5
 42
22.000000
  3
MAIN001
100
AcDbAlignedDimension
 13
122.0190900071892
 23
223.5098752644903
 33
0.0000000000000000
 14
106.4627408210850
 24
239.0662244505944
 34
0.0000000000000000
 50
135.0000000000000
1001
ACAD
1000
DSTYLE
1002
{
1070
   173
1070
     1
1070
     6
1000
_OPEN
1070
     7
1000
_OPEN
1070
    41
1040
2.000000
1002
}
  0
DIMENSION
  5
1B5
100
AcDbEntity
  8
MAIN0
  6
CONTINUOUS
 62
3
100
AcDbDimension
  2
*D10
 10
149.5932758828919
 20
221.3855763303582
 30
0.0000000000000000
 11
142.5222080710265
 21
229.1637509234103
 31
0.0000000000000000
 70
32
 71
5
  1
\A1;（21）
 42
21.000000
  3
MAIN001
100
AcDbAlignedDimension
 13
122.0190900071891
 23
223.5098752644904
 33
0.0000000000000000
 14
119.0811181916480
 24
190.8734186391144
 34
0.0000000000000000
 50
135.0000000000001
100
AcDbRotatedDimension
1001
ACAD
1000
DSTYLE
1002
{
1070
   173
1070
     1
1070
     6
1000
_OPEN
1070
     7
1000
_OPEN
1070
    41
1040
2.000000
1070
   340
1005
1B6
1002
}
  0
DIMENSION
  5
1BF
100
AcDbEntity
  8
MAIN0
  6
CONTINUOUS
 62
3
100
AcDbDimension
  2
*D11
 10
688.8656293332892
 20
483.3512169590778
 30
0.0000000000000000
 11
688.3656293332892
 21
456.2512169575876
 31
0.0000000000000000
 70
32
 71
5
  1
\A1;\U+220550h6
 42
50.000000
  3
MAIN001
100
AcDbAlignedDimension
 13
664.0394977936054
 23
433.3512169590778
 33
0.0000000000000000
 14
664.0394977936054
 24
483.3512169590778
 34
0.0000000000000000
 50
90.00000000000000
100
AcDbRotatedDimension
1001
ACAD
1000
DSTYLE
1002
{
1070
   173
1070
     1
1070
     6
1000
_OPEN
1070
     7
1000
_OPEN
1070
    41
1040
2.000000
1002
}
  0
DIMENSION
  5
1C8
100
AcDbEntity
  8
MAIN0
  6
CONTINUOUS
 62
3
100
AcDbDimension
  2
*D12
 10
703.7544443360314
 20
513.3512169590778
 30
0.0000000000000000
 11
703.2544443360314
 21
456.2512169575876
 31
0.0000000000000000
 70
32
 71
5
  1
\A1;\U+2205110H7
 42
110.000000
  3
MAIN001
100
AcDbAlignedDimension
 13
644.0394977936054
 23
403.3512169590778
 33
0.0000000000000000
 14
644.0394977936054
 24
513.3512169590778
 34
0.0000000000000000
 50
90.00000000000000
100
AcDbRotatedDimension
1001
ACAD
1000
DSTYLE
1002
{
1070
   173
1070
     1
1070
     6
1000
_OPEN
1070
     7
1000
_OPEN
1070
    41
1040
2.000000
1002
}
  0
LEADER
  5
1C9
100
AcDbEntity
  8
MAIN0
  6
CONTINUOUS
 62
3
100
AcDbLeader
  3
MAIN001
 73
     0
 74
     0
 75
     1
 40
3.099999904632568
 41
23.98100055551527
 76
     3
 10
649.8711042359557
 20
433.3512169590778
 30
0.0000000000000000
 10
659.4992484634398
 20
410.0894980395373
 30
0.0000000000000000
 10
661.4242484076499
 20
410.0894980395373
 30
0.0000000000000000
340
1CA
213
0.0000000000000000
223
-0.5000000000000000
233
0.0000000000000000
1001
ACAD
1000
DSTYLE
1002
{
1070
   147
1040
0.0
1070
    77
1070
     1
1070
   341
1005
13
1070
    41
1040
2.000000
1002
}
  0
MTEXT
  5
1CA
102
{ACAD_REACTORS
330
1C9
102
}
100
AcDbEntity
  8
MAIN0
  6
CONTINUOUS
 62
3
100
AcDbMText
 10
661.4252484076499
 20
413.6894979441698
 30
0.0000000000000000
 40
3.099999904632568
 41
0.0000000000000000
 44
0.7935483930510365
 71
     1
 72
     1
  1
{\H0.93x;{プラグ\P（オプション）}}
 11
1.000000000000000
 21
0.0000000000000000
 31
0.0000000000000000
  7
KNJYOKO
  0
DIMENSION
  5
1D2
100
AcDbEntity
  8
MAIN0
  6
CONTINUOUS
 62
3
100
AcDbDimension
  2
*D13
 10
279.0394977936054
 20
357.9684481453720
 30
0.0000000000000000
 11
316.5394977936053
 21
358.4684481453720
 31
0.0000000000000000
 70
32
 71
5
 42
75.000000
  3
MAIN001
100
AcDbAlignedDimension
 13
354.0394977936053
 23
341.3512169590778
 33
0.0000000000000000
 14
279.0394977936054
 24
308.3512169590778
 34
0.0000000000000000
100
AcDbRotatedDimension
1001
ACAD
1000
DSTYLE
1002
{
1070
   173
1070
     1
1070
     6
1000
_OPEN
1070
     7
1000
_OPEN
1070
    41
1040
2.000000
1002
}
  0
DIMENSION
  5
1DB
100
AcDbEntity
  8
MAIN0
  6
CONTINUOUS
 62
3
100
AcDbDimension
  2
*D14
 10
354.0394977936053
 20
357.9684481453720
 30
0.0000000000000000
 11
391.5394977936053
 21
358.4684481453720
 31
0.0000000000000000
 70
32
 71
5
 42
75.000000
  3
MAIN001
100
AcDbAlignedDimension
 13
429.0394977936054
 23
341.3512169590778
 33
0.0000000000000000
 14
354.0394977936053
 24
341.3512169590778
 34
0.0000000000000000
100
AcDbRotatedDimension
1001
ACAD
1000
DSTYLE
1002
{
1070
   173
1070
     1
1070
     6
1000
_OPEN
1070
     7
1000
_OPEN
1070
    41
1040
2.000000
1002
}
  0
DIMENSION
  5
1E4
100
AcDbEntity
  8
MAIN0
  6
CONTINUOUS
 62
3
100
AcDbDimension
  2
*D15
 10
429.0394977936054
 20
357.9684481453720
 30
0.0000000000000000
 11
466.5394977936053
 21
358.4684481453720
 31
0.0000000000000000
 70
32
 71
5
 42
75.000000
  3
MAIN001
100
AcDbAlignedDimension
 13
504.0394977936052
 23
341.3512169590778
 33
0.0000000000000000
 14
429.0394977936054
 24
341.3512169590778
 34
0.0000000000000000
100
AcDbRotatedDimension
1001
ACAD
1000
DSTYLE
1002
{
1070
   173
1070
     1
1070
     6
1000
_OPEN
1070
     7
1000
_OPEN
1070
    41
1040
2.000000
1002
}
  0
DIMENSION
  5
1EC
100
AcDbEntity
  8
MAIN0
  6
CONTINUOUS
 62
3
100
AcDbDimension
  2
*D16
 10
320.5667926853886
 20
333.3512169590778
 30
0.0000000000000000
 11
320.0667926853886
 21
320.8512169590778
 31
0.0000000000000000
 70
32
 71
5
 42
25.000000
  3
MAIN001
100
AcDbAlignedDimension
 13
279.0394977936053
 23
308.3512169590778
 33
0.0000000000000000
 14
346.0394977936053
 24
333.3512169590778
 34
0.0000000000000000
 50
90.00000000000000
100
AcDbRotatedDimension
1001
ACAD
1000
DSTYLE
1002
{
1070
   173
1070
     1
1070
     6
1000
_OPEN
1070
     7
1000
_OPEN
1070
    41
1040
2.000000
1002
}
  0
DIMENSION
  5
1F5
100
AcDbEntity
  8
MAIN0
  6
CONTINUOUS
 62
3
100
AcDbDimension
  2
*D17
 10
558.0394977936054
 20
239.4805454127203
 30
0.0000000000000000
 11
538.5394977936054
 21
239.9805454127203
 31
0.0000000000000000
 70
32
 71
5
 42
39.000000
  3
MAIN001
100
AcDbAlignedDimension
 13
519.0394977936054
 23
268.8512169590778
 33
0.0000000000000000
 14
558.0394977936054
 24
270.8512169590778
 34
0.0000000000000000
100
AcDbRotatedDimension
1001
ACAD
1000
DSTYLE
1002
{
1070
   173
1070
     1
1070
     6
1000
_OPEN
1070
     7
1000
_OPEN
1070
    41
1040
2.000000
1002
}
  0
DIMENSION
  5
1FE
100
AcDbEntity
  8
MAIN0
  6
CONTINUOUS
 62
3
100
AcDbDimension
  2
*D18
 10
644.0394977936054
 20
218.5709227033406
 30
0.0000000000000000
 11
620.5394977936054
 21
219.0709227033406
 31
0.0000000000000000
 70
32
 71
5
 42
47.000000
  3
MAIN001
100
AcDbAlignedDimension
 13
597.0394977936054
 23
268.8512169590778
 33
0.0000000000000000
 14
644.0394977936054
 24
308.3512169590778
 34
0.0000000000000000
100
AcDbRotatedDimension
1001
ACAD
1000
DSTYLE
1002
{
1070
   173
1070
     1
1070
     6
1000
_OPEN
1070
     7
1000
_OPEN
1070
    41
1040
2.000000
1002
}
  0
DIMENSION
  5
207
100
AcDbEntity
  8
MAIN0
  6
CONTINUOUS
 62
3
100
AcDbDimension
  2
*D19
 10
597.0394977936054
 20
218.5709227033406
 30
0.0000000000000000
 11
558.0394977936054
 21
219.0709227033406
 31
0.0000000000000000
 70
32
 71
5
 42
78.000000
  3
MAIN001
100
AcDbAlignedDimension
 13
519.0394977936054
 23
268.8512169590778
 33
0.0000000000000000
 14
597.0394977936054
 24
268.8512169590778
 34
0.0000000000000000
100
AcDbRotatedDimension
1001
ACAD
1000
DSTYLE
1002
{
1070
   173
1070
     1
1070
     6
1000
_OPEN
1070
     7
1000
_OPEN
1070
    41
1040
2.000000
1002
}
  0
DIMENSION
  5
210
100
AcDbEntity
  8
MAIN0
  6
CONTINUOUS
 62
3
100
AcDbDimension
  2
*D20
 10
644.0394977936054
 20
197.6612898157525
 30
0.0000000000000000
 11
581.5394977936054
 21
198.1612898157525
 31
0.0000000000000000
 70
32
 71
5
 42
125.000000
  3
MAIN001
100
AcDbAlignedDimension
 13
519.0394977936054
 23
268.8512169590778
 33
0.0000000000000000
 14
644.0394977936054
 24
308.3512169590778
 34
0.0000000000000000
100
AcDbRotatedDimension
1001
ACAD
1000
DSTYLE
1002
{
1070
   173
1070
     1
1070
     6
1000
_OPEN
1070
     7
1000
_OPEN
1070
    41
1040
2.000000
1002
}
  0
DIMENSION
  5
219
100
AcDbEntity
  8
MAIN0
  6
CONTINUOUS
 62
3
100
AcDbDimension
  2
*D21
 10
519.0394977936054
 20
197.6612898157525
 30
0.0000000000000000
 11
466.5394977936054
 21
198.1612898157525
 31
0.0000000000000000
 70
32
 71
5
  1
\A1;MAX168
 42
105.000000
  3
MAIN001
100
AcDbAlignedDimension
 13
414.0394977936054
 23
268.8512169590778
 33
0.0000000000000000
 14
519.0394977936054
 24
268.8512169590778
 34
0.0000000000000000
100
AcDbRotatedDimension
1001
ACAD
1000
DSTYLE
1002
{
1070
   173
1070
     1
1070
     6
1000
_OPEN
1070
     7
1000
_OPEN
1070
    41
1040
2.000000
1002
}
  0
DIMENSION
  5
222
100
AcDbEntity
  8
MAIN0
  6
CONTINUOUS
 62
3
100
AcDbDimension
  2
*D22
 10
644.0394977936054
 20
179.4323730907067
 30
0.0000000000000000
 11
461.5394977936054
 21
179.9323730907067
 31
0.0000000000000000
 70
32
 71
5
 42
365.000000
  3
MAIN001
100
AcDbAlignedDimension
 13
279.0394977936054
 23
308.3512169590778
 33
0.0000000000000000
 14
644.0394977936054
 24
308.3512169590778
 34
0.0000000000000000
100
AcDbRotatedDimension
1001
ACAD
1000
DSTYLE
1002
{
1070
   173
1070
     1
1070
     6
1000
_OPEN
1070
     7
1000
_OPEN
1070
    41
1040
2.000000
1002
}
  0
DIMENSION
  5
22B
100
AcDbEntity
  8
MAIN0
  6
CONTINUOUS
 62
3
100
AcDbDimension
  2
*D23
 10
279.0394977936054
 20
179.4323730907067
 30
0.0000000000000000
 11
235.7894977936055
 21
179.9323730907067
 31
0.0000000000000000
 70
32
 71
5
 42
86.500000
  3
MAIN001
100
AcDbAlignedDimension
 13
192.5394977936055
 23
322.3512169590765
 33
0.0000000000000000
 14
279.0394977936054
 24
308.3512169590778
 34
0.0000000000000000
100
AcDbRotatedDimension
1001
ACAD
1000
DSTYLE
1002
{
1070
   173
1070
     1
1070
     6
1000
_OPEN
1070
     7
1000
_OPEN
1070
    41
1040
2.000000
1002
}
  0
DIMENSION
  5
234
100
AcDbEntity
  8
MAIN0
  6
CONTINUOUS
 62
3
100
AcDbDimension
  2
*D24
 10
664.0394977936054
 20
157.9866030775352
 30
0.0000000000000000
 11
654.0394977936054
 21
158.4866030775352
 31
0.0000000000000000
 70
32
 71
5
 42
20.000000
  3
MAIN001
100
AcDbAlignedDimension
 13
644.0394977936054
 23
308.3512169590778
 33
0.0000000000000000
 14
664.0394977936054
 24
433.3512169590778
 34
0.0000000000000000
100
AcDbRotatedDimension
1001
ACAD
1000
DSTYLE
1002
{
1070
   173
1070
     1
1070
     6
1000
_OPEN
1070
     7
1000
_OPEN
1070
    41
1040
2.000000
1002
}
  0
DIMENSION
  5
23D
100
AcDbEntity
  8
MAIN0
  6
CONTINUOUS
 62
3
100
AcDbDimension
  2
*D25
 10
644.0394977936054
 20
157.9866030775352
 30
0.0000000000000000
 11
418.2894977936055
 21
158.4866030775352
 31
0.0000000000000000
 70
32
 71
5
 42
451.500000
  3
MAIN001
100
AcDbAlignedDimension
 13
192.5394977936055
 23
322.3512169590765
 33
0.0000000000000000
 14
644.0394977936054
 24
308.3512169590778
 34
0.0000000000000000
100
AcDbRotatedDimension
1001
ACAD
1000
DSTYLE
1002
{
1070
   173
1070
     1
1070
     6
1000
_OPEN
1070
     7
1000
_OPEN
1070
    41
1040
2.000000
1002
}
  0
LEADER
  5
23E
100
AcDbEntity
  8
MAIN0
  6
CONTINUOUS
 62
3
100
AcDbLeader
  3
MAIN001
 73
     0
 74
     0
 75
     1
 40
3.099999904632568
 41
44.26100130176542
 76
     3
 10
560.6240723144140
 20
272.4957046042157
 30
0.0000000000000000
 10
575.4758408728407
 20
202.0951538286082
 30
0.0000000000000000
 10
577.4008408170507
 20
202.0951538286082
 30
0.0000000000000000
340
23F
213
-0.001000000000090040
223
-0.5000000000000000
233
0.0000000000000000
1001
ACAD
1000
DSTYLE
1002
{
1070
   147
1040
0.0
1070
    77
1070
     1
1070
   341
1005
13
1070
    41
1040
2.000000
1002
}
  0
MTEXT
  5
23F
102
{ACAD_REACTORS
330
23E
102
}
100
AcDbEntity
  8
MAIN0
  6
CONTINUOUS
 62
3
100
AcDbMText
 10
577.4018408170508
 20
205.6951537332407
 30
0.0000000000000000
 40
3.099999904632568
 41
0.0000000000000000
 44
0.7935483930510365
 71
     1
 72
     1
  1
{\H0.93x;{4×2×2-M10 深20\P           DEPTH}}
 11
1.000000000000000
 21
0.0000000000000000
 31
0.0000000000000000
  7
KNJYOKO
  0
DIMENSION
  5
248
100
AcDbEntity
  8
MAIN0
  6
CONTINUOUS
 62
3
100
AcDbDimension
  2
*D26
 10
590.9244728593096
 20
298.8512169590778
 30
0.0000000000000000
 11
590.4244728593096
 21
288.8512169590778
 31
0.0000000000000000
 70
32
 71
5
 42
20.000000
  3
MAIN001
100
AcDbAlignedDimension
 13
566.0394977936054
 23
278.8512169590778
 33
0.0000000000000000
 14
566.0394977936054
 24
298.8512169590778
 34
0.0000000000000000
 50
90.00000000000000
100
AcDbRotatedDimension
1001
ACAD
1000
DSTYLE
1002
{
1070
   173
1070
     1
1070
     6
1000
_OPEN
1070
     7
1000
_OPEN
1070
    41
1040
2.000000
1002
}
  0
DIMENSION
  5
252
100
AcDbEntity
  8
MAIN0
  6
CONTINUOUS
 62
3
100
AcDbDimension
  2
*D27
 10
590.9244728593096
 20
278.8512169590778
 30
0.0000000000000000
 11
589.9244728593096
 21
258.7395034531614
 31
0.0000000000000000
 70
160
 71
5
 42
10.000000
  3
MAIN001
100
AcDbAlignedDimension
 13
597.0394977936054
 23
268.8512169590778
 33
0.0000000000000000
 14
566.0394977936054
 24
278.8512169590778
 34
0.0000000000000000
 50
90.00000000000000
100
AcDbRotatedDimension
1001
ACAD
1000
DSTYLE
1002
{
1070
   173
1070
     1
1070
     6
1000
_OPEN
1070
     7
1000
_OPEN
1070
    41
1040
2.000000
1070
   289
1070
     0
1002
}
  0
LEADER
  5
253
100
AcDbEntity
  8
MAIN0
  6
CONTINUOUS
 62
3
100
AcDbLeader
  3
MAIN001
 73
     0
 74
     0
 75
     1
 40
3.099999904632568
 41
29.95882726866927
 76
     3
 10
352.7804480813742
 20
329.5545350100424
 30
0.0000000000000000
 10
338.6296198677843
 20
286.8825153745118
 30
0.0000000000000000
 10
340.5546198119944
 20
286.8825153745118
 30
0.0000000000000000
340
254
213
0.3511736277845898
223
-0.5000000000000000
233
0.0000000000000000
1001
ACAD
1000
DSTYLE
1002
{
1070
   147
1040
0.0
1070
    77
1070
     1
1070
   341
1005
13
1070
    41
1040
2.000000
1002
}
  0
MTEXT
  5
254
102
{ACAD_REACTORS
330
253
102
}
100
AcDbEntity
  8
MAIN0
  6
CONTINUOUS
 62
3
100
AcDbMText
 10
340.2034461842098
 20
290.4825152791444
 30
0.0000000000000000
 40
3.099999904632568
 41
0.0000000000000000
 44
0.7935483930510365
 71
     1
 72
     1
  1
{\H0.93x;{24-M8 深16\P      DEPTH}}
 11
1.000000000000000
 21
0.0000000000000000
 31
0.0000000000000000
  7
KNJYOKO
  0
LEADER
  5
255
100
AcDbEntity
  8
MAIN0
  6
CONTINUOUS
 62
3
100
AcDbLeader
  3
MAIN001
 73
     0
 75
     1
 40
3.099999904632568
 41
21.93900065326693
 76
     3
 10
-172.6676445560386
 20
453.3250602138914
 30
0.0000000000000000
 10
-209.0094147265185
 20
397.5826818831030
 30
0.0000000000000000
 10
-210.9364146707285
 20
397.5826818831030
 30
0.0000000000000000
340
256
213
0.0000000000000000
223
-0.5000000000000000
233
0.0000000000000000
1001
ACAD
1000
DSTYLE
1002
{
1070
   147
1040
0.0
1070
    77
1070
     1
1070
   341
1005
13
1070
    41
1040
2.000000
1002
}
  0
MTEXT
  5
256
102
{ACAD_REACTORS
330
255
102
}
100
AcDbEntity
  8
MAIN0
  6
CONTINUOUS
 62
3
100
AcDbMText
 10
-232.8754153239954
 20
401.1826817877356
 30
0.0000000000000000
 40
3.099999904632568
 41
0.0000000000000000
 44
0.7935483930510365
 71
     1
 72
     1
  1
{\H0.93x;{M12　吊り用\PEYE BOLT}}
 11
1.000000000000000
 21
0.0000000000000000
 31
0.0000000000000000
  7
KNJYOKO
  0
MTEXT
  5
257
100
AcDbEntity
  8
MAIN0
  6
CONTINUOUS
 62
3
100
AcDbMText
 10
684.9629800351358
 20
441.6528429919137
 30
0.0000000000000000
 40
3.099999904632568
 41
0.0000000000000000
 44
0.6677419652551825
 71
     1
 72
     1
  1
{\H0.92x;{(    )}}
 11
6.123233995736766e-017
 21
1.000000000000000
 31
0.0000000000000000
  7
STANDARD
  0
POINT
  5
258
100
AcDbEntity
  8
MAIN0
  6
CONTINUOUS
 62
3
100
AcDbPoint
 10
529.0394977936054
 20
483.3512169590778
 30
0.0000000000000000
  0
POINT
  5
259
100
AcDbEntity
  8
MAIN0
  6
CONTINUOUS
 62
3
100
AcDbPoint
 10
404.0394977936054
 20
498.3512169590778
 30
0.0000000000000000
  0
POINT
  5
25A
100
AcDbEntity
  8
MAIN0
  6
CONTINUOUS
 62
3
100
AcDbPoint
 10
558.0394977936054
 20
458.3512169590778
 30
0.0000000000000000
  0
POINT
  5
25B
100
AcDbEntity
  8
MAIN0
  6
CONTINUOUS
 62
3
100
AcDbPoint
 10
377.0394977936054
 20
458.3512169590778
 30
0.0000000000000000
  0
LINE
  5
25C
100
AcDbEntity
  8
MAIN0
  6
CENTER
 62
3
100
AcDbLine
 10
529.0394977936054
 20
492.7369559929180
 30
0.0000000000000000
 11
529.0394977936054
 21
474.2842584627841
 31
0.0000000000000000
  0
LINE
  5
25D
100
AcDbEntity
  8
MAIN0
  6
CENTER
 62
3
100
AcDbLine
 10
538.2030988344893
 20
483.3512169590778
 30
0.0000000000000000
 11
521.5361447685305
 21
483.3512169590778
 31
0.0000000000000000
  0
LINE
  5
25E
100
AcDbEntity
  8
MAIN0
  6
CENTER
 62
3
100
AcDbLine
 10
404.0394977936054
 20
507.9157923887713
 30
0.0000000000000000
 11
404.0394977936054
 21
489.0166561675328
 31
0.0000000000000000
  0
LINE
  5
25F
100
AcDbEntity
  8
MAIN0
  6
CENTER
 62
3
100
AcDbLine
 10
412.0104429885807
 20
498.3512169590778
 30
0.0000000000000000
 11
394.7482387470132
 21
498.3512169590778
 31
0.0000000000000000
  0
LINE
  5
260
100
AcDbEntity
  8
MAIN0
  6
CENTER
 62
3
100
AcDbLine
 10
377.0394977936054
 20
471.3512169590778
 30
0.0000000000000000
 11
377.0394977936054
 21
445.3512169590778
 31
0.0000000000000000
  0
LINE
  5
261
100
AcDbEntity
  8
MAIN0
  6
CENTER
 62
3
100
AcDbLine
 10
558.0394977936054
 20
471.3512169590778
 30
0.0000000000000000
 11
558.0394977936054
 21
445.3512169590778
 31
0.0000000000000000
  0
LINE
  5
262
100
AcDbEntity
  8
MAIN0
  6
CENTER
 62
3
100
AcDbLine
 10
558.0394977936054
 20
308.0643719818512
 30
0.0000000000000000
 11
558.0394977936054
 21
270.8512169590778
 31
0.0000000000000000
  0
LINE
  5
263
100
AcDbEntity
  8
MAIN0
  6
CENTER
 62
3
100
AcDbLine
 10
558.0394977936054
 20
411.7044104237377
 30
0.0000000000000000
 11
558.0394977936054
 21
386.4389270519289
 31
0.0000000000000000
  0
LINE
  5
264
100
AcDbEntity
  8
MAIN0
  6
CENTER
 62
3
100
AcDbLine
 10
558.0394977936054
 20
505.5476343761703
 30
0.0000000000000000
 11
558.0394977936054
 21
525.1413025095246
 31
0.0000000000000000
  0
LINE
  5
265
100
AcDbEntity
  8
MAIN0
  6
CENTER
 62
3
100
AcDbLine
 10
558.0394977936054
 20
608.6720674889051
 30
0.0000000000000000
 11
558.0394977936054
 21
645.8512169590778
 31
0.0000000000000000
  0
POINT
  5
266
100
AcDbEntity
  8
MAIN0
  6
CONTINUOUS
 62
3
100
AcDbPoint
 10
558.0394977936054
 20
458.3512169590778
 30
0.0000000000000000
  0
POINT
  5
267
100
AcDbEntity
  8
MAIN0
  6
CONTINUOUS
 62
3
100
AcDbPoint
 10
377.0394977936054
 20
458.3512169590778
 30
0.0000000000000000
  0
POINT
  5
268
100
AcDbEntity
  8
MAIN0
  6
CONTINUOUS
 62
3
100
AcDbPoint
 10
354.0394977936054
 20
498.3512169590778
 30
0.0000000000000000
  0
LINE
  5
269
100
AcDbEntity
  8
MAIN0
  6
CENTER
 62
3
100
AcDbLine
 10
354.0394977936054
 20
507.9157923887713
 30
0.0000000000000000
 11
354.0394977936054
 21
489.0166561675328
 31
0.0000000000000000
  0
LINE
  5
26A
100
AcDbEntity
  8
MAIN0
  6
CENTER
 62
3
100
AcDbLine
 10
362.0104429885807
 20
498.3512169590778
 30
0.0000000000000000
 11
344.7482387470132
 21
498.3512169590778
 31
0.0000000000000000
  0
CIRCLE
  5
26B
100
AcDbEntity
  8
MAIN0
  6
CONTINUOUS
 62
3
100
AcDbCircle
 10
354.0394977936054
 20
498.3512169590778
 30
0.0000000000000000
 40
5.000000000000000
  0
CIRCLE
  5
26C
100
AcDbEntity
  8
MAIN0
  6
CONTINUOUS
 62
3
100
AcDbCircle
 10
354.0394977936054
 20
498.3512169590778
 30
0.0000000000000000
 40
4.188101000000000
  0
LINE
  5
26D
100
AcDbEntity
  8
MAIN0
  6
CONTINUOUS
 62
3
100
AcDbLine
 10
354.0394977936053
 20
501.2379683050258
 30
0.0000000000000000
 11
351.5394977936053
 21
499.7945926320518
 31
0.0000000000000000
  0
LINE
  5
26E
100
AcDbEntity
  8
MAIN0
  6
CONTINUOUS
 62
3
100
AcDbLine
 10
351.5394977936054
 20
499.7945926320518
 30
0.0000000000000000
 11
351.5394977936054
 21
496.9078412861037
 31
0.0000000000000000
  0
LINE
  5
26F
100
AcDbEntity
  8
MAIN0
  6
CONTINUOUS
 62
3
100
AcDbLine
 10
351.5394977936054
 20
496.9078412861036
 30
0.0000000000000000
 11
354.0394977936054
 21
495.4644656131296
 31
0.0000000000000000
  0
LINE
  5
270
100
AcDbEntity
  8
MAIN0
  6
CONTINUOUS
 62
3
100
AcDbLine
 10
354.0394977936054
 20
495.4644656131296
 30
0.0000000000000000
 11
356.5394977936053
 21
496.9078412861036
 31
0.0000000000000000
  0
LINE
  5
271
100
AcDbEntity
  8
MAIN0
  6
CONTINUOUS
 62
3
100
AcDbLine
 10
356.5394977936054
 20
496.9078412861037
 30
0.0000000000000000
 11
356.5394977936054
 21
499.7945926320518
 31
0.0000000000000000
  0
LINE
  5
272
100
AcDbEntity
  8
MAIN0
  6
CONTINUOUS
 62
3
100
AcDbLine
 10
356.5394977936054
 20
499.7945926320518
 30
0.0000000000000000
 11
354.0394977936054
 21
501.2379683050258
 31
0.0000000000000000
  0
POINT
  5
273
100
AcDbEntity
  8
MAIN0
  6
CONTINUOUS
 62
3
100
AcDbPoint
 10
404.0394977936054
 20
418.3512169590778
 30
0.0000000000000000
  0
LINE
  5
274
100
AcDbEntity
  8
MAIN0
  6
CENTER
 62
3
100
AcDbLine
 10
404.0394977936054
 20
408.7866415293843
 30
0.0000000000000000
 11
404.0394977936054
 21
427.6857777506227
 31
0.0000000000000000
  0
LINE
  5
275
100
AcDbEntity
  8
MAIN0
  6
CENTER
 62
3
100
AcDbLine
 10
412.0104429885807
 20
418.3512169590778
 30
0.0000000000000000
 11
394.7482387470132
 21
418.3512169590778
 31
0.0000000000000000
  0
CIRCLE
  5
276
100
AcDbEntity
  8
MAIN0
  6
CONTINUOUS
 62
3
100
AcDbCircle
 10
404.0394977936054
 20
418.3512169590778
 30
0.0000000000000000
 40
5.000000000000000
  0
CIRCLE
  5
277
100
AcDbEntity
  8
MAIN0
  6
CONTINUOUS
 62
3
100
AcDbCircle
 10
404.0394977936054
 20
418.3512169590778
 30
0.0000000000000000
 40
4.188101000000000
  0
LINE
  5
278
100
AcDbEntity
  8
MAIN0
  6
CONTINUOUS
 62
3
100
AcDbLine
 10
404.0394977936054
 20
415.4644656131296
 30
0.0000000000000000
 11
401.5394977936054
 21
416.9078412861037
 31
0.0000000000000000
  0
LINE
  5
279
100
AcDbEntity
  8
MAIN0
  6
CONTINUOUS
 62
3
100
AcDbLine
 10
401.5394977936054
 20
416.9078412861037
 30
0.0000000000000000
 11
401.5394977936054
 21
419.7945926320518
 31
0.0000000000000000
  0
LINE
  5
27A
100
AcDbEntity
  8
MAIN0
  6
CONTINUOUS
 62
3
100
AcDbLine
 10
401.5394977936054
 20
419.7945926320518
 30
0.0000000000000000
 11
404.0394977936054
 21
421.2379683050258
 31
0.0000000000000000
  0
LINE
  5
27B
100
AcDbEntity
  8
MAIN0
  6
CONTINUOUS
 62
3
100
AcDbLine
 10
404.0394977936055
 20
421.2379683050258
 30
0.0000000000000000
 11
406.5394977936054
 21
419.7945926320518
 31
0.0000000000000000
  0
LINE
  5
27C
100
AcDbEntity
  8
MAIN0
  6
CONTINUOUS
 62
3
100
AcDbLine
 10
406.5394977936054
 20
419.7945926320518
 30
0.0000000000000000
 11
406.5394977936054
 21
416.9078412861037
 31
0.0000000000000000
  0
LINE
  5
27D
100
AcDbEntity
  8
MAIN0
  6
CONTINUOUS
 62
3
100
AcDbLine
 10
406.5394977936054
 20
416.9078412861037
 30
0.0000000000000000
 11
404.0394977936054
 21
415.4644656131296
 31
0.0000000000000000
  0
POINT
  5
27E
100
AcDbEntity
  8
MAIN0
  6
CONTINUOUS
 62
3
100
AcDbPoint
 10
354.0394977936054
 20
418.3512169590778
 30
0.0000000000000000
  0
LINE
  5
27F
100
AcDbEntity
  8
MAIN0
  6
CENTER
 62
3
100
AcDbLine
 10
354.0394977936054
 20
408.7866415293843
 30
0.0000000000000000
 11
354.0394977936054
 21
427.6857777506227
 31
0.0000000000000000
  0
LINE
  5
280
100
AcDbEntity
  8
MAIN0
  6
CENTER
 62
3
100
AcDbLine
 10
362.0104429885807
 20
418.3512169590778
 30
0.0000000000000000
 11
344.7482387470132
 21
418.3512169590778
 31
0.0000000000000000
  0
CIRCLE
  5
281
100
AcDbEntity
  8
MAIN0
  6
CONTINUOUS
 62
3
100
AcDbCircle
 10
354.0394977936054
 20
418.3512169590778
 30
0.0000000000000000
 40
5.000000000000000
  0
CIRCLE
  5
282
100
AcDbEntity
  8
MAIN0
  6
CONTINUOUS
 62
3
100
AcDbCircle
 10
354.0394977936054
 20
418.3512169590778
 30
0.0000000000000000
 40
4.188101000000000
  0
LINE
  5
283
100
AcDbEntity
  8
MAIN0
  6
CONTINUOUS
 62
3
100
AcDbLine
 10
354.0394977936054
 20
415.4644656131296
 30
0.0000000000000000
 11
351.5394977936053
 21
416.9078412861037
 31
0.0000000000000000
  0
LINE
  5
284
100
AcDbEntity
  8
MAIN0
  6
CONTINUOUS
 62
3
100
AcDbLine
 10
351.5394977936054
 20
416.9078412861037
 30
0.0000000000000000
 11
351.5394977936054
 21
419.7945926320518
 31
0.0000000000000000
  0
LINE
  5
285
100
AcDbEntity
  8
MAIN0
  6
CONTINUOUS
 62
3
100
AcDbLine
 10
351.5394977936053
 20
419.7945926320517
 30
0.0000000000000000
 11
354.0394977936053
 21
421.2379683050258
 31
0.0000000000000000
  0
LINE
  5
286
100
AcDbEntity
  8
MAIN0
  6
CONTINUOUS
 62
3
100
AcDbLine
 10
354.0394977936055
 20
421.2379683050258
 30
0.0000000000000000
 11
356.5394977936054
 21
419.7945926320518
 31
0.0000000000000000
  0
LINE
  5
287
100
AcDbEntity
  8
MAIN0
  6
CONTINUOUS
 62
3
100
AcDbLine
 10
356.5394977936054
 20
419.7945926320518
 30
0.0000000000000000
 11
356.5394977936054
 21
416.9078412861037
 31
0.0000000000000000
  0
LINE
  5
288
100
AcDbEntity
  8
MAIN0
  6
CONTINUOUS
 62
3
100
AcDbLine
 10
356.5394977936053
 20
416.9078412861036
 30
0.0000000000000000
 11
354.0394977936053
 21
415.4644656131296
 31
0.0000000000000000
  0
POINT
  5
289
100
AcDbEntity
  8
MAIN0
  6
CONTINUOUS
 62
3
100
AcDbPoint
 10
584.0394977936054
 20
483.3512169590778
 30
0.0000000000000000
  0
LINE
  5
28A
100
AcDbEntity
  8
MAIN0
  6
CENTER
 62
3
100
AcDbLine
 10
584.0394977936054
 20
492.7369559929180
 30
0.0000000000000000
 11
584.0394977936054
 21
474.2842584627841
 31
0.0000000000000000
  0
LINE
  5
28B
100
AcDbEntity
  8
MAIN0
  6
CENTER
 62
3
100
AcDbLine
 10
593.2030988344893
 20
483.3512169590778
 30
0.0000000000000000
 11
576.5361447685305
 21
483.3512169590778
 31
0.0000000000000000
  0
CIRCLE
  5
28C
100
AcDbEntity
  8
MAIN0
  6
CONTINUOUS
 62
3
100
AcDbCircle
 10
584.0394977936054
 20
483.3512169590778
 30
0.0000000000000000
 40
5.000000000000000
  0
CIRCLE
  5
28D
100
AcDbEntity
  8
MAIN0
  6
CONTINUOUS
 62
3
100
AcDbCircle
 10
584.0394977936054
 20
483.3512169590778
 30
0.0000000000000000
 40
4.188101000000000
  0
LINE
  5
28E
100
AcDbEntity
  8
MAIN0
  6
CONTINUOUS
 62
3
100
AcDbLine
 10
584.0394977936053
 20
486.2379683050258
 30
0.0000000000000000
 11
581.5394977936052
 21
484.7945926320517
 31
0.0000000000000000
  0
LINE
  5
28F
100
AcDbEntity
  8
MAIN0
  6
CONTINUOUS
 62
3
100
AcDbLine
 10
581.5394977936054
 20
484.7945926320518
 30
0.0000000000000000
 11
581.5394977936054
 21
481.9078412861037
 31
0.0000000000000000
  0
LINE
  5
290
100
AcDbEntity
  8
MAIN0
  6
CONTINUOUS
 62
3
100
AcDbLine
 10
581.5394977936053
 20
481.9078412861037
 30
0.0000000000000000
 11
584.0394977936053
 21
480.4644656131296
 31
0.0000000000000000
  0
LINE
  5
291
100
AcDbEntity
  8
MAIN0
  6
CONTINUOUS
 62
3
100
AcDbLine
 10
584.0394977936052
 20
480.4644656131295
 30
0.0000000000000000
 11
586.5394977936053
 21
481.9078412861036
 31
0.0000000000000000
  0
LINE
  5
292
100
AcDbEntity
  8
MAIN0
  6
CONTINUOUS
 62
3
100
AcDbLine
 10
586.5394977936054
 20
481.9078412861037
 30
0.0000000000000000
 11
586.5394977936054
 21
484.7945926320518
 31
0.0000000000000000
  0
LINE
  5
293
100
AcDbEntity
  8
MAIN0
  6
CONTINUOUS
 62
3
100
AcDbLine
 10
586.5394977936053
 20
484.7945926320518
 30
0.0000000000000000
 11
584.0394977936053
 21
486.2379683050259
 31
0.0000000000000000
  0
POINT
  5
294
100
AcDbEntity
  8
MAIN0
  6
CONTINUOUS
 62
3
100
AcDbPoint
 10
529.0394977936054
 20
433.3512169590778
 30
0.0000000000000000
  0
LINE
  5
295
100
AcDbEntity
  8
MAIN0
  6
CENTER
 62
3
100
AcDbLine
 10
529.0394977936054
 20
423.9654779252375
 30
0.0000000000000000
 11
529.0394977936054
 21
442.4181754553714
 31
0.0000000000000000
  0
LINE
  5
296
100
AcDbEntity
  8
MAIN0
  6
CENTER
 62
3
100
AcDbLine
 10
538.2030988344893
 20
433.3512169590778
 30
0.0000000000000000
 11
521.5361447685305
 21
433.3512169590778
 31
0.0000000000000000
  0
CIRCLE
  5
297
100
AcDbEntity
  8
MAIN0
  6
CONTINUOUS
 62
3
100
AcDbCircle
 10
529.0394977936054
 20
433.3512169590778
 30
0.0000000000000000
 40
5.000000000000000
  0
CIRCLE
  5
298
100
AcDbEntity
  8
MAIN0
  6
CONTINUOUS
 62
3
100
AcDbCircle
 10
529.0394977936054
 20
433.3512169590778
 30
0.0000000000000000
 40
4.188101000000000
  0
LINE
  5
299
100
AcDbEntity
  8
MAIN0
  6
CONTINUOUS
 62
3
100
AcDbLine
 10
529.0394977936054
 20
430.4644656131296
 30
0.0000000000000000
 11
526.5394977936054
 21
431.9078412861037
 31
0.0000000000000000
  0
LINE
  5
29A
100
AcDbEntity
  8
MAIN0
  6
CONTINUOUS
 62
3
100
AcDbLine
 10
526.5394977936054
 20
431.9078412861037
 30
0.0000000000000000
 11
526.5394977936054
 21
434.7945926320518
 31
0.0000000000000000
  0
LINE
  5
29B
100
AcDbEntity
  8
MAIN0
  6
CONTINUOUS
 62
3
100
AcDbLine
 10
526.5394977936052
 20
434.7945926320517
 30
0.0000000000000000
 11
529.0394977936052
 21
436.2379683050258
 31
0.0000000000000000
  0
LINE
  5
29C
100
AcDbEntity
  8
MAIN0
  6
CONTINUOUS
 62
3
100
AcDbLine
 10
529.0394977936053
 20
436.2379683050259
 30
0.0000000000000000
 11
531.5394977936053
 21
434.7945926320518
 31
0.0000000000000000
  0
LINE
  5
29D
100
AcDbEntity
  8
MAIN0
  6
CONTINUOUS
 62
3
100
AcDbLine
 10
531.5394977936054
 20
434.7945926320518
 30
0.0000000000000000
 11
531.5394977936054
 21
431.9078412861037
 31
0.0000000000000000
  0
LINE
  5
29E
100
AcDbEntity
  8
MAIN0
  6
CONTINUOUS
 62
3
100
AcDbLine
 10
531.5394977936052
 20
431.9078412861036
 30
0.0000000000000000
 11
529.0394977936052
 21
430.4644656131295
 31
0.0000000000000000
  0
POINT
  5
29F
100
AcDbEntity
  8
MAIN0
  6
CONTINUOUS
 62
3
100
AcDbPoint
 10
584.0394977936054
 20
433.3512169590778
 30
0.0000000000000000
  0
LINE
  5
2A0
100
AcDbEntity
  8
MAIN0
  6
CENTER
 62
3
100
AcDbLine
 10
584.0394977936054
 20
423.9654779252375
 30
0.0000000000000000
 11
584.0394977936054
 21
442.4181754553714
 31
0.0000000000000000
  0
LINE
  5
2A1
100
AcDbEntity
  8
MAIN0
  6
CENTER
 62
3
100
AcDbLine
 10
593.2030988344893
 20
433.3512169590778
 30
0.0000000000000000
 11
576.5361447685305
 21
433.3512169590778
 31
0.0000000000000000
  0
CIRCLE
  5
2A2
100
AcDbEntity
  8
MAIN0
  6
CONTINUOUS
 62
3
100
AcDbCircle
 10
584.0394977936054
 20
433.3512169590778
 30
0.0000000000000000
 40
5.000000000000000
  0
CIRCLE
  5
2A3
100
AcDbEntity
  8
MAIN0
  6
CONTINUOUS
 62
3
100
AcDbCircle
 10
584.0394977936054
 20
433.3512169590778
 30
0.0000000000000000
 40
4.188101000000000
  0
LINE
  5
2A4
100
AcDbEntity
  8
MAIN0
  6
CONTINUOUS
 62
3
100
AcDbLine
 10
584.0394977936053
 20
430.4644656131296
 30
0.0000000000000000
 11
581.5394977936053
 21
431.9078412861037
 31
0.0000000000000000
  0
LINE
  5
2A5
100
AcDbEntity
  8
MAIN0
  6
CONTINUOUS
 62
3
100
AcDbLine
 10
581.5394977936054
 20
431.9078412861037
 30
0.0000000000000000
 11
581.5394977936054
 21
434.7945926320518
 31
0.0000000000000000
  0
LINE
  5
2A6
100
AcDbEntity
  8
MAIN0
  6
CONTINUOUS
 62
3
100
AcDbLine
 10
581.5394977936052
 20
434.7945926320517
 30
0.0000000000000000
 11
584.0394977936052
 21
436.2379683050258
 31
0.0000000000000000
  0
LINE
  5
2A7
100
AcDbEntity
  8
MAIN0
  6
CONTINUOUS
 62
3
100
AcDbLine
 10
584.0394977936053
 20
436.2379683050259
 30
0.0000000000000000
 11
586.5394977936053
 21
434.7945926320518
 31
0.0000000000000000
  0
LINE
  5
2A8
100
AcDbEntity
  8
MAIN0
  6
CONTINUOUS
 62
3
100
AcDbLine
 10
586.5394977936054
 20
434.7945926320518
 30
0.0000000000000000
 11
586.5394977936054
 21
431.9078412861037
 31
0.0000000000000000
  0
LINE
  5
2A9
100
AcDbEntity
  8
MAIN0
  6
CONTINUOUS
 62
3
100
AcDbLine
 10
586.5394977936052
 20
431.9078412861036
 30
0.0000000000000000
 11
584.0394977936052
 21
430.4644656131295
 31
0.0000000000000000
  0
DIMENSION
  5
2B2
100
AcDbEntity
  8
MAIN0
  6
CONTINUOUS
 62
3
100
AcDbDimension
  2
*D28
 10
618.5964211747496
 20
433.3512169590778
 30
0.0000000000000000
 11
618.0964211747496
 21
458.3512169590778
 31
0.0000000000000000
 70
32
 71
5
 42
50.000000
  3
MAIN001
100
AcDbAlignedDimension
 13
593.2030988344893
 23
483.3512169590778
 33
0.0000000000000000
 14
593.2030988344893
 24
433.3512169590778
 34
0.0000000000000000
 50
90.00000000000000
100
AcDbRotatedDimension
1001
ACAD
1000
DSTYLE
1002
{
1070
   173
1070
     1
1070
     6
1000
_OPEN
1070
     7
1000
_OPEN
1070
    41
1040
2.000000
1002
}
  0
DIMENSION
  5
2BB
100
AcDbEntity
  8
MAIN0
  6
CONTINUOUS
 62
3
100
AcDbDimension
  2
*D29
 10
320.5667926853886
 20
418.3512169590778
 30
0.0000000000000000
 11
320.0667926853886
 21
458.3512169590778
 31
0.0000000000000000
 70
32
 71
5
 42
80.000000
  3
MAIN001
100
AcDbAlignedDimension
 13
344.7482387470132
 23
498.3512169590778
 33
0.0000000000000000
 14
344.7482387470132
 24
418.3512169590778
 34
0.0000000000000000
 50
90.00000000000000
100
AcDbRotatedDimension
1001
ACAD
1000
DSTYLE
1002
{
1070
   173
1070
     1
1070
     6
1000
_OPEN
1070
     7
1000
_OPEN
1070
    41
1040
2.000000
1002
}
  0
DIMENSION
  5
2C4
100
AcDbEntity
  8
MAIN0
  6
CONTINUOUS
 62
3
100
AcDbDimension
  2
*D30
 10
354.0394977936054
 20
375.9997137951023
 30
0.0000000000000000
 11
379.0394977936054
 21
376.4997137951023
 31
0.0000000000000000
 70
32
 71
5
 42
50.000000
  3
MAIN001
100
AcDbAlignedDimension
 13
404.0394977936054
 23
408.7866415293843
 33
0.0000000000000000
 14
354.0394977936054
 24
408.7866415293843
 34
0.0000000000000000
100
AcDbRotatedDimension
1001
ACAD
1000
DSTYLE
1002
{
1070
   173
1070
     1
1070
     6
1000
_OPEN
1070
     7
1000
_OPEN
1070
    41
1040
2.000000
1002
}
  0
DIMENSION
  5
2CF
100
AcDbEntity
  8
MAIN0
  6
CONTINUOUS
 62
3
100
AcDbDimension
  2
*D31
 10
404.0394977936054
 20
375.9997137951023
 30
0.0000000000000000
 11
409.0394977936054
 21
376.4997137951023
 31
0.0000000000000000
 70
32
 71
5
 42
10.000000
  3
MAIN001
100
AcDbAlignedDimension
 13
414.0394977936054
 23
396.1012169590778
 33
0.0000000000000000
 14
404.0394977936054
 24
408.7866415293843
 34
0.0000000000000000
100
AcDbRotatedDimension
1001
ACAD
1000
DSTYLE
1002
{
1070
   173
1070
     1
1070
     6
1000
_OPEN
1070
     7
1000
_OPEN
1070
    41
1040
2.000000
1070
   289
1070
     0
1002
}
  0
DIMENSION
  5
2DA
100
AcDbEntity
  8
MAIN0
  6
CONTINUOUS
 62
3
100
AcDbDimension
  2
*D32
 10
519.0394977936054
 20
375.9997137951023
 30
0.0000000000000000
 11
524.0394977936054
 21
376.4997137951023
 31
0.0000000000000000
 70
32
 71
5
 42
10.000000
  3
MAIN001
100
AcDbAlignedDimension
 13
529.0394977936054
 23
423.9654779252375
 33
0.0000000000000000
 14
519.0394977936054
 24
396.1012169590778
 34
0.0000000000000000
100
AcDbRotatedDimension
1001
ACAD
1000
DSTYLE
1002
{
1070
   173
1070
     1
1070
     6
1000
_OPEN
1070
     7
1000
_OPEN
1070
    41
1040
2.000000
1070
   289
1070
     0
1002
}
  0
DIMENSION
  5
2E3
100
AcDbEntity
  8
MAIN0
  6
CONTINUOUS
 62
3
100
AcDbDimension
  2
*D33
 10
529.0394977936054
 20
375.9997137951023
 30
0.0000000000000000
 11
556.5394977936054
 21
376.4997137951023
 31
0.0000000000000000
 70
32
 71
5
 42
55.000000
  3
MAIN001
100
AcDbAlignedDimension
 13
584.0394977936054
 23
423.9654779252375
 33
0.0000000000000000
 14
529.0394977936054
 24
423.9654779252375
 34
0.0000000000000000
100
AcDbRotatedDimension
1001
ACAD
1000
DSTYLE
1002
{
1070
   173
1070
     1
1070
     6
1000
_OPEN
1070
     7
1000
_OPEN
1070
    41
1040
2.000000
1002
}
  0
DIMENSION
  5
2EC
100
AcDbEntity
  8
MAIN0
  6
CONTINUOUS
 62
3
100
AcDbDimension
  2
*D34
 10
377.0394977936054
 20
539.9675685337439
 30
0.0000000000000000
 11
395.5394977936054
 21
540.4675685337439
 31
0.0000000000000000
 70
32
 71
5
 42
37.000000
  3
MAIN001
100
AcDbAlignedDimension
 13
414.0394977936054
 23
520.6012169590778
 33
0.0000000000000000
 14
377.0394977936054
 24
471.3512169590778
 34
0.0000000000000000
100
AcDbRotatedDimension
1001
ACAD
1000
DSTYLE
1002
{
1070
   173
1070
     1
1070
     6
1000
_OPEN
1070
     7
1000
_OPEN
1070
    41
1040
2.000000
1002
}
  0
DIMENSION
  5
2F5
100
AcDbEntity
  8
MAIN0
  6
CONTINUOUS
 62
3
100
AcDbDimension
  2
*D35
 10
519.0394977936054
 20
539.9675685337439
 30
0.0000000000000000
 11
538.5394977936054
 21
540.4675685337439
 31
0.0000000000000000
 70
32
 71
5
 42
39.000000
  3
MAIN001
100
AcDbAlignedDimension
 13
558.0394977936054
 23
471.3512169590778
 33
0.0000000000000000
 14
519.0394977936054
 24
520.6012169590778
 34
0.0000000000000000
100
AcDbRotatedDimension
1001
ACAD
1000
DSTYLE
1002
{
1070
   173
1070
     1
1070
     6
1000
_OPEN
1070
     7
1000
_OPEN
1070
    41
1040
2.000000
1002
}
  0
LINE
  5
2F6
100
AcDbEntity
  8
MAIN0
  6
CENTER
 62
3
100
AcDbLine
 10
535.5394977936054
 20
330.0514622580094
 30
0.0000000000000000
 11
535.5394977936054
 21
265.1409553480087
 31
0.0000000000000000
  0
LINE
  5
2F7
100
AcDbEntity
  8
MAIN0
  6
CENTER
 62
3
100
AcDbLine
 10
580.5394977936054
 20
317.2187919407947
 30
0.0000000000000000
 11
580.5394977936054
 21
265.1409553480087
 31
0.0000000000000000
  0
LINE
  5
2F8
100
AcDbEntity
  8
MAIN0
  6
CENTER
 62
3
100
AcDbLine
 10
398.0394977936054
 20
330.0514622580094
 30
0.0000000000000000
 11
398.0394977936054
 21
265.1409553480087
 31
0.0000000000000000
  0
LINE
  5
2F9
100
AcDbEntity
  8
MAIN0
  6
CENTER
 62
3
100
AcDbLine
 10
356.0394977936053
 20
317.2187919407947
 30
0.0000000000000000
 11
356.0394977936053
 21
265.1409553480087
 31
0.0000000000000000
  0
LINE
  5
2FA
100
AcDbEntity
  8
MAIN0
  6
CENTER
 62
3
100
AcDbLine
 10
356.0394977936053
 20
599.4836419773608
 30
0.0000000000000000
 11
356.0394977936053
 21
651.5614785701469
 31
0.0000000000000000
  0
LINE
  5
2FB
100
AcDbEntity
  8
MAIN0
  6
CENTER
 62
3
100
AcDbLine
 10
398.0394977936054
 20
599.4836419773608
 30
0.0000000000000000
 11
398.0394977936054
 21
651.5614785701469
 31
0.0000000000000000
  0
LINE
  5
2FC
100
AcDbEntity
  8
MAIN0
  6
CENTER
 62
3
100
AcDbLine
 10
535.5394977936054
 20
599.4836419773608
 30
0.0000000000000000
 11
535.5394977936054
 21
651.5614785701469
 31
0.0000000000000000
  0
LINE
  5
2FD
100
AcDbEntity
  8
MAIN0
  6
CENTER
 62
3
100
AcDbLine
 10
580.5394977936054
 20
599.4836419773608
 30
0.0000000000000000
 11
580.5394977936054
 21
651.5614785701469
 31
0.0000000000000000
  0
POINT
  5
2FE
100
AcDbEntity
  8
MAIN0
  6
CONTINUOUS
 62
3
100
AcDbPoint
 10
558.0394977936054
 20
278.8512169590778
 30
0.0000000000000000
  0
POINT
  5
2FF
100
AcDbEntity
  8
MAIN0
  6
CONTINUOUS
 62
3
100
AcDbPoint
 10
558.0394977936054
 20
298.8512169590778
 30
0.0000000000000000
  0
POINT
  5
300
100
AcDbEntity
  8
MAIN0
  6
CONTINUOUS
 62
3
100
AcDbPoint
 10
558.0394977936054
 20
617.8512169590778
 30
0.0000000000000000
  0
POINT
  5
301
100
AcDbEntity
  8
MAIN0
  6
CONTINUOUS
 62
3
100
AcDbPoint
 10
558.0394977936055
 20
637.8512169590778
 30
0.0000000000000000
  0
LINE
  5
302
100
AcDbEntity
  8
MAIN0
  6
CENTER
 62
3
100
AcDbLine
 10
25.17673221198828
 20
475.8512169590778
 30
0.0000000000000000
 11
-16.39079418215567
 21
475.8512169590778
 31
0.0000000000000000
  0
LINE
  5
303
100
AcDbEntity
  8
MAIN0
  6
CENTER
 62
3
100
AcDbLine
 10
25.17673221198828
 20
440.8512169590778
 30
0.0000000000000000
 11
-16.39079418215567
 21
440.8512169590778
 31
0.0000000000000000
  0
LINE
  5
304
100
AcDbEntity
  8
MAIN0
  6
CENTER
 62
3
100
AcDbLine
 10
-186.8907941821556
 20
652.9187433532215
 30
0.0000000000000000
 11
-186.8907941821556
 21
611.3512169590777
 31
0.0000000000000000
  0
LINE
  5
305
100
AcDbEntity
  8
MAIN0
  6
CENTER
 62
3
100
AcDbLine
 10
-151.8907941821556
 20
652.9187433532215
 30
0.0000000000000000
 11
-151.8907941821556
 21
611.3512169590777
 31
0.0000000000000000
  0
LINE
  5
306
100
AcDbEntity
  8
MAIN0
  6
CENTER
 62
3
100
AcDbLine
 10
-363.9583205762994
 20
440.8512169590778
 30
0.0000000000000000
 11
-322.3907941821555
 21
440.8512169590778
 31
0.0000000000000000
  0
LINE
  5
307
100
AcDbEntity
  8
MAIN0
  6
CENTER
 62
3
100
AcDbLine
 10
-363.9583205762994
 20
475.8512169590778
 30
0.0000000000000000
 11
-322.3907941821555
 21
475.8512169590778
 31
0.0000000000000000
  0
LINE
  5
308
100
AcDbEntity
  8
MAIN0
  6
CENTER
 62
3
100
AcDbLine
 10
-151.8907941821556
 20
263.7836905649339
 30
0.0000000000000000
 11
-151.8907941821556
 21
305.3512169590779
 31
0.0000000000000000
  0
LINE
  5
309
100
AcDbEntity
  8
MAIN0
  6
CENTER
 62
3
100
AcDbLine
 10
-186.8907941821556
 20
263.7836905649339
 30
0.0000000000000000
 11
-186.8907941821556
 21
305.3512169590779
 31
0.0000000000000000
  0
LEADER
  5
30A
100
AcDbEntity
  8
MAIN0
  6
CONTINUOUS
 62
3
100
AcDbLeader
  3
MAIN001
 73
     0
 74
     0
 75
     1
 40
3.099999904632568
 41
38.68100113964078
 76
     3
 10
587.5989132511975
 20
486.8627068992960
 30
0.0000000000000000
 10
610.6129361342162
 20
513.9816391364625
 30
0.0000000000000000
 10
612.5379360784262
 20
513.9816391364625
 30
0.0000000000000000
340
30B
213
0.0000000000000000
223
-0.5000000000000000
233
0.0000000000000000
1001
ACAD
1000
DSTYLE
1002
{
1070
   147
1040
0.0
1070
    77
1070
     1
1070
   341
1005
13
1070
    41
1040
2.000000
1002
}
  0
MTEXT
  5
30B
102
{ACAD_REACTORS
330
30A
102
}
100
AcDbEntity
  8
MAIN0
  6
CONTINUOUS
 62
3
100
AcDbMText
 10
612.5389360784262
 20
517.5816390410951
 30
0.0000000000000000
 40
3.099999904632568
 41
0.0000000000000000
 44
0.7935483930510365
 71
     1
 72
     1
  1
{\H0.93x;{4×10-M10 深20\P         DEPTH}}
 11
1.000000000000000
 21
0.0000000000000000
 31
0.0000000000000000
  7
KNJYOKO
  0
CIRCLE
  5
30C
100
AcDbEntity
  8
MAIN0
  6
CONTINUOUS
 62
3
100
AcDbCircle
 10
398.0394977936054
 20
440.8512169590778
 30
0.0000000000000000
 40
10.00000000000000
  0
CIRCLE
  5
30D
100
AcDbEntity
  8
MAIN0
  6
CONTINUOUS
 62
3
100
AcDbCircle
 10
356.0394977936053
 20
440.8512169590778
 30
0.0000000000000000
 40
10.00000000000000
  0
CIRCLE
  5
30E
100
AcDbEntity
  8
MAIN0
  6
CONTINUOUS
 62
3
100
AcDbCircle
 10
356.0394977936053
 20
475.8512169590778
 30
0.0000000000000000
 40
10.00000000000000
  0
CIRCLE
  5
30F
100
AcDbEntity
  8
MAIN0
  6
CONTINUOUS
 62
3
100
AcDbCircle
 10
398.0394977936054
 20
475.8512169590778
 30
0.0000000000000000
 40
10.00000000000000
  0
CIRCLE
  5
310
100
AcDbEntity
  8
MAIN0
  6
CONTINUOUS
 62
3
100
AcDbCircle
 10
535.5394977936054
 20
502.3512169590778
 30
0.0000000000000000
 40
10.00000000000000
  0
CIRCLE
  5
311
100
AcDbEntity
  8
MAIN0
  6
CONTINUOUS
 62
3
100
AcDbCircle
 10
580.5394977936054
 20
502.3512169590778
 30
0.0000000000000000
 40
10.00000000000000
  0
CIRCLE
  5
312
100
AcDbEntity
  8
MAIN0
  6
CONTINUOUS
 62
3
100
AcDbCircle
 10
580.5394977936054
 20
414.3512169590778
 30
0.0000000000000000
 40
10.00000000000000
  0
CIRCLE
  5
313
100
AcDbEntity
  8
MAIN0
  6
CONTINUOUS
 62
3
100
AcDbCircle
 10
535.5394977936054
 20
414.3512169590778
 30
0.0000000000000000
 40
10.00000000000000
  0
LINE
  5
314
100
AcDbEntity
  8
MAIN0
  6
CENTER
 62
3
100
AcDbLine
 10
620.5964211747496
 20
458.3512169590778
 30
0.0000000000000000
 11
676.4872941537459
 21
458.3512169590778
 31
0.0000000000000000
  0
LINE
  5
315
100
AcDbEntity
  8
MAIN0
  6
CENTER
 62
3
100
AcDbLine
 10
174.6281724573236
 20
458.3512169590778
 30
0.0000000000000000
 11
310.3667928761235
 21
458.3512169590778
 31
0.0000000000000000
  0
LINE
  5
316
100
AcDbEntity
  8
MAIN0
  6
CENTER
 62
3
100
AcDbLine
 10
322.5667926853886
 20
458.3512169590778
 30
0.0000000000000000
 11
608.3964213654845
 21
458.3512169590778
 31
0.0000000000000000
  0
LINE
  5
317
100
AcDbEntity
  8
MAIN0
  6
HIDDEN
 62
3
100
AcDbLine
 10
528.5394977936053
 20
270.3512169590778
 30
0.0000000000000000
 11
542.5394977936052
 21
270.3512169590778
 31
0.0000000000000000
  0
LINE
  5
318
100
AcDbEntity
  8
MAIN0
  6
HIDDEN
 62
3
100
AcDbLine
 10
526.0394977936054
 20
273.5512169590778
 30
0.0000000000000000
 11
545.0394977936052
 21
273.5512169590778
 31
0.0000000000000000
  0
LINE
  5
319
100
AcDbEntity
  8
MAIN0
  6
HIDDEN
 62
3
100
AcDbLine
 10
528.5394977936054
 20
270.3512169590778
 30
0.0000000000000000
 11
528.5394977936054
 21
273.5512169590778
 31
0.0000000000000000
  0
POINT
  5
31A
100
AcDbEntity
  8
MAIN0
  6
CONTINUOUS
 62
3
100
AcDbPoint
 10
526.0394977936054
 20
268.8512169590778
 30
0.0000000000000000
  0
LINE
  5
31B
100
AcDbEntity
  8
MAIN0
  6
HIDDEN
 62
3
100
AcDbLine
 10
526.0394977936054
 20
268.8512169590778
 30
0.0000000000000000
 11
526.0394977936054
 21
273.5512169590778
 31
0.0000000000000000
  0
LINE
  5
31C
100
AcDbEntity
  8
MAIN0
  6
HIDDEN
 62
3
100
AcDbLine
 10
542.5394977936052
 20
270.3512169590778
 30
0.0000000000000000
 11
542.5394977936052
 21
273.5512169590778
 31
0.0000000000000000
  0
LINE
  5
31D
100
AcDbEntity
  8
MAIN0
  6
HIDDEN
 62
3
100
AcDbLine
 10
545.0394977936052
 20
268.8512169590778
 30
0.0000000000000000
 11
545.0394977936052
 21
273.5512169590778
 31
0.0000000000000000
  0
POINT
  5
31E
100
AcDbEntity
  8
MAIN0
  6
CONTINUOUS
 62
3
100
AcDbPoint
 10
397.5394977936056
 20
268.8512169590778
 30
0.0000000000000000
  0
POINT
  5
31F
100
AcDbEntity
  8
MAIN0
  6
CONTINUOUS
 62
3
100
AcDbPoint
 10
397.5394977936056
 20
286.3512169590778
 30
0.0000000000000000
  0
LINE
  5
320
100
AcDbEntity
  8
MAIN0
  6
HIDDEN
 62
3
100
AcDbLine
 10
407.6394977936058
 20
268.8512169590779
 30
0.0000000000000000
 11
407.0394977936057
 21
269.4512169590779
 31
0.0000000000000000
  0
LINE
  5
321
100
AcDbEntity
  8
MAIN0
  6
HIDDEN
 62
3
100
AcDbLine
 10
407.0394977936056
 20
269.4512169590778
 30
0.0000000000000000
 11
407.0394977936056
 21
286.3512169590778
 31
0.0000000000000000
  0
LINE
  5
322
100
AcDbEntity
  8
MAIN0
  6
HIDDEN
 62
3
100
AcDbLine
 10
407.0394977936056
 20
286.3512169590778
 30
0.0000000000000000
 11
388.0394977936056
 21
286.3512169590778
 31
0.0000000000000000
  0
LINE
  5
323
100
AcDbEntity
  8
MAIN0
  6
HIDDEN
 62
3
100
AcDbLine
 10
388.0394977936056
 20
286.3512169590778
 30
0.0000000000000000
 11
388.0394977936056
 21
269.4512169590778
 31
0.0000000000000000
  0
LINE
  5
324
100
AcDbEntity
  8
MAIN0
  6
HIDDEN
 62
3
100
AcDbLine
 10
388.0394977936059
 20
269.4512169590778
 30
0.0000000000000000
 11
387.4394977936058
 21
268.8512169590778
 31
0.0000000000000000
  0
LINE
  5
325
100
AcDbEntity
  8
MAIN0
  6
HIDDEN
 62
3
100
AcDbLine
 10
404.0394977936056
 20
286.3512169590778
 30
0.0000000000000000
 11
404.0394977936056
 21
307.2512169590778
 31
0.0000000000000000
  0
LINE
  5
326
100
AcDbEntity
  8
MAIN0
  6
HIDDEN
 62
3
100
AcDbLine
 10
404.0394977936057
 20
307.2512169590779
 30
0.0000000000000000
 11
404.6394977936058
 21
307.8512169590778
 31
0.0000000000000000
  0
LINE
  5
327
100
AcDbEntity
  8
MAIN0
  6
HIDDEN
 62
3
100
AcDbLine
 10
391.0394977936056
 20
286.3512169590778
 30
0.0000000000000000
 11
391.0394977936056
 21
307.2512169590778
 31
0.0000000000000000
  0
LINE
  5
328
100
AcDbEntity
  8
MAIN0
  6
HIDDEN
 62
3
100
AcDbLine
 10
391.0394977936057
 20
307.2512169590779
 30
0.0000000000000000
 11
390.4394977936057
 21
307.8512169590778
 31
0.0000000000000000
  0
LINE
  5
329
100
AcDbEntity
  8
MAIN0
  6
HIDDEN
 62
3
100
AcDbLine
 10
406.5394977936056
 20
286.3512169590778
 30
0.0000000000000000
 11
406.5394977936056
 21
275.5512169590778
 31
0.0000000000000000
  0
LINE
  5
32A
100
AcDbEntity
  8
MAIN0
  6
HIDDEN
 62
3
100
AcDbLine
 10
406.5394977936055
 20
275.5512169590778
 30
0.0000000000000000
 11
404.4610368245228
 21
274.3512169590778
 31
0.0000000000000000
  0
LINE
  5
32B
100
AcDbEntity
  8
MAIN0
  6
HIDDEN
 62
3
100
AcDbLine
 10
404.4610368245229
 20
274.3512169590778
 30
0.0000000000000000
 11
390.6179587626883
 21
274.3512169590778
 31
0.0000000000000000
  0
LINE
  5
32C
100
AcDbEntity
  8
MAIN0
  6
HIDDEN
 62
3
100
AcDbLine
 10
390.6179587626882
 20
274.3512169590778
 30
0.0000000000000000
 11
388.5394977936055
 21
275.5512169590778
 31
0.0000000000000000
  0
LINE
  5
32D
100
AcDbEntity
  8
MAIN0
  6
HIDDEN
 62
3
100
AcDbLine
 10
388.5394977936056
 20
275.5512169590778
 30
0.0000000000000000
 11
388.5394977936056
 21
286.3512169590778
 31
0.0000000000000000
  0
LINE
  5
32E
100
AcDbEntity
  8
MAIN0
  6
HIDDEN
 62
3
100
AcDbLine
 10
406.5394977936056
 20
275.5512169590778
 30
0.0000000000000000
 11
388.5394977936056
 21
275.5512169590778
 31
0.0000000000000000
  0
LINE
  5
32F
100
AcDbEntity
  8
MAIN0
  6
HIDDEN
 62
3
100
AcDbLine
 10
403.5394977936056
 20
286.3512169590778
 30
0.0000000000000000
 11
403.5394977936056
 21
326.3512169590778
 31
0.0000000000000000
  0
LINE
  5
330
100
AcDbEntity
  8
MAIN0
  6
HIDDEN
 62
3
100
AcDbLine
 10
403.5394977936056
 20
326.3512169590778
 30
0.0000000000000000
 11
391.5394977936056
 21
326.3512169590778
 31
0.0000000000000000
  0
LINE
  5
331
100
AcDbEntity
  8
MAIN0
  6
HIDDEN
 62
3
100
AcDbLine
 10
391.5394977936056
 20
326.3512169590778
 30
0.0000000000000000
 11
391.5394977936056
 21
286.3512169590778
 31
0.0000000000000000
  0
LINE
  5
332
100
AcDbEntity
  8
MAIN0
  6
HIDDEN
 62
3
100
AcDbLine
 10
402.5922822936057
 20
286.3512169590778
 30
0.0000000000000000
 11
402.5922822936057
 21
326.3512169590778
 31
0.0000000000000000
  0
LINE
  5
333
100
AcDbEntity
  8
MAIN0
  6
HIDDEN
 62
3
100
AcDbLine
 10
392.4867132936056
 20
286.3512169590778
 30
0.0000000000000000
 11
392.4867132936056
 21
326.3512169590778
 31
0.0000000000000000
  0
LINE
  5
334
100
AcDbEntity
  8
MAIN0
  6
HIDDEN
 62
3
100
AcDbLine
 10
404.5394977936057
 20
270.3512169590778
 30
0.0000000000000000
 11
390.5394977936059
 21
270.3512169590778
 31
0.0000000000000000
  0
LINE
  5
335
100
AcDbEntity
  8
MAIN0
  6
HIDDEN
 62
3
100
AcDbLine
 10
407.0394977936056
 20
273.5512169590778
 30
0.0000000000000000
 11
388.0394977936059
 21
273.5512169590778
 31
0.0000000000000000
  0
LINE
  5
336
100
AcDbEntity
  8
MAIN0
  6
HIDDEN
 62
3
100
AcDbLine
 10
404.5394977936056
 20
270.3512169590778
 30
0.0000000000000000
 11
404.5394977936056
 21
273.5512169590778
 31
0.0000000000000000
  0
POINT
  5
337
100
AcDbEntity
  8
MAIN0
  6
CONTINUOUS
 62
3
100
AcDbPoint
 10
407.0394977936056
 20
268.8512169590778
 30
0.0000000000000000
  0
LINE
  5
338
100
AcDbEntity
  8
MAIN0
  6
HIDDEN
 62
3
100
AcDbLine
 10
407.0394977936056
 20
268.8512169590778
 30
0.0000000000000000
 11
407.0394977936056
 21
273.5512169590778
 31
0.0000000000000000
  0
LINE
  5
339
100
AcDbEntity
  8
MAIN0
  6
HIDDEN
 62
3
100
AcDbLine
 10
390.5394977936059
 20
270.3512169590778
 30
0.0000000000000000
 11
390.5394977936059
 21
273.5512169590778
 31
0.0000000000000000
  0
LINE
  5
33A
100
AcDbEntity
  8
MAIN0
  6
HIDDEN
 62
3
100
AcDbLine
 10
388.0394977936059
 20
268.8512169590778
 30
0.0000000000000000
 11
388.0394977936059
 21
273.5512169590778
 31
0.0000000000000000
  0
CIRCLE
  5
33B
100
AcDbEntity
  8
MAIN0
  6
CONTINUOUS
 62
3
100
AcDbCircle
 10
377.0394977936054
 20
458.3512169590778
 30
0.0000000000000000
 40
4.188101000000000
  0
LINE
  5
33C
100
AcDbEntity
  8
MAIN0
  6
CONTINUOUS
 62
3
100
AcDbLine
 10
379.5394977936054
 20
456.9078412861037
 30
0.0000000000000000
 11
377.0394977936054
 21
455.4644656131296
 31
0.0000000000000000
  0
LINE
  5
33D
100
AcDbEntity
  8
MAIN0
  6
CONTINUOUS
 62
3
100
AcDbLine
 10
377.0394977936053
 20
455.4644656131296
 30
0.0000000000000000
 11
374.5394977936053
 21
456.9078412861036
 31
0.0000000000000000
  0
LINE
  5
33E
100
AcDbEntity
  8
MAIN0
  6
CONTINUOUS
 62
3
100
AcDbLine
 10
374.5394977936054
 20
456.9078412861037
 30
0.0000000000000000
 11
374.5394977936054
 21
459.7945926320518
 31
0.0000000000000000
  0
LINE
  5
33F
100
AcDbEntity
  8
MAIN0
  6
CONTINUOUS
 62
3
100
AcDbLine
 10
374.5394977936054
 20
459.7945926320518
 30
0.0000000000000000
 11
377.0394977936054
 21
461.2379683050259
 31
0.0000000000000000
  0
LINE
  5
340
100
AcDbEntity
  8
MAIN0
  6
CONTINUOUS
 62
3
100
AcDbLine
 10
379.5394977936054
 20
459.7945926320518
 30
0.0000000000000000
 11
379.5394977936054
 21
456.9078412861037
 31
0.0000000000000000
  0
LINE
  5
341
100
AcDbEntity
  8
MAIN0
  6
CONTINUOUS
 62
3
100
AcDbLine
 10
377.0394977936054
 20
461.2379683050257
 30
0.0000000000000000
 11
379.5394977936053
 21
459.7945926320517
 31
0.0000000000000000
  0
CIRCLE
  5
342
100
AcDbEntity
  8
MAIN0
  6
CONTINUOUS
 62
3
100
AcDbCircle
 10
558.0394977936054
 20
458.3512169590778
 30
0.0000000000000000
 40
4.188101000000000
  0
LINE
  5
343
100
AcDbEntity
  8
MAIN0
  6
CONTINUOUS
 62
3
100
AcDbLine
 10
560.5394977936053
 20
456.9078412861036
 30
0.0000000000000000
 11
558.0394977936053
 21
455.4644656131296
 31
0.0000000000000000
  0
LINE
  5
344
100
AcDbEntity
  8
MAIN0
  6
CONTINUOUS
 62
3
100
AcDbLine
 10
558.0394977936053
 20
455.4644656131296
 30
0.0000000000000000
 11
555.5394977936053
 21
456.9078412861037
 31
0.0000000000000000
  0
LINE
  5
345
100
AcDbEntity
  8
MAIN0
  6
CONTINUOUS
 62
3
100
AcDbLine
 10
555.5394977936054
 20
456.9078412861037
 30
0.0000000000000000
 11
555.5394977936054
 21
459.7945926320518
 31
0.0000000000000000
  0
LINE
  5
346
100
AcDbEntity
  8
MAIN0
  6
CONTINUOUS
 62
3
100
AcDbLine
 10
555.5394977936053
 20
459.7945926320518
 30
0.0000000000000000
 11
558.0394977936053
 21
461.2379683050258
 31
0.0000000000000000
  0
LINE
  5
347
100
AcDbEntity
  8
MAIN0
  6
CONTINUOUS
 62
3
100
AcDbLine
 10
560.5394977936054
 20
459.7945926320518
 30
0.0000000000000000
 11
560.5394977936054
 21
456.9078412861037
 31
0.0000000000000000
  0
LINE
  5
348
100
AcDbEntity
  8
MAIN0
  6
CONTINUOUS
 62
3
100
AcDbLine
 10
558.0394977936054
 20
461.2379683050258
 30
0.0000000000000000
 11
560.5394977936053
 21
459.7945926320518
 31
0.0000000000000000
  0
LINE
  5
349
100
AcDbEntity
  8
MAIN0
  6
PHANTOM
 62
3
100
AcDbLine
 10
643.0394977936054
 20
522.9958778995880
 30
0.0000000000000000
 11
643.0394977936054
 21
530.9005715643639
 31
0.0000000000000000
  0
LINE
  5
34A
100
AcDbEntity
  8
MAIN0
  6
CONTINUOUS
 62
3
100
AcDbLine
 10
644.0394977936054
 20
308.3512169590778
 30
0.0000000000000000
 11
644.0394977936054
 21
530.9005715643639
 31
0.0000000000000000
  0
LINE
  5
34B
100
AcDbEntity
  8
MAIN0
  6
CONTINUOUS
 62
3
100
AcDbLine
 10
644.0394977936054
 20
551.3005711828942
 30
0.0000000000000000
 11
644.0394977936054
 21
608.3512169590778
 31
0.0000000000000000
  0
LINE
  5
34C
100
AcDbEntity
  8
MAIN0
  6
PHANTOM
 62
3
100
AcDbLine
 10
643.0394977936054
 20
551.3005711828942
 30
0.0000000000000000
 11
643.0394977936054
 21
563.6545178179766
 31
0.0000000000000000
  0
MTEXT
  5
34D
100
AcDbEntity
  8
MAIN0
  6
CONTINUOUS
 62
3
100
AcDbMText
 10
-46.57416547396446
 20
640.9276947628197
 30
0.0000000000000000
 40
3.099999904632568
 41
0.0000000000000000
 44
0.6677419652551825
 71
     1
 72
     1
  1
{\H0.94x;{CLAMP\P(STANDARD ATTACHMENTS)}}
 11
1.000000000000000
 21
0.0000000000000000
 31
0.0000000000000000
  7
STANDARD
  0
LINE
  5
34E
100
AcDbEntity
  8
MAIN0
  6
CONTINUOUS
 62
3
100
AcDbLine
 10
-213.1836096652515
 20
128.9041498200113
 30
0.0000000000000000
 11
-193.6083118574195
 21
128.9041498200113
 31
0.0000000000000000
  0
POINT
  5
34F
100
AcDbEntity
  8
MAIN0
  6
CONTINUOUS
 62
3
100
AcDbPoint
 10
-212.6836096652515
 20
129.4041498200113
 30
0.0000000000000000
  0
LINE
  5
350
100
AcDbEntity
  8
MAIN0
  6
CONTINUOUS
 62
3
100
AcDbLine
 10
-213.1836096652509
 20
123.9041498200113
 30
0.0000000000000000
 11
-162.0432478989044
 21
123.9041498200113
 31
0.0000000000000000
  0
POINT
  5
351
100
AcDbEntity
  8
MAIN0
  6
CONTINUOUS
 62
3
100
AcDbPoint
 10
-212.6836096652509
 20
124.4041498200113
 30
0.0000000000000000
  0
POINT
  5
352
100
AcDbEntity
  8
MAIN0
  6
CONTINUOUS
 62
3
100
AcDbPoint
 10
-212.6836096652502
 20
114.4041498200113
 30
0.0000000000000000
  0
LINE
  5
353
100
AcDbEntity
  8
MAIN0
  6
CONTINUOUS
 62
3
100
AcDbLine
 10
-213.1836096652502
 20
113.9041498200113
 30
0.0000000000000000
 11
-127.4923460132934
 21
113.9041498200113
 31
0.0000000000000000
  0
POINT
  5
354
100
AcDbEntity
  8
MAIN0
  6
CONTINUOUS
 62
3
100
AcDbPoint
 10
-212.6836096652495
 20
109.4041498200113
 30
0.0000000000000000
  0
LINE
  5
355
100
AcDbEntity
  8
MAIN0
  6
CONTINUOUS
 62
3
100
AcDbLine
 10
-213.1836096652495
 20
108.9041498200113
 30
0.0000000000000000
 11
-127.4923460132934
 21
108.9041498200113
 31
0.0000000000000000
  0
POINT
  5
356
100
AcDbEntity
  8
MAIN0
  6
CONTINUOUS
 62
3
100
AcDbPoint
 10
-212.6836096652488
 20
104.4041498200113
 30
0.0000000000000000
  0
LINE
  5
357
100
AcDbEntity
  8
MAIN0
  6
CONTINUOUS
 62
3
100
AcDbLine
 10
-213.1836096652488
 20
103.9041498200113
 30
0.0000000000000000
 11
-127.4923460132934
 21
103.9041498200113
 31
0.0000000000000000
  0
POINT
  5
358
100
AcDbEntity
  8
MAIN0
  6
CONTINUOUS
 62
3
100
AcDbPoint
 10
-212.6836096652481
 20
99.40414982001130
 30
0.0000000000000000
  0
LINE
  5
359
100
AcDbEntity
  8
MAIN0
  6
CONTINUOUS
 62
3
100
AcDbLine
 10
-213.1836096652481
 20
98.90414982001130
 30
0.0000000000000000
 11
-127.4923460132934
 21
98.90414982001130
 31
0.0000000000000000
  0
POINT
  5
35A
100
AcDbEntity
  8
MAIN0
  6
CONTINUOUS
 62
3
100
AcDbPoint
 10
-212.6836096652475
 20
94.40414982001130
 30
0.0000000000000000
  0
LINE
  5
35B
100
AcDbEntity
  8
MAIN0
  6
CONTINUOUS
 62
3
100
AcDbLine
 10
-213.1836096652475
 20
93.90414982001130
 30
0.0000000000000000
 11
-127.4923460132934
 21
93.90414982001130
 31
0.0000000000000000
  0
POINT
  5
35C
100
AcDbEntity
  8
MAIN0
  6
CONTINUOUS
 62
3
100
AcDbPoint
 10
-212.6836096652468
 20
89.40414982001130
 30
0.0000000000000000
  0
LINE
  5
35D
100
AcDbEntity
  8
MAIN0
  6
CONTINUOUS
 62
3
100
AcDbLine
 10
-213.1836096652468
 20
88.90414982001130
 30
0.0000000000000000
 11
-127.4923460132934
 21
88.90414982001130
 31
0.0000000000000000
  0
POINT
  5
35E
100
AcDbEntity
  8
MAIN0
  6
CONTINUOUS
 62
3
100
AcDbPoint
 10
-212.6836096652461
 20
84.40414982001130
 30
0.0000000000000000
  0
LINE
  5
35F
100
AcDbEntity
  8
MAIN0
  6
CONTINUOUS
 62
3
100
AcDbLine
 10
-213.1836096652461
 20
83.90414982001130
 30
0.0000000000000000
 11
-127.4923460132934
 21
83.90414982001130
 31
0.0000000000000000
  0
MTEXT
  5
360
100
AcDbEntity
  8
MAIN0
  6
CONTINUOUS
 62
3
100
AcDbMText
 10
-212.6836096652502
 20
117.5041497246439
 30
0.0000000000000000
 40
3.099999904632568
 41
0.0000000000000000
 44
0.6677419652551825
 71
     1
 72
     1
  1
{\H0.93x;{ハンドル(長さ180)}}
 11
1.000000000000000
 21
0.0000000000000000
 31
0.0000000000000000
  7
KNJYOKO
  0
MTEXT
  5
361
100
AcDbEntity
  8
MAIN0
  6
CONTINUOUS
 62
3
100
AcDbMText
 10
-212.6836096652488
 20
107.5041497246439
 30
0.0000000000000000
 40
3.099999904632568
 41
0.0000000000000000
 44
0.6677419652551825
 71
     1
 72
     1
  1
{\H0.94x;{スライドカバー(内蔵式)}}
 11
1.000000000000000
 21
0.0000000000000000
 31
0.0000000000000000
  7
KNJYOKO
  0
MTEXT
  5
362
100
AcDbEntity
  8
MAIN0
  6
CONTINUOUS
 62
3
100
AcDbMText
 10
-212.6836096652475
 20
97.50414972464387
 30
0.0000000000000000
 40
3.099999904632568
 41
0.0000000000000000
 44
0.6677419652551825
 71
     1
 72
     1
  1
{\H0.94x;{クランプ器具（□500パレット用）}}
 11
1.000000000000000
 21
0.0000000000000000
 31
0.0000000000000000
  7
KNJYOKO
  0
MTEXT
  5
363
100
AcDbEntity
  8
MAIN0
  6
CONTINUOUS
 62
3
100
AcDbMText
 10
-212.6836096652461
 20
87.50414972464387
 30
0.0000000000000000
 40
3.099999904632568
 41
0.0000000000000000
 44
0.6677419652551825
 71
     1
 72
     1
  1
{\H0.93x;{アイボルト　M12}}
 11
1.000000000000000
 21
0.0000000000000000
 31
0.0000000000000000
  7
KNJYOKO
  0
LINE
  5
364
100
AcDbEntity
  8
MAIN0
  6
CONTINUOUS
 62
3
100
AcDbLine
 10
-213.1836096652454
 20
78.90414982001130
 30
0.0000000000000000
 11
-127.4923460132934
 21
78.90414982001130
 31
0.0000000000000000
  0
POINT
  5
365
100
AcDbEntity
  8
MAIN0
  6
CONTINUOUS
 62
3
100
AcDbPoint
 10
-212.6836096652454
 20
79.40414982001130
 30
0.0000000000000000
  0
MTEXT
  5
366
100
AcDbEntity
  8
MAIN0
  6
CONTINUOUS
 62
3
100
AcDbMText
 10
-212.6836096652454
 20
82.50414972464387
 30
0.0000000000000000
 40
3.099999904632568
 41
0.0000000000000000
 44
0.6677419652551825
 71
     1
 72
     1
  1
{\H0.93x;{EYE BOLT M12}}
 11
1.000000000000000
 21
0.0000000000000000
 31
0.0000000000000000
  7
STANDARD
  0
POINT
  5
367
100
AcDbEntity
  8
MAIN0
  6
CONTINUOUS
 62
3
100
AcDbPoint
 10
-147.6836096652502
 20
114.4041498200113
 30
0.0000000000000000
  0
POINT
  5
368
100
AcDbEntity
  8
MAIN0
  6
CONTINUOUS
 62
3
100
AcDbPoint
 10
-147.6836096652495
 20
109.4041498200113
 30
0.0000000000000000
  0
POINT
  5
369
100
AcDbEntity
  8
MAIN0
  6
CONTINUOUS
 62
3
100
AcDbPoint
 10
-147.6836096652488
 20
104.4041498200113
 30
0.0000000000000000
  0
POINT
  5
36A
100
AcDbEntity
  8
MAIN0
  6
CONTINUOUS
 62
3
100
AcDbPoint
 10
-147.6836096652481
 20
99.40414982001130
 30
0.0000000000000000
  0
POINT
  5
36B
100
AcDbEntity
  8
MAIN0
  6
CONTINUOUS
 62
3
100
AcDbPoint
 10
-147.6836096652475
 20
94.40414982001130
 30
0.0000000000000000
  0
POINT
  5
36C
100
AcDbEntity
  8
MAIN0
  6
CONTINUOUS
 62
3
100
AcDbPoint
 10
-147.6836096652468
 20
89.40414982001130
 30
0.0000000000000000
  0
POINT
  5
36D
100
AcDbEntity
  8
MAIN0
  6
CONTINUOUS
 62
3
100
AcDbPoint
 10
-147.6836096652461
 20
84.40414982001130
 30
0.0000000000000000
  0
POINT
  5
36E
100
AcDbEntity
  8
MAIN0
  6
CONTINUOUS
 62
3
100
AcDbPoint
 10
-147.6836096652454
 20
79.40414982001130
 30
0.0000000000000000
  0
MTEXT
  5
36F
100
AcDbEntity
  8
MAIN0
  6
CONTINUOUS
 62
3
100
AcDbMText
 10
-147.6836096652502
 20
117.5041497246439
 30
0.0000000000000000
 40
3.099999904632568
 41
0.0000000000000000
 44
0.6677419652551825
 71
     1
 72
     1
  1
{\H0.89x;{1本}}
 11
1.000000000000000
 21
0.0000000000000000
 31
0.0000000000000000
  7
KNJYOKO
  0
MTEXT
  5
370
100
AcDbEntity
  8
MAIN0
  6
CONTINUOUS
 62
3
100
AcDbMText
 10
-147.6836096652461
 20
87.50414972464387
 30
0.0000000000000000
 40
3.099999904632568
 41
0.0000000000000000
 44
0.6677419652551825
 71
     1
 72
     1
  1
{\H0.89x;{1本}}
 11
1.000000000000000
 21
0.0000000000000000
 31
0.0000000000000000
  7
KNJYOKO
  0
MTEXT
  5
371
100
AcDbEntity
  8
MAIN0
  6
CONTINUOUS
 62
3
100
AcDbMText
 10
-147.6836096652488
 20
107.5041497246439
 30
0.0000000000000000
 40
3.099999904632568
 41
0.0000000000000000
 44
0.6677419652551825
 71
     1
 72
     1
  1
{\H0.92x;{1セット}}
 11
1.000000000000000
 21
0.0000000000000000
 31
0.0000000000000000
  7
KNJYOKO
  0
MTEXT
  5
372
100
AcDbEntity
  8
MAIN0
  6
CONTINUOUS
 62
3
100
AcDbMText
 10
-147.6836096652481
 20
102.2041497723276
 30
0.0000000000000000
 40
2.799999952316284
 41
0.0000000000000000
 44
0.6728571767952983
 71
     1
 72
     1
  1
{\H0.92x;{1 SET}}
 11
1.000000000000000
 21
0.0000000000000000
 31
0.0000000000000000
  7
STANDARD
  0
MTEXT
  5
373
100
AcDbEntity
  8
MAIN0
  6
CONTINUOUS
 62
3
100
AcDbMText
 10
-147.6836096652475
 20
97.50414972464387
 30
0.0000000000000000
 40
3.099999904632568
 41
0.0000000000000000
 44
0.6677419652551825
 71
     1
 72
     1
  1
{\H0.92x;{1セット}}
 11
1.000000000000000
 21
0.0000000000000000
 31
0.0000000000000000
  7
KNJYOKO
  0
MTEXT
  5
374
100
AcDbEntity
  8
MAIN0
  6
CONTINUOUS
 62
3
100
AcDbMText
 10
-212.6836096652515
 20
132.5041497246439
 30
0.0000000000000000
 40
3.099999904632568
 41
0.0000000000000000
 44
0.6677419652551825
 71
     1
 72
     1
  1
{\H0.93x;{標準付属品}}
 11
1.000000000000000
 21
0.0000000000000000
 31
0.0000000000000000
  7
KNJYOKO
  0
MTEXT
  5
375
100
AcDbEntity
  8
MAIN0
  6
CONTINUOUS
 62
3
100
AcDbMText
 10
-212.6836096652495
 20
112.5041497246439
 30
0.0000000000000000
 40
3.099999904632568
 41
0.0000000000000000
 44
0.6677419652551825
 71
     1
 72
     1
  1
{\H0.94x;{HANDLE(Length 180)}}
 11
1.000000000000000
 21
0.0000000000000000
 31
0.0000000000000000
  7
STANDARD
  0
MTEXT
  5
376
100
AcDbEntity
  8
MAIN0
  6
CONTINUOUS
 62
3
100
AcDbMText
 10
-212.6836096652481
 20
102.5041497246439
 30
0.0000000000000000
 40
3.099999904632568
 41
0.0000000000000000
 44
0.6677419652551825
 71
     1
 72
     1
  1
{\H0.93x;{SLIDE COVER}}
 11
1.000000000000000
 21
0.0000000000000000
 31
0.0000000000000000
  7
STANDARD
  0
MTEXT
  5
377
100
AcDbEntity
  8
MAIN0
  6
CONTINUOUS
 62
3
100
AcDbMText
 10
-212.6836096652468
 20
92.50414972464387
 30
0.0000000000000000
 40
3.099999904632568
 41
0.0000000000000000
 44
0.6677419652551825
 71
     1
 72
     1
  1
{\H0.94x;{CLAMP DEVICE (□500)}}
 11
1.000000000000000
 21
0.0000000000000000
 31
0.0000000000000000
  7
KNJYOKO
  0
MTEXT
  5
378
100
AcDbEntity
  8
MAIN0
  6
CONTINUOUS
 62
3
100
AcDbMText
 10
-93.59806196820227
 20
108.5649100110366
 30
0.0000000000000000
 40
3.099999904632568
 41
0.0000000000000000
 44
0.6677419652551825
 71
     1
 72
     1
  1
{\H0.93x;{特別付属品}}
 11
1.000000000000000
 21
0.0000000000000000
 31
0.0000000000000000
  7
KNJYOKO
  0
LINE
  5
379
100
AcDbEntity
  8
MAIN0
  6
CONTINUOUS
 62
3
100
AcDbLine
 10
-94.09806196820227
 20
104.9649101064040
 30
0.0000000000000000
 11
-74.52276416037020
 21
104.9649101064040
 31
0.0000000000000000
  0
POINT
  5
37A
100
AcDbEntity
  8
MAIN0
  6
CONTINUOUS
 62
3
100
AcDbPoint
 10
-93.59806196820227
 20
105.4649101064040
 30
0.0000000000000000
  0
LINE
  5
37B
100
AcDbEntity
  8
MAIN0
  6
CONTINUOUS
 62
3
100
AcDbLine
 10
-94.09806196820159
 20
99.96491010640398
 30
0.0000000000000000
 11
-45.51084289713356
 21
99.96491010640398
 31
0.0000000000000000
  0
POINT
  5
37C
100
AcDbEntity
  8
MAIN0
  6
CONTINUOUS
 62
3
100
AcDbPoint
 10
-93.59806196820159
 20
100.4649101064040
 30
0.0000000000000000
  0
LINE
  5
37D
100
AcDbEntity
  8
MAIN0
  6
CONTINUOUS
 62
3
100
AcDbLine
 10
-94.09806196820091
 20
89.96491010640398
 30
0.0000000000000000
 11
-22.37909707100585
 21
89.96491010640398
 31
0.0000000000000000
  0
LINE
  5
37E
100
AcDbEntity
  8
MAIN0
  6
CONTINUOUS
 62
3
100
AcDbLine
 10
-94.09806196820023
 20
84.96491010640398
 30
0.0000000000000000
 11
-22.37909707100585
 21
84.96491010640398
 31
0.0000000000000000
  0
POINT
  5
37F
100
AcDbEntity
  8
MAIN0
  6
CONTINUOUS
 62
3
100
AcDbPoint
 10
-93.59806196820023
 20
85.46491010640398
 30
0.0000000000000000
  0
POINT
  5
380
100
AcDbEntity
  8
MAIN0
  6
CONTINUOUS
 62
3
100
AcDbPoint
 10
-93.59806196820091
 20
90.46491010640398
 30
0.0000000000000000
  0
POINT
  5
381
100
AcDbEntity
  8
MAIN0
  6
CONTINUOUS
 62
3
100
AcDbPoint
 10
-93.59806196819955
 20
80.46491010640398
 30
0.0000000000000000
  0
LINE
  5
382
100
AcDbEntity
  8
MAIN0
  6
CONTINUOUS
 62
3
100
AcDbLine
 10
-94.09806196819955
 20
79.96491010640398
 30
0.0000000000000000
 11
-22.37909707100585
 21
79.96491010640398
 31
0.0000000000000000
  0
POINT
  5
383
100
AcDbEntity
  8
MAIN0
  6
CONTINUOUS
 62
3
100
AcDbPoint
 10
-93.59806196819886
 20
75.46491010640398
 30
0.0000000000000000
  0
LINE
  5
384
100
AcDbEntity
  8
MAIN0
  6
CONTINUOUS
 62
3
100
AcDbLine
 10
-94.09806196819886
 20
74.96491010640398
 30
0.0000000000000000
 11
-22.37909707100585
 21
74.96491010640398
 31
0.0000000000000000
  0
MTEXT
  5
385
100
AcDbEntity
  8
MAIN0
  6
CONTINUOUS
 62
3
100
AcDbMText
 10
-93.59806196820159
 20
103.2649100587203
 30
0.0000000000000000
 40
2.799999952316284
 41
0.0000000000000000
 44
0.6728571767952983
 71
     1
 72
     1
  1
{\H0.94x;{SPECIAL ATTACHMENTS}}
 11
1.000000000000000
 21
0.0000000000000000
 31
0.0000000000000000
  7
STANDARD
  0
MTEXT
  5
386
100
AcDbEntity
  8
MAIN0
  6
CONTINUOUS
 62
3
100
AcDbMText
 10
-93.59806196820023
 20
88.56491001103655
 30
0.0000000000000000
 40
3.099999904632568
 41
0.0000000000000000
 44
0.6677419652551825
 71
     1
 72
     1
  1
{\H0.94x;{CLAMP DEVICE (□400)}}
 11
1.000000000000000
 21
0.0000000000000000
 31
0.0000000000000000
  7
KNJYOKO
  0
MTEXT
  5
387
100
AcDbEntity
  8
MAIN0
  6
CONTINUOUS
 62
3
100
AcDbMText
 10
-93.59806196820091
 20
93.56491001103655
 30
0.0000000000000000
 40
3.099999904632568
 41
0.0000000000000000
 44
0.6677419652551825
 71
     1
 72
     1
  1
{\H0.94x;{クランプ器具（□４００パレット用、他）}}
 11
1.000000000000000
 21
0.0000000000000000
 31
0.0000000000000000
  7
KNJYOKO
  0
MTEXT
  5
388
100
AcDbEntity
  8
MAIN0
  6
CONTINUOUS
 62
3
100
AcDbMText
 10
-93.59806196819955
 20
83.56491001103655
 30
0.0000000000000000
 40
3.099999904632568
 41
0.0000000000000000
 44
0.6677419652551825
 71
     1
 72
     1
  1
{\H0.93x;{センタプラグ}}
 11
1.000000000000000
 21
0.0000000000000000
 31
0.0000000000000000
  7
KNJYOKO
  0
MTEXT
  5
389
100
AcDbEntity
  8
MAIN0
  6
CONTINUOUS
 62
3
100
AcDbMText
 10
-93.59806196819886
 20
78.56491001103655
 30
0.0000000000000000
 40
3.099999904632568
 41
0.0000000000000000
 44
0.6677419652551825
 71
     1
 72
     1
  1
{\H0.93x;{CENTER PLUG}}
 11
1.000000000000000
 21
0.0000000000000000
 31
0.0000000000000000
  7
STANDARD
  0
MTEXT
  5
38A
100
AcDbEntity
  8
MAIN0
  6
CONTINUOUS
 62
3
100
AcDbMText
 10
-74.89877636756381
 20
337.6474066110519
 30
0.0000000000000000
 40
2.799999952316284
 41
0.0000000000000000
 44
0.6728571767952983
 71
     1
 72
     1
  1
{\H0.94x;{CLAMP\P(SPECIAL ATTACHMENTS)}}
 11
1.000000000000000
 21
0.0000000000000000
 31
0.0000000000000000
  7
STANDARD
  0
MTEXT
  5
38B
100
AcDbEntity
  8
MAIN0
  6
CONTINUOUS
 62
3
100
AcDbMText
 10
-212.6836096652509
 20
127.2041497723276
 30
0.0000000000000000
 40
2.799999952316284
 41
0.0000000000000000
 44
0.6728571767952983
 71
     1
 72
     1
  1
{\H0.94x;{STANDARD ATTACHMENTS}}
 11
1.000000000000000
 21
0.0000000000000000
 31
0.0000000000000000
  7
STANDARD
  0
MTEXT
  5
38C
100
AcDbEntity
  8
MAIN0
  6
CONTINUOUS
 62
3
100
AcDbMText
 10
-147.6836096652495
 20
112.2041497723276
 30
0.0000000000000000
 40
2.799999952316284
 41
0.0000000000000000
 44
0.6728571767952983
 71
     1
 72
     1
  1
{\H0.93x;{1 PIECES}}
 11
1.000000000000000
 21
0.0000000000000000
 31
0.0000000000000000
  7
STANDARD
  0
MTEXT
  5
38D
100
AcDbEntity
  8
MAIN0
  6
CONTINUOUS
 62
3
100
AcDbMText
 10
-147.6836096652454
 20
82.20414977232758
 30
0.0000000000000000
 40
2.799999952316284
 41
0.0000000000000000
 44
0.6728571767952983
 71
     1
 72
     1
  1
{\H0.93x;{1 PIECES}}
 11
1.000000000000000
 21
0.0000000000000000
 31
0.0000000000000000
  7
STANDARD
  0
MTEXT
  5
38E
100
AcDbEntity
  8
MAIN0
  6
CONTINUOUS
 62
3
100
AcDbMText
 10
-147.6836096652468
 20
92.20414977232758
 30
0.0000000000000000
 40
2.799999952316284
 41
0.0000000000000000
 44
0.6728571767952983
 71
     1
 72
     1
  1
{\H0.92x;{1 SET}}
 11
1.000000000000000
 21
0.0000000000000000
 31
0.0000000000000000
  7
STANDARD
  0
MTEXT
  5
38F
100
AcDbEntity
  8
MAIN0
  6
CONTINUOUS
 62
3
100
AcDbMText
 10
-165.5901775413989
 20
186.2258763841451
 30
0.0000000000000000
 40
2.799999952316284
 41
0.0000000000000000
 44
0.6728571767952983
 71
     1
 72
     1
  1
{\H0.93x;{(PALLET SIZE)\P}
 11
1.000000000000000
 21
0.0000000000000000
 31
0.0000000000000000
  7
STANDARD
  0
MTEXT
  5
390
100
AcDbEntity
  8
MAIN0
  6
CONTINUOUS
 62
3
100
AcDbMText
 10
-165.5556440243856
 20
746.2776458572841
 30
0.0000000000000000
 40
2.799999952316284
 41
0.0000000000000000
 44
0.6728571767952983
 71
     1
 72
     1
  1
{\H0.93x;{(PALLET SIZE)\P}
 11
1.000000000000000
 21
0.0000000000000000
 31
0.0000000000000000
  7
STANDARD
  0
LINE
  5
391
100
AcDbEntity
  8
MAIN0
  6
CONTINUOUS
 62
3
100
AcDbLine
 10
598.0394977936054
 20
308.3512169590778
 30
0.0000000000000000
 11
598.0394977936054
 21
402.3512169590778
 31
0.0000000000000000
  0
ELLIPSE
  5
392
100
AcDbEntity
  8
MAIN0
  6
CONTINUOUS
 62
3
100
AcDbEllipse
 10
610.5394977936053
 20
390.3512169590778
 30
0.0000000000000000
 11
-12.50000000000000
 21
0.0000000000000000
 31
0.0000000000000000
210
0.0000000000000000
220
0.0000000000000000
230
1.000000000000000
 40
0.8000000000000000
 41
3.141592653589793
 42
0.0000000000000000
  0
ELLIPSE
  5
393
100
AcDbEntity
  8
MAIN0
  6
CONTINUOUS
 62
3
100
AcDbEllipse
 10
610.5394977936053
 20
526.3512169590778
 30
0.0000000000000000
 11
12.50000000000000
 21
0.0000000000000000
 31
0.0000000000000000
210
0.0000000000000000
220
0.0000000000000000
230
1.000000000000000
 40
0.8000000000000000
 41
3.141592653589793
 42
0.0000000000000000
  0
LINE
  5
394
100
AcDbEntity
  8
MAIN0
  6
CONTINUOUS
 62
3
100
AcDbLine
 10
598.0394977936054
 20
608.3512169590778
 30
0.0000000000000000
 11
598.0394977936054
 21
514.3512169590778
 31
0.0000000000000000
  0
LINE
  5
395
100
AcDbEntity
  8
MAIN0
  6
CONTINUOUS
 62
3
100
AcDbLine
 10
597.0394977918439
 20
396.1012169590778
 30
0.0000000000000000
 11
597.0394977915680
 21
520.6012169590778
 31
0.0000000000000000
  0
LINE
  5
396
100
AcDbEntity
  8
MAIN0
  6
CONTINUOUS
 62
3
100
AcDbLine
 10
597.0394977913735
 20
608.3512169590777
 30
0.0000000000000000
 11
597.0394977912860
 21
647.8512169590777
 31
0.0000000000000000
  0
DIMENSION
  5
39F
100
AcDbEntity
  8
MAIN0
  6
CONTINUOUS
 62
3
100
AcDbDimension
  2
*D36
 10
644.0394977936054
 20
239.4805454127203
 30
0.0000000000000000
 11
633.5394977936054
 21
239.9805454127203
 31
0.0000000000000000
 70
32
 71
5
 42
21.000000
  3
MAIN001
100
AcDbAlignedDimension
 13
623.0394977936054
 23
308.3512169590778
 33
0.0000000000000000
 14
644.0394977936054
 24
308.3512169590778
 34
0.0000000000000000
100
AcDbRotatedDimension
1001
ACAD
1000
DSTYLE
1002
{
1070
   173
1070
     1
1070
     6
1000
_OPEN
1070
     7
1000
_OPEN
1070
    41
1040
2.000000
1002
}
  0
DIMENSION
  5
3A8
100
AcDbEntity
  8
MAIN0
  6
CONTINUOUS
 62
3
100
AcDbDimension
  2
*D37
 10
623.0394977936054
 20
239.4805454127203
 30
0.0000000000000000
 11
610.5394977936054
 21
239.9805454127203
 31
0.0000000000000000
 70
32
 71
5
 42
25.000000
  3
MAIN001
100
AcDbAlignedDimension
 13
598.0394977936054
 23
308.3512169590778
 33
0.0000000000000000
 14
623.0394977936054
 24
308.3512169590778
 34
0.0000000000000000
100
AcDbRotatedDimension
1001
ACAD
1000
DSTYLE
1002
{
1070
   173
1070
     1
1070
     6
1000
_OPEN
1070
     7
1000
_OPEN
1070
    41
1040
2.000000
1002
}
  0
LINE
  5
3A9
100
AcDbEntity
  8
MAIN0
  6
CONTINUOUS
 62
3
100
AcDbLine
 10
641.5394977935434
 20
614.3512169592187
 30
0.0000000000000000
 11
641.5394977935471
 21
608.3512169592187
 31
0.0000000000000000
  0
LINE
  5
3AA
100
AcDbEntity
  8
MAIN0
  6
HIDDEN
 62
3
100
AcDbLine
 10
640.5394977935441
 20
613.3512169592182
 30
0.0000000000000000
 11
640.5394977935472
 21
608.3512169592182
 31
0.0000000000000000
  0
LINE
  5
3AB
100
AcDbEntity
  8
MAIN0
  6
HIDDEN
 62
3
100
AcDbLine
 10
598.0394977935439
 20
613.3512169591913
 30
0.0000000000000000
 11
640.5394977935441
 21
613.3512169592182
 31
0.0000000000000000
  0
LINE
  5
3AC
100
AcDbEntity
  8
MAIN0
  6
CONTINUOUS
 62
3
100
AcDbLine
 10
597.0394977935434
 20
614.3512169591908
 30
0.0000000000000000
 11
641.5394977935434
 21
614.3512169592187
 31
0.0000000000000000
  0
LINE
  5
3AD
100
AcDbEntity
  8
MAIN0
  6
HIDDEN
 62
3
100
AcDbLine
 10
598.0394977935441
 20
613.3512169591915
 30
0.0000000000000000
 11
598.0394977935473
 21
608.3512169591915
 31
0.0000000000000000
  0
DIMENSION
  5
3B6
100
AcDbEntity
  8
MAIN0
  6
CONTINUOUS
 62
3
100
AcDbDimension
  2
*D38
 10
204.6958423194135
 20
645.2250683457843
 30
0.0000000000000000
 11
197.6247745075480
 21
653.0032429388364
 31
0.0000000000000000
 70
32
 71
5
 42
21.000000
  3
MAIN001
100
AcDbAlignedDimension
 13
203.3002403029778
 23
673.5279511391838
 33
0.0000000000000000
 14
274.7180252028192
 24
715.2472512291899
 34
0.0000000000000000
 50
134.9999999999999
100
AcDbRotatedDimension
1001
ACAD
1000
DSTYLE
1002
{
1070
   173
1070
     1
1070
     6
1000
_OPEN
1070
     7
1000
_OPEN
1070
    41
1040
2.000000
1002
}
  0
DIMENSION
  5
3C1
100
AcDbEntity
  8
MAIN0
  6
CONTINUOUS
 62
3
100
AcDbDimension
  2
*D39
 10
189.8465999144960
 20
660.0743107507019
 30
0.0000000000000000
 11
187.0181727897498
 21
663.6098446566347
 31
0.0000000000000000
 70
32
 71
5
 42
9.000000
  3
MAIN001
100
AcDbAlignedDimension
 13
196.9362792722989
 23
679.8919121698627
 33
0.0000000000000000
 14
203.3002403029778
 24
673.5279511391838
 34
0.0000000000000000
 50
135.0000000000004
100
AcDbRotatedDimension
1001
ACAD
1000
DSTYLE
1002
{
1070
   173
1070
     1
1070
     6
1000
_OPEN
1070
     7
1000
_OPEN
1070
    41
1040
2.000000
1070
   289
1070
     0
1002
}
  0
DIMENSION
  5
3CA
100
AcDbEntity
  8
MAIN0
  6
CONTINUOUS
 62
3
100
AcDbDimension
  2
*D40
 10
274.3467289322171
 20
757.3023618297806
 30
0.0000000000000000
 11
285.3068840406085
 21
747.0493135025757
 31
0.0000000000000000
 70
33
 71
5
 42
30.000000
  3
MAIN001
100
AcDbAlignedDimension
 13
281.7890930146847
 23
722.3183190410554
 33
0.0000000000000000
 14
260.5758895790883
 24
743.5315224766518
 34
0.0000000000000000
 50
135.0000000000001
1001
ACAD
1000
DSTYLE
1002
{
1070
   173
1070
     1
1070
     6
1000
_OPEN
1070
     7
1000
_OPEN
1070
    41
1040
2.000000
1002
}
  0
LINE
  5
3CB
100
AcDbEntity
  8
MAIN0
  6
CENTER
 62
3
100
AcDbLine
 10
209.5720937795239
 20
723.8246401575618
 30
0.0000000000000000
 11
272.0823665274159
 21
661.3143674096698
 31
0.0000000000000000
  0
MTEXT
  5
3CC
100
AcDbEntity
  8
MAIN0
  6
CONTINUOUS
 62
3
100
AcDbMText
 10
-340.5820096345049
 20
117.8341297740550
 30
0.0000000000000000
 40
3.099999904632568
 41
0.0000000000000000
 44
0.6677419652551825
 71
     1
 72
     1
  1
{\H0.94x;{0レンジは増力機構なしの締付となりますので締付力は許容量を示します。}}
 11
1.000000000000000
 21
0.0000000000000000
 31
0.0000000000000000
  7
KNJYOKO
  0
LINE
  5
3CD
100
AcDbEntity
  8
MAIN0
  6
CONTINUOUS
 62
3
100
AcDbLine
 10
-313.2820081205477
 20
120.7341298694224
 30
0.0000000000000000
 11
-313.2820081205477
 21
126.1341298455805
 31
0.0000000000000000
  0
POINT
  5
3CE
100
AcDbEntity
  8
MAIN0
  6
CONTINUOUS
 62
3
100
AcDbPoint
 10
-340.5820096345049
 20
114.7341298694224
 30
0.0000000000000000
  0
LINE
  5
3CF
100
AcDbEntity
  8
MAIN0
  6
CONTINUOUS
 62
3
100
AcDbLine
 10
-341.0820096345049
 20
114.2341298694224
 30
0.0000000000000000
 11
-217.8907459825508
 21
114.2341298694224
 31
0.0000000000000000
  0
POINT
  5
3D0
100
AcDbEntity
  8
MAIN0
  6
CONTINUOUS
 62
3
100
AcDbPoint
 10
-340.5820096345042
 20
109.7341298694224
 30
0.0000000000000000
  0
LINE
  5
3D1
100
AcDbEntity
  8
MAIN0
  6
CONTINUOUS
 62
3
100
AcDbLine
 10
-341.0820096345042
 20
109.2341298694224
 30
0.0000000000000000
 11
-217.8907459825508
 21
109.2341298694224
 31
0.0000000000000000
  0
POINT
  5
3D2
100
AcDbEntity
  8
MAIN0
  6
CONTINUOUS
 62
3
100
AcDbPoint
 10
-340.5820096345035
 20
104.7341298694224
 30
0.0000000000000000
  0
LINE
  5
3D3
100
AcDbEntity
  8
MAIN0
  6
CONTINUOUS
 62
3
100
AcDbLine
 10
-341.0820096345035
 20
104.2341298694224
 30
0.0000000000000000
 11
-217.8907459825508
 21
104.2341298694224
 31
0.0000000000000000
  0
LINE
  5
3D4
100
AcDbEntity
  8
MAIN0
  6
CONTINUOUS
 62
3
100
AcDbLine
 10
-341.0820096345028
 20
99.23412986942242
 30
0.0000000000000000
 11
-217.8907459825508
 21
99.23412986942242
 31
0.0000000000000000
  0
POINT
  5
3D5
100
AcDbEntity
  8
MAIN0
  6
CONTINUOUS
 62
3
100
AcDbPoint
 10
-340.5820096345028
 20
99.73412986942242
 30
0.0000000000000000
  0
MTEXT
  5
3D6
100
AcDbEntity
  8
MAIN0
  6
CONTINUOUS
 62
3
100
AcDbMText
 10
-340.5820096345028
 20
102.8341297740550
 30
0.0000000000000000
 40
3.099999904632568
 41
0.0000000000000000
 44
0.6677419652551825
 71
     1
 72
     1
  1
{\H0.93x;{CLAMPING FORCE SHOWS AN ALLOWANCE VALUE.}}
 11
1.000000000000000
 21
0.0000000000000000
 31
0.0000000000000000
  7
STANDARD
  0
MTEXT
  5
3D7
100
AcDbEntity
  8
MAIN0
  6
CONTINUOUS
 62
3
100
AcDbMText
 10
-340.5820096345035
 20
107.8341297740550
 30
0.0000000000000000
 40
3.099999904632568
 41
0.0000000000000000
 44
0.6677419652551825
 71
     1
 72
     1
  1
{\H0.92x;{INCREASING MECHANISM.}}
 11
1.000000000000000
 21
0.0000000000000000
 31
0.0000000000000000
  7
STANDARD
  0
MTEXT
  5
3D8
100
AcDbEntity
  8
MAIN0
  6
CONTINUOUS
 62
3
100
AcDbMText
 10
-340.5820096345042
 20
112.8341297740550
 30
0.0000000000000000
 40
3.099999904632568
 41
0.0000000000000000
 44
0.6677419652551825
 71
     1
 72
     1
  1
{\H0.94x;{0-RANGE MEANS CLAMP THAT THERE IS NO A FORCE }}
 11
1.000000000000000
 21
0.0000000000000000
 31
0.0000000000000000
  7
STANDARD
  0
INSERT
  5
3E0
100
AcDbEntity
  8
MAIN0
  6
CONTINUOUS
 62
3
100
AcDbBlockReference
  2
M0
 10
0.0000000000000000
 20
0.0000000000000000
 30
0.0000000000000000
 50
0.0000000000000000
  0
MTEXT
  5
3E1
100
AcDbEntity
  8
MAIN0
  6
CONTINUOUS
 62
3
100
AcDbMText
 10
351.1709936884456
 20
819.7157817919338
 30
0.0000000000000000
 40
3.099999904632568
 41
0.0000000000000000
 44
0.7741935722041460
 71
     1
 72
     1
  1
{\H0.70x;{ 8KN}}
 11
1.000000000000000
 21
0.0000000000000000
 31
0.0000000000000000
  7
STANDARD
  0
MTEXT
  5
3E2
100
AcDbEntity
  8
MAIN0
  6
CONTINUOUS
 62
3
100
AcDbMText
 10
345.2825722303805
 20
819.7157817919342
 30
0.0000000000000000
 40
3.099999904632568
 41
0.0000000000000000
 44
0.7741935722041460
 71
     1
 72
     1
  1
{\H0.67x;{0}}
 11
1.000000000000000
 21
0.0000000000000000
 31
0.0000000000000000
  7
STANDARD
  0
MTEXT
  5
3E3
100
AcDbEntity
  8
MAIN0
  6
CONTINUOUS
 62
3
100
AcDbMText
 10
661.9085769455153
 20
405.7396167688685
 30
0.0000000000000000
 40
3.099999904632568
 41
0.0000000000000000
 44
0.6677419652551825
 71
     1
 72
     1
  1
{\H0.93x;{PLUG\P(OPTION)}}
 11
1.000000000000000
 21
0.0000000000000000
 31
0.0000000000000000
  7
STANDARD
  0
CIRCLE
  5
3E4
100
AcDbEntity
  8
MAIN0
  6
CONTINUOUS
 62
3
100
AcDbCircle
 10
-169.3907941821555
 20
458.3512169590778
 30
0.0000000000000000
 40
6.000000000000000
  0
CIRCLE
  5
3E5
100
AcDbEntity
  8
MAIN0
  6
CONTINUOUS
 62
3
100
AcDbCircle
 10
-169.3907941821555
 20
458.3512169590778
 30
0.0000000000000000
 40
5.100000000000001
  0
CIRCLE
  5
3E6
100
AcDbEntity
  8
MAIN0
  6
PHANTOM
 62
3
100
AcDbCircle
 10
-89.39079418215556
 20
378.3512169590778
 30
0.0000000000000000
 40
12.00000000000000
  0
LINE
  5
3E7
100
AcDbEntity
  8
MAIN0
  6
PHANTOM
 62
3
100
AcDbLine
 10
-89.39079418215555
 20
386.4341207277324
 30
0.0000000000000000
 11
-96.39079418215556
 21
382.3926688434050
 31
0.0000000000000000
  0
LINE
  5
3E8
100
AcDbEntity
  8
MAIN0
  6
PHANTOM
 62
3
100
AcDbLine
 10
-96.39079418215556
 20
382.3926688434051
 30
0.0000000000000000
 11
-96.39079418215556
 21
374.3097650747503
 31
0.0000000000000000
  0
LINE
  5
3E9
100
AcDbEntity
  8
MAIN0
  6
PHANTOM
 62
3
100
AcDbLine
 10
-96.39079418215553
 20
374.3097650747502
 30
0.0000000000000000
 11
-89.39079418215553
 21
370.2683131904229
 31
0.0000000000000000
  0
LINE
  5
3EA
100
AcDbEntity
  8
MAIN0
  6
PHANTOM
 62
3
100
AcDbLine
 10
-89.39079418215556
 20
370.2683131904229
 30
0.0000000000000000
 11
-82.39079418215557
 21
374.3097650747502
 31
0.0000000000000000
  0
LINE
  5
3EB
100
AcDbEntity
  8
MAIN0
  6
PHANTOM
 62
3
100
AcDbLine
 10
-82.39079418215556
 20
374.3097650747503
 30
0.0000000000000000
 11
-82.39079418215556
 21
382.3926688434051
 31
0.0000000000000000
  0
LINE
  5
3EC
100
AcDbEntity
  8
MAIN0
  6
PHANTOM
 62
3
100
AcDbLine
 10
-82.39079418215553
 20
382.3926688434050
 30
0.0000000000000000
 11
-89.39079418215553
 21
386.4341207277324
 31
0.0000000000000000
  0
CIRCLE
  5
3ED
100
AcDbEntity
  8
MAIN0
  6
PHANTOM
 62
3
100
AcDbCircle
 10
-69.39079418215557
 20
558.3512169590777
 30
0.0000000000000000
 40
12.00000000000000
  0
LINE
  5
3EE
100
AcDbEntity
  8
MAIN0
  6
PHANTOM
 62
3
100
AcDbLine
 10
-69.39079418215553
 20
566.4341207277323
 30
0.0000000000000000
 11
-76.39079418215556
 21
562.3926688434049
 31
0.0000000000000000
  0
LINE
  5
3EF
100
AcDbEntity
  8
MAIN0
  6
PHANTOM
 62
3
100
AcDbLine
 10
-76.39079418215557
 20
562.3926688434051
 30
0.0000000000000000
 11
-76.39079418215557
 21
554.3097650747503
 31
0.0000000000000000
  0
LINE
  5
3F0
100
AcDbEntity
  8
MAIN0
  6
PHANTOM
 62
3
100
AcDbLine
 10
-76.39079418215547
 20
554.3097650747502
 30
0.0000000000000000
 11
-69.39079418215547
 21
550.2683131904228
 31
0.0000000000000000
  0
LINE
  5
3F1
100
AcDbEntity
  8
MAIN0
  6
PHANTOM
 62
3
100
AcDbLine
 10
-69.39079418215559
 20
550.2683131904228
 30
0.0000000000000000
 11
-62.39079418215559
 21
554.3097650747502
 31
0.0000000000000000
  0
LINE
  5
3F2
100
AcDbEntity
  8
MAIN0
  6
PHANTOM
 62
3
100
AcDbLine
 10
-62.39079418215557
 20
554.3097650747503
 30
0.0000000000000000
 11
-62.39079418215557
 21
562.3926688434051
 31
0.0000000000000000
  0
LINE
  5
3F3
100
AcDbEntity
  8
MAIN0
  6
PHANTOM
 62
3
100
AcDbLine
 10
-62.39079418215553
 20
562.3926688434050
 30
0.0000000000000000
 11
-69.39079418215547
 21
566.4341207277323
 31
0.0000000000000000
  0
LINE
  5
3F4
100
AcDbEntity
  8
MAIN0
  6
PHANTOM
 62
3
100
AcDbLine
 10
-83.17937641529349
 20
515.5712566972917
 30
0.0000000000000000
 11
-112.1707544439419
 21
544.5626347259403
 31
0.0000000000000000
  0
LINE
  5
3F5
100
AcDbEntity
  8
MAIN0
  6
PHANTOM
 62
3
100
AcDbLine
 10
-11.05448473426549
 20
570.7255856298420
 30
0.0000000000000000
 11
-57.01642551139088
 21
616.6875264069679
 31
0.0000000000000000
  0
LINE
  5
3F6
100
AcDbEntity
  8
MAIN0
  6
PHANTOM
 62
3
100
AcDbLine
 10
-11.05448473426549
 20
570.7255856298420
 30
0.0000000000000000
 11
-66.20881366687482
 21
515.5712566972331
 31
0.0000000000000000
  0
LINE
  5
3F7
100
AcDbEntity
  8
MAIN0
  6
PHANTOM
 62
3
100
AcDbLine
 10
-57.01642551139094
 20
616.6875264069679
 30
0.0000000000000000
 11
-112.1707544438629
 21
561.5331974744963
 31
0.0000000000000000
  0
LINE
  5
3F8
100
AcDbEntity
  8
MAIN0
  6
PHANTOM
 62
3
100
AcDbLine
 10
-83.17937641529349
 20
515.5712566972916
 30
0.0000000000000000
 11
-66.20881366690193
 21
515.5712566972331
 31
0.0000000000000000
  0
LINE
  5
3F9
100
AcDbEntity
  8
MAIN0
  6
PHANTOM
 62
3
100
AcDbLine
 10
-112.1707544439419
 20
544.5626347259403
 30
0.0000000000000000
 11
-112.1707544438628
 21
561.5331974745236
 31
0.0000000000000000
  0
LINE
  5
3FA
100
AcDbEntity
  8
MAIN0
  6
CONTINUOUS
 62
3
100
AcDbLine
 10
281.7890930146847
 20
722.3183190410556
 30
0.0000000000000000
 11
274.7180252028192
 21
715.2472512291901
 31
0.0000000000000000
  0
LINE
  5
3FB
100
AcDbEntity
  8
MAIN0
  6
CONTINUOUS
 62
3
100
AcDbLine
 10
274.0109184216327
 20
715.9543580103766
 30
0.0000000000000000
 11
217.4423759267085
 21
659.3858155154526
 31
0.0000000000000000
  0
LINE
  5
3FC
100
AcDbEntity
  8
MAIN0
  6
CONTINUOUS
 62
3
100
AcDbLine
 10
219.2101428799471
 20
689.4378537161530
 30
0.0000000000000000
 11
203.3002403029777
 21
673.5279511391836
 31
0.0000000000000000
  0
LINE
  5
3FD
100
AcDbEntity
  8
MAIN0
  6
CONTINUOUS
 62
3
100
AcDbLine
 10
260.5758895790883
 20
743.5315224766520
 30
0.0000000000000000
 11
196.9362792722988
 21
679.8919121698626
 31
0.0000000000000000
  0
LINE
  5
3FE
100
AcDbEntity
  8
MAIN0
  6
CONTINUOUS
 62
3
100
AcDbLine
 10
196.9362792722989
 20
679.8919121698624
 30
0.0000000000000000
 11
217.4423759267087
 21
659.3858155154526
 31
0.0000000000000000
  0
LINE
  5
3FF
100
AcDbEntity
  8
MAIN0
  6
CONTINUOUS
 62
3
100
AcDbLine
 10
260.5758895790883
 20
743.5315224766518
 30
0.0000000000000000
 11
281.7890930146847
 21
722.3183190410555
 31
0.0000000000000000
  0
LINE
  5
400
100
AcDbEntity
  8
MAIN0
  6
CONTINUOUS
 62
3
100
AcDbLine
 10
274.0109184216325
 20
715.9543580103764
 30
0.0000000000000000
 11
274.7180252028190
 21
715.2472512291899
 31
0.0000000000000000
  0
LINE
  5
401
100
AcDbEntity
  8
MAIN0
  6
CONTINUOUS
 62
3
100
AcDbLine
 10
219.2101428799471
 20
689.4378537161530
 30
0.0000000000000000
 11
233.3522785036780
 21
675.2957180924220
 31
0.0000000000000000
  0
LINE
  5
402
100
AcDbEntity
  8
MAIN0
  6
CONTINUOUS
 62
3
100
AcDbLine
 10
-58.26377752836293
 20
465.3512169590778
 30
0.0000000000000000
 11
-50.51781083594812
 21
465.3512169590778
 31
0.0000000000000000
  0
LINE
  5
403
100
AcDbEntity
  8
MAIN0
  6
CONTINUOUS
 62
3
100
AcDbLine
 10
-58.26377752836294
 20
451.3512169590778
 30
0.0000000000000000
 11
-50.51781083594813
 21
451.3512169590778
 31
0.0000000000000000
  0
LINE
  5
404
100
AcDbEntity
  8
MAIN0
  6
CONTINUOUS
 62
3
100
AcDbLine
 10
-50.51781083594801
 20
465.3512169590778
 30
0.0000000000000000
 11
-46.39079418215547
 21
458.3512169590778
 31
0.0000000000000000
  0
LINE
  5
405
100
AcDbEntity
  8
MAIN0
  6
CONTINUOUS
 62
3
100
AcDbLine
 10
-46.39079418215550
 20
458.3512169590778
 30
0.0000000000000000
 11
-50.51781083594813
 21
451.3512169590778
 31
0.0000000000000000
  0
LINE
  5
406
100
AcDbEntity
  8
MAIN0
  6
CONTINUOUS
 62
3
100
AcDbLine
 10
-58.26377752836291
 20
451.3512169590778
 30
0.0000000000000000
 11
-62.39079418215547
 21
458.3512169590778
 31
0.0000000000000000
  0
LINE
  5
407
100
AcDbEntity
  8
MAIN0
  6
CONTINUOUS
 62
3
100
AcDbLine
 10
-62.39079418215550
 20
458.3512169590779
 30
0.0000000000000000
 11
-58.26377752836297
 21
465.3512169590779
 31
0.0000000000000000
  0
LINE
  5
408
100
AcDbEntity
  8
MAIN0
  6
PHANTOM
 62
3
100
AcDbLine
 10
-91.51211452571522
 20
401.6857407382338
 30
0.0000000000000000
 11
-112.7253179613116
 21
380.4725373026373
 31
0.0000000000000000
  0
LINE
  5
409
100
AcDbEntity
  8
MAIN0
  6
PHANTOM
 62
3
100
AcDbLine
 10
-46.96438731096274
 20
392.4933525828088
 30
0.0000000000000000
 11
-103.5329298058864
 21
335.9248100878849
 31
0.0000000000000000
  0
LINE
  5
40A
100
AcDbEntity
  8
MAIN0
  6
PHANTOM
 62
3
100
AcDbLine
 10
-46.96438731096271
 20
392.4933525828088
 30
0.0000000000000000
 11
-56.15677546634370
 21
401.6857407381898
 31
0.0000000000000000
  0
LINE
  5
40B
100
AcDbEntity
  8
MAIN0
  6
PHANTOM
 62
3
100
AcDbLine
 10
-103.5329298058864
 20
335.9248100878849
 30
0.0000000000000000
 11
-112.7253179612892
 21
345.1171982432876
 31
0.0000000000000000
  0
LINE
  5
40C
100
AcDbEntity
  8
MAIN0
  6
PHANTOM
 62
3
100
AcDbLine
 10
-112.7253179613117
 20
380.4725373026374
 30
0.0000000000000000
 11
-112.7253179612892
 21
345.1171982432658
 31
0.0000000000000000
  0
LINE
  5
40D
100
AcDbEntity
  8
MAIN0
  6
PHANTOM
 62
3
100
AcDbLine
 10
-91.51211452571529
 20
401.6857407382338
 30
0.0000000000000000
 11
-56.15677546636543
 21
401.6857407381897
 31
0.0000000000000000
  0
LINE
  5
40E
100
AcDbEntity
  8
MAIN0
  6
CONTINUOUS
 62
3
100
AcDbLine
 10
49.89419832616119
 20
182.4976819556707
 30
0.0000000000000000
 11
65.45054751226519
 21
166.9413327695667
 31
0.0000000000000000
  0
LINE
  5
40F
100
AcDbEntity
  8
MAIN0
  6
CONTINUOUS
 62
3
100
AcDbLine
 10
106.4627408210851
 20
239.0662244505945
 30
0.0000000000000000
 11
122.0190900071892
 21
223.5098752644904
 31
0.0000000000000000
  0
LINE
  5
410
100
AcDbEntity
  8
MAIN0
  6
CONTINUOUS
 62
3
100
AcDbLine
 10
65.45054751226522
 20
166.9413327695666
 30
0.0000000000000000
 11
122.0190900071891
 21
223.5098752644904
 31
0.0000000000000000
  0
LINE
  5
411
100
AcDbEntity
  8
MAIN0
  6
CONTINUOUS
 62
3
100
AcDbLine
 10
49.89419832616119
 20
182.4976819556707
 30
0.0000000000000000
 11
106.4627408210850
 21
239.0662244505944
 31
0.0000000000000000
  0
LINE
  5
412
100
AcDbEntity
  8
MAIN0
  6
CENTER
 62
3
100
AcDbLine
 10
96.44580412444668
 20
168.2381045719131
 30
0.0000000000000000
 11
119.0811181916480
 21
190.8734186391144
 31
0.0000000000000000
  0
LINE
  5
413
100
AcDbEntity
  8
MAIN0
  6
CENTER
 62
3
100
AcDbLine
 10
63.28138426758650
 20
225.6790385093358
 30
0.0000000000000000
 11
132.6544219800838
 21
156.3060007968384
 31
0.0000000000000000
  0
LINE
  5
414
100
AcDbEntity
  8
MAIN0
  6
CENTER
 62
3
100
AcDbLine
 10
-111.3907941821556
 20
504.3512169590791
 30
0.0000000000000000
 11
-135.3907941821556
 21
504.3512169590791
 31
0.0000000000000000
  0
LINE
  5
415
100
AcDbEntity
  8
MAIN0
  6
CENTER
 62
3
100
AcDbLine
 10
-123.3907941821556
 20
516.3512169590791
 30
0.0000000000000000
 11
-123.3907941821556
 21
492.3512169590791
 31
0.0000000000000000
  0
CIRCLE
  5
416
100
AcDbEntity
  8
MAIN0
  6
CONTINUOUS
 62
3
100
AcDbCircle
 10
-215.3907941821556
 20
504.3512169590791
 30
0.0000000000000000
 40
8.000000000000000
  0
LINE
  5
417
100
AcDbEntity
  8
MAIN0
  6
CONTINUOUS
 62
3
100
AcDbLine
 10
-215.3907941821556
 20
508.9700191125961
 30
0.0000000000000000
 11
-211.3907941821556
 21
506.6606180358376
 31
0.0000000000000000
  0
LINE
  5
418
100
AcDbEntity
  8
MAIN0
  6
CONTINUOUS
 62
3
100
AcDbLine
 10
-211.3907941821556
 20
506.6606180358376
 30
0.0000000000000000
 11
-211.3907941821556
 21
502.0418158823206
 31
0.0000000000000000
  0
LINE
  5
419
100
AcDbEntity
  8
MAIN0
  6
CONTINUOUS
 62
3
100
AcDbLine
 10
-211.3907941821556
 20
502.0418158823207
 30
0.0000000000000000
 11
-215.3907941821556
 21
499.7324148055622
 31
0.0000000000000000
  0
LINE
  5
41A
100
AcDbEntity
  8
MAIN0
  6
CONTINUOUS
 62
3
100
AcDbLine
 10
-215.3907941821555
 20
499.7324148055620
 30
0.0000000000000000
 11
-219.3907941821555
 21
502.0418158823206
 31
0.0000000000000000
  0
LINE
  5
41B
100
AcDbEntity
  8
MAIN0
  6
CONTINUOUS
 62
3
100
AcDbLine
 10
-219.3907941821556
 20
502.0418158823206
 30
0.0000000000000000
 11
-219.3907941821556
 21
506.6606180358376
 31
0.0000000000000000
  0
LINE
  5
41C
100
AcDbEntity
  8
MAIN0
  6
CONTINUOUS
 62
3
100
AcDbLine
 10
-219.3907941821556
 20
506.6606180358377
 30
0.0000000000000000
 11
-215.3907941821556
 21
508.9700191125962
 31
0.0000000000000000
  0
LINE
  5
41D
100
AcDbEntity
  8
MAIN0
  6
CONTINUOUS
 62
3
100
AcDbLine
 10
215.0394977936044
 20
439.3512169590770
 30
0.0000000000000000
 11
240.0394977936041
 21
439.3512169590770
 31
0.0000000000000000
  0
LINE
  5
41E
100
AcDbEntity
  8
MAIN0
  6
CONTINUOUS
 62
3
100
AcDbLine
 10
215.0394977936043
 20
477.3512169590770
 30
0.0000000000000000
 11
240.0394977936045
 21
477.3512169590770
 31
0.0000000000000000
  0
CIRCLE
  5
41F
100
AcDbEntity
  8
MAIN0
  6
CONTINUOUS
 62
3
100
AcDbCircle
 10
354.0394977936053
 20
333.3512169590778
 30
0.0000000000000000
 40
4.000000000000000
  0
CIRCLE
  5
420
100
AcDbEntity
  8
MAIN0
  6
CONTINUOUS
 62
3
100
AcDbCircle
 10
354.0394977936053
 20
333.3512169590778
 30
0.0000000000000000
 40
3.400000000000000
  0
CIRCLE
  5
421
100
AcDbEntity
  8
MAIN0
  6
HIDDEN
 62
3
100
AcDbCircle
 10
580.5394977936054
 20
414.3512169590778
 30
0.0000000000000000
 40
9.000000000000000
  0
LINE
  5
422
100
AcDbEntity
  8
MAIN0
  6
HIDDEN
 62
3
100
AcDbLine
 10
580.5394977936054
 20
420.1247196509739
 30
0.0000000000000000
 11
575.5394977936054
 21
417.2379683050257
 31
0.0000000000000000
  0
LINE
  5
423
100
AcDbEntity
  8
MAIN0
  6
HIDDEN
 62
3
100
AcDbLine
 10
575.5394977936054
 20
417.2379683050259
 30
0.0000000000000000
 11
575.5394977936054
 21
411.4644656131296
 31
0.0000000000000000
  0
LINE
  5
424
100
AcDbEntity
  8
MAIN0
  6
HIDDEN
 62
3
100
AcDbLine
 10
575.5394977936053
 20
411.4644656131296
 30
0.0000000000000000
 11
580.5394977936053
 21
408.5777142671815
 31
0.0000000000000000
  0
LINE
  5
425
100
AcDbEntity
  8
MAIN0
  6
HIDDEN
 62
3
100
AcDbLine
 10
580.5394977936054
 20
408.5777142671814
 30
0.0000000000000000
 11
585.5394977936053
 21
411.4644656131294
 31
0.0000000000000000
  0
LINE
  5
426
100
AcDbEntity
  8
MAIN0
  6
HIDDEN
 62
3
100
AcDbLine
 10
585.5394977936054
 20
411.4644656131296
 30
0.0000000000000000
 11
585.5394977936054
 21
417.2379683050259
 31
0.0000000000000000
  0
LINE
  5
427
100
AcDbEntity
  8
MAIN0
  6
HIDDEN
 62
3
100
AcDbLine
 10
585.5394977936053
 20
417.2379683050260
 30
0.0000000000000000
 11
580.5394977936053
 21
420.1247196509740
 31
0.0000000000000000
  0
CIRCLE
  5
428
100
AcDbEntity
  8
MAIN0
  6
HIDDEN
 62
3
100
AcDbCircle
 10
580.5394977936054
 20
502.3512169590778
 30
0.0000000000000000
 40
9.000000000000000
  0
LINE
  5
429
100
AcDbEntity
  8
MAIN0
  6
HIDDEN
 62
3
100
AcDbLine
 10
580.5394977936054
 20
508.1247196509739
 30
0.0000000000000000
 11
575.5394977936053
 21
505.2379683050258
 31
0.0000000000000000
  0
LINE
  5
42A
100
AcDbEntity
  8
MAIN0
  6
HIDDEN
 62
3
100
AcDbLine
 10
575.5394977936054
 20
505.2379683050259
 30
0.0000000000000000
 11
575.5394977936054
 21
499.4644656131297
 31
0.0000000000000000
  0
LINE
  5
42B
100
AcDbEntity
  8
MAIN0
  6
HIDDEN
 62
3
100
AcDbLine
 10
575.5394977936053
 20
499.4644656131296
 30
0.0000000000000000
 11
580.5394977936053
 21
496.5777142671815
 31
0.0000000000000000
  0
LINE
  5
42C
100
AcDbEntity
  8
MAIN0
  6
HIDDEN
 62
3
100
AcDbLine
 10
580.5394977936053
 20
496.5777142671814
 30
0.0000000000000000
 11
585.5394977936052
 21
499.4644656131295
 31
0.0000000000000000
  0
LINE
  5
42D
100
AcDbEntity
  8
MAIN0
  6
HIDDEN
 62
3
100
AcDbLine
 10
585.5394977936054
 20
499.4644656131297
 30
0.0000000000000000
 11
585.5394977936054
 21
505.2379683050259
 31
0.0000000000000000
  0
LINE
  5
42E
100
AcDbEntity
  8
MAIN0
  6
HIDDEN
 62
3
100
AcDbLine
 10
585.5394977936053
 20
505.2379683050260
 30
0.0000000000000000
 11
580.5394977936053
 21
508.1247196509740
 31
0.0000000000000000
  0
CIRCLE
  5
42F
100
AcDbEntity
  8
MAIN0
  6
HIDDEN
 62
3
100
AcDbCircle
 10
535.5394977936054
 20
502.3512169590778
 30
0.0000000000000000
 40
9.000000000000000
  0
LINE
  5
430
100
AcDbEntity
  8
MAIN0
  6
HIDDEN
 62
3
100
AcDbLine
 10
535.5394977936055
 20
508.1247196509739
 30
0.0000000000000000
 11
530.5394977936055
 21
505.2379683050258
 31
0.0000000000000000
  0
LINE
  5
431
100
AcDbEntity
  8
MAIN0
  6
HIDDEN
 62
3
100
AcDbLine
 10
530.5394977936054
 20
505.2379683050259
 30
0.0000000000000000
 11
530.5394977936054
 21
499.4644656131296
 31
0.0000000000000000
  0
LINE
  5
432
100
AcDbEntity
  8
MAIN0
  6
HIDDEN
 62
3
100
AcDbLine
 10
530.5394977936054
 20
499.4644656131296
 30
0.0000000000000000
 11
535.5394977936054
 21
496.5777142671815
 31
0.0000000000000000
  0
LINE
  5
433
100
AcDbEntity
  8
MAIN0
  6
HIDDEN
 62
3
100
AcDbLine
 10
535.5394977936055
 20
496.5777142671814
 30
0.0000000000000000
 11
540.5394977936053
 21
499.4644656131294
 31
0.0000000000000000
  0
LINE
  5
434
100
AcDbEntity
  8
MAIN0
  6
HIDDEN
 62
3
100
AcDbLine
 10
540.5394977936054
 20
499.4644656131296
 30
0.0000000000000000
 11
540.5394977936054
 21
505.2379683050259
 31
0.0000000000000000
  0
LINE
  5
435
100
AcDbEntity
  8
MAIN0
  6
HIDDEN
 62
3
100
AcDbLine
 10
540.5394977936052
 20
505.2379683050260
 30
0.0000000000000000
 11
535.5394977936054
 21
508.1247196509740
 31
0.0000000000000000
  0
CIRCLE
  5
436
100
AcDbEntity
  8
MAIN0
  6
HIDDEN
 62
3
100
AcDbCircle
 10
398.0394977936054
 20
440.8512169590778
 30
0.0000000000000000
 40
9.000000000000000
  0
LINE
  5
437
100
AcDbEntity
  8
MAIN0
  6
HIDDEN
 62
3
100
AcDbLine
 10
398.0394977936053
 20
446.6247196509740
 30
0.0000000000000000
 11
393.0394977936053
 21
443.7379683050259
 31
0.0000000000000000
  0
LINE
  5
438
100
AcDbEntity
  8
MAIN0
  6
HIDDEN
 62
3
100
AcDbLine
 10
393.0394977936054
 20
443.7379683050259
 30
0.0000000000000000
 11
393.0394977936054
 21
437.9644656131296
 31
0.0000000000000000
  0
LINE
  5
439
100
AcDbEntity
  8
MAIN0
  6
HIDDEN
 62
3
100
AcDbLine
 10
393.0394977936053
 20
437.9644656131295
 30
0.0000000000000000
 11
398.0394977936054
 21
435.0777142671814
 31
0.0000000000000000
  0
LINE
  5
43A
100
AcDbEntity
  8
MAIN0
  6
HIDDEN
 62
3
100
AcDbLine
 10
398.0394977936053
 20
435.0777142671815
 30
0.0000000000000000
 11
403.0394977936052
 21
437.9644656131296
 31
0.0000000000000000
  0
LINE
  5
43B
100
AcDbEntity
  8
MAIN0
  6
HIDDEN
 62
3
100
AcDbLine
 10
403.0394977936054
 20
437.9644656131296
 30
0.0000000000000000
 11
403.0394977936054
 21
443.7379683050259
 31
0.0000000000000000
  0
LINE
  5
43C
100
AcDbEntity
  8
MAIN0
  6
HIDDEN
 62
3
100
AcDbLine
 10
403.0394977936053
 20
443.7379683050258
 30
0.0000000000000000
 11
398.0394977936053
 21
446.6247196509739
 31
0.0000000000000000
  0
CIRCLE
  5
43D
100
AcDbEntity
  8
MAIN0
  6
HIDDEN
 62
3
100
AcDbCircle
 10
356.0394977936053
 20
440.8512169590778
 30
0.0000000000000000
 40
9.000000000000000
  0
LINE
  5
43E
100
AcDbEntity
  8
MAIN0
  6
HIDDEN
 62
3
100
AcDbLine
 10
356.0394977936053
 20
446.6247196509740
 30
0.0000000000000000
 11
351.0394977936053
 21
443.7379683050259
 31
0.0000000000000000
  0
LINE
  5
43F
100
AcDbEntity
  8
MAIN0
  6
HIDDEN
 62
3
100
AcDbLine
 10
351.0394977936053
 20
443.7379683050259
 30
0.0000000000000000
 11
351.0394977936053
 21
437.9644656131296
 31
0.0000000000000000
  0
LINE
  5
440
100
AcDbEntity
  8
MAIN0
  6
HIDDEN
 62
3
100
AcDbLine
 10
351.0394977936053
 20
437.9644656131295
 30
0.0000000000000000
 11
356.0394977936054
 21
435.0777142671813
 31
0.0000000000000000
  0
LINE
  5
441
100
AcDbEntity
  8
MAIN0
  6
HIDDEN
 62
3
100
AcDbLine
 10
356.0394977936053
 20
435.0777142671815
 30
0.0000000000000000
 11
361.0394977936052
 21
437.9644656131296
 31
0.0000000000000000
  0
LINE
  5
442
100
AcDbEntity
  8
MAIN0
  6
HIDDEN
 62
3
100
AcDbLine
 10
361.0394977936053
 20
437.9644656131296
 30
0.0000000000000000
 11
361.0394977936053
 21
443.7379683050259
 31
0.0000000000000000
  0
LINE
  5
443
100
AcDbEntity
  8
MAIN0
  6
HIDDEN
 62
3
100
AcDbLine
 10
361.0394977936053
 20
443.7379683050258
 30
0.0000000000000000
 11
356.0394977936053
 21
446.6247196509739
 31
0.0000000000000000
  0
CIRCLE
  5
444
100
AcDbEntity
  8
MAIN0
  6
HIDDEN
 62
3
100
AcDbCircle
 10
356.0394977936053
 20
475.8512169590778
 30
0.0000000000000000
 40
9.000000000000000
  0
LINE
  5
445
100
AcDbEntity
  8
MAIN0
  6
HIDDEN
 62
3
100
AcDbLine
 10
356.0394977936054
 20
481.6247196509740
 30
0.0000000000000000
 11
351.0394977936053
 21
478.7379683050259
 31
0.0000000000000000
  0
LINE
  5
446
100
AcDbEntity
  8
MAIN0
  6
HIDDEN
 62
3
100
AcDbLine
 10
351.0394977936053
 20
478.7379683050259
 30
0.0000000000000000
 11
351.0394977936053
 21
472.9644656131296
 31
0.0000000000000000
  0
LINE
  5
447
100
AcDbEntity
  8
MAIN0
  6
HIDDEN
 62
3
100
AcDbLine
 10
351.0394977936054
 20
472.9644656131296
 30
0.0000000000000000
 11
356.0394977936055
 21
470.0777142671814
 31
0.0000000000000000
  0
LINE
  5
448
100
AcDbEntity
  8
MAIN0
  6
HIDDEN
 62
3
100
AcDbLine
 10
356.0394977936053
 20
470.0777142671815
 30
0.0000000000000000
 11
361.0394977936053
 21
472.9644656131296
 31
0.0000000000000000
  0
LINE
  5
449
100
AcDbEntity
  8
MAIN0
  6
HIDDEN
 62
3
100
AcDbLine
 10
361.0394977936053
 20
472.9644656131296
 30
0.0000000000000000
 11
361.0394977936053
 21
478.7379683050259
 31
0.0000000000000000
  0
LINE
  5
44A
100
AcDbEntity
  8
MAIN0
  6
HIDDEN
 62
3
100
AcDbLine
 10
361.0394977936053
 20
478.7379683050258
 30
0.0000000000000000
 11
356.0394977936054
 21
481.6247196509739
 31
0.0000000000000000
  0
CIRCLE
  5
44B
100
AcDbEntity
  8
MAIN0
  6
HIDDEN
 62
3
100
AcDbCircle
 10
398.0394977936054
 20
475.8512169590778
 30
0.0000000000000000
 40
9.000000000000000
  0
LINE
  5
44C
100
AcDbEntity
  8
MAIN0
  6
HIDDEN
 62
3
100
AcDbLine
 10
398.0394977936053
 20
481.6247196509740
 30
0.0000000000000000
 11
393.0394977936053
 21
478.7379683050259
 31
0.0000000000000000
  0
LINE
  5
44D
100
AcDbEntity
  8
MAIN0
  6
HIDDEN
 62
3
100
AcDbLine
 10
393.0394977936054
 20
478.7379683050259
 30
0.0000000000000000
 11
393.0394977936054
 21
472.9644656131296
 31
0.0000000000000000
  0
LINE
  5
44E
100
AcDbEntity
  8
MAIN0
  6
HIDDEN
 62
3
100
AcDbLine
 10
393.0394977936054
 20
472.9644656131296
 30
0.0000000000000000
 11
398.0394977936055
 21
470.0777142671814
 31
0.0000000000000000
  0
LINE
  5
44F
100
AcDbEntity
  8
MAIN0
  6
HIDDEN
 62
3
100
AcDbLine
 10
398.0394977936053
 20
470.0777142671815
 30
0.0000000000000000
 11
403.0394977936052
 21
472.9644656131296
 31
0.0000000000000000
  0
LINE
  5
450
100
AcDbEntity
  8
MAIN0
  6
HIDDEN
 62
3
100
AcDbLine
 10
403.0394977936054
 20
472.9644656131296
 30
0.0000000000000000
 11
403.0394977936054
 21
478.7379683050259
 31
0.0000000000000000
  0
LINE
  5
451
100
AcDbEntity
  8
MAIN0
  6
HIDDEN
 62
3
100
AcDbLine
 10
403.0394977936053
 20
478.7379683050259
 30
0.0000000000000000
 11
398.0394977936054
 21
481.6247196509740
 31
0.0000000000000000
  0
CIRCLE
  5
452
100
AcDbEntity
  8
MAIN0
  6
CONTINUOUS
 62
3
100
AcDbCircle
 10
558.0394977936054
 20
458.3512169590778
 30
0.0000000000000000
 40
5.000000000000000
  0
CIRCLE
  5
453
100
AcDbEntity
  8
MAIN0
  6
CONTINUOUS
 62
3
100
AcDbCircle
 10
377.0394977936054
 20
458.3512169590778
 30
0.0000000000000000
 40
5.000000000000000
  0
CIRCLE
  5
454
100
AcDbEntity
  8
MAIN0
  6
CONTINUOUS
 62
3
100
AcDbCircle
 10
529.0394977936054
 20
483.3512169590778
 30
0.0000000000000000
 40
5.000000000000000
  0
CIRCLE
  5
455
100
AcDbEntity
  8
MAIN0
  6
CONTINUOUS
 62
3
100
AcDbCircle
 10
529.0394977936054
 20
483.3512169590778
 30
0.0000000000000000
 40
4.188101000000000
  0
LINE
  5
456
100
AcDbEntity
  8
MAIN0
  6
CONTINUOUS
 62
3
100
AcDbLine
 10
529.0394977936053
 20
486.2379683050258
 30
0.0000000000000000
 11
526.5394977936053
 21
484.7945926320517
 31
0.0000000000000000
  0
LINE
  5
457
100
AcDbEntity
  8
MAIN0
  6
CONTINUOUS
 62
3
100
AcDbLine
 10
526.5394977936054
 20
484.7945926320518
 30
0.0000000000000000
 11
526.5394977936054
 21
481.9078412861037
 31
0.0000000000000000
  0
LINE
  5
458
100
AcDbEntity
  8
MAIN0
  6
CONTINUOUS
 62
3
100
AcDbLine
 10
526.5394977936053
 20
481.9078412861036
 30
0.0000000000000000
 11
529.0394977936053
 21
480.4644656131296
 31
0.0000000000000000
  0
LINE
  5
459
100
AcDbEntity
  8
MAIN0
  6
CONTINUOUS
 62
3
100
AcDbLine
 10
529.0394977936053
 20
480.4644656131295
 30
0.0000000000000000
 11
531.5394977936053
 21
481.9078412861036
 31
0.0000000000000000
  0
LINE
  5
45A
100
AcDbEntity
  8
MAIN0
  6
CONTINUOUS
 62
3
100
AcDbLine
 10
531.5394977936054
 20
481.9078412861037
 30
0.0000000000000000
 11
531.5394977936054
 21
484.7945926320518
 31
0.0000000000000000
  0
LINE
  5
45B
100
AcDbEntity
  8
MAIN0
  6
CONTINUOUS
 62
3
100
AcDbLine
 10
531.5394977936053
 20
484.7945926320518
 30
0.0000000000000000
 11
529.0394977936053
 21
486.2379683050258
 31
0.0000000000000000
  0
CIRCLE
  5
45C
100
AcDbEntity
  8
MAIN0
  6
CONTINUOUS
 62
3
100
AcDbCircle
 10
404.0394977936054
 20
498.3512169590778
 30
0.0000000000000000
 40
5.000000000000000
  0
CIRCLE
  5
45D
100
AcDbEntity
  8
MAIN0
  6
CONTINUOUS
 62
3
100
AcDbCircle
 10
404.0394977936054
 20
498.3512169590778
 30
0.0000000000000000
 40
4.188101000000000
  0
LINE
  5
45E
100
AcDbEntity
  8
MAIN0
  6
CONTINUOUS
 62
3
100
AcDbLine
 10
404.0394977936053
 20
501.2379683050258
 30
0.0000000000000000
 11
401.5394977936053
 21
499.7945926320517
 31
0.0000000000000000
  0
LINE
  5
45F
100
AcDbEntity
  8
MAIN0
  6
CONTINUOUS
 62
3
100
AcDbLine
 10
401.5394977936054
 20
499.7945926320518
 30
0.0000000000000000
 11
401.5394977936054
 21
496.9078412861037
 31
0.0000000000000000
  0
LINE
  5
460
100
AcDbEntity
  8
MAIN0
  6
CONTINUOUS
 62
3
100
AcDbLine
 10
401.5394977936054
 20
496.9078412861036
 30
0.0000000000000000
 11
404.0394977936054
 21
495.4644656131295
 31
0.0000000000000000
  0
LINE
  5
461
100
AcDbEntity
  8
MAIN0
  6
CONTINUOUS
 62
3
100
AcDbLine
 10
404.0394977936055
 20
495.4644656131297
 30
0.0000000000000000
 11
406.5394977936053
 21
496.9078412861036
 31
0.0000000000000000
  0
LINE
  5
462
100
AcDbEntity
  8
MAIN0
  6
CONTINUOUS
 62
3
100
AcDbLine
 10
406.5394977936054
 20
496.9078412861037
 30
0.0000000000000000
 11
406.5394977936054
 21
499.7945926320518
 31
0.0000000000000000
  0
LINE
  5
463
100
AcDbEntity
  8
MAIN0
  6
CONTINUOUS
 62
3
100
AcDbLine
 10
406.5394977936054
 20
499.7945926320517
 30
0.0000000000000000
 11
404.0394977936054
 21
501.2379683050258
 31
0.0000000000000000
  0
CIRCLE
  5
464
100
AcDbEntity
  8
MAIN0
  6
CONTINUOUS
 62
3
100
AcDbCircle
 10
558.0394977936054
 20
278.8512169590778
 30
0.0000000000000000
 40
5.000000000000000
  0
CIRCLE
  5
465
100
AcDbEntity
  8
MAIN0
  6
CONTINUOUS
 62
3
100
AcDbCircle
 10
558.0394977936054
 20
278.8512169590778
 30
0.0000000000000000
 40
4.250000000000000
  0
CIRCLE
  5
466
100
AcDbEntity
  8
MAIN0
  6
CONTINUOUS
 62
3
100
AcDbCircle
 10
558.0394977936054
 20
298.8512169590778
 30
0.0000000000000000
 40
5.000000000000000
  0
CIRCLE
  5
467
100
AcDbEntity
  8
MAIN0
  6
CONTINUOUS
 62
3
100
AcDbCircle
 10
558.0394977936054
 20
298.8512169590778
 30
0.0000000000000000
 40
4.250000000000000
  0
CIRCLE
  5
468
100
AcDbEntity
  8
MAIN0
  6
CONTINUOUS
 62
3
100
AcDbCircle
 10
558.0394977936054
 20
617.8512169590778
 30
0.0000000000000000
 40
5.000000000000000
  0
CIRCLE
  5
469
100
AcDbEntity
  8
MAIN0
  6
CONTINUOUS
 62
3
100
AcDbCircle
 10
558.0394977936054
 20
617.8512169590778
 30
0.0000000000000000
 40
4.250000000000000
  0
CIRCLE
  5
46A
100
AcDbEntity
  8
MAIN0
  6
CONTINUOUS
 62
3
100
AcDbCircle
 10
558.0394977936055
 20
637.8512169590778
 30
0.0000000000000000
 40
5.000000000000000
  0
CIRCLE
  5
46B
100
AcDbEntity
  8
MAIN0
  6
CONTINUOUS
 62
3
100
AcDbCircle
 10
558.0394977936055
 20
637.8512169590778
 30
0.0000000000000000
 40
4.250000000000000
  0
POINT
  5
46C
100
AcDbEntity
  8
MAIN0
  6
CONTINUOUS
 62
3
100
AcDbPoint
 10
535.5394977936054
 20
268.8512169590778
 30
0.0000000000000000
  0
POINT
  5
46D
100
AcDbEntity
  8
MAIN0
  6
CONTINUOUS
 62
3
100
AcDbPoint
 10
535.5394977936054
 20
286.3512169590778
 30
0.0000000000000000
  0
LINE
  5
46E
100
AcDbEntity
  8
MAIN0
  6
HIDDEN
 62
3
100
AcDbLine
 10
525.4394977936054
 20
268.8512169590778
 30
0.0000000000000000
 11
526.0394977936055
 21
269.4512169590779
 31
0.0000000000000000
  0
LINE
  5
46F
100
AcDbEntity
  8
MAIN0
  6
HIDDEN
 62
3
100
AcDbLine
 10
526.0394977936054
 20
269.4512169590778
 30
0.0000000000000000
 11
526.0394977936054
 21
286.3512169590778
 31
0.0000000000000000
  0
LINE
  5
470
100
AcDbEntity
  8
MAIN0
  6
HIDDEN
 62
3
100
AcDbLine
 10
526.0394977936054
 20
286.3512169590778
 30
0.0000000000000000
 11
545.0394977936054
 21
286.3512169590778
 31
0.0000000000000000
  0
LINE
  5
471
100
AcDbEntity
  8
MAIN0
  6
HIDDEN
 62
3
100
AcDbLine
 10
545.0394977936054
 20
286.3512169590778
 30
0.0000000000000000
 11
545.0394977936054
 21
269.4512169590778
 31
0.0000000000000000
  0
LINE
  5
472
100
AcDbEntity
  8
MAIN0
  6
HIDDEN
 62
3
100
AcDbLine
 10
545.0394977936054
 20
269.4512169590778
 30
0.0000000000000000
 11
545.6394977936054
 21
268.8512169590778
 31
0.0000000000000000
  0
LINE
  5
473
100
AcDbEntity
  8
MAIN0
  6
HIDDEN
 62
3
100
AcDbLine
 10
529.0394977936054
 20
286.3512169590778
 30
0.0000000000000000
 11
529.0394977936054
 21
307.2512169590778
 31
0.0000000000000000
  0
LINE
  5
474
100
AcDbEntity
  8
MAIN0
  6
HIDDEN
 62
3
100
AcDbLine
 10
529.0394977936055
 20
307.2512169590778
 30
0.0000000000000000
 11
528.4394977936055
 21
307.8512169590778
 31
0.0000000000000000
  0
LINE
  5
475
100
AcDbEntity
  8
MAIN0
  6
HIDDEN
 62
3
100
AcDbLine
 10
542.0394977936054
 20
286.3512169590778
 30
0.0000000000000000
 11
542.0394977936054
 21
307.2512169590778
 31
0.0000000000000000
  0
LINE
  5
476
100
AcDbEntity
  8
MAIN0
  6
HIDDEN
 62
3
100
AcDbLine
 10
542.0394977936055
 20
307.2512169590779
 30
0.0000000000000000
 11
542.6394977936055
 21
307.8512169590778
 31
0.0000000000000000
  0
LINE
  5
477
100
AcDbEntity
  8
MAIN0
  6
HIDDEN
 62
3
100
AcDbLine
 10
526.5394977936054
 20
286.3512169590778
 30
0.0000000000000000
 11
526.5394977936054
 21
275.5512169590778
 31
0.0000000000000000
  0
LINE
  5
478
100
AcDbEntity
  8
MAIN0
  6
HIDDEN
 62
3
100
AcDbLine
 10
526.5394977936055
 20
275.5512169590778
 30
0.0000000000000000
 11
528.6179587626882
 21
274.3512169590778
 31
0.0000000000000000
  0
LINE
  5
479
100
AcDbEntity
  8
MAIN0
  6
HIDDEN
 62
3
100
AcDbLine
 10
528.6179587626881
 20
274.3512169590778
 30
0.0000000000000000
 11
542.4610368245227
 21
274.3512169590778
 31
0.0000000000000000
  0
LINE
  5
47A
100
AcDbEntity
  8
MAIN0
  6
HIDDEN
 62
3
100
AcDbLine
 10
542.4610368245228
 20
274.3512169590777
 30
0.0000000000000000
 11
544.5394977936055
 21
275.5512169590778
 31
0.0000000000000000
  0
LINE
  5
47B
100
AcDbEntity
  8
MAIN0
  6
HIDDEN
 62
3
100
AcDbLine
 10
544.5394977936054
 20
275.5512169590778
 30
0.0000000000000000
 11
544.5394977936054
 21
286.3512169590778
 31
0.0000000000000000
  0
LINE
  5
47C
100
AcDbEntity
  8
MAIN0
  6
HIDDEN
 62
3
100
AcDbLine
 10
526.5394977936054
 20
275.5512169590778
 30
0.0000000000000000
 11
544.5394977936054
 21
275.5512169590778
 31
0.0000000000000000
  0
LINE
  5
47D
100
AcDbEntity
  8
MAIN0
  6
HIDDEN
 62
3
100
AcDbLine
 10
529.5394977936054
 20
286.3512169590778
 30
0.0000000000000000
 11
529.5394977936054
 21
326.3512169590778
 31
0.0000000000000000
  0
LINE
  5
47E
100
AcDbEntity
  8
MAIN0
  6
HIDDEN
 62
3
100
AcDbLine
 10
529.5394977936054
 20
326.3512169590778
 30
0.0000000000000000
 11
541.5394977936054
 21
326.3512169590778
 31
0.0000000000000000
  0
LINE
  5
47F
100
AcDbEntity
  8
MAIN0
  6
HIDDEN
 62
3
100
AcDbLine
 10
541.5394977936054
 20
326.3512169590778
 30
0.0000000000000000
 11
541.5394977936054
 21
286.3512169590778
 31
0.0000000000000000
  0
LINE
  5
480
100
AcDbEntity
  8
MAIN0
  6
HIDDEN
 62
3
100
AcDbLine
 10
530.4867132936054
 20
286.3512169590778
 30
0.0000000000000000
 11
530.4867132936054
 21
326.3512169590778
 31
0.0000000000000000
  0
LINE
  5
481
100
AcDbEntity
  8
MAIN0
  6
HIDDEN
 62
3
100
AcDbLine
 10
540.5922822936054
 20
286.3512169590778
 30
0.0000000000000000
 11
540.5922822936054
 21
326.3512169590778
 31
0.0000000000000000
  0
LINE
  5
482
100
AcDbEntity
  8
MAIN0
  6
CONTINUOUS
 62
3
100
AcDbLine
 10
233.7058318939996
 20
716.6614647915632
 30
0.0000000000000000
 11
223.5234942449133
 21
726.8438024406495
 31
0.0000000000000000
  0
LINE
  5
483
100
AcDbEntity
  8
MAIN0
  6
CONTINUOUS
 62
3
100
AcDbLine
 10
223.5234942449132
 20
726.8438024406494
 30
0.0000000000000000
 11
220.4325316007881
 21
726.0155814963214
 31
0.0000000000000000
  0
LINE
  5
484
100
AcDbEntity
  8
MAIN0
  6
CONTINUOUS
 62
3
100
AcDbLine
 10
220.4325316007883
 20
726.0155814963214
 30
0.0000000000000000
 11
207.3811524407643
 21
712.9642023362974
 31
0.0000000000000000
  0
LINE
  5
485
100
AcDbEntity
  8
MAIN0
  6
CONTINUOUS
 62
3
100
AcDbLine
 10
207.3811524407643
 20
712.9642023362974
 30
0.0000000000000000
 11
206.5529314964363
 21
709.8732396921723
 31
0.0000000000000000
  0
LINE
  5
486
100
AcDbEntity
  8
MAIN0
  6
CONTINUOUS
 62
3
100
AcDbLine
 10
206.5529314964362
 20
709.8732396921723
 30
0.0000000000000000
 11
216.7352691455225
 21
699.6909020430861
 31
0.0000000000000000
  0
LINE
  5
487
100
AcDbEntity
  8
MAIN0
  6
CONTINUOUS
 62
3
100
AcDbLine
 10
223.5234942449133
 20
726.8438024406495
 30
0.0000000000000000
 11
206.5529314964362
 21
709.8732396921723
 31
0.0000000000000000
  0
LINE
  5
488
100
AcDbEntity
  8
MAIN0
  6
CONTINUOUS
 62
3
100
AcDbLine
 10
251.3835014236632
 20
693.3269410124073
 30
0.0000000000000000
 11
273.3038116404463
 21
671.4066307956242
 31
0.0000000000000000
  0
LINE
  5
489
100
AcDbEntity
  8
MAIN0
  6
CONTINUOUS
 62
3
100
AcDbLine
 10
273.3038116404463
 20
671.4066307956242
 30
0.0000000000000000
 11
261.9901031414615
 21
660.0929222966394
 31
0.0000000000000000
  0
LINE
  5
48A
100
AcDbEntity
  8
MAIN0
  6
CONTINUOUS
 62
3
100
AcDbLine
 10
261.9901031414615
 20
660.0929222966394
 30
0.0000000000000000
 11
240.0697929246785
 21
682.0132325134224
 31
0.0000000000000000
  0
LINE
  5
48B
100
AcDbEntity
  8
MAIN0
  6
CONTINUOUS
 62
3
100
AcDbLine
 10
250.6180357056118
 20
692.5614752943557
 30
0.0000000000000000
 11
272.5383459223947
 21
670.6411650775726
 31
0.0000000000000000
  0
LINE
  5
48C
100
AcDbEntity
  8
MAIN0
  6
CONTINUOUS
 62
3
100
AcDbLine
 10
240.8352586427299
 20
682.7786982314738
 30
0.0000000000000000
 11
262.7555688595129
 21
660.8583880146907
 31
0.0000000000000000
  0
LINE
  5
48D
100
AcDbEntity
  8
MAIN0
  6
CONTINUOUS
 62
3
100
AcDbLine
 10
307.6825726118433
 20
841.7157813150287
 30
0.0000000000000000
 11
307.6825726118468
 21
795.9157823165455
 31
0.0000000000000000
  0
LINE
  5
48E
100
AcDbEntity
  8
MAIN0
  6
CONTINUOUS
 62
3
100
AcDbLine
 10
307.6825726118433
 20
841.7157813150290
 30
0.0000000000000000
 11
360.8825724211278
 21
841.7157813150761
 31
0.0000000000000000
  0
MTEXT
  5
48F
100
AcDbEntity
  8
MAIN0
  6
CONTINUOUS
 62
3
100
AcDbMText
 10
314.4325721350160
 20
840.7157813152138
 30
0.0000000000000000
 40
3.099999904632568
 41
0.0000000000000000
 44
0.7741935722041460
 71
     1
 72
     1
  1
{\H0.71x;{仕様　　SPECIFICATIONS}}
 11
1.000000000000000
 21
0.0000000000000000
 31
0.0000000000000000
  7
KNJYOKO
  0
MTEXT
  5
490
100
AcDbEntity
  8
MAIN0
  6
CONTINUOUS
 62
3
100
AcDbMText
 10
308.1825726118501
 20
832.0157815058319
 30
0.0000000000000000
 40
3.099999904632568
 41
0.0000000000000000
 44
0.7741935722041460
 71
     1
 72
     1
  1
{\H0.71x;{CLAMPING RANGE}}
 11
1.000000000000000
 21
0.0000000000000000
 31
0.0000000000000000
  7
STANDARD
  0
MTEXT
  5
491
100
AcDbEntity
  8
MAIN0
  6
CONTINUOUS
 62
3
100
AcDbMText
 10
308.1825726118501
 20
836.1157814104645
 30
0.0000000000000000
 40
3.099999904632568
 41
0.0000000000000000
 44
0.7741935722041460
 71
     1
 72
     1
  1
{\H0.70x;{口金の開き}}
 11
1.000000000000000
 21
0.0000000000000000
 31
0.0000000000000000
  7
KNJYOKO
  0
MTEXT
  5
492
100
AcDbEntity
  8
MAIN0
  6
CONTINUOUS
 62
3
100
AcDbMText
 10
308.1825726118501
 20
827.9157816011993
 30
0.0000000000000000
 40
3.099999904632568
 41
0.0000000000000000
 44
0.7741935722041460
 71
     1
 72
     1
  1
{\H0.70x;{締付トルク}}
 11
1.000000000000000
 21
0.0000000000000000
 31
0.0000000000000000
  7
KNJYOKO
  0
LINE
  5
493
100
AcDbEntity
  8
MAIN0
  6
CONTINUOUS
 62
3
100
AcDbLine
 10
360.8825724211276
 20
820.2157817920627
 30
0.0000000000000000
 11
307.6825726118450
 21
820.2157817920390
 31
0.0000000000000000
  0
MTEXT
  5
494
100
AcDbEntity
  8
MAIN0
  6
CONTINUOUS
 62
3
100
AcDbMText
 10
308.1825726118501
 20
823.8157816965668
 30
0.0000000000000000
 40
3.099999904632568
 41
0.0000000000000000
 44
0.7741935722041460
 71
     1
 72
     1
  1
{\H0.71x;{TIGHTENING TORQUE}}
 11
1.000000000000000
 21
0.0000000000000000
 31
0.0000000000000000
  7
STANDARD
  0
MTEXT
  5
495
100
AcDbEntity
  8
MAIN0
  6
CONTINUOUS
 62
3
100
AcDbMText
 10
308.1825726118501
 20
815.6157818874601
 30
0.0000000000000000
 40
3.099999904632568
 41
0.0000000000000000
 44
0.7741935722041460
 71
     1
 72
     1
  1
{\H0.70x;{締付けレンジ}}
 11
1.000000000000000
 21
0.0000000000000000
 31
0.0000000000000000
  7
KNJYOKO
  0
MTEXT
  5
496
100
AcDbEntity
  8
MAIN0
  6
CONTINUOUS
 62
3
100
AcDbMText
 10
308.1825726118501
 20
811.5157819828276
 30
0.0000000000000000
 40
3.099999904632568
 41
0.0000000000000000
 44
0.7741935722041460
 71
     1
 72
     1
  1
{\H0.71x;{CLAMP RANGE}}
 11
1.000000000000000
 21
0.0000000000000000
 31
0.0000000000000000
  7
STANDARD
  0
LINE
  5
497
100
AcDbEntity
  8
MAIN0
  6
CONTINUOUS
 62
3
100
AcDbLine
 10
360.8825724211278
 20
803.8157821736910
 30
0.0000000000000000
 11
307.6825726118459
 21
803.8157821736673
 31
0.0000000000000000
  0
MTEXT
  5
498
100
AcDbEntity
  8
MAIN0
  6
CONTINUOUS
 62
3
100
AcDbMText
 10
308.1825726118501
 20
803.3157821735624
 30
0.0000000000000000
 40
3.099999904632568
 41
0.0000000000000000
 44
0.7741935722041460
 71
     1
 72
     1
  1
{\H0.70x;{製品質量}}
 11
1.000000000000000
 21
0.0000000000000000
 31
0.0000000000000000
  7
KNJYOKO
  0
LINE
  5
499
100
AcDbEntity
  8
MAIN0
  6
CONTINUOUS
 62
3
100
AcDbLine
 10
360.8825724211278
 20
795.9157823165925
 30
0.0000000000000000
 11
307.6825726118466
 21
795.9157823165454
 31
0.0000000000000000
  0
MTEXT
  5
49A
100
AcDbEntity
  8
MAIN0
  6
CONTINUOUS
 62
3
100
AcDbMText
 10
308.1825726118501
 20
799.2157822689298
 30
0.0000000000000000
 40
2.799999952316284
 41
0.0000000000000000
 44
0.7500000127724241
 71
     1
 72
     1
  1
{\H0.67x;{MASS OF POWER VISE}}
 11
1.000000000000000
 21
0.0000000000000000
 31
0.0000000000000000
  7
STANDARD
  0
MTEXT
  5
49B
100
AcDbEntity
  8
MAIN0
  6
CONTINUOUS
 62
3
100
AcDbMText
 10
347.4340974985141
 20
801.2657822212422
 30
0.0000000000000000
 40
3.099999904632568
 41
0.0000000000000000
 44
0.7741935722041460
 71
     1
 72
     1
  1
{\H0.70x;{150kg}}
 11
1.000000000000000
 21
0.0000000000000000
 31
0.0000000000000000
  7
STANDARD
  0
LINE
  5
49C
100
AcDbEntity
  8
MAIN0
  6
CONTINUOUS
 62
3
100
AcDbLine
 10
342.7825720396446
 20
820.2157817920538
 30
0.0000000000000000
 11
342.7825720396446
 21
795.9157823165765
 31
0.0000000000000000
  0
LINE
  5
49D
100
AcDbEntity
  8
MAIN0
  6
CONTINUOUS
 62
3
100
AcDbLine
 10
342.7825720396447
 20
807.9157820783148
 30
0.0000000000000000
 11
360.8825724211277
 21
807.9157820783229
 31
0.0000000000000000
  0
MTEXT
  5
49E
100
AcDbEntity
  8
MAIN0
  6
CONTINUOUS
 62
3
100
AcDbMText
 10
345.2825722303803
 20
811.5157819828276
 30
0.0000000000000000
 40
3.099999904632568
 41
0.0000000000000000
 44
0.7741935722041460
 71
     1
 72
     1
  1
{\H0.67x;{2}}
 11
1.000000000000000
 21
0.0000000000000000
 31
0.0000000000000000
  7
STANDARD
  0
LINE
  5
49F
100
AcDbEntity
  8
MAIN0
  6
CONTINUOUS
 62
3
100
AcDbLine
 10
349.6420899875973
 20
820.2157817920569
 30
0.0000000000000000
 11
349.6420899875973
 21
803.8157821736860
 31
0.0000000000000000
  0
MTEXT
  5
4A0
100
AcDbEntity
  8
MAIN0
  6
CONTINUOUS
 62
3
100
AcDbMText
 10
345.2825722303803
 20
807.4157820781950
 30
0.0000000000000000
 40
3.099999904632568
 41
0.0000000000000000
 44
0.7741935722041460
 71
     1
 72
     1
  1
{\H0.67x;{3}}
 11
1.000000000000000
 21
0.0000000000000000
 31
0.0000000000000000
  7
STANDARD
  0
LINE
  5
4A1
100
AcDbEntity
  8
MAIN0
  6
CONTINUOUS
 62
3
100
AcDbLine
 10
342.7825720396446
 20
812.0157819827887
 30
0.0000000000000000
 11
360.8825724211278
 21
812.0157819828047
 31
0.0000000000000000
  0
MTEXT
  5
4A2
100
AcDbEntity
  8
MAIN0
  6
CONTINUOUS
 62
3
100
AcDbMText
 10
345.2825722303803
 20
815.6157818874601
 30
0.0000000000000000
 40
3.099999904632568
 41
0.0000000000000000
 44
0.7741935722041460
 71
     1
 72
     1
  1
{\H0.67x;{1}}
 11
1.000000000000000
 21
0.0000000000000000
 31
0.0000000000000000
  7
STANDARD
  0
MTEXT
  5
4A3
100
AcDbEntity
  8
MAIN0
  6
CONTINUOUS
 62
3
100
AcDbMText
 10
351.1709936884455
 20
815.6157818874598
 30
0.0000000000000000
 40
3.099999904632568
 41
0.0000000000000000
 44
0.7741935722041460
 71
     1
 72
     1
  1
{\H0.70x;{16KN}}
 11
1.000000000000000
 21
0.0000000000000000
 31
0.0000000000000000
  7
STANDARD
  0
MTEXT
  5
4A4
100
AcDbEntity
  8
MAIN0
  6
CONTINUOUS
 62
3
100
AcDbMText
 10
351.1709936884455
 20
811.5157819828272
 30
0.0000000000000000
 40
3.099999904632568
 41
0.0000000000000000
 44
0.7741935722041460
 71
     1
 72
     1
  1
{\H0.70x;{28KN}}
 11
1.000000000000000
 21
0.0000000000000000
 31
0.0000000000000000
  7
STANDARD
  0
MTEXT
  5
4A5
100
AcDbEntity
  8
MAIN0
  6
CONTINUOUS
 62
3
100
AcDbMText
 10
351.1709936884455
 20
807.4157820781946
 30
0.0000000000000000
 40
3.099999904632568
 41
0.0000000000000000
 44
0.7741935722041460
 71
     1
 72
     1
  1
{\H0.70x;{40KN}}
 11
1.000000000000000
 21
0.0000000000000000
 31
0.0000000000000000
  7
STANDARD
  0
LINE
  5
4A6
100
AcDbEntity
  8
MAIN0
  6
CONTINUOUS
 62
3
100
AcDbLine
 10
360.8825724211278
 20
841.7157813150760
 30
0.0000000000000000
 11
360.8825724211278
 21
795.9157823165926
 31
0.0000000000000000
  0
MTEXT
  5
4A7
100
AcDbEntity
  8
MAIN0
  6
CONTINUOUS
 62
3
100
AcDbMText
 10
343.2825720396455
 20
834.0657814581482
 30
0.0000000000000000
 40
3.099999904632568
 41
0.0000000000000000
 44
0.7741935722041460
 71
     1
 72
     1
  1
{\H0.70x;{０～１６８mm}}
 11
1.000000000000000
 21
0.0000000000000000
 31
0.0000000000000000
  7
KNJYOKO
  0
LINE
  5
4A8
100
AcDbEntity
  8
MAIN0
  6
CONTINUOUS
 62
3
100
AcDbLine
 10
307.6825726118443
 20
828.4157816011310
 30
0.0000000000000000
 11
360.8825724211276
 21
828.4157816011783
 31
0.0000000000000000
  0
LINE
  5
4A9
100
AcDbEntity
  8
MAIN0
  6
CONTINUOUS
 62
3
100
AcDbLine
 10
307.6825726118437
 20
836.6157814105693
 30
0.0000000000000000
 11
360.8825724211278
 21
836.6157814105929
 31
0.0000000000000000
  0
LINE
  5
4AA
100
AcDbEntity
  8
MAIN0
  6
CONTINUOUS
 62
3
100
AcDbLine
 10
342.7825720396446
 20
836.6157814105841
 30
0.0000000000000000
 11
342.7825720396446
 21
828.4157816011604
 31
0.0000000000000000
  0
LINE
  5
4AB
100
AcDbEntity
  8
MAIN0
  6
CONTINUOUS
 62
3
100
AcDbLine
 10
342.7825720396446
 20
816.1157818872628
 30
0.0000000000000000
 11
360.8825724211278
 21
816.1157818872788
 31
0.0000000000000000
  0
LINE
  5
4AC
100
AcDbEntity
  8
MAIN0
  6
CONTINUOUS
 62
3
100
AcDbLine
 10
86.66375094794493
 20
219.2672345774544
 30
0.0000000000000000
 11
76.48141329885867
 21
229.4495722265407
 31
0.0000000000000000
  0
LINE
  5
4AD
100
AcDbEntity
  8
MAIN0
  6
CONTINUOUS
 62
3
100
AcDbLine
 10
76.48141329885876
 20
229.4495722265405
 30
0.0000000000000000
 11
73.39045065473368
 21
228.6213512822125
 31
0.0000000000000000
  0
LINE
  5
4AE
100
AcDbEntity
  8
MAIN0
  6
CONTINUOUS
 62
3
100
AcDbLine
 10
73.39045065473360
 20
228.6213512822126
 30
0.0000000000000000
 11
60.33907149470960
 21
215.5699721221886
 31
0.0000000000000000
  0
LINE
  5
4AF
100
AcDbEntity
  8
MAIN0
  6
CONTINUOUS
 62
3
100
AcDbLine
 10
60.33907149470958
 20
215.5699721221886
 30
0.0000000000000000
 11
59.51085055038151
 21
212.4790094780635
 31
0.0000000000000000
  0
LINE
  5
4B0
100
AcDbEntity
  8
MAIN0
  6
CONTINUOUS
 62
3
100
AcDbLine
 10
59.51085055038153
 20
212.4790094780635
 30
0.0000000000000000
 11
69.69318819946780
 21
202.2966718289773
 31
0.0000000000000000
  0
LINE
  5
4B1
100
AcDbEntity
  8
MAIN0
  6
CONTINUOUS
 62
3
100
AcDbLine
 10
76.48141329885867
 20
229.4495722265406
 30
0.0000000000000000
 11
59.51085055038151
 21
212.4790094780635
 31
0.0000000000000000
  0
LINE
  5
4B2
100
AcDbEntity
  8
MAIN0
  6
CONTINUOUS
 62
3
100
AcDbLine
 10
99.39167300930271
 20
200.8824582666042
 30
0.0000000000000000
 11
133.3327985062570
 21
166.9413327696499
 31
0.0000000000000000
  0
LINE
  5
4B3
100
AcDbEntity
  8
MAIN0
  6
CONTINUOUS
 62
3
100
AcDbLine
 10
133.3327985062570
 20
166.9413327696498
 30
0.0000000000000000
 11
122.0190900072722
 21
155.6276242706651
 31
0.0000000000000000
  0
LINE
  5
4B4
100
AcDbEntity
  8
MAIN0
  6
CONTINUOUS
 62
3
100
AcDbLine
 10
122.0190900072724
 20
155.6276242706651
 30
0.0000000000000000
 11
88.07796451031807
 21
189.5687497676194
 31
0.0000000000000000
  0
LINE
  5
4B5
100
AcDbEntity
  8
MAIN0
  6
CONTINUOUS
 62
3
100
AcDbLine
 10
98.62620729125139
 20
200.1169925485527
 30
0.0000000000000000
 11
132.5673327882057
 21
166.1758670515984
 31
0.0000000000000000
  0
LINE
  5
4B6
100
AcDbEntity
  8
MAIN0
  6
CONTINUOUS
 62
3
100
AcDbLine
 10
88.84343022836950
 20
190.3342154856710
 30
0.0000000000000000
 11
122.7845557253239
 21
156.3930899887166
 31
0.0000000000000000
  0
CIRCLE
  5
4B7
100
AcDbEntity
  8
MAIN0
  6
CONTINUOUS
 62
3
100
AcDbCircle
 10
-123.3907941821556
 20
504.3512169590791
 30
0.0000000000000000
 40
8.000000000000000
  0
LINE
  5
4B8
100
AcDbEntity
  8
MAIN0
  6
CONTINUOUS
 62
3
100
AcDbLine
 10
-123.3907941821556
 20
508.9700191125962
 30
0.0000000000000000
 11
-127.3907941821556
 21
506.6606180358376
 31
0.0000000000000000
  0
LINE
  5
4B9
100
AcDbEntity
  8
MAIN0
  6
CONTINUOUS
 62
3
100
AcDbLine
 10
-127.3907941821556
 20
506.6606180358376
 30
0.0000000000000000
 11
-127.3907941821556
 21
502.0418158823206
 31
0.0000000000000000
  0
LINE
  5
4BA
100
AcDbEntity
  8
MAIN0
  6
CONTINUOUS
 62
3
100
AcDbLine
 10
-127.3907941821556
 20
502.0418158823206
 30
0.0000000000000000
 11
-123.3907941821556
 21
499.7324148055621
 31
0.0000000000000000
  0
LINE
  5
4BB
100
AcDbEntity
  8
MAIN0
  6
CONTINUOUS
 62
3
100
AcDbLine
 10
-123.3907941821556
 20
499.7324148055621
 30
0.0000000000000000
 11
-119.3907941821556
 21
502.0418158823206
 31
0.0000000000000000
  0
LINE
  5
4BC
100
AcDbEntity
  8
MAIN0
  6
CONTINUOUS
 62
3
100
AcDbLine
 10
-119.3907941821556
 20
502.0418158823206
 30
0.0000000000000000
 11
-119.3907941821556
 21
506.6606180358376
 31
0.0000000000000000
  0
LINE
  5
4BD
100
AcDbEntity
  8
MAIN0
  6
CONTINUOUS
 62
3
100
AcDbLine
 10
-119.3907941821556
 20
506.6606180358376
 30
0.0000000000000000
 11
-123.3907941821556
 21
508.9700191125961
 31
0.0000000000000000
  0
LINE
  5
4BE
100
AcDbEntity
  8
MAIN0
  6
CONTINUOUS
 62
3
100
AcDbLine
 10
259.0394977936064
 20
402.3512169590778
 30
0.0000000000000000
 11
279.0394977936053
 21
402.3512169590777
 31
0.0000000000000000
  0
LINE
  5
4BF
100
AcDbEntity
  8
MAIN0
  6
CONTINUOUS
 62
3
100
AcDbLine
 10
259.0394977936064
 20
412.8512169590778
 30
0.0000000000000000
 11
279.0394977936051
 21
412.8512169590777
 31
0.0000000000000000
  0
LINE
  5
4C0
100
AcDbEntity
  8
MAIN0
  6
CONTINUOUS
 62
3
100
AcDbLine
 10
240.0394977936038
 20
420.3512169590777
 30
0.0000000000000000
 11
259.0394977936064
 21
420.3512169590777
 31
0.0000000000000000
  0
LINE
  5
4C1
100
AcDbEntity
  8
MAIN0
  6
CONTINUOUS
 62
3
100
AcDbLine
 10
240.0394977936040
 20
436.8512169590778
 30
0.0000000000000000
 11
259.0394977936062
 21
436.8512169590778
 31
0.0000000000000000
  0
LINE
  5
4C2
100
AcDbEntity
  8
MAIN0
  6
CONTINUOUS
 62
3
100
AcDbLine
 10
240.0394977936038
 20
420.3512169590778
 30
0.0000000000000000
 11
240.0394977936047
 21
496.3512169590780
 31
0.0000000000000000
  0
LINE
  5
4C3
100
AcDbEntity
  8
MAIN0
  6
CONTINUOUS
 62
3
100
AcDbLine
 10
240.0394977936040
 20
421.3512169568791
 30
0.0000000000000000
 11
215.0394977936044
 21
421.3512169568792
 31
0.0000000000000000
  0
LINE
  5
4C4
100
AcDbEntity
  8
MAIN0
  6
CONTINUOUS
 62
3
100
AcDbLine
 10
215.0394977936045
 20
495.3512169606045
 30
0.0000000000000000
 11
215.0394977936044
 21
421.3512169568792
 31
0.0000000000000000
  0
LINE
  5
4C5
100
AcDbEntity
  8
MAIN0
  6
CONTINUOUS
 62
3
100
AcDbLine
 10
240.0394977936049
 20
495.3512169606044
 30
0.0000000000000000
 11
215.0394977936045
 21
495.3512169606045
 31
0.0000000000000000
  0
LINE
  5
4C6
100
AcDbEntity
  8
MAIN0
  6
CONTINUOUS
 62
3
100
AcDbLine
 10
240.0394977936047
 20
496.3512169590778
 30
0.0000000000000000
 11
259.0394977936061
 21
496.3512169590778
 31
0.0000000000000000
  0
LINE
  5
4C7
100
AcDbEntity
  8
MAIN0
  6
CONTINUOUS
 62
3
100
AcDbLine
 10
240.0394977936043
 20
479.8512169590778
 30
0.0000000000000000
 11
259.0394977936062
 21
479.8512169590778
 31
0.0000000000000000
  0
LINE
  5
4C8
100
AcDbEntity
  8
MAIN0
  6
CONTINUOUS
 62
3
100
AcDbLine
 10
259.0394977936062
 20
503.8512169590778
 30
0.0000000000000000
 11
279.0394977936059
 21
503.8512169590777
 31
0.0000000000000000
  0
LINE
  5
4C9
100
AcDbEntity
  8
MAIN0
  6
CONTINUOUS
 62
3
100
AcDbLine
 10
259.0394977936062
 20
514.3512169590780
 30
0.0000000000000000
 11
279.0394977936062
 21
514.3512169590778
 31
0.0000000000000000
  0
LINE
  5
4CA
100
AcDbEntity
  8
MAIN0
  6
CONTINUOUS
 62
3
100
AcDbLine
 10
192.5394977936046
 20
479.3512169590779
 30
0.0000000000000000
 11
215.0394977936043
 21
479.3512169590778
 31
0.0000000000000000
  0
LINE
  5
4CB
100
AcDbEntity
  8
MAIN0
  6
CONTINUOUS
 62
3
100
AcDbLine
 10
192.5394977936046
 20
479.3512169590779
 30
0.0000000000000000
 11
192.5394977936045
 21
437.3512169590779
 31
0.0000000000000000
  0
LINE
  5
4CC
100
AcDbEntity
  8
MAIN0
  6
CONTINUOUS
 62
3
100
AcDbLine
 10
192.5394977936044
 20
437.3512169590780
 30
0.0000000000000000
 11
215.0394977936045
 21
437.3512169590778
 31
0.0000000000000000
  0
LINE
  5
4CD
100
AcDbEntity
  8
MAIN0
  6
CONTINUOUS
 62
3
100
AcDbLine
 10
259.0394977936061
 20
514.3512169590779
 30
0.0000000000000000
 11
259.0394977936062
 21
479.8512169590778
 31
0.0000000000000000
  0
LINE
  5
4CE
100
AcDbEntity
  8
MAIN0
  6
CONTINUOUS
 62
3
100
AcDbLine
 10
259.0394977936063
 20
436.8512169590778
 30
0.0000000000000000
 11
259.0394977936064
 21
402.3512169590778
 31
0.0000000000000000
  0
CIRCLE
  5
4CF
100
AcDbEntity
  8
MAIN0
  6
HIDDEN
 62
3
100
AcDbCircle
 10
535.5394977936054
 20
414.3512169590778
 30
0.0000000000000000
 40
9.000000000000000
  0
LINE
  5
4D0
100
AcDbEntity
  8
MAIN0
  6
HIDDEN
 62
3
100
AcDbLine
 10
535.5394977936052
 20
420.1247196509739
 30
0.0000000000000000
 11
530.5394977936052
 21
417.2379683050257
 31
0.0000000000000000
  0
LINE
  5
4D1
100
AcDbEntity
  8
MAIN0
  6
HIDDEN
 62
3
100
AcDbLine
 10
530.5394977936054
 20
417.2379683050259
 30
0.0000000000000000
 11
530.5394977936054
 21
411.4644656131296
 31
0.0000000000000000
  0
LINE
  5
4D2
100
AcDbEntity
  8
MAIN0
  6
HIDDEN
 62
3
100
AcDbLine
 10
530.5394977936053
 20
411.4644656131296
 30
0.0000000000000000
 11
535.5394977936053
 21
408.5777142671815
 31
0.0000000000000000
  0
LINE
  5
4D3
100
AcDbEntity
  8
MAIN0
  6
HIDDEN
 62
3
100
AcDbLine
 10
535.5394977936052
 20
408.5777142671814
 30
0.0000000000000000
 11
540.5394977936052
 21
411.4644656131295
 31
0.0000000000000000
  0
LINE
  5
4D4
100
AcDbEntity
  8
MAIN0
  6
HIDDEN
 62
3
100
AcDbLine
 10
540.5394977936054
 20
411.4644656131296
 30
0.0000000000000000
 11
540.5394977936054
 21
417.2379683050259
 31
0.0000000000000000
  0
LINE
  5
4D5
100
AcDbEntity
  8
MAIN0
  6
HIDDEN
 62
3
100
AcDbLine
 10
540.5394977936052
 20
417.2379683050258
 30
0.0000000000000000
 11
535.5394977936053
 21
420.1247196509739
 31
0.0000000000000000
  0
LINE
  5
4D6
100
AcDbEntity
  8
WAKU0
  6
CONTINUOUS
 62
3
100
AcDbLine
 10
412.0000000000000
 20
51.00000000000000
 30
0.0000000000000000
 11
582.0000000000000
 21
51.00000000000000
 31
0.0000000000000000
  0
LINE
  5
4D7
100
AcDbEntity
  8
WAKU0
  6
CONTINUOUS
 62
3
100
AcDbLine
 10
412.0000000000000
 20
51.00000000000000
 30
0.0000000000000000
 11
412.0000000000000
 21
12.00000000000000
 31
0.0000000000000000
  0
LINE
  5
4D8
100
AcDbEntity
  8
WAKU0
  6
CONTINUOUS
 62
3
100
AcDbLine
 10
484.0000000000000
 20
51.00000000000000
 30
0.0000000000000000
 11
484.0000000000000
 21
12.00000000000000
 31
0.0000000000000000
  0
LINE
  5
4D9
100
AcDbEntity
  8
WAKU0
  6
CONTINUOUS
 62
3
100
AcDbLine
 10
504.0000000000000
 20
51.00000000000000
 30
0.0000000000000000
 11
504.0000000000000
 21
12.00000000000000
 31
0.0000000000000000
  0
LINE
  5
4DA
100
AcDbEntity
  8
WAKU0
  6
CONTINUOUS
 62
3
100
AcDbLine
 10
516.0000000000000
 20
51.00000000000000
 30
0.0000000000000000
 11
516.0000000000000
 21
12.00000000000000
 31
0.0000000000000000
  0
LINE
  5
4DB
100
AcDbEntity
  8
WAKU0
  6
CONTINUOUS
 62
3
100
AcDbLine
 10
516.0000000000000
 20
37.00000000000000
 30
0.0000000000000000
 11
582.0000000000000
 21
37.00000000000000
 31
0.0000000000000000
  0
LINE
  5
4DC
100
AcDbEntity
  8
WAKU0
  6
CONTINUOUS
 62
3
100
AcDbLine
 10
504.0000000000000
 20
23.00000000000000
 30
0.0000000000000000
 11
582.0000000000000
 21
23.00000000000000
 31
0.0000000000000000
  0
LINE
  5
4DD
100
AcDbEntity
  8
WAKU0
  6
CONTINUOUS
 62
3
100
AcDbLine
 10
547.0000000000000
 20
51.00000000000000
 30
0.0000000000000000
 11
547.0000000000000
 21
44.00000000000000
 31
0.0000000000000000
  0
LINE
  5
4DE
100
AcDbEntity
  8
WAKU0
  6
CONTINUOUS
 62
3
100
AcDbLine
 10
559.0000000000000
 20
51.00000000000000
 30
0.0000000000000000
 11
559.0000000000000
 21
44.00000000000000
 31
0.0000000000000000
  0
LINE
  5
4DF
100
AcDbEntity
  8
WAKU0
  6
CONTINUOUS
 62
3
100
AcDbLine
 10
484.0000000000000
 20
31.50000000000000
 30
0.0000000000000000
 11
504.0000000000000
 21
31.50000000000000
 31
0.0000000000000000
  0
LINE
  5
4E0
100
AcDbEntity
  8
WAKU0
  6
CONTINUOUS
 62
3
100
AcDbLine
 10
504.0000000000000
 20
44.00000000000000
 30
0.0000000000000000
 11
582.0000000000000
 21
44.00000000000000
 31
0.0000000000000000
  0
LINE
  5
4E1
100
AcDbEntity
  8
WAKU0
  6
CONTINUOUS
 62
3
100
AcDbLine
 10
412.0000000000000
 20
37.00000000000000
 30
0.0000000000000000
 11
484.0000000000000
 21
37.00000000000000
 31
0.0000000000000000
  0
LINE
  5
4E2
100
AcDbEntity
  8
WAKU0
  6
CONTINUOUS
 62
3
100
AcDbLine
 10
412.0000000000000
 20
23.00000000000000
 30
0.0000000000000000
 11
484.0000000000000
 21
23.00000000000000
 31
0.0000000000000000
  0
LINE
  5
4E3
100
AcDbEntity
  8
WAKU0
  6
CONTINUOUS
 62
3
100
AcDbLine
 10
460.0000000000000
 20
37.00000000000000
 30
0.0000000000000000
 11
460.0000000000000
 21
12.00000000000000
 31
0.0000000000000000
  0
LINE
  5
4E4
100
AcDbEntity
  8
WAKU0
  6
CONTINUOUS
 62
3
100
AcDbLine
 10
436.0000000000000
 20
37.00000000000000
 30
0.0000000000000000
 11
436.0000000000000
 21
23.00000000000000
 31
0.0000000000000000
  0
LINE
  5
4E5
100
AcDbEntity
  8
WAKU0
  6
CONTINUOUS
 62
3
100
AcDbLine
 10
472.0000000000000
 20
26.00000000000000
 30
0.0000000000000000
 11
472.0000000000000
 21
23.00000000000000
 31
0.0000000000000000
  0
LINE
  5
4E6
100
AcDbEntity
  8
WAKU0
  6
CONTINUOUS
 62
3
100
AcDbLine
 10
448.0000000000000
 20
26.00000000000000
 30
0.0000000000000000
 11
448.0000000000000
 21
23.00000000000000
 31
0.0000000000000000
  0
LINE
  5
4E7
100
AcDbEntity
  8
WAKU0
  6
CONTINUOUS
 62
3
100
AcDbLine
 10
424.0000000000000
 20
26.00000000000000
 30
0.0000000000000000
 11
424.0000000000000
 21
23.00000000000000
 31
0.0000000000000000
  0
LINE
  5
4E8
100
AcDbEntity
  8
WAKU0
  6
CONTINUOUS
 62
3
100
AcDbLine
 10
430.0000000000000
 20
51.00000000000000
 30
0.0000000000000000
 11
430.0000000000000
 21
37.00000000000000
 31
0.0000000000000000
  0
LINE
  5
4E9
100
AcDbEntity
  8
WAKU0
  6
CONTINUOUS
 62
3
100
AcDbLine
 10
412.0000000000000
 20
45.00000000000000
 30
0.0000000000000000
 11
484.0000000000000
 21
45.00000000000000
 31
0.0000000000000000
  0
LINE
  5
4EA
100
AcDbEntity
  8
WAKU0
  6
HIDDEN
 62
3
100
AcDbLine
 10
532.5000000000000
 20
23.00000000000000
 30
0.0000000000000000
 11
532.5000000000000
 21
12.00000000000000
 31
0.0000000000000000
  0
LINE
  5
4EB
100
AcDbEntity
  8
WAKU0
  6
HIDDEN
 62
3
100
AcDbLine
 10
544.9000000000000
 20
23.00000000000000
 30
0.0000000000000000
 11
544.9000000000000
 21
12.00000000000000
 31
0.0000000000000000
  0
MTEXT
  5
4EC
100
AcDbEntity
  8
WAKU0
  6
CONTINUOUS
 62
3
100
AcDbMText
 10
516.4820000243485
 20
49.04999995231628
 30
0.0000000000000000
 40
3.099999904632568
 41
0.0000000000000000
 44
0.8806452252986423
 71
     1
 72
     1
  1
{\H0.92x;{MV125N}}
 11
1.000000000000000
 21
0.0000000000000000
 31
0.0000000000000000
  7
STANDARD
  0
MTEXT
  5
4ED
100
AcDbEntity
  8
WAKU0
  6
CONTINUOUS
 62
3
100
AcDbMText
 10
532.3350002765656
 20
43.50000000000000
 30
0.0000000000000000
 40
3.000000000000000
 41
0.0000000000000000
 44
0.6000000000000000
 71
     1
 72
     1
  1
{\H0.94x;{パワーバイス\PＰＯＷＥＲ　ＶＩＳＥ}}
 11
1.000000000000000
 21
0.0000000000000000
 31
0.0000000000000000
  7
KNJYOKO
  0
MTEXT
  5
4EE
100
AcDbEntity
  8
WAKU0
  6
CONTINUOUS
 62
3
100
AcDbMText
 10
522.3999990373850
 20
34.83333333333333
 30
0.0000000000000000
 40
4.000000000000000
 41
0.0000000000000000
 44
0.8499999761581421
 71
     1
 72
     1
  1
{\H0.59x;{ＭＶ１２５Ｎ　ガイケイ\PＭＶ１２５Ｎ　ＯＵＴＳＩＤＥ　ＶＩＥＷ}}
 11
1.000000000000000
 21
0.0000000000000000
 31
0.0000000000000000
  7
KNJYOKO
  0
MTEXT
  5
4EF
100
AcDbEntity
  8
WAKU0
  6
CONTINUOUS
 62
3
100
AcDbMText
 10
490.0049998760223
 20
39.29999995231628
 30
0.0000000000000000
 40
3.099999904632568
 41
0.0000000000000000
 44
1.412903306188993
 71
     1
 72
     1
  1
{\H0.90x;{1:2}}
 11
1.000000000000000
 21
0.0000000000000000
 31
0.0000000000000000
  7
STANDARD
  0
MTEXT
  5
4F0
100
AcDbEntity
  8
WAKU0
  6
CONTINUOUS
 62
3
100
AcDbMText
 10
546.4000001549721
 20
20.15000009536743
 30
0.0000000000000000
 40
5.300000190734863
 41
0.0000000000000000
 44
0.8660377154786555
 71
     1
 72
     1
  1
{\H0.90x;{7696}}
 11
1.000000000000000
 21
0.0000000000000000
 31
0.0000000000000000
  7
STANDARD
  0
MTEXT
  5
4F1
100
AcDbEntity
  8
WAKU0
  6
CONTINUOUS
 62
3
100
AcDbMText
 10
534.3000000834466
 20
20.15000009536743
 30
0.0000000000000000
 40
5.300000190734863
 41
0.0000000000000000
 44
0.8660377154786555
 71
     1
 72
     1
  1
{\H0.87x;{25}}
 11
1.000000000000000
 21
0.0000000000000000
 31
0.0000000000000000
  7
STANDARD
  0
MTEXT
  5
4F2
100
AcDbEntity
  8
WAKU0
  6
CONTINUOUS
 62
3
100
AcDbMText
 10
517.5000001192093
 20
20.15000009536743
 30
0.0000000000000000
 40
5.300000190734863
 41
0.0000000000000000
 44
0.8660377154786555
 71
     1
 72
     1
  1
{\H0.89x;{61M}}
 11
1.000000000000000
 21
0.0000000000000000
 31
0.0000000000000000
  7
STANDARD
  0
MTEXT
  5
4F3
100
AcDbEntity
  8
WAKU0
  6
CONTINUOUS
 62
3
100
AcDbMText
 10
572.0999999523162
 20
20.00000000000000
 30
0.0000000000000000
 40
5.000000000000000
 41
0.0000000000000000
 44
0.8999999999999999
 71
     1
 72
     1
  1
{\H0.82x;{3}}
 11
1.000000000000000
 21
0.0000000000000000
 31
0.0000000000000000
  7
STANDARD
  0
MTEXT
  5
4F4
100
AcDbEntity
  8
WAKU0
  6
CONTINUOUS
 62
3
100
AcDbMText
 10
572.0000000819564
 20
44.84999990463257
 30
0.0000000000000000
 40
5.300000190734863
 41
0.0000000000000000
 44
0.6396226292871933
 71
     7
 72
     1
  1
{\H0.81x;{ }}
 11
1.000000000000000
 21
0.0000000000000000
 31
0.0000000000000000
  7
STANDARD
  0
MTEXT
  5
4F5
100
AcDbEntity
  8
WAKU0
  6
CONTINUOUS
 62
3
100
AcDbMText
 10
461.3850002884865
 20
33.00000000000000
 30
0.0000000000000000
 40
3.000000000000000
 41
0.0000000000000000
 44
0.7000000000000000
 71
     7
 72
     1
  1
{\H0.93x;{DRAWN BY}}
 11
1.000000000000000
 21
0.0000000000000000
 31
0.0000000000000000
  7
STANDARD
  0
MTEXT
  5
4F6
100
AcDbEntity
  8
WAKU0
  6
CONTINUOUS
 62
3
100
AcDbMText
 10
441.2149997949600
 20
32.95000004768372
 30
0.0000000000000000
 40
3.099999904632568
 41
0.0000000000000000
 44
0.6870967861020730
 71
     7
 72
     1
  1
{\H0.92x;{CHIEF}}
 11
1.000000000000000
 21
0.0000000000000000
 31
0.0000000000000000
  7
STANDARD
  0
MTEXT
  5
4F7
100
AcDbEntity
  8
WAKU0
  6
CONTINUOUS
 62
3
100
AcDbMText
 10
414.4249997138977
 20
32.95000004768372
 30
0.0000000000000000
 40
3.099999904632568
 41
0.0000000000000000
 44
0.6870967861020730
 71
     7
 72
     1
  1
{\H0.92x;{MANAGER}}
 11
1.000000000000000
 21
0.0000000000000000
 31
0.0000000000000000
  7
STANDARD
  0
MTEXT
  5
4F8
100
AcDbEntity
  8
WAKU0
  6
CONTINUOUS
 62
3
100
AcDbMText
 10
416.6599994301796
 20
18.13333336512248
 30
0.0000000000000000
 40
3.099999904632568
 41
0.0000000000000000
 44
0.8451613409338102
 71
     7
 72
     1
  1
{\H0.93x;{KITAGAWA IRON\PWORKS CO.,LTD.}}
 11
1.000000000000000
 21
0.0000000000000000
 31
0.0000000000000000
  7
STANDARD
  0
MTEXT
  5
4F9
100
AcDbEntity
  8
WAKU0
  6
CONTINUOUS
 62
3
100
AcDbMText
 10
413.0850002169609
 20
46.50000000000000
 30
0.0000000000000000
 40
3.000000000000000
 41
0.0000000000000000
 44
0.8000000000000000
 71
     7
 72
     1
  1
{\H0.92x;{CAREER}}
 11
1.000000000000000
 21
0.0000000000000000
 31
0.0000000000000000
  7
STANDARD
  0
MTEXT
  5
4FA
100
AcDbEntity
  8
WAKU0
  6
CONTINUOUS
 62
3
100
AcDbMText
 10
466.6099998354912
 20
18.95000004768372
 30
0.0000000000000000
 40
3.099999904632568
 41
0.0000000000000000
 44
0.6870967861020730
 71
     7
 72
     1
  1
{\H0.91x;{DATE}}
 11
1.000000000000000
 21
0.0000000000000000
 31
0.0000000000000000
  7
STANDARD
  0
MTEXT
  5
4FB
100
AcDbEntity
  8
WAKU0
  6
CONTINUOUS
 62
3
100
AcDbMText
 10
485.9000002145767
 20
26.50000000000000
 30
0.0000000000000000
 40
3.000000000000000
 41
0.0000000000000000
 44
0.9000000000000000
 71
     7
 72
     1
  1
{\H0.63x;{3RD ANGLE}}
 11
1.000000000000000
 21
0.0000000000000000
 31
0.0000000000000000
  7
STANDARD
  0
MTEXT
  5
4FC
100
AcDbEntity
  8
WAKU0
  6
CONTINUOUS
 62
3
100
AcDbMText
 10
487.2149997949600
 20
45.95000004768372
 30
0.0000000000000000
 40
3.099999904632568
 41
0.0000000000000000
 44
0.8806452252986423
 71
     7
 72
     1
  1
{\H0.92x;{SCALE}}
 11
1.000000000000000
 21
0.0000000000000000
 31
0.0000000000000000
  7
STANDARD
  0
MTEXT
  5
4FD
100
AcDbEntity
  8
WAKU0
  6
CONTINUOUS
 62
3
100
AcDbMText
 10
577.7000000476837
 20
46.00000000000000
 30
0.0000000000000000
 40
3.000000000000000
 41
0.0000000000000000
 44
0.9000000000000000
 71
     7
 72
     1
  1
{\H0.63x;{kg}}
 11
1.000000000000000
 21
0.0000000000000000
 31
0.0000000000000000
  7
STANDARD
  0
MTEXT
  5
4FE
100
AcDbEntity
  8
WAKU0
  6
CONTINUOUS
 62
3
100
AcDbMText
 10
547.6000001430512
 20
46.00000000000000
 30
0.0000000000000000
 40
3.000000000000000
 41
0.0000000000000000
 44
0.9000000000000000
 71
     7
 72
     1
  1
{\H0.63x;{WEIGHT}}
 11
1.000000000000000
 21
0.0000000000000000
 31
0.0000000000000000
  7
STANDARD
  0
MTEXT
  5
4FF
100
AcDbEntity
  8
WAKU0
  6
CONTINUOUS
 62
3
100
AcDbMText
 10
506.0049998760223
 20
18.13333336512248
 30
0.0000000000000000
 40
3.099999904632568
 41
0.0000000000000000
 44
0.8451613409338102
 71
     7
 72
     1
  1
{\H0.90x;{DRW\PNO.}}
 11
1.000000000000000
 21
0.0000000000000000
 31
0.0000000000000000
  7
STANDARD
  0
MTEXT
  5
500
100
AcDbEntity
  8
WAKU0
  6
CONTINUOUS
 62
3
100
AcDbMText
 10
504.6099998354912
 20
31.95000004768372
 30
0.0000000000000000
 40
3.099999904632568
 41
0.0000000000000000
 44
2.235483976655898
 71
     7
 72
     1
  1
{\H0.91x;{NAME}}
 11
1.000000000000000
 21
0.0000000000000000
 31
0.0000000000000000
  7
STANDARD
  0
MTEXT
  5
501
100
AcDbEntity
  8
WAKU0
  6
CONTINUOUS
 62
3
100
AcDbMText
 10
504.6099998354912
 20
45.95000004768372
 30
0.0000000000000000
 40
3.099999904632568
 41
0.0000000000000000
 44
0.8806452252986423
 71
     7
 72
     1
  1
{\H0.91x;{TYPE}}
 11
1.000000000000000
 21
0.0000000000000000
 31
0.0000000000000000
  7
STANDARD
  0
LINE
  5
502
100
AcDbEntity
  8
WAKU0
  6
HIDDEN
 62
3
100
AcDbLine
 10
579.1599564743885
 20
13.84999990463257
 30
0.0000000000000000
 11
568.9400436209789
 21
13.84999990463257
 31
0.0000000000000000
  0
LINE
  5
503
100
AcDbEntity
  8
WAKU0
  6
HIDDEN
 62
3
100
AcDbLine
 10
579.1599564743885
 20
13.84999990463250
 30
0.0000000000000000
 11
574.0500000476851
 21
22.70070406014901
 31
0.0000000000000000
  0
LINE
  5
504
100
AcDbEntity
  8
WAKU0
  6
HIDDEN
 62
3
100
AcDbLine
 10
574.0500000476851
 20
22.70070406014902
 30
0.0000000000000000
 11
568.9400436209789
 21
13.84999990463248
 31
0.0000000000000000
  0
POINT
  5
505
100
AcDbEntity
  8
WAKU0
  6
CONTINUOUS
 62
3
100
AcDbPoint
 10
442.0000000000000
 20
51.00000000000000
 30
0.0000000000000000
  0
LINE
  5
506
100
AcDbEntity
  8
WAKU0
  6
CONTINUOUS
 62
3
100
AcDbLine
 10
502.4713877753800
 20
15.78041421262812
 30
0.0000000000000000
 11
502.4713877753800
 21
21.78041421262815
 31
0.0000000000000000
  0
LINE
  5
507
100
AcDbEntity
  8
WAKU0
  6
CONTINUOUS
 62
3
100
AcDbLine
 10
495.9336941228225
 20
17.28041421262811
 30
0.0000000000000000
 11
495.9336941228225
 21
20.28041421262824
 31
0.0000000000000000
  0
LINE
  5
508
100
AcDbEntity
  8
WAKU0
  6
CENTER
 62
12
100
AcDbLine
 10
485.4321805514995
 20
18.78041421262813
 30
0.0000000000000000
 11
503.2765788964694
 21
18.78041421262813
 31
0.0000000000000000
  0
LINE
  5
509
100
AcDbEntity
  8
WAKU0
  6
CENTER
 62
12
100
AcDbLine
 10
489.4474565857986
 20
14.55921662918448
 30
0.0000000000000000
 11
489.4474565857986
 21
22.89865102149943
 31
0.0000000000000000
  0
LINE
  5
50A
100
AcDbEntity
  8
WAKU0
  6
CONTINUOUS
 62
3
100
AcDbLine
 10
495.9336941228225
 20
20.28041421262797
 30
0.0000000000000000
 11
502.4713877753800
 21
21.78041421262795
 31
0.0000000000000000
  0
LINE
  5
50B
100
AcDbEntity
  8
WAKU0
  6
CONTINUOUS
 62
3
100
AcDbLine
 10
495.9336941228225
 20
17.28041421262811
 30
0.0000000000000000
 11
502.4713877753799
 21
15.78041421262812
 31
0.0000000000000000
  0
CIRCLE
  5
50C
100
AcDbEntity
  8
WAKU0
  6
CONTINUOUS
 62
3
100
AcDbCircle
 10
489.4474565857986
 20
18.78041421262813
 30
0.0000000000000000
 40
1.499999999999972
  0
CIRCLE
  5
50D
100
AcDbEntity
  8
WAKU0
  6
CONTINUOUS
 62
3
100
AcDbCircle
 10
489.4474565857986
 20
18.78041421262813
 30
0.0000000000000000
 40
2.999999999999979
  0
ENDSEC
  0
SECTION
  2
OBJECTS
  0
DICTIONARY
  5
566
100
AcDbDictionary
  3
ACAD_GROUP
350
567
  3
ACAD_LAYOUT
350
568
  3
ACAD_MLINESTYLE
350
569
  0
DICTIONARY
  5
567
102
{ACAD_REACTORS
330
566
102
}
330
566
100
AcDbDictionary
  0
DICTIONARY
  5
568
102
{ACAD_REACTORS
330
566
102
}
330
566
100
AcDbDictionary
  3
Model
350
56A
  3
ﾚｲｱｳﾄ1
350
56B
  3
ﾚｲｱｳﾄ2
350
56C
  0
DICTIONARY
  5
569
102
{ACAD_REACTORS
330
566
102
}
330
566
100
AcDbDictionary
  3
STANDARD
350
56D
  0
LAYOUT
  5
56A
102
{ACAD_REACTORS
330
568
102
}
330
568
100
AcDbPlotSettings
 70
11952
  4
A2
 44
420.000000
 45
594.000000
 73
  1
 72
  1
100
AcDbLayout
  1
Model
 71
0
330
533
  0
LAYOUT
  5
56B
102
{ACAD_REACTORS
330
568
102
}
330
568
100
AcDbPlotSettings
100
AcDbLayout
  1
ﾚｲｱｳﾄ1
 71
1
330
534
  0
LAYOUT
  5
56C
102
{ACAD_REACTORS
330
568
102
}
330
568
100
AcDbPlotSettings
100
AcDbLayout
  1
ﾚｲｱｳﾄ2
 71
2
330
535
  0
MLINESTYLE
  5
56D
102
{ACAD_REACTORS
330
569
102
}
330
569
100
AcDbMlineStyle
  2
STANDARD
 70
     0
  3

 62
   256
 51
90.00
 52
90.00
 71
     2
 49
0.50
 62
   256
  6
BYLAYER
 49
-0.50
 62
   256
  6
BYLAYER
  0
ENDSEC
  0
EOF
