  0
SECTION
  2
HEADER
  9
$ACADVER
  1
AC1014
  9
$DWGCODEPAGE
  3
ANSI_932
  9
$LTSCALE
 40
20.0
  9
$FILLMODE
 70
     1
  9
$CLAYER
  8
0
  9
$PDMODE
 70
     0
  9
$SPLFRAME
 70
     0
  9
$SPLINETYPE
 70
     6
  9
$SPLINESEGS
 70
     8
  9
$DIMASZ
 40
2.000000
  9
$DIMEXE
 40
2.000000
  9
$DIMEXO
 40
0.800000
  9
$DIMTAD
 70
     1
  9
$DIMTIH
 70
     0
  9
$DIMTOH
 70
     0
  9
$DIMTVP
 40
0.500000
  9
$DIMTXT
 40
3.100000
  9
$EXTMIN
 10
0.000000
 20
0.000000
 30
0.000000
  9
$EXTMAX
 10
297.000000
 20
420.000000
 30
0.000000
  9
$MEASUREMENT
 70
  1
  9
$LIMMIN
 10
0.000000
 20
0.000000
  9
$LIMMAX
 10
297.000000
 20
420.000000
  9
$HANDLING
 70
     1
  9
$HANDSEED
  5
5FC
  9
$DIMBLK
  1
_OPEN
  9
$DIMDEC
 70
     3
  9
$DIMAUNIT
 70
     1
  9
$DIMZIN
 70
     8
  9
$DIMTOFL
 70
     1
  0
ENDSEC
  0
SECTION
  2
CLASSES
  0
ENDSEC
  0
SECTION
  2
TABLES
  0
TABLE
  2
VPORT
  5
597
100
AcDbSymbolTable
 70
     1
  0
VPORT
  5
598
100
AcDbSymbolTableRecord
100
AcDbViewportTableRecord
  2
*ACTIVE
 70
     0
 12
763.116925
 22
374.504382
 40
2910.823044
 41
1.314634
  0
ENDTAB
  0
TABLE
  2
LTYPE
  5
599
100
AcDbSymbolTable
 70
     4
  0
LTYPE
  5
59A
100
AcDbSymbolTableRecord
100
AcDbLinetypeTableRecord
  2
BYBLOCK
 70
     0
  3

 72
    65
 73
     0
 40
0.0
  0
LTYPE
  5
59B
100
AcDbSymbolTableRecord
100
AcDbLinetypeTableRecord
  2
BYLAYER
 70
     0
  3

 72
    65
 73
     0
 40
0.0
  0
LTYPE
  5
59C
100
AcDbSymbolTableRecord
100
AcDbLinetypeTableRecord
  2
CONTINUOUS
 70
     0
  3
Solid line (NEC CAE2D for Win R12.1 : 2016.08.08)
 72
    65
 73
     0
 40
0.0
  0
LTYPE
  5
59D
100
AcDbSymbolTableRecord
100
AcDbLinetypeTableRecord
  2
HIDDEN
 70
     0
  3
__ __ __ __ __ __ __ __ __ __ __ __ __ __
 72
    65
 73
     2
 40
0.375
 49
0.25
 74
     0
 49
-0.125
 74
     0
  0
LTYPE
  5
59E
100
AcDbSymbolTableRecord
100
AcDbLinetypeTableRecord
  2
CENTER
 70
     0
  3
____ _ ____ _ ____ _ ____ _ ____ _ ____
 72
    65
 73
     4
 40
2.0
 49
1.25
 74
     0
 49
-0.25
 74
     0
 49
0.25
 74
     0
 49
-0.25
 74
     0
  0
LTYPE
  5
59F
100
AcDbSymbolTableRecord
100
AcDbLinetypeTableRecord
  2
PHANTOM
 70
     0
  3
______  __  __  ______  __  __  ______ 
 72
    65
 73
     6
 40
2.5
 49
1.25
 74
     0
 49
-0.25
 74
     0
 49
0.25
 74
     0
 49
-0.25
 74
     0
 49
0.25
 74
     0
 49
-0.25
 74
     0
  0
ENDTAB
  0
TABLE
  2
LAYER
  5
5A0
100
AcDbSymbolTable
 70
    10
  0
LAYER
  5
5A1
100
AcDbSymbolTableRecord
100
AcDbLayerTableRecord
  2
0
 70
     0
 62
     7
  6
CONTINUOUS
  0
LAYER
  5
5A2
100
AcDbSymbolTableRecord
100
AcDbLayerTableRecord
  2
MAIN0
 70
     0
 62
     7
  6
CONTINUOUS
  0
LAYER
  5
5A3
100
AcDbSymbolTableRecord
100
AcDbLayerTableRecord
  2
MAIN1
 70
     0
 62
     7
  6
CONTINUOUS
  0
LAYER
  5
5A4
100
AcDbSymbolTableRecord
100
AcDbLayerTableRecord
  2
MAIN3
 70
     0
 62
     7
  6
CONTINUOUS
  0
LAYER
  5
5A5
100
AcDbSymbolTableRecord
100
AcDbLayerTableRecord
  2
MAIN10
 70
     0
 62
     7
  6
CONTINUOUS
  0
LAYER
  5
5A6
100
AcDbSymbolTableRecord
100
AcDbLayerTableRecord
  2
MAIN1023
 70
     0
 62
    16
  6
CONTINUOUS
  0
LAYER
  5
5A7
100
AcDbSymbolTableRecord
100
AcDbLayerTableRecord
  2
WAKU0
 70
     0
 62
     7
  6
CONTINUOUS
  0
LAYER
  5
5A8
100
AcDbSymbolTableRecord
100
AcDbLayerTableRecord
  2
WAKU1023
 70
     0
 62
    16
  6
CONTINUOUS
  0
LAYER
  5
5A9
100
AcDbSymbolTableRecord
100
AcDbLayerTableRecord
  2
A0
 70
     0
 62
     7
  6
CONTINUOUS
  0
LAYER
  5
5AA
100
AcDbSymbolTableRecord
100
AcDbLayerTableRecord
  2
A1023
 70
     0
 62
    16
  6
CONTINUOUS
  0
ENDTAB
  0
TABLE
  2
STYLE
  5
5AB
100
AcDbSymbolTable
 70
     4
  0
STYLE
  5
5AC
100
AcDbSymbolTableRecord
100
AcDbTextStyleTableRecord
  2
STANDARD
 70
    64
 40
0.0
 41
1.0
 50
0.0
 71
     0
 42
7.749999761581421
  3
TXT
  4

  0
STYLE
  5
5AD
100
AcDbSymbolTableRecord
100
AcDbTextStyleTableRecord
  2
ANKTATE
 70
    68
 40
0.0
 41
1.0
 50
0.0
 71
     0
 42
7.749999761581421
  3
TXT
  4

  0
STYLE
  5
289
100
AcDbSymbolTableRecord
100
AcDbTextStyleTableRecord
  2
KNJYOKO
 70
    64
 40
0.0
 41
1.0
 50
0.0
 71
     0
 42
7.749999761581421
  3
TXT
  4
BIGFONT
  0
STYLE
  5
5AE
100
AcDbSymbolTableRecord
100
AcDbTextStyleTableRecord
  2
KNJTATE
 70
    68
 40
0.0
 41
1.0
 50
0.0
 71
     0
 42
7.749999761581421
  3
TXT
  4
BIGFONT
  0
ENDTAB
  0
TABLE
  2
VIEW
  5
5AF
100
AcDbSymbolTable
 70
     0
  0
ENDTAB
  0
TABLE
  2
UCS
  5
5B0
100
AcDbSymbolTable
 70
     0
  0
ENDTAB
  0
TABLE
  2
APPID
  5
5B1
100
AcDbSymbolTable
 70
     1
  0
APPID
  5
5B2
100
AcDbSymbolTableRecord
100
AcDbRegAppTableRecord
  2
ACAD
 70
     0
  0
ENDTAB
  0
TABLE
  2
DIMSTYLE
  5
5B3
100
AcDbSymbolTable
 70
     1
  0
DIMSTYLE
105
5B4
100
AcDbSymbolTableRecord
100
AcDbDimStyleTableRecord
  2
STANDARD
 70
     0
 41
2.000000
 44
2.000000
 42
0.800000
145
0.661290
140
3.100000
144
1.000000
146
0.903226
340
5AC
  0
DIMSTYLE
105
5B5
100
AcDbSymbolTableRecord
100
AcDbDimStyleTableRecord
  2
MAIN001
 70
     0
 41
6.000000
 44
6.000000
 42
2.400000
145
0.553763
140
9.300000
144
1.000000
146
0.903226
 77
     1
 73
     0
 74
     0
271
     3
275
     1
 78
     8
172
     1
340
5AC
  0
DIMSTYLE
105
5B6
100
AcDbSymbolTableRecord
100
AcDbDimStyleTableRecord
  2
WAKU002
 70
     0
 41
2.000000
 44
2.000000
 42
0.800000
145
0.661290
140
3.100000
144
1.000000
146
0.903226
 77
     1
 73
     0
 74
     0
271
     3
275
     1
 78
     8
172
     1
340
5AC
  0
DIMSTYLE
105
5B7
100
AcDbSymbolTableRecord
100
AcDbDimStyleTableRecord
  2
A003
 70
     0
 41
5.000000
 44
5.000000
 42
2.000000
145
0.564516
140
7.750000
144
1.000000
146
0.903226
 77
     1
 73
     0
 74
     0
271
     3
275
     1
 78
     8
172
     1
340
5AC
  0
ENDTAB
  0
TABLE
  2
BLOCK_RECORD
  5
5B8
100
AcDbSymbolTable
 70
    68
  0
BLOCK_RECORD
  5
5B9
100
AcDbSymbolTableRecord
100
AcDbBlockTableRecord
  2
*MODEL_SPACE
  0
BLOCK_RECORD
  5
5BA
100
AcDbSymbolTableRecord
100
AcDbBlockTableRecord
  2
*PAPER_SPACE
  0
BLOCK_RECORD
  5
1
100
AcDbSymbolTableRecord
100
AcDbBlockTableRecord
  2
_NONE
  0
BLOCK_RECORD
  5
4
100
AcDbSymbolTableRecord
100
AcDbBlockTableRecord
  2
_CLOSED
  0
BLOCK_RECORD
  5
B
100
AcDbSymbolTableRecord
100
AcDbBlockTableRecord
  2
_DOT
  0
BLOCK_RECORD
  5
13
100
AcDbSymbolTableRecord
100
AcDbBlockTableRecord
  2
_OPEN
  0
BLOCK_RECORD
  5
19
100
AcDbSymbolTableRecord
100
AcDbBlockTableRecord
  2
_ORIGIN
  0
BLOCK_RECORD
  5
1E
100
AcDbSymbolTableRecord
100
AcDbBlockTableRecord
  2
_OPEN30
  0
BLOCK_RECORD
  5
24
100
AcDbSymbolTableRecord
100
AcDbBlockTableRecord
  2
_BOXFILLED
  0
BLOCK_RECORD
  5
29
100
AcDbSymbolTableRecord
100
AcDbBlockTableRecord
  2
_BOXBLANK
  0
BLOCK_RECORD
  5
31
100
AcDbSymbolTableRecord
100
AcDbBlockTableRecord
  2
_OBLIQUE
  0
BLOCK_RECORD
  5
35
100
AcDbSymbolTableRecord
100
AcDbBlockTableRecord
  2
_OPEN90
  0
BLOCK_RECORD
  5
3B
100
AcDbSymbolTableRecord
100
AcDbBlockTableRecord
  2
_CLOSEDBLANK
  0
BLOCK_RECORD
  5
41
100
AcDbSymbolTableRecord
100
AcDbBlockTableRecord
  2
_DOTBLANK
  0
BLOCK_RECORD
  5
5BB
100
AcDbSymbolTableRecord
100
AcDbBlockTableRecord
  2
*D0
  0
BLOCK_RECORD
  5
5BC
100
AcDbSymbolTableRecord
100
AcDbBlockTableRecord
  2
*D1
  0
BLOCK_RECORD
  5
5BD
100
AcDbSymbolTableRecord
100
AcDbBlockTableRecord
  2
*D2
  0
BLOCK_RECORD
  5
5BE
100
AcDbSymbolTableRecord
100
AcDbBlockTableRecord
  2
*D3
  0
BLOCK_RECORD
  5
5BF
100
AcDbSymbolTableRecord
100
AcDbBlockTableRecord
  2
*D4
  0
BLOCK_RECORD
  5
5C0
100
AcDbSymbolTableRecord
100
AcDbBlockTableRecord
  2
*D5
  0
BLOCK_RECORD
  5
5C1
100
AcDbSymbolTableRecord
100
AcDbBlockTableRecord
  2
*D6
  0
BLOCK_RECORD
  5
5C2
100
AcDbSymbolTableRecord
100
AcDbBlockTableRecord
  2
*D7
  0
BLOCK_RECORD
  5
5C3
100
AcDbSymbolTableRecord
100
AcDbBlockTableRecord
  2
*D8
  0
BLOCK_RECORD
  5
5C4
100
AcDbSymbolTableRecord
100
AcDbBlockTableRecord
  2
*D9
  0
BLOCK_RECORD
  5
5C5
100
AcDbSymbolTableRecord
100
AcDbBlockTableRecord
  2
*D10
  0
BLOCK_RECORD
  5
5C6
100
AcDbSymbolTableRecord
100
AcDbBlockTableRecord
  2
*D11
  0
BLOCK_RECORD
  5
5C7
100
AcDbSymbolTableRecord
100
AcDbBlockTableRecord
  2
*D12
  0
BLOCK_RECORD
  5
5C8
100
AcDbSymbolTableRecord
100
AcDbBlockTableRecord
  2
*D13
  0
BLOCK_RECORD
  5
5C9
100
AcDbSymbolTableRecord
100
AcDbBlockTableRecord
  2
*D14
  0
BLOCK_RECORD
  5
5CA
100
AcDbSymbolTableRecord
100
AcDbBlockTableRecord
  2
*D15
  0
BLOCK_RECORD
  5
5CB
100
AcDbSymbolTableRecord
100
AcDbBlockTableRecord
  2
*D16
  0
BLOCK_RECORD
  5
5CC
100
AcDbSymbolTableRecord
100
AcDbBlockTableRecord
  2
*D17
  0
BLOCK_RECORD
  5
5CD
100
AcDbSymbolTableRecord
100
AcDbBlockTableRecord
  2
D18
  0
BLOCK_RECORD
  5
5CE
100
AcDbSymbolTableRecord
100
AcDbBlockTableRecord
  2
*D19
  0
BLOCK_RECORD
  5
5CF
100
AcDbSymbolTableRecord
100
AcDbBlockTableRecord
  2
*D20
  0
BLOCK_RECORD
  5
5D0
100
AcDbSymbolTableRecord
100
AcDbBlockTableRecord
  2
*D21
  0
BLOCK_RECORD
  5
5D1
100
AcDbSymbolTableRecord
100
AcDbBlockTableRecord
  2
*D22
  0
BLOCK_RECORD
  5
5D2
100
AcDbSymbolTableRecord
100
AcDbBlockTableRecord
  2
*D23
  0
BLOCK_RECORD
  5
5D3
100
AcDbSymbolTableRecord
100
AcDbBlockTableRecord
  2
*D24
  0
BLOCK_RECORD
  5
5D4
100
AcDbSymbolTableRecord
100
AcDbBlockTableRecord
  2
*D25
  0
BLOCK_RECORD
  5
5D5
100
AcDbSymbolTableRecord
100
AcDbBlockTableRecord
  2
*D26
  0
BLOCK_RECORD
  5
5D6
100
AcDbSymbolTableRecord
100
AcDbBlockTableRecord
  2
*D27
  0
BLOCK_RECORD
  5
5D7
100
AcDbSymbolTableRecord
100
AcDbBlockTableRecord
  2
*D28
  0
BLOCK_RECORD
  5
5D8
100
AcDbSymbolTableRecord
100
AcDbBlockTableRecord
  2
*D29
  0
BLOCK_RECORD
  5
5D9
100
AcDbSymbolTableRecord
100
AcDbBlockTableRecord
  2
*D30
  0
BLOCK_RECORD
  5
5DA
100
AcDbSymbolTableRecord
100
AcDbBlockTableRecord
  2
*D31
  0
BLOCK_RECORD
  5
5DB
100
AcDbSymbolTableRecord
100
AcDbBlockTableRecord
  2
*D32
  0
BLOCK_RECORD
  5
5DC
100
AcDbSymbolTableRecord
100
AcDbBlockTableRecord
  2
*D33
  0
BLOCK_RECORD
  5
5DD
100
AcDbSymbolTableRecord
100
AcDbBlockTableRecord
  2
*D34
  0
BLOCK_RECORD
  5
5DE
100
AcDbSymbolTableRecord
100
AcDbBlockTableRecord
  2
*D35
  0
BLOCK_RECORD
  5
5DF
100
AcDbSymbolTableRecord
100
AcDbBlockTableRecord
  2
*D36
  0
BLOCK_RECORD
  5
5E0
100
AcDbSymbolTableRecord
100
AcDbBlockTableRecord
  2
*D37
  0
BLOCK_RECORD
  5
5E1
100
AcDbSymbolTableRecord
100
AcDbBlockTableRecord
  2
*D38
  0
BLOCK_RECORD
  5
5E2
100
AcDbSymbolTableRecord
100
AcDbBlockTableRecord
  2
*D39
  0
BLOCK_RECORD
  5
5E3
100
AcDbSymbolTableRecord
100
AcDbBlockTableRecord
  2
*D40
  0
BLOCK_RECORD
  5
5E4
100
AcDbSymbolTableRecord
100
AcDbBlockTableRecord
  2
*D41
  0
BLOCK_RECORD
  5
5E5
100
AcDbSymbolTableRecord
100
AcDbBlockTableRecord
  2
*D42
  0
BLOCK_RECORD
  5
5E6
100
AcDbSymbolTableRecord
100
AcDbBlockTableRecord
  2
*D43
  0
BLOCK_RECORD
  5
5E7
100
AcDbSymbolTableRecord
100
AcDbBlockTableRecord
  2
*D44
  0
BLOCK_RECORD
  5
5E8
100
AcDbSymbolTableRecord
100
AcDbBlockTableRecord
  2
*D45
  0
BLOCK_RECORD
  5
5E9
100
AcDbSymbolTableRecord
100
AcDbBlockTableRecord
  2
*D46
  0
BLOCK_RECORD
  5
5EA
100
AcDbSymbolTableRecord
100
AcDbBlockTableRecord
  2
*D47
  0
BLOCK_RECORD
  5
5EB
100
AcDbSymbolTableRecord
100
AcDbBlockTableRecord
  2
*D48
  0
BLOCK_RECORD
  5
5EC
100
AcDbSymbolTableRecord
100
AcDbBlockTableRecord
  2
*D49
  0
BLOCK_RECORD
  5
5ED
100
AcDbSymbolTableRecord
100
AcDbBlockTableRecord
  2
*D50
  0
BLOCK_RECORD
  5
5EE
100
AcDbSymbolTableRecord
100
AcDbBlockTableRecord
  2
*D51
  0
BLOCK_RECORD
  5
5EF
100
AcDbSymbolTableRecord
100
AcDbBlockTableRecord
  2
*D52
  0
BLOCK_RECORD
  5
5F0
100
AcDbSymbolTableRecord
100
AcDbBlockTableRecord
  2
*D53
  0
BLOCK_RECORD
  5
5F1
100
AcDbSymbolTableRecord
100
AcDbBlockTableRecord
  2
*D54
  0
BLOCK_RECORD
  5
5F2
100
AcDbSymbolTableRecord
100
AcDbBlockTableRecord
  2
*D55
  0
ENDTAB
  0
ENDSEC
  0
SECTION
  2
BLOCKS
  0
BLOCK
  5
5F3
100
AcDbEntity
  8
0
100
AcDbBlockBegin
  2
*MODEL_SPACE
 70
     0
 10
0.0
 20
0.0
 30
0.0
  3
*MODEL_SPACE
  1

  0
ENDBLK
  5
5F4
100
AcDbEntity
  8
0
100
AcDbBlockEnd
  0
BLOCK
  5
5F5
100
AcDbEntity
  8
0
100
AcDbBlockBegin
  2
*PAPER_SPACE
 70
     0
 10
0.0
 20
0.0
 30
0.0
  3
*PAPER_SPACE
  1

  0
ENDBLK
  5
5F6
100
AcDbEntity
  8
0
100
AcDbBlockEnd
  0
BLOCK
  5
2
100
AcDbEntity
  8
0
100
AcDbBlockBegin
  2
_NONE
 70
     0
 10
0.0
 20
0.0
 30
0.0
  3
_NONE
  1

  0
ENDBLK
  5
3
100
AcDbEntity
  8
0
100
AcDbBlockEnd
  0
BLOCK
  5
5
100
AcDbEntity
  8
0
100
AcDbBlockBegin
  2
_CLOSED
 70
     0
 10
0.0
 20
0.0
 30
0.0
  3
_CLOSED
  1

  0
LINE
  5
6
100
AcDbEntity
  8
0
  6
BYBLOCK
 62
     0
100
AcDbLine
 10
-1.0
 20
0.166667
 30
0.0
 11
0.0
 21
0.0
 31
0.0
  0
LINE
  5
7
100
AcDbEntity
  8
0
  6
BYBLOCK
 62
     0
100
AcDbLine
 10
0.0
 20
0.0
 30
0.0
 11
-1.0
 21
-0.166667
 31
0.0
  0
LINE
  5
8
100
AcDbEntity
  8
0
  6
BYBLOCK
 62
     0
100
AcDbLine
 10
-1.0
 20
0.166667
 30
0.0
 11
-1.0
 21
-0.166667
 31
0.0
  0
LINE
  5
9
100
AcDbEntity
  8
0
  6
BYBLOCK
 62
     0
100
AcDbLine
 10
0.0
 20
0.0
 30
0.0
 11
-1.0
 21
0.0
 31
0.0
  0
ENDBLK
  5
A
100
AcDbEntity
  8
0
100
AcDbBlockEnd
  0
BLOCK
  5
C
100
AcDbEntity
  8
0
100
AcDbBlockBegin
  2
_DOT
 70
     0
 10
0.0
 20
0.0
 30
0.0
  3
_DOT
  1

  0
POLYLINE
  5
D
100
AcDbEntity
  8
0
  6
BYBLOCK
 62
     0
100
AcDb2dPolyline
 66
     1
 10
0.0
 20
0.0
 30
0.0
 70
     1
 40
0.5
 41
0.5
  0
VERTEX
  5
E
100
AcDbEntity
  8
0
  6
BYBLOCK
 62
     0
100
AcDbVertex
100
AcDb2dVertex
 10
-0.25
 20
0.0
 30
0.0
 42
1.0
  0
VERTEX
  5
F
100
AcDbEntity
  8
0
  6
BYBLOCK
 62
     0
100
AcDbVertex
100
AcDb2dVertex
 10
0.25
 20
0.0
 30
0.0
 42
1.0
  0
SEQEND
  5
10
100
AcDbEntity
  8
0
  6
BYBLOCK
 62
     0
  0
LINE
  5
11
100
AcDbEntity
  8
0
  6
BYBLOCK
 62
     0
100
AcDbLine
 10
-0.5
 20
0.0
 30
0.0
 11
-1.0
 21
0.0
 31
0.0
  0
ENDBLK
  5
12
100
AcDbEntity
  8
0
100
AcDbBlockEnd
  0
BLOCK
  5
14
100
AcDbEntity
  8
0
100
AcDbBlockBegin
  2
_OPEN
 70
     0
 10
0.0
 20
0.0
 30
0.0
  3
_OPEN
  1

  0
LINE
  5
15
100
AcDbEntity
  8
0
  6
BYBLOCK
 62
     0
100
AcDbLine
 10
-1.0
 20
0.166667
 30
0.0
 11
0.0
 21
0.0
 31
0.0
  0
LINE
  5
16
100
AcDbEntity
  8
0
  6
BYBLOCK
 62
     0
100
AcDbLine
 10
0.0
 20
0.0
 30
0.0
 11
-1.0
 21
-0.166667
 31
0.0
  0
LINE
  5
17
100
AcDbEntity
  8
0
  6
BYBLOCK
 62
     0
100
AcDbLine
 10
0.0
 20
0.0
 30
0.0
 11
-1.0
 21
0.0
 31
0.0
  0
ENDBLK
  5
18
100
AcDbEntity
  8
0
100
AcDbBlockEnd
  0
BLOCK
  5
1A
100
AcDbEntity
  8
0
100
AcDbBlockBegin
  2
_ORIGIN
 70
     0
 10
0.0
 20
0.0
 30
0.0
  3
_ORIGIN
  1

  0
CIRCLE
  5
1B
100
AcDbEntity
  8
0
  6
BYBLOCK
 62
     0
100
AcDbCircle
 10
0.0
 20
0.0
 30
0.0
 40
0.5
  0
LINE
  5
1C
100
AcDbEntity
  8
0
  6
BYBLOCK
 62
     0
100
AcDbLine
 10
0.0
 20
0.0
 30
0.0
 11
-1.0
 21
0.0
 31
0.0
  0
ENDBLK
  5
1D
100
AcDbEntity
  8
0
100
AcDbBlockEnd
  0
BLOCK
  5
1F
100
AcDbEntity
  8
0
100
AcDbBlockBegin
  2
_OPEN30
 70
     0
 10
0.0
 20
0.0
 30
0.0
  3
_OPEN30
  1

  0
LINE
  5
20
100
AcDbEntity
  8
0
  6
BYBLOCK
 62
     0
100
AcDbLine
 10
-1.0
 20
0.267949
 30
0.0
 11
0.0
 21
0.0
 31
0.0
  0
LINE
  5
21
100
AcDbEntity
  8
0
  6
BYBLOCK
 62
     0
100
AcDbLine
 10
0.0
 20
0.0
 30
0.0
 11
-1.0
 21
-0.267949
 31
0.0
  0
LINE
  5
22
100
AcDbEntity
  8
0
  6
BYBLOCK
 62
     0
100
AcDbLine
 10
0.0
 20
0.0
 30
0.0
 11
-1.0
 21
0.0
 31
0.0
  0
ENDBLK
  5
23
100
AcDbEntity
  8
0
100
AcDbBlockEnd
  0
BLOCK
  5
25
100
AcDbEntity
  8
0
100
AcDbBlockBegin
  2
_BOXFILLED
 70
     0
 10
0.0
 20
0.0
 30
0.0
  3
_BOXFILLED
  1

  0
SOLID
  5
26
100
AcDbEntity
  8
0
  6
BYBLOCK
 62
     0
100
AcDbTrace
 10
-0.5
 20
0.5
 30
0.0
 11
0.5
 21
0.5
 31
0.0
 12
-0.5
 22
-0.5
 32
0.0
 13
0.5
 23
-0.5
 33
0.0
  0
LINE
  5
27
100
AcDbEntity
  8
0
  6
BYBLOCK
 62
     0
100
AcDbLine
 10
-0.5
 20
0.0
 30
0.0
 11
-1.0
 21
0.0
 31
0.0
  0
ENDBLK
  5
28
100
AcDbEntity
  8
0
100
AcDbBlockEnd
  0
BLOCK
  5
2A
100
AcDbEntity
  8
0
100
AcDbBlockBegin
  2
_BOXBLANK
 70
     0
 10
0.0
 20
0.0
 30
0.0
  3
_BOXBLANK
  1

  0
LINE
  5
2B
100
AcDbEntity
  8
0
  6
BYBLOCK
 62
     0
100
AcDbLine
 10
-0.5
 20
-0.5
 30
0.0
 11
0.5
 21
-0.5
 31
0.0
  0
LINE
  5
2C
100
AcDbEntity
  8
0
  6
BYBLOCK
 62
     0
100
AcDbLine
 10
0.5
 20
-0.5
 30
0.0
 11
0.5
 21
0.5
 31
0.0
  0
LINE
  5
2D
100
AcDbEntity
  8
0
  6
BYBLOCK
 62
     0
100
AcDbLine
 10
0.5
 20
0.5
 30
0.0
 11
-0.5
 21
0.5
 31
0.0
  0
LINE
  5
2E
100
AcDbEntity
  8
0
  6
BYBLOCK
 62
     0
100
AcDbLine
 10
-0.5
 20
0.5
 30
0.0
 11
-0.5
 21
-0.5
 31
0.0
  0
LINE
  5
2F
100
AcDbEntity
  8
0
  6
BYBLOCK
 62
     0
100
AcDbLine
 10
-0.5
 20
0.0
 30
0.0
 11
-1.0
 21
0.0
 31
0.0
  0
ENDBLK
  5
30
100
AcDbEntity
  8
0
100
AcDbBlockEnd
  0
BLOCK
  5
32
100
AcDbEntity
  8
0
100
AcDbBlockBegin
  2
_OBLIQUE
 70
     0
 10
0.0
 20
0.0
 30
0.0
  3
_OBLIQUE
  1

  0
LINE
  5
33
100
AcDbEntity
  8
0
  6
BYBLOCK
 62
     0
100
AcDbLine
 10
-0.5
 20
-0.5
 30
0.0
 11
0.5
 21
0.5
 31
0.0
  0
ENDBLK
  5
34
100
AcDbEntity
  8
0
100
AcDbBlockEnd
  0
BLOCK
  5
36
100
AcDbEntity
  8
0
100
AcDbBlockBegin
  2
_OPEN90
 70
     0
 10
0.0
 20
0.0
 30
0.0
  3
_OPEN90
  1

  0
LINE
  5
37
100
AcDbEntity
  8
0
  6
BYBLOCK
 62
     0
100
AcDbLine
 10
-0.5
 20
0.5
 30
0.0
 11
0.0
 21
0.0
 31
0.0
  0
LINE
  5
38
100
AcDbEntity
  8
0
  6
BYBLOCK
 62
     0
100
AcDbLine
 10
0.0
 20
0.0
 30
0.0
 11
-0.5
 21
-0.5
 31
0.0
  0
LINE
  5
39
100
AcDbEntity
  8
0
  6
BYBLOCK
 62
     0
100
AcDbLine
 10
0.0
 20
0.0
 30
0.0
 11
-1.0
 21
0.0
 31
0.0
  0
ENDBLK
  5
3A
100
AcDbEntity
  8
0
100
AcDbBlockEnd
  0
BLOCK
  5
3C
100
AcDbEntity
  8
0
100
AcDbBlockBegin
  2
_CLOSEDBLANK
 70
     0
 10
0.0
 20
0.0
 30
0.0
  3
_CLOSEDBLANK
  1

  0
LINE
  5
3D
100
AcDbEntity
  8
0
  6
BYBLOCK
 62
     0
100
AcDbLine
 10
-1.0
 20
0.1666666666666666
 30
0.0
 11
0.0
 21
0.0
 31
0.0
  0
LINE
  5
3E
100
AcDbEntity
  8
0
  6
BYBLOCK
 62
     0
100
AcDbLine
 10
0.0
 20
0.0
 30
0.0
 11
-1.0
 21
-0.1666666666666666
 31
0.0
  0
LINE
  5
3F
100
AcDbEntity
  8
0
  6
BYBLOCK
 62
     0
100
AcDbLine
 10
-1.0
 20
0.1666666666666666
 30
0.0
 11
-1.0
 21
-0.1666666666666666
 31
0.0
  0
ENDBLK
  5
40
100
AcDbEntity
  8
0
100
AcDbBlockEnd
  0
BLOCK
  5
42
100
AcDbEntity
  8
0
100
AcDbBlockBegin
  2
_DOTBLANK
 70
     0
 10
0.0
 20
0.0
 30
0.0
  3
_DOTBLANK
  1

  0
CIRCLE
  5
43
100
AcDbEntity
  8
0
  6
BYBLOCK
 62
     0
100
AcDbCircle
 10
0.0
 20
0.0
 30
0.0
 40
0.5
  0
LINE
  5
44
100
AcDbEntity
  8
0
  6
BYBLOCK
 62
     0
100
AcDbLine
 10
-0.5
 20
0.0
 30
0.0
 11
-1.0
 21
0.0
 31
0.0
  0
ENDBLK
  5
45
100
AcDbEntity
  8
0
100
AcDbBlockEnd
  0
BLOCK
  5
66
100
AcDbEntity
  8
MAIN0
  6
CONTINUOUS
 62
3
100
AcDbBlockBegin
  2
*D0
 70
    65
 10
0.0
 20
0.0
 30
0.0
  0
LINE
  5
67
100
AcDbEntity
  8
MAIN0
  6
BYBLOCK
 62
0
100
AcDbLine
 10
411.2082927435599
 20
651.8608442107841
 30
0.0000000000000000
 11
411.2082927435599
 21
616.5528490242788
 31
0.0000000000000000
  0
LINE
  5
68
100
AcDbEntity
  8
MAIN0
  6
BYBLOCK
 62
0
100
AcDbLine
 10
411.2082927435599
 20
622.5528490242788
 30
0.0000000000000000
 11
396.2082927435506
 21
622.5528490242788
 31
0.0000000000000000
  0
INSERT
  5
69
100
AcDbEntity
  8
MAIN0
  6
BYBLOCK
 62
0
100
AcDbBlockReference
  2
_OPEN
 10
411.2082927435599
 20
622.5528490242788
 30
0.0000000000000000
 41
6.000000000000000
 42
6.000000000000000
 43
6.000000000000000
 50
180.0000000000000
  0
INSERT
  5
6A
100
AcDbEntity
  8
MAIN0
  6
BYBLOCK
 62
0
100
AcDbBlockReference
  2
_OPEN
 10
396.2082927435506
 20
622.5528490242788
 30
0.0000000000000000
 41
6.000000000000000
 42
6.000000000000000
 43
6.000000000000000
 50
360.0000000000000
  0
LINE
  5
6B
100
AcDbEntity
  8
MAIN0
  6
BYBLOCK
 62
0
100
AcDbLine
 10
417.2082927435599
 20
622.5528490242788
 30
0.0000000000000000
 11
420.2082927435599
 21
622.5528490242788
 31
0.0000000000000000
  0
LINE
  5
6C
100
AcDbEntity
  8
MAIN0
  6
BYBLOCK
 62
0
100
AcDbLine
 10
390.2082927435506
 20
622.5528490242788
 30
0.0000000000000000
 11
387.2082927435506
 21
622.5528490242788
 31
0.0000000000000000
  0
LINE
  5
6D
100
AcDbEntity
  8
MAIN0
  6
BYBLOCK
 62
0
100
AcDbLine
 10
396.2082927435506
 20
682.1122464893902
 30
0.0000000000000000
 11
396.2082927435506
 21
616.5528490242788
 31
0.0000000000000000
  0
MTEXT
  5
6E
100
AcDbEntity
  8
MAIN0
  6
BYBLOCK
 62
0
100
AcDbMText
 10
403.7082927435553
 20
627.7028488812276
 30
0.0000000000000000
 40
9.299999713897705
 41
0.0000000000000000
 71
     5
 72
     1
  1
\A1;15
 11
1.000000000000000
 21
0.0000000000000000
 31
0.0000000000000000
  7
STANDARD
  0
ENDBLK
  5
6F
100
AcDbEntity
  8
MAIN0
  6
CONTINUOUS
 62
3
100
AcDbBlockEnd
  0
BLOCK
  5
71
100
AcDbEntity
  8
MAIN0
  6
CONTINUOUS
 62
3
100
AcDbBlockBegin
  2
*D1
 70
    65
 10
0.0
 20
0.0
 30
0.0
  0
LINE
  5
72
100
AcDbEntity
  8
MAIN0
  6
BYBLOCK
 62
0
100
AcDbLine
 10
396.2082927435506
 20
682.1122464893902
 30
0.0000000000000000
 11
396.2082927435506
 21
616.5528490242788
 31
0.0000000000000000
  0
LINE
  5
73
100
AcDbEntity
  8
MAIN0
  6
BYBLOCK
 62
0
100
AcDbLine
 10
390.2082927435506
 20
622.5528490242788
 30
0.0000000000000000
 11
347.2082927435505
 21
622.5528490242788
 31
0.0000000000000000
  0
INSERT
  5
74
100
AcDbEntity
  8
MAIN0
  6
BYBLOCK
 62
0
100
AcDbBlockReference
  2
_OPEN
 10
396.2082927435506
 20
622.5528490242788
 30
0.0000000000000000
 41
6.000000000000000
 42
6.000000000000000
 43
6.000000000000000
 50
360.0000000000000
  0
INSERT
  5
75
100
AcDbEntity
  8
MAIN0
  6
BYBLOCK
 62
0
100
AcDbBlockReference
  2
_OPEN
 10
341.2082927435505
 20
622.5528490242788
 30
0.0000000000000000
 41
6.000000000000000
 42
6.000000000000000
 43
6.000000000000000
 50
180.0000000000000
  0
LINE
  5
76
100
AcDbEntity
  8
MAIN0
  6
BYBLOCK
 62
0
100
AcDbLine
 10
341.2082927435505
 20
682.1122464893944
 30
0.0000000000000000
 11
341.2082927435505
 21
616.5528490242788
 31
0.0000000000000000
  0
MTEXT
  5
77
100
AcDbEntity
  8
MAIN0
  6
BYBLOCK
 62
0
100
AcDbMText
 10
371.9534875769494
 20
628.7028488812276
 30
0.0000000000000000
 40
9.299999713897705
 41
0.0000000000000000
 71
     5
 72
     1
  1
\A1;55
 11
1.000000000000000
 21
0.0000000000000000
 31
0.0000000000000000
  7
STANDARD
  0
ENDBLK
  5
78
100
AcDbEntity
  8
MAIN0
  6
CONTINUOUS
 62
3
100
AcDbBlockEnd
  0
BLOCK
  5
7A
100
AcDbEntity
  8
MAIN0
  6
CONTINUOUS
 62
3
100
AcDbBlockBegin
  2
*D2
 70
    65
 10
0.0
 20
0.0
 30
0.0
  0
LINE
  5
7B
100
AcDbEntity
  8
MAIN0
  6
BYBLOCK
 62
0
100
AcDbLine
 10
491.2082927435538
 20
815.5608442824521
 30
0.0000000000000000
 11
491.2082927435537
 21
847.5737024427376
 31
0.0000000000000000
  0
LINE
  5
7C
100
AcDbEntity
  8
MAIN0
  6
BYBLOCK
 62
0
100
AcDbLine
 10
497.2082927435537
 20
841.5737024427376
 30
0.0000000000000000
 11
528.2082927435536
 21
841.5737024427376
 31
0.0000000000000000
  0
INSERT
  5
7D
100
AcDbEntity
  8
MAIN0
  6
BYBLOCK
 62
0
100
AcDbBlockReference
  2
_OPEN
 10
491.2082927435537
 20
841.5737024427376
 30
0.0000000000000000
 41
6.000000000000000
 42
6.000000000000000
 43
6.000000000000000
 50
180.0000000000000
  0
INSERT
  5
7E
100
AcDbEntity
  8
MAIN0
  6
BYBLOCK
 62
0
100
AcDbBlockReference
  2
_OPEN
 10
534.2082927435536
 20
841.5737024427376
 30
0.0000000000000000
 41
6.000000000000000
 42
6.000000000000000
 43
6.000000000000000
 50
0.0000000000000000
  0
LINE
  5
7F
100
AcDbEntity
  8
MAIN0
  6
BYBLOCK
 62
0
100
AcDbLine
 10
534.2082927435536
 20
747.1608442821901
 30
0.0000000000000000
 11
534.2082927435536
 21
847.5737024427376
 31
0.0000000000000000
  0
MTEXT
  5
80
100
AcDbEntity
  8
MAIN0
  6
BYBLOCK
 62
0
100
AcDbMText
 10
512.7082927435537
 20
846.7237022996865
 30
0.0000000000000000
 40
9.299999713897705
 41
0.0000000000000000
 71
     5
 72
     1
  1
\A1;43
 11
1.000000000000000
 21
0.0000000000000000
 31
0.0000000000000000
  7
STANDARD
  0
ENDBLK
  5
81
100
AcDbEntity
  8
MAIN0
  6
CONTINUOUS
 62
3
100
AcDbBlockEnd
  0
BLOCK
  5
83
100
AcDbEntity
  8
MAIN0
  6
CONTINUOUS
 62
3
100
AcDbBlockBegin
  2
*D3
 70
    65
 10
0.0
 20
0.0
 30
0.0
  0
LINE
  5
84
100
AcDbEntity
  8
MAIN0
  6
BYBLOCK
 62
0
100
AcDbLine
 10
491.2082927435537
 20
652.2108442109263
 30
0.0000000000000000
 11
491.2082927435537
 21
616.5528490242788
 31
0.0000000000000000
  0
LINE
  5
85
100
AcDbEntity
  8
MAIN0
  6
BYBLOCK
 62
0
100
AcDbLine
 10
491.2082927435537
 20
622.5528490242788
 30
0.0000000000000000
 11
506.2082927435539
 21
622.5528490242788
 31
0.0000000000000000
  0
INSERT
  5
86
100
AcDbEntity
  8
MAIN0
  6
BYBLOCK
 62
0
100
AcDbBlockReference
  2
_OPEN
 10
491.2082927435537
 20
622.5528490242788
 30
0.0000000000000000
 41
6.000000000000000
 42
6.000000000000000
 43
6.000000000000000
 50
0.0000000000000000
  0
INSERT
  5
87
100
AcDbEntity
  8
MAIN0
  6
BYBLOCK
 62
0
100
AcDbBlockReference
  2
_OPEN
 10
506.2082927435539
 20
622.5528490242788
 30
0.0000000000000000
 41
6.000000000000000
 42
6.000000000000000
 43
6.000000000000000
 50
180.0000000000000
  0
LINE
  5
88
100
AcDbEntity
  8
MAIN0
  6
BYBLOCK
 62
0
100
AcDbLine
 10
485.2082927435537
 20
622.5528490242788
 30
0.0000000000000000
 11
482.2082927435537
 21
622.5528490242788
 31
0.0000000000000000
  0
LINE
  5
89
100
AcDbEntity
  8
MAIN0
  6
BYBLOCK
 62
0
100
AcDbLine
 10
512.2082927435539
 20
622.5528490242788
 30
0.0000000000000000
 11
515.2082927435539
 21
622.5528490242788
 31
0.0000000000000000
  0
LINE
  5
8A
100
AcDbEntity
  8
MAIN0
  6
BYBLOCK
 62
0
100
AcDbLine
 10
506.2082927435539
 20
671.1612173768740
 30
0.0000000000000000
 11
506.2082927435539
 21
616.5528490242788
 31
0.0000000000000000
  0
MTEXT
  5
8B
100
AcDbEntity
  8
MAIN0
  6
BYBLOCK
 62
0
100
AcDbMText
 10
498.7082927435538
 20
627.7028488812276
 30
0.0000000000000000
 40
9.299999713897705
 41
0.0000000000000000
 71
     5
 72
     1
  1
\A1;15
 11
1.000000000000000
 21
0.0000000000000000
 31
0.0000000000000000
  7
STANDARD
  0
ENDBLK
  5
8C
100
AcDbEntity
  8
MAIN0
  6
CONTINUOUS
 62
3
100
AcDbBlockEnd
  0
BLOCK
  5
8E
100
AcDbEntity
  8
MAIN0
  6
CONTINUOUS
 62
3
100
AcDbBlockBegin
  2
*D4
 70
    65
 10
0.0
 20
0.0
 30
0.0
  0
LINE
  5
8F
100
AcDbEntity
  8
MAIN0
  6
BYBLOCK
 62
0
100
AcDbLine
 10
506.2082927435539
 20
671.1612173768740
 30
0.0000000000000000
 11
506.2082927435539
 21
616.5528490242788
 31
0.0000000000000000
  0
LINE
  5
90
100
AcDbEntity
  8
MAIN0
  6
BYBLOCK
 62
0
100
AcDbLine
 10
512.2082927435539
 20
622.5528490242788
 30
0.0000000000000000
 11
550.2082927435539
 21
622.5528490242788
 31
0.0000000000000000
  0
INSERT
  5
91
100
AcDbEntity
  8
MAIN0
  6
BYBLOCK
 62
0
100
AcDbBlockReference
  2
_OPEN
 10
506.2082927435539
 20
622.5528490242788
 30
0.0000000000000000
 41
6.000000000000000
 42
6.000000000000000
 43
6.000000000000000
 50
180.0000000000000
  0
INSERT
  5
92
100
AcDbEntity
  8
MAIN0
  6
BYBLOCK
 62
0
100
AcDbBlockReference
  2
_OPEN
 10
556.2082927435539
 20
622.5528490242788
 30
0.0000000000000000
 41
6.000000000000000
 42
6.000000000000000
 43
6.000000000000000
 50
0.0000000000000000
  0
LINE
  5
93
100
AcDbEntity
  8
MAIN0
  6
BYBLOCK
 62
0
100
AcDbLine
 10
556.2082927435539
 20
671.1612173768742
 30
0.0000000000000000
 11
556.2082927435539
 21
616.5528490242788
 31
0.0000000000000000
  0
MTEXT
  5
94
100
AcDbEntity
  8
MAIN0
  6
BYBLOCK
 62
0
100
AcDbMText
 10
526.6964985423675
 20
628.7028488812276
 30
0.0000000000000000
 40
9.299999713897705
 41
0.0000000000000000
 71
     5
 72
     1
  1
\A1;50
 11
1.000000000000000
 21
0.0000000000000000
 31
0.0000000000000000
  7
STANDARD
  0
ENDBLK
  5
95
100
AcDbEntity
  8
MAIN0
  6
CONTINUOUS
 62
3
100
AcDbBlockEnd
  0
BLOCK
  5
97
100
AcDbEntity
  8
MAIN0
  6
CONTINUOUS
 62
3
100
AcDbBlockBegin
  2
*D5
 70
    65
 10
0.0
 20
0.0
 30
0.0
  0
LINE
  5
98
100
AcDbEntity
  8
MAIN0
  6
BYBLOCK
 62
0
100
AcDbLine
 10
328.3686607127551
 20
693.7608442466894
 30
0.0000000000000000
 11
284.2974068596752
 21
693.7608442466894
 31
0.0000000000000000
  0
LINE
  5
99
100
AcDbEntity
  8
MAIN0
  6
BYBLOCK
 62
0
100
AcDbLine
 10
290.2974068596752
 20
699.7608442466894
 30
0.0000000000000000
 11
290.2974068596752
 21
767.7608442466894
 31
0.0000000000000000
  0
INSERT
  5
9A
100
AcDbEntity
  8
MAIN0
  6
BYBLOCK
 62
0
100
AcDbBlockReference
  2
_OPEN
 10
290.2974068596752
 20
693.7608442466894
 30
0.0000000000000000
 41
6.000000000000000
 42
6.000000000000000
 43
6.000000000000000
 50
270.0000000000000
  0
INSERT
  5
9B
100
AcDbEntity
  8
MAIN0
  6
BYBLOCK
 62
0
100
AcDbBlockReference
  2
_OPEN
 10
290.2974068596752
 20
773.7608442466894
 30
0.0000000000000000
 41
6.000000000000000
 42
6.000000000000000
 43
6.000000000000000
 50
90.00000000000000
  0
LINE
  5
9C
100
AcDbEntity
  8
MAIN0
  6
BYBLOCK
 62
0
100
AcDbLine
 10
328.3686607127550
 20
773.7608442466894
 30
0.0000000000000000
 11
284.2974068596752
 21
773.7608442466894
 31
0.0000000000000000
  0
MTEXT
  5
9D
100
AcDbEntity
  8
MAIN0
  6
BYBLOCK
 62
0
100
AcDbMText
 10
285.1474070027264
 20
733.7608442466894
 30
0.0000000000000000
 40
9.299999713897705
 41
0.0000000000000000
 71
     5
 72
     1
  1
\A1;80
 11
6.123233995736766e-017
 21
1.000000000000000
 31
0.0000000000000000
  7
STANDARD
  0
ENDBLK
  5
9E
100
AcDbEntity
  8
MAIN0
  6
CONTINUOUS
 62
3
100
AcDbBlockEnd
  0
BLOCK
  5
A0
100
AcDbEntity
  8
MAIN0
  6
CONTINUOUS
 62
3
100
AcDbBlockBegin
  2
*D6
 70
    65
 10
0.0
 20
0.0
 30
0.0
  0
LINE
  5
A1
100
AcDbEntity
  8
MAIN0
  6
BYBLOCK
 62
0
100
AcDbLine
 10
568.1393388944759
 20
683.7608442466895
 30
0.0000000000000000
 11
615.5434914645387
 21
683.7608442466895
 31
0.0000000000000000
  0
LINE
  5
A2
100
AcDbEntity
  8
MAIN0
  6
BYBLOCK
 62
0
100
AcDbLine
 10
609.5434914645387
 20
689.7608442466895
 30
0.0000000000000000
 11
609.5434914645387
 21
777.7608442466897
 31
0.0000000000000000
  0
INSERT
  5
A3
100
AcDbEntity
  8
MAIN0
  6
BYBLOCK
 62
0
100
AcDbBlockReference
  2
_OPEN
 10
609.5434914645387
 20
683.7608442466895
 30
0.0000000000000000
 41
6.000000000000000
 42
6.000000000000000
 43
6.000000000000000
 50
270.0000000000000
  0
INSERT
  5
A4
100
AcDbEntity
  8
MAIN0
  6
BYBLOCK
 62
0
100
AcDbBlockReference
  2
_OPEN
 10
609.5434914645387
 20
783.7608442466897
 30
0.0000000000000000
 41
6.000000000000000
 42
6.000000000000000
 43
6.000000000000000
 50
90.00000000000000
  0
LINE
  5
A5
100
AcDbEntity
  8
MAIN0
  6
BYBLOCK
 62
0
100
AcDbLine
 10
568.1393388944759
 20
783.7608442466897
 30
0.0000000000000000
 11
615.5434914645387
 21
783.7608442466897
 31
0.0000000000000000
  0
MTEXT
  5
A6
100
AcDbEntity
  8
MAIN0
  6
BYBLOCK
 62
0
100
AcDbMText
 10
604.3934916075898
 20
733.7608442466897
 30
0.0000000000000000
 40
9.299999713897705
 41
0.0000000000000000
 71
     5
 72
     1
  1
\A1;100
 11
6.123233995736766e-017
 21
1.000000000000000
 31
0.0000000000000000
  7
STANDARD
  0
ENDBLK
  5
A7
100
AcDbEntity
  8
MAIN0
  6
CONTINUOUS
 62
3
100
AcDbBlockEnd
  0
BLOCK
  5
DE
100
AcDbEntity
  8
MAIN0
  6
CONTINUOUS
 62
3
100
AcDbBlockBegin
  2
*D7
 70
    65
 10
0.0
 20
0.0
 30
0.0
  0
LINE
  5
DF
100
AcDbEntity
  8
MAIN0
  6
BYBLOCK
 62
0
100
AcDbLine
 10
902.4672252361346
 20
440.4158954399465
 30
0.0000000000000000
 11
902.4672252361271
 21
703.6048344286792
 31
0.0000000000000000
  0
LINE
  5
E0
100
AcDbEntity
  8
MAIN0
  6
BYBLOCK
 62
0
100
AcDbLine
 10
902.4672252361272
 20
697.6048344286792
 30
0.0000000000000000
 11
917.4672252361276
 21
697.6048344286792
 31
0.0000000000000000
  0
INSERT
  5
E1
100
AcDbEntity
  8
MAIN0
  6
BYBLOCK
 62
0
100
AcDbBlockReference
  2
_OPEN
 10
902.4672252361272
 20
697.6048344286792
 30
0.0000000000000000
 41
6.000000000000000
 42
6.000000000000000
 43
6.000000000000000
 50
0.0000000000000000
  0
INSERT
  5
E2
100
AcDbEntity
  8
MAIN0
  6
BYBLOCK
 62
0
100
AcDbBlockReference
  2
_OPEN
 10
917.4672252361276
 20
697.6048344286792
 30
0.0000000000000000
 41
6.000000000000000
 42
6.000000000000000
 43
6.000000000000000
 50
180.0000000000000
  0
LINE
  5
E3
100
AcDbEntity
  8
MAIN0
  6
BYBLOCK
 62
0
100
AcDbLine
 10
896.4672252361272
 20
697.6048344286792
 30
0.0000000000000000
 11
893.4672252361272
 21
697.6048344286792
 31
0.0000000000000000
  0
LINE
  5
E4
100
AcDbEntity
  8
MAIN0
  6
BYBLOCK
 62
0
100
AcDbLine
 10
923.4672252361276
 20
697.6048344286792
 30
0.0000000000000000
 11
926.4672252361276
 21
697.6048344286792
 31
0.0000000000000000
  0
LINE
  5
E5
100
AcDbEntity
  8
MAIN0
  6
BYBLOCK
 62
0
100
AcDbLine
 10
917.4672252361276
 20
450.0158954399464
 30
0.0000000000000000
 11
917.4672252361276
 21
703.6048344286792
 31
0.0000000000000000
  0
MTEXT
  5
E6
100
AcDbEntity
  8
MAIN0
  6
BYBLOCK
 62
0
100
AcDbMText
 10
909.9672252361274
 20
702.7548342856280
 30
0.0000000000000000
 40
9.299999713897705
 41
0.0000000000000000
 71
     5
 72
     1
  1
\A1;15
 11
1.000000000000000
 21
0.0000000000000000
 31
0.0000000000000000
  7
STANDARD
  0
ENDBLK
  5
E7
100
AcDbEntity
  8
MAIN0
  6
CONTINUOUS
 62
3
100
AcDbBlockEnd
  0
BLOCK
  5
E9
100
AcDbEntity
  8
MAIN0
  6
CONTINUOUS
 62
3
100
AcDbBlockBegin
  2
*D8
 70
    65
 10
0.0
 20
0.0
 30
0.0
  0
LINE
  5
EA
100
AcDbEntity
  8
MAIN0
  6
BYBLOCK
 62
0
100
AcDbLine
 10
917.4672252361276
 20
450.0158954399464
 30
0.0000000000000000
 11
917.4672252361276
 21
703.6048344286792
 31
0.0000000000000000
  0
LINE
  5
EB
100
AcDbEntity
  8
MAIN0
  6
BYBLOCK
 62
0
100
AcDbLine
 10
923.4672252361351
 20
697.6048344286792
 30
0.0000000000000000
 11
948.4672252363002
 21
697.6048344286792
 31
0.0000000000000000
  0
INSERT
  5
EC
100
AcDbEntity
  8
MAIN0
  6
BYBLOCK
 62
0
100
AcDbBlockReference
  2
_OPEN
 10
917.4672252361351
 20
697.6048344286792
 30
0.0000000000000000
 41
6.000000000000000
 42
6.000000000000000
 43
6.000000000000000
 50
180.0000000000000
  0
INSERT
  5
ED
100
AcDbEntity
  8
MAIN0
  6
BYBLOCK
 62
0
100
AcDbBlockReference
  2
_OPEN
 10
954.4672252363002
 20
697.6048344286792
 30
0.0000000000000000
 41
6.000000000000000
 42
6.000000000000000
 43
6.000000000000000
 50
0.0000000000000000
  0
LINE
  5
EE
100
AcDbEntity
  8
MAIN0
  6
BYBLOCK
 62
0
100
AcDbLine
 10
954.4672252363002
 20
653.4158954399488
 30
0.0000000000000000
 11
954.4672252363002
 21
703.6048344286792
 31
0.0000000000000000
  0
MTEXT
  5
EF
100
AcDbEntity
  8
MAIN0
  6
BYBLOCK
 62
0
100
AcDbMText
 10
935.9672252362177
 20
702.7548342856280
 30
0.0000000000000000
 40
9.299999713897705
 41
0.0000000000000000
 71
     5
 72
     1
  1
\A1;37
 11
1.000000000000000
 21
0.0000000000000000
 31
0.0000000000000000
  7
STANDARD
  0
ENDBLK
  5
F0
100
AcDbEntity
  8
MAIN0
  6
CONTINUOUS
 62
3
100
AcDbBlockEnd
  0
BLOCK
  5
F2
100
AcDbEntity
  8
MAIN0
  6
CONTINUOUS
 62
3
100
AcDbBlockBegin
  2
*D9
 70
    65
 10
0.0
 20
0.0
 30
0.0
  0
LINE
  5
F3
100
AcDbEntity
  8
MAIN0
  6
BYBLOCK
 62
0
100
AcDbLine
 10
954.4672252363002
 20
653.4158954399488
 30
0.0000000000000000
 11
954.4672252363002
 21
703.6048344286792
 31
0.0000000000000000
  0
LINE
  5
F4
100
AcDbEntity
  8
MAIN0
  6
BYBLOCK
 62
0
100
AcDbLine
 10
960.4672252363002
 20
697.6048344286792
 30
0.0000000000000000
 11
1043.467225236312
 21
697.6048344286792
 31
0.0000000000000000
  0
INSERT
  5
F5
100
AcDbEntity
  8
MAIN0
  6
BYBLOCK
 62
0
100
AcDbBlockReference
  2
_OPEN
 10
954.4672252363002
 20
697.6048344286792
 30
0.0000000000000000
 41
6.000000000000000
 42
6.000000000000000
 43
6.000000000000000
 50
180.0000000000000
  0
INSERT
  5
F6
100
AcDbEntity
  8
MAIN0
  6
BYBLOCK
 62
0
100
AcDbBlockReference
  2
_OPEN
 10
1049.467225236312
 20
697.6048344286792
 30
0.0000000000000000
 41
6.000000000000000
 42
6.000000000000000
 43
6.000000000000000
 50
0.0000000000000000
  0
LINE
  5
F7
100
AcDbEntity
  8
MAIN0
  6
BYBLOCK
 62
0
100
AcDbLine
 10
1049.467225236312
 20
665.4158954399466
 30
0.0000000000000000
 11
1049.467225236312
 21
703.6048344286792
 31
0.0000000000000000
  0
MTEXT
  5
F8
100
AcDbEntity
  8
MAIN0
  6
BYBLOCK
 62
0
100
AcDbMText
 10
1001.967225236306
 20
702.7548342856280
 30
0.0000000000000000
 40
9.299999713897705
 41
0.0000000000000000
 71
     5
 72
     1
  1
\A1;95
 11
1.000000000000000
 21
0.0000000000000000
 31
0.0000000000000000
  7
STANDARD
  0
ENDBLK
  5
F9
100
AcDbEntity
  8
MAIN0
  6
CONTINUOUS
 62
3
100
AcDbBlockEnd
  0
BLOCK
  5
FB
100
AcDbEntity
  8
MAIN0
  6
CONTINUOUS
 62
3
100
AcDbBlockBegin
  2
*D10
 70
    65
 10
0.0
 20
0.0
 30
0.0
  0
LINE
  5
FC
100
AcDbEntity
  8
MAIN0
  6
BYBLOCK
 62
0
100
AcDbLine
 10
902.4672252361347
 20
440.4158954399465
 30
0.0000000000000000
 11
902.4672252361347
 21
726.0071421640072
 31
0.0000000000000000
  0
LINE
  5
FD
100
AcDbEntity
  8
MAIN0
  6
BYBLOCK
 62
0
100
AcDbLine
 10
908.4672252361347
 20
720.0071421640072
 30
0.0000000000000000
 11
1043.467225236312
 21
720.0071421640072
 31
0.0000000000000000
  0
INSERT
  5
FE
100
AcDbEntity
  8
MAIN0
  6
BYBLOCK
 62
0
100
AcDbBlockReference
  2
_OPEN
 10
902.4672252361347
 20
720.0071421640072
 30
0.0000000000000000
 41
6.000000000000000
 42
6.000000000000000
 43
6.000000000000000
 50
180.0000000000000
  0
INSERT
  5
FF
100
AcDbEntity
  8
MAIN0
  6
BYBLOCK
 62
0
100
AcDbBlockReference
  2
_OPEN
 10
1049.467225236312
 20
720.0071421640072
 30
0.0000000000000000
 41
6.000000000000000
 42
6.000000000000000
 43
6.000000000000000
 50
0.0000000000000000
  0
LINE
  5
100
100
AcDbEntity
  8
MAIN0
  6
BYBLOCK
 62
0
100
AcDbLine
 10
1049.467225236312
 20
665.4158954399466
 30
0.0000000000000000
 11
1049.467225236312
 21
726.0071421640072
 31
0.0000000000000000
  0
MTEXT
  5
101
100
AcDbEntity
  8
MAIN0
  6
BYBLOCK
 62
0
100
AcDbMText
 10
975.9672252362235
 20
725.1571420209560
 30
0.0000000000000000
 40
9.299999713897705
 41
0.0000000000000000
 71
     5
 72
     1
  1
\A1;147
 11
1.000000000000000
 21
0.0000000000000000
 31
0.0000000000000000
  7
STANDARD
  0
ENDBLK
  5
102
100
AcDbEntity
  8
MAIN0
  6
CONTINUOUS
 62
3
100
AcDbBlockEnd
  0
BLOCK
  5
104
100
AcDbEntity
  8
MAIN0
  6
CONTINUOUS
 62
3
100
AcDbBlockBegin
  2
*D11
 70
    65
 10
0.0
 20
0.0
 30
0.0
  0
LINE
  5
105
100
AcDbEntity
  8
MAIN0
  6
BYBLOCK
 62
0
100
AcDbLine
 10
411.2082927435548
 20
417.7883229820638
 30
0.0000000000000000
 11
411.2082927435548
 21
266.1883230178268
 31
0.0000000000000000
  0
LINE
  5
106
100
AcDbEntity
  8
MAIN0
  6
BYBLOCK
 62
0
100
AcDbLine
 10
417.2082927435548
 20
272.1883230178268
 30
0.0000000000000000
 11
455.2082927434059
 21
272.1883230178268
 31
0.0000000000000000
  0
INSERT
  5
107
100
AcDbEntity
  8
MAIN0
  6
BYBLOCK
 62
0
100
AcDbBlockReference
  2
_OPEN
 10
411.2082927435548
 20
272.1883230178268
 30
0.0000000000000000
 41
6.000000000000000
 42
6.000000000000000
 43
6.000000000000000
 50
180.0000000000000
  0
INSERT
  5
108
100
AcDbEntity
  8
MAIN0
  6
BYBLOCK
 62
0
100
AcDbBlockReference
  2
_OPEN
 10
461.2082927434059
 20
272.1883230178268
 30
0.0000000000000000
 41
6.000000000000000
 42
6.000000000000000
 43
6.000000000000000
 50
0.0000000000000000
  0
LINE
  5
109
100
AcDbEntity
  8
MAIN0
  6
BYBLOCK
 62
0
100
AcDbLine
 10
461.2082927434059
 20
304.7883229820637
 30
0.0000000000000000
 11
461.2082927434059
 21
266.1883230178268
 31
0.0000000000000000
  0
MTEXT
  5
10A
100
AcDbEntity
  8
MAIN0
  6
BYBLOCK
 62
0
100
AcDbMText
 10
436.2082927434803
 20
277.3383228747757
 30
0.0000000000000000
 40
9.299999713897705
 41
0.0000000000000000
 71
     5
 72
     1
  1
\A1;50
 11
1.000000000000000
 21
0.0000000000000000
 31
0.0000000000000000
  7
STANDARD
  0
ENDBLK
  5
10B
100
AcDbEntity
  8
MAIN0
  6
CONTINUOUS
 62
3
100
AcDbBlockEnd
  0
BLOCK
  5
10D
100
AcDbEntity
  8
MAIN0
  6
CONTINUOUS
 62
3
100
AcDbBlockBegin
  2
*D12
 70
    65
 10
0.0
 20
0.0
 30
0.0
  0
LINE
  5
10E
100
AcDbEntity
  8
MAIN0
  6
BYBLOCK
 62
0
100
AcDbLine
 10
461.2082927434059
 20
304.7883229820637
 30
0.0000000000000000
 11
461.2082927434059
 21
266.1883230178268
 31
0.0000000000000000
  0
LINE
  5
10F
100
AcDbEntity
  8
MAIN0
  6
BYBLOCK
 62
0
100
AcDbLine
 10
467.2082927434059
 20
272.1883230178268
 30
0.0000000000000000
 11
770.2082927435553
 21
272.1883230178268
 31
0.0000000000000000
  0
INSERT
  5
110
100
AcDbEntity
  8
MAIN0
  6
BYBLOCK
 62
0
100
AcDbBlockReference
  2
_OPEN
 10
461.2082927434059
 20
272.1883230178268
 30
0.0000000000000000
 41
6.000000000000000
 42
6.000000000000000
 43
6.000000000000000
 50
180.0000000000000
  0
INSERT
  5
111
100
AcDbEntity
  8
MAIN0
  6
BYBLOCK
 62
0
100
AcDbBlockReference
  2
_OPEN
 10
776.2082927435553
 20
272.1883230178268
 30
0.0000000000000000
 41
6.000000000000000
 42
6.000000000000000
 43
6.000000000000000
 50
0.0000000000000000
  0
LINE
  5
112
100
AcDbEntity
  8
MAIN0
  6
BYBLOCK
 62
0
100
AcDbLine
 10
776.2082927435553
 20
317.7883229820636
 30
0.0000000000000000
 11
776.2082927435553
 21
266.1883230178268
 31
0.0000000000000000
  0
MTEXT
  5
113
100
AcDbEntity
  8
MAIN0
  6
BYBLOCK
 62
0
100
AcDbMText
 10
618.7082927434806
 20
277.3383228747757
 30
0.0000000000000000
 40
9.299999713897705
 41
0.0000000000000000
 71
     5
 72
     1
  1
\A1;315
 11
1.000000000000000
 21
0.0000000000000000
 31
0.0000000000000000
  7
STANDARD
  0
ENDBLK
  5
114
100
AcDbEntity
  8
MAIN0
  6
CONTINUOUS
 62
3
100
AcDbBlockEnd
  0
BLOCK
  5
116
100
AcDbEntity
  8
MAIN0
  6
CONTINUOUS
 62
3
100
AcDbBlockBegin
  2
*D13
 70
    65
 10
0.0
 20
0.0
 30
0.0
  0
LINE
  5
117
100
AcDbEntity
  8
MAIN0
  6
BYBLOCK
 62
0
100
AcDbLine
 10
661.2082927435552
 20
326.1883230178268
 30
0.0000000000000000
 11
661.2082927435552
 21
362.6883230152453
 31
0.0000000000000000
  0
INSERT
  5
118
100
AcDbEntity
  8
MAIN0
  6
BYBLOCK
 62
0
100
AcDbBlockReference
  2
_OPEN
 10
661.2082927435552
 20
320.1883230178268
 30
0.0000000000000000
 41
6.000000000000000
 42
6.000000000000000
 43
6.000000000000000
 50
270.0000000000000
  0
INSERT
  5
119
100
AcDbEntity
  8
MAIN0
  6
BYBLOCK
 62
0
100
AcDbBlockReference
  2
_OPEN
 10
661.2082927435552
 20
368.6883230152453
 30
0.0000000000000000
 41
6.000000000000000
 42
6.000000000000000
 43
6.000000000000000
 50
90.00000000000000
  0
LINE
  5
11A
100
AcDbEntity
  8
MAIN0
  6
BYBLOCK
 62
0
100
AcDbLine
 10
679.8082927077924
 20
368.6883230152453
 30
0.0000000000000000
 11
655.2082927435552
 21
368.6883230152453
 31
0.0000000000000000
  0
MTEXT
  5
11B
100
AcDbEntity
  8
MAIN0
  6
BYBLOCK
 62
0
100
AcDbMText
 10
655.0582928866063
 20
337.0738680690297
 30
0.0000000000000000
 40
9.299999713897705
 41
0.0000000000000000
 71
     5
 72
     1
  1
\A1;48.5
 11
6.123233995736766e-017
 21
1.000000000000000
 31
0.0000000000000000
  7
STANDARD
  0
ENDBLK
  5
11C
100
AcDbEntity
  8
MAIN0
  6
CONTINUOUS
 62
3
100
AcDbBlockEnd
  0
BLOCK
  5
11E
100
AcDbEntity
  8
MAIN0
  6
CONTINUOUS
 62
3
100
AcDbBlockBegin
  2
*D14
 70
    65
 10
0.0
 20
0.0
 30
0.0
  0
LINE
  5
11F
100
AcDbEntity
  8
MAIN0
  6
BYBLOCK
 62
0
100
AcDbLine
 10
679.8082927077924
 20
368.6883230152453
 30
0.0000000000000000
 11
655.2082927435552
 21
368.6883230152453
 31
0.0000000000000000
  0
LINE
  5
120
100
AcDbEntity
  8
MAIN0
  6
BYBLOCK
 62
0
100
AcDbLine
 10
661.2082927435552
 20
374.6883230152453
 30
0.0000000000000000
 11
661.2082927435552
 21
414.1883230178266
 31
0.0000000000000000
  0
INSERT
  5
121
100
AcDbEntity
  8
MAIN0
  6
BYBLOCK
 62
0
100
AcDbBlockReference
  2
_OPEN
 10
661.2082927435552
 20
368.6883230152453
 30
0.0000000000000000
 41
6.000000000000000
 42
6.000000000000000
 43
6.000000000000000
 50
270.0000000000000
  0
INSERT
  5
122
100
AcDbEntity
  8
MAIN0
  6
BYBLOCK
 62
0
100
AcDbBlockReference
  2
_OPEN
 10
661.2082927435552
 20
420.1883230178266
 30
0.0000000000000000
 41
6.000000000000000
 42
6.000000000000000
 43
6.000000000000000
 50
90.00000000000000
  0
LINE
  5
123
100
AcDbEntity
  8
MAIN0
  6
BYBLOCK
 62
0
100
AcDbLine
 10
579.6082927793177
 20
420.1883230178266
 30
0.0000000000000000
 11
667.2082927435552
 21
420.1883230178266
 31
0.0000000000000000
  0
MTEXT
  5
124
100
AcDbEntity
  8
MAIN0
  6
BYBLOCK
 62
0
100
AcDbMText
 10
656.0582928866063
 20
394.4383230165360
 30
0.0000000000000000
 40
9.299999713897705
 41
0.0000000000000000
 71
     5
 72
     1
  1
\A1;51.5
 11
6.123233995736766e-017
 21
1.000000000000000
 31
0.0000000000000000
  7
STANDARD
  0
ENDBLK
  5
125
100
AcDbEntity
  8
MAIN0
  6
CONTINUOUS
 62
3
100
AcDbBlockEnd
  0
BLOCK
  5
127
100
AcDbEntity
  8
MAIN0
  6
CONTINUOUS
 62
3
100
AcDbBlockBegin
  2
*D15
 70
    65
 10
0.0
 20
0.0
 30
0.0
  0
LINE
  5
128
100
AcDbEntity
  8
MAIN0
  6
BYBLOCK
 62
0
100
AcDbLine
 10
364.2082927435478
 20
747.1608442824308
 30
0.0000000000000000
 11
364.2082927435478
 21
847.5737024427376
 31
0.0000000000000000
  0
LINE
  5
129
100
AcDbEntity
  8
MAIN0
  6
BYBLOCK
 62
0
100
AcDbLine
 10
370.2082927435478
 20
841.5737024427376
 30
0.0000000000000000
 11
405.2082927435483
 21
841.5737024427376
 31
0.0000000000000000
  0
INSERT
  5
12A
100
AcDbEntity
  8
MAIN0
  6
BYBLOCK
 62
0
100
AcDbBlockReference
  2
_OPEN
 10
364.2082927435478
 20
841.5737024427376
 30
0.0000000000000000
 41
6.000000000000000
 42
6.000000000000000
 43
6.000000000000000
 50
180.0000000000000
  0
INSERT
  5
12B
100
AcDbEntity
  8
MAIN0
  6
BYBLOCK
 62
0
100
AcDbBlockReference
  2
_OPEN
 10
411.2082927435483
 20
841.5737024427376
 30
0.0000000000000000
 41
6.000000000000000
 42
6.000000000000000
 43
6.000000000000000
 50
0.0000000000000000
  0
LINE
  5
12C
100
AcDbEntity
  8
MAIN0
  6
BYBLOCK
 62
0
100
AcDbLine
 10
411.2082927435483
 20
815.6608442816614
 30
0.0000000000000000
 11
411.2082927435483
 21
847.5737024427376
 31
0.0000000000000000
  0
MTEXT
  5
12D
100
AcDbEntity
  8
MAIN0
  6
BYBLOCK
 62
0
100
AcDbMText
 10
387.7082927435480
 20
846.7237022996865
 30
0.0000000000000000
 40
9.299999713897705
 41
0.0000000000000000
 71
     5
 72
     1
  1
\A1;47
 11
1.000000000000000
 21
0.0000000000000000
 31
0.0000000000000000
  7
STANDARD
  0
ENDBLK
  5
12E
100
AcDbEntity
  8
MAIN0
  6
CONTINUOUS
 62
3
100
AcDbBlockEnd
  0
BLOCK
  5
130
100
AcDbEntity
  8
MAIN0
  6
CONTINUOUS
 62
3
100
AcDbBlockBegin
  2
*D16
 70
    65
 10
0.0
 20
0.0
 30
0.0
  0
LINE
  5
131
100
AcDbEntity
  8
MAIN0
  6
BYBLOCK
 62
0
100
AcDbLine
 10
985.4987182842272
 20
347.7883229825300
 30
0.0000000000000000
 11
985.4987182842272
 21
248.1883230178263
 31
0.0000000000000000
  0
LINE
  5
132
100
AcDbEntity
  8
MAIN0
  6
BYBLOCK
 62
0
100
AcDbLine
 10
991.4987182842272
 20
254.1883230178263
 30
0.0000000000000000
 11
1050.498718284227
 21
254.1883230178263
 31
0.0000000000000000
  0
INSERT
  5
133
100
AcDbEntity
  8
MAIN0
  6
BYBLOCK
 62
0
100
AcDbBlockReference
  2
_OPEN
 10
985.4987182842272
 20
254.1883230178263
 30
0.0000000000000000
 41
6.000000000000000
 42
6.000000000000000
 43
6.000000000000000
 50
180.0000000000000
  0
INSERT
  5
134
100
AcDbEntity
  8
MAIN0
  6
BYBLOCK
 62
0
100
AcDbBlockReference
  2
_OPEN
 10
1056.498718284227
 20
254.1883230178263
 30
0.0000000000000000
 41
6.000000000000000
 42
6.000000000000000
 43
6.000000000000000
 50
0.0000000000000000
  0
LINE
  5
135
100
AcDbEntity
  8
MAIN0
  6
BYBLOCK
 62
0
100
AcDbLine
 10
1056.498718284227
 20
317.7883229825298
 30
0.0000000000000000
 11
1056.498718284227
 21
248.1883230178263
 31
0.0000000000000000
  0
MTEXT
  5
136
100
AcDbEntity
  8
MAIN0
  6
BYBLOCK
 62
0
100
AcDbMText
 10
1020.998718284227
 20
259.3383228747751
 30
0.0000000000000000
 40
9.299999713897705
 41
0.0000000000000000
 71
     5
 72
     1
  1
\A1;71
 11
1.000000000000000
 21
0.0000000000000000
 31
0.0000000000000000
  7
STANDARD
  0
ENDBLK
  5
137
100
AcDbEntity
  8
MAIN0
  6
CONTINUOUS
 62
3
100
AcDbBlockEnd
  0
BLOCK
  5
139
100
AcDbEntity
  8
MAIN0
  6
CONTINUOUS
 62
3
100
AcDbBlockBegin
  2
*D17
 70
    65
 10
0.0
 20
0.0
 30
0.0
  0
LINE
  5
13A
100
AcDbEntity
  8
MAIN0
  6
BYBLOCK
 62
0
100
AcDbLine
 10
1056.498718284227
 20
317.7883229825298
 30
0.0000000000000000
 11
1056.498718284227
 21
248.1883230178263
 31
0.0000000000000000
  0
LINE
  5
13B
100
AcDbEntity
  8
MAIN0
  6
BYBLOCK
 62
0
100
AcDbLine
 10
1062.498718284227
 20
254.1883230178263
 30
0.0000000000000000
 11
1211.498718284227
 21
254.1883230178263
 31
0.0000000000000000
  0
INSERT
  5
13C
100
AcDbEntity
  8
MAIN0
  6
BYBLOCK
 62
0
100
AcDbBlockReference
  2
_OPEN
 10
1056.498718284227
 20
254.1883230178263
 30
0.0000000000000000
 41
6.000000000000000
 42
6.000000000000000
 43
6.000000000000000
 50
180.0000000000000
  0
INSERT
  5
13D
100
AcDbEntity
  8
MAIN0
  6
BYBLOCK
 62
0
100
AcDbBlockReference
  2
_OPEN
 10
1217.498718284227
 20
254.1883230178263
 30
0.0000000000000000
 41
6.000000000000000
 42
6.000000000000000
 43
6.000000000000000
 50
0.0000000000000000
  0
LINE
  5
13E
100
AcDbEntity
  8
MAIN0
  6
BYBLOCK
 62
0
100
AcDbLine
 10
1217.498718284227
 20
317.7883229825298
 30
0.0000000000000000
 11
1217.498718284227
 21
248.1883230178263
 31
0.0000000000000000
  0
MTEXT
  5
13F
100
AcDbEntity
  8
MAIN0
  6
BYBLOCK
 62
0
100
AcDbMText
 10
1136.998718284227
 20
259.3383228747751
 30
0.0000000000000000
 40
9.299999713897705
 41
0.0000000000000000
 71
     5
 72
     1
  1
\A1;161
 11
1.000000000000000
 21
0.0000000000000000
 31
0.0000000000000000
  7
STANDARD
  0
ENDBLK
  5
140
100
AcDbEntity
  8
MAIN0
  6
CONTINUOUS
 62
3
100
AcDbBlockEnd
  0
BLOCK
  5
142
100
AcDbEntity
  8
MAIN0
  6
CONTINUOUS
 62
3
100
AcDbBlockBegin
  2
D18
 70
    64
 10
0.0
 20
0.0
 30
0.0
  0
LINE
  5
143
100
AcDbEntity
  8
MAIN0
  6
BYBLOCK
 62
0
100
AcDbLine
 10
22.18670597206346
 20
-69.01663957489481
 30
0.0000000000000000
 11
-151.4999999998864
 21
-69.01663957489504
 31
0.0000000000000000
  0
LINE
  5
144
100
AcDbEntity
  8
MAIN0
  6
BYBLOCK
 62
0
100
AcDbLine
 10
-145.4999999998864
 20
-70.81663964642060
 30
0.0000000000000000
 11
-151.4999999998864
 21
-69.01663957489504
 31
0.0000000000000000
  0
LINE
  5
145
100
AcDbEntity
  8
MAIN0
  6
BYBLOCK
 62
0
100
AcDbLine
 10
-151.4999999998864
 20
-69.01663957489504
 30
0.0000000000000000
 11
-145.4999999998864
 21
-67.21663950336945
 31
0.0000000000000000
  0
LINE
  5
146
100
AcDbEntity
  8
MAIN0
  6
BYBLOCK
 62
0
100
AcDbLine
 10
-151.4999999998865
 20
42.58336038980869
 30
0.0000000000000000
 11
-151.4999999998864
 21
-75.01663957489504
 31
0.0000000000000000
  0
MTEXT
  5
147
100
AcDbEntity
  8
MAIN0
  6
BYBLOCK
 62
0
100
AcDbMText
 10
14.43670596833817
 20
-63.86663971794599
 30
0.0000000000000000
 40
9.299999713897705
 41
0.0000000000000000
 71
     5
 72
     1
  1
\A1;（303）
 11
1.000000000000000
 21
0.0000000000000000
 31
0.0000000000000000
  7
KNJYOKO
  0
ENDBLK
  5
148
100
AcDbEntity
  8
MAIN0
  6
CONTINUOUS
 62
3
100
AcDbBlockEnd
  0
BLOCK
  5
150
100
AcDbEntity
  8
MAIN0
  6
CONTINUOUS
 62
3
100
AcDbBlockBegin
  2
*D19
 70
    65
 10
0.0
 20
0.0
 30
0.0
  0
LINE
  5
151
100
AcDbEntity
  8
MAIN0
  6
BYBLOCK
 62
0
100
AcDbLine
 10
907.3111504125221
 20
352.5883230540921
 30
0.0000000000000000
 11
907.3111504125221
 21
389.9613173173700
 31
0.0000000000000000
  0
LINE
  5
152
100
AcDbEntity
  8
MAIN0
  6
BYBLOCK
 62
0
100
AcDbLine
 10
913.3111504125221
 20
383.9613173173700
 30
0.0000000000000000
 11
946.3111504125217
 21
383.9613173173700
 31
0.0000000000000000
  0
INSERT
  5
153
100
AcDbEntity
  8
MAIN0
  6
BYBLOCK
 62
0
100
AcDbBlockReference
  2
_OPEN
 10
907.3111504125221
 20
383.9613173173700
 30
0.0000000000000000
 41
6.000000000000000
 42
6.000000000000000
 43
6.000000000000000
 50
180.0000000000000
  0
INSERT
  5
154
100
AcDbEntity
  8
MAIN0
  6
BYBLOCK
 62
0
100
AcDbBlockReference
  2
_OPEN
 10
952.3111504125217
 20
383.9613173173700
 30
0.0000000000000000
 41
6.000000000000000
 42
6.000000000000000
 43
6.000000000000000
 50
0.0000000000000000
  0
LINE
  5
155
100
AcDbEntity
  8
MAIN0
  6
BYBLOCK
 62
0
100
AcDbLine
 10
952.3111504125217
 20
352.5883230540783
 30
0.0000000000000000
 11
952.3111504125217
 21
389.9613173173700
 31
0.0000000000000000
  0
MTEXT
  5
156
100
AcDbEntity
  8
MAIN0
  6
BYBLOCK
 62
0
100
AcDbMText
 10
929.8111504125219
 20
389.1113171743189
 30
0.0000000000000000
 40
9.299999713897705
 41
0.0000000000000000
 71
     5
 72
     1
  1
\A1;45
 11
1.000000000000000
 21
0.0000000000000000
 31
0.0000000000000000
  7
STANDARD
  0
ENDBLK
  5
157
100
AcDbEntity
  8
MAIN0
  6
CONTINUOUS
 62
3
100
AcDbBlockEnd
  0
BLOCK
  5
159
100
AcDbEntity
  8
MAIN0
  6
CONTINUOUS
 62
3
100
AcDbBlockBegin
  2
*D20
 70
    65
 10
0.0
 20
0.0
 30
0.0
  0
LINE
  5
15A
100
AcDbEntity
  8
MAIN0
  6
BYBLOCK
 62
0
100
AcDbLine
 10
1016.098718248425
 20
220.3827836300997
 30
0.0000000000000000
 11
988.3145412276153
 21
220.3827836300997
 31
0.0000000000000000
  0
LINE
  5
15B
100
AcDbEntity
  8
MAIN0
  6
BYBLOCK
 62
0
100
AcDbLine
 10
994.3145412276153
 20
220.3827836300997
 30
0.0000000000000000
 11
994.3145412276153
 21
191.8827836300999
 31
0.0000000000000000
  0
INSERT
  5
15C
100
AcDbEntity
  8
MAIN0
  6
BYBLOCK
 62
0
100
AcDbBlockReference
  2
_OPEN
 10
994.3145412276153
 20
220.3827836300997
 30
0.0000000000000000
 41
6.000000000000000
 42
6.000000000000000
 43
6.000000000000000
 50
270.0000000000000
  0
INSERT
  5
15D
100
AcDbEntity
  8
MAIN0
  6
BYBLOCK
 62
0
100
AcDbBlockReference
  2
_OPEN
 10
994.3145412276153
 20
191.8827836300999
 30
0.0000000000000000
 41
6.000000000000000
 42
6.000000000000000
 43
6.000000000000000
 50
90.00000000000000
  0
LINE
  5
15E
100
AcDbEntity
  8
MAIN0
  6
BYBLOCK
 62
0
100
AcDbLine
 10
994.3145412276153
 20
226.3827836300997
 30
0.0000000000000000
 11
994.3145412276153
 21
229.3827836300997
 31
0.0000000000000000
  0
LINE
  5
15F
100
AcDbEntity
  8
MAIN0
  6
BYBLOCK
 62
0
100
AcDbLine
 10
994.3145412276153
 20
185.8827836300999
 30
0.0000000000000000
 11
994.3145412276153
 21
182.8827836300999
 31
0.0000000000000000
  0
LINE
  5
160
100
AcDbEntity
  8
MAIN0
  6
BYBLOCK
 62
0
100
AcDbLine
 10
1016.098718248445
 20
191.8827836300999
 30
0.0000000000000000
 11
988.3145412276153
 21
191.8827836300999
 31
0.0000000000000000
  0
MTEXT
  5
161
100
AcDbEntity
  8
MAIN0
  6
BYBLOCK
 62
0
100
AcDbMText
 10
989.1645413706665
 20
206.1327836300998
 30
0.0000000000000000
 40
9.299999713897705
 41
0.0000000000000000
 71
     5
 72
     1
  1
\A1;28.5
 11
6.123233995736766e-017
 21
1.000000000000000
 31
0.0000000000000000
  7
STANDARD
  0
ENDBLK
  5
162
100
AcDbEntity
  8
MAIN0
  6
CONTINUOUS
 62
3
100
AcDbBlockEnd
  0
BLOCK
  5
164
100
AcDbEntity
  8
MAIN0
  6
CONTINUOUS
 62
3
100
AcDbBlockBegin
  2
*D21
 70
    65
 10
0.0
 20
0.0
 30
0.0
  0
LINE
  5
165
100
AcDbEntity
  8
MAIN0
  6
BYBLOCK
 62
0
100
AcDbLine
 10
1050.898718319955
 20
214.8827836300923
 30
0.0000000000000000
 11
1079.317857161262
 21
214.8827836301018
 31
0.0000000000000000
  0
LINE
  5
166
100
AcDbEntity
  8
MAIN0
  6
BYBLOCK
 62
0
100
AcDbLine
 10
1073.317857161262
 20
214.8827836300998
 30
0.0000000000000000
 11
1073.317857161262
 21
197.3827836300999
 31
0.0000000000000000
  0
INSERT
  5
167
100
AcDbEntity
  8
MAIN0
  6
BYBLOCK
 62
0
100
AcDbBlockReference
  2
_OPEN
 10
1073.317857161262
 20
214.8827836300998
 30
0.0000000000000000
 41
6.000000000000000
 42
6.000000000000000
 43
6.000000000000000
 50
270.0000000000000
  0
INSERT
  5
168
100
AcDbEntity
  8
MAIN0
  6
BYBLOCK
 62
0
100
AcDbBlockReference
  2
_OPEN
 10
1073.317857161262
 20
197.3827836300999
 30
0.0000000000000000
 41
6.000000000000000
 42
6.000000000000000
 43
6.000000000000000
 50
90.00000000000000
  0
LINE
  5
169
100
AcDbEntity
  8
MAIN0
  6
BYBLOCK
 62
0
100
AcDbLine
 10
1073.317857161262
 20
220.8827836300998
 30
0.0000000000000000
 11
1073.317857161262
 21
223.8827836300998
 31
0.0000000000000000
  0
LINE
  5
16A
100
AcDbEntity
  8
MAIN0
  6
BYBLOCK
 62
0
100
AcDbLine
 10
1073.317857161262
 20
191.3827836300999
 30
0.0000000000000000
 11
1073.317857161262
 21
170.6733210842196
 31
0.0000000000000000
  0
LINE
  5
16B
100
AcDbEntity
  8
MAIN0
  6
BYBLOCK
 62
0
100
AcDbLine
 10
1050.898718319967
 20
197.3827836300924
 30
0.0000000000000000
 11
1079.317857161262
 21
197.3827836301019
 31
0.0000000000000000
  0
MTEXT
  5
16C
100
AcDbEntity
  8
MAIN0
  6
BYBLOCK
 62
0
100
AcDbMText
 10
1067.167857304313
 20
181.6233213703218
 30
0.0000000000000000
 40
9.299999713897705
 41
0.0000000000000000
 71
     5
 72
     1
  1
\A1;17.5
 11
6.123233995736766e-017
 21
1.000000000000000
 31
0.0000000000000000
  7
STANDARD
  0
ENDBLK
  5
16D
100
AcDbEntity
  8
MAIN0
  6
CONTINUOUS
 62
3
100
AcDbBlockEnd
  0
BLOCK
  5
16F
100
AcDbEntity
  8
MAIN0
  6
CONTINUOUS
 62
3
100
AcDbBlockBegin
  2
*D22
 70
    65
 10
0.0
 20
0.0
 30
0.0
  0
LINE
  5
170
100
AcDbEntity
  8
MAIN0
  6
BYBLOCK
 62
0
100
AcDbLine
 10
1018.498718284208
 20
189.4827835943372
 30
0.0000000000000000
 11
1018.498718284208
 21
164.0607748231145
 31
0.0000000000000000
  0
LINE
  5
171
100
AcDbEntity
  8
MAIN0
  6
BYBLOCK
 62
0
100
AcDbLine
 10
1024.498718284208
 20
170.0607748231145
 30
0.0000000000000000
 11
1042.498718284207
 21
170.0607748231145
 31
0.0000000000000000
  0
INSERT
  5
172
100
AcDbEntity
  8
MAIN0
  6
BYBLOCK
 62
0
100
AcDbBlockReference
  2
_OPEN
 10
1018.498718284208
 20
170.0607748231145
 30
0.0000000000000000
 41
6.000000000000000
 42
6.000000000000000
 43
6.000000000000000
 50
180.0000000000000
  0
INSERT
  5
173
100
AcDbEntity
  8
MAIN0
  6
BYBLOCK
 62
0
100
AcDbBlockReference
  2
_OPEN
 10
1048.498718284207
 20
170.0607748231145
 30
0.0000000000000000
 41
6.000000000000000
 42
6.000000000000000
 43
6.000000000000000
 50
0.0000000000000000
  0
LINE
  5
174
100
AcDbEntity
  8
MAIN0
  6
BYBLOCK
 62
0
100
AcDbLine
 10
1048.498718284207
 20
189.4827835943289
 30
0.0000000000000000
 11
1048.498718284207
 21
164.0607748231145
 31
0.0000000000000000
  0
MTEXT
  5
175
100
AcDbEntity
  8
MAIN0
  6
BYBLOCK
 62
0
100
AcDbMText
 10
1033.498718284208
 20
175.2107746800633
 30
0.0000000000000000
 40
9.299999713897705
 41
0.0000000000000000
 71
     5
 72
     1
  1
\A1;30
 11
1.000000000000000
 21
0.0000000000000000
 31
0.0000000000000000
  7
STANDARD
  0
ENDBLK
  5
176
100
AcDbEntity
  8
MAIN0
  6
CONTINUOUS
 62
3
100
AcDbBlockEnd
  0
BLOCK
  5
178
100
AcDbEntity
  8
MAIN0
  6
CONTINUOUS
 62
3
100
AcDbBlockBegin
  2
*D23
 70
    65
 10
0.0
 20
0.0
 30
0.0
  0
LINE
  5
179
100
AcDbEntity
  8
MAIN0
  6
BYBLOCK
 62
0
100
AcDbLine
 10
316.2082927435550
 20
317.7883229820639
 30
0.0000000000000000
 11
316.2082927435548
 21
248.1883230178268
 31
0.0000000000000000
  0
LINE
  5
17A
100
AcDbEntity
  8
MAIN0
  6
BYBLOCK
 62
0
100
AcDbLine
 10
322.2082927435548
 20
254.1883230178268
 30
0.0000000000000000
 11
770.2082927435553
 21
254.1883230178268
 31
0.0000000000000000
  0
INSERT
  5
17B
100
AcDbEntity
  8
MAIN0
  6
BYBLOCK
 62
0
100
AcDbBlockReference
  2
_OPEN
 10
316.2082927435548
 20
254.1883230178268
 30
0.0000000000000000
 41
6.000000000000000
 42
6.000000000000000
 43
6.000000000000000
 50
180.0000000000000
  0
INSERT
  5
17C
100
AcDbEntity
  8
MAIN0
  6
BYBLOCK
 62
0
100
AcDbBlockReference
  2
_OPEN
 10
776.2082927435553
 20
254.1883230178268
 30
0.0000000000000000
 41
6.000000000000000
 42
6.000000000000000
 43
6.000000000000000
 50
0.0000000000000000
  0
LINE
  5
17D
100
AcDbEntity
  8
MAIN0
  6
BYBLOCK
 62
0
100
AcDbLine
 10
776.2082927435553
 20
317.7883229820636
 30
0.0000000000000000
 11
776.2082927435553
 21
248.1883230178268
 31
0.0000000000000000
  0
MTEXT
  5
17E
100
AcDbEntity
  8
MAIN0
  6
BYBLOCK
 62
0
100
AcDbMText
 10
546.2082927435550
 20
259.3383228747757
 30
0.0000000000000000
 40
9.299999713897705
 41
0.0000000000000000
 71
     5
 72
     1
  1
\A1;460
 11
1.000000000000000
 21
0.0000000000000000
 31
0.0000000000000000
  7
STANDARD
  0
ENDBLK
  5
17F
100
AcDbEntity
  8
MAIN0
  6
CONTINUOUS
 62
3
100
AcDbBlockEnd
  0
BLOCK
  5
181
100
AcDbEntity
  8
MAIN0
  6
CONTINUOUS
 62
3
100
AcDbBlockBegin
  2
*D24
 70
    65
 10
0.0
 20
0.0
 30
0.0
  0
LINE
  5
182
100
AcDbEntity
  8
MAIN0
  6
BYBLOCK
 62
0
100
AcDbLine
 10
776.2082927435553
 20
317.7883229820636
 30
0.0000000000000000
 11
776.2082927435553
 21
248.1883230178268
 31
0.0000000000000000
  0
LINE
  5
183
100
AcDbEntity
  8
MAIN0
  6
BYBLOCK
 62
0
100
AcDbLine
 10
782.2082927435553
 20
254.1883230178268
 30
0.0000000000000000
 11
865.2082927435548
 21
254.1883230178268
 31
0.0000000000000000
  0
INSERT
  5
184
100
AcDbEntity
  8
MAIN0
  6
BYBLOCK
 62
0
100
AcDbBlockReference
  2
_OPEN
 10
776.2082927435553
 20
254.1883230178268
 30
0.0000000000000000
 41
6.000000000000000
 42
6.000000000000000
 43
6.000000000000000
 50
180.0000000000000
  0
INSERT
  5
185
100
AcDbEntity
  8
MAIN0
  6
BYBLOCK
 62
0
100
AcDbBlockReference
  2
_OPEN
 10
871.2082927435548
 20
254.1883230178268
 30
0.0000000000000000
 41
6.000000000000000
 42
6.000000000000000
 43
6.000000000000000
 50
0.0000000000000000
  0
LINE
  5
186
100
AcDbEntity
  8
MAIN0
  6
BYBLOCK
 62
0
100
AcDbLine
 10
871.2082927435548
 20
357.7883229820638
 30
0.0000000000000000
 11
871.2082927435548
 21
248.1883230178268
 31
0.0000000000000000
  0
MTEXT
  5
187
100
AcDbEntity
  8
MAIN0
  6
BYBLOCK
 62
0
100
AcDbMText
 10
823.7082927435550
 20
259.3383228747757
 30
0.0000000000000000
 40
9.299999713897705
 41
0.0000000000000000
 71
     5
 72
     1
  1
\A1;95
 11
1.000000000000000
 21
0.0000000000000000
 31
0.0000000000000000
  7
STANDARD
  0
ENDBLK
  5
188
100
AcDbEntity
  8
MAIN0
  6
CONTINUOUS
 62
3
100
AcDbBlockEnd
  0
BLOCK
  5
18A
100
AcDbEntity
  8
MAIN0
  6
CONTINUOUS
 62
3
100
AcDbBlockBegin
  2
*D25
 70
    65
 10
0.0
 20
0.0
 30
0.0
  0
LINE
  5
18B
100
AcDbEntity
  8
MAIN0
  6
BYBLOCK
 62
0
100
AcDbLine
 10
316.2082927435550
 20
317.7883229820639
 30
0.0000000000000000
 11
316.2082927435548
 21
212.1883230178268
 31
0.0000000000000000
  0
LINE
  5
18C
100
AcDbEntity
  8
MAIN0
  6
BYBLOCK
 62
0
100
AcDbLine
 10
322.2082927435548
 20
218.1883230178268
 30
0.0000000000000000
 11
865.2082927435549
 21
218.1883230178268
 31
0.0000000000000000
  0
INSERT
  5
18D
100
AcDbEntity
  8
MAIN0
  6
BYBLOCK
 62
0
100
AcDbBlockReference
  2
_OPEN
 10
316.2082927435548
 20
218.1883230178268
 30
0.0000000000000000
 41
6.000000000000000
 42
6.000000000000000
 43
6.000000000000000
 50
180.0000000000000
  0
INSERT
  5
18E
100
AcDbEntity
  8
MAIN0
  6
BYBLOCK
 62
0
100
AcDbBlockReference
  2
_OPEN
 10
871.2082927435549
 20
218.1883230178268
 30
0.0000000000000000
 41
6.000000000000000
 42
6.000000000000000
 43
6.000000000000000
 50
0.0000000000000000
  0
LINE
  5
18F
100
AcDbEntity
  8
MAIN0
  6
BYBLOCK
 62
0
100
AcDbLine
 10
871.2082927435548
 20
357.7883229820638
 30
0.0000000000000000
 11
871.2082927435549
 21
212.1883230178268
 31
0.0000000000000000
  0
MTEXT
  5
190
100
AcDbEntity
  8
MAIN0
  6
BYBLOCK
 62
0
100
AcDbMText
 10
593.7082927435548
 20
223.3383228747756
 30
0.0000000000000000
 40
9.299999713897705
 41
0.0000000000000000
 71
     5
 72
     1
  1
\A1;555
 11
1.000000000000000
 21
0.0000000000000000
 31
0.0000000000000000
  7
STANDARD
  0
ENDBLK
  5
191
100
AcDbEntity
  8
MAIN0
  6
CONTINUOUS
 62
3
100
AcDbBlockEnd
  0
BLOCK
  5
193
100
AcDbEntity
  8
MAIN0
  6
CONTINUOUS
 62
3
100
AcDbBlockBegin
  2
*D26
 70
    65
 10
0.0
 20
0.0
 30
0.0
  0
LINE
  5
194
100
AcDbEntity
  8
MAIN0
  6
BYBLOCK
 62
0
100
AcDbLine
 10
314.8082927077919
 20
480.1883230178266
 30
0.0000000000000000
 11
278.2082927435550
 21
480.1883230178266
 31
0.0000000000000000
  0
LINE
  5
195
100
AcDbEntity
  8
MAIN0
  6
BYBLOCK
 62
0
100
AcDbLine
 10
284.2082927435550
 20
474.1883230178266
 30
0.0000000000000000
 11
284.2082927435550
 21
326.1883230178266
 31
0.0000000000000000
  0
INSERT
  5
196
100
AcDbEntity
  8
MAIN0
  6
BYBLOCK
 62
0
100
AcDbBlockReference
  2
_OPEN
 10
284.2082927435550
 20
480.1883230178266
 30
0.0000000000000000
 41
6.000000000000000
 42
6.000000000000000
 43
6.000000000000000
 50
90.00000000000000
  0
INSERT
  5
197
100
AcDbEntity
  8
MAIN0
  6
BYBLOCK
 62
0
100
AcDbBlockReference
  2
_OPEN
 10
284.2082927435550
 20
320.1883230178266
 30
0.0000000000000000
 41
6.000000000000000
 42
6.000000000000000
 43
6.000000000000000
 50
270.0000000000000
  0
LINE
  5
198
100
AcDbEntity
  8
MAIN0
  6
BYBLOCK
 62
0
100
AcDbLine
 10
313.8082927077921
 20
320.1883230178266
 30
0.0000000000000000
 11
278.2082927435550
 21
320.1883230178266
 31
0.0000000000000000
  0
MTEXT
  5
199
100
AcDbEntity
  8
MAIN0
  6
BYBLOCK
 62
0
100
AcDbMText
 10
279.0582928866061
 20
400.1883230178266
 30
0.0000000000000000
 40
9.299999713897705
 41
0.0000000000000000
 71
     5
 72
     1
  1
\A1;160
 11
6.123233995736766e-017
 21
1.000000000000000
 31
0.0000000000000000
  7
STANDARD
  0
ENDBLK
  5
19A
100
AcDbEntity
  8
MAIN0
  6
CONTINUOUS
 62
3
100
AcDbBlockEnd
  0
BLOCK
  5
19C
100
AcDbEntity
  8
MAIN0
  6
CONTINUOUS
 62
3
100
AcDbBlockBegin
  2
*D27
 70
    65
 10
0.0
 20
0.0
 30
0.0
  0
LINE
  5
19D
100
AcDbEntity
  8
MAIN0
  6
BYBLOCK
 62
0
100
AcDbLine
 10
313.8082927077921
 20
320.1883230178266
 30
0.0000000000000000
 11
294.2082927435550
 21
320.1883230178266
 31
0.0000000000000000
  0
LINE
  5
19E
100
AcDbEntity
  8
MAIN0
  6
BYBLOCK
 62
0
100
AcDbLine
 10
300.2082927435550
 20
326.1883230178266
 30
0.0000000000000000
 11
300.2082927435550
 21
414.1883230178266
 31
0.0000000000000000
  0
INSERT
  5
19F
100
AcDbEntity
  8
MAIN0
  6
BYBLOCK
 62
0
100
AcDbBlockReference
  2
_OPEN
 10
300.2082927435550
 20
320.1883230178266
 30
0.0000000000000000
 41
6.000000000000000
 42
6.000000000000000
 43
6.000000000000000
 50
270.0000000000000
  0
INSERT
  5
1A0
100
AcDbEntity
  8
MAIN0
  6
BYBLOCK
 62
0
100
AcDbBlockReference
  2
_OPEN
 10
300.2082927435550
 20
420.1883230178266
 30
0.0000000000000000
 41
6.000000000000000
 42
6.000000000000000
 43
6.000000000000000
 50
90.00000000000000
  0
LINE
  5
1A1
100
AcDbEntity
  8
MAIN0
  6
BYBLOCK
 62
0
100
AcDbLine
 10
313.8082927077919
 20
420.1883230178266
 30
0.0000000000000000
 11
294.2082927435550
 21
420.1883230178266
 31
0.0000000000000000
  0
MTEXT
  5
1A2
100
AcDbEntity
  8
MAIN0
  6
BYBLOCK
 62
0
100
AcDbMText
 10
295.0582928866061
 20
370.1883230178266
 30
0.0000000000000000
 40
9.299999713897705
 41
0.0000000000000000
 71
     5
 72
     1
  1
\A1;100
 11
6.123233995736766e-017
 21
1.000000000000000
 31
0.0000000000000000
  7
STANDARD
  0
ENDBLK
  5
1A3
100
AcDbEntity
  8
MAIN0
  6
CONTINUOUS
 62
3
100
AcDbBlockEnd
  0
BLOCK
  5
1A5
100
AcDbEntity
  8
MAIN0
  6
CONTINUOUS
 62
3
100
AcDbBlockBegin
  2
*D28
 70
    65
 10
0.0
 20
0.0
 30
0.0
  0
LINE
  5
1A6
100
AcDbEntity
  8
MAIN0
  6
BYBLOCK
 62
0
100
AcDbLine
 10
313.8082927077919
 20
420.1883230178266
 30
0.0000000000000000
 11
294.2082927435550
 21
420.1883230178266
 31
0.0000000000000000
  0
LINE
  5
1A7
100
AcDbEntity
  8
MAIN0
  6
BYBLOCK
 62
0
100
AcDbLine
 10
300.2082927435550
 20
426.1883230178266
 30
0.0000000000000000
 11
300.2082927435550
 21
474.1883230178266
 31
0.0000000000000000
  0
INSERT
  5
1A8
100
AcDbEntity
  8
MAIN0
  6
BYBLOCK
 62
0
100
AcDbBlockReference
  2
_OPEN
 10
300.2082927435550
 20
420.1883230178266
 30
0.0000000000000000
 41
6.000000000000000
 42
6.000000000000000
 43
6.000000000000000
 50
270.0000000000000
  0
INSERT
  5
1A9
100
AcDbEntity
  8
MAIN0
  6
BYBLOCK
 62
0
100
AcDbBlockReference
  2
_OPEN
 10
300.2082927435550
 20
480.1883230178266
 30
0.0000000000000000
 41
6.000000000000000
 42
6.000000000000000
 43
6.000000000000000
 50
90.00000000000000
  0
LINE
  5
1AA
100
AcDbEntity
  8
MAIN0
  6
BYBLOCK
 62
0
100
AcDbLine
 10
314.8082927077919
 20
480.1883230178266
 30
0.0000000000000000
 11
294.2082927435550
 21
480.1883230178266
 31
0.0000000000000000
  0
MTEXT
  5
1AB
100
AcDbEntity
  8
MAIN0
  6
BYBLOCK
 62
0
100
AcDbMText
 10
295.0582928866061
 20
450.1883230178266
 30
0.0000000000000000
 40
9.299999713897705
 41
0.0000000000000000
 71
     5
 72
     1
  1
\A1;60
 11
6.123233995736766e-017
 21
1.000000000000000
 31
0.0000000000000000
  7
STANDARD
  0
ENDBLK
  5
1AC
100
AcDbEntity
  8
MAIN0
  6
CONTINUOUS
 62
3
100
AcDbBlockEnd
  0
BLOCK
  5
1AE
100
AcDbEntity
  8
MAIN0
  6
CONTINUOUS
 62
3
100
AcDbBlockBegin
  2
*D29
 70
    65
 10
0.0
 20
0.0
 30
0.0
  0
LINE
  5
1AF
100
AcDbEntity
  8
MAIN0
  6
BYBLOCK
 62
0
100
AcDbLine
 10
778.6082927793182
 20
320.1883230178268
 30
0.0000000000000000
 11
896.5310630036437
 21
320.1883230178268
 31
0.0000000000000000
  0
LINE
  5
1B0
100
AcDbEntity
  8
MAIN0
  6
BYBLOCK
 62
0
100
AcDbLine
 10
890.5310630036437
 20
326.1883230178268
 30
0.0000000000000000
 11
890.5310630036437
 21
379.1883230178266
 31
0.0000000000000000
  0
INSERT
  5
1B1
100
AcDbEntity
  8
MAIN0
  6
BYBLOCK
 62
0
100
AcDbBlockReference
  2
_OPEN
 10
890.5310630036437
 20
320.1883230178268
 30
0.0000000000000000
 41
6.000000000000000
 42
6.000000000000000
 43
6.000000000000000
 50
270.0000000000000
  0
INSERT
  5
1B2
100
AcDbEntity
  8
MAIN0
  6
BYBLOCK
 62
0
100
AcDbBlockReference
  2
_OPEN
 10
890.5310630036437
 20
385.1883230178266
 30
0.0000000000000000
 41
6.000000000000000
 42
6.000000000000000
 43
6.000000000000000
 50
90.00000000000000
  0
LINE
  5
1B3
100
AcDbEntity
  8
MAIN0
  6
BYBLOCK
 62
0
100
AcDbLine
 10
883.6865966793614
 20
385.1883230178266
 30
0.0000000000000000
 11
896.5310630036437
 21
385.1883230178266
 31
0.0000000000000000
  0
MTEXT
  5
1B4
100
AcDbEntity
  8
MAIN0
  6
BYBLOCK
 62
0
100
AcDbMText
 10
885.3810631466948
 20
352.6883230178267
 30
0.0000000000000000
 40
9.299999713897705
 41
0.0000000000000000
 71
     5
 72
     1
  1
\A1;65
 11
6.123233995736766e-017
 21
1.000000000000000
 31
0.0000000000000000
  7
STANDARD
  0
ENDBLK
  5
1B5
100
AcDbEntity
  8
MAIN0
  6
CONTINUOUS
 62
3
100
AcDbBlockEnd
  0
BLOCK
  5
1BC
100
AcDbEntity
  8
MAIN0
  6
CONTINUOUS
 62
3
100
AcDbBlockBegin
  2
*D30
 70
    65
 10
0.0
 20
0.0
 30
0.0
  0
LINE
  5
1BD
100
AcDbEntity
  8
MAIN0
  6
BYBLOCK
 62
0
100
AcDbLine
 10
878.8865966078364
 20
438.0158954041838
 30
0.0000000000000000
 11
867.3837783612582
 21
438.0158954041838
 31
0.0000000000000000
  0
LINE
  5
1BE
100
AcDbEntity
  8
MAIN0
  6
BYBLOCK
 62
0
100
AcDbLine
 10
873.3837783612582
 20
444.0158954041838
 30
0.0000000000000000
 11
873.3837783612582
 21
657.0158954041838
 31
0.0000000000000000
  0
INSERT
  5
1BF
100
AcDbEntity
  8
MAIN0
  6
BYBLOCK
 62
0
100
AcDbBlockReference
  2
_OPEN
 10
873.3837783612582
 20
438.0158954041838
 30
0.0000000000000000
 41
6.000000000000000
 42
6.000000000000000
 43
6.000000000000000
 50
270.0000000000000
  0
INSERT
  5
1C0
100
AcDbEntity
  8
MAIN0
  6
BYBLOCK
 62
0
100
AcDbBlockReference
  2
_OPEN
 10
873.3837783612582
 20
663.0158954041838
 30
0.0000000000000000
 41
6.000000000000000
 42
6.000000000000000
 43
6.000000000000000
 50
90.00000000000000
  0
LINE
  5
1C1
100
AcDbEntity
  8
MAIN0
  6
BYBLOCK
 62
0
100
AcDbLine
 10
937.3785557431175
 20
663.0158954041838
 30
0.0000000000000000
 11
867.3837783612582
 21
663.0158954041838
 31
0.0000000000000000
  0
MTEXT
  5
1C2
100
AcDbEntity
  8
MAIN0
  6
BYBLOCK
 62
0
100
AcDbMText
 10
868.2337785043094
 20
550.5158954041838
 30
0.0000000000000000
 40
9.299999713897705
 41
0.0000000000000000
 71
     5
 72
     1
  1
\A1;225
 11
6.123233995736766e-017
 21
1.000000000000000
 31
0.0000000000000000
  7
STANDARD
  0
ENDBLK
  5
1C3
100
AcDbEntity
  8
MAIN0
  6
CONTINUOUS
 62
3
100
AcDbBlockEnd
  0
BLOCK
  5
1C5
100
AcDbEntity
  8
MAIN0
  6
CONTINUOUS
 62
3
100
AcDbBlockBegin
  2
*D31
 70
    65
 10
0.0
 20
0.0
 30
0.0
  0
LINE
  5
1C6
100
AcDbEntity
  8
MAIN0
  6
BYBLOCK
 62
0
100
AcDbLine
 10
472.6082927793177
 20
315.1883230178266
 30
0.0000000000000000
 11
506.2082927435550
 21
315.1883230178266
 31
0.0000000000000000
  0
LINE
  5
1C7
100
AcDbEntity
  8
MAIN0
  6
BYBLOCK
 62
0
100
AcDbLine
 10
500.2082927435550
 20
315.1883230178266
 30
0.0000000000000000
 11
500.2082927435550
 21
320.1883230178267
 31
0.0000000000000000
  0
INSERT
  5
1C8
100
AcDbEntity
  8
MAIN0
  6
BYBLOCK
 62
0
100
AcDbBlockReference
  2
_OPEN
 10
500.2082927435550
 20
315.1883230178266
 30
0.0000000000000000
 41
6.000000000000000
 42
6.000000000000000
 43
6.000000000000000
 50
90.00000000000000
  0
INSERT
  5
1C9
100
AcDbEntity
  8
MAIN0
  6
BYBLOCK
 62
0
100
AcDbBlockReference
  2
_OPEN
 10
500.2082927435550
 20
320.1883230178267
 30
0.0000000000000000
 41
6.000000000000000
 42
6.000000000000000
 43
6.000000000000000
 50
270.0000000000000
  0
LINE
  5
1CA
100
AcDbEntity
  8
MAIN0
  6
BYBLOCK
 62
0
100
AcDbLine
 10
500.2082927435550
 20
309.1883230178266
 30
0.0000000000000000
 11
500.2082927435550
 21
299.7899061232943
 31
0.0000000000000000
  0
LINE
  5
1CB
100
AcDbEntity
  8
MAIN0
  6
BYBLOCK
 62
0
100
AcDbLine
 10
500.2082927435550
 20
326.1883230178267
 30
0.0000000000000000
 11
500.2082927435550
 21
329.1883230178267
 31
0.0000000000000000
  0
MTEXT
  5
1CC
100
AcDbEntity
  8
MAIN0
  6
BYBLOCK
 62
0
100
AcDbMText
 10
494.0582928866061
 20
302.7899061232943
 30
0.0000000000000000
 40
9.299999713897705
 41
0.0000000000000000
 71
     5
 72
     1
  1
\A1;5
 11
6.123233995736766e-017
 21
1.000000000000000
 31
0.0000000000000000
  7
STANDARD
  0
ENDBLK
  5
1CD
100
AcDbEntity
  8
MAIN0
  6
CONTINUOUS
 62
3
100
AcDbBlockEnd
  0
BLOCK
  5
1CF
100
AcDbEntity
  8
MAIN0
  6
CONTINUOUS
 62
3
100
AcDbBlockBegin
  2
*D32
 70
    65
 10
0.0
 20
0.0
 30
0.0
  0
LINE
  5
1D0
100
AcDbEntity
  8
MAIN0
  6
BYBLOCK
 62
0
100
AcDbLine
 10
322.2082927435549
 20
353.4465388869103
 30
0.0000000000000000
 11
395.2082927435549
 21
353.4465388869103
 31
0.0000000000000000
  0
INSERT
  5
1D1
100
AcDbEntity
  8
MAIN0
  6
BYBLOCK
 62
0
100
AcDbBlockReference
  2
_OPEN
 10
316.2082927435549
 20
353.4465388869103
 30
0.0000000000000000
 41
6.000000000000000
 42
6.000000000000000
 43
6.000000000000000
 50
180.0000000000000
  0
INSERT
  5
1D2
100
AcDbEntity
  8
MAIN0
  6
BYBLOCK
 62
0
100
AcDbBlockReference
  2
_OPEN
 10
401.2082927435549
 20
353.4465388869103
 30
0.0000000000000000
 41
6.000000000000000
 42
6.000000000000000
 43
6.000000000000000
 50
0.0000000000000000
  0
LINE
  5
1D3
100
AcDbEntity
  8
MAIN0
  6
BYBLOCK
 62
0
100
AcDbLine
 10
401.2082927435549
 20
357.2883229794825
 30
0.0000000000000000
 11
401.2082927435548
 21
347.4465388869103
 31
0.0000000000000000
  0
MTEXT
  5
1D4
100
AcDbEntity
  8
MAIN0
  6
BYBLOCK
 62
0
100
AcDbMText
 10
358.7082927435549
 20
358.5965387438592
 30
0.0000000000000000
 40
9.299999713897705
 41
0.0000000000000000
 71
     5
 72
     1
  1
\A1;85
 11
1.000000000000000
 21
0.0000000000000000
 31
0.0000000000000000
  7
STANDARD
  0
ENDBLK
  5
1D5
100
AcDbEntity
  8
MAIN0
  6
CONTINUOUS
 62
3
100
AcDbBlockEnd
  0
BLOCK
  5
1D7
100
AcDbEntity
  8
MAIN0
  6
CONTINUOUS
 62
3
100
AcDbBlockBegin
  2
*D33
 70
    65
 10
0.0
 20
0.0
 30
0.0
  0
LINE
  5
1D8
100
AcDbEntity
  8
MAIN0
  6
BYBLOCK
 62
0
100
AcDbLine
 10
401.2082927435549
 20
357.2883229794825
 30
0.0000000000000000
 11
401.2082927435548
 21
347.4465388869103
 31
0.0000000000000000
  0
LINE
  5
1D9
100
AcDbEntity
  8
MAIN0
  6
BYBLOCK
 62
0
100
AcDbLine
 10
407.2082927435550
 20
353.4465388869103
 30
0.0000000000000000
 11
685.2082927435552
 21
353.4465388869103
 31
0.0000000000000000
  0
INSERT
  5
1DA
100
AcDbEntity
  8
MAIN0
  6
BYBLOCK
 62
0
100
AcDbBlockReference
  2
_OPEN
 10
401.2082927435550
 20
353.4465388869103
 30
0.0000000000000000
 41
6.000000000000000
 42
6.000000000000000
 43
6.000000000000000
 50
180.0000000000000
  0
INSERT
  5
1DB
100
AcDbEntity
  8
MAIN0
  6
BYBLOCK
 62
0
100
AcDbBlockReference
  2
_OPEN
 10
691.2082927435552
 20
353.4465388869103
 30
0.0000000000000000
 41
6.000000000000000
 42
6.000000000000000
 43
6.000000000000000
 50
0.0000000000000000
  0
LINE
  5
1DC
100
AcDbEntity
  8
MAIN0
  6
BYBLOCK
 62
0
100
AcDbLine
 10
691.2082927435552
 20
357.2883229794825
 30
0.0000000000000000
 11
691.2082927435552
 21
347.4465388869103
 31
0.0000000000000000
  0
MTEXT
  5
1DD
100
AcDbEntity
  8
MAIN0
  6
BYBLOCK
 62
0
100
AcDbMText
 10
546.2082927435552
 20
358.5965387438592
 30
0.0000000000000000
 40
9.299999713897705
 41
0.0000000000000000
 71
     5
 72
     1
  1
\A1;290
 11
1.000000000000000
 21
0.0000000000000000
 31
0.0000000000000000
  7
STANDARD
  0
ENDBLK
  5
1DE
100
AcDbEntity
  8
MAIN0
  6
CONTINUOUS
 62
3
100
AcDbBlockEnd
  0
BLOCK
  5
1E0
100
AcDbEntity
  8
MAIN0
  6
CONTINUOUS
 62
3
100
AcDbBlockBegin
  2
*D34
 70
    65
 10
0.0
 20
0.0
 30
0.0
  0
LINE
  5
1E1
100
AcDbEntity
  8
MAIN0
  6
BYBLOCK
 62
0
100
AcDbLine
 10
691.2082927435552
 20
357.2883229794825
 30
0.0000000000000000
 11
691.2082927435552
 21
347.4465388869103
 31
0.0000000000000000
  0
LINE
  5
1E2
100
AcDbEntity
  8
MAIN0
  6
BYBLOCK
 62
0
100
AcDbLine
 10
697.2082927435553
 20
353.4465388869103
 30
0.0000000000000000
 11
770.2082927435553
 21
353.4465388869103
 31
0.0000000000000000
  0
INSERT
  5
1E3
100
AcDbEntity
  8
MAIN0
  6
BYBLOCK
 62
0
100
AcDbBlockReference
  2
_OPEN
 10
691.2082927435553
 20
353.4465388869103
 30
0.0000000000000000
 41
6.000000000000000
 42
6.000000000000000
 43
6.000000000000000
 50
180.0000000000000
  0
INSERT
  5
1E4
100
AcDbEntity
  8
MAIN0
  6
BYBLOCK
 62
0
100
AcDbBlockReference
  2
_OPEN
 10
776.2082927435553
 20
353.4465388869103
 30
0.0000000000000000
 41
6.000000000000000
 42
6.000000000000000
 43
6.000000000000000
 50
0.0000000000000000
  0
MTEXT
  5
1E5
100
AcDbEntity
  8
MAIN0
  6
BYBLOCK
 62
0
100
AcDbMText
 10
733.0593175202630
 20
359.5965387438592
 30
0.0000000000000000
 40
9.299999713897705
 41
0.0000000000000000
 71
     5
 72
     1
  1
\A1;85
 11
1.000000000000000
 21
0.0000000000000000
 31
0.0000000000000000
  7
STANDARD
  0
ENDBLK
  5
1E6
100
AcDbEntity
  8
MAIN0
  6
CONTINUOUS
 62
3
100
AcDbBlockEnd
  0
BLOCK
  5
1E8
100
AcDbEntity
  8
MAIN0
  6
CONTINUOUS
 62
3
100
AcDbBlockBegin
  2
*D35
 70
    65
 10
0.0
 20
0.0
 30
0.0
  0
LINE
  5
1E9
100
AcDbEntity
  8
MAIN0
  6
BYBLOCK
 62
0
100
AcDbLine
 10
576.4082927077918
 20
441.3883230178265
 30
0.0000000000000000
 11
541.2082927435547
 21
441.3883230178265
 31
0.0000000000000000
  0
LINE
  5
1EA
100
AcDbEntity
  8
MAIN0
  6
BYBLOCK
 62
0
100
AcDbLine
 10
547.2082927435547
 20
441.3883230178265
 30
0.0000000000000000
 11
547.2082927435547
 21
420.1883230178267
 31
0.0000000000000000
  0
INSERT
  5
1EB
100
AcDbEntity
  8
MAIN0
  6
BYBLOCK
 62
0
100
AcDbBlockReference
  2
_OPEN
 10
547.2082927435547
 20
441.3883230178265
 30
0.0000000000000000
 41
6.000000000000000
 42
6.000000000000000
 43
6.000000000000000
 50
270.0000000000000
  0
INSERT
  5
1EC
100
AcDbEntity
  8
MAIN0
  6
BYBLOCK
 62
0
100
AcDbBlockReference
  2
_OPEN
 10
547.2082927435547
 20
420.1883230178267
 30
0.0000000000000000
 41
6.000000000000000
 42
6.000000000000000
 43
6.000000000000000
 50
90.00000000000000
  0
LINE
  5
1ED
100
AcDbEntity
  8
MAIN0
  6
BYBLOCK
 62
0
100
AcDbLine
 10
547.2082927435547
 20
447.3883230178265
 30
0.0000000000000000
 11
547.2082927435547
 21
450.3883230178265
 31
0.0000000000000000
  0
LINE
  5
1EE
100
AcDbEntity
  8
MAIN0
  6
BYBLOCK
 62
0
100
AcDbLine
 10
547.2082927435547
 20
414.1883230178267
 30
0.0000000000000000
 11
547.2082927435547
 21
411.1883230178267
 31
0.0000000000000000
  0
MTEXT
  5
1EF
100
AcDbEntity
  8
MAIN0
  6
BYBLOCK
 62
0
100
AcDbMText
 10
542.0582928866058
 20
430.7883230178266
 30
0.0000000000000000
 40
9.299999713897705
 41
0.0000000000000000
 71
     5
 72
     1
  1
\A1;21
 11
6.123233995736766e-017
 21
1.000000000000000
 31
0.0000000000000000
  7
STANDARD
  0
ENDBLK
  5
1F0
100
AcDbEntity
  8
MAIN0
  6
CONTINUOUS
 62
3
100
AcDbBlockEnd
  0
BLOCK
  5
1F2
100
AcDbEntity
  8
MAIN0
  6
CONTINUOUS
 62
3
100
AcDbBlockBegin
  2
*D36
 70
    65
 10
0.0
 20
0.0
 30
0.0
  0
LINE
  5
1F3
100
AcDbEntity
  8
MAIN0
  6
BYBLOCK
 62
0
100
AcDbLine
 10
364.2082927433623
 20
482.5883230535895
 30
0.0000000000000000
 11
364.2082927433625
 21
513.1727913175246
 31
0.0000000000000000
  0
LINE
  5
1F4
100
AcDbEntity
  8
MAIN0
  6
BYBLOCK
 62
0
100
AcDbLine
 10
370.2082927433624
 20
507.1727913175246
 30
0.0000000000000000
 11
405.2082927435546
 21
507.1727913175246
 31
0.0000000000000000
  0
INSERT
  5
1F5
100
AcDbEntity
  8
MAIN0
  6
BYBLOCK
 62
0
100
AcDbBlockReference
  2
_OPEN
 10
364.2082927433624
 20
507.1727913175246
 30
0.0000000000000000
 41
6.000000000000000
 42
6.000000000000000
 43
6.000000000000000
 50
180.0000000000000
  0
INSERT
  5
1F6
100
AcDbEntity
  8
MAIN0
  6
BYBLOCK
 62
0
100
AcDbBlockReference
  2
_OPEN
 10
411.2082927435546
 20
507.1727913175246
 30
0.0000000000000000
 41
6.000000000000000
 42
6.000000000000000
 43
6.000000000000000
 50
0.0000000000000000
  0
LINE
  5
1F7
100
AcDbEntity
  8
MAIN0
  6
BYBLOCK
 62
0
100
AcDbLine
 10
411.2082927435546
 20
482.5883230535894
 30
0.0000000000000000
 11
411.2082927435546
 21
513.1727913175246
 31
0.0000000000000000
  0
MTEXT
  5
1F8
100
AcDbEntity
  8
MAIN0
  6
BYBLOCK
 62
0
100
AcDbMText
 10
387.7082927434585
 20
512.3227911744734
 30
0.0000000000000000
 40
9.299999713897705
 41
0.0000000000000000
 71
     5
 72
     1
  1
\A1;47
 11
1.000000000000000
 21
0.0000000000000000
 31
0.0000000000000000
  7
STANDARD
  0
ENDBLK
  5
1F9
100
AcDbEntity
  8
MAIN0
  6
CONTINUOUS
 62
3
100
AcDbBlockEnd
  0
BLOCK
  5
1FB
100
AcDbEntity
  8
MAIN0
  6
CONTINUOUS
 62
3
100
AcDbBlockBegin
  2
*D37
 70
    65
 10
0.0
 20
0.0
 30
0.0
  0
LINE
  5
1FC
100
AcDbEntity
  8
MAIN0
  6
BYBLOCK
 62
0
100
AcDbLine
 10
316.2082927435548
 20
422.5883230535894
 30
0.0000000000000000
 11
316.2082927435548
 21
536.1156631144606
 31
0.0000000000000000
  0
LINE
  5
1FD
100
AcDbEntity
  8
MAIN0
  6
BYBLOCK
 62
0
100
AcDbLine
 10
316.2082927435548
 20
530.1156631144606
 30
0.0000000000000000
 11
317.2082927435546
 21
530.1156631144606
 31
0.0000000000000000
  0
INSERT
  5
1FE
100
AcDbEntity
  8
MAIN0
  6
BYBLOCK
 62
0
100
AcDbBlockReference
  2
_OPEN
 10
316.2082927435548
 20
530.1156631144606
 30
0.0000000000000000
 41
6.000000000000000
 42
6.000000000000000
 43
6.000000000000000
 50
0.0000000000000000
  0
INSERT
  5
1FF
100
AcDbEntity
  8
MAIN0
  6
BYBLOCK
 62
0
100
AcDbBlockReference
  2
_OPEN
 10
317.2082927435546
 20
530.1156631144606
 30
0.0000000000000000
 41
6.000000000000000
 42
6.000000000000000
 43
6.000000000000000
 50
180.0000000000000
  0
LINE
  5
200
100
AcDbEntity
  8
MAIN0
  6
BYBLOCK
 62
0
100
AcDbLine
 10
310.2082927435548
 20
530.1156631144606
 30
0.0000000000000000
 11
300.9209456218512
 21
530.1156631144606
 31
0.0000000000000000
  0
LINE
  5
201
100
AcDbEntity
  8
MAIN0
  6
BYBLOCK
 62
0
100
AcDbLine
 10
323.2082927435546
 20
530.1156631144606
 30
0.0000000000000000
 11
326.2082927435546
 21
530.1156631144606
 31
0.0000000000000000
  0
LINE
  5
202
100
AcDbEntity
  8
MAIN0
  6
BYBLOCK
 62
0
100
AcDbLine
 10
317.2082927435547
 20
482.5883230535893
 30
0.0000000000000000
 11
317.2082927435546
 21
536.1156631144606
 31
0.0000000000000000
  0
MTEXT
  5
203
100
AcDbEntity
  8
MAIN0
  6
BYBLOCK
 62
0
100
AcDbMText
 10
303.9209456218512
 20
536.2656629714095
 30
0.0000000000000000
 40
9.299999713897705
 41
0.0000000000000000
 71
     5
 72
     1
  1
\A1;1
 11
1.000000000000000
 21
0.0000000000000000
 31
0.0000000000000000
  7
STANDARD
  0
ENDBLK
  5
204
100
AcDbEntity
  8
MAIN0
  6
CONTINUOUS
 62
3
100
AcDbBlockEnd
  0
BLOCK
  5
206
100
AcDbEntity
  8
MAIN0
  6
CONTINUOUS
 62
3
100
AcDbBlockBegin
  2
*D38
 70
    65
 10
0.0
 20
0.0
 30
0.0
  0
LINE
  5
207
100
AcDbEntity
  8
MAIN0
  6
BYBLOCK
 62
0
100
AcDbLine
 10
317.2082927435547
 20
482.5883230535893
 30
0.0000000000000000
 11
317.2082927435546
 21
536.1156631144606
 31
0.0000000000000000
  0
LINE
  5
208
100
AcDbEntity
  8
MAIN0
  6
BYBLOCK
 62
0
100
AcDbLine
 10
323.2082927435546
 20
530.1156631144606
 30
0.0000000000000000
 11
405.2082927435545
 21
530.1156631144606
 31
0.0000000000000000
  0
INSERT
  5
209
100
AcDbEntity
  8
MAIN0
  6
BYBLOCK
 62
0
100
AcDbBlockReference
  2
_OPEN
 10
317.2082927435546
 20
530.1156631144606
 30
0.0000000000000000
 41
6.000000000000000
 42
6.000000000000000
 43
6.000000000000000
 50
180.0000000000000
  0
INSERT
  5
20A
100
AcDbEntity
  8
MAIN0
  6
BYBLOCK
 62
0
100
AcDbBlockReference
  2
_OPEN
 10
411.2082927435545
 20
530.1156631144606
 30
0.0000000000000000
 41
6.000000000000000
 42
6.000000000000000
 43
6.000000000000000
 50
0.0000000000000000
  0
LINE
  5
20B
100
AcDbEntity
  8
MAIN0
  6
BYBLOCK
 62
0
100
AcDbLine
 10
411.2082927435546
 20
482.5883230535894
 30
0.0000000000000000
 11
411.2082927435545
 21
536.1156631144606
 31
0.0000000000000000
  0
MTEXT
  5
20C
100
AcDbEntity
  8
MAIN0
  6
BYBLOCK
 62
0
100
AcDbMText
 10
364.2082927435546
 20
535.2656629714095
 30
0.0000000000000000
 40
9.299999713897705
 41
0.0000000000000000
 71
     5
 72
     1
  1
\A1;94
 11
1.000000000000000
 21
0.0000000000000000
 31
0.0000000000000000
  7
STANDARD
  0
ENDBLK
  5
20D
100
AcDbEntity
  8
MAIN0
  6
CONTINUOUS
 62
3
100
AcDbBlockEnd
  0
BLOCK
  5
20F
100
AcDbEntity
  8
MAIN0
  6
CONTINUOUS
 62
3
100
AcDbBlockBegin
  2
*D39
 70
    65
 10
0.0
 20
0.0
 30
0.0
  0
LINE
  5
210
100
AcDbEntity
  8
MAIN0
  6
BYBLOCK
 62
0
100
AcDbLine
 10
411.2082927435546
 20
482.5883230535894
 30
0.0000000000000000
 11
411.2082927435545
 21
536.1156631144606
 31
0.0000000000000000
  0
LINE
  5
211
100
AcDbEntity
  8
MAIN0
  6
BYBLOCK
 62
0
100
AcDbLine
 10
417.2082927435545
 20
530.1156631144606
 30
0.0000000000000000
 11
485.2082927435545
 21
530.1156631144606
 31
0.0000000000000000
  0
INSERT
  5
212
100
AcDbEntity
  8
MAIN0
  6
BYBLOCK
 62
0
100
AcDbBlockReference
  2
_OPEN
 10
411.2082927435545
 20
530.1156631144606
 30
0.0000000000000000
 41
6.000000000000000
 42
6.000000000000000
 43
6.000000000000000
 50
180.0000000000000
  0
INSERT
  5
213
100
AcDbEntity
  8
MAIN0
  6
BYBLOCK
 62
0
100
AcDbBlockReference
  2
_OPEN
 10
491.2082927435545
 20
530.1156631144606
 30
0.0000000000000000
 41
6.000000000000000
 42
6.000000000000000
 43
6.000000000000000
 50
0.0000000000000000
  0
LINE
  5
214
100
AcDbEntity
  8
MAIN0
  6
BYBLOCK
 62
0
100
AcDbLine
 10
491.2082927435545
 20
482.5883230535897
 30
0.0000000000000000
 11
491.2082927435545
 21
536.1156631144606
 31
0.0000000000000000
  0
MTEXT
  5
215
100
AcDbEntity
  8
MAIN0
  6
BYBLOCK
 62
0
100
AcDbMText
 10
451.2082927435545
 20
535.2656629714095
 30
0.0000000000000000
 40
9.299999713897705
 41
0.0000000000000000
 71
     5
 72
     1
  1
\A1;MAX 274
 11
1.000000000000000
 21
0.0000000000000000
 31
0.0000000000000000
  7
STANDARD
  0
ENDBLK
  5
216
100
AcDbEntity
  8
MAIN0
  6
CONTINUOUS
 62
3
100
AcDbBlockEnd
  0
BLOCK
  5
218
100
AcDbEntity
  8
MAIN0
  6
CONTINUOUS
 62
1
100
AcDbBlockBegin
  2
*D40
 70
    65
 10
0.0
 20
0.0
 30
0.0
  0
LINE
  5
219
100
AcDbEntity
  8
MAIN0
  6
BYBLOCK
 62
0
100
AcDbLine
 10
491.2082927435545
 20
482.5883230535897
 30
0.0000000000000000
 11
491.2082927435545
 21
536.1156631144606
 31
0.0000000000000000
  0
LINE
  5
21A
100
AcDbEntity
  8
MAIN0
  6
BYBLOCK
 62
0
100
AcDbLine
 10
497.2082927435545
 20
530.1156631144606
 30
0.0000000000000000
 11
571.2082927435547
 21
530.1156631144606
 31
0.0000000000000000
  0
INSERT
  5
21B
100
AcDbEntity
  8
MAIN0
  6
BYBLOCK
 62
0
100
AcDbBlockReference
  2
_OPEN
 10
491.2082927435545
 20
530.1156631144606
 30
0.0000000000000000
 41
6.000000000000000
 42
6.000000000000000
 43
6.000000000000000
 50
180.0000000000000
  0
INSERT
  5
21C
100
AcDbEntity
  8
MAIN0
  6
BYBLOCK
 62
0
100
AcDbBlockReference
  2
_OPEN
 10
577.2082927435547
 20
530.1156631144606
 30
0.0000000000000000
 41
6.000000000000000
 42
6.000000000000000
 43
6.000000000000000
 50
0.0000000000000000
  0
LINE
  5
21D
100
AcDbEntity
  8
MAIN0
  6
BYBLOCK
 62
0
100
AcDbLine
 10
577.2082927435547
 20
482.5883230535895
 30
0.0000000000000000
 11
577.2082927435548
 21
536.1156631144605
 31
0.0000000000000000
  0
MTEXT
  5
21E
100
AcDbEntity
  8
MAIN0
  6
BYBLOCK
 62
0
100
AcDbMText
 10
534.2082927435547
 20
535.2656629714095
 30
0.0000000000000000
 40
9.299999713897705
 41
0.0000000000000000
 71
     5
 72
     1
  1
\A1;86
 11
1.000000000000000
 21
0.0000000000000000
 31
0.0000000000000000
  7
STANDARD
  0
ENDBLK
  5
21F
100
AcDbEntity
  8
MAIN0
  6
CONTINUOUS
 62
1
100
AcDbBlockEnd
  0
BLOCK
  5
221
100
AcDbEntity
  8
MAIN0
  6
CONTINUOUS
 62
3
100
AcDbBlockBegin
  2
*D41
 70
    65
 10
0.0
 20
0.0
 30
0.0
  0
LINE
  5
222
100
AcDbEntity
  8
MAIN0
  6
BYBLOCK
 62
0
100
AcDbLine
 10
394.2082927433623
 20
480.1883230178266
 30
0.0000000000000000
 11
394.2082927433623
 21
471.1883230178267
 31
0.0000000000000000
  0
INSERT
  5
223
100
AcDbEntity
  8
MAIN0
  6
BYBLOCK
 62
0
100
AcDbBlockReference
  2
_OPEN
 10
394.2082927433623
 20
480.1883230178266
 30
0.0000000000000000
 41
6.000000000000000
 42
6.000000000000000
 43
6.000000000000000
 50
270.0000000000000
  0
INSERT
  5
224
100
AcDbEntity
  8
MAIN0
  6
BYBLOCK
 62
0
100
AcDbBlockReference
  2
_DOT
 10
394.2082927433623
 20
470.1883230178267
 30
0.0000000000000000
 41
3.000000000000000
 42
3.000000000000000
 43
3.000000000000000
 50
270.0000000000000
  0
LINE
  5
225
100
AcDbEntity
  8
MAIN0
  6
BYBLOCK
 62
0
100
AcDbLine
 10
394.2082927433623
 20
486.1883230178266
 30
0.0000000000000000
 11
394.2082927433623
 21
497.2903458690856
 31
0.0000000000000000
  0
LINE
  5
226
100
AcDbEntity
  8
MAIN0
  6
BYBLOCK
 62
0
100
AcDbLine
 10
376.6082927791251
 20
470.1883230178267
 30
0.0000000000000000
 11
400.2082927433623
 21
470.1883230178267
 31
0.0000000000000000
  0
MTEXT
  5
227
100
AcDbEntity
  8
MAIN0
  6
BYBLOCK
 62
0
100
AcDbMText
 10
388.0582928864135
 20
491.1403460121367
 30
0.0000000000000000
 40
9.299999713897705
 41
0.0000000000000000
 71
     5
 72
     1
  1
\A1;10
 11
6.123233995736766e-017
 21
1.000000000000000
 31
0.0000000000000000
  7
STANDARD
  0
ENDBLK
  5
228
100
AcDbEntity
  8
MAIN0
  6
CONTINUOUS
 62
3
100
AcDbBlockEnd
  0
BLOCK
  5
22A
100
AcDbEntity
  8
MAIN0
  6
CONTINUOUS
 62
3
100
AcDbBlockBegin
  2
*D42
 70
    65
 10
0.0
 20
0.0
 30
0.0
  0
LINE
  5
22B
100
AcDbEntity
  8
MAIN0
  6
BYBLOCK
 62
0
100
AcDbLine
 10
376.6082927791251
 20
470.1883230178267
 30
0.0000000000000000
 11
400.2082927433623
 21
470.1883230178267
 31
0.0000000000000000
  0
LINE
  5
22C
100
AcDbEntity
  8
MAIN0
  6
BYBLOCK
 62
0
100
AcDbLine
 10
394.2082927433623
 20
469.1883230178267
 30
0.0000000000000000
 11
394.2082927433623
 21
450.1883230178267
 31
0.0000000000000000
  0
INSERT
  5
22D
100
AcDbEntity
  8
MAIN0
  6
BYBLOCK
 62
0
100
AcDbBlockReference
  2
_DOT
 10
394.2082927433623
 20
470.1883230178267
 30
0.0000000000000000
 41
3.000000000000000
 42
3.000000000000000
 43
3.000000000000000
 50
90.00000000000000
  0
INSERT
  5
22E
100
AcDbEntity
  8
MAIN0
  6
BYBLOCK
 62
0
100
AcDbBlockReference
  2
_OPEN
 10
394.2082927433623
 20
450.1883230178267
 30
0.0000000000000000
 41
6.000000000000000
 42
6.000000000000000
 43
6.000000000000000
 50
90.00000000000000
  0
LINE
  5
22F
100
AcDbEntity
  8
MAIN0
  6
BYBLOCK
 62
0
100
AcDbLine
 10
394.2082927433623
 20
444.1883230178267
 30
0.0000000000000000
 11
394.2082927433623
 21
441.1883230178267
 31
0.0000000000000000
  0
LINE
  5
230
100
AcDbEntity
  8
MAIN0
  6
BYBLOCK
 62
0
100
AcDbLine
 10
376.6082927791251
 20
450.1883230178267
 30
0.0000000000000000
 11
400.2082927433623
 21
450.1883230178267
 31
0.0000000000000000
  0
MTEXT
  5
231
100
AcDbEntity
  8
MAIN0
  6
BYBLOCK
 62
0
100
AcDbMText
 10
389.0582928864135
 20
460.1883230178267
 30
0.0000000000000000
 40
9.299999713897705
 41
0.0000000000000000
 71
     5
 72
     1
  1
\A1;20
 11
6.123233995736766e-017
 21
1.000000000000000
 31
0.0000000000000000
  7
STANDARD
  0
ENDBLK
  5
232
100
AcDbEntity
  8
MAIN0
  6
CONTINUOUS
 62
3
100
AcDbBlockEnd
  0
BLOCK
  5
234
100
AcDbEntity
  8
MAIN0
  6
CONTINUOUS
 62
3
100
AcDbBlockBegin
  2
*D43
 70
    65
 10
0.0
 20
0.0
 30
0.0
  0
LINE
  5
235
100
AcDbEntity
  8
MAIN0
  6
BYBLOCK
 62
0
100
AcDbLine
 10
316.2082927435550
 20
317.7883229820639
 30
0.0000000000000000
 11
316.2082927435550
 21
230.1883230178268
 31
0.0000000000000000
  0
LINE
  5
236
100
AcDbEntity
  8
MAIN0
  6
BYBLOCK
 62
0
100
AcDbLine
 10
322.2082927435550
 20
236.1883230178268
 30
0.0000000000000000
 11
455.2082927434059
 21
236.1883230178268
 31
0.0000000000000000
  0
INSERT
  5
237
100
AcDbEntity
  8
MAIN0
  6
BYBLOCK
 62
0
100
AcDbBlockReference
  2
_OPEN
 10
316.2082927435550
 20
236.1883230178268
 30
0.0000000000000000
 41
6.000000000000000
 42
6.000000000000000
 43
6.000000000000000
 50
180.0000000000000
  0
INSERT
  5
238
100
AcDbEntity
  8
MAIN0
  6
BYBLOCK
 62
0
100
AcDbBlockReference
  2
_OPEN
 10
461.2082927434059
 20
236.1883230178268
 30
0.0000000000000000
 41
6.000000000000000
 42
6.000000000000000
 43
6.000000000000000
 50
0.0000000000000000
  0
LINE
  5
239
100
AcDbEntity
  8
MAIN0
  6
BYBLOCK
 62
0
100
AcDbLine
 10
461.2082927434059
 20
304.7883229820637
 30
0.0000000000000000
 11
461.2082927434059
 21
230.1883230178268
 31
0.0000000000000000
  0
MTEXT
  5
23A
100
AcDbEntity
  8
MAIN0
  6
BYBLOCK
 62
0
100
AcDbMText
 10
388.7082927434805
 20
241.3383228747757
 30
0.0000000000000000
 40
9.299999713897705
 41
0.0000000000000000
 71
     5
 72
     1
  1
\A1;145
 11
1.000000000000000
 21
0.0000000000000000
 31
0.0000000000000000
  7
STANDARD
  0
ENDBLK
  5
23B
100
AcDbEntity
  8
MAIN0
  6
CONTINUOUS
 62
3
100
AcDbBlockEnd
  0
BLOCK
  5
23D
100
AcDbEntity
  8
MAIN0
  6
CONTINUOUS
 62
3
100
AcDbBlockBegin
  2
*D44
 70
    65
 10
0.0
 20
0.0
 30
0.0
  0
LINE
  5
23E
100
AcDbEntity
  8
MAIN0
  6
BYBLOCK
 62
0
100
AcDbLine
 10
461.2082927434059
 20
304.7883229820637
 30
0.0000000000000000
 11
461.2082927434059
 21
230.1883230178268
 31
0.0000000000000000
  0
LINE
  5
23F
100
AcDbEntity
  8
MAIN0
  6
BYBLOCK
 62
0
100
AcDbLine
 10
467.2082927434059
 20
236.1883230178268
 30
0.0000000000000000
 11
865.2082927435549
 21
236.1883230178268
 31
0.0000000000000000
  0
INSERT
  5
240
100
AcDbEntity
  8
MAIN0
  6
BYBLOCK
 62
0
100
AcDbBlockReference
  2
_OPEN
 10
461.2082927434059
 20
236.1883230178268
 30
0.0000000000000000
 41
6.000000000000000
 42
6.000000000000000
 43
6.000000000000000
 50
180.0000000000000
  0
INSERT
  5
241
100
AcDbEntity
  8
MAIN0
  6
BYBLOCK
 62
0
100
AcDbBlockReference
  2
_OPEN
 10
871.2082927435549
 20
236.1883230178268
 30
0.0000000000000000
 41
6.000000000000000
 42
6.000000000000000
 43
6.000000000000000
 50
0.0000000000000000
  0
LINE
  5
242
100
AcDbEntity
  8
MAIN0
  6
BYBLOCK
 62
0
100
AcDbLine
 10
871.2082927435549
 20
357.7883229820638
 30
0.0000000000000000
 11
871.2082927435549
 21
230.1883230178268
 31
0.0000000000000000
  0
MTEXT
  5
243
100
AcDbEntity
  8
MAIN0
  6
BYBLOCK
 62
0
100
AcDbMText
 10
666.2082927434803
 20
241.3383228747757
 30
0.0000000000000000
 40
9.299999713897705
 41
0.0000000000000000
 71
     5
 72
     1
  1
\A1;410
 11
1.000000000000000
 21
0.0000000000000000
 31
0.0000000000000000
  7
STANDARD
  0
ENDBLK
  5
244
100
AcDbEntity
  8
MAIN0
  6
CONTINUOUS
 62
3
100
AcDbBlockEnd
  0
BLOCK
  5
246
100
AcDbEntity
  8
MAIN0
  6
CONTINUOUS
 62
3
100
AcDbBlockBegin
  2
*D45
 70
    65
 10
0.0
 20
0.0
 30
0.0
  0
LINE
  5
247
100
AcDbEntity
  8
MAIN0
  6
BYBLOCK
 62
0
100
AcDbLine
 10
452.2082927435549
 20
312.7883229820638
 30
0.0000000000000000
 11
452.2082927435549
 21
284.1883230178268
 31
0.0000000000000000
  0
LINE
  5
248
100
AcDbEntity
  8
MAIN0
  6
BYBLOCK
 62
0
100
AcDbLine
 10
452.2082927435549
 20
290.1883230178268
 30
0.0000000000000000
 11
470.2082927435549
 21
290.1883230178268
 31
0.0000000000000000
  0
INSERT
  5
249
100
AcDbEntity
  8
MAIN0
  6
BYBLOCK
 62
0
100
AcDbBlockReference
  2
_OPEN
 10
452.2082927435549
 20
290.1883230178268
 30
0.0000000000000000
 41
6.000000000000000
 42
6.000000000000000
 43
6.000000000000000
 50
0.0000000000000000
  0
INSERT
  5
24A
100
AcDbEntity
  8
MAIN0
  6
BYBLOCK
 62
0
100
AcDbBlockReference
  2
_OPEN
 10
470.2082927435549
 20
290.1883230178268
 30
0.0000000000000000
 41
6.000000000000000
 42
6.000000000000000
 43
6.000000000000000
 50
180.0000000000000
  0
LINE
  5
24B
100
AcDbEntity
  8
MAIN0
  6
BYBLOCK
 62
0
100
AcDbLine
 10
446.2082927435549
 20
290.1883230178268
 30
0.0000000000000000
 11
431.6458624800703
 21
290.1883230178268
 31
0.0000000000000000
  0
LINE
  5
24C
100
AcDbEntity
  8
MAIN0
  6
BYBLOCK
 62
0
100
AcDbLine
 10
476.2082927435549
 20
290.1883230178268
 30
0.0000000000000000
 11
479.2082927435549
 21
290.1883230178268
 31
0.0000000000000000
  0
LINE
  5
24D
100
AcDbEntity
  8
MAIN0
  6
BYBLOCK
 62
0
100
AcDbLine
 10
470.2082927435549
 20
312.7883229820638
 30
0.0000000000000000
 11
470.2082927435549
 21
284.1883230178268
 31
0.0000000000000000
  0
MTEXT
  5
24E
100
AcDbEntity
  8
MAIN0
  6
BYBLOCK
 62
0
100
AcDbMText
 10
437.7958623370191
 20
296.3383228747757
 30
0.0000000000000000
 40
9.299999713897705
 41
0.0000000000000000
 71
     5
 72
     1
  1
\A1;18
 11
1.000000000000000
 21
0.0000000000000000
 31
0.0000000000000000
  7
STANDARD
  0
ENDBLK
  5
24F
100
AcDbEntity
  8
MAIN0
  6
CONTINUOUS
 62
3
100
AcDbBlockEnd
  0
BLOCK
  5
26B
100
AcDbEntity
  8
MAIN0
  6
CONTINUOUS
 62
3
100
AcDbBlockBegin
  2
*D46
 70
    65
 10
0.0
 20
0.0
 30
0.0
  0
LINE
  5
26C
100
AcDbEntity
  8
MAIN0
  6
BYBLOCK
 62
0
100
AcDbLine
 10
1051.998718284114
 20
442.7883230535895
 30
0.0000000000000000
 11
1051.998718284114
 21
536.1156631144606
 31
0.0000000000000000
  0
LINE
  5
26D
100
AcDbEntity
  8
MAIN0
  6
BYBLOCK
 62
0
100
AcDbLine
 10
1057.998718284114
 20
530.1156631144606
 30
0.0000000000000000
 11
1215.998718284114
 21
530.1156631144606
 31
0.0000000000000000
  0
INSERT
  5
26E
100
AcDbEntity
  8
MAIN0
  6
BYBLOCK
 62
0
100
AcDbBlockReference
  2
_OPEN
 10
1051.998718284114
 20
530.1156631144606
 30
0.0000000000000000
 41
6.000000000000000
 42
6.000000000000000
 43
6.000000000000000
 50
180.0000000000000
  0
INSERT
  5
26F
100
AcDbEntity
  8
MAIN0
  6
BYBLOCK
 62
0
100
AcDbBlockReference
  2
_OPEN
 10
1221.998718284114
 20
530.1156631144606
 30
0.0000000000000000
 41
6.000000000000000
 42
6.000000000000000
 43
6.000000000000000
 50
0.0000000000000000
  0
LINE
  5
270
100
AcDbEntity
  8
MAIN0
  6
BYBLOCK
 62
0
100
AcDbLine
 10
1221.998718284114
 20
442.7883228706433
 30
0.0000000000000000
 11
1221.998718284114
 21
536.1156631144606
 31
0.0000000000000000
  0
MTEXT
  5
271
100
AcDbEntity
  8
MAIN0
  6
BYBLOCK
 62
0
100
AcDbMText
 10
1136.998718284114
 20
535.2656629714095
 30
0.0000000000000000
 40
9.299999713897705
 41
0.0000000000000000
 71
     5
 72
     1
  1
\A1;170
 11
1.000000000000000
 21
0.0000000000000000
 31
0.0000000000000000
  7
STANDARD
  0
ENDBLK
  5
272
100
AcDbEntity
  8
MAIN0
  6
CONTINUOUS
 62
3
100
AcDbBlockEnd
  0
BLOCK
  5
274
100
AcDbEntity
  8
MAIN0
  6
CONTINUOUS
 62
3
100
AcDbBlockBegin
  2
*D47
 70
    65
 10
0.0
 20
0.0
 30
0.0
  0
LINE
  5
275
100
AcDbEntity
  8
MAIN0
  6
BYBLOCK
 62
0
100
AcDbLine
 10
1129.998718284114
 20
391.6297749379098
 30
0.0000000000000000
 11
1129.998718284114
 21
513.1727913175246
 31
0.0000000000000000
  0
LINE
  5
276
100
AcDbEntity
  8
MAIN0
  6
BYBLOCK
 62
0
100
AcDbLine
 10
1129.998718284114
 20
507.1727913175246
 30
0.0000000000000000
 11
1143.998718284114
 21
507.1727913175246
 31
0.0000000000000000
  0
INSERT
  5
277
100
AcDbEntity
  8
MAIN0
  6
BYBLOCK
 62
0
100
AcDbBlockReference
  2
_OPEN
 10
1129.998718284114
 20
507.1727913175246
 30
0.0000000000000000
 41
6.000000000000000
 42
6.000000000000000
 43
6.000000000000000
 50
0.0000000000000000
  0
INSERT
  5
278
100
AcDbEntity
  8
MAIN0
  6
BYBLOCK
 62
0
100
AcDbBlockReference
  2
_OPEN
 10
1143.998718284114
 20
507.1727913175246
 30
0.0000000000000000
 41
6.000000000000000
 42
6.000000000000000
 43
6.000000000000000
 50
180.0000000000000
  0
LINE
  5
279
100
AcDbEntity
  8
MAIN0
  6
BYBLOCK
 62
0
100
AcDbLine
 10
1123.998718284114
 20
507.1727913175246
 30
0.0000000000000000
 11
1120.998718284114
 21
507.1727913175246
 31
0.0000000000000000
  0
LINE
  5
27A
100
AcDbEntity
  8
MAIN0
  6
BYBLOCK
 62
0
100
AcDbLine
 10
1149.998718284114
 20
507.1727913175246
 30
0.0000000000000000
 11
1152.998718284114
 21
507.1727913175246
 31
0.0000000000000000
  0
LINE
  5
27B
100
AcDbEntity
  8
MAIN0
  6
BYBLOCK
 62
0
100
AcDbLine
 10
1143.998718284114
 20
391.6297749379098
 30
0.0000000000000000
 11
1143.998718284114
 21
513.1727913175246
 31
0.0000000000000000
  0
MTEXT
  5
27C
100
AcDbEntity
  8
MAIN0
  6
BYBLOCK
 62
0
100
AcDbMText
 10
1136.998718284114
 20
512.3227911744734
 30
0.0000000000000000
 40
9.299999713897705
 41
0.0000000000000000
 71
     5
 72
     1
  1
\A1;14
 11
1.000000000000000
 21
0.0000000000000000
 31
0.0000000000000000
  7
STANDARD
  0
ENDBLK
  5
27D
100
AcDbEntity
  8
MAIN0
  6
CONTINUOUS
 62
3
100
AcDbBlockEnd
  0
BLOCK
  5
27F
100
AcDbEntity
  8
MAIN0
  6
CONTINUOUS
 62
1
100
AcDbBlockBegin
  2
*D48
 70
    65
 10
0.0
 20
0.0
 30
0.0
  0
LINE
  5
280
100
AcDbEntity
  8
MAIN0
  6
BYBLOCK
 62
0
100
AcDbLine
 10
1033.498718284226
 20
272.1883230178263
 30
0.0000000000000000
 11
1056.498718284227
 21
272.1883230178263
 31
0.0000000000000000
  0
INSERT
  5
281
100
AcDbEntity
  8
MAIN0
  6
BYBLOCK
 62
0
100
AcDbBlockReference
  2
_OPEN
 10
1033.498718284226
 20
272.1883230178263
 30
0.0000000000000000
 41
6.000000000000000
 42
6.000000000000000
 43
6.000000000000000
 50
0.0000000000000000
  0
INSERT
  5
282
100
AcDbEntity
  8
MAIN0
  6
BYBLOCK
 62
0
100
AcDbBlockReference
  2
_OPEN
 10
1056.498718284227
 20
272.1883230178263
 30
0.0000000000000000
 41
6.000000000000000
 42
6.000000000000000
 43
6.000000000000000
 50
180.0000000000000
  0
LINE
  5
283
100
AcDbEntity
  8
MAIN0
  6
BYBLOCK
 62
0
100
AcDbLine
 10
1027.498718284226
 20
272.1883230178263
 30
0.0000000000000000
 11
1024.498718284226
 21
272.1883230178263
 31
0.0000000000000000
  0
LINE
  5
284
100
AcDbEntity
  8
MAIN0
  6
BYBLOCK
 62
0
100
AcDbLine
 10
1062.498718284227
 20
272.1883230178263
 30
0.0000000000000000
 11
1099.671257432098
 21
272.1883230178263
 31
0.0000000000000000
  0
LINE
  5
285
100
AcDbEntity
  8
MAIN0
  6
BYBLOCK
 62
0
100
AcDbLine
 10
1056.498718284227
 20
317.7883229825298
 30
0.0000000000000000
 11
1056.498718284227
 21
266.1883230178263
 31
0.0000000000000000
  0
MTEXT
  5
286
100
AcDbEntity
  8
MAIN0
  6
BYBLOCK
 62
0
100
AcDbMText
 10
1083.321258004302
 20
278.3383228747751
 30
0.0000000000000000
 40
9.299999713897705
 41
0.0000000000000000
 71
     5
 72
     1
  1
\A1;15～31
 11
1.000000000000000
 21
0.0000000000000000
 31
0.0000000000000000
  7
KNJYOKO
  0
ENDBLK
  5
287
100
AcDbEntity
  8
MAIN0
  6
CONTINUOUS
 62
1
100
AcDbBlockEnd
  0
BLOCK
  5
28A
100
AcDbEntity
  8
MAIN0
  6
CONTINUOUS
 62
3
100
AcDbBlockBegin
  2
*D49
 70
    65
 10
0.0
 20
0.0
 30
0.0
  0
LINE
  5
28B
100
AcDbEntity
  8
MAIN0
  6
BYBLOCK
 62
0
100
AcDbLine
 10
1013.598718248464
 20
355.1883230182928
 30
0.0000000000000000
 11
966.0447874709695
 21
355.1883230182928
 31
0.0000000000000000
  0
LINE
  5
28C
100
AcDbEntity
  8
MAIN0
  6
BYBLOCK
 62
0
100
AcDbLine
 10
972.0447874709695
 20
355.1883230182928
 30
0.0000000000000000
 11
972.0447874709695
 21
350.1883230182928
 31
0.0000000000000000
  0
INSERT
  5
28D
100
AcDbEntity
  8
MAIN0
  6
BYBLOCK
 62
0
100
AcDbBlockReference
  2
_OPEN
 10
972.0447874709695
 20
355.1883230182928
 30
0.0000000000000000
 41
6.000000000000000
 42
6.000000000000000
 43
6.000000000000000
 50
270.0000000000000
  0
INSERT
  5
28E
100
AcDbEntity
  8
MAIN0
  6
BYBLOCK
 62
0
100
AcDbBlockReference
  2
_OPEN
 10
972.0447874709695
 20
350.1883230182928
 30
0.0000000000000000
 41
6.000000000000000
 42
6.000000000000000
 43
6.000000000000000
 50
90.00000000000000
  0
LINE
  5
28F
100
AcDbEntity
  8
MAIN0
  6
BYBLOCK
 62
0
100
AcDbLine
 10
972.0447874709695
 20
361.1883230182928
 30
0.0000000000000000
 11
972.0447874709695
 21
368.4556115772754
 31
0.0000000000000000
  0
LINE
  5
290
100
AcDbEntity
  8
MAIN0
  6
BYBLOCK
 62
0
100
AcDbLine
 10
972.0447874709695
 20
344.1883230182928
 30
0.0000000000000000
 11
972.0447874709695
 21
341.1883230182928
 31
0.0000000000000000
  0
LINE
  5
291
100
AcDbEntity
  8
MAIN0
  6
BYBLOCK
 62
0
100
AcDbLine
 10
983.0987182484637
 20
350.1883230182928
 30
0.0000000000000000
 11
966.0447874709695
 21
350.1883230182928
 31
0.0000000000000000
  0
MTEXT
  5
292
100
AcDbEntity
  8
MAIN0
  6
BYBLOCK
 62
0
100
AcDbMText
 10
965.8947876140206
 20
365.4556115772754
 30
0.0000000000000000
 40
9.299999713897705
 41
0.0000000000000000
 71
     5
 72
     1
  1
\A1;5
 11
6.123233995736766e-017
 21
1.000000000000000
 31
0.0000000000000000
  7
STANDARD
  0
ENDBLK
  5
293
100
AcDbEntity
  8
MAIN0
  6
CONTINUOUS
 62
3
100
AcDbBlockEnd
  0
BLOCK
  5
295
100
AcDbEntity
  8
MAIN0
  6
CONTINUOUS
 62
3
100
AcDbBlockBegin
  2
*D50
 70
    65
 10
0.0
 20
0.0
 30
0.0
  0
LINE
  5
296
100
AcDbEntity
  8
MAIN0
  6
BYBLOCK
 62
0
100
AcDbLine
 10
983.0987182484637
 20
350.1883230182928
 30
0.0000000000000000
 11
966.0447874709695
 21
350.1883230182928
 31
0.0000000000000000
  0
LINE
  5
297
100
AcDbEntity
  8
MAIN0
  6
BYBLOCK
 62
0
100
AcDbLine
 10
972.0447874709695
 20
344.1883230182928
 30
0.0000000000000000
 11
972.0447874709695
 21
326.1883230182928
 31
0.0000000000000000
  0
INSERT
  5
298
100
AcDbEntity
  8
MAIN0
  6
BYBLOCK
 62
0
100
AcDbBlockReference
  2
_OPEN
 10
972.0447874709695
 20
350.1883230182928
 30
0.0000000000000000
 41
6.000000000000000
 42
6.000000000000000
 43
6.000000000000000
 50
90.00000000000000
  0
INSERT
  5
299
100
AcDbEntity
  8
MAIN0
  6
BYBLOCK
 62
0
100
AcDbBlockReference
  2
_OPEN
 10
972.0447874709695
 20
320.1883230182928
 30
0.0000000000000000
 41
6.000000000000000
 42
6.000000000000000
 43
6.000000000000000
 50
270.0000000000000
  0
LINE
  5
29A
100
AcDbEntity
  8
MAIN0
  6
BYBLOCK
 62
0
100
AcDbLine
 10
984.7987182484640
 20
320.1883230182928
 30
0.0000000000000000
 11
966.0447874709695
 21
320.1883230182928
 31
0.0000000000000000
  0
MTEXT
  5
29B
100
AcDbEntity
  8
MAIN0
  6
BYBLOCK
 62
0
100
AcDbMText
 10
966.8947876140206
 20
335.1883230182928
 30
0.0000000000000000
 40
9.299999713897705
 41
0.0000000000000000
 71
     5
 72
     1
  1
\A1;30
 11
6.123233995736766e-017
 21
1.000000000000000
 31
0.0000000000000000
  7
STANDARD
  0
ENDBLK
  5
29C
100
AcDbEntity
  8
MAIN0
  6
CONTINUOUS
 62
3
100
AcDbBlockEnd
  0
BLOCK
  5
2E6
100
AcDbEntity
  8
MAIN0
  6
CONTINUOUS
 62
3
100
AcDbBlockBegin
  2
*D51
 70
    65
 10
0.0
 20
0.0
 30
0.0
  0
LINE
  5
2E7
100
AcDbEntity
  8
MAIN0
  6
BYBLOCK
 62
0
100
AcDbLine
 10
70.08469744535182
 20
482.5883230535893
 30
0.0000000000000000
 11
70.08469744535182
 21
513.1727913175246
 31
0.0000000000000000
  0
LINE
  5
2E8
100
AcDbEntity
  8
MAIN0
  6
BYBLOCK
 62
0
100
AcDbLine
 10
76.08469744535182
 20
507.1727913175246
 30
0.0000000000000000
 11
224.0846974453518
 21
507.1727913175246
 31
0.0000000000000000
  0
INSERT
  5
2E9
100
AcDbEntity
  8
MAIN0
  6
BYBLOCK
 62
0
100
AcDbBlockReference
  2
_OPEN
 10
70.08469744535182
 20
507.1727913175246
 30
0.0000000000000000
 41
6.000000000000000
 42
6.000000000000000
 43
6.000000000000000
 50
180.0000000000000
  0
INSERT
  5
2EA
100
AcDbEntity
  8
MAIN0
  6
BYBLOCK
 62
0
100
AcDbBlockReference
  2
_OPEN
 10
230.0846974453518
 20
507.1727913175246
 30
0.0000000000000000
 41
6.000000000000000
 42
6.000000000000000
 43
6.000000000000000
 50
0.0000000000000000
  0
LINE
  5
2EB
100
AcDbEntity
  8
MAIN0
  6
BYBLOCK
 62
0
100
AcDbLine
 10
230.0846974453518
 20
482.5883230535893
 30
0.0000000000000000
 11
230.0846974453518
 21
513.1727913175246
 31
0.0000000000000000
  0
MTEXT
  5
2EC
100
AcDbEntity
  8
MAIN0
  6
BYBLOCK
 62
0
100
AcDbMText
 10
150.0846974453518
 20
512.3227911744734
 30
0.0000000000000000
 40
9.299999713897705
 41
0.0000000000000000
 71
     5
 72
     1
  1
\A1;160
 11
1.000000000000000
 21
0.0000000000000000
 31
0.0000000000000000
  7
STANDARD
  0
ENDBLK
  5
2ED
100
AcDbEntity
  8
MAIN0
  6
CONTINUOUS
 62
3
100
AcDbBlockEnd
  0
BLOCK
  5
30C
100
AcDbEntity
  8
MAIN0
  6
CONTINUOUS
 62
3
100
AcDbBlockBegin
  2
*D52
 70
    65
 10
0.0
 20
0.0
 30
0.0
  0
LINE
  5
30D
100
AcDbEntity
  8
MAIN0
  6
BYBLOCK
 62
0
100
AcDbLine
 10
227.2159818173261
 20
420.1883230173604
 30
0.0000000000000000
 11
263.5359650790538
 21
420.1883230173604
 31
0.0000000000000000
  0
LINE
  5
30E
100
AcDbEntity
  8
MAIN0
  6
BYBLOCK
 62
0
100
AcDbLine
 10
257.5359650790538
 20
420.1883230173604
 30
0.0000000000000000
 11
257.5359650790538
 21
396.1883230178265
 31
0.0000000000000000
  0
INSERT
  5
30F
100
AcDbEntity
  8
MAIN0
  6
BYBLOCK
 62
0
100
AcDbBlockReference
  2
_OPEN
 10
257.5359650790538
 20
420.1883230173604
 30
0.0000000000000000
 41
6.000000000000000
 42
6.000000000000000
 43
6.000000000000000
 50
270.0000000000000
  0
INSERT
  5
310
100
AcDbEntity
  8
MAIN0
  6
BYBLOCK
 62
0
100
AcDbBlockReference
  2
_OPEN
 10
257.5359650790538
 20
396.1883230178265
 30
0.0000000000000000
 41
6.000000000000000
 42
6.000000000000000
 43
6.000000000000000
 50
90.00000000000000
  0
LINE
  5
311
100
AcDbEntity
  8
MAIN0
  6
BYBLOCK
 62
0
100
AcDbLine
 10
257.5359650790538
 20
426.1883230173604
 30
0.0000000000000000
 11
257.5359650790538
 21
429.1883230173604
 31
0.0000000000000000
  0
LINE
  5
312
100
AcDbEntity
  8
MAIN0
  6
BYBLOCK
 62
0
100
AcDbLine
 10
257.5359650790538
 20
390.1883230178265
 30
0.0000000000000000
 11
257.5359650790538
 21
387.1883230178265
 31
0.0000000000000000
  0
LINE
  5
313
100
AcDbEntity
  8
MAIN0
  6
BYBLOCK
 62
0
100
AcDbLine
 10
232.9846974811146
 20
396.1883230178265
 30
0.0000000000000000
 11
263.5359650790538
 21
396.1883230178265
 31
0.0000000000000000
  0
MTEXT
  5
314
100
AcDbEntity
  8
MAIN0
  6
BYBLOCK
 62
0
100
AcDbMText
 10
252.3859652221049
 20
408.1883230175935
 30
0.0000000000000000
 40
9.299999713897705
 41
0.0000000000000000
 71
     5
 72
     1
  1
\A1;24
 11
6.123233995736766e-017
 21
1.000000000000000
 31
0.0000000000000000
  7
STANDARD
  0
ENDBLK
  5
315
100
AcDbEntity
  8
MAIN0
  6
CONTINUOUS
 62
3
100
AcDbBlockEnd
  0
BLOCK
  5
317
100
AcDbEntity
  8
MAIN0
  6
CONTINUOUS
 62
3
100
AcDbBlockBegin
  2
*D53
 70
    65
 10
0.0
 20
0.0
 30
0.0
  0
LINE
  5
318
100
AcDbEntity
  8
MAIN0
  6
BYBLOCK
 62
0
100
AcDbLine
 10
232.9846974811146
 20
396.1883230178265
 30
0.0000000000000000
 11
263.5359650790538
 21
396.1883230178265
 31
0.0000000000000000
  0
LINE
  5
319
100
AcDbEntity
  8
MAIN0
  6
BYBLOCK
 62
0
100
AcDbLine
 10
257.5359650790538
 20
390.1883230178265
 30
0.0000000000000000
 11
257.5359650790538
 21
347.1883230178268
 31
0.0000000000000000
  0
INSERT
  5
31A
100
AcDbEntity
  8
MAIN0
  6
BYBLOCK
 62
0
100
AcDbBlockReference
  2
_OPEN
 10
257.5359650790538
 20
396.1883230178265
 30
0.0000000000000000
 41
6.000000000000000
 42
6.000000000000000
 43
6.000000000000000
 50
90.00000000000000
  0
INSERT
  5
31B
100
AcDbEntity
  8
MAIN0
  6
BYBLOCK
 62
0
100
AcDbBlockReference
  2
_OPEN
 10
257.5359650790538
 20
341.1883230178268
 30
0.0000000000000000
 41
6.000000000000000
 42
6.000000000000000
 43
6.000000000000000
 50
270.0000000000000
  0
LINE
  5
31C
100
AcDbEntity
  8
MAIN0
  6
BYBLOCK
 62
0
100
AcDbLine
 10
232.9846974811144
 20
341.1883230178268
 30
0.0000000000000000
 11
263.5359650790538
 21
341.1883230178268
 31
0.0000000000000000
  0
MTEXT
  5
31D
100
AcDbEntity
  8
MAIN0
  6
BYBLOCK
 62
0
100
AcDbMText
 10
252.3859652221049
 20
368.6883230178266
 30
0.0000000000000000
 40
9.299999713897705
 41
0.0000000000000000
 71
     5
 72
     1
  1
\A1;55
 11
6.123233995736766e-017
 21
1.000000000000000
 31
0.0000000000000000
  7
STANDARD
  0
ENDBLK
  5
31E
100
AcDbEntity
  8
MAIN0
  6
CONTINUOUS
 62
3
100
AcDbBlockEnd
  0
BLOCK
  5
320
100
AcDbEntity
  8
MAIN0
  6
CONTINUOUS
 62
3
100
AcDbBlockBegin
  2
*D54
 70
    65
 10
0.0
 20
0.0
 30
0.0
  0
LINE
  5
321
100
AcDbEntity
  8
MAIN0
  6
BYBLOCK
 62
0
100
AcDbLine
 10
232.9846974811144
 20
341.1883230178268
 30
0.0000000000000000
 11
263.5359650790538
 21
341.1883230178268
 31
0.0000000000000000
  0
LINE
  5
322
100
AcDbEntity
  8
MAIN0
  6
BYBLOCK
 62
0
100
AcDbLine
 10
257.5359650790538
 20
341.1883230178268
 30
0.0000000000000000
 11
257.5359650790538
 21
320.1883230178266
 31
0.0000000000000000
  0
INSERT
  5
323
100
AcDbEntity
  8
MAIN0
  6
BYBLOCK
 62
0
100
AcDbBlockReference
  2
_OPEN
 10
257.5359650790538
 20
341.1883230178268
 30
0.0000000000000000
 41
6.000000000000000
 42
6.000000000000000
 43
6.000000000000000
 50
270.0000000000000
  0
INSERT
  5
324
100
AcDbEntity
  8
MAIN0
  6
BYBLOCK
 62
0
100
AcDbBlockReference
  2
_OPEN
 10
257.5359650790538
 20
320.1883230178266
 30
0.0000000000000000
 41
6.000000000000000
 42
6.000000000000000
 43
6.000000000000000
 50
90.00000000000000
  0
LINE
  5
325
100
AcDbEntity
  8
MAIN0
  6
BYBLOCK
 62
0
100
AcDbLine
 10
257.5359650790538
 20
347.1883230178268
 30
0.0000000000000000
 11
257.5359650790538
 21
350.1883230178268
 31
0.0000000000000000
  0
LINE
  5
326
100
AcDbEntity
  8
MAIN0
  6
BYBLOCK
 62
0
100
AcDbLine
 10
257.5359650790538
 20
314.1883230178266
 30
0.0000000000000000
 11
257.5359650790538
 21
311.1883230178266
 31
0.0000000000000000
  0
LINE
  5
327
100
AcDbEntity
  8
MAIN0
  6
BYBLOCK
 62
0
100
AcDbLine
 10
232.9846974811145
 20
320.1883230178265
 30
0.0000000000000000
 11
263.5359650790538
 21
320.1883230178266
 31
0.0000000000000000
  0
MTEXT
  5
328
100
AcDbEntity
  8
MAIN0
  6
BYBLOCK
 62
0
100
AcDbMText
 10
252.3859652221049
 20
330.6883230178266
 30
0.0000000000000000
 40
9.299999713897705
 41
0.0000000000000000
 71
     5
 72
     1
  1
\A1;21
 11
6.123233995736766e-017
 21
1.000000000000000
 31
0.0000000000000000
  7
STANDARD
  0
ENDBLK
  5
329
100
AcDbEntity
  8
MAIN0
  6
CONTINUOUS
 62
3
100
AcDbBlockEnd
  0
BLOCK
  5
32B
100
AcDbEntity
  8
MAIN0
  6
CONTINUOUS
 62
3
100
AcDbBlockBegin
  2
*D55
 70
    65
 10
0.0
 20
0.0
 30
0.0
  0
LINE
  5
32C
100
AcDbEntity
  8
MAIN0
  6
BYBLOCK
 62
0
100
AcDbLine
 10
224.5846974453518
 20
363.1883230178268
 30
0.0000000000000000
 11
230.5846974453518
 21
363.1883230178268
 31
0.0000000000000000
  0
INSERT
  5
32D
100
AcDbEntity
  8
MAIN0
  6
BYBLOCK
 62
0
100
AcDbBlockReference
  2
_OPEN
 10
224.5846974453518
 20
363.1883230178268
 30
0.0000000000000000
 41
6.000000000000000
 42
6.000000000000000
 43
6.000000000000000
 50
0.0000000000000000
  0
INSERT
  5
32E
100
AcDbEntity
  8
MAIN0
  6
BYBLOCK
 62
0
100
AcDbBlockReference
  2
_OPEN
 10
230.5846974453518
 20
363.1883230178268
 30
0.0000000000000000
 41
6.000000000000000
 42
6.000000000000000
 43
6.000000000000000
 50
180.0000000000000
  0
LINE
  5
32F
100
AcDbEntity
  8
MAIN0
  6
BYBLOCK
 62
0
100
AcDbLine
 10
218.5846974453518
 20
363.1883230178268
 30
0.0000000000000000
 11
211.0494601697791
 21
363.1883230178268
 31
0.0000000000000000
  0
LINE
  5
330
100
AcDbEntity
  8
MAIN0
  6
BYBLOCK
 62
0
100
AcDbLine
 10
236.5846974453518
 20
363.1883230178268
 30
0.0000000000000000
 11
239.5846974453518
 21
363.1883230178268
 31
0.0000000000000000
  0
LINE
  5
331
100
AcDbEntity
  8
MAIN0
  6
BYBLOCK
 62
0
100
AcDbLine
 10
230.5846974453518
 20
343.5883230535893
 30
0.0000000000000000
 11
230.5846974453518
 21
369.1883230178268
 31
0.0000000000000000
  0
MTEXT
  5
332
100
AcDbEntity
  8
MAIN0
  6
BYBLOCK
 62
0
100
AcDbMText
 10
214.0494601697791
 20
369.3383228747757
 30
0.0000000000000000
 40
9.299999713897705
 41
0.0000000000000000
 71
     5
 72
     1
  1
\A1;6
 11
1.000000000000000
 21
0.0000000000000000
 31
0.0000000000000000
  7
STANDARD
  0
ENDBLK
  5
333
100
AcDbEntity
  8
MAIN0
  6
CONTINUOUS
 62
3
100
AcDbBlockEnd
  0
ENDSEC
  0
SECTION
  2
ENTITIES
  0
LINE
  5
46
100
AcDbEntity
  8
MAIN0
  6
CENTER
 62
3
100
AcDbLine
 10
396.2082927435519
 20
764.9163901878842
 30
0.0000000000000000
 11
396.2082927435505
 21
783.0094419682260
 31
0.0000000000000000
  0
LINE
  5
47
100
AcDbEntity
  8
MAIN0
  6
CENTER
 62
3
100
AcDbLine
 10
341.2082927435518
 20
764.9163901878799
 30
0.0000000000000000
 11
341.2082927435505
 21
783.0094419682217
 31
0.0000000000000000
  0
CIRCLE
  5
48
100
AcDbEntity
  8
MAIN0
  6
CONTINUOUS
 62
3
100
AcDbCircle
 10
391.2082927435652
 20
794.7608442466897
 30
0.0000000000000000
 40
13.00000000000000
  0
CIRCLE
  5
49
100
AcDbEntity
  8
MAIN0
  6
CONTINUOUS
 62
3
100
AcDbCircle
 10
559.2082927435536
 20
761.7608442464261
 30
0.0000000000000000
 40
11.50000000000000
  0
CIRCLE
  5
4A
100
AcDbEntity
  8
MAIN0
  6
CONTINUOUS
 62
3
100
AcDbCircle
 10
509.2082927435538
 20
761.7608442464259
 30
0.0000000000000000
 40
11.50000000000000
  0
CIRCLE
  5
4B
100
AcDbEntity
  8
MAIN0
  6
CONTINUOUS
 62
3
100
AcDbCircle
 10
509.2082927435537
 20
705.7608442464273
 30
0.0000000000000000
 40
11.50000000000000
  0
CIRCLE
  5
4C
100
AcDbEntity
  8
MAIN0
  6
CONTINUOUS
 62
3
100
AcDbCircle
 10
559.2082927435538
 20
705.7608442464274
 30
0.0000000000000000
 40
11.50000000000000
  0
CIRCLE
  5
4D
100
AcDbEntity
  8
MAIN0
  6
CONTINUOUS
 62
3
100
AcDbCircle
 10
337.2082927435652
 20
794.7608442466897
 30
0.0000000000000000
 40
13.00000000000000
  0
CIRCLE
  5
4E
100
AcDbEntity
  8
MAIN0
  6
CONTINUOUS
 62
3
100
AcDbCircle
 10
337.2082927435653
 20
672.7608442466894
 30
0.0000000000000000
 40
13.00000000000000
  0
CIRCLE
  5
4F
100
AcDbEntity
  8
MAIN0
  6
CONTINUOUS
 62
3
100
AcDbCircle
 10
391.2082927435653
 20
672.7608442466894
 30
0.0000000000000000
 40
13.00000000000000
  0
LINE
  5
50
100
AcDbEntity
  8
MAIN0
  6
CENTER
 62
3
100
AcDbLine
 10
506.2082927435538
 20
773.7608442466897
 30
0.0000000000000000
 11
506.2082927435538
 21
793.9604710807423
 31
0.0000000000000000
  0
LINE
  5
51
100
AcDbEntity
  8
MAIN0
  6
CENTER
 62
3
100
AcDbLine
 10
556.2082927435538
 20
773.7608442466897
 30
0.0000000000000000
 11
556.2082927435538
 21
793.9604710807423
 31
0.0000000000000000
  0
LINE
  5
52
100
AcDbEntity
  8
MAIN0
  6
CENTER
 62
3
100
AcDbLine
 10
496.7001479604601
 20
783.7608442466897
 30
0.0000000000000000
 11
515.7454332741115
 21
783.7608442466897
 31
0.0000000000000000
  0
LINE
  5
53
100
AcDbEntity
  8
MAIN0
  6
CENTER
 62
3
100
AcDbLine
 10
543.8372444779342
 20
783.7608442466897
 30
0.0000000000000000
 11
565.7393388587132
 21
783.7608442466897
 31
0.0000000000000000
  0
LINE
  5
54
100
AcDbEntity
  8
MAIN0
  6
CENTER
 62
3
100
AcDbLine
 10
330.7686607485178
 20
773.7608442466894
 30
0.0000000000000000
 11
350.7662157512119
 21
773.7608442466894
 31
0.0000000000000000
  0
LINE
  5
55
100
AcDbEntity
  8
MAIN0
  6
CENTER
 62
3
100
AcDbLine
 10
385.7613257566001
 20
773.7608442466895
 30
0.0000000000000000
 11
406.7111504483366
 21
773.7608442466895
 31
0.0000000000000000
  0
LINE
  5
56
100
AcDbEntity
  8
MAIN0
  6
CENTER
 62
3
100
AcDbLine
 10
396.2082927435519
 20
702.6052983054948
 30
0.0000000000000000
 11
396.2082927435506
 21
684.5122465251529
 31
0.0000000000000000
  0
LINE
  5
57
100
AcDbEntity
  8
MAIN0
  6
CENTER
 62
3
100
AcDbLine
 10
341.2082927435519
 20
702.6052983054990
 30
0.0000000000000000
 11
341.2082927435505
 21
684.5122465251571
 31
0.0000000000000000
  0
LINE
  5
58
100
AcDbEntity
  8
MAIN0
  6
CENTER
 62
3
100
AcDbLine
 10
506.2082927435538
 20
693.7608442466894
 30
0.0000000000000000
 11
506.2082927435539
 21
673.5612174126368
 31
0.0000000000000000
  0
LINE
  5
59
100
AcDbEntity
  8
MAIN0
  6
CENTER
 62
3
100
AcDbLine
 10
556.2082927435538
 20
693.7608442466894
 30
0.0000000000000000
 11
556.2082927435539
 21
673.5612174126370
 31
0.0000000000000000
  0
CIRCLE
  5
5A
100
AcDbEntity
  8
MAIN0
  6
CONTINUOUS
 62
3
100
AcDbCircle
 10
396.2082927435512
 20
693.7608442466894
 30
0.0000000000000000
 40
5.000000000000000
  0
CIRCLE
  5
5B
100
AcDbEntity
  8
MAIN0
  6
CONTINUOUS
 62
3
100
AcDbCircle
 10
396.2082927435512
 20
693.7608442466894
 30
0.0000000000000000
 40
4.250000000000000
  0
CIRCLE
  5
5C
100
AcDbEntity
  8
MAIN0
  6
CONTINUOUS
 62
3
100
AcDbCircle
 10
341.2082927435512
 20
693.7608442466893
 30
0.0000000000000000
 40
5.000000000000000
  0
CIRCLE
  5
5D
100
AcDbEntity
  8
MAIN0
  6
CONTINUOUS
 62
3
100
AcDbCircle
 10
341.2082927435512
 20
693.7608442466893
 30
0.0000000000000000
 40
4.250000000000000
  0
CIRCLE
  5
5E
100
AcDbEntity
  8
MAIN0
  6
CONTINUOUS
 62
3
100
AcDbCircle
 10
506.2082927435538
 20
683.7608442466895
 30
0.0000000000000000
 40
5.000000000000000
  0
CIRCLE
  5
5F
100
AcDbEntity
  8
MAIN0
  6
CONTINUOUS
 62
3
100
AcDbCircle
 10
506.2082927435538
 20
683.7608442466895
 30
0.0000000000000000
 40
4.250000000000000
  0
CIRCLE
  5
60
100
AcDbEntity
  8
MAIN0
  6
CONTINUOUS
 62
3
100
AcDbCircle
 10
556.2082927435539
 20
683.7608442466895
 30
0.0000000000000000
 40
5.000000000000000
  0
CIRCLE
  5
61
100
AcDbEntity
  8
MAIN0
  6
CONTINUOUS
 62
3
100
AcDbCircle
 10
556.2082927435539
 20
683.7608442466895
 30
0.0000000000000000
 40
4.250000000000000
  0
LINE
  5
62
100
AcDbEntity
  8
MAIN0
  6
CENTER
 62
3
100
AcDbLine
 10
496.7001479604601
 20
683.7608442466895
 30
0.0000000000000000
 11
515.7454332741115
 21
683.7608442466895
 31
0.0000000000000000
  0
LINE
  5
63
100
AcDbEntity
  8
MAIN0
  6
CENTER
 62
3
100
AcDbLine
 10
543.8372444779343
 20
683.7608442466895
 30
0.0000000000000000
 11
565.7393388587132
 21
683.7608442466897
 31
0.0000000000000000
  0
LINE
  5
64
100
AcDbEntity
  8
MAIN0
  6
CENTER
 62
3
100
AcDbLine
 10
330.7686607485179
 20
693.7608442466894
 30
0.0000000000000000
 11
350.7662157512119
 21
693.7608442466894
 31
0.0000000000000000
  0
LINE
  5
65
100
AcDbEntity
  8
MAIN0
  6
CENTER
 62
3
100
AcDbLine
 10
385.7613257566001
 20
693.7608442466894
 30
0.0000000000000000
 11
406.7111504483367
 21
693.7608442466894
 31
0.0000000000000000
  0
DIMENSION
  5
70
100
AcDbEntity
  8
MAIN0
  6
CONTINUOUS
 62
3
100
AcDbDimension
  2
*D0
 10
411.2082927435599
 20
622.5528490242788
 30
0.0000000000000000
 11
403.7082927435553
 21
623.0528490242788
 31
0.0000000000000000
 70
32
  3
MAIN001
100
AcDbAlignedDimension
 13
396.2082927435506
 23
684.5122465251529
 33
0.0000000000000000
 14
411.2082927435599
 24
654.2608442465469
 34
0.0000000000000000
100
AcDbRotatedDimension
1001
ACAD
1000
DSTYLE
1002
{
1070
   173
1070
     1
1070
     6
1000
_OPEN
1070
     7
1000
_OPEN
1070
    41
1040
6.000000
1070
   287
1070
     0
1002
}
  0
DIMENSION
  5
79
100
AcDbEntity
  8
MAIN0
  6
CONTINUOUS
 62
3
100
AcDbDimension
  2
*D1
 10
396.2082927435506
 20
622.5528490242788
 30
0.0000000000000000
 11
371.9534875769494
 21
624.0528490242788
 31
0.0000000000000000
 70
160
  3
MAIN001
100
AcDbAlignedDimension
 13
341.2082927435505
 23
684.5122465251571
 33
0.0000000000000000
 14
396.2082927435506
 24
684.5122465251529
 34
0.0000000000000000
100
AcDbRotatedDimension
1001
ACAD
1000
DSTYLE
1002
{
1070
   173
1070
     1
1070
     6
1000
_OPEN
1070
     7
1000
_OPEN
1070
    41
1040
6.000000
1002
}
  0
DIMENSION
  5
82
100
AcDbEntity
  8
MAIN0
  6
CONTINUOUS
 62
3
100
AcDbDimension
  2
*D2
 10
491.2082927435537
 20
841.5737024427376
 30
0.0000000000000000
 11
512.7082927435537
 21
842.0737024427376
 31
0.0000000000000000
 70
32
  3
MAIN001
100
AcDbAlignedDimension
 13
534.2082927435536
 23
744.7608442464273
 33
0.0000000000000000
 14
491.2082927435538
 24
813.1608442466893
 34
0.0000000000000000
100
AcDbRotatedDimension
1001
ACAD
1000
DSTYLE
1002
{
1070
   173
1070
     1
1070
     6
1000
_OPEN
1070
     7
1000
_OPEN
1070
    41
1040
6.000000
1002
}
  0
DIMENSION
  5
8D
100
AcDbEntity
  8
MAIN0
  6
CONTINUOUS
 62
3
100
AcDbDimension
  2
*D3
 10
491.2082927435537
 20
622.5528490242788
 30
0.0000000000000000
 11
498.7082927435538
 21
623.0528490242788
 31
0.0000000000000000
 70
32
  3
MAIN001
100
AcDbAlignedDimension
 13
506.2082927435539
 23
673.5612174126368
 33
0.0000000000000000
 14
491.2082927435537
 24
654.6108442466891
 34
0.0000000000000000
100
AcDbRotatedDimension
1001
ACAD
1000
DSTYLE
1002
{
1070
   173
1070
     1
1070
     6
1000
_OPEN
1070
     7
1000
_OPEN
1070
    41
1040
6.000000
1070
   287
1070
     0
1002
}
  0
DIMENSION
  5
96
100
AcDbEntity
  8
MAIN0
  6
CONTINUOUS
 62
3
100
AcDbDimension
  2
*D4
 10
506.2082927435539
 20
622.5528490242788
 30
0.0000000000000000
 11
526.6964985423675
 21
624.0528490242788
 31
0.0000000000000000
 70
160
  3
MAIN001
100
AcDbAlignedDimension
 13
556.2082927435539
 23
673.5612174126370
 33
0.0000000000000000
 14
506.2082927435539
 24
673.5612174126368
 34
0.0000000000000000
100
AcDbRotatedDimension
1001
ACAD
1000
DSTYLE
1002
{
1070
   173
1070
     1
1070
     6
1000
_OPEN
1070
     7
1000
_OPEN
1070
    41
1040
6.000000
1002
}
  0
DIMENSION
  5
9F
100
AcDbEntity
  8
MAIN0
  6
CONTINUOUS
 62
3
100
AcDbDimension
  2
*D5
 10
290.2974068596752
 20
693.7608442466894
 30
0.0000000000000000
 11
289.7974068596752
 21
733.7608442466894
 31
0.0000000000000000
 70
32
  3
MAIN001
100
AcDbAlignedDimension
 13
330.7686607485178
 23
773.7608442466894
 33
0.0000000000000000
 14
330.7686607485179
 24
693.7608442466894
 34
0.0000000000000000
 50
90.00000000000000
100
AcDbRotatedDimension
1001
ACAD
1000
DSTYLE
1002
{
1070
   173
1070
     1
1070
     6
1000
_OPEN
1070
     7
1000
_OPEN
1070
    41
1040
6.000000
1002
}
  0
DIMENSION
  5
A8
100
AcDbEntity
  8
MAIN0
  6
CONTINUOUS
 62
3
100
AcDbDimension
  2
*D6
 10
609.5434914645387
 20
683.7608442466895
 30
0.0000000000000000
 11
609.0434914645387
 21
733.7608442466897
 31
0.0000000000000000
 70
32
  3
MAIN001
100
AcDbAlignedDimension
 13
565.7393388587132
 23
783.7608442466897
 33
0.0000000000000000
 14
565.7393388587132
 24
683.7608442466895
 34
0.0000000000000000
 50
90.00000000000000
100
AcDbRotatedDimension
1001
ACAD
1000
DSTYLE
1002
{
1070
   173
1070
     1
1070
     6
1000
_OPEN
1070
     7
1000
_OPEN
1070
    41
1040
6.000000
1002
}
  0
LEADER
  5
A9
100
AcDbEntity
  8
MAIN0
  6
CONTINUOUS
 62
3
100
AcDbLeader
  3
MAIN001
 73
     0
 75
     1
 40
9.299999713897705
 41
124.4090036621094
 76
     3
 10
337.0736293008490
 20
690.9493396289479
 30
0.0000000000000000
 10
279.6450050252842
 20
641.3768928621614
 30
0.0000000000000000
 10
273.8660051926540
 20
641.3768928621614
 30
0.0000000000000000
340
AA
213
0.0000000000000000
223
-1.500000000000000
233
0.0000000000000000
1001
ACAD
1000
DSTYLE
1002
{
1070
   147
1040
0.0
1070
    77
1070
     1
1070
   173
1070
     1
1070
     6
1000
_OPEN
1070
     7
1000
_OPEN
1002
}
  0
MTEXT
  5
AA
102
{ACAD_REACTORS
330
A9
102
}
100
AcDbEntity
  8
MAIN0
  6
CONTINUOUS
 62
3
100
AcDbMText
 10
149.4570015305446
 20
652.1768925760591
 30
0.0000000000000000
 40
9.299999713897705
 41
0.0000000000000000
 71
     1
 72
     1
  1
{\H0.93x;{2×5－M10 深さ20\P          DEPTH}}
 11
1.000000000000000
 21
0.0000000000000000
 31
0.0000000000000000
  7
KNJYOKO
  0
LINE
  5
AB
100
AcDbEntity
  8
MAIN0
  6
CONTINUOUS
 62
3
100
AcDbLine
 10
341.2082927435512
 20
770.8740929007414
 30
0.0000000000000000
 11
343.7082927435512
 21
772.3174685737155
 31
0.0000000000000000
  0
LINE
  5
AC
100
AcDbEntity
  8
MAIN0
  6
CONTINUOUS
 62
3
100
AcDbLine
 10
343.7082927435512
 20
772.3174685737155
 30
0.0000000000000000
 11
343.7082927435512
 21
775.2042199196636
 31
0.0000000000000000
  0
LINE
  5
AD
100
AcDbEntity
  8
MAIN0
  6
CONTINUOUS
 62
3
100
AcDbLine
 10
343.7082927435512
 20
775.2042199196635
 30
0.0000000000000000
 11
341.2082927435512
 21
776.6475955926376
 31
0.0000000000000000
  0
LINE
  5
AE
100
AcDbEntity
  8
MAIN0
  6
CONTINUOUS
 62
3
100
AcDbLine
 10
341.2082927435511
 20
776.6475955926377
 30
0.0000000000000000
 11
338.7082927435511
 21
775.2042199196636
 31
0.0000000000000000
  0
LINE
  5
AF
100
AcDbEntity
  8
MAIN0
  6
CONTINUOUS
 62
3
100
AcDbLine
 10
338.7082927435512
 20
772.3174685737154
 30
0.0000000000000000
 11
341.2082927435512
 21
770.8740929007413
 31
0.0000000000000000
  0
LINE
  5
B0
100
AcDbEntity
  8
MAIN0
  6
CONTINUOUS
 62
3
100
AcDbLine
 10
338.7082927435512
 20
775.2042199196636
 30
0.0000000000000000
 11
338.7082927435512
 21
772.3174685737155
 31
0.0000000000000000
  0
LINE
  5
B1
100
AcDbEntity
  8
MAIN0
  6
CONTINUOUS
 62
3
100
AcDbLine
 10
341.2082927435512
 20
690.8740929007412
 30
0.0000000000000000
 11
343.7082927435512
 21
692.3174685737153
 31
0.0000000000000000
  0
LINE
  5
B2
100
AcDbEntity
  8
MAIN0
  6
CONTINUOUS
 62
3
100
AcDbLine
 10
343.7082927435512
 20
692.3174685737153
 30
0.0000000000000000
 11
343.7082927435512
 21
695.2042199196634
 31
0.0000000000000000
  0
LINE
  5
B3
100
AcDbEntity
  8
MAIN0
  6
CONTINUOUS
 62
3
100
AcDbLine
 10
343.7082927435513
 20
695.2042199196633
 30
0.0000000000000000
 11
341.2082927435513
 21
696.6475955926373
 31
0.0000000000000000
  0
LINE
  5
B4
100
AcDbEntity
  8
MAIN0
  6
CONTINUOUS
 62
3
100
AcDbLine
 10
341.2082927435512
 20
696.6475955926375
 30
0.0000000000000000
 11
338.7082927435512
 21
695.2042199196634
 31
0.0000000000000000
  0
LINE
  5
B5
100
AcDbEntity
  8
MAIN0
  6
CONTINUOUS
 62
3
100
AcDbLine
 10
338.7082927435512
 20
692.3174685737151
 30
0.0000000000000000
 11
341.2082927435513
 21
690.8740929007411
 31
0.0000000000000000
  0
LINE
  5
B6
100
AcDbEntity
  8
MAIN0
  6
CONTINUOUS
 62
3
100
AcDbLine
 10
338.7082927435512
 20
695.2042199196634
 30
0.0000000000000000
 11
338.7082927435512
 21
692.3174685737153
 31
0.0000000000000000
  0
LINE
  5
B7
100
AcDbEntity
  8
MAIN0
  6
CONTINUOUS
 62
3
100
AcDbLine
 10
396.2082927435512
 20
690.8740929007413
 30
0.0000000000000000
 11
398.7082927435512
 21
692.3174685737154
 31
0.0000000000000000
  0
LINE
  5
B8
100
AcDbEntity
  8
MAIN0
  6
CONTINUOUS
 62
3
100
AcDbLine
 10
398.7082927435512
 20
692.3174685737154
 30
0.0000000000000000
 11
398.7082927435512
 21
695.2042199196635
 31
0.0000000000000000
  0
LINE
  5
B9
100
AcDbEntity
  8
MAIN0
  6
CONTINUOUS
 62
3
100
AcDbLine
 10
398.7082927435513
 20
695.2042199196635
 30
0.0000000000000000
 11
396.2082927435513
 21
696.6475955926376
 31
0.0000000000000000
  0
LINE
  5
BA
100
AcDbEntity
  8
MAIN0
  6
CONTINUOUS
 62
3
100
AcDbLine
 10
396.2082927435512
 20
696.6475955926376
 30
0.0000000000000000
 11
393.7082927435512
 21
695.2042199196635
 31
0.0000000000000000
  0
LINE
  5
BB
100
AcDbEntity
  8
MAIN0
  6
CONTINUOUS
 62
3
100
AcDbLine
 10
393.7082927435512
 20
692.3174685737154
 30
0.0000000000000000
 11
396.2082927435513
 21
690.8740929007413
 31
0.0000000000000000
  0
LINE
  5
BC
100
AcDbEntity
  8
MAIN0
  6
CONTINUOUS
 62
3
100
AcDbLine
 10
393.7082927435512
 20
695.2042199196635
 30
0.0000000000000000
 11
393.7082927435512
 21
692.3174685737154
 31
0.0000000000000000
  0
LINE
  5
BD
100
AcDbEntity
  8
MAIN0
  6
CONTINUOUS
 62
3
100
AcDbLine
 10
506.2082927435538
 20
780.8740929007415
 30
0.0000000000000000
 11
508.7082927435538
 21
782.3174685737156
 31
0.0000000000000000
  0
LINE
  5
BE
100
AcDbEntity
  8
MAIN0
  6
CONTINUOUS
 62
3
100
AcDbLine
 10
508.7082927435538
 20
782.3174685737156
 30
0.0000000000000000
 11
508.7082927435538
 21
785.2042199196637
 31
0.0000000000000000
  0
LINE
  5
BF
100
AcDbEntity
  8
MAIN0
  6
CONTINUOUS
 62
3
100
AcDbLine
 10
508.7082927435538
 20
785.2042199196636
 30
0.0000000000000000
 11
506.2082927435538
 21
786.6475955926377
 31
0.0000000000000000
  0
LINE
  5
C0
100
AcDbEntity
  8
MAIN0
  6
CONTINUOUS
 62
3
100
AcDbLine
 10
506.2082927435537
 20
786.6475955926378
 30
0.0000000000000000
 11
503.7082927435537
 21
785.2042199196637
 31
0.0000000000000000
  0
LINE
  5
C1
100
AcDbEntity
  8
MAIN0
  6
CONTINUOUS
 62
3
100
AcDbLine
 10
503.7082927435537
 20
782.3174685737154
 30
0.0000000000000000
 11
506.2082927435537
 21
780.8740929007413
 31
0.0000000000000000
  0
LINE
  5
C2
100
AcDbEntity
  8
MAIN0
  6
CONTINUOUS
 62
3
100
AcDbLine
 10
503.7082927435538
 20
785.2042199196637
 30
0.0000000000000000
 11
503.7082927435538
 21
782.3174685737156
 31
0.0000000000000000
  0
LINE
  5
C3
100
AcDbEntity
  8
MAIN0
  6
CONTINUOUS
 62
3
100
AcDbLine
 10
556.2082927435538
 20
780.8740929007415
 30
0.0000000000000000
 11
558.7082927435538
 21
782.3174685737156
 31
0.0000000000000000
  0
LINE
  5
C4
100
AcDbEntity
  8
MAIN0
  6
CONTINUOUS
 62
3
100
AcDbLine
 10
558.7082927435538
 20
782.3174685737156
 30
0.0000000000000000
 11
558.7082927435538
 21
785.2042199196637
 31
0.0000000000000000
  0
LINE
  5
C5
100
AcDbEntity
  8
MAIN0
  6
CONTINUOUS
 62
3
100
AcDbLine
 10
558.7082927435538
 20
785.2042199196637
 30
0.0000000000000000
 11
556.2082927435538
 21
786.6475955926378
 31
0.0000000000000000
  0
LINE
  5
C6
100
AcDbEntity
  8
MAIN0
  6
CONTINUOUS
 62
3
100
AcDbLine
 10
556.2082927435538
 20
786.6475955926378
 30
0.0000000000000000
 11
553.7082927435538
 21
785.2042199196637
 31
0.0000000000000000
  0
LINE
  5
C7
100
AcDbEntity
  8
MAIN0
  6
CONTINUOUS
 62
3
100
AcDbLine
 10
553.7082927435538
 20
782.3174685737155
 30
0.0000000000000000
 11
556.2082927435538
 21
780.8740929007413
 31
0.0000000000000000
  0
LINE
  5
C8
100
AcDbEntity
  8
MAIN0
  6
CONTINUOUS
 62
3
100
AcDbLine
 10
553.7082927435538
 20
785.2042199196637
 30
0.0000000000000000
 11
553.7082927435538
 21
782.3174685737156
 31
0.0000000000000000
  0
LINE
  5
C9
100
AcDbEntity
  8
MAIN0
  6
CONTINUOUS
 62
3
100
AcDbLine
 10
556.2082927435538
 20
680.8740929007413
 30
0.0000000000000000
 11
558.7082927435539
 21
682.3174685737154
 31
0.0000000000000000
  0
LINE
  5
CA
100
AcDbEntity
  8
MAIN0
  6
CONTINUOUS
 62
3
100
AcDbLine
 10
558.7082927435539
 20
682.3174685737155
 30
0.0000000000000000
 11
558.7082927435539
 21
685.2042199196636
 31
0.0000000000000000
  0
LINE
  5
CB
100
AcDbEntity
  8
MAIN0
  6
CONTINUOUS
 62
3
100
AcDbLine
 10
558.7082927435539
 20
685.2042199196635
 30
0.0000000000000000
 11
556.2082927435539
 21
686.6475955926377
 31
0.0000000000000000
  0
LINE
  5
CC
100
AcDbEntity
  8
MAIN0
  6
CONTINUOUS
 62
3
100
AcDbLine
 10
556.2082927435538
 20
686.6475955926378
 30
0.0000000000000000
 11
553.7082927435538
 21
685.2042199196637
 31
0.0000000000000000
  0
LINE
  5
CD
100
AcDbEntity
  8
MAIN0
  6
CONTINUOUS
 62
3
100
AcDbLine
 10
553.7082927435538
 20
682.3174685737154
 30
0.0000000000000000
 11
556.2082927435538
 21
680.8740929007413
 31
0.0000000000000000
  0
LINE
  5
CE
100
AcDbEntity
  8
MAIN0
  6
CONTINUOUS
 62
3
100
AcDbLine
 10
553.7082927435539
 20
685.2042199196636
 30
0.0000000000000000
 11
553.7082927435539
 21
682.3174685737155
 31
0.0000000000000000
  0
LINE
  5
CF
100
AcDbEntity
  8
MAIN0
  6
CONTINUOUS
 62
3
100
AcDbLine
 10
506.2082927435539
 20
680.8740929007413
 30
0.0000000000000000
 11
508.7082927435539
 21
682.3174685737154
 31
0.0000000000000000
  0
LINE
  5
D0
100
AcDbEntity
  8
MAIN0
  6
CONTINUOUS
 62
3
100
AcDbLine
 10
508.7082927435538
 20
682.3174685737155
 30
0.0000000000000000
 11
508.7082927435538
 21
685.2042199196636
 31
0.0000000000000000
  0
LINE
  5
D1
100
AcDbEntity
  8
MAIN0
  6
CONTINUOUS
 62
3
100
AcDbLine
 10
508.7082927435539
 20
685.2042199196635
 30
0.0000000000000000
 11
506.2082927435539
 21
686.6475955926376
 31
0.0000000000000000
  0
LINE
  5
D2
100
AcDbEntity
  8
MAIN0
  6
CONTINUOUS
 62
3
100
AcDbLine
 10
506.2082927435538
 20
686.6475955926377
 30
0.0000000000000000
 11
503.7082927435538
 21
685.2042199196636
 31
0.0000000000000000
  0
LINE
  5
D3
100
AcDbEntity
  8
MAIN0
  6
CONTINUOUS
 62
3
100
AcDbLine
 10
503.7082927435538
 20
682.3174685737154
 30
0.0000000000000000
 11
506.2082927435538
 21
680.8740929007413
 31
0.0000000000000000
  0
LINE
  5
D4
100
AcDbEntity
  8
MAIN0
  6
CONTINUOUS
 62
3
100
AcDbLine
 10
503.7082927435538
 20
685.2042199196636
 30
0.0000000000000000
 11
503.7082927435538
 21
682.3174685737155
 31
0.0000000000000000
  0
LINE
  5
D5
100
AcDbEntity
  8
MAIN0
  6
PHANTOM
 62
3
100
AcDbLine
 10
1054.498718284227
 20
320.1883230182925
 30
0.0000000000000000
 11
974.7532703216639
 21
320.1883230182926
 31
0.0000000000000000
  0
LEADER
  5
D6
100
AcDbEntity
  8
MAIN0
  6
CONTINUOUS
 62
3
100
AcDbLeader
  3
MAIN001
 73
     0
 74
     0
 75
     1
 40
9.299999713897705
 41
59.52100170946119
 76
     3
 10
693.0398269231791
 20
373.3407936007371
 30
0.0000000000000000
 10
725.7330779317615
 20
456.3883230182719
 30
0.0000000000000000
 10
731.5100777643917
 20
456.3883230182719
 30
0.0000000000000000
340
D7
213
0.0000000000000000
223
-1.500000000000000
233
0.0000000000000000
1001
ACAD
1000
DSTYLE
1002
{
1070
   147
1040
0.0
1070
    77
1070
     1
1070
   173
1070
     1
1070
     6
1000
_OPEN
1070
     7
1000
_OPEN
1002
}
  0
MTEXT
  5
D7
102
{ACAD_REACTORS
330
D6
102
}
100
AcDbEntity
  8
MAIN0
  6
CONTINUOUS
 62
3
100
AcDbMText
 10
731.5110777643916
 20
467.1883227321696
 30
0.0000000000000000
 40
9.299999713897705
 41
0.0000000000000000
 71
     1
 72
     1
  1
{\H0.93x;{2×2-M10}}
 11
1.000000000000000
 21
0.0000000000000000
 31
0.0000000000000000
  7
KNJYOKO
  0
LEADER
  5
D8
100
AcDbEntity
  8
MAIN0
  6
CONTINUOUS
 62
3
100
AcDbLeader
  3
MAIN001
 73
     0
 75
     1
 40
9.000000000000000
 41
78.29899792575827
 76
     3
 10
1025.844739978453
 20
362.8584523620640
 30
0.0000000000000000
 10
969.9072237150851
 20
244.1509757347895
 30
0.0000000000000000
 10
964.8662237150851
 20
244.1509757347895
 30
0.0000000000000000
340
D9
213
0.0000000000000000
223
-1.500000000000000
233
0.0000000000000000
1001
ACAD
1000
DSTYLE
1002
{
1070
   147
1040
0.0
1070
    77
1070
     1
1070
   173
1070
     1
1070
     6
1000
_DOT
1070
     7
1000
_DOT
1002
}
  0
MTEXT
  5
D9
102
{ACAD_REACTORS
330
D8
102
}
100
AcDbEntity
  8
MAIN0
  6
CONTINUOUS
 62
3
100
AcDbMText
 10
886.5672257893268
 20
254.6509757347895
 30
0.0000000000000000
 40
9.000000000000000
 41
0.0000000000000000
 71
     1
 72
     1
  1
{\H0.61x;{六角穴付ボルト\PM16×65\PHEX,SOCKET HEAD\PCAP SCREW}}
 11
1.000000000000000
 21
0.0000000000000000
 31
0.0000000000000000
  7
KNJYOKO
  0
MTEXT
  5
DA
100
AcDbEntity
  8
MAIN0
  6
CONTINUOUS
 62
3
100
AcDbMText
 10
826.5942455395416
 20
189.9694742739921
 30
0.0000000000000000
 40
9.299999713897705
 41
0.0000000000000000
 71
     1
 72
     1
  1
{\H0.94x;{(押さえ金具４セット付属)}}
 11
1.000000000000000
 21
0.0000000000000000
 31
0.0000000000000000
  7
KNJYOKO
  0
MTEXT
  5
DB
100
AcDbEntity
  8
MAIN0
  6
CONTINUOUS
 62
3
100
AcDbMText
 10
827.6941993745071
 20
173.6928106232755
 30
0.0000000000000000
 40
9.000000000000000
 41
0.0000000000000000
 71
     1
 72
     1
  1
{\H0.63x;{(CLAMPING PARTS  ACCESSARY 4 PAIR)}}
 11
1.000000000000000
 21
0.0000000000000000
 31
0.0000000000000000
  7
STANDARD
  0
LEADER
  5
DC
100
AcDbEntity
  8
MAIN0
  6
CONTINUOUS
 62
3
100
AcDbLeader
  3
MAIN001
 73
     0
 75
     1
 40
9.299999713897705
 41
65.69900004023313
 76
     3
 10
360.9314087134090
 20
737.5373546799942
 30
0.0000000000000000
 10
283.3822608811660
 20
840.1571415032084
 30
0.0000000000000000
 10
278.0232610391481
 20
840.1571415032084
 30
0.0000000000000000
340
DD
213
0.0000000000000000
223
-1.500000000000000
233
0.0000000000000000
1001
ACAD
1000
DSTYLE
1002
{
1070
   147
1040
0.0
1070
    77
1070
     1
1070
   173
1070
     1
1070
     6
1000
_OPEN
1070
     7
1000
_OPEN
1002
}
  0
MTEXT
  5
DD
102
{ACAD_REACTORS
330
DC
102
}
100
AcDbEntity
  8
MAIN0
  6
CONTINUOUS
 62
3
100
AcDbMText
 10
212.3242609989149
 20
850.9571412171061
 30
0.0000000000000000
 40
9.299999713897705
 41
0.0000000000000000
 71
     1
 72
     1
  1
{\H0.70x;{（吊りボルト用）\P（EYE BOLT）\P}
 11
1.000000000000000
 21
0.0000000000000000
 31
0.0000000000000000
  7
KNJYOKO
  0
DIMENSION
  5
E8
100
AcDbEntity
  8
MAIN0
  6
CONTINUOUS
 62
3
100
AcDbDimension
  2
*D7
 10
902.4672252361272
 20
697.6048344286792
 30
0.0000000000000000
 11
909.9672252361274
 21
698.1048344286792
 31
0.0000000000000000
 70
32
  3
MAIN001
100
AcDbAlignedDimension
 13
917.4672252361276
 23
447.6158954041836
 33
0.0000000000000000
 14
902.4672252361347
 24
438.0158954041837
 34
0.0000000000000000
100
AcDbRotatedDimension
1001
ACAD
1000
DSTYLE
1002
{
1070
   173
1070
     1
1070
     6
1000
_OPEN
1070
     7
1000
_OPEN
1070
    41
1040
6.000000
1070
   287
1070
     0
1002
}
  0
DIMENSION
  5
F1
100
AcDbEntity
  8
MAIN0
  6
CONTINUOUS
 62
3
100
AcDbDimension
  2
*D8
 10
917.4672252361351
 20
697.6048344286792
 30
0.0000000000000000
 11
935.9672252362177
 21
698.1048344286792
 31
0.0000000000000000
 70
32
  3
MAIN001
100
AcDbAlignedDimension
 13
954.4672252363002
 23
651.0158954041860
 33
0.0000000000000000
 14
917.4672252361276
 24
447.6158954041836
 34
0.0000000000000000
100
AcDbRotatedDimension
1001
ACAD
1000
DSTYLE
1002
{
1070
   173
1070
     1
1070
     6
1000
_OPEN
1070
     7
1000
_OPEN
1070
    41
1040
6.000000
1002
}
  0
DIMENSION
  5
FA
100
AcDbEntity
  8
MAIN0
  6
CONTINUOUS
 62
3
100
AcDbDimension
  2
*D9
 10
954.4672252363002
 20
697.6048344286792
 30
0.0000000000000000
 11
1001.967225236306
 21
698.1048344286792
 31
0.0000000000000000
 70
32
  3
MAIN001
100
AcDbAlignedDimension
 13
1049.467225236312
 23
663.0158954041838
 33
0.0000000000000000
 14
954.4672252363002
 24
651.0158954041860
 34
0.0000000000000000
100
AcDbRotatedDimension
1001
ACAD
1000
DSTYLE
1002
{
1070
   173
1070
     1
1070
     6
1000
_OPEN
1070
     7
1000
_OPEN
1070
    41
1040
6.000000
1002
}
  0
DIMENSION
  5
103
100
AcDbEntity
  8
MAIN0
  6
CONTINUOUS
 62
3
100
AcDbDimension
  2
*D10
 10
902.4672252361347
 20
720.0071421640072
 30
0.0000000000000000
 11
975.9672252362235
 21
720.5071421640072
 31
0.0000000000000000
 70
32
  3
MAIN001
100
AcDbAlignedDimension
 13
1049.467225236312
 23
663.0158954041838
 33
0.0000000000000000
 14
902.4672252361347
 24
438.0158954041837
 34
0.0000000000000000
100
AcDbRotatedDimension
1001
ACAD
1000
DSTYLE
1002
{
1070
   173
1070
     1
1070
     6
1000
_OPEN
1070
     7
1000
_OPEN
1070
    41
1040
6.000000
1002
}
  0
DIMENSION
  5
10C
100
AcDbEntity
  8
MAIN0
  6
CONTINUOUS
 62
3
100
AcDbDimension
  2
*D11
 10
411.2082927435548
 20
272.1883230178268
 30
0.0000000000000000
 11
436.2082927434803
 21
272.6883230178268
 31
0.0000000000000000
 70
32
  3
MAIN001
100
AcDbAlignedDimension
 13
461.2082927434059
 23
307.1883230178265
 33
0.0000000000000000
 14
411.2082927435548
 24
420.1883230178266
 34
0.0000000000000000
100
AcDbRotatedDimension
1001
ACAD
1000
DSTYLE
1002
{
1070
   173
1070
     1
1070
     6
1000
_OPEN
1070
     7
1000
_OPEN
1070
    41
1040
6.000000
1002
}
  0
DIMENSION
  5
115
100
AcDbEntity
  8
MAIN0
  6
CONTINUOUS
 62
3
100
AcDbDimension
  2
*D12
 10
461.2082927434059
 20
272.1883230178268
 30
0.0000000000000000
 11
618.7082927434806
 21
272.6883230178268
 31
0.0000000000000000
 70
32
  3
MAIN001
100
AcDbAlignedDimension
 13
776.2082927435553
 23
320.1883230178264
 33
0.0000000000000000
 14
461.2082927434059
 24
307.1883230178265
 34
0.0000000000000000
100
AcDbRotatedDimension
1001
ACAD
1000
DSTYLE
1002
{
1070
   173
1070
     1
1070
     6
1000
_OPEN
1070
     7
1000
_OPEN
1070
    41
1040
6.000000
1002
}
  0
DIMENSION
  5
11D
100
AcDbEntity
  8
MAIN0
  6
CONTINUOUS
 62
3
100
AcDbDimension
  2
*D13
 10
661.2082927435552
 20
320.1883230178268
 30
0.0000000000000000
 11
659.7082927435552
 21
337.0738680690297
 31
0.0000000000000000
 70
160
  3
MAIN001
100
AcDbAlignedDimension
 13
682.2082927435552
 23
368.6883230152453
 33
0.0000000000000000
 14
776.2082927435554
 24
320.1883230178268
 34
0.0000000000000000
 50
90.00000000000000
100
AcDbRotatedDimension
1001
ACAD
1000
DSTYLE
1002
{
1070
   173
1070
     1
1070
     6
1000
_OPEN
1070
     7
1000
_OPEN
1070
    41
1040
6.000000
1002
}
  0
DIMENSION
  5
126
100
AcDbEntity
  8
MAIN0
  6
CONTINUOUS
 62
3
100
AcDbDimension
  2
*D14
 10
661.2082927435552
 20
368.6883230152453
 30
0.0000000000000000
 11
660.7082927435552
 21
394.4383230165360
 31
0.0000000000000000
 70
32
  3
MAIN001
100
AcDbAlignedDimension
 13
577.2082927435549
 23
420.1883230178266
 33
0.0000000000000000
 14
682.2082927435552
 24
368.6883230152453
 34
0.0000000000000000
 50
90.00000000000000
100
AcDbRotatedDimension
1001
ACAD
1000
DSTYLE
1002
{
1070
   173
1070
     1
1070
     6
1000
_OPEN
1070
     7
1000
_OPEN
1070
    41
1040
6.000000
1002
}
  0
DIMENSION
  5
12F
100
AcDbEntity
  8
MAIN0
  6
CONTINUOUS
 62
3
100
AcDbDimension
  2
*D15
 10
364.2082927435478
 20
841.5737024427376
 30
0.0000000000000000
 11
387.7082927435480
 21
842.0737024427376
 31
0.0000000000000000
 70
32
  3
MAIN001
100
AcDbAlignedDimension
 13
411.2082927435483
 23
813.2608442458986
 33
0.0000000000000000
 14
364.2082927435478
 24
744.7608442466681
 34
0.0000000000000000
100
AcDbRotatedDimension
1001
ACAD
1000
DSTYLE
1002
{
1070
   173
1070
     1
1070
     6
1000
_OPEN
1070
     7
1000
_OPEN
1070
    41
1040
6.000000
1002
}
  0
DIMENSION
  5
138
100
AcDbEntity
  8
MAIN0
  6
CONTINUOUS
 62
3
100
AcDbDimension
  2
*D16
 10
985.4987182842272
 20
254.1883230178263
 30
0.0000000000000000
 11
1020.998718284227
 21
254.6883230178263
 31
0.0000000000000000
 70
32
  3
MAIN001
100
AcDbAlignedDimension
 13
1056.498718284227
 23
320.1883230182926
 33
0.0000000000000000
 14
985.4987182842272
 24
350.1883230182928
 34
0.0000000000000000
100
AcDbRotatedDimension
1001
ACAD
1000
DSTYLE
1002
{
1070
   173
1070
     1
1070
     6
1000
_OPEN
1070
     7
1000
_OPEN
1070
    41
1040
6.000000
1002
}
  0
DIMENSION
  5
141
100
AcDbEntity
  8
MAIN0
  6
CONTINUOUS
 62
3
100
AcDbDimension
  2
*D17
 10
1056.498718284227
 20
254.1883230178263
 30
0.0000000000000000
 11
1136.998718284227
 21
254.6883230178263
 31
0.0000000000000000
 70
32
  3
MAIN001
100
AcDbAlignedDimension
 13
1217.498718284227
 23
320.1883230182926
 33
0.0000000000000000
 14
1056.498718284227
 24
320.1883230182926
 34
0.0000000000000000
100
AcDbRotatedDimension
1001
ACAD
1000
DSTYLE
1002
{
1070
   173
1070
     1
1070
     6
1000
_OPEN
1070
     7
1000
_OPEN
1070
    41
1040
6.000000
1002
}
  0
INSERT
  5
149
100
AcDbEntity
  8
MAIN0
  6
CONTINUOUS
 62
3
100
AcDbBlockReference
  2
D18
 10
1136.998718284114
 20
305.2049625927213
 30
0.0000000000000000
 50
0.0000000000000000
  0
LINE
  5
14A
100
AcDbEntity
  8
MAIN0
  6
CENTER
 62
3
100
AcDbLine
 10
881.2865966435986
 20
385.1883230178757
 30
0.0000000000000000
 11
881.2865966435986
 21
438.0158954042206
 31
0.0000000000000000
  0
LINE
  5
14B
100
AcDbEntity
  8
MAIN0
  6
CENTER
 62
3
100
AcDbLine
 10
929.8111504125302
 20
376.1385845518531
 30
0.0000000000000000
 11
929.8111504125019
 21
283.1775061711726
 31
0.0000000000000000
  0
LINE
  5
14C
100
AcDbEntity
  8
MAIN0
  6
CONTINUOUS
 62
3
100
AcDbLine
 10
907.3111504125230
 20
350.1883230183293
 30
0.0000000000000000
 11
908.9832815600548
 21
320.1883230184481
 31
0.0000000000000000
  0
LINE
  5
14D
100
AcDbEntity
  8
MAIN0
  6
CONTINUOUS
 62
3
100
AcDbLine
 10
952.3111504125214
 20
350.1883230183157
 30
0.0000000000000000
 11
950.6390192649714
 21
320.1883230184354
 31
0.0000000000000000
  0
LINE
  5
14E
100
AcDbEntity
  8
MAIN0
  6
CONTINUOUS
 62
3
100
AcDbLine
 10
907.3111504125221
 20
350.1883230183295
 30
0.0000000000000000
 11
952.3111504125221
 21
350.1883230183158
 31
0.0000000000000000
  0
LINE
  5
14F
100
AcDbEntity
  8
MAIN0
  6
CONTINUOUS
 62
3
100
AcDbLine
 10
908.9832815600547
 20
320.1883230184482
 30
0.0000000000000000
 11
950.6390192649715
 21
320.1883230184354
 31
0.0000000000000000
  0
DIMENSION
  5
158
100
AcDbEntity
  8
MAIN0
  6
CONTINUOUS
 62
3
100
AcDbDimension
  2
*D19
 10
907.3111504125221
 20
383.9613173173700
 30
0.0000000000000000
 11
929.8111504125219
 21
384.4613173173700
 31
0.0000000000000000
 70
32
  3
MAIN001
100
AcDbAlignedDimension
 13
952.3111504125217
 23
350.1883230183155
 33
0.0000000000000000
 14
907.3111504125221
 24
350.1883230183294
 34
0.0000000000000000
100
AcDbRotatedDimension
1001
ACAD
1000
DSTYLE
1002
{
1070
   173
1070
     1
1070
     6
1000
_OPEN
1070
     7
1000
_OPEN
1070
    41
1040
6.000000
1002
}
  0
DIMENSION
  5
163
100
AcDbEntity
  8
MAIN0
  6
CONTINUOUS
 62
3
100
AcDbDimension
  2
*D20
 10
994.3145412276153
 20
220.3827836300997
 30
0.0000000000000000
 11
993.8145412276153
 21
206.1327836300998
 31
0.0000000000000000
 70
32
  3
MAIN001
100
AcDbAlignedDimension
 13
1018.498718284208
 23
191.8827836300999
 33
0.0000000000000000
 14
1018.498718284188
 24
220.3827836300997
 34
0.0000000000000000
 50
90.00000000000000
100
AcDbRotatedDimension
1001
ACAD
1000
DSTYLE
1002
{
1070
   173
1070
     1
1070
     6
1000
_OPEN
1070
     7
1000
_OPEN
1070
    41
1040
6.000000
1070
   287
1070
     0
1002
}
  0
DIMENSION
  5
16E
100
AcDbEntity
  8
MAIN0
  6
CONTINUOUS
 62
3
100
AcDbDimension
  2
*D21
 10
1073.317857161262
 20
214.8827836300998
 30
0.0000000000000000
 11
1071.817857161262
 21
181.6233213703218
 31
0.0000000000000000
 70
160
  3
MAIN001
100
AcDbAlignedDimension
 13
1048.498718284204
 23
197.3827836300916
 33
0.0000000000000000
 14
1048.498718284192
 24
214.8827836300915
 34
0.0000000000000000
 50
90.00000000000000
100
AcDbRotatedDimension
1001
ACAD
1000
DSTYLE
1002
{
1070
   173
1070
     1
1070
     6
1000
_OPEN
1070
     7
1000
_OPEN
1070
    41
1040
6.000000
1070
   287
1070
     0
1002
}
  0
DIMENSION
  5
177
100
AcDbEntity
  8
MAIN0
  6
CONTINUOUS
 62
3
100
AcDbDimension
  2
*D22
 10
1018.498718284208
 20
170.0607748231145
 30
0.0000000000000000
 11
1033.498718284208
 21
170.5607748231145
 31
0.0000000000000000
 70
32
  3
MAIN001
100
AcDbAlignedDimension
 13
1048.498718284207
 23
191.8827836300916
 33
0.0000000000000000
 14
1018.498718284208
 24
191.8827836300999
 34
0.0000000000000000
100
AcDbRotatedDimension
1001
ACAD
1000
DSTYLE
1002
{
1070
   173
1070
     1
1070
     6
1000
_OPEN
1070
     7
1000
_OPEN
1070
    41
1040
6.000000
1002
}
  0
DIMENSION
  5
180
100
AcDbEntity
  8
MAIN0
  6
CONTINUOUS
 62
3
100
AcDbDimension
  2
*D23
 10
316.2082927435548
 20
254.1883230178268
 30
0.0000000000000000
 11
546.2082927435550
 21
254.6883230178268
 31
0.0000000000000000
 70
32
  3
MAIN001
100
AcDbAlignedDimension
 13
776.2082927435553
 23
320.1883230178264
 33
0.0000000000000000
 14
316.2082927435550
 24
320.1883230178267
 34
0.0000000000000000
100
AcDbRotatedDimension
1001
ACAD
1000
DSTYLE
1002
{
1070
   173
1070
     1
1070
     6
1000
_OPEN
1070
     7
1000
_OPEN
1070
    41
1040
6.000000
1002
}
  0
DIMENSION
  5
189
100
AcDbEntity
  8
MAIN0
  6
CONTINUOUS
 62
3
100
AcDbDimension
  2
*D24
 10
776.2082927435553
 20
254.1883230178268
 30
0.0000000000000000
 11
823.7082927435550
 21
254.6883230178268
 31
0.0000000000000000
 70
32
  3
MAIN001
100
AcDbAlignedDimension
 13
871.2082927435548
 23
360.1883230178266
 33
0.0000000000000000
 14
776.2082927435553
 24
320.1883230178264
 34
0.0000000000000000
100
AcDbRotatedDimension
1001
ACAD
1000
DSTYLE
1002
{
1070
   173
1070
     1
1070
     6
1000
_OPEN
1070
     7
1000
_OPEN
1070
    41
1040
6.000000
1002
}
  0
DIMENSION
  5
192
100
AcDbEntity
  8
MAIN0
  6
CONTINUOUS
 62
3
100
AcDbDimension
  2
*D25
 10
316.2082927435548
 20
218.1883230178268
 30
0.0000000000000000
 11
593.7082927435548
 21
218.6883230178268
 31
0.0000000000000000
 70
32
  3
MAIN001
100
AcDbAlignedDimension
 13
871.2082927435548
 23
360.1883230178266
 33
0.0000000000000000
 14
316.2082927435550
 24
320.1883230178267
 34
0.0000000000000000
100
AcDbRotatedDimension
1001
ACAD
1000
DSTYLE
1002
{
1070
   173
1070
     1
1070
     6
1000
_OPEN
1070
     7
1000
_OPEN
1070
    41
1040
6.000000
1002
}
  0
DIMENSION
  5
19B
100
AcDbEntity
  8
MAIN0
  6
CONTINUOUS
 62
3
100
AcDbDimension
  2
*D26
 10
284.2082927435550
 20
480.1883230178266
 30
0.0000000000000000
 11
283.7082927435550
 21
400.1883230178266
 31
0.0000000000000000
 70
32
  3
MAIN001
100
AcDbAlignedDimension
 13
316.2082927435549
 23
320.1883230178266
 33
0.0000000000000000
 14
317.2082927435547
 24
480.1883230178266
 34
0.0000000000000000
 50
90.00000000000000
100
AcDbRotatedDimension
1001
ACAD
1000
DSTYLE
1002
{
1070
   173
1070
     1
1070
     6
1000
_OPEN
1070
     7
1000
_OPEN
1070
    41
1040
6.000000
1002
}
  0
DIMENSION
  5
1A4
100
AcDbEntity
  8
MAIN0
  6
CONTINUOUS
 62
3
100
AcDbDimension
  2
*D27
 10
300.2082927435550
 20
320.1883230178266
 30
0.0000000000000000
 11
299.7082927435550
 21
370.1883230178266
 31
0.0000000000000000
 70
32
  3
MAIN001
100
AcDbAlignedDimension
 13
316.2082927435547
 23
420.1883230178266
 33
0.0000000000000000
 14
316.2082927435549
 24
320.1883230178266
 34
0.0000000000000000
 50
90.00000000000000
100
AcDbRotatedDimension
1001
ACAD
1000
DSTYLE
1002
{
1070
   173
1070
     1
1070
     6
1000
_OPEN
1070
     7
1000
_OPEN
1070
    41
1040
6.000000
1002
}
  0
DIMENSION
  5
1AD
100
AcDbEntity
  8
MAIN0
  6
CONTINUOUS
 62
3
100
AcDbDimension
  2
*D28
 10
300.2082927435550
 20
420.1883230178266
 30
0.0000000000000000
 11
299.7082927435550
 21
450.1883230178266
 31
0.0000000000000000
 70
32
  3
MAIN001
100
AcDbAlignedDimension
 13
317.2082927435547
 23
480.1883230178266
 33
0.0000000000000000
 14
316.2082927435547
 24
420.1883230178266
 34
0.0000000000000000
 50
90.00000000000000
100
AcDbRotatedDimension
1001
ACAD
1000
DSTYLE
1002
{
1070
   173
1070
     1
1070
     6
1000
_OPEN
1070
     7
1000
_OPEN
1070
    41
1040
6.000000
1002
}
  0
DIMENSION
  5
1B6
100
AcDbEntity
  8
MAIN0
  6
CONTINUOUS
 62
3
100
AcDbDimension
  2
*D29
 10
890.5310630036437
 20
320.1883230178268
 30
0.0000000000000000
 11
890.0310630036437
 21
352.6883230178267
 31
0.0000000000000000
 70
32
  3
MAIN001
100
AcDbAlignedDimension
 13
881.2865966435986
 23
385.1883230178266
 33
0.0000000000000000
 14
776.2082927435554
 24
320.1883230178268
 34
0.0000000000000000
 50
90.00000000000000
100
AcDbRotatedDimension
1001
ACAD
1000
DSTYLE
1002
{
1070
   173
1070
     1
1070
     6
1000
_OPEN
1070
     7
1000
_OPEN
1070
    41
1040
6.000000
1002
}
  0
LINE
  5
1B7
100
AcDbEntity
  8
MAIN0
  6
CONTINUOUS
 62
3
100
AcDbLine
 10
1062.498718284227
 20
350.1883230182928
 30
0.0000000000000000
 11
1062.498718284227
 21
341.1883230182930
 31
0.0000000000000000
  0
LINE
  5
1B8
100
AcDbEntity
  8
MAIN0
  6
CENTER
 62
3
100
AcDbLine
 10
973.1585699930485
 20
438.0158954041837
 30
0.0000000000000000
 11
881.2865966435985
 21
438.0158954041837
 31
0.0000000000000000
  0
LINE
  5
1B9
100
AcDbEntity
  8
MAIN0
  6
CENTER
 62
3
100
AcDbLine
 10
1055.906737748529
 20
663.0158954041838
 30
0.0000000000000000
 11
939.7785557788803
 21
663.0158954041838
 31
0.0000000000000000
  0
LEADER
  5
1BA
100
AcDbEntity
  8
MAIN0
  6
CONTINUOUS
 62
3
100
AcDbLeader
  3
MAIN001
 73
     0
 75
     1
 40
9.299999713897705
 41
124.4090036621094
 76
     3
 10
361.5098500930508
 20
474.3976468664964
 30
0.0000000000000000
 10
321.5596648786827
 20
555.8467264568836
 30
0.0000000000000000
 10
315.7806650460526
 20
555.8467264568835
 30
0.0000000000000000
340
1BB
213
0.0000000000000000
223
-1.500000000000000
233
0.0000000000000000
1001
ACAD
1000
DSTYLE
1002
{
1070
   147
1040
0.0
1070
    77
1070
     1
1070
   173
1070
     1
1070
     6
1000
_OPEN
1070
     7
1000
_OPEN
1002
}
  0
MTEXT
  5
1BB
102
{ACAD_REACTORS
330
1BA
102
}
100
AcDbEntity
  8
MAIN0
  6
CONTINUOUS
 62
3
100
AcDbMText
 10
191.3716613839432
 20
566.6467261707812
 30
0.0000000000000000
 40
9.299999713897705
 41
0.0000000000000000
 71
     1
 72
     1
  1
{\H0.93x;{2×2－M10 深さ20\P          DEPTH}}
 11
1.000000000000000
 21
0.0000000000000000
 31
0.0000000000000000
  7
KNJYOKO
  0
DIMENSION
  5
1C4
100
AcDbEntity
  8
MAIN0
  6
CONTINUOUS
 62
3
100
AcDbDimension
  2
*D30
 10
873.3837783612582
 20
438.0158954041838
 30
0.0000000000000000
 11
872.8837783612582
 21
550.5158954041838
 31
0.0000000000000000
 70
32
  3
MAIN001
100
AcDbAlignedDimension
 13
939.7785557788803
 23
663.0158954041838
 33
0.0000000000000000
 14
881.2865966435992
 24
438.0158954041837
 34
0.0000000000000000
 50
90.00000000000000
100
AcDbRotatedDimension
1001
ACAD
1000
DSTYLE
1002
{
1070
   173
1070
     1
1070
     6
1000
_OPEN
1070
     7
1000
_OPEN
1070
    41
1040
6.000000
1002
}
  0
DIMENSION
  5
1CE
100
AcDbEntity
  8
MAIN0
  6
CONTINUOUS
 62
3
100
AcDbDimension
  2
*D31
 10
500.2082927435550
 20
315.1883230178266
 30
0.0000000000000000
 11
498.7082927435550
 21
302.7899061232943
 31
0.0000000000000000
 70
160
  3
MAIN001
100
AcDbAlignedDimension
 13
776.2082927435552
 23
320.1883230178267
 33
0.0000000000000000
 14
470.2082927435549
 24
315.1883230178266
 34
0.0000000000000000
 50
90.00000000000000
100
AcDbRotatedDimension
1001
ACAD
1000
DSTYLE
1002
{
1070
   173
1070
     1
1070
     6
1000
_OPEN
1070
     7
1000
_OPEN
1070
    41
1040
6.000000
1070
   287
1070
     0
1002
}
  0
DIMENSION
  5
1D6
100
AcDbEntity
  8
MAIN0
  6
CONTINUOUS
 62
3
100
AcDbDimension
  2
*D32
 10
316.2082927435549
 20
353.4465388869103
 30
0.0000000000000000
 11
358.7082927435549
 21
353.9465388869103
 31
0.0000000000000000
 70
32
  3
MAIN001
100
AcDbAlignedDimension
 13
401.2082927435550
 23
359.6883230152453
 33
0.0000000000000000
 14
316.2082927435548
 24
420.1883230178266
 34
0.0000000000000000
100
AcDbRotatedDimension
1001
ACAD
1000
DSTYLE
1002
{
1070
   173
1070
     1
1070
     6
1000
_OPEN
1070
     7
1000
_OPEN
1070
    41
1040
6.000000
1002
}
  0
DIMENSION
  5
1DF
100
AcDbEntity
  8
MAIN0
  6
CONTINUOUS
 62
3
100
AcDbDimension
  2
*D33
 10
401.2082927435550
 20
353.4465388869103
 30
0.0000000000000000
 11
546.2082927435552
 21
353.9465388869103
 31
0.0000000000000000
 70
32
  3
MAIN001
100
AcDbAlignedDimension
 13
691.2082927435552
 23
359.6883230152453
 33
0.0000000000000000
 14
401.2082927435550
 24
359.6883230152453
 34
0.0000000000000000
100
AcDbRotatedDimension
1001
ACAD
1000
DSTYLE
1002
{
1070
   173
1070
     1
1070
     6
1000
_OPEN
1070
     7
1000
_OPEN
1070
    41
1040
6.000000
1002
}
  0
DIMENSION
  5
1E7
100
AcDbEntity
  8
MAIN0
  6
CONTINUOUS
 62
3
100
AcDbDimension
  2
*D34
 10
691.2082927435553
 20
353.4465388869103
 30
0.0000000000000000
 11
733.0593175202630
 21
354.9465388869103
 31
0.0000000000000000
 70
160
  3
MAIN001
100
AcDbAlignedDimension
 13
776.2082927435553
 23
320.1883230178264
 33
0.0000000000000000
 14
691.2082927435552
 24
359.6883230152453
 34
0.0000000000000000
100
AcDbRotatedDimension
1001
ACAD
1000
DSTYLE
1002
{
1070
   173
1070
     1
1070
     6
1000
_OPEN
1070
     7
1000
_OPEN
1070
    41
1040
6.000000
1002
}
  0
DIMENSION
  5
1F1
100
AcDbEntity
  8
MAIN0
  6
CONTINUOUS
 62
3
100
AcDbDimension
  2
*D35
 10
547.2082927435547
 20
441.3883230178265
 30
0.0000000000000000
 11
546.7082927435547
 21
430.7883230178266
 31
0.0000000000000000
 70
32
  3
MAIN001
100
AcDbAlignedDimension
 13
577.2082927435549
 23
420.1883230178267
 33
0.0000000000000000
 14
578.8082927435546
 24
441.3883230178265
 34
0.0000000000000000
 50
90.00000000000000
100
AcDbRotatedDimension
1001
ACAD
1000
DSTYLE
1002
{
1070
   173
1070
     1
1070
     6
1000
_OPEN
1070
     7
1000
_OPEN
1070
    41
1040
6.000000
1070
   287
1070
     0
1002
}
  0
DIMENSION
  5
1FA
100
AcDbEntity
  8
MAIN0
  6
CONTINUOUS
 62
3
100
AcDbDimension
  2
*D36
 10
364.2082927433624
 20
507.1727913175246
 30
0.0000000000000000
 11
387.7082927434585
 21
507.6727913175246
 31
0.0000000000000000
 70
32
  3
MAIN001
100
AcDbAlignedDimension
 13
411.2082927435546
 23
480.1883230178266
 33
0.0000000000000000
 14
364.2082927433623
 24
480.1883230178267
 34
0.0000000000000000
100
AcDbRotatedDimension
1001
ACAD
1000
DSTYLE
1002
{
1070
   173
1070
     1
1070
     6
1000
_OPEN
1070
     7
1000
_OPEN
1070
    41
1040
6.000000
1002
}
  0
DIMENSION
  5
205
100
AcDbEntity
  8
MAIN0
  6
CONTINUOUS
 62
3
100
AcDbDimension
  2
*D37
 10
316.2082927435548
 20
530.1156631144606
 30
0.0000000000000000
 11
303.9209456218512
 21
531.6156631144606
 31
0.0000000000000000
 70
160
  3
MAIN001
100
AcDbAlignedDimension
 13
317.2082927435547
 23
480.1883230178265
 33
0.0000000000000000
 14
316.2082927435548
 24
420.1883230178266
 34
0.0000000000000000
100
AcDbRotatedDimension
1001
ACAD
1000
DSTYLE
1002
{
1070
   173
1070
     1
1070
     6
1000
_OPEN
1070
     7
1000
_OPEN
1070
    41
1040
6.000000
1070
   287
1070
     0
1002
}
  0
DIMENSION
  5
20E
100
AcDbEntity
  8
MAIN0
  6
CONTINUOUS
 62
3
100
AcDbDimension
  2
*D38
 10
317.2082927435546
 20
530.1156631144606
 30
0.0000000000000000
 11
364.2082927435546
 21
530.6156631144606
 31
0.0000000000000000
 70
32
  3
MAIN001
100
AcDbAlignedDimension
 13
411.2082927435546
 23
480.1883230178266
 33
0.0000000000000000
 14
317.2082927435547
 24
480.1883230178265
 34
0.0000000000000000
100
AcDbRotatedDimension
1001
ACAD
1000
DSTYLE
1002
{
1070
   173
1070
     1
1070
     6
1000
_OPEN
1070
     7
1000
_OPEN
1070
    41
1040
6.000000
1002
}
  0
DIMENSION
  5
217
100
AcDbEntity
  8
MAIN0
  6
CONTINUOUS
 62
3
100
AcDbDimension
  2
*D39
 10
411.2082927435545
 20
530.1156631144606
 30
0.0000000000000000
 11
451.2082927435545
 21
530.6156631144606
 31
0.0000000000000000
 70
32
  1
\A1;MAX 274
  3
MAIN001
100
AcDbAlignedDimension
 13
491.2082927435545
 23
480.1883230178269
 33
0.0000000000000000
 14
411.2082927435546
 24
480.1883230178266
 34
0.0000000000000000
100
AcDbRotatedDimension
1001
ACAD
1000
DSTYLE
1002
{
1070
   173
1070
     1
1070
     6
1000
_OPEN
1070
     7
1000
_OPEN
1070
    41
1040
6.000000
1002
}
  0
DIMENSION
  5
220
100
AcDbEntity
  8
MAIN0
  6
CONTINUOUS
 62
1
100
AcDbDimension
  2
*D40
 10
491.2082927435545
 20
530.1156631144606
 30
0.0000000000000000
 11
534.2082927435547
 21
530.6156631144606
 31
0.0000000000000000
 70
32
  3
MAIN001
100
AcDbAlignedDimension
 13
577.2082927435547
 23
480.1883230178268
 33
0.0000000000000000
 14
491.2082927435545
 24
480.1883230178269
 34
0.0000000000000000
100
AcDbRotatedDimension
1001
ACAD
1000
DSTYLE
1002
{
1070
   173
1070
     1
1070
     6
1000
_OPEN
1070
     7
1000
_OPEN
1070
    41
1040
6.000000
1002
}
  0
DIMENSION
  5
229
100
AcDbEntity
  8
MAIN0
  6
CONTINUOUS
 62
3
100
AcDbDimension
  2
*D41
 10
394.2082927433623
 20
480.1883230178266
 30
0.0000000000000000
 11
392.7082927433623
 21
491.1403460121367
 31
0.0000000000000000
 70
160
  3
MAIN001
100
AcDbAlignedDimension
 13
374.2082927433623
 23
470.1883230178267
 33
0.0000000000000000
 14
411.2082927435545
 24
480.1883230178266
 34
0.0000000000000000
 50
90.00000000000000
100
AcDbRotatedDimension
1001
ACAD
1000
DSTYLE
1002
{
1070
   173
1070
     1
1070
     6
1000
_DOT
1070
     7
1000
_OPEN
1070
    41
1040
6.000000
1070
   287
1070
     0
1002
}
  0
DIMENSION
  5
233
100
AcDbEntity
  8
MAIN0
  6
CONTINUOUS
 62
3
100
AcDbDimension
  2
*D42
 10
394.2082927433623
 20
470.1883230178267
 30
0.0000000000000000
 11
393.7082927433623
 21
460.1883230178267
 31
0.0000000000000000
 70
32
  3
MAIN001
100
AcDbAlignedDimension
 13
374.2082927433623
 23
450.1883230178267
 33
0.0000000000000000
 14
374.2082927433623
 24
470.1883230178267
 34
0.0000000000000000
 50
90.00000000000000
100
AcDbRotatedDimension
1001
ACAD
1000
DSTYLE
1002
{
1070
   173
1070
     1
1070
     6
1000
_OPEN
1070
     7
1000
_DOT
1070
    41
1040
6.000000
1070
   287
1070
     0
1002
}
  0
DIMENSION
  5
23C
100
AcDbEntity
  8
MAIN0
  6
CONTINUOUS
 62
3
100
AcDbDimension
  2
*D43
 10
316.2082927435550
 20
236.1883230178268
 30
0.0000000000000000
 11
388.7082927434805
 21
236.6883230178268
 31
0.0000000000000000
 70
32
  3
MAIN001
100
AcDbAlignedDimension
 13
461.2082927434059
 23
307.1883230178265
 33
0.0000000000000000
 14
316.2082927435550
 24
320.1883230178267
 34
0.0000000000000000
100
AcDbRotatedDimension
1001
ACAD
1000
DSTYLE
1002
{
1070
   173
1070
     1
1070
     6
1000
_OPEN
1070
     7
1000
_OPEN
1070
    41
1040
6.000000
1002
}
  0
DIMENSION
  5
245
100
AcDbEntity
  8
MAIN0
  6
CONTINUOUS
 62
3
100
AcDbDimension
  2
*D44
 10
461.2082927434059
 20
236.1883230178268
 30
0.0000000000000000
 11
666.2082927434803
 21
236.6883230178268
 31
0.0000000000000000
 70
32
  3
MAIN001
100
AcDbAlignedDimension
 13
871.2082927435549
 23
360.1883230178266
 33
0.0000000000000000
 14
461.2082927434059
 24
307.1883230178265
 34
0.0000000000000000
100
AcDbRotatedDimension
1001
ACAD
1000
DSTYLE
1002
{
1070
   173
1070
     1
1070
     6
1000
_OPEN
1070
     7
1000
_OPEN
1070
    41
1040
6.000000
1002
}
  0
DIMENSION
  5
250
100
AcDbEntity
  8
MAIN0
  6
CONTINUOUS
 62
3
100
AcDbDimension
  2
*D45
 10
452.2082927435549
 20
290.1883230178268
 30
0.0000000000000000
 11
437.7958623370191
 21
291.6883230178268
 31
0.0000000000000000
 70
160
  3
MAIN001
100
AcDbAlignedDimension
 13
470.2082927435549
 23
315.1883230178266
 33
0.0000000000000000
 14
452.2082927435549
 24
315.1883230178266
 34
0.0000000000000000
100
AcDbRotatedDimension
1001
ACAD
1000
DSTYLE
1002
{
1070
   173
1070
     1
1070
     6
1000
_OPEN
1070
     7
1000
_OPEN
1070
    41
1040
6.000000
1070
   287
1070
     0
1002
}
  0
LINE
  5
251
100
AcDbEntity
  8
MAIN0
  6
CONTINUOUS
 62
3
100
AcDbLine
 10
1056.498718284227
 20
341.1883230182926
 30
0.0000000000000000
 11
1062.498718284226
 21
341.1883230182926
 31
0.0000000000000000
  0
LINE
  5
252
100
AcDbEntity
  8
MAIN0
  6
CONTINUOUS
 62
3
100
AcDbLine
 10
1045.498718284227
 20
355.1883230182928
 30
0.0000000000000000
 11
1045.498718284227
 21
369.5883230182928
 31
0.0000000000000000
  0
LINE
  5
253
100
AcDbEntity
  8
MAIN0
  6
CONTINUOUS
 62
3
100
AcDbLine
 10
1045.498718284227
 20
369.5883230182929
 30
0.0000000000000000
 11
1042.727436992117
 21
371.1883230182929
 31
0.0000000000000000
  0
LINE
  5
254
100
AcDbEntity
  8
MAIN0
  6
CONTINUOUS
 62
3
100
AcDbLine
 10
1042.727436992117
 20
371.1883230182928
 30
0.0000000000000000
 11
1024.269999576337
 21
371.1883230182928
 31
0.0000000000000000
  0
LINE
  5
255
100
AcDbEntity
  8
MAIN0
  6
CONTINUOUS
 62
3
100
AcDbLine
 10
1024.269999576337
 20
371.1883230182930
 30
0.0000000000000000
 11
1021.498718284227
 21
369.5883230182928
 31
0.0000000000000000
  0
LINE
  5
256
100
AcDbEntity
  8
MAIN0
  6
CONTINUOUS
 62
3
100
AcDbLine
 10
1021.498718284227
 20
369.5883230182928
 30
0.0000000000000000
 11
1021.498718284227
 21
355.1883230182928
 31
0.0000000000000000
  0
LINE
  5
257
100
AcDbEntity
  8
MAIN0
  6
CONTINUOUS
 62
3
100
AcDbLine
 10
1045.498718284227
 20
369.5883230182928
 30
0.0000000000000000
 11
1021.498718284227
 21
369.5883230182928
 31
0.0000000000000000
  0
LINE
  5
258
100
AcDbEntity
  8
MAIN0
  6
CONTINUOUS
 62
3
100
AcDbLine
 10
1041.498718284227
 20
330.1883230182928
 30
0.0000000000000000
 11
1041.498718284227
 21
309.1883230182928
 31
0.0000000000000000
  0
LINE
  5
259
100
AcDbEntity
  8
MAIN0
  6
CONTINUOUS
 62
3
100
AcDbLine
 10
1025.498718284227
 20
309.1883230182928
 30
0.0000000000000000
 11
1025.498718284227
 21
330.1883230182928
 31
0.0000000000000000
  0
LINE
  5
25A
100
AcDbEntity
  8
MAIN0
  6
CONTINUOUS
 62
3
100
AcDbLine
 10
1040.416186284227
 20
330.1883230182928
 30
0.0000000000000000
 11
1040.416186284227
 21
309.1883230182928
 31
0.0000000000000000
  0
LINE
  5
25B
100
AcDbEntity
  8
MAIN0
  6
CONTINUOUS
 62
3
100
AcDbLine
 10
1026.581250284226
 20
330.1883230182928
 30
0.0000000000000000
 11
1026.581250284226
 21
309.1883230182928
 31
0.0000000000000000
  0
LINE
  5
25C
100
AcDbEntity
  8
MAIN0
  6
CONTINUOUS
 62
3
100
AcDbLine
 10
1062.498718284227
 20
350.1883230182928
 30
0.0000000000000000
 11
985.4987182842265
 21
350.1883230182928
 31
0.0000000000000000
  0
LINE
  5
25D
100
AcDbEntity
  8
MAIN0
  6
CONTINUOUS
 62
3
100
AcDbLine
 10
1056.498718284227
 20
330.1883230182928
 30
0.0000000000000000
 11
1008.996585868756
 21
330.1883230182928
 31
0.0000000000000000
  0
LINE
  5
25E
100
AcDbEntity
  8
MAIN0
  6
CONTINUOUS
 62
3
100
AcDbLine
 10
985.4987182842269
 20
350.1883230182929
 30
0.0000000000000000
 11
987.1987182842270
 21
320.1883230182929
 31
0.0000000000000000
  0
LINE
  5
25F
100
AcDbEntity
  8
MAIN0
  6
CONTINUOUS
 62
3
100
AcDbLine
 10
1002.198718274589
 20
320.1883230182930
 30
0.0000000000000000
 11
1003.087739350686
 21
325.2302120843158
 31
0.0000000000000000
  0
ARC
  5
260
100
AcDbEntity
  8
MAIN0
  6
CONTINUOUS
 62
3
100
AcDbCircle
 10
1008.996585868756
 20
324.1883230182930
 30
0.0000000000000000
 40
6.000000000000000
100
AcDbArc
 50
90.00000000000000
 51
169.9999999997949
  0
LINE
  5
261
100
AcDbEntity
  8
MAIN0
  6
CONTINUOUS
 62
3
100
AcDbLine
 10
1002.198718274589
 20
320.1883230182928
 30
0.0000000000000000
 11
987.1987182842267
 21
320.1883230182928
 31
0.0000000000000000
  0
LINE
  5
262
100
AcDbEntity
  8
MAIN0
  6
CENTER
 62
3
100
AcDbLine
 10
1033.498718284226
 20
186.2705708347363
 30
0.0000000000000000
 11
1033.498718284227
 21
377.8615543605596
 31
0.0000000000000000
  0
LINE
  5
263
100
AcDbEntity
  8
MAIN0
  6
CONTINUOUS
 62
3
100
AcDbLine
 10
1050.998718284227
 20
355.1883230182928
 30
0.0000000000000000
 11
1015.998718284227
 21
355.1883230182928
 31
0.0000000000000000
  0
LINE
  5
264
100
AcDbEntity
  8
MAIN0
  6
CONTINUOUS
 62
3
100
AcDbLine
 10
1050.998718284227
 20
350.1883230182928
 30
0.0000000000000000
 11
1050.998718284227
 21
355.1883230182928
 31
0.0000000000000000
  0
LINE
  5
265
100
AcDbEntity
  8
MAIN0
  6
CONTINUOUS
 62
3
100
AcDbLine
 10
1015.998718284227
 20
350.1883230182928
 30
0.0000000000000000
 11
1015.998718284227
 21
355.1883230182928
 31
0.0000000000000000
  0
MTEXT
  5
266
100
AcDbEntity
  8
MAIN0
  6
CONTINUOUS
 62
3
100
AcDbMText
 10
1123.931752367670
 20
403.3468125279337
 30
0.0000000000000000
 40
6.000000000000000
 41
0.0000000000000000
 71
     1
 72
     1
  1
{\H0.63x;{0}}
 11
0.8660254037844389
 21
0.4999999999999996
 31
0.0000000000000000
  7
STANDARD
  0
MTEXT
  5
267
100
AcDbEntity
  8
MAIN0
  6
CONTINUOUS
 62
3
100
AcDbMText
 10
1134.761638605141
 20
407.4475191861546
 30
0.0000000000000000
 40
6.000000000000000
 41
0.0000000000000000
 71
     1
 72
     1
  1
{\H0.63x;{1}}
 11
1.000000000000000
 21
0.0000000000000000
 31
0.0000000000000000
  7
STANDARD
  0
MTEXT
  5
268
100
AcDbEntity
  8
MAIN0
  6
CONTINUOUS
 62
3
100
AcDbMText
 10
1146.190948535997
 20
405.5838922069060
 30
0.0000000000000000
 40
6.000000000000000
 41
0.0000000000000000
 71
     1
 72
     1
  1
{\H0.63x;{2}}
 11
0.8660254037844388
 21
-0.4999999999999997
 31
0.0000000000000000
  7
STANDARD
  0
MTEXT
  5
269
100
AcDbEntity
  8
MAIN0
  6
CONTINUOUS
 62
3
100
AcDbMText
 10
1155.157207794221
 20
398.2552889342706
 30
0.0000000000000000
 40
6.000000000000000
 41
0.0000000000000000
 71
     1
 72
     1
  1
{\H0.63x;{3}}
 11
0.5000000000000009
 21
-0.8660254037844382
 31
0.0000000000000000
  7
STANDARD
  0
LINE
  5
26A
100
AcDbEntity
  8
MAIN0
  6
CONTINUOUS
 62
3
100
AcDbLine
 10
1056.498718284227
 20
330.1883230182928
 30
0.0000000000000000
 11
1056.498718284227
 21
341.1883230182930
 31
0.0000000000000000
  0
DIMENSION
  5
273
100
AcDbEntity
  8
MAIN0
  6
CONTINUOUS
 62
3
100
AcDbDimension
  2
*D46
 10
1051.998718284114
 20
530.1156631144606
 30
0.0000000000000000
 11
1136.998718284114
 21
530.6156631144606
 31
0.0000000000000000
 70
32
  3
MAIN001
100
AcDbAlignedDimension
 13
1221.998718284114
 23
440.3883228348805
 33
0.0000000000000000
 14
1051.998718284114
 24
440.3883230178267
 34
0.0000000000000000
100
AcDbRotatedDimension
1001
ACAD
1000
DSTYLE
1002
{
1070
   173
1070
     1
1070
     6
1000
_OPEN
1070
     7
1000
_OPEN
1070
    41
1040
6.000000
1002
}
  0
DIMENSION
  5
27E
100
AcDbEntity
  8
MAIN0
  6
CONTINUOUS
 62
3
100
AcDbDimension
  2
*D47
 10
1129.998718284114
 20
507.1727913175246
 30
0.0000000000000000
 11
1136.998718284114
 21
507.6727913175246
 31
0.0000000000000000
 70
32
  3
MAIN001
100
AcDbAlignedDimension
 13
1143.998718284114
 23
389.2297749021470
 33
0.0000000000000000
 14
1129.998718284114
 24
389.2297749021470
 34
0.0000000000000000
100
AcDbRotatedDimension
1001
ACAD
1000
DSTYLE
1002
{
1070
   173
1070
     1
1070
     6
1000
_OPEN
1070
     7
1000
_OPEN
1070
    41
1040
6.000000
1070
   287
1070
     0
1002
}
  0
DIMENSION
  5
288
100
AcDbEntity
  8
MAIN0
  6
CONTINUOUS
 62
1
100
AcDbDimension
  2
*D48
 10
1033.498718284226
 20
272.1883230178263
 30
0.0000000000000000
 11
1083.321258004302
 21
273.6883230178263
 31
0.0000000000000000
 70
160
  1
\A1;15～31
  3
MAIN001
100
AcDbAlignedDimension
 13
1056.498718284227
 23
320.1883230182926
 33
0.0000000000000000
 14
1033.498718284226
 24
186.2705708347363
 34
0.0000000000000000
100
AcDbRotatedDimension
1001
ACAD
1000
DSTYLE
1002
{
1070
   173
1070
     1
1070
     6
1000
_OPEN
1070
     7
1000
_OPEN
1070
    41
1040
6.000000
1070
   287
1070
     0
1070
   340
1005
289
1002
}
  0
DIMENSION
  5
294
100
AcDbEntity
  8
MAIN0
  6
CONTINUOUS
 62
3
100
AcDbDimension
  2
*D49
 10
972.0447874709695
 20
355.1883230182928
 30
0.0000000000000000
 11
970.5447874709695
 21
365.4556115772754
 31
0.0000000000000000
 70
160
  3
MAIN001
100
AcDbAlignedDimension
 13
985.4987182842265
 23
350.1883230182928
 33
0.0000000000000000
 14
1015.998718284227
 24
355.1883230182928
 34
0.0000000000000000
 50
90.00000000000000
100
AcDbRotatedDimension
1001
ACAD
1000
DSTYLE
1002
{
1070
   173
1070
     1
1070
     6
1000
_OPEN
1070
     7
1000
_OPEN
1070
    41
1040
6.000000
1070
   287
1070
     0
1002
}
  0
DIMENSION
  5
29D
100
AcDbEntity
  8
MAIN0
  6
CONTINUOUS
 62
3
100
AcDbDimension
  2
*D50
 10
972.0447874709695
 20
350.1883230182928
 30
0.0000000000000000
 11
971.5447874709695
 21
335.1883230182928
 31
0.0000000000000000
 70
32
  3
MAIN001
100
AcDbAlignedDimension
 13
987.1987182842267
 23
320.1883230182928
 33
0.0000000000000000
 14
985.4987182842265
 24
350.1883230182928
 34
0.0000000000000000
 50
90.00000000000000
100
AcDbRotatedDimension
1001
ACAD
1000
DSTYLE
1002
{
1070
   173
1070
     1
1070
     6
1000
_OPEN
1070
     7
1000
_OPEN
1070
    41
1040
6.000000
1002
}
  0
LINE
  5
29E
100
AcDbEntity
  8
MAIN0
  6
CONTINUOUS
 62
3
100
AcDbLine
 10
70.08469744535165
 20
480.1883230178262
 30
0.0000000000000000
 11
230.0846974453515
 21
480.1883230178263
 31
0.0000000000000000
  0
LINE
  5
29F
100
AcDbEntity
  8
MAIN0
  6
CONTINUOUS
 62
3
100
AcDbLine
 10
70.08469744535182
 20
480.1883230178265
 30
0.0000000000000000
 11
70.08469744535182
 21
420.1883230173604
 31
0.0000000000000000
  0
LINE
  5
2A0
100
AcDbEntity
  8
MAIN0
  6
CONTINUOUS
 62
3
100
AcDbLine
 10
230.0846974453518
 20
480.1883230178265
 30
0.0000000000000000
 11
230.0846974453518
 21
420.1883230173604
 31
0.0000000000000000
  0
LINE
  5
2A1
100
AcDbEntity
  8
MAIN0
  6
CONTINUOUS
 62
3
100
AcDbLine
 10
95.08469744535174
 20
315.1883230178266
 30
0.0000000000000000
 11
70.08469744535177
 21
315.1883230178266
 31
0.0000000000000000
  0
LINE
  5
2A2
100
AcDbEntity
  8
MAIN0
  6
CONTINUOUS
 62
3
100
AcDbLine
 10
230.0846974453516
 20
315.1883230178268
 30
0.0000000000000000
 11
205.0846974453516
 21
315.1883230178268
 31
0.0000000000000000
  0
LINE
  5
2A3
100
AcDbEntity
  8
MAIN0
  6
CONTINUOUS
 62
3
100
AcDbLine
 10
230.0846974453518
 20
315.1883230178265
 30
0.0000000000000000
 11
230.0846974453518
 21
320.1883230178265
 31
0.0000000000000000
  0
LINE
  5
2A4
100
AcDbEntity
  8
MAIN0
  6
CONTINUOUS
 62
3
100
AcDbLine
 10
205.0846974453518
 20
315.1883230178265
 30
0.0000000000000000
 11
205.0846974453518
 21
320.1883230178265
 31
0.0000000000000000
  0
LINE
  5
2A5
100
AcDbEntity
  8
MAIN0
  6
CONTINUOUS
 62
3
100
AcDbLine
 10
95.08469744535182
 20
315.1883230178265
 30
0.0000000000000000
 11
95.08469744535182
 21
320.1883230178263
 31
0.0000000000000000
  0
LINE
  5
2A6
100
AcDbEntity
  8
MAIN0
  6
CONTINUOUS
 62
3
100
AcDbLine
 10
70.08469744535228
 20
315.1883230178264
 30
0.0000000000000000
 11
70.08469744535228
 21
320.1883230178264
 31
0.0000000000000000
  0
LINE
  5
2A7
100
AcDbEntity
  8
MAIN0
  6
CONTINUOUS
 62
3
100
AcDbLine
 10
159.0846974453517
 20
325.1883230178266
 30
0.0000000000000000
 11
141.0846974453517
 21
325.1883230178265
 31
0.0000000000000000
  0
LINE
  5
2A8
100
AcDbEntity
  8
MAIN0
  6
CONTINUOUS
 62
3
100
AcDbLine
 10
159.0846974453518
 20
320.1883230178265
 30
0.0000000000000000
 11
159.0846974453518
 21
325.1883230178265
 31
0.0000000000000000
  0
LINE
  5
2A9
100
AcDbEntity
  8
MAIN0
  6
CONTINUOUS
 62
3
100
AcDbLine
 10
141.0846974453518
 20
320.1883230178265
 30
0.0000000000000000
 11
141.0846974453518
 21
325.1883230178265
 31
0.0000000000000000
  0
LINE
  5
2AA
100
AcDbEntity
  8
MAIN0
  6
CONTINUOUS
 62
3
100
AcDbLine
 10
224.5846974453518
 20
396.1883230178265
 30
0.0000000000000000
 11
224.5846974453518
 21
341.1883230178265
 31
0.0000000000000000
  0
LINE
  5
2AB
100
AcDbEntity
  8
MAIN0
  6
CONTINUOUS
 62
3
100
AcDbLine
 10
75.58469744535182
 20
396.1883230178265
 30
0.0000000000000000
 11
75.58469744535182
 21
341.1883230178265
 31
0.0000000000000000
  0
LINE
  5
2AC
100
AcDbEntity
  8
MAIN0
  6
CONTINUOUS
 62
3
100
AcDbLine
 10
69.58469744535233
 20
396.1883230178263
 30
0.0000000000000000
 11
75.58469744535142
 21
396.1883230178263
 31
0.0000000000000000
  0
LINE
  5
2AD
100
AcDbEntity
  8
MAIN0
  6
CONTINUOUS
 62
3
100
AcDbLine
 10
224.5846974453518
 20
396.1883230178265
 30
0.0000000000000000
 11
230.5846974453518
 21
396.1883230178265
 31
0.0000000000000000
  0
LINE
  5
2AE
100
AcDbEntity
  8
MAIN0
  6
CONTINUOUS
 62
3
100
AcDbLine
 10
69.58469744535182
 20
341.1883230178267
 30
0.0000000000000000
 11
75.58469744535159
 21
341.1883230178267
 31
0.0000000000000000
  0
LINE
  5
2AF
100
AcDbEntity
  8
MAIN0
  6
CONTINUOUS
 62
3
100
AcDbLine
 10
224.5846974453516
 20
341.1883230178268
 30
0.0000000000000000
 11
230.5846974453516
 21
341.1883230178268
 31
0.0000000000000000
  0
LINE
  5
2B0
100
AcDbEntity
  8
MAIN0
  6
CONTINUOUS
 62
3
100
AcDbLine
 10
230.5846974453518
 20
320.1883230178265
 30
0.0000000000000000
 11
230.5846974453518
 21
341.1883230178265
 31
0.0000000000000000
  0
LINE
  5
2B1
100
AcDbEntity
  8
MAIN0
  6
CONTINUOUS
 62
3
100
AcDbLine
 10
69.58469744535182
 20
320.1883230178265
 30
0.0000000000000000
 11
69.58469744535182
 21
341.1883230178265
 31
0.0000000000000000
  0
LINE
  5
2B2
100
AcDbEntity
  8
MAIN0
  6
CONTINUOUS
 62
3
100
AcDbLine
 10
75.35341310938725
 20
420.1883230178263
 30
0.0000000000000000
 11
76.58469744535182
 21
420.1883230178263
 31
0.0000000000000000
  0
LINE
  5
2B3
100
AcDbEntity
  8
MAIN0
  6
CONTINUOUS
 62
3
100
AcDbLine
 10
224.8159817810908
 20
420.1883230178265
 30
0.0000000000000000
 11
223.5846974451258
 21
420.1883230178265
 31
0.0000000000000000
  0
LINE
  5
2B4
100
AcDbEntity
  8
MAIN0
  6
CONTINUOUS
 62
3
100
AcDbLine
 10
226.5846974452390
 20
395.0883230173605
 30
0.0000000000000000
 11
226.5846974452390
 21
393.8883230173605
 31
0.0000000000000000
  0
LINE
  5
2B5
100
AcDbEntity
  8
MAIN0
  6
CONTINUOUS
 62
3
100
AcDbLine
 10
73.58469744523859
 20
395.0883230173605
 30
0.0000000000000000
 11
73.58469744523859
 21
393.8883230173607
 31
0.0000000000000000
  0
LINE
  5
2B6
100
AcDbEntity
  8
MAIN0
  6
CONTINUOUS
 62
3
100
AcDbLine
 10
69.28469744523886
 20
420.1883230173604
 30
0.0000000000000000
 11
69.28469744523886
 21
395.4883230173606
 31
0.0000000000000000
  0
LINE
  5
2B7
100
AcDbEntity
  8
MAIN0
  6
CONTINUOUS
 62
3
100
AcDbLine
 10
230.8846974452388
 20
420.1883230173606
 30
0.0000000000000000
 11
230.8846974452388
 21
395.4883230173606
 31
0.0000000000000000
  0
LINE
  5
2B8
100
AcDbEntity
  8
MAIN0
  6
CONTINUOUS
 62
3
100
AcDbLine
 10
69.68469737811734
 20
395.0883230173605
 30
0.0000000000000000
 11
73.58469744523904
 21
395.0883230173605
 31
0.0000000000000000
  0
LINE
  5
2B9
100
AcDbEntity
  8
MAIN0
  6
CONTINUOUS
 62
3
100
AcDbLine
 10
226.5846974452390
 20
395.0883230173605
 30
0.0000000000000000
 11
230.4846972804737
 21
395.0883230173605
 31
0.0000000000000000
  0
LINE
  5
2BA
100
AcDbEntity
  8
MAIN0
  6
CONTINUOUS
 62
3
100
AcDbLine
 10
226.5846974452390
 20
393.8883230173605
 30
0.0000000000000000
 11
230.6846971269999
 21
393.8883230173605
 31
0.0000000000000000
  0
LINE
  5
2BB
100
AcDbEntity
  8
MAIN0
  6
CONTINUOUS
 62
3
100
AcDbLine
 10
75.35341310891522
 20
420.1883230173604
 30
0.0000000000000000
 11
224.8159817815633
 21
420.1883230173604
 31
0.0000000000000000
  0
ARC
  5
2BC
100
AcDbEntity
  8
MAIN0
  6
CONTINUOUS
 62
3
100
AcDbCircle
 10
230.4846974452391
 20
395.4883230173606
 30
0.0000000000000000
 40
0.4000000000000000
100
AcDbArc
 50
270.0000000005678
 51
359.9999999999934
  0
ARC
  5
2BD
100
AcDbEntity
  8
MAIN0
  6
CONTINUOUS
 62
3
100
AcDbCircle
 10
230.6846974452390
 20
395.2883230173605
 30
0.0000000000000000
 40
1.400000000000000
100
AcDbArc
 50
270.0000000005678
 51
359.9999999999934
  0
ARC
  5
2BE
100
AcDbEntity
  8
MAIN0
  6
CONTINUOUS
 62
3
100
AcDbCircle
 10
230.6846974452390
 20
419.9883230173606
 30
0.0000000000000000
 40
1.400000000000000
100
AcDbArc
 50
0.0000000000000000
 51
89.99999999999885
  0
ARC
  5
2BF
100
AcDbEntity
  8
MAIN0
  6
CONTINUOUS
 62
3
100
AcDbCircle
 10
69.48469744523914
 20
419.9883230173606
 30
0.0000000000000000
 40
1.400000000000000
100
AcDbArc
 50
89.99999999999696
 51
179.9999999999964
  0
ARC
  5
2C0
100
AcDbEntity
  8
MAIN0
  6
CONTINUOUS
 62
3
100
AcDbCircle
 10
69.48469744523914
 20
395.2883230173605
 30
0.0000000000000000
 40
1.400000000000000
100
AcDbArc
 50
179.9999999999964
 51
269.9999999999963
  0
ARC
  5
2C1
100
AcDbEntity
  8
MAIN0
  6
CONTINUOUS
 62
3
100
AcDbCircle
 10
69.68469744523895
 20
395.4883230173606
 30
0.0000000000000000
 40
0.4000000000000000
100
AcDbArc
 50
179.9999999999964
 51
270.0000000005678
  0
LINE
  5
2C2
100
AcDbEntity
  8
MAIN0
  6
CONTINUOUS
 62
3
100
AcDbLine
 10
232.0846974452390
 20
419.9883230173606
 30
0.0000000000000000
 11
232.0846974452390
 21
395.2883230173605
 31
0.0000000000000000
  0
LINE
  5
2C3
100
AcDbEntity
  8
MAIN0
  6
CONTINUOUS
 62
3
100
AcDbLine
 10
68.08469744523859
 20
419.9883230173606
 30
0.0000000000000000
 11
68.08469744523859
 21
395.2883230173605
 31
0.0000000000000000
  0
LINE
  5
2C4
100
AcDbEntity
  8
MAIN0
  6
CONTINUOUS
 62
3
100
AcDbLine
 10
69.48469744523914
 20
393.8883230173605
 30
0.0000000000000000
 11
73.58469744523904
 21
393.8883230173605
 31
0.0000000000000000
  0
LINE
  5
2C5
100
AcDbEntity
  8
MAIN0
  6
CONTINUOUS
 62
3
100
AcDbLine
 10
230.8846974452395
 20
420.1883230173606
 30
0.0000000000000000
 11
150.0846974452392
 21
420.1883230173606
 31
0.0000000000000000
  0
LINE
  5
2C6
100
AcDbEntity
  8
MAIN0
  6
CENTER
 62
3
100
AcDbLine
 10
150.0846974452388
 20
487.8366619398275
 30
0.0000000000000000
 11
150.0846974452390
 21
305.2049625922552
 31
0.0000000000000000
  0
LINE
  5
2C7
100
AcDbEntity
  8
MAIN0
  6
CONTINUOUS
 62
3
100
AcDbLine
 10
69.26119152373633
 20
420.1883230173606
 30
0.0000000000000000
 11
150.0846974452389
 21
420.1883230173606
 31
0.0000000000000000
  0
LINE
  5
2C8
100
AcDbEntity
  8
MAIN0
  6
CONTINUOUS
 62
3
100
AcDbLine
 10
226.5846974452390
 20
393.0883230173605
 30
0.0000000000000000
 11
226.5846974452390
 21
391.8883230173605
 31
0.0000000000000000
  0
LINE
  5
2C9
100
AcDbEntity
  8
MAIN0
  6
CONTINUOUS
 62
3
100
AcDbLine
 10
73.58469744523904
 20
393.0883230173605
 30
0.0000000000000000
 11
73.58469744523904
 21
391.8883230173605
 31
0.0000000000000000
  0
LINE
  5
2CA
100
AcDbEntity
  8
MAIN0
  6
CONTINUOUS
 62
3
100
AcDbLine
 10
233.5846974452390
 20
429.9883230173606
 30
0.0000000000000000
 11
233.5846974452390
 21
393.8883230173605
 31
0.0000000000000000
  0
LINE
  5
2CB
100
AcDbEntity
  8
MAIN0
  6
CONTINUOUS
 62
3
100
AcDbLine
 10
232.3846974452388
 20
421.3883230173607
 30
0.0000000000000000
 11
232.3846974452388
 21
394.0883230173605
 31
0.0000000000000000
  0
LINE
  5
2CC
100
AcDbEntity
  8
MAIN0
  6
CONTINUOUS
 62
3
100
AcDbLine
 10
66.58469744523904
 20
429.9883230173606
 30
0.0000000000000000
 11
66.58469744523904
 21
393.8883230173605
 31
0.0000000000000000
  0
LINE
  5
2CD
100
AcDbEntity
  8
MAIN0
  6
CONTINUOUS
 62
3
100
AcDbLine
 10
67.78469744523886
 20
421.3883230173607
 30
0.0000000000000000
 11
67.78469744523886
 21
394.0883230173605
 31
0.0000000000000000
  0
LINE
  5
2CE
100
AcDbEntity
  8
MAIN0
  6
CONTINUOUS
 62
3
100
AcDbLine
 10
68.78469744365088
 20
393.0883230173605
 30
0.0000000000000000
 11
73.58469744523904
 21
393.0883230173605
 31
0.0000000000000000
  0
LINE
  5
2CF
100
AcDbEntity
  8
MAIN0
  6
CONTINUOUS
 62
3
100
AcDbLine
 10
226.5846974452390
 20
393.0883230173605
 30
0.0000000000000000
 11
231.3846973973825
 21
393.0883230173605
 31
0.0000000000000000
  0
LINE
  5
2D0
100
AcDbEntity
  8
MAIN0
  6
CONTINUOUS
 62
3
100
AcDbLine
 10
68.58469744151239
 20
391.8883230173605
 30
0.0000000000000000
 11
73.58469744523904
 21
391.8883230173605
 31
0.0000000000000000
  0
LINE
  5
2D1
100
AcDbEntity
  8
MAIN0
  6
CONTINUOUS
 62
3
100
AcDbLine
 10
226.5846974452390
 20
391.8883230173605
 30
0.0000000000000000
 11
231.5846974044209
 21
391.8883230173605
 31
0.0000000000000000
  0
ARC
  5
2D2
100
AcDbEntity
  8
MAIN0
  6
CONTINUOUS
 62
3
100
AcDbCircle
 10
231.5846974452390
 20
393.8883230173605
 30
0.0000000000000000
 40
2.000000000000000
100
AcDbArc
 50
270.0000000005678
 51
359.9999999999934
  0
ARC
  5
2D3
100
AcDbEntity
  8
MAIN0
  6
CONTINUOUS
 62
3
100
AcDbCircle
 10
231.3846974452388
 20
394.0883230173605
 30
0.0000000000000000
 40
1.000000000000000
100
AcDbArc
 50
270.0000000005678
 51
359.9999999999934
  0
ARC
  5
2D4
100
AcDbEntity
  8
MAIN0
  6
CONTINUOUS
 62
3
100
AcDbCircle
 10
68.78469744523886
 20
394.0883230173605
 30
0.0000000000000000
 40
1.000000000000000
100
AcDbArc
 50
179.9999999999964
 51
270.0000000005678
  0
ARC
  5
2D5
100
AcDbEntity
  8
MAIN0
  6
CONTINUOUS
 62
3
100
AcDbCircle
 10
68.58469744523904
 20
393.8883230173605
 30
0.0000000000000000
 40
2.000000000000000
100
AcDbArc
 50
179.9999999999964
 51
270.0000000005678
  0
ARC
  5
2D6
100
AcDbEntity
  8
MAIN0
  6
CONTINUOUS
 62
3
100
AcDbCircle
 10
232.1846974452390
 20
429.9883230173606
 30
0.0000000000000000
 40
1.400000000000000
100
AcDbArc
 50
0.0000000000000000
 51
81.78678929826229
  0
ARC
  5
2D7
100
AcDbEntity
  8
MAIN0
  6
CONTINUOUS
 62
3
100
AcDbCircle
 10
67.98469744523914
 20
429.9883230173606
 30
0.0000000000000000
 40
1.400000000000000
100
AcDbArc
 50
98.21321070173528
 51
179.9999999999964
  0
LINE
  5
2D8
100
AcDbEntity
  8
MAIN0
  6
CONTINUOUS
 62
3
100
AcDbLine
 10
233.8846974452392
 20
431.3883636634156
 30
0.0000000000000000
 11
233.8846974452392
 21
391.8883230173607
 31
0.0000000000000000
  0
LINE
  5
2D9
100
AcDbEntity
  8
MAIN0
  6
CONTINUOUS
 62
3
100
AcDbLine
 10
66.28469744523932
 20
431.3883636634156
 30
0.0000000000000000
 11
66.28469744523932
 21
391.8883230173607
 31
0.0000000000000000
  0
LINE
  5
2DA
100
AcDbEntity
  8
MAIN0
  6
CONTINUOUS
 62
3
100
AcDbLine
 10
235.0846974452390
 20
391.8883230173607
 30
0.0000000000000000
 11
235.0846974452390
 21
440.3883228344145
 31
0.0000000000000000
  0
LINE
  5
2DB
100
AcDbEntity
  8
MAIN0
  6
CONTINUOUS
 62
3
100
AcDbLine
 10
65.08469744523904
 20
440.3883230173607
 30
0.0000000000000000
 11
65.08469744523904
 21
391.8883230173607
 31
0.0000000000000000
  0
LINE
  5
2DC
100
AcDbEntity
  8
MAIN0
  6
CONTINUOUS
 62
3
100
AcDbLine
 10
233.8846974452392
 20
391.8883230173607
 30
0.0000000000000000
 11
235.0846974452390
 21
391.8883230173607
 31
0.0000000000000000
  0
ARC
  5
2DD
100
AcDbEntity
  8
MAIN0
  6
CONTINUOUS
 62
3
100
AcDbCircle
 10
234.0846974452390
 20
440.3883230173607
 30
0.0000000000000000
 40
1.000000000000000
100
AcDbArc
 50
0.0000000000000000
 51
89.99999999999720
  0
ARC
  5
2DE
100
AcDbEntity
  8
MAIN0
  6
CONTINUOUS
 62
3
100
AcDbCircle
 10
66.08469744523904
 20
440.3883230173607
 30
0.0000000000000000
 40
1.000000000000000
100
AcDbArc
 50
89.99999999942553
 51
179.9999999999964
  0
LINE
  5
2DF
100
AcDbEntity
  8
MAIN0
  6
CONTINUOUS
 62
3
100
AcDbLine
 10
69.48469744523914
 20
421.3883230173607
 30
0.0000000000000000
 11
70.08469744535182
 21
421.3883230173607
 31
0.0000000000000000
  0
LINE
  5
2E0
100
AcDbEntity
  8
MAIN0
  6
CONTINUOUS
 62
3
100
AcDbLine
 10
230.0846974453518
 20
421.3883230173607
 30
0.0000000000000000
 11
232.0846974452390
 21
421.3883230173607
 31
0.0000000000000000
  0
LINE
  5
2E1
100
AcDbEntity
  8
MAIN0
  6
CONTINUOUS
 62
3
100
AcDbLine
 10
66.28469744523932
 20
391.8883230173607
 30
0.0000000000000000
 11
65.08469744523904
 21
391.8883230173607
 31
0.0000000000000000
  0
LINE
  5
2E2
100
AcDbEntity
  8
MAIN0
  6
CONTINUOUS
 62
3
100
AcDbLine
 10
69.58469744535205
 20
396.1883230178262
 30
0.0000000000000000
 11
69.58469744520295
 21
418.6883230173606
 31
0.0000000000000000
  0
LINE
  5
2E3
100
AcDbEntity
  8
MAIN0
  6
CONTINUOUS
 62
3
100
AcDbLine
 10
230.5846974451260
 20
396.1883230178266
 30
0.0000000000000000
 11
230.5846974452756
 21
418.6883230173605
 31
0.0000000000000000
  0
LINE
  5
2E4
100
AcDbEntity
  8
MAIN0
  6
CONTINUOUS
 62
3
100
AcDbLine
 10
69.58469744535171
 20
320.1883230178264
 30
0.0000000000000000
 11
141.0846974453517
 21
320.1883230178265
 31
0.0000000000000000
  0
LINE
  5
2E5
100
AcDbEntity
  8
MAIN0
  6
CONTINUOUS
 62
3
100
AcDbLine
 10
159.0846974453517
 20
320.1883230178265
 30
0.0000000000000000
 11
230.5846974453517
 21
320.1883230178265
 31
0.0000000000000000
  0
DIMENSION
  5
2EE
100
AcDbEntity
  8
MAIN0
  6
CONTINUOUS
 62
3
100
AcDbDimension
  2
*D51
 10
70.08469744535182
 20
507.1727913175246
 30
0.0000000000000000
 11
150.0846974453518
 21
507.6727913175246
 31
0.0000000000000000
 70
32
  3
MAIN001
100
AcDbAlignedDimension
 13
230.0846974453518
 23
480.1883230178265
 33
0.0000000000000000
 14
70.08469744535182
 24
480.1883230178265
 34
0.0000000000000000
100
AcDbRotatedDimension
1001
ACAD
1000
DSTYLE
1002
{
1070
   173
1070
     1
1070
     6
1000
_OPEN
1070
     7
1000
_OPEN
1070
    41
1040
6.000000
1002
}
  0
LINE
  5
2EF
100
AcDbEntity
  8
MAIN0
  6
CONTINUOUS
 62
3
100
AcDbLine
 10
70.08469744535182
 20
421.3883230173605
 30
0.0000000000000000
 11
67.78469744523886
 21
421.3883230173605
 31
0.0000000000000000
  0
LINE
  5
2F0
100
AcDbEntity
  8
MAIN0
  6
CONTINUOUS
 62
3
100
AcDbLine
 10
232.3846974452388
 20
421.3883230173605
 30
0.0000000000000000
 11
230.0846974453518
 21
421.3883230173605
 31
0.0000000000000000
  0
LINE
  5
2F1
100
AcDbEntity
  8
MAIN0
  6
CONTINUOUS
 62
3
100
AcDbLine
 10
66.28469744523932
 20
431.3883636634156
 30
0.0000000000000000
 11
70.08469744535182
 21
431.3883636634156
 31
0.0000000000000000
  0
LINE
  5
2F2
100
AcDbEntity
  8
MAIN0
  6
CONTINUOUS
 62
3
100
AcDbLine
 10
230.0846974453518
 20
431.3883636634156
 30
0.0000000000000000
 11
233.8846974452392
 21
431.3883636634156
 31
0.0000000000000000
  0
LINE
  5
2F3
100
AcDbEntity
  8
MAIN0
  6
CONTINUOUS
 62
3
100
AcDbLine
 10
66.08469743992350
 20
441.3883230173607
 30
0.0000000000000000
 11
70.08469744535182
 21
441.3883230173607
 31
0.0000000000000000
  0
LINE
  5
2F4
100
AcDbEntity
  8
MAIN0
  6
CONTINUOUS
 62
3
100
AcDbLine
 10
230.0846974453518
 20
441.3883230173607
 30
0.0000000000000000
 11
234.0846962029943
 21
441.3883230173607
 31
0.0000000000000000
  0
LINE
  5
2F5
100
AcDbEntity
  8
MAIN0
  6
CONTINUOUS
 62
3
100
AcDbLine
 10
69.58469744520295
 20
418.6883230173606
 30
0.0000000000000000
 11
71.08469744519294
 21
420.1883230173606
 31
0.0000000000000000
  0
LINE
  5
2F6
100
AcDbEntity
  8
MAIN0
  6
CONTINUOUS
 62
3
100
AcDbLine
 10
230.5846974452757
 20
418.6883230173604
 30
0.0000000000000000
 11
229.0846974452856
 21
420.1883230173604
 31
0.0000000000000000
  0
LINE
  5
2F7
100
AcDbEntity
  8
MAIN0
  6
CONTINUOUS
 62
3
100
AcDbLine
 10
108.5846974452383
 20
420.1883230173604
 30
0.0000000000000000
 11
108.5846974452253
 21
416.7883230173601
 31
0.0000000000000000
  0
LINE
  5
2F8
100
AcDbEntity
  8
MAIN0
  6
CONTINUOUS
 62
3
100
AcDbLine
 10
191.5846974452529
 20
416.7883230173526
 30
0.0000000000000000
 11
108.5846974452253
 21
416.7883230173601
 31
0.0000000000000000
  0
LINE
  5
2F9
100
AcDbEntity
  8
MAIN0
  6
CONTINUOUS
 62
3
100
AcDbLine
 10
191.5846974452532
 20
419.9883230173526
 30
0.0000000000000000
 11
108.5846974452256
 21
419.9883230173601
 31
0.0000000000000000
  0
LINE
  5
2FA
100
AcDbEntity
  8
MAIN0
  6
CONTINUOUS
 62
3
100
AcDbLine
 10
191.5846974452399
 20
420.1883230173606
 30
0.0000000000000000
 11
191.5846974452528
 21
416.7883230173601
 31
0.0000000000000000
  0
LINE
  5
2FB
100
AcDbEntity
  8
MAIN0
  6
CONTINUOUS
 62
3
100
AcDbLine
 10
108.5846974452386
 20
400.1883230173604
 30
0.0000000000000000
 11
101.0846974452386
 21
400.1883230173604
 31
0.0000000000000000
  0
LINE
  5
2FC
100
AcDbEntity
  8
MAIN0
  6
CONTINUOUS
 62
3
100
AcDbLine
 10
108.5846974452385
 20
400.1883230173606
 30
0.0000000000000000
 11
109.5846974452384
 21
401.1883230173604
 31
0.0000000000000000
  0
LINE
  5
2FD
100
AcDbEntity
  8
MAIN0
  6
CONTINUOUS
 62
3
100
AcDbLine
 10
109.5846974452386
 20
416.7883230173600
 30
0.0000000000000000
 11
109.5846974452386
 21
401.1883230173604
 31
0.0000000000000000
  0
LINE
  5
2FE
100
AcDbEntity
  8
MAIN0
  6
CONTINUOUS
 62
3
100
AcDbLine
 10
101.0846974452386
 20
400.1883230173606
 30
0.0000000000000000
 11
101.0846974452386
 21
380.1883230173606
 31
0.0000000000000000
  0
LINE
  5
2FF
100
AcDbEntity
  8
MAIN0
  6
CONTINUOUS
 62
3
100
AcDbLine
 10
101.0846974452386
 20
380.1883230173609
 30
0.0000000000000000
 11
111.8943724815689
 21
380.1883230173609
 31
0.0000000000000000
  0
LINE
  5
300
100
AcDbEntity
  8
MAIN0
  6
CONTINUOUS
 62
3
100
AcDbLine
 10
111.8943724815687
 20
380.1883230173610
 30
0.0000000000000000
 11
113.0174660855826
 21
379.1591973366636
 31
0.0000000000000000
  0
LINE
  5
301
100
AcDbEntity
  8
MAIN0
  6
CONTINUOUS
 62
3
100
AcDbLine
 10
113.0174660855825
 20
379.1591973366636
 30
0.0000000000000000
 11
113.6222892485577
 21
361.8393280503357
 31
0.0000000000000000
  0
ARC
  5
302
100
AcDbEntity
  8
MAIN0
  6
CONTINUOUS
 62
3
100
AcDbCircle
 10
123.6161975187486
 20
362.1883230173607
 30
0.0000000000000000
 40
10.00000000000000
100
AcDbArc
 50
182.0000000000002
 51
270.0000000000000
  0
LINE
  5
303
100
AcDbEntity
  8
MAIN0
  6
CONTINUOUS
 62
3
100
AcDbLine
 10
123.6161975187486
 20
352.1883230173607
 30
0.0000000000000000
 11
176.5531973717292
 21
352.1883230173607
 31
0.0000000000000000
  0
LINE
  5
304
100
AcDbEntity
  8
MAIN0
  6
CONTINUOUS
 62
3
100
AcDbLine
 10
187.1519288048952
 20
379.1591973366638
 30
0.0000000000000000
 11
186.5471056419200
 21
361.8393280503359
 31
0.0000000000000000
  0
ARC
  5
305
100
AcDbEntity
  8
MAIN0
  6
CONTINUOUS
 62
3
100
AcDbCircle
 10
176.5531973717292
 20
362.1883230173609
 30
0.0000000000000000
 40
10.00000000000000
100
AcDbArc
 50
270.0000000000002
 51
357.9999999999999
  0
LINE
  5
306
100
AcDbEntity
  8
MAIN0
  6
CONTINUOUS
 62
3
100
AcDbLine
 10
188.2750224089092
 20
380.1883230173609
 30
0.0000000000000000
 11
187.1519288048953
 21
379.1591973366635
 31
0.0000000000000000
  0
LINE
  5
307
100
AcDbEntity
  8
MAIN0
  6
CONTINUOUS
 62
3
100
AcDbLine
 10
188.2750224089089
 20
380.1883230173609
 30
0.0000000000000000
 11
199.0846974452386
 21
380.1883230173609
 31
0.0000000000000000
  0
LINE
  5
308
100
AcDbEntity
  8
MAIN0
  6
CONTINUOUS
 62
3
100
AcDbLine
 10
199.0846974452386
 20
400.1883230173609
 30
0.0000000000000000
 11
199.0846974452386
 21
380.1883230173609
 31
0.0000000000000000
  0
LINE
  5
309
100
AcDbEntity
  8
MAIN0
  6
CONTINUOUS
 62
3
100
AcDbLine
 10
190.5846974452385
 20
401.1883230173606
 30
0.0000000000000000
 11
191.5846974452383
 21
400.1883230173609
 31
0.0000000000000000
  0
LINE
  5
30A
100
AcDbEntity
  8
MAIN0
  6
CONTINUOUS
 62
3
100
AcDbLine
 10
190.5846974452386
 20
416.7883230173526
 30
0.0000000000000000
 11
190.5846974452386
 21
401.1883230173609
 31
0.0000000000000000
  0
LINE
  5
30B
100
AcDbEntity
  8
MAIN0
  6
CONTINUOUS
 62
3
100
AcDbLine
 10
191.5846974452386
 20
400.1883230173609
 30
0.0000000000000000
 11
199.0846974452386
 21
400.1883230173609
 31
0.0000000000000000
  0
DIMENSION
  5
316
100
AcDbEntity
  8
MAIN0
  6
CONTINUOUS
 62
3
100
AcDbDimension
  2
*D52
 10
257.5359650790538
 20
420.1883230173604
 30
0.0000000000000000
 11
257.0359650790538
 21
408.1883230175935
 31
0.0000000000000000
 70
32
  3
MAIN001
100
AcDbAlignedDimension
 13
230.5846974453518
 23
396.1883230178265
 33
0.0000000000000000
 14
224.8159817815633
 24
420.1883230173604
 34
0.0000000000000000
 50
90.00000000000000
100
AcDbRotatedDimension
1001
ACAD
1000
DSTYLE
1002
{
1070
   173
1070
     1
1070
     6
1000
_OPEN
1070
     7
1000
_OPEN
1070
    41
1040
6.000000
1070
   287
1070
     0
1002
}
  0
DIMENSION
  5
31F
100
AcDbEntity
  8
MAIN0
  6
CONTINUOUS
 62
3
100
AcDbDimension
  2
*D53
 10
257.5359650790538
 20
396.1883230178265
 30
0.0000000000000000
 11
257.0359650790538
 21
368.6883230178266
 31
0.0000000000000000
 70
32
  3
MAIN001
100
AcDbAlignedDimension
 13
230.5846974453516
 23
341.1883230178268
 33
0.0000000000000000
 14
230.5846974453518
 24
396.1883230178265
 34
0.0000000000000000
 50
90.00000000000000
100
AcDbRotatedDimension
1001
ACAD
1000
DSTYLE
1002
{
1070
   173
1070
     1
1070
     6
1000
_OPEN
1070
     7
1000
_OPEN
1070
    41
1040
6.000000
1002
}
  0
DIMENSION
  5
32A
100
AcDbEntity
  8
MAIN0
  6
CONTINUOUS
 62
3
100
AcDbDimension
  2
*D54
 10
257.5359650790538
 20
341.1883230178268
 30
0.0000000000000000
 11
257.0359650790538
 21
330.6883230178266
 31
0.0000000000000000
 70
32
  3
MAIN001
100
AcDbAlignedDimension
 13
230.5846974453517
 23
320.1883230178265
 33
0.0000000000000000
 14
230.5846974453516
 24
341.1883230178268
 34
0.0000000000000000
 50
90.00000000000000
100
AcDbRotatedDimension
1001
ACAD
1000
DSTYLE
1002
{
1070
   173
1070
     1
1070
     6
1000
_OPEN
1070
     7
1000
_OPEN
1070
    41
1040
6.000000
1070
   287
1070
     0
1002
}
  0
DIMENSION
  5
334
100
AcDbEntity
  8
MAIN0
  6
CONTINUOUS
 62
3
100
AcDbDimension
  2
*D55
 10
224.5846974453518
 20
363.1883230178268
 30
0.0000000000000000
 11
214.0494601697791
 21
364.6883230178268
 31
0.0000000000000000
 70
160
  3
MAIN001
100
AcDbAlignedDimension
 13
230.5846974453518
 23
341.1883230178265
 33
0.0000000000000000
 14
224.5846974453518
 24
396.1883230178265
 34
0.0000000000000000
100
AcDbRotatedDimension
1001
ACAD
1000
DSTYLE
1002
{
1070
   173
1070
     1
1070
     6
1000
_OPEN
1070
     7
1000
_OPEN
1070
    41
1040
6.000000
1070
   287
1070
     0
1002
}
  0
CIRCLE
  5
335
100
AcDbEntity
  8
MAIN0
  6
CONTINUOUS
 62
3
100
AcDbCircle
 10
396.2082927435512
 20
773.7608442466894
 30
0.0000000000000000
 40
5.000000000000000
  0
CIRCLE
  5
336
100
AcDbEntity
  8
MAIN0
  6
CONTINUOUS
 62
3
100
AcDbCircle
 10
396.2082927435512
 20
773.7608442466894
 30
0.0000000000000000
 40
4.250000000000000
  0
CIRCLE
  5
337
100
AcDbEntity
  8
MAIN0
  6
CONTINUOUS
 62
3
100
AcDbCircle
 10
341.2082927435512
 20
773.7608442466895
 30
0.0000000000000000
 40
5.000000000000000
  0
CIRCLE
  5
338
100
AcDbEntity
  8
MAIN0
  6
CONTINUOUS
 62
3
100
AcDbCircle
 10
341.2082927435512
 20
773.7608442466895
 30
0.0000000000000000
 40
4.250000000000000
  0
CIRCLE
  5
339
100
AcDbEntity
  8
MAIN0
  6
CONTINUOUS
 62
3
100
AcDbCircle
 10
506.2082927435538
 20
783.7608442466897
 30
0.0000000000000000
 40
5.000000000000000
  0
CIRCLE
  5
33A
100
AcDbEntity
  8
MAIN0
  6
CONTINUOUS
 62
3
100
AcDbCircle
 10
506.2082927435538
 20
783.7608442466897
 30
0.0000000000000000
 40
4.250000000000000
  0
CIRCLE
  5
33B
100
AcDbEntity
  8
MAIN0
  6
CONTINUOUS
 62
3
100
AcDbCircle
 10
556.2082927435538
 20
783.7608442466897
 30
0.0000000000000000
 40
5.000000000000000
  0
CIRCLE
  5
33C
100
AcDbEntity
  8
MAIN0
  6
CONTINUOUS
 62
3
100
AcDbCircle
 10
556.2082927435538
 20
783.7608442466897
 30
0.0000000000000000
 40
4.250000000000000
  0
CIRCLE
  5
33D
100
AcDbEntity
  8
MAIN0
  6
CONTINUOUS
 62
3
100
AcDbCircle
 10
364.2082927433623
 20
470.1883230178267
 30
0.0000000000000000
 40
5.000000000000000
  0
CIRCLE
  5
33E
100
AcDbEntity
  8
MAIN0
  6
CONTINUOUS
 62
3
100
AcDbCircle
 10
364.2082927433623
 20
470.1883230178267
 30
0.0000000000000000
 40
4.250000000000000
  0
CIRCLE
  5
33F
100
AcDbEntity
  8
MAIN0
  6
CONTINUOUS
 62
3
100
AcDbCircle
 10
364.2082927433623
 20
450.1883230178267
 30
0.0000000000000000
 40
5.000000000000000
  0
CIRCLE
  5
340
100
AcDbEntity
  8
MAIN0
  6
CONTINUOUS
 62
3
100
AcDbCircle
 10
364.2082927433623
 20
450.1883230178267
 30
0.0000000000000000
 40
4.250000000000000
  0
LINE
  5
341
100
AcDbEntity
  8
MAIN0
  6
CONTINUOUS
 62
3
100
AcDbLine
 10
396.2082927435512
 20
776.6475955926376
 30
0.0000000000000000
 11
393.7082927435512
 21
775.2042199196635
 31
0.0000000000000000
  0
LINE
  5
342
100
AcDbEntity
  8
MAIN0
  6
CONTINUOUS
 62
3
100
AcDbLine
 10
393.7082927435512
 20
775.2042199196635
 30
0.0000000000000000
 11
393.7082927435512
 21
772.3174685737154
 31
0.0000000000000000
  0
LINE
  5
343
100
AcDbEntity
  8
MAIN0
  6
CONTINUOUS
 62
3
100
AcDbLine
 10
393.7082927435512
 20
772.3174685737154
 30
0.0000000000000000
 11
396.2082927435512
 21
770.8740929007413
 31
0.0000000000000000
  0
LINE
  5
344
100
AcDbEntity
  8
MAIN0
  6
CONTINUOUS
 62
3
100
AcDbLine
 10
396.2082927435512
 20
770.8740929007413
 30
0.0000000000000000
 11
398.7082927435512
 21
772.3174685737154
 31
0.0000000000000000
  0
LINE
  5
345
100
AcDbEntity
  8
MAIN0
  6
CONTINUOUS
 62
3
100
AcDbLine
 10
398.7082927435512
 20
772.3174685737154
 30
0.0000000000000000
 11
398.7082927435512
 21
775.2042199196635
 31
0.0000000000000000
  0
LINE
  5
346
100
AcDbEntity
  8
MAIN0
  6
CONTINUOUS
 62
3
100
AcDbLine
 10
398.7082927435512
 20
775.2042199196635
 30
0.0000000000000000
 11
396.2082927435512
 21
776.6475955926376
 31
0.0000000000000000
  0
LINE
  5
347
100
AcDbEntity
  8
MAIN0
  6
CONTINUOUS
 62
3
100
AcDbLine
 10
944.4672252363140
 20
669.0158954041860
 30
0.0000000000000000
 11
944.4672252361501
 21
457.4429427958064
 31
0.0000000000000000
  0
LINE
  5
348
100
AcDbEntity
  8
MAIN0
  6
CONTINUOUS
 62
3
100
AcDbLine
 10
961.4672252363141
 20
672.0158954041838
 30
0.0000000000000000
 11
947.4672252363141
 21
672.0158954041838
 31
0.0000000000000000
  0
LINE
  5
349
100
AcDbEntity
  8
MAIN0
  6
CONTINUOUS
 62
3
100
AcDbLine
 10
964.4672252363140
 20
669.0158954041815
 30
0.0000000000000000
 11
964.4672252363047
 21
657.0158954041815
 31
0.0000000000000000
  0
LINE
  5
34A
100
AcDbEntity
  8
MAIN0
  6
CONTINUOUS
 62
3
100
AcDbLine
 10
902.4672252361349
 20
438.0158954041837
 30
0.0000000000000000
 11
902.4672252361299
 21
431.6158954041837
 31
0.0000000000000000
  0
LINE
  5
34B
100
AcDbEntity
  8
MAIN0
  6
CONTINUOUS
 62
3
100
AcDbLine
 10
917.4672252361296
 20
431.0158954041837
 30
0.0000000000000000
 11
903.0672252361295
 21
431.0158954041837
 31
0.0000000000000000
  0
LINE
  5
34C
100
AcDbEntity
  8
MAIN0
  6
CONTINUOUS
 62
3
100
AcDbLine
 10
917.4672252361348
 20
438.0158954041837
 30
0.0000000000000000
 11
917.4672252361274
 21
428.4158954041838
 31
0.0000000000000000
  0
LINE
  5
34D
100
AcDbEntity
  8
MAIN0
  6
CONTINUOUS
 62
3
100
AcDbLine
 10
902.4672252361349
 20
438.0158954041837
 30
0.0000000000000000
 11
902.4672252361299
 21
444.4158954041836
 31
0.0000000000000000
  0
LINE
  5
34E
100
AcDbEntity
  8
MAIN0
  6
CONTINUOUS
 62
3
100
AcDbLine
 10
917.4672252361295
 20
445.0158954041837
 30
0.0000000000000000
 11
903.0672252361294
 21
445.0158954041837
 31
0.0000000000000000
  0
LINE
  5
34F
100
AcDbEntity
  8
MAIN0
  6
CONTINUOUS
 62
3
100
AcDbLine
 10
917.4672252361351
 20
438.0158954041837
 30
0.0000000000000000
 11
917.4672252361276
 21
447.6158954041836
 31
0.0000000000000000
  0
LINE
  5
350
100
AcDbEntity
  8
MAIN0
  6
CONTINUOUS
 62
3
100
AcDbLine
 10
961.4672252363048
 20
654.0158954041838
 30
0.0000000000000000
 11
957.4672252363002
 21
654.0158954041838
 31
0.0000000000000000
  0
ARC
  5
351
100
AcDbEntity
  8
MAIN0
  6
CONTINUOUS
 62
3
100
AcDbCircle
 10
947.4672252363141
 20
669.0158954041838
 30
0.0000000000000000
 40
3.000000000000000
100
AcDbArc
 50
90.00000000000007
 51
180.0000000000001
  0
LINE
  5
352
100
AcDbEntity
  8
MAIN0
  6
CONTINUOUS
 62
3
100
AcDbLine
 10
917.4672252361351
 20
438.0158954041838
 30
0.0000000000000000
 11
902.4672252361351
 21
438.0158954041837
 31
0.0000000000000000
  0
LINE
  5
353
100
AcDbEntity
  8
MAIN0
  6
CONTINUOUS
 62
3
100
AcDbLine
 10
902.4672252361299
 20
431.6158954041837
 30
0.0000000000000000
 11
903.0672252361295
 21
431.0158954041837
 31
0.0000000000000000
  0
LINE
  5
354
100
AcDbEntity
  8
MAIN0
  6
CONTINUOUS
 62
3
100
AcDbLine
 10
903.0672252361294
 20
445.0158954041835
 30
0.0000000000000000
 11
902.4672252361299
 21
444.4158954041836
 31
0.0000000000000000
  0
ELLIPSE
  5
355
100
AcDbEntity
  8
MAIN0
  6
CONTINUOUS
 62
3
100
AcDbEllipse
 10
910.4672252361322
 20
441.5158954041894
 30
0.0000000000000000
 11
-2.050000000000000
 21
0.0000000000000000
 31
0.0000000000000000
210
0.0000000000000000
220
0.0000000000000000
230
1.000000000000000
 40
0.8536585365853660
 41
0.0000000000000000
 42
6.283185307179586
  0
LINE
  5
356
100
AcDbEntity
  8
MAIN0
  6
CONTINUOUS
 62
3
100
AcDbLine
 10
926.4672252361273
 20
428.0158954041837
 30
0.0000000000000000
 11
917.8672252361272
 21
428.0158954041837
 31
0.0000000000000000
  0
LINE
  5
357
100
AcDbEntity
  8
MAIN0
  6
CONTINUOUS
 62
3
100
AcDbLine
 10
926.4672252361427
 20
448.0158954041837
 30
0.0000000000000000
 11
917.8672252361271
 21
448.0158954041837
 31
0.0000000000000000
  0
LINE
  5
358
100
AcDbEntity
  8
MAIN0
  6
CONTINUOUS
 62
3
100
AcDbLine
 10
926.4672252361426
 20
448.0158954041837
 30
0.0000000000000000
 11
926.4672252361271
 21
428.0158954041837
 31
0.0000000000000000
  0
LINE
  5
359
100
AcDbEntity
  8
MAIN0
  6
CONTINUOUS
 62
3
100
AcDbLine
 10
954.4672252363004
 20
651.0158954041860
 30
0.0000000000000000
 11
954.4672252361258
 21
426.0158954041814
 31
0.0000000000000000
  0
LINE
  5
35A
100
AcDbEntity
  8
MAIN0
  6
CONTINUOUS
 62
3
100
AcDbLine
 10
951.4672252361257
 20
423.0158954041838
 30
0.0000000000000000
 11
945.1274792739629
 21
423.0158954041838
 31
0.0000000000000000
  0
LINE
  5
35B
100
AcDbEntity
  8
MAIN0
  6
CONTINUOUS
 62
3
100
AcDbLine
 10
926.4672252361271
 20
428.0158954041812
 30
0.0000000000000000
 11
945.1274792739617
 21
423.0158954041840
 31
0.0000000000000000
  0
LINE
  5
35C
100
AcDbEntity
  8
MAIN0
  6
CONTINUOUS
 62
3
100
AcDbLine
 10
926.4672252361736
 20
448.0158954041837
 30
0.0000000000000000
 11
940.0201395067653
 21
451.6473878380767
 31
0.0000000000000000
  0
ARC
  5
35D
100
AcDbEntity
  8
MAIN0
  6
CONTINUOUS
 62
3
100
AcDbCircle
 10
951.4672252361256
 20
426.0158954041837
 30
0.0000000000000000
 40
3.000000000000000
100
AcDbArc
 50
270.0000000000001
 51
360.0000000000001
  0
ARC
  5
35E
100
AcDbEntity
  8
MAIN0
  6
CONTINUOUS
 62
3
100
AcDbCircle
 10
961.4672252363141
 20
669.0158954041838
 30
0.0000000000000000
 40
3.000000000000000
100
AcDbArc
 50
7.633331235512440e-014
 51
90.00000000000007
  0
ARC
  5
35F
100
AcDbEntity
  8
MAIN0
  6
CONTINUOUS
 62
3
100
AcDbCircle
 10
961.4672252363046
 20
657.0158954041838
 30
0.0000000000000000
 40
3.000000000000000
100
AcDbArc
 50
270.0000000000001
 51
360.0000000000001
  0
LINE
  5
360
100
AcDbEntity
  8
MAIN0
  6
CONTINUOUS
 62
3
100
AcDbLine
 10
917.4672252361276
 20
428.4158954041837
 30
0.0000000000000000
 11
917.8672252361273
 21
428.0158954041837
 31
0.0000000000000000
  0
LINE
  5
361
100
AcDbEntity
  8
MAIN0
  6
CONTINUOUS
 62
3
100
AcDbLine
 10
917.4672252361277
 20
447.6158954041836
 30
0.0000000000000000
 11
917.8672252361273
 21
448.0158954041837
 31
0.0000000000000000
  0
ARC
  5
362
100
AcDbEntity
  8
MAIN0
  6
CONTINUOUS
 62
3
100
AcDbCircle
 10
938.4672252361499
 20
457.4429427958110
 30
0.0000000000000000
 40
6.000000000000000
100
AcDbArc
 50
284.9999999999988
 51
360.0000000000001
  0
ARC
  5
363
100
AcDbEntity
  8
MAIN0
  6
CONTINUOUS
 62
3
100
AcDbCircle
 10
957.4672252363000
 20
651.0158954041838
 30
0.0000000000000000
 40
3.000000000000000
100
AcDbArc
 50
90.00000000000007
 51
180.0000000000001
  0
ARC
  5
364
100
AcDbEntity
  8
MAIN1
  6
CONTINUOUS
 62
7
100
AcDbCircle
 10
1044.780112402332
 20
670.0158954041838
 30
0.0000000000000000
 40
4.000000000000000
100
AcDbArc
 50
11.21227141764971
 51
90.00000000000000
  0
ARC
  5
365
100
AcDbEntity
  8
MAIN1
  6
CONTINUOUS
 62
7
100
AcDbCircle
 10
1044.780112402332
 20
656.0158954041838
 30
0.0000000000000000
 40
4.000000000000000
100
AcDbArc
 50
270.0000000000000
 51
348.7877285823506
  0
LINE
  5
366
100
AcDbEntity
  8
MAIN1
  6
CONTINUOUS
 62
7
100
AcDbLine
 10
998.4672252363122
 20
674.0158954041837
 30
0.0000000000000000
 11
976.3839641468879
 21
673.0957595254577
 31
0.0000000000000000
  0
LINE
  5
367
100
AcDbEntity
  8
MAIN1
  6
CONTINUOUS
 62
7
100
AcDbLine
 10
976.3839641468877
 20
652.9360312829098
 30
0.0000000000000000
 11
998.4672252363124
 21
652.0158954041837
 31
0.0000000000000000
  0
ARC
  5
368
100
AcDbEntity
  8
MAIN1
  6
CONTINUOUS
 62
7
100
AcDbCircle
 10
1009.467225236312
 20
663.0158954041838
 30
0.0000000000000000
 40
40.00000000000002
100
AcDbArc
 50
348.7877285823503
 51
371.2122714176497
  0
LINE
  5
369
100
AcDbEntity
  8
MAIN1
  6
CONTINUOUS
 62
7
100
AcDbLine
 10
973.9672252363125
 20
671.5158954041838
 30
0.0000000000000000
 11
973.9672252363125
 21
654.5158954041838
 31
0.0000000000000000
  0
LINE
  5
36A
100
AcDbEntity
  8
MAIN1
  6
CONTINUOUS
 62
7
100
AcDbLine
 10
964.9672252363123
 20
671.5158954041838
 30
0.0000000000000000
 11
964.9672252363123
 21
668.4931209792355
 31
0.0000000000000000
  0
LINE
  5
36B
100
AcDbEntity
  8
MAIN1
  6
CONTINUOUS
 62
7
100
AcDbLine
 10
964.4672252363123
 20
668.4931209792355
 30
0.0000000000000000
 11
971.9672252363125
 21
668.4931209792355
 31
0.0000000000000000
  0
LINE
  5
36C
100
AcDbEntity
  8
MAIN1
  6
CONTINUOUS
 62
7
100
AcDbLine
 10
964.4672252363123
 20
657.5386698291321
 30
0.0000000000000000
 11
971.9672252363125
 21
657.5386698291321
 31
0.0000000000000000
  0
LINE
  5
36D
100
AcDbEntity
  8
MAIN1
  6
CONTINUOUS
 62
7
100
AcDbLine
 10
1044.780112402332
 20
674.0158954041838
 30
0.0000000000000000
 11
998.4672252363123
 21
674.0158954041838
 31
0.0000000000000000
  0
LINE
  5
36E
100
AcDbEntity
  8
MAIN1
  6
CONTINUOUS
 62
7
100
AcDbLine
 10
1044.780112402332
 20
652.0158954041838
 30
0.0000000000000000
 11
998.4672252363123
 21
652.0158954041838
 31
0.0000000000000000
  0
LINE
  5
36F
100
AcDbEntity
  8
MAIN1
  6
CONTINUOUS
 62
7
100
AcDbLine
 10
964.9672252363123
 20
671.5158954041839
 30
0.0000000000000000
 11
964.4672252363122
 21
671.0158954041838
 31
0.0000000000000000
  0
LINE
  5
370
100
AcDbEntity
  8
MAIN1
  6
CONTINUOUS
 62
7
100
AcDbLine
 10
973.9672252363122
 20
671.5158954041840
 30
0.0000000000000000
 11
974.4672252363123
 21
671.0158954041838
 31
0.0000000000000000
  0
LINE
  5
371
100
AcDbEntity
  8
MAIN1
  6
CONTINUOUS
 62
7
100
AcDbLine
 10
973.9672252363121
 20
654.5158954041839
 30
0.0000000000000000
 11
974.4672252363121
 21
655.0158954041839
 31
0.0000000000000000
  0
LINE
  5
372
100
AcDbEntity
  8
MAIN1
  6
CONTINUOUS
 62
7
100
AcDbLine
 10
964.4672252363123
 20
655.0158954041838
 30
0.0000000000000000
 11
964.9672252363122
 21
654.5158954041840
 31
0.0000000000000000
  0
LINE
  5
373
100
AcDbEntity
  8
MAIN1
  6
CONTINUOUS
 62
7
100
AcDbLine
 10
964.9672252363123
 20
671.5158954041838
 30
0.0000000000000000
 11
973.9672252363125
 21
671.5158954041838
 31
0.0000000000000000
  0
LINE
  5
374
100
AcDbEntity
  8
MAIN1
  6
CONTINUOUS
 62
7
100
AcDbLine
 10
964.9672252363123
 20
654.5158954041838
 30
0.0000000000000000
 11
973.9672252363125
 21
654.5158954041838
 31
0.0000000000000000
  0
LINE
  5
375
100
AcDbEntity
  8
MAIN1
  6
CONTINUOUS
 62
7
100
AcDbLine
 10
964.4672252363123
 20
655.0158954041838
 30
0.0000000000000000
 11
964.4672252363123
 21
671.0158954041838
 31
0.0000000000000000
  0
LINE
  5
376
100
AcDbEntity
  8
MAIN1
  6
CONTINUOUS
 62
7
100
AcDbLine
 10
964.9672252363123
 20
654.5158954041838
 30
0.0000000000000000
 11
964.9672252363123
 21
657.5386698291321
 31
0.0000000000000000
  0
LINE
  5
377
100
AcDbEntity
  8
MAIN1
  6
CONTINUOUS
 62
7
100
AcDbLine
 10
974.4672252363125
 20
654.9342974290946
 30
0.0000000000000000
 11
974.4672252363125
 21
671.0974933792730
 31
0.0000000000000000
  0
ARC
  5
378
100
AcDbEntity
  8
MAIN1
  6
CONTINUOUS
 62
7
100
AcDbCircle
 10
976.4672252363123
 20
671.0974933792730
 30
0.0000000000000000
 40
2.000000000000000
100
AcDbArc
 50
92.38594403038889
 51
179.9999999999999
  0
ARC
  5
379
100
AcDbEntity
  8
MAIN1
  6
CONTINUOUS
 62
7
100
AcDbCircle
 10
976.4672252363123
 20
654.9342974290946
 30
0.0000000000000000
 40
2.000000000000000
100
AcDbArc
 50
180.0000000000000
 51
267.6140559696109
  0
LINE
  5
37A
100
AcDbEntity
  8
MAIN1
  6
CONTINUOUS
 62
7
100
AcDbLine
 10
971.9672252363125
 20
657.5386698291321
 30
0.0000000000000000
 11
971.9672252363125
 21
668.4931209792355
 31
0.0000000000000000
  0
LINE
  5
37B
100
AcDbEntity
  8
MAIN3
  6
CONTINUOUS
 62
3
100
AcDbLine
 10
971.9672252363124
 20
657.5386698291322
 30
0.0000000000000000
 11
964.4672252363124
 21
668.4931209792354
 31
0.0000000000000000
  0
LINE
  5
37C
100
AcDbEntity
  8
MAIN3
  6
CONTINUOUS
 62
3
100
AcDbLine
 10
971.9672252363123
 20
668.4931209792353
 30
0.0000000000000000
 11
964.4672252363125
 21
657.5386698291322
 31
0.0000000000000000
  0
LINE
  5
37D
100
AcDbEntity
  8
MAIN1
  6
CONTINUOUS
 62
7
100
AcDbLine
 10
998.4672252363123
 20
674.0158954041838
 30
0.0000000000000000
 11
998.4672252363123
 21
652.0158954041838
 31
0.0000000000000000
  0
LINE
  5
37E
100
AcDbEntity
  8
MAIN0
  6
CONTINUOUS
 62
3
100
AcDbLine
 10
941.8111504125212
 20
355.1883230183298
 30
0.0000000000000000
 11
941.8111504125212
 21
369.5883230183299
 31
0.0000000000000000
  0
LINE
  5
37F
100
AcDbEntity
  8
MAIN0
  6
CONTINUOUS
 62
3
100
AcDbLine
 10
941.8111504125216
 20
369.5883230183299
 30
0.0000000000000000
 11
939.0398691204116
 21
371.1883230183298
 31
0.0000000000000000
  0
LINE
  5
380
100
AcDbEntity
  8
MAIN0
  6
CONTINUOUS
 62
3
100
AcDbLine
 10
939.0398691204113
 20
371.1883230183298
 30
0.0000000000000000
 11
920.5824317046316
 21
371.1883230183298
 31
0.0000000000000000
  0
LINE
  5
381
100
AcDbEntity
  8
MAIN0
  6
CONTINUOUS
 62
3
100
AcDbLine
 10
920.5824317046320
 20
371.1883230183302
 30
0.0000000000000000
 11
917.8111504125214
 21
369.5883230183300
 31
0.0000000000000000
  0
LINE
  5
382
100
AcDbEntity
  8
MAIN0
  6
CONTINUOUS
 62
3
100
AcDbLine
 10
917.8111504125212
 20
369.5883230183299
 30
0.0000000000000000
 11
917.8111504125212
 21
355.1883230183298
 31
0.0000000000000000
  0
LINE
  5
383
100
AcDbEntity
  8
MAIN0
  6
CONTINUOUS
 62
3
100
AcDbLine
 10
941.8111504125212
 20
369.5883230183299
 30
0.0000000000000000
 11
917.8111504125212
 21
369.5883230183299
 31
0.0000000000000000
  0
LINE
  5
384
100
AcDbEntity
  8
MAIN0
  6
CONTINUOUS
 62
3
100
AcDbLine
 10
947.3111504125212
 20
355.1883230183298
 30
0.0000000000000000
 11
912.3111504125212
 21
355.1883230183298
 31
0.0000000000000000
  0
LINE
  5
385
100
AcDbEntity
  8
MAIN0
  6
CONTINUOUS
 62
3
100
AcDbLine
 10
947.3111504125212
 20
350.1883230183298
 30
0.0000000000000000
 11
947.3111504125212
 21
355.1883230183298
 31
0.0000000000000000
  0
LINE
  5
386
100
AcDbEntity
  8
MAIN0
  6
CONTINUOUS
 62
3
100
AcDbLine
 10
912.3111504125212
 20
350.1883230183298
 30
0.0000000000000000
 11
912.3111504125212
 21
355.1883230183298
 31
0.0000000000000000
  0
LINE
  5
387
100
AcDbEntity
  8
MAIN0
  6
CONTINUOUS
 62
3
100
AcDbLine
 10
915.5611504125038
 20
290.1883230184449
 30
0.0000000000000000
 11
915.5611504124963
 21
301.1883230184449
 31
0.0000000000000000
  0
LINE
  5
388
100
AcDbEntity
  8
MAIN0
  6
CONTINUOUS
 62
3
100
AcDbLine
 10
944.0611504125038
 20
290.1883230184568
 30
0.0000000000000000
 11
944.0611504124963
 21
301.1883230184568
 31
0.0000000000000000
  0
LINE
  5
389
100
AcDbEntity
  8
MAIN0
  6
CONTINUOUS
 62
3
100
AcDbLine
 10
915.5611504125045
 20
290.1883230184449
 30
0.0000000000000000
 11
944.0611504125045
 21
290.1883230184568
 31
0.0000000000000000
  0
LINE
  5
38A
100
AcDbEntity
  8
MAIN0
  6
CONTINUOUS
 62
3
100
AcDbLine
 10
921.0611504124908
 20
309.1883230184471
 30
0.0000000000000000
 11
938.5611504124908
 21
309.1883230184544
 31
0.0000000000000000
  0
LINE
  5
38B
100
AcDbEntity
  8
MAIN0
  6
CONTINUOUS
 62
3
100
AcDbLine
 10
915.5611504124963
 20
301.1883230184449
 30
0.0000000000000000
 11
921.0611504124963
 21
301.1883230184472
 31
0.0000000000000000
  0
LINE
  5
38C
100
AcDbEntity
  8
MAIN0
  6
CONTINUOUS
 62
3
100
AcDbLine
 10
938.5611504124964
 20
301.1883230184545
 30
0.0000000000000000
 11
944.0611504124964
 21
301.1883230184568
 31
0.0000000000000000
  0
LINE
  5
38D
100
AcDbEntity
  8
MAIN0
  6
CONTINUOUS
 62
3
100
AcDbLine
 10
921.0611504124963
 20
301.1883230184470
 30
0.0000000000000000
 11
921.0611504124909
 21
309.1883230184470
 31
0.0000000000000000
  0
LINE
  5
38E
100
AcDbEntity
  8
MAIN0
  6
CONTINUOUS
 62
3
100
AcDbLine
 10
938.5611504124963
 20
301.1883230184544
 30
0.0000000000000000
 11
938.5611504124909
 21
309.1883230184544
 31
0.0000000000000000
  0
LINE
  5
38F
100
AcDbEntity
  8
MAIN0
  6
CONTINUOUS
 62
3
100
AcDbLine
 10
922.8936824125040
 20
320.1883230184539
 30
0.0000000000000000
 11
922.8936824125040
 21
309.1883230184569
 31
0.0000000000000000
  0
LINE
  5
390
100
AcDbEntity
  8
MAIN0
  6
CONTINUOUS
 62
3
100
AcDbLine
 10
921.8111504125041
 20
309.1883230184569
 30
0.0000000000000000
 11
921.8111504125041
 21
320.1883230184535
 31
0.0000000000000000
  0
LINE
  5
391
100
AcDbEntity
  8
MAIN0
  6
CONTINUOUS
 62
3
100
AcDbLine
 10
936.7286184125042
 20
320.1883230184597
 30
0.0000000000000000
 11
936.7286184125042
 21
309.1883230184569
 31
0.0000000000000000
  0
LINE
  5
392
100
AcDbEntity
  8
MAIN0
  6
CONTINUOUS
 62
3
100
AcDbLine
 10
937.8111504125041
 20
320.1883230184602
 30
0.0000000000000000
 11
937.8111504125041
 21
309.1883230184569
 31
0.0000000000000000
  0
LINE
  5
393
100
AcDbEntity
  8
MAIN0
  6
CONTINUOUS
 62
3
100
AcDbLine
 10
1018.498718284214
 20
309.1883230182866
 30
0.0000000000000000
 11
1048.498718284214
 21
309.1883230182990
 31
0.0000000000000000
  0
LINE
  5
394
100
AcDbEntity
  8
MAIN0
  6
CONTINUOUS
 62
3
100
AcDbLine
 10
1018.498718284220
 20
301.1883230182867
 30
0.0000000000000000
 11
1048.498718284220
 21
301.1883230182991
 31
0.0000000000000000
  0
LINE
  5
395
100
AcDbEntity
  8
MAIN0
  6
CONTINUOUS
 62
3
100
AcDbLine
 10
1018.498718284227
 20
290.1883230182866
 30
0.0000000000000000
 11
1048.498718284227
 21
290.1883230182990
 31
0.0000000000000000
  0
LINE
  5
396
100
AcDbEntity
  8
MAIN0
  6
CONTINUOUS
 62
3
100
AcDbLine
 10
1048.498718284227
 20
290.1883230182990
 30
0.0000000000000000
 11
1048.498718284214
 21
309.1883230182990
 31
0.0000000000000000
  0
LINE
  5
397
100
AcDbEntity
  8
MAIN0
  6
CONTINUOUS
 62
3
100
AcDbLine
 10
1018.498718284227
 20
290.1883230182867
 30
0.0000000000000000
 11
1018.498718284214
 21
309.1883230182867
 31
0.0000000000000000
  0
LINE
  5
398
100
AcDbEntity
  8
MAIN0
  6
CONTINUOUS
 62
3
100
AcDbLine
 10
1018.498718284188
 20
220.3827836300997
 30
0.0000000000000000
 11
1048.498718284188
 21
220.3827836300914
 31
0.0000000000000000
  0
LINE
  5
399
100
AcDbEntity
  8
MAIN0
  6
CONTINUOUS
 62
3
100
AcDbLine
 10
1018.498718284208
 20
191.8827836300999
 30
0.0000000000000000
 11
1018.498718284188
 21
220.3827836300999
 31
0.0000000000000000
  0
LINE
  5
39A
100
AcDbEntity
  8
MAIN0
  6
HIDDEN
 62
3
100
AcDbLine
 10
1018.498718284192
 20
214.8827836300998
 30
0.0000000000000000
 11
1048.498718284192
 21
214.8827836300915
 31
0.0000000000000000
  0
LINE
  5
39B
100
AcDbEntity
  8
MAIN0
  6
CENTER
 62
3
100
AcDbLine
 10
1015.236100261908
 20
206.1327836301007
 30
0.0000000000000000
 11
1052.054197625547
 21
206.1327836300906
 31
0.0000000000000000
  0
LINE
  5
39C
100
AcDbEntity
  8
MAIN0
  6
HIDDEN
 62
3
100
AcDbLine
 10
1018.498718284204
 20
197.3827836300999
 30
0.0000000000000000
 11
1048.498718284204
 21
197.3827836300916
 31
0.0000000000000000
  0
LINE
  5
39D
100
AcDbEntity
  8
MAIN0
  6
CONTINUOUS
 62
3
100
AcDbLine
 10
1018.498718284208
 20
191.8827836300999
 30
0.0000000000000000
 11
1048.498718284208
 21
191.8827836300916
 31
0.0000000000000000
  0
LINE
  5
39E
100
AcDbEntity
  8
MAIN0
  6
CONTINUOUS
 62
3
100
AcDbLine
 10
1048.498718284207
 20
191.8827836300916
 30
0.0000000000000000
 11
1048.498718284188
 21
220.3827836300916
 31
0.0000000000000000
  0
LINE
  5
39F
100
AcDbEntity
  8
MAIN0
  6
CONTINUOUS
 62
3
100
AcDbLine
 10
116.0846974448714
 20
380.1883230173608
 30
0.0000000000000000
 11
101.0846974452386
 21
380.1883230173608
 31
0.0000000000000000
  0
LINE
  5
3A0
100
AcDbEntity
  8
MAIN0
  6
CONTINUOUS
 62
3
100
AcDbLine
 10
190.5846974452386
 20
414.1883230173606
 30
0.0000000000000000
 11
190.5846974452386
 21
400.1883230173608
 31
0.0000000000000000
  0
LINE
  5
3A1
100
AcDbEntity
  8
MAIN0
  6
CONTINUOUS
 62
3
100
AcDbLine
 10
190.5846974452386
 20
400.1883230173608
 30
0.0000000000000000
 11
199.0846974452386
 21
400.1883230173608
 31
0.0000000000000000
  0
LINE
  5
3A2
100
AcDbEntity
  8
MAIN0
  6
CONTINUOUS
 62
3
100
AcDbLine
 10
199.0846974452386
 20
400.1883230173608
 30
0.0000000000000000
 11
199.0846974452386
 21
380.1883230173608
 31
0.0000000000000000
  0
LINE
  5
3A3
100
AcDbEntity
  8
MAIN0
  6
CONTINUOUS
 62
3
100
AcDbLine
 10
109.5846974452386
 20
414.1883230173606
 30
0.0000000000000000
 11
109.5846974452386
 21
400.1883230173604
 31
0.0000000000000000
  0
LINE
  5
3A4
100
AcDbEntity
  8
MAIN0
  6
CONTINUOUS
 62
3
100
AcDbLine
 10
109.5846974452386
 20
400.1883230173604
 30
0.0000000000000000
 11
101.0846974452386
 21
400.1883230173604
 31
0.0000000000000000
  0
LINE
  5
3A5
100
AcDbEntity
  8
MAIN0
  6
CONTINUOUS
 62
3
100
AcDbLine
 10
101.0846974452386
 20
400.1883230173606
 30
0.0000000000000000
 11
101.0846974452386
 21
380.1883230173609
 31
0.0000000000000000
  0
LINE
  5
3A6
100
AcDbEntity
  8
MAIN0
  6
CONTINUOUS
 62
3
100
AcDbLine
 10
317.2082927435653
 20
653.2608442466894
 30
0.0000000000000000
 11
577.2082927435540
 21
653.2608442466894
 31
0.0000000000000000
  0
LINE
  5
3A7
100
AcDbEntity
  8
MAIN0
  6
CONTINUOUS
 62
3
100
AcDbLine
 10
577.2082927435540
 20
814.2608442466899
 30
0.0000000000000000
 11
317.2082927435648
 21
814.2608442466899
 31
0.0000000000000000
  0
LINE
  5
3A8
100
AcDbEntity
  8
MAIN0
  6
CONTINUOUS
 62
3
100
AcDbLine
 10
316.2082927435650
 20
813.2608442466899
 30
0.0000000000000000
 11
316.2082927435653
 21
654.2608442466899
 31
0.0000000000000000
  0
LINE
  5
3A9
100
AcDbEntity
  8
MAIN0
  6
CONTINUOUS
 62
3
100
AcDbLine
 10
316.2082927435646
 20
654.2608442466895
 30
0.0000000000000000
 11
317.2082927435648
 21
653.2608442466894
 31
0.0000000000000000
  0
LINE
  5
3AA
100
AcDbEntity
  8
MAIN0
  6
CONTINUOUS
 62
3
100
AcDbLine
 10
316.2082927435644
 20
813.2608442466897
 30
0.0000000000000000
 11
317.2082927435645
 21
814.2608442466898
 31
0.0000000000000000
  0
LINE
  5
3AB
100
AcDbEntity
  8
MAIN0
  6
CONTINUOUS
 62
3
100
AcDbLine
 10
410.7082927435600
 20
653.7608442465476
 30
0.0000000000000000
 11
317.8082927435601
 21
653.7608442466410
 31
0.0000000000000000
  0
LINE
  5
3AC
100
AcDbEntity
  8
MAIN0
  6
CONTINUOUS
 62
3
100
AcDbLine
 10
410.7082927435482
 20
813.7608442458936
 30
0.0000000000000000
 11
317.8082927435482
 21
813.7608442450132
 31
0.0000000000000000
  0
LINE
  5
3AD
100
AcDbEntity
  8
MAIN0
  6
CONTINUOUS
 62
3
100
AcDbLine
 10
410.7082927435598
 20
653.7608442465473
 30
0.0000000000000000
 11
411.2082927435597
 21
654.2608442465469
 31
0.0000000000000000
  0
LINE
  5
3AE
100
AcDbEntity
  8
MAIN0
  6
CONTINUOUS
 62
3
100
AcDbLine
 10
411.2082927435484
 20
813.2608442458989
 30
0.0000000000000000
 11
410.7082927435484
 21
813.7608442458940
 31
0.0000000000000000
  0
LINE
  5
3AF
100
AcDbEntity
  8
MAIN0
  6
CONTINUOUS
 62
3
100
AcDbLine
 10
317.8082927435486
 20
813.7608442450137
 30
0.0000000000000000
 11
317.2082927435486
 21
813.1608442450079
 31
0.0000000000000000
  0
LINE
  5
3B0
100
AcDbEntity
  8
MAIN0
  6
CONTINUOUS
 62
3
100
AcDbLine
 10
317.8082927435602
 20
653.7608442466412
 30
0.0000000000000000
 11
317.2082927435602
 21
654.3608442466418
 31
0.0000000000000000
  0
LINE
  5
3B1
100
AcDbEntity
  8
MAIN0
  6
CONTINUOUS
 62
3
100
AcDbLine
 10
317.2082927435600
 20
654.3608442466415
 30
0.0000000000000000
 11
317.2082927435484
 21
813.1608442450080
 31
0.0000000000000000
  0
LINE
  5
3B2
100
AcDbEntity
  8
MAIN0
  6
CONTINUOUS
 62
3
100
AcDbLine
 10
411.2082927435599
 20
654.2608442465469
 30
0.0000000000000000
 11
411.2082927435483
 21
813.2608442458986
 31
0.0000000000000000
  0
CIRCLE
  5
3B3
100
AcDbEntity
  8
MAIN0
  6
CONTINUOUS
 62
3
100
AcDbCircle
 10
364.2082927435478
 20
733.7608442466681
 30
0.0000000000000000
 40
5.000000000000000
  0
CIRCLE
  5
3B4
100
AcDbEntity
  8
MAIN0
  6
CONTINUOUS
 62
3
100
AcDbCircle
 10
364.2082927435478
 20
733.7608442466681
 30
0.0000000000000000
 40
4.250000000000000
  0
CIRCLE
  5
3B5
100
AcDbEntity
  8
MAIN0
  6
HIDDEN
 62
3
100
AcDbCircle
 10
337.2082927435653
 20
672.7608442466894
 30
0.0000000000000000
 40
12.00000000000000
  0
LINE
  5
3B6
100
AcDbEntity
  8
MAIN0
  6
HIDDEN
 62
3
100
AcDbLine
 10
337.2082927435654
 20
680.8437480153443
 30
0.0000000000000000
 11
330.2082927435654
 21
676.8022961310169
 31
0.0000000000000000
  0
LINE
  5
3B7
100
AcDbEntity
  8
MAIN0
  6
HIDDEN
 62
3
100
AcDbLine
 10
330.2082927435653
 20
676.8022961310167
 30
0.0000000000000000
 11
330.2082927435653
 21
668.7193923623620
 31
0.0000000000000000
  0
LINE
  5
3B8
100
AcDbEntity
  8
MAIN0
  6
HIDDEN
 62
3
100
AcDbLine
 10
330.2082927435653
 20
668.7193923623620
 30
0.0000000000000000
 11
337.2082927435653
 21
664.6779404780347
 31
0.0000000000000000
  0
LINE
  5
3B9
100
AcDbEntity
  8
MAIN0
  6
HIDDEN
 62
3
100
AcDbLine
 10
337.2082927435654
 20
664.6779404780348
 30
0.0000000000000000
 11
344.2082927435654
 21
668.7193923623622
 31
0.0000000000000000
  0
LINE
  5
3BA
100
AcDbEntity
  8
MAIN0
  6
HIDDEN
 62
3
100
AcDbLine
 10
344.2082927435653
 20
668.7193923623620
 30
0.0000000000000000
 11
344.2082927435653
 21
676.8022961310167
 31
0.0000000000000000
  0
LINE
  5
3BB
100
AcDbEntity
  8
MAIN0
  6
HIDDEN
 62
3
100
AcDbLine
 10
344.2082927435652
 20
676.8022961310167
 30
0.0000000000000000
 11
337.2082927435652
 21
680.8437480153441
 31
0.0000000000000000
  0
CIRCLE
  5
3BC
100
AcDbEntity
  8
MAIN0
  6
HIDDEN
 62
3
100
AcDbCircle
 10
391.2082927435653
 20
672.7608442466894
 30
0.0000000000000000
 40
12.00000000000000
  0
LINE
  5
3BD
100
AcDbEntity
  8
MAIN0
  6
HIDDEN
 62
3
100
AcDbLine
 10
391.2082927435654
 20
680.8437480153443
 30
0.0000000000000000
 11
384.2082927435654
 21
676.8022961310169
 31
0.0000000000000000
  0
LINE
  5
3BE
100
AcDbEntity
  8
MAIN0
  6
HIDDEN
 62
3
100
AcDbLine
 10
384.2082927435653
 20
676.8022961310167
 30
0.0000000000000000
 11
384.2082927435653
 21
668.7193923623620
 31
0.0000000000000000
  0
LINE
  5
3BF
100
AcDbEntity
  8
MAIN0
  6
HIDDEN
 62
3
100
AcDbLine
 10
384.2082927435653
 20
668.7193923623622
 30
0.0000000000000000
 11
391.2082927435653
 21
664.6779404780348
 31
0.0000000000000000
  0
LINE
  5
3C0
100
AcDbEntity
  8
MAIN0
  6
HIDDEN
 62
3
100
AcDbLine
 10
391.2082927435654
 20
664.6779404780347
 30
0.0000000000000000
 11
398.2082927435655
 21
668.7193923623622
 31
0.0000000000000000
  0
LINE
  5
3C1
100
AcDbEntity
  8
MAIN0
  6
HIDDEN
 62
3
100
AcDbLine
 10
398.2082927435653
 20
668.7193923623620
 30
0.0000000000000000
 11
398.2082927435653
 21
676.8022961310167
 31
0.0000000000000000
  0
LINE
  5
3C2
100
AcDbEntity
  8
MAIN0
  6
HIDDEN
 62
3
100
AcDbLine
 10
398.2082927435653
 20
676.8022961310169
 30
0.0000000000000000
 11
391.2082927435653
 21
680.8437480153443
 31
0.0000000000000000
  0
LINE
  5
3C3
100
AcDbEntity
  8
MAIN0
  6
CENTER
 62
3
100
AcDbLine
 10
355.7082927435649
 20
672.7608442466894
 30
0.0000000000000000
 11
318.7082927435656
 21
672.7608442466894
 31
0.0000000000000000
  0
LINE
  5
3C4
100
AcDbEntity
  8
MAIN0
  6
CENTER
 62
3
100
AcDbLine
 10
337.2082927435653
 20
687.3984876173546
 30
0.0000000000000000
 11
337.2082927435653
 21
654.2608442466897
 31
0.0000000000000000
  0
LINE
  5
3C5
100
AcDbEntity
  8
MAIN0
  6
CENTER
 62
3
100
AcDbLine
 10
409.7082927435652
 20
672.7608442466892
 30
0.0000000000000000
 11
372.7082927435656
 21
672.7608442466892
 31
0.0000000000000000
  0
LINE
  5
3C6
100
AcDbEntity
  8
MAIN0
  6
CENTER
 62
3
100
AcDbLine
 10
391.2082927435654
 20
691.2608442466890
 30
0.0000000000000000
 11
391.2082927435654
 21
654.2608442466894
 31
0.0000000000000000
  0
LINE
  5
3C7
100
AcDbEntity
  8
MAIN0
  6
CENTER
 62
3
100
AcDbLine
 10
364.2082927435478
 20
744.7608442466681
 30
0.0000000000000000
 11
364.2082927435478
 21
722.7608442466683
 31
0.0000000000000000
  0
CIRCLE
  5
3C8
100
AcDbEntity
  8
MAIN0
  6
HIDDEN
 62
3
100
AcDbCircle
 10
337.2082927435652
 20
794.7608442466897
 30
0.0000000000000000
 40
12.00000000000000
  0
LINE
  5
3C9
100
AcDbEntity
  8
MAIN0
  6
HIDDEN
 62
3
100
AcDbLine
 10
337.2082927435652
 20
786.6779404780349
 30
0.0000000000000000
 11
330.2082927435652
 21
790.7193923623624
 31
0.0000000000000000
  0
LINE
  5
3CA
100
AcDbEntity
  8
MAIN0
  6
HIDDEN
 62
3
100
AcDbLine
 10
330.2082927435652
 20
790.7193923623622
 30
0.0000000000000000
 11
330.2082927435652
 21
798.8022961310169
 31
0.0000000000000000
  0
LINE
  5
3CB
100
AcDbEntity
  8
MAIN0
  6
HIDDEN
 62
3
100
AcDbLine
 10
330.2082927435653
 20
798.8022961310171
 30
0.0000000000000000
 11
337.2082927435653
 21
802.8437480153445
 31
0.0000000000000000
  0
LINE
  5
3CC
100
AcDbEntity
  8
MAIN0
  6
HIDDEN
 62
3
100
AcDbLine
 10
337.2082927435652
 20
802.8437480153445
 30
0.0000000000000000
 11
344.2082927435652
 21
798.8022961310171
 31
0.0000000000000000
  0
LINE
  5
3CD
100
AcDbEntity
  8
MAIN0
  6
HIDDEN
 62
3
100
AcDbLine
 10
344.2082927435652
 20
798.8022961310169
 30
0.0000000000000000
 11
344.2082927435652
 21
790.7193923623622
 31
0.0000000000000000
  0
LINE
  5
3CE
100
AcDbEntity
  8
MAIN0
  6
HIDDEN
 62
3
100
AcDbLine
 10
344.2082927435653
 20
790.7193923623623
 30
0.0000000000000000
 11
337.2082927435653
 21
786.6779404780349
 31
0.0000000000000000
  0
CIRCLE
  5
3CF
100
AcDbEntity
  8
MAIN0
  6
HIDDEN
 62
3
100
AcDbCircle
 10
391.2082927435652
 20
794.7608442466897
 30
0.0000000000000000
 40
12.00000000000000
  0
LINE
  5
3D0
100
AcDbEntity
  8
MAIN0
  6
HIDDEN
 62
3
100
AcDbLine
 10
391.2082927435652
 20
786.6779404780350
 30
0.0000000000000000
 11
384.2082927435652
 21
790.7193923623624
 31
0.0000000000000000
  0
LINE
  5
3D1
100
AcDbEntity
  8
MAIN0
  6
HIDDEN
 62
3
100
AcDbLine
 10
384.2082927435652
 20
790.7193923623623
 30
0.0000000000000000
 11
384.2082927435652
 21
798.8022961310170
 31
0.0000000000000000
  0
LINE
  5
3D2
100
AcDbEntity
  8
MAIN0
  6
HIDDEN
 62
3
100
AcDbLine
 10
384.2082927435654
 20
798.8022961310171
 30
0.0000000000000000
 11
391.2082927435653
 21
802.8437480153445
 31
0.0000000000000000
  0
LINE
  5
3D3
100
AcDbEntity
  8
MAIN0
  6
HIDDEN
 62
3
100
AcDbLine
 10
391.2082927435652
 20
802.8437480153445
 30
0.0000000000000000
 11
398.2082927435652
 21
798.8022961310171
 31
0.0000000000000000
  0
LINE
  5
3D4
100
AcDbEntity
  8
MAIN0
  6
HIDDEN
 62
3
100
AcDbLine
 10
398.2082927435651
 20
798.8022961310170
 30
0.0000000000000000
 11
398.2082927435651
 21
790.7193923623623
 31
0.0000000000000000
  0
LINE
  5
3D5
100
AcDbEntity
  8
MAIN0
  6
HIDDEN
 62
3
100
AcDbLine
 10
398.2082927435654
 20
790.7193923623624
 30
0.0000000000000000
 11
391.2082927435653
 21
786.6779404780349
 31
0.0000000000000000
  0
LINE
  5
3D6
100
AcDbEntity
  8
MAIN0
  6
CENTER
 62
3
100
AcDbLine
 10
355.7082927435649
 20
794.7608442466897
 30
0.0000000000000000
 11
318.7082927435655
 21
794.7608442466897
 31
0.0000000000000000
  0
LINE
  5
3D7
100
AcDbEntity
  8
MAIN0
  6
CENTER
 62
3
100
AcDbLine
 10
337.2082927435652
 20
776.2608442466899
 30
0.0000000000000000
 11
337.2082927435652
 21
813.2608442466892
 31
0.0000000000000000
  0
LINE
  5
3D8
100
AcDbEntity
  8
MAIN0
  6
CENTER
 62
3
100
AcDbLine
 10
409.7082927435652
 20
794.7608442466898
 30
0.0000000000000000
 11
372.7082927435656
 21
794.7608442466898
 31
0.0000000000000000
  0
LINE
  5
3D9
100
AcDbEntity
  8
MAIN0
  6
CENTER
 62
3
100
AcDbLine
 10
391.2082927435653
 20
776.2608442466900
 30
0.0000000000000000
 11
391.2082927435653
 21
813.2608442466895
 31
0.0000000000000000
  0
LINE
  5
3DA
100
AcDbEntity
  8
MAIN0
  6
CONTINUOUS
 62
3
100
AcDbLine
 10
491.8082927435535
 20
813.7608442466894
 30
0.0000000000000000
 11
576.7082927435533
 21
813.7608442466895
 31
0.0000000000000000
  0
LINE
  5
3DB
100
AcDbEntity
  8
MAIN0
  6
CONTINUOUS
 62
3
100
AcDbLine
 10
491.8082927435534
 20
653.7608442466894
 30
0.0000000000000000
 11
576.7082927435532
 21
653.7608442466895
 31
0.0000000000000000
  0
LINE
  5
3DC
100
AcDbEntity
  8
MAIN0
  6
CENTER
 62
3
100
AcDbLine
 10
509.2082927435537
 20
692.2140575796436
 30
0.0000000000000000
 11
509.2082927435537
 21
720.3297813653669
 31
0.0000000000000000
  0
LINE
  5
3DD
100
AcDbEntity
  8
MAIN0
  6
CENTER
 62
3
100
AcDbLine
 10
523.4260425770747
 20
705.7608442464273
 30
0.0000000000000000
 11
494.6820326561906
 21
705.7608442464273
 31
0.0000000000000000
  0
LINE
  5
3DE
100
AcDbEntity
  8
MAIN0
  6
CONTINUOUS
 62
3
100
AcDbLine
 10
576.7082927435538
 20
813.7608442466892
 30
0.0000000000000000
 11
577.2082927435539
 21
813.2608442466892
 31
0.0000000000000000
  0
LINE
  5
3DF
100
AcDbEntity
  8
MAIN0
  6
CONTINUOUS
 62
3
100
AcDbLine
 10
491.8082927435542
 20
813.7608442466890
 30
0.0000000000000000
 11
491.2082927435539
 21
813.1608442466888
 31
0.0000000000000000
  0
LINE
  5
3E0
100
AcDbEntity
  8
MAIN0
  6
CONTINUOUS
 62
3
100
AcDbLine
 10
491.2082927435535
 20
654.3608442466889
 30
0.0000000000000000
 11
491.8082927435538
 21
653.7608442466885
 31
0.0000000000000000
  0
LINE
  5
3E1
100
AcDbEntity
  8
MAIN0
  6
CONTINUOUS
 62
3
100
AcDbLine
 10
577.2082927435537
 20
654.2608442466893
 30
0.0000000000000000
 11
576.7082927435536
 21
653.7608442466892
 31
0.0000000000000000
  0
CIRCLE
  5
3E2
100
AcDbEntity
  8
MAIN0
  6
CONTINUOUS
 62
3
100
AcDbCircle
 10
534.2082927435536
 20
733.8858442464273
 30
0.0000000000000000
 40
5.000000000000000
  0
CIRCLE
  5
3E3
100
AcDbEntity
  8
MAIN0
  6
CONTINUOUS
 62
3
100
AcDbCircle
 10
534.2082927435536
 20
733.8858442464273
 30
0.0000000000000000
 40
4.250000000000000
  0
LINE
  5
3E4
100
AcDbEntity
  8
MAIN0
  6
CONTINUOUS
 62
3
100
AcDbLine
 10
491.2082927435537
 20
654.6108442466891
 30
0.0000000000000000
 11
491.2082927435538
 21
813.1608442466893
 31
0.0000000000000000
  0
LINE
  5
3E5
100
AcDbEntity
  8
MAIN0
  6
CONTINUOUS
 62
3
100
AcDbLine
 10
577.2082927435540
 20
648.7608442466892
 30
0.0000000000000000
 11
577.2082927435541
 21
818.7608442466897
 31
0.0000000000000000
  0
CIRCLE
  5
3E6
100
AcDbEntity
  8
MAIN0
  6
HIDDEN
 62
3
100
AcDbCircle
 10
509.2082927435536
 20
705.7608442464273
 30
0.0000000000000000
 40
10.50000000000000
  0
LINE
  5
3E7
100
AcDbEntity
  8
MAIN0
  6
HIDDEN
 62
3
100
AcDbLine
 10
509.2082927435534
 20
712.6890474767029
 30
0.0000000000000000
 11
503.2082927435536
 21
709.2249458615651
 31
0.0000000000000000
  0
LINE
  5
3E8
100
AcDbEntity
  8
MAIN0
  6
HIDDEN
 62
3
100
AcDbLine
 10
503.2082927435536
 20
709.2249458615652
 30
0.0000000000000000
 11
503.2082927435536
 21
702.2967426312896
 31
0.0000000000000000
  0
LINE
  5
3E9
100
AcDbEntity
  8
MAIN0
  6
HIDDEN
 62
3
100
AcDbLine
 10
503.2082927435537
 20
702.2967426312895
 30
0.0000000000000000
 11
509.2082927435535
 21
698.8326410161518
 31
0.0000000000000000
  0
LINE
  5
3EA
100
AcDbEntity
  8
MAIN0
  6
HIDDEN
 62
3
100
AcDbLine
 10
509.2082927435534
 20
698.8326410161517
 30
0.0000000000000000
 11
515.2082927435536
 21
702.2967426312895
 31
0.0000000000000000
  0
LINE
  5
3EB
100
AcDbEntity
  8
MAIN0
  6
HIDDEN
 62
3
100
AcDbLine
 10
515.2082927435536
 20
702.2967426312896
 30
0.0000000000000000
 11
515.2082927435536
 21
709.2249458615652
 31
0.0000000000000000
  0
LINE
  5
3EC
100
AcDbEntity
  8
MAIN0
  6
HIDDEN
 62
3
100
AcDbLine
 10
515.2082927435536
 20
709.2249458615651
 30
0.0000000000000000
 11
509.2082927435534
 21
712.6890474767029
 31
0.0000000000000000
  0
LINE
  5
3ED
100
AcDbEntity
  8
MAIN0
  6
CENTER
 62
3
100
AcDbLine
 10
559.2082927435537
 20
692.2140575796436
 30
0.0000000000000000
 11
559.2082927435538
 21
720.3297813653669
 31
0.0000000000000000
  0
LINE
  5
3EE
100
AcDbEntity
  8
MAIN0
  6
CENTER
 62
3
100
AcDbLine
 10
544.9905429100327
 20
705.7608442464275
 30
0.0000000000000000
 11
573.7345528309168
 21
705.7608442464273
 31
0.0000000000000000
  0
CIRCLE
  5
3EF
100
AcDbEntity
  8
MAIN0
  6
HIDDEN
 62
3
100
AcDbCircle
 10
559.2082927435536
 20
705.7608442464273
 30
0.0000000000000000
 40
10.50000000000000
  0
LINE
  5
3F0
100
AcDbEntity
  8
MAIN0
  6
HIDDEN
 62
3
100
AcDbLine
 10
559.2082927435540
 20
712.6890474767031
 30
0.0000000000000000
 11
565.2082927435538
 21
709.2249458615653
 31
0.0000000000000000
  0
LINE
  5
3F1
100
AcDbEntity
  8
MAIN0
  6
HIDDEN
 62
3
100
AcDbLine
 10
565.2082927435538
 20
709.2249458615652
 30
0.0000000000000000
 11
565.2082927435538
 21
702.2967426312896
 31
0.0000000000000000
  0
LINE
  5
3F2
100
AcDbEntity
  8
MAIN0
  6
HIDDEN
 62
3
100
AcDbLine
 10
565.2082927435536
 20
702.2967426312896
 30
0.0000000000000000
 11
559.2082927435537
 21
698.8326410161519
 31
0.0000000000000000
  0
LINE
  5
3F3
100
AcDbEntity
  8
MAIN0
  6
HIDDEN
 62
3
100
AcDbLine
 10
559.2082927435539
 20
698.8326410161519
 30
0.0000000000000000
 11
553.2082927435539
 21
702.2967426312898
 31
0.0000000000000000
  0
LINE
  5
3F4
100
AcDbEntity
  8
MAIN0
  6
HIDDEN
 62
3
100
AcDbLine
 10
553.2082927435538
 20
702.2967426312897
 30
0.0000000000000000
 11
553.2082927435538
 21
709.2249458615652
 31
0.0000000000000000
  0
LINE
  5
3F5
100
AcDbEntity
  8
MAIN0
  6
HIDDEN
 62
3
100
AcDbLine
 10
553.2082927435537
 20
709.2249458615652
 30
0.0000000000000000
 11
559.2082927435538
 21
712.6890474767029
 31
0.0000000000000000
  0
LINE
  5
3F6
100
AcDbEntity
  8
MAIN0
  6
CENTER
 62
3
100
AcDbLine
 10
559.2082927435536
 20
775.3076309132097
 30
0.0000000000000000
 11
559.2082927435536
 21
747.1919071274864
 31
0.0000000000000000
  0
LINE
  5
3F7
100
AcDbEntity
  8
MAIN0
  6
CENTER
 62
3
100
AcDbLine
 10
544.9905429100323
 20
761.7608442464259
 30
0.0000000000000000
 11
573.7345528309164
 21
761.7608442464261
 31
0.0000000000000000
  0
CIRCLE
  5
3F8
100
AcDbEntity
  8
MAIN0
  6
HIDDEN
 62
3
100
AcDbCircle
 10
559.2082927435536
 20
761.7608442464261
 30
0.0000000000000000
 40
10.50000000000000
  0
LINE
  5
3F9
100
AcDbEntity
  8
MAIN0
  6
HIDDEN
 62
3
100
AcDbLine
 10
559.2082927435540
 20
754.8326410161501
 30
0.0000000000000000
 11
565.2082927435539
 21
758.2967426312878
 31
0.0000000000000000
  0
LINE
  5
3FA
100
AcDbEntity
  8
MAIN0
  6
HIDDEN
 62
3
100
AcDbLine
 10
565.2082927435534
 20
758.2967426312882
 30
0.0000000000000000
 11
565.2082927435534
 21
765.2249458615638
 31
0.0000000000000000
  0
LINE
  5
3FB
100
AcDbEntity
  8
MAIN0
  6
HIDDEN
 62
3
100
AcDbLine
 10
565.2082927435537
 20
765.2249458615638
 30
0.0000000000000000
 11
559.2082927435538
 21
768.6890474767015
 31
0.0000000000000000
  0
LINE
  5
3FC
100
AcDbEntity
  8
MAIN0
  6
HIDDEN
 62
3
100
AcDbLine
 10
559.2082927435540
 20
768.6890474767010
 30
0.0000000000000000
 11
553.2082927435540
 21
765.2249458615631
 31
0.0000000000000000
  0
LINE
  5
3FD
100
AcDbEntity
  8
MAIN0
  6
HIDDEN
 62
3
100
AcDbLine
 10
553.2082927435534
 20
765.2249458615637
 30
0.0000000000000000
 11
553.2082927435534
 21
758.2967426312882
 31
0.0000000000000000
  0
LINE
  5
3FE
100
AcDbEntity
  8
MAIN0
  6
HIDDEN
 62
3
100
AcDbLine
 10
553.2082927435538
 20
758.2967426312882
 30
0.0000000000000000
 11
559.2082927435538
 21
754.8326410161503
 31
0.0000000000000000
  0
LINE
  5
3FF
100
AcDbEntity
  8
MAIN0
  6
CENTER
 62
3
100
AcDbLine
 10
509.2082927435539
 20
775.3076309132098
 30
0.0000000000000000
 11
509.2082927435537
 21
747.1919071274865
 31
0.0000000000000000
  0
LINE
  5
400
100
AcDbEntity
  8
MAIN0
  6
CENTER
 62
3
100
AcDbLine
 10
523.4260425770752
 20
761.7608442464259
 30
0.0000000000000000
 11
494.6820326561910
 21
761.7608442464261
 31
0.0000000000000000
  0
CIRCLE
  5
401
100
AcDbEntity
  8
MAIN0
  6
HIDDEN
 62
3
100
AcDbCircle
 10
509.2082927435536
 20
761.7608442464261
 30
0.0000000000000000
 40
10.50000000000000
  0
LINE
  5
402
100
AcDbEntity
  8
MAIN0
  6
HIDDEN
 62
3
100
AcDbLine
 10
509.2082927435532
 20
754.8326410161506
 30
0.0000000000000000
 11
503.2082927435534
 21
758.2967426312883
 31
0.0000000000000000
  0
LINE
  5
403
100
AcDbEntity
  8
MAIN0
  6
HIDDEN
 62
3
100
AcDbLine
 10
503.2082927435539
 20
758.2967426312882
 30
0.0000000000000000
 11
503.2082927435539
 21
765.2249458615637
 31
0.0000000000000000
  0
LINE
  5
404
100
AcDbEntity
  8
MAIN0
  6
HIDDEN
 62
3
100
AcDbLine
 10
503.2082927435538
 20
765.2249458615643
 30
0.0000000000000000
 11
509.2082927435537
 21
768.6890474767019
 31
0.0000000000000000
  0
LINE
  5
405
100
AcDbEntity
  8
MAIN0
  6
HIDDEN
 62
3
100
AcDbLine
 10
509.2082927435533
 20
768.6890474767016
 30
0.0000000000000000
 11
515.2082927435533
 21
765.2249458615638
 31
0.0000000000000000
  0
LINE
  5
406
100
AcDbEntity
  8
MAIN0
  6
HIDDEN
 62
3
100
AcDbLine
 10
515.2082927435539
 20
765.2249458615636
 30
0.0000000000000000
 11
515.2082927435539
 21
758.2967426312881
 31
0.0000000000000000
  0
LINE
  5
407
100
AcDbEntity
  8
MAIN0
  6
HIDDEN
 62
3
100
AcDbLine
 10
515.2082927435537
 20
758.2967426312887
 30
0.0000000000000000
 11
509.2082927435536
 21
754.8326410161508
 31
0.0000000000000000
  0
LINE
  5
408
100
AcDbEntity
  8
MAIN0
  6
CENTER
 62
3
100
AcDbLine
 10
534.2082927435536
 20
744.7608442464273
 30
0.0000000000000000
 11
534.2082927435536
 21
722.7608442464273
 31
0.0000000000000000
  0
LINE
  5
409
100
AcDbEntity
  8
MAIN0
  6
CONTINUOUS
 62
3
100
AcDbLine
 10
411.2082927435572
 20
692.2608442466897
 30
0.0000000000000000
 11
491.2082927435537
 21
692.2608442466897
 31
0.0000000000000000
  0
LINE
  5
40A
100
AcDbEntity
  8
MAIN0
  6
CONTINUOUS
 62
3
100
AcDbLine
 10
411.2082927435511
 20
775.2608442466897
 30
0.0000000000000000
 11
491.2082927435538
 21
775.2608442466897
 31
0.0000000000000000
  0
CIRCLE
  5
40B
100
AcDbEntity
  8
MAIN0
  6
CONTINUOUS
 62
3
100
AcDbCircle
 10
426.2082927435284
 20
733.7608442466903
 30
0.0000000000000000
 40
3.000000000000000
  0
CIRCLE
  5
40C
100
AcDbEntity
  8
MAIN0
  6
CONTINUOUS
 62
3
100
AcDbCircle
 10
426.2082927435283
 20
733.7608442466903
 30
0.0000000000000000
 40
3.000000000000000
  0
LINE
  5
40D
100
AcDbEntity
  8
MAIN0
  6
CENTER
 62
3
100
AcDbLine
 10
426.2082927435284
 20
742.7608442466903
 30
0.0000000000000000
 11
426.2082927435284
 21
724.7608442466903
 31
0.0000000000000000
  0
LINE
  5
40E
100
AcDbEntity
  8
MAIN0
  6
CONTINUOUS
 62
3
100
AcDbLine
 10
674.2082927434703
 20
648.7608442466891
 30
0.0000000000000000
 11
674.2082927436461
 21
818.7608442466895
 31
0.0000000000000000
  0
LINE
  5
40F
100
AcDbEntity
  8
MAIN0
  6
CONTINUOUS
 62
3
100
AcDbLine
 10
726.2082927434694
 20
650.2608442466890
 30
0.0000000000000000
 11
726.2082927436410
 21
817.2608442466894
 31
0.0000000000000000
  0
LINE
  5
410
100
AcDbEntity
  8
MAIN0
  6
CONTINUOUS
 62
3
100
AcDbLine
 10
577.2082927435540
 20
818.7608442466897
 30
0.0000000000000000
 11
674.2082927436459
 21
818.7608442466897
 31
0.0000000000000000
  0
LINE
  5
411
100
AcDbEntity
  8
MAIN0
  6
CONTINUOUS
 62
3
100
AcDbLine
 10
577.2082927435540
 20
648.7608442466892
 30
0.0000000000000000
 11
674.2082927434703
 21
648.7608442466892
 31
0.0000000000000000
  0
LINE
  5
412
100
AcDbEntity
  8
MAIN0
  6
CONTINUOUS
 62
3
100
AcDbLine
 10
674.2082927436445
 20
817.2608442466894
 30
0.0000000000000000
 11
726.2082927436406
 21
817.2608442466894
 31
0.0000000000000000
  0
LINE
  5
413
100
AcDbEntity
  8
MAIN0
  6
CONTINUOUS
 62
3
100
AcDbLine
 10
674.2082927434719
 20
650.2608442466890
 30
0.0000000000000000
 11
726.2082927434692
 21
650.2608442466890
 31
0.0000000000000000
  0
LINE
  5
414
100
AcDbEntity
  8
MAIN0
  6
CONTINUOUS
 62
3
100
AcDbLine
 10
779.2082927434708
 20
651.7608442466893
 30
0.0000000000000000
 11
779.2082927436381
 21
815.7608442466897
 31
0.0000000000000000
  0
LINE
  5
415
100
AcDbEntity
  8
MAIN0
  6
CONTINUOUS
 62
3
100
AcDbLine
 10
726.2082927436393
 20
815.7608442466899
 30
0.0000000000000000
 11
779.2082927436381
 21
815.7608442466899
 31
0.0000000000000000
  0
LINE
  5
416
100
AcDbEntity
  8
MAIN0
  6
CONTINUOUS
 62
3
100
AcDbLine
 10
726.2082927434708
 20
651.7608442466894
 30
0.0000000000000000
 11
779.2082927434706
 21
651.7608442466894
 31
0.0000000000000000
  0
LINE
  5
417
100
AcDbEntity
  8
MAIN0
  6
CONTINUOUS
 62
3
100
AcDbLine
 10
779.2082927436368
 20
814.2608442466899
 30
0.0000000000000000
 11
821.2082927443109
 21
814.2608442466899
 31
0.0000000000000000
  0
LINE
  5
418
100
AcDbEntity
  8
MAIN0
  6
CONTINUOUS
 62
3
100
AcDbLine
 10
779.2082927434726
 20
653.2608442466897
 30
0.0000000000000000
 11
821.2082927441502
 21
653.2608442466897
 31
0.0000000000000000
  0
LINE
  5
419
100
AcDbEntity
  8
MAIN0
  6
CONTINUOUS
 62
3
100
AcDbLine
 10
827.2082927442169
 20
720.2979322283532
 30
0.0000000000000000
 11
824.2082927442264
 21
720.2979322283657
 31
0.0000000000000000
  0
LINE
  5
41A
100
AcDbEntity
  8
MAIN0
  6
CONTINUOUS
 62
3
100
AcDbLine
 10
827.2082927442434
 20
747.2237562633125
 30
0.0000000000000000
 11
824.2082927442345
 21
747.2237562633250
 31
0.0000000000000000
  0
LINE
  5
41B
100
AcDbEntity
  8
MAIN0
  6
CONTINUOUS
 62
3
100
AcDbLine
 10
827.2082927441927
 20
696.2608442465546
 30
0.0000000000000000
 11
824.2082927441900
 21
696.2608442465546
 31
0.0000000000000000
  0
LINE
  5
41C
100
AcDbEntity
  8
MAIN0
  6
CONTINUOUS
 62
3
100
AcDbLine
 10
827.2082927442677
 20
771.2608442465544
 30
0.0000000000000000
 11
824.2082927442712
 21
771.2608442465544
 31
0.0000000000000000
  0
LINE
  5
41D
100
AcDbEntity
  8
MAIN0
  6
CONTINUOUS
 62
3
100
AcDbLine
 10
827.2082927441927
 20
696.2608442465544
 30
0.0000000000000000
 11
827.2082927442677
 21
771.2608442465546
 31
0.0000000000000000
  0
LINE
  5
41E
100
AcDbEntity
  8
MAIN0
  6
CONTINUOUS
 62
3
100
AcDbLine
 10
821.2082927441501
 20
653.2608442466899
 30
0.0000000000000000
 11
821.2082927442141
 21
717.2979322283686
 31
0.0000000000000000
  0
LINE
  5
41F
100
AcDbEntity
  8
MAIN0
  6
CONTINUOUS
 62
3
100
AcDbLine
 10
821.2082927442471
 20
750.2237562633279
 30
0.0000000000000000
 11
821.2082927443112
 21
814.2608442466901
 31
0.0000000000000000
  0
LINE
  5
420
100
AcDbEntity
  8
MAIN0
  6
CONTINUOUS
 62
3
100
AcDbLine
 10
852.2082927436005
 20
695.3608442467360
 30
0.0000000000000000
 11
852.2082927435092
 21
772.1608442467355
 31
0.0000000000000000
  0
LINE
  5
421
100
AcDbEntity
  8
MAIN0
  6
CONTINUOUS
 62
3
100
AcDbLine
 10
851.6082927435546
 20
694.7608442466897
 30
0.0000000000000000
 11
842.2082927435549
 21
694.7608442466897
 31
0.0000000000000000
  0
LINE
  5
422
100
AcDbEntity
  8
MAIN0
  6
CONTINUOUS
 62
3
100
AcDbLine
 10
840.2082927435865
 20
696.7608442466901
 30
0.0000000000000000
 11
842.2082927435549
 21
694.7608442466897
 31
0.0000000000000000
  0
LINE
  5
423
100
AcDbEntity
  8
MAIN0
  6
CONTINUOUS
 62
3
100
AcDbLine
 10
851.6082927435548
 20
694.7608442466893
 30
0.0000000000000000
 11
852.2082927435548
 21
695.3608442466893
 31
0.0000000000000000
  0
LINE
  5
424
100
AcDbEntity
  8
MAIN0
  6
CONTINUOUS
 62
3
100
AcDbLine
 10
851.6082927435544
 20
772.7608442466899
 30
0.0000000000000000
 11
842.2082927435549
 21
772.7608442466899
 31
0.0000000000000000
  0
LINE
  5
425
100
AcDbEntity
  8
MAIN0
  6
CONTINUOUS
 62
3
100
AcDbLine
 10
840.2082927435863
 20
770.7608442466890
 30
0.0000000000000000
 11
842.2082927435546
 21
772.7608442466894
 31
0.0000000000000000
  0
LINE
  5
426
100
AcDbEntity
  8
MAIN0
  6
CONTINUOUS
 62
3
100
AcDbLine
 10
851.6082927435547
 20
772.7608442466903
 30
0.0000000000000000
 11
852.2082927435548
 21
772.1608442466902
 31
0.0000000000000000
  0
LINE
  5
427
100
AcDbEntity
  8
MAIN0
  6
CONTINUOUS
 62
3
100
AcDbLine
 10
827.2082927442671
 20
770.7608442466899
 30
0.0000000000000000
 11
840.2082927435865
 21
770.7608442466899
 31
0.0000000000000000
  0
LINE
  5
428
100
AcDbEntity
  8
MAIN0
  6
CONTINUOUS
 62
3
100
AcDbLine
 10
827.2082927441932
 20
696.7608442466897
 30
0.0000000000000000
 11
840.2082927435870
 21
696.7608442466897
 31
0.0000000000000000
  0
LINE
  5
429
100
AcDbEntity
  8
MAIN0
  6
CONTINUOUS
 62
3
100
AcDbLine
 10
871.2082927435549
 20
758.7608442466899
 30
0.0000000000000000
 11
852.2082927435554
 21
758.7608442466899
 31
0.0000000000000000
  0
LINE
  5
42A
100
AcDbEntity
  8
MAIN0
  6
CONTINUOUS
 62
3
100
AcDbLine
 10
871.2082927435550
 20
758.7608442466900
 30
0.0000000000000000
 11
871.2082927435550
 21
708.7608442466899
 31
0.0000000000000000
  0
LINE
  5
42B
100
AcDbEntity
  8
MAIN0
  6
CONTINUOUS
 62
3
100
AcDbLine
 10
871.2082927435549
 20
708.7608442466899
 30
0.0000000000000000
 11
852.2082927435554
 21
708.7608442466899
 31
0.0000000000000000
  0
LINE
  5
42C
100
AcDbEntity
  8
MAIN0
  6
CONTINUOUS
 62
3
100
AcDbLine
 10
852.2082927435750
 20
716.5561937096868
 30
0.0000000000000000
 11
842.2082927436237
 21
716.5561937097291
 31
0.0000000000000000
  0
LINE
  5
42D
100
AcDbEntity
  8
MAIN0
  6
CONTINUOUS
 62
3
100
AcDbLine
 10
840.2082927436481
 20
721.7608442427686
 30
0.0000000000000000
 11
827.2082927442177
 21
721.7608442427911
 31
0.0000000000000000
  0
LINE
  5
42E
100
AcDbEntity
  8
MAIN0
  6
CONTINUOUS
 62
3
100
AcDbLine
 10
840.2082927436181
 20
745.7608442508854
 30
0.0000000000000000
 11
827.2082927442420
 21
745.7608442508465
 31
0.0000000000000000
  0
LINE
  5
42F
100
AcDbEntity
  8
MAIN0
  6
CONTINUOUS
 62
3
100
AcDbLine
 10
852.2082927435348
 20
750.9654947836873
 30
0.0000000000000000
 11
842.2082927435820
 21
750.9654947836772
 31
0.0000000000000000
  0
LINE
  5
430
100
AcDbEntity
  8
MAIN0
  6
CONTINUOUS
 62
3
100
AcDbLine
 10
840.2082927436180
 20
745.7608442508852
 30
0.0000000000000000
 11
842.2082927435815
 21
750.9654947836770
 31
0.0000000000000000
  0
LINE
  5
431
100
AcDbEntity
  8
MAIN0
  6
CONTINUOUS
 62
3
100
AcDbLine
 10
840.2082927436484
 20
721.7608442427686
 30
0.0000000000000000
 11
842.2082927436240
 21
716.5561937097293
 31
0.0000000000000000
  0
LINE
  5
432
100
AcDbEntity
  8
MAIN0
  6
CONTINUOUS
 62
3
100
AcDbLine
 10
842.2082927436507
 20
694.7608442466897
 30
0.0000000000000000
 11
842.2082927436238
 21
716.5561937097291
 31
0.0000000000000000
  0
LINE
  5
433
100
AcDbEntity
  8
MAIN0
  6
CONTINUOUS
 62
3
100
AcDbLine
 10
842.2082927435818
 20
750.9654947836772
 30
0.0000000000000000
 11
842.2082927435552
 21
772.7608442466899
 31
0.0000000000000000
  0
LINE
  5
434
100
AcDbEntity
  8
MAIN0
  6
CONTINUOUS
 62
3
100
AcDbLine
 10
840.2082927436794
 20
696.7608442466894
 30
0.0000000000000000
 11
840.2082927436483
 21
721.7608442427684
 31
0.0000000000000000
  0
LINE
  5
435
100
AcDbEntity
  8
MAIN0
  6
CONTINUOUS
 62
3
100
AcDbLine
 10
840.2082927436184
 20
745.7608442508854
 30
0.0000000000000000
 11
840.2082927435872
 21
770.7608442466894
 31
0.0000000000000000
  0
LINE
  5
436
100
AcDbEntity
  8
MAIN0
  6
CONTINUOUS
 62
3
100
AcDbLine
 10
821.2082927441661
 20
669.2608442498837
 30
0.0000000000000000
 11
779.2082927434888
 21
669.2608442500593
 31
0.0000000000000000
  0
LINE
  5
437
100
AcDbEntity
  8
MAIN0
  6
CONTINUOUS
 62
3
100
AcDbLine
 10
821.2082927442950
 20
798.2608442457749
 30
0.0000000000000000
 11
779.2082927436203
 21
798.2608442456873
 31
0.0000000000000000
  0
ARC
  5
438
100
AcDbEntity
  8
MAIN0
  6
CONTINUOUS
 62
3
100
AcDbCircle
 10
824.2082927442712
 20
774.2608442465544
 30
0.0000000000000000
 40
3.000000000000000
100
AcDbArc
 50
180.0000000000000
 51
270.0000000000000
  0
ARC
  5
439
100
AcDbEntity
  8
MAIN0
  6
CONTINUOUS
 62
3
100
AcDbCircle
 10
824.2082927441900
 20
693.2608442465546
 30
0.0000000000000000
 40
3.000000000000000
100
AcDbArc
 50
90.00000000000000
 51
180.0000000000000
  0
ARC
  5
43A
100
AcDbEntity
  8
MAIN0
  6
CONTINUOUS
 62
3
100
AcDbCircle
 10
824.2082927442471
 20
750.2237562633250
 30
0.0000000000000000
 40
3.000000000000000
100
AcDbArc
 50
180.0000000000000
 51
270.0000000000000
  0
ARC
  5
43B
100
AcDbEntity
  8
MAIN0
  6
CONTINUOUS
 62
3
100
AcDbCircle
 10
824.2082927442139
 20
717.2979322283657
 30
0.0000000000000000
 40
3.000000000000000
100
AcDbArc
 50
90.00000000000000
 51
180.0000000000000
  0
LINE
  5
43C
100
AcDbEntity
  8
MAIN0
  6
CENTER
 62
3
100
AcDbLine
 10
309.5837984774436
 20
733.7608442466894
 30
0.0000000000000000
 11
594.2434917506409
 21
733.7608442466897
 31
0.0000000000000000
  0
LINE
  5
43D
100
AcDbEntity
  8
MAIN0
  6
CENTER
 62
3
100
AcDbLine
 10
612.5434914645387
 20
733.7608442466897
 30
0.0000000000000000
 11
886.3721633505835
 21
733.7608442466899
 31
0.0000000000000000
  0
LINE
  5
43E
100
AcDbEntity
  8
MAIN0
  6
CONTINUOUS
 62
3
100
AcDbLine
 10
317.2082927435547
 20
480.1883230178265
 30
0.0000000000000000
 11
317.2082927435549
 21
420.1883230178265
 31
0.0000000000000000
  0
LINE
  5
43F
100
AcDbEntity
  8
MAIN0
  6
CONTINUOUS
 62
3
100
AcDbLine
 10
470.2082927435549
 20
315.1883230178266
 30
0.0000000000000000
 11
470.2082927435549
 21
325.1883230178265
 31
0.0000000000000000
  0
LINE
  5
440
100
AcDbEntity
  8
MAIN0
  6
CONTINUOUS
 62
3
100
AcDbLine
 10
452.2082927435549
 20
325.1883230178265
 30
0.0000000000000000
 11
452.2082927435549
 21
315.1883230178266
 31
0.0000000000000000
  0
LINE
  5
441
100
AcDbEntity
  8
MAIN0
  6
CONTINUOUS
 62
3
100
AcDbLine
 10
452.2082927435549
 20
320.1883230178266
 30
0.0000000000000000
 11
316.2082927435549
 21
320.1883230178266
 31
0.0000000000000000
  0
LINE
  5
442
100
AcDbEntity
  8
MAIN0
  6
CONTINUOUS
 62
3
100
AcDbLine
 10
776.2082927435554
 20
320.1883230178268
 30
0.0000000000000000
 11
470.2082927435549
 21
320.1883230178268
 31
0.0000000000000000
  0
LINE
  5
443
100
AcDbEntity
  8
MAIN0
  6
CONTINUOUS
 62
3
100
AcDbLine
 10
470.2082927435549
 20
325.1883230178266
 30
0.0000000000000000
 11
452.2082927435549
 21
325.1883230178266
 31
0.0000000000000000
  0
LINE
  5
444
100
AcDbEntity
  8
MAIN0
  6
CONTINUOUS
 62
3
100
AcDbLine
 10
316.2082927435548
 20
420.1883230178266
 30
0.0000000000000000
 11
316.2082927435550
 21
320.1883230178267
 31
0.0000000000000000
  0
LINE
  5
445
100
AcDbEntity
  8
MAIN0
  6
CONTINUOUS
 62
3
100
AcDbLine
 10
352.2082927435549
 20
420.1883230178266
 30
0.0000000000000000
 11
352.2082927435549
 21
411.1883230177960
 31
0.0000000000000000
  0
LINE
  5
446
100
AcDbEntity
  8
MAIN0
  6
CONTINUOUS
 62
3
100
AcDbLine
 10
376.2082927435549
 20
420.1883230178265
 30
0.0000000000000000
 11
376.2082927435549
 21
411.1883230178007
 31
0.0000000000000000
  0
LINE
  5
447
100
AcDbEntity
  8
MAIN0
  6
CONTINUOUS
 62
3
100
AcDbLine
 10
352.2082927435549
 20
420.1883230178266
 30
0.0000000000000000
 11
316.2082927435547
 21
420.1883230178266
 31
0.0000000000000000
  0
LINE
  5
448
100
AcDbEntity
  8
MAIN0
  6
CONTINUOUS
 62
3
100
AcDbLine
 10
399.2082927435547
 20
420.1883230178266
 30
0.0000000000000000
 11
376.2082927435549
 21
420.1883230178266
 31
0.0000000000000000
  0
LINE
  5
449
100
AcDbEntity
  8
MAIN0
  6
CONTINUOUS
 62
3
100
AcDbLine
 10
673.2082927435647
 20
441.3883230178265
 30
0.0000000000000000
 11
578.8082927435546
 21
441.3883230178265
 31
0.0000000000000000
  0
ARC
  5
44A
100
AcDbEntity
  8
MAIN0
  6
CONTINUOUS
 62
3
100
AcDbCircle
 10
673.2082927435547
 20
440.3883230178265
 30
0.0000000000000000
 40
1.000000000000000
100
AcDbArc
 50
0.0000000000000000
 51
89.99999999942553
  0
ARC
  5
44B
100
AcDbEntity
  8
MAIN0
  6
CONTINUOUS
 62
3
100
AcDbCircle
 10
578.8082927435546
 20
439.7883230178265
 30
0.0000000000000000
 40
1.600000000000000
100
AcDbArc
 50
89.99999999942553
 51
179.9999999999964
  0
LINE
  5
44C
100
AcDbEntity
  8
MAIN0
  6
CONTINUOUS
 62
3
100
AcDbLine
 10
577.2082927435549
 20
391.8883230178167
 30
0.0000000000000000
 11
577.2082927435547
 21
480.1883230178268
 31
0.0000000000000000
  0
LINE
  5
44D
100
AcDbEntity
  8
MAIN0
  6
CONTINUOUS
 62
3
100
AcDbLine
 10
674.2082927435548
 20
440.3883230178265
 30
0.0000000000000000
 11
674.2082927435542
 21
391.8883230178167
 31
0.0000000000000000
  0
LINE
  5
44E
100
AcDbEntity
  8
MAIN0
  6
CENTER
 62
3
100
AcDbLine
 10
881.2865966435986
 20
385.1883230178266
 30
0.0000000000000000
 11
796.8793648033618
 21
385.1883230178266
 31
0.0000000000000000
  0
LINE
  5
44F
100
AcDbEntity
  8
MAIN0
  6
CONTINUOUS
 62
3
100
AcDbLine
 10
470.2082927435549
 20
315.1883230178266
 30
0.0000000000000000
 11
452.2082927435549
 21
315.1883230178266
 31
0.0000000000000000
  0
ARC
  5
450
100
AcDbEntity
  8
MAIN0
  6
CONTINUOUS
 62
3
100
AcDbCircle
 10
725.2082927435549
 20
430.3883230178265
 30
0.0000000000000000
 40
1.000000000000000
100
AcDbArc
 50
0.0000000000000000
 51
89.99999999942553
  0
LINE
  5
451
100
AcDbEntity
  8
MAIN0
  6
CONTINUOUS
 62
3
100
AcDbLine
 10
726.2082927435549
 20
430.3883243834108
 30
0.0000000000000000
 11
726.2082927435549
 21
391.8883230178168
 31
0.0000000000000000
  0
LINE
  5
452
100
AcDbEntity
  8
MAIN0
  6
CONTINUOUS
 62
3
100
AcDbLine
 10
779.2082927435547
 20
421.3883230178265
 30
0.0000000000000000
 11
779.2082927435547
 21
393.8883230178168
 31
0.0000000000000000
  0
LINE
  5
453
100
AcDbEntity
  8
MAIN0
  6
CONTINUOUS
 62
3
100
AcDbLine
 10
674.2082927435547
 20
431.3883230178265
 30
0.0000000000000000
 11
725.2082927435649
 21
431.3883230178265
 31
0.0000000000000000
  0
LINE
  5
454
100
AcDbEntity
  8
MAIN0
  6
CONTINUOUS
 62
3
100
AcDbLine
 10
726.2082927435549
 20
421.3883230178265
 30
0.0000000000000000
 11
779.2082927435547
 21
421.3883230178265
 31
0.0000000000000000
  0
LINE
  5
455
100
AcDbEntity
  8
MAIN0
  6
CONTINUOUS
 62
3
100
AcDbLine
 10
871.2082927435547
 20
410.1883230178265
 30
0.0000000000000000
 11
852.2082927435554
 21
410.1883230178265
 31
0.0000000000000000
  0
LINE
  5
456
100
AcDbEntity
  8
MAIN0
  6
CONTINUOUS
 62
3
100
AcDbLine
 10
871.2082927435549
 20
410.1883230178266
 30
0.0000000000000000
 11
871.2082927435548
 21
360.1883230178266
 31
0.0000000000000000
  0
LINE
  5
457
100
AcDbEntity
  8
MAIN0
  6
CONTINUOUS
 62
3
100
AcDbLine
 10
776.2082927435553
 20
320.1883230178264
 30
0.0000000000000000
 11
776.2082927435552
 21
393.8883230178168
 31
0.0000000000000000
  0
LINE
  5
458
100
AcDbEntity
  8
MAIN0
  6
CONTINUOUS
 62
3
100
AcDbLine
 10
871.2082927435547
 20
360.1883230178265
 30
0.0000000000000000
 11
852.2082927435554
 21
360.1883230178265
 31
0.0000000000000000
  0
LINE
  5
459
100
AcDbEntity
  8
MAIN0
  6
CONTINUOUS
 62
3
100
AcDbLine
 10
776.2082927435549
 20
343.1883230178264
 30
0.0000000000000000
 11
797.8566461992218
 21
343.1883230178264
 31
0.0000000000000000
  0
LINE
  5
45A
100
AcDbEntity
  8
MAIN0
  6
CONTINUOUS
 62
3
100
AcDbLine
 10
779.2082927435547
 20
420.1883230178269
 30
0.0000000000000000
 11
827.2082927435552
 21
420.1883230178268
 31
0.0000000000000000
  0
LINE
  5
45B
100
AcDbEntity
  8
MAIN0
  6
CONTINUOUS
 62
3
100
AcDbLine
 10
826.6082927435550
 20
347.6883230179464
 30
0.0000000000000000
 11
821.2082927435549
 21
347.6883230179500
 31
0.0000000000000000
  0
LINE
  5
45C
100
AcDbEntity
  8
MAIN0
  6
CONTINUOUS
 62
3
100
AcDbLine
 10
826.6082927435552
 20
347.6883230179467
 30
0.0000000000000000
 11
827.2082927435550
 21
348.2883230179460
 31
0.0000000000000000
  0
LINE
  5
45D
100
AcDbEntity
  8
MAIN0
  6
CONTINUOUS
 62
3
100
AcDbLine
 10
827.2082927435547
 20
348.1883230178266
 30
0.0000000000000000
 11
827.2082927435550
 21
420.1883230178268
 31
0.0000000000000000
  0
LINE
  5
45E
100
AcDbEntity
  8
MAIN0
  6
CONTINUOUS
 62
3
100
AcDbLine
 10
851.6082927435548
 20
346.1883230178264
 30
0.0000000000000000
 11
842.2082927435552
 21
346.1883230178264
 31
0.0000000000000000
  0
LINE
  5
45F
100
AcDbEntity
  8
MAIN0
  6
CONTINUOUS
 62
3
100
AcDbLine
 10
840.2082927435868
 20
348.1883230178270
 30
0.0000000000000000
 11
842.2082927435552
 21
346.1883230178265
 31
0.0000000000000000
  0
LINE
  5
460
100
AcDbEntity
  8
MAIN0
  6
CONTINUOUS
 62
3
100
AcDbLine
 10
840.2082927435870
 20
348.1883230178268
 30
0.0000000000000000
 11
827.2082927435545
 21
348.1883230178268
 31
0.0000000000000000
  0
LINE
  5
461
100
AcDbEntity
  8
MAIN0
  6
CONTINUOUS
 62
3
100
AcDbLine
 10
827.2082927435549
 20
420.1883230178273
 30
0.0000000000000000
 11
851.6082927435548
 21
420.1883230178273
 31
0.0000000000000000
  0
LINE
  5
462
100
AcDbEntity
  8
MAIN0
  6
CONTINUOUS
 62
3
100
AcDbLine
 10
852.2082927435547
 20
346.7883230178263
 30
0.0000000000000000
 11
852.2082927435547
 21
419.5883230178271
 31
0.0000000000000000
  0
LINE
  5
463
100
AcDbEntity
  8
MAIN0
  6
CONTINUOUS
 62
3
100
AcDbLine
 10
851.6082927435550
 20
420.1883230178272
 30
0.0000000000000000
 11
852.2082927435549
 21
419.5883230178273
 31
0.0000000000000000
  0
LINE
  5
464
100
AcDbEntity
  8
MAIN0
  6
CONTINUOUS
 62
3
100
AcDbLine
 10
851.6082927435549
 20
346.1883230178260
 30
0.0000000000000000
 11
852.2082927435549
 21
346.7883230178261
 31
0.0000000000000000
  0
LINE
  5
465
100
AcDbEntity
  8
MAIN0
  6
CONTINUOUS
 62
3
100
AcDbLine
 10
317.2082927435547
 20
480.1883230178266
 30
0.0000000000000000
 11
411.2082927435545
 21
480.1883230178266
 31
0.0000000000000000
  0
LINE
  5
466
100
AcDbEntity
  8
MAIN0
  6
CONTINUOUS
 62
3
100
AcDbLine
 10
491.2082927435545
 20
480.1883230178266
 30
0.0000000000000000
 11
577.2082927435547
 21
480.1883230178266
 31
0.0000000000000000
  0
LINE
  5
467
100
AcDbEntity
  8
MAIN0
  6
CONTINUOUS
 62
3
100
AcDbLine
 10
411.2082927435546
 20
480.1883230178266
 30
0.0000000000000000
 11
411.2082927435548
 21
420.1883230178266
 31
0.0000000000000000
  0
LINE
  5
468
100
AcDbEntity
  8
MAIN0
  6
CONTINUOUS
 62
3
100
AcDbLine
 10
491.2082927435545
 20
480.1883230178269
 30
0.0000000000000000
 11
491.2082927435546
 21
420.1883230178267
 31
0.0000000000000000
  0
LINE
  5
469
100
AcDbEntity
  8
MAIN0
  6
CONTINUOUS
 62
3
100
AcDbLine
 10
376.2082927435549
 20
412.1883230178008
 30
0.0000000000000000
 11
352.2082927435549
 21
412.1883230177969
 31
0.0000000000000000
  0
LINE
  5
46A
100
AcDbEntity
  8
MAIN0
  6
CONTINUOUS
 62
3
100
AcDbLine
 10
376.2082927435549
 20
411.1883230178008
 30
0.0000000000000000
 11
352.2082927435548
 21
411.1883230177969
 31
0.0000000000000000
  0
LINE
  5
46B
100
AcDbEntity
  8
MAIN0
  6
CENTER
 62
3
100
AcDbLine
 10
374.2082927433623
 20
450.1883230178267
 30
0.0000000000000000
 11
354.2082927433623
 21
450.1883230178267
 31
0.0000000000000000
  0
LINE
  5
46C
100
AcDbEntity
  8
MAIN0
  6
CENTER
 62
3
100
AcDbLine
 10
374.2082927433623
 20
470.1883230178267
 30
0.0000000000000000
 11
354.2082927433623
 21
470.1883230178267
 31
0.0000000000000000
  0
LINE
  5
46D
100
AcDbEntity
  8
MAIN0
  6
CENTER
 62
3
100
AcDbLine
 10
364.2082927433623
 20
440.1883230178267
 30
0.0000000000000000
 11
364.2082927433623
 21
480.1883230178267
 31
0.0000000000000000
  0
LINE
  5
46E
100
AcDbEntity
  8
MAIN0
  6
CONTINUOUS
 62
3
100
AcDbLine
 10
840.2082927435868
 20
348.1883230178267
 30
0.0000000000000000
 11
840.2082927436559
 21
420.1883230178270
 31
0.0000000000000000
  0
LINE
  5
46F
100
AcDbEntity
  8
MAIN0
  6
CONTINUOUS
 62
3
100
AcDbLine
 10
842.2082927435552
 20
346.1883230178264
 30
0.0000000000000000
 11
842.2082927437858
 21
420.1883230178273
 31
0.0000000000000000
  0
CIRCLE
  5
470
100
AcDbEntity
  8
MAIN0
  6
CONTINUOUS
 62
3
100
AcDbCircle
 10
401.2082927435550
 20
368.6883230152453
 30
0.0000000000000000
 40
5.000000000000000
  0
CIRCLE
  5
471
100
AcDbEntity
  8
MAIN0
  6
CONTINUOUS
 62
3
100
AcDbCircle
 10
401.2082927435550
 20
368.6883230152453
 30
0.0000000000000000
 40
4.250000000000000
  0
LINE
  5
472
100
AcDbEntity
  8
MAIN0
  6
CENTER
 62
3
100
AcDbLine
 10
401.2082927435550
 20
377.6883230152453
 30
0.0000000000000000
 11
401.2082927435550
 21
359.6883230152453
 31
0.0000000000000000
  0
LINE
  5
473
100
AcDbEntity
  8
MAIN0
  6
CENTER
 62
3
100
AcDbLine
 10
410.2082927435550
 20
368.6883230152453
 30
0.0000000000000000
 11
392.2082927435550
 21
368.6883230152453
 31
0.0000000000000000
  0
CIRCLE
  5
474
100
AcDbEntity
  8
MAIN0
  6
CONTINUOUS
 62
3
100
AcDbCircle
 10
691.2082927435552
 20
368.6883230152453
 30
0.0000000000000000
 40
5.000000000000000
  0
CIRCLE
  5
475
100
AcDbEntity
  8
MAIN0
  6
CONTINUOUS
 62
3
100
AcDbCircle
 10
691.2082927435552
 20
368.6883230152453
 30
0.0000000000000000
 40
4.250000000000000
  0
LINE
  5
476
100
AcDbEntity
  8
MAIN0
  6
CENTER
 62
3
100
AcDbLine
 10
691.2082927435552
 20
377.6883230152453
 30
0.0000000000000000
 11
691.2082927435552
 21
359.6883230152453
 31
0.0000000000000000
  0
LINE
  5
477
100
AcDbEntity
  8
MAIN0
  6
CENTER
 62
3
100
AcDbLine
 10
700.2082927435552
 20
368.6883230152453
 30
0.0000000000000000
 11
682.2082927435552
 21
368.6883230152453
 31
0.0000000000000000
  0
LINE
  5
478
100
AcDbEntity
  8
MAIN0
  6
CONTINUOUS
 62
3
100
AcDbLine
 10
399.2082927435548
 20
420.1883230178265
 30
0.0000000000000000
 11
577.2082927435549
 21
420.1883230178266
 31
0.0000000000000000
  0
LINE
  5
479
100
AcDbEntity
  8
MAIN0
  6
CONTINUOUS
 62
3
100
AcDbLine
 10
726.2082927435549
 20
393.8883230178167
 30
0.0000000000000000
 11
779.2082927435549
 21
393.8883230178167
 31
0.0000000000000000
  0
LINE
  5
47A
100
AcDbEntity
  8
MAIN0
  6
CONTINUOUS
 62
3
100
AcDbLine
 10
316.2082927435550
 20
341.1883230182926
 30
0.0000000000000000
 11
645.9082930296574
 21
341.1883230182926
 31
0.0000000000000000
  0
LINE
  5
47B
100
AcDbEntity
  8
MAIN0
  6
CONTINUOUS
 62
3
100
AcDbLine
 10
664.2082927435552
 20
341.1883230182926
 30
0.0000000000000000
 11
776.2082927435552
 21
341.1883230182926
 31
0.0000000000000000
  0
LINE
  5
47C
100
AcDbEntity
  8
MAIN0
  6
CENTER
 62
3
100
AcDbLine
 10
461.2082927434059
 20
307.1883230178265
 30
0.0000000000000000
 11
461.2082927433787
 21
333.1883230178266
 31
0.0000000000000000
  0
LINE
  5
47D
100
AcDbEntity
  8
MAIN0
  6
CONTINUOUS
 62
3
100
AcDbLine
 10
316.2082927435548
 20
396.1883230182920
 30
0.0000000000000000
 11
577.2082927435549
 21
396.1883230182922
 31
0.0000000000000000
  0
LINE
  5
47E
100
AcDbEntity
  8
MAIN0
  6
CONTINUOUS
 62
3
100
AcDbLine
 10
821.2082927435549
 20
373.0657765123376
 30
0.0000000000000000
 11
821.2082927435547
 21
420.1883230178269
 31
0.0000000000000000
  0
LINE
  5
47F
100
AcDbEntity
  8
MAIN0
  6
CONTINUOUS
 62
3
100
AcDbLine
 10
821.2082927435546
 20
404.1883230178259
 30
0.0000000000000000
 11
779.2082927435547
 21
404.1883230178256
 31
0.0000000000000000
  0
LINE
  5
480
100
AcDbEntity
  8
MAIN0
  6
CONTINUOUS
 62
3
100
AcDbLine
 10
821.2082927435547
 20
392.6883230178259
 30
0.0000000000000000
 11
776.2082927435547
 21
392.6883230178256
 31
0.0000000000000000
  0
LINE
  5
481
100
AcDbEntity
  8
MAIN0
  6
CONTINUOUS
 62
3
100
AcDbLine
 10
819.2082927438253
 20
385.9189349018366
 30
0.0000000000000000
 11
803.2082927435351
 21
385.9189349018363
 31
0.0000000000000000
  0
LINE
  5
482
100
AcDbEntity
  8
MAIN0
  6
CONTINUOUS
 62
3
100
AcDbLine
 10
779.2082927435548
 20
396.1883230178272
 30
0.0000000000000000
 11
821.2082927435548
 21
396.1883230178273
 31
0.0000000000000000
  0
LINE
  5
483
100
AcDbEntity
  8
MAIN0
  6
CONTINUOUS
 62
3
100
AcDbLine
 10
799.2082927435350
 20
388.6883230178258
 30
0.0000000000000000
 11
776.2082927435548
 21
388.6883230178257
 31
0.0000000000000000
  0
LINE
  5
484
100
AcDbEntity
  8
MAIN0
  6
CONTINUOUS
 62
3
100
AcDbLine
 10
801.2082927435552
 20
348.1883230178268
 30
0.0000000000000000
 11
801.2082927435550
 21
390.6883230178258
 31
0.0000000000000000
  0
LINE
  5
485
100
AcDbEntity
  8
MAIN0
  6
CONTINUOUS
 62
3
100
AcDbLine
 10
799.2082927435549
 20
362.3902967874337
 30
0.0000000000000000
 11
776.2082927435549
 21
362.3902967874291
 31
0.0000000000000000
  0
ARC
  5
486
100
AcDbEntity
  8
MAIN0
  6
CONTINUOUS
 62
3
100
AcDbCircle
 10
796.2082927435549
 20
348.1883230178268
 30
0.0000000000000000
 40
5.000000000000000
100
AcDbArc
 50
270.0000000000003
 51
360.0000000000004
  0
ARC
  5
487
100
AcDbEntity
  8
MAIN0
  6
CONTINUOUS
 62
3
100
AcDbCircle
 10
797.8566461992218
 20
348.1883230178268
 30
0.0000000000000000
 40
5.000000000000000
100
AcDbArc
 50
270.0000000000003
 51
326.6329870316860
  0
ARC
  5
488
100
AcDbEntity
  8
MAIN0
  6
CONTINUOUS
 62
3
100
AcDbCircle
 10
806.2082927435552
 20
342.6883230179605
 30
0.0000000000000000
 40
5.000000000000000
100
AcDbArc
 50
90.00000000000037
 51
146.6329870316858
  0
LINE
  5
489
100
AcDbEntity
  8
MAIN0
  6
CONTINUOUS
 62
3
100
AcDbLine
 10
826.6082927435550
 20
347.6883230179469
 30
0.0000000000000000
 11
806.2082927435581
 21
347.6883230179605
 31
0.0000000000000000
  0
LINE
  5
48A
100
AcDbEntity
  8
MAIN0
  6
CONTINUOUS
 62
3
100
AcDbLine
 10
577.2082927435549
 20
391.8883230178167
 30
0.0000000000000000
 11
645.9082930296576
 21
391.8883230178167
 31
0.0000000000000000
  0
LINE
  5
48B
100
AcDbEntity
  8
MAIN0
  6
CONTINUOUS
 62
3
100
AcDbLine
 10
664.2082927435553
 20
391.8883230178167
 30
0.0000000000000000
 11
726.2082927435549
 21
391.8883230178167
 31
0.0000000000000000
  0
CIRCLE
  5
48C
100
AcDbEntity
  8
MAIN0
  6
CONTINUOUS
 62
3
100
AcDbCircle
 10
1169.998718284114
 20
385.1883230178267
 30
0.0000000000000000
 40
4.250000000000000
  0
LINE
  5
48D
100
AcDbEntity
  8
MAIN0
  6
CENTER
 62
3
100
AcDbLine
 10
1169.998718284114
 20
391.1612597320664
 30
0.0000000000000000
 11
1169.998718284114
 21
378.9267950091774
 31
0.0000000000000000
  0
LINE
  5
48E
100
AcDbEntity
  8
MAIN0
  6
CONTINUOUS
 62
3
100
AcDbLine
 10
1167.998718284115
 20
386.3430235562062
 30
0.0000000000000000
 11
1169.998718284115
 21
387.4977240945855
 31
0.0000000000000000
  0
LINE
  5
48F
100
AcDbEntity
  8
MAIN0
  6
CONTINUOUS
 62
3
100
AcDbLine
 10
1169.998718284114
 20
387.4977240945852
 30
0.0000000000000000
 11
1171.998718284114
 21
386.3430235562059
 31
0.0000000000000000
  0
LINE
  5
490
100
AcDbEntity
  8
MAIN0
  6
CONTINUOUS
 62
3
100
AcDbLine
 10
1171.998718284114
 20
386.3430235562058
 30
0.0000000000000000
 11
1171.998718284114
 21
384.0336224794474
 31
0.0000000000000000
  0
LINE
  5
491
100
AcDbEntity
  8
MAIN0
  6
CONTINUOUS
 62
3
100
AcDbLine
 10
1171.998718284115
 20
384.0336224794478
 30
0.0000000000000000
 11
1169.998718284115
 21
382.8789219410684
 31
0.0000000000000000
  0
LINE
  5
492
100
AcDbEntity
  8
MAIN0
  6
CONTINUOUS
 62
3
100
AcDbLine
 10
1169.998718284114
 20
382.8789219410682
 30
0.0000000000000000
 11
1167.998718284114
 21
384.0336224794475
 31
0.0000000000000000
  0
LINE
  5
493
100
AcDbEntity
  8
MAIN0
  6
CONTINUOUS
 62
3
100
AcDbLine
 10
1167.998718284114
 20
384.0336224794474
 30
0.0000000000000000
 11
1167.998718284114
 21
386.3430235562058
 31
0.0000000000000000
  0
LINE
  5
494
100
AcDbEntity
  8
MAIN0
  6
CONTINUOUS
 62
3
100
AcDbLine
 10
1143.998718284114
 20
381.1468711334851
 30
0.0000000000000000
 11
1143.998718284114
 21
389.2297749021470
 31
0.0000000000000000
  0
LINE
  5
495
100
AcDbEntity
  8
MAIN0
  6
CONTINUOUS
 62
3
100
AcDbLine
 10
1143.998718284115
 20
389.2297749021467
 30
0.0000000000000000
 11
1136.998718284115
 21
393.2712267864880
 31
0.0000000000000000
  0
LINE
  5
496
100
AcDbEntity
  8
MAIN0
  6
CONTINUOUS
 62
3
100
AcDbLine
 10
1143.998718284114
 20
381.1468711334851
 30
0.0000000000000000
 11
1136.998718284113
 21
377.1054192491644
 31
0.0000000000000000
  0
ARC
  5
497
100
AcDbEntity
  8
MAIN0
  6
CONTINUOUS
 62
3
100
AcDbCircle
 10
1136.998718284114
 20
385.1883230178265
 30
0.0000000000000000
 40
14.00000000000000
100
AcDbArc
 50
270.0000000000000
 51
450.0000000000000
  0
ARC
  5
498
100
AcDbEntity
  8
MAIN0
  6
CONTINUOUS
 62
3
100
AcDbCircle
 10
1136.998718284114
 20
385.1883230178265
 30
0.0000000000000000
 40
24.75000000000000
100
AcDbArc
 50
270.0000000000000
 51
450.0000000000000
  0
ARC
  5
499
100
AcDbEntity
  8
MAIN0
  6
CONTINUOUS
 62
3
100
AcDbCircle
 10
1136.998718284114
 20
385.1883230178265
 30
0.0000000000000000
 40
28.00000000000000
100
AcDbArc
 50
270.0000000000000
 51
450.0000000000000
  0
CIRCLE
  5
49A
100
AcDbEntity
  8
MAIN0
  6
CONTINUOUS
 62
3
100
AcDbCircle
 10
1103.998718284114
 20
385.1883230178267
 30
0.0000000000000000
 40
4.250000000000000
  0
LINE
  5
49B
100
AcDbEntity
  8
MAIN0
  6
CENTER
 62
3
100
AcDbLine
 10
1103.998718284114
 20
391.1612597320664
 30
0.0000000000000000
 11
1103.998718284114
 21
378.9267950091776
 31
0.0000000000000000
  0
LINE
  5
49C
100
AcDbEntity
  8
MAIN0
  6
CONTINUOUS
 62
3
100
AcDbLine
 10
1105.998718284114
 20
386.3430235562056
 30
0.0000000000000000
 11
1103.998718284114
 21
387.4977240945849
 31
0.0000000000000000
  0
LINE
  5
49D
100
AcDbEntity
  8
MAIN0
  6
CONTINUOUS
 62
3
100
AcDbLine
 10
1103.998718284114
 20
387.4977240945856
 30
0.0000000000000000
 11
1101.998718284114
 21
386.3430235562063
 31
0.0000000000000000
  0
LINE
  5
49E
100
AcDbEntity
  8
MAIN0
  6
CONTINUOUS
 62
3
100
AcDbLine
 10
1101.998718284114
 20
386.3430235562060
 30
0.0000000000000000
 11
1101.998718284114
 21
384.0336224794474
 31
0.0000000000000000
  0
LINE
  5
49F
100
AcDbEntity
  8
MAIN0
  6
CONTINUOUS
 62
3
100
AcDbLine
 10
1101.998718284114
 20
384.0336224794472
 30
0.0000000000000000
 11
1103.998718284114
 21
382.8789219410679
 31
0.0000000000000000
  0
LINE
  5
4A0
100
AcDbEntity
  8
MAIN0
  6
CONTINUOUS
 62
3
100
AcDbLine
 10
1103.998718284114
 20
382.8789219410685
 30
0.0000000000000000
 11
1105.998718284114
 21
384.0336224794478
 31
0.0000000000000000
  0
LINE
  5
4A1
100
AcDbEntity
  8
MAIN0
  6
CONTINUOUS
 62
3
100
AcDbLine
 10
1105.998718284114
 20
384.0336224794474
 30
0.0000000000000000
 11
1105.998718284114
 21
386.3430235562060
 31
0.0000000000000000
  0
LINE
  5
4A2
100
AcDbEntity
  8
MAIN0
  6
CONTINUOUS
 62
3
100
AcDbLine
 10
1129.998718284114
 20
381.1468711334851
 30
0.0000000000000000
 11
1129.998718284114
 21
389.2297749021470
 31
0.0000000000000000
  0
LINE
  5
4A3
100
AcDbEntity
  8
MAIN0
  6
CONTINUOUS
 62
3
100
AcDbLine
 10
1129.998718284114
 20
389.2297749021469
 30
0.0000000000000000
 11
1136.998718284114
 21
393.2712267864882
 31
0.0000000000000000
  0
LINE
  5
4A4
100
AcDbEntity
  8
MAIN0
  6
CONTINUOUS
 62
3
100
AcDbLine
 10
1129.998718284114
 20
381.1468711334856
 30
0.0000000000000000
 11
1136.998718284114
 21
377.1054192491652
 31
0.0000000000000000
  0
ARC
  5
4A5
100
AcDbEntity
  8
MAIN0
  6
CONTINUOUS
 62
3
100
AcDbCircle
 10
1136.998718284114
 20
385.1883230178265
 30
0.0000000000000000
 40
14.00000000000000
100
AcDbArc
 50
90.00000000000000
 51
270.0000000000000
  0
ARC
  5
4A6
100
AcDbEntity
  8
MAIN0
  6
CONTINUOUS
 62
3
100
AcDbCircle
 10
1136.998718284114
 20
385.1883230178265
 30
0.0000000000000000
 40
24.75000000000000
100
AcDbArc
 50
90.00000000000000
 51
270.0000000000000
  0
ARC
  5
4A7
100
AcDbEntity
  8
MAIN0
  6
CONTINUOUS
 62
3
100
AcDbCircle
 10
1136.998718284114
 20
385.1883230178265
 30
0.0000000000000000
 40
28.00000000000000
100
AcDbArc
 50
90.00000000000000
 51
270.0000000000000
  0
LINE
  5
4A8
100
AcDbEntity
  8
MAIN0
  6
CONTINUOUS
 62
3
100
AcDbLine
 10
1133.998718284113
 20
371.5135286866492
 30
0.0000000000000000
 11
1133.998718284113
 21
360.6208139865877
 31
0.0000000000000000
  0
LINE
  5
4A9
100
AcDbEntity
  8
MAIN0
  6
CONTINUOUS
 62
3
100
AcDbLine
 10
1139.998718284113
 20
371.5135286866492
 30
0.0000000000000000
 11
1139.998718284113
 21
360.6208139865877
 31
0.0000000000000000
  0
LINE
  5
4AA
100
AcDbEntity
  8
MAIN0
  6
CONTINUOUS
 62
3
100
AcDbLine
 10
1056.998718284226
 20
480.1883230182924
 30
0.0000000000000000
 11
1216.998718284226
 21
480.1883230182925
 31
0.0000000000000000
  0
LINE
  5
4AB
100
AcDbEntity
  8
MAIN0
  6
CONTINUOUS
 62
3
100
AcDbLine
 10
1056.998718284227
 20
480.1883230182926
 30
0.0000000000000000
 11
1056.998718284227
 21
441.3883230178267
 31
0.0000000000000000
  0
LINE
  5
4AC
100
AcDbEntity
  8
MAIN0
  6
CONTINUOUS
 62
3
100
AcDbLine
 10
1216.998718284227
 20
480.1883230182926
 30
0.0000000000000000
 11
1216.998718284227
 21
441.3883230178267
 31
0.0000000000000000
  0
LINE
  5
4AD
100
AcDbEntity
  8
MAIN0
  6
CONTINUOUS
 62
3
100
AcDbLine
 10
1081.998718284227
 20
315.1883230182926
 30
0.0000000000000000
 11
1056.998718284227
 21
315.1883230182926
 31
0.0000000000000000
  0
LINE
  5
4AE
100
AcDbEntity
  8
MAIN0
  6
CONTINUOUS
 62
3
100
AcDbLine
 10
1216.998718284227
 20
315.1883230182928
 30
0.0000000000000000
 11
1191.998718284227
 21
315.1883230182928
 31
0.0000000000000000
  0
LINE
  5
4AF
100
AcDbEntity
  8
MAIN0
  6
CONTINUOUS
 62
3
100
AcDbLine
 10
1216.998718284227
 20
315.1883230182926
 30
0.0000000000000000
 11
1216.998718284227
 21
320.1883230182926
 31
0.0000000000000000
  0
LINE
  5
4B0
100
AcDbEntity
  8
MAIN0
  6
CONTINUOUS
 62
3
100
AcDbLine
 10
1191.998718284227
 20
315.1883230182926
 30
0.0000000000000000
 11
1191.998718284227
 21
320.1883230182926
 31
0.0000000000000000
  0
LINE
  5
4B1
100
AcDbEntity
  8
MAIN0
  6
CONTINUOUS
 62
3
100
AcDbLine
 10
1081.998718284227
 20
315.1883230182926
 30
0.0000000000000000
 11
1081.998718284227
 21
320.1883230182924
 31
0.0000000000000000
  0
LINE
  5
4B2
100
AcDbEntity
  8
MAIN0
  6
CONTINUOUS
 62
3
100
AcDbLine
 10
1056.998718284227
 20
315.1883230182925
 30
0.0000000000000000
 11
1056.998718284227
 21
320.1883230182925
 31
0.0000000000000000
  0
LINE
  5
4B3
100
AcDbEntity
  8
MAIN0
  6
CONTINUOUS
 62
3
100
AcDbLine
 10
1145.998718284226
 20
325.1883230182925
 30
0.0000000000000000
 11
1127.998718284226
 21
325.1883230182925
 31
0.0000000000000000
  0
LINE
  5
4B4
100
AcDbEntity
  8
MAIN0
  6
CONTINUOUS
 62
3
100
AcDbLine
 10
1145.998718284227
 20
320.1883230182926
 30
0.0000000000000000
 11
1145.998718284227
 21
325.1883230182926
 31
0.0000000000000000
  0
LINE
  5
4B5
100
AcDbEntity
  8
MAIN0
  6
CONTINUOUS
 62
3
100
AcDbLine
 10
1127.998718284227
 20
320.1883230182926
 30
0.0000000000000000
 11
1127.998718284227
 21
325.1883230182926
 31
0.0000000000000000
  0
LINE
  5
4B6
100
AcDbEntity
  8
MAIN0
  6
CONTINUOUS
 62
3
100
AcDbLine
 10
1211.498718284227
 20
396.1883230182926
 30
0.0000000000000000
 11
1211.498718284227
 21
341.1883230182926
 31
0.0000000000000000
  0
LINE
  5
4B7
100
AcDbEntity
  8
MAIN0
  6
CONTINUOUS
 62
3
100
AcDbLine
 10
1062.498718284227
 20
396.1883230182926
 30
0.0000000000000000
 11
1062.498718284227
 21
341.1883230182926
 31
0.0000000000000000
  0
LINE
  5
4B8
100
AcDbEntity
  8
MAIN0
  6
CONTINUOUS
 62
3
100
AcDbLine
 10
1056.498718284227
 20
396.1883230182923
 30
0.0000000000000000
 11
1062.498718284226
 21
396.1883230182924
 31
0.0000000000000000
  0
LINE
  5
4B9
100
AcDbEntity
  8
MAIN0
  6
CONTINUOUS
 62
3
100
AcDbLine
 10
1211.498718284227
 20
396.1883230182926
 30
0.0000000000000000
 11
1217.498718284227
 21
396.1883230182926
 31
0.0000000000000000
  0
LINE
  5
4BA
100
AcDbEntity
  8
MAIN0
  6
CONTINUOUS
 62
3
100
AcDbLine
 10
1211.498718284227
 20
341.1883230182928
 30
0.0000000000000000
 11
1217.498718284227
 21
341.1883230182928
 31
0.0000000000000000
  0
LINE
  5
4BB
100
AcDbEntity
  8
MAIN0
  6
CONTINUOUS
 62
3
100
AcDbLine
 10
1217.498718284227
 20
320.1883230182926
 30
0.0000000000000000
 11
1217.498718284227
 21
341.1883230182926
 31
0.0000000000000000
  0
LINE
  5
4BC
100
AcDbEntity
  8
MAIN0
  6
CONTINUOUS
 62
3
100
AcDbLine
 10
1056.498718284227
 20
320.1883230182926
 30
0.0000000000000000
 11
1056.498718284227
 21
341.1883230182926
 31
0.0000000000000000
  0
LINE
  5
4BD
100
AcDbEntity
  8
MAIN0
  6
CONTINUOUS
 62
3
100
AcDbLine
 10
1062.267433948262
 20
420.1883230182924
 30
0.0000000000000000
 11
1063.498718284227
 21
420.1883230182924
 31
0.0000000000000000
  0
LINE
  5
4BE
100
AcDbEntity
  8
MAIN0
  6
CONTINUOUS
 62
3
100
AcDbLine
 10
1211.730002619966
 20
420.1883230182926
 30
0.0000000000000000
 11
1210.498718284001
 21
420.1883230182926
 31
0.0000000000000000
  0
LINE
  5
4BF
100
AcDbEntity
  8
MAIN0
  6
CONTINUOUS
 62
3
100
AcDbLine
 10
1213.498718284114
 20
395.0883230178266
 30
0.0000000000000000
 11
1213.498718284114
 21
393.8883230178265
 31
0.0000000000000000
  0
LINE
  5
4C0
100
AcDbEntity
  8
MAIN0
  6
CONTINUOUS
 62
3
100
AcDbLine
 10
1060.498718284113
 20
395.0883230178265
 30
0.0000000000000000
 11
1060.498718284113
 21
393.8883230178267
 31
0.0000000000000000
  0
LINE
  5
4C1
100
AcDbEntity
  8
MAIN0
  6
CONTINUOUS
 62
3
100
AcDbLine
 10
1056.198718284114
 20
420.1883230178265
 30
0.0000000000000000
 11
1056.198718284114
 21
395.4883230178266
 31
0.0000000000000000
  0
LINE
  5
4C2
100
AcDbEntity
  8
MAIN0
  6
CONTINUOUS
 62
3
100
AcDbLine
 10
1217.798718284113
 20
420.1883230178267
 30
0.0000000000000000
 11
1217.798718284113
 21
395.4883230178266
 31
0.0000000000000000
  0
LINE
  5
4C3
100
AcDbEntity
  8
MAIN0
  6
CONTINUOUS
 62
3
100
AcDbLine
 10
1056.598718216992
 20
395.0883230178266
 30
0.0000000000000000
 11
1060.498718284114
 21
395.0883230178266
 31
0.0000000000000000
  0
LINE
  5
4C4
100
AcDbEntity
  8
MAIN0
  6
CONTINUOUS
 62
3
100
AcDbLine
 10
1213.498718284114
 20
395.0883230178266
 30
0.0000000000000000
 11
1217.398718119348
 21
395.0883230178266
 31
0.0000000000000000
  0
LINE
  5
4C5
100
AcDbEntity
  8
MAIN0
  6
CONTINUOUS
 62
3
100
AcDbLine
 10
1213.498718284114
 20
393.8883230178265
 30
0.0000000000000000
 11
1217.598717965875
 21
393.8883230178265
 31
0.0000000000000000
  0
LINE
  5
4C6
100
AcDbEntity
  8
MAIN0
  6
CONTINUOUS
 62
3
100
AcDbLine
 10
1062.267433947790
 20
420.1883230178265
 30
0.0000000000000000
 11
1211.730002620438
 21
420.1883230178265
 31
0.0000000000000000
  0
ARC
  5
4C7
100
AcDbEntity
  8
MAIN0
  6
CONTINUOUS
 62
3
100
AcDbCircle
 10
1217.398718284114
 20
395.4883230178266
 30
0.0000000000000000
 40
0.4000000000000000
100
AcDbArc
 50
270.0000000005678
 51
359.9999999999934
  0
ARC
  5
4C8
100
AcDbEntity
  8
MAIN0
  6
CONTINUOUS
 62
3
100
AcDbCircle
 10
1217.598718284114
 20
395.2883230178266
 30
0.0000000000000000
 40
1.400000000000000
100
AcDbArc
 50
270.0000000005678
 51
359.9999999999934
  0
ARC
  5
4C9
100
AcDbEntity
  8
MAIN0
  6
CONTINUOUS
 62
3
100
AcDbCircle
 10
1217.598718284114
 20
419.9883230178266
 30
0.0000000000000000
 40
1.400000000000000
100
AcDbArc
 50
0.0000000000000000
 51
89.99999999999885
  0
ARC
  5
4CA
100
AcDbEntity
  8
MAIN0
  6
CONTINUOUS
 62
3
100
AcDbCircle
 10
1056.398718284114
 20
419.9883230178266
 30
0.0000000000000000
 40
1.400000000000000
100
AcDbArc
 50
89.99999999999696
 51
179.9999999999964
  0
ARC
  5
4CB
100
AcDbEntity
  8
MAIN0
  6
CONTINUOUS
 62
3
100
AcDbCircle
 10
1056.398718284114
 20
395.2883230178266
 30
0.0000000000000000
 40
1.400000000000000
100
AcDbArc
 50
179.9999999999964
 51
269.9999999999963
  0
ARC
  5
4CC
100
AcDbEntity
  8
MAIN0
  6
CONTINUOUS
 62
3
100
AcDbCircle
 10
1056.598718284114
 20
395.4883230178266
 30
0.0000000000000000
 40
0.4000000000000000
100
AcDbArc
 50
179.9999999999964
 51
270.0000000005678
  0
LINE
  5
4CD
100
AcDbEntity
  8
MAIN0
  6
CONTINUOUS
 62
3
100
AcDbLine
 10
1218.998718284114
 20
419.9883230178266
 30
0.0000000000000000
 11
1218.998718284114
 21
395.2883230178266
 31
0.0000000000000000
  0
LINE
  5
4CE
100
AcDbEntity
  8
MAIN0
  6
CONTINUOUS
 62
3
100
AcDbLine
 10
1054.998718284113
 20
419.9883230178266
 30
0.0000000000000000
 11
1054.998718284113
 21
395.2883230178266
 31
0.0000000000000000
  0
LINE
  5
4CF
100
AcDbEntity
  8
MAIN0
  6
CONTINUOUS
 62
3
100
AcDbLine
 10
1053.198718284114
 20
431.3883636638817
 30
0.0000000000000000
 11
1220.798718284114
 21
431.3883636638817
 31
0.0000000000000000
  0
LINE
  5
4D0
100
AcDbEntity
  8
MAIN0
  6
CONTINUOUS
 62
3
100
AcDbLine
 10
1056.398718284114
 20
393.8883230178265
 30
0.0000000000000000
 11
1060.498718284114
 21
393.8883230178265
 31
0.0000000000000000
  0
LINE
  5
4D1
100
AcDbEntity
  8
MAIN0
  6
CONTINUOUS
 62
3
100
AcDbLine
 10
1217.798718284114
 20
420.1883230178265
 30
0.0000000000000000
 11
1136.998718284114
 21
420.1883230178266
 31
0.0000000000000000
  0
LINE
  5
4D2
100
AcDbEntity
  8
MAIN0
  6
CONTINUOUS
 62
3
100
AcDbLine
 10
1056.498718284174
 20
404.1883230178142
 30
0.0000000000000000
 11
1072.498718284058
 21
420.1883230178265
 31
0.0000000000000000
  0
LINE
  5
4D3
100
AcDbEntity
  8
MAIN0
  6
CENTER
 62
3
100
AcDbLine
 10
1136.998718284114
 20
487.8366619402936
 30
0.0000000000000000
 11
1136.998718284114
 21
305.2049625927213
 31
0.0000000000000000
  0
LINE
  5
4D4
100
AcDbEntity
  8
MAIN0
  6
CONTINUOUS
 62
3
100
AcDbLine
 10
1056.175212362611
 20
420.1883230178268
 30
0.0000000000000000
 11
1136.998718284113
 21
420.1883230178268
 31
0.0000000000000000
  0
LINE
  5
4D5
100
AcDbEntity
  8
MAIN0
  6
CENTER
 62
3
100
AcDbLine
 10
1060.707927520248
 20
385.1883230178264
 30
0.0000000000000000
 11
1213.397996467444
 21
385.1883230178264
 31
0.0000000000000000
  0
LINE
  5
4D6
100
AcDbEntity
  8
MAIN0
  6
CONTINUOUS
 62
3
100
AcDbLine
 10
1213.498718284114
 20
393.0883230178266
 30
0.0000000000000000
 11
1213.498718284114
 21
391.8883230178265
 31
0.0000000000000000
  0
LINE
  5
4D7
100
AcDbEntity
  8
MAIN0
  6
CONTINUOUS
 62
3
100
AcDbLine
 10
1060.498718284114
 20
393.0883230178266
 30
0.0000000000000000
 11
1060.498718284114
 21
391.8883230178265
 31
0.0000000000000000
  0
LINE
  5
4D8
100
AcDbEntity
  8
MAIN0
  6
CONTINUOUS
 62
3
100
AcDbLine
 10
1220.498718284114
 20
429.9883230178266
 30
0.0000000000000000
 11
1220.498718284114
 21
393.8883230178265
 31
0.0000000000000000
  0
LINE
  5
4D9
100
AcDbEntity
  8
MAIN0
  6
CONTINUOUS
 62
3
100
AcDbLine
 10
1219.298718284113
 20
421.3883230178267
 30
0.0000000000000000
 11
1219.298718284113
 21
394.0883230178266
 31
0.0000000000000000
  0
LINE
  5
4DA
100
AcDbEntity
  8
MAIN0
  6
CONTINUOUS
 62
3
100
AcDbLine
 10
1053.498718284114
 20
429.9883230178266
 30
0.0000000000000000
 11
1053.498718284114
 21
393.8883230178265
 31
0.0000000000000000
  0
LINE
  5
4DB
100
AcDbEntity
  8
MAIN0
  6
CONTINUOUS
 62
3
100
AcDbLine
 10
1054.698718284114
 20
421.3883230178267
 30
0.0000000000000000
 11
1054.698718284114
 21
394.0883230178266
 31
0.0000000000000000
  0
LINE
  5
4DC
100
AcDbEntity
  8
MAIN0
  6
CONTINUOUS
 62
3
100
AcDbLine
 10
1055.698718282526
 20
393.0883230178266
 30
0.0000000000000000
 11
1060.498718284114
 21
393.0883230178266
 31
0.0000000000000000
  0
LINE
  5
4DD
100
AcDbEntity
  8
MAIN0
  6
CONTINUOUS
 62
3
100
AcDbLine
 10
1213.498718284114
 20
393.0883230178266
 30
0.0000000000000000
 11
1218.298718236257
 21
393.0883230178266
 31
0.0000000000000000
  0
LINE
  5
4DE
100
AcDbEntity
  8
MAIN0
  6
CONTINUOUS
 62
3
100
AcDbLine
 10
1055.498718280387
 20
391.8883230178265
 30
0.0000000000000000
 11
1060.498718284114
 21
391.8883230178265
 31
0.0000000000000000
  0
LINE
  5
4DF
100
AcDbEntity
  8
MAIN0
  6
CONTINUOUS
 62
3
100
AcDbLine
 10
1213.498718284114
 20
391.8883230178265
 30
0.0000000000000000
 11
1218.498718243296
 21
391.8883230178265
 31
0.0000000000000000
  0
ARC
  5
4E0
100
AcDbEntity
  8
MAIN0
  6
CONTINUOUS
 62
3
100
AcDbCircle
 10
1218.498718284114
 20
393.8883230178265
 30
0.0000000000000000
 40
2.000000000000000
100
AcDbArc
 50
270.0000000005678
 51
359.9999999999934
  0
ARC
  5
4E1
100
AcDbEntity
  8
MAIN0
  6
CONTINUOUS
 62
3
100
AcDbCircle
 10
1218.298718284113
 20
394.0883230178266
 30
0.0000000000000000
 40
1.000000000000000
100
AcDbArc
 50
270.0000000005678
 51
359.9999999999934
  0
ARC
  5
4E2
100
AcDbEntity
  8
MAIN0
  6
CONTINUOUS
 62
3
100
AcDbCircle
 10
1055.698718284114
 20
394.0883230178266
 30
0.0000000000000000
 40
1.000000000000000
100
AcDbArc
 50
179.9999999999964
 51
270.0000000005678
  0
ARC
  5
4E3
100
AcDbEntity
  8
MAIN0
  6
CONTINUOUS
 62
3
100
AcDbCircle
 10
1055.498718284114
 20
393.8883230178265
 30
0.0000000000000000
 40
2.000000000000000
100
AcDbArc
 50
179.9999999999964
 51
270.0000000005678
  0
ARC
  5
4E4
100
AcDbEntity
  8
MAIN0
  6
CONTINUOUS
 62
3
100
AcDbCircle
 10
1219.098718284114
 20
429.9883230178266
 30
0.0000000000000000
 40
1.400000000000000
100
AcDbArc
 50
0.0000000000000000
 51
81.78678929826229
  0
ARC
  5
4E5
100
AcDbEntity
  8
MAIN0
  6
CONTINUOUS
 62
3
100
AcDbCircle
 10
1054.898718284114
 20
429.9883230178266
 30
0.0000000000000000
 40
1.400000000000000
100
AcDbArc
 50
98.21321070173528
 51
179.9999999999964
  0
LINE
  5
4E6
100
AcDbEntity
  8
MAIN0
  6
CONTINUOUS
 62
3
100
AcDbLine
 10
1220.798718284114
 20
431.3883636638817
 30
0.0000000000000000
 11
1220.798718284114
 21
391.8883230178267
 31
0.0000000000000000
  0
LINE
  5
4E7
100
AcDbEntity
  8
MAIN0
  6
CONTINUOUS
 62
3
100
AcDbLine
 10
1053.198718284114
 20
431.3883636638817
 30
0.0000000000000000
 11
1053.198718284114
 21
391.8883230178267
 31
0.0000000000000000
  0
LINE
  5
4E8
100
AcDbEntity
  8
MAIN0
  6
CONTINUOUS
 62
3
100
AcDbLine
 10
1052.998718278798
 20
441.3883230178267
 30
0.0000000000000000
 11
1220.998717041869
 21
441.3883230178267
 31
0.0000000000000000
  0
LINE
  5
4E9
100
AcDbEntity
  8
MAIN0
  6
CONTINUOUS
 62
3
100
AcDbLine
 10
1221.998718284114
 20
391.8883230178267
 30
0.0000000000000000
 11
1221.998718284114
 21
440.3883228348805
 31
0.0000000000000000
  0
LINE
  5
4EA
100
AcDbEntity
  8
MAIN0
  6
CONTINUOUS
 62
3
100
AcDbLine
 10
1051.998718284114
 20
440.3883230178267
 30
0.0000000000000000
 11
1051.998718284114
 21
391.8883230178267
 31
0.0000000000000000
  0
LINE
  5
4EB
100
AcDbEntity
  8
MAIN0
  6
CONTINUOUS
 62
3
100
AcDbLine
 10
1220.798718284114
 20
391.8883230178267
 30
0.0000000000000000
 11
1221.998718284114
 21
391.8883230178267
 31
0.0000000000000000
  0
ARC
  5
4EC
100
AcDbEntity
  8
MAIN0
  6
CONTINUOUS
 62
3
100
AcDbCircle
 10
1220.998718284114
 20
440.3883230178267
 30
0.0000000000000000
 40
1.000000000000000
100
AcDbArc
 50
0.0000000000000000
 51
89.99999999999720
  0
ARC
  5
4ED
100
AcDbEntity
  8
MAIN0
  6
CONTINUOUS
 62
3
100
AcDbCircle
 10
1052.998718284114
 20
440.3883230178267
 30
0.0000000000000000
 40
1.000000000000000
100
AcDbArc
 50
89.99999999942553
 51
179.9999999999964
  0
LINE
  5
4EE
100
AcDbEntity
  8
MAIN0
  6
CONTINUOUS
 62
3
100
AcDbLine
 10
1056.398718284114
 20
421.3883230178267
 30
0.0000000000000000
 11
1097.498718284114
 21
421.3883230178267
 31
0.0000000000000000
  0
LINE
  5
4EF
100
AcDbEntity
  8
MAIN0
  6
CONTINUOUS
 62
3
100
AcDbLine
 10
1176.498718284114
 20
421.3883230178267
 30
0.0000000000000000
 11
1218.998718284114
 21
421.3883230178267
 31
0.0000000000000000
  0
LINE
  5
4F0
100
AcDbEntity
  8
MAIN0
  6
CONTINUOUS
 62
3
100
AcDbLine
 10
1053.198718284114
 20
391.8883230178267
 30
0.0000000000000000
 11
1051.998718284114
 21
391.8883230178267
 31
0.0000000000000000
  0
CIRCLE
  5
4F1
100
AcDbEntity
  8
MAIN0
  6
CONTINUOUS
 62
3
100
AcDbCircle
 10
1194.248718284111
 20
408.3883230178267
 30
0.0000000000000000
 40
9.500000000000000
  0
LINE
  5
4F2
100
AcDbEntity
  8
MAIN0
  6
CENTER
 62
3
100
AcDbLine
 10
1180.748718284110
 20
408.3883230178271
 30
0.0000000000000000
 11
1207.748718284110
 21
408.3883230178271
 31
0.0000000000000000
  0
LINE
  5
4F3
100
AcDbEntity
  8
MAIN0
  6
CENTER
 62
3
100
AcDbLine
 10
1194.248718284110
 20
421.8883230178271
 30
0.0000000000000000
 11
1194.248718284110
 21
394.8883230178271
 31
0.0000000000000000
  0
LINE
  5
4F4
100
AcDbEntity
  8
MAIN0
  6
CENTER
 62
3
100
AcDbLine
 10
1093.248718284114
 20
408.3883230178267
 30
0.0000000000000000
 11
1066.248718284114
 21
408.3883230178267
 31
0.0000000000000000
  0
LINE
  5
4F5
100
AcDbEntity
  8
MAIN0
  6
CENTER
 62
3
100
AcDbLine
 10
1079.748718284114
 20
421.8883230178267
 30
0.0000000000000000
 11
1079.748718284114
 21
394.8883230178267
 31
0.0000000000000000
  0
CIRCLE
  5
4F6
100
AcDbEntity
  8
MAIN0
  6
CONTINUOUS
 62
3
100
AcDbCircle
 10
1194.248718284111
 20
408.3883230178267
 30
0.0000000000000000
 40
9.000000000000000
  0
LINE
  5
4F7
100
AcDbEntity
  8
MAIN0
  6
CONTINUOUS
 62
3
100
AcDbLine
 10
1194.248718284110
 20
414.1618257097228
 30
0.0000000000000000
 11
1189.248718284110
 21
411.2750743637747
 31
0.0000000000000000
  0
LINE
  5
4F8
100
AcDbEntity
  8
MAIN0
  6
CONTINUOUS
 62
3
100
AcDbLine
 10
1189.248718284111
 20
411.2750743637749
 30
0.0000000000000000
 11
1189.248718284111
 21
405.5015716718786
 31
0.0000000000000000
  0
LINE
  5
4F9
100
AcDbEntity
  8
MAIN0
  6
CONTINUOUS
 62
3
100
AcDbLine
 10
1189.248718284110
 20
405.5015716718786
 30
0.0000000000000000
 11
1194.248718284110
 21
402.6148203259305
 31
0.0000000000000000
  0
LINE
  5
4FA
100
AcDbEntity
  8
MAIN0
  6
CONTINUOUS
 62
3
100
AcDbLine
 10
1194.248718284110
 20
402.6148203259303
 30
0.0000000000000000
 11
1199.248718284110
 21
405.5015716718784
 31
0.0000000000000000
  0
LINE
  5
4FB
100
AcDbEntity
  8
MAIN0
  6
CONTINUOUS
 62
3
100
AcDbLine
 10
1199.248718284111
 20
405.5015716718786
 30
0.0000000000000000
 11
1199.248718284111
 21
411.2750743637749
 31
0.0000000000000000
  0
LINE
  5
4FC
100
AcDbEntity
  8
MAIN0
  6
CONTINUOUS
 62
3
100
AcDbLine
 10
1199.248718284110
 20
411.2750743637748
 30
0.0000000000000000
 11
1194.248718284110
 21
414.1618257097230
 31
0.0000000000000000
  0
CIRCLE
  5
4FD
100
AcDbEntity
  8
MAIN0
  6
CONTINUOUS
 62
3
100
AcDbCircle
 10
1079.748718284116
 20
408.3883230178265
 30
0.0000000000000000
 40
9.500000000000000
  0
LINE
  5
4FE
100
AcDbEntity
  8
MAIN0
  6
CENTER
 62
3
100
AcDbLine
 10
1093.248718284116
 20
408.3883230178270
 30
0.0000000000000000
 11
1066.248718284116
 21
408.3883230178270
 31
0.0000000000000000
  0
LINE
  5
4FF
100
AcDbEntity
  8
MAIN0
  6
CENTER
 62
3
100
AcDbLine
 10
1079.748718284116
 20
421.8883230178267
 30
0.0000000000000000
 11
1079.748718284116
 21
394.8883230178270
 31
0.0000000000000000
  0
CIRCLE
  5
500
100
AcDbEntity
  8
MAIN0
  6
CONTINUOUS
 62
3
100
AcDbCircle
 10
1079.748718284116
 20
408.3883230178265
 30
0.0000000000000000
 40
9.000000000000000
  0
LINE
  5
501
100
AcDbEntity
  8
MAIN0
  6
CONTINUOUS
 62
3
100
AcDbLine
 10
1079.748718284116
 20
414.1618257097231
 30
0.0000000000000000
 11
1084.748718284116
 21
411.2750743637750
 31
0.0000000000000000
  0
LINE
  5
502
100
AcDbEntity
  8
MAIN0
  6
CONTINUOUS
 62
3
100
AcDbLine
 10
1084.748718284116
 20
411.2750743637748
 30
0.0000000000000000
 11
1084.748718284116
 21
405.5015716718785
 31
0.0000000000000000
  0
LINE
  5
503
100
AcDbEntity
  8
MAIN0
  6
CONTINUOUS
 62
3
100
AcDbLine
 10
1084.748718284116
 20
405.5015716718787
 30
0.0000000000000000
 11
1079.748718284116
 21
402.6148203259306
 31
0.0000000000000000
  0
LINE
  5
504
100
AcDbEntity
  8
MAIN0
  6
CONTINUOUS
 62
3
100
AcDbLine
 10
1079.748718284116
 20
402.6148203259306
 30
0.0000000000000000
 11
1074.748718284116
 21
405.5015716718787
 31
0.0000000000000000
  0
LINE
  5
505
100
AcDbEntity
  8
MAIN0
  6
CONTINUOUS
 62
3
100
AcDbLine
 10
1074.748718284116
 20
405.5015716718784
 30
0.0000000000000000
 11
1074.748718284116
 21
411.2750743637747
 31
0.0000000000000000
  0
LINE
  5
506
100
AcDbEntity
  8
MAIN0
  6
CONTINUOUS
 62
3
100
AcDbLine
 10
1074.748718284116
 20
411.2750743637749
 30
0.0000000000000000
 11
1079.748718284116
 21
414.1618257097231
 31
0.0000000000000000
  0
CIRCLE
  5
507
100
AcDbEntity
  8
MAIN0
  6
CONTINUOUS
 62
3
100
AcDbCircle
 10
1194.248718284111
 20
361.9883230178262
 30
0.0000000000000000
 40
9.500000000000000
  0
LINE
  5
508
100
AcDbEntity
  8
MAIN0
  6
CENTER
 62
3
100
AcDbLine
 10
1180.748718284110
 20
361.9883230178260
 30
0.0000000000000000
 11
1207.748718284110
 21
361.9883230178260
 31
0.0000000000000000
  0
LINE
  5
509
100
AcDbEntity
  8
MAIN0
  6
CENTER
 62
3
100
AcDbLine
 10
1194.248718284111
 20
348.4883230178260
 30
0.0000000000000000
 11
1194.248718284111
 21
375.4883230178260
 31
0.0000000000000000
  0
CIRCLE
  5
50A
100
AcDbEntity
  8
MAIN0
  6
CONTINUOUS
 62
3
100
AcDbCircle
 10
1194.248718284111
 20
361.9883230178262
 30
0.0000000000000000
 40
9.000000000000000
  0
LINE
  5
50B
100
AcDbEntity
  8
MAIN0
  6
CONTINUOUS
 62
3
100
AcDbLine
 10
1194.248718284111
 20
356.2148203259304
 30
0.0000000000000000
 11
1189.248718284111
 21
359.1015716718785
 31
0.0000000000000000
  0
LINE
  5
50C
100
AcDbEntity
  8
MAIN0
  6
CONTINUOUS
 62
3
100
AcDbLine
 10
1189.248718284111
 20
359.1015716718782
 30
0.0000000000000000
 11
1189.248718284111
 21
364.8750743637742
 31
0.0000000000000000
  0
LINE
  5
50D
100
AcDbEntity
  8
MAIN0
  6
CONTINUOUS
 62
3
100
AcDbLine
 10
1189.248718284110
 20
364.8750743637741
 30
0.0000000000000000
 11
1194.248718284110
 21
367.7618257097223
 31
0.0000000000000000
  0
LINE
  5
50E
100
AcDbEntity
  8
MAIN0
  6
CONTINUOUS
 62
3
100
AcDbLine
 10
1194.248718284111
 20
367.7618257097229
 30
0.0000000000000000
 11
1199.248718284111
 21
364.8750743637747
 31
0.0000000000000000
  0
LINE
  5
50F
100
AcDbEntity
  8
MAIN0
  6
CONTINUOUS
 62
3
100
AcDbLine
 10
1199.248718284111
 20
364.8750743637742
 30
0.0000000000000000
 11
1199.248718284111
 21
359.1015716718782
 31
0.0000000000000000
  0
LINE
  5
510
100
AcDbEntity
  8
MAIN0
  6
CONTINUOUS
 62
3
100
AcDbLine
 10
1199.248718284110
 20
359.1015716718779
 30
0.0000000000000000
 11
1194.248718284110
 21
356.2148203259297
 31
0.0000000000000000
  0
LINE
  5
511
100
AcDbEntity
  8
MAIN0
  6
CONTINUOUS
 62
3
100
AcDbLine
 10
1079.275239525467
 20
343.1883230178266
 30
0.0000000000000000
 11
1194.722197042760
 21
343.1883230178266
 31
0.0000000000000000
  0
CIRCLE
  5
512
100
AcDbEntity
  8
MAIN0
  6
CONTINUOUS
 62
3
100
AcDbCircle
 10
1079.748718284116
 20
361.9883230178262
 30
0.0000000000000000
 40
9.500000000000000
  0
LINE
  5
513
100
AcDbEntity
  8
MAIN0
  6
CENTER
 62
3
100
AcDbLine
 10
1093.248718284116
 20
361.9883230178259
 30
0.0000000000000000
 11
1066.248718284116
 21
361.9883230178258
 31
0.0000000000000000
  0
LINE
  5
514
100
AcDbEntity
  8
MAIN0
  6
CENTER
 62
3
100
AcDbLine
 10
1079.748718284117
 20
348.4883230178259
 30
0.0000000000000000
 11
1079.748718284117
 21
375.4883230178259
 31
0.0000000000000000
  0
CIRCLE
  5
515
100
AcDbEntity
  8
MAIN0
  6
CONTINUOUS
 62
3
100
AcDbCircle
 10
1079.748718284116
 20
361.9883230178262
 30
0.0000000000000000
 40
9.000000000000000
  0
LINE
  5
516
100
AcDbEntity
  8
MAIN0
  6
CONTINUOUS
 62
3
100
AcDbLine
 10
1079.748718284116
 20
356.2148203259297
 30
0.0000000000000000
 11
1084.748718284116
 21
359.1015716718778
 31
0.0000000000000000
  0
LINE
  5
517
100
AcDbEntity
  8
MAIN0
  6
CONTINUOUS
 62
3
100
AcDbLine
 10
1084.748718284116
 20
359.1015716718781
 30
0.0000000000000000
 11
1084.748718284116
 21
364.8750743637743
 31
0.0000000000000000
  0
LINE
  5
518
100
AcDbEntity
  8
MAIN0
  6
CONTINUOUS
 62
3
100
AcDbLine
 10
1084.748718284116
 20
364.8750743637745
 30
0.0000000000000000
 11
1079.748718284116
 21
367.7618257097226
 31
0.0000000000000000
  0
LINE
  5
519
100
AcDbEntity
  8
MAIN0
  6
CONTINUOUS
 62
3
100
AcDbLine
 10
1079.748718284116
 20
367.7618257097223
 30
0.0000000000000000
 11
1074.748718284116
 21
364.8750743637741
 31
0.0000000000000000
  0
LINE
  5
51A
100
AcDbEntity
  8
MAIN0
  6
CONTINUOUS
 62
3
100
AcDbLine
 10
1074.748718284116
 20
364.8750743637743
 30
0.0000000000000000
 11
1074.748718284116
 21
359.1015716718781
 31
0.0000000000000000
  0
LINE
  5
51B
100
AcDbEntity
  8
MAIN0
  6
CONTINUOUS
 62
3
100
AcDbLine
 10
1074.748718284116
 20
359.1015716718782
 30
0.0000000000000000
 11
1079.748718284116
 21
356.2148203259301
 31
0.0000000000000000
  0
LINE
  5
51C
100
AcDbEntity
  8
MAIN0
  6
CONTINUOUS
 62
3
100
AcDbLine
 10
1056.498718284227
 20
396.1883230182925
 30
0.0000000000000000
 11
1056.498718284159
 21
406.4883230185453
 31
0.0000000000000000
  0
LINE
  5
51D
100
AcDbEntity
  8
MAIN0
  6
CONTINUOUS
 62
3
100
AcDbLine
 10
1217.498718284001
 20
396.1883230182928
 30
0.0000000000000000
 11
1217.498718284069
 21
406.4883230185445
 31
0.0000000000000000
  0
LINE
  5
51E
100
AcDbEntity
  8
MAIN0
  6
CONTINUOUS
 62
3
100
AcDbLine
 10
1056.198718284114
 20
406.1883230185031
 30
0.0000000000000000
 11
1070.198718283568
 21
420.1883230178262
 31
0.0000000000000000
  0
LINE
  5
51F
100
AcDbEntity
  8
MAIN0
  6
CONTINUOUS
 62
3
100
AcDbLine
 10
1217.498718284053
 20
404.1883230178142
 30
0.0000000000000000
 11
1201.498718284169
 21
420.1883230178266
 31
0.0000000000000000
  0
LINE
  5
520
100
AcDbEntity
  8
MAIN0
  6
CONTINUOUS
 62
3
100
AcDbLine
 10
1217.798718284114
 20
406.1883230185032
 30
0.0000000000000000
 11
1203.798718284660
 21
420.1883230178263
 31
0.0000000000000000
  0
ARC
  5
521
100
AcDbEntity
  8
MAIN0
  6
CONTINUOUS
 62
3
100
AcDbCircle
 10
1059.498718284114
 20
388.6883230178267
 30
0.0000000000000000
 40
5.000000000000000
100
AcDbArc
 50
0.0000000000000000
 51
53.13010235415150
  0
LINE
  5
522
100
AcDbEntity
  8
MAIN0
  6
CONTINUOUS
 62
3
100
AcDbLine
 10
1064.498718284114
 20
363.9810129573785
 30
0.0000000000000000
 11
1064.498718284114
 21
388.6883230178268
 31
0.0000000000000000
  0
ARC
  5
523
100
AcDbEntity
  8
MAIN0
  6
CONTINUOUS
 62
3
100
AcDbCircle
 10
1074.498718284114
 20
363.9810129573785
 30
0.0000000000000000
 40
10.00000000000000
100
AcDbArc
 50
180.0000000000000
 51
198.7429459175232
  0
ARC
  5
524
100
AcDbEntity
  8
MAIN0
  6
CONTINUOUS
 62
3
100
AcDbCircle
 10
1136.998718284114
 20
385.1883230178265
 30
0.0000000000000000
 40
76.00000000000000
100
AcDbArc
 50
198.7429459175232
 51
209.0025460266707
  0
ARC
  5
525
100
AcDbEntity
  8
MAIN0
  6
CONTINUOUS
 62
3
100
AcDbCircle
 10
1079.275239525467
 20
353.1883230178265
 30
0.0000000000000000
 40
10.00000000000000
100
AcDbArc
 50
209.0025460266707
 51
270.0000000000000
  0
ARC
  5
526
100
AcDbEntity
  8
MAIN0
  6
CONTINUOUS
 62
3
100
AcDbCircle
 10
1214.498718284113
 20
388.6883230178269
 30
0.0000000000000000
 40
5.000000000000000
100
AcDbArc
 50
126.8698976458487
 51
180.0000000000001
  0
LINE
  5
527
100
AcDbEntity
  8
MAIN0
  6
CONTINUOUS
 62
3
100
AcDbLine
 10
1209.498718284113
 20
363.9810129573785
 30
0.0000000000000000
 11
1209.498718284113
 21
388.6883230178269
 31
0.0000000000000000
  0
ARC
  5
528
100
AcDbEntity
  8
MAIN0
  6
CONTINUOUS
 62
3
100
AcDbCircle
 10
1199.498718284114
 20
363.9810129573785
 30
0.0000000000000000
 40
10.00000000000000
100
AcDbArc
 50
341.2570540824770
 51
360.0000000000002
  0
ARC
  5
529
100
AcDbEntity
  8
MAIN0
  6
CONTINUOUS
 62
3
100
AcDbCircle
 10
1136.998718284113
 20
385.1883230178265
 30
0.0000000000000000
 40
76.00000000000000
100
AcDbArc
 50
330.9974539733295
 51
341.2570540824770
  0
ARC
  5
52A
100
AcDbEntity
  8
MAIN0
  6
CONTINUOUS
 62
3
100
AcDbCircle
 10
1194.722197042760
 20
353.1883230178267
 30
0.0000000000000000
 40
10.00000000000000
100
AcDbArc
 50
270.0000000000002
 51
330.9974539733295
  0
LINE
  5
52B
100
AcDbEntity
  8
MAIN0
  6
CONTINUOUS
 62
3
100
AcDbLine
 10
1112.998718284114
 20
353.1883230178264
 30
0.0000000000000000
 11
1160.998718284114
 21
353.1883230178264
 31
0.0000000000000000
  0
ARC
  5
52C
100
AcDbEntity
  8
MAIN0
  6
CONTINUOUS
 62
3
100
AcDbCircle
 10
1136.998718284114
 20
385.1883230178265
 30
0.0000000000000000
 40
40.00000000000000
100
AcDbArc
 50
118.9550243718597
 51
233.1301023541564
  0
ARC
  5
52D
100
AcDbEntity
  8
MAIN0
  6
CONTINUOUS
 62
3
100
AcDbCircle
 10
1136.998718284114
 20
385.1883230178265
 30
0.0000000000000000
 40
40.00000000000000
100
AcDbArc
 50
306.8698976458439
 51
421.0449756281404
  0
ARC
  5
52E
100
AcDbEntity
  8
MAIN0
  6
CONTINUOUS
 62
3
100
AcDbCircle
 10
1136.998718284114
 20
385.1883230178265
 30
0.0000000000000000
 40
37.50000000000000
100
AcDbArc
 50
238.5760935141543
 51
301.4239064858454
  0
LINE
  5
52F
100
AcDbEntity
  8
MAIN0
  6
CONTINUOUS
 62
3
100
AcDbLine
 10
1056.498718284227
 20
320.1883230182925
 30
0.0000000000000000
 11
1127.998718284227
 21
320.1883230182926
 31
0.0000000000000000
  0
LINE
  5
530
100
AcDbEntity
  8
MAIN0
  6
CONTINUOUS
 62
3
100
AcDbLine
 10
1145.998718284227
 20
320.1883230182926
 30
0.0000000000000000
 11
1217.498718284227
 21
320.1883230182926
 31
0.0000000000000000
  0
LINE
  5
531
100
AcDbEntity
  8
MAIN0
  6
CONTINUOUS
 62
3
100
AcDbLine
 10
1054.698718284114
 20
421.3883230178265
 30
0.0000000000000000
 11
1219.298718284113
 21
421.3883230178265
 31
0.0000000000000000
  0
LINE
  5
532
100
AcDbEntity
  8
MAIN0
  6
CONTINUOUS
 62
3
100
AcDbLine
 10
1190.980968452600
 20
393.6883230182926
 30
0.0000000000000000
 11
1211.498718284227
 21
393.6883230182926
 31
0.0000000000000000
  0
LINE
  5
533
100
AcDbEntity
  8
MAIN0
  6
CONTINUOUS
 62
3
100
AcDbLine
 10
1176.434376379998
 20
378.4928864716010
 30
0.0000000000000000
 11
1182.320714414763
 21
388.6883230183046
 31
0.0000000000000000
  0
ARC
  5
534
100
AcDbEntity
  8
MAIN0
  6
CONTINUOUS
 62
3
100
AcDbCircle
 10
1190.980968452600
 20
383.6883230182926
 30
0.0000000000000000
 40
10.00000000000000
100
AcDbArc
 50
90.00000000000000
 51
149.9999999999178
  0
ARC
  5
535
100
AcDbEntity
  8
MAIN0
  6
CONTINUOUS
 62
3
100
AcDbCircle
 10
1083.016468115627
 20
383.6883230182924
 30
0.0000000000000000
 40
10.00000000000000
100
AcDbArc
 50
30.00000000008238
 51
90.00000000000014
  0
LINE
  5
536
100
AcDbEntity
  8
MAIN0
  6
CONTINUOUS
 62
3
100
AcDbLine
 10
1097.563060188229
 20
378.4928864716011
 30
0.0000000000000000
 11
1091.676722153465
 21
388.6883230183047
 31
0.0000000000000000
  0
LINE
  5
537
100
AcDbEntity
  8
MAIN0
  6
CONTINUOUS
 62
3
100
AcDbLine
 10
1083.016468115627
 20
393.6883230182924
 30
0.0000000000000000
 11
1062.498718284001
 21
393.6883230182924
 31
0.0000000000000000
  0
CIRCLE
  5
538
100
AcDbEntity
  8
MAIN0
  6
CONTINUOUS
 62
3
100
AcDbCircle
 10
1033.498718284197
 20
206.1327836300958
 30
0.0000000000000000
 40
7.000000000000000
  0
CIRCLE
  5
539
100
AcDbEntity
  8
MAIN0
  6
CONTINUOUS
 62
3
100
AcDbCircle
 10
1033.498718284197
 20
206.1327836300958
 30
0.0000000000000000
 40
8.000000000000000
  0
LINE
  5
53A
100
AcDbEntity
  8
MAIN0
  6
CONTINUOUS
 62
3
100
AcDbLine
 10
109.5846974452386
 20
414.1883230173606
 30
0.0000000000000000
 11
190.5846974452387
 21
414.1883230173606
 31
0.0000000000000000
  0
LINE
  5
53B
100
AcDbEntity
  8
MAIN0
  6
CONTINUOUS
 62
3
100
AcDbLine
 10
184.0846974448551
 20
380.1883230173608
 30
0.0000000000000000
 11
199.0846974452387
 21
380.1883230173608
 31
0.0000000000000000
  0
LINE
  5
53C
100
AcDbEntity
  8
MAIN0
  6
CONTINUOUS
 62
3
100
AcDbLine
 10
116.0846974448994
 20
357.1883230173606
 30
0.0000000000000000
 11
184.0846974448975
 21
357.1883230173607
 31
0.0000000000000000
  0
LINE
  5
53D
100
AcDbEntity
  8
MAIN0
  6
CONTINUOUS
 62
3
100
AcDbLine
 10
116.0846974448994
 20
357.1883230173606
 30
0.0000000000000000
 11
116.0846974448707
 21
380.1883230173608
 31
0.0000000000000000
  0
LINE
  5
53E
100
AcDbEntity
  8
MAIN0
  6
CONTINUOUS
 62
3
100
AcDbLine
 10
184.0846974448976
 20
357.1883230173607
 30
0.0000000000000000
 11
184.0846974448541
 21
380.1883230173607
 31
0.0000000000000000
  0
LINE
  5
53F
100
AcDbEntity
  8
WAKU0
  6
CONTINUOUS
 62
3
100
AcDbLine
 10
240.0000000000000
 20
51.00000000000000
 30
0.0000000000000000
 11
410.0000000000000
 21
51.00000000000000
 31
0.0000000000000000
  0
LINE
  5
540
100
AcDbEntity
  8
WAKU0
  6
CONTINUOUS
 62
3
100
AcDbLine
 10
240.0000000000000
 20
51.00000000000000
 30
0.0000000000000000
 11
240.0000000000000
 21
12.00000000000000
 31
0.0000000000000000
  0
LINE
  5
541
100
AcDbEntity
  8
WAKU0
  6
CONTINUOUS
 62
3
100
AcDbLine
 10
312.0000000000000
 20
51.00000000000000
 30
0.0000000000000000
 11
312.0000000000000
 21
12.00000000000000
 31
0.0000000000000000
  0
LINE
  5
542
100
AcDbEntity
  8
WAKU0
  6
CONTINUOUS
 62
3
100
AcDbLine
 10
332.0000000000000
 20
51.00000000000000
 30
0.0000000000000000
 11
332.0000000000000
 21
12.00000000000000
 31
0.0000000000000000
  0
LINE
  5
543
100
AcDbEntity
  8
WAKU0
  6
CONTINUOUS
 62
3
100
AcDbLine
 10
344.0000000000000
 20
51.00000000000000
 30
0.0000000000000000
 11
344.0000000000000
 21
12.00000000000000
 31
0.0000000000000000
  0
LINE
  5
544
100
AcDbEntity
  8
WAKU0
  6
CONTINUOUS
 62
3
100
AcDbLine
 10
344.0000000000000
 20
37.00000000000000
 30
0.0000000000000000
 11
410.0000000000000
 21
37.00000000000000
 31
0.0000000000000000
  0
LINE
  5
545
100
AcDbEntity
  8
WAKU0
  6
CONTINUOUS
 62
3
100
AcDbLine
 10
332.0000000000000
 20
23.00000000000000
 30
0.0000000000000000
 11
410.0000000000000
 21
23.00000000000000
 31
0.0000000000000000
  0
LINE
  5
546
100
AcDbEntity
  8
WAKU0
  6
CONTINUOUS
 62
3
100
AcDbLine
 10
375.0000000000000
 20
51.00000000000000
 30
0.0000000000000000
 11
375.0000000000000
 21
44.00000000000000
 31
0.0000000000000000
  0
LINE
  5
547
100
AcDbEntity
  8
WAKU0
  6
CONTINUOUS
 62
3
100
AcDbLine
 10
387.0000000000000
 20
51.00000000000000
 30
0.0000000000000000
 11
387.0000000000000
 21
44.00000000000000
 31
0.0000000000000000
  0
LINE
  5
548
100
AcDbEntity
  8
WAKU0
  6
CONTINUOUS
 62
3
100
AcDbLine
 10
312.0000000000000
 20
31.50000000000000
 30
0.0000000000000000
 11
332.0000000000000
 21
31.50000000000000
 31
0.0000000000000000
  0
LINE
  5
549
100
AcDbEntity
  8
WAKU0
  6
CONTINUOUS
 62
3
100
AcDbLine
 10
332.0000000000000
 20
44.00000000000000
 30
0.0000000000000000
 11
410.0000000000000
 21
44.00000000000000
 31
0.0000000000000000
  0
LINE
  5
54A
100
AcDbEntity
  8
WAKU0
  6
CONTINUOUS
 62
3
100
AcDbLine
 10
240.0000000000000
 20
37.00000000000000
 30
0.0000000000000000
 11
312.0000000000000
 21
37.00000000000000
 31
0.0000000000000000
  0
LINE
  5
54B
100
AcDbEntity
  8
WAKU0
  6
CONTINUOUS
 62
3
100
AcDbLine
 10
240.0000000000000
 20
23.00000000000000
 30
0.0000000000000000
 11
312.0000000000000
 21
23.00000000000000
 31
0.0000000000000000
  0
LINE
  5
54C
100
AcDbEntity
  8
WAKU0
  6
CONTINUOUS
 62
3
100
AcDbLine
 10
288.0000000000000
 20
37.00000000000000
 30
0.0000000000000000
 11
288.0000000000000
 21
12.00000000000000
 31
0.0000000000000000
  0
LINE
  5
54D
100
AcDbEntity
  8
WAKU0
  6
CONTINUOUS
 62
3
100
AcDbLine
 10
264.0000000000000
 20
37.00000000000000
 30
0.0000000000000000
 11
264.0000000000000
 21
23.00000000000000
 31
0.0000000000000000
  0
LINE
  5
54E
100
AcDbEntity
  8
WAKU0
  6
CONTINUOUS
 62
3
100
AcDbLine
 10
300.0000000000000
 20
26.00000000000000
 30
0.0000000000000000
 11
300.0000000000000
 21
23.00000000000000
 31
0.0000000000000000
  0
LINE
  5
54F
100
AcDbEntity
  8
WAKU0
  6
CONTINUOUS
 62
3
100
AcDbLine
 10
276.0000000000000
 20
26.00000000000000
 30
0.0000000000000000
 11
276.0000000000000
 21
23.00000000000000
 31
0.0000000000000000
  0
LINE
  5
550
100
AcDbEntity
  8
WAKU0
  6
CONTINUOUS
 62
3
100
AcDbLine
 10
252.0000000000000
 20
26.00000000000000
 30
0.0000000000000000
 11
252.0000000000000
 21
23.00000000000000
 31
0.0000000000000000
  0
LINE
  5
551
100
AcDbEntity
  8
WAKU0
  6
CONTINUOUS
 62
3
100
AcDbLine
 10
258.0000000000000
 20
51.00000000000000
 30
0.0000000000000000
 11
258.0000000000000
 21
37.00000000000000
 31
0.0000000000000000
  0
LINE
  5
552
100
AcDbEntity
  8
WAKU0
  6
CONTINUOUS
 62
3
100
AcDbLine
 10
240.0000000000000
 20
45.00000000000000
 30
0.0000000000000000
 11
312.0000000000000
 21
45.00000000000000
 31
0.0000000000000000
  0
LINE
  5
553
100
AcDbEntity
  8
WAKU0
  6
HIDDEN
 62
3
100
AcDbLine
 10
360.5000000000000
 20
23.00000000000000
 30
0.0000000000000000
 11
360.5000000000000
 21
12.00000000000000
 31
0.0000000000000000
  0
LINE
  5
554
100
AcDbEntity
  8
WAKU0
  6
HIDDEN
 62
3
100
AcDbLine
 10
372.9000000000000
 20
23.00000000000000
 30
0.0000000000000000
 11
372.9000000000000
 21
12.00000000000000
 31
0.0000000000000000
  0
MTEXT
  5
555
100
AcDbEntity
  8
WAKU0
  6
CONTINUOUS
 62
3
100
AcDbMText
 10
344.4820000243485
 20
49.04999995231628
 30
0.0000000000000000
 40
3.099999904632568
 41
0.0000000000000000
 71
     1
 72
     1
  1
{\H0.92x;{VE160N}}
 11
1.000000000000000
 21
0.0000000000000000
 31
0.0000000000000000
  7
STANDARD
  0
MTEXT
  5
556
100
AcDbEntity
  8
WAKU0
  6
CONTINUOUS
 62
3
100
AcDbMText
 10
360.3350002765656
 20
43.50000000000000
 30
0.0000000000000000
 40
3.000000000000000
 41
0.0000000000000000
 71
     1
 72
     1
  1
{\H0.94x;{パワーバイス\PＰＯＷＥＲ　ＶＩＳＥ}}
 11
1.000000000000000
 21
0.0000000000000000
 31
0.0000000000000000
  7
KNJYOKO
  0
MTEXT
  5
557
100
AcDbEntity
  8
WAKU0
  6
CONTINUOUS
 62
3
100
AcDbMText
 10
350.3999990373850
 20
34.83333333333333
 30
0.0000000000000000
 40
4.000000000000000
 41
0.0000000000000000
 71
     1
 72
     1
  1
{\H0.59x;{ＶＥ１６０Ｎ　ガイケイ\PＶＥ１６０Ｎ　ＯＵＴＳＩＤＥ　ＶＩＥＷ}}
 11
1.000000000000000
 21
0.0000000000000000
 31
0.0000000000000000
  7
KNJYOKO
  0
MTEXT
  5
558
100
AcDbEntity
  8
WAKU0
  6
CONTINUOUS
 62
3
100
AcDbMText
 10
318.0049998760223
 20
39.29999995231628
 30
0.0000000000000000
 40
3.099999904632568
 41
0.0000000000000000
 71
     1
 72
     1
  1
{\H0.90x;{1:3}}
 11
1.000000000000000
 21
0.0000000000000000
 31
0.0000000000000000
  7
STANDARD
  0
MTEXT
  5
559
100
AcDbEntity
  8
WAKU0
  6
CONTINUOUS
 62
3
100
AcDbMText
 10
374.4000001549721
 20
20.15000009536743
 30
0.0000000000000000
 40
5.300000190734863
 41
0.0000000000000000
 71
     1
 72
     1
  1
{\H0.90x;{6361}}
 11
1.000000000000000
 21
0.0000000000000000
 31
0.0000000000000000
  7
STANDARD
  0
MTEXT
  5
55A
100
AcDbEntity
  8
WAKU0
  6
CONTINUOUS
 62
3
100
AcDbMText
 10
362.3000000834465
 20
20.15000009536743
 30
0.0000000000000000
 40
5.300000190734863
 41
0.0000000000000000
 71
     1
 72
     1
  1
{\H0.87x;{39}}
 11
1.000000000000000
 21
0.0000000000000000
 31
0.0000000000000000
  7
STANDARD
  0
MTEXT
  5
55B
100
AcDbEntity
  8
WAKU0
  6
CONTINUOUS
 62
3
100
AcDbMText
 10
345.5000001192093
 20
20.15000009536743
 30
0.0000000000000000
 40
5.300000190734863
 41
0.0000000000000000
 71
     1
 72
     1
  1
{\H0.89x;{61M}}
 11
1.000000000000000
 21
0.0000000000000000
 31
0.0000000000000000
  7
STANDARD
  0
MTEXT
  5
55C
100
AcDbEntity
  8
WAKU0
  6
CONTINUOUS
 62
3
100
AcDbMText
 10
400.0000000476837
 20
20.15000009536743
 30
0.0000000000000000
 40
5.300000190734863
 41
0.0000000000000000
 71
     1
 72
     1
  1
{\H0.81x;{0}}
 11
1.000000000000000
 21
0.0000000000000000
 31
0.0000000000000000
  7
STANDARD
  0
MTEXT
  5
55D
100
AcDbEntity
  8
WAKU0
  6
CONTINUOUS
 62
3
100
AcDbMText
 10
400.0000000819564
 20
44.84999990463257
 30
0.0000000000000000
 40
5.300000190734863
 41
0.0000000000000000
 71
     7
 72
     1
  1
{\H0.81x;{ }}
 11
1.000000000000000
 21
0.0000000000000000
 31
0.0000000000000000
  7
STANDARD
  0
MTEXT
  5
55E
100
AcDbEntity
  8
WAKU0
  6
CONTINUOUS
 62
3
100
AcDbMText
 10
289.3850002884865
 20
33.00000000000000
 30
0.0000000000000000
 40
3.000000000000000
 41
0.0000000000000000
 71
     7
 72
     1
  1
{\H0.93x;{DRAWN BY}}
 11
1.000000000000000
 21
0.0000000000000000
 31
0.0000000000000000
  7
STANDARD
  0
MTEXT
  5
55F
100
AcDbEntity
  8
WAKU0
  6
CONTINUOUS
 62
3
100
AcDbMText
 10
269.2149997949600
 20
32.95000004768372
 30
0.0000000000000000
 40
3.099999904632568
 41
0.0000000000000000
 71
     7
 72
     1
  1
{\H0.92x;{CHIEF}}
 11
1.000000000000000
 21
0.0000000000000000
 31
0.0000000000000000
  7
STANDARD
  0
MTEXT
  5
560
100
AcDbEntity
  8
WAKU0
  6
CONTINUOUS
 62
3
100
AcDbMText
 10
242.4249997138977
 20
32.95000004768372
 30
0.0000000000000000
 40
3.099999904632568
 41
0.0000000000000000
 71
     7
 72
     1
  1
{\H0.92x;{MANAGER}}
 11
1.000000000000000
 21
0.0000000000000000
 31
0.0000000000000000
  7
STANDARD
  0
MTEXT
  5
561
100
AcDbEntity
  8
WAKU0
  6
CONTINUOUS
 62
3
100
AcDbMText
 10
244.6599994301796
 20
18.13333336512248
 30
0.0000000000000000
 40
3.099999904632568
 41
0.0000000000000000
 71
     7
 72
     1
  1
{\H0.93x;{KITAGAWA IRON\PWORKS CO.,LTD.}}
 11
1.000000000000000
 21
0.0000000000000000
 31
0.0000000000000000
  7
STANDARD
  0
MTEXT
  5
562
100
AcDbEntity
  8
WAKU0
  6
CONTINUOUS
 62
3
100
AcDbMText
 10
241.0850002169609
 20
46.50000000000000
 30
0.0000000000000000
 40
3.000000000000000
 41
0.0000000000000000
 71
     7
 72
     1
  1
{\H0.92x;{CAREER}}
 11
1.000000000000000
 21
0.0000000000000000
 31
0.0000000000000000
  7
STANDARD
  0
MTEXT
  5
563
100
AcDbEntity
  8
WAKU0
  6
CONTINUOUS
 62
3
100
AcDbMText
 10
294.6099998354912
 20
18.95000004768372
 30
0.0000000000000000
 40
3.099999904632568
 41
0.0000000000000000
 71
     7
 72
     1
  1
{\H0.91x;{DATE}}
 11
1.000000000000000
 21
0.0000000000000000
 31
0.0000000000000000
  7
STANDARD
  0
MTEXT
  5
564
100
AcDbEntity
  8
WAKU0
  6
CONTINUOUS
 62
3
100
AcDbMText
 10
313.9000002145767
 20
26.50000000000000
 30
0.0000000000000000
 40
3.000000000000000
 41
0.0000000000000000
 71
     7
 72
     1
  1
{\H0.63x;{3RD ANGLE}}
 11
1.000000000000000
 21
0.0000000000000000
 31
0.0000000000000000
  7
STANDARD
  0
MTEXT
  5
565
100
AcDbEntity
  8
WAKU0
  6
CONTINUOUS
 62
3
100
AcDbMText
 10
315.2149997949600
 20
45.95000004768372
 30
0.0000000000000000
 40
3.099999904632568
 41
0.0000000000000000
 71
     7
 72
     1
  1
{\H0.92x;{SCALE}}
 11
1.000000000000000
 21
0.0000000000000000
 31
0.0000000000000000
  7
STANDARD
  0
MTEXT
  5
566
100
AcDbEntity
  8
WAKU0
  6
CONTINUOUS
 62
3
100
AcDbMText
 10
405.7000000476837
 20
46.00000000000000
 30
0.0000000000000000
 40
3.000000000000000
 41
0.0000000000000000
 71
     7
 72
     1
  1
{\H0.63x;{kg}}
 11
1.000000000000000
 21
0.0000000000000000
 31
0.0000000000000000
  7
STANDARD
  0
MTEXT
  5
567
100
AcDbEntity
  8
WAKU0
  6
CONTINUOUS
 62
3
100
AcDbMText
 10
375.6000001430512
 20
46.00000000000000
 30
0.0000000000000000
 40
3.000000000000000
 41
0.0000000000000000
 71
     7
 72
     1
  1
{\H0.63x;{WEIGHT}}
 11
1.000000000000000
 21
0.0000000000000000
 31
0.0000000000000000
  7
STANDARD
  0
MTEXT
  5
568
100
AcDbEntity
  8
WAKU0
  6
CONTINUOUS
 62
3
100
AcDbMText
 10
334.0049998760223
 20
18.13333336512248
 30
0.0000000000000000
 40
3.099999904632568
 41
0.0000000000000000
 71
     7
 72
     1
  1
{\H0.90x;{DRW\PNO.}}
 11
1.000000000000000
 21
0.0000000000000000
 31
0.0000000000000000
  7
STANDARD
  0
MTEXT
  5
569
100
AcDbEntity
  8
WAKU0
  6
CONTINUOUS
 62
3
100
AcDbMText
 10
332.6099998354912
 20
31.95000004768372
 30
0.0000000000000000
 40
3.099999904632568
 41
0.0000000000000000
 71
     7
 72
     1
  1
{\H0.91x;{NAME}}
 11
1.000000000000000
 21
0.0000000000000000
 31
0.0000000000000000
  7
STANDARD
  0
MTEXT
  5
56A
100
AcDbEntity
  8
WAKU0
  6
CONTINUOUS
 62
3
100
AcDbMText
 10
332.6099998354912
 20
45.95000004768372
 30
0.0000000000000000
 40
3.099999904632568
 41
0.0000000000000000
 71
     7
 72
     1
  1
{\H0.91x;{TYPE}}
 11
1.000000000000000
 21
0.0000000000000000
 31
0.0000000000000000
  7
STANDARD
  0
LINE
  5
56B
100
AcDbEntity
  8
WAKU0
  6
HIDDEN
 62
3
100
AcDbLine
 10
407.1599564743885
 20
13.84999990463257
 30
0.0000000000000000
 11
396.9400436209789
 21
13.84999990463257
 31
0.0000000000000000
  0
LINE
  5
56C
100
AcDbEntity
  8
WAKU0
  6
HIDDEN
 62
3
100
AcDbLine
 10
407.1599564743885
 20
13.84999990463250
 30
0.0000000000000000
 11
402.0500000476852
 21
22.70070406014901
 31
0.0000000000000000
  0
LINE
  5
56D
100
AcDbEntity
  8
WAKU0
  6
HIDDEN
 62
3
100
AcDbLine
 10
402.0500000476852
 20
22.70070406014902
 30
0.0000000000000000
 11
396.9400436209789
 21
13.84999990463248
 31
0.0000000000000000
  0
LINE
  5
56E
100
AcDbEntity
  8
WAKU0
  6
CONTINUOUS
 62
3
100
AcDbLine
 10
330.4713877753800
 20
15.78041421262812
 30
0.0000000000000000
 11
330.4713877753800
 21
21.78041421262815
 31
0.0000000000000000
  0
LINE
  5
56F
100
AcDbEntity
  8
WAKU0
  6
CONTINUOUS
 62
3
100
AcDbLine
 10
323.9336941228225
 20
17.28041421262811
 30
0.0000000000000000
 11
323.9336941228225
 21
20.28041421262824
 31
0.0000000000000000
  0
LINE
  5
570
100
AcDbEntity
  8
WAKU0
  6
CENTER
 62
12
100
AcDbLine
 10
313.4321805514995
 20
18.78041421262813
 30
0.0000000000000000
 11
331.2765788964694
 21
18.78041421262813
 31
0.0000000000000000
  0
LINE
  5
571
100
AcDbEntity
  8
WAKU0
  6
CENTER
 62
12
100
AcDbLine
 10
317.4474565857986
 20
14.55921662918448
 30
0.0000000000000000
 11
317.4474565857986
 21
22.89865102149943
 31
0.0000000000000000
  0
LINE
  5
572
100
AcDbEntity
  8
WAKU0
  6
CONTINUOUS
 62
3
100
AcDbLine
 10
323.9336941228225
 20
20.28041421262797
 30
0.0000000000000000
 11
330.4713877753800
 21
21.78041421262795
 31
0.0000000000000000
  0
LINE
  5
573
100
AcDbEntity
  8
WAKU0
  6
CONTINUOUS
 62
3
100
AcDbLine
 10
323.9336941228225
 20
17.28041421262811
 30
0.0000000000000000
 11
330.4713877753799
 21
15.78041421262812
 31
0.0000000000000000
  0
CIRCLE
  5
574
100
AcDbEntity
  8
WAKU0
  6
CONTINUOUS
 62
3
100
AcDbCircle
 10
317.4474565857986
 20
18.78041421262813
 30
0.0000000000000000
 40
1.499999999999972
  0
CIRCLE
  5
575
100
AcDbEntity
  8
WAKU0
  6
CONTINUOUS
 62
3
100
AcDbCircle
 10
317.4474565857986
 20
18.78041421262813
 30
0.0000000000000000
 40
2.999999999999979
  0
LINE
  5
576
100
AcDbEntity
  8
A0
  6
CONTINUOUS
 62
3
100
AcDbLine
 10
163.2338789514975
 20
168.7160755101719
 30
0.0000000000000000
 11
163.2338789514975
 21
54.21607777514383
 31
0.0000000000000000
  0
LINE
  5
577
100
AcDbEntity
  8
A0
  6
CONTINUOUS
 62
3
100
AcDbLine
 10
30.23387942828742
 20
155.9660757489053
 30
0.0000000000000000
 11
163.2338789514975
 21
155.9660757489644
 31
0.0000000000000000
  0
LINE
  5
578
100
AcDbEntity
  8
A0
  6
CONTINUOUS
 62
3
100
AcDbLine
 10
30.23387942828640
 20
168.7160755100540
 30
0.0000000000000000
 11
163.2338789514975
 21
168.7160755101720
 31
0.0000000000000000
  0
MTEXT
  5
579
100
AcDbEntity
  8
A0
  6
CONTINUOUS
 62
3
100
AcDbMText
 10
47.10887823621806
 20
166.2160755105165
 30
0.0000000000000000
 40
7.749999761581421
 41
0.0000000000000000
 71
     1
 72
     1
  1
{\H0.71x;{仕様　　SPECIFICATIONS}}
 11
1.000000000000000
 21
0.0000000000000000
 31
0.0000000000000000
  7
KNJYOKO
  0
MTEXT
  5
57A
100
AcDbEntity
  8
A0
  6
CONTINUOUS
 62
3
100
AcDbMText
 10
119.2338779977921
 20
149.5910758678524
 30
0.0000000000000000
 40
7.749999761581421
 41
0.0000000000000000
 71
     1
 72
     1
  1
{\H0.70x;{０～２７４mm}}
 11
1.000000000000000
 21
0.0000000000000000
 31
0.0000000000000000
  7
KNJYOKO
  0
MTEXT
  5
57B
100
AcDbEntity
  8
A0
  6
CONTINUOUS
 62
3
100
AcDbMText
 10
31.48387942830357
 20
144.4660759870617
 30
0.0000000000000000
 40
7.749999761581421
 41
0.0000000000000000
 71
     1
 72
     1
  1
{\H0.71x;{CLAMPING RANGE}}
 11
1.000000000000000
 21
0.0000000000000000
 31
0.0000000000000000
  7
STANDARD
  0
LINE
  5
57C
100
AcDbEntity
  8
A0
  6
CONTINUOUS
 62
3
100
AcDbLine
 10
30.23387942828891
 20
135.4660762253096
 30
0.0000000000000000
 11
163.2338789514975
 21
135.4660762254275
 31
0.0000000000000000
  0
LINE
  5
57D
100
AcDbEntity
  8
A0
  6
CONTINUOUS
 62
3
100
AcDbLine
 10
117.9838779977898
 20
155.9660757489422
 30
0.0000000000000000
 11
117.9838779977898
 21
135.4660762253830
 31
0.0000000000000000
  0
MTEXT
  5
57E
100
AcDbEntity
  8
A0
  6
CONTINUOUS
 62
3
100
AcDbMText
 10
31.48387942830357
 20
123.9660764638988
 30
0.0000000000000000
 40
7.749999761581421
 41
0.0000000000000000
 71
     1
 72
     1
  1
{\H0.71x;{TIGHTENING TORQUE}}
 11
1.000000000000000
 21
0.0000000000000000
 31
0.0000000000000000
  7
STANDARD
  0
LINE
  5
57F
100
AcDbEntity
  8
A0
  6
CONTINUOUS
 62
3
100
AcDbLine
 10
163.2338789514974
 20
114.9660767026387
 30
0.0000000000000000
 11
30.23387942829053
 21
114.9660767025796
 31
0.0000000000000000
  0
LINE
  5
580
100
AcDbEntity
  8
A0
  6
CONTINUOUS
 62
3
100
AcDbLine
 10
117.9838779977898
 20
114.9660767026165
 30
0.0000000000000000
 11
117.9838779977898
 21
54.21607777510381
 31
0.0000000000000000
  0
LINE
  5
581
100
AcDbEntity
  8
A0
  6
CONTINUOUS
 62
3
100
AcDbLine
 10
117.9838779977897
 20
94.46607717945383
 30
0.0000000000000000
 11
163.2338789514975
 21
94.46607717947384
 31
0.0000000000000000
  0
MTEXT
  5
582
100
AcDbEntity
  8
A0
  6
CONTINUOUS
 62
3
100
AcDbMText
 10
124.2338784746293
 20
93.21607717877633
 30
0.0000000000000000
 40
7.749999761581421
 41
0.0000000000000000
 71
     1
 72
     1
  1
{\H0.67x;{2}}
 11
1.000000000000000
 21
0.0000000000000000
 31
0.0000000000000000
  7
STANDARD
  0
LINE
  5
583
100
AcDbEntity
  8
A0
  6
CONTINUOUS
 62
3
100
AcDbLine
 10
163.2338789514974
 20
73.96607741789443
 30
0.0000000000000000
 11
30.23387942829295
 21
73.96607741783531
 31
0.0000000000000000
  0
MTEXT
  5
584
100
AcDbEntity
  8
A0
  6
CONTINUOUS
 62
3
100
AcDbMText
 10
124.2338784746293
 20
82.96607717915457
 30
0.0000000000000000
 40
7.749999761581421
 41
0.0000000000000000
 71
     1
 72
     1
  1
{\H0.67x;{3}}
 11
1.000000000000000
 21
0.0000000000000000
 31
0.0000000000000000
  7
STANDARD
  0
LINE
  5
585
100
AcDbEntity
  8
A0
  6
CONTINUOUS
 62
3
100
AcDbLine
 10
117.9838779977897
 20
104.7160769406389
 30
0.0000000000000000
 11
163.2338789514974
 21
104.7160769406791
 31
0.0000000000000000
  0
LINE
  5
586
100
AcDbEntity
  8
A0
  6
CONTINUOUS
 62
3
100
AcDbLine
 10
135.1326728676713
 20
114.9660767026241
 30
0.0000000000000000
 11
135.1326728676713
 21
73.96607741788215
 31
0.0000000000000000
  0
MTEXT
  5
587
100
AcDbEntity
  8
A0
  6
CONTINUOUS
 62
3
100
AcDbMText
 10
138.9549321197919
 20
103.4660769403568
 30
0.0000000000000000
 40
7.749999761581421
 41
0.0000000000000000
 71
     1
 72
     1
  1
{\H0.70x;{20KN}}
 11
1.000000000000000
 21
0.0000000000000000
 31
0.0000000000000000
  7
STANDARD
  0
MTEXT
  5
588
100
AcDbEntity
  8
A0
  6
CONTINUOUS
 62
3
100
AcDbMText
 10
138.9549321197919
 20
93.21607717877542
 30
0.0000000000000000
 40
7.749999761581421
 41
0.0000000000000000
 71
     1
 72
     1
  1
{\H0.70x;{32KN}}
 11
1.000000000000000
 21
0.0000000000000000
 31
0.0000000000000000
  7
STANDARD
  0
MTEXT
  5
589
100
AcDbEntity
  8
A0
  6
CONTINUOUS
 62
3
100
AcDbMText
 10
138.9549321197919
 20
82.96607717915366
 30
0.0000000000000000
 40
7.749999761581421
 41
0.0000000000000000
 71
     1
 72
     1
  1
{\H0.70x;{45KN}}
 11
1.000000000000000
 21
0.0000000000000000
 31
0.0000000000000000
  7
STANDARD
  0
MTEXT
  5
58A
100
AcDbEntity
  8
A0
  6
CONTINUOUS
 62
3
100
AcDbMText
 10
124.2338784746293
 20
103.4660769403578
 30
0.0000000000000000
 40
7.749999761581421
 41
0.0000000000000000
 71
     1
 72
     1
  1
{\H0.67x;{1}}
 11
1.000000000000000
 21
0.0000000000000000
 31
0.0000000000000000
  7
STANDARD
  0
MTEXT
  5
58B
100
AcDbEntity
  8
A0
  6
CONTINUOUS
 62
3
100
AcDbMText
 10
129.6126916449636
 20
67.59107753677220
 30
0.0000000000000000
 40
7.749999761581421
 41
0.0000000000000000
 71
     1
 72
     1
  1
{\H0.70x;{62kg}}
 11
1.000000000000000
 21
0.0000000000000000
 31
0.0000000000000000
  7
STANDARD
  0
MTEXT
  5
58C
100
AcDbEntity
  8
A0
  6
CONTINUOUS
 62
3
100
AcDbMText
 10
31.48387942830357
 20
62.46607765599173
 30
0.0000000000000000
 40
6.999999880790710
 41
0.0000000000000000
 71
     1
 72
     1
  1
{\H0.67x;{MASS OF POWER VISE}}
 11
1.000000000000000
 21
0.0000000000000000
 31
0.0000000000000000
  7
STANDARD
  0
MTEXT
  5
58D
100
AcDbEntity
  8
A0
  6
CONTINUOUS
 62
3
100
AcDbMText
 10
31.48387942830357
 20
72.71607741757315
 30
0.0000000000000000
 40
7.749999761581421
 41
0.0000000000000000
 71
     1
 72
     1
  1
{\H0.70x;{製品質量}}
 11
1.000000000000000
 21
0.0000000000000000
 31
0.0000000000000000
  7
KNJYOKO
  0
MTEXT
  5
58E
100
AcDbEntity
  8
A0
  6
CONTINUOUS
 62
3
100
AcDbMText
 10
31.48387942830357
 20
103.4660769407360
 30
0.0000000000000000
 40
7.749999761581421
 41
0.0000000000000000
 71
     1
 72
     1
  1
{\H0.71x;{CLAMP RANGE}}
 11
1.000000000000000
 21
0.0000000000000000
 31
0.0000000000000000
  7
STANDARD
  0
MTEXT
  5
58F
100
AcDbEntity
  8
A0
  6
CONTINUOUS
 62
3
100
AcDbMText
 10
31.48387942830357
 20
113.7160767023174
 30
0.0000000000000000
 40
7.749999761581421
 41
0.0000000000000000
 71
     1
 72
     1
  1
{\H0.70x;{締付けレンジ}}
 11
1.000000000000000
 21
0.0000000000000000
 31
0.0000000000000000
  7
KNJYOKO
  0
LINE
  5
590
100
AcDbEntity
  8
A0
  6
CONTINUOUS
 62
3
100
AcDbLine
 10
30.23387942828650
 20
168.7160755100536
 30
0.0000000000000000
 11
30.23387942829467
 21
54.21607777503020
 31
0.0000000000000000
  0
LINE
  5
591
100
AcDbEntity
  8
A0
  6
CONTINUOUS
 62
3
100
AcDbLine
 10
163.2338789514974
 20
54.21607777514849
 30
0.0000000000000000
 11
30.23387942829454
 21
54.21607777503054
 31
0.0000000000000000
  0
MTEXT
  5
592
100
AcDbEntity
  8
A0
  6
CONTINUOUS
 62
3
100
AcDbMText
 10
31.48387942830357
 20
134.2160762254803
 30
0.0000000000000000
 40
7.749999761581421
 41
0.0000000000000000
 71
     1
 72
     1
  1
{\H0.70x;{締付トルク}}
 11
1.000000000000000
 21
0.0000000000000000
 31
0.0000000000000000
  7
KNJYOKO
  0
MTEXT
  5
593
100
AcDbEntity
  8
A0
  6
CONTINUOUS
 62
3
100
AcDbMText
 10
31.48387942830357
 20
154.7160757486431
 30
0.0000000000000000
 40
7.749999761581421
 41
0.0000000000000000
 71
     1
 72
     1
  1
{\H0.70x;{口金の開き}}
 11
1.000000000000000
 21
0.0000000000000000
 31
0.0000000000000000
  7
KNJYOKO
  0
LINE
  5
594
100
AcDbEntity
  8
A0
  6
CONTINUOUS
 62
3
100
AcDbLine
 10
117.9838779977898
 20
84.21607717945383
 30
0.0000000000000000
 11
163.2338789514975
 21
84.21607717947384
 31
0.0000000000000000
  0
MTEXT
  5
595
100
AcDbEntity
  8
A0
  6
CONTINUOUS
 62
3
100
AcDbMText
 10
138.9549321197919
 20
113.7160767023165
 30
0.0000000000000000
 40
7.749999761581421
 41
0.0000000000000000
 71
     1
 72
     1
  1
{\H0.70x;{10KN}}
 11
1.000000000000000
 21
0.0000000000000000
 31
0.0000000000000000
  7
STANDARD
  0
MTEXT
  5
596
100
AcDbEntity
  8
A0
  6
CONTINUOUS
 62
3
100
AcDbMText
 10
124.2338784746293
 20
113.7160767023174
 30
0.0000000000000000
 40
7.749999761581421
 41
0.0000000000000000
 71
     1
 72
     1
  1
{\H0.67x;{0}}
 11
1.000000000000000
 21
0.0000000000000000
 31
0.0000000000000000
  7
STANDARD
  0
ENDSEC
  0
SECTION
  2
OBJECTS
  0
DICTIONARY
  5
5F7
100
AcDbDictionary
  3
ACAD_GROUP
350
5F8
  3
ACAD_MLINESTYLE
350
5F9
  3
DWGPROPS
350
5FA
  0
DICTIONARY
  5
5F8
102
{ACAD_REACTORS
330
5F7
102
}
100
AcDbDictionary
  0
DICTIONARY
  5
5F9
102
{ACAD_REACTORS
330
5F7
102
}
100
AcDbDictionary
  3
STANDARD
350
5FB
  0
MLINESTYLE
  5
5FB
102
{ACAD_REACTORS
330
5F9
102
}
100
AcDbMlineStyle
  2
STANDARD
 70
     0
  3

 62
   256
 51
90.00
 52
90.00
 71
     2
 49
0.50
 62
   256
  6
BYLAYER
 49
-0.50
 62
   256
  6
BYLAYER
  0
XRECORD
  5
5FA
102
{ACAD_REACTORS
330
5F7
102
}
100
AcDbXrecord
280
     1
  1
DWGPROPS COOKIE
  2
ＶＥ１６０　ガイケイ
  3

  4

  6
パワーバイス
  7

  8

  9

300
=
301
=
302
=
303
=
304
=
305
=
306
=
307
=
308
=
309
=
 40
0.000000
 41
0.000000
 42
0.000000
  1

 90
        0
  0
ENDSEC
  0
EOF
