  0
SECTION
  2
HEADER
  9
$ACADVER
  1
AC1014
  9
$DWGCODEPAGE
  3
ANSI_932
  9
$LTSCALE
 40
20.0
  9
$FILLMODE
 70
     1
  9
$CLAYER
  8
0
  9
$PDMODE
 70
     0
  9
$SPLFRAME
 70
     0
  9
$SPLINETYPE
 70
     6
  9
$SPLINESEGS
 70
     8
  9
$DIMASZ
 40
2.000000
  9
$DIMEXE
 40
2.000000
  9
$DIMEXO
 40
0.800000
  9
$DIMTAD
 70
     1
  9
$DIMTIH
 70
     0
  9
$DIMTOH
 70
     0
  9
$DIMTVP
 40
0.500000
  9
$DIMTXT
 40
3.100000
  9
$EXTMIN
 10
0.000000
 20
0.000000
 30
0.000000
  9
$EXTMAX
 10
297.000000
 20
420.000000
 30
0.000000
  9
$MEASUREMENT
 70
  1
  9
$LIMMIN
 10
0.000000
 20
0.000000
  9
$LIMMAX
 10
297.000000
 20
420.000000
  9
$HANDLING
 70
     1
  9
$HANDSEED
  5
614
  9
$DIMBLK
  1
_OPEN
  9
$DIMDEC
 70
     3
  9
$DIMAUNIT
 70
     1
  9
$DIMZIN
 70
     8
  9
$DIMTOFL
 70
     1
  0
ENDSEC
  0
SECTION
  2
CLASSES
  0
ENDSEC
  0
SECTION
  2
TABLES
  0
TABLE
  2
VPORT
  5
5AF
100
AcDbSymbolTable
 70
     1
  0
VPORT
  5
5B0
100
AcDbSymbolTableRecord
100
AcDbViewportTableRecord
  2
*ACTIVE
 70
     0
 12
3239.441201
 22
-908.087697
 40
17666.011843
 41
1.314634
  0
ENDTAB
  0
TABLE
  2
LTYPE
  5
5B1
100
AcDbSymbolTable
 70
     4
  0
LTYPE
  5
5B2
100
AcDbSymbolTableRecord
100
AcDbLinetypeTableRecord
  2
BYBLOCK
 70
     0
  3

 72
    65
 73
     0
 40
0.0
  0
LTYPE
  5
5B3
100
AcDbSymbolTableRecord
100
AcDbLinetypeTableRecord
  2
BYLAYER
 70
     0
  3

 72
    65
 73
     0
 40
0.0
  0
LTYPE
  5
5B4
100
AcDbSymbolTableRecord
100
AcDbLinetypeTableRecord
  2
CONTINUOUS
 70
     0
  3
Solid line (NEC CAE2D for Win R12.1 : 2016.08.08)
 72
    65
 73
     0
 40
0.0
  0
LTYPE
  5
5B5
100
AcDbSymbolTableRecord
100
AcDbLinetypeTableRecord
  2
HIDDEN
 70
     0
  3
__ __ __ __ __ __ __ __ __ __ __ __ __ __
 72
    65
 73
     2
 40
0.375
 49
0.25
 74
     0
 49
-0.125
 74
     0
  0
LTYPE
  5
5B6
100
AcDbSymbolTableRecord
100
AcDbLinetypeTableRecord
  2
CENTER
 70
     0
  3
____ _ ____ _ ____ _ ____ _ ____ _ ____
 72
    65
 73
     4
 40
2.0
 49
1.25
 74
     0
 49
-0.25
 74
     0
 49
0.25
 74
     0
 49
-0.25
 74
     0
  0
LTYPE
  5
5B7
100
AcDbSymbolTableRecord
100
AcDbLinetypeTableRecord
  2
PHANTOM
 70
     0
  3
______  __  __  ______  __  __  ______ 
 72
    65
 73
     6
 40
2.5
 49
1.25
 74
     0
 49
-0.25
 74
     0
 49
0.25
 74
     0
 49
-0.25
 74
     0
 49
0.25
 74
     0
 49
-0.25
 74
     0
  0
ENDTAB
  0
TABLE
  2
LAYER
  5
5B8
100
AcDbSymbolTable
 70
    10
  0
LAYER
  5
5B9
100
AcDbSymbolTableRecord
100
AcDbLayerTableRecord
  2
0
 70
     0
 62
     7
  6
CONTINUOUS
  0
LAYER
  5
5BA
100
AcDbSymbolTableRecord
100
AcDbLayerTableRecord
  2
MAIN0
 70
     0
 62
     7
  6
CONTINUOUS
  0
LAYER
  5
5BB
100
AcDbSymbolTableRecord
100
AcDbLayerTableRecord
  2
MAIN1
 70
     0
 62
     7
  6
CONTINUOUS
  0
LAYER
  5
5BC
100
AcDbSymbolTableRecord
100
AcDbLayerTableRecord
  2
MAIN3
 70
     0
 62
     7
  6
CONTINUOUS
  0
LAYER
  5
5BD
100
AcDbSymbolTableRecord
100
AcDbLayerTableRecord
  2
MAIN10
 70
     0
 62
     7
  6
CONTINUOUS
  0
LAYER
  5
5BE
100
AcDbSymbolTableRecord
100
AcDbLayerTableRecord
  2
MAIN1023
 70
     0
 62
    16
  6
CONTINUOUS
  0
LAYER
  5
5BF
100
AcDbSymbolTableRecord
100
AcDbLayerTableRecord
  2
WAKU0
 70
     0
 62
     7
  6
CONTINUOUS
  0
LAYER
  5
5C0
100
AcDbSymbolTableRecord
100
AcDbLayerTableRecord
  2
WAKU1023
 70
     0
 62
    16
  6
CONTINUOUS
  0
LAYER
  5
5C1
100
AcDbSymbolTableRecord
100
AcDbLayerTableRecord
  2
A0
 70
     0
 62
     7
  6
CONTINUOUS
  0
LAYER
  5
5C2
100
AcDbSymbolTableRecord
100
AcDbLayerTableRecord
  2
A1023
 70
     0
 62
    16
  6
CONTINUOUS
  0
ENDTAB
  0
TABLE
  2
STYLE
  5
5C3
100
AcDbSymbolTable
 70
     4
  0
STYLE
  5
5C4
100
AcDbSymbolTableRecord
100
AcDbTextStyleTableRecord
  2
STANDARD
 70
    64
 40
0.0
 41
1.0
 50
0.0
 71
     0
 42
7.749999761581421
  3
TXT
  4

  0
STYLE
  5
5C5
100
AcDbSymbolTableRecord
100
AcDbTextStyleTableRecord
  2
ANKTATE
 70
    68
 40
0.0
 41
1.0
 50
0.0
 71
     0
 42
7.749999761581421
  3
TXT
  4

  0
STYLE
  5
49B
100
AcDbSymbolTableRecord
100
AcDbTextStyleTableRecord
  2
KNJYOKO
 70
    64
 40
0.0
 41
1.0
 50
0.0
 71
     0
 42
7.749999761581421
  3
TXT
  4
BIGFONT
  0
STYLE
  5
5C6
100
AcDbSymbolTableRecord
100
AcDbTextStyleTableRecord
  2
KNJTATE
 70
    68
 40
0.0
 41
1.0
 50
0.0
 71
     0
 42
7.749999761581421
  3
TXT
  4
BIGFONT
  0
ENDTAB
  0
TABLE
  2
VIEW
  5
5C7
100
AcDbSymbolTable
 70
     0
  0
ENDTAB
  0
TABLE
  2
UCS
  5
5C8
100
AcDbSymbolTable
 70
     0
  0
ENDTAB
  0
TABLE
  2
APPID
  5
5C9
100
AcDbSymbolTable
 70
     1
  0
APPID
  5
5CA
100
AcDbSymbolTableRecord
100
AcDbRegAppTableRecord
  2
ACAD
 70
     0
  0
ENDTAB
  0
TABLE
  2
DIMSTYLE
  5
5CB
100
AcDbSymbolTable
 70
     1
  0
DIMSTYLE
105
5CC
100
AcDbSymbolTableRecord
100
AcDbDimStyleTableRecord
  2
STANDARD
 70
     0
 41
2.000000
 44
2.000000
 42
0.800000
145
0.661290
140
3.100000
144
1.000000
146
0.903226
340
5C4
  0
DIMSTYLE
105
5CD
100
AcDbSymbolTableRecord
100
AcDbDimStyleTableRecord
  2
MAIN001
 70
     0
 41
6.000000
 44
6.000000
 42
2.400000
145
0.553763
140
9.300000
144
1.000000
146
0.903226
 77
     1
 73
     0
 74
     0
271
     3
275
     1
 78
     8
172
     1
340
5C4
  0
DIMSTYLE
105
5CE
100
AcDbSymbolTableRecord
100
AcDbDimStyleTableRecord
  2
WAKU002
 70
     0
 41
2.000000
 44
2.000000
 42
0.800000
145
0.661290
140
3.100000
144
1.000000
146
0.903226
 77
     1
 73
     0
 74
     0
271
     3
275
     1
 78
     8
172
     1
340
5C4
  0
DIMSTYLE
105
5CF
100
AcDbSymbolTableRecord
100
AcDbDimStyleTableRecord
  2
A003
 70
     0
 41
5.000000
 44
5.000000
 42
2.000000
145
0.564516
140
7.750000
144
1.000000
146
0.903226
 77
     1
 73
     0
 74
     0
271
     3
275
     1
 78
     8
172
     1
340
5C4
  0
ENDTAB
  0
TABLE
  2
BLOCK_RECORD
  5
5D0
100
AcDbSymbolTable
 70
    68
  0
BLOCK_RECORD
  5
5D1
100
AcDbSymbolTableRecord
100
AcDbBlockTableRecord
  2
*MODEL_SPACE
  0
BLOCK_RECORD
  5
5D2
100
AcDbSymbolTableRecord
100
AcDbBlockTableRecord
  2
*PAPER_SPACE
  0
BLOCK_RECORD
  5
1
100
AcDbSymbolTableRecord
100
AcDbBlockTableRecord
  2
_NONE
  0
BLOCK_RECORD
  5
4
100
AcDbSymbolTableRecord
100
AcDbBlockTableRecord
  2
_CLOSED
  0
BLOCK_RECORD
  5
B
100
AcDbSymbolTableRecord
100
AcDbBlockTableRecord
  2
_DOT
  0
BLOCK_RECORD
  5
13
100
AcDbSymbolTableRecord
100
AcDbBlockTableRecord
  2
_OPEN
  0
BLOCK_RECORD
  5
19
100
AcDbSymbolTableRecord
100
AcDbBlockTableRecord
  2
_ORIGIN
  0
BLOCK_RECORD
  5
1E
100
AcDbSymbolTableRecord
100
AcDbBlockTableRecord
  2
_OPEN30
  0
BLOCK_RECORD
  5
24
100
AcDbSymbolTableRecord
100
AcDbBlockTableRecord
  2
_BOXFILLED
  0
BLOCK_RECORD
  5
29
100
AcDbSymbolTableRecord
100
AcDbBlockTableRecord
  2
_BOXBLANK
  0
BLOCK_RECORD
  5
31
100
AcDbSymbolTableRecord
100
AcDbBlockTableRecord
  2
_OBLIQUE
  0
BLOCK_RECORD
  5
35
100
AcDbSymbolTableRecord
100
AcDbBlockTableRecord
  2
_OPEN90
  0
BLOCK_RECORD
  5
3B
100
AcDbSymbolTableRecord
100
AcDbBlockTableRecord
  2
_CLOSEDBLANK
  0
BLOCK_RECORD
  5
41
100
AcDbSymbolTableRecord
100
AcDbBlockTableRecord
  2
_DOTBLANK
  0
BLOCK_RECORD
  5
5D3
100
AcDbSymbolTableRecord
100
AcDbBlockTableRecord
  2
*D0
  0
BLOCK_RECORD
  5
5D4
100
AcDbSymbolTableRecord
100
AcDbBlockTableRecord
  2
*D1
  0
BLOCK_RECORD
  5
5D5
100
AcDbSymbolTableRecord
100
AcDbBlockTableRecord
  2
*D2
  0
BLOCK_RECORD
  5
5D6
100
AcDbSymbolTableRecord
100
AcDbBlockTableRecord
  2
*D3
  0
BLOCK_RECORD
  5
5D7
100
AcDbSymbolTableRecord
100
AcDbBlockTableRecord
  2
*D4
  0
BLOCK_RECORD
  5
5D8
100
AcDbSymbolTableRecord
100
AcDbBlockTableRecord
  2
*D5
  0
BLOCK_RECORD
  5
5D9
100
AcDbSymbolTableRecord
100
AcDbBlockTableRecord
  2
*D6
  0
BLOCK_RECORD
  5
5DA
100
AcDbSymbolTableRecord
100
AcDbBlockTableRecord
  2
*D7
  0
BLOCK_RECORD
  5
5DB
100
AcDbSymbolTableRecord
100
AcDbBlockTableRecord
  2
*D8
  0
BLOCK_RECORD
  5
5DC
100
AcDbSymbolTableRecord
100
AcDbBlockTableRecord
  2
*D9
  0
BLOCK_RECORD
  5
5DD
100
AcDbSymbolTableRecord
100
AcDbBlockTableRecord
  2
*D10
  0
BLOCK_RECORD
  5
5DE
100
AcDbSymbolTableRecord
100
AcDbBlockTableRecord
  2
*D11
  0
BLOCK_RECORD
  5
5DF
100
AcDbSymbolTableRecord
100
AcDbBlockTableRecord
  2
*D12
  0
BLOCK_RECORD
  5
5E0
100
AcDbSymbolTableRecord
100
AcDbBlockTableRecord
  2
*D13
  0
BLOCK_RECORD
  5
5E1
100
AcDbSymbolTableRecord
100
AcDbBlockTableRecord
  2
*D14
  0
BLOCK_RECORD
  5
5E2
100
AcDbSymbolTableRecord
100
AcDbBlockTableRecord
  2
*D15
  0
BLOCK_RECORD
  5
5E3
100
AcDbSymbolTableRecord
100
AcDbBlockTableRecord
  2
D16
  0
BLOCK_RECORD
  5
5E4
100
AcDbSymbolTableRecord
100
AcDbBlockTableRecord
  2
*D17
  0
BLOCK_RECORD
  5
5E5
100
AcDbSymbolTableRecord
100
AcDbBlockTableRecord
  2
*D18
  0
BLOCK_RECORD
  5
5E6
100
AcDbSymbolTableRecord
100
AcDbBlockTableRecord
  2
*D19
  0
BLOCK_RECORD
  5
5E7
100
AcDbSymbolTableRecord
100
AcDbBlockTableRecord
  2
*D20
  0
BLOCK_RECORD
  5
5E8
100
AcDbSymbolTableRecord
100
AcDbBlockTableRecord
  2
*D21
  0
BLOCK_RECORD
  5
5E9
100
AcDbSymbolTableRecord
100
AcDbBlockTableRecord
  2
*D22
  0
BLOCK_RECORD
  5
5EA
100
AcDbSymbolTableRecord
100
AcDbBlockTableRecord
  2
*D23
  0
BLOCK_RECORD
  5
5EB
100
AcDbSymbolTableRecord
100
AcDbBlockTableRecord
  2
*D24
  0
BLOCK_RECORD
  5
5EC
100
AcDbSymbolTableRecord
100
AcDbBlockTableRecord
  2
*D25
  0
BLOCK_RECORD
  5
5ED
100
AcDbSymbolTableRecord
100
AcDbBlockTableRecord
  2
*D26
  0
BLOCK_RECORD
  5
5EE
100
AcDbSymbolTableRecord
100
AcDbBlockTableRecord
  2
*D27
  0
BLOCK_RECORD
  5
5EF
100
AcDbSymbolTableRecord
100
AcDbBlockTableRecord
  2
*D28
  0
BLOCK_RECORD
  5
5F0
100
AcDbSymbolTableRecord
100
AcDbBlockTableRecord
  2
*D29
  0
BLOCK_RECORD
  5
5F1
100
AcDbSymbolTableRecord
100
AcDbBlockTableRecord
  2
*D30
  0
BLOCK_RECORD
  5
5F2
100
AcDbSymbolTableRecord
100
AcDbBlockTableRecord
  2
*D31
  0
BLOCK_RECORD
  5
5F3
100
AcDbSymbolTableRecord
100
AcDbBlockTableRecord
  2
*D32
  0
BLOCK_RECORD
  5
5F4
100
AcDbSymbolTableRecord
100
AcDbBlockTableRecord
  2
*D33
  0
BLOCK_RECORD
  5
5F5
100
AcDbSymbolTableRecord
100
AcDbBlockTableRecord
  2
*D34
  0
BLOCK_RECORD
  5
5F6
100
AcDbSymbolTableRecord
100
AcDbBlockTableRecord
  2
*D35
  0
BLOCK_RECORD
  5
5F7
100
AcDbSymbolTableRecord
100
AcDbBlockTableRecord
  2
*D36
  0
BLOCK_RECORD
  5
5F8
100
AcDbSymbolTableRecord
100
AcDbBlockTableRecord
  2
*D37
  0
BLOCK_RECORD
  5
5F9
100
AcDbSymbolTableRecord
100
AcDbBlockTableRecord
  2
*D38
  0
BLOCK_RECORD
  5
5FA
100
AcDbSymbolTableRecord
100
AcDbBlockTableRecord
  2
*D39
  0
BLOCK_RECORD
  5
5FB
100
AcDbSymbolTableRecord
100
AcDbBlockTableRecord
  2
*D40
  0
BLOCK_RECORD
  5
5FC
100
AcDbSymbolTableRecord
100
AcDbBlockTableRecord
  2
*D41
  0
BLOCK_RECORD
  5
5FD
100
AcDbSymbolTableRecord
100
AcDbBlockTableRecord
  2
*D42
  0
BLOCK_RECORD
  5
5FE
100
AcDbSymbolTableRecord
100
AcDbBlockTableRecord
  2
*D43
  0
BLOCK_RECORD
  5
5FF
100
AcDbSymbolTableRecord
100
AcDbBlockTableRecord
  2
*D44
  0
BLOCK_RECORD
  5
600
100
AcDbSymbolTableRecord
100
AcDbBlockTableRecord
  2
*D45
  0
BLOCK_RECORD
  5
601
100
AcDbSymbolTableRecord
100
AcDbBlockTableRecord
  2
*D46
  0
BLOCK_RECORD
  5
602
100
AcDbSymbolTableRecord
100
AcDbBlockTableRecord
  2
*D47
  0
BLOCK_RECORD
  5
603
100
AcDbSymbolTableRecord
100
AcDbBlockTableRecord
  2
*D48
  0
BLOCK_RECORD
  5
604
100
AcDbSymbolTableRecord
100
AcDbBlockTableRecord
  2
*D49
  0
BLOCK_RECORD
  5
605
100
AcDbSymbolTableRecord
100
AcDbBlockTableRecord
  2
*D50
  0
BLOCK_RECORD
  5
606
100
AcDbSymbolTableRecord
100
AcDbBlockTableRecord
  2
*D51
  0
BLOCK_RECORD
  5
607
100
AcDbSymbolTableRecord
100
AcDbBlockTableRecord
  2
*D52
  0
BLOCK_RECORD
  5
608
100
AcDbSymbolTableRecord
100
AcDbBlockTableRecord
  2
*D53
  0
BLOCK_RECORD
  5
609
100
AcDbSymbolTableRecord
100
AcDbBlockTableRecord
  2
*D54
  0
BLOCK_RECORD
  5
60A
100
AcDbSymbolTableRecord
100
AcDbBlockTableRecord
  2
*D55
  0
ENDTAB
  0
ENDSEC
  0
SECTION
  2
BLOCKS
  0
BLOCK
  5
60B
100
AcDbEntity
  8
0
100
AcDbBlockBegin
  2
*MODEL_SPACE
 70
     0
 10
0.0
 20
0.0
 30
0.0
  3
*MODEL_SPACE
  1

  0
ENDBLK
  5
60C
100
AcDbEntity
  8
0
100
AcDbBlockEnd
  0
BLOCK
  5
60D
100
AcDbEntity
  8
0
100
AcDbBlockBegin
  2
*PAPER_SPACE
 70
     0
 10
0.0
 20
0.0
 30
0.0
  3
*PAPER_SPACE
  1

  0
ENDBLK
  5
60E
100
AcDbEntity
  8
0
100
AcDbBlockEnd
  0
BLOCK
  5
2
100
AcDbEntity
  8
0
100
AcDbBlockBegin
  2
_NONE
 70
     0
 10
0.0
 20
0.0
 30
0.0
  3
_NONE
  1

  0
ENDBLK
  5
3
100
AcDbEntity
  8
0
100
AcDbBlockEnd
  0
BLOCK
  5
5
100
AcDbEntity
  8
0
100
AcDbBlockBegin
  2
_CLOSED
 70
     0
 10
0.0
 20
0.0
 30
0.0
  3
_CLOSED
  1

  0
LINE
  5
6
100
AcDbEntity
  8
0
  6
BYBLOCK
 62
     0
100
AcDbLine
 10
-1.0
 20
0.166667
 30
0.0
 11
0.0
 21
0.0
 31
0.0
  0
LINE
  5
7
100
AcDbEntity
  8
0
  6
BYBLOCK
 62
     0
100
AcDbLine
 10
0.0
 20
0.0
 30
0.0
 11
-1.0
 21
-0.166667
 31
0.0
  0
LINE
  5
8
100
AcDbEntity
  8
0
  6
BYBLOCK
 62
     0
100
AcDbLine
 10
-1.0
 20
0.166667
 30
0.0
 11
-1.0
 21
-0.166667
 31
0.0
  0
LINE
  5
9
100
AcDbEntity
  8
0
  6
BYBLOCK
 62
     0
100
AcDbLine
 10
0.0
 20
0.0
 30
0.0
 11
-1.0
 21
0.0
 31
0.0
  0
ENDBLK
  5
A
100
AcDbEntity
  8
0
100
AcDbBlockEnd
  0
BLOCK
  5
C
100
AcDbEntity
  8
0
100
AcDbBlockBegin
  2
_DOT
 70
     0
 10
0.0
 20
0.0
 30
0.0
  3
_DOT
  1

  0
POLYLINE
  5
D
100
AcDbEntity
  8
0
  6
BYBLOCK
 62
     0
100
AcDb2dPolyline
 66
     1
 10
0.0
 20
0.0
 30
0.0
 70
     1
 40
0.5
 41
0.5
  0
VERTEX
  5
E
100
AcDbEntity
  8
0
  6
BYBLOCK
 62
     0
100
AcDbVertex
100
AcDb2dVertex
 10
-0.25
 20
0.0
 30
0.0
 42
1.0
  0
VERTEX
  5
F
100
AcDbEntity
  8
0
  6
BYBLOCK
 62
     0
100
AcDbVertex
100
AcDb2dVertex
 10
0.25
 20
0.0
 30
0.0
 42
1.0
  0
SEQEND
  5
10
100
AcDbEntity
  8
0
  6
BYBLOCK
 62
     0
  0
LINE
  5
11
100
AcDbEntity
  8
0
  6
BYBLOCK
 62
     0
100
AcDbLine
 10
-0.5
 20
0.0
 30
0.0
 11
-1.0
 21
0.0
 31
0.0
  0
ENDBLK
  5
12
100
AcDbEntity
  8
0
100
AcDbBlockEnd
  0
BLOCK
  5
14
100
AcDbEntity
  8
0
100
AcDbBlockBegin
  2
_OPEN
 70
     0
 10
0.0
 20
0.0
 30
0.0
  3
_OPEN
  1

  0
LINE
  5
15
100
AcDbEntity
  8
0
  6
BYBLOCK
 62
     0
100
AcDbLine
 10
-1.0
 20
0.166667
 30
0.0
 11
0.0
 21
0.0
 31
0.0
  0
LINE
  5
16
100
AcDbEntity
  8
0
  6
BYBLOCK
 62
     0
100
AcDbLine
 10
0.0
 20
0.0
 30
0.0
 11
-1.0
 21
-0.166667
 31
0.0
  0
LINE
  5
17
100
AcDbEntity
  8
0
  6
BYBLOCK
 62
     0
100
AcDbLine
 10
0.0
 20
0.0
 30
0.0
 11
-1.0
 21
0.0
 31
0.0
  0
ENDBLK
  5
18
100
AcDbEntity
  8
0
100
AcDbBlockEnd
  0
BLOCK
  5
1A
100
AcDbEntity
  8
0
100
AcDbBlockBegin
  2
_ORIGIN
 70
     0
 10
0.0
 20
0.0
 30
0.0
  3
_ORIGIN
  1

  0
CIRCLE
  5
1B
100
AcDbEntity
  8
0
  6
BYBLOCK
 62
     0
100
AcDbCircle
 10
0.0
 20
0.0
 30
0.0
 40
0.5
  0
LINE
  5
1C
100
AcDbEntity
  8
0
  6
BYBLOCK
 62
     0
100
AcDbLine
 10
0.0
 20
0.0
 30
0.0
 11
-1.0
 21
0.0
 31
0.0
  0
ENDBLK
  5
1D
100
AcDbEntity
  8
0
100
AcDbBlockEnd
  0
BLOCK
  5
1F
100
AcDbEntity
  8
0
100
AcDbBlockBegin
  2
_OPEN30
 70
     0
 10
0.0
 20
0.0
 30
0.0
  3
_OPEN30
  1

  0
LINE
  5
20
100
AcDbEntity
  8
0
  6
BYBLOCK
 62
     0
100
AcDbLine
 10
-1.0
 20
0.267949
 30
0.0
 11
0.0
 21
0.0
 31
0.0
  0
LINE
  5
21
100
AcDbEntity
  8
0
  6
BYBLOCK
 62
     0
100
AcDbLine
 10
0.0
 20
0.0
 30
0.0
 11
-1.0
 21
-0.267949
 31
0.0
  0
LINE
  5
22
100
AcDbEntity
  8
0
  6
BYBLOCK
 62
     0
100
AcDbLine
 10
0.0
 20
0.0
 30
0.0
 11
-1.0
 21
0.0
 31
0.0
  0
ENDBLK
  5
23
100
AcDbEntity
  8
0
100
AcDbBlockEnd
  0
BLOCK
  5
25
100
AcDbEntity
  8
0
100
AcDbBlockBegin
  2
_BOXFILLED
 70
     0
 10
0.0
 20
0.0
 30
0.0
  3
_BOXFILLED
  1

  0
SOLID
  5
26
100
AcDbEntity
  8
0
  6
BYBLOCK
 62
     0
100
AcDbTrace
 10
-0.5
 20
0.5
 30
0.0
 11
0.5
 21
0.5
 31
0.0
 12
-0.5
 22
-0.5
 32
0.0
 13
0.5
 23
-0.5
 33
0.0
  0
LINE
  5
27
100
AcDbEntity
  8
0
  6
BYBLOCK
 62
     0
100
AcDbLine
 10
-0.5
 20
0.0
 30
0.0
 11
-1.0
 21
0.0
 31
0.0
  0
ENDBLK
  5
28
100
AcDbEntity
  8
0
100
AcDbBlockEnd
  0
BLOCK
  5
2A
100
AcDbEntity
  8
0
100
AcDbBlockBegin
  2
_BOXBLANK
 70
     0
 10
0.0
 20
0.0
 30
0.0
  3
_BOXBLANK
  1

  0
LINE
  5
2B
100
AcDbEntity
  8
0
  6
BYBLOCK
 62
     0
100
AcDbLine
 10
-0.5
 20
-0.5
 30
0.0
 11
0.5
 21
-0.5
 31
0.0
  0
LINE
  5
2C
100
AcDbEntity
  8
0
  6
BYBLOCK
 62
     0
100
AcDbLine
 10
0.5
 20
-0.5
 30
0.0
 11
0.5
 21
0.5
 31
0.0
  0
LINE
  5
2D
100
AcDbEntity
  8
0
  6
BYBLOCK
 62
     0
100
AcDbLine
 10
0.5
 20
0.5
 30
0.0
 11
-0.5
 21
0.5
 31
0.0
  0
LINE
  5
2E
100
AcDbEntity
  8
0
  6
BYBLOCK
 62
     0
100
AcDbLine
 10
-0.5
 20
0.5
 30
0.0
 11
-0.5
 21
-0.5
 31
0.0
  0
LINE
  5
2F
100
AcDbEntity
  8
0
  6
BYBLOCK
 62
     0
100
AcDbLine
 10
-0.5
 20
0.0
 30
0.0
 11
-1.0
 21
0.0
 31
0.0
  0
ENDBLK
  5
30
100
AcDbEntity
  8
0
100
AcDbBlockEnd
  0
BLOCK
  5
32
100
AcDbEntity
  8
0
100
AcDbBlockBegin
  2
_OBLIQUE
 70
     0
 10
0.0
 20
0.0
 30
0.0
  3
_OBLIQUE
  1

  0
LINE
  5
33
100
AcDbEntity
  8
0
  6
BYBLOCK
 62
     0
100
AcDbLine
 10
-0.5
 20
-0.5
 30
0.0
 11
0.5
 21
0.5
 31
0.0
  0
ENDBLK
  5
34
100
AcDbEntity
  8
0
100
AcDbBlockEnd
  0
BLOCK
  5
36
100
AcDbEntity
  8
0
100
AcDbBlockBegin
  2
_OPEN90
 70
     0
 10
0.0
 20
0.0
 30
0.0
  3
_OPEN90
  1

  0
LINE
  5
37
100
AcDbEntity
  8
0
  6
BYBLOCK
 62
     0
100
AcDbLine
 10
-0.5
 20
0.5
 30
0.0
 11
0.0
 21
0.0
 31
0.0
  0
LINE
  5
38
100
AcDbEntity
  8
0
  6
BYBLOCK
 62
     0
100
AcDbLine
 10
0.0
 20
0.0
 30
0.0
 11
-0.5
 21
-0.5
 31
0.0
  0
LINE
  5
39
100
AcDbEntity
  8
0
  6
BYBLOCK
 62
     0
100
AcDbLine
 10
0.0
 20
0.0
 30
0.0
 11
-1.0
 21
0.0
 31
0.0
  0
ENDBLK
  5
3A
100
AcDbEntity
  8
0
100
AcDbBlockEnd
  0
BLOCK
  5
3C
100
AcDbEntity
  8
0
100
AcDbBlockBegin
  2
_CLOSEDBLANK
 70
     0
 10
0.0
 20
0.0
 30
0.0
  3
_CLOSEDBLANK
  1

  0
LINE
  5
3D
100
AcDbEntity
  8
0
  6
BYBLOCK
 62
     0
100
AcDbLine
 10
-1.0
 20
0.1666666666666666
 30
0.0
 11
0.0
 21
0.0
 31
0.0
  0
LINE
  5
3E
100
AcDbEntity
  8
0
  6
BYBLOCK
 62
     0
100
AcDbLine
 10
0.0
 20
0.0
 30
0.0
 11
-1.0
 21
-0.1666666666666666
 31
0.0
  0
LINE
  5
3F
100
AcDbEntity
  8
0
  6
BYBLOCK
 62
     0
100
AcDbLine
 10
-1.0
 20
0.1666666666666666
 30
0.0
 11
-1.0
 21
-0.1666666666666666
 31
0.0
  0
ENDBLK
  5
40
100
AcDbEntity
  8
0
100
AcDbBlockEnd
  0
BLOCK
  5
42
100
AcDbEntity
  8
0
100
AcDbBlockBegin
  2
_DOTBLANK
 70
     0
 10
0.0
 20
0.0
 30
0.0
  3
_DOTBLANK
  1

  0
CIRCLE
  5
43
100
AcDbEntity
  8
0
  6
BYBLOCK
 62
     0
100
AcDbCircle
 10
0.0
 20
0.0
 30
0.0
 40
0.5
  0
LINE
  5
44
100
AcDbEntity
  8
0
  6
BYBLOCK
 62
     0
100
AcDbLine
 10
-0.5
 20
0.0
 30
0.0
 11
-1.0
 21
0.0
 31
0.0
  0
ENDBLK
  5
45
100
AcDbEntity
  8
0
100
AcDbBlockEnd
  0
BLOCK
  5
64
100
AcDbEntity
  8
MAIN0
  6
CONTINUOUS
 62
3
100
AcDbBlockBegin
  2
*D0
 70
    65
 10
0.0
 20
0.0
 30
0.0
  0
LINE
  5
65
100
AcDbEntity
  8
MAIN0
  6
BYBLOCK
 62
0
100
AcDbLine
 10
350.5909736689435
 20
649.9964055882257
 30
0.0000000000000000
 11
350.5909736689435
 21
581.8327627611557
 31
0.0000000000000000
  0
LINE
  5
66
100
AcDbEntity
  8
MAIN0
  6
BYBLOCK
 62
0
100
AcDbLine
 10
356.5909736689435
 20
587.8327627611557
 30
0.0000000000000000
 11
399.5909736689434
 21
587.8327627611557
 31
0.0000000000000000
  0
INSERT
  5
67
100
AcDbEntity
  8
MAIN0
  6
BYBLOCK
 62
0
100
AcDbBlockReference
  2
_OPEN
 10
350.5909736689435
 20
587.8327627611557
 30
0.0000000000000000
 41
6.000000000000000
 42
6.000000000000000
 43
6.000000000000000
 50
180.0000000000000
  0
INSERT
  5
68
100
AcDbEntity
  8
MAIN0
  6
BYBLOCK
 62
0
100
AcDbBlockReference
  2
_OPEN
 10
405.5909736689434
 20
587.8327627611557
 30
0.0000000000000000
 41
6.000000000000000
 42
6.000000000000000
 43
6.000000000000000
 50
0.0000000000000000
  0
LINE
  5
69
100
AcDbEntity
  8
MAIN0
  6
BYBLOCK
 62
0
100
AcDbLine
 10
405.5909736689434
 20
649.9964055882256
 30
0.0000000000000000
 11
405.5909736689434
 21
581.8327627611557
 31
0.0000000000000000
  0
MTEXT
  5
6A
100
AcDbEntity
  8
MAIN0
  6
BYBLOCK
 62
0
100
AcDbMText
 10
382.8827432176256
 20
593.9827626181045
 30
0.0000000000000000
 40
9.299999713897705
 41
0.0000000000000000
 71
     5
 72
     1
  1
\A1;55
 11
1.000000000000000
 21
0.0000000000000000
 31
0.0000000000000000
  7
STANDARD
  0
ENDBLK
  5
6B
100
AcDbEntity
  8
MAIN0
  6
CONTINUOUS
 62
3
100
AcDbBlockEnd
  0
BLOCK
  5
6D
100
AcDbEntity
  8
MAIN0
  6
CONTINUOUS
 62
3
100
AcDbBlockBegin
  2
*D1
 70
    65
 10
0.0
 20
0.0
 30
0.0
  0
LINE
  5
6E
100
AcDbEntity
  8
MAIN0
  6
BYBLOCK
 62
0
100
AcDbLine
 10
405.5909736689434
 20
649.9964055882256
 30
0.0000000000000000
 11
405.5909736689434
 21
581.8327627611557
 31
0.0000000000000000
  0
LINE
  5
6F
100
AcDbEntity
  8
MAIN0
  6
BYBLOCK
 62
0
100
AcDbLine
 10
405.5909736689434
 20
587.8327627611557
 30
0.0000000000000000
 11
415.5909736700476
 21
587.8327627611557
 31
0.0000000000000000
  0
INSERT
  5
70
100
AcDbEntity
  8
MAIN0
  6
BYBLOCK
 62
0
100
AcDbBlockReference
  2
_OPEN
 10
405.5909736689434
 20
587.8327627611557
 30
0.0000000000000000
 41
6.000000000000000
 42
6.000000000000000
 43
6.000000000000000
 50
0.0000000000000000
  0
INSERT
  5
71
100
AcDbEntity
  8
MAIN0
  6
BYBLOCK
 62
0
100
AcDbBlockReference
  2
_OPEN
 10
415.5909736700476
 20
587.8327627611557
 30
0.0000000000000000
 41
6.000000000000000
 42
6.000000000000000
 43
6.000000000000000
 50
180.0000000000000
  0
LINE
  5
72
100
AcDbEntity
  8
MAIN0
  6
BYBLOCK
 62
0
100
AcDbLine
 10
399.5909736689434
 20
587.8327627611557
 30
0.0000000000000000
 11
396.5909736689434
 21
587.8327627611557
 31
0.0000000000000000
  0
LINE
  5
73
100
AcDbEntity
  8
MAIN0
  6
BYBLOCK
 62
0
100
AcDbLine
 10
421.5909736700476
 20
587.8327627611557
 30
0.0000000000000000
 11
429.6320086782997
 21
587.8327627611557
 31
0.0000000000000000
  0
LINE
  5
74
100
AcDbEntity
  8
MAIN0
  6
BYBLOCK
 62
0
100
AcDbLine
 10
415.5909736700476
 20
621.4782574282051
 30
0.0000000000000000
 11
415.5909736700476
 21
581.8327627611557
 31
0.0000000000000000
  0
MTEXT
  5
75
100
AcDbEntity
  8
MAIN0
  6
BYBLOCK
 62
0
100
AcDbMText
 10
423.4820088213509
 20
593.9827626181045
 30
0.0000000000000000
 40
9.299999713897705
 41
0.0000000000000000
 71
     5
 72
     1
  1
\A1;10
 11
1.000000000000000
 21
0.0000000000000000
 31
0.0000000000000000
  7
STANDARD
  0
ENDBLK
  5
76
100
AcDbEntity
  8
MAIN0
  6
CONTINUOUS
 62
3
100
AcDbBlockEnd
  0
BLOCK
  5
96
100
AcDbEntity
  8
MAIN0
  6
CONTINUOUS
 62
3
100
AcDbBlockBegin
  2
*D2
 70
    65
 10
0.0
 20
0.0
 30
0.0
  0
LINE
  5
97
100
AcDbEntity
  8
MAIN0
  6
BYBLOCK
 62
0
100
AcDbLine
 10
338.0971150411201
 20
660.8782574636263
 30
0.0000000000000000
 11
294.2270210649601
 21
660.8782574636263
 31
0.0000000000000000
  0
LINE
  5
98
100
AcDbEntity
  8
MAIN0
  6
BYBLOCK
 62
0
100
AcDbLine
 10
300.2270210649601
 20
666.8782574636263
 30
0.0000000000000000
 11
300.2270210649601
 21
704.8782574636263
 31
0.0000000000000000
  0
INSERT
  5
99
100
AcDbEntity
  8
MAIN0
  6
BYBLOCK
 62
0
100
AcDbBlockReference
  2
_OPEN
 10
300.2270210649601
 20
660.8782574636263
 30
0.0000000000000000
 41
6.000000000000000
 42
6.000000000000000
 43
6.000000000000000
 50
270.0000000000000
  0
INSERT
  5
9A
100
AcDbEntity
  8
MAIN0
  6
BYBLOCK
 62
0
100
AcDbBlockReference
  2
_OPEN
 10
300.2270210649601
 20
710.8782574636263
 30
0.0000000000000000
 41
6.000000000000000
 42
6.000000000000000
 43
6.000000000000000
 50
90.00000000000000
  0
LINE
  5
9B
100
AcDbEntity
  8
MAIN0
  6
BYBLOCK
 62
0
100
AcDbLine
 10
338.0971150411874
 20
710.8782574636263
 30
0.0000000000000000
 11
294.2270210649601
 21
710.8782574636263
 31
0.0000000000000000
  0
MTEXT
  5
9C
100
AcDbEntity
  8
MAIN0
  6
BYBLOCK
 62
0
100
AcDbMText
 10
295.0770212080112
 20
685.8782574636263
 30
0.0000000000000000
 40
9.299999713897705
 41
0.0000000000000000
 71
     5
 72
     1
  1
\A1;50
 11
6.123233995736766e-017
 21
1.000000000000000
 31
0.0000000000000000
  7
STANDARD
  0
ENDBLK
  5
9D
100
AcDbEntity
  8
MAIN0
  6
CONTINUOUS
 62
3
100
AcDbBlockEnd
  0
BLOCK
  5
9F
100
AcDbEntity
  8
MAIN0
  6
CONTINUOUS
 62
3
100
AcDbBlockBegin
  2
*D3
 70
    65
 10
0.0
 20
0.0
 30
0.0
  0
LINE
  5
A0
100
AcDbEntity
  8
MAIN0
  6
BYBLOCK
 62
0
100
AcDbLine
 10
612.5162239231747
 20
645.8782574630947
 30
0.0000000000000000
 11
657.5356806225257
 21
645.8782574630947
 31
0.0000000000000000
  0
LINE
  5
A1
100
AcDbEntity
  8
MAIN0
  6
BYBLOCK
 62
0
100
AcDbLine
 10
651.5356806225257
 20
651.8782574630947
 30
0.0000000000000000
 11
651.5356806225257
 21
719.8782574630945
 31
0.0000000000000000
  0
INSERT
  5
A2
100
AcDbEntity
  8
MAIN0
  6
BYBLOCK
 62
0
100
AcDbBlockReference
  2
_OPEN
 10
651.5356806225257
 20
645.8782574630947
 30
0.0000000000000000
 41
6.000000000000000
 42
6.000000000000000
 43
6.000000000000000
 50
270.0000000000000
  0
INSERT
  5
A3
100
AcDbEntity
  8
MAIN0
  6
BYBLOCK
 62
0
100
AcDbBlockReference
  2
_OPEN
 10
651.5356806225257
 20
725.8782574630945
 30
0.0000000000000000
 41
6.000000000000000
 42
6.000000000000000
 43
6.000000000000000
 50
90.00000000000000
  0
LINE
  5
A4
100
AcDbEntity
  8
MAIN0
  6
BYBLOCK
 62
0
100
AcDbLine
 10
612.5162239232825
 20
725.8782574630945
 30
0.0000000000000000
 11
657.5356806225257
 21
725.8782574630945
 31
0.0000000000000000
  0
MTEXT
  5
A5
100
AcDbEntity
  8
MAIN0
  6
BYBLOCK
 62
0
100
AcDbMText
 10
646.3856807655768
 20
685.8782574630945
 30
0.0000000000000000
 40
9.299999713897705
 41
0.0000000000000000
 71
     5
 72
     1
  1
\A1;80
 11
6.123233995736766e-017
 21
1.000000000000000
 31
0.0000000000000000
  7
STANDARD
  0
ENDBLK
  5
A6
100
AcDbEntity
  8
MAIN0
  6
CONTINUOUS
 62
3
100
AcDbBlockEnd
  0
BLOCK
  5
B0
100
AcDbEntity
  8
MAIN0
  6
CONTINUOUS
 62
3
100
AcDbBlockBegin
  2
*D4
 70
    65
 10
0.0
 20
0.0
 30
0.0
  0
LINE
  5
B1
100
AcDbEntity
  8
MAIN0
  6
BYBLOCK
 62
0
100
AcDbLine
 10
540.5909736711003
 20
621.5782574276137
 30
0.0000000000000000
 11
540.5909736711003
 21
581.8327627611557
 31
0.0000000000000000
  0
LINE
  5
B2
100
AcDbEntity
  8
MAIN0
  6
BYBLOCK
 62
0
100
AcDbLine
 10
540.5909736711003
 20
587.8327627611557
 30
0.0000000000000000
 11
550.5909736711105
 21
587.8327627611557
 31
0.0000000000000000
  0
INSERT
  5
B3
100
AcDbEntity
  8
MAIN0
  6
BYBLOCK
 62
0
100
AcDbBlockReference
  2
_OPEN
 10
540.5909736711003
 20
587.8327627611557
 30
0.0000000000000000
 41
6.000000000000000
 42
6.000000000000000
 43
6.000000000000000
 50
0.0000000000000000
  0
INSERT
  5
B4
100
AcDbEntity
  8
MAIN0
  6
BYBLOCK
 62
0
100
AcDbBlockReference
  2
_OPEN
 10
550.5909736711105
 20
587.8327627611557
 30
0.0000000000000000
 41
6.000000000000000
 42
6.000000000000000
 43
6.000000000000000
 50
180.0000000000000
  0
LINE
  5
B5
100
AcDbEntity
  8
MAIN0
  6
BYBLOCK
 62
0
100
AcDbLine
 10
534.5909736711003
 20
587.8327627611557
 30
0.0000000000000000
 11
524.6217297663347
 21
587.8327627611557
 31
0.0000000000000000
  0
LINE
  5
B6
100
AcDbEntity
  8
MAIN0
  6
BYBLOCK
 62
0
100
AcDbLine
 10
556.5909736711105
 20
587.8327627611557
 30
0.0000000000000000
 11
559.5909736711105
 21
587.8327627611557
 31
0.0000000000000000
  0
LINE
  5
B7
100
AcDbEntity
  8
MAIN0
  6
BYBLOCK
 62
0
100
AcDbLine
 10
550.5909736711105
 20
634.0512149230842
 30
0.0000000000000000
 11
550.5909736711105
 21
581.8327627611557
 31
0.0000000000000000
  0
MTEXT
  5
B8
100
AcDbEntity
  8
MAIN0
  6
BYBLOCK
 62
0
100
AcDbMText
 10
530.7717296232836
 20
593.9827626181045
 30
0.0000000000000000
 40
9.299999713897705
 41
0.0000000000000000
 71
     5
 72
     1
  1
\A1;10
 11
1.000000000000000
 21
0.0000000000000000
 31
0.0000000000000000
  7
STANDARD
  0
ENDBLK
  5
B9
100
AcDbEntity
  8
MAIN0
  6
CONTINUOUS
 62
3
100
AcDbBlockEnd
  0
BLOCK
  5
BB
100
AcDbEntity
  8
MAIN0
  6
CONTINUOUS
 62
3
100
AcDbBlockBegin
  2
*D5
 70
    65
 10
0.0
 20
0.0
 30
0.0
  0
LINE
  5
BC
100
AcDbEntity
  8
MAIN0
  6
BYBLOCK
 62
0
100
AcDbLine
 10
550.5909736711105
 20
634.0512149230842
 30
0.0000000000000000
 11
550.5909736711105
 21
581.8327627611557
 31
0.0000000000000000
  0
LINE
  5
BD
100
AcDbEntity
  8
MAIN0
  6
BYBLOCK
 62
0
100
AcDbLine
 10
556.5909736711105
 20
587.8327627611557
 30
0.0000000000000000
 11
594.5909736711105
 21
587.8327627611557
 31
0.0000000000000000
  0
INSERT
  5
BE
100
AcDbEntity
  8
MAIN0
  6
BYBLOCK
 62
0
100
AcDbBlockReference
  2
_OPEN
 10
550.5909736711105
 20
587.8327627611557
 30
0.0000000000000000
 41
6.000000000000000
 42
6.000000000000000
 43
6.000000000000000
 50
180.0000000000000
  0
INSERT
  5
BF
100
AcDbEntity
  8
MAIN0
  6
BYBLOCK
 62
0
100
AcDbBlockReference
  2
_OPEN
 10
600.5909736711105
 20
587.8327627611557
 30
0.0000000000000000
 41
6.000000000000000
 42
6.000000000000000
 43
6.000000000000000
 50
0.0000000000000000
  0
LINE
  5
C0
100
AcDbEntity
  8
MAIN0
  6
BYBLOCK
 62
0
100
AcDbLine
 10
600.5909736711105
 20
634.0512149230426
 30
0.0000000000000000
 11
600.5909736711105
 21
581.8327627611557
 31
0.0000000000000000
  0
MTEXT
  5
C1
100
AcDbEntity
  8
MAIN0
  6
BYBLOCK
 62
0
100
AcDbMText
 10
570.8933379380135
 20
593.9827626181045
 30
0.0000000000000000
 40
9.299999713897705
 41
0.0000000000000000
 71
     5
 72
     1
  1
\A1;50
 11
1.000000000000000
 21
0.0000000000000000
 31
0.0000000000000000
  7
STANDARD
  0
ENDBLK
  5
C2
100
AcDbEntity
  8
MAIN0
  6
CONTINUOUS
 62
3
100
AcDbBlockEnd
  0
BLOCK
  5
C4
100
AcDbEntity
  8
MAIN0
  6
CONTINUOUS
 62
3
100
AcDbBlockBegin
  2
*D6
 70
    65
 10
0.0
 20
0.0
 30
0.0
  0
LINE
  5
C5
100
AcDbEntity
  8
MAIN0
  6
BYBLOCK
 62
0
100
AcDbLine
 10
540.5909736712034
 20
750.1782574990987
 30
0.0000000000000000
 11
540.5909736712034
 21
779.1874407711845
 31
0.0000000000000000
  0
LINE
  5
C6
100
AcDbEntity
  8
MAIN0
  6
BYBLOCK
 62
0
100
AcDbLine
 10
546.5909736712034
 20
773.1874407711845
 30
0.0000000000000000
 11
572.5909736711515
 21
773.1874407711845
 31
0.0000000000000000
  0
INSERT
  5
C7
100
AcDbEntity
  8
MAIN0
  6
BYBLOCK
 62
0
100
AcDbBlockReference
  2
_OPEN
 10
540.5909736712034
 20
773.1874407711845
 30
0.0000000000000000
 41
6.000000000000000
 42
6.000000000000000
 43
6.000000000000000
 50
180.0000000000000
  0
INSERT
  5
C8
100
AcDbEntity
  8
MAIN0
  6
BYBLOCK
 62
0
100
AcDbBlockReference
  2
_OPEN
 10
578.5909736711515
 20
773.1874407711845
 30
0.0000000000000000
 41
6.000000000000000
 42
6.000000000000000
 43
6.000000000000000
 50
0.0000000000000000
  0
LINE
  5
C9
100
AcDbEntity
  8
MAIN0
  6
BYBLOCK
 62
0
100
AcDbLine
 10
578.5909736711515
 20
696.2782574989667
 30
0.0000000000000000
 11
578.5909736711515
 21
779.1874407711845
 31
0.0000000000000000
  0
MTEXT
  5
CA
100
AcDbEntity
  8
MAIN0
  6
BYBLOCK
 62
0
100
AcDbMText
 10
559.5909736711774
 20
778.3374406281333
 30
0.0000000000000000
 40
9.299999713897705
 41
0.0000000000000000
 71
     5
 72
     1
  1
\A1;38
 11
1.000000000000000
 21
0.0000000000000000
 31
0.0000000000000000
  7
STANDARD
  0
ENDBLK
  5
CB
100
AcDbEntity
  8
MAIN0
  6
CONTINUOUS
 62
3
100
AcDbBlockEnd
  0
BLOCK
  5
D4
100
AcDbEntity
  8
MAIN0
  6
CONTINUOUS
 62
3
100
AcDbBlockBegin
  2
*D7
 70
    65
 10
0.0
 20
0.0
 30
0.0
  0
LINE
  5
D5
100
AcDbEntity
  8
MAIN0
  6
BYBLOCK
 62
0
100
AcDbLine
 10
530.5909736697688
 20
324.9711646878843
 30
0.0000000000000000
 11
530.5909736697688
 21
281.8488778597925
 31
0.0000000000000000
  0
LINE
  5
D6
100
AcDbEntity
  8
MAIN0
  6
BYBLOCK
 62
0
100
AcDbLine
 10
536.5909736697688
 20
287.8488778597925
 30
0.0000000000000000
 11
749.5909736698848
 21
287.8488778597925
 31
0.0000000000000000
  0
INSERT
  5
D7
100
AcDbEntity
  8
MAIN0
  6
BYBLOCK
 62
0
100
AcDbBlockReference
  2
_OPEN
 10
530.5909736697688
 20
287.8488778597925
 30
0.0000000000000000
 41
6.000000000000000
 42
6.000000000000000
 43
6.000000000000000
 50
180.0000000000000
  0
INSERT
  5
D8
100
AcDbEntity
  8
MAIN0
  6
BYBLOCK
 62
0
100
AcDbBlockReference
  2
_OPEN
 10
755.5909736698848
 20
287.8488778597925
 30
0.0000000000000000
 41
6.000000000000000
 42
6.000000000000000
 43
6.000000000000000
 50
0.0000000000000000
  0
LINE
  5
D9
100
AcDbEntity
  8
MAIN0
  6
BYBLOCK
 62
0
100
AcDbLine
 10
755.5909736698848
 20
337.3711646881904
 30
0.0000000000000000
 11
755.5909736698848
 21
281.8488778597925
 31
0.0000000000000000
  0
MTEXT
  5
DA
100
AcDbEntity
  8
MAIN0
  6
BYBLOCK
 62
0
100
AcDbMText
 10
643.0909736698268
 20
292.9988777167414
 30
0.0000000000000000
 40
9.299999713897705
 41
0.0000000000000000
 71
     5
 72
     1
  1
\A1;225
 11
1.000000000000000
 21
0.0000000000000000
 31
0.0000000000000000
  7
STANDARD
  0
ENDBLK
  5
DB
100
AcDbEntity
  8
MAIN0
  6
CONTINUOUS
 62
3
100
AcDbBlockEnd
  0
BLOCK
  5
DD
100
AcDbEntity
  8
MAIN0
  6
CONTINUOUS
 62
3
100
AcDbBlockBegin
  2
*D8
 70
    65
 10
0.0
 20
0.0
 30
0.0
  0
LINE
  5
DE
100
AcDbEntity
  8
MAIN0
  6
BYBLOCK
 62
0
100
AcDbLine
 10
659.1107284410589
 20
345.3711647239521
 30
0.0000000000000000
 11
659.1107284410589
 21
374.3711647240216
 31
0.0000000000000000
  0
INSERT
  5
DF
100
AcDbEntity
  8
MAIN0
  6
BYBLOCK
 62
0
100
AcDbBlockReference
  2
_OPEN
 10
659.1107284410589
 20
339.3711647239521
 30
0.0000000000000000
 41
6.000000000000000
 42
6.000000000000000
 43
6.000000000000000
 50
270.0000000000000
  0
INSERT
  5
E0
100
AcDbEntity
  8
MAIN0
  6
BYBLOCK
 62
0
100
AcDbBlockReference
  2
_OPEN
 10
659.1107284410589
 20
380.3711647240216
 30
0.0000000000000000
 41
6.000000000000000
 42
6.000000000000000
 43
6.000000000000000
 50
90.00000000000000
  0
LINE
  5
E1
100
AcDbEntity
  8
MAIN0
  6
BYBLOCK
 62
0
100
AcDbLine
 10
670.1909736343282
 20
380.3711647240216
 30
0.0000000000000000
 11
653.1107284410589
 21
380.3711647240216
 31
0.0000000000000000
  0
MTEXT
  5
E2
100
AcDbEntity
  8
MAIN0
  6
BYBLOCK
 62
0
100
AcDbMText
 10
653.9607285841100
 20
359.8711647239869
 30
0.0000000000000000
 40
9.299999713897705
 41
0.0000000000000000
 71
     5
 72
     1
  1
\A1;41
 11
6.123233995736766e-017
 21
1.000000000000000
 31
0.0000000000000000
  7
STANDARD
  0
ENDBLK
  5
E3
100
AcDbEntity
  8
MAIN0
  6
CONTINUOUS
 62
3
100
AcDbBlockEnd
  0
BLOCK
  5
E5
100
AcDbEntity
  8
MAIN0
  6
CONTINUOUS
 62
3
100
AcDbBlockBegin
  2
*D9
 70
    65
 10
0.0
 20
0.0
 30
0.0
  0
LINE
  5
E6
100
AcDbEntity
  8
MAIN0
  6
BYBLOCK
 62
0
100
AcDbLine
 10
670.1909736343282
 20
380.3711647240216
 30
0.0000000000000000
 11
653.1107284410589
 21
380.3711647240216
 31
0.0000000000000000
  0
LINE
  5
E7
100
AcDbEntity
  8
MAIN0
  6
BYBLOCK
 62
0
100
AcDbLine
 10
659.1107284410589
 20
386.3711647240216
 30
0.0000000000000000
 11
659.1107284410589
 21
418.3711647237618
 31
0.0000000000000000
  0
INSERT
  5
E8
100
AcDbEntity
  8
MAIN0
  6
BYBLOCK
 62
0
100
AcDbBlockReference
  2
_OPEN
 10
659.1107284410589
 20
380.3711647240216
 30
0.0000000000000000
 41
6.000000000000000
 42
6.000000000000000
 43
6.000000000000000
 50
270.0000000000000
  0
INSERT
  5
E9
100
AcDbEntity
  8
MAIN0
  6
BYBLOCK
 62
0
100
AcDbBlockReference
  2
_OPEN
 10
659.1107284410589
 20
424.3711647237618
 30
0.0000000000000000
 41
6.000000000000000
 42
6.000000000000000
 43
6.000000000000000
 50
90.00000000000000
  0
LINE
  5
EA
100
AcDbEntity
  8
MAIN0
  6
BYBLOCK
 62
0
100
AcDbLine
 10
618.9909737055625
 20
424.3711647237618
 30
0.0000000000000000
 11
665.1107284410589
 21
424.3711647237618
 31
0.0000000000000000
  0
MTEXT
  5
EB
100
AcDbEntity
  8
MAIN0
  6
BYBLOCK
 62
0
100
AcDbMText
 10
653.9607285841100
 20
402.3711647238917
 30
0.0000000000000000
 40
9.299999713897705
 41
0.0000000000000000
 71
     5
 72
     1
  1
\A1;44
 11
6.123233995736766e-017
 21
1.000000000000000
 31
0.0000000000000000
  7
STANDARD
  0
ENDBLK
  5
EC
100
AcDbEntity
  8
MAIN0
  6
CONTINUOUS
 62
3
100
AcDbBlockEnd
  0
BLOCK
  5
EE
100
AcDbEntity
  8
MAIN0
  6
CONTINUOUS
 62
3
100
AcDbBlockBegin
  2
*D10
 70
    65
 10
0.0
 20
0.0
 30
0.0
  0
LINE
  5
EF
100
AcDbEntity
  8
MAIN0
  6
BYBLOCK
 62
0
100
AcDbLine
 10
885.8751934616980
 20
444.5987371441634
 30
0.0000000000000000
 11
885.8751934616980
 21
660.6036562489938
 31
0.0000000000000000
  0
LINE
  5
F0
100
AcDbEntity
  8
MAIN0
  6
BYBLOCK
 62
0
100
AcDbLine
 10
885.8751934616980
 20
654.6036562489938
 30
0.0000000000000000
 11
900.8751934616985
 21
654.6036562489938
 31
0.0000000000000000
  0
INSERT
  5
F1
100
AcDbEntity
  8
MAIN0
  6
BYBLOCK
 62
0
100
AcDbBlockReference
  2
_OPEN
 10
885.8751934616980
 20
654.6036562489938
 30
0.0000000000000000
 41
6.000000000000000
 42
6.000000000000000
 43
6.000000000000000
 50
0.0000000000000000
  0
INSERT
  5
F2
100
AcDbEntity
  8
MAIN0
  6
BYBLOCK
 62
0
100
AcDbBlockReference
  2
_OPEN
 10
900.8751934616985
 20
654.6036562489938
 30
0.0000000000000000
 41
6.000000000000000
 42
6.000000000000000
 43
6.000000000000000
 50
180.0000000000000
  0
LINE
  5
F3
100
AcDbEntity
  8
MAIN0
  6
BYBLOCK
 62
0
100
AcDbLine
 10
879.8751934616980
 20
654.6036562489938
 30
0.0000000000000000
 11
868.7751733221063
 21
654.6036562489938
 31
0.0000000000000000
  0
LINE
  5
F4
100
AcDbEntity
  8
MAIN0
  6
BYBLOCK
 62
0
100
AcDbLine
 10
906.8751934616985
 20
654.6036562489938
 30
0.0000000000000000
 11
909.8751934616985
 21
654.6036562489938
 31
0.0000000000000000
  0
LINE
  5
F5
100
AcDbEntity
  8
MAIN0
  6
BYBLOCK
 62
0
100
AcDbLine
 10
900.8751934616995
 20
454.5987371441636
 30
0.0000000000000000
 11
900.8751934616985
 21
660.6036562489938
 31
0.0000000000000000
  0
MTEXT
  5
F6
100
AcDbEntity
  8
MAIN0
  6
BYBLOCK
 62
0
100
AcDbMText
 10
874.9251731790552
 20
660.7536561059427
 30
0.0000000000000000
 40
9.299999713897705
 41
0.0000000000000000
 71
     5
 72
     1
  1
\A1;15
 11
1.000000000000000
 21
0.0000000000000000
 31
0.0000000000000000
  7
STANDARD
  0
ENDBLK
  5
F7
100
AcDbEntity
  8
MAIN0
  6
CONTINUOUS
 62
3
100
AcDbBlockEnd
  0
BLOCK
  5
F9
100
AcDbEntity
  8
MAIN0
  6
CONTINUOUS
 62
3
100
AcDbBlockBegin
  2
*D11
 70
    65
 10
0.0
 20
0.0
 30
0.0
  0
LINE
  5
FA
100
AcDbEntity
  8
MAIN0
  6
BYBLOCK
 62
0
100
AcDbLine
 10
900.8751934616995
 20
454.5987371441636
 30
0.0000000000000000
 11
900.8751934616985
 21
660.6036562489938
 31
0.0000000000000000
  0
LINE
  5
FB
100
AcDbEntity
  8
MAIN0
  6
BYBLOCK
 62
0
100
AcDbLine
 10
906.8751934616985
 20
654.6036562489938
 30
0.0000000000000000
 11
924.8751934616803
 21
654.6036562489938
 31
0.0000000000000000
  0
INSERT
  5
FC
100
AcDbEntity
  8
MAIN0
  6
BYBLOCK
 62
0
100
AcDbBlockReference
  2
_OPEN
 10
900.8751934616985
 20
654.6036562489938
 30
0.0000000000000000
 41
6.000000000000000
 42
6.000000000000000
 43
6.000000000000000
 50
180.0000000000000
  0
INSERT
  5
FD
100
AcDbEntity
  8
MAIN0
  6
BYBLOCK
 62
0
100
AcDbBlockReference
  2
_OPEN
 10
930.8751934616803
 20
654.6036562489938
 30
0.0000000000000000
 41
6.000000000000000
 42
6.000000000000000
 43
6.000000000000000
 50
0.0000000000000000
  0
LINE
  5
FE
100
AcDbEntity
  8
MAIN0
  6
BYBLOCK
 62
0
100
AcDbLine
 10
930.8751934616803
 20
615.0987371441634
 30
0.0000000000000000
 11
930.8751934616803
 21
660.6036562489938
 31
0.0000000000000000
  0
MTEXT
  5
FF
100
AcDbEntity
  8
MAIN0
  6
BYBLOCK
 62
0
100
AcDbMText
 10
915.8751934616894
 20
659.7536561059427
 30
0.0000000000000000
 40
9.299999713897705
 41
0.0000000000000000
 71
     5
 72
     1
  1
\A1;30
 11
1.000000000000000
 21
0.0000000000000000
 31
0.0000000000000000
  7
STANDARD
  0
ENDBLK
  5
100
100
AcDbEntity
  8
MAIN0
  6
CONTINUOUS
 62
3
100
AcDbBlockEnd
  0
BLOCK
  5
102
100
AcDbEntity
  8
MAIN0
  6
CONTINUOUS
 62
3
100
AcDbBlockBegin
  2
*D12
 70
    65
 10
0.0
 20
0.0
 30
0.0
  0
LINE
  5
103
100
AcDbEntity
  8
MAIN0
  6
BYBLOCK
 62
0
100
AcDbLine
 10
930.8751934616803
 20
615.0987371441634
 30
0.0000000000000000
 11
930.8751934616803
 21
660.6036562489938
 31
0.0000000000000000
  0
LINE
  5
104
100
AcDbEntity
  8
MAIN0
  6
BYBLOCK
 62
0
100
AcDbLine
 10
936.8751934616803
 20
654.6036562489938
 30
0.0000000000000000
 11
996.8751934616748
 21
654.6036562489938
 31
0.0000000000000000
  0
INSERT
  5
105
100
AcDbEntity
  8
MAIN0
  6
BYBLOCK
 62
0
100
AcDbBlockReference
  2
_OPEN
 10
930.8751934616803
 20
654.6036562489938
 30
0.0000000000000000
 41
6.000000000000000
 42
6.000000000000000
 43
6.000000000000000
 50
180.0000000000000
  0
INSERT
  5
106
100
AcDbEntity
  8
MAIN0
  6
BYBLOCK
 62
0
100
AcDbBlockReference
  2
_OPEN
 10
1002.875193461675
 20
654.6036562489938
 30
0.0000000000000000
 41
6.000000000000000
 42
6.000000000000000
 43
6.000000000000000
 50
0.0000000000000000
  0
LINE
  5
107
100
AcDbEntity
  8
MAIN0
  6
BYBLOCK
 62
0
100
AcDbLine
 10
1002.875193461675
 20
624.5987371441636
 30
0.0000000000000000
 11
1002.875193461675
 21
660.6036562489938
 31
0.0000000000000000
  0
MTEXT
  5
108
100
AcDbEntity
  8
MAIN0
  6
BYBLOCK
 62
0
100
AcDbMText
 10
966.8751934616776
 20
659.7536561059427
 30
0.0000000000000000
 40
9.299999713897705
 41
0.0000000000000000
 71
     5
 72
     1
  1
\A1;72
 11
1.000000000000000
 21
0.0000000000000000
 31
0.0000000000000000
  7
STANDARD
  0
ENDBLK
  5
109
100
AcDbEntity
  8
MAIN0
  6
CONTINUOUS
 62
3
100
AcDbBlockEnd
  0
BLOCK
  5
10B
100
AcDbEntity
  8
MAIN0
  6
CONTINUOUS
 62
3
100
AcDbBlockBegin
  2
*D13
 70
    65
 10
0.0
 20
0.0
 30
0.0
  0
LINE
  5
10C
100
AcDbEntity
  8
MAIN0
  6
BYBLOCK
 62
0
100
AcDbLine
 10
885.8751934616980
 20
444.5987371441634
 30
0.0000000000000000
 11
885.8751934616980
 21
678.5717874055481
 31
0.0000000000000000
  0
LINE
  5
10D
100
AcDbEntity
  8
MAIN0
  6
BYBLOCK
 62
0
100
AcDbLine
 10
891.8751934616980
 20
672.5717874055481
 30
0.0000000000000000
 11
996.8751934616748
 21
672.5717874055481
 31
0.0000000000000000
  0
INSERT
  5
10E
100
AcDbEntity
  8
MAIN0
  6
BYBLOCK
 62
0
100
AcDbBlockReference
  2
_OPEN
 10
885.8751934616980
 20
672.5717874055481
 30
0.0000000000000000
 41
6.000000000000000
 42
6.000000000000000
 43
6.000000000000000
 50
180.0000000000000
  0
INSERT
  5
10F
100
AcDbEntity
  8
MAIN0
  6
BYBLOCK
 62
0
100
AcDbBlockReference
  2
_OPEN
 10
1002.875193461675
 20
672.5717874055481
 30
0.0000000000000000
 41
6.000000000000000
 42
6.000000000000000
 43
6.000000000000000
 50
0.0000000000000000
  0
LINE
  5
110
100
AcDbEntity
  8
MAIN0
  6
BYBLOCK
 62
0
100
AcDbLine
 10
1002.875193461675
 20
624.5987371441636
 30
0.0000000000000000
 11
1002.875193461675
 21
678.5717874055481
 31
0.0000000000000000
  0
MTEXT
  5
111
100
AcDbEntity
  8
MAIN0
  6
BYBLOCK
 62
0
100
AcDbMText
 10
944.3751934616864
 20
677.7217872624970
 30
0.0000000000000000
 40
9.299999713897705
 41
0.0000000000000000
 71
     5
 72
     1
  1
\A1;117
 11
1.000000000000000
 21
0.0000000000000000
 31
0.0000000000000000
  7
STANDARD
  0
ENDBLK
  5
112
100
AcDbEntity
  8
MAIN0
  6
CONTINUOUS
 62
3
100
AcDbBlockEnd
  0
BLOCK
  5
114
100
AcDbEntity
  8
MAIN0
  6
CONTINUOUS
 62
3
100
AcDbBlockBegin
  2
*D14
 70
    65
 10
0.0
 20
0.0
 30
0.0
  0
LINE
  5
115
100
AcDbEntity
  8
MAIN0
  6
BYBLOCK
 62
0
100
AcDbLine
 10
991.0579576577565
 20
366.9711646881712
 30
0.0000000000000000
 11
991.0579576577565
 21
262.4589872225994
 31
0.0000000000000000
  0
LINE
  5
116
100
AcDbEntity
  8
MAIN0
  6
BYBLOCK
 62
0
100
AcDbLine
 10
997.0579576577565
 20
268.4589872225994
 30
0.0000000000000000
 11
1056.057957657757
 21
268.4589872225994
 31
0.0000000000000000
  0
INSERT
  5
117
100
AcDbEntity
  8
MAIN0
  6
BYBLOCK
 62
0
100
AcDbBlockReference
  2
_OPEN
 10
991.0579576577565
 20
268.4589872225994
 30
0.0000000000000000
 41
6.000000000000000
 42
6.000000000000000
 43
6.000000000000000
 50
180.0000000000000
  0
INSERT
  5
118
100
AcDbEntity
  8
MAIN0
  6
BYBLOCK
 62
0
100
AcDbBlockReference
  2
_OPEN
 10
1062.057957657757
 20
268.4589872225994
 30
0.0000000000000000
 41
6.000000000000000
 42
6.000000000000000
 43
6.000000000000000
 50
0.0000000000000000
  0
LINE
  5
119
100
AcDbEntity
  8
MAIN0
  6
BYBLOCK
 62
0
100
AcDbLine
 10
1062.057957657757
 20
337.3711646881714
 30
0.0000000000000000
 11
1062.057957657757
 21
262.4589872225994
 31
0.0000000000000000
  0
MTEXT
  5
11A
100
AcDbEntity
  8
MAIN0
  6
BYBLOCK
 62
0
100
AcDbMText
 10
1026.557957657757
 20
273.6089870795483
 30
0.0000000000000000
 40
9.299999713897705
 41
0.0000000000000000
 71
     5
 72
     1
  1
\A1;71
 11
1.000000000000000
 21
0.0000000000000000
 31
0.0000000000000000
  7
STANDARD
  0
ENDBLK
  5
11B
100
AcDbEntity
  8
MAIN0
  6
CONTINUOUS
 62
3
100
AcDbBlockEnd
  0
BLOCK
  5
11D
100
AcDbEntity
  8
MAIN0
  6
CONTINUOUS
 62
3
100
AcDbBlockBegin
  2
*D15
 70
    65
 10
0.0
 20
0.0
 30
0.0
  0
LINE
  5
11E
100
AcDbEntity
  8
MAIN0
  6
BYBLOCK
 62
0
100
AcDbLine
 10
1062.057957657757
 20
337.3711646881714
 30
0.0000000000000000
 11
1062.057957657757
 21
262.4589872225994
 31
0.0000000000000000
  0
LINE
  5
11F
100
AcDbEntity
  8
MAIN0
  6
BYBLOCK
 62
0
100
AcDbLine
 10
1068.057957657757
 20
268.4589872225994
 30
0.0000000000000000
 11
1182.057957657757
 21
268.4589872225994
 31
0.0000000000000000
  0
INSERT
  5
120
100
AcDbEntity
  8
MAIN0
  6
BYBLOCK
 62
0
100
AcDbBlockReference
  2
_OPEN
 10
1062.057957657757
 20
268.4589872225994
 30
0.0000000000000000
 41
6.000000000000000
 42
6.000000000000000
 43
6.000000000000000
 50
180.0000000000000
  0
INSERT
  5
121
100
AcDbEntity
  8
MAIN0
  6
BYBLOCK
 62
0
100
AcDbBlockReference
  2
_OPEN
 10
1188.057957657757
 20
268.4589872225994
 30
0.0000000000000000
 41
6.000000000000000
 42
6.000000000000000
 43
6.000000000000000
 50
0.0000000000000000
  0
LINE
  5
122
100
AcDbEntity
  8
MAIN0
  6
BYBLOCK
 62
0
100
AcDbLine
 10
1188.057957657757
 20
337.3711646881704
 30
0.0000000000000000
 11
1188.057957657757
 21
262.4589872225994
 31
0.0000000000000000
  0
MTEXT
  5
123
100
AcDbEntity
  8
MAIN0
  6
BYBLOCK
 62
0
100
AcDbMText
 10
1125.057957657757
 20
273.6089870795483
 30
0.0000000000000000
 40
9.299999713897705
 41
0.0000000000000000
 71
     5
 72
     1
  1
\A1;126
 11
1.000000000000000
 21
0.0000000000000000
 31
0.0000000000000000
  7
STANDARD
  0
ENDBLK
  5
124
100
AcDbEntity
  8
MAIN0
  6
CONTINUOUS
 62
3
100
AcDbBlockEnd
  0
BLOCK
  5
126
100
AcDbEntity
  8
MAIN0
  6
CONTINUOUS
 62
3
100
AcDbBlockBegin
  2
D16
 70
    64
 10
0.0
 20
0.0
 30
0.0
  0
LINE
  5
127
100
AcDbEntity
  8
MAIN0
  6
BYBLOCK
 62
0
100
AcDbLine
 10
21.69267625942939
 20
-82.24290211442690
 30
0.0000000000000000
 11
-134.0000000000003
 21
-82.24290211442667
 31
0.0000000000000000
  0
LINE
  5
128
100
AcDbEntity
  8
MAIN0
  6
BYBLOCK
 62
0
100
AcDbLine
 10
-128.0000000000003
 20
-84.04290218595226
 30
0.0000000000000000
 11
-134.0000000000003
 21
-82.24290211442667
 31
0.0000000000000000
  0
LINE
  5
129
100
AcDbEntity
  8
MAIN0
  6
BYBLOCK
 62
0
100
AcDbLine
 10
-134.0000000000003
 20
-82.24290211442667
 30
0.0000000000000000
 11
-128.0000000000003
 21
-80.44290204290111
 31
0.0000000000000000
  0
LINE
  5
12A
100
AcDbEntity
  8
MAIN0
  6
BYBLOCK
 62
0
100
AcDbLine
 10
-134.0000000000002
 20
37.59999996423750
 30
0.0000000000000000
 11
-134.0000000000003
 21
-88.24290211442667
 31
0.0000000000000000
  0
MTEXT
  5
12B
100
AcDbEntity
  8
MAIN0
  6
BYBLOCK
 62
0
100
AcDbMText
 10
13.94267625570410
 20
-77.09290225747802
 30
0.0000000000000000
 40
9.299999713897705
 41
0.0000000000000000
 71
     5
 72
     1
  1
\A1;（268）
 11
1.000000000000000
 21
0.0000000000000000
 31
0.0000000000000000
  7
KNJYOKO
  0
ENDBLK
  5
12C
100
AcDbEntity
  8
MAIN0
  6
CONTINUOUS
 62
3
100
AcDbBlockEnd
  0
BLOCK
  5
12E
100
AcDbEntity
  8
MAIN0
  6
CONTINUOUS
 62
3
100
AcDbBlockBegin
  2
*D17
 70
    65
 10
0.0
 20
0.0
 30
0.0
  0
LINE
  5
12F
100
AcDbEntity
  8
MAIN0
  6
BYBLOCK
 62
0
100
AcDbLine
 10
373.5909736689980
 20
696.2782574997303
 30
0.0000000000000000
 11
373.5909736689980
 21
779.1874407711845
 31
0.0000000000000000
  0
LINE
  5
130
100
AcDbEntity
  8
MAIN0
  6
BYBLOCK
 62
0
100
AcDbLine
 10
379.5909736689980
 20
773.1874407711845
 30
0.0000000000000000
 11
409.5909736700477
 21
773.1874407711845
 31
0.0000000000000000
  0
INSERT
  5
131
100
AcDbEntity
  8
MAIN0
  6
BYBLOCK
 62
0
100
AcDbBlockReference
  2
_OPEN
 10
373.5909736689980
 20
773.1874407711845
 30
0.0000000000000000
 41
6.000000000000000
 42
6.000000000000000
 43
6.000000000000000
 50
180.0000000000000
  0
INSERT
  5
132
100
AcDbEntity
  8
MAIN0
  6
BYBLOCK
 62
0
100
AcDbBlockReference
  2
_OPEN
 10
415.5909736700477
 20
773.1874407711845
 30
0.0000000000000000
 41
6.000000000000000
 42
6.000000000000000
 43
6.000000000000000
 50
0.0000000000000000
  0
LINE
  5
133
100
AcDbEntity
  8
MAIN0
  6
BYBLOCK
 62
0
100
AcDbLine
 10
415.5909736700477
 20
750.2782574997307
 30
0.0000000000000000
 11
415.5909736700477
 21
779.1874407711845
 31
0.0000000000000000
  0
MTEXT
  5
134
100
AcDbEntity
  8
MAIN0
  6
BYBLOCK
 62
0
100
AcDbMText
 10
394.5909736695228
 20
778.3374406281333
 30
0.0000000000000000
 40
9.299999713897705
 41
0.0000000000000000
 71
     5
 72
     1
  1
\A1;42
 11
1.000000000000000
 21
0.0000000000000000
 31
0.0000000000000000
  7
STANDARD
  0
ENDBLK
  5
135
100
AcDbEntity
  8
MAIN0
  6
CONTINUOUS
 62
3
100
AcDbBlockEnd
  0
BLOCK
  5
137
100
AcDbEntity
  8
MAIN0
  6
CONTINUOUS
 62
3
100
AcDbBlockBegin
  2
*D18
 70
    65
 10
0.0
 20
0.0
 30
0.0
  0
LINE
  5
138
100
AcDbEntity
  8
MAIN0
  6
BYBLOCK
 62
0
100
AcDbLine
 10
592.1398079756518
 20
424.3711647237618
 30
0.0000000000000000
 11
592.1398079756518
 21
457.5711647236481
 31
0.0000000000000000
  0
INSERT
  5
139
100
AcDbEntity
  8
MAIN0
  6
BYBLOCK
 62
0
100
AcDbBlockReference
  2
_OPEN
 10
592.1398079756518
 20
424.3711647237618
 30
0.0000000000000000
 41
6.000000000000000
 42
6.000000000000000
 43
6.000000000000000
 50
90.00000000000000
  0
INSERT
  5
13A
100
AcDbEntity
  8
MAIN0
  6
BYBLOCK
 62
0
100
AcDbBlockReference
  2
_OPEN
 10
592.1398079756518
 20
457.5711647236481
 30
0.0000000000000000
 41
6.000000000000000
 42
6.000000000000000
 43
6.000000000000000
 50
270.0000000000000
  0
LINE
  5
13B
100
AcDbEntity
  8
MAIN0
  6
BYBLOCK
 62
0
100
AcDbLine
 10
592.1398079756518
 20
418.3711647237618
 30
0.0000000000000000
 11
592.1398079756518
 21
415.3711647237618
 31
0.0000000000000000
  0
LINE
  5
13C
100
AcDbEntity
  8
MAIN0
  6
BYBLOCK
 62
0
100
AcDbLine
 10
592.1398079756518
 20
463.5711647236481
 30
0.0000000000000000
 11
592.1398079756518
 21
466.5711647236481
 31
0.0000000000000000
  0
LINE
  5
13D
100
AcDbEntity
  8
MAIN0
  6
BYBLOCK
 62
0
100
AcDbLine
 10
615.6909736340363
 20
457.5711647236481
 30
0.0000000000000000
 11
586.1398079756518
 21
457.5711647236481
 31
0.0000000000000000
  0
MTEXT
  5
13E
100
AcDbEntity
  8
MAIN0
  6
BYBLOCK
 62
0
100
AcDbMText
 10
586.9898081187030
 20
440.9711647237049
 30
0.0000000000000000
 40
9.299999713897705
 41
0.0000000000000000
 71
     5
 72
     1
  1
\A1;33
 11
6.123233995736766e-017
 21
1.000000000000000
 31
0.0000000000000000
  7
STANDARD
  0
ENDBLK
  5
13F
100
AcDbEntity
  8
MAIN0
  6
CONTINUOUS
 62
3
100
AcDbBlockEnd
  0
BLOCK
  5
142
100
AcDbEntity
  8
MAIN0
  6
CONTINUOUS
 62
3
100
AcDbBlockBegin
  2
*D19
 70
    65
 10
0.0
 20
0.0
 30
0.0
  0
LINE
  5
143
100
AcDbEntity
  8
MAIN0
  6
BYBLOCK
 62
0
100
AcDbLine
 10
757.5909737056456
 20
339.3711647239452
 30
0.0000000000000000
 11
863.6841614849709
 21
339.3711647236430
 31
0.0000000000000000
  0
LINE
  5
144
100
AcDbEntity
  8
MAIN0
  6
BYBLOCK
 62
0
100
AcDbLine
 10
857.6841614849709
 20
345.3711647236601
 30
0.0000000000000000
 11
857.6841614849709
 21
383.3711647220066
 31
0.0000000000000000
  0
INSERT
  5
145
100
AcDbEntity
  8
MAIN0
  6
BYBLOCK
 62
0
100
AcDbBlockReference
  2
_OPEN
 10
857.6841614849709
 20
339.3711647236601
 30
0.0000000000000000
 41
6.000000000000000
 42
6.000000000000000
 43
6.000000000000000
 50
270.0000000000000
  0
INSERT
  5
146
100
AcDbEntity
  8
MAIN0
  6
BYBLOCK
 62
0
100
AcDbBlockReference
  2
_OPEN
 10
857.6841614849709
 20
389.3711647220066
 30
0.0000000000000000
 41
6.000000000000000
 42
6.000000000000000
 43
6.000000000000000
 50
90.00000000000000
  0
MTEXT
  5
147
100
AcDbEntity
  8
MAIN0
  6
BYBLOCK
 62
0
100
AcDbMText
 10
852.5341616280221
 20
364.3711647228334
 30
0.0000000000000000
 40
9.299999713897705
 41
0.0000000000000000
 71
     5
 72
     1
  1
\A1;50
 11
6.123233995736766e-017
 21
1.000000000000000
 31
0.0000000000000000
  7
STANDARD
  0
ENDBLK
  5
148
100
AcDbEntity
  8
MAIN0
  6
CONTINUOUS
 62
3
100
AcDbBlockEnd
  0
BLOCK
  5
14F
100
AcDbEntity
  8
MAIN0
  6
CONTINUOUS
 62
3
100
AcDbBlockBegin
  2
*D20
 70
    65
 10
0.0
 20
0.0
 30
0.0
  0
LINE
  5
150
100
AcDbEntity
  8
MAIN0
  6
BYBLOCK
 62
0
100
AcDbLine
 10
901.8695092508937
 20
371.7711647597322
 30
0.0000000000000000
 11
901.8695092508937
 21
409.1441590230102
 31
0.0000000000000000
  0
LINE
  5
151
100
AcDbEntity
  8
MAIN0
  6
BYBLOCK
 62
0
100
AcDbLine
 10
907.8695092508937
 20
403.1441590230102
 30
0.0000000000000000
 11
940.8695092508932
 21
403.1441590230102
 31
0.0000000000000000
  0
INSERT
  5
152
100
AcDbEntity
  8
MAIN0
  6
BYBLOCK
 62
0
100
AcDbBlockReference
  2
_OPEN
 10
901.8695092508937
 20
403.1441590230102
 30
0.0000000000000000
 41
6.000000000000000
 42
6.000000000000000
 43
6.000000000000000
 50
180.0000000000000
  0
INSERT
  5
153
100
AcDbEntity
  8
MAIN0
  6
BYBLOCK
 62
0
100
AcDbBlockReference
  2
_OPEN
 10
946.8695092508932
 20
403.1441590230102
 30
0.0000000000000000
 41
6.000000000000000
 42
6.000000000000000
 43
6.000000000000000
 50
0.0000000000000000
  0
LINE
  5
154
100
AcDbEntity
  8
MAIN0
  6
BYBLOCK
 62
0
100
AcDbLine
 10
946.8695092508932
 20
371.7711647597184
 30
0.0000000000000000
 11
946.8695092508932
 21
409.1441590230102
 31
0.0000000000000000
  0
MTEXT
  5
155
100
AcDbEntity
  8
MAIN0
  6
BYBLOCK
 62
0
100
AcDbMText
 10
924.3695092508934
 20
408.2941588799590
 30
0.0000000000000000
 40
9.299999713897705
 41
0.0000000000000000
 71
     5
 72
     1
  1
\A1;45
 11
1.000000000000000
 21
0.0000000000000000
 31
0.0000000000000000
  7
STANDARD
  0
ENDBLK
  5
156
100
AcDbEntity
  8
MAIN0
  6
CONTINUOUS
 62
3
100
AcDbBlockEnd
  0
BLOCK
  5
158
100
AcDbEntity
  8
MAIN0
  6
CONTINUOUS
 62
3
100
AcDbBlockBegin
  2
*D21
 70
    65
 10
0.0
 20
0.0
 30
0.0
  0
LINE
  5
159
100
AcDbEntity
  8
MAIN0
  6
BYBLOCK
 62
0
100
AcDbLine
 10
1021.657957621949
 20
226.8268088402915
 30
0.0000000000000000
 11
996.2942541865845
 21
226.8268088402915
 31
0.0000000000000000
  0
LINE
  5
15A
100
AcDbEntity
  8
MAIN0
  6
BYBLOCK
 62
0
100
AcDbLine
 10
1002.294254186585
 20
226.8268088402915
 30
0.0000000000000000
 11
1002.294254186585
 21
198.3268088402917
 31
0.0000000000000000
  0
INSERT
  5
15B
100
AcDbEntity
  8
MAIN0
  6
BYBLOCK
 62
0
100
AcDbBlockReference
  2
_OPEN
 10
1002.294254186585
 20
226.8268088402915
 30
0.0000000000000000
 41
6.000000000000000
 42
6.000000000000000
 43
6.000000000000000
 50
270.0000000000000
  0
INSERT
  5
15C
100
AcDbEntity
  8
MAIN0
  6
BYBLOCK
 62
0
100
AcDbBlockReference
  2
_OPEN
 10
1002.294254186585
 20
198.3268088402917
 30
0.0000000000000000
 41
6.000000000000000
 42
6.000000000000000
 43
6.000000000000000
 50
90.00000000000000
  0
LINE
  5
15D
100
AcDbEntity
  8
MAIN0
  6
BYBLOCK
 62
0
100
AcDbLine
 10
1002.294254186585
 20
232.8268088402915
 30
0.0000000000000000
 11
1002.294254186585
 21
235.8268088402915
 31
0.0000000000000000
  0
LINE
  5
15E
100
AcDbEntity
  8
MAIN0
  6
BYBLOCK
 62
0
100
AcDbLine
 10
1002.294254186585
 20
192.3268088402917
 30
0.0000000000000000
 11
1002.294254186585
 21
189.3268088402917
 31
0.0000000000000000
  0
LINE
  5
15F
100
AcDbEntity
  8
MAIN0
  6
BYBLOCK
 62
0
100
AcDbLine
 10
1021.657957621969
 20
198.3268088402917
 30
0.0000000000000000
 11
996.2942541865845
 21
198.3268088402917
 31
0.0000000000000000
  0
MTEXT
  5
160
100
AcDbEntity
  8
MAIN0
  6
BYBLOCK
 62
0
100
AcDbMText
 10
997.1442543296356
 20
212.5768088402916
 30
0.0000000000000000
 40
9.299999713897705
 41
0.0000000000000000
 71
     5
 72
     1
  1
\A1;28.5
 11
6.123233995736766e-017
 21
1.000000000000000
 31
0.0000000000000000
  7
STANDARD
  0
ENDBLK
  5
161
100
AcDbEntity
  8
MAIN0
  6
CONTINUOUS
 62
3
100
AcDbBlockEnd
  0
BLOCK
  5
163
100
AcDbEntity
  8
MAIN0
  6
CONTINUOUS
 62
3
100
AcDbBlockBegin
  2
*D22
 70
    65
 10
0.0
 20
0.0
 30
0.0
  0
LINE
  5
164
100
AcDbEntity
  8
MAIN0
  6
BYBLOCK
 62
0
100
AcDbLine
 10
1056.457957693478
 20
221.3268088402841
 30
0.0000000000000000
 11
1085.238127428337
 21
221.3268088402936
 31
0.0000000000000000
  0
LINE
  5
165
100
AcDbEntity
  8
MAIN0
  6
BYBLOCK
 62
0
100
AcDbLine
 10
1079.238127428337
 20
221.3268088402916
 30
0.0000000000000000
 11
1079.238127428337
 21
203.8268088402917
 31
0.0000000000000000
  0
INSERT
  5
166
100
AcDbEntity
  8
MAIN0
  6
BYBLOCK
 62
0
100
AcDbBlockReference
  2
_OPEN
 10
1079.238127428337
 20
221.3268088402916
 30
0.0000000000000000
 41
6.000000000000000
 42
6.000000000000000
 43
6.000000000000000
 50
270.0000000000000
  0
INSERT
  5
167
100
AcDbEntity
  8
MAIN0
  6
BYBLOCK
 62
0
100
AcDbBlockReference
  2
_OPEN
 10
1079.238127428337
 20
203.8268088402917
 30
0.0000000000000000
 41
6.000000000000000
 42
6.000000000000000
 43
6.000000000000000
 50
90.00000000000000
  0
LINE
  5
168
100
AcDbEntity
  8
MAIN0
  6
BYBLOCK
 62
0
100
AcDbLine
 10
1079.238127428337
 20
227.3268088402916
 30
0.0000000000000000
 11
1079.238127428337
 21
230.3268088402916
 31
0.0000000000000000
  0
LINE
  5
169
100
AcDbEntity
  8
MAIN0
  6
BYBLOCK
 62
0
100
AcDbLine
 10
1079.238127428337
 20
197.8268088402917
 30
0.0000000000000000
 11
1079.238127428337
 21
175.2768676048181
 31
0.0000000000000000
  0
LINE
  5
16A
100
AcDbEntity
  8
MAIN0
  6
BYBLOCK
 62
0
100
AcDbLine
 10
1056.457957693491
 20
203.8268088402842
 30
0.0000000000000000
 11
1085.238127428337
 21
203.8268088402937
 31
0.0000000000000000
  0
MTEXT
  5
16B
100
AcDbEntity
  8
MAIN0
  6
BYBLOCK
 62
0
100
AcDbMText
 10
1073.088127571388
 20
186.2268678909204
 30
0.0000000000000000
 40
9.299999713897705
 41
0.0000000000000000
 71
     5
 72
     1
  1
\A1;17.5
 11
6.123233995736766e-017
 21
1.000000000000000
 31
0.0000000000000000
  7
STANDARD
  0
ENDBLK
  5
16C
100
AcDbEntity
  8
MAIN0
  6
CONTINUOUS
 62
3
100
AcDbBlockEnd
  0
BLOCK
  5
16E
100
AcDbEntity
  8
MAIN0
  6
CONTINUOUS
 62
3
100
AcDbBlockBegin
  2
*D23
 70
    65
 10
0.0
 20
0.0
 30
0.0
  0
LINE
  5
16F
100
AcDbEntity
  8
MAIN0
  6
BYBLOCK
 62
0
100
AcDbLine
 10
1024.057957657732
 20
195.9268088045289
 30
0.0000000000000000
 11
1024.057957657732
 21
168.5475582523907
 31
0.0000000000000000
  0
LINE
  5
170
100
AcDbEntity
  8
MAIN0
  6
BYBLOCK
 62
0
100
AcDbLine
 10
1030.057957657732
 20
174.5475582523907
 30
0.0000000000000000
 11
1048.057957657731
 21
174.5475582523907
 31
0.0000000000000000
  0
INSERT
  5
171
100
AcDbEntity
  8
MAIN0
  6
BYBLOCK
 62
0
100
AcDbBlockReference
  2
_OPEN
 10
1024.057957657732
 20
174.5475582523907
 30
0.0000000000000000
 41
6.000000000000000
 42
6.000000000000000
 43
6.000000000000000
 50
180.0000000000000
  0
INSERT
  5
172
100
AcDbEntity
  8
MAIN0
  6
BYBLOCK
 62
0
100
AcDbBlockReference
  2
_OPEN
 10
1054.057957657731
 20
174.5475582523907
 30
0.0000000000000000
 41
6.000000000000000
 42
6.000000000000000
 43
6.000000000000000
 50
0.0000000000000000
  0
LINE
  5
173
100
AcDbEntity
  8
MAIN0
  6
BYBLOCK
 62
0
100
AcDbLine
 10
1054.057957657731
 20
195.9268088045207
 30
0.0000000000000000
 11
1054.057957657731
 21
168.5475582523907
 31
0.0000000000000000
  0
MTEXT
  5
174
100
AcDbEntity
  8
MAIN0
  6
BYBLOCK
 62
0
100
AcDbMText
 10
1039.057957657732
 20
179.6975581093396
 30
0.0000000000000000
 40
9.299999713897705
 41
0.0000000000000000
 71
     5
 72
     1
  1
\A1;30
 11
1.000000000000000
 21
0.0000000000000000
 31
0.0000000000000000
  7
STANDARD
  0
ENDBLK
  5
175
100
AcDbEntity
  8
MAIN0
  6
CONTINUOUS
 62
3
100
AcDbBlockEnd
  0
BLOCK
  5
216
100
AcDbEntity
  8
MAIN0
  6
CONTINUOUS
 62
3
100
AcDbBlockBegin
  2
*D24
 70
    65
 10
0.0
 20
0.0
 30
0.0
  0
LINE
  5
217
100
AcDbEntity
  8
MAIN0
  6
BYBLOCK
 62
0
100
AcDbLine
 10
572.3797673436957
 20
339.3711647236601
 30
0.0000000000000000
 11
572.3797673436957
 21
334.3711647236469
 31
0.0000000000000000
  0
INSERT
  5
218
100
AcDbEntity
  8
MAIN0
  6
BYBLOCK
 62
0
100
AcDbBlockReference
  2
_OPEN
 10
572.3797673436957
 20
339.3711647236601
 30
0.0000000000000000
 41
6.000000000000000
 42
6.000000000000000
 43
6.000000000000000
 50
270.0000000000000
  0
INSERT
  5
219
100
AcDbEntity
  8
MAIN0
  6
BYBLOCK
 62
0
100
AcDbBlockReference
  2
_OPEN
 10
572.3797673436957
 20
334.3711647236469
 30
0.0000000000000000
 41
6.000000000000000
 42
6.000000000000000
 43
6.000000000000000
 50
90.00000000000000
  0
LINE
  5
21A
100
AcDbEntity
  8
MAIN0
  6
BYBLOCK
 62
0
100
AcDbLine
 10
572.3797673436957
 20
345.3711647236601
 30
0.0000000000000000
 11
572.3797673436957
 21
348.3711647236601
 31
0.0000000000000000
  0
LINE
  5
21B
100
AcDbEntity
  8
MAIN0
  6
BYBLOCK
 62
0
100
AcDbLine
 10
572.3797673436957
 20
328.3711647236469
 30
0.0000000000000000
 11
572.3797673436957
 21
320.9645851866096
 31
0.0000000000000000
  0
LINE
  5
21C
100
AcDbEntity
  8
MAIN0
  6
BYBLOCK
 62
0
100
AcDbLine
 10
541.9909737055316
 20
334.3711647236469
 30
0.0000000000000000
 11
578.3797673436957
 21
334.3711647236469
 31
0.0000000000000000
  0
MTEXT
  5
21D
100
AcDbEntity
  8
MAIN0
  6
BYBLOCK
 62
0
100
AcDbMText
 10
566.2297674867468
 20
323.9645851866096
 30
0.0000000000000000
 40
9.299999713897705
 41
0.0000000000000000
 71
     5
 72
     1
  1
\A1;5
 11
6.123233995736766e-017
 21
1.000000000000000
 31
0.0000000000000000
  7
STANDARD
  0
ENDBLK
  5
21E
100
AcDbEntity
  8
MAIN0
  6
CONTINUOUS
 62
3
100
AcDbBlockEnd
  0
BLOCK
  5
220
100
AcDbEntity
  8
MAIN0
  6
CONTINUOUS
 62
3
100
AcDbBlockBegin
  2
*D25
 70
    65
 10
0.0
 20
0.0
 30
0.0
  0
LINE
  5
221
100
AcDbEntity
  8
MAIN0
  6
BYBLOCK
 62
0
100
AcDbLine
 10
530.5909736697688
 20
324.9711646878843
 30
0.0000000000000000
 11
530.5909736697688
 21
281.8488778597925
 31
0.0000000000000000
  0
LINE
  5
222
100
AcDbEntity
  8
MAIN0
  6
BYBLOCK
 62
0
100
AcDbLine
 10
524.5909736697688
 20
287.8488778597925
 30
0.0000000000000000
 11
421.5909736697996
 21
287.8488778597925
 31
0.0000000000000000
  0
INSERT
  5
223
100
AcDbEntity
  8
MAIN0
  6
BYBLOCK
 62
0
100
AcDbBlockReference
  2
_OPEN
 10
530.5909736697688
 20
287.8488778597925
 30
0.0000000000000000
 41
6.000000000000000
 42
6.000000000000000
 43
6.000000000000000
 50
360.0000000000000
  0
INSERT
  5
224
100
AcDbEntity
  8
MAIN0
  6
BYBLOCK
 62
0
100
AcDbBlockReference
  2
_OPEN
 10
415.5909736697996
 20
287.8488778597925
 30
0.0000000000000000
 41
6.000000000000000
 42
6.000000000000000
 43
6.000000000000000
 50
180.0000000000000
  0
LINE
  5
225
100
AcDbEntity
  8
MAIN0
  6
BYBLOCK
 62
0
100
AcDbLine
 10
415.5909736697996
 20
422.3711646877271
 30
0.0000000000000000
 11
415.5909736697996
 21
281.8488778597925
 31
0.0000000000000000
  0
MTEXT
  5
226
100
AcDbEntity
  8
MAIN0
  6
BYBLOCK
 62
0
100
AcDbMText
 10
473.0909736697842
 20
292.9988777167414
 30
0.0000000000000000
 40
9.299999713897705
 41
0.0000000000000000
 71
     5
 72
     1
  1
\A1;115
 11
1.000000000000000
 21
0.0000000000000000
 31
0.0000000000000000
  7
STANDARD
  0
ENDBLK
  5
227
100
AcDbEntity
  8
MAIN0
  6
CONTINUOUS
 62
3
100
AcDbBlockEnd
  0
BLOCK
  5
229
100
AcDbEntity
  8
MAIN0
  6
CONTINUOUS
 62
3
100
AcDbBlockBegin
  2
*D26
 70
    65
 10
0.0
 20
0.0
 30
0.0
  0
LINE
  5
22A
100
AcDbEntity
  8
MAIN0
  6
BYBLOCK
 62
0
100
AcDbLine
 10
330.5909736697034
 20
337.3711646876802
 30
0.0000000000000000
 11
330.5909736697034
 21
261.8488778597925
 31
0.0000000000000000
  0
LINE
  5
22B
100
AcDbEntity
  8
MAIN0
  6
BYBLOCK
 62
0
100
AcDbLine
 10
336.5909736697034
 20
267.8488778597925
 30
0.0000000000000000
 11
749.5909736698848
 21
267.8488778597925
 31
0.0000000000000000
  0
INSERT
  5
22C
100
AcDbEntity
  8
MAIN0
  6
BYBLOCK
 62
0
100
AcDbBlockReference
  2
_OPEN
 10
330.5909736697034
 20
267.8488778597925
 30
0.0000000000000000
 41
6.000000000000000
 42
6.000000000000000
 43
6.000000000000000
 50
180.0000000000000
  0
INSERT
  5
22D
100
AcDbEntity
  8
MAIN0
  6
BYBLOCK
 62
0
100
AcDbBlockReference
  2
_OPEN
 10
755.5909736698848
 20
267.8488778597925
 30
0.0000000000000000
 41
6.000000000000000
 42
6.000000000000000
 43
6.000000000000000
 50
0.0000000000000000
  0
LINE
  5
22E
100
AcDbEntity
  8
MAIN0
  6
BYBLOCK
 62
0
100
AcDbLine
 10
755.5909736698848
 20
337.3711646881902
 30
0.0000000000000000
 11
755.5909736698848
 21
261.8488778597925
 31
0.0000000000000000
  0
MTEXT
  5
22F
100
AcDbEntity
  8
MAIN0
  6
BYBLOCK
 62
0
100
AcDbMText
 10
553.9096777557970
 20
273.9988777167414
 30
0.0000000000000000
 40
9.299999713897705
 41
0.0000000000000000
 71
     5
 72
     1
  1
\A1;425
 11
1.000000000000000
 21
0.0000000000000000
 31
0.0000000000000000
  7
STANDARD
  0
ENDBLK
  5
230
100
AcDbEntity
  8
MAIN0
  6
CONTINUOUS
 62
3
100
AcDbBlockEnd
  0
BLOCK
  5
232
100
AcDbEntity
  8
MAIN0
  6
CONTINUOUS
 62
3
100
AcDbBlockBegin
  2
*D27
 70
    65
 10
0.0
 20
0.0
 30
0.0
  0
LINE
  5
233
100
AcDbEntity
  8
MAIN0
  6
BYBLOCK
 62
0
100
AcDbLine
 10
755.5909736698848
 20
337.3711646881902
 30
0.0000000000000000
 11
755.5909736698848
 21
261.8488778597925
 31
0.0000000000000000
  0
LINE
  5
234
100
AcDbEntity
  8
MAIN0
  6
BYBLOCK
 62
0
100
AcDbLine
 10
761.5909736698848
 20
267.8488778597925
 30
0.0000000000000000
 11
834.5909736700887
 21
267.8488778597925
 31
0.0000000000000000
  0
INSERT
  5
235
100
AcDbEntity
  8
MAIN0
  6
BYBLOCK
 62
0
100
AcDbBlockReference
  2
_OPEN
 10
755.5909736698848
 20
267.8488778597925
 30
0.0000000000000000
 41
6.000000000000000
 42
6.000000000000000
 43
6.000000000000000
 50
180.0000000000000
  0
INSERT
  5
236
100
AcDbEntity
  8
MAIN0
  6
BYBLOCK
 62
0
100
AcDbBlockReference
  2
_OPEN
 10
840.5909736700887
 20
267.8488778597925
 30
0.0000000000000000
 41
6.000000000000000
 42
6.000000000000000
 43
6.000000000000000
 50
0.0000000000000000
  0
LINE
  5
237
100
AcDbEntity
  8
MAIN0
  6
BYBLOCK
 62
0
100
AcDbLine
 10
840.5909736700887
 20
361.9711646862434
 30
0.0000000000000000
 11
840.5909736700887
 21
261.8488778597925
 31
0.0000000000000000
  0
MTEXT
  5
238
100
AcDbEntity
  8
MAIN0
  6
BYBLOCK
 62
0
100
AcDbMText
 10
798.0909736699867
 20
272.9988777167414
 30
0.0000000000000000
 40
9.299999713897705
 41
0.0000000000000000
 71
     5
 72
     1
  1
\A1;85
 11
1.000000000000000
 21
0.0000000000000000
 31
0.0000000000000000
  7
STANDARD
  0
ENDBLK
  5
239
100
AcDbEntity
  8
MAIN0
  6
CONTINUOUS
 62
3
100
AcDbBlockEnd
  0
BLOCK
  5
23B
100
AcDbEntity
  8
MAIN0
  6
CONTINUOUS
 62
3
100
AcDbBlockBegin
  2
*D28
 70
    65
 10
0.0
 20
0.0
 30
0.0
  0
LINE
  5
23C
100
AcDbEntity
  8
MAIN0
  6
BYBLOCK
 62
0
100
AcDbLine
 10
330.5909736697034
 20
337.3711646876802
 30
0.0000000000000000
 11
330.5909736697034
 21
241.8488778597926
 31
0.0000000000000000
  0
LINE
  5
23D
100
AcDbEntity
  8
MAIN0
  6
BYBLOCK
 62
0
100
AcDbLine
 10
336.5909736697034
 20
247.8488778597926
 30
0.0000000000000000
 11
524.5909736697688
 21
247.8488778597926
 31
0.0000000000000000
  0
INSERT
  5
23E
100
AcDbEntity
  8
MAIN0
  6
BYBLOCK
 62
0
100
AcDbBlockReference
  2
_OPEN
 10
330.5909736697034
 20
247.8488778597926
 30
0.0000000000000000
 41
6.000000000000000
 42
6.000000000000000
 43
6.000000000000000
 50
180.0000000000000
  0
INSERT
  5
23F
100
AcDbEntity
  8
MAIN0
  6
BYBLOCK
 62
0
100
AcDbBlockReference
  2
_OPEN
 10
530.5909736697688
 20
247.8488778597926
 30
0.0000000000000000
 41
6.000000000000000
 42
6.000000000000000
 43
6.000000000000000
 50
0.0000000000000000
  0
LINE
  5
240
100
AcDbEntity
  8
MAIN0
  6
BYBLOCK
 62
0
100
AcDbLine
 10
530.5909736697688
 20
324.9711646878843
 30
0.0000000000000000
 11
530.5909736697688
 21
241.8488778597926
 31
0.0000000000000000
  0
MTEXT
  5
241
100
AcDbEntity
  8
MAIN0
  6
BYBLOCK
 62
0
100
AcDbMText
 10
430.5909736697361
 20
252.9988777167414
 30
0.0000000000000000
 40
9.299999713897705
 41
0.0000000000000000
 71
     5
 72
     1
  1
\A1;200
 11
1.000000000000000
 21
0.0000000000000000
 31
0.0000000000000000
  7
STANDARD
  0
ENDBLK
  5
242
100
AcDbEntity
  8
MAIN0
  6
CONTINUOUS
 62
3
100
AcDbBlockEnd
  0
BLOCK
  5
244
100
AcDbEntity
  8
MAIN0
  6
CONTINUOUS
 62
3
100
AcDbBlockBegin
  2
*D29
 70
    65
 10
0.0
 20
0.0
 30
0.0
  0
LINE
  5
245
100
AcDbEntity
  8
MAIN0
  6
BYBLOCK
 62
0
100
AcDbLine
 10
530.5909736697688
 20
324.9711646878843
 30
0.0000000000000000
 11
530.5909736697688
 21
241.8488778597926
 31
0.0000000000000000
  0
LINE
  5
246
100
AcDbEntity
  8
MAIN0
  6
BYBLOCK
 62
0
100
AcDbLine
 10
536.5909736697688
 20
247.8488778597926
 30
0.0000000000000000
 11
834.5909736700887
 21
247.8488778597926
 31
0.0000000000000000
  0
INSERT
  5
247
100
AcDbEntity
  8
MAIN0
  6
BYBLOCK
 62
0
100
AcDbBlockReference
  2
_OPEN
 10
530.5909736697688
 20
247.8488778597926
 30
0.0000000000000000
 41
6.000000000000000
 42
6.000000000000000
 43
6.000000000000000
 50
180.0000000000000
  0
INSERT
  5
248
100
AcDbEntity
  8
MAIN0
  6
BYBLOCK
 62
0
100
AcDbBlockReference
  2
_OPEN
 10
840.5909736700887
 20
247.8488778597926
 30
0.0000000000000000
 41
6.000000000000000
 42
6.000000000000000
 43
6.000000000000000
 50
0.0000000000000000
  0
LINE
  5
249
100
AcDbEntity
  8
MAIN0
  6
BYBLOCK
 62
0
100
AcDbLine
 10
840.5909736700887
 20
361.9711646862434
 30
0.0000000000000000
 11
840.5909736700887
 21
241.8488778597926
 31
0.0000000000000000
  0
MTEXT
  5
24A
100
AcDbEntity
  8
MAIN0
  6
BYBLOCK
 62
0
100
AcDbMText
 10
685.5909736699288
 20
252.9988777167414
 30
0.0000000000000000
 40
9.299999713897705
 41
0.0000000000000000
 71
     5
 72
     1
  1
\A1;310
 11
1.000000000000000
 21
0.0000000000000000
 31
0.0000000000000000
  7
STANDARD
  0
ENDBLK
  5
24B
100
AcDbEntity
  8
MAIN0
  6
CONTINUOUS
 62
3
100
AcDbBlockEnd
  0
BLOCK
  5
24D
100
AcDbEntity
  8
MAIN0
  6
CONTINUOUS
 62
3
100
AcDbBlockBegin
  2
*D30
 70
    65
 10
0.0
 20
0.0
 30
0.0
  0
LINE
  5
24E
100
AcDbEntity
  8
MAIN0
  6
BYBLOCK
 62
0
100
AcDbLine
 10
840.5909736700887
 20
361.9711646862434
 30
0.0000000000000000
 11
840.5909736700887
 21
221.8488778597926
 31
0.0000000000000000
  0
LINE
  5
24F
100
AcDbEntity
  8
MAIN0
  6
BYBLOCK
 62
0
100
AcDbLine
 10
834.5909736700887
 20
227.8488778597926
 30
0.0000000000000000
 11
336.5909736697034
 21
227.8488778597926
 31
0.0000000000000000
  0
INSERT
  5
250
100
AcDbEntity
  8
MAIN0
  6
BYBLOCK
 62
0
100
AcDbBlockReference
  2
_OPEN
 10
840.5909736700887
 20
227.8488778597926
 30
0.0000000000000000
 41
6.000000000000000
 42
6.000000000000000
 43
6.000000000000000
 50
360.0000000000000
  0
INSERT
  5
251
100
AcDbEntity
  8
MAIN0
  6
BYBLOCK
 62
0
100
AcDbBlockReference
  2
_OPEN
 10
330.5909736697034
 20
227.8488778597926
 30
0.0000000000000000
 41
6.000000000000000
 42
6.000000000000000
 43
6.000000000000000
 50
180.0000000000000
  0
LINE
  5
252
100
AcDbEntity
  8
MAIN0
  6
BYBLOCK
 62
0
100
AcDbLine
 10
330.5909736697034
 20
337.3711646876802
 30
0.0000000000000000
 11
330.5909736697034
 21
221.8488778597926
 31
0.0000000000000000
  0
MTEXT
  5
253
100
AcDbEntity
  8
MAIN0
  6
BYBLOCK
 62
0
100
AcDbMText
 10
585.5909736698960
 20
232.9988777167414
 30
0.0000000000000000
 40
9.299999713897705
 41
0.0000000000000000
 71
     5
 72
     1
  1
\A1;510
 11
1.000000000000000
 21
0.0000000000000000
 31
0.0000000000000000
  7
STANDARD
  0
ENDBLK
  5
254
100
AcDbEntity
  8
MAIN0
  6
CONTINUOUS
 62
3
100
AcDbBlockEnd
  0
BLOCK
  5
256
100
AcDbEntity
  8
MAIN0
  6
CONTINUOUS
 62
3
100
AcDbBlockBegin
  2
*D31
 70
    65
 10
0.0
 20
0.0
 30
0.0
  0
LINE
  5
257
100
AcDbEntity
  8
MAIN0
  6
BYBLOCK
 62
0
100
AcDbLine
 10
749.5909736701256
 20
368.8505213836204
 30
0.0000000000000000
 11
686.5909736700910
 21
368.8505213836204
 31
0.0000000000000000
  0
INSERT
  5
258
100
AcDbEntity
  8
MAIN0
  6
BYBLOCK
 62
0
100
AcDbBlockReference
  2
_OPEN
 10
755.5909736701256
 20
368.8505213836204
 30
0.0000000000000000
 41
6.000000000000000
 42
6.000000000000000
 43
6.000000000000000
 50
360.0000000000000
  0
INSERT
  5
259
100
AcDbEntity
  8
MAIN0
  6
BYBLOCK
 62
0
100
AcDbBlockReference
  2
_OPEN
 10
680.5909736700910
 20
368.8505213836204
 30
0.0000000000000000
 41
6.000000000000000
 42
6.000000000000000
 43
6.000000000000000
 50
180.0000000000000
  0
LINE
  5
25A
100
AcDbEntity
  8
MAIN0
  6
BYBLOCK
 62
0
100
AcDbLine
 10
680.5909736700910
 20
369.9711646882588
 30
0.0000000000000000
 11
680.5909736700910
 21
362.8505213836204
 31
0.0000000000000000
  0
MTEXT
  5
25B
100
AcDbEntity
  8
MAIN0
  6
BYBLOCK
 62
0
100
AcDbMText
 10
718.0909736701083
 20
374.0005212405692
 30
0.0000000000000000
 40
9.299999713897705
 41
0.0000000000000000
 71
     5
 72
     1
  1
\A1;75
 11
1.000000000000000
 21
0.0000000000000000
 31
0.0000000000000000
  7
STANDARD
  0
ENDBLK
  5
25C
100
AcDbEntity
  8
MAIN0
  6
CONTINUOUS
 62
3
100
AcDbBlockEnd
  0
BLOCK
  5
25E
100
AcDbEntity
  8
MAIN0
  6
CONTINUOUS
 62
3
100
AcDbBlockBegin
  2
*D32
 70
    65
 10
0.0
 20
0.0
 30
0.0
  0
LINE
  5
25F
100
AcDbEntity
  8
MAIN0
  6
BYBLOCK
 62
0
100
AcDbLine
 10
680.5909736700910
 20
369.9711646882588
 30
0.0000000000000000
 11
680.5909736700910
 21
362.8505213836204
 31
0.0000000000000000
  0
LINE
  5
260
100
AcDbEntity
  8
MAIN0
  6
BYBLOCK
 62
0
100
AcDbLine
 10
674.5909736700910
 20
368.8505213836204
 30
0.0000000000000000
 11
411.5909736696922
 21
368.8505213836204
 31
0.0000000000000000
  0
INSERT
  5
261
100
AcDbEntity
  8
MAIN0
  6
BYBLOCK
 62
0
100
AcDbBlockReference
  2
_OPEN
 10
680.5909736700910
 20
368.8505213836204
 30
0.0000000000000000
 41
6.000000000000000
 42
6.000000000000000
 43
6.000000000000000
 50
360.0000000000000
  0
INSERT
  5
262
100
AcDbEntity
  8
MAIN0
  6
BYBLOCK
 62
0
100
AcDbBlockReference
  2
_OPEN
 10
405.5909736696922
 20
368.8505213836204
 30
0.0000000000000000
 41
6.000000000000000
 42
6.000000000000000
 43
6.000000000000000
 50
180.0000000000000
  0
LINE
  5
263
100
AcDbEntity
  8
MAIN0
  6
BYBLOCK
 62
0
100
AcDbLine
 10
405.5909736696922
 20
369.9711646882015
 30
0.0000000000000000
 11
405.5909736696922
 21
362.8505213836204
 31
0.0000000000000000
  0
MTEXT
  5
264
100
AcDbEntity
  8
MAIN0
  6
BYBLOCK
 62
0
100
AcDbMText
 10
543.0909736698916
 20
374.0005212405692
 30
0.0000000000000000
 40
9.299999713897705
 41
0.0000000000000000
 71
     5
 72
     1
  1
\A1;275
 11
1.000000000000000
 21
0.0000000000000000
 31
0.0000000000000000
  7
STANDARD
  0
ENDBLK
  5
265
100
AcDbEntity
  8
MAIN0
  6
CONTINUOUS
 62
3
100
AcDbBlockEnd
  0
BLOCK
  5
267
100
AcDbEntity
  8
MAIN0
  6
CONTINUOUS
 62
3
100
AcDbBlockBegin
  2
*D33
 70
    65
 10
0.0
 20
0.0
 30
0.0
  0
LINE
  5
268
100
AcDbEntity
  8
MAIN0
  6
BYBLOCK
 62
0
100
AcDbLine
 10
405.5909736696922
 20
369.9711646882015
 30
0.0000000000000000
 11
405.5909736696922
 21
362.8505213836204
 31
0.0000000000000000
  0
LINE
  5
269
100
AcDbEntity
  8
MAIN0
  6
BYBLOCK
 62
0
100
AcDbLine
 10
399.5909736696922
 20
368.8505213836204
 30
0.0000000000000000
 11
336.5909736697034
 21
368.8505213836204
 31
0.0000000000000000
  0
INSERT
  5
26A
100
AcDbEntity
  8
MAIN0
  6
BYBLOCK
 62
0
100
AcDbBlockReference
  2
_OPEN
 10
405.5909736696922
 20
368.8505213836204
 30
0.0000000000000000
 41
6.000000000000000
 42
6.000000000000000
 43
6.000000000000000
 50
360.0000000000000
  0
INSERT
  5
26B
100
AcDbEntity
  8
MAIN0
  6
BYBLOCK
 62
0
100
AcDbBlockReference
  2
_OPEN
 10
330.5909736697034
 20
368.8505213836204
 30
0.0000000000000000
 41
6.000000000000000
 42
6.000000000000000
 43
6.000000000000000
 50
180.0000000000000
  0
MTEXT
  5
26C
100
AcDbEntity
  8
MAIN0
  6
BYBLOCK
 62
0
100
AcDbMText
 10
368.0909736696978
 20
374.0005212405692
 30
0.0000000000000000
 40
9.299999713897705
 41
0.0000000000000000
 71
     5
 72
     1
  1
\A1;75
 11
1.000000000000000
 21
0.0000000000000000
 31
0.0000000000000000
  7
STANDARD
  0
ENDBLK
  5
26D
100
AcDbEntity
  8
MAIN0
  6
CONTINUOUS
 62
3
100
AcDbBlockEnd
  0
BLOCK
  5
271
100
AcDbEntity
  8
MAIN0
  6
CONTINUOUS
 62
3
100
AcDbBlockBegin
  2
*D34
 70
    65
 10
0.0
 20
0.0
 30
0.0
  0
LINE
  5
272
100
AcDbEntity
  8
MAIN0
  6
BYBLOCK
 62
0
100
AcDbLine
 10
382.9909737055464
 20
444.3711647234900
 30
0.0000000000000000
 11
406.7284987584192
 21
444.3711647234900
 31
0.0000000000000000
  0
LINE
  5
273
100
AcDbEntity
  8
MAIN0
  6
BYBLOCK
 62
0
100
AcDbLine
 10
400.7284987584192
 20
444.3711647234900
 30
0.0000000000000000
 11
400.7284987584192
 21
463.3711647234900
 31
0.0000000000000000
  0
INSERT
  5
274
100
AcDbEntity
  8
MAIN0
  6
BYBLOCK
 62
0
100
AcDbBlockReference
  2
_OPEN
 10
400.7284987584192
 20
444.3711647234900
 30
0.0000000000000000
 41
6.000000000000000
 42
6.000000000000000
 43
6.000000000000000
 50
90.00000000000000
  0
INSERT
  5
275
100
AcDbEntity
  8
MAIN0
  6
BYBLOCK
 62
0
100
AcDbBlockReference
  2
_DOT
 10
400.7284987584192
 20
464.3711647234900
 30
0.0000000000000000
 41
3.000000000000000
 42
3.000000000000000
 43
3.000000000000000
 50
90.00000000000000
  0
LINE
  5
276
100
AcDbEntity
  8
MAIN0
  6
BYBLOCK
 62
0
100
AcDbLine
 10
400.7284987584192
 20
438.3711647234900
 30
0.0000000000000000
 11
400.7284987584192
 21
435.3711647234900
 31
0.0000000000000000
  0
LINE
  5
277
100
AcDbEntity
  8
MAIN0
  6
BYBLOCK
 62
0
100
AcDbLine
 10
382.9909737055314
 20
464.3711647234900
 30
0.0000000000000000
 11
406.7284987584192
 21
464.3711647234900
 31
0.0000000000000000
  0
MTEXT
  5
278
100
AcDbEntity
  8
MAIN0
  6
BYBLOCK
 62
0
100
AcDbMText
 10
395.5784989014704
 20
454.3711647234900
 30
0.0000000000000000
 40
9.299999713897705
 41
0.0000000000000000
 71
     5
 72
     1
  1
\A1;20
 11
6.123233995736766e-017
 21
1.000000000000000
 31
0.0000000000000000
  7
STANDARD
  0
ENDBLK
  5
279
100
AcDbEntity
  8
MAIN0
  6
CONTINUOUS
 62
3
100
AcDbBlockEnd
  0
BLOCK
  5
27B
100
AcDbEntity
  8
MAIN0
  6
CONTINUOUS
 62
3
100
AcDbBlockBegin
  2
*D35
 70
    65
 10
0.0
 20
0.0
 30
0.0
  0
LINE
  5
27C
100
AcDbEntity
  8
MAIN0
  6
BYBLOCK
 62
0
100
AcDbLine
 10
382.9909737055314
 20
464.3711647234900
 30
0.0000000000000000
 11
406.7284987584192
 21
464.3711647234900
 31
0.0000000000000000
  0
LINE
  5
27D
100
AcDbEntity
  8
MAIN0
  6
BYBLOCK
 62
0
100
AcDbLine
 10
400.7284987584192
 20
465.3711647234900
 30
0.0000000000000000
 11
400.7284987584192
 21
474.3711647234900
 31
0.0000000000000000
  0
INSERT
  5
27E
100
AcDbEntity
  8
MAIN0
  6
BYBLOCK
 62
0
100
AcDbBlockReference
  2
_DOT
 10
400.7284987584192
 20
464.3711647234900
 30
0.0000000000000000
 41
3.000000000000000
 42
3.000000000000000
 43
3.000000000000000
 50
270.0000000000000
  0
INSERT
  5
27F
100
AcDbEntity
  8
MAIN0
  6
BYBLOCK
 62
0
100
AcDbBlockReference
  2
_OPEN
 10
400.7284987584192
 20
474.3711647234900
 30
0.0000000000000000
 41
6.000000000000000
 42
6.000000000000000
 43
6.000000000000000
 50
270.0000000000000
  0
LINE
  5
280
100
AcDbEntity
  8
MAIN0
  6
BYBLOCK
 62
0
100
AcDbLine
 10
400.7284987584192
 20
480.3711647234900
 30
0.0000000000000000
 11
400.7284987584192
 21
492.8102350280165
 31
0.0000000000000000
  0
MTEXT
  5
281
100
AcDbEntity
  8
MAIN0
  6
BYBLOCK
 62
0
100
AcDbMText
 10
394.5784989014704
 20
486.6602351710676
 30
0.0000000000000000
 40
9.299999713897705
 41
0.0000000000000000
 71
     5
 72
     1
  1
\A1;10
 11
6.123233995736766e-017
 21
1.000000000000000
 31
0.0000000000000000
  7
STANDARD
  0
ENDBLK
  5
282
100
AcDbEntity
  8
MAIN0
  6
CONTINUOUS
 62
3
100
AcDbBlockEnd
  0
BLOCK
  5
284
100
AcDbEntity
  8
MAIN0
  6
CONTINUOUS
 62
3
100
AcDbBlockBegin
  2
*D36
 70
    65
 10
0.0
 20
0.0
 30
0.0
  0
LINE
  5
285
100
AcDbEntity
  8
MAIN0
  6
BYBLOCK
 62
0
100
AcDbLine
 10
415.5909736697994
 20
476.2711647592530
 30
0.0000000000000000
 11
415.5909736697994
 21
507.0278557439458
 31
0.0000000000000000
  0
LINE
  5
286
100
AcDbEntity
  8
MAIN0
  6
BYBLOCK
 62
0
100
AcDbLine
 10
409.5909736697994
 20
501.0278557439458
 30
0.0000000000000000
 11
379.5909736697697
 21
501.0278557439458
 31
0.0000000000000000
  0
INSERT
  5
287
100
AcDbEntity
  8
MAIN0
  6
BYBLOCK
 62
0
100
AcDbBlockReference
  2
_OPEN
 10
415.5909736697994
 20
501.0278557439458
 30
0.0000000000000000
 41
6.000000000000000
 42
6.000000000000000
 43
6.000000000000000
 50
360.0000000000000
  0
INSERT
  5
288
100
AcDbEntity
  8
MAIN0
  6
BYBLOCK
 62
0
100
AcDbBlockReference
  2
_OPEN
 10
373.5909736697697
 20
501.0278557439458
 30
0.0000000000000000
 41
6.000000000000000
 42
6.000000000000000
 43
6.000000000000000
 50
180.0000000000000
  0
LINE
  5
289
100
AcDbEntity
  8
MAIN0
  6
BYBLOCK
 62
0
100
AcDbLine
 10
373.5909736697697
 20
473.7711647592528
 30
0.0000000000000000
 11
373.5909736697697
 21
507.0278557439458
 31
0.0000000000000000
  0
MTEXT
  5
28A
100
AcDbEntity
  8
MAIN0
  6
BYBLOCK
 62
0
100
AcDbMText
 10
394.5909736697846
 20
506.1778556008947
 30
0.0000000000000000
 40
9.299999713897705
 41
0.0000000000000000
 71
     5
 72
     1
  1
\A1;42
 11
1.000000000000000
 21
0.0000000000000000
 31
0.0000000000000000
  7
STANDARD
  0
ENDBLK
  5
28B
100
AcDbEntity
  8
MAIN0
  6
CONTINUOUS
 62
3
100
AcDbBlockEnd
  0
BLOCK
  5
28D
100
AcDbEntity
  8
MAIN0
  6
CONTINUOUS
 62
3
100
AcDbBlockBegin
  2
*D37
 70
    65
 10
0.0
 20
0.0
 30
0.0
  0
LINE
  5
28E
100
AcDbEntity
  8
MAIN0
  6
BYBLOCK
 62
0
100
AcDbLine
 10
330.5909736696848
 20
425.7711647592053
 30
0.0000000000000000
 11
330.5909736696848
 21
527.0278557439458
 31
0.0000000000000000
  0
LINE
  5
28F
100
AcDbEntity
  8
MAIN0
  6
BYBLOCK
 62
0
100
AcDbLine
 10
330.5909736696848
 20
521.0278557439458
 30
0.0000000000000000
 11
331.5909736697996
 21
521.0278557439458
 31
0.0000000000000000
  0
INSERT
  5
290
100
AcDbEntity
  8
MAIN0
  6
BYBLOCK
 62
0
100
AcDbBlockReference
  2
_OPEN
 10
330.5909736696848
 20
521.0278557439458
 30
0.0000000000000000
 41
6.000000000000000
 42
6.000000000000000
 43
6.000000000000000
 50
0.0000000000000000
  0
INSERT
  5
291
100
AcDbEntity
  8
MAIN0
  6
BYBLOCK
 62
0
100
AcDbBlockReference
  2
_OPEN
 10
331.5909736697996
 20
521.0278557439458
 30
0.0000000000000000
 41
6.000000000000000
 42
6.000000000000000
 43
6.000000000000000
 50
180.0000000000000
  0
LINE
  5
292
100
AcDbEntity
  8
MAIN0
  6
BYBLOCK
 62
0
100
AcDbLine
 10
324.5909736696848
 20
521.0278557439458
 30
0.0000000000000000
 11
317.7407332070509
 21
521.0278557439458
 31
0.0000000000000000
  0
LINE
  5
293
100
AcDbEntity
  8
MAIN0
  6
BYBLOCK
 62
0
100
AcDbLine
 10
337.5909736697996
 20
521.0278557439458
 30
0.0000000000000000
 11
340.5909736697996
 21
521.0278557439458
 31
0.0000000000000000
  0
LINE
  5
294
100
AcDbEntity
  8
MAIN0
  6
BYBLOCK
 62
0
100
AcDbLine
 10
331.5909736697996
 20
476.5711647592525
 30
0.0000000000000000
 11
331.5909736697996
 21
527.0278557439458
 31
0.0000000000000000
  0
MTEXT
  5
295
100
AcDbEntity
  8
MAIN0
  6
BYBLOCK
 62
0
100
AcDbMText
 10
320.7407332070509
 20
527.1778556008947
 30
0.0000000000000000
 40
9.299999713897705
 41
0.0000000000000000
 71
     5
 72
     1
  1
\A1;1
 11
1.000000000000000
 21
0.0000000000000000
 31
0.0000000000000000
  7
STANDARD
  0
ENDBLK
  5
296
100
AcDbEntity
  8
MAIN0
  6
CONTINUOUS
 62
3
100
AcDbBlockEnd
  0
BLOCK
  5
298
100
AcDbEntity
  8
MAIN0
  6
CONTINUOUS
 62
3
100
AcDbBlockBegin
  2
*D38
 70
    65
 10
0.0
 20
0.0
 30
0.0
  0
LINE
  5
299
100
AcDbEntity
  8
MAIN0
  6
BYBLOCK
 62
0
100
AcDbLine
 10
331.5909736697996
 20
476.5711647592525
 30
0.0000000000000000
 11
331.5909736697996
 21
527.0278557439458
 31
0.0000000000000000
  0
LINE
  5
29A
100
AcDbEntity
  8
MAIN0
  6
BYBLOCK
 62
0
100
AcDbLine
 10
337.5909736697996
 20
521.0278557439458
 30
0.0000000000000000
 11
409.5909736697994
 21
521.0278557439458
 31
0.0000000000000000
  0
INSERT
  5
29B
100
AcDbEntity
  8
MAIN0
  6
BYBLOCK
 62
0
100
AcDbBlockReference
  2
_OPEN
 10
331.5909736697996
 20
521.0278557439458
 30
0.0000000000000000
 41
6.000000000000000
 42
6.000000000000000
 43
6.000000000000000
 50
180.0000000000000
  0
INSERT
  5
29C
100
AcDbEntity
  8
MAIN0
  6
BYBLOCK
 62
0
100
AcDbBlockReference
  2
_OPEN
 10
415.5909736697994
 20
521.0278557439458
 30
0.0000000000000000
 41
6.000000000000000
 42
6.000000000000000
 43
6.000000000000000
 50
0.0000000000000000
  0
LINE
  5
29D
100
AcDbEntity
  8
MAIN0
  6
BYBLOCK
 62
0
100
AcDbLine
 10
415.5909736697994
 20
476.2711647592530
 30
0.0000000000000000
 11
415.5909736697994
 21
527.0278557439458
 31
0.0000000000000000
  0
MTEXT
  5
29E
100
AcDbEntity
  8
MAIN0
  6
BYBLOCK
 62
0
100
AcDbMText
 10
373.5909736697995
 20
526.1778556008947
 30
0.0000000000000000
 40
9.299999713897705
 41
0.0000000000000000
 71
     5
 72
     1
  1
\A1;84
 11
1.000000000000000
 21
0.0000000000000000
 31
0.0000000000000000
  7
STANDARD
  0
ENDBLK
  5
29F
100
AcDbEntity
  8
MAIN0
  6
CONTINUOUS
 62
3
100
AcDbBlockEnd
  0
BLOCK
  5
2A1
100
AcDbEntity
  8
MAIN0
  6
CONTINUOUS
 62
3
100
AcDbBlockBegin
  2
*D39
 70
    65
 10
0.0
 20
0.0
 30
0.0
  0
LINE
  5
2A2
100
AcDbEntity
  8
MAIN0
  6
BYBLOCK
 62
0
100
AcDbLine
 10
415.5909736697994
 20
476.2711647592530
 30
0.0000000000000000
 11
415.5909736697994
 21
527.0278557439458
 31
0.0000000000000000
  0
LINE
  5
2A3
100
AcDbEntity
  8
MAIN0
  6
BYBLOCK
 62
0
100
AcDbLine
 10
421.5909736697994
 20
521.0278557439458
 30
0.0000000000000000
 11
534.5909736697995
 21
521.0278557439458
 31
0.0000000000000000
  0
INSERT
  5
2A4
100
AcDbEntity
  8
MAIN0
  6
BYBLOCK
 62
0
100
AcDbBlockReference
  2
_OPEN
 10
415.5909736697994
 20
521.0278557439458
 30
0.0000000000000000
 41
6.000000000000000
 42
6.000000000000000
 43
6.000000000000000
 50
180.0000000000000
  0
INSERT
  5
2A5
100
AcDbEntity
  8
MAIN0
  6
BYBLOCK
 62
0
100
AcDbBlockReference
  2
_OPEN
 10
540.5909736697995
 20
521.0278557439458
 30
0.0000000000000000
 41
6.000000000000000
 42
6.000000000000000
 43
6.000000000000000
 50
0.0000000000000000
  0
LINE
  5
2A6
100
AcDbEntity
  8
MAIN0
  6
BYBLOCK
 62
0
100
AcDbLine
 10
540.5909736697995
 20
476.5711647593230
 30
0.0000000000000000
 11
540.5909736697995
 21
527.0278557439458
 31
0.0000000000000000
  0
MTEXT
  5
2A7
100
AcDbEntity
  8
MAIN0
  6
BYBLOCK
 62
0
100
AcDbMText
 10
478.0909736697995
 20
526.1778556008947
 30
0.0000000000000000
 40
9.299999713897705
 41
0.0000000000000000
 71
     5
 72
     1
  1
\A1;MAX 256
 11
1.000000000000000
 21
0.0000000000000000
 31
0.0000000000000000
  7
STANDARD
  0
ENDBLK
  5
2A8
100
AcDbEntity
  8
MAIN0
  6
CONTINUOUS
 62
3
100
AcDbBlockEnd
  0
BLOCK
  5
2AA
100
AcDbEntity
  8
MAIN0
  6
CONTINUOUS
 62
3
100
AcDbBlockBegin
  2
*D40
 70
    65
 10
0.0
 20
0.0
 30
0.0
  0
LINE
  5
2AB
100
AcDbEntity
  8
MAIN0
  6
BYBLOCK
 62
0
100
AcDbLine
 10
540.5909736697995
 20
476.5711647593230
 30
0.0000000000000000
 11
540.5909736697995
 21
527.0278557439458
 31
0.0000000000000000
  0
LINE
  5
2AC
100
AcDbEntity
  8
MAIN0
  6
BYBLOCK
 62
0
100
AcDbLine
 10
546.5909736697995
 20
521.0278557439458
 30
0.0000000000000000
 11
610.5909736697993
 21
521.0278557439458
 31
0.0000000000000000
  0
INSERT
  5
2AD
100
AcDbEntity
  8
MAIN0
  6
BYBLOCK
 62
0
100
AcDbBlockReference
  2
_OPEN
 10
540.5909736697995
 20
521.0278557439458
 30
0.0000000000000000
 41
6.000000000000000
 42
6.000000000000000
 43
6.000000000000000
 50
180.0000000000000
  0
INSERT
  5
2AE
100
AcDbEntity
  8
MAIN0
  6
BYBLOCK
 62
0
100
AcDbBlockReference
  2
_OPEN
 10
616.5909736697993
 20
521.0278557439458
 30
0.0000000000000000
 41
6.000000000000000
 42
6.000000000000000
 43
6.000000000000000
 50
0.0000000000000000
  0
LINE
  5
2AF
100
AcDbEntity
  8
MAIN0
  6
BYBLOCK
 62
0
100
AcDbLine
 10
616.5909736697993
 20
476.2711647593230
 30
0.0000000000000000
 11
616.5909736697993
 21
527.0278557439458
 31
0.0000000000000000
  0
MTEXT
  5
2B0
100
AcDbEntity
  8
MAIN0
  6
BYBLOCK
 62
0
100
AcDbMText
 10
578.5909736697994
 20
526.1778556008947
 30
0.0000000000000000
 40
9.299999713897705
 41
0.0000000000000000
 71
     5
 72
     1
  1
\A1;76
 11
1.000000000000000
 21
0.0000000000000000
 31
0.0000000000000000
  7
STANDARD
  0
ENDBLK
  5
2B1
100
AcDbEntity
  8
MAIN0
  6
CONTINUOUS
 62
3
100
AcDbBlockEnd
  0
BLOCK
  5
2B3
100
AcDbEntity
  8
MAIN0
  6
CONTINUOUS
 62
3
100
AcDbBlockBegin
  2
*D41
 70
    65
 10
0.0
 20
0.0
 30
0.0
  0
LINE
  5
2B4
100
AcDbEntity
  8
MAIN0
  6
BYBLOCK
 62
0
100
AcDbLine
 10
329.3909736340368
 20
474.3711647234900
 30
0.0000000000000000
 11
294.2270210649601
 21
474.3711647234900
 31
0.0000000000000000
  0
LINE
  5
2B5
100
AcDbEntity
  8
MAIN0
  6
BYBLOCK
 62
0
100
AcDbLine
 10
300.2270210649601
 20
468.3711647234900
 30
0.0000000000000000
 11
300.2270210649601
 21
430.3711647234900
 31
0.0000000000000000
  0
INSERT
  5
2B6
100
AcDbEntity
  8
MAIN0
  6
BYBLOCK
 62
0
100
AcDbBlockReference
  2
_OPEN
 10
300.2270210649601
 20
474.3711647234900
 30
0.0000000000000000
 41
6.000000000000000
 42
6.000000000000000
 43
6.000000000000000
 50
90.00000000000000
  0
INSERT
  5
2B7
100
AcDbEntity
  8
MAIN0
  6
BYBLOCK
 62
0
100
AcDbBlockReference
  2
_OPEN
 10
300.2270210649601
 20
424.3711647234900
 30
0.0000000000000000
 41
6.000000000000000
 42
6.000000000000000
 43
6.000000000000000
 50
270.0000000000000
  0
LINE
  5
2B8
100
AcDbEntity
  8
MAIN0
  6
BYBLOCK
 62
0
100
AcDbLine
 10
329.1909736339673
 20
424.3711647234900
 30
0.0000000000000000
 11
294.2270210649601
 21
424.3711647234900
 31
0.0000000000000000
  0
MTEXT
  5
2B9
100
AcDbEntity
  8
MAIN0
  6
BYBLOCK
 62
0
100
AcDbMText
 10
295.0770212080112
 20
449.3711647234900
 30
0.0000000000000000
 40
9.299999713897705
 41
0.0000000000000000
 71
     5
 72
     1
  1
\A1;50
 11
6.123233995736766e-017
 21
1.000000000000000
 31
0.0000000000000000
  7
STANDARD
  0
ENDBLK
  5
2BA
100
AcDbEntity
  8
MAIN0
  6
CONTINUOUS
 62
3
100
AcDbBlockEnd
  0
BLOCK
  5
2BC
100
AcDbEntity
  8
MAIN0
  6
CONTINUOUS
 62
3
100
AcDbBlockBegin
  2
*D42
 70
    65
 10
0.0
 20
0.0
 30
0.0
  0
LINE
  5
2BD
100
AcDbEntity
  8
MAIN0
  6
BYBLOCK
 62
0
100
AcDbLine
 10
329.1909736339673
 20
424.3711647234900
 30
0.0000000000000000
 11
294.2270210649601
 21
424.3711647234900
 31
0.0000000000000000
  0
LINE
  5
2BE
100
AcDbEntity
  8
MAIN0
  6
BYBLOCK
 62
0
100
AcDbLine
 10
300.2270210649601
 20
418.3711647234900
 30
0.0000000000000000
 11
300.2270210649601
 21
345.3711647233658
 31
0.0000000000000000
  0
INSERT
  5
2BF
100
AcDbEntity
  8
MAIN0
  6
BYBLOCK
 62
0
100
AcDbBlockReference
  2
_OPEN
 10
300.2270210649601
 20
424.3711647234900
 30
0.0000000000000000
 41
6.000000000000000
 42
6.000000000000000
 43
6.000000000000000
 50
90.00000000000000
  0
INSERT
  5
2C0
100
AcDbEntity
  8
MAIN0
  6
BYBLOCK
 62
0
100
AcDbBlockReference
  2
_OPEN
 10
300.2270210649601
 20
339.3711647233658
 30
0.0000000000000000
 41
6.000000000000000
 42
6.000000000000000
 43
6.000000000000000
 50
270.0000000000000
  0
LINE
  5
2C1
100
AcDbEntity
  8
MAIN0
  6
BYBLOCK
 62
0
100
AcDbLine
 10
328.5909736340185
 20
339.3711647233658
 30
0.0000000000000000
 11
294.2270210649601
 21
339.3711647233658
 31
0.0000000000000000
  0
MTEXT
  5
2C2
100
AcDbEntity
  8
MAIN0
  6
BYBLOCK
 62
0
100
AcDbMText
 10
295.0770212080112
 20
381.8711647234279
 30
0.0000000000000000
 40
9.299999713897705
 41
0.0000000000000000
 71
     5
 72
     1
  1
\A1;85
 11
6.123233995736766e-017
 21
1.000000000000000
 31
0.0000000000000000
  7
STANDARD
  0
ENDBLK
  5
2C3
100
AcDbEntity
  8
MAIN0
  6
CONTINUOUS
 62
3
100
AcDbBlockEnd
  0
BLOCK
  5
2C5
100
AcDbEntity
  8
MAIN0
  6
CONTINUOUS
 62
3
100
AcDbBlockBegin
  2
*D43
 70
    65
 10
0.0
 20
0.0
 30
0.0
  0
LINE
  5
2C6
100
AcDbEntity
  8
MAIN0
  6
BYBLOCK
 62
0
100
AcDbLine
 10
329.3909736340368
 20
474.3711647234900
 30
0.0000000000000000
 11
274.2270210649601
 21
474.3711647234900
 31
0.0000000000000000
  0
LINE
  5
2C7
100
AcDbEntity
  8
MAIN0
  6
BYBLOCK
 62
0
100
AcDbLine
 10
280.2270210649601
 20
468.3711647234900
 30
0.0000000000000000
 11
280.2270210649601
 21
345.3711647233658
 31
0.0000000000000000
  0
INSERT
  5
2C8
100
AcDbEntity
  8
MAIN0
  6
BYBLOCK
 62
0
100
AcDbBlockReference
  2
_OPEN
 10
280.2270210649601
 20
474.3711647234900
 30
0.0000000000000000
 41
6.000000000000000
 42
6.000000000000000
 43
6.000000000000000
 50
90.00000000000000
  0
INSERT
  5
2C9
100
AcDbEntity
  8
MAIN0
  6
BYBLOCK
 62
0
100
AcDbBlockReference
  2
_OPEN
 10
280.2270210649601
 20
339.3711647233658
 30
0.0000000000000000
 41
6.000000000000000
 42
6.000000000000000
 43
6.000000000000000
 50
270.0000000000000
  0
LINE
  5
2CA
100
AcDbEntity
  8
MAIN0
  6
BYBLOCK
 62
0
100
AcDbLine
 10
328.5909736340185
 20
339.3711647233658
 30
0.0000000000000000
 11
274.2270210649601
 21
339.3711647233658
 31
0.0000000000000000
  0
MTEXT
  5
2CB
100
AcDbEntity
  8
MAIN0
  6
BYBLOCK
 62
0
100
AcDbMText
 10
275.0770212080112
 20
406.8711647234279
 30
0.0000000000000000
 40
9.299999713897705
 41
0.0000000000000000
 71
     5
 72
     1
  1
\A1;135
 11
6.123233995736766e-017
 21
1.000000000000000
 31
0.0000000000000000
  7
STANDARD
  0
ENDBLK
  5
2CC
100
AcDbEntity
  8
MAIN0
  6
CONTINUOUS
 62
3
100
AcDbBlockEnd
  0
BLOCK
  5
35B
100
AcDbEntity
  8
MAIN0
  6
CONTINUOUS
 62
3
100
AcDbBlockBegin
  2
*D44
 70
    65
 10
0.0
 20
0.0
 30
0.0
  0
LINE
  5
35C
100
AcDbEntity
  8
MAIN0
  6
BYBLOCK
 62
0
100
AcDbLine
 10
78.11944943902122
 20
476.7711647586045
 30
0.0000000000000000
 11
78.11944943902122
 21
527.0278557439458
 31
0.0000000000000000
  0
LINE
  5
35D
100
AcDbEntity
  8
MAIN0
  6
BYBLOCK
 62
0
100
AcDbLine
 10
84.11944943902122
 20
521.0278557439458
 30
0.0000000000000000
 11
197.1194494390212
 21
521.0278557439458
 31
0.0000000000000000
  0
INSERT
  5
35E
100
AcDbEntity
  8
MAIN0
  6
BYBLOCK
 62
0
100
AcDbBlockReference
  2
_OPEN
 10
78.11944943902122
 20
521.0278557439458
 30
0.0000000000000000
 41
6.000000000000000
 42
6.000000000000000
 43
6.000000000000000
 50
180.0000000000000
  0
INSERT
  5
35F
100
AcDbEntity
  8
MAIN0
  6
BYBLOCK
 62
0
100
AcDbBlockReference
  2
_OPEN
 10
203.1194494390212
 20
521.0278557439458
 30
0.0000000000000000
 41
6.000000000000000
 42
6.000000000000000
 43
6.000000000000000
 50
0.0000000000000000
  0
LINE
  5
360
100
AcDbEntity
  8
MAIN0
  6
BYBLOCK
 62
0
100
AcDbLine
 10
203.1194494390212
 20
476.7711647586045
 30
0.0000000000000000
 11
203.1194494390212
 21
527.0278557439458
 31
0.0000000000000000
  0
MTEXT
  5
361
100
AcDbEntity
  8
MAIN0
  6
BYBLOCK
 62
0
100
AcDbMText
 10
140.6194494390212
 20
526.1778556008947
 30
0.0000000000000000
 40
9.299999713897705
 41
0.0000000000000000
 71
     5
 72
     1
  1
\A1;125
 11
1.000000000000000
 21
0.0000000000000000
 31
0.0000000000000000
  7
STANDARD
  0
ENDBLK
  5
362
100
AcDbEntity
  8
MAIN0
  6
CONTINUOUS
 62
3
100
AcDbBlockEnd
  0
BLOCK
  5
364
100
AcDbEntity
  8
MAIN0
  6
CONTINUOUS
 62
3
100
AcDbBlockBegin
  2
*D45
 70
    65
 10
0.0
 20
0.0
 30
0.0
  0
LINE
  5
365
100
AcDbEntity
  8
MAIN0
  6
BYBLOCK
 62
0
100
AcDbLine
 10
205.6194494747837
 20
339.3711647235230
 30
0.0000000000000000
 11
237.2589325128720
 21
339.3711647235230
 31
0.0000000000000000
  0
LINE
  5
366
100
AcDbEntity
  8
MAIN0
  6
BYBLOCK
 62
0
100
AcDbLine
 10
231.2589325128720
 20
339.3711647235230
 30
0.0000000000000000
 11
231.2589325128720
 21
360.3711647235230
 31
0.0000000000000000
  0
INSERT
  5
367
100
AcDbEntity
  8
MAIN0
  6
BYBLOCK
 62
0
100
AcDbBlockReference
  2
_OPEN
 10
231.2589325128720
 20
339.3711647235230
 30
0.0000000000000000
 41
6.000000000000000
 42
6.000000000000000
 43
6.000000000000000
 50
90.00000000000000
  0
INSERT
  5
368
100
AcDbEntity
  8
MAIN0
  6
BYBLOCK
 62
0
100
AcDbBlockReference
  2
_OPEN
 10
231.2589325128720
 20
360.3711647235230
 30
0.0000000000000000
 41
6.000000000000000
 42
6.000000000000000
 43
6.000000000000000
 50
270.0000000000000
  0
LINE
  5
369
100
AcDbEntity
  8
MAIN0
  6
BYBLOCK
 62
0
100
AcDbLine
 10
231.2589325128720
 20
333.3711647235230
 30
0.0000000000000000
 11
231.2589325128720
 21
330.3711647235230
 31
0.0000000000000000
  0
LINE
  5
36A
100
AcDbEntity
  8
MAIN0
  6
BYBLOCK
 62
0
100
AcDbLine
 10
231.2589325128720
 20
366.3711647235230
 30
0.0000000000000000
 11
231.2589325128720
 21
369.3711647235230
 31
0.0000000000000000
  0
LINE
  5
36B
100
AcDbEntity
  8
MAIN0
  6
BYBLOCK
 62
0
100
AcDbLine
 10
205.0194494747836
 20
360.3711647235230
 30
0.0000000000000000
 11
237.2589325128720
 21
360.3711647235230
 31
0.0000000000000000
  0
MTEXT
  5
36C
100
AcDbEntity
  8
MAIN0
  6
BYBLOCK
 62
0
100
AcDbMText
 10
226.1089326559231
 20
349.8711647235230
 30
0.0000000000000000
 40
9.299999713897705
 41
0.0000000000000000
 71
     5
 72
     1
  1
\A1;21
 11
6.123233995736766e-017
 21
1.000000000000000
 31
0.0000000000000000
  7
STANDARD
  0
ENDBLK
  5
36D
100
AcDbEntity
  8
MAIN0
  6
CONTINUOUS
 62
3
100
AcDbBlockEnd
  0
BLOCK
  5
36F
100
AcDbEntity
  8
MAIN0
  6
CONTINUOUS
 62
3
100
AcDbBlockBegin
  2
*D46
 70
    65
 10
0.0
 20
0.0
 30
0.0
  0
LINE
  5
370
100
AcDbEntity
  8
MAIN0
  6
BYBLOCK
 62
0
100
AcDbLine
 10
205.0194494747836
 20
360.3711647235230
 30
0.0000000000000000
 11
237.2589325128720
 21
360.3711647235230
 31
0.0000000000000000
  0
LINE
  5
371
100
AcDbEntity
  8
MAIN0
  6
BYBLOCK
 62
0
100
AcDbLine
 10
231.2589325128720
 20
366.3711647235230
 30
0.0000000000000000
 11
231.2589325128720
 21
394.3711647235230
 31
0.0000000000000000
  0
INSERT
  5
372
100
AcDbEntity
  8
MAIN0
  6
BYBLOCK
 62
0
100
AcDbBlockReference
  2
_OPEN
 10
231.2589325128720
 20
360.3711647235230
 30
0.0000000000000000
 41
6.000000000000000
 42
6.000000000000000
 43
6.000000000000000
 50
270.0000000000000
  0
INSERT
  5
373
100
AcDbEntity
  8
MAIN0
  6
BYBLOCK
 62
0
100
AcDbBlockReference
  2
_OPEN
 10
231.2589325128720
 20
400.3711647235230
 30
0.0000000000000000
 41
6.000000000000000
 42
6.000000000000000
 43
6.000000000000000
 50
90.00000000000000
  0
LINE
  5
374
100
AcDbEntity
  8
MAIN0
  6
BYBLOCK
 62
0
100
AcDbLine
 10
205.0194494747840
 20
400.3711647235230
 30
0.0000000000000000
 11
237.2589325128720
 21
400.3711647235230
 31
0.0000000000000000
  0
MTEXT
  5
375
100
AcDbEntity
  8
MAIN0
  6
BYBLOCK
 62
0
100
AcDbMText
 10
226.1089326559231
 20
380.3711647235230
 30
0.0000000000000000
 40
9.299999713897705
 41
0.0000000000000000
 71
     5
 72
     1
  1
\A1;40
 11
6.123233995736766e-017
 21
1.000000000000000
 31
0.0000000000000000
  7
STANDARD
  0
ENDBLK
  5
376
100
AcDbEntity
  8
MAIN0
  6
CONTINUOUS
 62
3
100
AcDbBlockEnd
  0
BLOCK
  5
378
100
AcDbEntity
  8
MAIN0
  6
CONTINUOUS
 62
3
100
AcDbBlockBegin
  2
*D47
 70
    65
 10
0.0
 20
0.0
 30
0.0
  0
LINE
  5
379
100
AcDbEntity
  8
MAIN0
  6
BYBLOCK
 62
0
100
AcDbLine
 10
205.0194494747840
 20
400.3711647235230
 30
0.0000000000000000
 11
237.2589325128720
 21
400.3711647235230
 31
0.0000000000000000
  0
LINE
  5
37A
100
AcDbEntity
  8
MAIN0
  6
BYBLOCK
 62
0
100
AcDbLine
 10
231.2589325128720
 20
400.3711647235230
 30
0.0000000000000000
 11
231.2589325128720
 21
424.3711647215021
 31
0.0000000000000000
  0
INSERT
  5
37B
100
AcDbEntity
  8
MAIN0
  6
BYBLOCK
 62
0
100
AcDbBlockReference
  2
_OPEN
 10
231.2589325128720
 20
400.3711647235230
 30
0.0000000000000000
 41
6.000000000000000
 42
6.000000000000000
 43
6.000000000000000
 50
90.00000000000000
  0
INSERT
  5
37C
100
AcDbEntity
  8
MAIN0
  6
BYBLOCK
 62
0
100
AcDbBlockReference
  2
_OPEN
 10
231.2589325128720
 20
424.3711647215021
 30
0.0000000000000000
 41
6.000000000000000
 42
6.000000000000000
 43
6.000000000000000
 50
270.0000000000000
  0
LINE
  5
37D
100
AcDbEntity
  8
MAIN0
  6
BYBLOCK
 62
0
100
AcDbLine
 10
231.2589325128720
 20
394.3711647235230
 30
0.0000000000000000
 11
231.2589325128720
 21
391.3711647235230
 31
0.0000000000000000
  0
LINE
  5
37E
100
AcDbEntity
  8
MAIN0
  6
BYBLOCK
 62
0
100
AcDbLine
 10
231.2589325128720
 20
430.3711647215021
 30
0.0000000000000000
 11
231.2589325128720
 21
433.3711647215021
 31
0.0000000000000000
  0
LINE
  5
37F
100
AcDbEntity
  8
MAIN0
  6
BYBLOCK
 62
0
100
AcDbLine
 10
205.9194488548890
 20
424.3711647215021
 30
0.0000000000000000
 11
237.2589325128720
 21
424.3711647215021
 31
0.0000000000000000
  0
MTEXT
  5
380
100
AcDbEntity
  8
MAIN0
  6
BYBLOCK
 62
0
100
AcDbMText
 10
226.1089326559231
 20
412.3711647225125
 30
0.0000000000000000
 40
9.299999713897705
 41
0.0000000000000000
 71
     5
 72
     1
  1
\A1;24
 11
6.123233995736766e-017
 21
1.000000000000000
 31
0.0000000000000000
  7
STANDARD
  0
ENDBLK
  5
381
100
AcDbEntity
  8
MAIN0
  6
CONTINUOUS
 62
3
100
AcDbBlockEnd
  0
BLOCK
  5
383
100
AcDbEntity
  8
MAIN0
  6
CONTINUOUS
 62
3
100
AcDbBlockBegin
  2
*D48
 70
    65
 10
0.0
 20
0.0
 30
0.0
  0
LINE
  5
384
100
AcDbEntity
  8
MAIN0
  6
BYBLOCK
 62
0
100
AcDbLine
 10
197.6194494390210
 20
377.6052473785471
 30
0.0000000000000000
 11
203.6194494390205
 21
377.6052473785471
 31
0.0000000000000000
  0
INSERT
  5
385
100
AcDbEntity
  8
MAIN0
  6
BYBLOCK
 62
0
100
AcDbBlockReference
  2
_OPEN
 10
197.6194494390210
 20
377.6052473785471
 30
0.0000000000000000
 41
6.000000000000000
 42
6.000000000000000
 43
6.000000000000000
 50
0.0000000000000000
  0
INSERT
  5
386
100
AcDbEntity
  8
MAIN0
  6
BYBLOCK
 62
0
100
AcDbBlockReference
  2
_OPEN
 10
203.6194494390205
 20
377.6052473785471
 30
0.0000000000000000
 41
6.000000000000000
 42
6.000000000000000
 43
6.000000000000000
 50
180.0000000000000
  0
LINE
  5
387
100
AcDbEntity
  8
MAIN0
  6
BYBLOCK
 62
0
100
AcDbLine
 10
191.6194494390210
 20
377.6052473785471
 30
0.0000000000000000
 11
184.0111673088354
 21
377.6052473785471
 31
0.0000000000000000
  0
LINE
  5
388
100
AcDbEntity
  8
MAIN0
  6
BYBLOCK
 62
0
100
AcDbLine
 10
209.6194494390205
 20
377.6052473785471
 30
0.0000000000000000
 11
212.6194494390205
 21
377.6052473785471
 31
0.0000000000000000
  0
LINE
  5
389
100
AcDbEntity
  8
MAIN0
  6
BYBLOCK
 62
0
100
AcDbLine
 10
203.6194494390205
 20
361.7711647592853
 30
0.0000000000000000
 11
203.6194494390205
 21
383.6052473785471
 31
0.0000000000000000
  0
MTEXT
  5
38A
100
AcDbEntity
  8
MAIN0
  6
BYBLOCK
 62
0
100
AcDbMText
 10
187.0111673088354
 20
383.7552472354960
 30
0.0000000000000000
 40
9.299999713897705
 41
0.0000000000000000
 71
     5
 72
     1
  1
\A1;6
 11
1.000000000000000
 21
0.0000000000000000
 31
0.0000000000000000
  7
STANDARD
  0
ENDBLK
  5
38B
100
AcDbEntity
  8
MAIN0
  6
CONTINUOUS
 62
3
100
AcDbBlockEnd
  0
BLOCK
  5
469
100
AcDbEntity
  8
MAIN0
  6
CONTINUOUS
 62
3
100
AcDbBlockBegin
  2
*D49
 70
    65
 10
0.0
 20
0.0
 30
0.0
  0
LINE
  5
46A
100
AcDbEntity
  8
MAIN0
  6
BYBLOCK
 62
0
100
AcDbLine
 10
1132.057957657757
 20
395.8126166422370
 30
0.0000000000000000
 11
1132.057957657757
 21
507.0278557439457
 31
0.0000000000000000
  0
LINE
  5
46B
100
AcDbEntity
  8
MAIN0
  6
BYBLOCK
 62
0
100
AcDbLine
 10
1132.057957657757
 20
501.0278557439458
 30
0.0000000000000000
 11
1118.057957657757
 21
501.0278557439458
 31
0.0000000000000000
  0
INSERT
  5
46C
100
AcDbEntity
  8
MAIN0
  6
BYBLOCK
 62
0
100
AcDbBlockReference
  2
_OPEN
 10
1132.057957657757
 20
501.0278557439458
 30
0.0000000000000000
 41
6.000000000000000
 42
6.000000000000000
 43
6.000000000000000
 50
180.0000000000000
  0
INSERT
  5
46D
100
AcDbEntity
  8
MAIN0
  6
BYBLOCK
 62
0
100
AcDbBlockReference
  2
_OPEN
 10
1118.057957657757
 20
501.0278557439458
 30
0.0000000000000000
 41
6.000000000000000
 42
6.000000000000000
 43
6.000000000000000
 50
360.0000000000000
  0
LINE
  5
46E
100
AcDbEntity
  8
MAIN0
  6
BYBLOCK
 62
0
100
AcDbLine
 10
1138.057957657757
 20
501.0278557439458
 30
0.0000000000000000
 11
1141.057957657757
 21
501.0278557439458
 31
0.0000000000000000
  0
LINE
  5
46F
100
AcDbEntity
  8
MAIN0
  6
BYBLOCK
 62
0
100
AcDbLine
 10
1112.057957657757
 20
501.0278557439458
 30
0.0000000000000000
 11
1109.057957657757
 21
501.0278557439458
 31
0.0000000000000000
  0
LINE
  5
470
100
AcDbEntity
  8
MAIN0
  6
BYBLOCK
 62
0
100
AcDbLine
 10
1118.057957657757
 20
395.8126166422371
 30
0.0000000000000000
 11
1118.057957657757
 21
507.0278557439458
 31
0.0000000000000000
  0
MTEXT
  5
471
100
AcDbEntity
  8
MAIN0
  6
BYBLOCK
 62
0
100
AcDbMText
 10
1125.057957657757
 20
506.1778556008947
 30
0.0000000000000000
 40
9.299999713897705
 41
0.0000000000000000
 71
     5
 72
     1
  1
\A1;14
 11
1.000000000000000
 21
0.0000000000000000
 31
0.0000000000000000
  7
STANDARD
  0
ENDBLK
  5
472
100
AcDbEntity
  8
MAIN0
  6
CONTINUOUS
 62
3
100
AcDbBlockEnd
  0
BLOCK
  5
474
100
AcDbEntity
  8
MAIN0
  6
CONTINUOUS
 62
3
100
AcDbBlockBegin
  2
*D50
 70
    65
 10
0.0
 20
0.0
 30
0.0
  0
LINE
  5
475
100
AcDbEntity
  8
MAIN0
  6
BYBLOCK
 62
0
100
AcDbLine
 10
1194.057957657980
 20
457.9711646173644
 30
0.0000000000000000
 11
1194.057957657980
 21
527.0278557439458
 31
0.0000000000000000
  0
LINE
  5
476
100
AcDbEntity
  8
MAIN0
  6
BYBLOCK
 62
0
100
AcDbLine
 10
1188.057957657980
 20
521.0278557439458
 30
0.0000000000000000
 11
1062.057957657980
 21
521.0278557439458
 31
0.0000000000000000
  0
INSERT
  5
477
100
AcDbEntity
  8
MAIN0
  6
BYBLOCK
 62
0
100
AcDbBlockReference
  2
_OPEN
 10
1194.057957657980
 20
521.0278557439458
 30
0.0000000000000000
 41
6.000000000000000
 42
6.000000000000000
 43
6.000000000000000
 50
360.0000000000000
  0
INSERT
  5
478
100
AcDbEntity
  8
MAIN0
  6
BYBLOCK
 62
0
100
AcDbBlockReference
  2
_OPEN
 10
1056.057957657980
 20
521.0278557439458
 30
0.0000000000000000
 41
6.000000000000000
 42
6.000000000000000
 43
6.000000000000000
 50
180.0000000000000
  0
LINE
  5
479
100
AcDbEntity
  8
MAIN0
  6
BYBLOCK
 62
0
100
AcDbLine
 10
1056.057957657980
 20
457.9711646173637
 30
0.0000000000000000
 11
1056.057957657980
 21
527.0278557439458
 31
0.0000000000000000
  0
MTEXT
  5
47A
100
AcDbEntity
  8
MAIN0
  6
BYBLOCK
 62
0
100
AcDbMText
 10
1125.057957657980
 20
526.1778556008947
 30
0.0000000000000000
 40
9.299999713897705
 41
0.0000000000000000
 71
     5
 72
     1
  1
\A1;138
 11
1.000000000000000
 21
0.0000000000000000
 31
0.0000000000000000
  7
STANDARD
  0
ENDBLK
  5
47B
100
AcDbEntity
  8
MAIN0
  6
CONTINUOUS
 62
3
100
AcDbBlockEnd
  0
BLOCK
  5
47D
100
AcDbEntity
  8
MAIN0
  6
CONTINUOUS
 62
3
100
AcDbBlockBegin
  2
*D51
 70
    65
 10
0.0
 20
0.0
 30
0.0
  0
LINE
  5
47E
100
AcDbEntity
  8
MAIN0
  6
BYBLOCK
 62
0
100
AcDbLine
 10
1019.157957621994
 20
374.3711647239340
 30
0.0000000000000000
 11
970.1000956954631
 21
374.3711647239340
 31
0.0000000000000000
  0
LINE
  5
47F
100
AcDbEntity
  8
MAIN0
  6
BYBLOCK
 62
0
100
AcDbLine
 10
976.1000956954631
 20
374.3711647239340
 30
0.0000000000000000
 11
976.1000956954631
 21
369.3711647239340
 31
0.0000000000000000
  0
INSERT
  5
480
100
AcDbEntity
  8
MAIN0
  6
BYBLOCK
 62
0
100
AcDbBlockReference
  2
_OPEN
 10
976.1000956954631
 20
374.3711647239340
 30
0.0000000000000000
 41
6.000000000000000
 42
6.000000000000000
 43
6.000000000000000
 50
270.0000000000000
  0
INSERT
  5
481
100
AcDbEntity
  8
MAIN0
  6
BYBLOCK
 62
0
100
AcDbBlockReference
  2
_OPEN
 10
976.1000956954631
 20
369.3711647239340
 30
0.0000000000000000
 41
6.000000000000000
 42
6.000000000000000
 43
6.000000000000000
 50
90.00000000000000
  0
LINE
  5
482
100
AcDbEntity
  8
MAIN0
  6
BYBLOCK
 62
0
100
AcDbLine
 10
976.1000956954631
 20
380.3711647239340
 30
0.0000000000000000
 11
976.1000956954631
 21
388.0651405789517
 31
0.0000000000000000
  0
LINE
  5
483
100
AcDbEntity
  8
MAIN0
  6
BYBLOCK
 62
0
100
AcDbLine
 10
976.1000956954631
 20
363.3711647239340
 30
0.0000000000000000
 11
976.1000956954631
 21
360.3711647239340
 31
0.0000000000000000
  0
LINE
  5
484
100
AcDbEntity
  8
MAIN0
  6
BYBLOCK
 62
0
100
AcDbLine
 10
988.6579576219938
 20
369.3711647239340
 30
0.0000000000000000
 11
970.1000956954631
 21
369.3711647239340
 31
0.0000000000000000
  0
MTEXT
  5
485
100
AcDbEntity
  8
MAIN0
  6
BYBLOCK
 62
0
100
AcDbMText
 10
969.9500958385142
 20
385.0651405789517
 30
0.0000000000000000
 40
9.299999713897705
 41
0.0000000000000000
 71
     5
 72
     1
  1
\A1;5
 11
6.123233995736766e-017
 21
1.000000000000000
 31
0.0000000000000000
  7
STANDARD
  0
ENDBLK
  5
486
100
AcDbEntity
  8
MAIN0
  6
CONTINUOUS
 62
3
100
AcDbBlockEnd
  0
BLOCK
  5
488
100
AcDbEntity
  8
MAIN0
  6
CONTINUOUS
 62
3
100
AcDbBlockBegin
  2
*D52
 70
    65
 10
0.0
 20
0.0
 30
0.0
  0
LINE
  5
489
100
AcDbEntity
  8
MAIN0
  6
BYBLOCK
 62
0
100
AcDbLine
 10
988.6579576219938
 20
369.3711647239340
 30
0.0000000000000000
 11
970.1000956954631
 21
369.3711647239340
 31
0.0000000000000000
  0
LINE
  5
48A
100
AcDbEntity
  8
MAIN0
  6
BYBLOCK
 62
0
100
AcDbLine
 10
976.1000956954631
 20
363.3711647239340
 30
0.0000000000000000
 11
976.1000956954631
 21
345.3711647239340
 31
0.0000000000000000
  0
INSERT
  5
48B
100
AcDbEntity
  8
MAIN0
  6
BYBLOCK
 62
0
100
AcDbBlockReference
  2
_OPEN
 10
976.1000956954631
 20
369.3711647239340
 30
0.0000000000000000
 41
6.000000000000000
 42
6.000000000000000
 43
6.000000000000000
 50
90.00000000000000
  0
INSERT
  5
48C
100
AcDbEntity
  8
MAIN0
  6
BYBLOCK
 62
0
100
AcDbBlockReference
  2
_OPEN
 10
976.1000956954631
 20
339.3711647239340
 30
0.0000000000000000
 41
6.000000000000000
 42
6.000000000000000
 43
6.000000000000000
 50
270.0000000000000
  0
LINE
  5
48D
100
AcDbEntity
  8
MAIN0
  6
BYBLOCK
 62
0
100
AcDbLine
 10
990.3579576219938
 20
339.3711647239340
 30
0.0000000000000000
 11
970.1000956954631
 21
339.3711647239340
 31
0.0000000000000000
  0
MTEXT
  5
48E
100
AcDbEntity
  8
MAIN0
  6
BYBLOCK
 62
0
100
AcDbMText
 10
970.9500958385142
 20
354.3711647239340
 30
0.0000000000000000
 40
9.299999713897705
 41
0.0000000000000000
 71
     5
 72
     1
  1
\A1;30
 11
6.123233995736766e-017
 21
1.000000000000000
 31
0.0000000000000000
  7
STANDARD
  0
ENDBLK
  5
48F
100
AcDbEntity
  8
MAIN0
  6
CONTINUOUS
 62
3
100
AcDbBlockEnd
  0
BLOCK
  5
491
100
AcDbEntity
  8
MAIN0
  6
CONTINUOUS
 62
3
100
AcDbBlockBegin
  2
*D53
 70
    65
 10
0.0
 20
0.0
 30
0.0
  0
LINE
  5
492
100
AcDbEntity
  8
MAIN0
  6
BYBLOCK
 62
0
100
AcDbLine
 10
1062.057957657757
 20
337.3711646881714
 30
0.0000000000000000
 11
1062.057957657757
 21
286.7074982421848
 31
0.0000000000000000
  0
LINE
  5
493
100
AcDbEntity
  8
MAIN0
  6
BYBLOCK
 62
0
100
AcDbLine
 10
1062.057957657757
 20
292.7074982421848
 30
0.0000000000000000
 11
1039.057957657756
 21
292.7074982421848
 31
0.0000000000000000
  0
INSERT
  5
494
100
AcDbEntity
  8
MAIN0
  6
BYBLOCK
 62
0
100
AcDbBlockReference
  2
_OPEN
 10
1062.057957657757
 20
292.7074982421848
 30
0.0000000000000000
 41
6.000000000000000
 42
6.000000000000000
 43
6.000000000000000
 50
180.0000000000000
  0
INSERT
  5
495
100
AcDbEntity
  8
MAIN0
  6
BYBLOCK
 62
0
100
AcDbBlockReference
  2
_OPEN
 10
1039.057957657756
 20
292.7074982421848
 30
0.0000000000000000
 41
6.000000000000000
 42
6.000000000000000
 43
6.000000000000000
 50
360.0000000000000
  0
LINE
  5
496
100
AcDbEntity
  8
MAIN0
  6
BYBLOCK
 62
0
100
AcDbLine
 10
1068.057957657757
 20
292.7074982421848
 30
0.0000000000000000
 11
1101.422597529691
 21
292.7074982421848
 31
0.0000000000000000
  0
LINE
  5
497
100
AcDbEntity
  8
MAIN0
  6
BYBLOCK
 62
0
100
AcDbLine
 10
1033.057957657756
 20
292.7074982421848
 30
0.0000000000000000
 11
1030.057957657756
 21
292.7074982421848
 31
0.0000000000000000
  0
MTEXT
  5
498
100
AcDbEntity
  8
MAIN0
  6
BYBLOCK
 62
0
100
AcDbMText
 10
1085.072598101895
 20
298.8574980991336
 30
0.0000000000000000
 40
9.299999713897705
 41
0.0000000000000000
 71
     5
 72
     1
  1
\A1;15～31
 11
1.000000000000000
 21
0.0000000000000000
 31
0.0000000000000000
  7
KNJYOKO
  0
ENDBLK
  5
499
100
AcDbEntity
  8
MAIN0
  6
CONTINUOUS
 62
3
100
AcDbBlockEnd
  0
BLOCK
  5
49C
100
AcDbEntity
  8
MAIN0
  6
CONTINUOUS
 62
3
100
AcDbBlockBegin
  2
*D54
 70
    65
 10
0.0
 20
0.0
 30
0.0
  0
LINE
  5
49D
100
AcDbEntity
  8
MAIN0
  6
BYBLOCK
 62
0
100
AcDbLine
 10
916.4751934259268
 20
622.1987371084006
 30
0.0000000000000000
 11
851.6841614849709
 21
622.1987371084006
 31
0.0000000000000000
  0
LINE
  5
49E
100
AcDbEntity
  8
MAIN0
  6
BYBLOCK
 62
0
100
AcDbLine
 10
857.6841614849709
 20
616.1987371084006
 30
0.0000000000000000
 11
857.6841614849709
 21
448.1987371084006
 31
0.0000000000000000
  0
INSERT
  5
49F
100
AcDbEntity
  8
MAIN0
  6
BYBLOCK
 62
0
100
AcDbBlockReference
  2
_OPEN
 10
857.6841614849709
 20
622.1987371084006
 30
0.0000000000000000
 41
6.000000000000000
 42
6.000000000000000
 43
6.000000000000000
 50
90.00000000000000
  0
INSERT
  5
4A0
100
AcDbEntity
  8
MAIN0
  6
BYBLOCK
 62
0
100
AcDbBlockReference
  2
_OPEN
 10
857.6841614849709
 20
442.1987371084006
 30
0.0000000000000000
 41
6.000000000000000
 42
6.000000000000000
 43
6.000000000000000
 50
270.0000000000000
  0
LINE
  5
4A1
100
AcDbEntity
  8
MAIN0
  6
BYBLOCK
 62
0
100
AcDbLine
 10
861.7497033069999
 20
442.1987371084006
 30
0.0000000000000000
 11
851.6841614849709
 21
442.1987371084006
 31
0.0000000000000000
  0
MTEXT
  5
4A2
100
AcDbEntity
  8
MAIN0
  6
BYBLOCK
 62
0
100
AcDbMText
 10
852.5341616280221
 20
532.1987371084006
 30
0.0000000000000000
 40
9.299999713897705
 41
0.0000000000000000
 71
     5
 72
     1
  1
\A1;180
 11
6.123233995736766e-017
 21
1.000000000000000
 31
0.0000000000000000
  7
STANDARD
  0
ENDBLK
  5
4A3
100
AcDbEntity
  8
MAIN0
  6
CONTINUOUS
 62
3
100
AcDbBlockEnd
  0
BLOCK
  5
4A7
100
AcDbEntity
  8
MAIN0
  6
CONTINUOUS
 62
3
100
AcDbBlockBegin
  2
*D55
 70
    65
 10
0.0
 20
0.0
 30
0.0
  0
LINE
  5
4A8
100
AcDbEntity
  8
MAIN0
  6
BYBLOCK
 62
0
100
AcDbLine
 10
539.5909736697688
 20
331.9711646878841
 30
0.0000000000000000
 11
539.5909736697688
 21
301.8488778597925
 31
0.0000000000000000
  0
LINE
  5
4A9
100
AcDbEntity
  8
MAIN0
  6
BYBLOCK
 62
0
100
AcDbLine
 10
539.5909736697688
 20
307.8488778597925
 30
0.0000000000000000
 11
521.5909736697688
 21
307.8488778597925
 31
0.0000000000000000
  0
INSERT
  5
4AA
100
AcDbEntity
  8
MAIN0
  6
BYBLOCK
 62
0
100
AcDbBlockReference
  2
_OPEN
 10
539.5909736697688
 20
307.8488778597925
 30
0.0000000000000000
 41
6.000000000000000
 42
6.000000000000000
 43
6.000000000000000
 50
180.0000000000000
  0
INSERT
  5
4AB
100
AcDbEntity
  8
MAIN0
  6
BYBLOCK
 62
0
100
AcDbBlockReference
  2
_OPEN
 10
521.5909736697688
 20
307.8488778597925
 30
0.0000000000000000
 41
6.000000000000000
 42
6.000000000000000
 43
6.000000000000000
 50
360.0000000000000
  0
LINE
  5
4AC
100
AcDbEntity
  8
MAIN0
  6
BYBLOCK
 62
0
100
AcDbLine
 10
545.5909736697688
 20
307.8488778597925
 30
0.0000000000000000
 11
548.5909736697688
 21
307.8488778597925
 31
0.0000000000000000
  0
LINE
  5
4AD
100
AcDbEntity
  8
MAIN0
  6
BYBLOCK
 62
0
100
AcDbLine
 10
515.5909736697688
 20
307.8488778597925
 30
0.0000000000000000
 11
500.7877848207725
 21
307.8488778597925
 31
0.0000000000000000
  0
LINE
  5
4AE
100
AcDbEntity
  8
MAIN0
  6
BYBLOCK
 62
0
100
AcDbLine
 10
521.5909736697688
 20
331.9711646878841
 30
0.0000000000000000
 11
521.5909736697688
 21
301.8488778597925
 31
0.0000000000000000
  0
MTEXT
  5
4AF
100
AcDbEntity
  8
MAIN0
  6
BYBLOCK
 62
0
100
AcDbMText
 10
506.9377846777213
 20
313.9988777167414
 30
0.0000000000000000
 40
9.299999713897705
 41
0.0000000000000000
 71
     5
 72
     1
  1
\A1;18
 11
1.000000000000000
 21
0.0000000000000000
 31
0.0000000000000000
  7
STANDARD
  0
ENDBLK
  5
4B0
100
AcDbEntity
  8
MAIN0
  6
CONTINUOUS
 62
3
100
AcDbBlockEnd
  0
ENDSEC
  0
SECTION
  2
ENTITIES
  0
LINE
  5
46
100
AcDbEntity
  8
MAIN0
  6
CENTER
 62
3
100
AcDbLine
 10
383.5909736683759
 20
731.8782574643859
 30
0.0000000000000000
 11
411.5909736683759
 21
731.8782574643859
 31
0.0000000000000000
  0
LINE
  5
47
100
AcDbEntity
  8
MAIN0
  6
CENTER
 62
3
100
AcDbLine
 10
397.5909736683760
 20
717.8782574643859
 30
0.0000000000000000
 11
397.5909736683760
 21
745.8782574643859
 31
0.0000000000000000
  0
LINE
  5
48
100
AcDbEntity
  8
MAIN0
  6
CENTER
 62
3
100
AcDbLine
 10
335.5909736683277
 20
731.8782574643859
 30
0.0000000000000000
 11
363.5909736683277
 21
731.8782574643859
 31
0.0000000000000000
  0
LINE
  5
49
100
AcDbEntity
  8
MAIN0
  6
CENTER
 62
3
100
AcDbLine
 10
349.5909736683279
 20
717.8782574643859
 30
0.0000000000000000
 11
349.5909736683279
 21
745.8782574643859
 31
0.0000000000000000
  0
LINE
  5
4A
100
AcDbEntity
  8
MAIN0
  6
CENTER
 62
3
100
AcDbLine
 10
383.5909736683756
 20
639.8782574635492
 30
0.0000000000000000
 11
411.5909736683756
 21
639.8782574635492
 31
0.0000000000000000
  0
LINE
  5
4B
100
AcDbEntity
  8
MAIN0
  6
CENTER
 62
3
100
AcDbLine
 10
397.5909736683756
 20
625.8782574635491
 30
0.0000000000000000
 11
397.5909736683757
 21
653.8782574635491
 31
0.0000000000000000
  0
LINE
  5
4C
100
AcDbEntity
  8
MAIN0
  6
CENTER
 62
3
100
AcDbLine
 10
335.5909736683274
 20
639.8782574635492
 30
0.0000000000000000
 11
363.5909736683274
 21
639.8782574635492
 31
0.0000000000000000
  0
LINE
  5
4D
100
AcDbEntity
  8
MAIN0
  6
CENTER
 62
3
100
AcDbLine
 10
349.5909736683274
 20
625.8782574635493
 30
0.0000000000000000
 11
349.5909736683275
 21
653.8782574635493
 31
0.0000000000000000
  0
CIRCLE
  5
4E
100
AcDbEntity
  8
MAIN0
  6
HIDDEN
 62
3
100
AcDbCircle
 10
397.5909736683756
 20
639.8782574635492
 30
0.0000000000000000
 40
10.50000000000000
  0
LINE
  5
4F
100
AcDbEntity
  8
MAIN0
  6
HIDDEN
 62
3
100
AcDbLine
 10
390.6627704381003
 20
639.8782574635491
 30
0.0000000000000000
 11
394.1268720532379
 21
633.8782574635492
 31
0.0000000000000000
  0
LINE
  5
50
100
AcDbEntity
  8
MAIN0
  6
HIDDEN
 62
3
100
AcDbLine
 10
394.1268720532378
 20
633.8782574635493
 30
0.0000000000000000
 11
401.0550752835135
 21
633.8782574635493
 31
0.0000000000000000
  0
LINE
  5
51
100
AcDbEntity
  8
MAIN0
  6
HIDDEN
 62
3
100
AcDbLine
 10
401.0550752835133
 20
633.8782574635490
 30
0.0000000000000000
 11
404.5191768986509
 21
639.8782574635488
 31
0.0000000000000000
  0
LINE
  5
52
100
AcDbEntity
  8
MAIN0
  6
HIDDEN
 62
3
100
AcDbLine
 10
404.5191768986512
 20
639.8782574635491
 30
0.0000000000000000
 11
401.0550752835134
 21
645.8782574635493
 31
0.0000000000000000
  0
LINE
  5
53
100
AcDbEntity
  8
MAIN0
  6
HIDDEN
 62
3
100
AcDbLine
 10
401.0550752835135
 20
645.8782574635493
 30
0.0000000000000000
 11
394.1268720532378
 21
645.8782574635493
 31
0.0000000000000000
  0
LINE
  5
54
100
AcDbEntity
  8
MAIN0
  6
HIDDEN
 62
3
100
AcDbLine
 10
394.1268720532377
 20
645.8782574635487
 30
0.0000000000000000
 11
390.6627704381000
 21
639.8782574635488
 31
0.0000000000000000
  0
LINE
  5
55
100
AcDbEntity
  8
MAIN0
  6
CENTER
 62
3
100
AcDbLine
 10
340.4971150769502
 20
710.8782574636263
 30
0.0000000000000000
 11
362.2405969199259
 21
710.8782574635969
 31
0.0000000000000000
  0
LINE
  5
56
100
AcDbEntity
  8
MAIN0
  6
CENTER
 62
3
100
AcDbLine
 10
394.1310149415385
 20
710.8782574635540
 30
0.0000000000000000
 11
414.4249423358189
 21
710.8782574635266
 31
0.0000000000000000
  0
LINE
  5
57
100
AcDbEntity
  8
MAIN0
  6
CENTER
 62
3
100
AcDbLine
 10
340.4971150768828
 20
660.8782574636264
 30
0.0000000000000000
 11
362.2405969198586
 21
660.8782574635970
 31
0.0000000000000000
  0
LINE
  5
58
100
AcDbEntity
  8
MAIN0
  6
CENTER
 62
3
100
AcDbLine
 10
394.1310149414712
 20
660.8782574635538
 30
0.0000000000000000
 11
414.4249423357516
 21
660.8782574635264
 31
0.0000000000000000
  0
LINE
  5
59
100
AcDbEntity
  8
MAIN0
  6
CENTER
 62
3
100
AcDbLine
 10
350.5909736689436
 20
652.3964056239886
 30
0.0000000000000000
 11
350.5909736689436
 21
671.7239328095598
 31
0.0000000000000000
  0
LINE
  5
5A
100
AcDbEntity
  8
MAIN0
  6
CENTER
 62
3
100
AcDbLine
 10
350.5909736689434
 20
700.7152419336879
 30
0.0000000000000000
 11
350.5909736689434
 21
721.0091509822690
 31
0.0000000000000000
  0
LINE
  5
5B
100
AcDbEntity
  8
MAIN0
  6
CENTER
 62
3
100
AcDbLine
 10
405.5909736689434
 20
652.3964056239884
 30
0.0000000000000000
 11
405.5909736689434
 21
671.7239328095595
 31
0.0000000000000000
  0
LINE
  5
5C
100
AcDbEntity
  8
MAIN0
  6
CENTER
 62
3
100
AcDbLine
 10
405.5909736689434
 20
700.7152419336878
 30
0.0000000000000000
 11
405.5909736689435
 21
721.0091509822689
 31
0.0000000000000000
  0
CIRCLE
  5
5D
100
AcDbEntity
  8
MAIN0
  6
CONTINUOUS
 62
3
100
AcDbCircle
 10
397.5909736683756
 20
639.8782574635492
 30
0.0000000000000000
 40
11.50000000000000
  0
CIRCLE
  5
5E
100
AcDbEntity
  8
MAIN0
  6
CONTINUOUS
 62
3
100
AcDbCircle
 10
349.5909736683274
 20
639.8782574635492
 30
0.0000000000000000
 40
11.50000000000000
  0
LINE
  5
5F
100
AcDbEntity
  8
MAIN0
  6
CENTER
 62
3
100
AcDbLine
 10
373.5909736689980
 20
693.8782574639675
 30
0.0000000000000000
 11
373.5909736689980
 21
674.4984186182720
 31
0.0000000000000000
  0
CIRCLE
  5
60
100
AcDbEntity
  8
MAIN0
  6
CONTINUOUS
 62
3
100
AcDbCircle
 10
397.5909736683759
 20
731.8782574643859
 30
0.0000000000000000
 40
11.50000000000000
  0
CIRCLE
  5
61
100
AcDbEntity
  8
MAIN0
  6
CONTINUOUS
 62
3
100
AcDbCircle
 10
349.5909736683277
 20
731.8782574643859
 30
0.0000000000000000
 40
11.50000000000000
  0
LINE
  5
62
100
AcDbEntity
  8
MAIN0
  6
CENTER
 62
3
100
AcDbLine
 10
373.5909736689980
 20
636.6608968034651
 30
0.0000000000000000
 11
373.5909736689980
 21
618.5540550989150
 31
0.0000000000000000
  0
LINE
  5
63
100
AcDbEntity
  8
MAIN0
  6
CENTER
 62
3
100
AcDbLine
 10
373.5909736691306
 20
735.0956181236984
 30
0.0000000000000000
 11
373.5909736691795
 21
753.2024598282483
 31
0.0000000000000000
  0
DIMENSION
  5
6C
100
AcDbEntity
  8
MAIN0
  6
CONTINUOUS
 62
3
100
AcDbDimension
  2
*D0
 10
350.5909736689435
 20
587.8327627611557
 30
0.0000000000000000
 11
382.8827432176256
 21
589.3327627611557
 31
0.0000000000000000
 70
160
  3
MAIN001
100
AcDbAlignedDimension
 13
405.5909736689434
 23
652.3964056239884
 33
0.0000000000000000
 14
350.5909736689435
 24
652.3964056239885
 34
0.0000000000000000
100
AcDbRotatedDimension
1001
ACAD
1000
DSTYLE
1002
{
1070
   173
1070
     1
1070
     6
1000
_OPEN
1070
     7
1000
_OPEN
1070
    41
1040
6.000000
1002
}
  0
DIMENSION
  5
77
100
AcDbEntity
  8
MAIN0
  6
CONTINUOUS
 62
3
100
AcDbDimension
  2
*D1
 10
405.5909736689434
 20
587.8327627611557
 30
0.0000000000000000
 11
423.4820088213509
 21
589.3327627611557
 31
0.0000000000000000
 70
160
  3
MAIN001
100
AcDbAlignedDimension
 13
415.5909736700476
 23
623.8782574639679
 33
0.0000000000000000
 14
405.5909736689434
 24
652.3964056239884
 34
0.0000000000000000
100
AcDbRotatedDimension
1001
ACAD
1000
DSTYLE
1002
{
1070
   173
1070
     1
1070
     6
1000
_OPEN
1070
     7
1000
_OPEN
1070
    41
1040
6.000000
1070
   287
1070
     0
1002
}
  0
CIRCLE
  5
78
100
AcDbEntity
  8
MAIN0
  6
HIDDEN
 62
3
100
AcDbCircle
 10
552.5909736693548
 20
685.8782574633403
 30
0.0000000000000000
 40
3.000000000000000
  0
LINE
  5
79
100
AcDbEntity
  8
MAIN0
  6
CENTER
 62
3
100
AcDbLine
 10
552.5909736693548
 20
691.8782574633403
 30
0.0000000000000000
 11
552.5909736693548
 21
679.8782574633403
 31
0.0000000000000000
  0
LINE
  5
7A
100
AcDbEntity
  8
MAIN0
  6
CENTER
 62
3
100
AcDbLine
 10
600.5909736711360
 20
679.3782574632016
 30
0.0000000000000000
 11
600.5909736711360
 21
654.3782574632016
 31
0.0000000000000000
  0
LINE
  5
7B
100
AcDbEntity
  8
MAIN0
  6
CENTER
 62
3
100
AcDbLine
 10
588.0909736711358
 20
666.8782574632021
 30
0.0000000000000000
 11
613.0909736711358
 21
666.8782574632021
 31
0.0000000000000000
  0
LINE
  5
7C
100
AcDbEntity
  8
MAIN0
  6
CENTER
 62
3
100
AcDbLine
 10
600.5909736711675
 20
717.3782574632010
 30
0.0000000000000000
 11
600.5909736711674
 21
692.3782574632010
 31
0.0000000000000000
  0
LINE
  5
7D
100
AcDbEntity
  8
MAIN0
  6
CENTER
 62
3
100
AcDbLine
 10
588.0909736711674
 20
704.8782574632016
 30
0.0000000000000000
 11
613.0909736711674
 21
704.8782574632016
 31
0.0000000000000000
  0
LINE
  5
7E
100
AcDbEntity
  8
MAIN0
  6
CENTER
 62
3
100
AcDbLine
 10
556.5909736711674
 20
717.3782574632062
 30
0.0000000000000000
 11
556.5909736711673
 21
692.3782574632062
 31
0.0000000000000000
  0
LINE
  5
7F
100
AcDbEntity
  8
MAIN0
  6
CENTER
 62
3
100
AcDbLine
 10
544.0909736711674
 20
704.8782574632062
 30
0.0000000000000000
 11
569.0909736711674
 21
704.8782574632062
 31
0.0000000000000000
  0
LINE
  5
80
100
AcDbEntity
  8
MAIN0
  6
CENTER
 62
3
100
AcDbLine
 10
556.5909736711355
 20
679.3782574632062
 30
0.0000000000000000
 11
556.5909736711355
 21
654.3782574632062
 31
0.0000000000000000
  0
LINE
  5
81
100
AcDbEntity
  8
MAIN0
  6
CENTER
 62
3
100
AcDbLine
 10
544.0909736711355
 20
666.8782574632066
 30
0.0000000000000000
 11
569.0909736711355
 21
666.8782574632066
 31
0.0000000000000000
  0
CIRCLE
  5
82
100
AcDbEntity
  8
MAIN0
  6
HIDDEN
 62
3
100
AcDbCircle
 10
600.5909736711358
 20
666.8782574632016
 30
0.0000000000000000
 40
9.000000000000000
  0
LINE
  5
83
100
AcDbEntity
  8
MAIN0
  6
HIDDEN
 62
3
100
AcDbLine
 10
594.8174709792395
 20
666.8782574632018
 30
0.0000000000000000
 11
597.7042223251876
 21
661.8782574632016
 31
0.0000000000000000
  0
LINE
  5
84
100
AcDbEntity
  8
MAIN0
  6
HIDDEN
 62
3
100
AcDbLine
 10
597.7042223251879
 20
661.8782574632019
 30
0.0000000000000000
 11
603.4777250170841
 21
661.8782574632019
 31
0.0000000000000000
  0
LINE
  5
85
100
AcDbEntity
  8
MAIN0
  6
HIDDEN
 62
3
100
AcDbLine
 10
603.4777250170837
 20
661.8782574632018
 30
0.0000000000000000
 11
606.3644763630318
 21
666.8782574632019
 31
0.0000000000000000
  0
LINE
  5
86
100
AcDbEntity
  8
MAIN0
  6
HIDDEN
 62
3
100
AcDbLine
 10
606.3644763630321
 20
666.8782574632016
 30
0.0000000000000000
 11
603.4777250170839
 21
671.8782574632018
 31
0.0000000000000000
  0
LINE
  5
87
100
AcDbEntity
  8
MAIN0
  6
HIDDEN
 62
3
100
AcDbLine
 10
603.4777250170841
 20
671.8782574632019
 30
0.0000000000000000
 11
597.7042223251879
 21
671.8782574632019
 31
0.0000000000000000
  0
LINE
  5
88
100
AcDbEntity
  8
MAIN0
  6
HIDDEN
 62
3
100
AcDbLine
 10
597.7042223251875
 20
671.8782574632019
 30
0.0000000000000000
 11
594.8174709792394
 21
666.8782574632018
 31
0.0000000000000000
  0
LINE
  5
89
100
AcDbEntity
  8
MAIN0
  6
CENTER
 62
3
100
AcDbLine
 10
578.5909736711515
 20
693.8782574632039
 30
0.0000000000000000
 11
578.5909736711515
 21
677.8782574632039
 31
0.0000000000000000
  0
LINE
  5
8A
100
AcDbEntity
  8
MAIN0
  6
CENTER
 62
3
100
AcDbLine
 10
541.0202875979478
 20
725.8782574631875
 30
0.0000000000000000
 11
561.3141966463186
 21
725.8782574631603
 31
0.0000000000000000
  0
LINE
  5
8B
100
AcDbEntity
  8
MAIN0
  6
CENTER
 62
3
100
AcDbLine
 10
590.3055057704455
 20
725.8782574631213
 30
0.0000000000000000
 11
610.1162238875197
 21
725.8782574630945
 31
0.0000000000000000
  0
LINE
  5
8C
100
AcDbEntity
  8
MAIN0
  6
CENTER
 62
3
100
AcDbLine
 10
541.0202875978400
 20
645.8782574631875
 30
0.0000000000000000
 11
561.3141966462108
 21
645.8782574631600
 31
0.0000000000000000
  0
LINE
  5
8D
100
AcDbEntity
  8
MAIN0
  6
CENTER
 62
3
100
AcDbLine
 10
590.3055057703377
 20
645.8782574631214
 30
0.0000000000000000
 11
610.1162238874119
 21
645.8782574630947
 31
0.0000000000000000
  0
LINE
  5
8E
100
AcDbEntity
  8
MAIN0
  6
CENTER
 62
3
100
AcDbLine
 10
600.5909736711105
 20
636.4512149588054
 30
0.0000000000000000
 11
600.5909736711275
 21
656.7451240073874
 31
0.0000000000000000
  0
LINE
  5
8F
100
AcDbEntity
  8
MAIN0
  6
CENTER
 62
3
100
AcDbLine
 10
600.5909736711767
 20
715.6940874271112
 30
0.0000000000000000
 11
600.5909736711931
 21
735.5048055441872
 31
0.0000000000000000
  0
LINE
  5
90
100
AcDbEntity
  8
MAIN0
  6
CENTER
 62
3
100
AcDbLine
 10
550.5909736711105
 20
636.4512149588470
 30
0.0000000000000000
 11
550.5909736711275
 21
656.7451240074290
 31
0.0000000000000000
  0
LINE
  5
91
100
AcDbEntity
  8
MAIN0
  6
CENTER
 62
3
100
AcDbLine
 10
550.5909736711767
 20
715.6940874271528
 30
0.0000000000000000
 11
550.5909736711931
 21
735.5048055442288
 31
0.0000000000000000
  0
CIRCLE
  5
92
100
AcDbEntity
  8
MAIN0
  6
CONTINUOUS
 62
3
100
AcDbCircle
 10
600.5909736711358
 20
666.8782574632016
 30
0.0000000000000000
 40
10.00000000000000
  0
CIRCLE
  5
93
100
AcDbEntity
  8
MAIN0
  6
CONTINUOUS
 62
3
100
AcDbCircle
 10
600.5909736711674
 20
704.8782574632016
 30
0.0000000000000000
 40
10.00000000000000
  0
CIRCLE
  5
94
100
AcDbEntity
  8
MAIN0
  6
CONTINUOUS
 62
3
100
AcDbCircle
 10
556.5909736711674
 20
704.8782574632062
 30
0.0000000000000000
 40
10.00000000000000
  0
CIRCLE
  5
95
100
AcDbEntity
  8
MAIN0
  6
CONTINUOUS
 62
3
100
AcDbCircle
 10
556.5909736711355
 20
666.8782574632066
 30
0.0000000000000000
 40
10.00000000000000
  0
DIMENSION
  5
9E
100
AcDbEntity
  8
MAIN0
  6
CONTINUOUS
 62
3
100
AcDbDimension
  2
*D2
 10
300.2270210649601
 20
660.8782574636263
 30
0.0000000000000000
 11
299.7270210649601
 21
685.8782574636263
 31
0.0000000000000000
 70
32
  3
MAIN001
100
AcDbAlignedDimension
 13
340.4971150769502
 23
710.8782574636263
 33
0.0000000000000000
 14
340.4971150768828
 24
660.8782574636263
 34
0.0000000000000000
 50
90.00000000000000
100
AcDbRotatedDimension
1001
ACAD
1000
DSTYLE
1002
{
1070
   173
1070
     1
1070
     6
1000
_OPEN
1070
     7
1000
_OPEN
1070
    41
1040
6.000000
1002
}
  0
DIMENSION
  5
A7
100
AcDbEntity
  8
MAIN0
  6
CONTINUOUS
 62
3
100
AcDbDimension
  2
*D3
 10
651.5356806225257
 20
645.8782574630947
 30
0.0000000000000000
 11
651.0356806225257
 21
685.8782574630945
 31
0.0000000000000000
 70
32
  3
MAIN001
100
AcDbAlignedDimension
 13
610.1162238875197
 23
725.8782574630945
 33
0.0000000000000000
 14
610.1162238874119
 24
645.8782574630947
 34
0.0000000000000000
 50
90.00000000000000
100
AcDbRotatedDimension
1001
ACAD
1000
DSTYLE
1002
{
1070
   173
1070
     1
1070
     6
1000
_OPEN
1070
     7
1000
_OPEN
1070
    41
1040
6.000000
1002
}
  0
LEADER
  5
A8
100
AcDbEntity
  8
MAIN0
  6
CONTINUOUS
 62
3
100
AcDbLeader
  3
MAIN001
 73
     0
 75
     1
 40
9.299999713897705
 41
107.6690031757355
 76
     3
 10
346.5387218448711
 20
657.9492209062610
 30
0.0000000000000000
 10
311.6287759865794
 20
619.6583759305204
 30
0.0000000000000000
 10
305.8497761539492
 20
619.6583759305204
 30
0.0000000000000000
340
A9
213
0.0000000000000000
223
-1.500000000000000
233
0.0000000000000000
1001
ACAD
1000
DSTYLE
1002
{
1070
   147
1040
0.0
1070
    77
1070
     1
1070
   173
1070
     1
1070
     6
1000
_OPEN
1070
     7
1000
_OPEN
1002
}
  0
MTEXT
  5
A9
102
{ACAD_REACTORS
330
A8
102
}
100
AcDbEntity
  8
MAIN0
  6
CONTINUOUS
 62
3
100
AcDbMText
 10
198.1807729782138
 20
630.4583756444181
 30
0.0000000000000000
 40
9.299999713897705
 41
0.0000000000000000
 71
     1
 72
     1
  1
{\H0.93x;{2x5-M10 深さ20\P        DEPTH}}
 11
1.000000000000000
 21
0.0000000000000000
 31
0.0000000000000000
  7
KNJYOKO
  0
CIRCLE
  5
AA
100
AcDbEntity
  8
MAIN0
  6
CONTINUOUS
 62
3
100
AcDbCircle
 10
373.5909736697723
 20
464.3711647234900
 30
0.0000000000000000
 40
4.250000000000000
  0
CIRCLE
  5
AB
100
AcDbEntity
  8
MAIN0
  6
CONTINUOUS
 62
3
100
AcDbCircle
 10
373.5909736697723
 20
464.3711647234900
 30
0.0000000000000000
 40
5.000000000000000
  0
CIRCLE
  5
AC
100
AcDbEntity
  8
MAIN0
  6
CONTINUOUS
 62
3
100
AcDbCircle
 10
373.5909736697799
 20
444.3711647234900
 30
0.0000000000000000
 40
4.250000000000000
  0
CIRCLE
  5
AD
100
AcDbEntity
  8
MAIN0
  6
CONTINUOUS
 62
3
100
AcDbCircle
 10
373.5909736697799
 20
444.3711647234900
 30
0.0000000000000000
 40
5.000000000000000
  0
LEADER
  5
AE
100
AcDbEntity
  8
MAIN0
  6
CONTINUOUS
 62
3
100
AcDbLeader
  3
MAIN001
 73
     0
 75
     1
 40
9.299999713897705
 41
107.6690031757354
 76
     3
 10
371.0931893689455
 20
468.7025702213097
 30
0.0000000000000000
 10
325.5785327276287
 20
547.6294951532638
 30
0.0000000000000000
 10
319.7995328949986
 20
547.6294951532638
 30
0.0000000000000000
340
AF
213
0.0000000000000000
223
-1.500000000000000
233
0.0000000000000000
1001
ACAD
1000
DSTYLE
1002
{
1070
   147
1040
0.0
1070
    77
1070
     1
1070
   173
1070
     1
1070
     6
1000
_OPEN
1070
     7
1000
_OPEN
1002
}
  0
MTEXT
  5
AF
102
{ACAD_REACTORS
330
AE
102
}
100
AcDbEntity
  8
MAIN0
  6
CONTINUOUS
 62
3
100
AcDbMText
 10
212.1305297192631
 20
558.4294948671615
 30
0.0000000000000000
 40
9.299999713897705
 41
0.0000000000000000
 71
     1
 72
     1
  1
{\H0.93x;{2x2-M10 深さ20\P        DEPTH\P}
 11
1.000000000000000
 21
0.0000000000000000
 31
0.0000000000000000
  7
KNJYOKO
  0
DIMENSION
  5
BA
100
AcDbEntity
  8
MAIN0
  6
CONTINUOUS
 62
3
100
AcDbDimension
  2
*D4
 10
540.5909736711003
 20
587.8327627611557
 30
0.0000000000000000
 11
530.7717296232836
 21
589.3327627611557
 31
0.0000000000000000
 70
160
  3
MAIN001
100
AcDbAlignedDimension
 13
550.5909736711105
 23
636.4512149588470
 33
0.0000000000000000
 14
540.5909736711003
 24
623.9782574633765
 34
0.0000000000000000
100
AcDbRotatedDimension
1001
ACAD
1000
DSTYLE
1002
{
1070
   173
1070
     1
1070
     6
1000
_OPEN
1070
     7
1000
_OPEN
1070
    41
1040
6.000000
1070
   287
1070
     0
1002
}
  0
DIMENSION
  5
C3
100
AcDbEntity
  8
MAIN0
  6
CONTINUOUS
 62
3
100
AcDbDimension
  2
*D5
 10
550.5909736711105
 20
587.8327627611557
 30
0.0000000000000000
 11
570.8933379380135
 21
589.3327627611557
 31
0.0000000000000000
 70
160
  3
MAIN001
100
AcDbAlignedDimension
 13
600.5909736711105
 23
636.4512149588054
 33
0.0000000000000000
 14
550.5909736711105
 24
636.4512149588470
 34
0.0000000000000000
100
AcDbRotatedDimension
1001
ACAD
1000
DSTYLE
1002
{
1070
   173
1070
     1
1070
     6
1000
_OPEN
1070
     7
1000
_OPEN
1070
    41
1040
6.000000
1002
}
  0
DIMENSION
  5
CC
100
AcDbEntity
  8
MAIN0
  6
CONTINUOUS
 62
3
100
AcDbDimension
  2
*D6
 10
540.5909736712034
 20
773.1874407711845
 30
0.0000000000000000
 11
559.5909736711774
 21
773.6874407711845
 31
0.0000000000000000
 70
32
  3
MAIN001
100
AcDbAlignedDimension
 13
578.5909736711515
 23
693.8782574632039
 33
0.0000000000000000
 14
540.5909736712034
 24
747.7782574633359
 34
0.0000000000000000
100
AcDbRotatedDimension
1001
ACAD
1000
DSTYLE
1002
{
1070
   173
1070
     1
1070
     6
1000
_OPEN
1070
     7
1000
_OPEN
1070
    41
1040
6.000000
1002
}
  0
LINE
  5
CD
100
AcDbEntity
  8
MAIN0
  6
PHANTOM
 62
3
100
AcDbLine
 10
1059.312645993231
 20
339.3711647239337
 30
0.0000000000000000
 11
968.2903925761877
 21
339.3711647239347
 31
0.0000000000000000
  0
MTEXT
  5
CE
100
AcDbEntity
  8
MAIN0
  6
CONTINUOUS
 62
3
100
AcDbMText
 10
829.0986290206599
 20
194.5275075326370
 30
0.0000000000000000
 40
9.299999713897705
 41
0.0000000000000000
 71
     1
 72
     1
  1
{\H0.94x;{(押さえ金具４セット付属)}}
 11
1.000000000000000
 21
0.0000000000000000
 31
0.0000000000000000
  7
KNJYOKO
  0
MTEXT
  5
CF
100
AcDbEntity
  8
MAIN0
  6
CONTINUOUS
 62
3
100
AcDbMText
 10
830.1985828556256
 20
181.2508438819205
 30
0.0000000000000000
 40
9.000000000000000
 41
0.0000000000000000
 71
     1
 72
     1
  1
{\H0.63x;{(CLAMPING PARTS  ACCESSARY 4 PAIR)}}
 11
1.000000000000000
 21
0.0000000000000000
 31
0.0000000000000000
  7
STANDARD
  0
LEADER
  5
D0
100
AcDbEntity
  8
MAIN0
  6
CONTINUOUS
 62
3
100
AcDbLeader
  3
MAIN001
 73
     0
 75
     1
 40
9.000000000000000
 41
78.29899792575839
 76
     3
 10
1030.986064131630
 20
380.9412062413073
 30
0.0000000000000000
 10
964.3928040267789
 20
254.1638146164235
 30
0.0000000000000000
 10
959.3518040267788
 20
254.1638146164235
 30
0.0000000000000000
340
D1
213
0.0000000000000000
223
-1.500000000000000
233
0.0000000000000000
1001
ACAD
1000
DSTYLE
1002
{
1070
   147
1040
0.0
1070
    77
1070
     1
1070
   173
1070
     1
1070
     6
1000
_DOT
1070
     7
1000
_DOT
1002
}
  0
MTEXT
  5
D1
102
{ACAD_REACTORS
330
D0
102
}
100
AcDbEntity
  8
MAIN0
  6
CONTINUOUS
 62
3
100
AcDbMText
 10
881.0528061010205
 20
264.6638146164235
 30
0.0000000000000000
 40
9.000000000000000
 41
0.0000000000000000
 71
     1
 72
     1
  1
{\H0.61x;{六角穴付ボルト\PM16×65\PHEX,SOCKET HEAD\PCAP SCREW}}
 11
1.000000000000000
 21
0.0000000000000000
 31
0.0000000000000000
  7
KNJYOKO
  0
LEADER
  5
D2
100
AcDbEntity
  8
MAIN0
  6
CONTINUOUS
 62
3
100
AcDbLeader
  3
MAIN001
 73
     0
 75
     1
 40
9.299999713897705
 41
82.55900244617459
 76
     3
 10
372.5512678643494
 20
690.7689641446026
 30
0.0000000000000000
 10
349.2280911344342
 20
800.4796301287917
 30
0.0000000000000000
 10
343.4490913018040
 20
800.4796301287917
 30
0.0000000000000000
340
D3
213
0.0000000000000000
223
-1.500000000000000
233
0.0000000000000000
1001
ACAD
1000
DSTYLE
1002
{
1070
   147
1040
0.0
1070
    77
1070
     1
1070
   173
1070
     1
1070
     6
1000
_OPEN
1070
     7
1000
_OPEN
1002
}
  0
MTEXT
  5
D3
102
{ACAD_REACTORS
330
D2
102
}
100
AcDbEntity
  8
MAIN0
  6
CONTINUOUS
 62
3
100
AcDbMText
 10
260.8900888556294
 20
811.2796298426894
 30
0.0000000000000000
 40
9.299999713897705
 41
0.0000000000000000
 71
     1
 72
     1
  1
{\H0.93x;{(吊りボルト用)\P(EYE BOLT)}}
 11
1.000000000000000
 21
0.0000000000000000
 31
0.0000000000000000
  7
KNJYOKO
  0
DIMENSION
  5
DC
100
AcDbEntity
  8
MAIN0
  6
CONTINUOUS
 62
3
100
AcDbDimension
  2
*D7
 10
530.5909736697688
 20
287.8488778597925
 30
0.0000000000000000
 11
643.0909736698268
 21
288.3488778597925
 31
0.0000000000000000
 70
32
  3
MAIN001
100
AcDbAlignedDimension
 13
755.5909736698848
 23
339.7711647239532
 33
0.0000000000000000
 14
530.5909736697688
 24
327.3711647236471
 34
0.0000000000000000
100
AcDbRotatedDimension
1001
ACAD
1000
DSTYLE
1002
{
1070
   173
1070
     1
1070
     6
1000
_OPEN
1070
     7
1000
_OPEN
1070
    41
1040
6.000000
1002
}
  0
DIMENSION
  5
E4
100
AcDbEntity
  8
MAIN0
  6
CONTINUOUS
 62
3
100
AcDbDimension
  2
*D8
 10
659.1107284410589
 20
339.3711647239521
 30
0.0000000000000000
 11
658.6107284410589
 21
359.8711647239869
 31
0.0000000000000000
 70
32
  3
MAIN001
100
AcDbAlignedDimension
 13
672.5909736700910
 23
380.3711647240216
 33
0.0000000000000000
 14
755.1909736698829
 24
339.3711647239521
 34
0.0000000000000000
 50
90.00000000000000
100
AcDbRotatedDimension
1001
ACAD
1000
DSTYLE
1002
{
1070
   173
1070
     1
1070
     6
1000
_OPEN
1070
     7
1000
_OPEN
1070
    41
1040
6.000000
1002
}
  0
DIMENSION
  5
ED
100
AcDbEntity
  8
MAIN0
  6
CONTINUOUS
 62
3
100
AcDbDimension
  2
*D9
 10
659.1107284410589
 20
380.3711647240216
 30
0.0000000000000000
 11
658.6107284410589
 21
402.3711647238917
 31
0.0000000000000000
 70
32
  3
MAIN001
100
AcDbAlignedDimension
 13
616.5909736697997
 23
424.3711647237618
 33
0.0000000000000000
 14
672.5909736700910
 24
380.3711647240216
 34
0.0000000000000000
 50
90.00000000000000
100
AcDbRotatedDimension
1001
ACAD
1000
DSTYLE
1002
{
1070
   173
1070
     1
1070
     6
1000
_OPEN
1070
     7
1000
_OPEN
1070
    41
1040
6.000000
1002
}
  0
DIMENSION
  5
F8
100
AcDbEntity
  8
MAIN0
  6
CONTINUOUS
 62
3
100
AcDbDimension
  2
*D10
 10
885.8751934616980
 20
654.6036562489938
 30
0.0000000000000000
 11
874.9251731790552
 21
656.1036562489938
 31
0.0000000000000000
 70
160
  3
MAIN001
100
AcDbAlignedDimension
 13
900.8751934616995
 23
452.1987371084008
 33
0.0000000000000000
 14
885.8751934616980
 24
442.1987371084006
 34
0.0000000000000000
100
AcDbRotatedDimension
1001
ACAD
1000
DSTYLE
1002
{
1070
   173
1070
     1
1070
     6
1000
_OPEN
1070
     7
1000
_OPEN
1070
    41
1040
6.000000
1070
   287
1070
     0
1002
}
  0
DIMENSION
  5
101
100
AcDbEntity
  8
MAIN0
  6
CONTINUOUS
 62
3
100
AcDbDimension
  2
*D11
 10
900.8751934616985
 20
654.6036562489938
 30
0.0000000000000000
 11
915.8751934616894
 21
655.1036562489938
 31
0.0000000000000000
 70
32
  3
MAIN001
100
AcDbAlignedDimension
 13
930.8751934616803
 23
612.6987371084006
 33
0.0000000000000000
 14
900.8751934616995
 24
452.1987371084008
 34
0.0000000000000000
100
AcDbRotatedDimension
1001
ACAD
1000
DSTYLE
1002
{
1070
   173
1070
     1
1070
     6
1000
_OPEN
1070
     7
1000
_OPEN
1070
    41
1040
6.000000
1002
}
  0
DIMENSION
  5
10A
100
AcDbEntity
  8
MAIN0
  6
CONTINUOUS
 62
3
100
AcDbDimension
  2
*D12
 10
930.8751934616803
 20
654.6036562489938
 30
0.0000000000000000
 11
966.8751934616776
 21
655.1036562489938
 31
0.0000000000000000
 70
32
  3
MAIN001
100
AcDbAlignedDimension
 13
1002.875193461675
 23
622.1987371084008
 33
0.0000000000000000
 14
930.8751934616803
 24
612.6987371084006
 34
0.0000000000000000
100
AcDbRotatedDimension
1001
ACAD
1000
DSTYLE
1002
{
1070
   173
1070
     1
1070
     6
1000
_OPEN
1070
     7
1000
_OPEN
1070
    41
1040
6.000000
1002
}
  0
DIMENSION
  5
113
100
AcDbEntity
  8
MAIN0
  6
CONTINUOUS
 62
3
100
AcDbDimension
  2
*D13
 10
885.8751934616980
 20
672.5717874055481
 30
0.0000000000000000
 11
944.3751934616864
 21
673.0717874055481
 31
0.0000000000000000
 70
32
  3
MAIN001
100
AcDbAlignedDimension
 13
1002.875193461675
 23
622.1987371084008
 33
0.0000000000000000
 14
885.8751934616980
 24
442.1987371084006
 34
0.0000000000000000
100
AcDbRotatedDimension
1001
ACAD
1000
DSTYLE
1002
{
1070
   173
1070
     1
1070
     6
1000
_OPEN
1070
     7
1000
_OPEN
1070
    41
1040
6.000000
1002
}
  0
DIMENSION
  5
11C
100
AcDbEntity
  8
MAIN0
  6
CONTINUOUS
 62
3
100
AcDbDimension
  2
*D14
 10
991.0579576577565
 20
268.4589872225994
 30
0.0000000000000000
 11
1026.557957657757
 21
268.9589872225994
 31
0.0000000000000000
 70
32
  3
MAIN001
100
AcDbAlignedDimension
 13
1062.057957657757
 23
339.7711647239341
 33
0.0000000000000000
 14
991.0579576577565
 24
369.3711647239340
 34
0.0000000000000000
100
AcDbRotatedDimension
1001
ACAD
1000
DSTYLE
1002
{
1070
   173
1070
     1
1070
     6
1000
_OPEN
1070
     7
1000
_OPEN
1070
    41
1040
6.000000
1002
}
  0
DIMENSION
  5
125
100
AcDbEntity
  8
MAIN0
  6
CONTINUOUS
 62
3
100
AcDbDimension
  2
*D15
 10
1062.057957657757
 20
268.4589872225994
 30
0.0000000000000000
 11
1125.057957657757
 21
268.9589872225994
 31
0.0000000000000000
 70
32
  3
MAIN001
100
AcDbAlignedDimension
 13
1188.057957657757
 23
339.7711647239332
 33
0.0000000000000000
 14
1062.057957657757
 24
339.7711647239341
 34
0.0000000000000000
100
AcDbRotatedDimension
1001
ACAD
1000
DSTYLE
1002
{
1070
   173
1070
     1
1070
     6
1000
_OPEN
1070
     7
1000
_OPEN
1070
    41
1040
6.000000
1002
}
  0
INSERT
  5
12D
100
AcDbEntity
  8
MAIN0
  6
CONTINUOUS
 62
3
100
AcDbBlockReference
  2
D16
 10
1125.057957657757
 20
329.3711647239337
 30
0.0000000000000000
 50
0.0000000000000000
  0
DIMENSION
  5
136
100
AcDbEntity
  8
MAIN0
  6
CONTINUOUS
 62
3
100
AcDbDimension
  2
*D17
 10
373.5909736689980
 20
773.1874407711845
 30
0.0000000000000000
 11
394.5909736695228
 21
773.6874407711845
 31
0.0000000000000000
 70
32
  3
MAIN001
100
AcDbAlignedDimension
 13
415.5909736700477
 23
747.8782574639679
 33
0.0000000000000000
 14
373.5909736689980
 24
693.8782574639675
 34
0.0000000000000000
100
AcDbRotatedDimension
1001
ACAD
1000
DSTYLE
1002
{
1070
   173
1070
     1
1070
     6
1000
_OPEN
1070
     7
1000
_OPEN
1070
    41
1040
6.000000
1002
}
  0
DIMENSION
  5
140
100
AcDbEntity
  8
MAIN0
  6
CONTINUOUS
 62
3
100
AcDbDimension
  2
*D18
 10
592.1398079756518
 20
424.3711647237618
 30
0.0000000000000000
 11
591.6398079756518
 21
440.9711647237049
 31
0.0000000000000000
 70
32
  3
MAIN001
100
AcDbAlignedDimension
 13
618.0909736697990
 23
457.5711647236481
 33
0.0000000000000000
 14
382.5909736697993
 24
424.3711647234409
 34
0.0000000000000000
 50
90.00000000000000
100
AcDbRotatedDimension
1001
ACAD
1000
DSTYLE
1002
{
1070
   173
1070
     1
1070
     6
1000
_OPEN
1070
     7
1000
_OPEN
1070
    41
1040
6.000000
1070
   287
1070
     0
1002
}
  0
LINE
  5
141
100
AcDbEntity
  8
MAIN0
  6
CENTER
 62
3
100
AcDbLine
 10
864.1497033427627
 20
389.3711647220557
 30
0.0000000000000000
 11
864.1497033427627
 21
442.1987371084006
 31
0.0000000000000000
  0
DIMENSION
  5
149
100
AcDbEntity
  8
MAIN0
  6
CONTINUOUS
 62
3
100
AcDbDimension
  2
*D19
 10
857.6841614849709
 20
339.3711647236601
 30
0.0000000000000000
 11
857.1841614849709
 21
364.3711647228334
 31
0.0000000000000000
 70
32
  3
MAIN001
100
AcDbAlignedDimension
 13
864.1497033427628
 23
389.3711647220066
 33
0.0000000000000000
 14
755.1909736698829
 24
339.3711647239521
 34
0.0000000000000000
 50
90.00000000000000
100
AcDbRotatedDimension
1001
ACAD
1000
DSTYLE
1002
{
1070
   173
1070
     1
1070
     6
1000
_OPEN
1070
     7
1000
_OPEN
1070
    41
1040
6.000000
1002
}
  0
LINE
  5
14A
100
AcDbEntity
  8
MAIN0
  6
CENTER
 62
3
100
AcDbLine
 10
924.3695092509017
 20
395.3214262574932
 30
0.0000000000000000
 11
924.3695092508734
 21
302.3603478768127
 31
0.0000000000000000
  0
LINE
  5
14B
100
AcDbEntity
  8
MAIN0
  6
CONTINUOUS
 62
3
100
AcDbLine
 10
901.8695092508945
 20
369.3711647239695
 30
0.0000000000000000
 11
903.5416403984262
 21
339.3711647240882
 31
0.0000000000000000
  0
LINE
  5
14C
100
AcDbEntity
  8
MAIN0
  6
CONTINUOUS
 62
3
100
AcDbLine
 10
946.8695092508930
 20
369.3711647239558
 30
0.0000000000000000
 11
945.1973781033429
 21
339.3711647240755
 31
0.0000000000000000
  0
LINE
  5
14D
100
AcDbEntity
  8
MAIN0
  6
CONTINUOUS
 62
3
100
AcDbLine
 10
901.8695092508937
 20
369.3711647239696
 30
0.0000000000000000
 11
946.8695092508937
 21
369.3711647239559
 31
0.0000000000000000
  0
LINE
  5
14E
100
AcDbEntity
  8
MAIN0
  6
CONTINUOUS
 62
3
100
AcDbLine
 10
903.5416403984262
 20
339.3711647240883
 30
0.0000000000000000
 11
945.1973781033430
 21
339.3711647240755
 31
0.0000000000000000
  0
DIMENSION
  5
157
100
AcDbEntity
  8
MAIN0
  6
CONTINUOUS
 62
3
100
AcDbDimension
  2
*D20
 10
901.8695092508937
 20
403.1441590230102
 30
0.0000000000000000
 11
924.3695092508934
 21
403.6441590230102
 31
0.0000000000000000
 70
32
  3
MAIN001
100
AcDbAlignedDimension
 13
946.8695092508932
 23
369.3711647239556
 33
0.0000000000000000
 14
901.8695092508937
 24
369.3711647239695
 34
0.0000000000000000
100
AcDbRotatedDimension
1001
ACAD
1000
DSTYLE
1002
{
1070
   173
1070
     1
1070
     6
1000
_OPEN
1070
     7
1000
_OPEN
1070
    41
1040
6.000000
1002
}
  0
DIMENSION
  5
162
100
AcDbEntity
  8
MAIN0
  6
CONTINUOUS
 62
3
100
AcDbDimension
  2
*D21
 10
1002.294254186585
 20
226.8268088402915
 30
0.0000000000000000
 11
1001.794254186585
 21
212.5768088402916
 31
0.0000000000000000
 70
32
  3
MAIN001
100
AcDbAlignedDimension
 13
1024.057957657732
 23
198.3268088402917
 33
0.0000000000000000
 14
1024.057957657712
 24
226.8268088402915
 34
0.0000000000000000
 50
90.00000000000000
100
AcDbRotatedDimension
1001
ACAD
1000
DSTYLE
1002
{
1070
   173
1070
     1
1070
     6
1000
_OPEN
1070
     7
1000
_OPEN
1070
    41
1040
6.000000
1070
   287
1070
     0
1002
}
  0
DIMENSION
  5
16D
100
AcDbEntity
  8
MAIN0
  6
CONTINUOUS
 62
3
100
AcDbDimension
  2
*D22
 10
1079.238127428337
 20
221.3268088402916
 30
0.0000000000000000
 11
1077.738127428337
 21
186.2268678909204
 31
0.0000000000000000
 70
160
  3
MAIN001
100
AcDbAlignedDimension
 13
1054.057957657728
 23
203.8268088402834
 33
0.0000000000000000
 14
1054.057957657715
 24
221.3268088402833
 34
0.0000000000000000
 50
90.00000000000000
100
AcDbRotatedDimension
1001
ACAD
1000
DSTYLE
1002
{
1070
   173
1070
     1
1070
     6
1000
_OPEN
1070
     7
1000
_OPEN
1070
    41
1040
6.000000
1070
   287
1070
     0
1002
}
  0
DIMENSION
  5
176
100
AcDbEntity
  8
MAIN0
  6
CONTINUOUS
 62
3
100
AcDbDimension
  2
*D23
 10
1024.057957657732
 20
174.5475582523907
 30
0.0000000000000000
 11
1039.057957657732
 21
175.0475582523907
 31
0.0000000000000000
 70
32
  3
MAIN001
100
AcDbAlignedDimension
 13
1054.057957657731
 23
198.3268088402834
 33
0.0000000000000000
 14
1024.057957657732
 24
198.3268088402917
 34
0.0000000000000000
100
AcDbRotatedDimension
1001
ACAD
1000
DSTYLE
1002
{
1070
   173
1070
     1
1070
     6
1000
_OPEN
1070
     7
1000
_OPEN
1070
    41
1040
6.000000
1002
}
  0
LINE
  5
177
100
AcDbEntity
  8
MAIN0
  6
CONTINUOUS
 62
3
100
AcDbLine
 10
330.5909736697034
 20
339.7711647234431
 30
0.0000000000000000
 11
330.5909736696848
 21
423.3711647234426
 31
0.0000000000000000
  0
LINE
  5
178
100
AcDbEntity
  8
MAIN0
  6
CONTINUOUS
 62
3
100
AcDbLine
 10
755.1909736698829
 20
339.3711647239521
 30
0.0000000000000000
 11
755.5909736698845
 21
339.7711647239526
 31
0.0000000000000000
  0
LINE
  5
179
100
AcDbEntity
  8
MAIN0
  6
CONTINUOUS
 62
3
100
AcDbLine
 10
330.5909736696850
 20
423.3711647234435
 30
0.0000000000000000
 11
331.5909736696847
 21
424.3711647234448
 31
0.0000000000000000
  0
LINE
  5
17A
100
AcDbEntity
  8
MAIN0
  6
CONTINUOUS
 62
3
100
AcDbLine
 10
330.5909736697036
 20
339.7711647234430
 30
0.0000000000000000
 11
330.9909736697035
 21
339.3711647234437
 31
0.0000000000000000
  0
LINE
  5
17B
100
AcDbEntity
  8
MAIN0
  6
CONTINUOUS
 62
3
100
AcDbLine
 10
539.5909736697688
 20
344.3711647236469
 30
0.0000000000000000
 11
521.5909736697688
 21
344.3711647236469
 31
0.0000000000000000
  0
LINE
  5
17C
100
AcDbEntity
  8
MAIN0
  6
CONTINUOUS
 62
3
100
AcDbLine
 10
539.5909736697688
 20
334.3711647236469
 30
0.0000000000000000
 11
521.5909736697688
 21
334.3711647236469
 31
0.0000000000000000
  0
LINE
  5
17D
100
AcDbEntity
  8
MAIN0
  6
CONTINUOUS
 62
3
100
AcDbLine
 10
521.5909736697684
 20
339.9711647236464
 30
0.0000000000000000
 11
520.9909736697687
 21
339.3711647236469
 31
0.0000000000000000
  0
LINE
  5
17E
100
AcDbEntity
  8
MAIN0
  6
CONTINUOUS
 62
3
100
AcDbLine
 10
539.5909736697686
 20
339.9711647236474
 30
0.0000000000000000
 11
540.1909736697689
 21
339.3711647236472
 31
0.0000000000000000
  0
LINE
  5
17F
100
AcDbEntity
  8
MAIN0
  6
CENTER
 62
3
100
AcDbLine
 10
530.5909736697688
 20
351.3711647236469
 30
0.0000000000000000
 11
530.5909736697688
 21
327.3711647236471
 31
0.0000000000000000
  0
LINE
  5
180
100
AcDbEntity
  8
MAIN0
  6
CONTINUOUS
 62
3
100
AcDbLine
 10
330.9909736697812
 20
339.3711647233660
 30
0.0000000000000000
 11
520.9909736697555
 21
339.3711647236335
 31
0.0000000000000000
  0
LINE
  5
181
100
AcDbEntity
  8
MAIN0
  6
CONTINUOUS
 62
3
100
AcDbLine
 10
540.1909736697560
 20
339.3711647236601
 30
0.0000000000000000
 11
755.1909736698829
 21
339.3711647239521
 31
0.0000000000000000
  0
LINE
  5
182
100
AcDbEntity
  8
MAIN0
  6
CONTINUOUS
 62
3
100
AcDbLine
 10
758.5909736697995
 20
424.3711647239064
 30
0.0000000000000000
 11
796.5909736699616
 21
424.3711647243457
 31
0.0000000000000000
  0
LINE
  5
183
100
AcDbEntity
  8
MAIN0
  6
CONTINUOUS
 62
3
100
AcDbLine
 10
755.5909736699449
 20
350.3711647239525
 30
0.0000000000000000
 11
787.5909736699449
 21
350.3711647239959
 31
0.0000000000000000
  0
LINE
  5
184
100
AcDbEntity
  8
MAIN0
  6
CONTINUOUS
 62
3
100
AcDbLine
 10
415.5909736697997
 20
424.7711647235599
 30
0.0000000000000000
 11
415.9909736697997
 21
424.3711647235600
 31
0.0000000000000000
  0
LINE
  5
185
100
AcDbEntity
  8
MAIN0
  6
CONTINUOUS
 62
3
100
AcDbLine
 10
540.5909736697997
 20
424.3711647235577
 30
0.0000000000000000
 11
540.5909736697996
 21
474.1711647235602
 31
0.0000000000000000
  0
LINE
  5
186
100
AcDbEntity
  8
MAIN0
  6
CONTINUOUS
 62
3
100
AcDbLine
 10
616.0909736697997
 20
474.3711647235600
 30
0.0000000000000000
 11
540.7909736697998
 21
474.3711647235600
 31
0.0000000000000000
  0
LINE
  5
187
100
AcDbEntity
  8
MAIN0
  6
CONTINUOUS
 62
3
100
AcDbLine
 10
616.5909736697995
 20
424.3711647237616
 30
0.0000000000000000
 11
616.5909736697993
 21
473.8711647235601
 31
0.0000000000000000
  0
LINE
  5
188
100
AcDbEntity
  8
MAIN0
  6
CONTINUOUS
 62
3
100
AcDbLine
 10
415.5909736697997
 20
424.7711647235600
 30
0.0000000000000000
 11
415.9909736697996
 21
424.3711647235601
 31
0.0000000000000000
  0
LINE
  5
189
100
AcDbEntity
  8
MAIN0
  6
CONTINUOUS
 62
3
100
AcDbLine
 10
540.5909736697998
 20
474.1711647235603
 30
0.0000000000000000
 11
540.7909736697998
 21
474.3711647235602
 31
0.0000000000000000
  0
LINE
  5
18A
100
AcDbEntity
  8
MAIN0
  6
CONTINUOUS
 62
3
100
AcDbLine
 10
616.0909736697995
 20
474.3711647235601
 30
0.0000000000000000
 11
616.5909736697996
 21
473.8711647235600
 31
0.0000000000000000
  0
LINE
  5
18B
100
AcDbEntity
  8
MAIN0
  6
CONTINUOUS
 62
3
100
AcDbLine
 10
840.5909736700883
 20
414.3711647220061
 30
0.0000000000000000
 11
821.5909736699982
 21
414.3711647220061
 31
0.0000000000000000
  0
LINE
  5
18C
100
AcDbEntity
  8
MAIN0
  6
CONTINUOUS
 62
3
100
AcDbLine
 10
840.5909736700883
 20
364.3711647220061
 30
0.0000000000000000
 11
821.5909736701797
 21
364.3711647220061
 31
0.0000000000000000
  0
LINE
  5
18D
100
AcDbEntity
  8
MAIN0
  6
CONTINUOUS
 62
3
100
AcDbLine
 10
840.5909736700887
 20
414.3711647220061
 30
0.0000000000000000
 11
840.5909736700887
 21
364.3711647220061
 31
0.0000000000000000
  0
LINE
  5
18E
100
AcDbEntity
  8
MAIN0
  6
CONTINUOUS
 62
3
100
AcDbLine
 10
796.5909736702035
 20
357.7711647221213
 30
0.0000000000000000
 11
796.5909736701904
 21
361.3711647221226
 31
0.0000000000000000
  0
LINE
  5
18F
100
AcDbEntity
  8
MAIN0
  6
CONTINUOUS
 62
3
100
AcDbLine
 10
796.5909736702040
 20
357.7711647221211
 30
0.0000000000000000
 11
796.9909736702048
 21
357.3711647221232
 31
0.0000000000000000
  0
LINE
  5
190
100
AcDbEntity
  8
MAIN0
  6
CONTINUOUS
 62
3
100
AcDbLine
 10
820.9909736702055
 20
357.3711647221976
 30
0.0000000000000000
 11
821.5909736702031
 21
357.9711647221997
 31
0.0000000000000000
  0
LINE
  5
191
100
AcDbEntity
  8
MAIN0
  6
CONTINUOUS
 62
3
100
AcDbLine
 10
796.9909736702048
 20
357.3711647221231
 30
0.0000000000000000
 11
820.9909736702177
 21
357.3711647222103
 31
0.0000000000000000
  0
LINE
  5
192
100
AcDbEntity
  8
MAIN0
  6
CONTINUOUS
 62
3
100
AcDbLine
 10
796.5909736699618
 20
424.3711647221227
 30
0.0000000000000000
 11
820.9909736699478
 21
424.3711647222113
 31
0.0000000000000000
  0
LINE
  5
193
100
AcDbEntity
  8
MAIN0
  6
CONTINUOUS
 62
3
100
AcDbLine
 10
820.9909736699616
 20
424.3711647221976
 30
0.0000000000000000
 11
821.5909736699634
 21
423.7711647222001
 31
0.0000000000000000
  0
LINE
  5
194
100
AcDbEntity
  8
MAIN0
  6
CONTINUOUS
 62
3
100
AcDbLine
 10
331.5909736698000
 20
424.7711647234899
 30
0.0000000000000000
 11
331.9909736697999
 21
424.3711647234900
 31
0.0000000000000000
  0
LINE
  5
195
100
AcDbEntity
  8
MAIN0
  6
CONTINUOUS
 62
3
100
AcDbLine
 10
331.5909736697997
 20
424.7711647234900
 30
0.0000000000000000
 11
331.5909736697996
 21
474.1711647234897
 31
0.0000000000000000
  0
LINE
  5
196
100
AcDbEntity
  8
MAIN0
  6
CONTINUOUS
 62
3
100
AcDbLine
 10
415.5909736697995
 20
473.8711647234901
 30
0.0000000000000000
 11
415.5909736697996
 21
424.7711647234897
 31
0.0000000000000000
  0
LINE
  5
197
100
AcDbEntity
  8
MAIN0
  6
CONTINUOUS
 62
3
100
AcDbLine
 10
415.0909736697996
 20
474.3711647234900
 30
0.0000000000000000
 11
331.7909736697996
 21
474.3711647234900
 31
0.0000000000000000
  0
LINE
  5
198
100
AcDbEntity
  8
MAIN0
  6
CONTINUOUS
 62
3
100
AcDbLine
 10
331.5909736698000
 20
424.7711647234901
 30
0.0000000000000000
 11
331.9909736698002
 21
424.3711647234899
 31
0.0000000000000000
  0
LINE
  5
199
100
AcDbEntity
  8
MAIN0
  6
CONTINUOUS
 62
3
100
AcDbLine
 10
415.1909736697999
 20
424.3711647234899
 30
0.0000000000000000
 11
415.5909736697998
 21
424.7711647234898
 31
0.0000000000000000
  0
LINE
  5
19A
100
AcDbEntity
  8
MAIN0
  6
CONTINUOUS
 62
3
100
AcDbLine
 10
331.5909736697994
 20
474.1711647234903
 30
0.0000000000000000
 11
331.7909736697995
 21
474.3711647234904
 31
0.0000000000000000
  0
LINE
  5
19B
100
AcDbEntity
  8
MAIN0
  6
CONTINUOUS
 62
3
100
AcDbLine
 10
415.0909736697995
 20
474.3711647234898
 30
0.0000000000000000
 11
415.5909736697996
 21
473.8711647234897
 31
0.0000000000000000
  0
LINE
  5
19C
100
AcDbEntity
  8
MAIN0
  6
CONTINUOUS
 62
3
100
AcDbLine
 10
331.5909736697301
 20
424.3711647234900
 30
0.0000000000000000
 11
364.5909736697977
 21
424.3711647234900
 31
0.0000000000000000
  0
LINE
  5
19D
100
AcDbEntity
  8
MAIN0
  6
CONTINUOUS
 62
3
100
AcDbLine
 10
681.5909736697989
 20
447.5711647236653
 30
0.0000000000000000
 11
694.7909736697994
 21
447.5711647236699
 31
0.0000000000000000
  0
LINE
  5
19E
100
AcDbEntity
  8
MAIN0
  6
CONTINUOUS
 62
3
100
AcDbLine
 10
616.5909736697997
 20
394.0711647219130
 30
0.0000000000000000
 11
616.5909736697997
 21
456.0711647236481
 31
0.0000000000000000
  0
ARC
  5
19F
100
AcDbEntity
  8
MAIN0
  6
CONTINUOUS
 62
3
100
AcDbCircle
 10
694.7909736697993
 20
446.5711647236699
 30
0.0000000000000000
 40
1.000000000000000
100
AcDbArc
 50
0.0000000000000000
 51
89.99999999942553
  0
LINE
  5
1A0
100
AcDbEntity
  8
MAIN0
  6
CONTINUOUS
 62
3
100
AcDbLine
 10
695.7909736697991
 20
446.5711647236700
 30
0.0000000000000000
 11
695.7909736697983
 21
394.0711647219176
 31
0.0000000000000000
  0
LINE
  5
1A1
100
AcDbEntity
  8
MAIN0
  6
CONTINUOUS
 62
3
100
AcDbLine
 10
758.5909736697997
 20
425.5711647236653
 30
0.0000000000000000
 11
758.5909736697981
 21
398.0711647217793
 31
0.0000000000000000
  0
LINE
  5
1A2
100
AcDbEntity
  8
MAIN0
  6
CONTINUOUS
 62
3
100
AcDbLine
 10
721.1909736697996
 20
425.5711647236653
 30
0.0000000000000000
 11
758.5909736697997
 21
425.5711647236653
 31
0.0000000000000000
  0
ARC
  5
1A3
100
AcDbEntity
  8
MAIN0
  6
CONTINUOUS
 62
3
100
AcDbCircle
 10
720.1909736697996
 20
434.5711647236658
 30
0.0000000000000000
 40
1.000000000000000
100
AcDbArc
 50
0.0000000000000000
 51
89.99999999942553
  0
LINE
  5
1A4
100
AcDbEntity
  8
MAIN0
  6
CONTINUOUS
 62
3
100
AcDbLine
 10
721.1909736697996
 20
434.5711647236658
 30
0.0000000000000000
 11
721.1909736697996
 21
396.0711647222620
 31
0.0000000000000000
  0
LINE
  5
1A5
100
AcDbEntity
  8
MAIN0
  6
CONTINUOUS
 62
3
100
AcDbLine
 10
695.7909736697993
 20
435.5711647236703
 30
0.0000000000000000
 11
720.1909736698099
 21
435.5711647236658
 31
0.0000000000000000
  0
LINE
  5
1A6
100
AcDbEntity
  8
MAIN0
  6
CONTINUOUS
 62
3
100
AcDbLine
 10
755.5909736698848
 20
339.7711647239532
 30
0.0000000000000000
 11
755.5909736701240
 21
398.0711647217781
 31
0.0000000000000000
  0
LINE
  5
1A7
100
AcDbEntity
  8
MAIN0
  6
CONTINUOUS
 62
3
100
AcDbLine
 10
821.5909736702029
 20
357.9711647222009
 30
0.0000000000000000
 11
821.5909736699640
 21
423.7711647221997
 31
0.0000000000000000
  0
LINE
  5
1A8
100
AcDbEntity
  8
MAIN0
  6
CONTINUOUS
 62
3
100
AcDbLine
 10
796.5909736704073
 20
351.8711647220065
 30
0.0000000000000000
 11
796.5909736699423
 21
424.3711647221224
 31
0.0000000000000000
  0
LINE
  5
1A9
100
AcDbEntity
  8
MAIN0
  6
CENTER
 62
3
100
AcDbLine
 10
864.1497033427628
 20
389.3711647220066
 30
0.0000000000000000
 11
770.5909736700889
 21
389.3711647220066
 31
0.0000000000000000
  0
LINE
  5
1AA
100
AcDbEntity
  8
MAIN0
  6
CONTINUOUS
 62
3
100
AcDbLine
 10
809.5909736701256
 20
357.3711647221687
 30
0.0000000000000000
 11
809.5909736701899
 21
424.3711647220068
 31
0.0000000000000000
  0
LINE
  5
1AB
100
AcDbEntity
  8
MAIN0
  6
CONTINUOUS
 62
3
100
AcDbLine
 10
811.5909736701112
 20
357.3711647221762
 30
0.0000000000000000
 11
811.5909736703201
 21
424.3711647220075
 31
0.0000000000000000
  0
LINE
  5
1AC
100
AcDbEntity
  8
MAIN0
  6
CONTINUOUS
 62
3
100
AcDbLine
 10
796.5909736704075
 20
351.8711647220066
 30
0.0000000000000000
 11
791.5596006342819
 21
351.8711647220066
 31
0.0000000000000000
  0
LINE
  5
1AD
100
AcDbEntity
  8
MAIN0
  6
CONTINUOUS
 62
3
100
AcDbLine
 10
790.5909736699407
 20
353.3711647239834
 30
0.0000000000000000
 11
790.5909736702329
 21
424.3711647237274
 31
0.0000000000000000
  0
LINE
  5
1AE
100
AcDbEntity
  8
MAIN0
  6
CONTINUOUS
 62
3
100
AcDbLine
 10
364.5909736698031
 20
417.3711647234902
 30
0.0000000000000000
 11
364.5909736697977
 21
424.3711647234902
 31
0.0000000000000000
  0
LINE
  5
1AF
100
AcDbEntity
  8
MAIN0
  6
CONTINUOUS
 62
3
100
AcDbLine
 10
382.5909736698047
 20
417.3711647235151
 30
0.0000000000000000
 11
382.5909736697994
 21
424.3711647235160
 31
0.0000000000000000
  0
LINE
  5
1B0
100
AcDbEntity
  8
MAIN0
  6
CONTINUOUS
 62
3
100
AcDbLine
 10
364.5909736698031
 20
417.3711647234904
 30
0.0000000000000000
 11
382.5909736698047
 21
417.3711647235152
 31
0.0000000000000000
  0
LINE
  5
1B1
100
AcDbEntity
  8
MAIN0
  6
CONTINUOUS
 62
3
100
AcDbLine
 10
364.5909736698023
 20
418.3711647234904
 30
0.0000000000000000
 11
382.5909736698039
 21
418.3711647235152
 31
0.0000000000000000
  0
LINE
  5
1B2
100
AcDbEntity
  8
MAIN0
  6
CONTINUOUS
 62
3
100
AcDbLine
 10
382.5909736697993
 20
424.3711647234409
 30
0.0000000000000000
 11
616.5909736697997
 21
424.3711647237618
 31
0.0000000000000000
  0
LINE
  5
1B3
100
AcDbEntity
  8
MAIN0
  6
CONTINUOUS
 62
3
100
AcDbLine
 10
721.1909736697980
 20
398.0711647217655
 30
0.0000000000000000
 11
758.5909736697981
 21
398.0711647217793
 31
0.0000000000000000
  0
LINE
  5
1B4
100
AcDbEntity
  8
MAIN0
  6
CONTINUOUS
 62
3
100
AcDbLine
 10
616.5909736697995
 20
394.0711647219130
 30
0.0000000000000000
 11
695.7909736697982
 21
394.0711647219175
 31
0.0000000000000000
  0
LINE
  5
1B5
100
AcDbEntity
  8
MAIN0
  6
CONTINUOUS
 62
3
100
AcDbLine
 10
330.5909736696900
 20
400.3711647234232
 30
0.0000000000000000
 11
616.5909736697996
 21
400.3711647238459
 31
0.0000000000000000
  0
CIRCLE
  5
1B6
100
AcDbEntity
  8
MAIN0
  6
CONTINUOUS
 62
3
100
AcDbCircle
 10
680.5909736700910
 20
380.3711647240216
 30
0.0000000000000000
 40
5.000000000000000
  0
CIRCLE
  5
1B7
100
AcDbEntity
  8
MAIN0
  6
CONTINUOUS
 62
3
100
AcDbCircle
 10
680.5909736700910
 20
380.3711647240216
 30
0.0000000000000000
 40
4.250000000000000
  0
LINE
  5
1B8
100
AcDbEntity
  8
MAIN0
  6
CENTER
 62
3
100
AcDbLine
 10
680.5909736700910
 20
388.3711647240216
 30
0.0000000000000000
 11
680.5909736700910
 21
372.3711647240216
 31
0.0000000000000000
  0
LINE
  5
1B9
100
AcDbEntity
  8
MAIN0
  6
CENTER
 62
3
100
AcDbLine
 10
688.5909736700910
 20
380.3711647240216
 30
0.0000000000000000
 11
672.5909736700910
 21
380.3711647240216
 31
0.0000000000000000
  0
CIRCLE
  5
1BA
100
AcDbEntity
  8
MAIN0
  6
CONTINUOUS
 62
3
100
AcDbCircle
 10
405.5909736696922
 20
380.3711647239643
 30
0.0000000000000000
 40
5.000000000000000
  0
CIRCLE
  5
1BB
100
AcDbEntity
  8
MAIN0
  6
CONTINUOUS
 62
3
100
AcDbCircle
 10
405.5909736696922
 20
380.3711647239643
 30
0.0000000000000000
 40
4.250000000000000
  0
LINE
  5
1BC
100
AcDbEntity
  8
MAIN0
  6
CENTER
 62
3
100
AcDbLine
 10
405.5909736696922
 20
388.3711647239643
 30
0.0000000000000000
 11
405.5909736696922
 21
372.3711647239643
 31
0.0000000000000000
  0
LINE
  5
1BD
100
AcDbEntity
  8
MAIN0
  6
CENTER
 62
3
100
AcDbLine
 10
413.5909736696922
 20
380.3711647239643
 30
0.0000000000000000
 11
397.5909736696922
 21
380.3711647239643
 31
0.0000000000000000
  0
LINE
  5
1BE
100
AcDbEntity
  8
MAIN0
  6
CENTER
 62
3
100
AcDbLine
 10
380.5909736697836
 20
444.3711647234900
 30
0.0000000000000000
 11
366.5909736697836
 21
444.3711647234900
 31
0.0000000000000000
  0
LINE
  5
1BF
100
AcDbEntity
  8
MAIN0
  6
CENTER
 62
3
100
AcDbLine
 10
380.5909736697686
 20
464.3711647234900
 30
0.0000000000000000
 11
366.5909736697686
 21
464.3711647234900
 31
0.0000000000000000
  0
LINE
  5
1C0
100
AcDbEntity
  8
MAIN0
  6
CENTER
 62
3
100
AcDbLine
 10
373.5909736697826
 20
437.3711647234900
 30
0.0000000000000000
 11
373.5909736697697
 21
471.3711647234900
 31
0.0000000000000000
  0
ARC
  5
1C1
100
AcDbEntity
  8
MAIN0
  6
CONTINUOUS
 62
3
100
AcDbCircle
 10
787.5909736699407
 20
353.3711647239957
 30
0.0000000000000000
 40
3.000000000000000
100
AcDbArc
 50
270.0000000000000
 51
311.4096220805483
  0
ARC
  5
1C2
100
AcDbEntity
  8
MAIN0
  6
CONTINUOUS
 62
3
100
AcDbCircle
 10
791.5596006342819
 20
348.8711647220066
 30
0.0000000000000000
 40
3.000000000000000
100
AcDbArc
 50
90.00000000000000
 51
131.4096220805500
  0
LINE
  5
1C3
100
AcDbEntity
  8
MAIN0
  6
CONTINUOUS
 62
3
100
AcDbLine
 10
758.5909736697998
 20
408.3711647224075
 30
0.0000000000000000
 11
790.5909736701673
 21
408.3711647224217
 31
0.0000000000000000
  0
LINE
  5
1C4
100
AcDbEntity
  8
MAIN0
  6
CONTINUOUS
 62
3
100
AcDbLine
 10
758.5909736697997
 20
400.3711647242701
 30
0.0000000000000000
 11
790.5909736701344
 21
400.3711647242843
 31
0.0000000000000000
  0
LINE
  5
1C5
100
AcDbEntity
  8
MAIN0
  6
CONTINUOUS
 62
3
100
AcDbLine
 10
755.5909736701218
 20
397.3711647228005
 30
0.0000000000000000
 11
790.5909736701220
 21
397.3711647227383
 31
0.0000000000000000
  0
LINE
  5
1C6
100
AcDbEntity
  8
MAIN0
  6
CONTINUOUS
 62
3
100
AcDbLine
 10
757.0909736699903
 20
365.3920071055324
 30
0.0000000000000000
 11
789.0909736699903
 21
365.3920071055679
 31
0.0000000000000000
  0
ARC
  5
1C7
100
AcDbEntity
  8
MAIN0
  6
CONTINUOUS
 62
3
100
AcDbCircle
 10
787.5909736699409
 20
353.3711647239957
 30
0.0000000000000000
 40
3.000000000000000
100
AcDbArc
 50
270.0000000000000
 51
360.0000000000000
  0
LINE
  5
1C8
100
AcDbEntity
  8
MAIN0
  6
CONTINUOUS
 62
3
100
AcDbLine
 10
681.5909736697992
 20
456.5711647236483
 30
0.0000000000000000
 11
681.5909736697984
 21
394.0711647219130
 31
0.0000000000000000
  0
ARC
  5
1C9
100
AcDbEntity
  8
MAIN0
  6
CONTINUOUS
 62
3
100
AcDbCircle
 10
680.5909736697993
 20
456.5711647236481
 30
0.0000000000000000
 40
1.000000000000000
100
AcDbArc
 50
0.0000000000000000
 51
89.99999999942553
  0
LINE
  5
1CA
100
AcDbEntity
  8
MAIN0
  6
CONTINUOUS
 62
3
100
AcDbLine
 10
618.0909736697990
 20
457.5711647236481
 30
0.0000000000000000
 11
680.5909736697993
 21
457.5711647236481
 31
0.0000000000000000
  0
ARC
  5
1CB
100
AcDbEntity
  8
MAIN0
  6
CONTINUOUS
 62
3
100
AcDbCircle
 10
618.0909736697990
 20
456.0711647236481
 30
0.0000000000000000
 40
1.500000000000000
100
AcDbArc
 50
90.00000000000000
 51
180.0000000000000
  0
LINE
  5
1CC
100
AcDbEntity
  8
MAIN0
  6
CONTINUOUS
 62
3
100
AcDbLine
 10
330.5909736697593
 20
747.8782574636393
 30
0.0000000000000000
 11
330.5909736692066
 21
623.8782574636393
 31
0.0000000000000000
  0
LINE
  5
1CD
100
AcDbEntity
  8
MAIN0
  6
CONTINUOUS
 62
3
100
AcDbLine
 10
415.5909736700478
 20
716.8782574635244
 30
0.0000000000000000
 11
540.5909736711780
 21
716.8782574633559
 31
0.0000000000000000
  0
LINE
  5
1CE
100
AcDbEntity
  8
MAIN0
  6
CONTINUOUS
 62
3
100
AcDbLine
 10
331.5909736692024
 20
622.8782574636381
 30
0.0000000000000000
 11
330.5909736692067
 21
623.8782574636396
 31
0.0000000000000000
  0
LINE
  5
1CF
100
AcDbEntity
  8
MAIN0
  6
CONTINUOUS
 62
3
100
AcDbLine
 10
330.5909736697597
 20
747.8782574636402
 30
0.0000000000000000
 11
331.5909736697643
 21
748.8782574636391
 31
0.0000000000000000
  0
LINE
  5
1D0
100
AcDbEntity
  8
MAIN0
  6
CONTINUOUS
 62
3
100
AcDbLine
 10
415.5909736700478
 20
654.8782574635254
 30
0.0000000000000000
 11
540.5909736711260
 21
654.8782574633565
 31
0.0000000000000000
  0
LINE
  5
1D1
100
AcDbEntity
  8
MAIN0
  6
CONTINUOUS
 62
3
100
AcDbLine
 10
415.0909736700477
 20
748.3782574639677
 30
0.0000000000000000
 11
332.1909736700476
 21
748.3782574639679
 31
0.0000000000000000
  0
LINE
  5
1D2
100
AcDbEntity
  8
MAIN0
  6
CONTINUOUS
 62
3
100
AcDbLine
 10
415.0909736700475
 20
623.3782574639677
 30
0.0000000000000000
 11
332.1909736700474
 21
623.3782574639679
 31
0.0000000000000000
  0
LINE
  5
1D3
100
AcDbEntity
  8
MAIN0
  6
CONTINUOUS
 62
3
100
AcDbLine
 10
415.5909736700477
 20
623.8782574639679
 30
0.0000000000000000
 11
415.5909736700477
 21
747.8782574639679
 31
0.0000000000000000
  0
LINE
  5
1D4
100
AcDbEntity
  8
MAIN0
  6
CONTINUOUS
 62
3
100
AcDbLine
 10
331.5909736700475
 20
623.9782574639681
 30
0.0000000000000000
 11
331.5909736700476
 21
747.7782574639679
 31
0.0000000000000000
  0
LINE
  5
1D5
100
AcDbEntity
  8
MAIN0
  6
CONTINUOUS
 62
3
100
AcDbLine
 10
415.0909736700477
 20
623.3782574639678
 30
0.0000000000000000
 11
415.5909736700477
 21
623.8782574639679
 31
0.0000000000000000
  0
LINE
  5
1D6
100
AcDbEntity
  8
MAIN0
  6
CONTINUOUS
 62
3
100
AcDbLine
 10
415.5909736700475
 20
747.8782574639675
 30
0.0000000000000000
 11
415.0909736700475
 21
748.3782574639675
 31
0.0000000000000000
  0
LINE
  5
1D7
100
AcDbEntity
  8
MAIN0
  6
CONTINUOUS
 62
3
100
AcDbLine
 10
332.1909736700476
 20
623.3782574639682
 30
0.0000000000000000
 11
331.5909736700475
 21
623.9782574639683
 31
0.0000000000000000
  0
LINE
  5
1D8
100
AcDbEntity
  8
MAIN0
  6
CONTINUOUS
 62
3
100
AcDbLine
 10
331.5909736700477
 20
747.7782574639684
 30
0.0000000000000000
 11
332.1909736700476
 21
748.3782574639683
 31
0.0000000000000000
  0
CIRCLE
  5
1D9
100
AcDbEntity
  8
MAIN0
  6
CONTINUOUS
 62
3
100
AcDbCircle
 10
427.5909736693547
 20
685.8782574635088
 30
0.0000000000000000
 40
3.000000000000000
  0
LINE
  5
1DA
100
AcDbEntity
  8
MAIN0
  6
CENTER
 62
3
100
AcDbLine
 10
427.5909736693547
 20
691.8782574635088
 30
0.0000000000000000
 11
427.5909736693547
 21
679.8782574635088
 31
0.0000000000000000
  0
LINE
  5
1DB
100
AcDbEntity
  8
MAIN0
  6
CONTINUOUS
 62
3
100
AcDbLine
 10
616.5909736710943
 20
616.8782574632539
 30
0.0000000000000000
 11
616.5909736712091
 21
754.8782574632539
 31
0.0000000000000000
  0
LINE
  5
1DC
100
AcDbEntity
  8
MAIN0
  6
CONTINUOUS
 62
3
100
AcDbLine
 10
540.5909736711003
 20
623.9782574633766
 30
0.0000000000000000
 11
540.5909736712034
 21
747.7782574633359
 31
0.0000000000000000
  0
LINE
  5
1DD
100
AcDbEntity
  8
MAIN0
  6
CONTINUOUS
 62
3
100
AcDbLine
 10
541.1909736712033
 20
748.3782574633364
 30
0.0000000000000000
 11
616.0909736712035
 21
748.3782574633556
 31
0.0000000000000000
  0
LINE
  5
1DE
100
AcDbEntity
  8
MAIN0
  6
CONTINUOUS
 62
3
100
AcDbLine
 10
541.1909736710991
 20
623.3782574633763
 30
0.0000000000000000
 11
616.0909736710996
 21
623.3782574633683
 31
0.0000000000000000
  0
LINE
  5
1DF
100
AcDbEntity
  8
MAIN0
  6
CONTINUOUS
 62
3
100
AcDbLine
 10
616.5909736712032
 20
747.8782574633558
 30
0.0000000000000000
 11
616.0909736712038
 21
748.3782574633556
 31
0.0000000000000000
  0
LINE
  5
1E0
100
AcDbEntity
  8
MAIN0
  6
CONTINUOUS
 62
3
100
AcDbLine
 10
616.5909736710999
 20
623.8782574633682
 30
0.0000000000000000
 11
616.0909736710992
 21
623.3782574633681
 31
0.0000000000000000
  0
LINE
  5
1E1
100
AcDbEntity
  8
MAIN0
  6
CONTINUOUS
 62
3
100
AcDbLine
 10
541.1909736710993
 20
623.3782574633763
 30
0.0000000000000000
 11
540.5909736710999
 21
623.9782574633764
 31
0.0000000000000000
  0
LINE
  5
1E2
100
AcDbEntity
  8
MAIN0
  6
CONTINUOUS
 62
3
100
AcDbLine
 10
541.1909736712039
 20
748.3782574633366
 30
0.0000000000000000
 11
540.5909736712035
 21
747.7782574633366
 31
0.0000000000000000
  0
LINE
  5
1E3
100
AcDbEntity
  8
MAIN0
  6
CONTINUOUS
 62
3
100
AcDbLine
 10
681.5909736697561
 20
753.3782574631661
 30
0.0000000000000000
 11
695.7909736702325
 21
753.3782574631468
 31
0.0000000000000000
  0
LINE
  5
1E4
100
AcDbEntity
  8
MAIN0
  6
CONTINUOUS
 62
3
100
AcDbLine
 10
681.5909736697562
 20
618.3782574631661
 30
0.0000000000000000
 11
695.7909736699272
 21
618.3782574631468
 31
0.0000000000000000
  0
LINE
  5
1E5
100
AcDbEntity
  8
MAIN0
  6
CONTINUOUS
 62
3
100
AcDbLine
 10
331.5909736697637
 20
748.8782574636384
 30
0.0000000000000000
 11
616.5909736712040
 21
748.8782574632542
 31
0.0000000000000000
  0
LINE
  5
1E6
100
AcDbEntity
  8
MAIN0
  6
CONTINUOUS
 62
3
100
AcDbLine
 10
331.5909736692023
 20
622.8782574636384
 30
0.0000000000000000
 11
616.5909736710993
 21
622.8782574632542
 31
0.0000000000000000
  0
LINE
  5
1E7
100
AcDbEntity
  8
MAIN0
  6
CONTINUOUS
 62
3
100
AcDbLine
 10
721.1909736712216
 20
619.8782574631132
 30
0.0000000000000000
 11
721.1909736712802
 21
751.8782574631132
 31
0.0000000000000000
  0
LINE
  5
1E8
100
AcDbEntity
  8
MAIN0
  6
CONTINUOUS
 62
3
100
AcDbLine
 10
695.7909736702293
 20
751.8782574631474
 30
0.0000000000000000
 11
721.1909736712801
 21
751.8782574631132
 31
0.0000000000000000
  0
LINE
  5
1E9
100
AcDbEntity
  8
MAIN0
  6
CONTINUOUS
 62
3
100
AcDbLine
 10
695.7909736699307
 20
619.8782574631474
 30
0.0000000000000000
 11
721.1909736712216
 21
619.8782574631132
 31
0.0000000000000000
  0
LINE
  5
1EA
100
AcDbEntity
  8
MAIN0
  6
CONTINUOUS
 62
3
100
AcDbLine
 10
695.7909736699271
 20
618.3782574631472
 30
0.0000000000000000
 11
695.7909736702325
 21
753.3782574631472
 31
0.0000000000000000
  0
LINE
  5
1EB
100
AcDbEntity
  8
MAIN0
  6
CONTINUOUS
 62
3
100
AcDbLine
 10
758.5909736710260
 20
621.3782574630624
 30
0.0000000000000000
 11
758.5909736709291
 21
750.3782574630624
 31
0.0000000000000000
  0
LINE
  5
1EC
100
AcDbEntity
  8
MAIN0
  6
CONTINUOUS
 62
3
100
AcDbLine
 10
721.1909736712795
 20
750.3782574631130
 30
0.0000000000000000
 11
758.5909736709294
 21
750.3782574630625
 31
0.0000000000000000
  0
LINE
  5
1ED
100
AcDbEntity
  8
MAIN0
  6
CONTINUOUS
 62
3
100
AcDbLine
 10
721.1909736712221
 20
621.3782574631132
 30
0.0000000000000000
 11
758.5909736710257
 21
621.3782574630627
 31
0.0000000000000000
  0
LINE
  5
1EE
100
AcDbEntity
  8
MAIN0
  6
CONTINUOUS
 62
3
100
AcDbLine
 10
758.5909736709300
 20
748.8782574630626
 30
0.0000000000000000
 11
790.5909736721428
 21
748.8782574630195
 31
0.0000000000000000
  0
LINE
  5
1EF
100
AcDbEntity
  8
MAIN0
  6
CONTINUOUS
 62
3
100
AcDbLine
 10
758.5909736710246
 20
622.8782574630625
 30
0.0000000000000000
 11
790.5909736719063
 21
622.8782574630194
 31
0.0000000000000000
  0
LINE
  5
1F0
100
AcDbEntity
  8
MAIN0
  6
CONTINUOUS
 62
3
100
AcDbLine
 10
793.5909736720967
 20
723.3782574630158
 30
0.0000000000000000
 11
796.5909736710607
 21
723.3782574630117
 31
0.0000000000000000
  0
LINE
  5
1F1
100
AcDbEntity
  8
MAIN0
  6
CONTINUOUS
 62
3
100
AcDbLine
 10
793.5909736719527
 20
648.3782574630159
 30
0.0000000000000000
 11
796.5909736711255
 21
648.3782574630118
 31
0.0000000000000000
  0
LINE
  5
1F2
100
AcDbEntity
  8
MAIN0
  6
CONTINUOUS
 62
3
100
AcDbLine
 10
796.5909736711253
 20
648.3782574630113
 30
0.0000000000000000
 11
796.5909736710605
 21
723.3782574630113
 31
0.0000000000000000
  0
LINE
  5
1F3
100
AcDbEntity
  8
MAIN0
  6
CONTINUOUS
 62
3
100
AcDbLine
 10
790.5909736719066
 20
622.8782574630195
 30
0.0000000000000000
 11
790.5909736719939
 21
669.4153454425077
 31
0.0000000000000000
  0
LINE
  5
1F4
100
AcDbEntity
  8
MAIN0
  6
CONTINUOUS
 62
3
100
AcDbLine
 10
790.5909736720557
 20
702.3411694800661
 30
0.0000000000000000
 11
790.5909736721430
 21
748.8782574630195
 31
0.0000000000000000
  0
LINE
  5
1F5
100
AcDbEntity
  8
MAIN0
  6
CONTINUOUS
 62
3
100
AcDbLine
 10
821.5909736704633
 20
647.4782574630576
 30
0.0000000000000000
 11
821.5909736703720
 21
724.2782574630569
 31
0.0000000000000000
  0
LINE
  5
1F6
100
AcDbEntity
  8
MAIN0
  6
CONTINUOUS
 62
3
100
AcDbLine
 10
820.9909736704174
 20
646.8782574630109
 30
0.0000000000000000
 11
811.5909736704177
 21
646.8782574630109
 31
0.0000000000000000
  0
LINE
  5
1F7
100
AcDbEntity
  8
MAIN0
  6
CONTINUOUS
 62
3
100
AcDbLine
 10
809.5909736704493
 20
648.8782574630120
 30
0.0000000000000000
 11
811.5909736704176
 21
646.8782574630114
 31
0.0000000000000000
  0
LINE
  5
1F8
100
AcDbEntity
  8
MAIN0
  6
CONTINUOUS
 62
3
100
AcDbLine
 10
820.9909736704174
 20
646.8782574630111
 30
0.0000000000000000
 11
821.5909736704177
 21
647.4782574630112
 31
0.0000000000000000
  0
LINE
  5
1F9
100
AcDbEntity
  8
MAIN0
  6
CONTINUOUS
 62
3
100
AcDbLine
 10
820.9909736704170
 20
724.8782574630111
 30
0.0000000000000000
 11
811.5909736704174
 21
724.8782574630111
 31
0.0000000000000000
  0
LINE
  5
1FA
100
AcDbEntity
  8
MAIN0
  6
CONTINUOUS
 62
3
100
AcDbLine
 10
809.5909736704492
 20
722.8782574630108
 30
0.0000000000000000
 11
811.5909736704177
 21
724.8782574630114
 31
0.0000000000000000
  0
LINE
  5
1FB
100
AcDbEntity
  8
MAIN0
  6
CONTINUOUS
 62
3
100
AcDbLine
 10
820.9909736704169
 20
724.8782574630116
 30
0.0000000000000000
 11
821.5909736704170
 21
724.2782574630115
 31
0.0000000000000000
  0
LINE
  5
1FC
100
AcDbEntity
  8
MAIN0
  6
CONTINUOUS
 62
3
100
AcDbLine
 10
796.5909736711299
 20
722.8782574630109
 30
0.0000000000000000
 11
809.5909736704491
 21
722.8782574630109
 31
0.0000000000000000
  0
LINE
  5
1FD
100
AcDbEntity
  8
MAIN0
  6
CONTINUOUS
 62
3
100
AcDbLine
 10
796.5909736710557
 20
648.8782574630109
 30
0.0000000000000000
 11
809.5909736704496
 21
648.8782574630109
 31
0.0000000000000000
  0
LINE
  5
1FE
100
AcDbEntity
  8
MAIN0
  6
CONTINUOUS
 62
3
100
AcDbLine
 10
840.5909736704177
 20
710.8782574630113
 30
0.0000000000000000
 11
821.5909736704182
 21
710.8782574630113
 31
0.0000000000000000
  0
LINE
  5
1FF
100
AcDbEntity
  8
MAIN0
  6
CONTINUOUS
 62
3
100
AcDbLine
 10
840.5909736704176
 20
710.8782574630117
 30
0.0000000000000000
 11
840.5909736704175
 21
660.8782574630112
 31
0.0000000000000000
  0
LINE
  5
200
100
AcDbEntity
  8
MAIN0
  6
CONTINUOUS
 62
3
100
AcDbLine
 10
840.5909736704177
 20
660.8782574630109
 30
0.0000000000000000
 11
821.5909736704182
 21
660.8782574630109
 31
0.0000000000000000
  0
LINE
  5
201
100
AcDbEntity
  8
MAIN0
  6
CONTINUOUS
 62
3
100
AcDbLine
 10
821.5909736704373
 20
668.6736069260080
 30
0.0000000000000000
 11
811.5909736704862
 21
668.6736069260503
 31
0.0000000000000000
  0
LINE
  5
202
100
AcDbEntity
  8
MAIN0
  6
CONTINUOUS
 62
3
100
AcDbLine
 10
809.5909736705107
 20
673.8782574590905
 30
0.0000000000000000
 11
796.5909736710803
 21
673.8782574591130
 31
0.0000000000000000
  0
LINE
  5
203
100
AcDbEntity
  8
MAIN0
  6
CONTINUOUS
 62
3
100
AcDbLine
 10
809.5909736704806
 20
697.8782574672071
 30
0.0000000000000000
 11
796.5909736711045
 21
697.8782574671682
 31
0.0000000000000000
  0
LINE
  5
204
100
AcDbEntity
  8
MAIN0
  6
CONTINUOUS
 62
3
100
AcDbLine
 10
821.5909736703972
 20
703.0829080000090
 30
0.0000000000000000
 11
811.5909736704444
 21
703.0829079999987
 31
0.0000000000000000
  0
LINE
  5
205
100
AcDbEntity
  8
MAIN0
  6
CONTINUOUS
 62
3
100
AcDbLine
 10
809.5909736704803
 20
697.8782574672066
 30
0.0000000000000000
 11
811.5909736704439
 21
703.0829079999985
 31
0.0000000000000000
  0
LINE
  5
206
100
AcDbEntity
  8
MAIN0
  6
CONTINUOUS
 62
3
100
AcDbLine
 10
809.5909736705105
 20
673.8782574590902
 30
0.0000000000000000
 11
811.5909736704862
 21
668.6736069260508
 31
0.0000000000000000
  0
LINE
  5
207
100
AcDbEntity
  8
MAIN0
  6
CONTINUOUS
 62
3
100
AcDbLine
 10
811.5909736705132
 20
646.8782574630109
 30
0.0000000000000000
 11
811.5909736704865
 21
668.6736069260505
 31
0.0000000000000000
  0
LINE
  5
208
100
AcDbEntity
  8
MAIN0
  6
CONTINUOUS
 62
3
100
AcDbLine
 10
811.5909736704443
 20
703.0829079999985
 30
0.0000000000000000
 11
811.5909736704176
 21
724.8782574630113
 31
0.0000000000000000
  0
LINE
  5
209
100
AcDbEntity
  8
MAIN0
  6
CONTINUOUS
 62
3
100
AcDbLine
 10
809.5909736705419
 20
648.8782574630113
 30
0.0000000000000000
 11
809.5909736705107
 21
673.8782574590905
 31
0.0000000000000000
  0
LINE
  5
20A
100
AcDbEntity
  8
MAIN0
  6
CONTINUOUS
 62
3
100
AcDbLine
 10
809.5909736704808
 20
697.8782574672073
 30
0.0000000000000000
 11
809.5909736704497
 21
722.8782574630113
 31
0.0000000000000000
  0
LINE
  5
20B
100
AcDbEntity
  8
MAIN0
  6
CONTINUOUS
 62
3
100
AcDbLine
 10
796.5909736711043
 20
672.4153454425141
 30
0.0000000000000000
 11
793.5909736719819
 21
672.4153454425025
 31
0.0000000000000000
  0
LINE
  5
20C
100
AcDbEntity
  8
MAIN0
  6
CONTINUOUS
 62
3
100
AcDbLine
 10
796.5909736710814
 20
699.3411694800678
 30
0.0000000000000000
 11
793.5909736720632
 21
699.3411694800604
 31
0.0000000000000000
  0
LINE
  5
20D
100
AcDbEntity
  8
MAIN0
  6
CONTINUOUS
 62
3
100
AcDbLine
 10
790.5909736719366
 20
638.8782574614133
 30
0.0000000000000000
 11
758.5909736710130
 21
638.8782574614133
 31
0.0000000000000000
  0
LINE
  5
20E
100
AcDbEntity
  8
MAIN0
  6
CONTINUOUS
 62
3
100
AcDbLine
 10
790.5909736721130
 20
732.8782574614135
 30
0.0000000000000000
 11
758.5909736709425
 21
732.8782574614136
 31
0.0000000000000000
  0
ARC
  5
20F
100
AcDbEntity
  8
MAIN0
  6
CONTINUOUS
 62
3
100
AcDbCircle
 10
793.5909736719489
 20
645.3782574630154
 30
0.0000000000000000
 40
3.000000000000000
100
AcDbArc
 50
90.00000000000000
 51
180.0000000000000
  0
ARC
  5
210
100
AcDbEntity
  8
MAIN0
  6
CONTINUOUS
 62
3
100
AcDbCircle
 10
793.5909736721007
 20
726.3782574630154
 30
0.0000000000000000
 40
3.000000000000000
100
AcDbArc
 50
180.0000000000000
 51
270.0000000000000
  0
ARC
  5
211
100
AcDbEntity
  8
MAIN0
  6
CONTINUOUS
 62
3
100
AcDbCircle
 10
793.5909736719939
 20
669.4153454425018
 30
0.0000000000000000
 40
3.000000000000000
100
AcDbArc
 50
90.00000000000000
 51
180.0000000000000
  0
ARC
  5
212
100
AcDbEntity
  8
MAIN0
  6
CONTINUOUS
 62
3
100
AcDbCircle
 10
793.5909736720557
 20
702.3411694800602
 30
0.0000000000000000
 40
3.000000000000000
100
AcDbArc
 50
180.0000000000000
 51
270.0000000000000
  0
LINE
  5
213
100
AcDbEntity
  8
MAIN0
  6
CONTINUOUS
 62
3
100
AcDbLine
 10
681.5909736697561
 20
616.8782574631662
 30
0.0000000000000000
 11
681.5909736697561
 21
754.8782574631662
 31
0.0000000000000000
  0
LINE
  5
214
100
AcDbEntity
  8
MAIN0
  6
CONTINUOUS
 62
3
100
AcDbLine
 10
616.5909736710942
 20
616.8782574632539
 30
0.0000000000000000
 11
681.5909736697561
 21
616.8782574631662
 31
0.0000000000000000
  0
LINE
  5
215
100
AcDbEntity
  8
MAIN0
  6
CONTINUOUS
 62
3
100
AcDbLine
 10
616.5909736712085
 20
754.8782574632539
 30
0.0000000000000000
 11
681.5909736697561
 21
754.8782574631662
 31
0.0000000000000000
  0
DIMENSION
  5
21F
100
AcDbEntity
  8
MAIN0
  6
CONTINUOUS
 62
3
100
AcDbDimension
  2
*D24
 10
572.3797673436957
 20
339.3711647236601
 30
0.0000000000000000
 11
570.8797673436957
 21
323.9645851866096
 31
0.0000000000000000
 70
160
  3
MAIN001
100
AcDbAlignedDimension
 13
539.5909736697688
 23
334.3711647236469
 33
0.0000000000000000
 14
540.1909736697560
 24
339.3711647236601
 34
0.0000000000000000
 50
90.00000000000000
100
AcDbRotatedDimension
1001
ACAD
1000
DSTYLE
1002
{
1070
   173
1070
     1
1070
     6
1000
_OPEN
1070
     7
1000
_OPEN
1070
    41
1040
6.000000
1070
   287
1070
     0
1002
}
  0
DIMENSION
  5
228
100
AcDbEntity
  8
MAIN0
  6
CONTINUOUS
 62
3
100
AcDbDimension
  2
*D25
 10
530.5909736697688
 20
287.8488778597925
 30
0.0000000000000000
 11
473.0909736697842
 21
288.3488778597925
 31
0.0000000000000000
 70
32
  3
MAIN001
100
AcDbAlignedDimension
 13
415.5909736697996
 23
424.7711647234899
 33
0.0000000000000000
 14
530.5909736697688
 24
327.3711647236471
 34
0.0000000000000000
100
AcDbRotatedDimension
1001
ACAD
1000
DSTYLE
1002
{
1070
   173
1070
     1
1070
     6
1000
_OPEN
1070
     7
1000
_OPEN
1070
    41
1040
6.000000
1002
}
  0
DIMENSION
  5
231
100
AcDbEntity
  8
MAIN0
  6
CONTINUOUS
 62
3
100
AcDbDimension
  2
*D26
 10
330.5909736697034
 20
267.8488778597925
 30
0.0000000000000000
 11
553.9096777557970
 21
269.3488778597925
 31
0.0000000000000000
 70
160
  3
MAIN001
100
AcDbAlignedDimension
 13
755.5909736698848
 23
339.7711647239530
 33
0.0000000000000000
 14
330.5909736697034
 24
339.7711647234430
 34
0.0000000000000000
100
AcDbRotatedDimension
1001
ACAD
1000
DSTYLE
1002
{
1070
   173
1070
     1
1070
     6
1000
_OPEN
1070
     7
1000
_OPEN
1070
    41
1040
6.000000
1002
}
  0
DIMENSION
  5
23A
100
AcDbEntity
  8
MAIN0
  6
CONTINUOUS
 62
3
100
AcDbDimension
  2
*D27
 10
755.5909736698848
 20
267.8488778597925
 30
0.0000000000000000
 11
798.0909736699867
 21
268.3488778597925
 31
0.0000000000000000
 70
32
  3
MAIN001
100
AcDbAlignedDimension
 13
840.5909736700887
 23
364.3711647220061
 33
0.0000000000000000
 14
755.5909736698848
 24
339.7711647239530
 34
0.0000000000000000
100
AcDbRotatedDimension
1001
ACAD
1000
DSTYLE
1002
{
1070
   173
1070
     1
1070
     6
1000
_OPEN
1070
     7
1000
_OPEN
1070
    41
1040
6.000000
1002
}
  0
DIMENSION
  5
243
100
AcDbEntity
  8
MAIN0
  6
CONTINUOUS
 62
3
100
AcDbDimension
  2
*D28
 10
330.5909736697034
 20
247.8488778597926
 30
0.0000000000000000
 11
430.5909736697361
 21
248.3488778597926
 31
0.0000000000000000
 70
32
  3
MAIN001
100
AcDbAlignedDimension
 13
530.5909736697688
 23
327.3711647236471
 33
0.0000000000000000
 14
330.5909736697034
 24
339.7711647234430
 34
0.0000000000000000
100
AcDbRotatedDimension
1001
ACAD
1000
DSTYLE
1002
{
1070
   173
1070
     1
1070
     6
1000
_OPEN
1070
     7
1000
_OPEN
1070
    41
1040
6.000000
1002
}
  0
DIMENSION
  5
24C
100
AcDbEntity
  8
MAIN0
  6
CONTINUOUS
 62
3
100
AcDbDimension
  2
*D29
 10
530.5909736697688
 20
247.8488778597926
 30
0.0000000000000000
 11
685.5909736699288
 21
248.3488778597926
 31
0.0000000000000000
 70
32
  3
MAIN001
100
AcDbAlignedDimension
 13
840.5909736700887
 23
364.3711647220061
 33
0.0000000000000000
 14
530.5909736697688
 24
327.3711647236471
 34
0.0000000000000000
100
AcDbRotatedDimension
1001
ACAD
1000
DSTYLE
1002
{
1070
   173
1070
     1
1070
     6
1000
_OPEN
1070
     7
1000
_OPEN
1070
    41
1040
6.000000
1002
}
  0
DIMENSION
  5
255
100
AcDbEntity
  8
MAIN0
  6
CONTINUOUS
 62
3
100
AcDbDimension
  2
*D30
 10
840.5909736700887
 20
227.8488778597926
 30
0.0000000000000000
 11
585.5909736698960
 21
228.3488778597926
 31
0.0000000000000000
 70
32
  3
MAIN001
100
AcDbAlignedDimension
 13
330.5909736697034
 23
339.7711647234430
 33
0.0000000000000000
 14
840.5909736700887
 24
364.3711647220061
 34
0.0000000000000000
100
AcDbRotatedDimension
1001
ACAD
1000
DSTYLE
1002
{
1070
   173
1070
     1
1070
     6
1000
_OPEN
1070
     7
1000
_OPEN
1070
    41
1040
6.000000
1002
}
  0
DIMENSION
  5
25D
100
AcDbEntity
  8
MAIN0
  6
CONTINUOUS
 62
3
100
AcDbDimension
  2
*D31
 10
755.5909736701256
 20
368.8505213836204
 30
0.0000000000000000
 11
718.0909736701083
 21
369.3505213836204
 31
0.0000000000000000
 70
32
  3
MAIN001
100
AcDbAlignedDimension
 13
680.5909736700910
 23
372.3711647240216
 33
0.0000000000000000
 14
755.5909736698848
 24
339.7711647239531
 34
0.0000000000000000
100
AcDbRotatedDimension
1001
ACAD
1000
DSTYLE
1002
{
1070
   173
1070
     1
1070
     6
1000
_OPEN
1070
     7
1000
_OPEN
1070
    41
1040
6.000000
1002
}
  0
DIMENSION
  5
266
100
AcDbEntity
  8
MAIN0
  6
CONTINUOUS
 62
3
100
AcDbDimension
  2
*D32
 10
680.5909736700910
 20
368.8505213836204
 30
0.0000000000000000
 11
543.0909736698916
 21
369.3505213836204
 31
0.0000000000000000
 70
32
  3
MAIN001
100
AcDbAlignedDimension
 13
405.5909736696922
 23
372.3711647239643
 33
0.0000000000000000
 14
680.5909736700910
 24
372.3711647240216
 34
0.0000000000000000
100
AcDbRotatedDimension
1001
ACAD
1000
DSTYLE
1002
{
1070
   173
1070
     1
1070
     6
1000
_OPEN
1070
     7
1000
_OPEN
1070
    41
1040
6.000000
1002
}
  0
DIMENSION
  5
26E
100
AcDbEntity
  8
MAIN0
  6
CONTINUOUS
 62
3
100
AcDbDimension
  2
*D33
 10
405.5909736696922
 20
368.8505213836204
 30
0.0000000000000000
 11
368.0909736696978
 21
369.3505213836204
 31
0.0000000000000000
 70
32
  3
MAIN001
100
AcDbAlignedDimension
 13
330.5909736697034
 23
339.7711647234430
 33
0.0000000000000000
 14
405.5909736696922
 24
372.3711647239643
 34
0.0000000000000000
100
AcDbRotatedDimension
1001
ACAD
1000
DSTYLE
1002
{
1070
   173
1070
     1
1070
     6
1000
_OPEN
1070
     7
1000
_OPEN
1070
    41
1040
6.000000
1002
}
  0
LINE
  5
26F
100
AcDbEntity
  8
MAIN0
  6
CONTINUOUS
 62
3
100
AcDbLine
 10
330.5909736696989
 20
360.3711647246619
 30
0.0000000000000000
 11
643.8107287271614
 21
360.3711647244305
 31
0.0000000000000000
  0
LINE
  5
270
100
AcDbEntity
  8
MAIN0
  6
CONTINUOUS
 62
3
100
AcDbLine
 10
662.1107284410590
 20
360.3711647244170
 30
0.0000000000000000
 11
755.5909736699699
 21
360.3711647243479
 31
0.0000000000000000
  0
DIMENSION
  5
27A
100
AcDbEntity
  8
MAIN0
  6
CONTINUOUS
 62
3
100
AcDbDimension
  2
*D34
 10
400.7284987584192
 20
444.3711647234900
 30
0.0000000000000000
 11
400.2284987584192
 21
454.3711647234900
 31
0.0000000000000000
 70
32
  3
MAIN001
100
AcDbAlignedDimension
 13
380.5909736697686
 23
464.3711647234900
 33
0.0000000000000000
 14
380.5909736697836
 24
444.3711647234900
 34
0.0000000000000000
 50
90.00000000000000
100
AcDbRotatedDimension
1001
ACAD
1000
DSTYLE
1002
{
1070
   173
1070
     1
1070
     6
1000
_DOT
1070
     7
1000
_OPEN
1070
    41
1040
6.000000
1070
   287
1070
     0
1002
}
  0
DIMENSION
  5
283
100
AcDbEntity
  8
MAIN0
  6
CONTINUOUS
 62
3
100
AcDbDimension
  2
*D35
 10
400.7284987584192
 20
464.3711647234900
 30
0.0000000000000000
 11
399.2284987584192
 21
486.6602351710676
 31
0.0000000000000000
 70
160
  3
MAIN001
100
AcDbAlignedDimension
 13
415.0909736697996
 23
474.3711647234900
 33
0.0000000000000000
 14
380.5909736697686
 24
464.3711647234900
 34
0.0000000000000000
 50
90.00000000000000
100
AcDbRotatedDimension
1001
ACAD
1000
DSTYLE
1002
{
1070
   173
1070
     1
1070
     6
1000
_OPEN
1070
     7
1000
_DOT
1070
    41
1040
6.000000
1070
   287
1070
     0
1002
}
  0
DIMENSION
  5
28C
100
AcDbEntity
  8
MAIN0
  6
CONTINUOUS
 62
3
100
AcDbDimension
  2
*D36
 10
415.5909736697994
 20
501.0278557439458
 30
0.0000000000000000
 11
394.5909736697846
 21
501.5278557439458
 31
0.0000000000000000
 70
32
  3
MAIN001
100
AcDbAlignedDimension
 13
373.5909736697697
 23
471.3711647234900
 33
0.0000000000000000
 14
415.5909736697994
 24
473.8711647234902
 34
0.0000000000000000
100
AcDbRotatedDimension
1001
ACAD
1000
DSTYLE
1002
{
1070
   173
1070
     1
1070
     6
1000
_OPEN
1070
     7
1000
_OPEN
1070
    41
1040
6.000000
1002
}
  0
DIMENSION
  5
297
100
AcDbEntity
  8
MAIN0
  6
CONTINUOUS
 62
3
100
AcDbDimension
  2
*D37
 10
330.5909736696848
 20
521.0278557439458
 30
0.0000000000000000
 11
320.7407332070509
 21
522.5278557439458
 31
0.0000000000000000
 70
160
  3
MAIN001
100
AcDbAlignedDimension
 13
331.5909736697996
 23
474.1711647234897
 33
0.0000000000000000
 14
330.5909736696848
 24
423.3711647234425
 34
0.0000000000000000
100
AcDbRotatedDimension
1001
ACAD
1000
DSTYLE
1002
{
1070
   173
1070
     1
1070
     6
1000
_OPEN
1070
     7
1000
_OPEN
1070
    41
1040
6.000000
1070
   287
1070
     0
1002
}
  0
DIMENSION
  5
2A0
100
AcDbEntity
  8
MAIN0
  6
CONTINUOUS
 62
3
100
AcDbDimension
  2
*D38
 10
331.5909736697996
 20
521.0278557439458
 30
0.0000000000000000
 11
373.5909736697995
 21
521.5278557439458
 31
0.0000000000000000
 70
32
  3
MAIN001
100
AcDbAlignedDimension
 13
415.5909736697994
 23
473.8711647234902
 33
0.0000000000000000
 14
331.5909736697996
 24
474.1711647234897
 34
0.0000000000000000
100
AcDbRotatedDimension
1001
ACAD
1000
DSTYLE
1002
{
1070
   173
1070
     1
1070
     6
1000
_OPEN
1070
     7
1000
_OPEN
1070
    41
1040
6.000000
1002
}
  0
DIMENSION
  5
2A9
100
AcDbEntity
  8
MAIN0
  6
CONTINUOUS
 62
3
100
AcDbDimension
  2
*D39
 10
415.5909736697994
 20
521.0278557439458
 30
0.0000000000000000
 11
478.0909736697995
 21
521.5278557439458
 31
0.0000000000000000
 70
32
  1
\A1;MAX 256
  3
MAIN001
100
AcDbAlignedDimension
 13
540.5909736697995
 23
474.1711647235602
 33
0.0000000000000000
 14
415.5909736697994
 24
473.8711647234902
 34
0.0000000000000000
100
AcDbRotatedDimension
1001
ACAD
1000
DSTYLE
1002
{
1070
   173
1070
     1
1070
     6
1000
_OPEN
1070
     7
1000
_OPEN
1070
    41
1040
6.000000
1002
}
  0
DIMENSION
  5
2B2
100
AcDbEntity
  8
MAIN0
  6
CONTINUOUS
 62
3
100
AcDbDimension
  2
*D40
 10
540.5909736697995
 20
521.0278557439458
 30
0.0000000000000000
 11
578.5909736697994
 21
521.5278557439458
 31
0.0000000000000000
 70
32
  3
MAIN001
100
AcDbAlignedDimension
 13
616.5909736697993
 23
473.8711647235602
 33
0.0000000000000000
 14
540.5909736697995
 24
474.1711647235602
 34
0.0000000000000000
100
AcDbRotatedDimension
1001
ACAD
1000
DSTYLE
1002
{
1070
   173
1070
     1
1070
     6
1000
_OPEN
1070
     7
1000
_OPEN
1070
    41
1040
6.000000
1002
}
  0
DIMENSION
  5
2BB
100
AcDbEntity
  8
MAIN0
  6
CONTINUOUS
 62
3
100
AcDbDimension
  2
*D41
 10
300.2270210649601
 20
474.3711647234900
 30
0.0000000000000000
 11
299.7270210649601
 21
449.3711647234900
 31
0.0000000000000000
 70
32
  3
MAIN001
100
AcDbAlignedDimension
 13
331.5909736697301
 23
424.3711647234900
 33
0.0000000000000000
 14
331.7909736697996
 24
474.3711647234900
 34
0.0000000000000000
 50
90.00000000000000
100
AcDbRotatedDimension
1001
ACAD
1000
DSTYLE
1002
{
1070
   173
1070
     1
1070
     6
1000
_OPEN
1070
     7
1000
_OPEN
1070
    41
1040
6.000000
1002
}
  0
DIMENSION
  5
2C4
100
AcDbEntity
  8
MAIN0
  6
CONTINUOUS
 62
3
100
AcDbDimension
  2
*D42
 10
300.2270210649601
 20
424.3711647234900
 30
0.0000000000000000
 11
299.7270210649601
 21
381.8711647234279
 31
0.0000000000000000
 70
32
  3
MAIN001
100
AcDbAlignedDimension
 13
330.9909736697813
 23
339.3711647233658
 33
0.0000000000000000
 14
331.5909736697301
 24
424.3711647234900
 34
0.0000000000000000
 50
90.00000000000000
100
AcDbRotatedDimension
1001
ACAD
1000
DSTYLE
1002
{
1070
   173
1070
     1
1070
     6
1000
_OPEN
1070
     7
1000
_OPEN
1070
    41
1040
6.000000
1002
}
  0
DIMENSION
  5
2CD
100
AcDbEntity
  8
MAIN0
  6
CONTINUOUS
 62
3
100
AcDbDimension
  2
*D43
 10
280.2270210649601
 20
474.3711647234900
 30
0.0000000000000000
 11
279.7270210649601
 21
406.8711647234279
 31
0.0000000000000000
 70
32
  3
MAIN001
100
AcDbAlignedDimension
 13
330.9909736697813
 23
339.3711647233658
 33
0.0000000000000000
 14
331.7909736697996
 24
474.3711647234900
 34
0.0000000000000000
 50
90.00000000000000
100
AcDbRotatedDimension
1001
ACAD
1000
DSTYLE
1002
{
1070
   173
1070
     1
1070
     6
1000
_OPEN
1070
     7
1000
_OPEN
1070
    41
1040
6.000000
1002
}
  0
LEADER
  5
2CE
100
AcDbEntity
  8
MAIN0
  6
CONTINUOUS
 62
3
100
AcDbLeader
  3
MAIN001
 73
     0
 74
     0
 75
     1
 40
9.299999713897705
 41
45.30100002682207
 76
     3
 10
682.9520322386213
 20
384.9686120580088
 30
0.0000000000000000
 10
709.3946585894605
 20
462.9444293700248
 30
0.0000000000000000
 10
714.7516584314784
 20
462.9444293700248
 30
0.0000000000000000
340
2CF
213
0.0000000000000000
223
-1.500000000000000
233
0.0000000000000000
1001
ACAD
1000
DSTYLE
1002
{
1070
   147
1040
0.0
1070
    77
1070
     1
1070
   173
1070
     1
1070
     6
1000
_OPEN
1070
     7
1000
_OPEN
1002
}
  0
MTEXT
  5
2CF
102
{ACAD_REACTORS
330
2CE
102
}
100
AcDbEntity
  8
MAIN0
  6
CONTINUOUS
 62
3
100
AcDbMText
 10
714.7526584314784
 20
473.7444290839225
 30
0.0000000000000000
 40
9.299999713897705
 41
0.0000000000000000
 71
     1
 72
     1
  1
{\H0.70x;{2×2-M10}}
 11
1.000000000000000
 21
0.0000000000000000
 31
0.0000000000000000
  7
KNJYOKO
  0
LINE
  5
2D0
100
AcDbEntity
  8
MAIN0
  6
CONTINUOUS
 62
3
100
AcDbLine
 10
83.61944943902054
 20
360.3711647235230
 30
0.0000000000000000
 11
83.61944943902054
 21
400.3711647235234
 31
0.0000000000000000
  0
LINE
  5
2D1
100
AcDbEntity
  8
MAIN0
  6
CONTINUOUS
 62
3
100
AcDbLine
 10
77.61944943902097
 20
339.7711647235234
 30
0.0000000000000000
 11
77.61944943902103
 21
359.3711647235228
 31
0.0000000000000000
  0
LINE
  5
2D2
100
AcDbEntity
  8
MAIN0
  6
CONTINUOUS
 62
3
100
AcDbLine
 10
83.61944943902054
 20
360.3711647235230
 30
0.0000000000000000
 11
78.61944943902100
 21
360.3711647235230
 31
0.0000000000000000
  0
LINE
  5
2D3
100
AcDbEntity
  8
MAIN0
  6
CENTER
 62
3
100
AcDbLine
 10
140.6194494390205
 20
329.3711647235230
 30
0.0000000000000000
 11
140.6194494390208
 21
484.3711647228421
 31
0.0000000000000000
  0
LINE
  5
2D4
100
AcDbEntity
  8
MAIN0
  6
CONTINUOUS
 62
3
100
AcDbLine
 10
79.11944943902054
 20
424.3711647235232
 30
0.0000000000000000
 11
109.0194494390193
 21
424.3711647235232
 31
0.0000000000000000
  0
LINE
  5
2D5
100
AcDbEntity
  8
MAIN0
  6
CONTINUOUS
 62
3
100
AcDbLine
 10
172.2194494390209
 20
424.3711647235232
 30
0.0000000000000000
 11
202.1194494390210
 21
424.3711647235232
 31
0.0000000000000000
  0
LINE
  5
2D6
100
AcDbEntity
  8
MAIN0
  6
CONTINUOUS
 62
3
100
AcDbLine
 10
78.61944943902077
 20
400.3711647235233
 30
0.0000000000000000
 11
83.61944943902054
 21
400.3711647235232
 31
0.0000000000000000
  0
LINE
  5
2D7
100
AcDbEntity
  8
MAIN0
  6
CONTINUOUS
 62
3
100
AcDbLine
 10
77.61944943902091
 20
401.3711647235236
 30
0.0000000000000000
 11
78.61944943902108
 21
400.3711647235234
 31
0.0000000000000000
  0
LINE
  5
2D8
100
AcDbEntity
  8
MAIN0
  6
CONTINUOUS
 62
3
100
AcDbLine
 10
78.61944943902091
 20
360.3711647235233
 30
0.0000000000000000
 11
77.61944943902074
 21
359.3711647235231
 31
0.0000000000000000
  0
LINE
  5
2D9
100
AcDbEntity
  8
MAIN0
  6
CONTINUOUS
 62
3
100
AcDbLine
 10
77.61944943902108
 20
339.7711647235231
 30
0.0000000000000000
 11
78.01944943902100
 21
339.3711647235232
 31
0.0000000000000000
  0
LINE
  5
2DA
100
AcDbEntity
  8
MAIN0
  6
CONTINUOUS
 62
3
100
AcDbLine
 10
197.6194494390210
 20
360.3711647235230
 30
0.0000000000000000
 11
197.6194494390210
 21
400.3711647235230
 31
0.0000000000000000
  0
LINE
  5
2DB
100
AcDbEntity
  8
MAIN0
  6
CONTINUOUS
 62
3
100
AcDbLine
 10
203.6194494390204
 20
339.7711647235227
 30
0.0000000000000000
 11
203.6194494390205
 21
359.3711647235226
 31
0.0000000000000000
  0
LINE
  5
2DC
100
AcDbEntity
  8
MAIN0
  6
CONTINUOUS
 62
3
100
AcDbLine
 10
197.6194494390206
 20
360.3711647235228
 30
0.0000000000000000
 11
202.6194494390208
 21
360.3711647235228
 31
0.0000000000000000
  0
LINE
  5
2DD
100
AcDbEntity
  8
MAIN0
  6
CONTINUOUS
 62
3
100
AcDbLine
 10
202.6194494390212
 20
400.3711647235229
 30
0.0000000000000000
 11
197.6194494390212
 21
400.3711647235230
 31
0.0000000000000000
  0
LINE
  5
2DE
100
AcDbEntity
  8
MAIN0
  6
CONTINUOUS
 62
3
100
AcDbLine
 10
203.6194494390209
 20
401.3711647235228
 30
0.0000000000000000
 11
202.6194494390207
 21
400.3711647235226
 31
0.0000000000000000
  0
LINE
  5
2DF
100
AcDbEntity
  8
MAIN0
  6
CONTINUOUS
 62
3
100
AcDbLine
 10
202.6194494390209
 20
360.3711647235229
 30
0.0000000000000000
 11
203.6194494390207
 21
359.3711647235231
 31
0.0000000000000000
  0
LINE
  5
2E0
100
AcDbEntity
  8
MAIN0
  6
CONTINUOUS
 62
3
100
AcDbLine
 10
203.6194494390209
 20
339.7711647235228
 30
0.0000000000000000
 11
203.2194494390210
 21
339.3711647235228
 31
0.0000000000000000
  0
LINE
  5
2E1
100
AcDbEntity
  8
MAIN0
  6
CONTINUOUS
 62
3
100
AcDbLine
 10
206.9194494390209
 20
426.0711647213290
 30
0.0000000000000000
 11
206.9194494390208
 21
396.2711647215020
 31
0.0000000000000000
  0
LINE
  5
2E2
100
AcDbEntity
  8
MAIN0
  6
CONTINUOUS
 62
3
100
AcDbLine
 10
208.1194494390205
 20
396.0711647215020
 30
0.0000000000000000
 11
208.1194494390205
 21
426.0711647213290
 31
0.0000000000000000
  0
LINE
  5
2E3
100
AcDbEntity
  8
MAIN0
  6
CONTINUOUS
 62
3
100
AcDbLine
 10
80.61944943902051
 20
399.2711647215022
 30
0.0000000000000000
 11
77.71944943902065
 21
399.2711647215022
 31
0.0000000000000000
  0
ARC
  5
2E4
100
AcDbEntity
  8
MAIN0
  6
CONTINUOUS
 62
3
100
AcDbCircle
 10
77.31944943902059
 20
399.2711647215020
 30
0.0000000000000000
 40
1.200000000000000
100
AcDbArc
 50
180.0000000000067
 51
270.0000000000046
  0
ARC
  5
2E5
100
AcDbEntity
  8
MAIN0
  6
CONTINUOUS
 62
3
100
AcDbCircle
 10
77.31944943902059
 20
424.3711647215021
 30
0.0000000000000000
 40
1.200000000000000
100
AcDbArc
 50
90.00000000000000
 51
180.0000000000000
  0
ARC
  5
2E6
100
AcDbEntity
  8
MAIN0
  6
CONTINUOUS
 62
3
100
AcDbCircle
 10
77.71944943902045
 20
423.9711647215020
 30
0.0000000000000000
 40
0.4000000000000000
100
AcDbArc
 50
90.00000000000259
 51
180.0000000000000
  0
ARC
  5
2E7
100
AcDbEntity
  8
MAIN0
  6
CONTINUOUS
 62
3
100
AcDbCircle
 10
77.71944943902045
 20
399.6711647215021
 30
0.0000000000000000
 40
0.4000000000000000
100
AcDbArc
 50
180.0000000000067
 51
269.9999999994322
  0
LINE
  5
2E8
100
AcDbEntity
  8
MAIN0
  6
CONTINUOUS
 62
3
100
AcDbLine
 10
80.61944943902051
 20
398.0711647215022
 30
0.0000000000000000
 11
77.31944960982889
 21
398.0711647215022
 31
0.0000000000000000
  0
LINE
  5
2E9
100
AcDbEntity
  8
MAIN0
  6
CONTINUOUS
 62
3
100
AcDbLine
 10
76.11944943902032
 20
424.3711647215021
 30
0.0000000000000000
 11
76.11944943902054
 21
399.2711647215020
 31
0.0000000000000000
  0
LINE
  5
2EA
100
AcDbEntity
  8
MAIN0
  6
CONTINUOUS
 62
3
100
AcDbLine
 10
80.61944943902051
 20
399.2711647215020
 30
0.0000000000000000
 11
80.61944943902051
 21
398.0711647215022
 31
0.0000000000000000
  0
LINE
  5
2EB
100
AcDbEntity
  8
MAIN0
  6
CONTINUOUS
 62
3
100
AcDbLine
 10
80.61944943902051
 20
397.2711647215022
 30
0.0000000000000000
 11
80.61944943902051
 21
396.0711647215019
 31
0.0000000000000000
  0
LINE
  5
2EC
100
AcDbEntity
  8
MAIN0
  6
CONTINUOUS
 62
3
100
AcDbLine
 10
74.61944943902054
 20
426.0711647234759
 30
0.0000000000000000
 11
74.61944943902054
 21
398.0711647215021
 31
0.0000000000000000
  0
LINE
  5
2ED
100
AcDbEntity
  8
MAIN0
  6
CONTINUOUS
 62
3
100
AcDbLine
 10
80.61944943902051
 20
397.2711647215022
 30
0.0000000000000000
 11
76.81944949197862
 21
397.2711647215022
 31
0.0000000000000000
  0
LINE
  5
2EE
100
AcDbEntity
  8
MAIN0
  6
CONTINUOUS
 62
3
100
AcDbLine
 10
80.61944943902051
 20
396.0711647215023
 30
0.0000000000000000
 11
76.61944948116513
 21
396.0711647215023
 31
0.0000000000000000
  0
ARC
  5
2EF
100
AcDbEntity
  8
MAIN0
  6
CONTINUOUS
 62
3
100
AcDbCircle
 10
76.61944943902054
 20
398.0711647215021
 30
0.0000000000000000
 40
2.000000000000000
100
AcDbArc
 50
180.0000000000067
 51
269.9999999994322
  0
ARC
  5
2F0
100
AcDbEntity
  8
MAIN0
  6
CONTINUOUS
 62
3
100
AcDbCircle
 10
76.81944943902059
 20
398.2711647215022
 30
0.0000000000000000
 40
1.000000000000000
100
AcDbArc
 50
180.0000000000067
 51
269.9999999994322
  0
LINE
  5
2F1
100
AcDbEntity
  8
MAIN0
  6
CONTINUOUS
 62
3
100
AcDbLine
 10
74.31944943902050
 20
426.0711647234759
 30
0.0000000000000000
 11
74.31944943902050
 21
396.2711647215025
 31
0.0000000000000000
  0
LINE
  5
2F2
100
AcDbEntity
  8
MAIN0
  6
CONTINUOUS
 62
3
100
AcDbLine
 10
73.11944943902086
 20
396.0711647215025
 30
0.0000000000000000
 11
73.11944943902074
 21
426.0711647234759
 31
0.0000000000000000
  0
LINE
  5
2F3
100
AcDbEntity
  8
MAIN0
  6
CONTINUOUS
 62
3
100
AcDbLine
 10
203.9194494390907
 20
423.9711647215020
 30
0.0000000000000000
 11
203.9194494390844
 21
399.6711647215018
 31
0.0000000000000000
  0
LINE
  5
2F4
100
AcDbEntity
  8
MAIN0
  6
CONTINUOUS
 62
3
100
AcDbLine
 10
75.81944943907141
 20
425.5711647215020
 30
0.0000000000000000
 11
75.81944943907516
 21
398.2711647215020
 31
0.0000000000000000
  0
LINE
  5
2F5
100
AcDbEntity
  8
MAIN0
  6
CONTINUOUS
 62
3
100
AcDbLine
 10
200.6194494390205
 20
399.2711647215022
 30
0.0000000000000000
 11
203.5194494390206
 21
399.2711647215022
 31
0.0000000000000000
  0
ARC
  5
2F6
100
AcDbEntity
  8
MAIN0
  6
CONTINUOUS
 62
3
100
AcDbCircle
 10
203.9194494390207
 20
399.2711647215020
 30
0.0000000000000000
 40
1.200000000000000
100
AcDbArc
 50
269.9999999999953
 51
359.9999999999934
  0
ARC
  5
2F7
100
AcDbEntity
  8
MAIN0
  6
CONTINUOUS
 62
3
100
AcDbCircle
 10
203.9194494390207
 20
424.3711647215021
 30
0.0000000000000000
 40
1.200000000000000
100
AcDbArc
 50
0.0000000000000000
 51
90.00000000000000
  0
ARC
  5
2F8
100
AcDbEntity
  8
MAIN0
  6
CONTINUOUS
 62
3
100
AcDbCircle
 10
203.5194494390206
 20
423.9711647215020
 30
0.0000000000000000
 40
0.4000000000000000
100
AcDbArc
 50
0.0000000000000000
 51
89.99999999999740
  0
ARC
  5
2F9
100
AcDbEntity
  8
MAIN0
  6
CONTINUOUS
 62
3
100
AcDbCircle
 10
203.5194494390206
 20
399.6711647215021
 30
0.0000000000000000
 40
0.4000000000000000
100
AcDbArc
 50
270.0000000005678
 51
359.9999999999934
  0
LINE
  5
2FA
100
AcDbEntity
  8
MAIN0
  6
CONTINUOUS
 62
3
100
AcDbLine
 10
200.6194494390205
 20
398.0711647215022
 30
0.0000000000000000
 11
203.9194492682124
 21
398.0711647215022
 31
0.0000000000000000
  0
LINE
  5
2FB
100
AcDbEntity
  8
MAIN0
  6
CONTINUOUS
 62
3
100
AcDbLine
 10
205.1194494390205
 20
424.3711647215021
 30
0.0000000000000000
 11
205.1194494390205
 21
399.2711647215020
 31
0.0000000000000000
  0
LINE
  5
2FC
100
AcDbEntity
  8
MAIN0
  6
CONTINUOUS
 62
3
100
AcDbLine
 10
200.6194494390205
 20
399.2711647215020
 30
0.0000000000000000
 11
200.6194494390205
 21
398.0711647215022
 31
0.0000000000000000
  0
LINE
  5
2FD
100
AcDbEntity
  8
MAIN0
  6
CONTINUOUS
 62
3
100
AcDbLine
 10
200.6194494390205
 20
397.2711647215022
 30
0.0000000000000000
 11
200.6194494390205
 21
396.0711647215021
 31
0.0000000000000000
  0
LINE
  5
2FE
100
AcDbEntity
  8
MAIN0
  6
CONTINUOUS
 62
3
100
AcDbLine
 10
206.6194494390205
 20
426.0711647213290
 30
0.0000000000000000
 11
206.6194494390205
 21
398.0711647215021
 31
0.0000000000000000
  0
LINE
  5
2FF
100
AcDbEntity
  8
MAIN0
  6
CONTINUOUS
 62
3
100
AcDbLine
 10
205.4194494390207
 20
425.5711647215021
 30
0.0000000000000000
 11
205.4194494390207
 21
398.2711647215022
 31
0.0000000000000000
  0
LINE
  5
300
100
AcDbEntity
  8
MAIN0
  6
CONTINUOUS
 62
3
100
AcDbLine
 10
200.6194494390205
 20
397.2711647215022
 30
0.0000000000000000
 11
204.4194493860627
 21
397.2711647215022
 31
0.0000000000000000
  0
LINE
  5
301
100
AcDbEntity
  8
MAIN0
  6
CONTINUOUS
 62
3
100
AcDbLine
 10
200.6194494390205
 20
396.0711647215021
 30
0.0000000000000000
 11
204.6194493968759
 21
396.0711647215021
 31
0.0000000000000000
  0
ARC
  5
302
100
AcDbEntity
  8
MAIN0
  6
CONTINUOUS
 62
3
100
AcDbCircle
 10
204.6194494390205
 20
398.0711647215021
 30
0.0000000000000000
 40
2.000000000000000
100
AcDbArc
 50
270.0000000005678
 51
359.9999999999934
  0
ARC
  5
303
100
AcDbEntity
  8
MAIN0
  6
CONTINUOUS
 62
3
100
AcDbCircle
 10
204.4194494390207
 20
398.2711647215022
 30
0.0000000000000000
 40
1.000000000000000
100
AcDbArc
 50
270.0000000005678
 51
359.9999999999934
  0
LINE
  5
304
100
AcDbEntity
  8
MAIN0
  6
CONTINUOUS
 62
3
100
AcDbLine
 10
78.11944943902103
 20
424.3711647217433
 30
0.0000000000000000
 11
78.11944943902122
 21
474.3711647228417
 31
0.0000000000000000
  0
LINE
  5
305
100
AcDbEntity
  8
MAIN0
  6
CONTINUOUS
 62
3
100
AcDbLine
 10
203.1194494390210
 20
424.3711647215022
 30
0.0000000000000000
 11
203.1194494390212
 21
474.3711647228417
 31
0.0000000000000000
  0
LINE
  5
306
100
AcDbEntity
  8
MAIN0
  6
CONTINUOUS
 62
3
100
AcDbLine
 10
78.11944943902100
 20
474.3711647228417
 30
0.0000000000000000
 11
203.1194494390210
 21
474.3711647228417
 31
0.0000000000000000
  0
LINE
  5
307
100
AcDbEntity
  8
MAIN0
  6
CONTINUOUS
 62
3
100
AcDbLine
 10
77.71944943902062
 20
424.3711647215021
 30
0.0000000000000000
 11
203.5194488191262
 21
424.3711647215022
 31
0.0000000000000000
  0
LINE
  5
308
100
AcDbEntity
  8
MAIN0
  6
CONTINUOUS
 62
3
100
AcDbLine
 10
84.61944943902122
 20
424.3711647217433
 30
0.0000000000000000
 11
196.6194494390205
 21
424.3711647217433
 31
0.0000000000000000
  0
LINE
  5
309
100
AcDbEntity
  8
MAIN0
  6
CONTINUOUS
 62
3
100
AcDbLine
 10
157.8240999731171
 20
424.3711647217373
 30
0.0000000000000000
 11
123.4147989049499
 21
424.3711647217498
 31
0.0000000000000000
  0
LINE
  5
30A
100
AcDbEntity
  8
MAIN0
  6
CONTINUOUS
 62
3
100
AcDbLine
 10
83.61944943902054
 20
360.3711647235230
 30
0.0000000000000000
 11
83.61944943902054
 21
369.3711647235230
 31
0.0000000000000000
  0
LINE
  5
30B
100
AcDbEntity
  8
MAIN0
  6
CONTINUOUS
 62
3
100
AcDbLine
 10
78.61944943902043
 20
360.3711647235230
 30
0.0000000000000000
 11
83.61944943902054
 21
360.3711647235230
 31
0.0000000000000000
  0
LINE
  5
30C
100
AcDbEntity
  8
MAIN0
  6
CONTINUOUS
 62
3
100
AcDbLine
 10
78.11944943902020
 20
339.3711647235228
 30
0.0000000000000000
 11
78.11944943902017
 21
334.3711647235213
 31
0.0000000000000000
  0
LINE
  5
30D
100
AcDbEntity
  8
MAIN0
  6
CONTINUOUS
 62
3
100
AcDbLine
 10
103.1194494390201
 20
334.3711647235230
 30
0.0000000000000000
 11
78.11944943902009
 21
334.3711647235230
 31
0.0000000000000000
  0
LINE
  5
30E
100
AcDbEntity
  8
MAIN0
  6
CONTINUOUS
 62
3
100
AcDbLine
 10
103.1194494390202
 20
339.3711647235230
 30
0.0000000000000000
 11
103.1194494390202
 21
334.3711647235230
 31
0.0000000000000000
  0
LINE
  5
30F
100
AcDbEntity
  8
MAIN0
  6
CONTINUOUS
 62
3
100
AcDbLine
 10
178.1194494390242
 20
339.3711647235230
 30
0.0000000000000000
 11
178.1194494390242
 21
334.3711647235230
 31
0.0000000000000000
  0
LINE
  5
310
100
AcDbEntity
  8
MAIN0
  6
CONTINUOUS
 62
3
100
AcDbLine
 10
203.1194494390245
 20
334.3711647235229
 30
0.0000000000000000
 11
178.1194494390245
 21
334.3711647235229
 31
0.0000000000000000
  0
LINE
  5
311
100
AcDbEntity
  8
MAIN0
  6
CONTINUOUS
 62
3
100
AcDbLine
 10
203.1194494390245
 20
339.3711647235231
 30
0.0000000000000000
 11
203.1194494390246
 21
334.3711647235267
 31
0.0000000000000000
  0
LINE
  5
312
100
AcDbEntity
  8
MAIN0
  6
CONTINUOUS
 62
3
100
AcDbLine
 10
131.6194494390208
 20
339.9711647235231
 30
0.0000000000000000
 11
131.6194494390208
 21
344.3711647235230
 31
0.0000000000000000
  0
LINE
  5
313
100
AcDbEntity
  8
MAIN0
  6
CONTINUOUS
 62
3
100
AcDbLine
 10
131.6194494390208
 20
344.3711647235230
 30
0.0000000000000000
 11
149.6194494390208
 21
344.3711647235230
 31
0.0000000000000000
  0
LINE
  5
314
100
AcDbEntity
  8
MAIN0
  6
CONTINUOUS
 62
3
100
AcDbLine
 10
131.6194494390211
 20
339.9711647235230
 30
0.0000000000000000
 11
131.0194494390208
 21
339.3711647235227
 31
0.0000000000000000
  0
LINE
  5
315
100
AcDbEntity
  8
MAIN0
  6
CONTINUOUS
 62
3
100
AcDbLine
 10
149.6194494390208
 20
339.9711647235231
 30
0.0000000000000000
 11
149.6194494390208
 21
344.3711647235230
 31
0.0000000000000000
  0
LINE
  5
316
100
AcDbEntity
  8
MAIN0
  6
CONTINUOUS
 62
3
100
AcDbLine
 10
149.6194494390207
 20
339.9711647235231
 30
0.0000000000000000
 11
150.2194494390209
 21
339.3711647235231
 31
0.0000000000000000
  0
LINE
  5
317
100
AcDbEntity
  8
MAIN0
  6
CONTINUOUS
 62
3
100
AcDbLine
 10
78.01944943902109
 20
339.3711647235230
 30
0.0000000000000000
 11
131.0194494390209
 21
339.3711647235230
 31
0.0000000000000000
  0
LINE
  5
318
100
AcDbEntity
  8
MAIN0
  6
CONTINUOUS
 62
3
100
AcDbLine
 10
150.2194494390209
 20
339.3711647235230
 30
0.0000000000000000
 11
203.2194494390209
 21
339.3711647235230
 31
0.0000000000000000
  0
LINE
  5
319
100
AcDbEntity
  8
MAIN0
  6
CONTINUOUS
 62
3
100
AcDbLine
 10
77.61944943902063
 20
401.3711647235232
 30
0.0000000000000000
 11
77.61944943902032
 21
422.8711647215021
 31
0.0000000000000000
  0
LINE
  5
31A
100
AcDbEntity
  8
MAIN0
  6
CONTINUOUS
 62
3
100
AcDbLine
 10
203.6194494390210
 20
401.3711647235232
 30
0.0000000000000000
 11
203.6194494390204
 21
422.8711647215023
 31
0.0000000000000000
  0
LINE
  5
31B
100
AcDbEntity
  8
MAIN0
  6
CONTINUOUS
 62
3
100
AcDbLine
 10
77.31944943902073
 20
399.6711647215021
 30
0.0000000000000000
 11
77.31944943902050
 21
423.9711647215020
 31
0.0000000000000000
  0
LINE
  5
31C
100
AcDbEntity
  8
MAIN0
  6
CONTINUOUS
 62
3
100
AcDbLine
 10
75.81944943902079
 20
425.5711647215023
 30
0.0000000000000000
 11
78.11944943902103
 21
425.5711647215023
 31
0.0000000000000000
  0
LINE
  5
31D
100
AcDbEntity
  8
MAIN0
  6
CONTINUOUS
 62
3
100
AcDbLine
 10
203.1194494390210
 20
425.5711647215023
 30
0.0000000000000000
 11
205.4194494390209
 21
425.5711647215023
 31
0.0000000000000000
  0
LINE
  5
31E
100
AcDbEntity
  8
MAIN0
  6
CONTINUOUS
 62
3
100
AcDbLine
 10
109.6194494390192
 20
424.3711647215023
 30
0.0000000000000000
 11
109.6194494390192
 21
420.5711647232818
 31
0.0000000000000000
  0
LINE
  5
31F
100
AcDbEntity
  8
MAIN0
  6
CONTINUOUS
 62
3
100
AcDbLine
 10
109.6194494390192
 20
420.5711647232818
 30
0.0000000000000000
 11
171.6194494390206
 21
420.5711647232818
 31
0.0000000000000000
  0
LINE
  5
320
100
AcDbEntity
  8
MAIN0
  6
CONTINUOUS
 62
3
100
AcDbLine
 10
109.6194494390192
 20
423.7711647232820
 30
0.0000000000000000
 11
171.6194494390206
 21
423.7711647232820
 31
0.0000000000000000
  0
LINE
  5
321
100
AcDbEntity
  8
MAIN0
  6
CONTINUOUS
 62
3
100
AcDbLine
 10
171.6194494390206
 20
424.3711647232822
 30
0.0000000000000000
 11
171.6194494390206
 21
420.5711647232818
 31
0.0000000000000000
  0
LINE
  5
322
100
AcDbEntity
  8
MAIN0
  6
CONTINUOUS
 62
3
100
AcDbLine
 10
110.6194494390205
 20
420.5711647215023
 30
0.0000000000000000
 11
110.6194494390205
 21
405.3711647215030
 31
0.0000000000000000
  0
LINE
  5
323
100
AcDbEntity
  8
MAIN0
  6
CONTINUOUS
 62
3
100
AcDbLine
 10
109.6194494390207
 20
404.3711647215030
 30
0.0000000000000000
 11
110.6194494390207
 21
405.3711647215030
 31
0.0000000000000000
  0
LINE
  5
324
100
AcDbEntity
  8
MAIN0
  6
CONTINUOUS
 62
3
100
AcDbLine
 10
105.1194494390207
 20
404.3711647215029
 30
0.0000000000000000
 11
109.6194494390205
 21
404.3711647215028
 31
0.0000000000000000
  0
LINE
  5
325
100
AcDbEntity
  8
MAIN0
  6
CONTINUOUS
 62
3
100
AcDbLine
 10
105.1194494390205
 20
404.3711647215023
 30
0.0000000000000000
 11
105.1194494390205
 21
389.3711647215023
 31
0.0000000000000000
  0
LINE
  5
326
100
AcDbEntity
  8
MAIN0
  6
CONTINUOUS
 62
3
100
AcDbLine
 10
110.5194494390206
 20
389.3711647215023
 30
0.0000000000000000
 11
105.1194494390205
 21
389.3711647215023
 31
0.0000000000000000
  0
LINE
  5
327
100
AcDbEntity
  8
MAIN0
  6
CONTINUOUS
 62
3
100
AcDbLine
 10
110.5194494390205
 20
389.3711647215024
 30
0.0000000000000000
 11
111.1194494390205
 21
388.7711647215024
 31
0.0000000000000000
  0
LINE
  5
328
100
AcDbEntity
  8
MAIN0
  6
CONTINUOUS
 62
3
100
AcDbLine
 10
111.1194494390205
 20
388.7711647215022
 30
0.0000000000000000
 11
111.1194494390205
 21
375.3711647194425
 31
0.0000000000000000
  0
ARC
  5
329
100
AcDbEntity
  8
MAIN0
  6
CONTINUOUS
 62
3
100
AcDbCircle
 10
117.1194494390205
 20
375.3711647194425
 30
0.0000000000000000
 40
6.000000000000000
100
AcDbArc
 50
180.0000000000000
 51
243.9431670700172
  0
ARC
  5
32A
100
AcDbEntity
  8
MAIN0
  6
CONTINUOUS
 62
3
100
AcDbCircle
 10
124.5461872040541
 20
369.3711647215023
 30
0.0000000000000000
 40
10.00000000000000
100
AcDbArc
 50
182.0000000000008
 51
270.0000000000000
  0
LINE
  5
32B
100
AcDbEntity
  8
MAIN0
  6
CONTINUOUS
 62
3
100
AcDbLine
 10
114.5193969126719
 20
369.9637876417617
 30
0.0000000000000000
 11
114.5522789338631
 21
369.0221697544773
 31
0.0000000000000000
  0
LINE
  5
32C
100
AcDbEntity
  8
MAIN0
  6
CONTINUOUS
 62
3
100
AcDbLine
 10
124.5461872040541
 20
359.3711647215023
 30
0.0000000000000000
 11
156.6927116739870
 21
359.3711647215023
 31
0.0000000000000000
  0
ARC
  5
32D
100
AcDbEntity
  8
MAIN0
  6
CONTINUOUS
 62
3
100
AcDbCircle
 10
156.6927116739870
 20
369.3711647215023
 30
0.0000000000000000
 40
10.00000000000000
100
AcDbArc
 50
270.0000000000000
 51
358.0000000000002
  0
LINE
  5
32E
100
AcDbEntity
  8
MAIN0
  6
CONTINUOUS
 62
3
100
AcDbLine
 10
166.7195019653692
 20
369.9637876417625
 30
0.0000000000000000
 11
166.6866199441779
 21
369.0221697544773
 31
0.0000000000000000
  0
ARC
  5
32F
100
AcDbEntity
  8
MAIN0
  6
CONTINUOUS
 62
3
100
AcDbCircle
 10
164.1194494390187
 20
375.3711647194425
 30
0.0000000000000000
 40
6.000000000000000
100
AcDbArc
 50
296.0568329316739
 51
359.9999999999997
  0
LINE
  5
330
100
AcDbEntity
  8
MAIN0
  6
CONTINUOUS
 62
3
100
AcDbLine
 10
170.1194494390190
 20
388.7711647215023
 30
0.0000000000000000
 11
170.1194494390188
 21
375.3711647194422
 31
0.0000000000000000
  0
LINE
  5
331
100
AcDbEntity
  8
MAIN0
  6
CONTINUOUS
 62
3
100
AcDbLine
 10
170.1194494390189
 20
388.7711647215022
 30
0.0000000000000000
 11
170.7194494390190
 21
389.3711647215022
 31
0.0000000000000000
  0
LINE
  5
332
100
AcDbEntity
  8
MAIN0
  6
CONTINUOUS
 62
3
100
AcDbLine
 10
170.7194494390190
 20
389.3711647215023
 30
0.0000000000000000
 11
176.1194494390188
 21
389.3711647215023
 31
0.0000000000000000
  0
LINE
  5
333
100
AcDbEntity
  8
MAIN0
  6
CONTINUOUS
 62
3
100
AcDbLine
 10
176.1194494390204
 20
389.3711647215023
 30
0.0000000000000000
 11
176.1194494390204
 21
404.3711647215023
 31
0.0000000000000000
  0
LINE
  5
334
100
AcDbEntity
  8
MAIN0
  6
CONTINUOUS
 62
3
100
AcDbLine
 10
171.6194494390205
 20
404.3711647215023
 30
0.0000000000000000
 11
176.1194494390205
 21
404.3711647215023
 31
0.0000000000000000
  0
LINE
  5
335
100
AcDbEntity
  8
MAIN0
  6
CONTINUOUS
 62
3
100
AcDbLine
 10
171.6194494390205
 20
404.3711647215022
 30
0.0000000000000000
 11
170.6194494390204
 21
405.3711647215022
 31
0.0000000000000000
  0
LINE
  5
336
100
AcDbEntity
  8
MAIN0
  6
CONTINUOUS
 62
3
100
AcDbLine
 10
170.6194494390205
 20
420.5711647215023
 30
0.0000000000000000
 11
170.6194494390205
 21
405.3711647215023
 31
0.0000000000000000
  0
LINE
  5
337
100
AcDbEntity
  8
MAIN0
  6
CONTINUOUS
 62
3
100
AcDbLine
 10
110.6194494390206
 20
418.3711647215021
 30
0.0000000000000000
 11
170.6194494390206
 21
418.3711647215021
 31
0.0000000000000000
  0
LINE
  5
338
100
AcDbEntity
  8
MAIN0
  6
CONTINUOUS
 62
3
100
AcDbLine
 10
123.1194494390533
 20
364.3711647215022
 30
0.0000000000000000
 11
111.1194494390207
 21
376.3711647216658
 31
0.0000000000000000
  0
LINE
  5
339
100
AcDbEntity
  8
MAIN0
  6
CONTINUOUS
 62
3
100
AcDbLine
 10
123.1194494390532
 20
364.3711647215021
 30
0.0000000000000000
 11
158.1194494389882
 21
364.3711647215021
 31
0.0000000000000000
  0
LINE
  5
33A
100
AcDbEntity
  8
MAIN0
  6
CONTINUOUS
 62
3
100
AcDbLine
 10
111.1194494390207
 20
388.7711647215022
 30
0.0000000000000000
 11
111.1194494390207
 21
376.3711647216658
 31
0.0000000000000000
  0
LINE
  5
33B
100
AcDbEntity
  8
MAIN0
  6
CONTINUOUS
 62
3
100
AcDbLine
 10
170.1194494390209
 20
388.7711647215042
 30
0.0000000000000000
 11
170.1194494390209
 21
376.3711647216658
 31
0.0000000000000000
  0
LINE
  5
33C
100
AcDbEntity
  8
MAIN0
  6
CONTINUOUS
 62
3
100
AcDbLine
 10
158.1194494389883
 20
364.3711647215025
 30
0.0000000000000000
 11
170.1194494390208
 21
376.3711647216659
 31
0.0000000000000000
  0
LINE
  5
33D
100
AcDbEntity
  8
MAIN0
  6
CONTINUOUS
 62
3
100
AcDbLine
 10
110.6194494390206
 20
418.3711647215021
 30
0.0000000000000000
 11
110.6194494390206
 21
404.3711647215027
 31
0.0000000000000000
  0
LINE
  5
33E
100
AcDbEntity
  8
MAIN0
  6
CONTINUOUS
 62
3
100
AcDbLine
 10
105.1194494390206
 20
404.3711647215021
 30
0.0000000000000000
 11
105.1194494390206
 21
389.3711647215023
 31
0.0000000000000000
  0
LINE
  5
33F
100
AcDbEntity
  8
MAIN0
  6
CONTINUOUS
 62
3
100
AcDbLine
 10
105.1194494390207
 20
404.3711647215029
 30
0.0000000000000000
 11
110.6194494390205
 21
404.3711647215029
 31
0.0000000000000000
  0
LINE
  5
340
100
AcDbEntity
  8
MAIN0
  6
CONTINUOUS
 62
3
100
AcDbLine
 10
170.6194494390206
 20
404.3711647215021
 30
0.0000000000000000
 11
176.1194494390206
 21
404.3711647215021
 31
0.0000000000000000
  0
LINE
  5
341
100
AcDbEntity
  8
MAIN0
  6
CONTINUOUS
 62
3
100
AcDbLine
 10
170.6194494390206
 20
418.3711647215021
 30
0.0000000000000000
 11
170.6194494390206
 21
404.3711647215021
 31
0.0000000000000000
  0
LINE
  5
342
100
AcDbEntity
  8
MAIN0
  6
CONTINUOUS
 62
3
100
AcDbLine
 10
176.1194494390205
 20
389.3711647215021
 30
0.0000000000000000
 11
176.1194494390205
 21
404.3711647215023
 31
0.0000000000000000
  0
LINE
  5
343
100
AcDbEntity
  8
MAIN0
  6
CONTINUOUS
 62
3
100
AcDbLine
 10
77.61944943902051
 20
422.8711647215022
 30
0.0000000000000000
 11
79.11944943902043
 21
424.3711647215021
 31
0.0000000000000000
  0
LINE
  5
344
100
AcDbEntity
  8
MAIN0
  6
CONTINUOUS
 62
3
100
AcDbLine
 10
202.1194494390204
 20
424.3711647215022
 30
0.0000000000000000
 11
203.6194494390205
 21
422.8711647215022
 31
0.0000000000000000
  0
LINE
  5
345
100
AcDbEntity
  8
MAIN0
  6
CONTINUOUS
 62
3
100
AcDbLine
 10
73.61945065129601
 20
457.5711647236481
 30
0.0000000000000000
 11
78.11944943902120
 21
457.5711647236481
 31
0.0000000000000000
  0
ARC
  5
346
100
AcDbEntity
  8
MAIN0
  6
CONTINUOUS
 62
3
100
AcDbCircle
 10
73.61944943924419
 20
455.5711647236483
 30
0.0000000000000000
 40
2.000000000000000
100
AcDbArc
 50
90.00000000057449
 51
180.0000000000000
  0
LINE
  5
347
100
AcDbEntity
  8
MAIN0
  6
CONTINUOUS
 62
3
100
AcDbLine
 10
71.61944943924448
 20
394.0711647215023
 30
0.0000000000000000
 11
71.61944943924436
 21
455.5711645811903
 31
0.0000000000000000
  0
LINE
  5
348
100
AcDbEntity
  8
MAIN0
  6
CONTINUOUS
 62
3
100
AcDbLine
 10
72.81944943924407
 20
426.0711647234760
 30
0.0000000000000000
 11
72.81944943924412
 21
394.0711647215021
 31
0.0000000000000000
  0
LINE
  5
349
100
AcDbEntity
  8
MAIN0
  6
CONTINUOUS
 62
3
100
AcDbLine
 10
78.11944943902100
 20
426.0711647234759
 30
0.0000000000000000
 11
72.81944943924424
 21
426.0711647234759
 31
0.0000000000000000
  0
LINE
  5
34A
100
AcDbEntity
  8
MAIN0
  6
CONTINUOUS
 62
3
100
AcDbLine
 10
203.1194494390211
 20
457.5711647236483
 30
0.0000000000000000
 11
207.6194482271924
 21
457.5711647236483
 31
0.0000000000000000
  0
ARC
  5
34B
100
AcDbEntity
  8
MAIN0
  6
CONTINUOUS
 62
3
100
AcDbCircle
 10
207.6194494392443
 20
455.5711647236485
 30
0.0000000000000000
 40
2.000000000000000
100
AcDbArc
 50
0.0000000000000000
 51
89.99999999942553
  0
LINE
  5
34C
100
AcDbEntity
  8
MAIN0
  6
CONTINUOUS
 62
3
100
AcDbLine
 10
209.6194494392443
 20
394.0711647215020
 30
0.0000000000000000
 11
209.6194494392443
 21
455.5711645811907
 31
0.0000000000000000
  0
LINE
  5
34D
100
AcDbEntity
  8
MAIN0
  6
CONTINUOUS
 62
3
100
AcDbLine
 10
208.4194494392443
 20
426.0711647213290
 30
0.0000000000000000
 11
203.1194494390210
 21
426.0711647213290
 31
0.0000000000000000
  0
LINE
  5
34E
100
AcDbEntity
  8
MAIN0
  6
CONTINUOUS
 62
3
100
AcDbLine
 10
208.4194494392446
 20
426.0711647213290
 30
0.0000000000000000
 11
208.4194494392445
 21
394.0711647215018
 31
0.0000000000000000
  0
LINE
  5
34F
100
AcDbEntity
  8
MAIN0
  6
CONTINUOUS
 62
3
100
AcDbLine
 10
208.4194494392445
 20
394.0711647215020
 30
0.0000000000000000
 11
209.6194494392443
 21
394.0711647215020
 31
0.0000000000000000
  0
LINE
  5
350
100
AcDbEntity
  8
MAIN0
  6
CONTINUOUS
 62
3
100
AcDbLine
 10
200.6194494390205
 20
395.2711647215021
 30
0.0000000000000000
 11
200.6194494390205
 21
394.0711647215020
 31
0.0000000000000000
  0
LINE
  5
351
100
AcDbEntity
  8
MAIN0
  6
CONTINUOUS
 62
3
100
AcDbLine
 10
200.6194494390205
 20
395.2711647215021
 30
0.0000000000000000
 11
205.9194494390208
 21
395.2711647215021
 31
0.0000000000000000
  0
LINE
  5
352
100
AcDbEntity
  8
MAIN0
  6
CONTINUOUS
 62
3
100
AcDbLine
 10
200.6194494390205
 20
394.0711647215020
 30
0.0000000000000000
 11
206.1194494390205
 21
394.0711647215020
 31
0.0000000000000000
  0
ARC
  5
353
100
AcDbEntity
  8
MAIN0
  6
CONTINUOUS
 62
3
100
AcDbCircle
 10
205.9194494390208
 20
396.2711647215021
 30
0.0000000000000000
 40
1.000000000000000
100
AcDbArc
 50
270.0000000000000
 51
360.0000000000000
  0
ARC
  5
354
100
AcDbEntity
  8
MAIN0
  6
CONTINUOUS
 62
3
100
AcDbCircle
 10
206.1194494390205
 20
396.0711647215020
 30
0.0000000000000000
 40
2.000000000000000
100
AcDbArc
 50
270.0000000000000
 51
360.0000000000000
  0
LINE
  5
355
100
AcDbEntity
  8
MAIN0
  6
CONTINUOUS
 62
3
100
AcDbLine
 10
80.61944943902051
 20
395.2711647215022
 30
0.0000000000000000
 11
75.31944943902028
 21
395.2711647215022
 31
0.0000000000000000
  0
LINE
  5
356
100
AcDbEntity
  8
MAIN0
  6
CONTINUOUS
 62
3
100
AcDbLine
 10
80.61944943902051
 20
394.0711647215021
 30
0.0000000000000000
 11
75.11944943902051
 21
394.0711647215022
 31
0.0000000000000000
  0
LINE
  5
357
100
AcDbEntity
  8
MAIN0
  6
CONTINUOUS
 62
3
100
AcDbLine
 10
80.61944943902051
 20
395.2711647215025
 30
0.0000000000000000
 11
80.61944943902051
 21
394.0711647215024
 31
0.0000000000000000
  0
ARC
  5
358
100
AcDbEntity
  8
MAIN0
  6
CONTINUOUS
 62
3
100
AcDbCircle
 10
75.31944943902028
 20
396.2711647215025
 30
0.0000000000000000
 40
1.000000000000000
100
AcDbArc
 50
179.9999999999997
 51
269.9999999999997
  0
ARC
  5
359
100
AcDbEntity
  8
MAIN0
  6
CONTINUOUS
 62
3
100
AcDbCircle
 10
75.11944943902051
 20
396.0711647215025
 30
0.0000000000000000
 40
2.000000000000000
100
AcDbArc
 50
179.9999999999997
 51
269.9999999999997
  0
LINE
  5
35A
100
AcDbEntity
  8
MAIN0
  6
CONTINUOUS
 62
3
100
AcDbLine
 10
72.81944943879654
 20
394.0711647215022
 30
0.0000000000000000
 11
71.61944943879672
 21
394.0711647215022
 31
0.0000000000000000
  0
DIMENSION
  5
363
100
AcDbEntity
  8
MAIN0
  6
CONTINUOUS
 62
3
100
AcDbDimension
  2
*D44
 10
78.11944943902122
 20
521.0278557439458
 30
0.0000000000000000
 11
140.6194494390212
 21
521.5278557439458
 31
0.0000000000000000
 70
32
  3
MAIN001
100
AcDbAlignedDimension
 13
203.1194494390212
 23
474.3711647228417
 33
0.0000000000000000
 14
78.11944943902122
 24
474.3711647228417
 34
0.0000000000000000
100
AcDbRotatedDimension
1001
ACAD
1000
DSTYLE
1002
{
1070
   173
1070
     1
1070
     6
1000
_OPEN
1070
     7
1000
_OPEN
1070
    41
1040
6.000000
1002
}
  0
DIMENSION
  5
36E
100
AcDbEntity
  8
MAIN0
  6
CONTINUOUS
 62
3
100
AcDbDimension
  2
*D45
 10
231.2589325128720
 20
339.3711647235230
 30
0.0000000000000000
 11
230.7589325128720
 21
349.8711647235230
 31
0.0000000000000000
 70
32
  3
MAIN001
100
AcDbAlignedDimension
 13
202.6194494390208
 23
360.3711647235230
 33
0.0000000000000000
 14
203.2194494390209
 24
339.3711647235230
 34
0.0000000000000000
 50
90.00000000000000
100
AcDbRotatedDimension
1001
ACAD
1000
DSTYLE
1002
{
1070
   173
1070
     1
1070
     6
1000
_OPEN
1070
     7
1000
_OPEN
1070
    41
1040
6.000000
1070
   287
1070
     0
1002
}
  0
DIMENSION
  5
377
100
AcDbEntity
  8
MAIN0
  6
CONTINUOUS
 62
3
100
AcDbDimension
  2
*D46
 10
231.2589325128720
 20
360.3711647235230
 30
0.0000000000000000
 11
230.7589325128720
 21
380.3711647235230
 31
0.0000000000000000
 70
32
  3
MAIN001
100
AcDbAlignedDimension
 13
202.6194494390212
 23
400.3711647235230
 33
0.0000000000000000
 14
202.6194494390208
 24
360.3711647235230
 34
0.0000000000000000
 50
90.00000000000000
100
AcDbRotatedDimension
1001
ACAD
1000
DSTYLE
1002
{
1070
   173
1070
     1
1070
     6
1000
_OPEN
1070
     7
1000
_OPEN
1070
    41
1040
6.000000
1002
}
  0
DIMENSION
  5
382
100
AcDbEntity
  8
MAIN0
  6
CONTINUOUS
 62
3
100
AcDbDimension
  2
*D47
 10
231.2589325128720
 20
400.3711647235230
 30
0.0000000000000000
 11
230.7589325128720
 21
412.3711647225125
 31
0.0000000000000000
 70
32
  3
MAIN001
100
AcDbAlignedDimension
 13
203.5194488191262
 23
424.3711647215021
 33
0.0000000000000000
 14
202.6194494390212
 24
400.3711647235230
 34
0.0000000000000000
 50
90.00000000000000
100
AcDbRotatedDimension
1001
ACAD
1000
DSTYLE
1002
{
1070
   173
1070
     1
1070
     6
1000
_OPEN
1070
     7
1000
_OPEN
1070
    41
1040
6.000000
1070
   287
1070
     0
1002
}
  0
DIMENSION
  5
38C
100
AcDbEntity
  8
MAIN0
  6
CONTINUOUS
 62
3
100
AcDbDimension
  2
*D48
 10
197.6194494390210
 20
377.6052473785471
 30
0.0000000000000000
 11
187.0111673088354
 21
379.1052473785471
 31
0.0000000000000000
 70
160
  3
MAIN001
100
AcDbAlignedDimension
 13
203.6194494390205
 23
359.3711647235225
 33
0.0000000000000000
 14
197.6194494390210
 24
360.3711647235230
 34
0.0000000000000000
100
AcDbRotatedDimension
1001
ACAD
1000
DSTYLE
1002
{
1070
   173
1070
     1
1070
     6
1000
_OPEN
1070
     7
1000
_OPEN
1070
    41
1040
6.000000
1070
   287
1070
     0
1002
}
  0
LINE
  5
38D
100
AcDbEntity
  8
MAIN0
  6
CONTINUOUS
 62
3
100
AcDbLine
 10
1068.057957657757
 20
360.3711647239336
 30
0.0000000000000000
 11
1068.057957657757
 21
400.3711647239340
 31
0.0000000000000000
  0
LINE
  5
38E
100
AcDbEntity
  8
MAIN0
  6
CONTINUOUS
 62
3
100
AcDbLine
 10
1062.057957657757
 20
339.7711647239341
 30
0.0000000000000000
 11
1062.057957657757
 21
359.3711647239336
 31
0.0000000000000000
  0
LINE
  5
38F
100
AcDbEntity
  8
MAIN0
  6
CONTINUOUS
 62
3
100
AcDbLine
 10
1068.057957657757
 20
360.3711647239336
 30
0.0000000000000000
 11
1063.057957657757
 21
360.3711647239336
 31
0.0000000000000000
  0
LINE
  5
390
100
AcDbEntity
  8
MAIN0
  6
CENTER
 62
3
100
AcDbLine
 10
1125.057957657757
 20
329.3711647239337
 30
0.0000000000000000
 11
1125.057957657757
 21
484.3711647232525
 31
0.0000000000000000
  0
LINE
  5
391
100
AcDbEntity
  8
MAIN0
  6
CONTINUOUS
 62
3
100
AcDbLine
 10
1063.557957657757
 20
424.3711647239336
 30
0.0000000000000000
 11
1093.457957657755
 21
424.3711647239336
 31
0.0000000000000000
  0
LINE
  5
392
100
AcDbEntity
  8
MAIN0
  6
CONTINUOUS
 62
3
100
AcDbLine
 10
1156.657957657757
 20
424.3711647239336
 30
0.0000000000000000
 11
1186.557957657757
 21
424.3711647239336
 31
0.0000000000000000
  0
LINE
  5
393
100
AcDbEntity
  8
MAIN0
  6
CONTINUOUS
 62
3
100
AcDbLine
 10
1063.057957657757
 20
400.3711647239339
 30
0.0000000000000000
 11
1068.057957657757
 21
400.3711647239339
 31
0.0000000000000000
  0
LINE
  5
394
100
AcDbEntity
  8
MAIN0
  6
CONTINUOUS
 62
3
100
AcDbLine
 10
1062.057957657757
 20
401.3711647239344
 30
0.0000000000000000
 11
1063.057957657757
 21
400.3711647239342
 31
0.0000000000000000
  0
LINE
  5
395
100
AcDbEntity
  8
MAIN0
  6
CONTINUOUS
 62
3
100
AcDbLine
 10
1063.057957657757
 20
360.3711647239339
 30
0.0000000000000000
 11
1062.057957657757
 21
359.3711647239337
 31
0.0000000000000000
  0
LINE
  5
396
100
AcDbEntity
  8
MAIN0
  6
CONTINUOUS
 62
3
100
AcDbLine
 10
1062.057957657757
 20
339.7711647239339
 30
0.0000000000000000
 11
1062.457957657757
 21
339.3711647239339
 31
0.0000000000000000
  0
LINE
  5
397
100
AcDbEntity
  8
MAIN0
  6
CONTINUOUS
 62
3
100
AcDbLine
 10
1182.057957657757
 20
360.3711647239336
 30
0.0000000000000000
 11
1182.057957657757
 21
400.3711647239336
 31
0.0000000000000000
  0
LINE
  5
398
100
AcDbEntity
  8
MAIN0
  6
CONTINUOUS
 62
3
100
AcDbLine
 10
1188.057957657757
 20
339.7711647239332
 30
0.0000000000000000
 11
1188.057957657757
 21
359.3711647239331
 31
0.0000000000000000
  0
LINE
  5
399
100
AcDbEntity
  8
MAIN0
  6
CONTINUOUS
 62
3
100
AcDbLine
 10
1182.057957657757
 20
360.3711647239337
 30
0.0000000000000000
 11
1187.057957657757
 21
360.3711647239336
 31
0.0000000000000000
  0
LINE
  5
39A
100
AcDbEntity
  8
MAIN0
  6
CONTINUOUS
 62
3
100
AcDbLine
 10
1187.057957657758
 20
400.3711647239335
 30
0.0000000000000000
 11
1182.057957657758
 21
400.3711647239335
 31
0.0000000000000000
  0
LINE
  5
39B
100
AcDbEntity
  8
MAIN0
  6
CONTINUOUS
 62
3
100
AcDbLine
 10
1188.057957657757
 20
401.3711647239337
 30
0.0000000000000000
 11
1187.057957657757
 21
400.3711647239335
 31
0.0000000000000000
  0
LINE
  5
39C
100
AcDbEntity
  8
MAIN0
  6
CONTINUOUS
 62
3
100
AcDbLine
 10
1187.057957657757
 20
360.3711647239339
 30
0.0000000000000000
 11
1188.057957657757
 21
359.3711647239340
 31
0.0000000000000000
  0
LINE
  5
39D
100
AcDbEntity
  8
MAIN0
  6
CONTINUOUS
 62
3
100
AcDbLine
 10
1188.057957657757
 20
339.7711647239332
 30
0.0000000000000000
 11
1187.657957657757
 21
339.3711647239333
 31
0.0000000000000000
  0
LINE
  5
39E
100
AcDbEntity
  8
MAIN0
  6
CONTINUOUS
 62
3
100
AcDbLine
 10
1191.357957657757
 20
435.5711647219128
 30
0.0000000000000000
 11
1191.357957657757
 21
396.2711647219130
 31
0.0000000000000000
  0
LINE
  5
39F
100
AcDbEntity
  8
MAIN0
  6
CONTINUOUS
 62
3
100
AcDbLine
 10
1192.557957657757
 20
396.0711647219127
 30
0.0000000000000000
 11
1192.557957657757
 21
445.5711647219125
 31
0.0000000000000000
  0
ARC
  5
3A0
100
AcDbEntity
  8
MAIN0
  6
CONTINUOUS
 62
3
100
AcDbCircle
 10
1190.557957657757
 20
445.5711647219125
 30
0.0000000000000000
 40
2.000000000000000
100
AcDbArc
 50
0.0000000000000000
 51
89.99999999942553
  0
LINE
  5
3A1
100
AcDbEntity
  8
MAIN0
  6
CONTINUOUS
 62
3
100
AcDbLine
 10
1154.057957657757
 20
425.5711647219125
 30
0.0000000000000000
 11
1189.021282615828
 21
425.5711647219125
 31
0.0000000000000000
  0
LINE
  5
3A2
100
AcDbEntity
  8
MAIN0
  6
CONTINUOUS
 62
3
100
AcDbLine
 10
1065.057957657757
 20
399.2711647219128
 30
0.0000000000000000
 11
1062.157957657757
 21
399.2711647219128
 31
0.0000000000000000
  0
ARC
  5
3A3
100
AcDbEntity
  8
MAIN0
  6
CONTINUOUS
 62
3
100
AcDbCircle
 10
1061.757957657757
 20
399.2711647219126
 30
0.0000000000000000
 40
1.200000000000000
100
AcDbArc
 50
180.0000000000067
 51
270.0000000000046
  0
ARC
  5
3A4
100
AcDbEntity
  8
MAIN0
  6
CONTINUOUS
 62
3
100
AcDbCircle
 10
1061.757957657757
 20
424.3711647219127
 30
0.0000000000000000
 40
1.200000000000000
100
AcDbArc
 50
90.00000000000000
 51
180.0000000000000
  0
ARC
  5
3A5
100
AcDbEntity
  8
MAIN0
  6
CONTINUOUS
 62
3
100
AcDbCircle
 10
1062.157957657757
 20
423.9711647219126
 30
0.0000000000000000
 40
0.4000000000000000
100
AcDbArc
 50
90.00000000000259
 51
180.0000000000000
  0
ARC
  5
3A6
100
AcDbEntity
  8
MAIN0
  6
CONTINUOUS
 62
3
100
AcDbCircle
 10
1062.157957657757
 20
399.6711647219127
 30
0.0000000000000000
 40
0.4000000000000000
100
AcDbArc
 50
180.0000000000067
 51
269.9999999994322
  0
LINE
  5
3A7
100
AcDbEntity
  8
MAIN0
  6
CONTINUOUS
 62
3
100
AcDbLine
 10
1065.057957657757
 20
398.0711647219127
 30
0.0000000000000000
 11
1061.757957828565
 21
398.0711647219127
 31
0.0000000000000000
  0
LINE
  5
3A8
100
AcDbEntity
  8
MAIN0
  6
CONTINUOUS
 62
3
100
AcDbLine
 10
1060.557957657757
 20
424.1711647219127
 30
0.0000000000000000
 11
1060.557957657757
 21
399.2711647219126
 31
0.0000000000000000
  0
LINE
  5
3A9
100
AcDbEntity
  8
MAIN0
  6
CONTINUOUS
 62
3
100
AcDbLine
 10
1065.057957657757
 20
399.2711647219128
 30
0.0000000000000000
 11
1065.057957657757
 21
398.0711647219125
 31
0.0000000000000000
  0
LINE
  5
3AA
100
AcDbEntity
  8
MAIN0
  6
CONTINUOUS
 62
3
100
AcDbLine
 10
1075.757957657756
 20
424.3711647219129
 30
0.0000000000000000
 11
1061.757957657757
 21
410.3711647219064
 31
0.0000000000000000
  0
LINE
  5
3AB
100
AcDbEntity
  8
MAIN0
  6
CONTINUOUS
 62
3
100
AcDbLine
 10
1065.057957657757
 20
397.2711647219125
 30
0.0000000000000000
 11
1065.057957657757
 21
396.0711647219127
 31
0.0000000000000000
  0
LINE
  5
3AC
100
AcDbEntity
  8
MAIN0
  6
CONTINUOUS
 62
3
100
AcDbLine
 10
1059.057957657757
 20
434.1711647219124
 30
0.0000000000000000
 11
1059.057957657757
 21
398.0711647219125
 31
0.0000000000000000
  0
LINE
  5
3AD
100
AcDbEntity
  8
MAIN0
  6
CONTINUOUS
 62
3
100
AcDbLine
 10
1065.057957657757
 20
397.2711647219127
 30
0.0000000000000000
 11
1061.257957710715
 21
397.2711647219127
 31
0.0000000000000000
  0
LINE
  5
3AE
100
AcDbEntity
  8
MAIN0
  6
CONTINUOUS
 62
3
100
AcDbLine
 10
1065.057957657757
 20
396.0711647219129
 30
0.0000000000000000
 11
1061.057957699901
 21
396.0711647219129
 31
0.0000000000000000
  0
ARC
  5
3AF
100
AcDbEntity
  8
MAIN0
  6
CONTINUOUS
 62
3
100
AcDbCircle
 10
1061.057957657757
 20
398.0711647219125
 30
0.0000000000000000
 40
2.000000000000000
100
AcDbArc
 50
180.0000000000067
 51
269.9999999994322
  0
ARC
  5
3B0
100
AcDbEntity
  8
MAIN0
  6
CONTINUOUS
 62
3
100
AcDbCircle
 10
1061.257957657757
 20
398.2711647219128
 30
0.0000000000000000
 40
1.000000000000000
100
AcDbArc
 50
180.0000000000067
 51
269.9999999994322
  0
ARC
  5
3B1
100
AcDbEntity
  8
MAIN0
  6
CONTINUOUS
 62
3
100
AcDbCircle
 10
1060.457957657757
 20
434.1711647219124
 30
0.0000000000000000
 40
1.400000000000000
100
AcDbArc
 50
98.21321070173772
 51
180.0000000000000
  0
LINE
  5
3B2
100
AcDbEntity
  8
MAIN0
  6
CONTINUOUS
 62
3
100
AcDbLine
 10
1058.757957657757
 20
435.5711647219127
 30
0.0000000000000000
 11
1058.757957657757
 21
396.2711647219134
 31
0.0000000000000000
  0
LINE
  5
3B3
100
AcDbEntity
  8
MAIN0
  6
CONTINUOUS
 62
3
100
AcDbLine
 10
1057.557957657757
 20
396.0711647219132
 30
0.0000000000000000
 11
1057.557957657757
 21
445.5711647219125
 31
0.0000000000000000
  0
ARC
  5
3B4
100
AcDbEntity
  8
MAIN0
  6
CONTINUOUS
 62
3
100
AcDbCircle
 10
1059.557957657757
 20
445.5711647219125
 30
0.0000000000000000
 40
2.000000000000000
100
AcDbArc
 50
90.00000000057449
 51
180.0000000000000
  0
LINE
  5
3B5
100
AcDbEntity
  8
MAIN0
  6
CONTINUOUS
 62
3
100
AcDbLine
 10
1191.357957657757
 20
435.5711647219128
 30
0.0000000000000000
 11
1058.757957657757
 21
435.5711647219127
 31
0.0000000000000000
  0
LINE
  5
3B6
100
AcDbEntity
  8
MAIN0
  6
CONTINUOUS
 62
3
100
AcDbLine
 10
1188.357957657827
 20
423.7711647219127
 30
0.0000000000000000
 11
1188.357957657820
 21
399.6711647219128
 31
0.0000000000000000
  0
LINE
  5
3B7
100
AcDbEntity
  8
MAIN0
  6
CONTINUOUS
 62
3
100
AcDbLine
 10
1060.257957657807
 20
425.3711647219126
 30
0.0000000000000000
 11
1060.257957657811
 21
398.2711647219128
 31
0.0000000000000000
  0
LINE
  5
3B8
100
AcDbEntity
  8
MAIN0
  6
CONTINUOUS
 62
3
100
AcDbLine
 10
1185.057957657757
 20
399.2711647219126
 30
0.0000000000000000
 11
1187.957957657757
 21
399.2711647219126
 31
0.0000000000000000
  0
ARC
  5
3B9
100
AcDbEntity
  8
MAIN0
  6
CONTINUOUS
 62
3
100
AcDbCircle
 10
1188.357957657757
 20
399.2711647219126
 30
0.0000000000000000
 40
1.200000000000000
100
AcDbArc
 50
269.9999999999953
 51
359.9999999999934
  0
ARC
  5
3BA
100
AcDbEntity
  8
MAIN0
  6
CONTINUOUS
 62
3
100
AcDbCircle
 10
1188.357957657757
 20
424.3711647219127
 30
0.0000000000000000
 40
1.200000000000000
100
AcDbArc
 50
0.0000000000000000
 51
90.00000000000000
  0
ARC
  5
3BB
100
AcDbEntity
  8
MAIN0
  6
CONTINUOUS
 62
3
100
AcDbCircle
 10
1187.957957657757
 20
423.9711647219126
 30
0.0000000000000000
 40
0.4000000000000000
100
AcDbArc
 50
0.0000000000000000
 51
89.99999999999740
  0
ARC
  5
3BC
100
AcDbEntity
  8
MAIN0
  6
CONTINUOUS
 62
3
100
AcDbCircle
 10
1187.957957657757
 20
399.6711647219127
 30
0.0000000000000000
 40
0.4000000000000000
100
AcDbArc
 50
270.0000000005678
 51
359.9999999999934
  0
LINE
  5
3BD
100
AcDbEntity
  8
MAIN0
  6
CONTINUOUS
 62
3
100
AcDbLine
 10
1185.057957657757
 20
398.0711647219128
 30
0.0000000000000000
 11
1188.357957486949
 21
398.0711647219128
 31
0.0000000000000000
  0
LINE
  5
3BE
100
AcDbEntity
  8
MAIN0
  6
CONTINUOUS
 62
3
100
AcDbLine
 10
1189.557957657757
 20
424.1711647219127
 30
0.0000000000000000
 11
1189.557957657757
 21
399.2711647219126
 31
0.0000000000000000
  0
LINE
  5
3BF
100
AcDbEntity
  8
MAIN0
  6
CONTINUOUS
 62
3
100
AcDbLine
 10
1185.057957657757
 20
399.2711647219126
 30
0.0000000000000000
 11
1185.057957657757
 21
398.0711647219128
 31
0.0000000000000000
  0
LINE
  5
3C0
100
AcDbEntity
  8
MAIN0
  6
CONTINUOUS
 62
3
100
AcDbLine
 10
1174.357957657757
 20
424.3711647219128
 30
0.0000000000000000
 11
1188.357957657823
 21
410.3711647218393
 31
0.0000000000000000
  0
LINE
  5
3C1
100
AcDbEntity
  8
MAIN0
  6
CONTINUOUS
 62
3
100
AcDbLine
 10
1185.057957657757
 20
397.2711647219128
 30
0.0000000000000000
 11
1185.057957657757
 21
396.0711647219125
 31
0.0000000000000000
  0
LINE
  5
3C2
100
AcDbEntity
  8
MAIN0
  6
CONTINUOUS
 62
3
100
AcDbLine
 10
1191.057957657757
 20
434.1711647219124
 30
0.0000000000000000
 11
1191.057957657757
 21
398.0711647219125
 31
0.0000000000000000
  0
LINE
  5
3C3
100
AcDbEntity
  8
MAIN0
  6
CONTINUOUS
 62
3
100
AcDbLine
 10
1189.857957657757
 20
425.3711647219125
 30
0.0000000000000000
 11
1189.857957657757
 21
398.2711647219128
 31
0.0000000000000000
  0
LINE
  5
3C4
100
AcDbEntity
  8
MAIN0
  6
CONTINUOUS
 62
3
100
AcDbLine
 10
1185.057957657757
 20
397.2711647219128
 30
0.0000000000000000
 11
1188.857957604799
 21
397.2711647219128
 31
0.0000000000000000
  0
LINE
  5
3C5
100
AcDbEntity
  8
MAIN0
  6
CONTINUOUS
 62
3
100
AcDbLine
 10
1185.057957657757
 20
396.0711647219125
 30
0.0000000000000000
 11
1189.057957615612
 21
396.0711647219125
 31
0.0000000000000000
  0
ARC
  5
3C6
100
AcDbEntity
  8
MAIN0
  6
CONTINUOUS
 62
3
100
AcDbCircle
 10
1189.057957657757
 20
398.0711647219125
 30
0.0000000000000000
 40
2.000000000000000
100
AcDbArc
 50
270.0000000005678
 51
359.9999999999934
  0
ARC
  5
3C7
100
AcDbEntity
  8
MAIN0
  6
CONTINUOUS
 62
3
100
AcDbCircle
 10
1188.857957657757
 20
398.2711647219128
 30
0.0000000000000000
 40
1.000000000000000
100
AcDbArc
 50
270.0000000005678
 51
359.9999999999934
  0
ARC
  5
3C8
100
AcDbEntity
  8
MAIN0
  6
CONTINUOUS
 62
3
100
AcDbCircle
 10
1189.657957657757
 20
434.1711647219124
 30
0.0000000000000000
 40
1.400000000000000
100
AcDbArc
 50
0.0000000000000000
 51
81.78678929826229
  0
LINE
  5
3C9
100
AcDbEntity
  8
MAIN0
  6
CONTINUOUS
 62
3
100
AcDbLine
 10
1060.257957657757
 20
425.5711647219131
 30
0.0000000000000000
 11
1189.857957657757
 21
425.5711647219131
 31
0.0000000000000000
  0
LINE
  5
3CA
100
AcDbEntity
  8
MAIN0
  6
CONTINUOUS
 62
3
100
AcDbLine
 10
1062.557957657757
 20
457.5711647240587
 30
0.0000000000000000
 11
1062.557957657757
 21
474.3711647232524
 31
0.0000000000000000
  0
LINE
  5
3CB
100
AcDbEntity
  8
MAIN0
  6
CONTINUOUS
 62
3
100
AcDbLine
 10
1187.557957657757
 20
457.5711647240589
 30
0.0000000000000000
 11
1187.557957657757
 21
474.3711647232527
 31
0.0000000000000000
  0
LINE
  5
3CC
100
AcDbEntity
  8
MAIN0
  6
CONTINUOUS
 62
3
100
AcDbLine
 10
1059.557958869808
 20
447.5711647219124
 30
0.0000000000000000
 11
1190.557956445705
 21
447.5711647219124
 31
0.0000000000000000
  0
LINE
  5
3CD
100
AcDbEntity
  8
MAIN0
  6
CONTINUOUS
 62
3
100
AcDbLine
 10
1062.557957657757
 20
474.3711647232524
 30
0.0000000000000000
 11
1187.557957657757
 21
474.3711647232524
 31
0.0000000000000000
  0
LINE
  5
3CE
100
AcDbEntity
  8
MAIN0
  6
CONTINUOUS
 62
3
100
AcDbLine
 10
1062.157957657757
 20
424.3711647219129
 30
0.0000000000000000
 11
1187.957957037862
 21
424.3711647219129
 31
0.0000000000000000
  0
LINE
  5
3CF
100
AcDbEntity
  8
MAIN0
  6
CONTINUOUS
 62
3
100
AcDbLine
 10
1172.057957657758
 20
424.3711647221541
 30
0.0000000000000000
 11
1188.057957657758
 21
408.3711647221539
 31
0.0000000000000000
  0
LINE
  5
3D0
100
AcDbEntity
  8
MAIN0
  6
CONTINUOUS
 62
3
100
AcDbLine
 10
1069.057957657758
 20
424.3711647221537
 30
0.0000000000000000
 11
1181.057957657757
 21
424.3711647221537
 31
0.0000000000000000
  0
LINE
  5
3D1
100
AcDbEntity
  8
MAIN0
  6
CONTINUOUS
 62
3
100
AcDbLine
 10
1078.057957657757
 20
424.3711647221535
 30
0.0000000000000000
 11
1062.057957657757
 21
408.3711647221539
 31
0.0000000000000000
  0
LINE
  5
3D2
100
AcDbEntity
  8
MAIN0
  6
CONTINUOUS
 62
3
100
AcDbLine
 10
1084.327133947738
 20
350.3711647238204
 30
0.0000000000000000
 11
1165.788781367776
 21
350.3711647238204
 31
0.0000000000000000
  0
LINE
  5
3D3
100
AcDbEntity
  8
MAIN0
  6
CENTER
 62
3
100
AcDbLine
 10
1095.857957657757
 20
365.8711647221537
 30
0.0000000000000000
 11
1072.857957657757
 21
365.8711647221537
 31
0.0000000000000000
  0
LINE
  5
3D4
100
AcDbEntity
  8
MAIN0
  6
CENTER
 62
3
100
AcDbLine
 10
1084.357957657757
 20
377.3711647221537
 30
0.0000000000000000
 11
1084.357957657757
 21
354.3711647221537
 31
0.0000000000000000
  0
LINE
  5
3D5
100
AcDbEntity
  8
MAIN0
  6
CENTER
 62
3
100
AcDbLine
 10
1095.857957657757
 20
412.8711647221537
 30
0.0000000000000000
 11
1072.857957657757
 21
412.8711647221537
 31
0.0000000000000000
  0
LINE
  5
3D6
100
AcDbEntity
  8
MAIN0
  6
CENTER
 62
3
100
AcDbLine
 10
1084.357957657757
 20
424.3711647221537
 30
0.0000000000000000
 11
1084.357957657757
 21
401.3711647221537
 31
0.0000000000000000
  0
LINE
  5
3D7
100
AcDbEntity
  8
MAIN0
  6
CENTER
 62
3
100
AcDbLine
 10
1177.257957657757
 20
412.8711647221537
 30
0.0000000000000000
 11
1154.257957657757
 21
412.8711647221537
 31
0.0000000000000000
  0
LINE
  5
3D8
100
AcDbEntity
  8
MAIN0
  6
CENTER
 62
3
100
AcDbLine
 10
1165.757957657757
 20
424.3711647221537
 30
0.0000000000000000
 11
1165.757957657757
 21
401.3711647221537
 31
0.0000000000000000
  0
LINE
  5
3D9
100
AcDbEntity
  8
MAIN0
  6
CENTER
 62
3
100
AcDbLine
 10
1177.257957657757
 20
365.8711647221537
 30
0.0000000000000000
 11
1154.257957657757
 21
365.8711647221537
 31
0.0000000000000000
  0
LINE
  5
3DA
100
AcDbEntity
  8
MAIN0
  6
CENTER
 62
3
100
AcDbLine
 10
1165.757957657757
 20
377.3711647221537
 30
0.0000000000000000
 11
1165.757957657757
 21
354.3711647221537
 31
0.0000000000000000
  0
ARC
  5
3DB
100
AcDbEntity
  8
MAIN0
  6
CONTINUOUS
 62
3
100
AcDbCircle
 10
1125.057957657757
 20
389.3711647221537
 30
0.0000000000000000
 40
37.50000000000000
100
AcDbArc
 50
238.5760935141543
 51
301.4239064858458
  0
ARC
  5
3DC
100
AcDbEntity
  8
MAIN0
  6
CONTINUOUS
 62
3
100
AcDbCircle
 10
1084.357957657757
 20
365.8711647221537
 30
0.0000000000000000
 40
8.500000000000000
100
AcDbArc
 50
47.96929745604307
 51
372.0345964210294
  0
ARC
  5
3DD
100
AcDbEntity
  8
MAIN0
  6
CONTINUOUS
 62
3
100
AcDbCircle
 10
1165.757957657757
 20
365.8711647221537
 30
0.0000000000000000
 40
8.500000000000000
100
AcDbArc
 50
167.9654035789671
 51
492.0307025439610
  0
ARC
  5
3DE
100
AcDbEntity
  8
MAIN0
  6
CONTINUOUS
 62
3
100
AcDbCircle
 10
1165.757957657757
 20
412.8711647221537
 30
0.0000000000000000
 40
8.500000000000000
100
AcDbArc
 50
227.9692974560390
 51
552.0345964210328
  0
ARC
  5
3DF
100
AcDbEntity
  8
MAIN0
  6
CONTINUOUS
 62
3
100
AcDbCircle
 10
1084.357957657757
 20
412.8711647221537
 30
0.0000000000000000
 40
8.500000000000000
100
AcDbArc
 50
347.9654035789706
 51
672.0307025439569
  0
LINE
  5
3E0
100
AcDbEntity
  8
MAIN0
  6
CENTER
 62
3
100
AcDbLine
 10
1058.057957657757
 20
389.3711647221871
 30
0.0000000000000000
 11
1192.057957657757
 21
389.3711647221574
 31
0.0000000000000000
  0
CIRCLE
  5
3E1
100
AcDbEntity
  8
MAIN0
  6
CONTINUOUS
 62
3
100
AcDbCircle
 10
1084.357763679923
 20
365.8711647219127
 30
0.0000000000000000
 40
8.000000000000000
  0
LINE
  5
3E2
100
AcDbEntity
  8
MAIN0
  6
CONTINUOUS
 62
3
100
AcDbLine
 10
1084.357763679924
 20
370.4899668754295
 30
0.0000000000000000
 11
1080.357763679923
 21
368.1805657986708
 31
0.0000000000000000
  0
LINE
  5
3E3
100
AcDbEntity
  8
MAIN0
  6
CONTINUOUS
 62
3
100
AcDbLine
 10
1080.357763679923
 20
368.1805657986713
 30
0.0000000000000000
 11
1080.357763679923
 21
363.5617636451541
 31
0.0000000000000000
  0
LINE
  5
3E4
100
AcDbEntity
  8
MAIN0
  6
CONTINUOUS
 62
3
100
AcDbLine
 10
1080.357763679923
 20
363.5617636451540
 30
0.0000000000000000
 11
1084.357763679923
 21
361.2523625683955
 31
0.0000000000000000
  0
LINE
  5
3E5
100
AcDbEntity
  8
MAIN0
  6
CONTINUOUS
 62
3
100
AcDbLine
 10
1084.357763679923
 20
361.2523625683953
 30
0.0000000000000000
 11
1088.357763679924
 21
363.5617636451539
 31
0.0000000000000000
  0
LINE
  5
3E6
100
AcDbEntity
  8
MAIN0
  6
CONTINUOUS
 62
3
100
AcDbLine
 10
1088.357763679923
 20
363.5617636451541
 30
0.0000000000000000
 11
1088.357763679923
 21
368.1805657986713
 31
0.0000000000000000
  0
LINE
  5
3E7
100
AcDbEntity
  8
MAIN0
  6
CONTINUOUS
 62
3
100
AcDbLine
 10
1088.357763679923
 20
368.1805657986711
 30
0.0000000000000000
 11
1084.357763679923
 21
370.4899668754296
 31
0.0000000000000000
  0
CIRCLE
  5
3E8
100
AcDbEntity
  8
MAIN0
  6
CONTINUOUS
 62
3
100
AcDbCircle
 10
1084.357763679923
 20
412.8711647219127
 30
0.0000000000000000
 40
8.000000000000000
  0
LINE
  5
3E9
100
AcDbEntity
  8
MAIN0
  6
CONTINUOUS
 62
3
100
AcDbLine
 10
1084.357763679924
 20
417.4899668754300
 30
0.0000000000000000
 11
1080.357763679924
 21
415.1805657986716
 31
0.0000000000000000
  0
LINE
  5
3EA
100
AcDbEntity
  8
MAIN0
  6
CONTINUOUS
 62
3
100
AcDbLine
 10
1080.357763679923
 20
415.1805657986713
 30
0.0000000000000000
 11
1080.357763679923
 21
410.5617636451541
 31
0.0000000000000000
  0
LINE
  5
3EB
100
AcDbEntity
  8
MAIN0
  6
CONTINUOUS
 62
3
100
AcDbLine
 10
1080.357763679923
 20
410.5617636451538
 30
0.0000000000000000
 11
1084.357763679923
 21
408.2523625683953
 31
0.0000000000000000
  0
LINE
  5
3EC
100
AcDbEntity
  8
MAIN0
  6
CONTINUOUS
 62
3
100
AcDbLine
 10
1084.357763679923
 20
408.2523625683958
 30
0.0000000000000000
 11
1088.357763679924
 21
410.5617636451544
 31
0.0000000000000000
  0
LINE
  5
3ED
100
AcDbEntity
  8
MAIN0
  6
CONTINUOUS
 62
3
100
AcDbLine
 10
1088.357763679923
 20
410.5617636451541
 30
0.0000000000000000
 11
1088.357763679923
 21
415.1805657986713
 31
0.0000000000000000
  0
LINE
  5
3EE
100
AcDbEntity
  8
MAIN0
  6
CONTINUOUS
 62
3
100
AcDbLine
 10
1088.357763679923
 20
415.1805657986708
 30
0.0000000000000000
 11
1084.357763679923
 21
417.4899668754293
 31
0.0000000000000000
  0
CIRCLE
  5
3EF
100
AcDbEntity
  8
MAIN0
  6
CONTINUOUS
 62
3
100
AcDbCircle
 10
1165.758151635590
 20
412.8711647219127
 30
0.0000000000000000
 40
8.000000000000000
  0
LINE
  5
3F0
100
AcDbEntity
  8
MAIN0
  6
CONTINUOUS
 62
3
100
AcDbLine
 10
1165.758151635590
 20
417.4899668754298
 30
0.0000000000000000
 11
1161.758151635591
 21
415.1805657986715
 31
0.0000000000000000
  0
LINE
  5
3F1
100
AcDbEntity
  8
MAIN0
  6
CONTINUOUS
 62
3
100
AcDbLine
 10
1161.758151635590
 20
415.1805657986713
 30
0.0000000000000000
 11
1161.758151635590
 21
410.5617636451541
 31
0.0000000000000000
  0
LINE
  5
3F2
100
AcDbEntity
  8
MAIN0
  6
CONTINUOUS
 62
3
100
AcDbLine
 10
1161.758151635591
 20
410.5617636451538
 30
0.0000000000000000
 11
1165.758151635590
 21
408.2523625683954
 31
0.0000000000000000
  0
LINE
  5
3F3
100
AcDbEntity
  8
MAIN0
  6
CONTINUOUS
 62
3
100
AcDbLine
 10
1165.758151635591
 20
408.2523625683959
 30
0.0000000000000000
 11
1169.758151635591
 21
410.5617636451545
 31
0.0000000000000000
  0
LINE
  5
3F4
100
AcDbEntity
  8
MAIN0
  6
CONTINUOUS
 62
3
100
AcDbLine
 10
1169.758151635590
 20
410.5617636451541
 30
0.0000000000000000
 11
1169.758151635590
 21
415.1805657986713
 31
0.0000000000000000
  0
LINE
  5
3F5
100
AcDbEntity
  8
MAIN0
  6
CONTINUOUS
 62
3
100
AcDbLine
 10
1169.758151635590
 20
415.1805657986708
 30
0.0000000000000000
 11
1165.758151635590
 21
417.4899668754293
 31
0.0000000000000000
  0
CIRCLE
  5
3F6
100
AcDbEntity
  8
MAIN0
  6
CONTINUOUS
 62
3
100
AcDbCircle
 10
1165.758151635590
 20
365.8711647219127
 30
0.0000000000000000
 40
8.000000000000000
  0
LINE
  5
3F7
100
AcDbEntity
  8
MAIN0
  6
CONTINUOUS
 62
3
100
AcDbLine
 10
1165.758151635590
 20
370.4899668754292
 30
0.0000000000000000
 11
1161.758151635591
 21
368.1805657986708
 31
0.0000000000000000
  0
LINE
  5
3F8
100
AcDbEntity
  8
MAIN0
  6
CONTINUOUS
 62
3
100
AcDbLine
 10
1161.758151635590
 20
368.1805657986713
 30
0.0000000000000000
 11
1161.758151635590
 21
363.5617636451541
 31
0.0000000000000000
  0
LINE
  5
3F9
100
AcDbEntity
  8
MAIN0
  6
CONTINUOUS
 62
3
100
AcDbLine
 10
1161.758151635591
 20
363.5617636451543
 30
0.0000000000000000
 11
1165.758151635590
 21
361.2523625683958
 31
0.0000000000000000
  0
LINE
  5
3FA
100
AcDbEntity
  8
MAIN0
  6
CONTINUOUS
 62
3
100
AcDbLine
 10
1165.758151635591
 20
361.2523625683953
 30
0.0000000000000000
 11
1169.758151635590
 21
363.5617636451537
 31
0.0000000000000000
  0
LINE
  5
3FB
100
AcDbEntity
  8
MAIN0
  6
CONTINUOUS
 62
3
100
AcDbLine
 10
1169.758151635590
 20
363.5617636451541
 30
0.0000000000000000
 11
1169.758151635590
 21
368.1805657986713
 31
0.0000000000000000
  0
LINE
  5
3FC
100
AcDbEntity
  8
MAIN0
  6
CONTINUOUS
 62
3
100
AcDbLine
 10
1169.758151635590
 20
368.1805657986713
 30
0.0000000000000000
 11
1165.758151635591
 21
370.4899668754298
 31
0.0000000000000000
  0
LINE
  5
3FD
100
AcDbEntity
  8
MAIN0
  6
CONTINUOUS
 62
3
100
AcDbLine
 10
1142.262608191853
 20
424.3711647221481
 30
0.0000000000000000
 11
1107.853307123686
 21
424.3711647221607
 31
0.0000000000000000
  0
LINE
  5
3FE
100
AcDbEntity
  8
MAIN0
  6
CENTER
 62
3
100
AcDbLine
 10
1092.057957657752
 20
396.1211647221442
 30
0.0000000000000000
 11
1092.057957657752
 21
382.6211647221442
 31
0.0000000000000000
  0
LINE
  5
3FF
100
AcDbEntity
  8
MAIN0
  6
CENTER
 62
3
100
AcDbLine
 10
1158.057957657762
 20
396.1211647221442
 30
0.0000000000000000
 11
1158.057957657762
 21
382.6211647221442
 31
0.0000000000000000
  0
LINE
  5
400
100
AcDbEntity
  8
MAIN0
  6
CONTINUOUS
 62
3
100
AcDbLine
 10
1102.764460848149
 20
357.3711647221537
 30
0.0000000000000000
 11
1147.351454467365
 21
357.3711647221537
 31
0.0000000000000000
  0
ARC
  5
401
100
AcDbEntity
  8
MAIN0
  6
CONTINUOUS
 62
3
100
AcDbCircle
 10
1125.057957657757
 20
389.3711647221537
 30
0.0000000000000000
 40
39.00000000000000
100
AcDbArc
 50
304.8638379543034
 51
423.8230478283153
  0
ARC
  5
402
100
AcDbEntity
  8
MAIN0
  6
CONTINUOUS
 62
3
100
AcDbCircle
 10
1125.057957657757
 20
389.3711647221537
 30
0.0000000000000000
 40
39.00000000000000
100
AcDbArc
 50
116.1769521716430
 51
235.1361620456966
  0
CIRCLE
  5
403
100
AcDbEntity
  8
MAIN0
  6
CONTINUOUS
 62
3
100
AcDbCircle
 10
1092.057957657752
 20
389.3711647221442
 30
0.0000000000000000
 40
4.750000000000000
  0
CIRCLE
  5
404
100
AcDbEntity
  8
MAIN0
  6
CONTINUOUS
 62
3
100
AcDbCircle
 10
1158.057957657762
 20
389.3711647221442
 30
0.0000000000000000
 40
4.750000000000000
  0
CIRCLE
  5
405
100
AcDbEntity
  8
MAIN0
  6
CONTINUOUS
 62
3
100
AcDbCircle
 10
1092.057957657752
 20
389.3711647221442
 30
0.0000000000000000
 40
4.250000000000000
  0
LINE
  5
406
100
AcDbEntity
  8
MAIN0
  6
CONTINUOUS
 62
3
100
AcDbLine
 10
1092.057957657753
 20
391.6805657989029
 30
0.0000000000000000
 11
1090.057957657753
 21
390.5258652605236
 31
0.0000000000000000
  0
LINE
  5
407
100
AcDbEntity
  8
MAIN0
  6
CONTINUOUS
 62
3
100
AcDbLine
 10
1090.057957657752
 20
390.5258652605232
 30
0.0000000000000000
 11
1090.057957657752
 21
388.2164641837646
 31
0.0000000000000000
  0
LINE
  5
408
100
AcDbEntity
  8
MAIN0
  6
CONTINUOUS
 62
3
100
AcDbLine
 10
1090.057957657752
 20
388.2164641837645
 30
0.0000000000000000
 11
1092.057957657752
 21
387.0617636453853
 31
0.0000000000000000
  0
LINE
  5
409
100
AcDbEntity
  8
MAIN0
  6
CONTINUOUS
 62
3
100
AcDbLine
 10
1092.057957657753
 20
387.0617636453858
 30
0.0000000000000000
 11
1094.057957657753
 21
388.2164641837651
 31
0.0000000000000000
  0
LINE
  5
40A
100
AcDbEntity
  8
MAIN0
  6
CONTINUOUS
 62
3
100
AcDbLine
 10
1094.057957657752
 20
388.2164641837646
 30
0.0000000000000000
 11
1094.057957657752
 21
390.5258652605232
 31
0.0000000000000000
  0
LINE
  5
40B
100
AcDbEntity
  8
MAIN0
  6
CONTINUOUS
 62
3
100
AcDbLine
 10
1094.057957657752
 20
390.5258652605230
 30
0.0000000000000000
 11
1092.057957657752
 21
391.6805657989022
 31
0.0000000000000000
  0
CIRCLE
  5
40C
100
AcDbEntity
  8
MAIN0
  6
CONTINUOUS
 62
3
100
AcDbCircle
 10
1158.057957657762
 20
389.3711647221442
 30
0.0000000000000000
 40
4.250000000000000
  0
LINE
  5
40D
100
AcDbEntity
  8
MAIN0
  6
CONTINUOUS
 62
3
100
AcDbLine
 10
1158.057957657762
 20
391.6805657989028
 30
0.0000000000000000
 11
1156.057957657762
 21
390.5258652605235
 31
0.0000000000000000
  0
LINE
  5
40E
100
AcDbEntity
  8
MAIN0
  6
CONTINUOUS
 62
3
100
AcDbLine
 10
1156.057957657762
 20
390.5258652605232
 30
0.0000000000000000
 11
1156.057957657762
 21
388.2164641837646
 31
0.0000000000000000
  0
LINE
  5
40F
100
AcDbEntity
  8
MAIN0
  6
CONTINUOUS
 62
3
100
AcDbLine
 10
1156.057957657762
 20
388.2164641837645
 30
0.0000000000000000
 11
1158.057957657762
 21
387.0617636453852
 31
0.0000000000000000
  0
LINE
  5
410
100
AcDbEntity
  8
MAIN0
  6
CONTINUOUS
 62
3
100
AcDbLine
 10
1158.057957657762
 20
387.0617636453858
 30
0.0000000000000000
 11
1160.057957657762
 21
388.2164641837651
 31
0.0000000000000000
  0
LINE
  5
411
100
AcDbEntity
  8
MAIN0
  6
CONTINUOUS
 62
3
100
AcDbLine
 10
1160.057957657762
 20
388.2164641837646
 30
0.0000000000000000
 11
1160.057957657762
 21
390.5258652605232
 31
0.0000000000000000
  0
LINE
  5
412
100
AcDbEntity
  8
MAIN0
  6
CONTINUOUS
 62
3
100
AcDbLine
 10
1160.057957657762
 20
390.5258652605230
 30
0.0000000000000000
 11
1158.057957657762
 21
391.6805657989022
 31
0.0000000000000000
  0
CIRCLE
  5
413
100
AcDbEntity
  8
MAIN0
  6
CONTINUOUS
 62
3
100
AcDbCircle
 10
1125.057957657757
 20
389.3711647221537
 30
0.0000000000000000
 40
25.00000000002711
  0
LINE
  5
414
100
AcDbEntity
  8
MAIN0
  6
CONTINUOUS
 62
3
100
AcDbLine
 10
1122.057957657757
 20
403.0459590533312
 30
0.0000000000000000
 11
1122.057957657757
 21
413.9386737533926
 31
0.0000000000000000
  0
LINE
  5
415
100
AcDbEntity
  8
MAIN0
  6
CONTINUOUS
 62
3
100
AcDbLine
 10
1128.057957657757
 20
403.0459590533312
 30
0.0000000000000000
 11
1128.057957657757
 21
413.9386737533926
 31
0.0000000000000000
  0
LINE
  5
416
100
AcDbEntity
  8
MAIN0
  6
CONTINUOUS
 62
3
100
AcDbLine
 10
1118.057957657756
 20
393.4126166064742
 30
0.0000000000000000
 11
1125.057957657756
 21
397.4540684908155
 31
0.0000000000000000
  0
LINE
  5
417
100
AcDbEntity
  8
MAIN0
  6
CONTINUOUS
 62
3
100
AcDbLine
 10
1118.057957657757
 20
385.3297128378127
 30
0.0000000000000000
 11
1118.057957657757
 21
393.4126166064744
 31
0.0000000000000000
  0
LINE
  5
418
100
AcDbEntity
  8
MAIN0
  6
CONTINUOUS
 62
3
100
AcDbLine
 10
1118.057957657757
 20
385.3297128378130
 30
0.0000000000000000
 11
1125.057957657757
 21
381.2882609534926
 31
0.0000000000000000
  0
LINE
  5
419
100
AcDbEntity
  8
MAIN0
  6
CONTINUOUS
 62
3
100
AcDbLine
 10
1132.057957657757
 20
385.3297128378131
 30
0.0000000000000000
 11
1125.057957657757
 21
381.2882609534927
 31
0.0000000000000000
  0
LINE
  5
41A
100
AcDbEntity
  8
MAIN0
  6
CONTINUOUS
 62
3
100
AcDbLine
 10
1132.057957657757
 20
385.3297128378126
 30
0.0000000000000000
 11
1132.057957657757
 21
393.4126166064743
 31
0.0000000000000000
  0
LINE
  5
41B
100
AcDbEntity
  8
MAIN0
  6
CONTINUOUS
 62
3
100
AcDbLine
 10
1132.057957657758
 20
393.4126166064742
 30
0.0000000000000000
 11
1125.057957657757
 21
397.4540684908156
 31
0.0000000000000000
  0
CIRCLE
  5
41C
100
AcDbEntity
  8
MAIN0
  6
CONTINUOUS
 62
3
100
AcDbCircle
 10
1125.057957657757
 20
389.3711647221537
 30
0.0000000000000000
 40
14.00000000000000
  0
CIRCLE
  5
41D
100
AcDbEntity
  8
MAIN0
  6
CONTINUOUS
 62
3
100
AcDbCircle
 10
1125.057957657757
 20
389.3711647221537
 30
0.0000000000000000
 40
28.00000000000000
  0
LINE
  5
41E
100
AcDbEntity
  8
MAIN0
  6
CONTINUOUS
 62
3
100
AcDbLine
 10
1126.757957657757
 20
361.4228195117482
 30
0.0000000000000000
 11
1126.757957657757
 21
364.4290316938548
 31
0.0000000000000000
  0
LINE
  5
41F
100
AcDbEntity
  8
MAIN0
  6
CONTINUOUS
 62
3
100
AcDbLine
 10
1123.357957657757
 20
361.4228195117482
 30
0.0000000000000000
 11
1123.357957657757
 21
364.4290316938548
 31
0.0000000000000000
  0
LINE
  5
420
100
AcDbEntity
  8
MAIN0
  6
CONTINUOUS
 62
3
100
AcDbLine
 10
1068.057957657757
 20
360.3711647239340
 30
0.0000000000000000
 11
1068.057957657757
 21
369.3711647239340
 31
0.0000000000000000
  0
LINE
  5
421
100
AcDbEntity
  8
MAIN0
  6
CONTINUOUS
 62
3
100
AcDbLine
 10
1062.057957657757
 20
360.3711647239340
 30
0.0000000000000000
 11
1068.057957657757
 21
360.3711647239340
 31
0.0000000000000000
  0
LINE
  5
422
100
AcDbEntity
  8
MAIN0
  6
CONTINUOUS
 62
3
100
AcDbLine
 10
1062.057957657757
 20
349.3711647239340
 30
0.0000000000000000
 11
1062.057957657757
 21
360.3711647239340
 31
0.0000000000000000
  0
LINE
  5
423
100
AcDbEntity
  8
MAIN0
  6
CONTINUOUS
 62
3
100
AcDbLine
 10
1068.057957657757
 20
369.3711647239340
 30
0.0000000000000000
 11
991.0579576577566
 21
369.3711647239340
 31
0.0000000000000000
  0
LINE
  5
424
100
AcDbEntity
  8
MAIN0
  6
CONTINUOUS
 62
3
100
AcDbLine
 10
1062.057957657757
 20
349.3711647239340
 30
0.0000000000000000
 11
1014.555825242286
 21
349.3711647239340
 31
0.0000000000000000
  0
LINE
  5
425
100
AcDbEntity
  8
MAIN0
  6
CONTINUOUS
 62
3
100
AcDbLine
 10
991.0579576577565
 20
369.3711647239339
 30
0.0000000000000000
 11
992.7579576577565
 21
339.3711647239341
 31
0.0000000000000000
  0
LINE
  5
426
100
AcDbEntity
  8
MAIN0
  6
CONTINUOUS
 62
3
100
AcDbLine
 10
1007.757957648119
 20
339.3711647239334
 30
0.0000000000000000
 11
1008.646978724216
 21
344.4130537899563
 31
0.0000000000000000
  0
ARC
  5
427
100
AcDbEntity
  8
MAIN0
  6
CONTINUOUS
 62
3
100
AcDbCircle
 10
1014.555825242286
 20
343.3711647239340
 30
0.0000000000000000
 40
6.000000000000000
100
AcDbArc
 50
90.00000000000000
 51
169.9999999997949
  0
LINE
  5
428
100
AcDbEntity
  8
MAIN0
  6
CONTINUOUS
 62
3
100
AcDbLine
 10
1007.757957648119
 20
339.3711647239340
 30
0.0000000000000000
 11
992.7579576577566
 21
339.3711647239340
 31
0.0000000000000000
  0
LINE
  5
429
100
AcDbEntity
  8
MAIN0
  6
CENTER
 62
3
100
AcDbLine
 10
1039.057957657756
 20
193.4093460178669
 30
0.0000000000000000
 11
1039.057957657758
 21
395.3711647239342
 31
0.0000000000000000
  0
LINE
  5
42A
100
AcDbEntity
  8
MAIN0
  6
CONTINUOUS
 62
3
100
AcDbLine
 10
1056.557957657757
 20
374.3711647239340
 30
0.0000000000000000
 11
1021.557957657757
 21
374.3711647239340
 31
0.0000000000000000
  0
LINE
  5
42B
100
AcDbEntity
  8
MAIN0
  6
CONTINUOUS
 62
3
100
AcDbLine
 10
1056.557957657757
 20
369.3711647239340
 30
0.0000000000000000
 11
1056.557957657757
 21
374.3711647239340
 31
0.0000000000000000
  0
LINE
  5
42C
100
AcDbEntity
  8
MAIN0
  6
CONTINUOUS
 62
3
100
AcDbLine
 10
1021.557957657757
 20
369.3711647239340
 30
0.0000000000000000
 11
1021.557957657757
 21
374.3711647239340
 31
0.0000000000000000
  0
LINE
  5
42D
100
AcDbEntity
  8
MAIN0
  6
CONTINUOUS
 62
3
100
AcDbLine
 10
1051.057957657757
 20
374.3711647239340
 30
0.0000000000000000
 11
1051.057957657757
 21
388.7711647239336
 31
0.0000000000000000
  0
LINE
  5
42E
100
AcDbEntity
  8
MAIN0
  6
CONTINUOUS
 62
3
100
AcDbLine
 10
1051.057957657757
 20
388.7711647239334
 30
0.0000000000000000
 11
1048.286676365646
 21
390.3711647239334
 31
0.0000000000000000
  0
LINE
  5
42F
100
AcDbEntity
  8
MAIN0
  6
CONTINUOUS
 62
3
100
AcDbLine
 10
1048.286676365647
 20
390.3711647239340
 30
0.0000000000000000
 11
1029.829238949867
 21
390.3711647239340
 31
0.0000000000000000
  0
LINE
  5
430
100
AcDbEntity
  8
MAIN0
  6
CONTINUOUS
 62
3
100
AcDbLine
 10
1029.829238949867
 20
390.3711647239339
 30
0.0000000000000000
 11
1027.057957657757
 21
388.7711647239340
 31
0.0000000000000000
  0
LINE
  5
431
100
AcDbEntity
  8
MAIN0
  6
CONTINUOUS
 62
3
100
AcDbLine
 10
1027.057957657757
 20
388.7711647239336
 30
0.0000000000000000
 11
1027.057957657757
 21
374.3711647239340
 31
0.0000000000000000
  0
LINE
  5
432
100
AcDbEntity
  8
MAIN0
  6
CONTINUOUS
 62
3
100
AcDbLine
 10
1051.057957657757
 20
388.7711647239336
 30
0.0000000000000000
 11
1027.057957657757
 21
388.7711647239336
 31
0.0000000000000000
  0
LINE
  5
433
100
AcDbEntity
  8
MAIN0
  6
CONTINUOUS
 62
3
100
AcDbLine
 10
1047.057957657757
 20
349.3711647239340
 30
0.0000000000000000
 11
1047.057957657757
 21
328.3711647239340
 31
0.0000000000000000
  0
LINE
  5
434
100
AcDbEntity
  8
MAIN0
  6
CONTINUOUS
 62
3
100
AcDbLine
 10
1031.057957657757
 20
328.3711647239340
 30
0.0000000000000000
 11
1031.057957657757
 21
349.3711647239340
 31
0.0000000000000000
  0
LINE
  5
435
100
AcDbEntity
  8
MAIN0
  6
CONTINUOUS
 62
3
100
AcDbLine
 10
1045.975425657757
 20
349.3711647239340
 30
0.0000000000000000
 11
1045.975425657757
 21
328.3711647239340
 31
0.0000000000000000
  0
LINE
  5
436
100
AcDbEntity
  8
MAIN0
  6
CONTINUOUS
 62
3
100
AcDbLine
 10
1032.140489657757
 20
349.3711647239340
 30
0.0000000000000000
 11
1032.140489657757
 21
328.3711647239340
 31
0.0000000000000000
  0
LINE
  5
437
100
AcDbEntity
  8
MAIN0
  6
CONTINUOUS
 62
3
100
AcDbLine
 10
1062.557957657757
 20
339.3711647239337
 30
0.0000000000000000
 11
1062.557957657757
 21
334.3711647239319
 31
0.0000000000000000
  0
LINE
  5
438
100
AcDbEntity
  8
MAIN0
  6
CONTINUOUS
 62
3
100
AcDbLine
 10
1087.557957657756
 20
334.3711647239336
 30
0.0000000000000000
 11
1062.557957657756
 21
334.3711647239336
 31
0.0000000000000000
  0
LINE
  5
439
100
AcDbEntity
  8
MAIN0
  6
CONTINUOUS
 62
3
100
AcDbLine
 10
1087.557957657757
 20
339.3711647239336
 30
0.0000000000000000
 11
1087.557957657757
 21
334.3711647239336
 31
0.0000000000000000
  0
LINE
  5
43A
100
AcDbEntity
  8
MAIN0
  6
CONTINUOUS
 62
3
100
AcDbLine
 10
1162.557957657760
 20
339.3711647239336
 30
0.0000000000000000
 11
1162.557957657760
 21
334.3711647239336
 31
0.0000000000000000
  0
LINE
  5
43B
100
AcDbEntity
  8
MAIN0
  6
CONTINUOUS
 62
3
100
AcDbLine
 10
1187.557957657761
 20
334.3711647239335
 30
0.0000000000000000
 11
1162.557957657761
 21
334.3711647239335
 31
0.0000000000000000
  0
LINE
  5
43C
100
AcDbEntity
  8
MAIN0
  6
CONTINUOUS
 62
3
100
AcDbLine
 10
1187.557957657760
 20
339.3711647239338
 30
0.0000000000000000
 11
1187.557957657760
 21
334.3711647239374
 31
0.0000000000000000
  0
LINE
  5
43D
100
AcDbEntity
  8
MAIN0
  6
CONTINUOUS
 62
3
100
AcDbLine
 10
1116.057957657757
 20
339.9711647239335
 30
0.0000000000000000
 11
1116.057957657757
 21
344.3711647239336
 31
0.0000000000000000
  0
LINE
  5
43E
100
AcDbEntity
  8
MAIN0
  6
CONTINUOUS
 62
3
100
AcDbLine
 10
1116.057957657757
 20
344.3711647239336
 30
0.0000000000000000
 11
1134.057957657757
 21
344.3711647239336
 31
0.0000000000000000
  0
LINE
  5
43F
100
AcDbEntity
  8
MAIN0
  6
CONTINUOUS
 62
3
100
AcDbLine
 10
1116.057957657757
 20
339.9711647239336
 30
0.0000000000000000
 11
1115.457957657757
 21
339.3711647239334
 31
0.0000000000000000
  0
LINE
  5
440
100
AcDbEntity
  8
MAIN0
  6
CONTINUOUS
 62
3
100
AcDbLine
 10
1134.057957657757
 20
339.9711647239335
 30
0.0000000000000000
 11
1134.057957657757
 21
344.3711647239336
 31
0.0000000000000000
  0
LINE
  5
441
100
AcDbEntity
  8
MAIN0
  6
CONTINUOUS
 62
3
100
AcDbLine
 10
1134.057957657757
 20
339.9711647239340
 30
0.0000000000000000
 11
1134.657957657757
 21
339.3711647239339
 31
0.0000000000000000
  0
LINE
  5
442
100
AcDbEntity
  8
MAIN0
  6
CONTINUOUS
 62
3
100
AcDbLine
 10
1062.457957657757
 20
339.3711647239336
 30
0.0000000000000000
 11
1115.457957657757
 21
339.3711647239336
 31
0.0000000000000000
  0
LINE
  5
443
100
AcDbEntity
  8
MAIN0
  6
CONTINUOUS
 62
3
100
AcDbLine
 10
1134.657957657757
 20
339.3711647239336
 30
0.0000000000000000
 11
1187.657957657757
 21
339.3711647239336
 31
0.0000000000000000
  0
LINE
  5
444
100
AcDbEntity
  8
MAIN0
  6
CONTINUOUS
 62
3
100
AcDbLine
 10
1062.057957657757
 20
401.3711647239342
 30
0.0000000000000000
 11
1062.057957657757
 21
410.6711647219062
 31
0.0000000000000000
  0
LINE
  5
445
100
AcDbEntity
  8
MAIN0
  6
CONTINUOUS
 62
3
100
AcDbLine
 10
1188.057957657757
 20
401.3711647239337
 30
0.0000000000000000
 11
1188.057957657757
 21
410.6711647219057
 31
0.0000000000000000
  0
ARC
  5
446
100
AcDbEntity
  8
MAIN0
  6
CONTINUOUS
 62
3
100
AcDbCircle
 10
1067.057957657757
 20
394.5427375974075
 30
0.0000000000000000
 40
3.000000000000000
100
AcDbArc
 50
0.0000000000000000
 51
70.52877936551049
  0
ARC
  5
447
100
AcDbEntity
  8
MAIN0
  6
CONTINUOUS
 62
3
100
AcDbCircle
 10
1125.057957657757
 20
389.3711647221537
 30
0.0000000000000000
 40
60.00000000000000
100
AcDbArc
 50
205.8419327631667
 51
215.4505426368312
  0
ARC
  5
448
100
AcDbEntity
  8
MAIN0
  6
CONTINUOUS
 62
3
100
AcDbCircle
 10
1080.057957657757
 20
367.5766700044508
 30
0.0000000000000000
 40
10.00000000000000
100
AcDbArc
 50
180.0000000000000
 51
205.8419327631667
  0
ARC
  5
449
100
AcDbEntity
  8
MAIN0
  6
CONTINUOUS
 62
3
100
AcDbCircle
 10
1084.327133947738
 20
360.3711647238204
 30
0.0000000000000000
 40
10.00000000000000
100
AcDbArc
 50
215.4505426368312
 51
270.0000000000000
  0
LINE
  5
44A
100
AcDbEntity
  8
MAIN0
  6
CONTINUOUS
 62
3
100
AcDbLine
 10
1070.057957657756
 20
367.5766700044508
 30
0.0000000000000000
 11
1070.057957657756
 21
394.5427375974080
 31
0.0000000000000000
  0
ARC
  5
44B
100
AcDbEntity
  8
MAIN0
  6
CONTINUOUS
 62
3
100
AcDbCircle
 10
1183.057957657758
 20
394.5427375974075
 30
0.0000000000000000
 40
3.000000000000000
100
AcDbArc
 50
109.4712206344893
 51
179.9999999999997
  0
LINE
  5
44C
100
AcDbEntity
  8
MAIN0
  6
CONTINUOUS
 62
3
100
AcDbLine
 10
1180.057957657757
 20
367.5766700044505
 30
0.0000000000000000
 11
1180.057957657758
 21
394.5427375974072
 31
0.0000000000000000
  0
ARC
  5
44D
100
AcDbEntity
  8
MAIN0
  6
CONTINUOUS
 62
3
100
AcDbCircle
 10
1170.057957657757
 20
367.5766700044503
 30
0.0000000000000000
 40
10.00000000000000
100
AcDbArc
 50
334.1580672368331
 51
359.9999999999997
  0
ARC
  5
44E
100
AcDbEntity
  8
MAIN0
  6
CONTINUOUS
 62
3
100
AcDbCircle
 10
1125.057957657757
 20
389.3711647221537
 30
0.0000000000000000
 40
60.00000000000000
100
AcDbArc
 50
324.5494573631685
 51
334.1580672368331
  0
ARC
  5
44F
100
AcDbEntity
  8
MAIN0
  6
CONTINUOUS
 62
3
100
AcDbCircle
 10
1165.788781367776
 20
360.3711647238199
 30
0.0000000000000000
 40
10.00000000000000
100
AcDbArc
 50
269.9999999999997
 51
324.5494573631685
  0
LINE
  5
450
100
AcDbEntity
  8
MAIN0
  6
CONTINUOUS
 62
3
100
AcDbLine
 10
1061.757957657757
 20
399.6711647219125
 30
0.0000000000000000
 11
1061.757957657757
 21
423.7711647219124
 31
0.0000000000000000
  0
LINE
  5
451
100
AcDbEntity
  8
MAIN0
  6
CONTINUOUS
 62
3
100
AcDbLine
 10
1065.057957657757
 20
395.2711647219131
 30
0.0000000000000000
 11
1065.057957657757
 21
394.0711647219133
 31
0.0000000000000000
  0
LINE
  5
452
100
AcDbEntity
  8
MAIN0
  6
CONTINUOUS
 62
3
100
AcDbLine
 10
1065.057957657757
 20
395.2711647219130
 30
0.0000000000000000
 11
1059.757957657756
 21
395.2711647219130
 31
0.0000000000000000
  0
LINE
  5
453
100
AcDbEntity
  8
MAIN0
  6
CONTINUOUS
 62
3
100
AcDbLine
 10
1065.057957657757
 20
394.0711647219130
 30
0.0000000000000000
 11
1059.557957657757
 21
394.0711647219130
 31
0.0000000000000000
  0
ARC
  5
454
100
AcDbEntity
  8
MAIN0
  6
CONTINUOUS
 62
3
100
AcDbCircle
 10
1059.557957657757
 20
396.0711647219131
 30
0.0000000000000000
 40
2.000000000000000
100
AcDbArc
 50
179.9999999999997
 51
269.9999999999997
  0
ARC
  5
455
100
AcDbEntity
  8
MAIN0
  6
CONTINUOUS
 62
3
100
AcDbCircle
 10
1059.757957657756
 20
396.2711647219134
 30
0.0000000000000000
 40
1.000000000000000
100
AcDbArc
 50
179.9999999999997
 51
269.9999999999997
  0
LINE
  5
456
100
AcDbEntity
  8
MAIN0
  6
CONTINUOUS
 62
3
100
AcDbLine
 10
1057.257957657532
 20
394.0711647219130
 30
0.0000000000000000
 11
1056.057957657532
 21
394.0711647219130
 31
0.0000000000000000
  0
LINE
  5
457
100
AcDbEntity
  8
MAIN0
  6
CONTINUOUS
 62
3
100
AcDbLine
 10
1057.257957657980
 20
447.5711647240589
 30
0.0000000000000000
 11
1057.257957657980
 21
394.0711647219129
 31
0.0000000000000000
  0
LINE
  5
458
100
AcDbEntity
  8
MAIN0
  6
CONTINUOUS
 62
3
100
AcDbLine
 10
1056.057957657980
 20
394.0711647219131
 30
0.0000000000000000
 11
1056.057957657980
 21
455.5711645816010
 31
0.0000000000000000
  0
ARC
  5
459
100
AcDbEntity
  8
MAIN0
  6
CONTINUOUS
 62
3
100
AcDbCircle
 10
1058.057957657980
 20
455.5711647240589
 30
0.0000000000000000
 40
2.000000000000000
100
AcDbArc
 50
90.00000000057449
 51
180.0000000000000
  0
LINE
  5
45A
100
AcDbEntity
  8
MAIN0
  6
CONTINUOUS
 62
3
100
AcDbLine
 10
1185.057957657757
 20
395.2711647219130
 30
0.0000000000000000
 11
1190.357957657757
 21
395.2711647219130
 31
0.0000000000000000
  0
ARC
  5
45B
100
AcDbEntity
  8
MAIN0
  6
CONTINUOUS
 62
3
100
AcDbCircle
 10
1190.357957657757
 20
396.2711647219130
 30
0.0000000000000000
 40
1.000000000000000
100
AcDbArc
 50
270.0000000000000
 51
360.0000000000000
  0
ARC
  5
45C
100
AcDbEntity
  8
MAIN0
  6
CONTINUOUS
 62
3
100
AcDbCircle
 10
1190.557957657757
 20
396.0711647219127
 30
0.0000000000000000
 40
2.000000000000000
100
AcDbArc
 50
270.0000000000000
 51
360.0000000000000
  0
LINE
  5
45D
100
AcDbEntity
  8
MAIN0
  6
CONTINUOUS
 62
3
100
AcDbLine
 10
1185.057957657757
 20
394.0711647219127
 30
0.0000000000000000
 11
1190.557957657757
 21
394.0711647219127
 31
0.0000000000000000
  0
LINE
  5
45E
100
AcDbEntity
  8
MAIN0
  6
CONTINUOUS
 62
3
100
AcDbLine
 10
1185.057957657757
 20
395.2711647219130
 30
0.0000000000000000
 11
1185.057957657757
 21
394.0711647219127
 31
0.0000000000000000
  0
LINE
  5
45F
100
AcDbEntity
  8
MAIN0
  6
CONTINUOUS
 62
3
100
AcDbLine
 10
1192.857957657981
 20
394.0711647219127
 30
0.0000000000000000
 11
1194.057957657980
 21
394.0711647219127
 31
0.0000000000000000
  0
LINE
  5
460
100
AcDbEntity
  8
MAIN0
  6
CONTINUOUS
 62
3
100
AcDbLine
 10
1192.857957657981
 20
447.5711647240591
 30
0.0000000000000000
 11
1192.857957657981
 21
394.0711647219125
 31
0.0000000000000000
  0
LINE
  5
461
100
AcDbEntity
  8
MAIN0
  6
CONTINUOUS
 62
3
100
AcDbLine
 10
1194.057957657980
 20
394.0711647219127
 30
0.0000000000000000
 11
1194.057957657980
 21
455.5711645816016
 31
0.0000000000000000
  0
ARC
  5
462
100
AcDbEntity
  8
MAIN0
  6
CONTINUOUS
 62
3
100
AcDbCircle
 10
1192.057957657980
 20
455.5711647240594
 30
0.0000000000000000
 40
2.000000000000000
100
AcDbArc
 50
0.0000000000000000
 51
89.99999999942553
  0
LINE
  5
463
100
AcDbEntity
  8
MAIN0
  6
CONTINUOUS
 62
3
100
AcDbLine
 10
1058.057958870032
 20
457.5711647240587
 30
0.0000000000000000
 11
1192.057956445928
 21
457.5711647240589
 31
0.0000000000000000
  0
LINE
  5
464
100
AcDbEntity
  8
MAIN0
  6
CONTINUOUS
 62
3
100
AcDbLine
 10
1057.257957657980
 20
447.5711647240589
 30
0.0000000000000000
 11
1192.857957657980
 21
447.5711647240591
 31
0.0000000000000000
  0
MTEXT
  5
465
100
AcDbEntity
  8
MAIN0
  6
CONTINUOUS
 62
3
100
AcDbMText
 10
1144.265588977046
 20
403.1551933270766
 30
0.0000000000000000
 40
9.000000000000000
 41
0.0000000000000000
 71
     1
 72
     1
  1
{\H0.63x;{0}}
 11
0.4999999999999993
 21
-0.8660254037844390
 31
0.0000000000000000
  7
STANDARD
  0
MTEXT
  5
466
100
AcDbEntity
  8
MAIN0
  6
CONTINUOUS
 62
3
100
AcDbMText
 10
1148.584268629249
 20
391.7046680008634
 30
0.0000000000000000
 40
9.000000000000000
 41
0.0000000000000000
 71
     1
 72
     1
  1
{\H0.63x;{1}}
 11
-1.836970198721030e-016
 21
-1.000000000000000
 31
0.0000000000000000
  7
STANDARD
  0
MTEXT
  5
467
100
AcDbEntity
  8
MAIN0
  6
CONTINUOUS
 62
3
100
AcDbMText
 10
1146.880685138392
 20
379.7327084217666
 30
0.0000000000000000
 40
9.000000000000000
 41
0.0000000000000000
 71
     1
 72
     1
  1
{\H0.63x;{2}}
 11
-0.4999999999999527
 21
-0.8660254037844659
 31
0.0000000000000000
  7
STANDARD
  0
MTEXT
  5
468
100
AcDbEntity
  8
MAIN0
  6
CONTINUOUS
 62
3
100
AcDbMText
 10
1139.014829082772
 20
370.1507728631692
 30
0.0000000000000000
 40
9.000000000000000
 41
0.0000000000000000
 71
     1
 72
     1
  1
{\H0.63x;{3}}
 11
-0.8660254037845803
 21
-0.4999999999997548
 31
0.0000000000000000
  7
STANDARD
  0
DIMENSION
  5
473
100
AcDbEntity
  8
MAIN0
  6
CONTINUOUS
 62
3
100
AcDbDimension
  2
*D49
 10
1132.057957657757
 20
501.0278557439458
 30
0.0000000000000000
 11
1125.057957657757
 21
501.5278557439458
 31
0.0000000000000000
 70
32
  3
MAIN001
100
AcDbAlignedDimension
 13
1118.057957657757
 23
393.4126166064743
 33
0.0000000000000000
 14
1132.057957657757
 24
393.4126166064742
 34
0.0000000000000000
100
AcDbRotatedDimension
1001
ACAD
1000
DSTYLE
1002
{
1070
   173
1070
     1
1070
     6
1000
_OPEN
1070
     7
1000
_OPEN
1070
    41
1040
6.000000
1070
   287
1070
     0
1002
}
  0
DIMENSION
  5
47C
100
AcDbEntity
  8
MAIN0
  6
CONTINUOUS
 62
3
100
AcDbDimension
  2
*D50
 10
1194.057957657980
 20
521.0278557439458
 30
0.0000000000000000
 11
1125.057957657980
 21
521.5278557439458
 31
0.0000000000000000
 70
32
  3
MAIN001
100
AcDbAlignedDimension
 13
1056.057957657980
 23
455.5711645816010
 33
0.0000000000000000
 14
1194.057957657980
 24
455.5711645816016
 34
0.0000000000000000
100
AcDbRotatedDimension
1001
ACAD
1000
DSTYLE
1002
{
1070
   173
1070
     1
1070
     6
1000
_OPEN
1070
     7
1000
_OPEN
1070
    41
1040
6.000000
1002
}
  0
DIMENSION
  5
487
100
AcDbEntity
  8
MAIN0
  6
CONTINUOUS
 62
3
100
AcDbDimension
  2
*D51
 10
976.1000956954631
 20
374.3711647239340
 30
0.0000000000000000
 11
974.6000956954631
 21
385.0651405789517
 31
0.0000000000000000
 70
160
  3
MAIN001
100
AcDbAlignedDimension
 13
991.0579576577566
 23
369.3711647239340
 33
0.0000000000000000
 14
1021.557957657757
 24
374.3711647239340
 34
0.0000000000000000
 50
90.00000000000000
100
AcDbRotatedDimension
1001
ACAD
1000
DSTYLE
1002
{
1070
   173
1070
     1
1070
     6
1000
_OPEN
1070
     7
1000
_OPEN
1070
    41
1040
6.000000
1070
   287
1070
     0
1002
}
  0
DIMENSION
  5
490
100
AcDbEntity
  8
MAIN0
  6
CONTINUOUS
 62
3
100
AcDbDimension
  2
*D52
 10
976.1000956954631
 20
369.3711647239340
 30
0.0000000000000000
 11
975.6000956954631
 21
354.3711647239340
 31
0.0000000000000000
 70
32
  3
MAIN001
100
AcDbAlignedDimension
 13
992.7579576577566
 23
339.3711647239340
 33
0.0000000000000000
 14
991.0579576577566
 24
369.3711647239340
 34
0.0000000000000000
 50
90.00000000000000
100
AcDbRotatedDimension
1001
ACAD
1000
DSTYLE
1002
{
1070
   173
1070
     1
1070
     6
1000
_OPEN
1070
     7
1000
_OPEN
1070
    41
1040
6.000000
1002
}
  0
DIMENSION
  5
49A
100
AcDbEntity
  8
MAIN0
  6
CONTINUOUS
 62
3
100
AcDbDimension
  2
*D53
 10
1062.057957657757
 20
292.7074982421848
 30
0.0000000000000000
 11
1085.072598101895
 21
294.2074982421848
 31
0.0000000000000000
 70
160
  1
\A1;15～31
  3
MAIN001
100
AcDbAlignedDimension
 13
1039.057957657756
 23
193.4093460178669
 33
0.0000000000000000
 14
1062.057957657757
 24
339.7711647239341
 34
0.0000000000000000
100
AcDbRotatedDimension
1001
ACAD
1000
DSTYLE
1002
{
1070
   173
1070
     1
1070
     6
1000
_OPEN
1070
     7
1000
_OPEN
1070
    41
1040
6.000000
1070
   287
1070
     0
1070
   340
1005
49B
1002
}
  0
DIMENSION
  5
4A4
100
AcDbEntity
  8
MAIN0
  6
CONTINUOUS
 62
3
100
AcDbDimension
  2
*D54
 10
857.6841614849709
 20
622.1987371084006
 30
0.0000000000000000
 11
857.1841614849709
 21
532.1987371084006
 31
0.0000000000000000
 70
32
  3
MAIN001
100
AcDbAlignedDimension
 13
864.1497033427627
 23
442.1987371084006
 33
0.0000000000000000
 14
918.8751934616896
 24
622.1987371084006
 34
0.0000000000000000
 50
90.00000000000000
100
AcDbRotatedDimension
1001
ACAD
1000
DSTYLE
1002
{
1070
   173
1070
     1
1070
     6
1000
_OPEN
1070
     7
1000
_OPEN
1070
    41
1040
6.000000
1002
}
  0
LINE
  5
4A5
100
AcDbEntity
  8
MAIN0
  6
CONTINUOUS
 62
3
100
AcDbLine
 10
539.5909736697688
 20
334.3711647236469
 30
0.0000000000000000
 11
539.5909736697688
 21
344.3711647236469
 31
0.0000000000000000
  0
LINE
  5
4A6
100
AcDbEntity
  8
MAIN0
  6
CONTINUOUS
 62
3
100
AcDbLine
 10
521.5909736697688
 20
334.3711647236469
 30
0.0000000000000000
 11
521.5909736697688
 21
344.3711647236468
 31
0.0000000000000000
  0
DIMENSION
  5
4B1
100
AcDbEntity
  8
MAIN0
  6
CONTINUOUS
 62
3
100
AcDbDimension
  2
*D55
 10
539.5909736697688
 20
307.8488778597925
 30
0.0000000000000000
 11
506.9377846777213
 21
309.3488778597925
 31
0.0000000000000000
 70
160
  3
MAIN001
100
AcDbAlignedDimension
 13
521.5909736697688
 23
334.3711647236469
 33
0.0000000000000000
 14
539.5909736697688
 24
334.3711647236469
 34
0.0000000000000000
100
AcDbRotatedDimension
1001
ACAD
1000
DSTYLE
1002
{
1070
   173
1070
     1
1070
     6
1000
_OPEN
1070
     7
1000
_OPEN
1070
    41
1040
6.000000
1070
   287
1070
     0
1002
}
  0
LINE
  5
4B2
100
AcDbEntity
  8
MAIN0
  6
CONTINUOUS
 62
3
100
AcDbLine
 10
695.7909736697984
 20
396.0711647217588
 30
0.0000000000000000
 11
721.1909736697996
 21
396.0711647217655
 31
0.0000000000000000
  0
LINE
  5
4B3
100
AcDbEntity
  8
MAIN0
  6
CENTER
 62
3
100
AcDbLine
 10
320.5909736694828
 20
685.8782574636534
 30
0.0000000000000000
 11
636.2356809086278
 21
685.8782574632278
 31
0.0000000000000000
  0
LINE
  5
4B4
100
AcDbEntity
  8
MAIN0
  6
CENTER
 62
3
100
AcDbLine
 10
654.5356806225257
 20
685.8782574632032
 30
0.0000000000000000
 11
850.5909736704174
 21
685.8782574629390
 31
0.0000000000000000
  0
CIRCLE
  5
4B5
100
AcDbEntity
  8
MAIN0
  6
CONTINUOUS
 62
3
100
AcDbCircle
 10
600.5909736711851
 20
725.8782574631073
 30
0.0000000000000000
 40
5.000000000000000
  0
CIRCLE
  5
4B6
100
AcDbEntity
  8
MAIN0
  6
CONTINUOUS
 62
3
100
AcDbCircle
 10
600.5909736711851
 20
725.8782574631073
 30
0.0000000000000000
 40
4.188101000000000
  0
LINE
  5
4B7
100
AcDbEntity
  8
MAIN0
  6
CONTINUOUS
 62
3
100
AcDbLine
 10
600.5909736711851
 20
728.7650088090554
 30
0.0000000000000000
 11
598.0909736711851
 21
727.3216331360814
 31
0.0000000000000000
  0
LINE
  5
4B8
100
AcDbEntity
  8
MAIN0
  6
CONTINUOUS
 62
3
100
AcDbLine
 10
598.0909736711851
 20
727.3216331360814
 30
0.0000000000000000
 11
598.0909736711851
 21
724.4348817901332
 31
0.0000000000000000
  0
LINE
  5
4B9
100
AcDbEntity
  8
MAIN0
  6
CONTINUOUS
 62
3
100
AcDbLine
 10
598.0909736711851
 20
724.4348817901332
 30
0.0000000000000000
 11
600.5909736711851
 21
722.9915061171591
 31
0.0000000000000000
  0
LINE
  5
4BA
100
AcDbEntity
  8
MAIN0
  6
CONTINUOUS
 62
3
100
AcDbLine
 10
600.5909736711851
 20
722.9915061171591
 30
0.0000000000000000
 11
603.0909736711851
 21
724.4348817901332
 31
0.0000000000000000
  0
LINE
  5
4BB
100
AcDbEntity
  8
MAIN0
  6
CONTINUOUS
 62
3
100
AcDbLine
 10
603.0909736711851
 20
724.4348817901332
 30
0.0000000000000000
 11
603.0909736711851
 21
727.3216331360814
 31
0.0000000000000000
  0
LINE
  5
4BC
100
AcDbEntity
  8
MAIN0
  6
CONTINUOUS
 62
3
100
AcDbLine
 10
603.0909736711850
 20
727.3216331360812
 30
0.0000000000000000
 11
600.5909736711850
 21
728.7650088090553
 31
0.0000000000000000
  0
CIRCLE
  5
4BD
100
AcDbEntity
  8
MAIN0
  6
CONTINUOUS
 62
3
100
AcDbCircle
 10
550.5909736711851
 20
725.8782574631746
 30
0.0000000000000000
 40
5.000000000000000
  0
CIRCLE
  5
4BE
100
AcDbEntity
  8
MAIN0
  6
CONTINUOUS
 62
3
100
AcDbCircle
 10
550.5909736711851
 20
725.8782574631746
 30
0.0000000000000000
 40
4.188101000000000
  0
LINE
  5
4BF
100
AcDbEntity
  8
MAIN0
  6
CONTINUOUS
 62
3
100
AcDbLine
 10
550.5909736711851
 20
728.7650088091228
 30
0.0000000000000000
 11
548.0909736711851
 21
727.3216331361487
 31
0.0000000000000000
  0
LINE
  5
4C0
100
AcDbEntity
  8
MAIN0
  6
CONTINUOUS
 62
3
100
AcDbLine
 10
548.0909736711851
 20
727.3216331361487
 30
0.0000000000000000
 11
548.0909736711851
 21
724.4348817902005
 31
0.0000000000000000
  0
LINE
  5
4C1
100
AcDbEntity
  8
MAIN0
  6
CONTINUOUS
 62
3
100
AcDbLine
 10
548.0909736711851
 20
724.4348817902005
 30
0.0000000000000000
 11
550.5909736711850
 21
722.9915061172264
 31
0.0000000000000000
  0
LINE
  5
4C2
100
AcDbEntity
  8
MAIN0
  6
CONTINUOUS
 62
3
100
AcDbLine
 10
550.5909736711851
 20
722.9915061172264
 30
0.0000000000000000
 11
553.0909736711851
 21
724.4348817902005
 31
0.0000000000000000
  0
LINE
  5
4C3
100
AcDbEntity
  8
MAIN0
  6
CONTINUOUS
 62
3
100
AcDbLine
 10
553.0909736711851
 20
724.4348817902005
 30
0.0000000000000000
 11
553.0909736711851
 21
727.3216331361487
 31
0.0000000000000000
  0
LINE
  5
4C4
100
AcDbEntity
  8
MAIN0
  6
CONTINUOUS
 62
3
100
AcDbLine
 10
553.0909736711850
 20
727.3216331361485
 30
0.0000000000000000
 11
550.5909736711850
 21
728.7650088091226
 31
0.0000000000000000
  0
CIRCLE
  5
4C5
100
AcDbEntity
  8
MAIN0
  6
CONTINUOUS
 62
3
100
AcDbCircle
 10
550.5909736711185
 20
645.8782574631748
 30
0.0000000000000000
 40
5.000000000000000
  0
CIRCLE
  5
4C6
100
AcDbEntity
  8
MAIN0
  6
CONTINUOUS
 62
3
100
AcDbCircle
 10
550.5909736711185
 20
645.8782574631748
 30
0.0000000000000000
 40
4.188101000000000
  0
LINE
  5
4C7
100
AcDbEntity
  8
MAIN0
  6
CONTINUOUS
 62
3
100
AcDbLine
 10
550.5909736711185
 20
648.7650088091230
 30
0.0000000000000000
 11
548.0909736711185
 21
647.3216331361489
 31
0.0000000000000000
  0
LINE
  5
4C8
100
AcDbEntity
  8
MAIN0
  6
CONTINUOUS
 62
3
100
AcDbLine
 10
548.0909736711185
 20
647.3216331361489
 30
0.0000000000000000
 11
548.0909736711185
 21
644.4348817902007
 31
0.0000000000000000
  0
LINE
  5
4C9
100
AcDbEntity
  8
MAIN0
  6
CONTINUOUS
 62
3
100
AcDbLine
 10
548.0909736711185
 20
644.4348817902007
 30
0.0000000000000000
 11
550.5909736711184
 21
642.9915061172267
 31
0.0000000000000000
  0
LINE
  5
4CA
100
AcDbEntity
  8
MAIN0
  6
CONTINUOUS
 62
3
100
AcDbLine
 10
550.5909736711185
 20
642.9915061172267
 30
0.0000000000000000
 11
553.0909736711185
 21
644.4348817902007
 31
0.0000000000000000
  0
LINE
  5
4CB
100
AcDbEntity
  8
MAIN0
  6
CONTINUOUS
 62
3
100
AcDbLine
 10
553.0909736711185
 20
644.4348817902007
 30
0.0000000000000000
 11
553.0909736711185
 21
647.3216331361489
 31
0.0000000000000000
  0
LINE
  5
4CC
100
AcDbEntity
  8
MAIN0
  6
CONTINUOUS
 62
3
100
AcDbLine
 10
553.0909736711184
 20
647.3216331361488
 30
0.0000000000000000
 11
550.5909736711184
 21
648.7650088091228
 31
0.0000000000000000
  0
CIRCLE
  5
4CD
100
AcDbEntity
  8
MAIN0
  6
CONTINUOUS
 62
3
100
AcDbCircle
 10
600.5909736711185
 20
645.8782574631073
 30
0.0000000000000000
 40
5.000000000000000
  0
CIRCLE
  5
4CE
100
AcDbEntity
  8
MAIN0
  6
CONTINUOUS
 62
3
100
AcDbCircle
 10
600.5909736711185
 20
645.8782574631073
 30
0.0000000000000000
 40
4.188101000000000
  0
LINE
  5
4CF
100
AcDbEntity
  8
MAIN0
  6
CONTINUOUS
 62
3
100
AcDbLine
 10
600.5909736711185
 20
648.7650088090554
 30
0.0000000000000000
 11
598.0909736711185
 21
647.3216331360814
 31
0.0000000000000000
  0
LINE
  5
4D0
100
AcDbEntity
  8
MAIN0
  6
CONTINUOUS
 62
3
100
AcDbLine
 10
598.0909736711185
 20
647.3216331360814
 30
0.0000000000000000
 11
598.0909736711185
 21
644.4348817901332
 31
0.0000000000000000
  0
LINE
  5
4D1
100
AcDbEntity
  8
MAIN0
  6
CONTINUOUS
 62
3
100
AcDbLine
 10
598.0909736711185
 20
644.4348817901331
 30
0.0000000000000000
 11
600.5909736711184
 21
642.9915061171591
 31
0.0000000000000000
  0
LINE
  5
4D2
100
AcDbEntity
  8
MAIN0
  6
CONTINUOUS
 62
3
100
AcDbLine
 10
600.5909736711185
 20
642.9915061171591
 30
0.0000000000000000
 11
603.0909736711185
 21
644.4348817901332
 31
0.0000000000000000
  0
LINE
  5
4D3
100
AcDbEntity
  8
MAIN0
  6
CONTINUOUS
 62
3
100
AcDbLine
 10
603.0909736711185
 20
644.4348817901332
 30
0.0000000000000000
 11
603.0909736711185
 21
647.3216331360814
 31
0.0000000000000000
  0
LINE
  5
4D4
100
AcDbEntity
  8
MAIN0
  6
CONTINUOUS
 62
3
100
AcDbLine
 10
603.0909736711185
 20
647.3216331360812
 30
0.0000000000000000
 11
600.5909736711184
 21
648.7650088090553
 31
0.0000000000000000
  0
CIRCLE
  5
4D5
100
AcDbEntity
  8
MAIN0
  6
CONTINUOUS
 62
3
100
AcDbCircle
 10
350.5909736689435
 20
710.8782574636126
 30
0.0000000000000000
 40
5.000000000000000
  0
CIRCLE
  5
4D6
100
AcDbEntity
  8
MAIN0
  6
CONTINUOUS
 62
3
100
AcDbCircle
 10
350.5909736689435
 20
710.8782574636126
 30
0.0000000000000000
 40
4.188101000000000
  0
LINE
  5
4D7
100
AcDbEntity
  8
MAIN0
  6
CONTINUOUS
 62
3
100
AcDbLine
 10
350.5909736689434
 20
713.7650088095609
 30
0.0000000000000000
 11
348.0909736689433
 21
712.3216331365868
 31
0.0000000000000000
  0
LINE
  5
4D8
100
AcDbEntity
  8
MAIN0
  6
CONTINUOUS
 62
3
100
AcDbLine
 10
348.0909736689435
 20
712.3216331365867
 30
0.0000000000000000
 11
348.0909736689435
 21
709.4348817906385
 31
0.0000000000000000
  0
LINE
  5
4D9
100
AcDbEntity
  8
MAIN0
  6
CONTINUOUS
 62
3
100
AcDbLine
 10
348.0909736689434
 20
709.4348817906385
 30
0.0000000000000000
 11
350.5909736689434
 21
707.9915061176645
 31
0.0000000000000000
  0
LINE
  5
4DA
100
AcDbEntity
  8
MAIN0
  6
CONTINUOUS
 62
3
100
AcDbLine
 10
350.5909736689434
 20
707.9915061176646
 30
0.0000000000000000
 11
353.0909736689434
 21
709.4348817906385
 31
0.0000000000000000
  0
LINE
  5
4DB
100
AcDbEntity
  8
MAIN0
  6
CONTINUOUS
 62
3
100
AcDbLine
 10
353.0909736689435
 20
709.4348817906385
 30
0.0000000000000000
 11
353.0909736689435
 21
712.3216331365867
 31
0.0000000000000000
  0
LINE
  5
4DC
100
AcDbEntity
  8
MAIN0
  6
CONTINUOUS
 62
3
100
AcDbLine
 10
353.0909736689435
 20
712.3216331365866
 30
0.0000000000000000
 11
350.5909736689434
 21
713.7650088095606
 31
0.0000000000000000
  0
CIRCLE
  5
4DD
100
AcDbEntity
  8
MAIN0
  6
CONTINUOUS
 62
3
100
AcDbCircle
 10
405.5909736689435
 20
710.8782574635385
 30
0.0000000000000000
 40
5.000000000000000
  0
CIRCLE
  5
4DE
100
AcDbEntity
  8
MAIN0
  6
CONTINUOUS
 62
3
100
AcDbCircle
 10
405.5909736689435
 20
710.8782574635385
 30
0.0000000000000000
 40
4.188101000000000
  0
LINE
  5
4DF
100
AcDbEntity
  8
MAIN0
  6
CONTINUOUS
 62
3
100
AcDbLine
 10
405.5909736689435
 20
713.7650088094866
 30
0.0000000000000000
 11
403.0909736689434
 21
712.3216331365126
 31
0.0000000000000000
  0
LINE
  5
4E0
100
AcDbEntity
  8
MAIN0
  6
CONTINUOUS
 62
3
100
AcDbLine
 10
403.0909736689435
 20
712.3216331365126
 30
0.0000000000000000
 11
403.0909736689435
 21
709.4348817905644
 31
0.0000000000000000
  0
LINE
  5
4E1
100
AcDbEntity
  8
MAIN0
  6
CONTINUOUS
 62
3
100
AcDbLine
 10
403.0909736689435
 20
709.4348817905643
 30
0.0000000000000000
 11
405.5909736689434
 21
707.9915061175902
 31
0.0000000000000000
  0
LINE
  5
4E2
100
AcDbEntity
  8
MAIN0
  6
CONTINUOUS
 62
3
100
AcDbLine
 10
405.5909736689435
 20
707.9915061175904
 30
0.0000000000000000
 11
408.0909736689435
 21
709.4348817905644
 31
0.0000000000000000
  0
LINE
  5
4E3
100
AcDbEntity
  8
MAIN0
  6
CONTINUOUS
 62
3
100
AcDbLine
 10
408.0909736689435
 20
709.4348817905644
 30
0.0000000000000000
 11
408.0909736689435
 21
712.3216331365126
 31
0.0000000000000000
  0
LINE
  5
4E4
100
AcDbEntity
  8
MAIN0
  6
CONTINUOUS
 62
3
100
AcDbLine
 10
408.0909736689434
 20
712.3216331365125
 30
0.0000000000000000
 11
405.5909736689434
 21
713.7650088094865
 31
0.0000000000000000
  0
CIRCLE
  5
4E5
100
AcDbEntity
  8
MAIN0
  6
CONTINUOUS
 62
3
100
AcDbCircle
 10
405.5909736689435
 20
660.8782574635385
 30
0.0000000000000000
 40
5.000000000000000
  0
CIRCLE
  5
4E6
100
AcDbEntity
  8
MAIN0
  6
CONTINUOUS
 62
3
100
AcDbCircle
 10
405.5909736689435
 20
660.8782574635385
 30
0.0000000000000000
 40
4.188101000000000
  0
LINE
  5
4E7
100
AcDbEntity
  8
MAIN0
  6
CONTINUOUS
 62
3
100
AcDbLine
 10
405.5909736689434
 20
663.7650088094866
 30
0.0000000000000000
 11
403.0909736689434
 21
662.3216331365126
 31
0.0000000000000000
  0
LINE
  5
4E8
100
AcDbEntity
  8
MAIN0
  6
CONTINUOUS
 62
3
100
AcDbLine
 10
403.0909736689435
 20
662.3216331365126
 30
0.0000000000000000
 11
403.0909736689435
 21
659.4348817905644
 31
0.0000000000000000
  0
LINE
  5
4E9
100
AcDbEntity
  8
MAIN0
  6
CONTINUOUS
 62
3
100
AcDbLine
 10
403.0909736689434
 20
659.4348817905643
 30
0.0000000000000000
 11
405.5909736689434
 21
657.9915061175902
 31
0.0000000000000000
  0
LINE
  5
4EA
100
AcDbEntity
  8
MAIN0
  6
CONTINUOUS
 62
3
100
AcDbLine
 10
405.5909736689434
 20
657.9915061175904
 30
0.0000000000000000
 11
408.0909736689435
 21
659.4348817905644
 31
0.0000000000000000
  0
LINE
  5
4EB
100
AcDbEntity
  8
MAIN0
  6
CONTINUOUS
 62
3
100
AcDbLine
 10
408.0909736689435
 20
659.4348817905644
 30
0.0000000000000000
 11
408.0909736689435
 21
662.3216331365126
 31
0.0000000000000000
  0
LINE
  5
4EC
100
AcDbEntity
  8
MAIN0
  6
CONTINUOUS
 62
3
100
AcDbLine
 10
408.0909736689434
 20
662.3216331365125
 30
0.0000000000000000
 11
405.5909736689434
 21
663.7650088094865
 31
0.0000000000000000
  0
CIRCLE
  5
4ED
100
AcDbEntity
  8
MAIN0
  6
CONTINUOUS
 62
3
100
AcDbCircle
 10
350.5909736689434
 20
660.8782574636126
 30
0.0000000000000000
 40
5.000000000000000
  0
CIRCLE
  5
4EE
100
AcDbEntity
  8
MAIN0
  6
CONTINUOUS
 62
3
100
AcDbCircle
 10
350.5909736689434
 20
660.8782574636126
 30
0.0000000000000000
 40
4.188101000000000
  0
LINE
  5
4EF
100
AcDbEntity
  8
MAIN0
  6
CONTINUOUS
 62
3
100
AcDbLine
 10
350.5909736689434
 20
663.7650088095609
 30
0.0000000000000000
 11
348.0909736689433
 21
662.3216331365868
 31
0.0000000000000000
  0
LINE
  5
4F0
100
AcDbEntity
  8
MAIN0
  6
CONTINUOUS
 62
3
100
AcDbLine
 10
348.0909736689434
 20
662.3216331365867
 30
0.0000000000000000
 11
348.0909736689434
 21
659.4348817906385
 31
0.0000000000000000
  0
LINE
  5
4F1
100
AcDbEntity
  8
MAIN0
  6
CONTINUOUS
 62
3
100
AcDbLine
 10
348.0909736689434
 20
659.4348817906384
 30
0.0000000000000000
 11
350.5909736689433
 21
657.9915061176645
 31
0.0000000000000000
  0
LINE
  5
4F2
100
AcDbEntity
  8
MAIN0
  6
CONTINUOUS
 62
3
100
AcDbLine
 10
350.5909736689433
 20
657.9915061176646
 30
0.0000000000000000
 11
353.0909736689434
 21
659.4348817906387
 31
0.0000000000000000
  0
LINE
  5
4F3
100
AcDbEntity
  8
MAIN0
  6
CONTINUOUS
 62
3
100
AcDbLine
 10
353.0909736689434
 20
659.4348817906385
 30
0.0000000000000000
 11
353.0909736689434
 21
662.3216331365867
 31
0.0000000000000000
  0
LINE
  5
4F4
100
AcDbEntity
  8
MAIN0
  6
CONTINUOUS
 62
3
100
AcDbLine
 10
353.0909736689433
 20
662.3216331365866
 30
0.0000000000000000
 11
350.5909736689433
 21
663.7650088095606
 31
0.0000000000000000
  0
CIRCLE
  5
4F5
100
AcDbEntity
  8
MAIN0
  6
CONTINUOUS
 62
3
100
AcDbCircle
 10
373.5909736689980
 20
685.8782574635819
 30
0.0000000000000000
 40
5.000000000000000
  0
CIRCLE
  5
4F6
100
AcDbEntity
  8
MAIN0
  6
CONTINUOUS
 62
3
100
AcDbCircle
 10
373.5909736689980
 20
685.8782574635819
 30
0.0000000000000000
 40
4.250000000000000
  0
CIRCLE
  5
4F7
100
AcDbEntity
  8
MAIN0
  6
CONTINUOUS
 62
3
100
AcDbCircle
 10
578.5909736711515
 20
685.8782574633055
 30
0.0000000000000000
 40
5.000000000000000
  0
CIRCLE
  5
4F8
100
AcDbEntity
  8
MAIN0
  6
CONTINUOUS
 62
3
100
AcDbCircle
 10
578.5909736711515
 20
685.8782574633055
 30
0.0000000000000000
 40
4.250000000000000
  0
ELLIPSE
  5
4F9
100
AcDbEntity
  8
MAIN0
  6
CONTINUOUS
 62
3
100
AcDbEllipse
 10
893.8751934616939
 20
445.6987371084065
 30
0.0000000000000000
 11
-2.050000000000000
 21
0.0000000000000000
 31
0.0000000000000000
210
0.0000000000000000
220
0.0000000000000000
230
1.000000000000000
 40
0.8536585365853660
 41
0.0000000000000000
 42
6.283185307179586
  0
LINE
  5
4FA
100
AcDbEntity
  8
MAIN0
  6
CONTINUOUS
 62
3
100
AcDbLine
 10
922.8751934616788
 20
626.6987371084006
 30
0.0000000000000000
 11
922.8751934616963
 21
460.2860385378821
 31
0.0000000000000000
  0
LINE
  5
4FB
100
AcDbEntity
  8
MAIN0
  6
CONTINUOUS
 62
3
100
AcDbLine
 10
930.8751934616803
 20
612.6987371084006
 30
0.0000000000000000
 11
930.8751934616995
 21
430.6987371084010
 31
0.0000000000000000
  0
LINE
  5
4FC
100
AcDbEntity
  8
MAIN0
  6
CONTINUOUS
 62
3
100
AcDbLine
 10
936.8751934616787
 20
626.6987371084010
 30
0.0000000000000000
 11
936.8751934616797
 21
617.6987371084010
 31
0.0000000000000000
  0
LINE
  5
4FD
100
AcDbEntity
  8
MAIN0
  6
CONTINUOUS
 62
3
100
AcDbLine
 10
934.3751934616788
 20
629.1987371084008
 30
0.0000000000000000
 11
925.3751934616788
 21
629.1987371084008
 31
0.0000000000000000
  0
LINE
  5
4FE
100
AcDbEntity
  8
MAIN0
  6
CONTINUOUS
 62
3
100
AcDbLine
 10
934.3751934616798
 20
615.1987371084008
 30
0.0000000000000000
 11
933.3751934616805
 21
615.1987371084008
 31
0.0000000000000000
  0
LINE
  5
4FF
100
AcDbEntity
  8
MAIN0
  6
CONTINUOUS
 62
3
100
AcDbLine
 10
900.8751934616992
 20
435.1987371084007
 30
0.0000000000000000
 11
886.4751934616991
 21
435.1987371084007
 31
0.0000000000000000
  0
LINE
  5
500
100
AcDbEntity
  8
MAIN0
  6
CONTINUOUS
 62
3
100
AcDbLine
 10
909.8751934616994
 20
432.1987371084007
 30
0.0000000000000000
 11
900.8751934616994
 21
432.1987371084007
 31
0.0000000000000000
  0
LINE
  5
501
100
AcDbEntity
  8
MAIN0
  6
CONTINUOUS
 62
3
100
AcDbLine
 10
900.8751934616981
 20
442.1987371084007
 30
0.0000000000000000
 11
900.8751934616993
 21
432.1987371084007
 31
0.0000000000000000
  0
LINE
  5
502
100
AcDbEntity
  8
MAIN0
  6
CONTINUOUS
 62
3
100
AcDbLine
 10
885.8751934616981
 20
442.1987371084008
 30
0.0000000000000000
 11
885.8751934616988
 21
435.7987371084009
 31
0.0000000000000000
  0
LINE
  5
503
100
AcDbEntity
  8
MAIN0
  6
CONTINUOUS
 62
3
100
AcDbLine
 10
928.3751934616996
 20
428.1987371084008
 30
0.0000000000000000
 11
924.8033966919675
 21
428.1987371084008
 31
0.0000000000000000
  0
LINE
  5
504
100
AcDbEntity
  8
MAIN0
  6
CONTINUOUS
 62
3
100
AcDbLine
 10
909.8751934616981
 20
442.1987371084006
 30
0.0000000000000000
 11
909.8751934616993
 21
432.1987371084006
 31
0.0000000000000000
  0
LINE
  5
505
100
AcDbEntity
  8
MAIN0
  6
CONTINUOUS
 62
3
100
AcDbLine
 10
885.8751934616988
 20
435.7987371084009
 30
0.0000000000000000
 11
886.4751934616990
 21
435.1987371084009
 31
0.0000000000000000
  0
LINE
  5
506
100
AcDbEntity
  8
MAIN0
  6
CONTINUOUS
 62
3
100
AcDbLine
 10
909.8751934616994
 20
432.1987371083969
 30
0.0000000000000000
 11
924.4854803231798
 21
428.2839225426782
 31
0.0000000000000000
  0
LINE
  5
507
100
AcDbEntity
  8
MAIN0
  6
CONTINUOUS
 62
3
100
AcDbLine
 10
885.8751934616984
 20
442.1987371084006
 30
0.0000000000000000
 11
900.8751934616984
 21
442.1987371084007
 31
0.0000000000000000
  0
LINE
  5
508
100
AcDbEntity
  8
MAIN0
  6
CONTINUOUS
 62
3
100
AcDbLine
 10
900.8751934616992
 20
449.1987371084008
 30
0.0000000000000000
 11
886.4751934616991
 21
449.1987371084007
 31
0.0000000000000000
  0
LINE
  5
509
100
AcDbEntity
  8
MAIN0
  6
CONTINUOUS
 62
3
100
AcDbLine
 10
909.8751934616994
 20
452.1987371084008
 30
0.0000000000000000
 11
900.8751934616994
 21
452.1987371084008
 31
0.0000000000000000
  0
LINE
  5
50A
100
AcDbEntity
  8
MAIN0
  6
CONTINUOUS
 62
3
100
AcDbLine
 10
900.8751934616984
 20
442.1987371084008
 30
0.0000000000000000
 11
900.8751934616994
 21
452.1987371084008
 31
0.0000000000000000
  0
LINE
  5
50B
100
AcDbEntity
  8
MAIN0
  6
CONTINUOUS
 62
3
100
AcDbLine
 10
885.8751934616985
 20
442.1987371084007
 30
0.0000000000000000
 11
885.8751934616992
 21
448.5987371084008
 31
0.0000000000000000
  0
LINE
  5
50C
100
AcDbEntity
  8
MAIN0
  6
CONTINUOUS
 62
3
100
AcDbLine
 10
909.8751934616984
 20
442.1987371084008
 30
0.0000000000000000
 11
909.8751934616994
 21
452.1987371084008
 31
0.0000000000000000
  0
LINE
  5
50D
100
AcDbEntity
  8
MAIN0
  6
CONTINUOUS
 62
3
100
AcDbLine
 10
885.8751934616992
 20
448.5987371084008
 30
0.0000000000000000
 11
886.4751934616993
 21
449.1987371084008
 31
0.0000000000000000
  0
LINE
  5
50E
100
AcDbEntity
  8
MAIN0
  6
CONTINUOUS
 62
3
100
AcDbLine
 10
909.8751934616993
 20
452.1987371084049
 30
0.0000000000000000
 11
918.4281077323108
 21
454.4904835801467
 31
0.0000000000000000
  0
ARC
  5
50F
100
AcDbEntity
  8
MAIN0
  6
CONTINUOUS
 62
3
100
AcDbCircle
 10
916.8751934616964
 20
460.2860385378812
 30
0.0000000000000000
 40
6.000000000000000
100
AcDbArc
 50
284.9999999999930
 51
360.0000000000001
  0
ARC
  5
510
100
AcDbEntity
  8
MAIN0
  6
CONTINUOUS
 62
3
100
AcDbCircle
 10
928.3751934616996
 20
430.6987371084009
 30
0.0000000000000000
 40
2.500000000000000
100
AcDbArc
 50
270.0000000000001
 51
360.0000000000001
  0
ARC
  5
511
100
AcDbEntity
  8
MAIN0
  6
CONTINUOUS
 62
3
100
AcDbCircle
 10
925.1325279359357
 20
430.6987371084009
 30
0.0000000000000000
 40
2.500000000000000
100
AcDbArc
 50
255.0000000000070
 51
270.0000000000001
  0
ARC
  5
512
100
AcDbEntity
  8
MAIN0
  6
CONTINUOUS
 62
3
100
AcDbCircle
 10
925.3751934616789
 20
626.6987371084008
 30
0.0000000000000000
 40
2.500000000000000
100
AcDbArc
 50
90.00000000000007
 51
180.0000000000001
  0
ARC
  5
513
100
AcDbEntity
  8
MAIN0
  6
CONTINUOUS
 62
3
100
AcDbCircle
 10
933.3751934616803
 20
612.6987371084008
 30
0.0000000000000000
 40
2.500000000000000
100
AcDbArc
 50
90.00000000000007
 51
180.0000000000001
  0
ARC
  5
514
100
AcDbEntity
  8
MAIN0
  6
CONTINUOUS
 62
3
100
AcDbCircle
 10
925.3751934616789
 20
626.6987371084008
 30
0.0000000000000000
 40
2.500000000000000
100
AcDbArc
 50
90.00000000000007
 51
180.0000000000001
  0
ARC
  5
515
100
AcDbEntity
  8
MAIN0
  6
CONTINUOUS
 62
3
100
AcDbCircle
 10
933.3751934616805
 20
612.6987371084008
 30
0.0000000000000000
 40
2.500000000000000
100
AcDbArc
 50
90.00000000000007
 51
180.0000000000001
  0
ARC
  5
516
100
AcDbEntity
  8
MAIN0
  6
CONTINUOUS
 62
3
100
AcDbCircle
 10
934.3751934616789
 20
626.6987371084008
 30
0.0000000000000000
 40
2.500000000000000
100
AcDbArc
 50
7.633331235512440e-014
 51
90.00000000000007
  0
ARC
  5
517
100
AcDbEntity
  8
MAIN0
  6
CONTINUOUS
 62
3
100
AcDbCircle
 10
934.3751934616798
 20
617.6987371084008
 30
0.0000000000000000
 40
2.500000000000000
100
AcDbArc
 50
270.0000000000001
 51
360.0000000000001
  0
LINE
  5
518
100
AcDbEntity
  8
MAIN1
  6
CONTINUOUS
 62
7
100
AcDbLine
 10
937.3751934616794
 20
615.1987371084008
 30
0.0000000000000000
 11
937.3751934616794
 21
617.2997576228345
 31
0.0000000000000000
  0
LINE
  5
519
100
AcDbEntity
  8
MAIN1
  6
CONTINUOUS
 62
7
100
AcDbLine
 10
936.8751934616794
 20
615.6987371084008
 30
0.0000000000000000
 11
936.8751934616794
 21
628.6987371084008
 31
0.0000000000000000
  0
LINE
  5
51A
100
AcDbEntity
  8
MAIN1
  6
CONTINUOUS
 62
7
100
AcDbLine
 10
937.3751934616794
 20
615.1987371084008
 30
0.0000000000000000
 11
944.3751934616794
 21
615.1987371084008
 31
0.0000000000000000
  0
LINE
  5
51B
100
AcDbEntity
  8
MAIN1
  6
CONTINUOUS
 62
7
100
AcDbLine
 10
937.3751934616795
 20
629.1987371084008
 30
0.0000000000000000
 11
944.3751934616795
 21
629.1987371084008
 31
0.0000000000000000
  0
LINE
  5
51C
100
AcDbEntity
  8
MAIN1
  6
CONTINUOUS
 62
7
100
AcDbLine
 10
936.8751934616796
 20
615.6987371084008
 30
0.0000000000000000
 11
937.3751934616796
 21
615.1987371084009
 31
0.0000000000000000
  0
LINE
  5
51D
100
AcDbEntity
  8
MAIN1
  6
CONTINUOUS
 62
7
100
AcDbLine
 10
944.3751934616797
 20
615.1987371084010
 30
0.0000000000000000
 11
944.8751934616797
 21
615.6987371084008
 31
0.0000000000000000
  0
LINE
  5
51E
100
AcDbEntity
  8
MAIN1
  6
CONTINUOUS
 62
7
100
AcDbLine
 10
944.3751934616795
 20
629.1987371084009
 30
0.0000000000000000
 11
944.8751934616794
 21
628.6987371084010
 31
0.0000000000000000
  0
LINE
  5
51F
100
AcDbEntity
  8
MAIN1
  6
CONTINUOUS
 62
7
100
AcDbLine
 10
937.3751934616794
 20
629.1987371084007
 30
0.0000000000000000
 11
936.8751934616794
 21
628.6987371084008
 31
0.0000000000000000
  0
LINE
  5
520
100
AcDbEntity
  8
MAIN1
  6
CONTINUOUS
 62
7
100
AcDbLine
 10
936.8751934616794
 20
627.0977165939671
 30
0.0000000000000000
 11
942.8751934616794
 21
627.0977165939671
 31
0.0000000000000000
  0
LINE
  5
521
100
AcDbEntity
  8
MAIN1
  6
CONTINUOUS
 62
7
100
AcDbLine
 10
936.8751934616794
 20
617.2997576228345
 30
0.0000000000000000
 11
942.8751934616794
 21
617.2997576228345
 31
0.0000000000000000
  0
LINE
  5
522
100
AcDbEntity
  8
MAIN1
  6
CONTINUOUS
 62
7
100
AcDbLine
 10
937.3751934616794
 20
627.0977165939671
 30
0.0000000000000000
 11
937.3751934616794
 21
629.1987371084008
 31
0.0000000000000000
  0
LINE
  5
523
100
AcDbEntity
  8
MAIN1
  6
CONTINUOUS
 62
7
100
AcDbLine
 10
944.3751934616794
 20
615.1987371084008
 30
0.0000000000000000
 11
944.3751934616794
 21
629.1987371084008
 31
0.0000000000000000
  0
LINE
  5
524
100
AcDbEntity
  8
MAIN1
  6
CONTINUOUS
 62
7
100
AcDbLine
 10
944.8751934616794
 20
628.6851587637501
 30
0.0000000000000000
 11
944.8751934616794
 21
615.7123154530514
 31
0.0000000000000000
  0
LINE
  5
525
100
AcDbEntity
  8
MAIN1
  6
CONTINUOUS
 62
7
100
AcDbLine
 10
999.2000866238561
 20
613.1987371084006
 30
0.0000000000000000
 11
962.8751934616794
 21
613.1987371084006
 31
0.0000000000000000
  0
LINE
  5
526
100
AcDbEntity
  8
MAIN1
  6
CONTINUOUS
 62
7
100
AcDbLine
 10
999.2000866238561
 20
631.1987371084009
 30
0.0000000000000000
 11
962.8751934616794
 21
631.1987371084009
 31
0.0000000000000000
  0
LINE
  5
527
100
AcDbEntity
  8
MAIN1
  6
CONTINUOUS
 62
7
100
AcDbLine
 10
946.3864414302836
 20
614.1147788879229
 30
0.0000000000000000
 11
962.8751934616795
 21
613.1987371084006
 31
0.0000000000000000
  0
LINE
  5
528
100
AcDbEntity
  8
MAIN1
  6
CONTINUOUS
 62
7
100
AcDbLine
 10
962.8751934616795
 20
631.1987371084008
 30
0.0000000000000000
 11
946.3864414302835
 21
630.2826953288786
 31
0.0000000000000000
  0
ARC
  5
529
100
AcDbEntity
  8
MAIN1
  6
CONTINUOUS
 62
7
100
AcDbCircle
 10
972.8751934616794
 20
622.1987371084008
 30
0.0000000000000000
 40
30.00000000000000
100
AcDbArc
 50
347.1604115930955
 51
372.8395884069045
  0
ARC
  5
52A
100
AcDbEntity
  8
MAIN1
  6
CONTINUOUS
 62
7
100
AcDbCircle
 10
999.2000866238561
 20
616.1987371084006
 30
0.0000000000000000
 40
3.000000000000000
100
AcDbArc
 50
270.0000000000000
 51
347.1604115930957
  0
ARC
  5
52B
100
AcDbEntity
  8
MAIN1
  6
CONTINUOUS
 62
7
100
AcDbCircle
 10
999.2000866238561
 20
628.1987371084009
 30
0.0000000000000000
 40
3.000000000000000
100
AcDbArc
 50
12.83958840690469
 51
89.99999999999946
  0
ARC
  5
52C
100
AcDbEntity
  8
MAIN1
  6
CONTINUOUS
 62
7
100
AcDbCircle
 10
946.4751934616795
 20
615.7123154530514
 30
0.0000000000000000
 40
1.600000000000000
100
AcDbArc
 50
180.0000000000000
 51
266.8201698801350
  0
ARC
  5
52D
100
AcDbEntity
  8
MAIN1
  6
CONTINUOUS
 62
7
100
AcDbCircle
 10
946.4751934616795
 20
628.6851587637501
 30
0.0000000000000000
 40
1.600000000000000
100
AcDbArc
 50
93.17983011986493
 51
179.9999999999999
  0
LINE
  5
52E
100
AcDbEntity
  8
MAIN1
  6
CONTINUOUS
 62
7
100
AcDbLine
 10
942.8751934616794
 20
617.2997576228345
 30
0.0000000000000000
 11
942.8751934616794
 21
627.0977165939671
 31
0.0000000000000000
  0
LINE
  5
52F
100
AcDbEntity
  8
MAIN3
  6
CONTINUOUS
 62
3
100
AcDbLine
 10
936.8751934616794
 20
617.2997576228345
 30
0.0000000000000000
 11
942.8751934616794
 21
627.0977165939671
 31
0.0000000000000000
  0
LINE
  5
530
100
AcDbEntity
  8
MAIN3
  6
CONTINUOUS
 62
3
100
AcDbLine
 10
936.8751934616796
 20
627.0977165939673
 30
0.0000000000000000
 11
942.8751934616796
 21
617.2997576228347
 31
0.0000000000000000
  0
LINE
  5
531
100
AcDbEntity
  8
MAIN1
  6
CONTINUOUS
 62
7
100
AcDbLine
 10
962.8751934616794
 20
631.1987371084009
 30
0.0000000000000000
 11
962.8751934616794
 21
613.1987371084006
 31
0.0000000000000000
  0
LINE
  5
532
100
AcDbEntity
  8
MAIN0
  6
CONTINUOUS
 62
3
100
AcDbLine
 10
936.3695092508928
 20
374.3711647239699
 30
0.0000000000000000
 11
936.3695092508928
 21
388.7711647239700
 31
0.0000000000000000
  0
LINE
  5
533
100
AcDbEntity
  8
MAIN0
  6
CONTINUOUS
 62
3
100
AcDbLine
 10
936.3695092508932
 20
388.7711647239701
 30
0.0000000000000000
 11
933.5982279587832
 21
390.3711647239700
 31
0.0000000000000000
  0
LINE
  5
534
100
AcDbEntity
  8
MAIN0
  6
CONTINUOUS
 62
3
100
AcDbLine
 10
933.5982279587828
 20
390.3711647239699
 30
0.0000000000000000
 11
915.1407905430032
 21
390.3711647239699
 31
0.0000000000000000
  0
LINE
  5
535
100
AcDbEntity
  8
MAIN0
  6
CONTINUOUS
 62
3
100
AcDbLine
 10
915.1407905430036
 20
390.3711647239704
 30
0.0000000000000000
 11
912.3695092508932
 21
388.7711647239702
 31
0.0000000000000000
  0
LINE
  5
536
100
AcDbEntity
  8
MAIN0
  6
CONTINUOUS
 62
3
100
AcDbLine
 10
912.3695092508928
 20
388.7711647239700
 30
0.0000000000000000
 11
912.3695092508928
 21
374.3711647239699
 31
0.0000000000000000
  0
LINE
  5
537
100
AcDbEntity
  8
MAIN0
  6
CONTINUOUS
 62
3
100
AcDbLine
 10
936.3695092508928
 20
388.7711647239700
 30
0.0000000000000000
 11
912.3695092508928
 21
388.7711647239700
 31
0.0000000000000000
  0
LINE
  5
538
100
AcDbEntity
  8
MAIN0
  6
CONTINUOUS
 62
3
100
AcDbLine
 10
941.8695092508928
 20
374.3711647239699
 30
0.0000000000000000
 11
906.8695092508928
 21
374.3711647239699
 31
0.0000000000000000
  0
LINE
  5
539
100
AcDbEntity
  8
MAIN0
  6
CONTINUOUS
 62
3
100
AcDbLine
 10
941.8695092508928
 20
369.3711647239699
 30
0.0000000000000000
 11
941.8695092508928
 21
374.3711647239699
 31
0.0000000000000000
  0
LINE
  5
53A
100
AcDbEntity
  8
MAIN0
  6
CONTINUOUS
 62
3
100
AcDbLine
 10
906.8695092508928
 20
369.3711647239699
 30
0.0000000000000000
 11
906.8695092508928
 21
374.3711647239699
 31
0.0000000000000000
  0
LINE
  5
53B
100
AcDbEntity
  8
MAIN0
  6
CONTINUOUS
 62
3
100
AcDbLine
 10
910.1195092508754
 20
309.3711647240850
 30
0.0000000000000000
 11
910.1195092508679
 21
320.3711647240850
 31
0.0000000000000000
  0
LINE
  5
53C
100
AcDbEntity
  8
MAIN0
  6
CONTINUOUS
 62
3
100
AcDbLine
 10
938.6195092508754
 20
309.3711647240969
 30
0.0000000000000000
 11
938.6195092508679
 21
320.3711647240969
 31
0.0000000000000000
  0
LINE
  5
53D
100
AcDbEntity
  8
MAIN0
  6
CONTINUOUS
 62
3
100
AcDbLine
 10
910.1195092508760
 20
309.3711647240850
 30
0.0000000000000000
 11
938.6195092508760
 21
309.3711647240969
 31
0.0000000000000000
  0
LINE
  5
53E
100
AcDbEntity
  8
MAIN0
  6
CONTINUOUS
 62
3
100
AcDbLine
 10
915.6195092508623
 20
328.3711647240872
 30
0.0000000000000000
 11
933.1195092508623
 21
328.3711647240945
 31
0.0000000000000000
  0
LINE
  5
53F
100
AcDbEntity
  8
MAIN0
  6
CONTINUOUS
 62
3
100
AcDbLine
 10
910.1195092508679
 20
320.3711647240850
 30
0.0000000000000000
 11
915.6195092508679
 21
320.3711647240873
 31
0.0000000000000000
  0
LINE
  5
540
100
AcDbEntity
  8
MAIN0
  6
CONTINUOUS
 62
3
100
AcDbLine
 10
933.1195092508679
 20
320.3711647240946
 30
0.0000000000000000
 11
938.6195092508679
 21
320.3711647240969
 31
0.0000000000000000
  0
LINE
  5
541
100
AcDbEntity
  8
MAIN0
  6
CONTINUOUS
 62
3
100
AcDbLine
 10
915.6195092508679
 20
320.3711647240871
 30
0.0000000000000000
 11
915.6195092508624
 21
328.3711647240871
 31
0.0000000000000000
  0
LINE
  5
542
100
AcDbEntity
  8
MAIN0
  6
CONTINUOUS
 62
3
100
AcDbLine
 10
933.1195092508679
 20
320.3711647240945
 30
0.0000000000000000
 11
933.1195092508624
 21
328.3711647240945
 31
0.0000000000000000
  0
LINE
  5
543
100
AcDbEntity
  8
MAIN0
  6
CONTINUOUS
 62
3
100
AcDbLine
 10
917.4520412508755
 20
339.3711647240940
 30
0.0000000000000000
 11
917.4520412508755
 21
328.3711647240970
 31
0.0000000000000000
  0
LINE
  5
544
100
AcDbEntity
  8
MAIN0
  6
CONTINUOUS
 62
3
100
AcDbLine
 10
916.3695092508756
 20
328.3711647240970
 30
0.0000000000000000
 11
916.3695092508756
 21
339.3711647240936
 31
0.0000000000000000
  0
LINE
  5
545
100
AcDbEntity
  8
MAIN0
  6
CONTINUOUS
 62
3
100
AcDbLine
 10
931.2869772508757
 20
339.3711647240998
 30
0.0000000000000000
 11
931.2869772508757
 21
328.3711647240970
 31
0.0000000000000000
  0
LINE
  5
546
100
AcDbEntity
  8
MAIN0
  6
CONTINUOUS
 62
3
100
AcDbLine
 10
932.3695092508756
 20
339.3711647241003
 30
0.0000000000000000
 11
932.3695092508756
 21
328.3711647240970
 31
0.0000000000000000
  0
LINE
  5
547
100
AcDbEntity
  8
MAIN0
  6
CONTINUOUS
 62
3
100
AcDbLine
 10
1024.057957657732
 20
198.3268088402917
 30
0.0000000000000000
 11
1054.057957657732
 21
198.3268088402834
 31
0.0000000000000000
  0
LINE
  5
548
100
AcDbEntity
  8
MAIN0
  6
CONTINUOUS
 62
3
100
AcDbLine
 10
1054.057957657731
 20
198.3268088402834
 30
0.0000000000000000
 11
1054.057957657712
 21
226.8268088402834
 31
0.0000000000000000
  0
LINE
  5
549
100
AcDbEntity
  8
MAIN0
  6
HIDDEN
 62
3
100
AcDbLine
 10
1024.057957657728
 20
203.8268088402917
 30
0.0000000000000000
 11
1054.057957657728
 21
203.8268088402834
 31
0.0000000000000000
  0
LINE
  5
54A
100
AcDbEntity
  8
MAIN0
  6
HIDDEN
 62
3
100
AcDbLine
 10
1024.057957657715
 20
221.3268088402916
 30
0.0000000000000000
 11
1054.057957657715
 21
221.3268088402833
 31
0.0000000000000000
  0
LINE
  5
54B
100
AcDbEntity
  8
MAIN0
  6
CONTINUOUS
 62
3
100
AcDbLine
 10
1024.057957657732
 20
198.3268088402917
 30
0.0000000000000000
 11
1024.057957657712
 21
226.8268088402917
 31
0.0000000000000000
  0
LINE
  5
54C
100
AcDbEntity
  8
MAIN0
  6
CONTINUOUS
 62
3
100
AcDbLine
 10
1024.057957657712
 20
226.8268088402915
 30
0.0000000000000000
 11
1054.057957657712
 21
226.8268088402832
 31
0.0000000000000000
  0
LINE
  5
54D
100
AcDbEntity
  8
MAIN0
  6
CENTER
 62
3
100
AcDbLine
 10
1020.795339635432
 20
212.5768088402925
 30
0.0000000000000000
 11
1057.613436999071
 21
212.5768088402823
 31
0.0000000000000000
  0
LINE
  5
54E
100
AcDbEntity
  8
MAIN0
  6
CONTINUOUS
 62
3
100
AcDbLine
 10
1024.057957657745
 20
328.3711647239278
 30
0.0000000000000000
 11
1054.057957657745
 21
328.3711647239402
 31
0.0000000000000000
  0
LINE
  5
54F
100
AcDbEntity
  8
MAIN0
  6
CONTINUOUS
 62
3
100
AcDbLine
 10
1024.057957657750
 20
320.3711647239279
 30
0.0000000000000000
 11
1054.057957657750
 21
320.3711647239404
 31
0.0000000000000000
  0
LINE
  5
550
100
AcDbEntity
  8
MAIN0
  6
CONTINUOUS
 62
3
100
AcDbLine
 10
1054.057957657757
 20
309.3711647239402
 30
0.0000000000000000
 11
1054.057957657744
 21
328.3711647239402
 31
0.0000000000000000
  0
LINE
  5
551
100
AcDbEntity
  8
MAIN0
  6
CONTINUOUS
 62
3
100
AcDbLine
 10
1024.057957657758
 20
309.3711647239278
 30
0.0000000000000000
 11
1054.057957657758
 21
309.3711647239402
 31
0.0000000000000000
  0
LINE
  5
552
100
AcDbEntity
  8
MAIN0
  6
CONTINUOUS
 62
3
100
AcDbLine
 10
1024.057957657757
 20
309.3711647239279
 30
0.0000000000000000
 11
1024.057957657744
 21
328.3711647239279
 31
0.0000000000000000
  0
LINE
  5
553
100
AcDbEntity
  8
MAIN0
  6
CENTER
 62
3
100
AcDbLine
 10
1009.805193461690
 20
622.1987371084006
 30
0.0000000000000000
 11
918.8751934616896
 21
622.1987371084006
 31
0.0000000000000000
  0
LINE
  5
554
100
AcDbEntity
  8
MAIN0
  6
CENTER
 62
3
100
AcDbLine
 10
936.8751934616980
 20
442.1987371084006
 30
0.0000000000000000
 11
864.1497033427627
 21
442.1987371084006
 31
0.0000000000000000
  0
CIRCLE
  5
555
100
AcDbEntity
  8
MAIN0
  6
CONTINUOUS
 62
3
100
AcDbCircle
 10
1039.057957657721
 20
212.5768088402876
 30
0.0000000000000000
 40
7.000000000000000
  0
CIRCLE
  5
556
100
AcDbEntity
  8
MAIN0
  6
CONTINUOUS
 62
3
100
AcDbCircle
 10
1039.057957657721
 20
212.5768088402876
 30
0.0000000000000000
 40
8.000000000000000
  0
LINE
  5
557
100
AcDbEntity
  8
WAKU0
  6
CONTINUOUS
 62
3
100
AcDbLine
 10
240.0000000000000
 20
51.00000000000000
 30
0.0000000000000000
 11
410.0000000000000
 21
51.00000000000000
 31
0.0000000000000000
  0
LINE
  5
558
100
AcDbEntity
  8
WAKU0
  6
CONTINUOUS
 62
3
100
AcDbLine
 10
240.0000000000000
 20
51.00000000000000
 30
0.0000000000000000
 11
240.0000000000000
 21
12.00000000000000
 31
0.0000000000000000
  0
LINE
  5
559
100
AcDbEntity
  8
WAKU0
  6
CONTINUOUS
 62
3
100
AcDbLine
 10
312.0000000000000
 20
51.00000000000000
 30
0.0000000000000000
 11
312.0000000000000
 21
12.00000000000000
 31
0.0000000000000000
  0
LINE
  5
55A
100
AcDbEntity
  8
WAKU0
  6
CONTINUOUS
 62
3
100
AcDbLine
 10
332.0000000000000
 20
51.00000000000000
 30
0.0000000000000000
 11
332.0000000000000
 21
12.00000000000000
 31
0.0000000000000000
  0
LINE
  5
55B
100
AcDbEntity
  8
WAKU0
  6
CONTINUOUS
 62
3
100
AcDbLine
 10
344.0000000000000
 20
51.00000000000000
 30
0.0000000000000000
 11
344.0000000000000
 21
12.00000000000000
 31
0.0000000000000000
  0
LINE
  5
55C
100
AcDbEntity
  8
WAKU0
  6
CONTINUOUS
 62
3
100
AcDbLine
 10
344.0000000000000
 20
37.00000000000000
 30
0.0000000000000000
 11
410.0000000000000
 21
37.00000000000000
 31
0.0000000000000000
  0
LINE
  5
55D
100
AcDbEntity
  8
WAKU0
  6
CONTINUOUS
 62
3
100
AcDbLine
 10
332.0000000000000
 20
23.00000000000000
 30
0.0000000000000000
 11
410.0000000000000
 21
23.00000000000000
 31
0.0000000000000000
  0
LINE
  5
55E
100
AcDbEntity
  8
WAKU0
  6
CONTINUOUS
 62
3
100
AcDbLine
 10
375.0000000000000
 20
51.00000000000000
 30
0.0000000000000000
 11
375.0000000000000
 21
44.00000000000000
 31
0.0000000000000000
  0
LINE
  5
55F
100
AcDbEntity
  8
WAKU0
  6
CONTINUOUS
 62
3
100
AcDbLine
 10
387.0000000000000
 20
51.00000000000000
 30
0.0000000000000000
 11
387.0000000000000
 21
44.00000000000000
 31
0.0000000000000000
  0
LINE
  5
560
100
AcDbEntity
  8
WAKU0
  6
CONTINUOUS
 62
3
100
AcDbLine
 10
312.0000000000000
 20
31.50000000000000
 30
0.0000000000000000
 11
332.0000000000000
 21
31.50000000000000
 31
0.0000000000000000
  0
LINE
  5
561
100
AcDbEntity
  8
WAKU0
  6
CONTINUOUS
 62
3
100
AcDbLine
 10
332.0000000000000
 20
44.00000000000000
 30
0.0000000000000000
 11
410.0000000000000
 21
44.00000000000000
 31
0.0000000000000000
  0
LINE
  5
562
100
AcDbEntity
  8
WAKU0
  6
CONTINUOUS
 62
3
100
AcDbLine
 10
240.0000000000000
 20
37.00000000000000
 30
0.0000000000000000
 11
312.0000000000000
 21
37.00000000000000
 31
0.0000000000000000
  0
LINE
  5
563
100
AcDbEntity
  8
WAKU0
  6
CONTINUOUS
 62
3
100
AcDbLine
 10
240.0000000000000
 20
23.00000000000000
 30
0.0000000000000000
 11
312.0000000000000
 21
23.00000000000000
 31
0.0000000000000000
  0
LINE
  5
564
100
AcDbEntity
  8
WAKU0
  6
CONTINUOUS
 62
3
100
AcDbLine
 10
288.0000000000000
 20
37.00000000000000
 30
0.0000000000000000
 11
288.0000000000000
 21
12.00000000000000
 31
0.0000000000000000
  0
LINE
  5
565
100
AcDbEntity
  8
WAKU0
  6
CONTINUOUS
 62
3
100
AcDbLine
 10
264.0000000000000
 20
37.00000000000000
 30
0.0000000000000000
 11
264.0000000000000
 21
23.00000000000000
 31
0.0000000000000000
  0
LINE
  5
566
100
AcDbEntity
  8
WAKU0
  6
CONTINUOUS
 62
3
100
AcDbLine
 10
300.0000000000000
 20
26.00000000000000
 30
0.0000000000000000
 11
300.0000000000000
 21
23.00000000000000
 31
0.0000000000000000
  0
LINE
  5
567
100
AcDbEntity
  8
WAKU0
  6
CONTINUOUS
 62
3
100
AcDbLine
 10
276.0000000000000
 20
26.00000000000000
 30
0.0000000000000000
 11
276.0000000000000
 21
23.00000000000000
 31
0.0000000000000000
  0
LINE
  5
568
100
AcDbEntity
  8
WAKU0
  6
CONTINUOUS
 62
3
100
AcDbLine
 10
252.0000000000000
 20
26.00000000000000
 30
0.0000000000000000
 11
252.0000000000000
 21
23.00000000000000
 31
0.0000000000000000
  0
LINE
  5
569
100
AcDbEntity
  8
WAKU0
  6
CONTINUOUS
 62
3
100
AcDbLine
 10
258.0000000000000
 20
51.00000000000000
 30
0.0000000000000000
 11
258.0000000000000
 21
37.00000000000000
 31
0.0000000000000000
  0
LINE
  5
56A
100
AcDbEntity
  8
WAKU0
  6
CONTINUOUS
 62
3
100
AcDbLine
 10
240.0000000000000
 20
45.00000000000000
 30
0.0000000000000000
 11
312.0000000000000
 21
45.00000000000000
 31
0.0000000000000000
  0
LINE
  5
56B
100
AcDbEntity
  8
WAKU0
  6
HIDDEN
 62
3
100
AcDbLine
 10
360.5000000000000
 20
23.00000000000000
 30
0.0000000000000000
 11
360.5000000000000
 21
12.00000000000000
 31
0.0000000000000000
  0
LINE
  5
56C
100
AcDbEntity
  8
WAKU0
  6
HIDDEN
 62
3
100
AcDbLine
 10
372.9000000000000
 20
23.00000000000000
 30
0.0000000000000000
 11
372.9000000000000
 21
12.00000000000000
 31
0.0000000000000000
  0
MTEXT
  5
56D
100
AcDbEntity
  8
WAKU0
  6
CONTINUOUS
 62
3
100
AcDbMText
 10
344.4820000243485
 20
49.04999995231628
 30
0.0000000000000000
 40
3.099999904632568
 41
0.0000000000000000
 71
     1
 72
     1
  1
{\H0.92x;{VE125LN}}
 11
1.000000000000000
 21
0.0000000000000000
 31
0.0000000000000000
  7
STANDARD
  0
MTEXT
  5
56E
100
AcDbEntity
  8
WAKU0
  6
CONTINUOUS
 62
3
100
AcDbMText
 10
360.3350002765656
 20
43.50000000000000
 30
0.0000000000000000
 40
3.000000000000000
 41
0.0000000000000000
 71
     1
 72
     1
  1
{\H0.94x;{パワーバイス\PＰＯＷＥＲ　ＶＩＳＥ}}
 11
1.000000000000000
 21
0.0000000000000000
 31
0.0000000000000000
  7
KNJYOKO
  0
MTEXT
  5
56F
100
AcDbEntity
  8
WAKU0
  6
CONTINUOUS
 62
3
100
AcDbMText
 10
348.9999989867210
 20
34.83333333333333
 30
0.0000000000000000
 40
4.000000000000000
 41
0.0000000000000000
 71
     1
 72
     1
  1
{\H0.59x;{ＶＥ１２５ＬＮ　ガイケイ\PＶＥ１２５ＬＮ　ＯＵＴＳＩＤＥ　ＶＩＥＷ}}
 11
1.000000000000000
 21
0.0000000000000000
 31
0.0000000000000000
  7
KNJYOKO
  0
MTEXT
  5
570
100
AcDbEntity
  8
WAKU0
  6
CONTINUOUS
 62
3
100
AcDbMText
 10
318.0049998760223
 20
39.29999995231628
 30
0.0000000000000000
 40
3.099999904632568
 41
0.0000000000000000
 71
     1
 72
     1
  1
{\H0.90x;{1:3}}
 11
1.000000000000000
 21
0.0000000000000000
 31
0.0000000000000000
  7
STANDARD
  0
MTEXT
  5
571
100
AcDbEntity
  8
WAKU0
  6
CONTINUOUS
 62
3
100
AcDbMText
 10
374.4000001549721
 20
20.15000009536743
 30
0.0000000000000000
 40
5.300000190734863
 41
0.0000000000000000
 71
     1
 72
     1
  1
{\H0.90x;{6407}}
 11
1.000000000000000
 21
0.0000000000000000
 31
0.0000000000000000
  7
STANDARD
  0
MTEXT
  5
572
100
AcDbEntity
  8
WAKU0
  6
CONTINUOUS
 62
3
100
AcDbMText
 10
362.3000000834465
 20
20.15000009536743
 30
0.0000000000000000
 40
5.300000190734863
 41
0.0000000000000000
 71
     1
 72
     1
  1
{\H0.87x;{39}}
 11
1.000000000000000
 21
0.0000000000000000
 31
0.0000000000000000
  7
STANDARD
  0
MTEXT
  5
573
100
AcDbEntity
  8
WAKU0
  6
CONTINUOUS
 62
3
100
AcDbMText
 10
345.5000001192093
 20
20.15000009536743
 30
0.0000000000000000
 40
5.300000190734863
 41
0.0000000000000000
 71
     1
 72
     1
  1
{\H0.89x;{61M}}
 11
1.000000000000000
 21
0.0000000000000000
 31
0.0000000000000000
  7
STANDARD
  0
MTEXT
  5
574
100
AcDbEntity
  8
WAKU0
  6
CONTINUOUS
 62
3
100
AcDbMText
 10
400.0000000476837
 20
20.15000009536743
 30
0.0000000000000000
 40
5.300000190734863
 41
0.0000000000000000
 71
     1
 72
     1
  1
{\H0.81x;{0}}
 11
1.000000000000000
 21
0.0000000000000000
 31
0.0000000000000000
  7
STANDARD
  0
MTEXT
  5
575
100
AcDbEntity
  8
WAKU0
  6
CONTINUOUS
 62
3
100
AcDbMText
 10
400.0000000819564
 20
44.84999990463257
 30
0.0000000000000000
 40
5.300000190734863
 41
0.0000000000000000
 71
     7
 72
     1
  1
{\H0.81x;{ }}
 11
1.000000000000000
 21
0.0000000000000000
 31
0.0000000000000000
  7
STANDARD
  0
MTEXT
  5
576
100
AcDbEntity
  8
WAKU0
  6
CONTINUOUS
 62
3
100
AcDbMText
 10
289.3850002884865
 20
33.00000000000000
 30
0.0000000000000000
 40
3.000000000000000
 41
0.0000000000000000
 71
     7
 72
     1
  1
{\H0.93x;{DRAWN BY}}
 11
1.000000000000000
 21
0.0000000000000000
 31
0.0000000000000000
  7
STANDARD
  0
MTEXT
  5
577
100
AcDbEntity
  8
WAKU0
  6
CONTINUOUS
 62
3
100
AcDbMText
 10
269.2149997949600
 20
32.95000004768372
 30
0.0000000000000000
 40
3.099999904632568
 41
0.0000000000000000
 71
     7
 72
     1
  1
{\H0.92x;{CHIEF}}
 11
1.000000000000000
 21
0.0000000000000000
 31
0.0000000000000000
  7
STANDARD
  0
MTEXT
  5
578
100
AcDbEntity
  8
WAKU0
  6
CONTINUOUS
 62
3
100
AcDbMText
 10
242.4249997138977
 20
32.95000004768372
 30
0.0000000000000000
 40
3.099999904632568
 41
0.0000000000000000
 71
     7
 72
     1
  1
{\H0.92x;{MANAGER}}
 11
1.000000000000000
 21
0.0000000000000000
 31
0.0000000000000000
  7
STANDARD
  0
MTEXT
  5
579
100
AcDbEntity
  8
WAKU0
  6
CONTINUOUS
 62
3
100
AcDbMText
 10
244.6599994301796
 20
18.13333336512248
 30
0.0000000000000000
 40
3.099999904632568
 41
0.0000000000000000
 71
     7
 72
     1
  1
{\H0.93x;{KITAGAWA IRON\PWORKS CO.,LTD.}}
 11
1.000000000000000
 21
0.0000000000000000
 31
0.0000000000000000
  7
STANDARD
  0
MTEXT
  5
57A
100
AcDbEntity
  8
WAKU0
  6
CONTINUOUS
 62
3
100
AcDbMText
 10
241.0850002169609
 20
46.50000000000000
 30
0.0000000000000000
 40
3.000000000000000
 41
0.0000000000000000
 71
     7
 72
     1
  1
{\H0.92x;{CAREER}}
 11
1.000000000000000
 21
0.0000000000000000
 31
0.0000000000000000
  7
STANDARD
  0
MTEXT
  5
57B
100
AcDbEntity
  8
WAKU0
  6
CONTINUOUS
 62
3
100
AcDbMText
 10
294.6099998354912
 20
18.95000004768372
 30
0.0000000000000000
 40
3.099999904632568
 41
0.0000000000000000
 71
     7
 72
     1
  1
{\H0.91x;{DATE}}
 11
1.000000000000000
 21
0.0000000000000000
 31
0.0000000000000000
  7
STANDARD
  0
MTEXT
  5
57C
100
AcDbEntity
  8
WAKU0
  6
CONTINUOUS
 62
3
100
AcDbMText
 10
313.9000002145767
 20
26.50000000000000
 30
0.0000000000000000
 40
3.000000000000000
 41
0.0000000000000000
 71
     7
 72
     1
  1
{\H0.63x;{3RD ANGLE}}
 11
1.000000000000000
 21
0.0000000000000000
 31
0.0000000000000000
  7
STANDARD
  0
MTEXT
  5
57D
100
AcDbEntity
  8
WAKU0
  6
CONTINUOUS
 62
3
100
AcDbMText
 10
315.2149997949600
 20
45.95000004768372
 30
0.0000000000000000
 40
3.099999904632568
 41
0.0000000000000000
 71
     7
 72
     1
  1
{\H0.92x;{SCALE}}
 11
1.000000000000000
 21
0.0000000000000000
 31
0.0000000000000000
  7
STANDARD
  0
MTEXT
  5
57E
100
AcDbEntity
  8
WAKU0
  6
CONTINUOUS
 62
3
100
AcDbMText
 10
405.7000000476837
 20
46.00000000000000
 30
0.0000000000000000
 40
3.000000000000000
 41
0.0000000000000000
 71
     7
 72
     1
  1
{\H0.63x;{kg}}
 11
1.000000000000000
 21
0.0000000000000000
 31
0.0000000000000000
  7
STANDARD
  0
MTEXT
  5
57F
100
AcDbEntity
  8
WAKU0
  6
CONTINUOUS
 62
3
100
AcDbMText
 10
375.6000001430512
 20
46.00000000000000
 30
0.0000000000000000
 40
3.000000000000000
 41
0.0000000000000000
 71
     7
 72
     1
  1
{\H0.63x;{WEIGHT}}
 11
1.000000000000000
 21
0.0000000000000000
 31
0.0000000000000000
  7
STANDARD
  0
MTEXT
  5
580
100
AcDbEntity
  8
WAKU0
  6
CONTINUOUS
 62
3
100
AcDbMText
 10
334.0049998760223
 20
18.13333336512248
 30
0.0000000000000000
 40
3.099999904632568
 41
0.0000000000000000
 71
     7
 72
     1
  1
{\H0.90x;{DRW\PNO.}}
 11
1.000000000000000
 21
0.0000000000000000
 31
0.0000000000000000
  7
STANDARD
  0
MTEXT
  5
581
100
AcDbEntity
  8
WAKU0
  6
CONTINUOUS
 62
3
100
AcDbMText
 10
332.6099998354912
 20
31.95000004768372
 30
0.0000000000000000
 40
3.099999904632568
 41
0.0000000000000000
 71
     7
 72
     1
  1
{\H0.91x;{NAME}}
 11
1.000000000000000
 21
0.0000000000000000
 31
0.0000000000000000
  7
STANDARD
  0
MTEXT
  5
582
100
AcDbEntity
  8
WAKU0
  6
CONTINUOUS
 62
3
100
AcDbMText
 10
332.6099998354912
 20
45.95000004768372
 30
0.0000000000000000
 40
3.099999904632568
 41
0.0000000000000000
 71
     7
 72
     1
  1
{\H0.91x;{TYPE}}
 11
1.000000000000000
 21
0.0000000000000000
 31
0.0000000000000000
  7
STANDARD
  0
LINE
  5
583
100
AcDbEntity
  8
WAKU0
  6
HIDDEN
 62
3
100
AcDbLine
 10
407.1599564743885
 20
13.84999990463257
 30
0.0000000000000000
 11
396.9400436209789
 21
13.84999990463257
 31
0.0000000000000000
  0
LINE
  5
584
100
AcDbEntity
  8
WAKU0
  6
HIDDEN
 62
3
100
AcDbLine
 10
407.1599564743885
 20
13.84999990463250
 30
0.0000000000000000
 11
402.0500000476852
 21
22.70070406014901
 31
0.0000000000000000
  0
LINE
  5
585
100
AcDbEntity
  8
WAKU0
  6
HIDDEN
 62
3
100
AcDbLine
 10
402.0500000476852
 20
22.70070406014902
 30
0.0000000000000000
 11
396.9400436209789
 21
13.84999990463248
 31
0.0000000000000000
  0
LINE
  5
586
100
AcDbEntity
  8
WAKU0
  6
CONTINUOUS
 62
3
100
AcDbLine
 10
330.4713877753800
 20
15.78041421262812
 30
0.0000000000000000
 11
330.4713877753800
 21
21.78041421262815
 31
0.0000000000000000
  0
LINE
  5
587
100
AcDbEntity
  8
WAKU0
  6
CONTINUOUS
 62
3
100
AcDbLine
 10
323.9336941228225
 20
17.28041421262811
 30
0.0000000000000000
 11
323.9336941228225
 21
20.28041421262824
 31
0.0000000000000000
  0
LINE
  5
588
100
AcDbEntity
  8
WAKU0
  6
CENTER
 62
12
100
AcDbLine
 10
313.4321805514995
 20
18.78041421262813
 30
0.0000000000000000
 11
331.2765788964694
 21
18.78041421262813
 31
0.0000000000000000
  0
LINE
  5
589
100
AcDbEntity
  8
WAKU0
  6
CENTER
 62
12
100
AcDbLine
 10
317.4474565857986
 20
14.55921662918448
 30
0.0000000000000000
 11
317.4474565857986
 21
22.89865102149943
 31
0.0000000000000000
  0
LINE
  5
58A
100
AcDbEntity
  8
WAKU0
  6
CONTINUOUS
 62
3
100
AcDbLine
 10
323.9336941228225
 20
20.28041421262797
 30
0.0000000000000000
 11
330.4713877753800
 21
21.78041421262795
 31
0.0000000000000000
  0
LINE
  5
58B
100
AcDbEntity
  8
WAKU0
  6
CONTINUOUS
 62
3
100
AcDbLine
 10
323.9336941228225
 20
17.28041421262811
 30
0.0000000000000000
 11
330.4713877753799
 21
15.78041421262812
 31
0.0000000000000000
  0
CIRCLE
  5
58C
100
AcDbEntity
  8
WAKU0
  6
CONTINUOUS
 62
3
100
AcDbCircle
 10
317.4474565857986
 20
18.78041421262813
 30
0.0000000000000000
 40
1.499999999999972
  0
CIRCLE
  5
58D
100
AcDbEntity
  8
WAKU0
  6
CONTINUOUS
 62
3
100
AcDbCircle
 10
317.4474565857986
 20
18.78041421262813
 30
0.0000000000000000
 40
2.999999999999979
  0
LINE
  5
58E
100
AcDbEntity
  8
A0
  6
CONTINUOUS
 62
3
100
AcDbLine
 10
235.2727249119223
 20
183.8019281295743
 30
0.0000000000000000
 11
235.2727249119223
 21
69.30193039454625
 31
0.0000000000000000
  0
LINE
  5
58F
100
AcDbEntity
  8
A0
  6
CONTINUOUS
 62
3
100
AcDbLine
 10
102.2727253887123
 20
171.0519283683077
 30
0.0000000000000000
 11
235.2727249119224
 21
171.0519283683668
 31
0.0000000000000000
  0
LINE
  5
590
100
AcDbEntity
  8
A0
  6
CONTINUOUS
 62
3
100
AcDbLine
 10
102.2727253887113
 20
183.8019281294564
 30
0.0000000000000000
 11
235.2727249119224
 21
183.8019281295744
 31
0.0000000000000000
  0
MTEXT
  5
591
100
AcDbEntity
  8
A0
  6
CONTINUOUS
 62
3
100
AcDbMText
 10
119.1477241966430
 20
181.3019281299189
 30
0.0000000000000000
 40
7.749999761581421
 41
0.0000000000000000
 71
     1
 72
     1
  1
{\H0.71x;{仕様　　SPECIFICATIONS}}
 11
1.000000000000000
 21
0.0000000000000000
 31
0.0000000000000000
  7
KNJYOKO
  0
MTEXT
  5
592
100
AcDbEntity
  8
A0
  6
CONTINUOUS
 62
3
100
AcDbMText
 10
191.2727239582169
 20
164.6769284872548
 30
0.0000000000000000
 40
7.749999761581421
 41
0.0000000000000000
 71
     1
 72
     1
  1
{\H0.70x;{０～256mm}}
 11
1.000000000000000
 21
0.0000000000000000
 31
0.0000000000000000
  7
KNJYOKO
  0
MTEXT
  5
593
100
AcDbEntity
  8
A0
  6
CONTINUOUS
 62
3
100
AcDbMText
 10
103.5227253887284
 20
159.5519286064641
 30
0.0000000000000000
 40
7.749999761581421
 41
0.0000000000000000
 71
     1
 72
     1
  1
{\H0.71x;{CLAMPING RANGE}}
 11
1.000000000000000
 21
0.0000000000000000
 31
0.0000000000000000
  7
STANDARD
  0
LINE
  5
594
100
AcDbEntity
  8
A0
  6
CONTINUOUS
 62
3
100
AcDbLine
 10
102.2727253887138
 20
150.5519288447120
 30
0.0000000000000000
 11
235.2727249119224
 21
150.5519288448299
 31
0.0000000000000000
  0
LINE
  5
595
100
AcDbEntity
  8
A0
  6
CONTINUOUS
 62
3
100
AcDbLine
 10
190.0227239582147
 20
171.0519283683446
 30
0.0000000000000000
 11
190.0227239582147
 21
150.5519288447854
 31
0.0000000000000000
  0
MTEXT
  5
596
100
AcDbEntity
  8
A0
  6
CONTINUOUS
 62
3
100
AcDbMText
 10
103.5227253887284
 20
139.0519290833013
 30
0.0000000000000000
 40
7.749999761581421
 41
0.0000000000000000
 71
     1
 72
     1
  1
{\H0.71x;{TIGHTENING TORQUE}}
 11
1.000000000000000
 21
0.0000000000000000
 31
0.0000000000000000
  7
STANDARD
  0
LINE
  5
597
100
AcDbEntity
  8
A0
  6
CONTINUOUS
 62
3
100
AcDbLine
 10
235.2727249119223
 20
130.0519293220411
 30
0.0000000000000000
 11
102.2727253887154
 21
130.0519293219820
 31
0.0000000000000000
  0
LINE
  5
598
100
AcDbEntity
  8
A0
  6
CONTINUOUS
 62
3
100
AcDbLine
 10
190.0227239582147
 20
130.0519293220189
 30
0.0000000000000000
 11
190.0227239582147
 21
69.30193039450623
 31
0.0000000000000000
  0
LINE
  5
599
100
AcDbEntity
  8
A0
  6
CONTINUOUS
 62
3
100
AcDbLine
 10
190.0227239582146
 20
109.5519297988562
 30
0.0000000000000000
 11
235.2727249119223
 21
109.5519297988762
 31
0.0000000000000000
  0
MTEXT
  5
59A
100
AcDbEntity
  8
A0
  6
CONTINUOUS
 62
3
100
AcDbMText
 10
196.2727244350541
 20
108.3019297981788
 30
0.0000000000000000
 40
7.749999761581421
 41
0.0000000000000000
 71
     1
 72
     1
  1
{\H0.67x;{2}}
 11
1.000000000000000
 21
0.0000000000000000
 31
0.0000000000000000
  7
STANDARD
  0
LINE
  5
59B
100
AcDbEntity
  8
A0
  6
CONTINUOUS
 62
3
100
AcDbLine
 10
235.2727249119223
 20
89.05193003729684
 30
0.0000000000000000
 11
102.2727253887179
 21
89.05193003723772
 31
0.0000000000000000
  0
MTEXT
  5
59C
100
AcDbEntity
  8
A0
  6
CONTINUOUS
 62
3
100
AcDbMText
 10
196.2727244350541
 20
98.05192979855698
 30
0.0000000000000000
 40
7.749999761581421
 41
0.0000000000000000
 71
     1
 72
     1
  1
{\H0.67x;{3}}
 11
1.000000000000000
 21
0.0000000000000000
 31
0.0000000000000000
  7
STANDARD
  0
LINE
  5
59D
100
AcDbEntity
  8
A0
  6
CONTINUOUS
 62
3
100
AcDbLine
 10
190.0227239582147
 20
119.8019295600413
 30
0.0000000000000000
 11
235.2727249119223
 21
119.8019295600815
 31
0.0000000000000000
  0
LINE
  5
59E
100
AcDbEntity
  8
A0
  6
CONTINUOUS
 62
3
100
AcDbLine
 10
207.1715188280962
 20
130.0519293220266
 30
0.0000000000000000
 11
207.1715188280962
 21
89.05193003728456
 31
0.0000000000000000
  0
MTEXT
  5
59F
100
AcDbEntity
  8
A0
  6
CONTINUOUS
 62
3
100
AcDbMText
 10
210.9937780802168
 20
118.5519295597593
 30
0.0000000000000000
 40
7.749999761581421
 41
0.0000000000000000
 71
     1
 72
     1
  1
{\H0.70x;{12KN}}
 11
1.000000000000000
 21
0.0000000000000000
 31
0.0000000000000000
  7
STANDARD
  0
MTEXT
  5
5A0
100
AcDbEntity
  8
A0
  6
CONTINUOUS
 62
3
100
AcDbMText
 10
210.9937780802168
 20
108.3019297981778
 30
0.0000000000000000
 40
7.749999761581421
 41
0.0000000000000000
 71
     1
 72
     1
  1
{\H0.70x;{21KN}}
 11
1.000000000000000
 21
0.0000000000000000
 31
0.0000000000000000
  7
STANDARD
  0
MTEXT
  5
5A1
100
AcDbEntity
  8
A0
  6
CONTINUOUS
 62
3
100
AcDbMText
 10
210.9937780802168
 20
98.05192979855607
 30
0.0000000000000000
 40
7.749999761581421
 41
0.0000000000000000
 71
     1
 72
     1
  1
{\H0.70x;{30KN}}
 11
1.000000000000000
 21
0.0000000000000000
 31
0.0000000000000000
  7
STANDARD
  0
MTEXT
  5
5A2
100
AcDbEntity
  8
A0
  6
CONTINUOUS
 62
3
100
AcDbMText
 10
196.2727244350541
 20
118.5519295597602
 30
0.0000000000000000
 40
7.749999761581421
 41
0.0000000000000000
 71
     1
 72
     1
  1
{\H0.67x;{1}}
 11
1.000000000000000
 21
0.0000000000000000
 31
0.0000000000000000
  7
STANDARD
  0
MTEXT
  5
5A3
100
AcDbEntity
  8
A0
  6
CONTINUOUS
 62
3
100
AcDbMText
 10
201.6515376053884
 20
82.67693015617462
 30
0.0000000000000000
 40
7.749999761581421
 41
0.0000000000000000
 71
     1
 72
     1
  1
{\H0.70x;{38kg}}
 11
1.000000000000000
 21
0.0000000000000000
 31
0.0000000000000000
  7
STANDARD
  0
MTEXT
  5
5A4
100
AcDbEntity
  8
A0
  6
CONTINUOUS
 62
3
100
AcDbMText
 10
103.5227253887284
 20
77.55193027539414
 30
0.0000000000000000
 40
6.999999880790710
 41
0.0000000000000000
 71
     1
 72
     1
  1
{\H0.67x;{MASS OF POWER VISE}}
 11
1.000000000000000
 21
0.0000000000000000
 31
0.0000000000000000
  7
STANDARD
  0
MTEXT
  5
5A5
100
AcDbEntity
  8
A0
  6
CONTINUOUS
 62
3
100
AcDbMText
 10
103.5227253887284
 20
87.80193003697556
 30
0.0000000000000000
 40
7.749999761581421
 41
0.0000000000000000
 71
     1
 72
     1
  1
{\H0.70x;{製品質量}}
 11
1.000000000000000
 21
0.0000000000000000
 31
0.0000000000000000
  7
KNJYOKO
  0
MTEXT
  5
5A6
100
AcDbEntity
  8
A0
  6
CONTINUOUS
 62
3
100
AcDbMText
 10
103.5227253887284
 20
118.5519295601384
 30
0.0000000000000000
 40
7.749999761581421
 41
0.0000000000000000
 71
     1
 72
     1
  1
{\H0.71x;{CLAMP RANGE}}
 11
1.000000000000000
 21
0.0000000000000000
 31
0.0000000000000000
  7
STANDARD
  0
MTEXT
  5
5A7
100
AcDbEntity
  8
A0
  6
CONTINUOUS
 62
3
100
AcDbMText
 10
103.5227253887284
 20
128.8019293217198
 30
0.0000000000000000
 40
7.749999761581421
 41
0.0000000000000000
 71
     1
 72
     1
  1
{\H0.70x;{締付けレンジ}}
 11
1.000000000000000
 21
0.0000000000000000
 31
0.0000000000000000
  7
KNJYOKO
  0
LINE
  5
5A8
100
AcDbEntity
  8
A0
  6
CONTINUOUS
 62
3
100
AcDbLine
 10
102.2727253887113
 20
183.8019281294560
 30
0.0000000000000000
 11
102.2727253887195
 21
69.30193039443262
 31
0.0000000000000000
  0
LINE
  5
5A9
100
AcDbEntity
  8
A0
  6
CONTINUOUS
 62
3
100
AcDbLine
 10
235.2727249119224
 20
69.30193039455091
 30
0.0000000000000000
 11
102.2727253887194
 21
69.30193039443296
 31
0.0000000000000000
  0
MTEXT
  5
5AA
100
AcDbEntity
  8
A0
  6
CONTINUOUS
 62
3
100
AcDbMText
 10
103.5227253887284
 20
149.3019288448827
 30
0.0000000000000000
 40
7.749999761581421
 41
0.0000000000000000
 71
     1
 72
     1
  1
{\H0.70x;{締付トルク}}
 11
1.000000000000000
 21
0.0000000000000000
 31
0.0000000000000000
  7
KNJYOKO
  0
MTEXT
  5
5AB
100
AcDbEntity
  8
A0
  6
CONTINUOUS
 62
3
100
AcDbMText
 10
103.5227253887284
 20
169.8019283680455
 30
0.0000000000000000
 40
7.749999761581421
 41
0.0000000000000000
 71
     1
 72
     1
  1
{\H0.70x;{口金の開き}}
 11
1.000000000000000
 21
0.0000000000000000
 31
0.0000000000000000
  7
KNJYOKO
  0
LINE
  5
5AC
100
AcDbEntity
  8
A0
  6
CONTINUOUS
 62
3
100
AcDbLine
 10
190.0227239582146
 20
99.30192979885624
 30
0.0000000000000000
 11
235.2727249119223
 21
99.30192979887625
 31
0.0000000000000000
  0
MTEXT
  5
5AD
100
AcDbEntity
  8
A0
  6
CONTINUOUS
 62
3
100
AcDbMText
 10
210.9937780802168
 20
128.8019293217189
 30
0.0000000000000000
 40
7.749999761581421
 41
0.0000000000000000
 71
     1
 72
     1
  1
{\H0.70x;{ 8KN}}
 11
1.000000000000000
 21
0.0000000000000000
 31
0.0000000000000000
  7
STANDARD
  0
MTEXT
  5
5AE
100
AcDbEntity
  8
A0
  6
CONTINUOUS
 62
3
100
AcDbMText
 10
196.2727244350541
 20
128.8019293217198
 30
0.0000000000000000
 40
7.749999761581421
 41
0.0000000000000000
 71
     1
 72
     1
  1
{\H0.67x;{0}}
 11
1.000000000000000
 21
0.0000000000000000
 31
0.0000000000000000
  7
STANDARD
  0
ENDSEC
  0
SECTION
  2
OBJECTS
  0
DICTIONARY
  5
60F
100
AcDbDictionary
  3
ACAD_GROUP
350
610
  3
ACAD_MLINESTYLE
350
611
  3
DWGPROPS
350
612
  0
DICTIONARY
  5
610
102
{ACAD_REACTORS
330
60F
102
}
100
AcDbDictionary
  0
DICTIONARY
  5
611
102
{ACAD_REACTORS
330
60F
102
}
100
AcDbDictionary
  3
STANDARD
350
613
  0
MLINESTYLE
  5
613
102
{ACAD_REACTORS
330
611
102
}
100
AcDbMlineStyle
  2
STANDARD
 70
     0
  3

 62
   256
 51
90.00
 52
90.00
 71
     2
 49
0.50
 62
   256
  6
BYLAYER
 49
-0.50
 62
   256
  6
BYLAYER
  0
XRECORD
  5
612
102
{ACAD_REACTORS
330
60F
102
}
100
AcDbXrecord
280
     1
  1
DWGPROPS COOKIE
  2
ＶＥ１２５　ガイケイ
  3

  4

  6
パワーバイス
  7

  8

  9

300
=
301
=
302
=
303
=
304
=
305
=
306
=
307
=
308
=
309
=
 40
0.000000
 41
0.000000
 42
0.000000
  1

 90
        0
  0
ENDSEC
  0
EOF
