  0
SECTION
  2
HEADER
  9
$ACADVER
  1
AC1014
  9
$DWGCODEPAGE
  3
ANSI_932
  9
$LTSCALE
 40
20.0
  9
$FILLMODE
 70
     1
  9
$CLAYER
  8
0
  9
$PDMODE
 70
     0
  9
$SPLFRAME
 70
     0
  9
$SPLINETYPE
 70
     6
  9
$SPLINESEGS
 70
     8
  9
$DIMASZ
 40
2.000000
  9
$DIMEXE
 40
2.000000
  9
$DIMEXO
 40
0.800000
  9
$DIMTAD
 70
     1
  9
$DIMTIH
 70
     0
  9
$DIMTOH
 70
     0
  9
$DIMTVP
 40
0.500000
  9
$DIMTXT
 40
3.100000
  9
$EXTMIN
 10
0.000000
 20
0.000000
 30
0.000000
  9
$EXTMAX
 10
297.000000
 20
420.000000
 30
0.000000
  9
$MEASUREMENT
 70
  1
  9
$LIMMIN
 10
0.000000
 20
0.000000
  9
$LIMMAX
 10
297.000000
 20
420.000000
  9
$HANDLING
 70
     1
  9
$HANDSEED
  5
50B
  9
$DIMBLK
  1
_OPEN
  9
$DIMDEC
 70
     3
  9
$DIMAUNIT
 70
     1
  9
$DIMZIN
 70
     8
  9
$DIMTOFL
 70
     1
  0
ENDSEC
  0
SECTION
  2
CLASSES
  0
ENDSEC
  0
SECTION
  2
TABLES
  0
TABLE
  2
VPORT
  5
4A8
100
AcDbSymbolTable
 70
     1
  0
VPORT
  5
4A9
100
AcDbSymbolTableRecord
100
AcDbViewportTableRecord
  2
*ACTIVE
 70
     0
 12
409.317441
 22
306.135701
 40
612.271402
 41
1.337046
  0
ENDTAB
  0
TABLE
  2
LTYPE
  5
4AA
100
AcDbSymbolTable
 70
     4
  0
LTYPE
  5
4AB
100
AcDbSymbolTableRecord
100
AcDbLinetypeTableRecord
  2
BYBLOCK
 70
     0
  3

 72
    65
 73
     0
 40
0.0
  0
LTYPE
  5
4AC
100
AcDbSymbolTableRecord
100
AcDbLinetypeTableRecord
  2
BYLAYER
 70
     0
  3

 72
    65
 73
     0
 40
0.0
  0
LTYPE
  5
4AD
100
AcDbSymbolTableRecord
100
AcDbLinetypeTableRecord
  2
CONTINUOUS
 70
     0
  3
Solid line (NEC CAE2D for Win R12.1 : 2016.08.08)
 72
    65
 73
     0
 40
0.0
  0
LTYPE
  5
4AE
100
AcDbSymbolTableRecord
100
AcDbLinetypeTableRecord
  2
HIDDEN
 70
     0
  3
__ __ __ __ __ __ __ __ __ __ __ __ __ __
 72
    65
 73
     2
 40
0.375
 49
0.25
 74
     0
 49
-0.125
 74
     0
  0
LTYPE
  5
4AF
100
AcDbSymbolTableRecord
100
AcDbLinetypeTableRecord
  2
CENTER
 70
     0
  3
____ _ ____ _ ____ _ ____ _ ____ _ ____
 72
    65
 73
     4
 40
2.0
 49
1.25
 74
     0
 49
-0.25
 74
     0
 49
0.25
 74
     0
 49
-0.25
 74
     0
  0
LTYPE
  5
4B0
100
AcDbSymbolTableRecord
100
AcDbLinetypeTableRecord
  2
PHANTOM
 70
     0
  3
______  __  __  ______  __  __  ______ 
 72
    65
 73
     6
 40
2.5
 49
1.25
 74
     0
 49
-0.25
 74
     0
 49
0.25
 74
     0
 49
-0.25
 74
     0
 49
0.25
 74
     0
 49
-0.25
 74
     0
  0
ENDTAB
  0
TABLE
  2
LAYER
  5
4B1
100
AcDbSymbolTable
 70
    10
  0
LAYER
  5
4B2
100
AcDbSymbolTableRecord
100
AcDbLayerTableRecord
  2
0
 70
     0
 62
     7
  6
CONTINUOUS
  0
LAYER
  5
4B3
100
AcDbSymbolTableRecord
100
AcDbLayerTableRecord
  2
MAIN0
 70
     0
 62
     7
  6
CONTINUOUS
  0
LAYER
  5
4B4
100
AcDbSymbolTableRecord
100
AcDbLayerTableRecord
  2
MAIN1
 70
     0
 62
     7
  6
CONTINUOUS
  0
LAYER
  5
4B5
100
AcDbSymbolTableRecord
100
AcDbLayerTableRecord
  2
MAIN3
 70
     0
 62
     7
  6
CONTINUOUS
  0
LAYER
  5
4B6
100
AcDbSymbolTableRecord
100
AcDbLayerTableRecord
  2
MAIN10
 70
     0
 62
     7
  6
CONTINUOUS
  0
LAYER
  5
4B7
100
AcDbSymbolTableRecord
100
AcDbLayerTableRecord
  2
MAIN1023
 70
     0
 62
    16
  6
CONTINUOUS
  0
LAYER
  5
4B8
100
AcDbSymbolTableRecord
100
AcDbLayerTableRecord
  2
WAKU0
 70
     0
 62
     7
  6
CONTINUOUS
  0
LAYER
  5
4B9
100
AcDbSymbolTableRecord
100
AcDbLayerTableRecord
  2
WAKU1023
 70
     0
 62
    16
  6
CONTINUOUS
  0
LAYER
  5
4BA
100
AcDbSymbolTableRecord
100
AcDbLayerTableRecord
  2
A0
 70
     0
 62
     7
  6
CONTINUOUS
  0
LAYER
  5
4BB
100
AcDbSymbolTableRecord
100
AcDbLayerTableRecord
  2
A1023
 70
     0
 62
    16
  6
CONTINUOUS
  0
ENDTAB
  0
TABLE
  2
STYLE
  5
4BC
100
AcDbSymbolTable
 70
     4
  0
STYLE
  5
4BD
100
AcDbSymbolTableRecord
100
AcDbTextStyleTableRecord
  2
STANDARD
 70
    64
 40
0.0
 41
1.0
 50
0.0
 71
     0
 42
7.749999761581421
  3
TXT
  4

  0
STYLE
  5
4BE
100
AcDbSymbolTableRecord
100
AcDbTextStyleTableRecord
  2
ANKTATE
 70
    68
 40
0.0
 41
1.0
 50
0.0
 71
     0
 42
7.749999761581421
  3
TXT
  4

  0
STYLE
  5
1C3
100
AcDbSymbolTableRecord
100
AcDbTextStyleTableRecord
  2
KNJYOKO
 70
    64
 40
0.0
 41
1.0
 50
0.0
 71
     0
 42
7.749999761581421
  3
TXT
  4
BIGFONT
  0
STYLE
  5
4BF
100
AcDbSymbolTableRecord
100
AcDbTextStyleTableRecord
  2
KNJTATE
 70
    68
 40
0.0
 41
1.0
 50
0.0
 71
     0
 42
7.749999761581421
  3
TXT
  4
BIGFONT
  0
ENDTAB
  0
TABLE
  2
VIEW
  5
4C0
100
AcDbSymbolTable
 70
     0
  0
ENDTAB
  0
TABLE
  2
UCS
  5
4C1
100
AcDbSymbolTable
 70
     0
  0
ENDTAB
  0
TABLE
  2
APPID
  5
4C2
100
AcDbSymbolTable
 70
     1
  0
APPID
  5
4C3
100
AcDbSymbolTableRecord
100
AcDbRegAppTableRecord
  2
ACAD
 70
     0
  0
ENDTAB
  0
TABLE
  2
DIMSTYLE
  5
4C4
100
AcDbSymbolTable
 70
     1
  0
DIMSTYLE
105
4C5
100
AcDbSymbolTableRecord
100
AcDbDimStyleTableRecord
  2
STANDARD
 70
     0
 41
2.000000
 44
2.000000
 42
0.800000
145
0.661290
140
3.100000
144
1.000000
146
0.903226
340
4BD
  0
DIMSTYLE
105
4C6
100
AcDbSymbolTableRecord
100
AcDbDimStyleTableRecord
  2
MAIN001
 70
     0
 41
4.000000
 44
4.000000
 42
1.600000
145
0.580645
140
6.200000
144
1.000000
146
0.903226
 77
     1
 73
     0
 74
     0
271
     3
275
     1
 78
     8
172
     1
340
4BD
  0
DIMSTYLE
105
4C7
100
AcDbSymbolTableRecord
100
AcDbDimStyleTableRecord
  2
WAKU002
 70
     0
 41
2.000000
 44
2.000000
 42
0.800000
145
0.661290
140
3.100000
144
1.000000
146
0.903226
 77
     1
 73
     0
 74
     0
271
     3
275
     1
 78
     8
172
     1
340
4BD
  0
DIMSTYLE
105
4C8
100
AcDbSymbolTableRecord
100
AcDbDimStyleTableRecord
  2
A003
 70
     0
 41
5.000000
 44
5.000000
 42
2.000000
145
0.564516
140
7.750000
144
1.000000
146
0.903226
 77
     1
 73
     0
 74
     0
271
     3
275
     1
 78
     8
172
     1
340
4BD
  0
ENDTAB
  0
TABLE
  2
BLOCK_RECORD
  5
4C9
100
AcDbSymbolTable
 70
    67
  0
BLOCK_RECORD
  5
4CA
100
AcDbSymbolTableRecord
100
AcDbBlockTableRecord
  2
*MODEL_SPACE
  0
BLOCK_RECORD
  5
4CB
100
AcDbSymbolTableRecord
100
AcDbBlockTableRecord
  2
*PAPER_SPACE
  0
BLOCK_RECORD
  5
1
100
AcDbSymbolTableRecord
100
AcDbBlockTableRecord
  2
_NONE
  0
BLOCK_RECORD
  5
4
100
AcDbSymbolTableRecord
100
AcDbBlockTableRecord
  2
_CLOSED
  0
BLOCK_RECORD
  5
B
100
AcDbSymbolTableRecord
100
AcDbBlockTableRecord
  2
_DOT
  0
BLOCK_RECORD
  5
13
100
AcDbSymbolTableRecord
100
AcDbBlockTableRecord
  2
_OPEN
  0
BLOCK_RECORD
  5
19
100
AcDbSymbolTableRecord
100
AcDbBlockTableRecord
  2
_ORIGIN
  0
BLOCK_RECORD
  5
1E
100
AcDbSymbolTableRecord
100
AcDbBlockTableRecord
  2
_OPEN30
  0
BLOCK_RECORD
  5
24
100
AcDbSymbolTableRecord
100
AcDbBlockTableRecord
  2
_BOXFILLED
  0
BLOCK_RECORD
  5
29
100
AcDbSymbolTableRecord
100
AcDbBlockTableRecord
  2
_BOXBLANK
  0
BLOCK_RECORD
  5
31
100
AcDbSymbolTableRecord
100
AcDbBlockTableRecord
  2
_OBLIQUE
  0
BLOCK_RECORD
  5
35
100
AcDbSymbolTableRecord
100
AcDbBlockTableRecord
  2
_OPEN90
  0
BLOCK_RECORD
  5
3B
100
AcDbSymbolTableRecord
100
AcDbBlockTableRecord
  2
_CLOSEDBLANK
  0
BLOCK_RECORD
  5
41
100
AcDbSymbolTableRecord
100
AcDbBlockTableRecord
  2
_DOTBLANK
  0
BLOCK_RECORD
  5
4CC
100
AcDbSymbolTableRecord
100
AcDbBlockTableRecord
  2
*D0
  0
BLOCK_RECORD
  5
4CD
100
AcDbSymbolTableRecord
100
AcDbBlockTableRecord
  2
*D1
  0
BLOCK_RECORD
  5
4CE
100
AcDbSymbolTableRecord
100
AcDbBlockTableRecord
  2
*D2
  0
BLOCK_RECORD
  5
4CF
100
AcDbSymbolTableRecord
100
AcDbBlockTableRecord
  2
*D3
  0
BLOCK_RECORD
  5
4D0
100
AcDbSymbolTableRecord
100
AcDbBlockTableRecord
  2
*D4
  0
BLOCK_RECORD
  5
4D1
100
AcDbSymbolTableRecord
100
AcDbBlockTableRecord
  2
*D5
  0
BLOCK_RECORD
  5
4D2
100
AcDbSymbolTableRecord
100
AcDbBlockTableRecord
  2
*D6
  0
BLOCK_RECORD
  5
4D3
100
AcDbSymbolTableRecord
100
AcDbBlockTableRecord
  2
*D7
  0
BLOCK_RECORD
  5
4D4
100
AcDbSymbolTableRecord
100
AcDbBlockTableRecord
  2
*D8
  0
BLOCK_RECORD
  5
4D5
100
AcDbSymbolTableRecord
100
AcDbBlockTableRecord
  2
*D9
  0
BLOCK_RECORD
  5
4D6
100
AcDbSymbolTableRecord
100
AcDbBlockTableRecord
  2
*D10
  0
BLOCK_RECORD
  5
4D7
100
AcDbSymbolTableRecord
100
AcDbBlockTableRecord
  2
*D11
  0
BLOCK_RECORD
  5
4D8
100
AcDbSymbolTableRecord
100
AcDbBlockTableRecord
  2
*D12
  0
BLOCK_RECORD
  5
4D9
100
AcDbSymbolTableRecord
100
AcDbBlockTableRecord
  2
*D13
  0
BLOCK_RECORD
  5
4DA
100
AcDbSymbolTableRecord
100
AcDbBlockTableRecord
  2
*D14
  0
BLOCK_RECORD
  5
4DB
100
AcDbSymbolTableRecord
100
AcDbBlockTableRecord
  2
*D15
  0
BLOCK_RECORD
  5
4DC
100
AcDbSymbolTableRecord
100
AcDbBlockTableRecord
  2
*D16
  0
BLOCK_RECORD
  5
4DD
100
AcDbSymbolTableRecord
100
AcDbBlockTableRecord
  2
*D17
  0
BLOCK_RECORD
  5
4DE
100
AcDbSymbolTableRecord
100
AcDbBlockTableRecord
  2
*D18
  0
BLOCK_RECORD
  5
4DF
100
AcDbSymbolTableRecord
100
AcDbBlockTableRecord
  2
*D19
  0
BLOCK_RECORD
  5
4E0
100
AcDbSymbolTableRecord
100
AcDbBlockTableRecord
  2
*D20
  0
BLOCK_RECORD
  5
4E1
100
AcDbSymbolTableRecord
100
AcDbBlockTableRecord
  2
*D21
  0
BLOCK_RECORD
  5
4E2
100
AcDbSymbolTableRecord
100
AcDbBlockTableRecord
  2
*D22
  0
BLOCK_RECORD
  5
4E3
100
AcDbSymbolTableRecord
100
AcDbBlockTableRecord
  2
*D23
  0
BLOCK_RECORD
  5
4E4
100
AcDbSymbolTableRecord
100
AcDbBlockTableRecord
  2
*D24
  0
BLOCK_RECORD
  5
4E5
100
AcDbSymbolTableRecord
100
AcDbBlockTableRecord
  2
*D25
  0
BLOCK_RECORD
  5
4E6
100
AcDbSymbolTableRecord
100
AcDbBlockTableRecord
  2
*D26
  0
BLOCK_RECORD
  5
4E7
100
AcDbSymbolTableRecord
100
AcDbBlockTableRecord
  2
*D27
  0
BLOCK_RECORD
  5
4E8
100
AcDbSymbolTableRecord
100
AcDbBlockTableRecord
  2
*D28
  0
BLOCK_RECORD
  5
4E9
100
AcDbSymbolTableRecord
100
AcDbBlockTableRecord
  2
*D29
  0
BLOCK_RECORD
  5
4EA
100
AcDbSymbolTableRecord
100
AcDbBlockTableRecord
  2
*D30
  0
BLOCK_RECORD
  5
4EB
100
AcDbSymbolTableRecord
100
AcDbBlockTableRecord
  2
*D31
  0
BLOCK_RECORD
  5
4EC
100
AcDbSymbolTableRecord
100
AcDbBlockTableRecord
  2
*D32
  0
BLOCK_RECORD
  5
4ED
100
AcDbSymbolTableRecord
100
AcDbBlockTableRecord
  2
*D33
  0
BLOCK_RECORD
  5
4EE
100
AcDbSymbolTableRecord
100
AcDbBlockTableRecord
  2
*D34
  0
BLOCK_RECORD
  5
4EF
100
AcDbSymbolTableRecord
100
AcDbBlockTableRecord
  2
*D35
  0
BLOCK_RECORD
  5
4F0
100
AcDbSymbolTableRecord
100
AcDbBlockTableRecord
  2
*D36
  0
BLOCK_RECORD
  5
4F1
100
AcDbSymbolTableRecord
100
AcDbBlockTableRecord
  2
*D37
  0
BLOCK_RECORD
  5
4F2
100
AcDbSymbolTableRecord
100
AcDbBlockTableRecord
  2
*D38
  0
BLOCK_RECORD
  5
4F3
100
AcDbSymbolTableRecord
100
AcDbBlockTableRecord
  2
*D39
  0
BLOCK_RECORD
  5
4F4
100
AcDbSymbolTableRecord
100
AcDbBlockTableRecord
  2
*D40
  0
BLOCK_RECORD
  5
4F5
100
AcDbSymbolTableRecord
100
AcDbBlockTableRecord
  2
*D41
  0
BLOCK_RECORD
  5
4F6
100
AcDbSymbolTableRecord
100
AcDbBlockTableRecord
  2
*D42
  0
BLOCK_RECORD
  5
4F7
100
AcDbSymbolTableRecord
100
AcDbBlockTableRecord
  2
*D43
  0
BLOCK_RECORD
  5
4F8
100
AcDbSymbolTableRecord
100
AcDbBlockTableRecord
  2
*D44
  0
BLOCK_RECORD
  5
4F9
100
AcDbSymbolTableRecord
100
AcDbBlockTableRecord
  2
*D45
  0
BLOCK_RECORD
  5
4FA
100
AcDbSymbolTableRecord
100
AcDbBlockTableRecord
  2
*D46
  0
BLOCK_RECORD
  5
4FB
100
AcDbSymbolTableRecord
100
AcDbBlockTableRecord
  2
*D47
  0
BLOCK_RECORD
  5
4FC
100
AcDbSymbolTableRecord
100
AcDbBlockTableRecord
  2
*D48
  0
BLOCK_RECORD
  5
4FD
100
AcDbSymbolTableRecord
100
AcDbBlockTableRecord
  2
*D49
  0
BLOCK_RECORD
  5
4FE
100
AcDbSymbolTableRecord
100
AcDbBlockTableRecord
  2
*D50
  0
BLOCK_RECORD
  5
4FF
100
AcDbSymbolTableRecord
100
AcDbBlockTableRecord
  2
*D51
  0
BLOCK_RECORD
  5
500
100
AcDbSymbolTableRecord
100
AcDbBlockTableRecord
  2
*D52
  0
BLOCK_RECORD
  5
501
100
AcDbSymbolTableRecord
100
AcDbBlockTableRecord
  2
*D53
  0
BLOCK_RECORD
  5
502
100
AcDbSymbolTableRecord
100
AcDbBlockTableRecord
  2
D54
  0
ENDTAB
  0
ENDSEC
  0
SECTION
  2
BLOCKS
  0
BLOCK
  5
503
100
AcDbEntity
  8
0
100
AcDbBlockBegin
  2
*MODEL_SPACE
 70
     0
 10
0.0
 20
0.0
 30
0.0
  3
*MODEL_SPACE
  1

  0
ENDBLK
  5
504
100
AcDbEntity
  8
0
100
AcDbBlockEnd
  0
BLOCK
  5
505
100
AcDbEntity
  8
0
100
AcDbBlockBegin
  2
*PAPER_SPACE
 70
     0
 10
0.0
 20
0.0
 30
0.0
  3
*PAPER_SPACE
  1

  0
ENDBLK
  5
506
100
AcDbEntity
  8
0
100
AcDbBlockEnd
  0
BLOCK
  5
2
100
AcDbEntity
  8
0
100
AcDbBlockBegin
  2
_NONE
 70
     0
 10
0.0
 20
0.0
 30
0.0
  3
_NONE
  1

  0
ENDBLK
  5
3
100
AcDbEntity
  8
0
100
AcDbBlockEnd
  0
BLOCK
  5
5
100
AcDbEntity
  8
0
100
AcDbBlockBegin
  2
_CLOSED
 70
     0
 10
0.0
 20
0.0
 30
0.0
  3
_CLOSED
  1

  0
LINE
  5
6
100
AcDbEntity
  8
0
  6
BYBLOCK
 62
     0
100
AcDbLine
 10
-1.0
 20
0.166667
 30
0.0
 11
0.0
 21
0.0
 31
0.0
  0
LINE
  5
7
100
AcDbEntity
  8
0
  6
BYBLOCK
 62
     0
100
AcDbLine
 10
0.0
 20
0.0
 30
0.0
 11
-1.0
 21
-0.166667
 31
0.0
  0
LINE
  5
8
100
AcDbEntity
  8
0
  6
BYBLOCK
 62
     0
100
AcDbLine
 10
-1.0
 20
0.166667
 30
0.0
 11
-1.0
 21
-0.166667
 31
0.0
  0
LINE
  5
9
100
AcDbEntity
  8
0
  6
BYBLOCK
 62
     0
100
AcDbLine
 10
0.0
 20
0.0
 30
0.0
 11
-1.0
 21
0.0
 31
0.0
  0
ENDBLK
  5
A
100
AcDbEntity
  8
0
100
AcDbBlockEnd
  0
BLOCK
  5
C
100
AcDbEntity
  8
0
100
AcDbBlockBegin
  2
_DOT
 70
     0
 10
0.0
 20
0.0
 30
0.0
  3
_DOT
  1

  0
POLYLINE
  5
D
100
AcDbEntity
  8
0
  6
BYBLOCK
 62
     0
100
AcDb2dPolyline
 66
     1
 10
0.0
 20
0.0
 30
0.0
 70
     1
 40
0.5
 41
0.5
  0
VERTEX
  5
E
100
AcDbEntity
  8
0
  6
BYBLOCK
 62
     0
100
AcDbVertex
100
AcDb2dVertex
 10
-0.25
 20
0.0
 30
0.0
 42
1.0
  0
VERTEX
  5
F
100
AcDbEntity
  8
0
  6
BYBLOCK
 62
     0
100
AcDbVertex
100
AcDb2dVertex
 10
0.25
 20
0.0
 30
0.0
 42
1.0
  0
SEQEND
  5
10
100
AcDbEntity
  8
0
  6
BYBLOCK
 62
     0
  0
LINE
  5
11
100
AcDbEntity
  8
0
  6
BYBLOCK
 62
     0
100
AcDbLine
 10
-0.5
 20
0.0
 30
0.0
 11
-1.0
 21
0.0
 31
0.0
  0
ENDBLK
  5
12
100
AcDbEntity
  8
0
100
AcDbBlockEnd
  0
BLOCK
  5
14
100
AcDbEntity
  8
0
100
AcDbBlockBegin
  2
_OPEN
 70
     0
 10
0.0
 20
0.0
 30
0.0
  3
_OPEN
  1

  0
LINE
  5
15
100
AcDbEntity
  8
0
  6
BYBLOCK
 62
     0
100
AcDbLine
 10
-1.0
 20
0.166667
 30
0.0
 11
0.0
 21
0.0
 31
0.0
  0
LINE
  5
16
100
AcDbEntity
  8
0
  6
BYBLOCK
 62
     0
100
AcDbLine
 10
0.0
 20
0.0
 30
0.0
 11
-1.0
 21
-0.166667
 31
0.0
  0
LINE
  5
17
100
AcDbEntity
  8
0
  6
BYBLOCK
 62
     0
100
AcDbLine
 10
0.0
 20
0.0
 30
0.0
 11
-1.0
 21
0.0
 31
0.0
  0
ENDBLK
  5
18
100
AcDbEntity
  8
0
100
AcDbBlockEnd
  0
BLOCK
  5
1A
100
AcDbEntity
  8
0
100
AcDbBlockBegin
  2
_ORIGIN
 70
     0
 10
0.0
 20
0.0
 30
0.0
  3
_ORIGIN
  1

  0
CIRCLE
  5
1B
100
AcDbEntity
  8
0
  6
BYBLOCK
 62
     0
100
AcDbCircle
 10
0.0
 20
0.0
 30
0.0
 40
0.5
  0
LINE
  5
1C
100
AcDbEntity
  8
0
  6
BYBLOCK
 62
     0
100
AcDbLine
 10
0.0
 20
0.0
 30
0.0
 11
-1.0
 21
0.0
 31
0.0
  0
ENDBLK
  5
1D
100
AcDbEntity
  8
0
100
AcDbBlockEnd
  0
BLOCK
  5
1F
100
AcDbEntity
  8
0
100
AcDbBlockBegin
  2
_OPEN30
 70
     0
 10
0.0
 20
0.0
 30
0.0
  3
_OPEN30
  1

  0
LINE
  5
20
100
AcDbEntity
  8
0
  6
BYBLOCK
 62
     0
100
AcDbLine
 10
-1.0
 20
0.267949
 30
0.0
 11
0.0
 21
0.0
 31
0.0
  0
LINE
  5
21
100
AcDbEntity
  8
0
  6
BYBLOCK
 62
     0
100
AcDbLine
 10
0.0
 20
0.0
 30
0.0
 11
-1.0
 21
-0.267949
 31
0.0
  0
LINE
  5
22
100
AcDbEntity
  8
0
  6
BYBLOCK
 62
     0
100
AcDbLine
 10
0.0
 20
0.0
 30
0.0
 11
-1.0
 21
0.0
 31
0.0
  0
ENDBLK
  5
23
100
AcDbEntity
  8
0
100
AcDbBlockEnd
  0
BLOCK
  5
25
100
AcDbEntity
  8
0
100
AcDbBlockBegin
  2
_BOXFILLED
 70
     0
 10
0.0
 20
0.0
 30
0.0
  3
_BOXFILLED
  1

  0
SOLID
  5
26
100
AcDbEntity
  8
0
  6
BYBLOCK
 62
     0
100
AcDbTrace
 10
-0.5
 20
0.5
 30
0.0
 11
0.5
 21
0.5
 31
0.0
 12
-0.5
 22
-0.5
 32
0.0
 13
0.5
 23
-0.5
 33
0.0
  0
LINE
  5
27
100
AcDbEntity
  8
0
  6
BYBLOCK
 62
     0
100
AcDbLine
 10
-0.5
 20
0.0
 30
0.0
 11
-1.0
 21
0.0
 31
0.0
  0
ENDBLK
  5
28
100
AcDbEntity
  8
0
100
AcDbBlockEnd
  0
BLOCK
  5
2A
100
AcDbEntity
  8
0
100
AcDbBlockBegin
  2
_BOXBLANK
 70
     0
 10
0.0
 20
0.0
 30
0.0
  3
_BOXBLANK
  1

  0
LINE
  5
2B
100
AcDbEntity
  8
0
  6
BYBLOCK
 62
     0
100
AcDbLine
 10
-0.5
 20
-0.5
 30
0.0
 11
0.5
 21
-0.5
 31
0.0
  0
LINE
  5
2C
100
AcDbEntity
  8
0
  6
BYBLOCK
 62
     0
100
AcDbLine
 10
0.5
 20
-0.5
 30
0.0
 11
0.5
 21
0.5
 31
0.0
  0
LINE
  5
2D
100
AcDbEntity
  8
0
  6
BYBLOCK
 62
     0
100
AcDbLine
 10
0.5
 20
0.5
 30
0.0
 11
-0.5
 21
0.5
 31
0.0
  0
LINE
  5
2E
100
AcDbEntity
  8
0
  6
BYBLOCK
 62
     0
100
AcDbLine
 10
-0.5
 20
0.5
 30
0.0
 11
-0.5
 21
-0.5
 31
0.0
  0
LINE
  5
2F
100
AcDbEntity
  8
0
  6
BYBLOCK
 62
     0
100
AcDbLine
 10
-0.5
 20
0.0
 30
0.0
 11
-1.0
 21
0.0
 31
0.0
  0
ENDBLK
  5
30
100
AcDbEntity
  8
0
100
AcDbBlockEnd
  0
BLOCK
  5
32
100
AcDbEntity
  8
0
100
AcDbBlockBegin
  2
_OBLIQUE
 70
     0
 10
0.0
 20
0.0
 30
0.0
  3
_OBLIQUE
  1

  0
LINE
  5
33
100
AcDbEntity
  8
0
  6
BYBLOCK
 62
     0
100
AcDbLine
 10
-0.5
 20
-0.5
 30
0.0
 11
0.5
 21
0.5
 31
0.0
  0
ENDBLK
  5
34
100
AcDbEntity
  8
0
100
AcDbBlockEnd
  0
BLOCK
  5
36
100
AcDbEntity
  8
0
100
AcDbBlockBegin
  2
_OPEN90
 70
     0
 10
0.0
 20
0.0
 30
0.0
  3
_OPEN90
  1

  0
LINE
  5
37
100
AcDbEntity
  8
0
  6
BYBLOCK
 62
     0
100
AcDbLine
 10
-0.5
 20
0.5
 30
0.0
 11
0.0
 21
0.0
 31
0.0
  0
LINE
  5
38
100
AcDbEntity
  8
0
  6
BYBLOCK
 62
     0
100
AcDbLine
 10
0.0
 20
0.0
 30
0.0
 11
-0.5
 21
-0.5
 31
0.0
  0
LINE
  5
39
100
AcDbEntity
  8
0
  6
BYBLOCK
 62
     0
100
AcDbLine
 10
0.0
 20
0.0
 30
0.0
 11
-1.0
 21
0.0
 31
0.0
  0
ENDBLK
  5
3A
100
AcDbEntity
  8
0
100
AcDbBlockEnd
  0
BLOCK
  5
3C
100
AcDbEntity
  8
0
100
AcDbBlockBegin
  2
_CLOSEDBLANK
 70
     0
 10
0.0
 20
0.0
 30
0.0
  3
_CLOSEDBLANK
  1

  0
LINE
  5
3D
100
AcDbEntity
  8
0
  6
BYBLOCK
 62
     0
100
AcDbLine
 10
-1.0
 20
0.1666666666666666
 30
0.0
 11
0.0
 21
0.0
 31
0.0
  0
LINE
  5
3E
100
AcDbEntity
  8
0
  6
BYBLOCK
 62
     0
100
AcDbLine
 10
0.0
 20
0.0
 30
0.0
 11
-1.0
 21
-0.1666666666666666
 31
0.0
  0
LINE
  5
3F
100
AcDbEntity
  8
0
  6
BYBLOCK
 62
     0
100
AcDbLine
 10
-1.0
 20
0.1666666666666666
 30
0.0
 11
-1.0
 21
-0.1666666666666666
 31
0.0
  0
ENDBLK
  5
40
100
AcDbEntity
  8
0
100
AcDbBlockEnd
  0
BLOCK
  5
42
100
AcDbEntity
  8
0
100
AcDbBlockBegin
  2
_DOTBLANK
 70
     0
 10
0.0
 20
0.0
 30
0.0
  3
_DOTBLANK
  1

  0
CIRCLE
  5
43
100
AcDbEntity
  8
0
  6
BYBLOCK
 62
     0
100
AcDbCircle
 10
0.0
 20
0.0
 30
0.0
 40
0.5
  0
LINE
  5
44
100
AcDbEntity
  8
0
  6
BYBLOCK
 62
     0
100
AcDbLine
 10
-0.5
 20
0.0
 30
0.0
 11
-1.0
 21
0.0
 31
0.0
  0
ENDBLK
  5
45
100
AcDbEntity
  8
0
100
AcDbBlockEnd
  0
BLOCK
  5
CA
100
AcDbEntity
  8
MAIN0
  6
CONTINUOUS
 62
3
100
AcDbBlockBegin
  2
*D0
 70
    65
 10
0.0
 20
0.0
 30
0.0
  0
LINE
  5
CB
100
AcDbEntity
  8
MAIN0
  6
BYBLOCK
 62
0
100
AcDbLine
 10
193.6930578149531
 20
258.2751336999207
 30
0.0000000000000000
 11
193.6930578149531
 21
253.2751336999207
 31
0.0000000000000000
  0
INSERT
  5
CC
100
AcDbEntity
  8
MAIN0
  6
BYBLOCK
 62
0
100
AcDbBlockReference
  2
_OPEN
 10
193.6930578149531
 20
258.2751336999207
 30
0.0000000000000000
 41
4.000000000000000
 42
4.000000000000000
 43
4.000000000000000
 50
270.0000000000000
  0
INSERT
  5
CD
100
AcDbEntity
  8
MAIN0
  6
BYBLOCK
 62
0
100
AcDbBlockReference
  2
_OPEN
 10
193.6930578149531
 20
253.2751336999207
 30
0.0000000000000000
 41
4.000000000000000
 42
4.000000000000000
 43
4.000000000000000
 50
90.00000000000000
  0
LINE
  5
CE
100
AcDbEntity
  8
MAIN0
  6
BYBLOCK
 62
0
100
AcDbLine
 10
193.6930578149531
 20
262.2751336999207
 30
0.0000000000000000
 11
193.6930578149531
 21
264.2751336999207
 31
0.0000000000000000
  0
LINE
  5
CF
100
AcDbEntity
  8
MAIN0
  6
BYBLOCK
 62
0
100
AcDbLine
 10
193.6930578149531
 20
249.2751336999207
 30
0.0000000000000000
 11
193.6930578149531
 21
244.1173650193059
 31
0.0000000000000000
  0
LINE
  5
D0
100
AcDbEntity
  8
MAIN0
  6
BYBLOCK
 62
0
100
AcDbLine
 10
208.5685746245547
 20
253.2751336999207
 30
0.0000000000000000
 11
189.6930578149531
 21
253.2751336999207
 31
0.0000000000000000
  0
MTEXT
  5
D1
100
AcDbEntity
  8
MAIN0
  6
BYBLOCK
 62
0
100
AcDbMText
 10
189.5930579103206
 20
246.1173650193059
 30
0.0000000000000000
 40
6.199999809265137
 41
0.0000000000000000
 71
     5
 72
     1
  1
\A1;5
 11
6.123233995736766e-017
 21
1.000000000000000
 31
0.0000000000000000
  7
STANDARD
  0
ENDBLK
  5
D2
100
AcDbEntity
  8
MAIN0
  6
CONTINUOUS
 62
3
100
AcDbBlockEnd
  0
BLOCK
  5
D4
100
AcDbEntity
  8
MAIN0
  6
CONTINUOUS
 62
3
100
AcDbBlockBegin
  2
*D1
 70
    65
 10
0.0
 20
0.0
 30
0.0
  0
LINE
  5
D5
100
AcDbEntity
  8
MAIN0
  6
BYBLOCK
 62
0
100
AcDbLine
 10
104.6685746483965
 20
256.6751336760789
 30
0.0000000000000000
 11
104.6685746483965
 21
164.0331509729983
 31
0.0000000000000000
  0
LINE
  5
D6
100
AcDbEntity
  8
MAIN0
  6
BYBLOCK
 62
0
100
AcDbLine
 10
108.6685746483965
 20
168.0331509729983
 30
0.0000000000000000
 11
452.1685746483963
 21
168.0331509729983
 31
0.0000000000000000
  0
INSERT
  5
D7
100
AcDbEntity
  8
MAIN0
  6
BYBLOCK
 62
0
100
AcDbBlockReference
  2
_OPEN
 10
104.6685746483965
 20
168.0331509729983
 30
0.0000000000000000
 41
4.000000000000000
 42
4.000000000000000
 43
4.000000000000000
 50
180.0000000000000
  0
INSERT
  5
D8
100
AcDbEntity
  8
MAIN0
  6
BYBLOCK
 62
0
100
AcDbBlockReference
  2
_OPEN
 10
456.1685746483963
 20
168.0331509729983
 30
0.0000000000000000
 41
4.000000000000000
 42
4.000000000000000
 43
4.000000000000000
 50
0.0000000000000000
  0
LINE
  5
D9
100
AcDbEntity
  8
MAIN0
  6
BYBLOCK
 62
0
100
AcDbLine
 10
456.1685746483963
 20
284.6751336760789
 30
0.0000000000000000
 11
456.1685746483963
 21
164.0331509729983
 31
0.0000000000000000
  0
MTEXT
  5
DA
100
AcDbEntity
  8
MAIN0
  6
BYBLOCK
 62
0
100
AcDbMText
 10
280.4185746483964
 20
171.6331508776309
 30
0.0000000000000000
 40
6.199999809265137
 41
0.0000000000000000
 71
     5
 72
     1
  1
\A1;351.5
 11
1.000000000000000
 21
0.0000000000000000
 31
0.0000000000000000
  7
STANDARD
  0
ENDBLK
  5
DB
100
AcDbEntity
  8
MAIN0
  6
CONTINUOUS
 62
3
100
AcDbBlockEnd
  0
BLOCK
  5
E3
100
AcDbEntity
  8
MAIN0
  6
CONTINUOUS
 62
3
100
AcDbBlockBegin
  2
*D2
 70
    65
 10
0.0
 20
0.0
 30
0.0
  0
LINE
  5
E4
100
AcDbEntity
  8
MAIN0
  6
BYBLOCK
 62
0
100
AcDbLine
 10
210.1685746483965
 20
251.6751336760789
 30
0.0000000000000000
 11
210.1685746483965
 21
232.8617808821212
 31
0.0000000000000000
  0
LINE
  5
E5
100
AcDbEntity
  8
MAIN0
  6
BYBLOCK
 62
0
100
AcDbLine
 10
210.1685746483965
 20
236.8617808821212
 30
0.0000000000000000
 11
224.1685746483965
 21
236.8617808821212
 31
0.0000000000000000
  0
INSERT
  5
E6
100
AcDbEntity
  8
MAIN0
  6
BYBLOCK
 62
0
100
AcDbBlockReference
  2
_OPEN
 10
210.1685746483965
 20
236.8617808821212
 30
0.0000000000000000
 41
4.000000000000000
 42
4.000000000000000
 43
4.000000000000000
 50
0.0000000000000000
  0
INSERT
  5
E7
100
AcDbEntity
  8
MAIN0
  6
BYBLOCK
 62
0
100
AcDbBlockReference
  2
_OPEN
 10
224.1685746483965
 20
236.8617808821212
 30
0.0000000000000000
 41
4.000000000000000
 42
4.000000000000000
 43
4.000000000000000
 50
180.0000000000000
  0
LINE
  5
E8
100
AcDbEntity
  8
MAIN0
  6
BYBLOCK
 62
0
100
AcDbLine
 10
206.1685746483965
 20
236.8617808821212
 30
0.0000000000000000
 11
204.1685746483965
 21
236.8617808821212
 31
0.0000000000000000
  0
LINE
  5
E9
100
AcDbEntity
  8
MAIN0
  6
BYBLOCK
 62
0
100
AcDbLine
 10
228.1685746483965
 20
236.8617808821212
 30
0.0000000000000000
 11
242.7025355365392
 21
236.8617808821212
 31
0.0000000000000000
  0
LINE
  5
EA
100
AcDbEntity
  8
MAIN0
  6
BYBLOCK
 62
0
100
AcDbLine
 10
224.1685746483965
 20
251.6751336760789
 30
0.0000000000000000
 11
224.1685746483965
 21
232.8617808821212
 31
0.0000000000000000
  0
MTEXT
  5
EB
100
AcDbEntity
  8
MAIN0
  6
BYBLOCK
 62
0
100
AcDbMText
 10
238.6025356319066
 20
240.9617807867538
 30
0.0000000000000000
 40
6.199999809265137
 41
0.0000000000000000
 71
     5
 72
     1
  1
\A1;14
 11
1.000000000000000
 21
0.0000000000000000
 31
0.0000000000000000
  7
STANDARD
  0
ENDBLK
  5
EC
100
AcDbEntity
  8
MAIN0
  6
CONTINUOUS
 62
3
100
AcDbBlockEnd
  0
BLOCK
  5
EE
100
AcDbEntity
  8
MAIN0
  6
CONTINUOUS
 62
3
100
AcDbBlockBegin
  2
*D3
 70
    65
 10
0.0
 20
0.0
 30
0.0
  0
LINE
  5
EF
100
AcDbEntity
  8
MAIN0
  6
BYBLOCK
 62
0
100
AcDbLine
 10
104.6685746483965
 20
256.6751336760789
 30
0.0000000000000000
 11
104.6685746483965
 21
199.2122181579706
 31
0.0000000000000000
  0
LINE
  5
F0
100
AcDbEntity
  8
MAIN0
  6
BYBLOCK
 62
0
100
AcDbLine
 10
108.6685746483965
 20
203.2122181579706
 30
0.0000000000000000
 11
373.6685746483967
 21
203.2122181579706
 31
0.0000000000000000
  0
INSERT
  5
F1
100
AcDbEntity
  8
MAIN0
  6
BYBLOCK
 62
0
100
AcDbBlockReference
  2
_OPEN
 10
104.6685746483965
 20
203.2122181579706
 30
0.0000000000000000
 41
4.000000000000000
 42
4.000000000000000
 43
4.000000000000000
 50
180.0000000000000
  0
INSERT
  5
F2
100
AcDbEntity
  8
MAIN0
  6
BYBLOCK
 62
0
100
AcDbBlockReference
  2
_OPEN
 10
377.6685746483967
 20
203.2122181579706
 30
0.0000000000000000
 41
4.000000000000000
 42
4.000000000000000
 43
4.000000000000000
 50
0.0000000000000000
  0
LINE
  5
F3
100
AcDbEntity
  8
MAIN0
  6
BYBLOCK
 62
0
100
AcDbLine
 10
377.6685746483967
 20
256.6751336760789
 30
0.0000000000000000
 11
377.6685746483967
 21
199.2122181579706
 31
0.0000000000000000
  0
MTEXT
  5
F4
100
AcDbEntity
  8
MAIN0
  6
BYBLOCK
 62
0
100
AcDbMText
 10
241.1685746483966
 20
206.8122180626032
 30
0.0000000000000000
 40
6.199999809265137
 41
0.0000000000000000
 71
     5
 72
     1
  1
\A1;273
 11
1.000000000000000
 21
0.0000000000000000
 31
0.0000000000000000
  7
STANDARD
  0
ENDBLK
  5
F5
100
AcDbEntity
  8
MAIN0
  6
CONTINUOUS
 62
3
100
AcDbBlockEnd
  0
BLOCK
  5
F7
100
AcDbEntity
  8
MAIN0
  6
CONTINUOUS
 62
3
100
AcDbBlockBegin
  2
*D4
 70
    65
 10
0.0
 20
0.0
 30
0.0
  0
LINE
  5
F8
100
AcDbEntity
  8
MAIN0
  6
BYBLOCK
 62
0
100
AcDbLine
 10
377.6685746483967
 20
256.6751336760789
 30
0.0000000000000000
 11
377.6685746483967
 21
199.2122181579706
 31
0.0000000000000000
  0
LINE
  5
F9
100
AcDbEntity
  8
MAIN0
  6
BYBLOCK
 62
0
100
AcDbLine
 10
381.6685746483966
 20
203.2122181579706
 30
0.0000000000000000
 11
452.1685746483963
 21
203.2122181579706
 31
0.0000000000000000
  0
INSERT
  5
FA
100
AcDbEntity
  8
MAIN0
  6
BYBLOCK
 62
0
100
AcDbBlockReference
  2
_OPEN
 10
377.6685746483966
 20
203.2122181579706
 30
0.0000000000000000
 41
4.000000000000000
 42
4.000000000000000
 43
4.000000000000000
 50
180.0000000000000
  0
INSERT
  5
FB
100
AcDbEntity
  8
MAIN0
  6
BYBLOCK
 62
0
100
AcDbBlockReference
  2
_OPEN
 10
456.1685746483963
 20
203.2122181579706
 30
0.0000000000000000
 41
4.000000000000000
 42
4.000000000000000
 43
4.000000000000000
 50
0.0000000000000000
  0
LINE
  5
FC
100
AcDbEntity
  8
MAIN0
  6
BYBLOCK
 62
0
100
AcDbLine
 10
456.1685746483963
 20
284.6751336760789
 30
0.0000000000000000
 11
456.1685746483963
 21
199.2122181579706
 31
0.0000000000000000
  0
MTEXT
  5
FD
100
AcDbEntity
  8
MAIN0
  6
BYBLOCK
 62
0
100
AcDbMText
 10
416.9185746483965
 20
206.8122180626032
 30
0.0000000000000000
 40
6.199999809265137
 41
0.0000000000000000
 71
     5
 72
     1
  1
\A1;78.5
 11
1.000000000000000
 21
0.0000000000000000
 31
0.0000000000000000
  7
STANDARD
  0
ENDBLK
  5
FE
100
AcDbEntity
  8
MAIN0
  6
CONTINUOUS
 62
3
100
AcDbBlockEnd
  0
BLOCK
  5
103
100
AcDbEntity
  8
MAIN0
  6
CONTINUOUS
 62
3
100
AcDbBlockBegin
  2
*D5
 70
    65
 10
0.0
 20
0.0
 30
0.0
  0
LINE
  5
104
100
AcDbEntity
  8
MAIN0
  6
BYBLOCK
 62
0
100
AcDbLine
 10
104.6685746483965
 20
344.8751337237626
 30
0.0000000000000000
 11
104.6685746483965
 21
410.3127381271576
 31
0.0000000000000000
  0
LINE
  5
105
100
AcDbEntity
  8
MAIN0
  6
BYBLOCK
 62
0
100
AcDbLine
 10
104.6685746483965
 20
406.3127381271576
 30
0.0000000000000000
 11
105.6685746483965
 21
406.3127381271576
 31
0.0000000000000000
  0
INSERT
  5
106
100
AcDbEntity
  8
MAIN0
  6
BYBLOCK
 62
0
100
AcDbBlockReference
  2
_OPEN
 10
104.6685746483965
 20
406.3127381271576
 30
0.0000000000000000
 41
4.000000000000000
 42
4.000000000000000
 43
4.000000000000000
 50
0.0000000000000000
  0
INSERT
  5
107
100
AcDbEntity
  8
MAIN0
  6
BYBLOCK
 62
0
100
AcDbBlockReference
  2
_OPEN
 10
105.6685746483965
 20
406.3127381271576
 30
0.0000000000000000
 41
4.000000000000000
 42
4.000000000000000
 43
4.000000000000000
 50
180.0000000000000
  0
LINE
  5
108
100
AcDbEntity
  8
MAIN0
  6
BYBLOCK
 62
0
100
AcDbLine
 10
100.6685746483965
 20
406.3127381271576
 30
0.0000000000000000
 11
95.51043608220698
 21
406.3127381271576
 31
0.0000000000000000
  0
LINE
  5
109
100
AcDbEntity
  8
MAIN0
  6
BYBLOCK
 62
0
100
AcDbLine
 10
109.6685746483965
 20
406.3127381271576
 30
0.0000000000000000
 11
111.6685746483965
 21
406.3127381271576
 31
0.0000000000000000
  0
LINE
  5
10A
100
AcDbEntity
  8
MAIN0
  6
BYBLOCK
 62
0
100
AcDbLine
 10
105.6685746483965
 20
379.8751337237626
 30
0.0000000000000000
 11
105.6685746483965
 21
410.3127381271576
 31
0.0000000000000000
  0
MTEXT
  5
10B
100
AcDbEntity
  8
MAIN0
  6
BYBLOCK
 62
0
100
AcDbMText
 10
97.51043608220698
 20
410.4127380317901
 30
0.0000000000000000
 40
6.199999809265137
 41
0.0000000000000000
 71
     5
 72
     1
  1
\A1;1
 11
1.000000000000000
 21
0.0000000000000000
 31
0.0000000000000000
  7
STANDARD
  0
ENDBLK
  5
10C
100
AcDbEntity
  8
MAIN0
  6
CONTINUOUS
 62
3
100
AcDbBlockEnd
  0
BLOCK
  5
10E
100
AcDbEntity
  8
MAIN0
  6
CONTINUOUS
 62
3
100
AcDbBlockBegin
  2
*D6
 70
    65
 10
0.0
 20
0.0
 30
0.0
  0
LINE
  5
10F
100
AcDbEntity
  8
MAIN0
  6
BYBLOCK
 62
0
100
AcDbLine
 10
105.6685746483965
 20
379.8751337237626
 30
0.0000000000000000
 11
105.6685746483965
 21
410.3127381271576
 31
0.0000000000000000
  0
LINE
  5
110
100
AcDbEntity
  8
MAIN0
  6
BYBLOCK
 62
0
100
AcDbLine
 10
109.6685746483965
 20
406.3127381271576
 30
0.0000000000000000
 11
174.6685746483964
 21
406.3127381271576
 31
0.0000000000000000
  0
INSERT
  5
111
100
AcDbEntity
  8
MAIN0
  6
BYBLOCK
 62
0
100
AcDbBlockReference
  2
_OPEN
 10
105.6685746483965
 20
406.3127381271576
 30
0.0000000000000000
 41
4.000000000000000
 42
4.000000000000000
 43
4.000000000000000
 50
180.0000000000000
  0
INSERT
  5
112
100
AcDbEntity
  8
MAIN0
  6
BYBLOCK
 62
0
100
AcDbBlockReference
  2
_OPEN
 10
178.6685746483964
 20
406.3127381271576
 30
0.0000000000000000
 41
4.000000000000000
 42
4.000000000000000
 43
4.000000000000000
 50
0.0000000000000000
  0
LINE
  5
113
100
AcDbEntity
  8
MAIN0
  6
BYBLOCK
 62
0
100
AcDbLine
 10
178.6685746483964
 20
379.8751337237626
 30
0.0000000000000000
 11
178.6685746483964
 21
410.3127381271576
 31
0.0000000000000000
  0
MTEXT
  5
114
100
AcDbEntity
  8
MAIN0
  6
BYBLOCK
 62
0
100
AcDbMText
 10
142.1685746483965
 20
409.9127380317901
 30
0.0000000000000000
 40
6.199999809265137
 41
0.0000000000000000
 71
     5
 72
     1
  1
\A1;73
 11
1.000000000000000
 21
0.0000000000000000
 31
0.0000000000000000
  7
STANDARD
  0
ENDBLK
  5
115
100
AcDbEntity
  8
MAIN0
  6
CONTINUOUS
 62
3
100
AcDbBlockEnd
  0
BLOCK
  5
117
100
AcDbEntity
  8
MAIN0
  6
CONTINUOUS
 62
3
100
AcDbBlockBegin
  2
*D7
 70
    65
 10
0.0
 20
0.0
 30
0.0
  0
LINE
  5
118
100
AcDbEntity
  8
MAIN0
  6
BYBLOCK
 62
0
100
AcDbLine
 10
178.6685746483964
 20
379.8751337237626
 30
0.0000000000000000
 11
178.6685746483964
 21
410.3127381271576
 31
0.0000000000000000
  0
LINE
  5
119
100
AcDbEntity
  8
MAIN0
  6
BYBLOCK
 62
0
100
AcDbLine
 10
182.6685746483964
 20
406.3127381271576
 30
0.0000000000000000
 11
238.6685746483963
 21
406.3127381271576
 31
0.0000000000000000
  0
INSERT
  5
11A
100
AcDbEntity
  8
MAIN0
  6
BYBLOCK
 62
0
100
AcDbBlockReference
  2
_OPEN
 10
178.6685746483964
 20
406.3127381271576
 30
0.0000000000000000
 41
4.000000000000000
 42
4.000000000000000
 43
4.000000000000000
 50
180.0000000000000
  0
INSERT
  5
11B
100
AcDbEntity
  8
MAIN0
  6
BYBLOCK
 62
0
100
AcDbBlockReference
  2
_OPEN
 10
242.6685746483963
 20
406.3127381271576
 30
0.0000000000000000
 41
4.000000000000000
 42
4.000000000000000
 43
4.000000000000000
 50
0.0000000000000000
  0
LINE
  5
11C
100
AcDbEntity
  8
MAIN0
  6
BYBLOCK
 62
0
100
AcDbLine
 10
242.6685746483964
 20
379.8751337237626
 30
0.0000000000000000
 11
242.6685746483963
 21
410.3127381271576
 31
0.0000000000000000
  0
MTEXT
  5
11D
100
AcDbEntity
  8
MAIN0
  6
BYBLOCK
 62
0
100
AcDbMText
 10
221.5127862596443
 20
410.4127380317901
 30
0.0000000000000000
 40
6.199999809265137
 41
0.0000000000000000
 71
     5
 72
     1
  1
\A1;128
 11
1.000000000000000
 21
0.0000000000000000
 31
0.0000000000000000
  7
STANDARD
  0
ENDBLK
  5
11E
100
AcDbEntity
  8
MAIN0
  6
CONTINUOUS
 62
3
100
AcDbBlockEnd
  0
BLOCK
  5
120
100
AcDbEntity
  8
MAIN0
  6
CONTINUOUS
 62
1
100
AcDbBlockBegin
  2
*D8
 70
    65
 10
0.0
 20
0.0
 30
0.0
  0
LINE
  5
121
100
AcDbEntity
  8
MAIN0
  6
BYBLOCK
 62
0
100
AcDbLine
 10
242.6685746483964
 20
379.8751337237626
 30
0.0000000000000000
 11
242.6685746483963
 21
410.3127381271576
 31
0.0000000000000000
  0
LINE
  5
122
100
AcDbEntity
  8
MAIN0
  6
BYBLOCK
 62
0
100
AcDbLine
 10
246.6685746483963
 20
406.3127381271576
 30
0.0000000000000000
 11
302.6685746483964
 21
406.3127381271576
 31
0.0000000000000000
  0
INSERT
  5
123
100
AcDbEntity
  8
MAIN0
  6
BYBLOCK
 62
0
100
AcDbBlockReference
  2
_OPEN
 10
242.6685746483963
 20
406.3127381271576
 30
0.0000000000000000
 41
4.000000000000000
 42
4.000000000000000
 43
4.000000000000000
 50
180.0000000000000
  0
INSERT
  5
124
100
AcDbEntity
  8
MAIN0
  6
BYBLOCK
 62
0
100
AcDbBlockReference
  2
_OPEN
 10
306.6685746483964
 20
406.3127381271576
 30
0.0000000000000000
 41
4.000000000000000
 42
4.000000000000000
 43
4.000000000000000
 50
0.0000000000000000
  0
LINE
  5
125
100
AcDbEntity
  8
MAIN0
  6
BYBLOCK
 62
0
100
AcDbLine
 10
306.6685746483964
 20
379.8751337237626
 30
0.0000000000000000
 11
306.6685746483964
 21
410.3127381271576
 31
0.0000000000000000
  0
MTEXT
  5
126
100
AcDbEntity
  8
MAIN0
  6
BYBLOCK
 62
0
100
AcDbMText
 10
274.6685746483963
 20
409.9127380317901
 30
0.0000000000000000
 40
6.199999809265137
 41
0.0000000000000000
 71
     5
 72
     1
  1
\A1;64
 11
1.000000000000000
 21
0.0000000000000000
 31
0.0000000000000000
  7
STANDARD
  0
ENDBLK
  5
127
100
AcDbEntity
  8
MAIN0
  6
CONTINUOUS
 62
1
100
AcDbBlockEnd
  0
BLOCK
  5
12D
100
AcDbEntity
  8
MAIN0
  6
CONTINUOUS
 62
3
100
AcDbBlockBegin
  2
*D9
 70
    65
 10
0.0
 20
0.0
 30
0.0
  0
LINE
  5
12E
100
AcDbEntity
  8
MAIN0
  6
BYBLOCK
 62
0
100
AcDbLine
 10
180.2685746722383
 20
378.2751336999207
 30
0.0000000000000000
 11
199.6473792027342
 21
378.2751336999207
 31
0.0000000000000000
  0
LINE
  5
12F
100
AcDbEntity
  8
MAIN0
  6
BYBLOCK
 62
0
100
AcDbLine
 10
195.6473792027342
 20
378.2751336999207
 30
0.0000000000000000
 11
195.6473792027342
 21
371.2751336999207
 31
0.0000000000000000
  0
INSERT
  5
130
100
AcDbEntity
  8
MAIN0
  6
BYBLOCK
 62
0
100
AcDbBlockReference
  2
_OPEN
 10
195.6473792027342
 20
378.2751336999207
 30
0.0000000000000000
 41
4.000000000000000
 42
4.000000000000000
 43
4.000000000000000
 50
270.0000000000000
  0
INSERT
  5
131
100
AcDbEntity
  8
MAIN0
  6
BYBLOCK
 62
0
100
AcDbBlockReference
  2
_OPEN
 10
195.6473792027342
 20
371.2751336999207
 30
0.0000000000000000
 41
4.000000000000000
 42
4.000000000000000
 43
4.000000000000000
 50
90.00000000000000
  0
LINE
  5
132
100
AcDbEntity
  8
MAIN0
  6
BYBLOCK
 62
0
100
AcDbLine
 10
195.6473792027342
 20
382.2751336999207
 30
0.0000000000000000
 11
195.6473792027342
 21
384.2751336999207
 31
0.0000000000000000
  0
LINE
  5
133
100
AcDbEntity
  8
MAIN0
  6
BYBLOCK
 62
0
100
AcDbLine
 10
195.6473792027342
 20
367.2751336999207
 30
0.0000000000000000
 11
195.6473792027342
 21
365.2751336999207
 31
0.0000000000000000
  0
LINE
  5
134
100
AcDbEntity
  8
MAIN0
  6
BYBLOCK
 62
0
100
AcDbLine
 10
151.6536667130054
 20
371.2751336999207
 30
0.0000000000000000
 11
199.6473792027342
 21
371.2751336999207
 31
0.0000000000000000
  0
MTEXT
  5
135
100
AcDbEntity
  8
MAIN0
  6
BYBLOCK
 62
0
100
AcDbMText
 10
192.0473792981017
 20
374.7751336999207
 30
0.0000000000000000
 40
6.199999809265137
 41
0.0000000000000000
 71
     5
 72
     1
  1
\A1;7
 11
6.123233995736766e-017
 21
1.000000000000000
 31
0.0000000000000000
  7
STANDARD
  0
ENDBLK
  5
136
100
AcDbEntity
  8
MAIN0
  6
CONTINUOUS
 62
3
100
AcDbBlockEnd
  0
BLOCK
  5
138
100
AcDbEntity
  8
MAIN0
  6
CONTINUOUS
 62
3
100
AcDbBlockBegin
  2
*D10
 70
    65
 10
0.0
 20
0.0
 30
0.0
  0
LINE
  5
139
100
AcDbEntity
  8
MAIN0
  6
BYBLOCK
 62
0
100
AcDbLine
 10
151.6536667130054
 20
371.2751336999207
 30
0.0000000000000000
 11
199.6473792027342
 21
371.2751336999207
 31
0.0000000000000000
  0
LINE
  5
13A
100
AcDbEntity
  8
MAIN0
  6
BYBLOCK
 62
0
100
AcDbLine
 10
195.6473792027342
 20
367.2751336999207
 30
0.0000000000000000
 11
195.6473792027342
 21
355.2751336999207
 31
0.0000000000000000
  0
INSERT
  5
13B
100
AcDbEntity
  8
MAIN0
  6
BYBLOCK
 62
0
100
AcDbBlockReference
  2
_OPEN
 10
195.6473792027342
 20
371.2751336999207
 30
0.0000000000000000
 41
4.000000000000000
 42
4.000000000000000
 43
4.000000000000000
 50
90.00000000000000
  0
INSERT
  5
13C
100
AcDbEntity
  8
MAIN0
  6
BYBLOCK
 62
0
100
AcDbBlockReference
  2
_OPEN
 10
195.6473792027342
 20
351.2751336999207
 30
0.0000000000000000
 41
4.000000000000000
 42
4.000000000000000
 43
4.000000000000000
 50
270.0000000000000
  0
LINE
  5
13D
100
AcDbEntity
  8
MAIN0
  6
BYBLOCK
 62
0
100
AcDbLine
 10
151.1626922832687
 20
351.2751336999207
 30
0.0000000000000000
 11
199.6473792027342
 21
351.2751336999207
 31
0.0000000000000000
  0
MTEXT
  5
13E
100
AcDbEntity
  8
MAIN0
  6
BYBLOCK
 62
0
100
AcDbMText
 10
192.0473792981017
 20
361.2751336999207
 30
0.0000000000000000
 40
6.199999809265137
 41
0.0000000000000000
 71
     5
 72
     1
  1
\A1;20
 11
6.123233995736766e-017
 21
1.000000000000000
 31
0.0000000000000000
  7
STANDARD
  0
ENDBLK
  5
13F
100
AcDbEntity
  8
MAIN0
  6
CONTINUOUS
 62
3
100
AcDbBlockEnd
  0
BLOCK
  5
141
100
AcDbEntity
  8
MAIN0
  6
CONTINUOUS
 62
3
100
AcDbBlockBegin
  2
*D11
 70
    65
 10
0.0
 20
0.0
 30
0.0
  0
LINE
  5
142
100
AcDbEntity
  8
MAIN0
  6
BYBLOCK
 62
0
100
AcDbLine
 10
178.6685746483964
 20
379.8751337237626
 30
0.0000000000000000
 11
178.6685746483964
 21
398.5564809382989
 31
0.0000000000000000
  0
LINE
  5
143
100
AcDbEntity
  8
MAIN0
  6
BYBLOCK
 62
0
100
AcDbLine
 10
174.6685746483964
 20
394.5564809382989
 30
0.0000000000000000
 11
146.1685746483965
 21
394.5564809382989
 31
0.0000000000000000
  0
INSERT
  5
144
100
AcDbEntity
  8
MAIN0
  6
BYBLOCK
 62
0
100
AcDbBlockReference
  2
_OPEN
 10
178.6685746483964
 20
394.5564809382989
 30
0.0000000000000000
 41
4.000000000000000
 42
4.000000000000000
 43
4.000000000000000
 50
360.0000000000000
  0
INSERT
  5
145
100
AcDbEntity
  8
MAIN0
  6
BYBLOCK
 62
0
100
AcDbBlockReference
  2
_OPEN
 10
142.1685746483965
 20
394.5564809382989
 30
0.0000000000000000
 41
4.000000000000000
 42
4.000000000000000
 43
4.000000000000000
 50
180.0000000000000
  0
LINE
  5
146
100
AcDbEntity
  8
MAIN0
  6
BYBLOCK
 62
0
100
AcDbLine
 10
142.1685746483965
 20
379.8751337237626
 30
0.0000000000000000
 11
142.1685746483965
 21
398.5564809382989
 31
0.0000000000000000
  0
MTEXT
  5
147
100
AcDbEntity
  8
MAIN0
  6
BYBLOCK
 62
0
100
AcDbMText
 10
160.4185746483965
 20
398.1564808429314
 30
0.0000000000000000
 40
6.199999809265137
 41
0.0000000000000000
 71
     5
 72
     1
  1
\A1;36.5
 11
1.000000000000000
 21
0.0000000000000000
 31
0.0000000000000000
  7
STANDARD
  0
ENDBLK
  5
148
100
AcDbEntity
  8
MAIN0
  6
CONTINUOUS
 62
3
100
AcDbBlockEnd
  0
BLOCK
  5
14F
100
AcDbEntity
  8
MAIN0
  6
CONTINUOUS
 62
3
100
AcDbBlockBegin
  2
*D12
 70
    65
 10
0.0
 20
0.0
 30
0.0
  0
LINE
  5
150
100
AcDbEntity
  8
MAIN0
  6
BYBLOCK
 62
0
100
AcDbLine
 10
108.6685746483965
 20
330.3645576575636
 30
0.0000000000000000
 11
190.6685746483965
 21
330.3645576575636
 31
0.0000000000000000
  0
INSERT
  5
151
100
AcDbEntity
  8
MAIN0
  6
BYBLOCK
 62
0
100
AcDbBlockReference
  2
_OPEN
 10
104.6685746483965
 20
330.3645576575636
 30
0.0000000000000000
 41
4.000000000000000
 42
4.000000000000000
 43
4.000000000000000
 50
180.0000000000000
  0
INSERT
  5
152
100
AcDbEntity
  8
MAIN0
  6
BYBLOCK
 62
0
100
AcDbBlockReference
  2
_OPEN
 10
194.6685746483965
 20
330.3645576575636
 30
0.0000000000000000
 41
4.000000000000000
 42
4.000000000000000
 43
4.000000000000000
 50
0.0000000000000000
  0
LINE
  5
153
100
AcDbEntity
  8
MAIN0
  6
BYBLOCK
 62
0
100
AcDbLine
 10
194.6685746483965
 20
328.1147997048914
 30
0.0000000000000000
 11
194.6685746483965
 21
334.3645576575636
 31
0.0000000000000000
  0
MTEXT
  5
154
100
AcDbEntity
  8
MAIN0
  6
BYBLOCK
 62
0
100
AcDbMText
 10
157.4808618102493
 20
334.4645575621962
 30
0.0000000000000000
 40
6.199999809265137
 41
0.0000000000000000
 71
     5
 72
     1
  1
\A1;90
 11
1.000000000000000
 21
0.0000000000000000
 31
0.0000000000000000
  7
STANDARD
  0
ENDBLK
  5
155
100
AcDbEntity
  8
MAIN0
  6
CONTINUOUS
 62
3
100
AcDbBlockEnd
  0
BLOCK
  5
157
100
AcDbEntity
  8
MAIN0
  6
CONTINUOUS
 62
3
100
AcDbBlockBegin
  2
*D13
 70
    65
 10
0.0
 20
0.0
 30
0.0
  0
LINE
  5
158
100
AcDbEntity
  8
MAIN0
  6
BYBLOCK
 62
0
100
AcDbLine
 10
194.6685746483965
 20
328.1147997048914
 30
0.0000000000000000
 11
194.6685746483965
 21
334.3645576575636
 31
0.0000000000000000
  0
LINE
  5
159
100
AcDbEntity
  8
MAIN0
  6
BYBLOCK
 62
0
100
AcDbLine
 10
198.6685746483965
 20
330.3645576575636
 30
0.0000000000000000
 11
295.6685746483965
 21
330.3645576575636
 31
0.0000000000000000
  0
INSERT
  5
15A
100
AcDbEntity
  8
MAIN0
  6
BYBLOCK
 62
0
100
AcDbBlockReference
  2
_OPEN
 10
194.6685746483965
 20
330.3645576575636
 30
0.0000000000000000
 41
4.000000000000000
 42
4.000000000000000
 43
4.000000000000000
 50
180.0000000000000
  0
INSERT
  5
15B
100
AcDbEntity
  8
MAIN0
  6
BYBLOCK
 62
0
100
AcDbBlockReference
  2
_OPEN
 10
299.6685746483965
 20
330.3645576575636
 30
0.0000000000000000
 41
4.000000000000000
 42
4.000000000000000
 43
4.000000000000000
 50
0.0000000000000000
  0
LINE
  5
15C
100
AcDbEntity
  8
MAIN0
  6
BYBLOCK
 62
0
100
AcDbLine
 10
299.6685746483965
 20
328.8935526518750
 30
0.0000000000000000
 11
299.6685746483965
 21
334.3645576575636
 31
0.0000000000000000
  0
MTEXT
  5
15D
100
AcDbEntity
  8
MAIN0
  6
BYBLOCK
 62
0
100
AcDbMText
 10
247.1685746483965
 20
333.9645575621962
 30
0.0000000000000000
 40
6.199999809265137
 41
0.0000000000000000
 71
     5
 72
     1
  1
\A1;105
 11
1.000000000000000
 21
0.0000000000000000
 31
0.0000000000000000
  7
STANDARD
  0
ENDBLK
  5
15E
100
AcDbEntity
  8
MAIN0
  6
CONTINUOUS
 62
3
100
AcDbBlockEnd
  0
BLOCK
  5
162
100
AcDbEntity
  8
MAIN0
  6
CONTINUOUS
 62
3
100
AcDbBlockBegin
  2
*D14
 70
    65
 10
0.0
 20
0.0
 30
0.0
  0
LINE
  5
163
100
AcDbEntity
  8
MAIN0
  6
BYBLOCK
 62
0
100
AcDbLine
 10
734.2567715858895
 20
316.9165856080895
 30
0.0000000000000000
 11
734.2567715858895
 21
362.9491880543075
 31
0.0000000000000000
  0
LINE
  5
164
100
AcDbEntity
  8
MAIN0
  6
BYBLOCK
 62
0
100
AcDbLine
 10
734.2567715858895
 20
358.9491880543075
 30
0.0000000000000000
 11
748.2567715858895
 21
358.9491880543075
 31
0.0000000000000000
  0
INSERT
  5
165
100
AcDbEntity
  8
MAIN0
  6
BYBLOCK
 62
0
100
AcDbBlockReference
  2
_OPEN
 10
734.2567715858895
 20
358.9491880543075
 30
0.0000000000000000
 41
4.000000000000000
 42
4.000000000000000
 43
4.000000000000000
 50
0.0000000000000000
  0
INSERT
  5
166
100
AcDbEntity
  8
MAIN0
  6
BYBLOCK
 62
0
100
AcDbBlockReference
  2
_OPEN
 10
748.2567715858895
 20
358.9491880543075
 30
0.0000000000000000
 41
4.000000000000000
 42
4.000000000000000
 43
4.000000000000000
 50
180.0000000000000
  0
LINE
  5
167
100
AcDbEntity
  8
MAIN0
  6
BYBLOCK
 62
0
100
AcDbLine
 10
730.2567715858895
 20
358.9491880543075
 30
0.0000000000000000
 11
728.2567715858895
 21
358.9491880543075
 31
0.0000000000000000
  0
LINE
  5
168
100
AcDbEntity
  8
MAIN0
  6
BYBLOCK
 62
0
100
AcDbLine
 10
752.2567715858895
 20
358.9491880543075
 30
0.0000000000000000
 11
762.2892710204355
 21
358.9491880543075
 31
0.0000000000000000
  0
LINE
  5
169
100
AcDbEntity
  8
MAIN0
  6
BYBLOCK
 62
0
100
AcDbLine
 10
748.2567715858895
 20
316.9165856080908
 30
0.0000000000000000
 11
748.2567715858895
 21
362.9491880543075
 31
0.0000000000000000
  0
MTEXT
  5
16A
100
AcDbEntity
  8
MAIN0
  6
BYBLOCK
 62
0
100
AcDbMText
 10
758.1892711158030
 20
363.0491879589401
 30
0.0000000000000000
 40
6.199999809265137
 41
0.0000000000000000
 71
     5
 72
     1
  1
\A1;14
 11
1.000000000000000
 21
0.0000000000000000
 31
0.0000000000000000
  7
STANDARD
  0
ENDBLK
  5
16B
100
AcDbEntity
  8
MAIN0
  6
CONTINUOUS
 62
3
100
AcDbBlockEnd
  0
BLOCK
  5
17D
100
AcDbEntity
  8
MAIN0
  6
CONTINUOUS
 62
3
100
AcDbBlockBegin
  2
*D15
 70
    65
 10
0.0
 20
0.0
 30
0.0
  0
LINE
  5
17E
100
AcDbEntity
  8
MAIN0
  6
BYBLOCK
 62
0
100
AcDbLine
 10
793.3567716097314
 20
258.2751336999207
 30
0.0000000000000000
 11
818.6348816000289
 21
258.2751336999207
 31
0.0000000000000000
  0
LINE
  5
17F
100
AcDbEntity
  8
MAIN0
  6
BYBLOCK
 62
0
100
AcDbLine
 10
814.6348816000289
 20
258.2751336999207
 30
0.0000000000000000
 11
814.6348816000289
 21
273.2751336999207
 31
0.0000000000000000
  0
INSERT
  5
180
100
AcDbEntity
  8
MAIN0
  6
BYBLOCK
 62
0
100
AcDbBlockReference
  2
_OPEN
 10
814.6348816000289
 20
258.2751336999207
 30
0.0000000000000000
 41
4.000000000000000
 42
4.000000000000000
 43
4.000000000000000
 50
90.00000000000000
  0
INSERT
  5
181
100
AcDbEntity
  8
MAIN0
  6
BYBLOCK
 62
0
100
AcDbBlockReference
  2
_OPEN
 10
814.6348816000289
 20
273.2751336999207
 30
0.0000000000000000
 41
4.000000000000000
 42
4.000000000000000
 43
4.000000000000000
 50
270.0000000000000
  0
LINE
  5
182
100
AcDbEntity
  8
MAIN0
  6
BYBLOCK
 62
0
100
AcDbLine
 10
814.6348816000289
 20
254.2751336999207
 30
0.0000000000000000
 11
814.6348816000289
 21
252.2751336999207
 31
0.0000000000000000
  0
LINE
  5
183
100
AcDbEntity
  8
MAIN0
  6
BYBLOCK
 62
0
100
AcDbLine
 10
814.6348816000289
 20
277.2751336999207
 30
0.0000000000000000
 11
814.6348816000289
 21
279.2751336999207
 31
0.0000000000000000
  0
LINE
  5
184
100
AcDbEntity
  8
MAIN0
  6
BYBLOCK
 62
0
100
AcDbLine
 10
793.3567716097314
 20
273.2751336999207
 30
0.0000000000000000
 11
818.6348816000289
 21
273.2751336999207
 31
0.0000000000000000
  0
MTEXT
  5
185
100
AcDbEntity
  8
MAIN0
  6
BYBLOCK
 62
0
100
AcDbMText
 10
811.0348816953963
 20
265.7751336999207
 30
0.0000000000000000
 40
6.199999809265137
 41
0.0000000000000000
 71
     5
 72
     1
  1
\A1;15
 11
6.123233995736766e-017
 21
1.000000000000000
 31
0.0000000000000000
  7
STANDARD
  0
ENDBLK
  5
186
100
AcDbEntity
  8
MAIN0
  6
CONTINUOUS
 62
3
100
AcDbBlockEnd
  0
BLOCK
  5
188
100
AcDbEntity
  8
MAIN0
  6
CONTINUOUS
 62
3
100
AcDbBlockBegin
  2
*D16
 70
    65
 10
0.0
 20
0.0
 30
0.0
  0
LINE
  5
189
100
AcDbEntity
  8
MAIN0
  6
BYBLOCK
 62
0
100
AcDbLine
 10
793.3567716097314
 20
273.2751336999207
 30
0.0000000000000000
 11
818.6348816000289
 21
273.2751336999207
 31
0.0000000000000000
  0
LINE
  5
18A
100
AcDbEntity
  8
MAIN0
  6
BYBLOCK
 62
0
100
AcDbLine
 10
814.6348816000289
 20
277.2751336999207
 30
0.0000000000000000
 11
814.6348816000289
 21
299.2751336999207
 31
0.0000000000000000
  0
INSERT
  5
18B
100
AcDbEntity
  8
MAIN0
  6
BYBLOCK
 62
0
100
AcDbBlockReference
  2
_OPEN
 10
814.6348816000289
 20
273.2751336999207
 30
0.0000000000000000
 41
4.000000000000000
 42
4.000000000000000
 43
4.000000000000000
 50
270.0000000000000
  0
INSERT
  5
18C
100
AcDbEntity
  8
MAIN0
  6
BYBLOCK
 62
0
100
AcDbBlockReference
  2
_OPEN
 10
814.6348816000289
 20
303.2751336999207
 30
0.0000000000000000
 41
4.000000000000000
 42
4.000000000000000
 43
4.000000000000000
 50
90.00000000000000
  0
LINE
  5
18D
100
AcDbEntity
  8
MAIN0
  6
BYBLOCK
 62
0
100
AcDbLine
 10
793.3567716097314
 20
303.2751336999207
 30
0.0000000000000000
 11
818.6348816000289
 21
303.2751336999207
 31
0.0000000000000000
  0
MTEXT
  5
18E
100
AcDbEntity
  8
MAIN0
  6
BYBLOCK
 62
0
100
AcDbMText
 10
811.0348816953963
 20
288.2751336999207
 30
0.0000000000000000
 40
6.199999809265137
 41
0.0000000000000000
 71
     5
 72
     1
  1
\A1;30
 11
6.123233995736766e-017
 21
1.000000000000000
 31
0.0000000000000000
  7
STANDARD
  0
ENDBLK
  5
18F
100
AcDbEntity
  8
MAIN0
  6
CONTINUOUS
 62
3
100
AcDbBlockEnd
  0
BLOCK
  5
191
100
AcDbEntity
  8
MAIN0
  6
CONTINUOUS
 62
3
100
AcDbBlockBegin
  2
*D17
 70
    65
 10
0.0
 20
0.0
 30
0.0
  0
LINE
  5
192
100
AcDbEntity
  8
MAIN0
  6
BYBLOCK
 62
0
100
AcDbLine
 10
793.3567716097314
 20
303.2751336999207
 30
0.0000000000000000
 11
818.6348816000289
 21
303.2751336999207
 31
0.0000000000000000
  0
LINE
  5
193
100
AcDbEntity
  8
MAIN0
  6
BYBLOCK
 62
0
100
AcDbLine
 10
814.6348816000286
 20
307.2751336999207
 30
0.0000000000000000
 11
814.6348816000286
 21
339.2751336999207
 31
0.0000000000000000
  0
INSERT
  5
194
100
AcDbEntity
  8
MAIN0
  6
BYBLOCK
 62
0
100
AcDbBlockReference
  2
_OPEN
 10
814.6348816000286
 20
303.2751336999207
 30
0.0000000000000000
 41
4.000000000000000
 42
4.000000000000000
 43
4.000000000000000
 50
270.0000000000000
  0
INSERT
  5
195
100
AcDbEntity
  8
MAIN0
  6
BYBLOCK
 62
0
100
AcDbBlockReference
  2
_OPEN
 10
814.6348816000286
 20
343.2751336999207
 30
0.0000000000000000
 41
4.000000000000000
 42
4.000000000000000
 43
4.000000000000000
 50
90.00000000000000
  0
LINE
  5
196
100
AcDbEntity
  8
MAIN0
  6
BYBLOCK
 62
0
100
AcDbLine
 10
793.3567716097314
 20
343.2751336999207
 30
0.0000000000000000
 11
818.6348816000286
 21
343.2751336999207
 31
0.0000000000000000
  0
MTEXT
  5
197
100
AcDbEntity
  8
MAIN0
  6
BYBLOCK
 62
0
100
AcDbMText
 10
811.0348816953961
 20
323.2751336999207
 30
0.0000000000000000
 40
6.199999809265137
 41
0.0000000000000000
 71
     5
 72
     1
  1
\A1;40
 11
6.123233995736766e-017
 21
1.000000000000000
 31
0.0000000000000000
  7
STANDARD
  0
ENDBLK
  5
198
100
AcDbEntity
  8
MAIN0
  6
CONTINUOUS
 62
3
100
AcDbBlockEnd
  0
BLOCK
  5
19A
100
AcDbEntity
  8
MAIN0
  6
CONTINUOUS
 62
3
100
AcDbBlockBegin
  2
*D18
 70
    65
 10
0.0
 20
0.0
 30
0.0
  0
LINE
  5
19B
100
AcDbEntity
  8
MAIN0
  6
BYBLOCK
 62
0
100
AcDbLine
 10
791.7567715858895
 20
256.6751336760789
 30
0.0000000000000000
 11
791.7567715858895
 21
227.7849884096767
 31
0.0000000000000000
  0
LINE
  5
19C
100
AcDbEntity
  8
MAIN0
  6
BYBLOCK
 62
0
100
AcDbLine
 10
791.7567715858895
 20
231.7849884096767
 30
0.0000000000000000
 11
786.2567715858895
 21
231.7849884096767
 31
0.0000000000000000
  0
INSERT
  5
19D
100
AcDbEntity
  8
MAIN0
  6
BYBLOCK
 62
0
100
AcDbBlockReference
  2
_OPEN
 10
791.7567715858895
 20
231.7849884096767
 30
0.0000000000000000
 41
4.000000000000000
 42
4.000000000000000
 43
4.000000000000000
 50
180.0000000000000
  0
INSERT
  5
19E
100
AcDbEntity
  8
MAIN0
  6
BYBLOCK
 62
0
100
AcDbBlockReference
  2
_OPEN
 10
786.2567715858895
 20
231.7849884096767
 30
0.0000000000000000
 41
4.000000000000000
 42
4.000000000000000
 43
4.000000000000000
 50
360.0000000000000
  0
LINE
  5
19F
100
AcDbEntity
  8
MAIN0
  6
BYBLOCK
 62
0
100
AcDbLine
 10
795.7567715858895
 20
231.7849884096767
 30
0.0000000000000000
 11
809.5845999259500
 21
231.7849884096767
 31
0.0000000000000000
  0
LINE
  5
1A0
100
AcDbEntity
  8
MAIN0
  6
BYBLOCK
 62
0
100
AcDbLine
 10
782.2567715858895
 20
231.7849884096767
 30
0.0000000000000000
 11
780.2567715858895
 21
231.7849884096767
 31
0.0000000000000000
  0
LINE
  5
1A1
100
AcDbEntity
  8
MAIN0
  6
BYBLOCK
 62
0
100
AcDbLine
 10
786.2567715858895
 20
271.6751336760789
 30
0.0000000000000000
 11
786.2567715858895
 21
227.7849884096767
 31
0.0000000000000000
  0
MTEXT
  5
1A2
100
AcDbEntity
  8
MAIN0
  6
BYBLOCK
 62
0
100
AcDbMText
 10
803.3846001166849
 20
235.8849883143093
 30
0.0000000000000000
 40
6.199999809265137
 41
0.0000000000000000
 71
     5
 72
     1
  1
\A1;5.5
 11
1.000000000000000
 21
0.0000000000000000
 31
0.0000000000000000
  7
STANDARD
  0
ENDBLK
  5
1A3
100
AcDbEntity
  8
MAIN0
  6
CONTINUOUS
 62
3
100
AcDbBlockEnd
  0
BLOCK
  5
1A5
100
AcDbEntity
  8
MAIN0
  6
CONTINUOUS
 62
3
100
AcDbBlockBegin
  2
*D19
 70
    65
 10
0.0
 20
0.0
 30
0.0
  0
LINE
  5
1A6
100
AcDbEntity
  8
MAIN0
  6
BYBLOCK
 62
0
100
AcDbLine
 10
657.6567715620479
 20
285.7751336999207
 30
0.0000000000000000
 11
612.2712548367351
 21
285.7751336999207
 31
0.0000000000000000
  0
LINE
  5
1A7
100
AcDbEntity
  8
MAIN0
  6
BYBLOCK
 62
0
100
AcDbLine
 10
616.2712548367351
 20
285.7751336999207
 30
0.0000000000000000
 11
616.2712548367351
 21
281.7751336999207
 31
0.0000000000000000
  0
INSERT
  5
1A8
100
AcDbEntity
  8
MAIN0
  6
BYBLOCK
 62
0
100
AcDbBlockReference
  2
_OPEN
 10
616.2712548367351
 20
285.7751336999207
 30
0.0000000000000000
 41
4.000000000000000
 42
4.000000000000000
 43
4.000000000000000
 50
270.0000000000000
  0
INSERT
  5
1A9
100
AcDbEntity
  8
MAIN0
  6
BYBLOCK
 62
0
100
AcDbBlockReference
  2
_DOT
 10
616.2712548367351
 20
280.7751336999207
 30
0.0000000000000000
 41
2.000000000000000
 42
2.000000000000000
 43
2.000000000000000
 50
270.0000000000000
  0
LINE
  5
1AA
100
AcDbEntity
  8
MAIN0
  6
BYBLOCK
 62
0
100
AcDbLine
 10
616.2712548367351
 20
289.7751336999207
 30
0.0000000000000000
 11
616.2712548367351
 21
295.0090711079386
 31
0.0000000000000000
  0
LINE
  5
1AB
100
AcDbEntity
  8
MAIN0
  6
BYBLOCK
 62
0
100
AcDbLine
 10
629.6567715620479
 20
280.7751336999207
 30
0.0000000000000000
 11
612.2712548367351
 21
280.7751336999207
 31
0.0000000000000000
  0
MTEXT
  5
1AC
100
AcDbEntity
  8
MAIN0
  6
BYBLOCK
 62
0
100
AcDbMText
 10
612.1712549321026
 20
293.0090711079386
 30
0.0000000000000000
 40
6.199999809265137
 41
0.0000000000000000
 71
     5
 72
     1
  1
\A1;5
 11
6.123233995736766e-017
 21
1.000000000000000
 31
0.0000000000000000
  7
STANDARD
  0
ENDBLK
  5
1AD
100
AcDbEntity
  8
MAIN0
  6
CONTINUOUS
 62
3
100
AcDbBlockEnd
  0
BLOCK
  5
1AF
100
AcDbEntity
  8
MAIN0
  6
CONTINUOUS
 62
3
100
AcDbBlockBegin
  2
*D20
 70
    65
 10
0.0
 20
0.0
 30
0.0
  0
LINE
  5
1B0
100
AcDbEntity
  8
MAIN0
  6
BYBLOCK
 62
0
100
AcDbLine
 10
629.6567715620479
 20
280.7751336999207
 30
0.0000000000000000
 11
612.2712548367351
 21
280.7751336999207
 31
0.0000000000000000
  0
LINE
  5
1B1
100
AcDbEntity
  8
MAIN0
  6
BYBLOCK
 62
0
100
AcDbLine
 10
616.2712548367351
 20
279.7751336999207
 30
0.0000000000000000
 11
616.2712548367351
 21
258.2751336999207
 31
0.0000000000000000
  0
INSERT
  5
1B2
100
AcDbEntity
  8
MAIN0
  6
BYBLOCK
 62
0
100
AcDbBlockReference
  2
_DOT
 10
616.2712548367351
 20
280.7751336999207
 30
0.0000000000000000
 41
2.000000000000000
 42
2.000000000000000
 43
2.000000000000000
 50
90.00000000000000
  0
INSERT
  5
1B3
100
AcDbEntity
  8
MAIN0
  6
BYBLOCK
 62
0
100
AcDbBlockReference
  2
_OPEN
 10
616.2712548367351
 20
258.2751336999207
 30
0.0000000000000000
 41
4.000000000000000
 42
4.000000000000000
 43
4.000000000000000
 50
90.00000000000000
  0
LINE
  5
1B4
100
AcDbEntity
  8
MAIN0
  6
BYBLOCK
 62
0
100
AcDbLine
 10
616.2712548367351
 20
254.2751336999207
 30
0.0000000000000000
 11
616.2712548367351
 21
252.2751336999207
 31
0.0000000000000000
  0
LINE
  5
1B5
100
AcDbEntity
  8
MAIN0
  6
BYBLOCK
 62
0
100
AcDbLine
 10
631.0567715619227
 20
258.2751336999207
 30
0.0000000000000000
 11
612.2712548367351
 21
258.2751336999207
 31
0.0000000000000000
  0
MTEXT
  5
1B6
100
AcDbEntity
  8
MAIN0
  6
BYBLOCK
 62
0
100
AcDbMText
 10
612.6712549321026
 20
269.5251336999207
 30
0.0000000000000000
 40
6.199999809265137
 41
0.0000000000000000
 71
     5
 72
     1
  1
\A1;22.5
 11
6.123233995736766e-017
 21
1.000000000000000
 31
0.0000000000000000
  7
STANDARD
  0
ENDBLK
  5
1B7
100
AcDbEntity
  8
MAIN0
  6
CONTINUOUS
 62
3
100
AcDbBlockEnd
  0
BLOCK
  5
1B9
100
AcDbEntity
  8
MAIN0
  6
CONTINUOUS
 62
1
100
AcDbBlockBegin
  2
*D21
 70
    65
 10
0.0
 20
0.0
 30
0.0
  0
LINE
  5
1BA
100
AcDbEntity
  8
MAIN0
  6
BYBLOCK
 62
0
100
AcDbLine
 10
690.7567715858895
 20
256.6751336760789
 30
0.0000000000000000
 11
690.7567715858895
 21
227.7849884096767
 31
0.0000000000000000
  0
LINE
  5
1BB
100
AcDbEntity
  8
MAIN0
  6
BYBLOCK
 62
0
100
AcDbLine
 10
690.7567715858895
 20
231.7849884096767
 30
0.0000000000000000
 11
671.2567715858897
 21
231.7849884096767
 31
0.0000000000000000
  0
INSERT
  5
1BC
100
AcDbEntity
  8
MAIN0
  6
BYBLOCK
 62
0
100
AcDbBlockReference
  2
_OPEN
 10
690.7567715858895
 20
231.7849884096767
 30
0.0000000000000000
 41
4.000000000000000
 42
4.000000000000000
 43
4.000000000000000
 50
180.0000000000000
  0
INSERT
  5
1BD
100
AcDbEntity
  8
MAIN0
  6
BYBLOCK
 62
0
100
AcDbBlockReference
  2
_OPEN
 10
671.2567715858897
 20
231.7849884096767
 30
0.0000000000000000
 41
4.000000000000000
 42
4.000000000000000
 43
4.000000000000000
 50
360.0000000000000
  0
LINE
  5
1BE
100
AcDbEntity
  8
MAIN0
  6
BYBLOCK
 62
0
100
AcDbLine
 10
694.7567715858895
 20
231.7849884096767
 30
0.0000000000000000
 11
717.0280918601329
 21
231.7849884096767
 31
0.0000000000000000
  0
LINE
  5
1BF
100
AcDbEntity
  8
MAIN0
  6
BYBLOCK
 62
0
100
AcDbLine
 10
667.2567715858897
 20
231.7849884096767
 30
0.0000000000000000
 11
665.2567715858897
 21
231.7849884096767
 31
0.0000000000000000
  0
MTEXT
  5
1C0
100
AcDbEntity
  8
MAIN0
  6
BYBLOCK
 62
0
100
AcDbMText
 10
706.1280922416026
 20
235.8849883143093
 30
0.0000000000000000
 40
6.199999809265137
 41
0.0000000000000000
 71
     5
 72
     1
  1
\A1;14～26
 11
1.000000000000000
 21
0.0000000000000000
 31
0.0000000000000000
  7
KNJYOKO
  0
ENDBLK
  5
1C1
100
AcDbEntity
  8
MAIN0
  6
CONTINUOUS
 62
1
100
AcDbBlockEnd
  0
BLOCK
  5
1C4
100
AcDbEntity
  8
MAIN0
  6
CONTINUOUS
 62
3
100
AcDbBlockBegin
  2
*D22
 70
    65
 10
0.0
 20
0.0
 30
0.0
  0
LINE
  5
1C5
100
AcDbEntity
  8
MAIN0
  6
BYBLOCK
 62
0
100
AcDbLine
 10
478.6262206998462
 20
315.2751336999207
 30
0.0000000000000000
 11
478.6262206998462
 21
487.2751336999207
 31
0.0000000000000000
  0
INSERT
  5
1C6
100
AcDbEntity
  8
MAIN0
  6
BYBLOCK
 62
0
100
AcDbBlockReference
  2
_OPEN
 10
478.6262206998462
 20
311.2751336999207
 30
0.0000000000000000
 41
4.000000000000000
 42
4.000000000000000
 43
4.000000000000000
 50
270.0000000000000
  0
INSERT
  5
1C7
100
AcDbEntity
  8
MAIN0
  6
BYBLOCK
 62
0
100
AcDbBlockReference
  2
_OPEN
 10
478.6262206998462
 20
491.2751336999207
 30
0.0000000000000000
 41
4.000000000000000
 42
4.000000000000000
 43
4.000000000000000
 50
90.00000000000000
  0
LINE
  5
1C8
100
AcDbEntity
  8
MAIN0
  6
BYBLOCK
 62
0
100
AcDbLine
 10
524.5165947350661
 20
491.2751336999207
 30
0.0000000000000000
 11
474.6262206998462
 21
491.2751336999207
 31
0.0000000000000000
  0
MTEXT
  5
1C9
100
AcDbEntity
  8
MAIN0
  6
BYBLOCK
 62
0
100
AcDbMText
 10
475.0262207952136
 20
401.2751336999207
 30
0.0000000000000000
 40
6.199999809265137
 41
0.0000000000000000
 71
     5
 72
     1
  1
\A1;180
 11
6.123233995736766e-017
 21
1.000000000000000
 31
0.0000000000000000
  7
STANDARD
  0
ENDBLK
  5
1CA
100
AcDbEntity
  8
MAIN0
  6
CONTINUOUS
 62
3
100
AcDbBlockEnd
  0
BLOCK
  5
1CC
100
AcDbEntity
  8
MAIN0
  6
CONTINUOUS
 62
3
100
AcDbBlockBegin
  2
*D23
 70
    65
 10
0.0
 20
0.0
 30
0.0
  0
LINE
  5
1CD
100
AcDbEntity
  8
MAIN0
  6
BYBLOCK
 62
0
100
AcDbLine
 10
791.0067715858895
 20
379.8751337237626
 30
0.0000000000000000
 11
791.0067715858895
 21
409.7985612495054
 31
0.0000000000000000
  0
LINE
  5
1CE
100
AcDbEntity
  8
MAIN0
  6
BYBLOCK
 62
0
100
AcDbLine
 10
787.0067715858895
 20
405.7985612495054
 30
0.0000000000000000
 11
695.5067715858897
 21
405.7985612495054
 31
0.0000000000000000
  0
INSERT
  5
1CF
100
AcDbEntity
  8
MAIN0
  6
BYBLOCK
 62
0
100
AcDbBlockReference
  2
_OPEN
 10
791.0067715858895
 20
405.7985612495054
 30
0.0000000000000000
 41
4.000000000000000
 42
4.000000000000000
 43
4.000000000000000
 50
360.0000000000000
  0
INSERT
  5
1D0
100
AcDbEntity
  8
MAIN0
  6
BYBLOCK
 62
0
100
AcDbBlockReference
  2
_OPEN
 10
691.5067715858897
 20
405.7985612495054
 30
0.0000000000000000
 41
4.000000000000000
 42
4.000000000000000
 43
4.000000000000000
 50
180.0000000000000
  0
LINE
  5
1D1
100
AcDbEntity
  8
MAIN0
  6
BYBLOCK
 62
0
100
AcDbLine
 10
691.5067715858897
 20
379.8751337237626
 30
0.0000000000000000
 11
691.5067715858897
 21
409.7985612495054
 31
0.0000000000000000
  0
MTEXT
  5
1D2
100
AcDbEntity
  8
MAIN0
  6
BYBLOCK
 62
0
100
AcDbMText
 10
741.2567715858897
 20
409.3985611541380
 30
0.0000000000000000
 40
6.199999809265137
 41
0.0000000000000000
 71
     5
 72
     1
  1
\A1;99.5
 11
1.000000000000000
 21
0.0000000000000000
 31
0.0000000000000000
  7
STANDARD
  0
ENDBLK
  5
1D3
100
AcDbEntity
  8
MAIN0
  6
CONTINUOUS
 62
3
100
AcDbBlockEnd
  0
BLOCK
  5
21B
100
AcDbEntity
  8
MAIN0
  6
CONTINUOUS
 62
3
100
AcDbBlockBegin
  2
*D24
 70
    65
 10
0.0
 20
0.0
 30
0.0
  0
LINE
  5
21C
100
AcDbEntity
  8
MAIN0
  6
BYBLOCK
 62
0
100
AcDbLine
 10
687.7567715858900
 20
355.0751337237626
 30
0.0000000000000000
 11
687.7567715858900
 21
440.1628038013471
 31
0.0000000000000000
  0
LINE
  5
21D
100
AcDbEntity
  8
MAIN0
  6
BYBLOCK
 62
0
100
AcDbLine
 10
691.7567715858900
 20
436.1628038013471
 30
0.0000000000000000
 11
790.7567715858900
 21
436.1628038013471
 31
0.0000000000000000
  0
INSERT
  5
21E
100
AcDbEntity
  8
MAIN0
  6
BYBLOCK
 62
0
100
AcDbBlockReference
  2
_OPEN
 10
687.7567715858900
 20
436.1628038013471
 30
0.0000000000000000
 41
4.000000000000000
 42
4.000000000000000
 43
4.000000000000000
 50
180.0000000000000
  0
INSERT
  5
21F
100
AcDbEntity
  8
MAIN0
  6
BYBLOCK
 62
0
100
AcDbBlockReference
  2
_OPEN
 10
794.7567715858900
 20
436.1628038013471
 30
0.0000000000000000
 41
4.000000000000000
 42
4.000000000000000
 43
4.000000000000000
 50
0.0000000000000000
  0
LINE
  5
220
100
AcDbEntity
  8
MAIN0
  6
BYBLOCK
 62
0
100
AcDbLine
 10
794.7567715858900
 20
355.0751337237626
 30
0.0000000000000000
 11
794.7567715858900
 21
440.1628038013471
 31
0.0000000000000000
  0
MTEXT
  5
221
100
AcDbEntity
  8
MAIN0
  6
BYBLOCK
 62
0
100
AcDbMText
 10
741.2567715858900
 20
439.7628037059797
 30
0.0000000000000000
 40
6.199999809265137
 41
0.0000000000000000
 71
     5
 72
     1
  1
\A1;107
 11
1.000000000000000
 21
0.0000000000000000
 31
0.0000000000000000
  7
STANDARD
  0
ENDBLK
  5
222
100
AcDbEntity
  8
MAIN0
  6
CONTINUOUS
 62
3
100
AcDbBlockEnd
  0
BLOCK
  5
23E
100
AcDbEntity
  8
MAIN0
  6
CONTINUOUS
 62
3
100
AcDbBlockBegin
  2
*D25
 70
    65
 10
0.0
 20
0.0
 30
0.0
  0
LINE
  5
23F
100
AcDbEntity
  8
MAIN0
  6
BYBLOCK
 62
0
100
AcDbLine
 10
242.6685746483965
 20
484.9251497851326
 30
0.0000000000000000
 11
242.6685746483965
 21
445.4032093130245
 31
0.0000000000000000
  0
LINE
  5
240
100
AcDbEntity
  8
MAIN0
  6
BYBLOCK
 62
0
100
AcDbLine
 10
246.6685746483965
 20
449.4032093130245
 30
0.0000000000000000
 11
270.6685746483965
 21
449.4032093130245
 31
0.0000000000000000
  0
INSERT
  5
241
100
AcDbEntity
  8
MAIN0
  6
BYBLOCK
 62
0
100
AcDbBlockReference
  2
_OPEN
 10
242.6685746483965
 20
449.4032093130245
 30
0.0000000000000000
 41
4.000000000000000
 42
4.000000000000000
 43
4.000000000000000
 50
180.0000000000000
  0
INSERT
  5
242
100
AcDbEntity
  8
MAIN0
  6
BYBLOCK
 62
0
100
AcDbBlockReference
  2
_OPEN
 10
274.6685746483965
 20
449.4032093130245
 30
0.0000000000000000
 41
4.000000000000000
 42
4.000000000000000
 43
4.000000000000000
 50
0.0000000000000000
  0
LINE
  5
243
100
AcDbEntity
  8
MAIN0
  6
BYBLOCK
 62
0
100
AcDbLine
 10
274.6685746483965
 20
526.9776312633783
 30
0.0000000000000000
 11
274.6685746483965
 21
445.4032093130245
 31
0.0000000000000000
  0
MTEXT
  5
244
100
AcDbEntity
  8
MAIN0
  6
BYBLOCK
 62
0
100
AcDbMText
 10
258.6685746483965
 20
453.0032092176571
 30
0.0000000000000000
 40
6.199999809265137
 41
0.0000000000000000
 71
     5
 72
     1
  1
\A1;32
 11
1.000000000000000
 21
0.0000000000000000
 31
0.0000000000000000
  7
STANDARD
  0
ENDBLK
  5
245
100
AcDbEntity
  8
MAIN0
  6
CONTINUOUS
 62
3
100
AcDbBlockEnd
  0
BLOCK
  5
256
100
AcDbEntity
  8
MAIN0
  6
CONTINUOUS
 62
3
100
AcDbBlockBegin
  2
*D26
 70
    65
 10
0.0
 20
0.0
 30
0.0
  0
LINE
  5
257
100
AcDbEntity
  8
MAIN0
  6
BYBLOCK
 62
0
100
AcDbLine
 10
118.6685746483964
 20
508.6751497851368
 30
0.0000000000000000
 11
118.6685746483964
 21
461.9074963457838
 31
0.0000000000000000
  0
LINE
  5
258
100
AcDbEntity
  8
MAIN0
  6
BYBLOCK
 62
0
100
AcDbLine
 10
122.6685746483964
 20
465.9074963457838
 30
0.0000000000000000
 11
164.6685746483963
 21
465.9074963457838
 31
0.0000000000000000
  0
INSERT
  5
259
100
AcDbEntity
  8
MAIN0
  6
BYBLOCK
 62
0
100
AcDbBlockReference
  2
_OPEN
 10
118.6685746483964
 20
465.9074963457838
 30
0.0000000000000000
 41
4.000000000000000
 42
4.000000000000000
 43
4.000000000000000
 50
180.0000000000000
  0
INSERT
  5
25A
100
AcDbEntity
  8
MAIN0
  6
BYBLOCK
 62
0
100
AcDbBlockReference
  2
_OPEN
 10
168.6685746483963
 20
465.9074963457838
 30
0.0000000000000000
 41
4.000000000000000
 42
4.000000000000000
 43
4.000000000000000
 50
0.0000000000000000
  0
LINE
  5
25B
100
AcDbEntity
  8
MAIN0
  6
BYBLOCK
 62
0
100
AcDbLine
 10
168.6685746483963
 20
508.6751497851276
 30
0.0000000000000000
 11
168.6685746483963
 21
461.9074963457838
 31
0.0000000000000000
  0
MTEXT
  5
25C
100
AcDbEntity
  8
MAIN0
  6
BYBLOCK
 62
0
100
AcDbMText
 10
148.2334679773889
 20
470.0074962504164
 30
0.0000000000000000
 40
6.199999809265137
 41
0.0000000000000000
 71
     5
 72
     1
  1
\A1;50
 11
1.000000000000000
 21
0.0000000000000000
 31
0.0000000000000000
  7
STANDARD
  0
ENDBLK
  5
25D
100
AcDbEntity
  8
MAIN0
  6
CONTINUOUS
 62
3
100
AcDbBlockEnd
  0
BLOCK
  5
25F
100
AcDbEntity
  8
MAIN0
  6
CONTINUOUS
 62
3
100
AcDbBlockBegin
  2
*D27
 70
    65
 10
0.0
 20
0.0
 30
0.0
  0
LINE
  5
260
100
AcDbEntity
  8
MAIN0
  6
BYBLOCK
 62
0
100
AcDbLine
 10
168.6685746483963
 20
508.6751497851276
 30
0.0000000000000000
 11
168.6685746483963
 21
461.9074963457838
 31
0.0000000000000000
  0
LINE
  5
261
100
AcDbEntity
  8
MAIN0
  6
BYBLOCK
 62
0
100
AcDbLine
 10
168.6685746483963
 20
465.9074963457838
 30
0.0000000000000000
 11
178.6685746483965
 21
465.9074963457838
 31
0.0000000000000000
  0
INSERT
  5
262
100
AcDbEntity
  8
MAIN0
  6
BYBLOCK
 62
0
100
AcDbBlockReference
  2
_OPEN
 10
168.6685746483963
 20
465.9074963457838
 30
0.0000000000000000
 41
4.000000000000000
 42
4.000000000000000
 43
4.000000000000000
 50
0.0000000000000000
  0
INSERT
  5
263
100
AcDbEntity
  8
MAIN0
  6
BYBLOCK
 62
0
100
AcDbBlockReference
  2
_OPEN
 10
178.6685746483965
 20
465.9074963457838
 30
0.0000000000000000
 41
4.000000000000000
 42
4.000000000000000
 43
4.000000000000000
 50
180.0000000000000
  0
LINE
  5
264
100
AcDbEntity
  8
MAIN0
  6
BYBLOCK
 62
0
100
AcDbLine
 10
164.6685746483963
 20
465.9074963457838
 30
0.0000000000000000
 11
162.6685746483963
 21
465.9074963457838
 31
0.0000000000000000
  0
LINE
  5
265
100
AcDbEntity
  8
MAIN0
  6
BYBLOCK
 62
0
100
AcDbLine
 10
182.6685746483965
 20
465.9074963457838
 30
0.0000000000000000
 11
191.8568751676394
 21
465.9074963457838
 31
0.0000000000000000
  0
LINE
  5
266
100
AcDbEntity
  8
MAIN0
  6
BYBLOCK
 62
0
100
AcDbLine
 10
178.6685746483965
 20
484.9251497851325
 30
0.0000000000000000
 11
178.6685746483965
 21
461.9074963457838
 31
0.0000000000000000
  0
MTEXT
  5
267
100
AcDbEntity
  8
MAIN0
  6
BYBLOCK
 62
0
100
AcDbMText
 10
187.7568752630069
 20
470.0074962504164
 30
0.0000000000000000
 40
6.199999809265137
 41
0.0000000000000000
 71
     5
 72
     1
  1
\A1;10
 11
1.000000000000000
 21
0.0000000000000000
 31
0.0000000000000000
  7
STANDARD
  0
ENDBLK
  5
268
100
AcDbEntity
  8
MAIN0
  6
CONTINUOUS
 62
3
100
AcDbBlockEnd
  0
BLOCK
  5
26A
100
AcDbEntity
  8
MAIN0
  6
CONTINUOUS
 62
3
100
AcDbBlockBegin
  2
*D28
 70
    65
 10
0.0
 20
0.0
 30
0.0
  0
LINE
  5
26B
100
AcDbEntity
  8
MAIN0
  6
BYBLOCK
 62
0
100
AcDbLine
 10
111.0685746245545
 20
516.2751498089787
 30
0.0000000000000000
 11
74.64896967979732
 21
516.2751498089787
 31
0.0000000000000000
  0
LINE
  5
26C
100
AcDbEntity
  8
MAIN0
  6
BYBLOCK
 62
0
100
AcDbLine
 10
78.64896967979732
 20
520.2751498089787
 30
0.0000000000000000
 11
78.64896967979732
 21
552.2751498089787
 31
0.0000000000000000
  0
INSERT
  5
26D
100
AcDbEntity
  8
MAIN0
  6
BYBLOCK
 62
0
100
AcDbBlockReference
  2
_OPEN
 10
78.64896967979732
 20
516.2751498089787
 30
0.0000000000000000
 41
4.000000000000000
 42
4.000000000000000
 43
4.000000000000000
 50
270.0000000000000
  0
INSERT
  5
26E
100
AcDbEntity
  8
MAIN0
  6
BYBLOCK
 62
0
100
AcDbBlockReference
  2
_OPEN
 10
78.64896967979732
 20
556.2751498089787
 30
0.0000000000000000
 41
4.000000000000000
 42
4.000000000000000
 43
4.000000000000000
 50
90.00000000000000
  0
LINE
  5
26F
100
AcDbEntity
  8
MAIN0
  6
BYBLOCK
 62
0
100
AcDbLine
 10
111.0685746245546
 20
556.2751498089787
 30
0.0000000000000000
 11
74.64896967979732
 21
556.2751498089787
 31
0.0000000000000000
  0
MTEXT
  5
270
100
AcDbEntity
  8
MAIN0
  6
BYBLOCK
 62
0
100
AcDbMText
 10
75.04896977516475
 20
536.2751498089787
 30
0.0000000000000000
 40
6.199999809265137
 41
0.0000000000000000
 71
     5
 72
     1
  1
\A1;40
 11
6.123233995736766e-017
 21
1.000000000000000
 31
0.0000000000000000
  7
STANDARD
  0
ENDBLK
  5
271
100
AcDbEntity
  8
MAIN0
  6
CONTINUOUS
 62
3
100
AcDbBlockEnd
  0
BLOCK
  5
281
100
AcDbEntity
  8
MAIN0
  6
CONTINUOUS
 62
3
100
AcDbBlockBegin
  2
*D29
 70
    65
 10
0.0
 20
0.0
 30
0.0
  0
LINE
  5
282
100
AcDbEntity
  8
MAIN0
  6
BYBLOCK
 62
0
100
AcDbLine
 10
242.6685746483965
 20
484.9251497851326
 30
0.0000000000000000
 11
242.6685746483965
 21
461.9074963457838
 31
0.0000000000000000
  0
LINE
  5
283
100
AcDbEntity
  8
MAIN0
  6
BYBLOCK
 62
0
100
AcDbLine
 10
242.6685746483965
 20
465.9074963457838
 30
0.0000000000000000
 11
252.6685746483964
 21
465.9074963457838
 31
0.0000000000000000
  0
INSERT
  5
284
100
AcDbEntity
  8
MAIN0
  6
BYBLOCK
 62
0
100
AcDbBlockReference
  2
_OPEN
 10
242.6685746483965
 20
465.9074963457838
 30
0.0000000000000000
 41
4.000000000000000
 42
4.000000000000000
 43
4.000000000000000
 50
0.0000000000000000
  0
INSERT
  5
285
100
AcDbEntity
  8
MAIN0
  6
BYBLOCK
 62
0
100
AcDbBlockReference
  2
_OPEN
 10
252.6685746483964
 20
465.9074963457838
 30
0.0000000000000000
 41
4.000000000000000
 42
4.000000000000000
 43
4.000000000000000
 50
180.0000000000000
  0
LINE
  5
286
100
AcDbEntity
  8
MAIN0
  6
BYBLOCK
 62
0
100
AcDbLine
 10
238.6685746483965
 20
465.9074963457838
 30
0.0000000000000000
 11
230.9026881205141
 21
465.9074963457838
 31
0.0000000000000000
  0
LINE
  5
287
100
AcDbEntity
  8
MAIN0
  6
BYBLOCK
 62
0
100
AcDbLine
 10
256.6685746483964
 20
465.9074963457838
 30
0.0000000000000000
 11
258.6685746483964
 21
465.9074963457838
 31
0.0000000000000000
  0
LINE
  5
288
100
AcDbEntity
  8
MAIN0
  6
BYBLOCK
 62
0
100
AcDbLine
 10
252.6685746483964
 20
493.6751497851375
 30
0.0000000000000000
 11
252.6685746483964
 21
461.9074963457838
 31
0.0000000000000000
  0
MTEXT
  5
289
100
AcDbEntity
  8
MAIN0
  6
BYBLOCK
 62
0
100
AcDbMText
 10
235.0026880251467
 20
470.0074962504164
 30
0.0000000000000000
 40
6.199999809265137
 41
0.0000000000000000
 71
     5
 72
     1
  1
\A1;10
 11
1.000000000000000
 21
0.0000000000000000
 31
0.0000000000000000
  7
STANDARD
  0
ENDBLK
  5
28A
100
AcDbEntity
  8
MAIN0
  6
CONTINUOUS
 62
3
100
AcDbBlockEnd
  0
BLOCK
  5
28C
100
AcDbEntity
  8
MAIN0
  6
CONTINUOUS
 62
3
100
AcDbBlockBegin
  2
*D30
 70
    65
 10
0.0
 20
0.0
 30
0.0
  0
LINE
  5
28D
100
AcDbEntity
  8
MAIN0
  6
BYBLOCK
 62
0
100
AcDbLine
 10
252.6685746483964
 20
493.6751497851375
 30
0.0000000000000000
 11
252.6685746483964
 21
461.9074963457838
 31
0.0000000000000000
  0
LINE
  5
28E
100
AcDbEntity
  8
MAIN0
  6
BYBLOCK
 62
0
100
AcDbLine
 10
256.6685746483964
 20
465.9074963457838
 30
0.0000000000000000
 11
288.6685746483964
 21
465.9074963457838
 31
0.0000000000000000
  0
INSERT
  5
28F
100
AcDbEntity
  8
MAIN0
  6
BYBLOCK
 62
0
100
AcDbBlockReference
  2
_OPEN
 10
252.6685746483964
 20
465.9074963457838
 30
0.0000000000000000
 41
4.000000000000000
 42
4.000000000000000
 43
4.000000000000000
 50
180.0000000000000
  0
INSERT
  5
290
100
AcDbEntity
  8
MAIN0
  6
BYBLOCK
 62
0
100
AcDbBlockReference
  2
_OPEN
 10
292.6685746483964
 20
465.9074963457838
 30
0.0000000000000000
 41
4.000000000000000
 42
4.000000000000000
 43
4.000000000000000
 50
0.0000000000000000
  0
LINE
  5
291
100
AcDbEntity
  8
MAIN0
  6
BYBLOCK
 62
0
100
AcDbLine
 10
292.6685746483964
 20
494.2751497851288
 30
0.0000000000000000
 11
292.6685746483964
 21
461.9074963457838
 31
0.0000000000000000
  0
MTEXT
  5
292
100
AcDbEntity
  8
MAIN0
  6
BYBLOCK
 62
0
100
AcDbMText
 10
269.7562629380490
 20
470.0074962504164
 30
0.0000000000000000
 40
6.199999809265137
 41
0.0000000000000000
 71
     5
 72
     1
  1
\A1;40
 11
1.000000000000000
 21
0.0000000000000000
 31
0.0000000000000000
  7
STANDARD
  0
ENDBLK
  5
293
100
AcDbEntity
  8
MAIN0
  6
CONTINUOUS
 62
3
100
AcDbBlockEnd
  0
BLOCK
  5
295
100
AcDbEntity
  8
MAIN0
  6
CONTINUOUS
 62
3
100
AcDbBlockBegin
  2
*D31
 70
    65
 10
0.0
 20
0.0
 30
0.0
  0
LINE
  5
296
100
AcDbEntity
  8
MAIN0
  6
BYBLOCK
 62
0
100
AcDbLine
 10
299.6685746722383
 20
501.2751498089707
 30
0.0000000000000000
 11
328.8655193145817
 21
501.2751498089707
 31
0.0000000000000000
  0
LINE
  5
297
100
AcDbEntity
  8
MAIN0
  6
BYBLOCK
 62
0
100
AcDbLine
 10
324.8655193145817
 20
505.2751498089707
 30
0.0000000000000000
 11
324.8655193145817
 21
567.2751498089706
 31
0.0000000000000000
  0
INSERT
  5
298
100
AcDbEntity
  8
MAIN0
  6
BYBLOCK
 62
0
100
AcDbBlockReference
  2
_OPEN
 10
324.8655193145817
 20
501.2751498089707
 30
0.0000000000000000
 41
4.000000000000000
 42
4.000000000000000
 43
4.000000000000000
 50
270.0000000000000
  0
INSERT
  5
299
100
AcDbEntity
  8
MAIN0
  6
BYBLOCK
 62
0
100
AcDbBlockReference
  2
_OPEN
 10
324.8655193145817
 20
571.2751498089706
 30
0.0000000000000000
 41
4.000000000000000
 42
4.000000000000000
 43
4.000000000000000
 50
90.00000000000000
  0
LINE
  5
29A
100
AcDbEntity
  8
MAIN0
  6
BYBLOCK
 62
0
100
AcDbLine
 10
299.6685746722383
 20
571.2751498089706
 30
0.0000000000000000
 11
328.8655193145817
 21
571.2751498089706
 31
0.0000000000000000
  0
MTEXT
  5
29B
100
AcDbEntity
  8
MAIN0
  6
BYBLOCK
 62
0
100
AcDbMText
 10
321.2655194099491
 20
536.2751498089706
 30
0.0000000000000000
 40
6.199999809265137
 41
0.0000000000000000
 71
     5
 72
     1
  1
\A1;70
 11
6.123233995736766e-017
 21
1.000000000000000
 31
0.0000000000000000
  7
STANDARD
  0
ENDBLK
  5
29C
100
AcDbEntity
  8
MAIN0
  6
CONTINUOUS
 62
3
100
AcDbBlockEnd
  0
BLOCK
  5
2E0
100
AcDbEntity
  8
MAIN0
  6
CONTINUOUS
 62
3
100
AcDbBlockBegin
  2
*D32
 70
    65
 10
0.0
 20
0.0
 30
0.0
  0
LINE
  5
2E1
100
AcDbEntity
  8
MAIN0
  6
BYBLOCK
 62
0
100
AcDbLine
 10
495.2758453334081
 20
319.2751337237628
 30
0.0000000000000000
 11
495.2758453334081
 21
517.6094435139439
 31
0.0000000000000000
  0
LINE
  5
2E2
100
AcDbEntity
  8
MAIN0
  6
BYBLOCK
 62
0
100
AcDbLine
 10
495.2758453334081
 20
513.6094435139439
 30
0.0000000000000000
 11
510.2758453334082
 21
513.6094435139439
 31
0.0000000000000000
  0
INSERT
  5
2E3
100
AcDbEntity
  8
MAIN0
  6
BYBLOCK
 62
0
100
AcDbBlockReference
  2
_OPEN
 10
495.2758453334081
 20
513.6094435139439
 30
0.0000000000000000
 41
4.000000000000000
 42
4.000000000000000
 43
4.000000000000000
 50
0.0000000000000000
  0
INSERT
  5
2E4
100
AcDbEntity
  8
MAIN0
  6
BYBLOCK
 62
0
100
AcDbBlockReference
  2
_OPEN
 10
510.2758453334082
 20
513.6094435139439
 30
0.0000000000000000
 41
4.000000000000000
 42
4.000000000000000
 43
4.000000000000000
 50
180.0000000000000
  0
LINE
  5
2E5
100
AcDbEntity
  8
MAIN0
  6
BYBLOCK
 62
0
100
AcDbLine
 10
491.2758453334081
 20
513.6094435139439
 30
0.0000000000000000
 11
489.2758453334081
 21
513.6094435139439
 31
0.0000000000000000
  0
LINE
  5
2E6
100
AcDbEntity
  8
MAIN0
  6
BYBLOCK
 62
0
100
AcDbLine
 10
514.2758453334081
 20
513.6094435139439
 30
0.0000000000000000
 11
516.2758453334081
 21
513.6094435139439
 31
0.0000000000000000
  0
LINE
  5
2E7
100
AcDbEntity
  8
MAIN0
  6
BYBLOCK
 62
0
100
AcDbLine
 10
510.2758453334082
 20
319.8751337237628
 30
0.0000000000000000
 11
510.2758453334082
 21
517.6094435139439
 31
0.0000000000000000
  0
MTEXT
  5
2E8
100
AcDbEntity
  8
MAIN0
  6
BYBLOCK
 62
0
100
AcDbMText
 10
502.7758453334081
 20
517.2094434185765
 30
0.0000000000000000
 40
6.199999809265137
 41
0.0000000000000000
 71
     5
 72
     1
  1
\A1;15
 11
1.000000000000000
 21
0.0000000000000000
 31
0.0000000000000000
  7
STANDARD
  0
ENDBLK
  5
2E9
100
AcDbEntity
  8
MAIN0
  6
CONTINUOUS
 62
3
100
AcDbBlockEnd
  0
BLOCK
  5
2EB
100
AcDbEntity
  8
MAIN0
  6
CONTINUOUS
 62
3
100
AcDbBlockBegin
  2
*D33
 70
    65
 10
0.0
 20
0.0
 30
0.0
  0
LINE
  5
2EC
100
AcDbEntity
  8
MAIN0
  6
BYBLOCK
 62
0
100
AcDbLine
 10
510.2758453334082
 20
319.8751337237628
 30
0.0000000000000000
 11
510.2758453334082
 21
517.6094435139439
 31
0.0000000000000000
  0
LINE
  5
2ED
100
AcDbEntity
  8
MAIN0
  6
BYBLOCK
 62
0
100
AcDbLine
 10
514.2758453334081
 20
513.6094435139439
 30
0.0000000000000000
 11
536.2758453333896
 21
513.6094435139439
 31
0.0000000000000000
  0
INSERT
  5
2EE
100
AcDbEntity
  8
MAIN0
  6
BYBLOCK
 62
0
100
AcDbBlockReference
  2
_OPEN
 10
510.2758453334082
 20
513.6094435139439
 30
0.0000000000000000
 41
4.000000000000000
 42
4.000000000000000
 43
4.000000000000000
 50
180.0000000000000
  0
INSERT
  5
2EF
100
AcDbEntity
  8
MAIN0
  6
BYBLOCK
 62
0
100
AcDbBlockReference
  2
_OPEN
 10
540.2758453333896
 20
513.6094435139439
 30
0.0000000000000000
 41
4.000000000000000
 42
4.000000000000000
 43
4.000000000000000
 50
0.0000000000000000
  0
LINE
  5
2F0
100
AcDbEntity
  8
MAIN0
  6
BYBLOCK
 62
0
100
AcDbLine
 10
540.2758453333896
 20
483.3751337237625
 30
0.0000000000000000
 11
540.2758453333896
 21
517.6094435139439
 31
0.0000000000000000
  0
MTEXT
  5
2F1
100
AcDbEntity
  8
MAIN0
  6
BYBLOCK
 62
0
100
AcDbMText
 10
525.2758453333988
 20
517.2094434185765
 30
0.0000000000000000
 40
6.199999809265137
 41
0.0000000000000000
 71
     5
 72
     1
  1
\A1;30
 11
1.000000000000000
 21
0.0000000000000000
 31
0.0000000000000000
  7
STANDARD
  0
ENDBLK
  5
2F2
100
AcDbEntity
  8
MAIN0
  6
CONTINUOUS
 62
3
100
AcDbBlockEnd
  0
BLOCK
  5
2F4
100
AcDbEntity
  8
MAIN0
  6
CONTINUOUS
 62
3
100
AcDbBlockBegin
  2
*D34
 70
    65
 10
0.0
 20
0.0
 30
0.0
  0
LINE
  5
2F5
100
AcDbEntity
  8
MAIN0
  6
BYBLOCK
 62
0
100
AcDbLine
 10
540.2758453333896
 20
483.3751337237625
 30
0.0000000000000000
 11
540.2758453333896
 21
517.6094435139439
 31
0.0000000000000000
  0
LINE
  5
2F6
100
AcDbEntity
  8
MAIN0
  6
BYBLOCK
 62
0
100
AcDbLine
 10
544.2758453333896
 20
513.6094435139439
 30
0.0000000000000000
 11
608.2758453333838
 21
513.6094435139439
 31
0.0000000000000000
  0
INSERT
  5
2F7
100
AcDbEntity
  8
MAIN0
  6
BYBLOCK
 62
0
100
AcDbBlockReference
  2
_OPEN
 10
540.2758453333896
 20
513.6094435139439
 30
0.0000000000000000
 41
4.000000000000000
 42
4.000000000000000
 43
4.000000000000000
 50
180.0000000000000
  0
INSERT
  5
2F8
100
AcDbEntity
  8
MAIN0
  6
BYBLOCK
 62
0
100
AcDbBlockReference
  2
_OPEN
 10
612.2758453333838
 20
513.6094435139439
 30
0.0000000000000000
 41
4.000000000000000
 42
4.000000000000000
 43
4.000000000000000
 50
0.0000000000000000
  0
LINE
  5
2F9
100
AcDbEntity
  8
MAIN0
  6
BYBLOCK
 62
0
100
AcDbLine
 10
612.2758453333838
 20
492.8751337237629
 30
0.0000000000000000
 11
612.2758453333838
 21
517.6094435139439
 31
0.0000000000000000
  0
MTEXT
  5
2FA
100
AcDbEntity
  8
MAIN0
  6
BYBLOCK
 62
0
100
AcDbMText
 10
576.2758453333868
 20
517.2094434185765
 30
0.0000000000000000
 40
6.199999809265137
 41
0.0000000000000000
 71
     5
 72
     1
  1
\A1;72
 11
1.000000000000000
 21
0.0000000000000000
 31
0.0000000000000000
  7
STANDARD
  0
ENDBLK
  5
2FB
100
AcDbEntity
  8
MAIN0
  6
CONTINUOUS
 62
3
100
AcDbBlockEnd
  0
BLOCK
  5
2FD
100
AcDbEntity
  8
MAIN0
  6
CONTINUOUS
 62
3
100
AcDbBlockBegin
  2
*D35
 70
    65
 10
0.0
 20
0.0
 30
0.0
  0
LINE
  5
2FE
100
AcDbEntity
  8
MAIN0
  6
BYBLOCK
 62
0
100
AcDbLine
 10
495.2758453334072
 20
312.8751337237626
 30
0.0000000000000000
 11
495.2758453334072
 21
534.4237216591394
 31
0.0000000000000000
  0
LINE
  5
2FF
100
AcDbEntity
  8
MAIN0
  6
BYBLOCK
 62
0
100
AcDbLine
 10
499.2758453334072
 20
530.4237216591394
 30
0.0000000000000000
 11
608.2758453333838
 21
530.4237216591394
 31
0.0000000000000000
  0
INSERT
  5
300
100
AcDbEntity
  8
MAIN0
  6
BYBLOCK
 62
0
100
AcDbBlockReference
  2
_OPEN
 10
495.2758453334072
 20
530.4237216591394
 30
0.0000000000000000
 41
4.000000000000000
 42
4.000000000000000
 43
4.000000000000000
 50
180.0000000000000
  0
INSERT
  5
301
100
AcDbEntity
  8
MAIN0
  6
BYBLOCK
 62
0
100
AcDbBlockReference
  2
_OPEN
 10
612.2758453333838
 20
530.4237216591394
 30
0.0000000000000000
 41
4.000000000000000
 42
4.000000000000000
 43
4.000000000000000
 50
0.0000000000000000
  0
LINE
  5
302
100
AcDbEntity
  8
MAIN0
  6
BYBLOCK
 62
0
100
AcDbLine
 10
612.2758453333838
 20
492.8751337237629
 30
0.0000000000000000
 11
612.2758453333838
 21
534.4237216591394
 31
0.0000000000000000
  0
MTEXT
  5
303
100
AcDbEntity
  8
MAIN0
  6
BYBLOCK
 62
0
100
AcDbMText
 10
553.7758453333955
 20
534.0237215637719
 30
0.0000000000000000
 40
6.199999809265137
 41
0.0000000000000000
 71
     5
 72
     1
  1
\A1;117
 11
1.000000000000000
 21
0.0000000000000000
 31
0.0000000000000000
  7
STANDARD
  0
ENDBLK
  5
304
100
AcDbEntity
  8
MAIN0
  6
CONTINUOUS
 62
3
100
AcDbBlockEnd
  0
BLOCK
  5
307
100
AcDbEntity
  8
MAIN0
  6
CONTINUOUS
 62
3
100
AcDbBlockBegin
  2
*D36
 70
    65
 10
0.0
 20
0.0
 30
0.0
  0
LINE
  5
308
100
AcDbEntity
  8
MAIN0
  6
BYBLOCK
 62
0
100
AcDbLine
 10
104.6685746483965
 20
256.6751336760789
 30
0.0000000000000000
 11
104.6685746483965
 21
181.6226990837993
 31
0.0000000000000000
  0
LINE
  5
309
100
AcDbEntity
  8
MAIN0
  6
BYBLOCK
 62
0
100
AcDbLine
 10
108.6685746483965
 20
185.6226990837993
 30
0.0000000000000000
 11
213.1685746483965
 21
185.6226990837993
 31
0.0000000000000000
  0
INSERT
  5
30A
100
AcDbEntity
  8
MAIN0
  6
BYBLOCK
 62
0
100
AcDbBlockReference
  2
_OPEN
 10
104.6685746483965
 20
185.6226990837993
 30
0.0000000000000000
 41
4.000000000000000
 42
4.000000000000000
 43
4.000000000000000
 50
180.0000000000000
  0
INSERT
  5
30B
100
AcDbEntity
  8
MAIN0
  6
BYBLOCK
 62
0
100
AcDbBlockReference
  2
_OPEN
 10
217.1685746483965
 20
185.6226990837993
 30
0.0000000000000000
 41
4.000000000000000
 42
4.000000000000000
 43
4.000000000000000
 50
0.0000000000000000
  0
LINE
  5
30C
100
AcDbEntity
  8
MAIN0
  6
BYBLOCK
 62
0
100
AcDbLine
 10
217.1685746483965
 20
249.6193641585815
 30
0.0000000000000000
 11
217.1685746483965
 21
181.6226990837993
 31
0.0000000000000000
  0
MTEXT
  5
30D
100
AcDbEntity
  8
MAIN0
  6
BYBLOCK
 62
0
100
AcDbMText
 10
160.9185746483965
 20
189.2226989884318
 30
0.0000000000000000
 40
6.199999809265137
 41
0.0000000000000000
 71
     5
 72
     1
  1
\A1;112.5
 11
1.000000000000000
 21
0.0000000000000000
 31
0.0000000000000000
  7
STANDARD
  0
ENDBLK
  5
30E
100
AcDbEntity
  8
MAIN0
  6
CONTINUOUS
 62
3
100
AcDbBlockEnd
  0
BLOCK
  5
310
100
AcDbEntity
  8
MAIN0
  6
CONTINUOUS
 62
3
100
AcDbBlockBegin
  2
*D37
 70
    65
 10
0.0
 20
0.0
 30
0.0
  0
LINE
  5
311
100
AcDbEntity
  8
MAIN0
  6
BYBLOCK
 62
0
100
AcDbLine
 10
217.1685746483965
 20
249.6193641585815
 30
0.0000000000000000
 11
217.1685746483965
 21
181.6226990837993
 31
0.0000000000000000
  0
LINE
  5
312
100
AcDbEntity
  8
MAIN0
  6
BYBLOCK
 62
0
100
AcDbLine
 10
221.1685746483965
 20
185.6226990837993
 30
0.0000000000000000
 11
452.1685746483963
 21
185.6226990837993
 31
0.0000000000000000
  0
INSERT
  5
313
100
AcDbEntity
  8
MAIN0
  6
BYBLOCK
 62
0
100
AcDbBlockReference
  2
_OPEN
 10
217.1685746483965
 20
185.6226990837993
 30
0.0000000000000000
 41
4.000000000000000
 42
4.000000000000000
 43
4.000000000000000
 50
180.0000000000000
  0
INSERT
  5
314
100
AcDbEntity
  8
MAIN0
  6
BYBLOCK
 62
0
100
AcDbBlockReference
  2
_OPEN
 10
456.1685746483963
 20
185.6226990837993
 30
0.0000000000000000
 41
4.000000000000000
 42
4.000000000000000
 43
4.000000000000000
 50
0.0000000000000000
  0
LINE
  5
315
100
AcDbEntity
  8
MAIN0
  6
BYBLOCK
 62
0
100
AcDbLine
 10
456.1685746483963
 20
284.6751336760789
 30
0.0000000000000000
 11
456.1685746483963
 21
181.6226990837993
 31
0.0000000000000000
  0
MTEXT
  5
316
100
AcDbEntity
  8
MAIN0
  6
BYBLOCK
 62
0
100
AcDbMText
 10
336.6685746483964
 20
189.2226989884318
 30
0.0000000000000000
 40
6.199999809265137
 41
0.0000000000000000
 71
     5
 72
     1
  1
\A1;239
 11
1.000000000000000
 21
0.0000000000000000
 31
0.0000000000000000
  7
STANDARD
  0
ENDBLK
  5
317
100
AcDbEntity
  8
MAIN0
  6
CONTINUOUS
 62
3
100
AcDbBlockEnd
  0
BLOCK
  5
319
100
AcDbEntity
  8
MAIN0
  6
CONTINUOUS
 62
3
100
AcDbBlockBegin
  2
*D38
 70
    65
 10
0.0
 20
0.0
 30
0.0
  0
LINE
  5
31A
100
AcDbEntity
  8
MAIN0
  6
BYBLOCK
 62
0
100
AcDbLine
 10
178.6685746483964
 20
341.6751336760789
 30
0.0000000000000000
 11
178.6685746483964
 21
216.0369995200459
 31
0.0000000000000000
  0
LINE
  5
31B
100
AcDbEntity
  8
MAIN0
  6
BYBLOCK
 62
0
100
AcDbLine
 10
182.6685746483964
 20
220.0369995200459
 30
0.0000000000000000
 11
213.1685746483965
 21
220.0369995200459
 31
0.0000000000000000
  0
INSERT
  5
31C
100
AcDbEntity
  8
MAIN0
  6
BYBLOCK
 62
0
100
AcDbBlockReference
  2
_OPEN
 10
178.6685746483964
 20
220.0369995200459
 30
0.0000000000000000
 41
4.000000000000000
 42
4.000000000000000
 43
4.000000000000000
 50
180.0000000000000
  0
INSERT
  5
31D
100
AcDbEntity
  8
MAIN0
  6
BYBLOCK
 62
0
100
AcDbBlockReference
  2
_OPEN
 10
217.1685746483965
 20
220.0369995200459
 30
0.0000000000000000
 41
4.000000000000000
 42
4.000000000000000
 43
4.000000000000000
 50
0.0000000000000000
  0
LINE
  5
31E
100
AcDbEntity
  8
MAIN0
  6
BYBLOCK
 62
0
100
AcDbLine
 10
217.1685746483965
 20
249.6193641585815
 30
0.0000000000000000
 11
217.1685746483965
 21
216.0369995200459
 31
0.0000000000000000
  0
MTEXT
  5
31F
100
AcDbEntity
  8
MAIN0
  6
BYBLOCK
 62
0
100
AcDbMText
 10
197.9185746483964
 20
223.6369994246784
 30
0.0000000000000000
 40
6.199999809265137
 41
0.0000000000000000
 71
     5
 72
     1
  1
\A1;38.5
 11
1.000000000000000
 21
0.0000000000000000
 31
0.0000000000000000
  7
STANDARD
  0
ENDBLK
  5
320
100
AcDbEntity
  8
MAIN0
  6
CONTINUOUS
 62
3
100
AcDbBlockEnd
  0
BLOCK
  5
322
100
AcDbEntity
  8
MAIN0
  6
CONTINUOUS
 62
3
100
AcDbBlockBegin
  2
*D39
 70
    65
 10
0.0
 20
0.0
 30
0.0
  0
LINE
  5
323
100
AcDbEntity
  8
MAIN0
  6
BYBLOCK
 62
0
100
AcDbLine
 10
217.1685746483965
 20
249.6193641585815
 30
0.0000000000000000
 11
217.1685746483965
 21
216.0369995200459
 31
0.0000000000000000
  0
LINE
  5
324
100
AcDbEntity
  8
MAIN0
  6
BYBLOCK
 62
0
100
AcDbLine
 10
221.1685746483965
 20
220.0369995200459
 30
0.0000000000000000
 11
373.6685746483967
 21
220.0369995200459
 31
0.0000000000000000
  0
INSERT
  5
325
100
AcDbEntity
  8
MAIN0
  6
BYBLOCK
 62
0
100
AcDbBlockReference
  2
_OPEN
 10
217.1685746483965
 20
220.0369995200459
 30
0.0000000000000000
 41
4.000000000000000
 42
4.000000000000000
 43
4.000000000000000
 50
180.0000000000000
  0
INSERT
  5
326
100
AcDbEntity
  8
MAIN0
  6
BYBLOCK
 62
0
100
AcDbBlockReference
  2
_OPEN
 10
377.6685746483967
 20
220.0369995200459
 30
0.0000000000000000
 41
4.000000000000000
 42
4.000000000000000
 43
4.000000000000000
 50
0.0000000000000000
  0
LINE
  5
327
100
AcDbEntity
  8
MAIN0
  6
BYBLOCK
 62
0
100
AcDbLine
 10
377.6685746483967
 20
256.6751336760789
 30
0.0000000000000000
 11
377.6685746483967
 21
216.0369995200459
 31
0.0000000000000000
  0
MTEXT
  5
328
100
AcDbEntity
  8
MAIN0
  6
BYBLOCK
 62
0
100
AcDbMText
 10
297.4185746483966
 20
223.6369994246784
 30
0.0000000000000000
 40
6.199999809265137
 41
0.0000000000000000
 71
     5
 72
     1
  1
\A1;160.5
 11
1.000000000000000
 21
0.0000000000000000
 31
0.0000000000000000
  7
STANDARD
  0
ENDBLK
  5
329
100
AcDbEntity
  8
MAIN0
  6
CONTINUOUS
 62
3
100
AcDbBlockEnd
  0
BLOCK
  5
32B
100
AcDbEntity
  8
MAIN0
  6
CONTINUOUS
 62
3
100
AcDbBlockBegin
  2
*D40
 70
    65
 10
0.0
 20
0.0
 30
0.0
  0
LINE
  5
32C
100
AcDbEntity
  8
MAIN0
  6
BYBLOCK
 62
0
100
AcDbLine
 10
333.3326129789199
 20
262.2751336999207
 30
0.0000000000000000
 11
333.3326129789199
 21
314.2751336999207
 31
0.0000000000000000
  0
INSERT
  5
32D
100
AcDbEntity
  8
MAIN0
  6
BYBLOCK
 62
0
100
AcDbBlockReference
  2
_OPEN
 10
333.3326129789199
 20
258.2751336999207
 30
0.0000000000000000
 41
4.000000000000000
 42
4.000000000000000
 43
4.000000000000000
 50
270.0000000000000
  0
INSERT
  5
32E
100
AcDbEntity
  8
MAIN0
  6
BYBLOCK
 62
0
100
AcDbBlockReference
  2
_OPEN
 10
333.3326129789199
 20
318.2751336999207
 30
0.0000000000000000
 41
4.000000000000000
 42
4.000000000000000
 43
4.000000000000000
 50
90.00000000000000
  0
LINE
  5
32F
100
AcDbEntity
  8
MAIN0
  6
BYBLOCK
 62
0
100
AcDbLine
 10
301.2685746722384
 20
318.2751336999207
 30
0.0000000000000000
 11
337.3326129789199
 21
318.2751336999207
 31
0.0000000000000000
  0
MTEXT
  5
330
100
AcDbEntity
  8
MAIN0
  6
BYBLOCK
 62
0
100
AcDbMText
 10
329.7326130742873
 20
288.2751336999207
 30
0.0000000000000000
 40
6.199999809265137
 41
0.0000000000000000
 71
     5
 72
     1
  1
\A1;60
 11
6.123233995736766e-017
 21
1.000000000000000
 31
0.0000000000000000
  7
STANDARD
  0
ENDBLK
  5
331
100
AcDbEntity
  8
MAIN0
  6
CONTINUOUS
 62
3
100
AcDbBlockEnd
  0
BLOCK
  5
333
100
AcDbEntity
  8
MAIN0
  6
CONTINUOUS
 62
3
100
AcDbBlockBegin
  2
*D41
 70
    65
 10
0.0
 20
0.0
 30
0.0
  0
LINE
  5
334
100
AcDbEntity
  8
MAIN0
  6
BYBLOCK
 62
0
100
AcDbLine
 10
301.2685746722384
 20
318.2751336999207
 30
0.0000000000000000
 11
337.3326129789199
 21
318.2751336999207
 31
0.0000000000000000
  0
LINE
  5
335
100
AcDbEntity
  8
MAIN0
  6
BYBLOCK
 62
0
100
AcDbLine
 10
333.3326129789199
 20
322.2751336999207
 30
0.0000000000000000
 11
333.3326129789199
 21
339.2751336999207
 31
0.0000000000000000
  0
INSERT
  5
336
100
AcDbEntity
  8
MAIN0
  6
BYBLOCK
 62
0
100
AcDbBlockReference
  2
_OPEN
 10
333.3326129789199
 20
318.2751336999207
 30
0.0000000000000000
 41
4.000000000000000
 42
4.000000000000000
 43
4.000000000000000
 50
270.0000000000000
  0
INSERT
  5
337
100
AcDbEntity
  8
MAIN0
  6
BYBLOCK
 62
0
100
AcDbBlockReference
  2
_OPEN
 10
333.3326129789199
 20
343.2751336999207
 30
0.0000000000000000
 41
4.000000000000000
 42
4.000000000000000
 43
4.000000000000000
 50
90.00000000000000
  0
LINE
  5
338
100
AcDbEntity
  8
MAIN0
  6
BYBLOCK
 62
0
100
AcDbLine
 10
308.2685746722382
 20
343.2751336999207
 30
0.0000000000000000
 11
337.3326129789199
 21
343.2751336999207
 31
0.0000000000000000
  0
MTEXT
  5
339
100
AcDbEntity
  8
MAIN0
  6
BYBLOCK
 62
0
100
AcDbMText
 10
329.7326130742873
 20
330.7751336999207
 30
0.0000000000000000
 40
6.199999809265137
 41
0.0000000000000000
 71
     5
 72
     1
  1
\A1;25
 11
6.123233995736766e-017
 21
1.000000000000000
 31
0.0000000000000000
  7
STANDARD
  0
ENDBLK
  5
33A
100
AcDbEntity
  8
MAIN0
  6
CONTINUOUS
 62
3
100
AcDbBlockEnd
  0
BLOCK
  5
33C
100
AcDbEntity
  8
MAIN0
  6
CONTINUOUS
 62
3
100
AcDbBlockBegin
  2
*D42
 70
    65
 10
0.0
 20
0.0
 30
0.0
  0
LINE
  5
33D
100
AcDbEntity
  8
MAIN0
  6
BYBLOCK
 62
0
100
AcDbLine
 10
142.1685746483965
 20
524.9668839632461
 30
0.0000000000000000
 11
142.1685746483965
 21
445.4032093130245
 31
0.0000000000000000
  0
LINE
  5
33E
100
AcDbEntity
  8
MAIN0
  6
BYBLOCK
 62
0
100
AcDbLine
 10
146.1685746483965
 20
449.4032093130245
 30
0.0000000000000000
 11
174.6685746483965
 21
449.4032093130245
 31
0.0000000000000000
  0
INSERT
  5
33F
100
AcDbEntity
  8
MAIN0
  6
BYBLOCK
 62
0
100
AcDbBlockReference
  2
_OPEN
 10
142.1685746483965
 20
449.4032093130245
 30
0.0000000000000000
 41
4.000000000000000
 42
4.000000000000000
 43
4.000000000000000
 50
180.0000000000000
  0
INSERT
  5
340
100
AcDbEntity
  8
MAIN0
  6
BYBLOCK
 62
0
100
AcDbBlockReference
  2
_OPEN
 10
178.6685746483965
 20
449.4032093130245
 30
0.0000000000000000
 41
4.000000000000000
 42
4.000000000000000
 43
4.000000000000000
 50
0.0000000000000000
  0
LINE
  5
341
100
AcDbEntity
  8
MAIN0
  6
BYBLOCK
 62
0
100
AcDbLine
 10
178.6685746483965
 20
484.9251497851325
 30
0.0000000000000000
 11
178.6685746483965
 21
445.4032093130245
 31
0.0000000000000000
  0
MTEXT
  5
342
100
AcDbEntity
  8
MAIN0
  6
BYBLOCK
 62
0
100
AcDbMText
 10
160.4185746483965
 20
453.0032092176571
 30
0.0000000000000000
 40
6.199999809265137
 41
0.0000000000000000
 71
     5
 72
     1
  1
\A1;36.5
 11
1.000000000000000
 21
0.0000000000000000
 31
0.0000000000000000
  7
STANDARD
  0
ENDBLK
  5
343
100
AcDbEntity
  8
MAIN0
  6
CONTINUOUS
 62
3
100
AcDbBlockEnd
  0
BLOCK
  5
345
100
AcDbEntity
  8
MAIN0
  6
CONTINUOUS
 62
3
100
AcDbBlockBegin
  2
*D43
 70
    65
 10
0.0
 20
0.0
 30
0.0
  0
LINE
  5
346
100
AcDbEntity
  8
MAIN0
  6
BYBLOCK
 62
0
100
AcDbLine
 10
478.6262206998462
 20
307.2751336999207
 30
0.0000000000000000
 11
478.6262206998462
 21
262.2751336999207
 31
0.0000000000000000
  0
INSERT
  5
347
100
AcDbEntity
  8
MAIN0
  6
BYBLOCK
 62
0
100
AcDbBlockReference
  2
_OPEN
 10
478.6262206998462
 20
311.2751336999207
 30
0.0000000000000000
 41
4.000000000000000
 42
4.000000000000000
 43
4.000000000000000
 50
90.00000000000000
  0
INSERT
  5
348
100
AcDbEntity
  8
MAIN0
  6
BYBLOCK
 62
0
100
AcDbBlockReference
  2
_OPEN
 10
478.6262206998462
 20
258.2751336999207
 30
0.0000000000000000
 41
4.000000000000000
 42
4.000000000000000
 43
4.000000000000000
 50
270.0000000000000
  0
LINE
  5
349
100
AcDbEntity
  8
MAIN0
  6
BYBLOCK
 62
0
100
AcDbLine
 10
379.2685746722385
 20
258.2751336999207
 30
0.0000000000000000
 11
482.6262206998462
 21
258.2751336999207
 31
0.0000000000000000
  0
MTEXT
  5
34A
100
AcDbEntity
  8
MAIN0
  6
BYBLOCK
 62
0
100
AcDbMText
 10
475.0262207952136
 20
284.7751336999207
 30
0.0000000000000000
 40
6.199999809265137
 41
0.0000000000000000
 71
     5
 72
     1
  1
\A1;53
 11
6.123233995736766e-017
 21
1.000000000000000
 31
0.0000000000000000
  7
STANDARD
  0
ENDBLK
  5
34B
100
AcDbEntity
  8
MAIN0
  6
CONTINUOUS
 62
3
100
AcDbBlockEnd
  0
BLOCK
  5
34D
100
AcDbEntity
  8
MAIN0
  6
CONTINUOUS
 62
3
100
AcDbBlockBegin
  2
*D44
 70
    65
 10
0.0
 20
0.0
 30
0.0
  0
LINE
  5
34E
100
AcDbEntity
  8
MAIN0
  6
BYBLOCK
 62
0
100
AcDbLine
 10
306.0685744234019
 20
354.4751336999207
 30
0.0000000000000000
 11
285.7411405945951
 21
354.4751336999207
 31
0.0000000000000000
  0
LINE
  5
34F
100
AcDbEntity
  8
MAIN0
  6
BYBLOCK
 62
0
100
AcDbLine
 10
289.7411405945951
 20
354.4751336999207
 30
0.0000000000000000
 11
289.7411405945951
 21
343.2751336999207
 31
0.0000000000000000
  0
INSERT
  5
350
100
AcDbEntity
  8
MAIN0
  6
BYBLOCK
 62
0
100
AcDbBlockReference
  2
_OPEN
 10
289.7411405945951
 20
354.4751336999207
 30
0.0000000000000000
 41
4.000000000000000
 42
4.000000000000000
 43
4.000000000000000
 50
270.0000000000000
  0
INSERT
  5
351
100
AcDbEntity
  8
MAIN0
  6
BYBLOCK
 62
0
100
AcDbBlockReference
  2
_OPEN
 10
289.7411405945951
 20
343.2751336999207
 30
0.0000000000000000
 41
4.000000000000000
 42
4.000000000000000
 43
4.000000000000000
 50
90.00000000000000
  0
LINE
  5
352
100
AcDbEntity
  8
MAIN0
  6
BYBLOCK
 62
0
100
AcDbLine
 10
289.7411405945951
 20
358.4751336999207
 30
0.0000000000000000
 11
289.7411405945951
 21
366.3828597352780
 31
0.0000000000000000
  0
LINE
  5
353
100
AcDbEntity
  8
MAIN0
  6
BYBLOCK
 62
0
100
AcDbLine
 10
289.7411405945951
 20
339.2751336999207
 30
0.0000000000000000
 11
289.7411405945951
 21
337.2751336999207
 31
0.0000000000000000
  0
MTEXT
  5
354
100
AcDbEntity
  8
MAIN0
  6
BYBLOCK
 62
0
100
AcDbMText
 10
285.6411406899625
 20
362.2828598306455
 30
0.0000000000000000
 40
6.199999809265137
 41
0.0000000000000000
 71
     5
 72
     1
  1
\A1;11
 11
6.123233995736766e-017
 21
1.000000000000000
 31
0.0000000000000000
  7
STANDARD
  0
ENDBLK
  5
355
100
AcDbEntity
  8
MAIN0
  6
CONTINUOUS
 62
3
100
AcDbBlockEnd
  0
BLOCK
  5
36E
100
AcDbEntity
  8
MAIN0
  6
CONTINUOUS
 62
3
100
AcDbBlockBegin
  2
*D45
 70
    65
 10
0.0
 20
0.0
 30
0.0
  0
LINE
  5
36F
100
AcDbEntity
  8
MAIN0
  6
BYBLOCK
 62
0
100
AcDbLine
 10
559.3180372886451
 20
282.3751337237702
 30
0.0000000000000000
 11
559.3180372886451
 21
314.1803155441288
 31
0.0000000000000000
  0
LINE
  5
370
100
AcDbEntity
  8
MAIN0
  6
BYBLOCK
 62
0
100
AcDbLine
 10
563.3180372886451
 20
310.1803155441288
 30
0.0000000000000000
 11
590.3180372886446
 21
310.1803155441288
 31
0.0000000000000000
  0
INSERT
  5
371
100
AcDbEntity
  8
MAIN0
  6
BYBLOCK
 62
0
100
AcDbBlockReference
  2
_OPEN
 10
559.3180372886451
 20
310.1803155441288
 30
0.0000000000000000
 41
4.000000000000000
 42
4.000000000000000
 43
4.000000000000000
 50
180.0000000000000
  0
INSERT
  5
372
100
AcDbEntity
  8
MAIN0
  6
BYBLOCK
 62
0
100
AcDbBlockReference
  2
_OPEN
 10
594.3180372886446
 20
310.1803155441288
 30
0.0000000000000000
 41
4.000000000000000
 42
4.000000000000000
 43
4.000000000000000
 50
0.0000000000000000
  0
LINE
  5
373
100
AcDbEntity
  8
MAIN0
  6
BYBLOCK
 62
0
100
AcDbLine
 10
594.3180372886446
 20
282.3751337237594
 30
0.0000000000000000
 11
594.3180372886446
 21
314.1803155441288
 31
0.0000000000000000
  0
MTEXT
  5
374
100
AcDbEntity
  8
MAIN0
  6
BYBLOCK
 62
0
100
AcDbMText
 10
576.8180372886449
 20
313.7803154487614
 30
0.0000000000000000
 40
6.199999809265137
 41
0.0000000000000000
 71
     5
 72
     1
  1
\A1;35
 11
1.000000000000000
 21
0.0000000000000000
 31
0.0000000000000000
  7
STANDARD
  0
ENDBLK
  5
375
100
AcDbEntity
  8
MAIN0
  6
CONTINUOUS
 62
3
100
AcDbBlockEnd
  0
BLOCK
  5
38E
100
AcDbEntity
  8
MAIN0
  6
CONTINUOUS
 62
3
100
AcDbBlockBegin
  2
*D46
 70
    65
 10
0.0
 20
0.0
 30
0.0
  0
LINE
  5
38F
100
AcDbEntity
  8
MAIN0
  6
BYBLOCK
 62
0
100
AcDbLine
 10
655.4067715620477
 20
196.1145328255743
 30
0.0000000000000000
 11
637.8496761432878
 21
196.1145328255743
 31
0.0000000000000000
  0
LINE
  5
390
100
AcDbEntity
  8
MAIN0
  6
BYBLOCK
 62
0
100
AcDbLine
 10
641.8496761432878
 20
192.1145328255743
 30
0.0000000000000000
 11
641.8496761432878
 21
178.1145328255743
 31
0.0000000000000000
  0
INSERT
  5
391
100
AcDbEntity
  8
MAIN0
  6
BYBLOCK
 62
0
100
AcDbBlockReference
  2
_OPEN
 10
641.8496761432878
 20
196.1145328255743
 30
0.0000000000000000
 41
4.000000000000000
 42
4.000000000000000
 43
4.000000000000000
 50
90.00000000000000
  0
INSERT
  5
392
100
AcDbEntity
  8
MAIN0
  6
BYBLOCK
 62
0
100
AcDbBlockReference
  2
_OPEN
 10
641.8496761432878
 20
174.1145328255743
 30
0.0000000000000000
 41
4.000000000000000
 42
4.000000000000000
 43
4.000000000000000
 50
270.0000000000000
  0
LINE
  5
393
100
AcDbEntity
  8
MAIN0
  6
BYBLOCK
 62
0
100
AcDbLine
 10
655.4067715620477
 20
174.1145328255743
 30
0.0000000000000000
 11
637.8496761432878
 21
174.1145328255743
 31
0.0000000000000000
  0
MTEXT
  5
394
100
AcDbEntity
  8
MAIN0
  6
BYBLOCK
 62
0
100
AcDbMText
 10
638.2496762386552
 20
185.1145328255743
 30
0.0000000000000000
 40
6.199999809265137
 41
0.0000000000000000
 71
     5
 72
     1
  1
\A1;22
 11
6.123233995736766e-017
 21
1.000000000000000
 31
0.0000000000000000
  7
STANDARD
  0
ENDBLK
  5
395
100
AcDbEntity
  8
MAIN0
  6
CONTINUOUS
 62
3
100
AcDbBlockEnd
  0
BLOCK
  5
397
100
AcDbEntity
  8
MAIN0
  6
CONTINUOUS
 62
3
100
AcDbBlockBegin
  2
*D47
 70
    65
 10
0.0
 20
0.0
 30
0.0
  0
LINE
  5
398
100
AcDbEntity
  8
MAIN0
  6
BYBLOCK
 62
0
100
AcDbLine
 10
657.0067715858895
 20
172.5145328017325
 30
0.0000000000000000
 11
657.0067715858895
 21
152.9336189985433
 31
0.0000000000000000
  0
LINE
  5
399
100
AcDbEntity
  8
MAIN0
  6
BYBLOCK
 62
0
100
AcDbLine
 10
661.0067715858895
 20
156.9336189985433
 30
0.0000000000000000
 11
681.5067715858895
 21
156.9336189985433
 31
0.0000000000000000
  0
INSERT
  5
39A
100
AcDbEntity
  8
MAIN0
  6
BYBLOCK
 62
0
100
AcDbBlockReference
  2
_OPEN
 10
657.0067715858895
 20
156.9336189985433
 30
0.0000000000000000
 41
4.000000000000000
 42
4.000000000000000
 43
4.000000000000000
 50
180.0000000000000
  0
INSERT
  5
39B
100
AcDbEntity
  8
MAIN0
  6
BYBLOCK
 62
0
100
AcDbBlockReference
  2
_OPEN
 10
685.5067715858895
 20
156.9336189985433
 30
0.0000000000000000
 41
4.000000000000000
 42
4.000000000000000
 43
4.000000000000000
 50
0.0000000000000000
  0
LINE
  5
39C
100
AcDbEntity
  8
MAIN0
  6
BYBLOCK
 62
0
100
AcDbLine
 10
685.5067715858895
 20
172.5145328017325
 30
0.0000000000000000
 11
685.5067715858895
 21
152.9336189985433
 31
0.0000000000000000
  0
MTEXT
  5
39D
100
AcDbEntity
  8
MAIN0
  6
BYBLOCK
 62
0
100
AcDbMText
 10
671.2567715858895
 20
160.5336189031758
 30
0.0000000000000000
 40
6.199999809265137
 41
0.0000000000000000
 71
     5
 72
     1
  1
\A1;28.5
 11
1.000000000000000
 21
0.0000000000000000
 31
0.0000000000000000
  7
STANDARD
  0
ENDBLK
  5
39E
100
AcDbEntity
  8
MAIN0
  6
CONTINUOUS
 62
3
100
AcDbBlockEnd
  0
BLOCK
  5
3A0
100
AcDbEntity
  8
MAIN0
  6
CONTINUOUS
 62
3
100
AcDbBlockBegin
  2
*D48
 70
    65
 10
0.0
 20
0.0
 30
0.0
  0
LINE
  5
3A1
100
AcDbEntity
  8
MAIN0
  6
BYBLOCK
 62
0
100
AcDbLine
 10
687.1067716097314
 20
192.0145328255743
 30
0.0000000000000000
 11
711.6374368510760
 21
192.0145328255743
 31
0.0000000000000000
  0
LINE
  5
3A2
100
AcDbEntity
  8
MAIN0
  6
BYBLOCK
 62
0
100
AcDbLine
 10
707.6374368510760
 20
192.0145328255743
 30
0.0000000000000000
 11
707.6374368510760
 21
178.2145328255743
 31
0.0000000000000000
  0
INSERT
  5
3A3
100
AcDbEntity
  8
MAIN0
  6
BYBLOCK
 62
0
100
AcDbBlockReference
  2
_OPEN
 10
707.6374368510760
 20
192.0145328255743
 30
0.0000000000000000
 41
4.000000000000000
 42
4.000000000000000
 43
4.000000000000000
 50
270.0000000000000
  0
INSERT
  5
3A4
100
AcDbEntity
  8
MAIN0
  6
BYBLOCK
 62
0
100
AcDbBlockReference
  2
_OPEN
 10
707.6374368510760
 20
178.2145328255743
 30
0.0000000000000000
 41
4.000000000000000
 42
4.000000000000000
 43
4.000000000000000
 50
90.00000000000000
  0
LINE
  5
3A5
100
AcDbEntity
  8
MAIN0
  6
BYBLOCK
 62
0
100
AcDbLine
 10
707.6374368510760
 20
196.0145328255743
 30
0.0000000000000000
 11
707.6374368510760
 21
198.0145328255743
 31
0.0000000000000000
  0
LINE
  5
3A6
100
AcDbEntity
  8
MAIN0
  6
BYBLOCK
 62
0
100
AcDbLine
 10
707.6374368510760
 20
174.2145328255743
 30
0.0000000000000000
 11
707.6374368510760
 21
158.7100837886690
 31
0.0000000000000000
  0
LINE
  5
3A7
100
AcDbEntity
  8
MAIN0
  6
BYBLOCK
 62
0
100
AcDbLine
 10
687.1067716097314
 20
178.2145328255743
 30
0.0000000000000000
 11
711.6374368510760
 21
178.2145328255743
 31
0.0000000000000000
  0
MTEXT
  5
3A8
100
AcDbEntity
  8
MAIN0
  6
BYBLOCK
 62
0
100
AcDbMText
 10
703.5374369464435
 20
166.0100839794039
 30
0.0000000000000000
 40
6.199999809265137
 41
0.0000000000000000
 71
     5
 72
     1
  1
\A1;13.8
 11
6.123233995736766e-017
 21
1.000000000000000
 31
0.0000000000000000
  7
STANDARD
  0
ENDBLK
  5
3A9
100
AcDbEntity
  8
MAIN0
  6
CONTINUOUS
 62
3
100
AcDbBlockEnd
  0
BLOCK
  5
3AB
100
AcDbEntity
  8
MAIN0
  6
CONTINUOUS
 62
3
100
AcDbBlockBegin
  2
*D49
 70
    65
 10
0.0
 20
0.0
 30
0.0
  0
LINE
  5
3AC
100
AcDbEntity
  8
MAIN0
  6
BYBLOCK
 62
0
100
AcDbLine
 10
103.0685746245546
 20
258.2751336999207
 30
0.0000000000000000
 11
74.64896967979732
 21
258.2751336999207
 31
0.0000000000000000
  0
LINE
  5
3AD
100
AcDbEntity
  8
MAIN0
  6
BYBLOCK
 62
0
100
AcDbLine
 10
78.64896967979732
 20
262.2751336999207
 30
0.0000000000000000
 11
78.64896967979732
 21
339.2751336999207
 31
0.0000000000000000
  0
INSERT
  5
3AE
100
AcDbEntity
  8
MAIN0
  6
BYBLOCK
 62
0
100
AcDbBlockReference
  2
_OPEN
 10
78.64896967979732
 20
258.2751336999207
 30
0.0000000000000000
 41
4.000000000000000
 42
4.000000000000000
 43
4.000000000000000
 50
270.0000000000000
  0
INSERT
  5
3AF
100
AcDbEntity
  8
MAIN0
  6
BYBLOCK
 62
0
100
AcDbBlockReference
  2
_OPEN
 10
78.64896967979732
 20
343.2751336999207
 30
0.0000000000000000
 41
4.000000000000000
 42
4.000000000000000
 43
4.000000000000000
 50
90.00000000000000
  0
LINE
  5
3B0
100
AcDbEntity
  8
MAIN0
  6
BYBLOCK
 62
0
100
AcDbLine
 10
103.0685746245547
 20
343.2751336999207
 30
0.0000000000000000
 11
74.64896967979732
 21
343.2751336999207
 31
0.0000000000000000
  0
MTEXT
  5
3B1
100
AcDbEntity
  8
MAIN0
  6
BYBLOCK
 62
0
100
AcDbMText
 10
75.04896977516475
 20
300.7751336999207
 30
0.0000000000000000
 40
6.199999809265137
 41
0.0000000000000000
 71
     5
 72
     1
  1
\A1;85
 11
6.123233995736766e-017
 21
1.000000000000000
 31
0.0000000000000000
  7
STANDARD
  0
ENDBLK
  5
3B2
100
AcDbEntity
  8
MAIN0
  6
CONTINUOUS
 62
3
100
AcDbBlockEnd
  0
BLOCK
  5
3B4
100
AcDbEntity
  8
MAIN0
  6
CONTINUOUS
 62
3
100
AcDbBlockBegin
  2
*D50
 70
    65
 10
0.0
 20
0.0
 30
0.0
  0
LINE
  5
3B5
100
AcDbEntity
  8
MAIN0
  6
BYBLOCK
 62
0
100
AcDbLine
 10
103.0685746245547
 20
343.2751336999207
 30
0.0000000000000000
 11
74.64896967979732
 21
343.2751336999207
 31
0.0000000000000000
  0
LINE
  5
3B6
100
AcDbEntity
  8
MAIN0
  6
BYBLOCK
 62
0
100
AcDbLine
 10
78.64896967979732
 20
347.2751336999207
 30
0.0000000000000000
 11
78.64896967979732
 21
374.2751336999207
 31
0.0000000000000000
  0
INSERT
  5
3B7
100
AcDbEntity
  8
MAIN0
  6
BYBLOCK
 62
0
100
AcDbBlockReference
  2
_OPEN
 10
78.64896967979732
 20
343.2751336999207
 30
0.0000000000000000
 41
4.000000000000000
 42
4.000000000000000
 43
4.000000000000000
 50
270.0000000000000
  0
INSERT
  5
3B8
100
AcDbEntity
  8
MAIN0
  6
BYBLOCK
 62
0
100
AcDbBlockReference
  2
_OPEN
 10
78.64896967979732
 20
378.2751336999207
 30
0.0000000000000000
 41
4.000000000000000
 42
4.000000000000000
 43
4.000000000000000
 50
90.00000000000000
  0
LINE
  5
3B9
100
AcDbEntity
  8
MAIN0
  6
BYBLOCK
 62
0
100
AcDbLine
 10
104.0685746245546
 20
378.2751336999207
 30
0.0000000000000000
 11
74.64896967979732
 21
378.2751336999207
 31
0.0000000000000000
  0
MTEXT
  5
3BA
100
AcDbEntity
  8
MAIN0
  6
BYBLOCK
 62
0
100
AcDbMText
 10
75.04896977516475
 20
360.7751336999207
 30
0.0000000000000000
 40
6.199999809265137
 41
0.0000000000000000
 71
     5
 72
     1
  1
\A1;35
 11
6.123233995736766e-017
 21
1.000000000000000
 31
0.0000000000000000
  7
STANDARD
  0
ENDBLK
  5
3BB
100
AcDbEntity
  8
MAIN0
  6
CONTINUOUS
 62
3
100
AcDbBlockEnd
  0
BLOCK
  5
3BD
100
AcDbEntity
  8
MAIN0
  6
CONTINUOUS
 62
3
100
AcDbBlockBegin
  2
*D51
 70
    65
 10
0.0
 20
0.0
 30
0.0
  0
LINE
  5
3BE
100
AcDbEntity
  8
MAIN0
  6
BYBLOCK
 62
0
100
AcDbLine
 10
103.0685746245546
 20
258.2751336999207
 30
0.0000000000000000
 11
51.91688285815400
 21
258.2751336999207
 31
0.0000000000000000
  0
LINE
  5
3BF
100
AcDbEntity
  8
MAIN0
  6
BYBLOCK
 62
0
100
AcDbLine
 10
55.91688285815400
 20
262.2751336999207
 30
0.0000000000000000
 11
55.91688285815400
 21
374.2751336999207
 31
0.0000000000000000
  0
INSERT
  5
3C0
100
AcDbEntity
  8
MAIN0
  6
BYBLOCK
 62
0
100
AcDbBlockReference
  2
_OPEN
 10
55.91688285815400
 20
258.2751336999207
 30
0.0000000000000000
 41
4.000000000000000
 42
4.000000000000000
 43
4.000000000000000
 50
270.0000000000000
  0
INSERT
  5
3C1
100
AcDbEntity
  8
MAIN0
  6
BYBLOCK
 62
0
100
AcDbBlockReference
  2
_OPEN
 10
55.91688285815400
 20
378.2751336999207
 30
0.0000000000000000
 41
4.000000000000000
 42
4.000000000000000
 43
4.000000000000000
 50
90.00000000000000
  0
LINE
  5
3C2
100
AcDbEntity
  8
MAIN0
  6
BYBLOCK
 62
0
100
AcDbLine
 10
104.0685746245546
 20
378.2751336999207
 30
0.0000000000000000
 11
51.91688285815400
 21
378.2751336999207
 31
0.0000000000000000
  0
MTEXT
  5
3C3
100
AcDbEntity
  8
MAIN0
  6
BYBLOCK
 62
0
100
AcDbMText
 10
52.31688295352143
 20
318.2751336999207
 30
0.0000000000000000
 40
6.199999809265137
 41
0.0000000000000000
 71
     5
 72
     1
  1
\A1;120
 11
6.123233995736766e-017
 21
1.000000000000000
 31
0.0000000000000000
  7
STANDARD
  0
ENDBLK
  5
3C4
100
AcDbEntity
  8
MAIN0
  6
CONTINUOUS
 62
3
100
AcDbBlockEnd
  0
BLOCK
  5
3CA
100
AcDbEntity
  8
MAIN0
  6
CONTINUOUS
 62
3
100
AcDbBlockBegin
  2
*D52
 70
    65
 10
0.0
 20
0.0
 30
0.0
  0
LINE
  5
3CB
100
AcDbEntity
  8
MAIN0
  6
BYBLOCK
 62
0
100
AcDbLine
 10
631.2567715858897
 20
279.1751336760789
 30
0.0000000000000000
 11
631.2567715858897
 21
216.0369995200459
 31
0.0000000000000000
  0
LINE
  5
3CC
100
AcDbEntity
  8
MAIN0
  6
BYBLOCK
 62
0
100
AcDbLine
 10
635.2567715858897
 20
220.0369995200459
 30
0.0000000000000000
 11
686.7567715858895
 21
220.0369995200459
 31
0.0000000000000000
  0
INSERT
  5
3CD
100
AcDbEntity
  8
MAIN0
  6
BYBLOCK
 62
0
100
AcDbBlockReference
  2
_OPEN
 10
631.2567715858897
 20
220.0369995200459
 30
0.0000000000000000
 41
4.000000000000000
 42
4.000000000000000
 43
4.000000000000000
 50
180.0000000000000
  0
INSERT
  5
3CE
100
AcDbEntity
  8
MAIN0
  6
BYBLOCK
 62
0
100
AcDbBlockReference
  2
_OPEN
 10
690.7567715858895
 20
220.0369995200459
 30
0.0000000000000000
 41
4.000000000000000
 42
4.000000000000000
 43
4.000000000000000
 50
0.0000000000000000
  0
LINE
  5
3CF
100
AcDbEntity
  8
MAIN0
  6
BYBLOCK
 62
0
100
AcDbLine
 10
690.7567715858895
 20
256.6751336760789
 30
0.0000000000000000
 11
690.7567715858895
 21
216.0369995200459
 31
0.0000000000000000
  0
MTEXT
  5
3D0
100
AcDbEntity
  8
MAIN0
  6
BYBLOCK
 62
0
100
AcDbMText
 10
661.0067715858897
 20
223.6369994246784
 30
0.0000000000000000
 40
6.199999809265137
 41
0.0000000000000000
 71
     5
 72
     1
  1
\A1;59.5
 11
1.000000000000000
 21
0.0000000000000000
 31
0.0000000000000000
  7
STANDARD
  0
ENDBLK
  5
3D1
100
AcDbEntity
  8
MAIN0
  6
CONTINUOUS
 62
3
100
AcDbBlockEnd
  0
BLOCK
  5
3D3
100
AcDbEntity
  8
MAIN0
  6
CONTINUOUS
 62
3
100
AcDbBlockBegin
  2
*D53
 70
    65
 10
0.0
 20
0.0
 30
0.0
  0
LINE
  5
3D4
100
AcDbEntity
  8
MAIN0
  6
BYBLOCK
 62
0
100
AcDbLine
 10
690.7567715858895
 20
256.6751336760789
 30
0.0000000000000000
 11
690.7567715858895
 21
216.0369995200459
 31
0.0000000000000000
  0
LINE
  5
3D5
100
AcDbEntity
  8
MAIN0
  6
BYBLOCK
 62
0
100
AcDbLine
 10
694.7567715858895
 20
220.0369995200459
 30
0.0000000000000000
 11
787.7567715858895
 21
220.0369995200459
 31
0.0000000000000000
  0
INSERT
  5
3D6
100
AcDbEntity
  8
MAIN0
  6
BYBLOCK
 62
0
100
AcDbBlockReference
  2
_OPEN
 10
690.7567715858895
 20
220.0369995200459
 30
0.0000000000000000
 41
4.000000000000000
 42
4.000000000000000
 43
4.000000000000000
 50
180.0000000000000
  0
INSERT
  5
3D7
100
AcDbEntity
  8
MAIN0
  6
BYBLOCK
 62
0
100
AcDbBlockReference
  2
_OPEN
 10
791.7567715858895
 20
220.0369995200459
 30
0.0000000000000000
 41
4.000000000000000
 42
4.000000000000000
 43
4.000000000000000
 50
0.0000000000000000
  0
LINE
  5
3D8
100
AcDbEntity
  8
MAIN0
  6
BYBLOCK
 62
0
100
AcDbLine
 10
791.7567715858895
 20
256.6751336760789
 30
0.0000000000000000
 11
791.7567715858895
 21
216.0369995200459
 31
0.0000000000000000
  0
MTEXT
  5
3D9
100
AcDbEntity
  8
MAIN0
  6
BYBLOCK
 62
0
100
AcDbMText
 10
741.2567715858895
 20
223.6369994246784
 30
0.0000000000000000
 40
6.199999809265137
 41
0.0000000000000000
 71
     5
 72
     1
  1
\A1;101
 11
1.000000000000000
 21
0.0000000000000000
 31
0.0000000000000000
  7
STANDARD
  0
ENDBLK
  5
3DA
100
AcDbEntity
  8
MAIN0
  6
CONTINUOUS
 62
3
100
AcDbBlockEnd
  0
BLOCK
  5
3DC
100
AcDbEntity
  8
MAIN0
  6
CONTINUOUS
 62
3
100
AcDbBlockBegin
  2
D54
 70
    64
 10
0.0
 20
0.0
 30
0.0
  0
LINE
  5
3DD
100
AcDbEntity
  8
MAIN0
  6
BYBLOCK
 62
0
100
AcDbLine
 10
5.749999972415935
 20
-38.74062885280257
 30
0.0000000000000000
 11
-110.0000000000001
 21
-38.74062885280237
 31
0.0000000000000000
  0
LINE
  5
3DE
100
AcDbEntity
  8
MAIN0
  6
BYBLOCK
 62
0
100
AcDbLine
 10
-106.0000000000001
 20
-39.94062890048610
 30
0.0000000000000000
 11
-110.0000000000001
 21
-38.74062885280237
 31
0.0000000000000000
  0
LINE
  5
3DF
100
AcDbEntity
  8
MAIN0
  6
BYBLOCK
 62
0
100
AcDbLine
 10
-110.0000000000001
 20
-38.74062885280237
 30
0.0000000000000000
 11
-106.0000000000001
 21
-37.54062880511867
 31
0.0000000000000000
  0
LINE
  5
3E0
100
AcDbEntity
  8
MAIN0
  6
BYBLOCK
 62
0
100
AcDbLine
 10
-110.0000000000000
 20
37.22228666530616
 30
0.0000000000000000
 11
-110.0000000000001
 21
-42.74062885280237
 31
0.0000000000000000
  0
MTEXT
  5
3E1
100
AcDbEntity
  8
MAIN0
  6
BYBLOCK
 62
0
100
AcDbMText
 10
-1.136868377216160e-013
 20
-34.64062894816999
 30
0.0000000000000000
 40
6.199999809265137
 41
0.0000000000000000
 71
     5
 72
     1
  1
\A1;（220）
 11
1.000000000000000
 21
0.0000000000000000
 31
0.0000000000000000
  7
KNJYOKO
  0
ENDBLK
  5
3E2
100
AcDbEntity
  8
MAIN0
  6
CONTINUOUS
 62
3
100
AcDbBlockEnd
  0
ENDSEC
  0
SECTION
  2
ENTITIES
  0
LINE
  5
46
100
AcDbEntity
  8
MAIN0
  6
CONTINUOUS
 62
3
100
AcDbLine
 10
104.6685746483965
 20
485.7751498089743
 30
0.0000000000000000
 11
306.6685746483964
 21
485.7751498089743
 31
0.0000000000000000
  0
LINE
  5
47
100
AcDbEntity
  8
MAIN0
  6
CONTINUOUS
 62
3
100
AcDbLine
 10
104.6685746483965
 20
586.7751498089743
 30
0.0000000000000000
 11
306.6685746483965
 21
586.7751498089743
 31
0.0000000000000000
  0
LINE
  5
48
100
AcDbEntity
  8
MAIN0
  6
CONTINUOUS
 62
3
100
AcDbLine
 10
224.1685746483966
 20
262.2751336999207
 30
0.0000000000000000
 11
210.1685746483965
 21
262.2751336999207
 31
0.0000000000000000
  0
LINE
  5
49
100
AcDbEntity
  8
MAIN0
  6
CONTINUOUS
 62
3
100
AcDbLine
 10
224.1685746483965
 20
258.2751336999207
 30
0.0000000000000000
 11
377.6685746483967
 21
258.2751336999207
 31
0.0000000000000000
  0
LINE
  5
4A
100
AcDbEntity
  8
MAIN0
  6
CONTINUOUS
 62
3
100
AcDbLine
 10
210.1685746483965
 20
253.2751336999207
 30
0.0000000000000000
 11
224.1685746483965
 21
253.2751336999207
 31
0.0000000000000000
  0
LINE
  5
4B
100
AcDbEntity
  8
MAIN0
  6
CONTINUOUS
 62
3
100
AcDbLine
 10
690.7567715858895
 20
343.2751336999207
 30
0.0000000000000000
 11
792.0567715858899
 21
343.2751336999207
 31
0.0000000000000000
  0
LINE
  5
4C
100
AcDbEntity
  8
MAIN0
  6
CONTINUOUS
 62
3
100
AcDbLine
 10
691.5067715858897
 20
378.2751336999207
 30
0.0000000000000000
 11
791.0067715858895
 21
378.2751336999207
 31
0.0000000000000000
  0
LINE
  5
4D
100
AcDbEntity
  8
MAIN0
  6
CONTINUOUS
 62
3
100
AcDbLine
 10
786.2567715858895
 20
303.2751336999207
 30
0.0000000000000000
 11
786.2567715858895
 21
273.2751336999207
 31
0.0000000000000000
  0
LINE
  5
4E
100
AcDbEntity
  8
MAIN0
  6
CONTINUOUS
 62
3
100
AcDbLine
 10
696.2567715858897
 20
303.2751336999207
 30
0.0000000000000000
 11
696.2567715858897
 21
273.2751336999208
 31
0.0000000000000000
  0
LINE
  5
4F
100
AcDbEntity
  8
MAIN0
  6
CONTINUOUS
 62
3
100
AcDbLine
 10
306.6685746483963
 20
303.2751336999207
 30
0.0000000000000000
 11
104.6685746483965
 21
303.2751336999207
 31
0.0000000000000000
  0
LINE
  5
50
100
AcDbEntity
  8
MAIN0
  6
CONTINUOUS
 62
3
100
AcDbLine
 10
791.7567715858895
 20
273.2751336999207
 30
0.0000000000000000
 11
791.7567715858895
 21
258.2751336999208
 31
0.0000000000000000
  0
LINE
  5
51
100
AcDbEntity
  8
MAIN0
  6
CONTINUOUS
 62
3
100
AcDbLine
 10
791.7567715858895
 20
326.4742408665091
 30
0.0000000000000000
 11
791.7567715858895
 21
303.2751336999207
 31
0.0000000000000000
  0
LINE
  5
52
100
AcDbEntity
  8
MAIN0
  6
CONTINUOUS
 62
3
100
AcDbLine
 10
690.7567715858895
 20
273.2751336999207
 30
0.0000000000000000
 11
690.7567715858895
 21
258.2751336999208
 31
0.0000000000000000
  0
LINE
  5
53
100
AcDbEntity
  8
MAIN0
  6
CONTINUOUS
 62
3
100
AcDbLine
 10
690.7567715858895
 20
326.4742408665115
 30
0.0000000000000000
 11
690.7567715858895
 21
303.2751336999207
 31
0.0000000000000000
  0
LINE
  5
54
100
AcDbEntity
  8
MAIN0
  6
CONTINUOUS
 62
3
100
AcDbLine
 10
690.7567715858895
 20
303.2751336999207
 30
0.0000000000000000
 11
696.2567715858897
 21
303.2751336999207
 31
0.0000000000000000
  0
LINE
  5
55
100
AcDbEntity
  8
MAIN0
  6
CONTINUOUS
 62
3
100
AcDbLine
 10
786.2567715858895
 20
303.2751336999207
 30
0.0000000000000000
 11
791.7567715858895
 21
303.2751336999207
 31
0.0000000000000000
  0
LINE
  5
56
100
AcDbEntity
  8
MAIN0
  6
CONTINUOUS
 62
3
100
AcDbLine
 10
696.2567715858897
 20
273.2751336999207
 30
0.0000000000000000
 11
690.2567715858897
 21
273.2751336999207
 31
0.0000000000000000
  0
LINE
  5
57
100
AcDbEntity
  8
MAIN0
  6
CONTINUOUS
 62
3
100
AcDbLine
 10
791.7567715858895
 20
273.2751336999207
 30
0.0000000000000000
 11
786.2567715858895
 21
273.2751336999207
 31
0.0000000000000000
  0
LINE
  5
58
100
AcDbEntity
  8
MAIN0
  6
CONTINUOUS
 62
3
100
AcDbLine
 10
377.6685746483965
 20
273.2751336999207
 30
0.0000000000000000
 11
104.6685746483964
 21
273.2751336999207
 31
0.0000000000000000
  0
LINE
  5
59
100
AcDbEntity
  8
MAIN0
  6
CONTINUOUS
 62
3
100
AcDbLine
 10
104.6685746483965
 20
258.2751336999207
 30
0.0000000000000000
 11
210.1685746483964
 21
258.2751336999207
 31
0.0000000000000000
  0
LINE
  5
5A
100
AcDbEntity
  8
MAIN0
  6
CONTINUOUS
 62
3
100
AcDbLine
 10
104.6685746483965
 20
343.2751336999207
 30
0.0000000000000000
 11
104.6685746483965
 21
258.2751336999207
 31
0.0000000000000000
  0
LINE
  5
5B
100
AcDbEntity
  8
MAIN0
  6
CONTINUOUS
 62
3
100
AcDbLine
 10
104.6685746483965
 20
586.7751498089743
 30
0.0000000000000000
 11
104.6685746483965
 21
485.7751498089744
 31
0.0000000000000000
  0
LINE
  5
5C
100
AcDbEntity
  8
MAIN0
  6
CONTINUOUS
 62
3
100
AcDbLine
 10
771.2567715858895
 20
253.2751336999207
 30
0.0000000000000000
 11
771.2567715858895
 21
258.2751336999207
 31
0.0000000000000000
  0
LINE
  5
5D
100
AcDbEntity
  8
MAIN0
  6
CONTINUOUS
 62
3
100
AcDbLine
 10
711.2567715858900
 20
253.2751336999207
 30
0.0000000000000000
 11
711.2567715858900
 21
258.2751336999207
 31
0.0000000000000000
  0
LINE
  5
5E
100
AcDbEntity
  8
MAIN0
  6
CONTINUOUS
 62
3
100
AcDbLine
 10
691.2567715858900
 20
253.2751336999207
 30
0.0000000000000000
 11
711.2567715858900
 21
253.2751336999207
 31
0.0000000000000000
  0
LINE
  5
5F
100
AcDbEntity
  8
MAIN0
  6
CONTINUOUS
 62
3
100
AcDbLine
 10
771.2567715858895
 20
253.2751336999207
 30
0.0000000000000000
 11
791.2567715858897
 21
253.2751336999207
 31
0.0000000000000000
  0
LINE
  5
60
100
AcDbEntity
  8
MAIN0
  6
CONTINUOUS
 62
3
100
AcDbLine
 10
791.2567715858895
 20
253.2751336999207
 30
0.0000000000000000
 11
791.2567715858895
 21
258.2751336999207
 31
0.0000000000000000
  0
LINE
  5
61
100
AcDbEntity
  8
MAIN0
  6
CONTINUOUS
 62
3
100
AcDbLine
 10
691.2567715858900
 20
258.2751336999207
 30
0.0000000000000000
 11
691.2567715858900
 21
253.2751336999207
 31
0.0000000000000000
  0
LINE
  5
62
100
AcDbEntity
  8
MAIN0
  6
CONTINUOUS
 62
3
100
AcDbLine
 10
691.5067715858897
 20
378.2751336999207
 30
0.0000000000000000
 11
691.5067715858897
 21
354.4751336999207
 31
0.0000000000000000
  0
LINE
  5
63
100
AcDbEntity
  8
MAIN0
  6
CONTINUOUS
 62
3
100
AcDbLine
 10
791.0067715858895
 20
378.2751336999207
 30
0.0000000000000000
 11
791.0067715858895
 21
354.4751336999207
 31
0.0000000000000000
  0
LINE
  5
64
100
AcDbEntity
  8
MAIN0
  6
CONTINUOUS
 62
3
100
AcDbLine
 10
224.1685746483965
 20
253.2751336999207
 30
0.0000000000000000
 11
224.1685746483965
 21
262.2751336999208
 31
0.0000000000000000
  0
LINE
  5
65
100
AcDbEntity
  8
MAIN0
  6
CONTINUOUS
 62
3
100
AcDbLine
 10
210.1685746483965
 20
253.2751336999208
 30
0.0000000000000000
 11
210.1685746483965
 21
262.2751336999208
 31
0.0000000000000000
  0
LINE
  5
66
100
AcDbEntity
  8
MAIN0
  6
CONTINUOUS
 62
3
100
AcDbLine
 10
242.6685746483963
 20
378.2751336999207
 30
0.0000000000000000
 11
242.6685746483963
 21
343.2751336999207
 31
0.0000000000000000
  0
LINE
  5
67
100
AcDbEntity
  8
MAIN0
  6
CONTINUOUS
 62
3
100
AcDbLine
 10
306.6685746483965
 20
589.7751498089743
 30
0.0000000000000000
 11
306.6685746483964
 21
482.7751498089743
 31
0.0000000000000000
  0
LINE
  5
68
100
AcDbEntity
  8
MAIN0
  6
CONTINUOUS
 62
3
100
AcDbLine
 10
178.6685746483964
 20
378.2751336999207
 30
0.0000000000000000
 11
178.6685746483964
 21
343.2751336999207
 31
0.0000000000000000
  0
LINE
  5
69
100
AcDbEntity
  8
MAIN0
  6
CONTINUOUS
 62
3
100
AcDbLine
 10
242.6685746483965
 20
586.0251498089743
 30
0.0000000000000000
 11
242.6685746483965
 21
486.5251498089743
 31
0.0000000000000000
  0
LINE
  5
6A
100
AcDbEntity
  8
MAIN0
  6
CONTINUOUS
 62
3
100
AcDbLine
 10
105.6685746483965
 20
378.2751336999207
 30
0.0000000000000000
 11
105.6685746483965
 21
343.2751336999205
 31
0.0000000000000000
  0
LINE
  5
6B
100
AcDbEntity
  8
MAIN0
  6
CONTINUOUS
 62
3
100
AcDbLine
 10
105.6685746483965
 20
586.0251498089743
 30
0.0000000000000000
 11
105.6685746483965
 21
486.5251498089743
 31
0.0000000000000000
  0
LINE
  5
6C
100
AcDbEntity
  8
MAIN0
  6
CONTINUOUS
 62
3
100
AcDbLine
 10
377.6685746483966
 20
300.9751336999207
 30
0.0000000000000000
 11
377.6685746483967
 21
258.2751336999208
 31
0.0000000000000000
  0
LINE
  5
6D
100
AcDbEntity
  8
MAIN0
  6
CONTINUOUS
 62
3
100
AcDbLine
 10
748.2567715858895
 20
258.2751336999207
 30
0.0000000000000000
 11
791.7567715858895
 21
258.2751336999207
 31
0.0000000000000000
  0
LINE
  5
6E
100
AcDbEntity
  8
MAIN0
  6
CONTINUOUS
 62
3
100
AcDbLine
 10
748.2567715858895
 20
261.2626352620302
 30
0.0000000000000000
 11
748.2567715858895
 21
258.2751336999208
 31
0.0000000000000000
  0
LINE
  5
6F
100
AcDbEntity
  8
MAIN0
  6
CONTINUOUS
 62
3
100
AcDbLine
 10
734.2567715858895
 20
258.2751336999207
 30
0.0000000000000000
 11
734.2567715858895
 21
261.2626352620302
 31
0.0000000000000000
  0
CIRCLE
  5
70
100
AcDbEntity
  8
MAIN0
  6
CONTINUOUS
 62
3
100
AcDbCircle
 10
741.2567715858895
 20
311.2751336999207
 30
0.0000000000000000
 40
21.00000000000000
  0
LINE
  5
71
100
AcDbEntity
  8
MAIN0
  6
CONTINUOUS
 62
3
100
AcDbLine
 10
748.2567715858895
 20
307.2336818155936
 30
0.0000000000000000
 11
748.2567715858895
 21
315.3165855842490
 31
0.0000000000000000
  0
LINE
  5
72
100
AcDbEntity
  8
MAIN0
  6
CONTINUOUS
 62
3
100
AcDbLine
 10
734.2567715858895
 20
307.2336818155930
 30
0.0000000000000000
 11
734.2567715858895
 21
315.3165855842476
 31
0.0000000000000000
  0
LINE
  5
73
100
AcDbEntity
  8
MAIN0
  6
CONTINUOUS
 62
3
100
AcDbLine
 10
734.2567715858897
 20
315.3165855842477
 30
0.0000000000000000
 11
741.2567715858897
 21
319.3580374685758
 31
0.0000000000000000
  0
LINE
  5
74
100
AcDbEntity
  8
MAIN0
  6
CONTINUOUS
 62
3
100
AcDbLine
 10
741.2567715858893
 20
303.1922299312656
 30
0.0000000000000000
 11
748.2567715858895
 21
307.2336818155936
 31
0.0000000000000000
  0
LINE
  5
75
100
AcDbEntity
  8
MAIN0
  6
CONTINUOUS
 62
3
100
AcDbLine
 10
741.2567715858895
 20
319.3580374685757
 30
0.0000000000000000
 11
748.2567715858893
 21
315.3165855842489
 31
0.0000000000000000
  0
LINE
  5
76
100
AcDbEntity
  8
MAIN0
  6
CONTINUOUS
 62
3
100
AcDbLine
 10
734.2567715858895
 20
307.2336818155929
 30
0.0000000000000000
 11
741.2567715858895
 21
303.1922299312657
 31
0.0000000000000000
  0
ARC
  5
77
100
AcDbEntity
  8
MAIN0
  6
CONTINUOUS
 62
3
100
AcDbCircle
 10
774.1657369296970
 20
330.2751336999231
 30
0.0000000000000000
 40
6.500000000000000
100
AcDbArc
 50
304.0337531141134
 51
475.9662468858950
  0
LINE
  5
78
100
AcDbEntity
  8
MAIN0
  6
CONTINUOUS
 62
3
100
AcDbLine
 10
774.1657369296972
 20
333.7392353150610
 30
0.0000000000000000
 11
777.1657369296970
 21
332.0071845074922
 31
0.0000000000000000
  0
LINE
  5
79
100
AcDbEntity
  8
MAIN0
  6
CONTINUOUS
 62
3
100
AcDbLine
 10
777.1657369296970
 20
328.5430828923543
 30
0.0000000000000000
 11
777.1657369296970
 21
332.0071845074924
 31
0.0000000000000000
  0
LINE
  5
7A
100
AcDbEntity
  8
MAIN0
  6
CONTINUOUS
 62
3
100
AcDbLine
 10
773.4316880668537
 20
333.3154320065000
 30
0.0000000000000000
 11
774.1657369296970
 21
333.7392353150610
 31
0.0000000000000000
  0
LINE
  5
7B
100
AcDbEntity
  8
MAIN0
  6
CONTINUOUS
 62
3
100
AcDbLine
 10
776.4316880668539
 20
328.1192795837936
 30
0.0000000000000000
 11
777.1657369296970
 21
328.5430828923545
 31
0.0000000000000000
  0
CIRCLE
  5
7C
100
AcDbEntity
  8
MAIN0
  6
CONTINUOUS
 62
3
100
AcDbCircle
 10
774.2567715858895
 20
311.2751336999207
 30
0.0000000000000000
 40
4.250000000000000
  0
CIRCLE
  5
7D
100
AcDbEntity
  8
MAIN0
  6
CONTINUOUS
 62
3
100
AcDbCircle
 10
708.2567715858895
 20
311.2751336999207
 30
0.0000000000000000
 40
4.250000000000000
  0
LINE
  5
7E
100
AcDbEntity
  8
MAIN0
  6
CONTINUOUS
 62
3
100
AcDbLine
 10
771.9473705091327
 20
311.2751336999207
 30
0.0000000000000000
 11
773.1020710475084
 21
313.2751336999207
 31
0.0000000000000000
  0
LINE
  5
7F
100
AcDbEntity
  8
MAIN0
  6
CONTINUOUS
 62
3
100
AcDbLine
 10
775.4114721242704
 20
309.2751336999208
 30
0.0000000000000000
 11
776.5661726626461
 21
311.2751336999211
 31
0.0000000000000000
  0
LINE
  5
80
100
AcDbEntity
  8
MAIN0
  6
CONTINUOUS
 62
3
100
AcDbLine
 10
775.4114721242650
 20
313.2751336999207
 30
0.0000000000000000
 11
776.5661726626461
 21
311.2751336999207
 31
0.0000000000000000
  0
LINE
  5
81
100
AcDbEntity
  8
MAIN0
  6
CONTINUOUS
 62
3
100
AcDbLine
 10
773.1020710475134
 20
309.2751336999206
 30
0.0000000000000000
 11
771.9473705091325
 21
311.2751336999206
 31
0.0000000000000000
  0
LINE
  5
82
100
AcDbEntity
  8
MAIN0
  6
CONTINUOUS
 62
3
100
AcDbLine
 10
705.9473705091330
 20
311.2751336999207
 30
0.0000000000000000
 11
707.1020710475086
 21
313.2751336999207
 31
0.0000000000000000
  0
LINE
  5
83
100
AcDbEntity
  8
MAIN0
  6
CONTINUOUS
 62
3
100
AcDbLine
 10
709.4114721242704
 20
309.2751336999205
 30
0.0000000000000000
 11
710.5661726626461
 21
311.2751336999205
 31
0.0000000000000000
  0
LINE
  5
84
100
AcDbEntity
  8
MAIN0
  6
CONTINUOUS
 62
3
100
AcDbLine
 10
709.4114721242650
 20
313.2751336999206
 30
0.0000000000000000
 11
710.5661726626461
 21
311.2751336999206
 31
0.0000000000000000
  0
LINE
  5
85
100
AcDbEntity
  8
MAIN0
  6
CONTINUOUS
 62
3
100
AcDbLine
 10
705.9473705091330
 20
311.2751336999207
 30
0.0000000000000000
 11
707.1020710475139
 21
309.2751336999207
 31
0.0000000000000000
  0
LINE
  5
86
100
AcDbEntity
  8
MAIN0
  6
CONTINUOUS
 62
3
100
AcDbLine
 10
707.1020710475084
 20
313.2751336999207
 30
0.0000000000000000
 11
709.4114721242652
 21
313.2751336999207
 31
0.0000000000000000
  0
LINE
  5
87
100
AcDbEntity
  8
MAIN0
  6
CONTINUOUS
 62
3
100
AcDbLine
 10
773.1020710475082
 20
313.2751336999207
 30
0.0000000000000000
 11
775.4114721242647
 21
313.2751336999207
 31
0.0000000000000000
  0
LINE
  5
88
100
AcDbEntity
  8
MAIN0
  6
CONTINUOUS
 62
3
100
AcDbLine
 10
707.1020710475136
 20
309.2751336999207
 30
0.0000000000000000
 11
709.4114721242704
 21
309.2751336999207
 31
0.0000000000000000
  0
LINE
  5
89
100
AcDbEntity
  8
MAIN0
  6
CONTINUOUS
 62
3
100
AcDbLine
 10
773.1020710475134
 20
309.2751336999207
 30
0.0000000000000000
 11
775.4114721242702
 21
309.2751336999207
 31
0.0000000000000000
  0
LINE
  5
8A
100
AcDbEntity
  8
MAIN0
  6
CONTINUOUS
 62
3
100
AcDbLine
 10
744.2567715858895
 20
324.9499280310981
 30
0.0000000000000000
 11
744.2567715858895
 21
332.0597433907473
 31
0.0000000000000000
  0
LINE
  5
8B
100
AcDbEntity
  8
MAIN0
  6
CONTINUOUS
 62
3
100
AcDbLine
 10
738.2567715858895
 20
324.9499280310980
 30
0.0000000000000000
 11
738.2567715858895
 21
332.0597433907473
 31
0.0000000000000000
  0
LINE
  5
8C
100
AcDbEntity
  8
MAIN0
  6
CONTINUOUS
 62
3
100
AcDbLine
 10
742.9567715858896
 20
286.5835865632993
 30
0.0000000000000000
 11
742.9567715858896
 21
290.3440563267896
 31
0.0000000000000000
  0
LINE
  5
8D
100
AcDbEntity
  8
MAIN0
  6
CONTINUOUS
 62
3
100
AcDbLine
 10
739.5567715858895
 20
286.5835865632993
 30
0.0000000000000000
 11
739.5567715858895
 21
290.3440563267896
 31
0.0000000000000000
  0
CIRCLE
  5
8E
100
AcDbEntity
  8
MAIN0
  6
HIDDEN
 62
3
100
AcDbCircle
 10
124.6685746483965
 20
574.2751498089743
 30
0.0000000000000000
 40
8.000000000000000
  0
LINE
  5
8F
100
AcDbEntity
  8
MAIN0
  6
HIDDEN
 62
3
100
AcDbLine
 10
128.6685746483965
 20
576.5845508857377
 30
0.0000000000000000
 11
128.6685746483965
 21
571.9657487322182
 31
0.0000000000000000
  0
LINE
  5
90
100
AcDbEntity
  8
MAIN0
  6
HIDDEN
 62
3
100
AcDbLine
 10
120.6685746483965
 20
576.5845508857299
 30
0.0000000000000000
 11
120.6685746483965
 21
571.9657487322105
 31
0.0000000000000000
  0
LINE
  5
91
100
AcDbEntity
  8
MAIN0
  6
HIDDEN
 62
3
100
AcDbLine
 10
128.6685746483966
 20
571.9657487322183
 30
0.0000000000000000
 11
124.6685746483966
 21
569.6563476554547
 31
0.0000000000000000
  0
LINE
  5
92
100
AcDbEntity
  8
MAIN0
  6
HIDDEN
 62
3
100
AcDbLine
 10
124.6685746483967
 20
578.8939519624937
 30
0.0000000000000000
 11
120.6685746483965
 21
576.5845508857301
 31
0.0000000000000000
  0
LINE
  5
93
100
AcDbEntity
  8
MAIN0
  6
HIDDEN
 62
3
100
AcDbLine
 10
124.6685746483965
 20
578.8939519624937
 30
0.0000000000000000
 11
128.6685746483965
 21
576.5845508857378
 31
0.0000000000000000
  0
LINE
  5
94
100
AcDbEntity
  8
MAIN0
  6
HIDDEN
 62
3
100
AcDbLine
 10
124.6685746483965
 20
569.6563476554547
 30
0.0000000000000000
 11
120.6685746483965
 21
571.9657487322106
 31
0.0000000000000000
  0
CIRCLE
  5
95
100
AcDbEntity
  8
MAIN0
  6
HIDDEN
 62
3
100
AcDbCircle
 10
124.6685746483965
 20
498.2751498089743
 30
0.0000000000000000
 40
8.000000000000000
  0
LINE
  5
96
100
AcDbEntity
  8
MAIN0
  6
HIDDEN
 62
3
100
AcDbLine
 10
128.6685746483965
 20
500.5845508857377
 30
0.0000000000000000
 11
128.6685746483965
 21
495.9657487322182
 31
0.0000000000000000
  0
LINE
  5
97
100
AcDbEntity
  8
MAIN0
  6
HIDDEN
 62
3
100
AcDbLine
 10
120.6685746483965
 20
500.5845508857300
 30
0.0000000000000000
 11
120.6685746483965
 21
495.9657487322106
 31
0.0000000000000000
  0
LINE
  5
98
100
AcDbEntity
  8
MAIN0
  6
HIDDEN
 62
3
100
AcDbLine
 10
128.6685746483966
 20
495.9657487322183
 30
0.0000000000000000
 11
124.6685746483966
 21
493.6563476554548
 31
0.0000000000000000
  0
LINE
  5
99
100
AcDbEntity
  8
MAIN0
  6
HIDDEN
 62
3
100
AcDbLine
 10
124.6685746483967
 20
502.8939519624938
 30
0.0000000000000000
 11
120.6685746483966
 21
500.5845508857302
 31
0.0000000000000000
  0
LINE
  5
9A
100
AcDbEntity
  8
MAIN0
  6
HIDDEN
 62
3
100
AcDbLine
 10
124.6685746483965
 20
502.8939519624937
 30
0.0000000000000000
 11
128.6685746483965
 21
500.5845508857378
 31
0.0000000000000000
  0
LINE
  5
9B
100
AcDbEntity
  8
MAIN0
  6
HIDDEN
 62
3
100
AcDbLine
 10
124.6685746483965
 20
493.6563476554547
 30
0.0000000000000000
 11
120.6685746483965
 21
495.9657487322107
 31
0.0000000000000000
  0
CIRCLE
  5
9C
100
AcDbEntity
  8
MAIN0
  6
HIDDEN
 62
3
100
AcDbCircle
 10
159.6685746483965
 20
574.2751498089743
 30
0.0000000000000000
 40
8.000000000000000
  0
LINE
  5
9D
100
AcDbEntity
  8
MAIN0
  6
HIDDEN
 62
3
100
AcDbLine
 10
163.6685746483965
 20
576.5845508857376
 30
0.0000000000000000
 11
163.6685746483965
 21
571.9657487322182
 31
0.0000000000000000
  0
LINE
  5
9E
100
AcDbEntity
  8
MAIN0
  6
HIDDEN
 62
3
100
AcDbLine
 10
155.6685746483965
 20
576.5845508857299
 30
0.0000000000000000
 11
155.6685746483965
 21
571.9657487322105
 31
0.0000000000000000
  0
LINE
  5
9F
100
AcDbEntity
  8
MAIN0
  6
HIDDEN
 62
3
100
AcDbLine
 10
163.6685746483966
 20
571.9657487322183
 30
0.0000000000000000
 11
159.6685746483967
 21
569.6563476554547
 31
0.0000000000000000
  0
LINE
  5
A0
100
AcDbEntity
  8
MAIN0
  6
HIDDEN
 62
3
100
AcDbLine
 10
159.6685746483967
 20
578.8939519624937
 30
0.0000000000000000
 11
155.6685746483966
 21
576.5845508857301
 31
0.0000000000000000
  0
LINE
  5
A1
100
AcDbEntity
  8
MAIN0
  6
HIDDEN
 62
3
100
AcDbLine
 10
159.6685746483965
 20
578.8939519624937
 30
0.0000000000000000
 11
163.6685746483965
 21
576.5845508857378
 31
0.0000000000000000
  0
LINE
  5
A2
100
AcDbEntity
  8
MAIN0
  6
HIDDEN
 62
3
100
AcDbLine
 10
159.6685746483965
 20
569.6563476554547
 30
0.0000000000000000
 11
155.6685746483965
 21
571.9657487322106
 31
0.0000000000000000
  0
CIRCLE
  5
A3
100
AcDbEntity
  8
MAIN0
  6
HIDDEN
 62
3
100
AcDbCircle
 10
159.6685746483965
 20
498.2751498089743
 30
0.0000000000000000
 40
8.000000000000000
  0
LINE
  5
A4
100
AcDbEntity
  8
MAIN0
  6
HIDDEN
 62
3
100
AcDbLine
 10
163.6685746483965
 20
500.5845508857377
 30
0.0000000000000000
 11
163.6685746483965
 21
495.9657487322182
 31
0.0000000000000000
  0
LINE
  5
A5
100
AcDbEntity
  8
MAIN0
  6
HIDDEN
 62
3
100
AcDbLine
 10
155.6685746483965
 20
500.5845508857300
 30
0.0000000000000000
 11
155.6685746483965
 21
495.9657487322106
 31
0.0000000000000000
  0
LINE
  5
A6
100
AcDbEntity
  8
MAIN0
  6
HIDDEN
 62
3
100
AcDbLine
 10
163.6685746483967
 20
495.9657487322183
 30
0.0000000000000000
 11
159.6685746483966
 21
493.6563476554547
 31
0.0000000000000000
  0
LINE
  5
A7
100
AcDbEntity
  8
MAIN0
  6
HIDDEN
 62
3
100
AcDbLine
 10
159.6685746483967
 20
502.8939519624938
 30
0.0000000000000000
 11
155.6685746483966
 21
500.5845508857302
 31
0.0000000000000000
  0
LINE
  5
A8
100
AcDbEntity
  8
MAIN0
  6
HIDDEN
 62
3
100
AcDbLine
 10
159.6685746483965
 20
502.8939519624937
 30
0.0000000000000000
 11
163.6685746483965
 21
500.5845508857378
 31
0.0000000000000000
  0
LINE
  5
A9
100
AcDbEntity
  8
MAIN0
  6
HIDDEN
 62
3
100
AcDbLine
 10
159.6685746483965
 20
493.6563476554547
 30
0.0000000000000000
 11
155.6685746483965
 21
495.9657487322106
 31
0.0000000000000000
  0
CIRCLE
  5
AA
100
AcDbEntity
  8
MAIN0
  6
HIDDEN
 62
3
100
AcDbCircle
 10
257.1685746483965
 20
554.7751498089743
 30
0.0000000000000000
 40
8.000000000000000
  0
LINE
  5
AB
100
AcDbEntity
  8
MAIN0
  6
HIDDEN
 62
3
100
AcDbLine
 10
261.1685746483965
 20
557.0845508857378
 30
0.0000000000000000
 11
261.1685746483965
 21
552.4657487322183
 31
0.0000000000000000
  0
LINE
  5
AC
100
AcDbEntity
  8
MAIN0
  6
HIDDEN
 62
3
100
AcDbLine
 10
253.1685746483965
 20
557.0845508857300
 30
0.0000000000000000
 11
253.1685746483965
 21
552.4657487322106
 31
0.0000000000000000
  0
LINE
  5
AD
100
AcDbEntity
  8
MAIN0
  6
HIDDEN
 62
3
100
AcDbLine
 10
261.1685746483966
 20
552.4657487322183
 30
0.0000000000000000
 11
257.1685746483967
 21
550.1563476554549
 31
0.0000000000000000
  0
LINE
  5
AE
100
AcDbEntity
  8
MAIN0
  6
HIDDEN
 62
3
100
AcDbLine
 10
257.1685746483967
 20
559.3939519624938
 30
0.0000000000000000
 11
253.1685746483965
 21
557.0845508857302
 31
0.0000000000000000
  0
LINE
  5
AF
100
AcDbEntity
  8
MAIN0
  6
HIDDEN
 62
3
100
AcDbLine
 10
257.1685746483965
 20
559.3939519624938
 30
0.0000000000000000
 11
261.1685746483965
 21
557.0845508857378
 31
0.0000000000000000
  0
LINE
  5
B0
100
AcDbEntity
  8
MAIN0
  6
HIDDEN
 62
3
100
AcDbLine
 10
257.1685746483964
 20
550.1563476554547
 30
0.0000000000000000
 11
253.1685746483965
 21
552.4657487322106
 31
0.0000000000000000
  0
CIRCLE
  5
B1
100
AcDbEntity
  8
MAIN0
  6
HIDDEN
 62
3
100
AcDbCircle
 10
257.1685746483964
 20
517.7751498089745
 30
0.0000000000000000
 40
8.000000000000000
  0
LINE
  5
B2
100
AcDbEntity
  8
MAIN0
  6
HIDDEN
 62
3
100
AcDbLine
 10
261.1685746483964
 20
520.0845508857378
 30
0.0000000000000000
 11
261.1685746483964
 21
515.4657487322183
 31
0.0000000000000000
  0
LINE
  5
B3
100
AcDbEntity
  8
MAIN0
  6
HIDDEN
 62
3
100
AcDbLine
 10
253.1685746483965
 20
520.0845508857300
 30
0.0000000000000000
 11
253.1685746483965
 21
515.4657487322106
 31
0.0000000000000000
  0
LINE
  5
B4
100
AcDbEntity
  8
MAIN0
  6
HIDDEN
 62
3
100
AcDbLine
 10
261.1685746483966
 20
515.4657487322183
 30
0.0000000000000000
 11
257.1685746483967
 21
513.1563476554549
 31
0.0000000000000000
  0
LINE
  5
B5
100
AcDbEntity
  8
MAIN0
  6
HIDDEN
 62
3
100
AcDbLine
 10
257.1685746483967
 20
522.3939519624938
 30
0.0000000000000000
 11
253.1685746483965
 21
520.0845508857302
 31
0.0000000000000000
  0
LINE
  5
B6
100
AcDbEntity
  8
MAIN0
  6
HIDDEN
 62
3
100
AcDbLine
 10
257.1685746483965
 20
522.3939519624937
 30
0.0000000000000000
 11
261.1685746483965
 21
520.0845508857378
 31
0.0000000000000000
  0
LINE
  5
B7
100
AcDbEntity
  8
MAIN0
  6
HIDDEN
 62
3
100
AcDbLine
 10
257.1685746483964
 20
513.1563476554547
 30
0.0000000000000000
 11
253.1685746483965
 21
515.4657487322106
 31
0.0000000000000000
  0
CIRCLE
  5
B8
100
AcDbEntity
  8
MAIN0
  6
HIDDEN
 62
3
100
AcDbCircle
 10
292.1685746483965
 20
554.7751498089742
 30
0.0000000000000000
 40
8.000000000000000
  0
LINE
  5
B9
100
AcDbEntity
  8
MAIN0
  6
HIDDEN
 62
3
100
AcDbLine
 10
296.1685746483965
 20
557.0845508857376
 30
0.0000000000000000
 11
296.1685746483965
 21
552.4657487322181
 31
0.0000000000000000
  0
LINE
  5
BA
100
AcDbEntity
  8
MAIN0
  6
HIDDEN
 62
3
100
AcDbLine
 10
288.1685746483965
 20
557.0845508857299
 30
0.0000000000000000
 11
288.1685746483965
 21
552.4657487322105
 31
0.0000000000000000
  0
LINE
  5
BB
100
AcDbEntity
  8
MAIN0
  6
HIDDEN
 62
3
100
AcDbLine
 10
296.1685746483966
 20
552.4657487322183
 30
0.0000000000000000
 11
292.1685746483967
 21
550.1563476554547
 31
0.0000000000000000
  0
LINE
  5
BC
100
AcDbEntity
  8
MAIN0
  6
HIDDEN
 62
3
100
AcDbLine
 10
292.1685746483966
 20
559.3939519624937
 30
0.0000000000000000
 11
288.1685746483965
 21
557.0845508857301
 31
0.0000000000000000
  0
LINE
  5
BD
100
AcDbEntity
  8
MAIN0
  6
HIDDEN
 62
3
100
AcDbLine
 10
292.1685746483965
 20
559.3939519624937
 30
0.0000000000000000
 11
296.1685746483965
 21
557.0845508857378
 31
0.0000000000000000
  0
LINE
  5
BE
100
AcDbEntity
  8
MAIN0
  6
HIDDEN
 62
3
100
AcDbLine
 10
292.1685746483965
 20
550.1563476554547
 30
0.0000000000000000
 11
288.1685746483965
 21
552.4657487322106
 31
0.0000000000000000
  0
CIRCLE
  5
BF
100
AcDbEntity
  8
MAIN0
  6
HIDDEN
 62
3
100
AcDbCircle
 10
292.1685746483964
 20
517.7751498089742
 30
0.0000000000000000
 40
8.000000000000000
  0
LINE
  5
C0
100
AcDbEntity
  8
MAIN0
  6
HIDDEN
 62
3
100
AcDbLine
 10
296.1685746483964
 20
520.0845508857376
 30
0.0000000000000000
 11
296.1685746483964
 21
515.4657487322181
 31
0.0000000000000000
  0
LINE
  5
C1
100
AcDbEntity
  8
MAIN0
  6
HIDDEN
 62
3
100
AcDbLine
 10
288.1685746483964
 20
520.0845508857299
 30
0.0000000000000000
 11
288.1685746483964
 21
515.4657487322105
 31
0.0000000000000000
  0
LINE
  5
C2
100
AcDbEntity
  8
MAIN0
  6
HIDDEN
 62
3
100
AcDbLine
 10
296.1685746483967
 20
515.4657487322183
 30
0.0000000000000000
 11
292.1685746483967
 21
513.1563476554547
 31
0.0000000000000000
  0
LINE
  5
C3
100
AcDbEntity
  8
MAIN0
  6
HIDDEN
 62
3
100
AcDbLine
 10
292.1685746483966
 20
522.3939519624937
 30
0.0000000000000000
 11
288.1685746483965
 21
520.0845508857301
 31
0.0000000000000000
  0
LINE
  5
C4
100
AcDbEntity
  8
MAIN0
  6
HIDDEN
 62
3
100
AcDbLine
 10
292.1685746483964
 20
522.3939519624937
 30
0.0000000000000000
 11
296.1685746483964
 21
520.0845508857378
 31
0.0000000000000000
  0
LINE
  5
C5
100
AcDbEntity
  8
MAIN0
  6
HIDDEN
 62
3
100
AcDbLine
 10
292.1685746483964
 20
513.1563476554546
 30
0.0000000000000000
 11
288.1685746483964
 21
515.4657487322106
 31
0.0000000000000000
  0
LINE
  5
C6
100
AcDbEntity
  8
MAIN0
  6
CONTINUOUS
 62
3
100
AcDbLine
 10
456.1685746483963
 20
336.2751336999207
 30
0.0000000000000000
 11
413.1685746483963
 21
336.2751336999207
 31
0.0000000000000000
  0
LINE
  5
C7
100
AcDbEntity
  8
MAIN0
  6
CONTINUOUS
 62
3
100
AcDbLine
 10
456.1685746483962
 20
286.2751336999208
 30
0.0000000000000000
 11
433.6685746483969
 21
286.2751336999208
 31
0.0000000000000000
  0
LINE
  5
C8
100
AcDbEntity
  8
MAIN0
  6
CONTINUOUS
 62
3
100
AcDbLine
 10
456.1685746483965
 20
561.2751498089742
 30
0.0000000000000000
 11
456.1685746483965
 21
511.2751498089743
 31
0.0000000000000000
  0
LINE
  5
C9
100
AcDbEntity
  8
MAIN0
  6
CONTINUOUS
 62
3
100
AcDbLine
 10
456.1685746483964
 20
336.2751336999207
 30
0.0000000000000000
 11
456.1685746483963
 21
286.2751336999207
 31
0.0000000000000000
  0
DIMENSION
  5
D3
100
AcDbEntity
  8
MAIN0
  6
CONTINUOUS
 62
3
100
AcDbDimension
  2
*D0
 10
193.6930578149531
 20
258.2751336999207
 30
0.0000000000000000
 11
192.6930578149531
 21
246.1173650193059
 31
0.0000000000000000
 70
160
  3
MAIN001
100
AcDbAlignedDimension
 13
210.1685746483965
 23
253.2751336999207
 33
0.0000000000000000
 14
104.6685746483965
 24
258.2751336999207
 34
0.0000000000000000
 50
90.00000000000000
100
AcDbRotatedDimension
1001
ACAD
1000
DSTYLE
1002
{
1070
   173
1070
     1
1070
     6
1000
_OPEN
1070
     7
1000
_OPEN
1070
    41
1040
4.000000
1070
   287
1070
     0
1002
}
  0
DIMENSION
  5
DC
100
AcDbEntity
  8
MAIN0
  6
CONTINUOUS
 62
3
100
AcDbDimension
  2
*D1
 10
104.6685746483965
 20
168.0331509729983
 30
0.0000000000000000
 11
280.4185746483964
 21
168.5331509729983
 31
0.0000000000000000
 70
32
  3
MAIN001
100
AcDbAlignedDimension
 13
456.1685746483963
 23
286.2751336999207
 33
0.0000000000000000
 14
104.6685746483965
 24
258.2751336999207
 34
0.0000000000000000
100
AcDbRotatedDimension
1001
ACAD
1000
DSTYLE
1002
{
1070
   173
1070
     1
1070
     6
1000
_OPEN
1070
     7
1000
_OPEN
1070
    41
1040
4.000000
1002
}
  0
LINE
  5
DD
100
AcDbEntity
  8
MAIN0
  6
CONTINUOUS
 62
3
100
AcDbLine
 10
133.1685746483965
 20
343.2751336999206
 30
0.0000000000000000
 11
133.1685746483965
 21
336.7751336999207
 31
0.0000000000000000
  0
LINE
  5
DE
100
AcDbEntity
  8
MAIN0
  6
CONTINUOUS
 62
3
100
AcDbLine
 10
151.1685746483965
 20
343.2751336999206
 30
0.0000000000000000
 11
151.1685746483965
 21
336.7751336999207
 31
0.0000000000000000
  0
LINE
  5
DF
100
AcDbEntity
  8
MAIN0
  6
CONTINUOUS
 62
3
100
AcDbLine
 10
133.1685746483965
 20
336.7751336999207
 30
0.0000000000000000
 11
151.1685746483965
 21
336.7751336999207
 31
0.0000000000000000
  0
LINE
  5
E0
100
AcDbEntity
  8
MAIN0
  6
CONTINUOUS
 62
3
100
AcDbLine
 10
133.1685746483965
 20
337.2751336999207
 30
0.0000000000000000
 11
151.1685746483965
 21
337.2751336999207
 31
0.0000000000000000
  0
LINE
  5
E1
100
AcDbEntity
  8
MAIN0
  6
CONTINUOUS
 62
3
100
AcDbLine
 10
104.6685746483965
 20
343.2751336999207
 30
0.0000000000000000
 11
133.1685746483965
 21
343.2751336999207
 31
0.0000000000000000
  0
LINE
  5
E2
100
AcDbEntity
  8
MAIN0
  6
CONTINUOUS
 62
3
100
AcDbLine
 10
151.1685746483965
 20
343.2751336999207
 30
0.0000000000000000
 11
306.6685746483963
 21
343.2751336999207
 31
0.0000000000000000
  0
DIMENSION
  5
ED
100
AcDbEntity
  8
MAIN0
  6
CONTINUOUS
 62
3
100
AcDbDimension
  2
*D2
 10
210.1685746483965
 20
236.8617808821212
 30
0.0000000000000000
 11
238.6025356319066
 21
237.8617808821212
 31
0.0000000000000000
 70
160
  3
MAIN001
100
AcDbAlignedDimension
 13
224.1685746483965
 23
253.2751336999207
 33
0.0000000000000000
 14
210.1685746483965
 24
253.2751336999208
 34
0.0000000000000000
100
AcDbRotatedDimension
1001
ACAD
1000
DSTYLE
1002
{
1070
   173
1070
     1
1070
     6
1000
_OPEN
1070
     7
1000
_OPEN
1070
    41
1040
4.000000
1070
   287
1070
     0
1002
}
  0
DIMENSION
  5
F6
100
AcDbEntity
  8
MAIN0
  6
CONTINUOUS
 62
3
100
AcDbDimension
  2
*D3
 10
104.6685746483965
 20
203.2122181579706
 30
0.0000000000000000
 11
241.1685746483966
 21
203.7122181579706
 31
0.0000000000000000
 70
32
  3
MAIN001
100
AcDbAlignedDimension
 13
377.6685746483967
 23
258.2751336999208
 33
0.0000000000000000
 14
104.6685746483965
 24
258.2751336999207
 34
0.0000000000000000
100
AcDbRotatedDimension
1001
ACAD
1000
DSTYLE
1002
{
1070
   173
1070
     1
1070
     6
1000
_OPEN
1070
     7
1000
_OPEN
1070
    41
1040
4.000000
1002
}
  0
DIMENSION
  5
FF
100
AcDbEntity
  8
MAIN0
  6
CONTINUOUS
 62
3
100
AcDbDimension
  2
*D4
 10
377.6685746483966
 20
203.2122181579706
 30
0.0000000000000000
 11
416.9185746483965
 21
203.7122181579706
 31
0.0000000000000000
 70
32
  3
MAIN001
100
AcDbAlignedDimension
 13
456.1685746483963
 23
286.2751336999207
 33
0.0000000000000000
 14
377.6685746483967
 24
258.2751336999208
 34
0.0000000000000000
100
AcDbRotatedDimension
1001
ACAD
1000
DSTYLE
1002
{
1070
   173
1070
     1
1070
     6
1000
_OPEN
1070
     7
1000
_OPEN
1070
    41
1040
4.000000
1002
}
  0
LINE
  5
100
100
AcDbEntity
  8
MAIN0
  6
CONTINUOUS
 62
3
100
AcDbLine
 10
306.6685746483963
 20
343.2751336999207
 30
0.0000000000000000
 11
306.6685746483963
 21
354.4751336999207
 31
0.0000000000000000
  0
LINE
  5
101
100
AcDbEntity
  8
MAIN0
  6
CONTINUOUS
 62
3
100
AcDbLine
 10
105.6685746483965
 20
378.2751336999207
 30
0.0000000000000000
 11
178.6685746483964
 21
378.2751336999207
 31
0.0000000000000000
  0
LINE
  5
102
100
AcDbEntity
  8
MAIN0
  6
CONTINUOUS
 62
3
100
AcDbLine
 10
242.6685746483963
 20
378.2751336999207
 30
0.0000000000000000
 11
306.6685746483964
 21
378.2751336999207
 31
0.0000000000000000
  0
DIMENSION
  5
10D
100
AcDbEntity
  8
MAIN0
  6
CONTINUOUS
 62
3
100
AcDbDimension
  2
*D5
 10
104.6685746483965
 20
406.3127381271576
 30
0.0000000000000000
 11
97.51043608220698
 21
407.3127381271576
 31
0.0000000000000000
 70
160
  3
MAIN001
100
AcDbAlignedDimension
 13
105.6685746483965
 23
378.2751336999207
 33
0.0000000000000000
 14
104.6685746483965
 24
343.2751336999207
 34
0.0000000000000000
100
AcDbRotatedDimension
1001
ACAD
1000
DSTYLE
1002
{
1070
   173
1070
     1
1070
     6
1000
_OPEN
1070
     7
1000
_OPEN
1070
    41
1040
4.000000
1070
   287
1070
     0
1002
}
  0
DIMENSION
  5
116
100
AcDbEntity
  8
MAIN0
  6
CONTINUOUS
 62
3
100
AcDbDimension
  2
*D6
 10
105.6685746483965
 20
406.3127381271576
 30
0.0000000000000000
 11
142.1685746483965
 21
406.8127381271576
 31
0.0000000000000000
 70
32
  3
MAIN001
100
AcDbAlignedDimension
 13
178.6685746483964
 23
378.2751336999207
 33
0.0000000000000000
 14
105.6685746483965
 24
378.2751336999207
 34
0.0000000000000000
100
AcDbRotatedDimension
1001
ACAD
1000
DSTYLE
1002
{
1070
   173
1070
     1
1070
     6
1000
_OPEN
1070
     7
1000
_OPEN
1070
    41
1040
4.000000
1002
}
  0
DIMENSION
  5
11F
100
AcDbEntity
  8
MAIN0
  6
CONTINUOUS
 62
3
100
AcDbDimension
  2
*D7
 10
178.6685746483964
 20
406.3127381271576
 30
0.0000000000000000
 11
221.5127862596443
 21
407.3127381271576
 31
0.0000000000000000
 70
160
  1
\A1;128
  3
MAIN001
100
AcDbAlignedDimension
 13
242.6685746483964
 23
378.2751336999207
 33
0.0000000000000000
 14
178.6685746483964
 24
378.2751336999207
 34
0.0000000000000000
100
AcDbRotatedDimension
1001
ACAD
1000
DSTYLE
1002
{
1070
   173
1070
     1
1070
     6
1000
_OPEN
1070
     7
1000
_OPEN
1070
    41
1040
4.000000
1002
}
  0
DIMENSION
  5
128
100
AcDbEntity
  8
MAIN0
  6
CONTINUOUS
 62
1
100
AcDbDimension
  2
*D8
 10
242.6685746483963
 20
406.3127381271576
 30
0.0000000000000000
 11
274.6685746483963
 21
406.8127381271576
 31
0.0000000000000000
 70
32
  3
MAIN001
100
AcDbAlignedDimension
 13
306.6685746483964
 23
378.2751336999207
 33
0.0000000000000000
 14
242.6685746483964
 24
378.2751336999207
 34
0.0000000000000000
100
AcDbRotatedDimension
1001
ACAD
1000
DSTYLE
1002
{
1070
   173
1070
     1
1070
     6
1000
_OPEN
1070
     7
1000
_OPEN
1070
    41
1040
4.000000
1002
}
  0
MTEXT
  5
129
100
AcDbEntity
  8
MAIN0
  6
CONTINUOUS
 62
3
100
AcDbMText
 10
196.2135842741274
 20
413.4961181914479
 30
0.0000000000000000
 40
6.199999809265137
 41
0.0000000000000000
 71
     1
 72
     1
  1
{\H0.90x;{MAX}}
 11
1.000000000000000
 21
0.0000000000000000
 31
0.0000000000000000
  7
STANDARD
  0
LINE
  5
12A
100
AcDbEntity
  8
MAIN0
  6
CENTER
 62
3
100
AcDbLine
 10
142.1685746483965
 20
378.2751336999207
 30
0.0000000000000000
 11
142.1685746483965
 21
343.2751336999205
 31
0.0000000000000000
  0
LINE
  5
12B
100
AcDbEntity
  8
MAIN0
  6
CENTER
 62
3
100
AcDbLine
 10
135.1607402763729
 20
371.2751336999207
 30
0.0000000000000000
 11
150.0536666891635
 21
371.2751336999207
 31
0.0000000000000000
  0
LINE
  5
12C
100
AcDbEntity
  8
MAIN0
  6
CENTER
 62
3
100
AcDbLine
 10
134.9970779710749
 20
351.2751336999207
 30
0.0000000000000000
 11
149.5626922594269
 21
351.2751336999207
 31
0.0000000000000000
  0
DIMENSION
  5
137
100
AcDbEntity
  8
MAIN0
  6
CONTINUOUS
 62
3
100
AcDbDimension
  2
*D9
 10
195.6473792027342
 20
378.2751336999207
 30
0.0000000000000000
 11
195.1473792027342
 21
374.7751336999207
 31
0.0000000000000000
 70
32
  3
MAIN001
100
AcDbAlignedDimension
 13
150.0536666891635
 23
371.2751336999207
 33
0.0000000000000000
 14
178.6685746483964
 24
378.2751336999207
 34
0.0000000000000000
 50
90.00000000000000
100
AcDbRotatedDimension
1001
ACAD
1000
DSTYLE
1002
{
1070
   173
1070
     1
1070
     6
1000
_OPEN
1070
     7
1000
_OPEN
1070
    41
1040
4.000000
1070
   287
1070
     0
1002
}
  0
DIMENSION
  5
140
100
AcDbEntity
  8
MAIN0
  6
CONTINUOUS
 62
3
100
AcDbDimension
  2
*D10
 10
195.6473792027342
 20
371.2751336999207
 30
0.0000000000000000
 11
195.1473792027342
 21
361.2751336999207
 31
0.0000000000000000
 70
32
  3
MAIN001
100
AcDbAlignedDimension
 13
149.5626922594269
 23
351.2751336999207
 33
0.0000000000000000
 14
150.0536666891635
 24
371.2751336999207
 34
0.0000000000000000
 50
90.00000000000000
100
AcDbRotatedDimension
1001
ACAD
1000
DSTYLE
1002
{
1070
   173
1070
     1
1070
     6
1000
_OPEN
1070
     7
1000
_OPEN
1070
    41
1040
4.000000
1002
}
  0
DIMENSION
  5
149
100
AcDbEntity
  8
MAIN0
  6
CONTINUOUS
 62
3
100
AcDbDimension
  2
*D11
 10
178.6685746483964
 20
394.5564809382989
 30
0.0000000000000000
 11
160.4185746483965
 21
395.0564809382989
 31
0.0000000000000000
 70
32
  3
MAIN001
100
AcDbAlignedDimension
 13
142.1685746483965
 23
378.2751336999207
 33
0.0000000000000000
 14
178.6685746483964
 24
378.2751336999207
 34
0.0000000000000000
100
AcDbRotatedDimension
1001
ACAD
1000
DSTYLE
1002
{
1070
   173
1070
     1
1070
     6
1000
_OPEN
1070
     7
1000
_OPEN
1070
    41
1040
4.000000
1002
}
  0
LINE
  5
14A
100
AcDbEntity
  8
MAIN0
  6
CENTER
 62
3
100
AcDbLine
 10
142.1685746483965
 20
506.8615256464591
 30
0.0000000000000000
 11
142.1685746483965
 21
482.9802522298563
 31
0.0000000000000000
  0
LINE
  5
14B
100
AcDbEntity
  8
MAIN0
  6
CENTER
 62
3
100
AcDbLine
 10
299.6685746483965
 20
327.2935526280331
 30
0.0000000000000000
 11
299.6685746483965
 21
310.9394956543314
 31
0.0000000000000000
  0
LINE
  5
14C
100
AcDbEntity
  8
MAIN0
  6
CENTER
 62
3
100
AcDbLine
 10
194.6685746483965
 20
326.5147996810495
 30
0.0000000000000000
 11
194.6685746483965
 21
310.1607278535875
 31
0.0000000000000000
  0
LINE
  5
14D
100
AcDbEntity
  8
MAIN0
  6
CENTER
 62
3
100
AcDbLine
 10
186.9906677748030
 20
318.2751336999207
 30
0.0000000000000000
 11
202.7606563248269
 21
318.2751336999207
 31
0.0000000000000000
  0
LINE
  5
14E
100
AcDbEntity
  8
MAIN0
  6
CENTER
 62
3
100
AcDbLine
 10
292.3186117738948
 20
318.2751336999207
 30
0.0000000000000000
 11
307.1151405729887
 21
318.2751336999207
 31
0.0000000000000000
  0
DIMENSION
  5
156
100
AcDbEntity
  8
MAIN0
  6
CONTINUOUS
 62
3
100
AcDbDimension
  2
*D12
 10
104.6685746483965
 20
330.3645576575636
 30
0.0000000000000000
 11
157.4808618102493
 21
331.3645576575636
 31
0.0000000000000000
 70
160
  3
MAIN001
100
AcDbAlignedDimension
 13
194.6685746483965
 23
326.5147996810495
 33
0.0000000000000000
 14
104.6685746483965
 24
343.2751336999207
 34
0.0000000000000000
100
AcDbRotatedDimension
1001
ACAD
1000
DSTYLE
1002
{
1070
   173
1070
     1
1070
     6
1000
_OPEN
1070
     7
1000
_OPEN
1070
    41
1040
4.000000
1002
}
  0
DIMENSION
  5
15F
100
AcDbEntity
  8
MAIN0
  6
CONTINUOUS
 62
3
100
AcDbDimension
  2
*D13
 10
194.6685746483965
 20
330.3645576575636
 30
0.0000000000000000
 11
247.1685746483965
 21
330.8645576575636
 31
0.0000000000000000
 70
32
  3
MAIN001
100
AcDbAlignedDimension
 13
299.6685746483965
 23
327.2935526280331
 33
0.0000000000000000
 14
194.6685746483965
 24
326.5147996810495
 34
0.0000000000000000
100
AcDbRotatedDimension
1001
ACAD
1000
DSTYLE
1002
{
1070
   173
1070
     1
1070
     6
1000
_OPEN
1070
     7
1000
_OPEN
1070
    41
1040
4.000000
1002
}
  0
MTEXT
  5
160
100
AcDbEntity
  8
MAIN0
  6
CONTINUOUS
 62
3
100
AcDbMText
 10
356.8104531329806
 20
389.9699808551418
 30
0.0000000000000000
 40
6.199999809265137
 41
0.0000000000000000
 71
     1
 72
     1
  1
{\H0.92x;{2x2-M8}}
 11
1.000000000000000
 21
0.0000000000000000
 31
0.0000000000000000
  7
STANDARD
  0
LEADER
  5
161
100
AcDbEntity
  8
MAIN0
  6
CONTINUOUS
 62
3
100
AcDbLeader
  3
MAIN001
 73
     3
 74
     0
 75
     0
 76
     3
 10
302.3274283829210
 20
321.2635273852315
 30
0.0000000000000000
 10
355.0679540555411
 20
382.0274629766216
 30
0.0000000000000000
 10
390.9138094367427
 20
382.0274629766216
 30
0.0000000000000000
1001
ACAD
1000
DSTYLE
1002
{
1070
   173
1070
     1
1070
     6
1000
_OPEN
1070
     7
1000
_OPEN
1002
}
  0
DIMENSION
  5
16C
100
AcDbEntity
  8
MAIN0
  6
CONTINUOUS
 62
3
100
AcDbDimension
  2
*D14
 10
734.2567715858895
 20
358.9491880543075
 30
0.0000000000000000
 11
758.1892711158030
 21
359.9491880543075
 31
0.0000000000000000
 70
160
  3
MAIN001
100
AcDbAlignedDimension
 13
748.2567715858895
 23
315.3165855842490
 33
0.0000000000000000
 14
734.2567715858895
 24
315.3165855842476
 34
0.0000000000000000
100
AcDbRotatedDimension
1001
ACAD
1000
DSTYLE
1002
{
1070
   173
1070
     1
1070
     6
1000
_OPEN
1070
     7
1000
_OPEN
1070
    41
1040
4.000000
1070
   287
1070
     0
1002
}
  0
LINE
  5
16D
100
AcDbEntity
  8
MAIN0
  6
CENTER
 62
3
100
AcDbLine
 10
799.5417845294287
 20
311.2751336999207
 30
0.0000000000000000
 11
683.4383283322443
 21
311.2751336999207
 31
0.0000000000000000
  0
LINE
  5
16E
100
AcDbEntity
  8
MAIN0
  6
CENTER
 62
3
100
AcDbLine
 10
741.2567715858900
 20
382.3148785297192
 30
0.0000000000000000
 11
741.2567715858897
 21
241.9528470107727
 31
0.0000000000000000
  0
LINE
  5
16F
100
AcDbEntity
  8
MAIN0
  6
CENTER
 62
3
100
AcDbLine
 10
370.8690184850622
 20
311.2751336999207
 30
0.0000000000000000
 11
500.2758453334072
 21
311.2751336999207
 31
0.0000000000000000
  0
LINE
  5
170
100
AcDbEntity
  8
MAIN0
  6
CONTINUOUS
 62
3
100
AcDbLine
 10
495.2758453334072
 20
311.2751336999207
 30
0.0000000000000000
 11
509.7758453334072
 21
311.2751336999207
 31
0.0000000000000000
  0
LINE
  5
171
100
AcDbEntity
  8
MAIN0
  6
CENTER
 62
3
100
AcDbLine
 10
509.7758453334072
 20
311.2751336999207
 30
0.0000000000000000
 11
545.0877439482940
 21
311.2751336999207
 31
0.0000000000000000
  0
LINE
  5
172
100
AcDbEntity
  8
MAIN0
  6
CENTER
 62
3
100
AcDbLine
 10
526.1165947589079
 20
491.2751336999207
 30
0.0000000000000000
 11
628.4263009901317
 21
491.2751336999207
 31
0.0000000000000000
  0
LINE
  5
173
100
AcDbEntity
  8
MAIN0
  6
CONTINUOUS
 62
3
100
AcDbLine
 10
631.2567715858897
 20
280.7751336999207
 30
0.0000000000000000
 11
696.2567715858897
 21
280.7751336999207
 31
0.0000000000000000
  0
LINE
  5
174
100
AcDbEntity
  8
MAIN0
  6
CONTINUOUS
 62
3
100
AcDbLine
 10
650.2567715858897
 20
265.2751336999207
 30
0.0000000000000000
 11
690.2567715858895
 21
265.2751336999207
 31
0.0000000000000000
  0
LINE
  5
175
100
AcDbEntity
  8
MAIN0
  6
CONTINUOUS
 62
3
100
AcDbLine
 10
646.2567715858897
 20
261.2751336999207
 30
0.0000000000000000
 11
646.2567715858897
 21
258.2751336999207
 31
0.0000000000000000
  0
ARC
  5
176
100
AcDbEntity
  8
MAIN0
  6
CONTINUOUS
 62
3
100
AcDbCircle
 10
650.2567715858897
 20
261.2751336999207
 30
0.0000000000000000
 40
4.000000000000000
100
AcDbArc
 50
89.99999999942553
 51
179.9999999999964
  0
LINE
  5
177
100
AcDbEntity
  8
MAIN0
  6
CONTINUOUS
 62
3
100
AcDbLine
 10
632.6567715857646
 20
258.2751336999207
 30
0.0000000000000000
 11
646.2567715858897
 21
258.2751336999207
 31
0.0000000000000000
  0
LINE
  5
178
100
AcDbEntity
  8
MAIN0
  6
CONTINUOUS
 62
3
100
AcDbLine
 10
690.7567715858895
 20
258.2751336999207
 30
0.0000000000000000
 11
734.2567715858895
 21
258.2751336999207
 31
0.0000000000000000
  0
LINE
  5
179
100
AcDbEntity
  8
MAIN0
  6
CENTER
 62
3
100
AcDbLine
 10
671.2567715858897
 20
169.8766337310746
 30
0.0000000000000000
 11
671.2567715858895
 21
302.6679917291401
 31
0.0000000000000000
  0
LINE
  5
17A
100
AcDbEntity
  8
MAIN0
  6
CONTINUOUS
 62
3
100
AcDbLine
 10
659.2567715858897
 20
285.7751336999207
 30
0.0000000000000000
 11
683.2567715858897
 21
285.7751336999207
 31
0.0000000000000000
  0
LINE
  5
17B
100
AcDbEntity
  8
MAIN0
  6
CONTINUOUS
 62
3
100
AcDbLine
 10
683.2567715858897
 20
285.7751336999207
 30
0.0000000000000000
 11
683.2567715858897
 21
280.7751336999207
 31
0.0000000000000000
  0
LINE
  5
17C
100
AcDbEntity
  8
MAIN0
  6
CONTINUOUS
 62
3
100
AcDbLine
 10
659.2567715858895
 20
285.7751336999207
 30
0.0000000000000000
 11
659.2567715858895
 21
280.7751336999207
 31
0.0000000000000000
  0
DIMENSION
  5
187
100
AcDbEntity
  8
MAIN0
  6
CONTINUOUS
 62
3
100
AcDbDimension
  2
*D15
 10
814.6348816000289
 20
258.2751336999207
 30
0.0000000000000000
 11
814.1348816000289
 21
265.7751336999207
 31
0.0000000000000000
 70
32
  3
MAIN001
100
AcDbAlignedDimension
 13
791.7567715858895
 23
273.2751336999207
 33
0.0000000000000000
 14
791.7567715858895
 24
258.2751336999207
 34
0.0000000000000000
 50
90.00000000000000
100
AcDbRotatedDimension
1001
ACAD
1000
DSTYLE
1002
{
1070
   173
1070
     1
1070
     6
1000
_OPEN
1070
     7
1000
_OPEN
1070
    41
1040
4.000000
1070
   287
1070
     0
1002
}
  0
DIMENSION
  5
190
100
AcDbEntity
  8
MAIN0
  6
CONTINUOUS
 62
3
100
AcDbDimension
  2
*D16
 10
814.6348816000289
 20
273.2751336999207
 30
0.0000000000000000
 11
814.1348816000289
 21
288.2751336999207
 31
0.0000000000000000
 70
32
  3
MAIN001
100
AcDbAlignedDimension
 13
791.7567715858895
 23
303.2751336999207
 33
0.0000000000000000
 14
791.7567715858895
 24
273.2751336999207
 34
0.0000000000000000
 50
90.00000000000000
100
AcDbRotatedDimension
1001
ACAD
1000
DSTYLE
1002
{
1070
   173
1070
     1
1070
     6
1000
_OPEN
1070
     7
1000
_OPEN
1070
    41
1040
4.000000
1002
}
  0
DIMENSION
  5
199
100
AcDbEntity
  8
MAIN0
  6
CONTINUOUS
 62
3
100
AcDbDimension
  2
*D17
 10
814.6348816000286
 20
303.2751336999207
 30
0.0000000000000000
 11
814.1348816000286
 21
323.2751336999207
 31
0.0000000000000000
 70
32
  3
MAIN001
100
AcDbAlignedDimension
 13
791.7567715858895
 23
343.2751336999207
 33
0.0000000000000000
 14
791.7567715858895
 24
303.2751336999207
 34
0.0000000000000000
 50
90.00000000000000
100
AcDbRotatedDimension
1001
ACAD
1000
DSTYLE
1002
{
1070
   173
1070
     1
1070
     6
1000
_OPEN
1070
     7
1000
_OPEN
1070
    41
1040
4.000000
1002
}
  0
DIMENSION
  5
1A4
100
AcDbEntity
  8
MAIN0
  6
CONTINUOUS
 62
3
100
AcDbDimension
  2
*D18
 10
791.7567715858895
 20
231.7849884096767
 30
0.0000000000000000
 11
803.3846001166849
 21
232.7849884096767
 31
0.0000000000000000
 70
160
  3
MAIN001
100
AcDbAlignedDimension
 13
786.2567715858895
 23
273.2751336999207
 33
0.0000000000000000
 14
791.7567715858895
 24
258.2751336999208
 34
0.0000000000000000
100
AcDbRotatedDimension
1001
ACAD
1000
DSTYLE
1002
{
1070
   173
1070
     1
1070
     6
1000
_OPEN
1070
     7
1000
_OPEN
1070
    41
1040
4.000000
1070
   287
1070
     0
1002
}
  0
DIMENSION
  5
1AE
100
AcDbEntity
  8
MAIN0
  6
CONTINUOUS
 62
3
100
AcDbDimension
  2
*D19
 10
616.2712548367351
 20
285.7751336999207
 30
0.0000000000000000
 11
615.2712548367351
 21
293.0090711079386
 31
0.0000000000000000
 70
160
  3
MAIN001
100
AcDbAlignedDimension
 13
631.2567715858897
 23
280.7751336999207
 33
0.0000000000000000
 14
659.2567715858897
 24
285.7751336999207
 34
0.0000000000000000
 50
90.00000000000000
100
AcDbRotatedDimension
1001
ACAD
1000
DSTYLE
1002
{
1070
   173
1070
     1
1070
     6
1000
_DOT
1070
     7
1000
_OPEN
1070
    41
1040
4.000000
1070
   287
1070
     0
1002
}
  0
DIMENSION
  5
1B8
100
AcDbEntity
  8
MAIN0
  6
CONTINUOUS
 62
3
100
AcDbDimension
  2
*D20
 10
616.2712548367351
 20
280.7751336999207
 30
0.0000000000000000
 11
615.7712548367351
 21
269.5251336999207
 31
0.0000000000000000
 70
32
  3
MAIN001
100
AcDbAlignedDimension
 13
632.6567715857646
 23
258.2751336999207
 33
0.0000000000000000
 14
631.2567715858897
 24
280.7751336999207
 34
0.0000000000000000
 50
90.00000000000000
100
AcDbRotatedDimension
1001
ACAD
1000
DSTYLE
1002
{
1070
   173
1070
     1
1070
     6
1000
_OPEN
1070
     7
1000
_DOT
1070
    41
1040
4.000000
1070
   287
1070
     0
1002
}
  0
DIMENSION
  5
1C2
100
AcDbEntity
  8
MAIN0
  6
CONTINUOUS
 62
1
100
AcDbDimension
  2
*D21
 10
690.7567715858895
 20
231.7849884096767
 30
0.0000000000000000
 11
706.1280922416026
 21
232.7849884096767
 31
0.0000000000000000
 70
160
  1
\A1;14～26
  3
MAIN001
100
AcDbAlignedDimension
 13
671.2567715858897
 23
169.8766337310737
 33
0.0000000000000000
 14
690.7567715858895
 24
258.2751336999208
 34
0.0000000000000000
100
AcDbRotatedDimension
1001
ACAD
1000
DSTYLE
1002
{
1070
   173
1070
     1
1070
     6
1000
_OPEN
1070
     7
1000
_OPEN
1070
    41
1040
4.000000
1070
   287
1070
     0
1070
   340
1005
1C3
1002
}
  0
DIMENSION
  5
1CB
100
AcDbEntity
  8
MAIN0
  6
CONTINUOUS
 62
3
100
AcDbDimension
  2
*D22
 10
478.6262206998462
 20
311.2751336999207
 30
0.0000000000000000
 11
478.1262206998462
 21
401.2751336999207
 31
0.0000000000000000
 70
32
  3
MAIN001
100
AcDbAlignedDimension
 13
526.1165947589079
 23
491.2751336999207
 33
0.0000000000000000
 14
380.8231878280502
 24
311.2751336999207
 34
0.0000000000000000
 50
90.00000000000000
100
AcDbRotatedDimension
1001
ACAD
1000
DSTYLE
1002
{
1070
   173
1070
     1
1070
     6
1000
_OPEN
1070
     7
1000
_OPEN
1070
    41
1040
4.000000
1002
}
  0
DIMENSION
  5
1D4
100
AcDbEntity
  8
MAIN0
  6
CONTINUOUS
 62
3
100
AcDbDimension
  2
*D23
 10
791.0067715858895
 20
405.7985612495054
 30
0.0000000000000000
 11
741.2567715858897
 21
406.2985612495054
 31
0.0000000000000000
 70
32
  3
MAIN001
100
AcDbAlignedDimension
 13
691.5067715858897
 23
378.2751336999207
 33
0.0000000000000000
 14
791.0067715858895
 24
378.2751336999207
 34
0.0000000000000000
100
AcDbRotatedDimension
1001
ACAD
1000
DSTYLE
1002
{
1070
   173
1070
     1
1070
     6
1000
_OPEN
1070
     7
1000
_OPEN
1070
    41
1040
4.000000
1002
}
  0
ARC
  5
1D5
100
AcDbEntity
  8
MAIN0
  6
CONTINUOUS
 62
3
100
AcDbCircle
 10
741.2567715858897
 20
311.2751336999207
 30
0.0000000000000000
 40
50.50000000000000
100
AcDbArc
 50
206.9895755505047
 51
333.0104244494945
  0
ARC
  5
1D6
100
AcDbEntity
  8
MAIN0
  6
CONTINUOUS
 62
3
100
AcDbCircle
 10
741.2567715858897
 20
311.2751336999207
 30
0.0000000000000000
 40
50.50000000000000
100
AcDbArc
 50
350.8850420461735
 51
399.3209191978384
  0
ARC
  5
1D7
100
AcDbEntity
  8
MAIN0
  6
CONTINUOUS
 62
3
100
AcDbCircle
 10
741.2567715858897
 20
311.2751336999207
 30
0.0000000000000000
 40
50.50000000000000
100
AcDbArc
 50
140.6790808021617
 51
189.1149579538266
  0
CIRCLE
  5
1D8
100
AcDbEntity
  8
MAIN0
  6
CONTINUOUS
 62
3
100
AcDbCircle
 10
741.2567715858897
 20
311.2751336999207
 30
0.0000000000000000
 40
24.75000000000000
  0
LINE
  5
1D9
100
AcDbEntity
  8
MAIN0
  6
CONTINUOUS
 62
3
100
AcDbLine
 10
764.2513361610236
 20
342.7751336999207
 30
0.0000000000000000
 11
718.2622070107559
 21
342.7751336999207
 31
0.0000000000000000
  0
LINE
  5
1DA
100
AcDbEntity
  8
MAIN0
  6
CONTINUOUS
 62
3
100
AcDbLine
 10
767.3335812067003
 20
282.2751336999207
 30
0.0000000000000000
 11
715.1799619650792
 21
282.2751336999207
 31
0.0000000000000000
  0
ARC
  5
1DB
100
AcDbEntity
  8
MAIN0
  6
CONTINUOUS
 62
3
100
AcDbCircle
 10
741.2567715858897
 20
311.2751336999207
 30
0.0000000000000000
 40
39.00000000000000
100
AcDbArc
 50
126.1289274719382
 51
228.0381111716486
  0
ARC
  5
1DC
100
AcDbEntity
  8
MAIN0
  6
CONTINUOUS
 62
3
100
AcDbCircle
 10
741.2567715858897
 20
311.2751336999207
 30
0.0000000000000000
 40
39.00000000000000
100
AcDbArc
 50
311.9618888283515
 51
413.8710725280618
  0
CIRCLE
  5
1DD
100
AcDbEntity
  8
MAIN0
  6
CONTINUOUS
 62
3
100
AcDbCircle
 10
741.2567715858897
 20
311.2751336999207
 30
0.0000000000000000
 40
14.00000000000000
  0
ARC
  5
1DE
100
AcDbEntity
  8
MAIN0
  6
CONTINUOUS
 62
3
100
AcDbCircle
 10
708.3478062420827
 20
330.2751336999232
 30
0.0000000000000000
 40
6.500000000000000
100
AcDbArc
 50
64.03375311410476
 51
235.9662468858865
  0
LINE
  5
1DF
100
AcDbEntity
  8
MAIN0
  6
CONTINUOUS
 62
3
100
AcDbLine
 10
708.3478062420825
 20
333.7392353150611
 30
0.0000000000000000
 11
705.3478062420825
 21
332.0071845074924
 31
0.0000000000000000
  0
LINE
  5
1E0
100
AcDbEntity
  8
MAIN0
  6
CONTINUOUS
 62
3
100
AcDbLine
 10
705.3478062420825
 20
328.5430828923545
 30
0.0000000000000000
 11
705.3478062420825
 21
332.0071845074925
 31
0.0000000000000000
  0
LINE
  5
1E1
100
AcDbEntity
  8
MAIN0
  6
CONTINUOUS
 62
3
100
AcDbLine
 10
709.0818551049258
 20
333.3154320065002
 30
0.0000000000000000
 11
708.3478062420825
 21
333.7392353150611
 31
0.0000000000000000
  0
LINE
  5
1E2
100
AcDbEntity
  8
MAIN0
  6
CONTINUOUS
 62
3
100
AcDbLine
 10
706.0818551049254
 20
328.1192795837937
 30
0.0000000000000000
 11
705.3478062420825
 21
328.5430828923545
 31
0.0000000000000000
  0
ARC
  5
1E3
100
AcDbEntity
  8
MAIN0
  6
CONTINUOUS
 62
3
100
AcDbCircle
 10
708.3478062420827
 20
292.2751336999182
 30
0.0000000000000000
 40
6.500000000000000
100
AcDbArc
 50
124.0337531141136
 51
295.9662468858953
  0
LINE
  5
1E4
100
AcDbEntity
  8
MAIN0
  6
CONTINUOUS
 62
3
100
AcDbLine
 10
708.3478062420825
 20
288.8110320847803
 30
0.0000000000000000
 11
705.3478062420825
 21
290.5430828923491
 31
0.0000000000000000
  0
LINE
  5
1E5
100
AcDbEntity
  8
MAIN0
  6
CONTINUOUS
 62
3
100
AcDbLine
 10
705.3478062420825
 20
294.0071845074870
 30
0.0000000000000000
 11
705.3478062420825
 21
290.5430828923489
 31
0.0000000000000000
  0
LINE
  5
1E6
100
AcDbEntity
  8
MAIN0
  6
CONTINUOUS
 62
3
100
AcDbLine
 10
709.0818551049256
 20
289.2348353933413
 30
0.0000000000000000
 11
708.3478062420825
 21
288.8110320847803
 31
0.0000000000000000
  0
LINE
  5
1E7
100
AcDbEntity
  8
MAIN0
  6
CONTINUOUS
 62
3
100
AcDbLine
 10
706.0818551049256
 20
294.4309878160478
 30
0.0000000000000000
 11
705.3478062420827
 21
294.0071845074870
 31
0.0000000000000000
  0
ARC
  5
1E8
100
AcDbEntity
  8
MAIN0
  6
CONTINUOUS
 62
3
100
AcDbCircle
 10
774.1657369296968
 20
292.2751336999181
 30
0.0000000000000000
 40
6.500000000000000
100
AcDbArc
 50
244.0337531141046
 51
415.9662468858862
  0
LINE
  5
1E9
100
AcDbEntity
  8
MAIN0
  6
CONTINUOUS
 62
3
100
AcDbLine
 10
774.1657369296968
 20
288.8110320847803
 30
0.0000000000000000
 11
777.1657369296968
 21
290.5430828923490
 31
0.0000000000000000
  0
LINE
  5
1EA
100
AcDbEntity
  8
MAIN0
  6
CONTINUOUS
 62
3
100
AcDbLine
 10
777.1657369296966
 20
294.0071845074869
 30
0.0000000000000000
 11
777.1657369296966
 21
290.5430828923488
 31
0.0000000000000000
  0
LINE
  5
1EB
100
AcDbEntity
  8
MAIN0
  6
CONTINUOUS
 62
3
100
AcDbLine
 10
773.4316880668534
 20
289.2348353933413
 30
0.0000000000000000
 11
774.1657369296968
 21
288.8110320847803
 31
0.0000000000000000
  0
LINE
  5
1EC
100
AcDbEntity
  8
MAIN0
  6
CONTINUOUS
 62
3
100
AcDbLine
 10
776.4316880668537
 20
294.4309878160476
 30
0.0000000000000000
 11
777.1657369296968
 21
294.0071845074868
 31
0.0000000000000000
  0
LINE
  5
1ED
100
AcDbEntity
  8
MAIN0
  6
CONTINUOUS
 62
3
100
AcDbLine
 10
695.2567715858900
 20
302.1751336999207
 30
0.0000000000000000
 11
695.2567715858900
 21
300.9751336999207
 31
0.0000000000000000
  0
LINE
  5
1EE
100
AcDbEntity
  8
MAIN0
  6
CONTINUOUS
 62
3
100
AcDbLine
 10
691.0567715858899
 20
302.1751336999207
 30
0.0000000000000000
 11
695.2567715858900
 21
302.1751336999207
 31
0.0000000000000000
  0
LINE
  5
1EF
100
AcDbEntity
  8
MAIN0
  6
CONTINUOUS
 62
3
100
AcDbLine
 10
787.2567715858900
 20
302.1751336999207
 30
0.0000000000000000
 11
791.4567715858898
 21
302.1751336999207
 31
0.0000000000000000
  0
LINE
  5
1F0
100
AcDbEntity
  8
MAIN0
  6
CONTINUOUS
 62
3
100
AcDbLine
 10
690.2567715858900
 20
300.9751336999207
 30
0.0000000000000000
 11
695.2567715858900
 21
300.9751336999207
 31
0.0000000000000000
  0
LINE
  5
1F1
100
AcDbEntity
  8
MAIN0
  6
CONTINUOUS
 62
3
100
AcDbLine
 10
787.2567715858900
 20
300.9751336999207
 30
0.0000000000000000
 11
792.2567715858900
 21
300.9751336999207
 31
0.0000000000000000
  0
LINE
  5
1F2
100
AcDbEntity
  8
MAIN0
  6
CONTINUOUS
 62
3
100
AcDbLine
 10
690.4567715858900
 20
343.2751336999207
 30
0.0000000000000000
 11
792.0567715858899
 21
343.2751336999207
 31
0.0000000000000000
  0
ARC
  5
1F3
100
AcDbEntity
  8
MAIN0
  6
CONTINUOUS
 62
3
100
AcDbCircle
 10
792.2567715858900
 20
343.4751336999207
 30
0.0000000000000000
 40
1.000000000000000
100
AcDbArc
 50
0.0000000000000000
 51
89.99999999942553
  0
ARC
  5
1F4
100
AcDbEntity
  8
MAIN0
  6
CONTINUOUS
 62
3
100
AcDbCircle
 10
690.2567715858900
 20
343.4751336999207
 30
0.0000000000000000
 40
1.000000000000000
100
AcDbArc
 50
89.99999999942553
 51
179.9999999999964
  0
LINE
  5
1F5
100
AcDbEntity
  8
MAIN0
  6
CONTINUOUS
 62
3
100
AcDbLine
 10
793.2567715858900
 20
343.4751336999207
 30
0.0000000000000000
 11
793.2567715858900
 21
301.9751336999207
 31
0.0000000000000000
  0
LINE
  5
1F6
100
AcDbEntity
  8
MAIN0
  6
CONTINUOUS
 62
3
100
AcDbLine
 10
792.0567715858899
 20
343.2751336999207
 30
0.0000000000000000
 11
792.0567715858899
 21
302.7751336999207
 31
0.0000000000000000
  0
LINE
  5
1F7
100
AcDbEntity
  8
MAIN0
  6
CONTINUOUS
 62
3
100
AcDbLine
 10
690.4567715858900
 20
343.2751336999207
 30
0.0000000000000000
 11
690.4567715858900
 21
302.7751336999207
 31
0.0000000000000000
  0
LINE
  5
1F8
100
AcDbEntity
  8
MAIN0
  6
CONTINUOUS
 62
3
100
AcDbLine
 10
689.2567715858900
 20
343.4751336999207
 30
0.0000000000000000
 11
689.2567715858900
 21
301.9751336999207
 31
0.0000000000000000
  0
LINE
  5
1F9
100
AcDbEntity
  8
MAIN0
  6
CONTINUOUS
 62
3
100
AcDbLine
 10
782.0567715858899
 20
343.2751336999207
 30
0.0000000000000000
 11
792.0567715858899
 21
325.9546256242381
 31
0.0000000000000000
  0
LINE
  5
1FA
100
AcDbEntity
  8
MAIN0
  6
CONTINUOUS
 62
3
100
AcDbLine
 10
690.4567715858898
 20
325.9546256242415
 30
0.0000000000000000
 11
700.4567715858898
 21
343.2751336999206
 31
0.0000000000000000
  0
ARC
  5
1FB
100
AcDbEntity
  8
MAIN0
  6
CONTINUOUS
 62
3
100
AcDbCircle
 10
791.4567715858900
 20
302.7751336999207
 30
0.0000000000000000
 40
0.6000000000000000
100
AcDbArc
 50
270.0000000005678
 51
359.9999999999934
  0
ARC
  5
1FC
100
AcDbEntity
  8
MAIN0
  6
CONTINUOUS
 62
3
100
AcDbCircle
 10
691.0567715858899
 20
302.7751336999207
 30
0.0000000000000000
 40
0.6000000000000000
100
AcDbArc
 50
179.9999999999964
 51
270.0000000005678
  0
ARC
  5
1FD
100
AcDbEntity
  8
MAIN0
  6
CONTINUOUS
 62
3
100
AcDbCircle
 10
690.2567715858900
 20
301.9751336999207
 30
0.0000000000000000
 40
1.000000000000000
100
AcDbArc
 50
179.9999999999964
 51
270.0000000005678
  0
ARC
  5
1FE
100
AcDbEntity
  8
MAIN0
  6
CONTINUOUS
 62
3
100
AcDbCircle
 10
792.2567715858900
 20
301.9751336999207
 30
0.0000000000000000
 40
1.000000000000000
100
AcDbArc
 50
270.0000000005678
 51
359.9999999999934
  0
LINE
  5
1FF
100
AcDbEntity
  8
MAIN0
  6
CONTINUOUS
 62
3
100
AcDbLine
 10
787.2567715858900
 20
302.1751336999207
 30
0.0000000000000000
 11
787.2567715858900
 21
300.9751336999207
 31
0.0000000000000000
  0
LINE
  5
200
100
AcDbEntity
  8
MAIN0
  6
CONTINUOUS
 62
3
100
AcDbLine
 10
306.6685746483963
 20
378.2751336999207
 30
0.0000000000000000
 11
306.6685746483963
 21
302.9751336999207
 31
0.0000000000000000
  0
LINE
  5
201
100
AcDbEntity
  8
MAIN0
  6
CONTINUOUS
 62
3
100
AcDbLine
 10
380.6685746483964
 20
353.4751336999207
 30
0.0000000000000000
 11
380.6685746483963
 21
302.9751336999207
 31
0.0000000000000000
  0
ARC
  5
202
100
AcDbEntity
  8
MAIN0
  6
CONTINUOUS
 62
3
100
AcDbCircle
 10
379.6685746483964
 20
353.4751336999207
 30
0.0000000000000000
 40
1.000000000000000
100
AcDbArc
 50
0.0000000000000000
 51
89.99999999999838
  0
ARC
  5
203
100
AcDbEntity
  8
MAIN0
  6
CONTINUOUS
 62
3
100
AcDbCircle
 10
307.6685746483963
 20
353.4751336999207
 30
0.0000000000000000
 40
1.000000000000000
100
AcDbArc
 50
89.99999999999838
 51
179.9999999999964
  0
LINE
  5
204
100
AcDbEntity
  8
MAIN0
  6
CONTINUOUS
 62
3
100
AcDbLine
 10
307.6685744472437
 20
354.4751336999207
 30
0.0000000000000000
 11
379.6685746483964
 21
354.4751336999207
 31
0.0000000000000000
  0
LINE
  5
205
100
AcDbEntity
  8
MAIN0
  6
CONTINUOUS
 62
3
100
AcDbLine
 10
308.6685746483963
 20
300.9751336999207
 30
0.0000000000000000
 11
380.6685746483962
 21
300.9751336999207
 31
0.0000000000000000
  0
LINE
  5
206
100
AcDbEntity
  8
MAIN0
  6
CONTINUOUS
 62
3
100
AcDbLine
 10
380.6685746483962
 20
302.9751336999207
 30
0.0000000000000000
 11
378.6685746483962
 21
300.9751336999207
 31
0.0000000000000000
  0
LINE
  5
207
100
AcDbEntity
  8
MAIN0
  6
CONTINUOUS
 62
3
100
AcDbLine
 10
306.6685746483963
 20
302.9751336999207
 30
0.0000000000000000
 11
308.6685746483963
 21
300.9751336999207
 31
0.0000000000000000
  0
LINE
  5
208
100
AcDbEntity
  8
MAIN0
  6
CONTINUOUS
 62
3
100
AcDbLine
 10
408.6685746483969
 20
300.9751336999208
 30
0.0000000000000000
 11
408.6685746483970
 21
260.7751336999164
 31
0.0000000000000000
  0
LINE
  5
209
100
AcDbEntity
  8
MAIN0
  6
CONTINUOUS
 62
3
100
AcDbLine
 10
408.6685746483969
 20
282.2751336999207
 30
0.0000000000000000
 11
433.6685746483969
 21
282.2751336999207
 31
0.0000000000000000
  0
LINE
  5
20A
100
AcDbEntity
  8
MAIN0
  6
CONTINUOUS
 62
3
100
AcDbLine
 10
306.6685746483964
 20
482.7751498089743
 30
0.0000000000000000
 11
380.6685746483964
 21
482.7751498089743
 31
0.0000000000000000
  0
LINE
  5
20B
100
AcDbEntity
  8
MAIN0
  6
CONTINUOUS
 62
3
100
AcDbLine
 10
306.6685746483965
 20
589.7751498089743
 30
0.0000000000000000
 11
380.6685746483965
 21
589.7751498089743
 31
0.0000000000000000
  0
LINE
  5
20C
100
AcDbEntity
  8
MAIN0
  6
CONTINUOUS
 62
3
100
AcDbLine
 10
380.6685746483964
 20
484.2751498089743
 30
0.0000000000000000
 11
413.1685746483965
 21
484.2751498089743
 31
0.0000000000000000
  0
LINE
  5
20D
100
AcDbEntity
  8
MAIN0
  6
CONTINUOUS
 62
3
100
AcDbLine
 10
380.6685746483965
 20
588.2751498089743
 30
0.0000000000000000
 11
413.1685746483968
 21
588.2751498089743
 31
0.0000000000000000
  0
LINE
  5
20E
100
AcDbEntity
  8
MAIN0
  6
CONTINUOUS
 62
3
100
AcDbLine
 10
380.6685746483965
 20
589.7751498089743
 30
0.0000000000000000
 11
380.6685746483964
 21
482.7751498089743
 31
0.0000000000000000
  0
LINE
  5
20F
100
AcDbEntity
  8
MAIN0
  6
CONTINUOUS
 62
3
100
AcDbLine
 10
178.6685746483965
 20
586.0251498089743
 30
0.0000000000000000
 11
178.6685746483965
 21
486.5251498089743
 31
0.0000000000000000
  0
LINE
  5
210
100
AcDbEntity
  8
MAIN0
  6
CONTINUOUS
 62
3
100
AcDbLine
 10
433.6685746483960
 20
561.2751498089743
 30
0.0000000000000000
 11
456.1685746483965
 21
561.2751498089743
 31
0.0000000000000000
  0
LINE
  5
211
100
AcDbEntity
  8
MAIN0
  6
CONTINUOUS
 62
3
100
AcDbLine
 10
433.6685746483963
 20
511.2751498089743
 30
0.0000000000000000
 11
456.1685746483965
 21
511.2751498089743
 31
0.0000000000000000
  0
LINE
  5
212
100
AcDbEntity
  8
MAIN0
  6
CONTINUOUS
 62
3
100
AcDbLine
 10
178.6685746483965
 20
563.2751498089743
 30
0.0000000000000000
 11
242.6685746483965
 21
563.2751498089743
 31
0.0000000000000000
  0
LINE
  5
213
100
AcDbEntity
  8
MAIN0
  6
CONTINUOUS
 62
3
100
AcDbLine
 10
426.6685746483968
 20
336.2751336999207
 30
0.0000000000000000
 11
426.6685746483969
 21
282.2751336999207
 31
0.0000000000000000
  0
LINE
  5
214
100
AcDbEntity
  8
MAIN0
  6
CONTINUOUS
 62
3
100
AcDbLine
 10
424.6685746483968
 20
336.2751336999207
 30
0.0000000000000000
 11
424.6685746483969
 21
282.2751336999207
 31
0.0000000000000000
  0
CIRCLE
  5
215
100
AcDbEntity
  8
MAIN0
  6
CONTINUOUS
 62
3
100
AcDbCircle
 10
188.6685746483965
 20
536.2751498089743
 30
0.0000000000000000
 40
3.000000000000000
  0
LINE
  5
216
100
AcDbEntity
  8
MAIN0
  6
CONTINUOUS
 62
3
100
AcDbLine
 10
178.6685746483965
 20
509.2751498089743
 30
0.0000000000000000
 11
242.6685746483965
 21
509.2751498089743
 31
0.0000000000000000
  0
LINE
  5
217
100
AcDbEntity
  8
MAIN0
  6
CONTINUOUS
 62
3
100
AcDbLine
 10
105.6685746483964
 20
586.0251498089743
 30
0.0000000000000000
 11
178.6685746483965
 21
586.0251498089743
 31
0.0000000000000000
  0
LINE
  5
218
100
AcDbEntity
  8
MAIN0
  6
CONTINUOUS
 62
3
100
AcDbLine
 10
242.6685746483965
 20
586.0251498089743
 30
0.0000000000000000
 11
306.6685746483965
 21
586.0251498089743
 31
0.0000000000000000
  0
LINE
  5
219
100
AcDbEntity
  8
MAIN0
  6
CONTINUOUS
 62
3
100
AcDbLine
 10
105.6685746483965
 20
486.5251498089743
 30
0.0000000000000000
 11
178.6685746483965
 21
486.5251498089743
 31
0.0000000000000000
  0
LINE
  5
21A
100
AcDbEntity
  8
MAIN0
  6
CONTINUOUS
 62
3
100
AcDbLine
 10
242.6685746483965
 20
486.5251498089743
 30
0.0000000000000000
 11
306.6685746483964
 21
486.5251498089743
 31
0.0000000000000000
  0
DIMENSION
  5
223
100
AcDbEntity
  8
MAIN0
  6
CONTINUOUS
 62
3
100
AcDbDimension
  2
*D24
 10
687.7567715858900
 20
436.1628038013471
 30
0.0000000000000000
 11
741.2567715858900
 21
436.6628038013471
 31
0.0000000000000000
 70
32
  3
MAIN001
100
AcDbAlignedDimension
 13
794.7567715858900
 23
353.4751336999208
 33
0.0000000000000000
 14
687.7567715858900
 24
353.4751336999208
 34
0.0000000000000000
100
AcDbRotatedDimension
1001
ACAD
1000
DSTYLE
1002
{
1070
   173
1070
     1
1070
     6
1000
_OPEN
1070
     7
1000
_OPEN
1070
    41
1040
4.000000
1002
}
  0
LINE
  5
224
100
AcDbEntity
  8
MAIN0
  6
CONTINUOUS
 62
3
100
AcDbLine
 10
377.6685746483966
 20
288.3568004273047
 30
0.0000000000000000
 11
408.6685746483970
 21
288.3568004272968
 31
0.0000000000000000
  0
LINE
  5
225
100
AcDbEntity
  8
MAIN0
  6
CONTINUOUS
 62
3
100
AcDbLine
 10
377.6685746483967
 20
260.7751336999160
 30
0.0000000000000000
 11
408.6685746483971
 21
260.7751336999164
 31
0.0000000000000000
  0
LINE
  5
226
100
AcDbEntity
  8
MAIN0
  6
CENTER
 62
3
100
AcDbLine
 10
774.2567715861369
 20
317.9229795653829
 30
0.0000000000000000
 11
774.2567715861123
 21
303.4934502604607
 31
0.0000000000000000
  0
LINE
  5
227
100
AcDbEntity
  8
MAIN0
  6
CENTER
 62
3
100
AcDbLine
 10
708.2567715861130
 20
317.9229795654855
 30
0.0000000000000000
 11
708.2567715860910
 21
303.4934502605634
 31
0.0000000000000000
  0
LINE
  5
228
100
AcDbEntity
  8
MAIN0
  6
CENTER
 62
3
100
AcDbLine
 10
188.6685746483964
 20
528.9270617853720
 30
0.0000000000000000
 11
188.6685746483964
 21
541.8274200760134
 31
0.0000000000000000
  0
LINE
  5
229
100
AcDbEntity
  8
MAIN0
  6
CENTER
 62
3
100
AcDbLine
 10
159.6685746484443
 20
509.9940591597908
 30
0.0000000000000000
 11
159.6685746484511
 21
488.5629483386218
 31
0.0000000000000000
  0
LINE
  5
22A
100
AcDbEntity
  8
MAIN0
  6
CENTER
 62
3
100
AcDbLine
 10
159.6685746484208
 20
583.9095354405142
 30
0.0000000000000000
 11
159.6685746484277
 21
562.2597347927253
 31
0.0000000000000000
  0
LINE
  5
22B
100
AcDbEntity
  8
MAIN0
  6
CENTER
 62
3
100
AcDbLine
 10
124.6685746484138
 20
510.4314304708698
 30
0.0000000000000000
 11
124.6685746484164
 21
488.7816298230795
 31
0.0000000000000000
  0
LINE
  5
22C
100
AcDbEntity
  8
MAIN0
  6
CENTER
 62
3
100
AcDbLine
 10
124.6685746484053
 20
583.9095354405156
 30
0.0000000000000000
 11
124.6685746484078
 21
562.9157959304250
 31
0.0000000000000000
  0
LINE
  5
22D
100
AcDbEntity
  8
MAIN0
  6
CENTER
 62
3
100
AcDbLine
 10
112.9639419670984
 20
498.2751498087202
 30
0.0000000000000000
 11
136.8005887425710
 21
498.2751498087451
 31
0.0000000000000000
  0
LINE
  5
22E
100
AcDbEntity
  8
MAIN0
  6
CENTER
 62
3
100
AcDbLine
 10
146.8600871865401
 20
498.2751498087556
 30
0.0000000000000000
 11
172.0088416386208
 21
498.2751498087819
 31
0.0000000000000000
  0
LINE
  5
22F
100
AcDbEntity
  8
MAIN0
  6
CENTER
 62
3
100
AcDbLine
 10
112.5265727415468
 20
574.2751498086334
 30
0.0000000000000000
 11
136.5819030870350
 21
574.2751498086670
 31
0.0000000000000000
  0
LINE
  5
230
100
AcDbEntity
  8
MAIN0
  6
CENTER
 62
3
100
AcDbLine
 10
147.7348298086978
 20
574.2751498086827
 30
0.0000000000000000
 11
171.5714703275278
 21
574.2751498087162
 31
0.0000000000000000
  0
LINE
  5
231
100
AcDbEntity
  8
MAIN0
  6
CENTER
 62
3
100
AcDbLine
 10
246.3319850308598
 20
554.7751498088142
 30
0.0000000000000000
 11
269.3235954692721
 21
554.7751498087986
 31
0.0000000000000000
  0
LINE
  5
232
100
AcDbEntity
  8
MAIN0
  6
CENTER
 62
3
100
AcDbLine
 10
279.6017753976959
 20
554.7751498087916
 30
0.0000000000000000
 11
303.2197427742532
 21
554.7751498087756
 31
0.0000000000000000
  0
LINE
  5
233
100
AcDbEntity
  8
MAIN0
  6
CENTER
 62
3
100
AcDbLine
 10
246.3319850308466
 20
517.7751498087023
 30
0.0000000000000000
 11
269.3235954692755
 21
517.7751498086941
 31
0.0000000000000000
  0
LINE
  5
234
100
AcDbEntity
  8
MAIN0
  6
CENTER
 62
3
100
AcDbLine
 10
279.8204568821572
 20
517.7751498086903
 30
0.0000000000000000
 11
303.6571057431718
 21
517.7751498086818
 31
0.0000000000000000
  0
LINE
  5
235
100
AcDbEntity
  8
MAIN0
  6
CENTER
 62
3
100
AcDbLine
 10
292.1685746484091
 20
529.4570115943513
 30
0.0000000000000000
 11
292.1685746484380
 21
506.7137868399452
 31
0.0000000000000000
  0
LINE
  5
236
100
AcDbEntity
  8
MAIN0
  6
CENTER
 62
3
100
AcDbLine
 10
292.1685746483618
 20
566.6334312191692
 30
0.0000000000000000
 11
292.1685746483915
 21
543.2341620113980
 31
0.0000000000000000
  0
LINE
  5
237
100
AcDbEntity
  8
MAIN0
  6
CENTER
 62
3
100
AcDbLine
 10
257.1685746483444
 20
529.2383217677336
 30
0.0000000000000000
 11
257.1685746483592
 21
506.4951053554966
 31
0.0000000000000000
  0
LINE
  5
238
100
AcDbEntity
  8
MAIN0
  6
CENTER
 62
3
100
AcDbLine
 10
257.1685746483203
 20
566.4147497347171
 30
0.0000000000000000
 11
257.1685746483350
 21
543.6715249803149
 31
0.0000000000000000
  0
LINE
  5
239
100
AcDbEntity
  8
MAIN0
  6
CENTER
 62
3
100
AcDbLine
 10
142.1685746483965
 20
543.7089702907701
 30
0.0000000000000000
 11
142.1685746483965
 21
526.5668839870880
 31
0.0000000000000000
  0
LINE
  5
23A
100
AcDbEntity
  8
MAIN0
  6
CENTER
 62
3
100
AcDbLine
 10
142.1685746483965
 20
589.2213146441612
 30
0.0000000000000000
 11
142.1685746483965
 21
566.9410137333397
 31
0.0000000000000000
  0
LEADER
  5
23B
100
AcDbEntity
  8
MAIN0
  6
CONTINUOUS
 62
3
100
AcDbLeader
  3
MAIN001
 73
     0
 75
     1
 40
6.199999809265137
 41
55.03900163078309
 76
     3
 10
139.7650135337427
 20
539.4724758743178
 30
0.0000000000000000
 10
131.1472570552087
 20
605.0714019440195
 30
0.0000000000000000
 10
127.2942571667886
 20
605.0714019440195
 30
0.0000000000000000
340
23C
213
0.0000000000000000
223
-1.000000000000000
233
0.0000000000000000
1001
ACAD
1000
DSTYLE
1002
{
1070
   147
1040
0.0
1070
    77
1070
     1
1070
   173
1070
     1
1070
     6
1000
_OPEN
1070
     7
1000
_OPEN
1002
}
  0
MTEXT
  5
23C
102
{ACAD_REACTORS
330
23B
102
}
100
AcDbEntity
  8
MAIN0
  6
CONTINUOUS
 62
3
100
AcDbMText
 10
72.25525553600555
 20
612.2714017532846
 30
0.0000000000000000
 40
6.199999809265137
 41
0.0000000000000000
 71
     1
 72
     1
  1
{\H0.93x;{(吊りボルト用)\P(EYE BOLT)}}
 11
1.000000000000000
 21
0.0000000000000000
 31
0.0000000000000000
  7
KNJYOKO
  0
LINE
  5
23D
100
AcDbEntity
  8
MAIN0
  6
CENTER
 62
3
100
AcDbLine
 10
274.6685746483965
 20
544.7038313079731
 30
0.0000000000000000
 11
274.6685746483965
 21
528.5776312872201
 31
0.0000000000000000
  0
DIMENSION
  5
246
100
AcDbEntity
  8
MAIN0
  6
CONTINUOUS
 62
3
100
AcDbDimension
  2
*D25
 10
242.6685746483965
 20
449.4032093130245
 30
0.0000000000000000
 11
258.6685746483965
 21
449.9032093130245
 31
0.0000000000000000
 70
32
  3
MAIN001
100
AcDbAlignedDimension
 13
274.6685746483965
 23
528.5776312872201
 33
0.0000000000000000
 14
242.6685746483965
 24
486.5251498089745
 34
0.0000000000000000
100
AcDbRotatedDimension
1001
ACAD
1000
DSTYLE
1002
{
1070
   173
1070
     1
1070
     6
1000
_OPEN
1070
     7
1000
_OPEN
1070
    41
1040
4.000000
1002
}
  0
LINE
  5
247
100
AcDbEntity
  8
MAIN0
  6
PHANTOM
 62
3
100
AcDbLine
 10
688.7567715858895
 20
258.2751336999207
 30
0.0000000000000000
 11
618.8908158788561
 21
258.2751336999207
 31
0.0000000000000000
  0
LINE
  5
248
100
AcDbEntity
  8
MAIN0
  6
CENTER
 62
3
100
AcDbLine
 10
118.6685746483965
 20
562.2751498089787
 30
0.0000000000000000
 11
118.6685746483965
 21
550.2751498089787
 31
0.0000000000000000
  0
LINE
  5
249
100
AcDbEntity
  8
MAIN0
  6
CENTER
 62
3
100
AcDbLine
 10
112.6685746483965
 20
556.2751498089787
 30
0.0000000000000000
 11
124.6685746483965
 21
556.2751498089787
 31
0.0000000000000000
  0
LINE
  5
24A
100
AcDbEntity
  8
MAIN0
  6
CENTER
 62
3
100
AcDbLine
 10
168.6685746483965
 20
562.2751498089693
 30
0.0000000000000000
 11
168.6685746483965
 21
550.2751498089693
 31
0.0000000000000000
  0
LINE
  5
24B
100
AcDbEntity
  8
MAIN0
  6
CENTER
 62
3
100
AcDbLine
 10
162.6685746483965
 20
556.2751498089695
 30
0.0000000000000000
 11
174.6685746483964
 21
556.2751498089693
 31
0.0000000000000000
  0
LINE
  5
24C
100
AcDbEntity
  8
MAIN0
  6
CENTER
 62
3
100
AcDbLine
 10
168.6685746483963
 20
522.2751498089695
 30
0.0000000000000000
 11
168.6685746483963
 21
510.2751498089695
 31
0.0000000000000000
  0
LINE
  5
24D
100
AcDbEntity
  8
MAIN0
  6
CENTER
 62
3
100
AcDbLine
 10
162.6685746483963
 20
516.2751498089695
 30
0.0000000000000000
 11
174.6685746483963
 21
516.2751498089695
 31
0.0000000000000000
  0
LINE
  5
24E
100
AcDbEntity
  8
MAIN0
  6
CENTER
 62
3
100
AcDbLine
 10
118.6685746483964
 20
522.2751498089787
 30
0.0000000000000000
 11
118.6685746483964
 21
510.2751498089787
 31
0.0000000000000000
  0
LINE
  5
24F
100
AcDbEntity
  8
MAIN0
  6
CENTER
 62
3
100
AcDbLine
 10
112.6685746483964
 20
516.2751498089787
 30
0.0000000000000000
 11
124.6685746483964
 21
516.2751498089787
 31
0.0000000000000000
  0
CIRCLE
  5
250
100
AcDbEntity
  8
MAIN0
  6
CONTINUOUS
 62
3
100
AcDbCircle
 10
142.1685746483964
 20
536.2751498089742
 30
0.0000000000000000
 40
4.000000000000000
  0
CIRCLE
  5
251
100
AcDbEntity
  8
MAIN0
  6
CONTINUOUS
 62
3
100
AcDbCircle
 10
142.1685746483964
 20
536.2751498089742
 30
0.0000000000000000
 40
3.400000000000000
  0
CIRCLE
  5
252
100
AcDbEntity
  8
MAIN0
  6
CONTINUOUS
 62
3
100
AcDbCircle
 10
124.6685746483965
 20
574.2751498089776
 30
0.0000000000000000
 40
8.750000000000000
  0
CIRCLE
  5
253
100
AcDbEntity
  8
MAIN0
  6
CONTINUOUS
 62
3
100
AcDbCircle
 10
159.6685746483966
 20
574.2751498089710
 30
0.0000000000000000
 40
8.750000000000000
  0
CIRCLE
  5
254
100
AcDbEntity
  8
MAIN0
  6
CONTINUOUS
 62
3
100
AcDbCircle
 10
124.6685746483964
 20
498.2751498089775
 30
0.0000000000000000
 40
8.750000000000000
  0
CIRCLE
  5
255
100
AcDbEntity
  8
MAIN0
  6
CONTINUOUS
 62
3
100
AcDbCircle
 10
159.6685746483965
 20
498.2751498089711
 30
0.0000000000000000
 40
8.750000000000000
  0
DIMENSION
  5
25E
100
AcDbEntity
  8
MAIN0
  6
CONTINUOUS
 62
3
100
AcDbDimension
  2
*D26
 10
118.6685746483964
 20
465.9074963457838
 30
0.0000000000000000
 11
148.2334679773889
 21
466.9074963457838
 31
0.0000000000000000
 70
160
  3
MAIN001
100
AcDbAlignedDimension
 13
168.6685746483963
 23
510.2751498089695
 33
0.0000000000000000
 14
118.6685746483964
 24
510.2751498089787
 34
0.0000000000000000
100
AcDbRotatedDimension
1001
ACAD
1000
DSTYLE
1002
{
1070
   173
1070
     1
1070
     6
1000
_OPEN
1070
     7
1000
_OPEN
1070
    41
1040
4.000000
1002
}
  0
DIMENSION
  5
269
100
AcDbEntity
  8
MAIN0
  6
CONTINUOUS
 62
3
100
AcDbDimension
  2
*D27
 10
168.6685746483963
 20
465.9074963457838
 30
0.0000000000000000
 11
187.7568752630069
 21
466.9074963457838
 31
0.0000000000000000
 70
160
  3
MAIN001
100
AcDbAlignedDimension
 13
178.6685746483965
 23
486.5251498089743
 33
0.0000000000000000
 14
168.6685746483963
 24
510.2751498089695
 34
0.0000000000000000
100
AcDbRotatedDimension
1001
ACAD
1000
DSTYLE
1002
{
1070
   173
1070
     1
1070
     6
1000
_OPEN
1070
     7
1000
_OPEN
1070
    41
1040
4.000000
1070
   287
1070
     0
1002
}
  0
DIMENSION
  5
272
100
AcDbEntity
  8
MAIN0
  6
CONTINUOUS
 62
3
100
AcDbDimension
  2
*D28
 10
78.64896967979732
 20
516.2751498089787
 30
0.0000000000000000
 11
78.14896967979732
 21
536.2751498089787
 31
0.0000000000000000
 70
32
  3
MAIN001
100
AcDbAlignedDimension
 13
112.6685746483965
 23
556.2751498089787
 33
0.0000000000000000
 14
112.6685746483964
 24
516.2751498089787
 34
0.0000000000000000
 50
90.00000000000000
100
AcDbRotatedDimension
1001
ACAD
1000
DSTYLE
1002
{
1070
   173
1070
     1
1070
     6
1000
_OPEN
1070
     7
1000
_OPEN
1070
    41
1040
4.000000
1002
}
  0
LINE
  5
273
100
AcDbEntity
  8
MAIN0
  6
CENTER
 62
3
100
AcDbLine
 10
298.0685746483964
 20
501.2751498089707
 30
0.0000000000000000
 11
287.2685746483965
 21
501.2751498089707
 31
0.0000000000000000
  0
LINE
  5
274
100
AcDbEntity
  8
MAIN0
  6
CENTER
 62
3
100
AcDbLine
 10
292.6685746483964
 20
495.8751498089707
 30
0.0000000000000000
 11
292.6685746483964
 21
506.6751498089707
 31
0.0000000000000000
  0
CIRCLE
  5
275
100
AcDbEntity
  8
MAIN0
  6
CONTINUOUS
 62
3
100
AcDbCircle
 10
292.1685746483869
 20
517.7751498089700
 30
0.0000000000000000
 40
8.750000000000000
  0
CIRCLE
  5
276
100
AcDbEntity
  8
MAIN0
  6
CONTINUOUS
 62
3
100
AcDbCircle
 10
292.1685746483964
 20
554.7751498089700
 30
0.0000000000000000
 40
8.750000000000000
  0
LINE
  5
277
100
AcDbEntity
  8
MAIN0
  6
CENTER
 62
3
100
AcDbLine
 10
298.0685746483964
 20
571.2751498089706
 30
0.0000000000000000
 11
287.2685746483965
 21
571.2751498089706
 31
0.0000000000000000
  0
LINE
  5
278
100
AcDbEntity
  8
MAIN0
  6
CENTER
 62
3
100
AcDbLine
 10
292.6685746483964
 20
565.8751498089707
 30
0.0000000000000000
 11
292.6685746483964
 21
576.6751498089707
 31
0.0000000000000000
  0
LINE
  5
279
100
AcDbEntity
  8
MAIN0
  6
CENTER
 62
3
100
AcDbLine
 10
252.6685746483964
 20
565.8751498089794
 30
0.0000000000000000
 11
252.6685746483964
 21
576.6751498089793
 31
0.0000000000000000
  0
LINE
  5
27A
100
AcDbEntity
  8
MAIN0
  6
CENTER
 62
3
100
AcDbLine
 10
258.0685746483964
 20
571.2751498089793
 30
0.0000000000000000
 11
247.2685746483965
 21
571.2751498089792
 31
0.0000000000000000
  0
LINE
  5
27B
100
AcDbEntity
  8
MAIN0
  6
CENTER
 62
3
100
AcDbLine
 10
252.6685746483964
 20
495.2751498089793
 30
0.0000000000000000
 11
252.6685746483964
 21
507.2751498089793
 31
0.0000000000000000
  0
LINE
  5
27C
100
AcDbEntity
  8
MAIN0
  6
CENTER
 62
3
100
AcDbLine
 10
258.6685746483964
 20
501.2751498089794
 30
0.0000000000000000
 11
246.6685746483964
 21
501.2751498089793
 31
0.0000000000000000
  0
CIRCLE
  5
27D
100
AcDbEntity
  8
MAIN0
  6
CONTINUOUS
 62
3
100
AcDbCircle
 10
257.1685746483869
 20
517.7751498089787
 30
0.0000000000000000
 40
8.750000000000000
  0
CIRCLE
  5
27E
100
AcDbEntity
  8
MAIN0
  6
CONTINUOUS
 62
3
100
AcDbCircle
 10
257.1685746483964
 20
554.7751498089787
 30
0.0000000000000000
 40
8.750000000000000
  0
CIRCLE
  5
27F
100
AcDbEntity
  8
MAIN0
  6
CONTINUOUS
 62
3
100
AcDbCircle
 10
274.6685746483964
 20
536.2751498089743
 30
0.0000000000000000
 40
3.400000000000000
  0
CIRCLE
  5
280
100
AcDbEntity
  8
MAIN0
  6
CONTINUOUS
 62
3
100
AcDbCircle
 10
274.6685746483964
 20
536.2751498089743
 30
0.0000000000000000
 40
4.000000000000000
  0
DIMENSION
  5
28B
100
AcDbEntity
  8
MAIN0
  6
CONTINUOUS
 62
3
100
AcDbDimension
  2
*D29
 10
242.6685746483965
 20
465.9074963457838
 30
0.0000000000000000
 11
235.0026880251467
 21
466.9074963457838
 31
0.0000000000000000
 70
160
  3
MAIN001
100
AcDbAlignedDimension
 13
252.6685746483964
 23
495.2751498089793
 33
0.0000000000000000
 14
242.6685746483965
 24
486.5251498089745
 34
0.0000000000000000
100
AcDbRotatedDimension
1001
ACAD
1000
DSTYLE
1002
{
1070
   173
1070
     1
1070
     6
1000
_OPEN
1070
     7
1000
_OPEN
1070
    41
1040
4.000000
1070
   287
1070
     0
1002
}
  0
DIMENSION
  5
294
100
AcDbEntity
  8
MAIN0
  6
CONTINUOUS
 62
3
100
AcDbDimension
  2
*D30
 10
252.6685746483964
 20
465.9074963457838
 30
0.0000000000000000
 11
269.7562629380490
 21
466.9074963457838
 31
0.0000000000000000
 70
160
  3
MAIN001
100
AcDbAlignedDimension
 13
292.6685746483964
 23
495.8751498089707
 33
0.0000000000000000
 14
252.6685746483964
 24
495.2751498089793
 34
0.0000000000000000
100
AcDbRotatedDimension
1001
ACAD
1000
DSTYLE
1002
{
1070
   173
1070
     1
1070
     6
1000
_OPEN
1070
     7
1000
_OPEN
1070
    41
1040
4.000000
1002
}
  0
DIMENSION
  5
29D
100
AcDbEntity
  8
MAIN0
  6
CONTINUOUS
 62
3
100
AcDbDimension
  2
*D31
 10
324.8655193145817
 20
501.2751498089707
 30
0.0000000000000000
 11
324.3655193145817
 21
536.2751498089706
 31
0.0000000000000000
 70
32
  3
MAIN001
100
AcDbAlignedDimension
 13
298.0685746483964
 23
571.2751498089706
 33
0.0000000000000000
 14
298.0685746483964
 24
501.2751498089707
 34
0.0000000000000000
 50
90.00000000000000
100
AcDbRotatedDimension
1001
ACAD
1000
DSTYLE
1002
{
1070
   173
1070
     1
1070
     6
1000
_OPEN
1070
     7
1000
_OPEN
1070
    41
1040
4.000000
1002
}
  0
LINE
  5
29E
100
AcDbEntity
  8
MAIN0
  6
CENTER
 62
3
100
AcDbLine
 10
96.34389471236840
 20
536.2751498089743
 30
0.0000000000000000
 11
314.6655195053165
 21
536.2751498089743
 31
0.0000000000000000
  0
LINE
  5
29F
100
AcDbEntity
  8
MAIN0
  6
CENTER
 62
3
100
AcDbLine
 10
326.8655193145817
 20
536.2751498089743
 30
0.0000000000000000
 11
466.4013013414414
 21
536.2751498089743
 31
0.0000000000000000
  0
CIRCLE
  5
2A0
100
AcDbEntity
  8
MAIN0
  6
CONTINUOUS
 62
3
100
AcDbCircle
 10
118.6685746483965
 20
556.2751498089788
 30
0.0000000000000000
 40
4.000000000000000
  0
CIRCLE
  5
2A1
100
AcDbEntity
  8
MAIN0
  6
CONTINUOUS
 62
3
100
AcDbCircle
 10
118.6685746483965
 20
556.2751498089788
 30
0.0000000000000000
 40
3.323417500000000
  0
LINE
  5
2A2
100
AcDbEntity
  8
MAIN0
  6
CONTINUOUS
 62
3
100
AcDbLine
 10
118.6685746483965
 20
558.5845508857371
 30
0.0000000000000000
 11
116.6685746483965
 21
557.4298503473580
 31
0.0000000000000000
  0
LINE
  5
2A3
100
AcDbEntity
  8
MAIN0
  6
CONTINUOUS
 62
3
100
AcDbLine
 10
116.6685746483965
 20
557.4298503473580
 30
0.0000000000000000
 11
116.6685746483965
 21
555.1204492705995
 31
0.0000000000000000
  0
LINE
  5
2A4
100
AcDbEntity
  8
MAIN0
  6
CONTINUOUS
 62
3
100
AcDbLine
 10
116.6685746483965
 20
555.1204492705995
 30
0.0000000000000000
 11
118.6685746483965
 21
553.9657487322203
 31
0.0000000000000000
  0
LINE
  5
2A5
100
AcDbEntity
  8
MAIN0
  6
CONTINUOUS
 62
3
100
AcDbLine
 10
118.6685746483965
 20
553.9657487322203
 30
0.0000000000000000
 11
120.6685746483965
 21
555.1204492705995
 31
0.0000000000000000
  0
LINE
  5
2A6
100
AcDbEntity
  8
MAIN0
  6
CONTINUOUS
 62
3
100
AcDbLine
 10
120.6685746483965
 20
555.1204492705995
 30
0.0000000000000000
 11
120.6685746483965
 21
557.4298503473580
 31
0.0000000000000000
  0
LINE
  5
2A7
100
AcDbEntity
  8
MAIN0
  6
CONTINUOUS
 62
3
100
AcDbLine
 10
120.6685746483965
 20
557.4298503473580
 30
0.0000000000000000
 11
118.6685746483965
 21
558.5845508857371
 31
0.0000000000000000
  0
CIRCLE
  5
2A8
100
AcDbEntity
  8
MAIN0
  6
CONTINUOUS
 62
3
100
AcDbCircle
 10
118.6685746483965
 20
516.2751498089699
 30
0.0000000000000000
 40
4.000000000000000
  0
CIRCLE
  5
2A9
100
AcDbEntity
  8
MAIN0
  6
CONTINUOUS
 62
3
100
AcDbCircle
 10
118.6685746483965
 20
516.2751498089699
 30
0.0000000000000000
 40
3.323417500000000
  0
LINE
  5
2AA
100
AcDbEntity
  8
MAIN0
  6
CONTINUOUS
 62
3
100
AcDbLine
 10
118.6685746483965
 20
513.9657487322115
 30
0.0000000000000000
 11
116.6685746483965
 21
515.1204492705908
 31
0.0000000000000000
  0
LINE
  5
2AB
100
AcDbEntity
  8
MAIN0
  6
CONTINUOUS
 62
3
100
AcDbLine
 10
116.6685746483965
 20
515.1204492705907
 30
0.0000000000000000
 11
116.6685746483965
 21
517.4298503473492
 31
0.0000000000000000
  0
LINE
  5
2AC
100
AcDbEntity
  8
MAIN0
  6
CONTINUOUS
 62
3
100
AcDbLine
 10
116.6685746483965
 20
517.4298503473492
 30
0.0000000000000000
 11
118.6685746483965
 21
518.5845508857284
 31
0.0000000000000000
  0
LINE
  5
2AD
100
AcDbEntity
  8
MAIN0
  6
CONTINUOUS
 62
3
100
AcDbLine
 10
118.6685746483965
 20
518.5845508857284
 30
0.0000000000000000
 11
120.6685746483965
 21
517.4298503473492
 31
0.0000000000000000
  0
LINE
  5
2AE
100
AcDbEntity
  8
MAIN0
  6
CONTINUOUS
 62
3
100
AcDbLine
 10
120.6685746483965
 20
517.4298503473492
 30
0.0000000000000000
 11
120.6685746483965
 21
515.1204492705907
 31
0.0000000000000000
  0
LINE
  5
2AF
100
AcDbEntity
  8
MAIN0
  6
CONTINUOUS
 62
3
100
AcDbLine
 10
120.6685746483965
 20
515.1204492705907
 30
0.0000000000000000
 11
118.6685746483965
 21
513.9657487322115
 31
0.0000000000000000
  0
CIRCLE
  5
2B0
100
AcDbEntity
  8
MAIN0
  6
CONTINUOUS
 62
3
100
AcDbCircle
 10
168.6685746483965
 20
516.2751498089699
 30
0.0000000000000000
 40
4.000000000000000
  0
CIRCLE
  5
2B1
100
AcDbEntity
  8
MAIN0
  6
CONTINUOUS
 62
3
100
AcDbCircle
 10
168.6685746483965
 20
516.2751498089699
 30
0.0000000000000000
 40
3.323417500000000
  0
LINE
  5
2B2
100
AcDbEntity
  8
MAIN0
  6
CONTINUOUS
 62
3
100
AcDbLine
 10
168.6685746483965
 20
513.9657487322115
 30
0.0000000000000000
 11
166.6685746483965
 21
515.1204492705908
 31
0.0000000000000000
  0
LINE
  5
2B3
100
AcDbEntity
  8
MAIN0
  6
CONTINUOUS
 62
3
100
AcDbLine
 10
166.6685746483965
 20
515.1204492705907
 30
0.0000000000000000
 11
166.6685746483965
 21
517.4298503473492
 31
0.0000000000000000
  0
LINE
  5
2B4
100
AcDbEntity
  8
MAIN0
  6
CONTINUOUS
 62
3
100
AcDbLine
 10
166.6685746483964
 20
517.4298503473492
 30
0.0000000000000000
 11
168.6685746483965
 21
518.5845508857285
 31
0.0000000000000000
  0
LINE
  5
2B5
100
AcDbEntity
  8
MAIN0
  6
CONTINUOUS
 62
3
100
AcDbLine
 10
168.6685746483965
 20
518.5845508857284
 30
0.0000000000000000
 11
170.6685746483965
 21
517.4298503473492
 31
0.0000000000000000
  0
LINE
  5
2B6
100
AcDbEntity
  8
MAIN0
  6
CONTINUOUS
 62
3
100
AcDbLine
 10
170.6685746483965
 20
517.4298503473492
 30
0.0000000000000000
 11
170.6685746483965
 21
515.1204492705907
 31
0.0000000000000000
  0
LINE
  5
2B7
100
AcDbEntity
  8
MAIN0
  6
CONTINUOUS
 62
3
100
AcDbLine
 10
170.6685746483965
 20
515.1204492705907
 30
0.0000000000000000
 11
168.6685746483965
 21
513.9657487322115
 31
0.0000000000000000
  0
CIRCLE
  5
2B8
100
AcDbEntity
  8
MAIN0
  6
CONTINUOUS
 62
3
100
AcDbCircle
 10
252.6685746483966
 20
501.2751498089800
 30
0.0000000000000000
 40
4.000000000000000
  0
CIRCLE
  5
2B9
100
AcDbEntity
  8
MAIN0
  6
CONTINUOUS
 62
3
100
AcDbCircle
 10
252.6685746483966
 20
501.2751498089800
 30
0.0000000000000000
 40
3.323417500000000
  0
LINE
  5
2BA
100
AcDbEntity
  8
MAIN0
  6
CONTINUOUS
 62
3
100
AcDbLine
 10
252.6685746483966
 20
498.9657487322215
 30
0.0000000000000000
 11
250.6685746483966
 21
500.1204492706008
 31
0.0000000000000000
  0
LINE
  5
2BB
100
AcDbEntity
  8
MAIN0
  6
CONTINUOUS
 62
3
100
AcDbLine
 10
250.6685746483966
 20
500.1204492706007
 30
0.0000000000000000
 11
250.6685746483966
 21
502.4298503473592
 31
0.0000000000000000
  0
LINE
  5
2BC
100
AcDbEntity
  8
MAIN0
  6
CONTINUOUS
 62
3
100
AcDbLine
 10
250.6685746483965
 20
502.4298503473592
 30
0.0000000000000000
 11
252.6685746483965
 21
503.5845508857385
 31
0.0000000000000000
  0
LINE
  5
2BD
100
AcDbEntity
  8
MAIN0
  6
CONTINUOUS
 62
3
100
AcDbLine
 10
252.6685746483966
 20
503.5845508857384
 30
0.0000000000000000
 11
254.6685746483966
 21
502.4298503473592
 31
0.0000000000000000
  0
LINE
  5
2BE
100
AcDbEntity
  8
MAIN0
  6
CONTINUOUS
 62
3
100
AcDbLine
 10
254.6685746483966
 20
502.4298503473592
 30
0.0000000000000000
 11
254.6685746483966
 21
500.1204492706007
 31
0.0000000000000000
  0
LINE
  5
2BF
100
AcDbEntity
  8
MAIN0
  6
CONTINUOUS
 62
3
100
AcDbLine
 10
254.6685746483966
 20
500.1204492706007
 30
0.0000000000000000
 11
252.6685746483967
 21
498.9657487322215
 31
0.0000000000000000
  0
CIRCLE
  5
2C0
100
AcDbEntity
  8
MAIN0
  6
CONTINUOUS
 62
3
100
AcDbCircle
 10
252.6685746483966
 20
571.2751498089688
 30
0.0000000000000000
 40
4.000000000000000
  0
CIRCLE
  5
2C1
100
AcDbEntity
  8
MAIN0
  6
CONTINUOUS
 62
3
100
AcDbCircle
 10
252.6685746483966
 20
571.2751498089688
 30
0.0000000000000000
 40
3.323417500000000
  0
LINE
  5
2C2
100
AcDbEntity
  8
MAIN0
  6
CONTINUOUS
 62
3
100
AcDbLine
 10
252.6685746483966
 20
573.5845508857271
 30
0.0000000000000000
 11
250.6685746483965
 21
572.4298503473478
 31
0.0000000000000000
  0
LINE
  5
2C3
100
AcDbEntity
  8
MAIN0
  6
CONTINUOUS
 62
3
100
AcDbLine
 10
250.6685746483966
 20
572.4298503473480
 30
0.0000000000000000
 11
250.6685746483966
 21
570.1204492705895
 31
0.0000000000000000
  0
LINE
  5
2C4
100
AcDbEntity
  8
MAIN0
  6
CONTINUOUS
 62
3
100
AcDbLine
 10
250.6685746483966
 20
570.1204492705895
 30
0.0000000000000000
 11
252.6685746483966
 21
568.9657487322103
 31
0.0000000000000000
  0
LINE
  5
2C5
100
AcDbEntity
  8
MAIN0
  6
CONTINUOUS
 62
3
100
AcDbLine
 10
252.6685746483966
 20
568.9657487322102
 30
0.0000000000000000
 11
254.6685746483966
 21
570.1204492705895
 31
0.0000000000000000
  0
LINE
  5
2C6
100
AcDbEntity
  8
MAIN0
  6
CONTINUOUS
 62
3
100
AcDbLine
 10
254.6685746483966
 20
570.1204492705895
 30
0.0000000000000000
 11
254.6685746483966
 21
572.4298503473480
 31
0.0000000000000000
  0
LINE
  5
2C7
100
AcDbEntity
  8
MAIN0
  6
CONTINUOUS
 62
3
100
AcDbLine
 10
254.6685746483966
 20
572.4298503473480
 30
0.0000000000000000
 11
252.6685746483967
 21
573.5845508857271
 31
0.0000000000000000
  0
CIRCLE
  5
2C8
100
AcDbEntity
  8
MAIN0
  6
CONTINUOUS
 62
3
100
AcDbCircle
 10
292.6685746483965
 20
571.2751498089688
 30
0.0000000000000000
 40
4.000000000000000
  0
CIRCLE
  5
2C9
100
AcDbEntity
  8
MAIN0
  6
CONTINUOUS
 62
3
100
AcDbCircle
 10
292.6685746483965
 20
571.2751498089688
 30
0.0000000000000000
 40
3.323417500000000
  0
LINE
  5
2CA
100
AcDbEntity
  8
MAIN0
  6
CONTINUOUS
 62
3
100
AcDbLine
 10
292.6685746483966
 20
573.5845508857271
 30
0.0000000000000000
 11
290.6685746483965
 21
572.4298503473480
 31
0.0000000000000000
  0
LINE
  5
2CB
100
AcDbEntity
  8
MAIN0
  6
CONTINUOUS
 62
3
100
AcDbLine
 10
290.6685746483965
 20
572.4298503473480
 30
0.0000000000000000
 11
290.6685746483965
 21
570.1204492705895
 31
0.0000000000000000
  0
LINE
  5
2CC
100
AcDbEntity
  8
MAIN0
  6
CONTINUOUS
 62
3
100
AcDbLine
 10
290.6685746483965
 20
570.1204492705896
 30
0.0000000000000000
 11
292.6685746483965
 21
568.9657487322104
 31
0.0000000000000000
  0
LINE
  5
2CD
100
AcDbEntity
  8
MAIN0
  6
CONTINUOUS
 62
3
100
AcDbLine
 10
292.6685746483966
 20
568.9657487322103
 30
0.0000000000000000
 11
294.6685746483967
 21
570.1204492705895
 31
0.0000000000000000
  0
LINE
  5
2CE
100
AcDbEntity
  8
MAIN0
  6
CONTINUOUS
 62
3
100
AcDbLine
 10
294.6685746483965
 20
570.1204492705895
 30
0.0000000000000000
 11
294.6685746483965
 21
572.4298503473480
 31
0.0000000000000000
  0
LINE
  5
2CF
100
AcDbEntity
  8
MAIN0
  6
CONTINUOUS
 62
3
100
AcDbLine
 10
294.6685746483967
 20
572.4298503473480
 30
0.0000000000000000
 11
292.6685746483967
 21
573.5845508857271
 31
0.0000000000000000
  0
CIRCLE
  5
2D0
100
AcDbEntity
  8
MAIN0
  6
CONTINUOUS
 62
3
100
AcDbCircle
 10
292.6685746483965
 20
501.2751498089800
 30
0.0000000000000000
 40
4.000000000000000
  0
CIRCLE
  5
2D1
100
AcDbEntity
  8
MAIN0
  6
CONTINUOUS
 62
3
100
AcDbCircle
 10
292.6685746483965
 20
501.2751498089800
 30
0.0000000000000000
 40
3.323417500000000
  0
LINE
  5
2D2
100
AcDbEntity
  8
MAIN0
  6
CONTINUOUS
 62
3
100
AcDbLine
 10
292.6685746483967
 20
498.9657487322215
 30
0.0000000000000000
 11
290.6685746483966
 21
500.1204492706008
 31
0.0000000000000000
  0
LINE
  5
2D3
100
AcDbEntity
  8
MAIN0
  6
CONTINUOUS
 62
3
100
AcDbLine
 10
290.6685746483965
 20
500.1204492706007
 30
0.0000000000000000
 11
290.6685746483965
 21
502.4298503473592
 31
0.0000000000000000
  0
LINE
  5
2D4
100
AcDbEntity
  8
MAIN0
  6
CONTINUOUS
 62
3
100
AcDbLine
 10
290.6685746483965
 20
502.4298503473592
 30
0.0000000000000000
 11
292.6685746483965
 21
503.5845508857384
 31
0.0000000000000000
  0
LINE
  5
2D5
100
AcDbEntity
  8
MAIN0
  6
CONTINUOUS
 62
3
100
AcDbLine
 10
292.6685746483965
 20
503.5845508857384
 30
0.0000000000000000
 11
294.6685746483966
 21
502.4298503473591
 31
0.0000000000000000
  0
LINE
  5
2D6
100
AcDbEntity
  8
MAIN0
  6
CONTINUOUS
 62
3
100
AcDbLine
 10
294.6685746483965
 20
502.4298503473592
 30
0.0000000000000000
 11
294.6685746483965
 21
500.1204492706007
 31
0.0000000000000000
  0
LINE
  5
2D7
100
AcDbEntity
  8
MAIN0
  6
CONTINUOUS
 62
3
100
AcDbLine
 10
294.6685746483967
 20
500.1204492706007
 30
0.0000000000000000
 11
292.6685746483967
 21
498.9657487322215
 31
0.0000000000000000
  0
LEADER
  5
2D8
100
AcDbEntity
  8
MAIN0
  6
CONTINUOUS
 62
3
100
AcDbLeader
  3
MAIN001
 73
     0
 74
     0
 75
     1
 40
6.199999809265137
 41
70.21929746474061
 76
     3
 10
115.8499848980069
 20
513.4369194062368
 30
0.0000000000000000
 10
52.67848940270409
 20
449.4684441967753
 30
0.0000000000000000
 10
56.52948929112419
 20
449.4684441967753
 30
0.0000000000000000
340
2D9
213
-4.019295509708257
223
-1.000000000000000
233
0.0000000000000000
1001
ACAD
1000
DSTYLE
1002
{
1070
   147
1040
0.0
1070
    77
1070
     1
1070
   173
1070
     1
1070
     6
1000
_OPEN
1070
     7
1000
_OPEN
1002
}
  0
MTEXT
  5
2D9
102
{ACAD_REACTORS
330
2D8
102
}
100
AcDbEntity
  8
MAIN0
  6
CONTINUOUS
 62
3
100
AcDbMText
 10
60.54878480083245
 20
456.6684440060404
 30
0.0000000000000000
 40
6.199999809265137
 41
0.0000000000000000
 71
     1
 72
     1
  1
{\H0.93x;{2x5-M8 深さ16\P       DEPTH}}
 11
1.000000000000000
 21
0.0000000000000000
 31
0.0000000000000000
  7
KNJYOKO
  0
MTEXT
  5
2DA
100
AcDbEntity
  8
MAIN0
  6
CONTINUOUS
 62
3
100
AcDbMText
 10
520.0990855701102
 20
171.9390387505888
 30
0.0000000000000000
 40
6.199999809265137
 41
0.0000000000000000
 71
     1
 72
     1
  1
{\H0.94x;{(押さえ金具４セット付属)}}
 11
1.000000000000000
 21
0.0000000000000000
 31
0.0000000000000000
  7
KNJYOKO
  0
MTEXT
  5
2DB
100
AcDbEntity
  8
MAIN0
  6
CONTINUOUS
 62
3
100
AcDbMText
 10
521.1990394050758
 20
161.7623750045048
 30
0.0000000000000000
 40
6.000000000000000
 41
0.0000000000000000
 71
     1
 72
     1
  1
{\H0.63x;{(CLAMPING PARTS  ACCESSARY 4 PAIR)}}
 11
1.000000000000000
 21
0.0000000000000000
 31
0.0000000000000000
  7
STANDARD
  0
LEADER
  5
2DC
100
AcDbEntity
  8
MAIN0
  6
CONTINUOUS
 62
3
100
AcDbLeader
  3
MAIN001
 73
     0
 75
     1
 40
6.000000000000000
 41
52.19899861717227
 76
     3
 10
665.9105843089806
 20
291.6887342510102
 30
0.0000000000000000
 10
599.1343536301844
 20
207.8136856451218
 30
0.0000000000000000
 10
595.7733536301844
 20
207.8136856451218
 30
0.0000000000000000
340
2DD
213
0.0000000000000000
223
-1.000000000000000
233
0.0000000000000000
1001
ACAD
1000
DSTYLE
1002
{
1070
   147
1040
0.0
1070
    77
1070
     1
1070
   173
1070
     1
1070
     6
1000
_DOT
1070
     7
1000
_DOT
1002
}
  0
MTEXT
  5
2DD
102
{ACAD_REACTORS
330
2DC
102
}
100
AcDbEntity
  8
MAIN0
  6
CONTINUOUS
 62
3
100
AcDbMText
 10
543.5743550130121
 20
214.8136856451218
 30
0.0000000000000000
 40
6.000000000000000
 41
0.0000000000000000
 71
     1
 72
     1
  1
{\H0.61x;{六角穴付ボルト\PM12×45\PHEX,SOCKET HEAD\PCAP SCREW}}
 11
1.000000000000000
 21
0.0000000000000000
 31
0.0000000000000000
  7
KNJYOKO
  0
LEADER
  5
2DE
100
AcDbEntity
  8
MAIN0
  6
CONTINUOUS
 62
3
100
AcDbLeader
  3
MAIN001
 73
     0
 75
     1
 40
6.199999809265137
 41
66.19900195503236
 76
     3
 10
139.4518472347284
 20
374.2110138336837
 30
0.0000000000000000
 10
120.2514522615364
 20
429.6358184705819
 30
0.0000000000000000
 10
116.3984523731163
 20
429.6358184705819
 30
0.0000000000000000
340
2DF
213
0.0000000000000000
223
-1.000000000000000
233
0.0000000000000000
1001
ACAD
1000
DSTYLE
1002
{
1070
   147
1040
0.0
1070
    77
1070
     1
1070
   173
1070
     1
1070
     6
1000
_OPEN
1070
     7
1000
_OPEN
1002
}
  0
MTEXT
  5
2DF
102
{ACAD_REACTORS
330
2DE
102
}
100
AcDbEntity
  8
MAIN0
  6
CONTINUOUS
 62
3
100
AcDbMText
 10
50.19945041808398
 20
436.8358182798471
 30
0.0000000000000000
 40
6.199999809265137
 41
0.0000000000000000
 71
     1
 72
     1
  1
{\H0.93x;{2×2-M8　深さ16\P       DEPTH}}
 11
1.000000000000000
 21
0.0000000000000000
 31
0.0000000000000000
  7
KNJYOKO
  0
DIMENSION
  5
2EA
100
AcDbEntity
  8
MAIN0
  6
CONTINUOUS
 62
3
100
AcDbDimension
  2
*D32
 10
495.2758453334081
 20
513.6094435139439
 30
0.0000000000000000
 11
502.7758453334081
 21
514.1094435139439
 31
0.0000000000000000
 70
32
  3
MAIN001
100
AcDbAlignedDimension
 13
510.2758453334082
 23
318.2751336999209
 33
0.0000000000000000
 14
495.2758453334081
 24
317.6751336999209
 34
0.0000000000000000
100
AcDbRotatedDimension
1001
ACAD
1000
DSTYLE
1002
{
1070
   173
1070
     1
1070
     6
1000
_OPEN
1070
     7
1000
_OPEN
1070
    41
1040
4.000000
1070
   287
1070
     0
1002
}
  0
DIMENSION
  5
2F3
100
AcDbEntity
  8
MAIN0
  6
CONTINUOUS
 62
3
100
AcDbDimension
  2
*D33
 10
510.2758453334082
 20
513.6094435139439
 30
0.0000000000000000
 11
525.2758453333988
 21
514.1094435139439
 31
0.0000000000000000
 70
32
  3
MAIN001
100
AcDbAlignedDimension
 13
540.2758453333896
 23
481.7751336999206
 33
0.0000000000000000
 14
510.2758453334082
 24
318.2751336999209
 34
0.0000000000000000
100
AcDbRotatedDimension
1001
ACAD
1000
DSTYLE
1002
{
1070
   173
1070
     1
1070
     6
1000
_OPEN
1070
     7
1000
_OPEN
1070
    41
1040
4.000000
1002
}
  0
DIMENSION
  5
2FC
100
AcDbEntity
  8
MAIN0
  6
CONTINUOUS
 62
3
100
AcDbDimension
  2
*D34
 10
540.2758453333896
 20
513.6094435139439
 30
0.0000000000000000
 11
576.2758453333868
 21
514.1094435139439
 31
0.0000000000000000
 70
32
  3
MAIN001
100
AcDbAlignedDimension
 13
612.2758453333838
 23
491.2751336999210
 33
0.0000000000000000
 14
540.2758453333896
 24
481.7751336999206
 34
0.0000000000000000
100
AcDbRotatedDimension
1001
ACAD
1000
DSTYLE
1002
{
1070
   173
1070
     1
1070
     6
1000
_OPEN
1070
     7
1000
_OPEN
1070
    41
1040
4.000000
1002
}
  0
DIMENSION
  5
305
100
AcDbEntity
  8
MAIN0
  6
CONTINUOUS
 62
3
100
AcDbDimension
  2
*D35
 10
495.2758453334072
 20
530.4237216591394
 30
0.0000000000000000
 11
553.7758453333955
 21
530.9237216591394
 31
0.0000000000000000
 70
32
  3
MAIN001
100
AcDbAlignedDimension
 13
612.2758453333838
 23
491.2751336999210
 33
0.0000000000000000
 14
495.2758453334072
 24
311.2751336999207
 34
0.0000000000000000
100
AcDbRotatedDimension
1001
ACAD
1000
DSTYLE
1002
{
1070
   173
1070
     1
1070
     6
1000
_OPEN
1070
     7
1000
_OPEN
1070
    41
1040
4.000000
1002
}
  0
LINE
  5
306
100
AcDbEntity
  8
MAIN0
  6
CENTER
 62
3
100
AcDbLine
 10
217.1685746483965
 20
251.2193641824233
 30
0.0000000000000000
 11
217.1685746483965
 21
264.5792807588034
 31
0.0000000000000000
  0
DIMENSION
  5
30F
100
AcDbEntity
  8
MAIN0
  6
CONTINUOUS
 62
3
100
AcDbDimension
  2
*D36
 10
104.6685746483965
 20
185.6226990837993
 30
0.0000000000000000
 11
160.9185746483965
 21
186.1226990837993
 31
0.0000000000000000
 70
32
  3
MAIN001
100
AcDbAlignedDimension
 13
217.1685746483965
 23
251.2193641824233
 33
0.0000000000000000
 14
104.6685746483965
 24
258.2751336999207
 34
0.0000000000000000
100
AcDbRotatedDimension
1001
ACAD
1000
DSTYLE
1002
{
1070
   173
1070
     1
1070
     6
1000
_OPEN
1070
     7
1000
_OPEN
1070
    41
1040
4.000000
1002
}
  0
DIMENSION
  5
318
100
AcDbEntity
  8
MAIN0
  6
CONTINUOUS
 62
3
100
AcDbDimension
  2
*D37
 10
217.1685746483965
 20
185.6226990837993
 30
0.0000000000000000
 11
336.6685746483964
 21
186.1226990837993
 31
0.0000000000000000
 70
32
  3
MAIN001
100
AcDbAlignedDimension
 13
456.1685746483963
 23
286.2751336999207
 33
0.0000000000000000
 14
217.1685746483965
 24
251.2193641824233
 34
0.0000000000000000
100
AcDbRotatedDimension
1001
ACAD
1000
DSTYLE
1002
{
1070
   173
1070
     1
1070
     6
1000
_OPEN
1070
     7
1000
_OPEN
1070
    41
1040
4.000000
1002
}
  0
DIMENSION
  5
321
100
AcDbEntity
  8
MAIN0
  6
CONTINUOUS
 62
3
100
AcDbDimension
  2
*D38
 10
178.6685746483964
 20
220.0369995200459
 30
0.0000000000000000
 11
197.9185746483964
 21
220.5369995200459
 31
0.0000000000000000
 70
32
  3
MAIN001
100
AcDbAlignedDimension
 13
217.1685746483965
 23
251.2193641824233
 33
0.0000000000000000
 14
178.6685746483964
 24
343.2751336999207
 34
0.0000000000000000
100
AcDbRotatedDimension
1001
ACAD
1000
DSTYLE
1002
{
1070
   173
1070
     1
1070
     6
1000
_OPEN
1070
     7
1000
_OPEN
1070
    41
1040
4.000000
1002
}
  0
DIMENSION
  5
32A
100
AcDbEntity
  8
MAIN0
  6
CONTINUOUS
 62
3
100
AcDbDimension
  2
*D39
 10
217.1685746483965
 20
220.0369995200459
 30
0.0000000000000000
 11
297.4185746483966
 21
220.5369995200459
 31
0.0000000000000000
 70
32
  3
MAIN001
100
AcDbAlignedDimension
 13
377.6685746483967
 23
258.2751336999208
 33
0.0000000000000000
 14
217.1685746483965
 24
251.2193641824233
 34
0.0000000000000000
100
AcDbRotatedDimension
1001
ACAD
1000
DSTYLE
1002
{
1070
   173
1070
     1
1070
     6
1000
_OPEN
1070
     7
1000
_OPEN
1070
    41
1040
4.000000
1002
}
  0
DIMENSION
  5
332
100
AcDbEntity
  8
MAIN0
  6
CONTINUOUS
 62
3
100
AcDbDimension
  2
*D40
 10
333.3326129789199
 20
258.2751336999207
 30
0.0000000000000000
 11
332.8326129789199
 21
288.2751336999207
 31
0.0000000000000000
 70
32
  3
MAIN001
100
AcDbAlignedDimension
 13
299.6685746483965
 23
318.2751336999207
 33
0.0000000000000000
 14
377.6685746483967
 24
258.2751336999207
 34
0.0000000000000000
 50
90.00000000000000
100
AcDbRotatedDimension
1001
ACAD
1000
DSTYLE
1002
{
1070
   173
1070
     1
1070
     6
1000
_OPEN
1070
     7
1000
_OPEN
1070
    41
1040
4.000000
1002
}
  0
DIMENSION
  5
33B
100
AcDbEntity
  8
MAIN0
  6
CONTINUOUS
 62
3
100
AcDbDimension
  2
*D41
 10
333.3326129789199
 20
318.2751336999207
 30
0.0000000000000000
 11
332.8326129789199
 21
330.7751336999207
 31
0.0000000000000000
 70
32
  3
MAIN001
100
AcDbAlignedDimension
 13
306.6685746483963
 23
343.2751336999207
 33
0.0000000000000000
 14
299.6685746483965
 24
318.2751336999207
 34
0.0000000000000000
 50
90.00000000000000
100
AcDbRotatedDimension
1001
ACAD
1000
DSTYLE
1002
{
1070
   173
1070
     1
1070
     6
1000
_OPEN
1070
     7
1000
_OPEN
1070
    41
1040
4.000000
1002
}
  0
DIMENSION
  5
344
100
AcDbEntity
  8
MAIN0
  6
CONTINUOUS
 62
3
100
AcDbDimension
  2
*D42
 10
142.1685746483965
 20
449.4032093130245
 30
0.0000000000000000
 11
160.4185746483965
 21
449.9032093130245
 31
0.0000000000000000
 70
32
  3
MAIN001
100
AcDbAlignedDimension
 13
178.6685746483965
 23
486.5251498089743
 33
0.0000000000000000
 14
142.1685746483965
 24
526.5668839870880
 34
0.0000000000000000
100
AcDbRotatedDimension
1001
ACAD
1000
DSTYLE
1002
{
1070
   173
1070
     1
1070
     6
1000
_OPEN
1070
     7
1000
_OPEN
1070
    41
1040
4.000000
1002
}
  0
DIMENSION
  5
34C
100
AcDbEntity
  8
MAIN0
  6
CONTINUOUS
 62
3
100
AcDbDimension
  2
*D43
 10
478.6262206998462
 20
311.2751336999207
 30
0.0000000000000000
 11
478.1262206998462
 21
284.7751336999207
 31
0.0000000000000000
 70
32
  3
MAIN001
100
AcDbAlignedDimension
 13
377.6685746483967
 23
258.2751336999207
 33
0.0000000000000000
 14
500.2758453334072
 24
311.2751336999207
 34
0.0000000000000000
 50
90.00000000000000
100
AcDbRotatedDimension
1001
ACAD
1000
DSTYLE
1002
{
1070
   173
1070
     1
1070
     6
1000
_OPEN
1070
     7
1000
_OPEN
1070
    41
1040
4.000000
1002
}
  0
DIMENSION
  5
356
100
AcDbEntity
  8
MAIN0
  6
CONTINUOUS
 62
3
100
AcDbDimension
  2
*D44
 10
289.7411405945951
 20
354.4751336999207
 30
0.0000000000000000
 11
288.7411405945951
 21
362.2828598306455
 31
0.0000000000000000
 70
160
  3
MAIN001
100
AcDbAlignedDimension
 13
306.6685746483963
 23
343.2751336999207
 33
0.0000000000000000
 14
307.6685744472437
 24
354.4751336999207
 34
0.0000000000000000
 50
90.00000000000000
100
AcDbRotatedDimension
1001
ACAD
1000
DSTYLE
1002
{
1070
   173
1070
     1
1070
     6
1000
_OPEN
1070
     7
1000
_OPEN
1070
    41
1040
4.000000
1070
   287
1070
     0
1002
}
  0
LINE
  5
357
100
AcDbEntity
  8
MAIN0
  6
CONTINUOUS
 62
3
100
AcDbLine
 10
413.1685746483964
 20
344.4751336999207
 30
0.0000000000000000
 11
413.1685746483963
 21
300.9751336999207
 31
0.0000000000000000
  0
LINE
  5
358
100
AcDbEntity
  8
MAIN0
  6
CONTINUOUS
 62
3
100
AcDbLine
 10
413.1685746483968
 20
588.2751498089745
 30
0.0000000000000000
 11
413.1685746483965
 21
484.2751498089743
 31
0.0000000000000000
  0
LINE
  5
359
100
AcDbEntity
  8
MAIN0
  6
CONTINUOUS
 62
3
100
AcDbLine
 10
433.6685746483968
 20
336.2751336999207
 30
0.0000000000000000
 11
433.6685746483970
 21
282.2751336999207
 31
0.0000000000000000
  0
LINE
  5
35A
100
AcDbEntity
  8
MAIN0
  6
CONTINUOUS
 62
3
100
AcDbLine
 10
433.6685746483960
 20
575.2751498089743
 30
0.0000000000000000
 11
433.6685746483963
 21
497.2751498089743
 31
0.0000000000000000
  0
LINE
  5
35B
100
AcDbEntity
  8
MAIN0
  6
CONTINUOUS
 62
3
100
AcDbLine
 10
413.1685746484105
 20
573.2751498089743
 30
0.0000000000000000
 11
424.5773914844439
 21
573.2751498089743
 31
0.0000000000000000
  0
LINE
  5
35C
100
AcDbEntity
  8
MAIN0
  6
CONTINUOUS
 62
3
100
AcDbLine
 10
424.5773914844440
 20
573.2751498089743
 30
0.0000000000000000
 11
424.5773914844869
 21
555.7751498089743
 31
0.0000000000000000
  0
LINE
  5
35D
100
AcDbEntity
  8
MAIN0
  6
CONTINUOUS
 62
3
100
AcDbLine
 10
426.5773914844391
 20
575.2751498089742
 30
0.0000000000000000
 11
426.5773914844783
 21
559.2751498089792
 31
0.0000000000000000
  0
LINE
  5
35E
100
AcDbEntity
  8
MAIN0
  6
CONTINUOUS
 62
3
100
AcDbLine
 10
424.5773914844439
 20
573.2751498089743
 30
0.0000000000000000
 11
426.5773914844392
 21
575.2751498089742
 31
0.0000000000000000
  0
LINE
  5
35F
100
AcDbEntity
  8
MAIN0
  6
CONTINUOUS
 62
3
100
AcDbLine
 10
426.5773914844392
 20
575.2751498089743
 30
0.0000000000000000
 11
433.5773914844391
 21
575.2751498089743
 31
0.0000000000000000
  0
LINE
  5
360
100
AcDbEntity
  8
MAIN0
  6
CONTINUOUS
 62
3
100
AcDbLine
 10
426.5773914844783
 20
559.2751498089743
 30
0.0000000000000000
 11
433.5773914844783
 21
559.2751498089743
 31
0.0000000000000000
  0
LINE
  5
361
100
AcDbEntity
  8
MAIN0
  6
CONTINUOUS
 62
3
100
AcDbLine
 10
426.5773914844783
 20
559.2751498089792
 30
0.0000000000000000
 11
424.5773914844868
 21
555.7751498089743
 31
0.0000000000000000
  0
LINE
  5
362
100
AcDbEntity
  8
MAIN0
  6
CONTINUOUS
 62
3
100
AcDbLine
 10
413.1685746484040
 20
555.7751498089743
 30
0.0000000000000000
 11
424.5773914844869
 21
555.7751498089743
 31
0.0000000000000000
  0
LINE
  5
363
100
AcDbEntity
  8
MAIN0
  6
CONTINUOUS
 62
3
100
AcDbLine
 10
413.1685746484105
 20
499.2751498089743
 30
0.0000000000000000
 11
424.5773914844439
 21
499.2751498089743
 31
0.0000000000000000
  0
LINE
  5
364
100
AcDbEntity
  8
MAIN0
  6
CONTINUOUS
 62
3
100
AcDbLine
 10
424.5773914844439
 20
499.2751498089743
 30
0.0000000000000000
 11
426.5773914844390
 21
497.2751498089743
 31
0.0000000000000000
  0
LINE
  5
365
100
AcDbEntity
  8
MAIN0
  6
CONTINUOUS
 62
3
100
AcDbLine
 10
426.5773914844392
 20
497.2751498089743
 30
0.0000000000000000
 11
433.5773914844391
 21
497.2751498089743
 31
0.0000000000000000
  0
LINE
  5
366
100
AcDbEntity
  8
MAIN0
  6
CONTINUOUS
 62
3
100
AcDbLine
 10
426.5773914844391
 20
497.2751498089743
 30
0.0000000000000000
 11
426.5773914844783
 21
513.2751498089695
 31
0.0000000000000000
  0
LINE
  5
367
100
AcDbEntity
  8
MAIN0
  6
CONTINUOUS
 62
3
100
AcDbLine
 10
424.5773914844440
 20
499.2751498089743
 30
0.0000000000000000
 11
424.5773914844869
 21
516.7751498089743
 31
0.0000000000000000
  0
LINE
  5
368
100
AcDbEntity
  8
MAIN0
  6
CONTINUOUS
 62
3
100
AcDbLine
 10
413.1685746484040
 20
516.7751498089743
 30
0.0000000000000000
 11
424.5773914844869
 21
516.7751498089743
 31
0.0000000000000000
  0
LINE
  5
369
100
AcDbEntity
  8
MAIN0
  6
CONTINUOUS
 62
3
100
AcDbLine
 10
426.5773914844783
 20
513.2751498089695
 30
0.0000000000000000
 11
424.5773914844869
 21
516.7751498089743
 31
0.0000000000000000
  0
LINE
  5
36A
100
AcDbEntity
  8
MAIN0
  6
CONTINUOUS
 62
3
100
AcDbLine
 10
426.5773914844783
 20
513.2751498089743
 30
0.0000000000000000
 11
433.5773914844783
 21
513.2751498089743
 31
0.0000000000000000
  0
LINE
  5
36B
100
AcDbEntity
  8
MAIN0
  6
CENTER
 62
3
100
AcDbLine
 10
576.8180372886518
 20
302.6679917293740
 30
0.0000000000000000
 11
576.8180372886287
 21
226.8828620531796
 31
0.0000000000000000
  0
LINE
  5
36C
100
AcDbEntity
  8
MAIN0
  6
CONTINUOUS
 62
3
100
AcDbLine
 10
559.3180372886457
 20
280.7751336999285
 30
0.0000000000000000
 11
594.3180372886445
 21
280.7751336999177
 31
0.0000000000000000
  0
LINE
  5
36D
100
AcDbEntity
  8
MAIN0
  6
CONTINUOUS
 62
3
100
AcDbLine
 10
560.7180372886022
 20
258.2751337000472
 30
0.0000000000000000
 11
592.9180372883857
 21
258.2751337000373
 31
0.0000000000000000
  0
DIMENSION
  5
376
100
AcDbEntity
  8
MAIN0
  6
CONTINUOUS
 62
3
100
AcDbDimension
  2
*D45
 10
559.3180372886451
 20
310.1803155441288
 30
0.0000000000000000
 11
576.8180372886449
 21
310.6803155441288
 31
0.0000000000000000
 70
32
  3
MAIN001
100
AcDbAlignedDimension
 13
594.3180372886446
 23
280.7751336999176
 33
0.0000000000000000
 14
559.3180372886451
 24
280.7751336999284
 34
0.0000000000000000
100
AcDbRotatedDimension
1001
ACAD
1000
DSTYLE
1002
{
1070
   173
1070
     1
1070
     6
1000
_OPEN
1070
     7
1000
_OPEN
1070
    41
1040
4.000000
1002
}
  0
LINE
  5
377
100
AcDbEntity
  8
MAIN0
  6
CONTINUOUS
 62
3
100
AcDbLine
 10
588.8180372886454
 20
285.7751336999231
 30
0.0000000000000000
 11
588.8180372886454
 21
280.7751336999231
 31
0.0000000000000000
  0
LINE
  5
378
100
AcDbEntity
  8
MAIN0
  6
CONTINUOUS
 62
3
100
AcDbLine
 10
564.8180372886452
 20
285.7751336999231
 30
0.0000000000000000
 11
588.8180372886454
 21
285.7751336999231
 31
0.0000000000000000
  0
LINE
  5
379
100
AcDbEntity
  8
MAIN0
  6
CONTINUOUS
 62
3
100
AcDbLine
 10
564.8180372886452
 20
285.7751336999231
 30
0.0000000000000000
 11
564.8180372886452
 21
280.7751336999231
 31
0.0000000000000000
  0
LINE
  5
37A
100
AcDbEntity
  8
MAIN0
  6
CONTINUOUS
 62
3
100
AcDbLine
 10
583.7180372886403
 20
253.6192235090591
 30
0.0000000000000000
 11
569.9180372886406
 21
253.6192235090591
 31
0.0000000000000000
  0
LINE
  5
37B
100
AcDbEntity
  8
MAIN0
  6
CONTINUOUS
 62
3
100
AcDbLine
 10
569.9180372886407
 20
246.4192235090591
 30
0.0000000000000000
 11
569.9180372886406
 21
253.6192235090592
 31
0.0000000000000000
  0
LINE
  5
37C
100
AcDbEntity
  8
MAIN0
  6
CONTINUOUS
 62
3
100
AcDbLine
 10
565.8180372886407
 20
246.4192235090591
 30
0.0000000000000000
 11
569.9180372886408
 21
246.4192235090591
 31
0.0000000000000000
  0
LINE
  5
37D
100
AcDbEntity
  8
MAIN0
  6
CONTINUOUS
 62
3
100
AcDbLine
 10
565.8180372886407
 20
237.8192235090591
 30
0.0000000000000000
 11
565.8180372886407
 21
246.4192235090591
 31
0.0000000000000000
  0
LINE
  5
37E
100
AcDbEntity
  8
MAIN0
  6
CONTINUOUS
 62
3
100
AcDbLine
 10
565.8180372886407
 20
237.8192235090591
 30
0.0000000000000000
 11
587.8180372886404
 21
237.8192235090591
 31
0.0000000000000000
  0
LINE
  5
37F
100
AcDbEntity
  8
MAIN0
  6
CONTINUOUS
 62
3
100
AcDbLine
 10
587.8180372886404
 20
237.8192235090591
 30
0.0000000000000000
 11
587.8180372886404
 21
246.4192235090591
 31
0.0000000000000000
  0
LINE
  5
380
100
AcDbEntity
  8
MAIN0
  6
CONTINUOUS
 62
3
100
AcDbLine
 10
587.8180372886405
 20
246.4192235090591
 30
0.0000000000000000
 11
583.7180372886403
 21
246.4192235090591
 31
0.0000000000000000
  0
LINE
  5
381
100
AcDbEntity
  8
MAIN0
  6
CONTINUOUS
 62
3
100
AcDbLine
 10
583.7180372886405
 20
246.4192235090591
 30
0.0000000000000000
 11
583.7180372886405
 21
253.6192235090592
 31
0.0000000000000000
  0
LINE
  5
382
100
AcDbEntity
  8
MAIN0
  6
CONTINUOUS
 62
3
100
AcDbLine
 10
657.0067715858897
 20
253.6192235090343
 30
0.0000000000000000
 11
685.5067715858897
 21
253.6192235090343
 31
0.0000000000000000
  0
LINE
  5
383
100
AcDbEntity
  8
MAIN0
  6
CONTINUOUS
 62
3
100
AcDbLine
 10
657.0067715858897
 20
246.4192235090343
 30
0.0000000000000000
 11
685.5067715858897
 21
246.4192235090343
 31
0.0000000000000000
  0
LINE
  5
384
100
AcDbEntity
  8
MAIN0
  6
CONTINUOUS
 62
3
100
AcDbLine
 10
657.0067715858897
 20
253.6192235090343
 30
0.0000000000000000
 11
657.0067715858897
 21
237.8192235090343
 31
0.0000000000000000
  0
LINE
  5
385
100
AcDbEntity
  8
MAIN0
  6
CONTINUOUS
 62
3
100
AcDbLine
 10
657.0067715858897
 20
237.8192235090343
 30
0.0000000000000000
 11
685.5067715858897
 21
237.8192235090343
 31
0.0000000000000000
  0
LINE
  5
386
100
AcDbEntity
  8
MAIN0
  6
CONTINUOUS
 62
3
100
AcDbLine
 10
685.5067715858897
 20
253.6192235090343
 30
0.0000000000000000
 11
685.5067715858897
 21
237.8192235090343
 31
0.0000000000000000
  0
LINE
  5
387
100
AcDbEntity
  8
MAIN0
  6
CONTINUOUS
 62
3
100
AcDbLine
 10
657.0067715858895
 20
196.1145328255743
 30
0.0000000000000000
 11
685.5067715858895
 21
196.1145328255743
 31
0.0000000000000000
  0
LINE
  5
388
100
AcDbEntity
  8
MAIN0
  6
HIDDEN
 62
3
100
AcDbLine
 10
657.0067715858895
 20
192.0145328255743
 30
0.0000000000000000
 11
685.5067715858895
 21
192.0145328255743
 31
0.0000000000000000
  0
LINE
  5
389
100
AcDbEntity
  8
MAIN0
  6
CONTINUOUS
 62
3
100
AcDbLine
 10
657.0067715858895
 20
196.1145328255743
 30
0.0000000000000000
 11
657.0067715858895
 21
174.1145328255743
 31
0.0000000000000000
  0
LINE
  5
38A
100
AcDbEntity
  8
MAIN0
  6
CENTER
 62
3
100
AcDbLine
 10
651.6395892824719
 20
185.1145328255743
 30
0.0000000000000000
 11
689.8587016491833
 21
185.1145328255743
 31
0.0000000000000000
  0
LINE
  5
38B
100
AcDbEntity
  8
MAIN0
  6
HIDDEN
 62
3
100
AcDbLine
 10
657.0067715858895
 20
178.2145328255743
 30
0.0000000000000000
 11
685.5067715858895
 21
178.2145328255743
 31
0.0000000000000000
  0
LINE
  5
38C
100
AcDbEntity
  8
MAIN0
  6
CONTINUOUS
 62
3
100
AcDbLine
 10
657.0067715858895
 20
174.1145328255743
 30
0.0000000000000000
 11
685.5067715858895
 21
174.1145328255743
 31
0.0000000000000000
  0
LINE
  5
38D
100
AcDbEntity
  8
MAIN0
  6
CONTINUOUS
 62
3
100
AcDbLine
 10
685.5067715858895
 20
196.1145328255743
 30
0.0000000000000000
 11
685.5067715858895
 21
174.1145328255743
 31
0.0000000000000000
  0
DIMENSION
  5
396
100
AcDbEntity
  8
MAIN0
  6
CONTINUOUS
 62
3
100
AcDbDimension
  2
*D46
 10
641.8496761432878
 20
196.1145328255743
 30
0.0000000000000000
 11
641.3496761432878
 21
185.1145328255743
 31
0.0000000000000000
 70
32
  3
MAIN001
100
AcDbAlignedDimension
 13
657.0067715858895
 23
174.1145328255743
 33
0.0000000000000000
 14
657.0067715858895
 24
196.1145328255743
 34
0.0000000000000000
 50
90.00000000000000
100
AcDbRotatedDimension
1001
ACAD
1000
DSTYLE
1002
{
1070
   173
1070
     1
1070
     6
1000
_OPEN
1070
     7
1000
_OPEN
1070
    41
1040
4.000000
1002
}
  0
DIMENSION
  5
39F
100
AcDbEntity
  8
MAIN0
  6
CONTINUOUS
 62
3
100
AcDbDimension
  2
*D47
 10
657.0067715858895
 20
156.9336189985433
 30
0.0000000000000000
 11
671.2567715858895
 21
157.4336189985433
 31
0.0000000000000000
 70
32
  3
MAIN001
100
AcDbAlignedDimension
 13
685.5067715858895
 23
174.1145328255743
 33
0.0000000000000000
 14
657.0067715858895
 24
174.1145328255743
 34
0.0000000000000000
100
AcDbRotatedDimension
1001
ACAD
1000
DSTYLE
1002
{
1070
   173
1070
     1
1070
     6
1000
_OPEN
1070
     7
1000
_OPEN
1070
    41
1040
4.000000
1002
}
  0
DIMENSION
  5
3AA
100
AcDbEntity
  8
MAIN0
  6
CONTINUOUS
 62
3
100
AcDbDimension
  2
*D48
 10
707.6374368510760
 20
192.0145328255743
 30
0.0000000000000000
 11
706.6374368510760
 21
166.0100839794039
 31
0.0000000000000000
 70
160
  3
MAIN001
100
AcDbAlignedDimension
 13
685.5067715858895
 23
178.2145328255743
 33
0.0000000000000000
 14
685.5067715858895
 24
192.0145328255743
 34
0.0000000000000000
 50
90.00000000000000
100
AcDbRotatedDimension
1001
ACAD
1000
DSTYLE
1002
{
1070
   173
1070
     1
1070
     6
1000
_OPEN
1070
     7
1000
_OPEN
1070
    41
1040
4.000000
1070
   287
1070
     0
1002
}
  0
DIMENSION
  5
3B3
100
AcDbEntity
  8
MAIN0
  6
CONTINUOUS
 62
3
100
AcDbDimension
  2
*D49
 10
78.64896967979732
 20
258.2751336999207
 30
0.0000000000000000
 11
78.14896967979732
 21
300.7751336999207
 31
0.0000000000000000
 70
32
  3
MAIN001
100
AcDbAlignedDimension
 13
104.6685746483965
 23
343.2751336999207
 33
0.0000000000000000
 14
104.6685746483965
 24
258.2751336999207
 34
0.0000000000000000
 50
90.00000000000000
100
AcDbRotatedDimension
1001
ACAD
1000
DSTYLE
1002
{
1070
   173
1070
     1
1070
     6
1000
_OPEN
1070
     7
1000
_OPEN
1070
    41
1040
4.000000
1002
}
  0
DIMENSION
  5
3BC
100
AcDbEntity
  8
MAIN0
  6
CONTINUOUS
 62
3
100
AcDbDimension
  2
*D50
 10
78.64896967979732
 20
343.2751336999207
 30
0.0000000000000000
 11
78.14896967979732
 21
360.7751336999207
 31
0.0000000000000000
 70
32
  3
MAIN001
100
AcDbAlignedDimension
 13
105.6685746483965
 23
378.2751336999207
 33
0.0000000000000000
 14
104.6685746483965
 24
343.2751336999207
 34
0.0000000000000000
 50
90.00000000000000
100
AcDbRotatedDimension
1001
ACAD
1000
DSTYLE
1002
{
1070
   173
1070
     1
1070
     6
1000
_OPEN
1070
     7
1000
_OPEN
1070
    41
1040
4.000000
1002
}
  0
DIMENSION
  5
3C5
100
AcDbEntity
  8
MAIN0
  6
CONTINUOUS
 62
3
100
AcDbDimension
  2
*D51
 10
55.91688285815400
 20
258.2751336999207
 30
0.0000000000000000
 11
55.41688285815400
 21
318.2751336999207
 31
0.0000000000000000
 70
32
  3
MAIN001
100
AcDbAlignedDimension
 13
105.6685746483965
 23
378.2751336999207
 33
0.0000000000000000
 14
104.6685746483965
 24
258.2751336999207
 34
0.0000000000000000
 50
90.00000000000000
100
AcDbRotatedDimension
1001
ACAD
1000
DSTYLE
1002
{
1070
   173
1070
     1
1070
     6
1000
_OPEN
1070
     7
1000
_OPEN
1070
    41
1040
4.000000
1002
}
  0
LINE
  5
3C6
100
AcDbEntity
  8
MAIN0
  6
CONTINUOUS
 62
3
100
AcDbLine
 10
690.2567715858895
 20
273.2751336999207
 30
0.0000000000000000
 11
690.2567715858895
 21
265.2751336999207
 31
0.0000000000000000
  0
LINE
  5
3C7
100
AcDbEntity
  8
MAIN0
  6
CONTINUOUS
 62
3
100
AcDbLine
 10
560.7180372886099
 20
258.2751336999231
 30
0.0000000000000000
 11
559.3180372886452
 21
280.7751336999231
 31
0.0000000000000000
  0
LINE
  5
3C8
100
AcDbEntity
  8
MAIN0
  6
CONTINUOUS
 62
3
100
AcDbLine
 10
592.9180372883764
 20
258.2751336998875
 30
0.0000000000000000
 11
594.3180372883910
 21
280.7751336998844
 31
0.0000000000000000
  0
LINE
  5
3C9
100
AcDbEntity
  8
MAIN0
  6
CONTINUOUS
 62
3
100
AcDbLine
 10
632.6567715857646
 20
258.2751336999207
 30
0.0000000000000000
 11
631.2567715857645
 21
280.7751336999207
 31
0.0000000000000000
  0
DIMENSION
  5
3D2
100
AcDbEntity
  8
MAIN0
  6
CONTINUOUS
 62
3
100
AcDbDimension
  2
*D52
 10
631.2567715858897
 20
220.0369995200459
 30
0.0000000000000000
 11
661.0067715858897
 21
220.5369995200459
 31
0.0000000000000000
 70
32
  3
MAIN001
100
AcDbAlignedDimension
 13
690.7567715858895
 23
258.2751336999208
 33
0.0000000000000000
 14
631.2567715858897
 24
280.7751336999207
 34
0.0000000000000000
100
AcDbRotatedDimension
1001
ACAD
1000
DSTYLE
1002
{
1070
   173
1070
     1
1070
     6
1000
_OPEN
1070
     7
1000
_OPEN
1070
    41
1040
4.000000
1002
}
  0
DIMENSION
  5
3DB
100
AcDbEntity
  8
MAIN0
  6
CONTINUOUS
 62
3
100
AcDbDimension
  2
*D53
 10
690.7567715858895
 20
220.0369995200459
 30
0.0000000000000000
 11
741.2567715858895
 21
220.5369995200459
 31
0.0000000000000000
 70
32
  3
MAIN001
100
AcDbAlignedDimension
 13
791.7567715858895
 23
258.2751336999208
 33
0.0000000000000000
 14
690.7567715858895
 24
258.2751336999208
 34
0.0000000000000000
100
AcDbRotatedDimension
1001
ACAD
1000
DSTYLE
1002
{
1070
   173
1070
     1
1070
     6
1000
_OPEN
1070
     7
1000
_OPEN
1070
    41
1040
4.000000
1002
}
  0
INSERT
  5
3E3
100
AcDbEntity
  8
MAIN0
  6
CONTINUOUS
 62
3
100
AcDbBlockReference
  2
D54
 10
741.2567715858897
 20
241.9528470107727
 30
0.0000000000000000
 50
0.0000000000000000
  0
CIRCLE
  5
3E4
100
AcDbEntity
  8
MAIN0
  6
CONTINUOUS
 62
3
100
AcDbCircle
 10
299.6685746483965
 20
318.2751336999207
 30
0.0000000000000000
 40
4.000000000000000
  0
CIRCLE
  5
3E5
100
AcDbEntity
  8
MAIN0
  6
CONTINUOUS
 62
3
100
AcDbCircle
 10
299.6685746483965
 20
318.2751336999207
 30
0.0000000000000000
 40
3.400000000000000
  0
CIRCLE
  5
3E6
100
AcDbEntity
  8
MAIN0
  6
CONTINUOUS
 62
3
100
AcDbCircle
 10
194.6685746483965
 20
318.2751336999207
 30
0.0000000000000000
 40
4.000000000000000
  0
CIRCLE
  5
3E7
100
AcDbEntity
  8
MAIN0
  6
CONTINUOUS
 62
3
100
AcDbCircle
 10
194.6685746483965
 20
318.2751336999207
 30
0.0000000000000000
 40
3.400000000000000
  0
CIRCLE
  5
3E8
100
AcDbEntity
  8
MAIN0
  6
CONTINUOUS
 62
3
100
AcDbCircle
 10
142.1685746483965
 20
351.2751336999207
 30
0.0000000000000000
 40
4.000000000000000
  0
CIRCLE
  5
3E9
100
AcDbEntity
  8
MAIN0
  6
CONTINUOUS
 62
3
100
AcDbCircle
 10
142.1685746483965
 20
351.2751336999207
 30
0.0000000000000000
 40
3.400000000000000
  0
CIRCLE
  5
3EA
100
AcDbEntity
  8
MAIN0
  6
CONTINUOUS
 62
3
100
AcDbCircle
 10
142.1685746483965
 20
371.2751336999207
 30
0.0000000000000000
 40
4.000000000000000
  0
CIRCLE
  5
3EB
100
AcDbEntity
  8
MAIN0
  6
CONTINUOUS
 62
3
100
AcDbCircle
 10
142.1685746483965
 20
371.2751336999207
 30
0.0000000000000000
 40
3.400000000000000
  0
LINE
  5
3EC
100
AcDbEntity
  8
MAIN0
  6
CONTINUOUS
 62
3
100
AcDbLine
 10
680.2567715858897
 20
285.7751336999199
 30
0.0000000000000000
 11
680.2567715858907
 21
296.5751336999199
 31
0.0000000000000000
  0
LINE
  5
3ED
100
AcDbEntity
  8
MAIN0
  6
CONTINUOUS
 62
3
100
AcDbLine
 10
680.2567715858907
 20
296.5751336999199
 30
0.0000000000000000
 11
678.1783106168082
 21
297.7751336999201
 31
0.0000000000000000
  0
LINE
  5
3EE
100
AcDbEntity
  8
MAIN0
  6
CONTINUOUS
 62
3
100
AcDbLine
 10
678.1783106168082
 20
297.7751336999201
 30
0.0000000000000000
 11
664.3352325549736
 21
297.7751336999214
 31
0.0000000000000000
  0
LINE
  5
3EF
100
AcDbEntity
  8
MAIN0
  6
CONTINUOUS
 62
3
100
AcDbLine
 10
664.3352325549734
 20
297.7751336999214
 30
0.0000000000000000
 11
662.2567715858907
 21
296.5751336999216
 31
0.0000000000000000
  0
LINE
  5
3F0
100
AcDbEntity
  8
MAIN0
  6
CONTINUOUS
 62
3
100
AcDbLine
 10
662.2567715858907
 20
296.5751336999216
 30
0.0000000000000000
 11
662.2567715858897
 21
285.7751336999216
 31
0.0000000000000000
  0
LINE
  5
3F1
100
AcDbEntity
  8
MAIN0
  6
CONTINUOUS
 62
3
100
AcDbLine
 10
680.2567715858907
 20
296.5751336999199
 30
0.0000000000000000
 11
662.2567715858907
 21
296.5751336999216
 31
0.0000000000000000
  0
LINE
  5
3F2
100
AcDbEntity
  8
MAIN0
  6
CONTINUOUS
 62
3
100
AcDbLine
 10
677.2567715858879
 20
265.2751336999207
 30
0.0000000000000000
 11
677.2567715858868
 21
253.6192235090343
 31
0.0000000000000000
  0
LINE
  5
3F3
100
AcDbEntity
  8
MAIN0
  6
CONTINUOUS
 62
3
100
AcDbLine
 10
665.2567715858868
 20
253.6192235090344
 30
0.0000000000000000
 11
665.2567715858879
 21
265.2751336999207
 31
0.0000000000000000
  0
LINE
  5
3F4
100
AcDbEntity
  8
MAIN0
  6
CONTINUOUS
 62
3
100
AcDbLine
 10
676.3095560858878
 20
265.2751336999207
 30
0.0000000000000000
 11
676.3095560858867
 21
253.6192235090343
 31
0.0000000000000000
  0
LINE
  5
3F5
100
AcDbEntity
  8
MAIN0
  6
CONTINUOUS
 62
3
100
AcDbLine
 10
666.2039870858880
 20
265.2751336999207
 30
0.0000000000000000
 11
666.2039870858869
 21
253.6192235090344
 31
0.0000000000000000
  0
ARC
  5
3F6
100
AcDbEntity
  8
MAIN0
  6
CONTINUOUS
 62
3
100
AcDbCircle
 10
688.7567715858900
 20
353.4751336999207
 30
0.0000000000000000
 40
1.000000000000000
100
AcDbArc
 50
89.99999999999919
 51
179.9999999999964
  0
LINE
  5
3F7
100
AcDbEntity
  8
MAIN0
  6
CONTINUOUS
 62
3
100
AcDbLine
 10
688.7567715792504
 20
354.4751336999207
 30
0.0000000000000000
 11
793.7567704821645
 21
354.4751336999207
 31
0.0000000000000000
  0
ARC
  5
3F8
100
AcDbEntity
  8
MAIN0
  6
CONTINUOUS
 62
3
100
AcDbCircle
 10
793.7567715858900
 20
353.4751336999207
 30
0.0000000000000000
 40
1.000000000000000
100
AcDbArc
 50
0.0000000000000000
 51
89.99999999999959
  0
LINE
  5
3F9
100
AcDbEntity
  8
MAIN0
  6
CONTINUOUS
 62
3
100
AcDbLine
 10
687.7567715858900
 20
300.9751336999207
 30
0.0000000000000000
 11
688.9567715858898
 21
300.9751336999207
 31
0.0000000000000000
  0
LINE
  5
3FA
100
AcDbEntity
  8
MAIN0
  6
CONTINUOUS
 62
3
100
AcDbLine
 10
793.5567715858899
 20
300.9751336999207
 30
0.0000000000000000
 11
794.7567715858900
 21
300.9751336999207
 31
0.0000000000000000
  0
LINE
  5
3FB
100
AcDbEntity
  8
MAIN0
  6
CONTINUOUS
 62
3
100
AcDbLine
 10
794.7567715858900
 20
353.4751336999208
 30
0.0000000000000000
 11
794.7567715858900
 21
300.9751336999208
 31
0.0000000000000000
  0
LINE
  5
3FC
100
AcDbEntity
  8
MAIN0
  6
CONTINUOUS
 62
3
100
AcDbLine
 10
687.7567715858900
 20
353.4751336999208
 30
0.0000000000000000
 11
687.7567715858900
 21
300.9751336999208
 31
0.0000000000000000
  0
LINE
  5
3FD
100
AcDbEntity
  8
MAIN0
  6
CONTINUOUS
 62
3
100
AcDbLine
 10
793.5567715858899
 20
344.4751336999207
 30
0.0000000000000000
 11
793.5567715858899
 21
300.9751336999208
 31
0.0000000000000000
  0
LINE
  5
3FE
100
AcDbEntity
  8
MAIN0
  6
CONTINUOUS
 62
3
100
AcDbLine
 10
688.9567715858898
 20
344.4751336999207
 30
0.0000000000000000
 11
688.9567715858898
 21
300.9751336999208
 31
0.0000000000000000
  0
LINE
  5
3FF
100
AcDbEntity
  8
MAIN0
  6
CONTINUOUS
 62
3
100
AcDbLine
 10
688.9567715858898
 20
344.4751336999207
 30
0.0000000000000000
 11
793.5567715858899
 21
344.4751336999207
 31
0.0000000000000000
  0
LINE
  5
400
100
AcDbEntity
  8
MAIN0
  6
CONTINUOUS
 62
3
100
AcDbLine
 10
377.6685746483965
 20
300.9751336999207
 30
0.0000000000000000
 11
413.1685746483963
 21
300.9751336999207
 31
0.0000000000000000
  0
LINE
  5
401
100
AcDbEntity
  8
MAIN0
  6
CONTINUOUS
 62
3
100
AcDbLine
 10
380.6685746483964
 20
344.4751336999207
 30
0.0000000000000000
 11
413.1685746483964
 21
344.4751336999207
 31
0.0000000000000000
  0
CIRCLE
  5
402
100
AcDbEntity
  8
MAIN0
  6
CONTINUOUS
 62
3
100
AcDbCircle
 10
188.6685746483964
 20
536.2751498089742
 30
0.0000000000000000
 40
3.000000000000000
  0
CIRCLE
  5
403
100
AcDbEntity
  8
MAIN0
  6
CONTINUOUS
 62
3
100
AcDbCircle
 10
168.6685746483965
 20
556.2751498089695
 30
0.0000000000000000
 40
4.000000000000000
  0
CIRCLE
  5
404
100
AcDbEntity
  8
MAIN0
  6
CONTINUOUS
 62
3
100
AcDbCircle
 10
168.6685746483965
 20
556.2751498089695
 30
0.0000000000000000
 40
3.323417500000000
  0
LINE
  5
405
100
AcDbEntity
  8
MAIN0
  6
CONTINUOUS
 62
3
100
AcDbLine
 10
168.6685746483965
 20
558.5845508857278
 30
0.0000000000000000
 11
166.6685746483965
 21
557.4298503473486
 31
0.0000000000000000
  0
LINE
  5
406
100
AcDbEntity
  8
MAIN0
  6
CONTINUOUS
 62
3
100
AcDbLine
 10
166.6685746483965
 20
557.4298503473486
 30
0.0000000000000000
 11
166.6685746483965
 21
555.1204492705901
 31
0.0000000000000000
  0
LINE
  5
407
100
AcDbEntity
  8
MAIN0
  6
CONTINUOUS
 62
3
100
AcDbLine
 10
166.6685746483965
 20
555.1204492705901
 30
0.0000000000000000
 11
168.6685746483965
 21
553.9657487322110
 31
0.0000000000000000
  0
LINE
  5
408
100
AcDbEntity
  8
MAIN0
  6
CONTINUOUS
 62
3
100
AcDbLine
 10
168.6685746483965
 20
553.9657487322108
 30
0.0000000000000000
 11
170.6685746483965
 21
555.1204492705901
 31
0.0000000000000000
  0
LINE
  5
409
100
AcDbEntity
  8
MAIN0
  6
CONTINUOUS
 62
3
100
AcDbLine
 10
170.6685746483965
 20
555.1204492705901
 30
0.0000000000000000
 11
170.6685746483965
 21
557.4298503473486
 31
0.0000000000000000
  0
LINE
  5
40A
100
AcDbEntity
  8
MAIN0
  6
CONTINUOUS
 62
3
100
AcDbLine
 10
170.6685746483965
 20
557.4298503473486
 30
0.0000000000000000
 11
168.6685746483965
 21
558.5845508857278
 31
0.0000000000000000
  0
ELLIPSE
  5
40B
100
AcDbEntity
  8
MAIN0
  6
CONTINUOUS
 62
3
100
AcDbEllipse
 10
503.2758453334032
 20
314.7751336999266
 30
0.0000000000000000
 11
-2.050000000000000
 21
0.0000000000000000
 31
0.0000000000000000
210
0.0000000000000000
220
0.0000000000000000
230
1.000000000000000
 40
0.8536585365853660
 41
0.0000000000000000
 42
6.283185307179586
  0
LINE
  5
40C
100
AcDbEntity
  8
MAIN0
  6
CONTINUOUS
 62
3
100
AcDbLine
 10
532.2758453333881
 20
495.7751336999207
 30
0.0000000000000000
 11
532.2758453334056
 21
329.3624351294022
 31
0.0000000000000000
  0
LINE
  5
40D
100
AcDbEntity
  8
MAIN0
  6
CONTINUOUS
 62
3
100
AcDbLine
 10
540.2758453333896
 20
481.7751336999206
 30
0.0000000000000000
 11
540.2758453334088
 21
299.7751336999212
 31
0.0000000000000000
  0
LINE
  5
40E
100
AcDbEntity
  8
MAIN0
  6
CONTINUOUS
 62
3
100
AcDbLine
 10
546.2758453333881
 20
495.7751336999211
 30
0.0000000000000000
 11
546.2758453333890
 21
486.7751336999211
 31
0.0000000000000000
  0
LINE
  5
40F
100
AcDbEntity
  8
MAIN0
  6
CONTINUOUS
 62
3
100
AcDbLine
 10
543.7758453333879
 20
498.2751336999210
 30
0.0000000000000000
 11
534.7758453333879
 21
498.2751336999209
 31
0.0000000000000000
  0
LINE
  5
410
100
AcDbEntity
  8
MAIN0
  6
CONTINUOUS
 62
3
100
AcDbLine
 10
543.7758453333888
 20
484.2751336999210
 30
0.0000000000000000
 11
542.7758453333895
 21
484.2751336999210
 31
0.0000000000000000
  0
LINE
  5
411
100
AcDbEntity
  8
MAIN0
  6
CONTINUOUS
 62
3
100
AcDbLine
 10
510.2758453334082
 20
304.2751336999209
 30
0.0000000000000000
 11
495.8758453334081
 21
304.2751336999208
 31
0.0000000000000000
  0
LINE
  5
412
100
AcDbEntity
  8
MAIN0
  6
CONTINUOUS
 62
3
100
AcDbLine
 10
519.2758453334084
 20
301.2751336999209
 30
0.0000000000000000
 11
510.2758453334084
 21
301.2751336999209
 31
0.0000000000000000
  0
LINE
  5
413
100
AcDbEntity
  8
MAIN0
  6
CONTINUOUS
 62
3
100
AcDbLine
 10
510.2758453334073
 20
311.2751336999208
 30
0.0000000000000000
 11
510.2758453334083
 21
301.2751336999209
 31
0.0000000000000000
  0
LINE
  5
414
100
AcDbEntity
  8
MAIN0
  6
CONTINUOUS
 62
3
100
AcDbLine
 10
495.2758453334073
 20
311.2751336999210
 30
0.0000000000000000
 11
495.2758453334080
 21
304.8751336999211
 31
0.0000000000000000
  0
LINE
  5
415
100
AcDbEntity
  8
MAIN0
  6
CONTINUOUS
 62
3
100
AcDbLine
 10
537.7758453334086
 20
297.2751336999209
 30
0.0000000000000000
 11
534.2040485636765
 21
297.2751336999209
 31
0.0000000000000000
  0
LINE
  5
416
100
AcDbEntity
  8
MAIN0
  6
CONTINUOUS
 62
3
100
AcDbLine
 10
519.2758453334072
 20
311.2751336999207
 30
0.0000000000000000
 11
519.2758453334084
 21
301.2751336999207
 31
0.0000000000000000
  0
LINE
  5
417
100
AcDbEntity
  8
MAIN0
  6
CONTINUOUS
 62
3
100
AcDbLine
 10
495.2758453334080
 20
304.8751336999209
 30
0.0000000000000000
 11
495.8758453334081
 21
304.2751336999208
 31
0.0000000000000000
  0
LINE
  5
418
100
AcDbEntity
  8
MAIN0
  6
CONTINUOUS
 62
3
100
AcDbLine
 10
519.2758453334085
 20
301.2751336999171
 30
0.0000000000000000
 11
533.8861321948889
 21
297.3603191341983
 31
0.0000000000000000
  0
LINE
  5
419
100
AcDbEntity
  8
MAIN0
  6
CONTINUOUS
 62
3
100
AcDbLine
 10
495.2758453334075
 20
311.2751336999207
 30
0.0000000000000000
 11
510.2758453334075
 21
311.2751336999208
 31
0.0000000000000000
  0
LINE
  5
41A
100
AcDbEntity
  8
MAIN0
  6
CONTINUOUS
 62
3
100
AcDbLine
 10
510.2758453334082
 20
318.2751336999209
 30
0.0000000000000000
 11
495.8758453334081
 21
318.2751336999209
 31
0.0000000000000000
  0
LINE
  5
41B
100
AcDbEntity
  8
MAIN0
  6
CONTINUOUS
 62
3
100
AcDbLine
 10
519.2758453334084
 20
321.2751336999209
 30
0.0000000000000000
 11
510.2758453334084
 21
321.2751336999209
 31
0.0000000000000000
  0
LINE
  5
41C
100
AcDbEntity
  8
MAIN0
  6
CONTINUOUS
 62
3
100
AcDbLine
 10
510.2758453334075
 20
311.2751336999210
 30
0.0000000000000000
 11
510.2758453334085
 21
321.2751336999210
 31
0.0000000000000000
  0
LINE
  5
41D
100
AcDbEntity
  8
MAIN0
  6
CONTINUOUS
 62
3
100
AcDbLine
 10
495.2758453334074
 20
311.2751336999208
 30
0.0000000000000000
 11
495.2758453334081
 21
317.6751336999209
 31
0.0000000000000000
  0
LINE
  5
41E
100
AcDbEntity
  8
MAIN0
  6
CONTINUOUS
 62
3
100
AcDbLine
 10
519.2758453334075
 20
311.2751336999209
 30
0.0000000000000000
 11
519.2758453334086
 21
321.2751336999209
 31
0.0000000000000000
  0
LINE
  5
41F
100
AcDbEntity
  8
MAIN0
  6
CONTINUOUS
 62
3
100
AcDbLine
 10
495.2758453334083
 20
317.6751336999208
 30
0.0000000000000000
 11
495.8758453334085
 21
318.2751336999208
 31
0.0000000000000000
  0
LINE
  5
420
100
AcDbEntity
  8
MAIN0
  6
CONTINUOUS
 62
3
100
AcDbLine
 10
519.2758453334084
 20
321.2751336999250
 30
0.0000000000000000
 11
527.8287596040200
 21
323.5668801716669
 31
0.0000000000000000
  0
ARC
  5
421
100
AcDbEntity
  8
MAIN0
  6
CONTINUOUS
 62
3
100
AcDbCircle
 10
526.2758453334056
 20
329.3624351294013
 30
0.0000000000000000
 40
6.000000000000000
100
AcDbArc
 50
284.9999999999930
 51
360.0000000000001
  0
ARC
  5
422
100
AcDbEntity
  8
MAIN0
  6
CONTINUOUS
 62
3
100
AcDbCircle
 10
537.7758453334088
 20
299.7751336999210
 30
0.0000000000000000
 40
2.500000000000000
100
AcDbArc
 50
270.0000000000001
 51
360.0000000000001
  0
ARC
  5
423
100
AcDbEntity
  8
MAIN0
  6
CONTINUOUS
 62
3
100
AcDbCircle
 10
534.5331798076450
 20
299.7751336999210
 30
0.0000000000000000
 40
2.500000000000000
100
AcDbArc
 50
255.0000000000070
 51
270.0000000000001
  0
ARC
  5
424
100
AcDbEntity
  8
MAIN0
  6
CONTINUOUS
 62
3
100
AcDbCircle
 10
534.7758453333881
 20
495.7751336999209
 30
0.0000000000000000
 40
2.500000000000000
100
AcDbArc
 50
90.00000000000007
 51
180.0000000000001
  0
ARC
  5
425
100
AcDbEntity
  8
MAIN0
  6
CONTINUOUS
 62
3
100
AcDbCircle
 10
542.7758453333895
 20
481.7751336999210
 30
0.0000000000000000
 40
2.500000000000000
100
AcDbArc
 50
90.00000000000007
 51
180.0000000000001
  0
ARC
  5
426
100
AcDbEntity
  8
MAIN0
  6
CONTINUOUS
 62
3
100
AcDbCircle
 10
534.7758453333881
 20
495.7751336999210
 30
0.0000000000000000
 40
2.500000000000000
100
AcDbArc
 50
90.00000000000007
 51
180.0000000000001
  0
ARC
  5
427
100
AcDbEntity
  8
MAIN0
  6
CONTINUOUS
 62
3
100
AcDbCircle
 10
542.7758453333897
 20
481.7751336999210
 30
0.0000000000000000
 40
2.500000000000000
100
AcDbArc
 50
90.00000000000007
 51
180.0000000000001
  0
ARC
  5
428
100
AcDbEntity
  8
MAIN0
  6
CONTINUOUS
 62
3
100
AcDbCircle
 10
543.7758453333881
 20
495.7751336999210
 30
0.0000000000000000
 40
2.500000000000000
100
AcDbArc
 50
7.633331235512440e-014
 51
90.00000000000007
  0
ARC
  5
429
100
AcDbEntity
  8
MAIN0
  6
CONTINUOUS
 62
3
100
AcDbCircle
 10
543.7758453333890
 20
486.7751336999210
 30
0.0000000000000000
 40
2.500000000000000
100
AcDbArc
 50
270.0000000000001
 51
360.0000000000001
  0
LINE
  5
42A
100
AcDbEntity
  8
MAIN1
  6
CONTINUOUS
 62
7
100
AcDbLine
 10
546.7758453333886
 20
484.2751336999210
 30
0.0000000000000000
 11
546.7758453333886
 21
486.3761542143546
 31
0.0000000000000000
  0
LINE
  5
42B
100
AcDbEntity
  8
MAIN1
  6
CONTINUOUS
 62
7
100
AcDbLine
 10
546.2758453333886
 20
484.7751336999209
 30
0.0000000000000000
 11
546.2758453333886
 21
497.7751336999209
 31
0.0000000000000000
  0
LINE
  5
42C
100
AcDbEntity
  8
MAIN1
  6
CONTINUOUS
 62
7
100
AcDbLine
 10
546.7758453333886
 20
484.2751336999210
 30
0.0000000000000000
 11
553.7758453333886
 21
484.2751336999210
 31
0.0000000000000000
  0
LINE
  5
42D
100
AcDbEntity
  8
MAIN1
  6
CONTINUOUS
 62
7
100
AcDbLine
 10
546.7758453333886
 20
498.2751336999208
 30
0.0000000000000000
 11
553.7758453333886
 21
498.2751336999210
 31
0.0000000000000000
  0
LINE
  5
42E
100
AcDbEntity
  8
MAIN1
  6
CONTINUOUS
 62
7
100
AcDbLine
 10
546.2758453333888
 20
484.7751336999209
 30
0.0000000000000000
 11
546.7758453333888
 21
484.2751336999210
 31
0.0000000000000000
  0
LINE
  5
42F
100
AcDbEntity
  8
MAIN1
  6
CONTINUOUS
 62
7
100
AcDbLine
 10
553.7758453333886
 20
484.2751336999211
 30
0.0000000000000000
 11
554.2758453333886
 21
484.7751336999209
 31
0.0000000000000000
  0
LINE
  5
430
100
AcDbEntity
  8
MAIN1
  6
CONTINUOUS
 62
7
100
AcDbLine
 10
553.7758453333886
 20
498.2751336999210
 30
0.0000000000000000
 11
554.2758453333886
 21
497.7751336999210
 31
0.0000000000000000
  0
LINE
  5
431
100
AcDbEntity
  8
MAIN1
  6
CONTINUOUS
 62
7
100
AcDbLine
 10
546.7758453333886
 20
498.2751336999208
 30
0.0000000000000000
 11
546.2758453333887
 21
497.7751336999209
 31
0.0000000000000000
  0
LINE
  5
432
100
AcDbEntity
  8
MAIN1
  6
CONTINUOUS
 62
7
100
AcDbLine
 10
546.2758453333886
 20
496.1741131854873
 30
0.0000000000000000
 11
552.2758453333886
 21
496.1741131854873
 31
0.0000000000000000
  0
LINE
  5
433
100
AcDbEntity
  8
MAIN1
  6
CONTINUOUS
 62
7
100
AcDbLine
 10
546.2758453333886
 20
486.3761542143546
 30
0.0000000000000000
 11
552.2758453333886
 21
486.3761542143546
 31
0.0000000000000000
  0
LINE
  5
434
100
AcDbEntity
  8
MAIN1
  6
CONTINUOUS
 62
7
100
AcDbLine
 10
546.7758453333886
 20
496.1741131854873
 30
0.0000000000000000
 11
546.7758453333886
 21
498.2751336999209
 31
0.0000000000000000
  0
LINE
  5
435
100
AcDbEntity
  8
MAIN1
  6
CONTINUOUS
 62
7
100
AcDbLine
 10
553.7758453333886
 20
484.2751336999210
 30
0.0000000000000000
 11
553.7758453333886
 21
498.2751336999209
 31
0.0000000000000000
  0
LINE
  5
436
100
AcDbEntity
  8
MAIN1
  6
CONTINUOUS
 62
7
100
AcDbLine
 10
554.2758453333886
 20
497.7615553552703
 30
0.0000000000000000
 11
554.2758453333886
 21
484.7887120445716
 31
0.0000000000000000
  0
LINE
  5
437
100
AcDbEntity
  8
MAIN1
  6
CONTINUOUS
 62
7
100
AcDbLine
 10
608.6007384955653
 20
482.2751336999208
 30
0.0000000000000000
 11
572.2758453333886
 21
482.2751336999208
 31
0.0000000000000000
  0
LINE
  5
438
100
AcDbEntity
  8
MAIN1
  6
CONTINUOUS
 62
7
100
AcDbLine
 10
608.6007384955653
 20
500.2751336999211
 30
0.0000000000000000
 11
572.2758453333886
 21
500.2751336999211
 31
0.0000000000000000
  0
LINE
  5
439
100
AcDbEntity
  8
MAIN1
  6
CONTINUOUS
 62
7
100
AcDbLine
 10
555.7870933019926
 20
483.1911754794430
 30
0.0000000000000000
 11
572.2758453333886
 21
482.2751336999207
 31
0.0000000000000000
  0
LINE
  5
43A
100
AcDbEntity
  8
MAIN1
  6
CONTINUOUS
 62
7
100
AcDbLine
 10
572.2758453333886
 20
500.2751336999211
 30
0.0000000000000000
 11
555.7870933019926
 21
499.3590919203988
 31
0.0000000000000000
  0
ARC
  5
43B
100
AcDbEntity
  8
MAIN1
  6
CONTINUOUS
 62
7
100
AcDbCircle
 10
582.2758453333886
 20
491.2751336999209
 30
0.0000000000000000
 40
30.00000000000000
100
AcDbArc
 50
347.1604115930955
 51
372.8395884069045
  0
ARC
  5
43C
100
AcDbEntity
  8
MAIN1
  6
CONTINUOUS
 62
7
100
AcDbCircle
 10
608.6007384955653
 20
485.2751336999208
 30
0.0000000000000000
 40
3.000000000000000
100
AcDbArc
 50
270.0000000000000
 51
347.1604115930957
  0
ARC
  5
43D
100
AcDbEntity
  8
MAIN1
  6
CONTINUOUS
 62
7
100
AcDbCircle
 10
608.6007384955653
 20
497.2751336999211
 30
0.0000000000000000
 40
3.000000000000000
100
AcDbArc
 50
12.83958840690469
 51
89.99999999999946
  0
ARC
  5
43E
100
AcDbEntity
  8
MAIN1
  6
CONTINUOUS
 62
7
100
AcDbCircle
 10
555.8758453333887
 20
484.7887120445716
 30
0.0000000000000000
 40
1.600000000000000
100
AcDbArc
 50
180.0000000000000
 51
266.8201698801350
  0
ARC
  5
43F
100
AcDbEntity
  8
MAIN1
  6
CONTINUOUS
 62
7
100
AcDbCircle
 10
555.8758453333887
 20
497.7615553552703
 30
0.0000000000000000
 40
1.600000000000000
100
AcDbArc
 50
93.17983011986493
 51
179.9999999999999
  0
LINE
  5
440
100
AcDbEntity
  8
MAIN1
  6
CONTINUOUS
 62
7
100
AcDbLine
 10
552.2758453333886
 20
486.3761542143546
 30
0.0000000000000000
 11
552.2758453333886
 21
496.1741131854873
 31
0.0000000000000000
  0
LINE
  5
441
100
AcDbEntity
  8
MAIN3
  6
CONTINUOUS
 62
3
100
AcDbLine
 10
546.2758453333886
 20
486.3761542143546
 30
0.0000000000000000
 11
552.2758453333886
 21
496.1741131854873
 31
0.0000000000000000
  0
LINE
  5
442
100
AcDbEntity
  8
MAIN3
  6
CONTINUOUS
 62
3
100
AcDbLine
 10
546.2758453333888
 20
496.1741131854874
 30
0.0000000000000000
 11
552.2758453333888
 21
486.3761542143546
 31
0.0000000000000000
  0
LINE
  5
443
100
AcDbEntity
  8
MAIN1
  6
CONTINUOUS
 62
7
100
AcDbLine
 10
572.2758453333886
 20
500.2751336999211
 30
0.0000000000000000
 11
572.2758453333886
 21
482.2751336999208
 31
0.0000000000000000
  0
LINE
  5
444
100
AcDbEntity
  8
MAIN0
  6
CONTINUOUS
 62
3
100
AcDbLine
 10
585.8180372886468
 20
285.7751336999295
 30
0.0000000000000000
 11
585.8180372886478
 21
296.5751336999295
 31
0.0000000000000000
  0
LINE
  5
445
100
AcDbEntity
  8
MAIN0
  6
CONTINUOUS
 62
3
100
AcDbLine
 10
585.8180372886478
 20
296.5751336999295
 30
0.0000000000000000
 11
567.8180372886478
 21
296.5751336999312
 31
0.0000000000000000
  0
LINE
  5
446
100
AcDbEntity
  8
MAIN0
  6
CONTINUOUS
 62
3
100
AcDbLine
 10
583.7395763195652
 20
297.7751336999297
 30
0.0000000000000000
 11
569.8964982577306
 21
297.7751336999310
 31
0.0000000000000000
  0
LINE
  5
447
100
AcDbEntity
  8
MAIN0
  6
CONTINUOUS
 62
3
100
AcDbLine
 10
585.8180372886477
 20
296.5751336999296
 30
0.0000000000000000
 11
583.7395763195652
 21
297.7751336999297
 31
0.0000000000000000
  0
LINE
  5
448
100
AcDbEntity
  8
MAIN0
  6
CONTINUOUS
 62
3
100
AcDbLine
 10
569.8964982577306
 20
297.7751336999310
 30
0.0000000000000000
 11
567.8180372886477
 21
296.5751336999313
 31
0.0000000000000000
  0
LINE
  5
449
100
AcDbEntity
  8
MAIN0
  6
CONTINUOUS
 62
3
100
AcDbLine
 10
567.8180372886478
 20
296.5751336999312
 30
0.0000000000000000
 11
567.8180372886468
 21
285.7751336999312
 31
0.0000000000000000
  0
LINE
  5
44A
100
AcDbEntity
  8
MAIN0
  6
CONTINUOUS
 62
3
100
AcDbLine
 10
582.8180372886366
 20
258.2751337000423
 30
0.0000000000000000
 11
582.8180372886361
 21
253.6192235090591
 31
0.0000000000000000
  0
LINE
  5
44B
100
AcDbEntity
  8
MAIN0
  6
CONTINUOUS
 62
3
100
AcDbLine
 10
581.8708217886365
 20
258.2751337000423
 30
0.0000000000000000
 11
581.8708217886360
 21
253.6192235090591
 31
0.0000000000000000
  0
LINE
  5
44C
100
AcDbEntity
  8
MAIN0
  6
CONTINUOUS
 62
3
100
AcDbLine
 10
571.7652527886365
 20
258.2751337000423
 30
0.0000000000000000
 11
571.7652527886361
 21
253.6192235090591
 31
0.0000000000000000
  0
LINE
  5
44D
100
AcDbEntity
  8
MAIN0
  6
CONTINUOUS
 62
3
100
AcDbLine
 10
570.8180372886361
 20
253.6192235090591
 30
0.0000000000000000
 11
570.8180372886366
 21
258.2751337000423
 31
0.0000000000000000
  0
CIRCLE
  5
44E
100
AcDbEntity
  8
MAIN0
  6
CONTINUOUS
 62
3
100
AcDbCircle
 10
671.2567715858895
 20
185.1145328255743
 30
0.0000000000000000
 40
5.100000000000000
  0
CIRCLE
  5
44F
100
AcDbEntity
  8
MAIN0
  6
CONTINUOUS
 62
3
100
AcDbCircle
 10
671.2567715858895
 20
185.1145328255743
 30
0.0000000000000000
 40
6.000000000000000
  0
LINE
  5
450
100
AcDbEntity
  8
WAKU0
  6
CONTINUOUS
 62
3
100
AcDbLine
 10
240.0000000000000
 20
51.00000000000000
 30
0.0000000000000000
 11
410.0000000000000
 21
51.00000000000000
 31
0.0000000000000000
  0
LINE
  5
451
100
AcDbEntity
  8
WAKU0
  6
CONTINUOUS
 62
3
100
AcDbLine
 10
240.0000000000000
 20
51.00000000000000
 30
0.0000000000000000
 11
240.0000000000000
 21
12.00000000000000
 31
0.0000000000000000
  0
LINE
  5
452
100
AcDbEntity
  8
WAKU0
  6
CONTINUOUS
 62
3
100
AcDbLine
 10
312.0000000000000
 20
51.00000000000000
 30
0.0000000000000000
 11
312.0000000000000
 21
12.00000000000000
 31
0.0000000000000000
  0
LINE
  5
453
100
AcDbEntity
  8
WAKU0
  6
CONTINUOUS
 62
3
100
AcDbLine
 10
332.0000000000000
 20
51.00000000000000
 30
0.0000000000000000
 11
332.0000000000000
 21
12.00000000000000
 31
0.0000000000000000
  0
LINE
  5
454
100
AcDbEntity
  8
WAKU0
  6
CONTINUOUS
 62
3
100
AcDbLine
 10
344.0000000000000
 20
51.00000000000000
 30
0.0000000000000000
 11
344.0000000000000
 21
12.00000000000000
 31
0.0000000000000000
  0
LINE
  5
455
100
AcDbEntity
  8
WAKU0
  6
CONTINUOUS
 62
3
100
AcDbLine
 10
344.0000000000000
 20
37.00000000000000
 30
0.0000000000000000
 11
410.0000000000000
 21
37.00000000000000
 31
0.0000000000000000
  0
LINE
  5
456
100
AcDbEntity
  8
WAKU0
  6
CONTINUOUS
 62
3
100
AcDbLine
 10
332.0000000000000
 20
23.00000000000000
 30
0.0000000000000000
 11
410.0000000000000
 21
23.00000000000000
 31
0.0000000000000000
  0
LINE
  5
457
100
AcDbEntity
  8
WAKU0
  6
CONTINUOUS
 62
3
100
AcDbLine
 10
375.0000000000000
 20
51.00000000000000
 30
0.0000000000000000
 11
375.0000000000000
 21
44.00000000000000
 31
0.0000000000000000
  0
LINE
  5
458
100
AcDbEntity
  8
WAKU0
  6
CONTINUOUS
 62
3
100
AcDbLine
 10
387.0000000000000
 20
51.00000000000000
 30
0.0000000000000000
 11
387.0000000000000
 21
44.00000000000000
 31
0.0000000000000000
  0
LINE
  5
459
100
AcDbEntity
  8
WAKU0
  6
CONTINUOUS
 62
3
100
AcDbLine
 10
312.0000000000000
 20
31.50000000000000
 30
0.0000000000000000
 11
332.0000000000000
 21
31.50000000000000
 31
0.0000000000000000
  0
LINE
  5
45A
100
AcDbEntity
  8
WAKU0
  6
CONTINUOUS
 62
3
100
AcDbLine
 10
332.0000000000000
 20
44.00000000000000
 30
0.0000000000000000
 11
410.0000000000000
 21
44.00000000000000
 31
0.0000000000000000
  0
LINE
  5
45B
100
AcDbEntity
  8
WAKU0
  6
CONTINUOUS
 62
3
100
AcDbLine
 10
240.0000000000000
 20
37.00000000000000
 30
0.0000000000000000
 11
312.0000000000000
 21
37.00000000000000
 31
0.0000000000000000
  0
LINE
  5
45C
100
AcDbEntity
  8
WAKU0
  6
CONTINUOUS
 62
3
100
AcDbLine
 10
240.0000000000000
 20
23.00000000000000
 30
0.0000000000000000
 11
312.0000000000000
 21
23.00000000000000
 31
0.0000000000000000
  0
LINE
  5
45D
100
AcDbEntity
  8
WAKU0
  6
CONTINUOUS
 62
3
100
AcDbLine
 10
288.0000000000000
 20
37.00000000000000
 30
0.0000000000000000
 11
288.0000000000000
 21
12.00000000000000
 31
0.0000000000000000
  0
LINE
  5
45E
100
AcDbEntity
  8
WAKU0
  6
CONTINUOUS
 62
3
100
AcDbLine
 10
264.0000000000000
 20
37.00000000000000
 30
0.0000000000000000
 11
264.0000000000000
 21
23.00000000000000
 31
0.0000000000000000
  0
LINE
  5
45F
100
AcDbEntity
  8
WAKU0
  6
CONTINUOUS
 62
3
100
AcDbLine
 10
300.0000000000000
 20
26.00000000000000
 30
0.0000000000000000
 11
300.0000000000000
 21
23.00000000000000
 31
0.0000000000000000
  0
LINE
  5
460
100
AcDbEntity
  8
WAKU0
  6
CONTINUOUS
 62
3
100
AcDbLine
 10
276.0000000000000
 20
26.00000000000000
 30
0.0000000000000000
 11
276.0000000000000
 21
23.00000000000000
 31
0.0000000000000000
  0
LINE
  5
461
100
AcDbEntity
  8
WAKU0
  6
CONTINUOUS
 62
3
100
AcDbLine
 10
252.0000000000000
 20
26.00000000000000
 30
0.0000000000000000
 11
252.0000000000000
 21
23.00000000000000
 31
0.0000000000000000
  0
LINE
  5
462
100
AcDbEntity
  8
WAKU0
  6
CONTINUOUS
 62
3
100
AcDbLine
 10
258.0000000000000
 20
51.00000000000000
 30
0.0000000000000000
 11
258.0000000000000
 21
37.00000000000000
 31
0.0000000000000000
  0
LINE
  5
463
100
AcDbEntity
  8
WAKU0
  6
CONTINUOUS
 62
3
100
AcDbLine
 10
240.0000000000000
 20
45.00000000000000
 30
0.0000000000000000
 11
312.0000000000000
 21
45.00000000000000
 31
0.0000000000000000
  0
LINE
  5
464
100
AcDbEntity
  8
WAKU0
  6
HIDDEN
 62
3
100
AcDbLine
 10
360.5000000000000
 20
23.00000000000000
 30
0.0000000000000000
 11
360.5000000000000
 21
12.00000000000000
 31
0.0000000000000000
  0
LINE
  5
465
100
AcDbEntity
  8
WAKU0
  6
HIDDEN
 62
3
100
AcDbLine
 10
372.9000000000000
 20
23.00000000000000
 30
0.0000000000000000
 11
372.9000000000000
 21
12.00000000000000
 31
0.0000000000000000
  0
MTEXT
  5
466
100
AcDbEntity
  8
WAKU0
  6
CONTINUOUS
 62
3
100
AcDbMText
 10
344.4820000243485
 20
49.04999995231628
 30
0.0000000000000000
 40
3.099999904632568
 41
0.0000000000000000
 71
     1
 72
     1
  1
{\H0.92x;{VQX100N}}
 11
1.000000000000000
 21
0.0000000000000000
 31
0.0000000000000000
  7
STANDARD
  0
MTEXT
  5
467
100
AcDbEntity
  8
WAKU0
  6
CONTINUOUS
 62
3
100
AcDbMText
 10
360.3350002765656
 20
43.50000000000000
 30
0.0000000000000000
 40
3.000000000000000
 41
0.0000000000000000
 71
     1
 72
     1
  1
{\H0.94x;{パワーバイス\PＰＯＷＥＲ　ＶＩＳＥ}}
 11
1.000000000000000
 21
0.0000000000000000
 31
0.0000000000000000
  7
KNJYOKO
  0
MTEXT
  5
468
100
AcDbEntity
  8
WAKU0
  6
CONTINUOUS
 62
3
100
AcDbMText
 10
348.9999989867210
 20
34.83333333333333
 30
0.0000000000000000
 40
4.000000000000000
 41
0.0000000000000000
 71
     1
 72
     1
  1
{\H0.59x;{ＶＱＸ１００Ｎ　ガイケイ\PＶＱＸ１００Ｎ　ＯＵＴＳＩＤＥ　ＶＩＥＷ}}
 11
1.000000000000000
 21
0.0000000000000000
 31
0.0000000000000000
  7
KNJYOKO
  0
MTEXT
  5
469
100
AcDbEntity
  8
WAKU0
  6
CONTINUOUS
 62
3
100
AcDbMText
 10
318.0049998760223
 20
39.29999995231628
 30
0.0000000000000000
 40
3.099999904632568
 41
0.0000000000000000
 71
     1
 72
     1
  1
{\H0.90x;{1:2}}
 11
1.000000000000000
 21
0.0000000000000000
 31
0.0000000000000000
  7
STANDARD
  0
MTEXT
  5
46A
100
AcDbEntity
  8
WAKU0
  6
CONTINUOUS
 62
3
100
AcDbMText
 10
374.4000001549721
 20
20.15000009536743
 30
0.0000000000000000
 40
5.300000190734863
 41
0.0000000000000000
 71
     1
 72
     1
  1
{\H0.90x;{6419}}
 11
1.000000000000000
 21
0.0000000000000000
 31
0.0000000000000000
  7
STANDARD
  0
MTEXT
  5
46B
100
AcDbEntity
  8
WAKU0
  6
CONTINUOUS
 62
3
100
AcDbMText
 10
362.3000000834465
 20
20.15000009536743
 30
0.0000000000000000
 40
5.300000190734863
 41
0.0000000000000000
 71
     1
 72
     1
  1
{\H0.87x;{39}}
 11
1.000000000000000
 21
0.0000000000000000
 31
0.0000000000000000
  7
STANDARD
  0
MTEXT
  5
46C
100
AcDbEntity
  8
WAKU0
  6
CONTINUOUS
 62
3
100
AcDbMText
 10
345.5000001192093
 20
20.15000009536743
 30
0.0000000000000000
 40
5.300000190734863
 41
0.0000000000000000
 71
     1
 72
     1
  1
{\H0.89x;{61M}}
 11
1.000000000000000
 21
0.0000000000000000
 31
0.0000000000000000
  7
STANDARD
  0
MTEXT
  5
46D
100
AcDbEntity
  8
WAKU0
  6
CONTINUOUS
 62
3
100
AcDbMText
 10
400.0000000476837
 20
20.15000009536743
 30
0.0000000000000000
 40
5.300000190734863
 41
0.0000000000000000
 71
     1
 72
     1
  1
{\H0.81x;{0}}
 11
1.000000000000000
 21
0.0000000000000000
 31
0.0000000000000000
  7
STANDARD
  0
MTEXT
  5
46E
100
AcDbEntity
  8
WAKU0
  6
CONTINUOUS
 62
3
100
AcDbMText
 10
400.0000000819564
 20
44.84999990463257
 30
0.0000000000000000
 40
5.300000190734863
 41
0.0000000000000000
 71
     7
 72
     1
  1
{\H0.81x;{ }}
 11
1.000000000000000
 21
0.0000000000000000
 31
0.0000000000000000
  7
STANDARD
  0
MTEXT
  5
46F
100
AcDbEntity
  8
WAKU0
  6
CONTINUOUS
 62
3
100
AcDbMText
 10
289.3850002884865
 20
33.00000000000000
 30
0.0000000000000000
 40
3.000000000000000
 41
0.0000000000000000
 71
     7
 72
     1
  1
{\H0.93x;{DRAWN BY}}
 11
1.000000000000000
 21
0.0000000000000000
 31
0.0000000000000000
  7
STANDARD
  0
MTEXT
  5
470
100
AcDbEntity
  8
WAKU0
  6
CONTINUOUS
 62
3
100
AcDbMText
 10
269.2149997949600
 20
32.95000004768372
 30
0.0000000000000000
 40
3.099999904632568
 41
0.0000000000000000
 71
     7
 72
     1
  1
{\H0.92x;{CHIEF}}
 11
1.000000000000000
 21
0.0000000000000000
 31
0.0000000000000000
  7
STANDARD
  0
MTEXT
  5
471
100
AcDbEntity
  8
WAKU0
  6
CONTINUOUS
 62
3
100
AcDbMText
 10
242.4249997138977
 20
32.95000004768372
 30
0.0000000000000000
 40
3.099999904632568
 41
0.0000000000000000
 71
     7
 72
     1
  1
{\H0.92x;{MANAGER}}
 11
1.000000000000000
 21
0.0000000000000000
 31
0.0000000000000000
  7
STANDARD
  0
MTEXT
  5
472
100
AcDbEntity
  8
WAKU0
  6
CONTINUOUS
 62
3
100
AcDbMText
 10
244.6599994301796
 20
18.13333336512248
 30
0.0000000000000000
 40
3.099999904632568
 41
0.0000000000000000
 71
     7
 72
     1
  1
{\H0.93x;{KITAGAWA IRON\PWORKS CO.,LTD.}}
 11
1.000000000000000
 21
0.0000000000000000
 31
0.0000000000000000
  7
STANDARD
  0
MTEXT
  5
473
100
AcDbEntity
  8
WAKU0
  6
CONTINUOUS
 62
3
100
AcDbMText
 10
241.0850002169609
 20
46.50000000000000
 30
0.0000000000000000
 40
3.000000000000000
 41
0.0000000000000000
 71
     7
 72
     1
  1
{\H0.92x;{CAREER}}
 11
1.000000000000000
 21
0.0000000000000000
 31
0.0000000000000000
  7
STANDARD
  0
MTEXT
  5
474
100
AcDbEntity
  8
WAKU0
  6
CONTINUOUS
 62
3
100
AcDbMText
 10
294.6099998354912
 20
18.95000004768372
 30
0.0000000000000000
 40
3.099999904632568
 41
0.0000000000000000
 71
     7
 72
     1
  1
{\H0.91x;{DATE}}
 11
1.000000000000000
 21
0.0000000000000000
 31
0.0000000000000000
  7
STANDARD
  0
MTEXT
  5
475
100
AcDbEntity
  8
WAKU0
  6
CONTINUOUS
 62
3
100
AcDbMText
 10
313.9000002145767
 20
26.50000000000000
 30
0.0000000000000000
 40
3.000000000000000
 41
0.0000000000000000
 71
     7
 72
     1
  1
{\H0.63x;{3RD ANGLE}}
 11
1.000000000000000
 21
0.0000000000000000
 31
0.0000000000000000
  7
STANDARD
  0
MTEXT
  5
476
100
AcDbEntity
  8
WAKU0
  6
CONTINUOUS
 62
3
100
AcDbMText
 10
315.2149997949600
 20
45.95000004768372
 30
0.0000000000000000
 40
3.099999904632568
 41
0.0000000000000000
 71
     7
 72
     1
  1
{\H0.92x;{SCALE}}
 11
1.000000000000000
 21
0.0000000000000000
 31
0.0000000000000000
  7
STANDARD
  0
MTEXT
  5
477
100
AcDbEntity
  8
WAKU0
  6
CONTINUOUS
 62
3
100
AcDbMText
 10
405.7000000476837
 20
46.00000000000000
 30
0.0000000000000000
 40
3.000000000000000
 41
0.0000000000000000
 71
     7
 72
     1
  1
{\H0.63x;{kg}}
 11
1.000000000000000
 21
0.0000000000000000
 31
0.0000000000000000
  7
STANDARD
  0
MTEXT
  5
478
100
AcDbEntity
  8
WAKU0
  6
CONTINUOUS
 62
3
100
AcDbMText
 10
375.6000001430512
 20
46.00000000000000
 30
0.0000000000000000
 40
3.000000000000000
 41
0.0000000000000000
 71
     7
 72
     1
  1
{\H0.63x;{WEIGHT}}
 11
1.000000000000000
 21
0.0000000000000000
 31
0.0000000000000000
  7
STANDARD
  0
MTEXT
  5
479
100
AcDbEntity
  8
WAKU0
  6
CONTINUOUS
 62
3
100
AcDbMText
 10
334.0049998760223
 20
18.13333336512248
 30
0.0000000000000000
 40
3.099999904632568
 41
0.0000000000000000
 71
     7
 72
     1
  1
{\H0.90x;{DRW\PNO.}}
 11
1.000000000000000
 21
0.0000000000000000
 31
0.0000000000000000
  7
STANDARD
  0
MTEXT
  5
47A
100
AcDbEntity
  8
WAKU0
  6
CONTINUOUS
 62
3
100
AcDbMText
 10
332.6099998354912
 20
31.95000004768372
 30
0.0000000000000000
 40
3.099999904632568
 41
0.0000000000000000
 71
     7
 72
     1
  1
{\H0.91x;{NAME}}
 11
1.000000000000000
 21
0.0000000000000000
 31
0.0000000000000000
  7
STANDARD
  0
MTEXT
  5
47B
100
AcDbEntity
  8
WAKU0
  6
CONTINUOUS
 62
3
100
AcDbMText
 10
332.6099998354912
 20
45.95000004768372
 30
0.0000000000000000
 40
3.099999904632568
 41
0.0000000000000000
 71
     7
 72
     1
  1
{\H0.91x;{TYPE}}
 11
1.000000000000000
 21
0.0000000000000000
 31
0.0000000000000000
  7
STANDARD
  0
LINE
  5
47C
100
AcDbEntity
  8
WAKU0
  6
HIDDEN
 62
3
100
AcDbLine
 10
407.1599564743885
 20
13.84999990463257
 30
0.0000000000000000
 11
396.9400436209789
 21
13.84999990463257
 31
0.0000000000000000
  0
LINE
  5
47D
100
AcDbEntity
  8
WAKU0
  6
HIDDEN
 62
3
100
AcDbLine
 10
407.1599564743885
 20
13.84999990463250
 30
0.0000000000000000
 11
402.0500000476852
 21
22.70070406014901
 31
0.0000000000000000
  0
LINE
  5
47E
100
AcDbEntity
  8
WAKU0
  6
HIDDEN
 62
3
100
AcDbLine
 10
402.0500000476852
 20
22.70070406014902
 30
0.0000000000000000
 11
396.9400436209789
 21
13.84999990463248
 31
0.0000000000000000
  0
LINE
  5
47F
100
AcDbEntity
  8
WAKU0
  6
CONTINUOUS
 62
3
100
AcDbLine
 10
330.4713877753800
 20
15.78041421262812
 30
0.0000000000000000
 11
330.4713877753800
 21
21.78041421262815
 31
0.0000000000000000
  0
LINE
  5
480
100
AcDbEntity
  8
WAKU0
  6
CONTINUOUS
 62
3
100
AcDbLine
 10
323.9336941228225
 20
17.28041421262811
 30
0.0000000000000000
 11
323.9336941228225
 21
20.28041421262824
 31
0.0000000000000000
  0
LINE
  5
481
100
AcDbEntity
  8
WAKU0
  6
CENTER
 62
12
100
AcDbLine
 10
313.4321805514995
 20
18.78041421262813
 30
0.0000000000000000
 11
331.2765788964694
 21
18.78041421262813
 31
0.0000000000000000
  0
LINE
  5
482
100
AcDbEntity
  8
WAKU0
  6
CENTER
 62
12
100
AcDbLine
 10
317.4474565857986
 20
14.55921662918448
 30
0.0000000000000000
 11
317.4474565857986
 21
22.89865102149943
 31
0.0000000000000000
  0
LINE
  5
483
100
AcDbEntity
  8
WAKU0
  6
CONTINUOUS
 62
3
100
AcDbLine
 10
323.9336941228225
 20
20.28041421262797
 30
0.0000000000000000
 11
330.4713877753800
 21
21.78041421262795
 31
0.0000000000000000
  0
LINE
  5
484
100
AcDbEntity
  8
WAKU0
  6
CONTINUOUS
 62
3
100
AcDbLine
 10
323.9336941228225
 20
17.28041421262811
 30
0.0000000000000000
 11
330.4713877753799
 21
15.78041421262812
 31
0.0000000000000000
  0
CIRCLE
  5
485
100
AcDbEntity
  8
WAKU0
  6
CONTINUOUS
 62
3
100
AcDbCircle
 10
317.4474565857986
 20
18.78041421262813
 30
0.0000000000000000
 40
1.499999999999972
  0
CIRCLE
  5
486
100
AcDbEntity
  8
WAKU0
  6
CONTINUOUS
 62
3
100
AcDbCircle
 10
317.4474565857986
 20
18.78041421262813
 30
0.0000000000000000
 40
2.999999999999979
  0
LINE
  5
487
100
AcDbEntity
  8
A0
  6
CONTINUOUS
 62
3
100
AcDbLine
 10
170.0542289246163
 20
134.3989379577326
 30
0.0000000000000000
 11
170.0542289246163
 21
19.89894022270454
 31
0.0000000000000000
  0
LINE
  5
488
100
AcDbEntity
  8
A0
  6
CONTINUOUS
 62
3
100
AcDbLine
 10
37.05422940140628
 20
121.6489381964660
 30
0.0000000000000000
 11
170.0542289246163
 21
121.6489381965251
 31
0.0000000000000000
  0
LINE
  5
489
100
AcDbEntity
  8
A0
  6
CONTINUOUS
 62
3
100
AcDbLine
 10
37.05422940140525
 20
134.3989379576147
 30
0.0000000000000000
 11
170.0542289246163
 21
134.3989379577327
 31
0.0000000000000000
  0
MTEXT
  5
48A
100
AcDbEntity
  8
A0
  6
CONTINUOUS
 62
3
100
AcDbMText
 10
53.92922820933691
 20
131.8989379580772
 30
0.0000000000000000
 40
7.749999761581421
 41
0.0000000000000000
 71
     1
 72
     1
  1
{\H0.71x;{仕様　　SPECIFICATIONS}}
 11
1.000000000000000
 21
0.0000000000000000
 31
0.0000000000000000
  7
KNJYOKO
  0
MTEXT
  5
48B
100
AcDbEntity
  8
A0
  6
CONTINUOUS
 62
3
100
AcDbMText
 10
126.0542279709109
 20
115.2739383154131
 30
0.0000000000000000
 40
7.749999761581421
 41
0.0000000000000000
 71
     1
 72
     1
  1
{\H0.70x;{０～１２８mm}}
 11
1.000000000000000
 21
0.0000000000000000
 31
0.0000000000000000
  7
KNJYOKO
  0
MTEXT
  5
48C
100
AcDbEntity
  8
A0
  6
CONTINUOUS
 62
3
100
AcDbMText
 10
38.30422940142242
 20
110.1489384346224
 30
0.0000000000000000
 40
7.749999761581421
 41
0.0000000000000000
 71
     1
 72
     1
  1
{\H0.71x;{CLAMPING RANGE}}
 11
1.000000000000000
 21
0.0000000000000000
 31
0.0000000000000000
  7
STANDARD
  0
LINE
  5
48D
100
AcDbEntity
  8
A0
  6
CONTINUOUS
 62
3
100
AcDbLine
 10
37.05422940140776
 20
101.1489386728703
 30
0.0000000000000000
 11
170.0542289246163
 21
101.1489386729882
 31
0.0000000000000000
  0
LINE
  5
48E
100
AcDbEntity
  8
A0
  6
CONTINUOUS
 62
3
100
AcDbLine
 10
124.8042279709087
 20
121.6489381965029
 30
0.0000000000000000
 11
124.8042279709087
 21
101.1489386729436
 31
0.0000000000000000
  0
MTEXT
  5
48F
100
AcDbEntity
  8
A0
  6
CONTINUOUS
 62
3
100
AcDbMText
 10
38.30422940142242
 20
89.64893891145954
 30
0.0000000000000000
 40
7.749999761581421
 41
0.0000000000000000
 71
     1
 72
     1
  1
{\H0.71x;{TIGHTENING TORQUE}}
 11
1.000000000000000
 21
0.0000000000000000
 31
0.0000000000000000
  7
STANDARD
  0
LINE
  5
490
100
AcDbEntity
  8
A0
  6
CONTINUOUS
 62
3
100
AcDbLine
 10
170.0542289246162
 20
80.64893915019940
 30
0.0000000000000000
 11
37.05422940140938
 21
80.64893915014028
 31
0.0000000000000000
  0
LINE
  5
491
100
AcDbEntity
  8
A0
  6
CONTINUOUS
 62
3
100
AcDbLine
 10
124.8042279709087
 20
80.64893915017723
 30
0.0000000000000000
 11
124.8042279709087
 21
19.89894022266452
 31
0.0000000000000000
  0
LINE
  5
492
100
AcDbEntity
  8
A0
  6
CONTINUOUS
 62
3
100
AcDbLine
 10
124.8042279709086
 20
60.14893962701454
 30
0.0000000000000000
 11
170.0542289246163
 21
60.14893962703454
 31
0.0000000000000000
  0
MTEXT
  5
493
100
AcDbEntity
  8
A0
  6
CONTINUOUS
 62
3
100
AcDbMText
 10
131.0542284477481
 20
58.89893962633704
 30
0.0000000000000000
 40
7.749999761581421
 41
0.0000000000000000
 71
     1
 72
     1
  1
{\H0.67x;{2}}
 11
1.000000000000000
 21
0.0000000000000000
 31
0.0000000000000000
  7
STANDARD
  0
LINE
  5
494
100
AcDbEntity
  8
A0
  6
CONTINUOUS
 62
3
100
AcDbLine
 10
170.0542289246162
 20
39.64893986545513
 30
0.0000000000000000
 11
37.05422940141180
 21
39.64893986539602
 31
0.0000000000000000
  0
MTEXT
  5
495
100
AcDbEntity
  8
A0
  6
CONTINUOUS
 62
3
100
AcDbMText
 10
131.0542284477481
 20
48.64893962671528
 30
0.0000000000000000
 40
7.749999761581421
 41
0.0000000000000000
 71
     1
 72
     1
  1
{\H0.67x;{3}}
 11
1.000000000000000
 21
0.0000000000000000
 31
0.0000000000000000
  7
STANDARD
  0
LINE
  5
496
100
AcDbEntity
  8
A0
  6
CONTINUOUS
 62
3
100
AcDbLine
 10
124.8042279709085
 20
70.39893938819961
 30
0.0000000000000000
 11
170.0542289246163
 21
70.39893938823974
 31
0.0000000000000000
  0
LINE
  5
497
100
AcDbEntity
  8
A0
  6
CONTINUOUS
 62
3
100
AcDbLine
 10
141.9530228407902
 20
80.64893915018484
 30
0.0000000000000000
 11
141.9530228407902
 21
39.64893986544286
 31
0.0000000000000000
  0
MTEXT
  5
498
100
AcDbEntity
  8
A0
  6
CONTINUOUS
 62
3
100
AcDbMText
 10
145.7752820929108
 20
69.14893938791755
 30
0.0000000000000000
 40
7.749999761581421
 41
0.0000000000000000
 71
     1
 72
     1
  1
{\H0.70x;{12KN}}
 11
1.000000000000000
 21
0.0000000000000000
 31
0.0000000000000000
  7
STANDARD
  0
MTEXT
  5
499
100
AcDbEntity
  8
A0
  6
CONTINUOUS
 62
3
100
AcDbMText
 10
145.7752820929108
 20
58.89893962633613
 30
0.0000000000000000
 40
7.749999761581421
 41
0.0000000000000000
 71
     1
 72
     1
  1
{\H0.70x;{21KN}}
 11
1.000000000000000
 21
0.0000000000000000
 31
0.0000000000000000
  7
STANDARD
  0
MTEXT
  5
49A
100
AcDbEntity
  8
A0
  6
CONTINUOUS
 62
3
100
AcDbMText
 10
145.7752820929108
 20
48.64893962671437
 30
0.0000000000000000
 40
7.749999761581421
 41
0.0000000000000000
 71
     1
 72
     1
  1
{\H0.70x;{30KN}}
 11
1.000000000000000
 21
0.0000000000000000
 31
0.0000000000000000
  7
STANDARD
  0
MTEXT
  5
49B
100
AcDbEntity
  8
A0
  6
CONTINUOUS
 62
3
100
AcDbMText
 10
131.0542284477481
 20
69.14893938791846
 30
0.0000000000000000
 40
7.749999761581421
 41
0.0000000000000000
 71
     1
 72
     1
  1
{\H0.67x;{1}}
 11
1.000000000000000
 21
0.0000000000000000
 31
0.0000000000000000
  7
STANDARD
  0
MTEXT
  5
49C
100
AcDbEntity
  8
A0
  6
CONTINUOUS
 62
3
100
AcDbMText
 10
136.4330416180824
 20
33.27393998433291
 30
0.0000000000000000
 40
7.749999761581421
 41
0.0000000000000000
 71
     1
 72
     1
  1
{\H0.70x;{19kg}}
 11
1.000000000000000
 21
0.0000000000000000
 31
0.0000000000000000
  7
STANDARD
  0
MTEXT
  5
49D
100
AcDbEntity
  8
A0
  6
CONTINUOUS
 62
3
100
AcDbMText
 10
38.30422940142242
 20
28.14894010355243
 30
0.0000000000000000
 40
6.999999880790710
 41
0.0000000000000000
 71
     1
 72
     1
  1
{\H0.67x;{MASS OF POWER VISE}}
 11
1.000000000000000
 21
0.0000000000000000
 31
0.0000000000000000
  7
STANDARD
  0
MTEXT
  5
49E
100
AcDbEntity
  8
A0
  6
CONTINUOUS
 62
3
100
AcDbMText
 10
38.30422940142242
 20
38.39893986513386
 30
0.0000000000000000
 40
7.749999761581421
 41
0.0000000000000000
 71
     1
 72
     1
  1
{\H0.70x;{製品質量}}
 11
1.000000000000000
 21
0.0000000000000000
 31
0.0000000000000000
  7
KNJYOKO
  0
MTEXT
  5
49F
100
AcDbEntity
  8
A0
  6
CONTINUOUS
 62
3
100
AcDbMText
 10
38.30422940142242
 20
69.14893938829670
 30
0.0000000000000000
 40
7.749999761581421
 41
0.0000000000000000
 71
     1
 72
     1
  1
{\H0.71x;{CLAMP RANGE}}
 11
1.000000000000000
 21
0.0000000000000000
 31
0.0000000000000000
  7
STANDARD
  0
MTEXT
  5
4A0
100
AcDbEntity
  8
A0
  6
CONTINUOUS
 62
3
100
AcDbMText
 10
38.30422940142242
 20
79.39893914987812
 30
0.0000000000000000
 40
7.749999761581421
 41
0.0000000000000000
 71
     1
 72
     1
  1
{\H0.70x;{締付けレンジ}}
 11
1.000000000000000
 21
0.0000000000000000
 31
0.0000000000000000
  7
KNJYOKO
  0
LINE
  5
4A1
100
AcDbEntity
  8
A0
  6
CONTINUOUS
 62
3
100
AcDbLine
 10
37.05422940140527
 20
134.3989379576143
 30
0.0000000000000000
 11
37.05422940141344
 21
19.89894022259091
 31
0.0000000000000000
  0
LINE
  5
4A2
100
AcDbEntity
  8
A0
  6
CONTINUOUS
 62
3
100
AcDbLine
 10
170.0542289246163
 20
19.89894022270920
 30
0.0000000000000000
 11
37.05422940141339
 21
19.89894022259125
 31
0.0000000000000000
  0
MTEXT
  5
4A3
100
AcDbEntity
  8
A0
  6
CONTINUOUS
 62
3
100
AcDbMText
 10
38.30422940142242
 20
99.89893867304096
 30
0.0000000000000000
 40
7.749999761581421
 41
0.0000000000000000
 71
     1
 72
     1
  1
{\H0.70x;{締付トルク}}
 11
1.000000000000000
 21
0.0000000000000000
 31
0.0000000000000000
  7
KNJYOKO
  0
MTEXT
  5
4A4
100
AcDbEntity
  8
A0
  6
CONTINUOUS
 62
3
100
AcDbMText
 10
38.30422940142242
 20
120.3989381962038
 30
0.0000000000000000
 40
7.749999761581421
 41
0.0000000000000000
 71
     1
 72
     1
  1
{\H0.70x;{口金の開き}}
 11
1.000000000000000
 21
0.0000000000000000
 31
0.0000000000000000
  7
KNJYOKO
  0
LINE
  5
4A5
100
AcDbEntity
  8
A0
  6
CONTINUOUS
 62
3
100
AcDbLine
 10
124.8042279709087
 20
49.89893962701454
 30
0.0000000000000000
 11
170.0542289246163
 21
49.89893962703454
 31
0.0000000000000000
  0
MTEXT
  5
4A6
100
AcDbEntity
  8
A0
  6
CONTINUOUS
 62
3
100
AcDbMText
 10
145.7752820929108
 20
79.39893914987721
 30
0.0000000000000000
 40
7.749999761581421
 41
0.0000000000000000
 71
     1
 72
     1
  1
{\H0.70x;{　8KN}}
 11
1.000000000000000
 21
0.0000000000000000
 31
0.0000000000000000
  7
KNJYOKO
  0
MTEXT
  5
4A7
100
AcDbEntity
  8
A0
  6
CONTINUOUS
 62
3
100
AcDbMText
 10
131.0542284477481
 20
79.39893914987812
 30
0.0000000000000000
 40
7.749999761581421
 41
0.0000000000000000
 71
     1
 72
     1
  1
{\H0.67x;{0}}
 11
1.000000000000000
 21
0.0000000000000000
 31
0.0000000000000000
  7
STANDARD
  0
ENDSEC
  0
SECTION
  2
OBJECTS
  0
DICTIONARY
  5
507
100
AcDbDictionary
  3
ACAD_GROUP
350
508
  3
ACAD_MLINESTYLE
350
509
  0
DICTIONARY
  5
508
102
{ACAD_REACTORS
330
507
102
}
100
AcDbDictionary
  0
DICTIONARY
  5
509
102
{ACAD_REACTORS
330
507
102
}
100
AcDbDictionary
  3
STANDARD
350
50A
  0
MLINESTYLE
  5
50A
102
{ACAD_REACTORS
330
509
102
}
100
AcDbMlineStyle
  2
STANDARD
 70
     0
  3

 62
   256
 51
90.00
 52
90.00
 71
     2
 49
0.50
 62
   256
  6
BYLAYER
 49
-0.50
 62
   256
  6
BYLAYER
  0
ENDSEC
  0
EOF
