  0
SECTION
  2
HEADER
  9
$ACADVER
  1
AC1014
  9
$DWGCODEPAGE
  3
ANSI_932
  9
$LTSCALE
 40
20.0
  9
$FILLMODE
 70
     1
  9
$CLAYER
  8
0
  9
$PDMODE
 70
     0
  9
$SPLFRAME
 70
     0
  9
$SPLINETYPE
 70
     6
  9
$SPLINESEGS
 70
     8
  9
$DIMASZ
 40
2.000000
  9
$DIMEXE
 40
2.000000
  9
$DIMEXO
 40
0.800000
  9
$DIMTAD
 70
     1
  9
$DIMTIH
 70
     0
  9
$DIMTOH
 70
     0
  9
$DIMTVP
 40
0.500000
  9
$DIMTXT
 40
3.100000
  9
$EXTMIN
 10
0.000000
 20
0.000000
 30
0.000000
  9
$EXTMAX
 10
297.000000
 20
420.000000
 30
0.000000
  9
$MEASUREMENT
 70
  1
  9
$LIMMIN
 10
0.000000
 20
0.000000
  9
$LIMMAX
 10
297.000000
 20
420.000000
  9
$HANDLING
 70
     1
  9
$HANDSEED
  5
605
  9
$DIMBLK
  1
_OPEN
  9
$DIMDEC
 70
     3
  9
$DIMAUNIT
 70
     1
  9
$DIMZIN
 70
     8
  9
$DIMTOFL
 70
     1
  0
ENDSEC
  0
SECTION
  2
CLASSES
  0
ENDSEC
  0
SECTION
  2
TABLES
  0
TABLE
  2
VPORT
  5
59F
100
AcDbSymbolTable
 70
     1
  0
VPORT
  5
5A0
100
AcDbSymbolTableRecord
100
AcDbViewportTableRecord
  2
*ACTIVE
 70
     0
 12
-974.100837
 22
-630.198303
 40
10075.924498
 41
1.314634
  0
ENDTAB
  0
TABLE
  2
LTYPE
  5
5A1
100
AcDbSymbolTable
 70
     4
  0
LTYPE
  5
5A2
100
AcDbSymbolTableRecord
100
AcDbLinetypeTableRecord
  2
BYBLOCK
 70
     0
  3

 72
    65
 73
     0
 40
0.0
  0
LTYPE
  5
5A3
100
AcDbSymbolTableRecord
100
AcDbLinetypeTableRecord
  2
BYLAYER
 70
     0
  3

 72
    65
 73
     0
 40
0.0
  0
LTYPE
  5
5A4
100
AcDbSymbolTableRecord
100
AcDbLinetypeTableRecord
  2
CONTINUOUS
 70
     0
  3
Solid line (NEC CAE2D for Win R12.1 : 2016.08.05)
 72
    65
 73
     0
 40
0.0
  0
LTYPE
  5
5A5
100
AcDbSymbolTableRecord
100
AcDbLinetypeTableRecord
  2
HIDDEN
 70
     0
  3
__ __ __ __ __ __ __ __ __ __ __ __ __ __
 72
    65
 73
     2
 40
0.375
 49
0.25
 74
     0
 49
-0.125
 74
     0
  0
LTYPE
  5
5A6
100
AcDbSymbolTableRecord
100
AcDbLinetypeTableRecord
  2
CENTER
 70
     0
  3
____ _ ____ _ ____ _ ____ _ ____ _ ____
 72
    65
 73
     4
 40
2.0
 49
1.25
 74
     0
 49
-0.25
 74
     0
 49
0.25
 74
     0
 49
-0.25
 74
     0
  0
LTYPE
  5
5A7
100
AcDbSymbolTableRecord
100
AcDbLinetypeTableRecord
  2
PHANTOM
 70
     0
  3
______  __  __  ______  __  __  ______ 
 72
    65
 73
     6
 40
2.5
 49
1.25
 74
     0
 49
-0.25
 74
     0
 49
0.25
 74
     0
 49
-0.25
 74
     0
 49
0.25
 74
     0
 49
-0.25
 74
     0
  0
ENDTAB
  0
TABLE
  2
LAYER
  5
5A8
100
AcDbSymbolTable
 70
    10
  0
LAYER
  5
5A9
100
AcDbSymbolTableRecord
100
AcDbLayerTableRecord
  2
0
 70
     0
 62
     7
  6
CONTINUOUS
  0
LAYER
  5
5AA
100
AcDbSymbolTableRecord
100
AcDbLayerTableRecord
  2
MAIN0
 70
     0
 62
     7
  6
CONTINUOUS
  0
LAYER
  5
5AB
100
AcDbSymbolTableRecord
100
AcDbLayerTableRecord
  2
MAIN1
 70
     0
 62
     7
  6
CONTINUOUS
  0
LAYER
  5
5AC
100
AcDbSymbolTableRecord
100
AcDbLayerTableRecord
  2
MAIN5
 70
     0
 62
     7
  6
CONTINUOUS
  0
LAYER
  5
5AD
100
AcDbSymbolTableRecord
100
AcDbLayerTableRecord
  2
MAIN10
 70
     0
 62
     7
  6
CONTINUOUS
  0
LAYER
  5
5AE
100
AcDbSymbolTableRecord
100
AcDbLayerTableRecord
  2
MAIN1023
 70
     0
 62
    16
  6
CONTINUOUS
  0
LAYER
  5
5AF
100
AcDbSymbolTableRecord
100
AcDbLayerTableRecord
  2
WAKU0
 70
     0
 62
     7
  6
CONTINUOUS
  0
LAYER
  5
5B0
100
AcDbSymbolTableRecord
100
AcDbLayerTableRecord
  2
WAKU1023
 70
     0
 62
    16
  6
CONTINUOUS
  0
LAYER
  5
5B1
100
AcDbSymbolTableRecord
100
AcDbLayerTableRecord
  2
A0
 70
     0
 62
     7
  6
CONTINUOUS
  0
LAYER
  5
5B2
100
AcDbSymbolTableRecord
100
AcDbLayerTableRecord
  2
A1023
 70
     0
 62
    16
  6
CONTINUOUS
  0
ENDTAB
  0
TABLE
  2
STYLE
  5
5B3
100
AcDbSymbolTable
 70
     4
  0
STYLE
  5
5B4
100
AcDbSymbolTableRecord
100
AcDbTextStyleTableRecord
  2
STANDARD
 70
    64
 40
0.0
 41
1.0
 50
0.0
 71
     0
 42
7.749999761581421
  3
TXT
  4

  0
STYLE
  5
5B5
100
AcDbSymbolTableRecord
100
AcDbTextStyleTableRecord
  2
ANKTATE
 70
    68
 40
0.0
 41
1.0
 50
0.0
 71
     0
 42
7.749999761581421
  3
TXT
  4

  0
STYLE
  5
5B6
100
AcDbSymbolTableRecord
100
AcDbTextStyleTableRecord
  2
KNJYOKO
 70
    64
 40
0.0
 41
1.0
 50
0.0
 71
     0
 42
7.749999761581421
  3
TXT
  4
BIGFONT
  0
STYLE
  5
5B7
100
AcDbSymbolTableRecord
100
AcDbTextStyleTableRecord
  2
KNJTATE
 70
    68
 40
0.0
 41
1.0
 50
0.0
 71
     0
 42
7.749999761581421
  3
TXT
  4
BIGFONT
  0
ENDTAB
  0
TABLE
  2
VIEW
  5
5B8
100
AcDbSymbolTable
 70
     0
  0
ENDTAB
  0
TABLE
  2
UCS
  5
5B9
100
AcDbSymbolTable
 70
     0
  0
ENDTAB
  0
TABLE
  2
APPID
  5
5BA
100
AcDbSymbolTable
 70
     1
  0
APPID
  5
5BB
100
AcDbSymbolTableRecord
100
AcDbRegAppTableRecord
  2
ACAD
 70
     0
  0
ENDTAB
  0
TABLE
  2
DIMSTYLE
  5
5BC
100
AcDbSymbolTable
 70
     1
  0
DIMSTYLE
105
5BD
100
AcDbSymbolTableRecord
100
AcDbDimStyleTableRecord
  2
STANDARD
 70
     0
 41
2.000000
 44
2.000000
 42
0.800000
145
0.661290
140
3.100000
144
1.000000
146
0.903226
340
5B4
  0
DIMSTYLE
105
5BE
100
AcDbSymbolTableRecord
100
AcDbDimStyleTableRecord
  2
MAIN001
 70
     0
 41
5.000000
 44
5.000000
 42
2.000000
145
0.564516
140
7.750000
144
1.000000
146
0.903226
 77
     1
 73
     0
 74
     0
271
     3
275
     1
 78
     8
172
     1
340
5B4
  0
DIMSTYLE
105
5BF
100
AcDbSymbolTableRecord
100
AcDbDimStyleTableRecord
  2
WAKU002
 70
     0
 41
2.000000
 44
2.000000
 42
0.800000
145
0.661290
140
3.100000
144
1.000000
146
0.903226
 77
     1
 73
     0
 74
     0
271
     3
275
     1
 78
     8
172
     1
340
5B4
  0
DIMSTYLE
105
5C0
100
AcDbSymbolTableRecord
100
AcDbDimStyleTableRecord
  2
A003
 70
     0
 41
5.000000
 44
5.000000
 42
2.000000
145
0.564516
140
7.750000
144
1.000000
146
0.903226
 77
     1
 73
     0
 74
     0
271
     3
275
     1
 78
     8
172
     1
340
5B4
  0
ENDTAB
  0
TABLE
  2
BLOCK_RECORD
  5
5C1
100
AcDbSymbolTable
 70
    68
  0
BLOCK_RECORD
  5
5C2
100
AcDbSymbolTableRecord
100
AcDbBlockTableRecord
  2
*MODEL_SPACE
  0
BLOCK_RECORD
  5
5C3
100
AcDbSymbolTableRecord
100
AcDbBlockTableRecord
  2
*PAPER_SPACE
  0
BLOCK_RECORD
  5
1
100
AcDbSymbolTableRecord
100
AcDbBlockTableRecord
  2
_NONE
  0
BLOCK_RECORD
  5
4
100
AcDbSymbolTableRecord
100
AcDbBlockTableRecord
  2
_CLOSED
  0
BLOCK_RECORD
  5
B
100
AcDbSymbolTableRecord
100
AcDbBlockTableRecord
  2
_DOT
  0
BLOCK_RECORD
  5
13
100
AcDbSymbolTableRecord
100
AcDbBlockTableRecord
  2
_OPEN
  0
BLOCK_RECORD
  5
19
100
AcDbSymbolTableRecord
100
AcDbBlockTableRecord
  2
_ORIGIN
  0
BLOCK_RECORD
  5
1E
100
AcDbSymbolTableRecord
100
AcDbBlockTableRecord
  2
_OPEN30
  0
BLOCK_RECORD
  5
24
100
AcDbSymbolTableRecord
100
AcDbBlockTableRecord
  2
_BOXFILLED
  0
BLOCK_RECORD
  5
29
100
AcDbSymbolTableRecord
100
AcDbBlockTableRecord
  2
_BOXBLANK
  0
BLOCK_RECORD
  5
31
100
AcDbSymbolTableRecord
100
AcDbBlockTableRecord
  2
_OBLIQUE
  0
BLOCK_RECORD
  5
35
100
AcDbSymbolTableRecord
100
AcDbBlockTableRecord
  2
_OPEN90
  0
BLOCK_RECORD
  5
3B
100
AcDbSymbolTableRecord
100
AcDbBlockTableRecord
  2
_CLOSEDBLANK
  0
BLOCK_RECORD
  5
41
100
AcDbSymbolTableRecord
100
AcDbBlockTableRecord
  2
_DOTBLANK
  0
BLOCK_RECORD
  5
5C4
100
AcDbSymbolTableRecord
100
AcDbBlockTableRecord
  2
*D0
  0
BLOCK_RECORD
  5
5C5
100
AcDbSymbolTableRecord
100
AcDbBlockTableRecord
  2
*D1
  0
BLOCK_RECORD
  5
5C6
100
AcDbSymbolTableRecord
100
AcDbBlockTableRecord
  2
*D2
  0
BLOCK_RECORD
  5
5C7
100
AcDbSymbolTableRecord
100
AcDbBlockTableRecord
  2
*D3
  0
BLOCK_RECORD
  5
5C8
100
AcDbSymbolTableRecord
100
AcDbBlockTableRecord
  2
*D4
  0
BLOCK_RECORD
  5
5C9
100
AcDbSymbolTableRecord
100
AcDbBlockTableRecord
  2
*D5
  0
BLOCK_RECORD
  5
5CA
100
AcDbSymbolTableRecord
100
AcDbBlockTableRecord
  2
*D6
  0
BLOCK_RECORD
  5
5CB
100
AcDbSymbolTableRecord
100
AcDbBlockTableRecord
  2
*D7
  0
BLOCK_RECORD
  5
5CC
100
AcDbSymbolTableRecord
100
AcDbBlockTableRecord
  2
*D8
  0
BLOCK_RECORD
  5
5CD
100
AcDbSymbolTableRecord
100
AcDbBlockTableRecord
  2
*D9
  0
BLOCK_RECORD
  5
5CE
100
AcDbSymbolTableRecord
100
AcDbBlockTableRecord
  2
*D10
  0
BLOCK_RECORD
  5
5CF
100
AcDbSymbolTableRecord
100
AcDbBlockTableRecord
  2
*D11
  0
BLOCK_RECORD
  5
5D0
100
AcDbSymbolTableRecord
100
AcDbBlockTableRecord
  2
*D12
  0
BLOCK_RECORD
  5
5D1
100
AcDbSymbolTableRecord
100
AcDbBlockTableRecord
  2
*D13
  0
BLOCK_RECORD
  5
5D2
100
AcDbSymbolTableRecord
100
AcDbBlockTableRecord
  2
*D14
  0
BLOCK_RECORD
  5
5D3
100
AcDbSymbolTableRecord
100
AcDbBlockTableRecord
  2
*D15
  0
BLOCK_RECORD
  5
5D4
100
AcDbSymbolTableRecord
100
AcDbBlockTableRecord
  2
*D16
  0
BLOCK_RECORD
  5
5D5
100
AcDbSymbolTableRecord
100
AcDbBlockTableRecord
  2
*D17
  0
BLOCK_RECORD
  5
5D6
100
AcDbSymbolTableRecord
100
AcDbBlockTableRecord
  2
*D18
  0
BLOCK_RECORD
  5
5D7
100
AcDbSymbolTableRecord
100
AcDbBlockTableRecord
  2
*D19
  0
BLOCK_RECORD
  5
5D8
100
AcDbSymbolTableRecord
100
AcDbBlockTableRecord
  2
*D20
  0
BLOCK_RECORD
  5
5D9
100
AcDbSymbolTableRecord
100
AcDbBlockTableRecord
  2
*D21
  0
BLOCK_RECORD
  5
5DA
100
AcDbSymbolTableRecord
100
AcDbBlockTableRecord
  2
*D22
  0
BLOCK_RECORD
  5
5DB
100
AcDbSymbolTableRecord
100
AcDbBlockTableRecord
  2
*D23
  0
BLOCK_RECORD
  5
5DC
100
AcDbSymbolTableRecord
100
AcDbBlockTableRecord
  2
*D24
  0
BLOCK_RECORD
  5
5DD
100
AcDbSymbolTableRecord
100
AcDbBlockTableRecord
  2
*D25
  0
BLOCK_RECORD
  5
5DE
100
AcDbSymbolTableRecord
100
AcDbBlockTableRecord
  2
*D26
  0
BLOCK_RECORD
  5
5DF
100
AcDbSymbolTableRecord
100
AcDbBlockTableRecord
  2
D27
  0
BLOCK_RECORD
  5
5E0
100
AcDbSymbolTableRecord
100
AcDbBlockTableRecord
  2
*D28
  0
BLOCK_RECORD
  5
5E1
100
AcDbSymbolTableRecord
100
AcDbBlockTableRecord
  2
*D29
  0
BLOCK_RECORD
  5
5E2
100
AcDbSymbolTableRecord
100
AcDbBlockTableRecord
  2
*D30
  0
BLOCK_RECORD
  5
5E3
100
AcDbSymbolTableRecord
100
AcDbBlockTableRecord
  2
*D31
  0
BLOCK_RECORD
  5
5E4
100
AcDbSymbolTableRecord
100
AcDbBlockTableRecord
  2
*D32
  0
BLOCK_RECORD
  5
5E5
100
AcDbSymbolTableRecord
100
AcDbBlockTableRecord
  2
*D33
  0
BLOCK_RECORD
  5
5E6
100
AcDbSymbolTableRecord
100
AcDbBlockTableRecord
  2
*D34
  0
BLOCK_RECORD
  5
5E7
100
AcDbSymbolTableRecord
100
AcDbBlockTableRecord
  2
*D35
  0
BLOCK_RECORD
  5
5E8
100
AcDbSymbolTableRecord
100
AcDbBlockTableRecord
  2
*D36
  0
BLOCK_RECORD
  5
5E9
100
AcDbSymbolTableRecord
100
AcDbBlockTableRecord
  2
*D37
  0
BLOCK_RECORD
  5
5EA
100
AcDbSymbolTableRecord
100
AcDbBlockTableRecord
  2
*D38
  0
BLOCK_RECORD
  5
5EB
100
AcDbSymbolTableRecord
100
AcDbBlockTableRecord
  2
*D39
  0
BLOCK_RECORD
  5
5EC
100
AcDbSymbolTableRecord
100
AcDbBlockTableRecord
  2
*D40
  0
BLOCK_RECORD
  5
5ED
100
AcDbSymbolTableRecord
100
AcDbBlockTableRecord
  2
*D41
  0
BLOCK_RECORD
  5
5EE
100
AcDbSymbolTableRecord
100
AcDbBlockTableRecord
  2
*D42
  0
BLOCK_RECORD
  5
5EF
100
AcDbSymbolTableRecord
100
AcDbBlockTableRecord
  2
*D43
  0
BLOCK_RECORD
  5
5F0
100
AcDbSymbolTableRecord
100
AcDbBlockTableRecord
  2
*D44
  0
BLOCK_RECORD
  5
5F1
100
AcDbSymbolTableRecord
100
AcDbBlockTableRecord
  2
*D45
  0
BLOCK_RECORD
  5
5F2
100
AcDbSymbolTableRecord
100
AcDbBlockTableRecord
  2
*D46
  0
BLOCK_RECORD
  5
5F3
100
AcDbSymbolTableRecord
100
AcDbBlockTableRecord
  2
*D47
  0
BLOCK_RECORD
  5
5F4
100
AcDbSymbolTableRecord
100
AcDbBlockTableRecord
  2
*D48
  0
BLOCK_RECORD
  5
5F5
100
AcDbSymbolTableRecord
100
AcDbBlockTableRecord
  2
*D49
  0
BLOCK_RECORD
  5
5F6
100
AcDbSymbolTableRecord
100
AcDbBlockTableRecord
  2
*D50
  0
BLOCK_RECORD
  5
5F7
100
AcDbSymbolTableRecord
100
AcDbBlockTableRecord
  2
*D51
  0
BLOCK_RECORD
  5
5F8
100
AcDbSymbolTableRecord
100
AcDbBlockTableRecord
  2
*D52
  0
BLOCK_RECORD
  5
5F9
100
AcDbSymbolTableRecord
100
AcDbBlockTableRecord
  2
*D53
  0
BLOCK_RECORD
  5
5FA
100
AcDbSymbolTableRecord
100
AcDbBlockTableRecord
  2
*D54
  0
BLOCK_RECORD
  5
5FB
100
AcDbSymbolTableRecord
100
AcDbBlockTableRecord
  2
*D55
  0
ENDTAB
  0
ENDSEC
  0
SECTION
  2
BLOCKS
  0
BLOCK
  5
5FC
100
AcDbEntity
  8
0
100
AcDbBlockBegin
  2
*MODEL_SPACE
 70
     0
 10
0.0
 20
0.0
 30
0.0
  3
*MODEL_SPACE
  1

  0
ENDBLK
  5
5FD
100
AcDbEntity
  8
0
100
AcDbBlockEnd
  0
BLOCK
  5
5FE
100
AcDbEntity
  8
0
100
AcDbBlockBegin
  2
*PAPER_SPACE
 70
     0
 10
0.0
 20
0.0
 30
0.0
  3
*PAPER_SPACE
  1

  0
ENDBLK
  5
5FF
100
AcDbEntity
  8
0
100
AcDbBlockEnd
  0
BLOCK
  5
2
100
AcDbEntity
  8
0
100
AcDbBlockBegin
  2
_NONE
 70
     0
 10
0.0
 20
0.0
 30
0.0
  3
_NONE
  1

  0
ENDBLK
  5
3
100
AcDbEntity
  8
0
100
AcDbBlockEnd
  0
BLOCK
  5
5
100
AcDbEntity
  8
0
100
AcDbBlockBegin
  2
_CLOSED
 70
     0
 10
0.0
 20
0.0
 30
0.0
  3
_CLOSED
  1

  0
LINE
  5
6
100
AcDbEntity
  8
0
  6
BYBLOCK
 62
     0
100
AcDbLine
 10
-1.0
 20
0.166667
 30
0.0
 11
0.0
 21
0.0
 31
0.0
  0
LINE
  5
7
100
AcDbEntity
  8
0
  6
BYBLOCK
 62
     0
100
AcDbLine
 10
0.0
 20
0.0
 30
0.0
 11
-1.0
 21
-0.166667
 31
0.0
  0
LINE
  5
8
100
AcDbEntity
  8
0
  6
BYBLOCK
 62
     0
100
AcDbLine
 10
-1.0
 20
0.166667
 30
0.0
 11
-1.0
 21
-0.166667
 31
0.0
  0
LINE
  5
9
100
AcDbEntity
  8
0
  6
BYBLOCK
 62
     0
100
AcDbLine
 10
0.0
 20
0.0
 30
0.0
 11
-1.0
 21
0.0
 31
0.0
  0
ENDBLK
  5
A
100
AcDbEntity
  8
0
100
AcDbBlockEnd
  0
BLOCK
  5
C
100
AcDbEntity
  8
0
100
AcDbBlockBegin
  2
_DOT
 70
     0
 10
0.0
 20
0.0
 30
0.0
  3
_DOT
  1

  0
POLYLINE
  5
D
100
AcDbEntity
  8
0
  6
BYBLOCK
 62
     0
100
AcDb2dPolyline
 66
     1
 10
0.0
 20
0.0
 30
0.0
 70
     1
 40
0.5
 41
0.5
  0
VERTEX
  5
E
100
AcDbEntity
  8
0
  6
BYBLOCK
 62
     0
100
AcDbVertex
100
AcDb2dVertex
 10
-0.25
 20
0.0
 30
0.0
 42
1.0
  0
VERTEX
  5
F
100
AcDbEntity
  8
0
  6
BYBLOCK
 62
     0
100
AcDbVertex
100
AcDb2dVertex
 10
0.25
 20
0.0
 30
0.0
 42
1.0
  0
SEQEND
  5
10
100
AcDbEntity
  8
0
  6
BYBLOCK
 62
     0
  0
LINE
  5
11
100
AcDbEntity
  8
0
  6
BYBLOCK
 62
     0
100
AcDbLine
 10
-0.5
 20
0.0
 30
0.0
 11
-1.0
 21
0.0
 31
0.0
  0
ENDBLK
  5
12
100
AcDbEntity
  8
0
100
AcDbBlockEnd
  0
BLOCK
  5
14
100
AcDbEntity
  8
0
100
AcDbBlockBegin
  2
_OPEN
 70
     0
 10
0.0
 20
0.0
 30
0.0
  3
_OPEN
  1

  0
LINE
  5
15
100
AcDbEntity
  8
0
  6
BYBLOCK
 62
     0
100
AcDbLine
 10
-1.0
 20
0.166667
 30
0.0
 11
0.0
 21
0.0
 31
0.0
  0
LINE
  5
16
100
AcDbEntity
  8
0
  6
BYBLOCK
 62
     0
100
AcDbLine
 10
0.0
 20
0.0
 30
0.0
 11
-1.0
 21
-0.166667
 31
0.0
  0
LINE
  5
17
100
AcDbEntity
  8
0
  6
BYBLOCK
 62
     0
100
AcDbLine
 10
0.0
 20
0.0
 30
0.0
 11
-1.0
 21
0.0
 31
0.0
  0
ENDBLK
  5
18
100
AcDbEntity
  8
0
100
AcDbBlockEnd
  0
BLOCK
  5
1A
100
AcDbEntity
  8
0
100
AcDbBlockBegin
  2
_ORIGIN
 70
     0
 10
0.0
 20
0.0
 30
0.0
  3
_ORIGIN
  1

  0
CIRCLE
  5
1B
100
AcDbEntity
  8
0
  6
BYBLOCK
 62
     0
100
AcDbCircle
 10
0.0
 20
0.0
 30
0.0
 40
0.5
  0
LINE
  5
1C
100
AcDbEntity
  8
0
  6
BYBLOCK
 62
     0
100
AcDbLine
 10
0.0
 20
0.0
 30
0.0
 11
-1.0
 21
0.0
 31
0.0
  0
ENDBLK
  5
1D
100
AcDbEntity
  8
0
100
AcDbBlockEnd
  0
BLOCK
  5
1F
100
AcDbEntity
  8
0
100
AcDbBlockBegin
  2
_OPEN30
 70
     0
 10
0.0
 20
0.0
 30
0.0
  3
_OPEN30
  1

  0
LINE
  5
20
100
AcDbEntity
  8
0
  6
BYBLOCK
 62
     0
100
AcDbLine
 10
-1.0
 20
0.267949
 30
0.0
 11
0.0
 21
0.0
 31
0.0
  0
LINE
  5
21
100
AcDbEntity
  8
0
  6
BYBLOCK
 62
     0
100
AcDbLine
 10
0.0
 20
0.0
 30
0.0
 11
-1.0
 21
-0.267949
 31
0.0
  0
LINE
  5
22
100
AcDbEntity
  8
0
  6
BYBLOCK
 62
     0
100
AcDbLine
 10
0.0
 20
0.0
 30
0.0
 11
-1.0
 21
0.0
 31
0.0
  0
ENDBLK
  5
23
100
AcDbEntity
  8
0
100
AcDbBlockEnd
  0
BLOCK
  5
25
100
AcDbEntity
  8
0
100
AcDbBlockBegin
  2
_BOXFILLED
 70
     0
 10
0.0
 20
0.0
 30
0.0
  3
_BOXFILLED
  1

  0
SOLID
  5
26
100
AcDbEntity
  8
0
  6
BYBLOCK
 62
     0
100
AcDbTrace
 10
-0.5
 20
0.5
 30
0.0
 11
0.5
 21
0.5
 31
0.0
 12
-0.5
 22
-0.5
 32
0.0
 13
0.5
 23
-0.5
 33
0.0
  0
LINE
  5
27
100
AcDbEntity
  8
0
  6
BYBLOCK
 62
     0
100
AcDbLine
 10
-0.5
 20
0.0
 30
0.0
 11
-1.0
 21
0.0
 31
0.0
  0
ENDBLK
  5
28
100
AcDbEntity
  8
0
100
AcDbBlockEnd
  0
BLOCK
  5
2A
100
AcDbEntity
  8
0
100
AcDbBlockBegin
  2
_BOXBLANK
 70
     0
 10
0.0
 20
0.0
 30
0.0
  3
_BOXBLANK
  1

  0
LINE
  5
2B
100
AcDbEntity
  8
0
  6
BYBLOCK
 62
     0
100
AcDbLine
 10
-0.5
 20
-0.5
 30
0.0
 11
0.5
 21
-0.5
 31
0.0
  0
LINE
  5
2C
100
AcDbEntity
  8
0
  6
BYBLOCK
 62
     0
100
AcDbLine
 10
0.5
 20
-0.5
 30
0.0
 11
0.5
 21
0.5
 31
0.0
  0
LINE
  5
2D
100
AcDbEntity
  8
0
  6
BYBLOCK
 62
     0
100
AcDbLine
 10
0.5
 20
0.5
 30
0.0
 11
-0.5
 21
0.5
 31
0.0
  0
LINE
  5
2E
100
AcDbEntity
  8
0
  6
BYBLOCK
 62
     0
100
AcDbLine
 10
-0.5
 20
0.5
 30
0.0
 11
-0.5
 21
-0.5
 31
0.0
  0
LINE
  5
2F
100
AcDbEntity
  8
0
  6
BYBLOCK
 62
     0
100
AcDbLine
 10
-0.5
 20
0.0
 30
0.0
 11
-1.0
 21
0.0
 31
0.0
  0
ENDBLK
  5
30
100
AcDbEntity
  8
0
100
AcDbBlockEnd
  0
BLOCK
  5
32
100
AcDbEntity
  8
0
100
AcDbBlockBegin
  2
_OBLIQUE
 70
     0
 10
0.0
 20
0.0
 30
0.0
  3
_OBLIQUE
  1

  0
LINE
  5
33
100
AcDbEntity
  8
0
  6
BYBLOCK
 62
     0
100
AcDbLine
 10
-0.5
 20
-0.5
 30
0.0
 11
0.5
 21
0.5
 31
0.0
  0
ENDBLK
  5
34
100
AcDbEntity
  8
0
100
AcDbBlockEnd
  0
BLOCK
  5
36
100
AcDbEntity
  8
0
100
AcDbBlockBegin
  2
_OPEN90
 70
     0
 10
0.0
 20
0.0
 30
0.0
  3
_OPEN90
  1

  0
LINE
  5
37
100
AcDbEntity
  8
0
  6
BYBLOCK
 62
     0
100
AcDbLine
 10
-0.5
 20
0.5
 30
0.0
 11
0.0
 21
0.0
 31
0.0
  0
LINE
  5
38
100
AcDbEntity
  8
0
  6
BYBLOCK
 62
     0
100
AcDbLine
 10
0.0
 20
0.0
 30
0.0
 11
-0.5
 21
-0.5
 31
0.0
  0
LINE
  5
39
100
AcDbEntity
  8
0
  6
BYBLOCK
 62
     0
100
AcDbLine
 10
0.0
 20
0.0
 30
0.0
 11
-1.0
 21
0.0
 31
0.0
  0
ENDBLK
  5
3A
100
AcDbEntity
  8
0
100
AcDbBlockEnd
  0
BLOCK
  5
3C
100
AcDbEntity
  8
0
100
AcDbBlockBegin
  2
_CLOSEDBLANK
 70
     0
 10
0.0
 20
0.0
 30
0.0
  3
_CLOSEDBLANK
  1

  0
LINE
  5
3D
100
AcDbEntity
  8
0
  6
BYBLOCK
 62
     0
100
AcDbLine
 10
-1.0
 20
0.1666666666666666
 30
0.0
 11
0.0
 21
0.0
 31
0.0
  0
LINE
  5
3E
100
AcDbEntity
  8
0
  6
BYBLOCK
 62
     0
100
AcDbLine
 10
0.0
 20
0.0
 30
0.0
 11
-1.0
 21
-0.1666666666666666
 31
0.0
  0
LINE
  5
3F
100
AcDbEntity
  8
0
  6
BYBLOCK
 62
     0
100
AcDbLine
 10
-1.0
 20
0.1666666666666666
 30
0.0
 11
-1.0
 21
-0.1666666666666666
 31
0.0
  0
ENDBLK
  5
40
100
AcDbEntity
  8
0
100
AcDbBlockEnd
  0
BLOCK
  5
42
100
AcDbEntity
  8
0
100
AcDbBlockBegin
  2
_DOTBLANK
 70
     0
 10
0.0
 20
0.0
 30
0.0
  3
_DOTBLANK
  1

  0
CIRCLE
  5
43
100
AcDbEntity
  8
0
  6
BYBLOCK
 62
     0
100
AcDbCircle
 10
0.0
 20
0.0
 30
0.0
 40
0.5
  0
LINE
  5
44
100
AcDbEntity
  8
0
  6
BYBLOCK
 62
     0
100
AcDbLine
 10
-0.5
 20
0.0
 30
0.0
 11
-1.0
 21
0.0
 31
0.0
  0
ENDBLK
  5
45
100
AcDbEntity
  8
0
100
AcDbBlockEnd
  0
BLOCK
  5
69
100
AcDbEntity
  8
MAIN0
  6
CONTINUOUS
 62
3
100
AcDbBlockBegin
  2
*D0
 70
    65
 10
0.0
 20
0.0
 30
0.0
  0
LINE
  5
6A
100
AcDbEntity
  8
MAIN0
  6
BYBLOCK
 62
0
100
AcDbLine
 10
946.2285002275627
 20
353.3374204675752
 30
0.0000000000000000
 11
946.2285002275627
 21
432.9432678463379
 31
0.0000000000000000
  0
LINE
  5
6B
100
AcDbEntity
  8
MAIN0
  6
BYBLOCK
 62
0
100
AcDbLine
 10
946.2285002275627
 20
427.9432678463379
 30
0.0000000000000000
 11
960.2285002275627
 21
427.9432678463379
 31
0.0000000000000000
  0
INSERT
  5
6C
100
AcDbEntity
  8
MAIN0
  6
BYBLOCK
 62
0
100
AcDbBlockReference
  2
_OPEN
 10
946.2285002275627
 20
427.9432678463379
 30
0.0000000000000000
 41
5.000000000000000
 42
5.000000000000000
 43
5.000000000000000
 50
0.0000000000000000
  0
INSERT
  5
6D
100
AcDbEntity
  8
MAIN0
  6
BYBLOCK
 62
0
100
AcDbBlockReference
  2
_OPEN
 10
960.2285002275627
 20
427.9432678463379
 30
0.0000000000000000
 41
5.000000000000000
 42
5.000000000000000
 43
5.000000000000000
 50
180.0000000000000
  0
LINE
  5
6E
100
AcDbEntity
  8
MAIN0
  6
BYBLOCK
 62
0
100
AcDbLine
 10
941.2285002275627
 20
427.9432678463379
 30
0.0000000000000000
 11
938.7285002275627
 21
427.9432678463379
 31
0.0000000000000000
  0
LINE
  5
6F
100
AcDbEntity
  8
MAIN0
  6
BYBLOCK
 62
0
100
AcDbLine
 10
965.2285002275627
 20
427.9432678463379
 30
0.0000000000000000
 11
967.7285002275627
 21
427.9432678463379
 31
0.0000000000000000
  0
LINE
  5
70
100
AcDbEntity
  8
MAIN0
  6
BYBLOCK
 62
0
100
AcDbLine
 10
960.2285002275627
 20
353.3374204675765
 30
0.0000000000000000
 11
960.2285002275627
 21
432.9432678463379
 31
0.0000000000000000
  0
MTEXT
  5
71
100
AcDbEntity
  8
MAIN0
  6
BYBLOCK
 62
0
100
AcDbMText
 10
953.2285002275627
 20
432.3182677271286
 30
0.0000000000000000
 40
7.749999761581421
 41
0.0000000000000000
 71
     5
 72
     1
  1
\A1;14
 11
1.000000000000000
 21
0.0000000000000000
 31
0.0000000000000000
  7
STANDARD
  0
ENDBLK
  5
72
100
AcDbEntity
  8
MAIN0
  6
CONTINUOUS
 62
3
100
AcDbBlockEnd
  0
BLOCK
  5
74
100
AcDbEntity
  8
MAIN0
  6
CONTINUOUS
 62
3
100
AcDbBlockBegin
  2
*D1
 70
    65
 10
0.0
 20
0.0
 30
0.0
  0
LINE
  5
75
100
AcDbEntity
  8
MAIN0
  6
BYBLOCK
 62
0
100
AcDbLine
 10
70.75439855537994
 20
420.2959685834353
 30
0.0000000000000000
 11
70.75439855537994
 21
448.9432678463363
 31
0.0000000000000000
  0
LINE
  5
76
100
AcDbEntity
  8
MAIN0
  6
BYBLOCK
 62
0
100
AcDbLine
 10
75.75439855537994
 20
443.9432678463363
 30
0.0000000000000000
 11
165.7543985553801
 21
443.9432678463363
 31
0.0000000000000000
  0
INSERT
  5
77
100
AcDbEntity
  8
MAIN0
  6
BYBLOCK
 62
0
100
AcDbBlockReference
  2
_OPEN
 10
70.75439855537994
 20
443.9432678463363
 30
0.0000000000000000
 41
5.000000000000000
 42
5.000000000000000
 43
5.000000000000000
 50
180.0000000000000
  0
INSERT
  5
78
100
AcDbEntity
  8
MAIN0
  6
BYBLOCK
 62
0
100
AcDbBlockReference
  2
_OPEN
 10
170.7543985553801
 20
443.9432678463363
 30
0.0000000000000000
 41
5.000000000000000
 42
5.000000000000000
 43
5.000000000000000
 50
0.0000000000000000
  0
LINE
  5
79
100
AcDbEntity
  8
MAIN0
  6
BYBLOCK
 62
0
100
AcDbLine
 10
170.7543985553801
 20
420.2959685834353
 30
0.0000000000000000
 11
170.7543985553801
 21
448.9432678463363
 31
0.0000000000000000
  0
MTEXT
  5
7A
100
AcDbEntity
  8
MAIN0
  6
BYBLOCK
 62
0
100
AcDbMText
 10
120.7543985553800
 20
448.3182677271270
 30
0.0000000000000000
 40
7.749999761581421
 41
0.0000000000000000
 71
     5
 72
     1
  1
\A1;100
 11
1.000000000000000
 21
0.0000000000000000
 31
0.0000000000000000
  7
STANDARD
  0
ENDBLK
  5
7B
100
AcDbEntity
  8
MAIN0
  6
CONTINUOUS
 62
3
100
AcDbBlockEnd
  0
BLOCK
  5
86
100
AcDbEntity
  8
MAIN0
  6
CONTINUOUS
 62
3
100
AcDbBlockBegin
  2
*D2
 70
    65
 10
0.0
 20
0.0
 30
0.0
  0
LINE
  5
87
100
AcDbEntity
  8
MAIN0
  6
BYBLOCK
 62
0
100
AcDbLine
 10
358.7543985554109
 20
420.0959685834318
 30
0.0000000000000000
 11
358.7543985554109
 21
445.5744554692078
 31
0.0000000000000000
  0
LINE
  5
88
100
AcDbEntity
  8
MAIN0
  6
BYBLOCK
 62
0
100
AcDbLine
 10
353.7543985554109
 20
440.5744554692078
 30
0.0000000000000000
 11
333.7543985554109
 21
440.5744554692078
 31
0.0000000000000000
  0
INSERT
  5
89
100
AcDbEntity
  8
MAIN0
  6
BYBLOCK
 62
0
100
AcDbBlockReference
  2
_OPEN
 10
358.7543985554109
 20
440.5744554692078
 30
0.0000000000000000
 41
5.000000000000000
 42
5.000000000000000
 43
5.000000000000000
 50
360.0000000000000
  0
INSERT
  5
8A
100
AcDbEntity
  8
MAIN0
  6
BYBLOCK
 62
0
100
AcDbBlockReference
  2
_OPEN
 10
328.7543985554109
 20
440.5744554692078
 30
0.0000000000000000
 41
5.000000000000000
 42
5.000000000000000
 43
5.000000000000000
 50
180.0000000000000
  0
LINE
  5
8B
100
AcDbEntity
  8
MAIN0
  6
BYBLOCK
 62
0
100
AcDbLine
 10
328.7543985554109
 20
418.2959685834318
 30
0.0000000000000000
 11
328.7543985554109
 21
445.5744554692078
 31
0.0000000000000000
  0
MTEXT
  5
8C
100
AcDbEntity
  8
MAIN0
  6
BYBLOCK
 62
0
100
AcDbMText
 10
343.7543985554109
 20
444.9494553499985
 30
0.0000000000000000
 40
7.749999761581421
 41
0.0000000000000000
 71
     5
 72
     1
  1
\A1;30
 11
1.000000000000000
 21
0.0000000000000000
 31
0.0000000000000000
  7
STANDARD
  0
ENDBLK
  5
8D
100
AcDbEntity
  8
MAIN0
  6
CONTINUOUS
 62
3
100
AcDbBlockEnd
  0
BLOCK
  5
8F
100
AcDbEntity
  8
MAIN0
  6
CONTINUOUS
 62
3
100
AcDbBlockBegin
  2
*D3
 70
    65
 10
0.0
 20
0.0
 30
0.0
  0
LINE
  5
90
100
AcDbEntity
  8
MAIN0
  6
BYBLOCK
 62
0
100
AcDbLine
 10
343.6522021909736
 20
418.2959685536295
 30
0.0000000000000000
 11
343.6522021909736
 21
408.2959685536295
 31
0.0000000000000000
  0
INSERT
  5
91
100
AcDbEntity
  8
MAIN0
  6
BYBLOCK
 62
0
100
AcDbBlockReference
  2
_OPEN
 10
343.6522021909736
 20
418.2959685536295
 30
0.0000000000000000
 41
5.000000000000000
 42
5.000000000000000
 43
5.000000000000000
 50
270.0000000000000
  0
INSERT
  5
92
100
AcDbEntity
  8
MAIN0
  6
BYBLOCK
 62
0
100
AcDbBlockReference
  2
_OPEN
 10
343.6522021909736
 20
408.2959685536295
 30
0.0000000000000000
 41
5.000000000000000
 42
5.000000000000000
 43
5.000000000000000
 50
90.00000000000000
  0
LINE
  5
93
100
AcDbEntity
  8
MAIN0
  6
BYBLOCK
 62
0
100
AcDbLine
 10
343.6522021909736
 20
423.2959685536295
 30
0.0000000000000000
 11
343.6522021909736
 21
431.2622787806234
 31
0.0000000000000000
  0
LINE
  5
94
100
AcDbEntity
  8
MAIN0
  6
BYBLOCK
 62
0
100
AcDbLine
 10
343.6522021909736
 20
403.2959685536295
 30
0.0000000000000000
 11
343.6522021909736
 21
400.7959685536295
 31
0.0000000000000000
  0
LINE
  5
95
100
AcDbEntity
  8
MAIN0
  6
BYBLOCK
 62
0
100
AcDbLine
 10
338.7543985852133
 20
408.2959685536295
 30
0.0000000000000000
 11
348.6522021909736
 21
408.2959685536295
 31
0.0000000000000000
  0
MTEXT
  5
96
100
AcDbEntity
  8
MAIN0
  6
BYBLOCK
 62
0
100
AcDbMText
 10
338.7772023101829
 20
426.1372788998327
 30
0.0000000000000000
 40
7.749999761581421
 41
0.0000000000000000
 71
     5
 72
     1
  1
\A1;10
 11
6.123233995736766e-017
 21
1.000000000000000
 31
0.0000000000000000
  7
STANDARD
  0
ENDBLK
  5
97
100
AcDbEntity
  8
MAIN0
  6
CONTINUOUS
 62
3
100
AcDbBlockEnd
  0
BLOCK
  5
99
100
AcDbEntity
  8
MAIN0
  6
CONTINUOUS
 62
3
100
AcDbBlockBegin
  2
*D4
 70
    65
 10
0.0
 20
0.0
 30
0.0
  0
LINE
  5
9A
100
AcDbEntity
  8
MAIN0
  6
BYBLOCK
 62
0
100
AcDbLine
 10
338.7543985852133
 20
408.2959685536295
 30
0.0000000000000000
 11
348.6522021909736
 21
408.2959685536295
 31
0.0000000000000000
  0
LINE
  5
9B
100
AcDbEntity
  8
MAIN0
  6
BYBLOCK
 62
0
100
AcDbLine
 10
343.6522021909736
 20
403.2959685536295
 30
0.0000000000000000
 11
343.6522021909736
 21
393.2959685536296
 31
0.0000000000000000
  0
INSERT
  5
9C
100
AcDbEntity
  8
MAIN0
  6
BYBLOCK
 62
0
100
AcDbBlockReference
  2
_OPEN
 10
343.6522021909736
 20
408.2959685536295
 30
0.0000000000000000
 41
5.000000000000000
 42
5.000000000000000
 43
5.000000000000000
 50
90.00000000000000
  0
INSERT
  5
9D
100
AcDbEntity
  8
MAIN0
  6
BYBLOCK
 62
0
100
AcDbBlockReference
  2
_OPEN
 10
343.6522021909736
 20
388.2959685536296
 30
0.0000000000000000
 41
5.000000000000000
 42
5.000000000000000
 43
5.000000000000000
 50
270.0000000000000
  0
LINE
  5
9E
100
AcDbEntity
  8
MAIN0
  6
BYBLOCK
 62
0
100
AcDbLine
 10
338.7543985852133
 20
388.2959685536296
 30
0.0000000000000000
 11
348.6522021909736
 21
388.2959685536296
 31
0.0000000000000000
  0
MTEXT
  5
9F
100
AcDbEntity
  8
MAIN0
  6
BYBLOCK
 62
0
100
AcDbMText
 10
339.2772023101829
 20
398.2959685536296
 30
0.0000000000000000
 40
7.749999761581421
 41
0.0000000000000000
 71
     5
 72
     1
  1
\A1;20
 11
6.123233995736766e-017
 21
1.000000000000000
 31
0.0000000000000000
  7
STANDARD
  0
ENDBLK
  5
A0
100
AcDbEntity
  8
MAIN0
  6
CONTINUOUS
 62
3
100
AcDbBlockEnd
  0
BLOCK
  5
BF
100
AcDbEntity
  8
MAIN0
  6
CONTINUOUS
 62
3
100
AcDbBlockBegin
  2
*D5
 70
    65
 10
0.0
 20
0.0
 30
0.0
  0
LINE
  5
C0
100
AcDbEntity
  8
MAIN0
  6
BYBLOCK
 62
0
100
AcDbLine
 10
289.7543985554224
 20
333.2764092586788
 30
0.0000000000000000
 11
369.7543985554158
 21
333.2764092586788
 31
0.0000000000000000
  0
INSERT
  5
C1
100
AcDbEntity
  8
MAIN0
  6
BYBLOCK
 62
0
100
AcDbBlockReference
  2
_OPEN
 10
284.7543985554224
 20
333.2764092586788
 30
0.0000000000000000
 41
5.000000000000000
 42
5.000000000000000
 43
5.000000000000000
 50
180.0000000000000
  0
INSERT
  5
C2
100
AcDbEntity
  8
MAIN0
  6
BYBLOCK
 62
0
100
AcDbBlockReference
  2
_OPEN
 10
374.7543985554158
 20
333.2764092586788
 30
0.0000000000000000
 41
5.000000000000000
 42
5.000000000000000
 43
5.000000000000000
 50
0.0000000000000000
  0
LINE
  5
C3
100
AcDbEntity
  8
MAIN0
  6
BYBLOCK
 62
0
100
AcDbLine
 10
374.7543985554158
 20
357.7959685240916
 30
0.0000000000000000
 11
374.7543985554158
 21
328.2764092586788
 31
0.0000000000000000
  0
MTEXT
  5
C4
100
AcDbEntity
  8
MAIN0
  6
BYBLOCK
 62
0
100
AcDbMText
 10
329.7543985554191
 20
337.6514091394695
 30
0.0000000000000000
 40
7.749999761581421
 41
0.0000000000000000
 71
     5
 72
     1
  1
\A1;90
 11
1.000000000000000
 21
0.0000000000000000
 31
0.0000000000000000
  7
STANDARD
  0
ENDBLK
  5
C5
100
AcDbEntity
  8
MAIN0
  6
CONTINUOUS
 62
3
100
AcDbBlockEnd
  0
BLOCK
  5
C7
100
AcDbEntity
  8
MAIN0
  6
CONTINUOUS
 62
3
100
AcDbBlockBegin
  2
*D6
 70
    65
 10
0.0
 20
0.0
 30
0.0
  0
LINE
  5
C8
100
AcDbEntity
  8
MAIN0
  6
BYBLOCK
 62
0
100
AcDbLine
 10
374.7543985554158
 20
357.7959685240916
 30
0.0000000000000000
 11
374.7543985554158
 21
328.2764092586788
 31
0.0000000000000000
  0
LINE
  5
C9
100
AcDbEntity
  8
MAIN0
  6
BYBLOCK
 62
0
100
AcDbLine
 10
379.7543985554158
 20
333.2764092586788
 30
0.0000000000000000
 11
550.7543985554160
 21
333.2764092586788
 31
0.0000000000000000
  0
INSERT
  5
CA
100
AcDbEntity
  8
MAIN0
  6
BYBLOCK
 62
0
100
AcDbBlockReference
  2
_OPEN
 10
374.7543985554158
 20
333.2764092586788
 30
0.0000000000000000
 41
5.000000000000000
 42
5.000000000000000
 43
5.000000000000000
 50
180.0000000000000
  0
INSERT
  5
CB
100
AcDbEntity
  8
MAIN0
  6
BYBLOCK
 62
0
100
AcDbBlockReference
  2
_OPEN
 10
555.7543985554160
 20
333.2764092586788
 30
0.0000000000000000
 41
5.000000000000000
 42
5.000000000000000
 43
5.000000000000000
 50
0.0000000000000000
  0
LINE
  5
CC
100
AcDbEntity
  8
MAIN0
  6
BYBLOCK
 62
0
100
AcDbLine
 10
555.7543985554160
 20
357.7959685240916
 30
0.0000000000000000
 11
555.7543985554160
 21
328.2764092586788
 31
0.0000000000000000
  0
MTEXT
  5
CD
100
AcDbEntity
  8
MAIN0
  6
BYBLOCK
 62
0
100
AcDbMText
 10
465.2543985554159
 20
337.6514091394695
 30
0.0000000000000000
 40
7.749999761581421
 41
0.0000000000000000
 71
     5
 72
     1
  1
\A1;181
 11
1.000000000000000
 21
0.0000000000000000
 31
0.0000000000000000
  7
STANDARD
  0
ENDBLK
  5
CE
100
AcDbEntity
  8
MAIN0
  6
CONTINUOUS
 62
3
100
AcDbBlockEnd
  0
BLOCK
  5
D0
100
AcDbEntity
  8
MAIN0
  6
CONTINUOUS
 62
3
100
AcDbBlockBegin
  2
*D7
 70
    65
 10
0.0
 20
0.0
 30
0.0
  0
LINE
  5
D1
100
AcDbEntity
  8
MAIN0
  6
BYBLOCK
 62
0
100
AcDbLine
 10
555.7543985554160
 20
357.7959685240916
 30
0.0000000000000000
 11
555.7543985554160
 21
328.2764092586788
 31
0.0000000000000000
  0
LINE
  5
D2
100
AcDbEntity
  8
MAIN0
  6
BYBLOCK
 62
0
100
AcDbLine
 10
560.7543985554160
 20
333.2764092586788
 30
0.0000000000000000
 11
628.7543985554160
 21
333.2764092586788
 31
0.0000000000000000
  0
INSERT
  5
D3
100
AcDbEntity
  8
MAIN0
  6
BYBLOCK
 62
0
100
AcDbBlockReference
  2
_OPEN
 10
555.7543985554160
 20
333.2764092586788
 30
0.0000000000000000
 41
5.000000000000000
 42
5.000000000000000
 43
5.000000000000000
 50
180.0000000000000
  0
INSERT
  5
D4
100
AcDbEntity
  8
MAIN0
  6
BYBLOCK
 62
0
100
AcDbBlockReference
  2
_OPEN
 10
633.7543985554160
 20
333.2764092586788
 30
0.0000000000000000
 41
5.000000000000000
 42
5.000000000000000
 43
5.000000000000000
 50
0.0000000000000000
  0
MTEXT
  5
D5
100
AcDbEntity
  8
MAIN0
  6
BYBLOCK
 62
0
100
AcDbMText
 10
594.7543985554160
 20
337.6514091394695
 30
0.0000000000000000
 40
7.749999761581421
 41
0.0000000000000000
 71
     5
 72
     1
  1
\A1;78
 11
1.000000000000000
 21
0.0000000000000000
 31
0.0000000000000000
  7
STANDARD
  0
ENDBLK
  5
D6
100
AcDbEntity
  8
MAIN0
  6
CONTINUOUS
 62
3
100
AcDbBlockEnd
  0
BLOCK
  5
D8
100
AcDbEntity
  8
MAIN0
  6
CONTINUOUS
 62
3
100
AcDbBlockBegin
  2
*D8
 70
    65
 10
0.0
 20
0.0
 30
0.0
  0
LINE
  5
D9
100
AcDbEntity
  8
MAIN0
  6
BYBLOCK
 62
0
100
AcDbLine
 10
475.7543985256198
 20
308.2959685536499
 30
0.0000000000000000
 11
447.7437067489465
 21
308.2959685536499
 31
0.0000000000000000
  0
LINE
  5
DA
100
AcDbEntity
  8
MAIN0
  6
BYBLOCK
 62
0
100
AcDbLine
 10
452.7437067489465
 20
308.2959685536499
 30
0.0000000000000000
 11
452.7437067489465
 21
313.2959685536208
 31
0.0000000000000000
  0
INSERT
  5
DB
100
AcDbEntity
  8
MAIN0
  6
BYBLOCK
 62
0
100
AcDbBlockReference
  2
_OPEN
 10
452.7437067489465
 20
308.2959685536499
 30
0.0000000000000000
 41
5.000000000000000
 42
5.000000000000000
 43
5.000000000000000
 50
90.00000000000000
  0
INSERT
  5
DC
100
AcDbEntity
  8
MAIN0
  6
BYBLOCK
 62
0
100
AcDbBlockReference
  2
_OPEN
 10
452.7437067489465
 20
313.2959685536208
 30
0.0000000000000000
 41
5.000000000000000
 42
5.000000000000000
 43
5.000000000000000
 50
270.0000000000000
  0
LINE
  5
DD
100
AcDbEntity
  8
MAIN0
  6
BYBLOCK
 62
0
100
AcDbLine
 10
452.7437067489465
 20
303.2959685536499
 30
0.0000000000000000
 11
452.7437067489465
 21
296.9393045059762
 31
0.0000000000000000
  0
LINE
  5
DE
100
AcDbEntity
  8
MAIN0
  6
BYBLOCK
 62
0
100
AcDbLine
 10
452.7437067489465
 20
318.2959685536208
 30
0.0000000000000000
 11
452.7437067489465
 21
320.7959685536208
 31
0.0000000000000000
  0
MTEXT
  5
DF
100
AcDbEntity
  8
MAIN0
  6
BYBLOCK
 62
0
100
AcDbMText
 10
447.6187068681558
 20
299.4393045059762
 30
0.0000000000000000
 40
7.749999761581421
 41
0.0000000000000000
 71
     5
 72
     1
  1
\A1;5
 11
6.123233995736766e-017
 21
1.000000000000000
 31
0.0000000000000000
  7
STANDARD
  0
ENDBLK
  5
E0
100
AcDbEntity
  8
MAIN0
  6
CONTINUOUS
 62
3
100
AcDbBlockEnd
  0
BLOCK
  5
E2
100
AcDbEntity
  8
MAIN0
  6
CONTINUOUS
 62
3
100
AcDbBlockBegin
  2
*D9
 70
    65
 10
0.0
 20
0.0
 30
0.0
  0
LINE
  5
E3
100
AcDbEntity
  8
MAIN0
  6
BYBLOCK
 62
0
100
AcDbLine
 10
477.7543985554221
 20
306.2959685238475
 30
0.0000000000000000
 11
477.7543985554221
 21
285.2959685536208
 31
0.0000000000000000
  0
LINE
  5
E4
100
AcDbEntity
  8
MAIN0
  6
BYBLOCK
 62
0
100
AcDbLine
 10
477.7543985554221
 20
290.2959685536208
 30
0.0000000000000000
 11
491.7543985554221
 21
290.2959685536208
 31
0.0000000000000000
  0
INSERT
  5
E5
100
AcDbEntity
  8
MAIN0
  6
BYBLOCK
 62
0
100
AcDbBlockReference
  2
_OPEN
 10
477.7543985554221
 20
290.2959685536208
 30
0.0000000000000000
 41
5.000000000000000
 42
5.000000000000000
 43
5.000000000000000
 50
0.0000000000000000
  0
INSERT
  5
E6
100
AcDbEntity
  8
MAIN0
  6
BYBLOCK
 62
0
100
AcDbBlockReference
  2
_OPEN
 10
491.7543985554221
 20
290.2959685536208
 30
0.0000000000000000
 41
5.000000000000000
 42
5.000000000000000
 43
5.000000000000000
 50
180.0000000000000
  0
LINE
  5
E7
100
AcDbEntity
  8
MAIN0
  6
BYBLOCK
 62
0
100
AcDbLine
 10
472.7543985554221
 20
290.2959685536208
 30
0.0000000000000000
 11
470.2543985554221
 21
290.2959685536208
 31
0.0000000000000000
  0
LINE
  5
E8
100
AcDbEntity
  8
MAIN0
  6
BYBLOCK
 62
0
100
AcDbLine
 10
496.7543985554221
 20
290.2959685536208
 30
0.0000000000000000
 11
506.6178238384874
 21
290.2959685536208
 31
0.0000000000000000
  0
LINE
  5
E9
100
AcDbEntity
  8
MAIN0
  6
BYBLOCK
 62
0
100
AcDbLine
 10
491.7543985554221
 20
306.2959685238475
 30
0.0000000000000000
 11
491.7543985554221
 21
285.2959685536208
 31
0.0000000000000000
  0
MTEXT
  5
EA
100
AcDbEntity
  8
MAIN0
  6
BYBLOCK
 62
0
100
AcDbMText
 10
501.4928239576967
 20
295.4209684344115
 30
0.0000000000000000
 40
7.749999761581421
 41
0.0000000000000000
 71
     5
 72
     1
  1
\A1;14
 11
1.000000000000000
 21
0.0000000000000000
 31
0.0000000000000000
  7
STANDARD
  0
ENDBLK
  5
EB
100
AcDbEntity
  8
MAIN0
  6
CONTINUOUS
 62
3
100
AcDbBlockEnd
  0
BLOCK
  5
ED
100
AcDbEntity
  8
MAIN0
  6
CONTINUOUS
 62
3
100
AcDbBlockBegin
  2
*D10
 70
    65
 10
0.0
 20
0.0
 30
0.0
  0
LINE
  5
EE
100
AcDbEntity
  8
MAIN0
  6
BYBLOCK
 62
0
100
AcDbLine
 10
716.2543985554162
 20
320.2959685235470
 30
0.0000000000000000
 11
716.2543985554162
 21
253.2959685536208
 31
0.0000000000000000
  0
LINE
  5
EF
100
AcDbEntity
  8
MAIN0
  6
BYBLOCK
 62
0
100
AcDbLine
 10
711.2543985554162
 20
258.2959685536208
 30
0.0000000000000000
 11
638.7543985554160
 21
258.2959685536208
 31
0.0000000000000000
  0
INSERT
  5
F0
100
AcDbEntity
  8
MAIN0
  6
BYBLOCK
 62
0
100
AcDbBlockReference
  2
_OPEN
 10
716.2543985554162
 20
258.2959685536208
 30
0.0000000000000000
 41
5.000000000000000
 42
5.000000000000000
 43
5.000000000000000
 50
360.0000000000000
  0
INSERT
  5
F1
100
AcDbEntity
  8
MAIN0
  6
BYBLOCK
 62
0
100
AcDbBlockReference
  2
_OPEN
 10
633.7543985554160
 20
258.2959685536208
 30
0.0000000000000000
 41
5.000000000000000
 42
5.000000000000000
 43
5.000000000000000
 50
180.0000000000000
  0
LINE
  5
F2
100
AcDbEntity
  8
MAIN0
  6
BYBLOCK
 62
0
100
AcDbLine
 10
633.7543985554160
 20
311.6959685238197
 30
0.0000000000000000
 11
633.7543985554160
 21
253.2959685536208
 31
0.0000000000000000
  0
MTEXT
  5
F3
100
AcDbEntity
  8
MAIN0
  6
BYBLOCK
 62
0
100
AcDbMText
 10
675.0043985554161
 20
262.6709684344115
 30
0.0000000000000000
 40
7.749999761581421
 41
0.0000000000000000
 71
     5
 72
     1
  1
\A1;82.5
 11
1.000000000000000
 21
0.0000000000000000
 31
0.0000000000000000
  7
STANDARD
  0
ENDBLK
  5
F4
100
AcDbEntity
  8
MAIN0
  6
CONTINUOUS
 62
3
100
AcDbBlockEnd
  0
BLOCK
  5
F6
100
AcDbEntity
  8
MAIN0
  6
CONTINUOUS
 62
3
100
AcDbBlockBegin
  2
*D11
 70
    65
 10
0.0
 20
0.0
 30
0.0
  0
LINE
  5
F7
100
AcDbEntity
  8
MAIN0
  6
BYBLOCK
 62
0
100
AcDbLine
 10
633.7543985554160
 20
311.6959685238197
 30
0.0000000000000000
 11
633.7543985554160
 21
253.2959685536208
 31
0.0000000000000000
  0
LINE
  5
F8
100
AcDbEntity
  8
MAIN0
  6
BYBLOCK
 62
0
100
AcDbLine
 10
628.7543985554160
 20
258.2959685536208
 30
0.0000000000000000
 11
289.7543985554225
 21
258.2959685536208
 31
0.0000000000000000
  0
INSERT
  5
F9
100
AcDbEntity
  8
MAIN0
  6
BYBLOCK
 62
0
100
AcDbBlockReference
  2
_OPEN
 10
633.7543985554160
 20
258.2959685536208
 30
0.0000000000000000
 41
5.000000000000000
 42
5.000000000000000
 43
5.000000000000000
 50
360.0000000000000
  0
INSERT
  5
FA
100
AcDbEntity
  8
MAIN0
  6
BYBLOCK
 62
0
100
AcDbBlockReference
  2
_OPEN
 10
284.7543985554225
 20
258.2959685536208
 30
0.0000000000000000
 41
5.000000000000000
 42
5.000000000000000
 43
5.000000000000000
 50
180.0000000000000
  0
LINE
  5
FB
100
AcDbEntity
  8
MAIN0
  6
BYBLOCK
 62
0
100
AcDbLine
 10
284.7543985554225
 20
311.6959685239652
 30
0.0000000000000000
 11
284.7543985554225
 21
253.2959685536208
 31
0.0000000000000000
  0
MTEXT
  5
FC
100
AcDbEntity
  8
MAIN0
  6
BYBLOCK
 62
0
100
AcDbMText
 10
459.2543985554192
 20
262.6709684344115
 30
0.0000000000000000
 40
7.749999761581421
 41
0.0000000000000000
 71
     5
 72
     1
  1
\A1;349
 11
1.000000000000000
 21
0.0000000000000000
 31
0.0000000000000000
  7
STANDARD
  0
ENDBLK
  5
FD
100
AcDbEntity
  8
MAIN0
  6
CONTINUOUS
 62
3
100
AcDbBlockEnd
  0
BLOCK
  5
FF
100
AcDbEntity
  8
MAIN0
  6
CONTINUOUS
 62
3
100
AcDbBlockBegin
  2
*D12
 70
    65
 10
0.0
 20
0.0
 30
0.0
  0
LINE
  5
100
100
AcDbEntity
  8
MAIN0
  6
BYBLOCK
 62
0
100
AcDbLine
 10
284.7543985554112
 20
379.6959685834318
 30
0.0000000000000000
 11
284.7543985554112
 21
474.5251206800142
 31
0.0000000000000000
  0
LINE
  5
101
100
AcDbEntity
  8
MAIN0
  6
BYBLOCK
 62
0
100
AcDbLine
 10
284.7543985554112
 20
469.5251206800142
 30
0.0000000000000000
 11
285.7543985554111
 21
469.5251206800142
 31
0.0000000000000000
  0
INSERT
  5
102
100
AcDbEntity
  8
MAIN0
  6
BYBLOCK
 62
0
100
AcDbBlockReference
  2
_OPEN
 10
284.7543985554112
 20
469.5251206800142
 30
0.0000000000000000
 41
5.000000000000000
 42
5.000000000000000
 43
5.000000000000000
 50
0.0000000000000000
  0
INSERT
  5
103
100
AcDbEntity
  8
MAIN0
  6
BYBLOCK
 62
0
100
AcDbBlockReference
  2
_OPEN
 10
285.7543985554111
 20
469.5251206800142
 30
0.0000000000000000
 41
5.000000000000000
 42
5.000000000000000
 43
5.000000000000000
 50
180.0000000000000
  0
LINE
  5
104
100
AcDbEntity
  8
MAIN0
  6
BYBLOCK
 62
0
100
AcDbLine
 10
279.7543985554112
 20
469.5251206800142
 30
0.0000000000000000
 11
274.4116010018146
 21
469.5251206800142
 31
0.0000000000000000
  0
LINE
  5
105
100
AcDbEntity
  8
MAIN0
  6
BYBLOCK
 62
0
100
AcDbLine
 10
290.7543985554111
 20
469.5251206800142
 30
0.0000000000000000
 11
293.2543985554111
 21
469.5251206800142
 31
0.0000000000000000
  0
LINE
  5
106
100
AcDbEntity
  8
MAIN0
  6
BYBLOCK
 62
0
100
AcDbLine
 10
285.7543985554111
 20
399.6959685834318
 30
0.0000000000000000
 11
285.7543985554111
 21
474.5251206800142
 31
0.0000000000000000
  0
MTEXT
  5
107
100
AcDbEntity
  8
MAIN0
  6
BYBLOCK
 62
0
100
AcDbMText
 10
276.9116010018146
 20
474.6501205608049
 30
0.0000000000000000
 40
7.749999761581421
 41
0.0000000000000000
 71
     5
 72
     1
  1
\A1;1
 11
1.000000000000000
 21
0.0000000000000000
 31
0.0000000000000000
  7
STANDARD
  0
ENDBLK
  5
108
100
AcDbEntity
  8
MAIN0
  6
CONTINUOUS
 62
3
100
AcDbBlockEnd
  0
BLOCK
  5
10A
100
AcDbEntity
  8
MAIN0
  6
CONTINUOUS
 62
3
100
AcDbBlockBegin
  2
*D13
 70
    65
 10
0.0
 20
0.0
 30
0.0
  0
LINE
  5
10B
100
AcDbEntity
  8
MAIN0
  6
BYBLOCK
 62
0
100
AcDbLine
 10
285.7543985554111
 20
399.6959685834318
 30
0.0000000000000000
 11
285.7543985554111
 21
474.5251206800142
 31
0.0000000000000000
  0
LINE
  5
10C
100
AcDbEntity
  8
MAIN0
  6
BYBLOCK
 62
0
100
AcDbLine
 10
290.7543985554111
 20
469.5251206800142
 30
0.0000000000000000
 11
353.7543985554109
 21
469.5251206800142
 31
0.0000000000000000
  0
INSERT
  5
10D
100
AcDbEntity
  8
MAIN0
  6
BYBLOCK
 62
0
100
AcDbBlockReference
  2
_OPEN
 10
285.7543985554111
 20
469.5251206800142
 30
0.0000000000000000
 41
5.000000000000000
 42
5.000000000000000
 43
5.000000000000000
 50
180.0000000000000
  0
INSERT
  5
10E
100
AcDbEntity
  8
MAIN0
  6
BYBLOCK
 62
0
100
AcDbBlockReference
  2
_OPEN
 10
358.7543985554109
 20
469.5251206800142
 30
0.0000000000000000
 41
5.000000000000000
 42
5.000000000000000
 43
5.000000000000000
 50
0.0000000000000000
  0
LINE
  5
10F
100
AcDbEntity
  8
MAIN0
  6
BYBLOCK
 62
0
100
AcDbLine
 10
358.7543985554109
 20
420.0959685834318
 30
0.0000000000000000
 11
358.7543985554109
 21
474.5251206800142
 31
0.0000000000000000
  0
MTEXT
  5
110
100
AcDbEntity
  8
MAIN0
  6
BYBLOCK
 62
0
100
AcDbMText
 10
322.2543985554110
 20
473.9001205608049
 30
0.0000000000000000
 40
7.749999761581421
 41
0.0000000000000000
 71
     5
 72
     1
  1
\A1;73
 11
1.000000000000000
 21
0.0000000000000000
 31
0.0000000000000000
  7
STANDARD
  0
ENDBLK
  5
111
100
AcDbEntity
  8
MAIN0
  6
CONTINUOUS
 62
3
100
AcDbBlockEnd
  0
BLOCK
  5
113
100
AcDbEntity
  8
MAIN0
  6
CONTINUOUS
 62
3
100
AcDbBlockBegin
  2
*D14
 70
    65
 10
0.0
 20
0.0
 30
0.0
  0
LINE
  5
114
100
AcDbEntity
  8
MAIN0
  6
BYBLOCK
 62
0
100
AcDbLine
 10
358.7543985554109
 20
420.0959685834318
 30
0.0000000000000000
 11
358.7543985554109
 21
474.5251206800142
 31
0.0000000000000000
  0
LINE
  5
115
100
AcDbEntity
  8
MAIN0
  6
BYBLOCK
 62
0
100
AcDbLine
 10
363.7543985554109
 20
469.5251206800142
 30
0.0000000000000000
 11
494.7543985554111
 21
469.5251206800142
 31
0.0000000000000000
  0
INSERT
  5
116
100
AcDbEntity
  8
MAIN0
  6
BYBLOCK
 62
0
100
AcDbBlockReference
  2
_OPEN
 10
358.7543985554109
 20
469.5251206800142
 30
0.0000000000000000
 41
5.000000000000000
 42
5.000000000000000
 43
5.000000000000000
 50
180.0000000000000
  0
INSERT
  5
117
100
AcDbEntity
  8
MAIN0
  6
BYBLOCK
 62
0
100
AcDbBlockReference
  2
_OPEN
 10
499.7543985554111
 20
469.5251206800142
 30
0.0000000000000000
 41
5.000000000000000
 42
5.000000000000000
 43
5.000000000000000
 50
0.0000000000000000
  0
LINE
  5
118
100
AcDbEntity
  8
MAIN0
  6
BYBLOCK
 62
0
100
AcDbLine
 10
499.7543985554111
 20
420.0959685834318
 30
0.0000000000000000
 11
499.7543985554111
 21
474.5251206800142
 31
0.0000000000000000
  0
MTEXT
  5
119
100
AcDbEntity
  8
MAIN0
  6
BYBLOCK
 62
0
100
AcDbMText
 10
429.2543985554111
 20
473.9001205608049
 30
0.0000000000000000
 40
7.749999761581421
 41
0.0000000000000000
 71
     5
 72
     1
  1
\A1;MAX204
 11
1.000000000000000
 21
0.0000000000000000
 31
0.0000000000000000
  7
STANDARD
  0
ENDBLK
  5
11A
100
AcDbEntity
  8
MAIN0
  6
CONTINUOUS
 62
3
100
AcDbBlockEnd
  0
BLOCK
  5
11C
100
AcDbEntity
  8
MAIN0
  6
CONTINUOUS
 62
1
100
AcDbBlockBegin
  2
*D15
 70
    65
 10
0.0
 20
0.0
 30
0.0
  0
LINE
  5
11D
100
AcDbEntity
  8
MAIN0
  6
BYBLOCK
 62
0
100
AcDbLine
 10
499.7543985554111
 20
420.0959685834318
 30
0.0000000000000000
 11
499.7543985554111
 21
474.5251206800142
 31
0.0000000000000000
  0
LINE
  5
11E
100
AcDbEntity
  8
MAIN0
  6
BYBLOCK
 62
0
100
AcDbLine
 10
504.7543985554111
 20
469.5251206800142
 30
0.0000000000000000
 11
558.7543985554113
 21
469.5251206800142
 31
0.0000000000000000
  0
INSERT
  5
11F
100
AcDbEntity
  8
MAIN0
  6
BYBLOCK
 62
0
100
AcDbBlockReference
  2
_OPEN
 10
499.7543985554111
 20
469.5251206800142
 30
0.0000000000000000
 41
5.000000000000000
 42
5.000000000000000
 43
5.000000000000000
 50
180.0000000000000
  0
INSERT
  5
120
100
AcDbEntity
  8
MAIN0
  6
BYBLOCK
 62
0
100
AcDbBlockReference
  2
_OPEN
 10
563.7543985554113
 20
469.5251206800142
 30
0.0000000000000000
 41
5.000000000000000
 42
5.000000000000000
 43
5.000000000000000
 50
0.0000000000000000
  0
LINE
  5
121
100
AcDbEntity
  8
MAIN0
  6
BYBLOCK
 62
0
100
AcDbLine
 10
563.7543985554113
 20
399.6959685834581
 30
0.0000000000000000
 11
563.7543985554113
 21
474.5251206800142
 31
0.0000000000000000
  0
MTEXT
  5
122
100
AcDbEntity
  8
MAIN0
  6
BYBLOCK
 62
0
100
AcDbMText
 10
531.7543985554112
 20
473.9001205608049
 30
0.0000000000000000
 40
7.749999761581421
 41
0.0000000000000000
 71
     5
 72
     1
  1
\A1;64
 11
1.000000000000000
 21
0.0000000000000000
 31
0.0000000000000000
  7
STANDARD
  0
ENDBLK
  5
123
100
AcDbEntity
  8
MAIN0
  6
CONTINUOUS
 62
1
100
AcDbBlockEnd
  0
BLOCK
  5
125
100
AcDbEntity
  8
MAIN0
  6
CONTINUOUS
 62
3
100
AcDbBlockBegin
  2
*D16
 70
    65
 10
0.0
 20
0.0
 30
0.0
  0
LINE
  5
126
100
AcDbEntity
  8
MAIN0
  6
BYBLOCK
 62
0
100
AcDbLine
 10
514.2543984982806
 20
585.0605465822716
 30
0.0000000000000000
 11
514.2543984982806
 21
521.0059342116124
 31
0.0000000000000000
  0
LINE
  5
127
100
AcDbEntity
  8
MAIN0
  6
BYBLOCK
 62
0
100
AcDbLine
 10
514.2543984982806
 20
526.0059342116124
 30
0.0000000000000000
 11
499.7543984977788
 21
526.0059342116124
 31
0.0000000000000000
  0
INSERT
  5
128
100
AcDbEntity
  8
MAIN0
  6
BYBLOCK
 62
0
100
AcDbBlockReference
  2
_OPEN
 10
514.2543984982806
 20
526.0059342116124
 30
0.0000000000000000
 41
5.000000000000000
 42
5.000000000000000
 43
5.000000000000000
 50
180.0000000000000
  0
INSERT
  5
129
100
AcDbEntity
  8
MAIN0
  6
BYBLOCK
 62
0
100
AcDbBlockReference
  2
_OPEN
 10
499.7543984977788
 20
526.0059342116124
 30
0.0000000000000000
 41
5.000000000000000
 42
5.000000000000000
 43
5.000000000000000
 50
360.0000000000000
  0
LINE
  5
12A
100
AcDbEntity
  8
MAIN0
  6
BYBLOCK
 62
0
100
AcDbLine
 10
519.2543984982806
 20
526.0059342116124
 30
0.0000000000000000
 11
521.7543984982806
 21
526.0059342116124
 31
0.0000000000000000
  0
LINE
  5
12B
100
AcDbEntity
  8
MAIN0
  6
BYBLOCK
 62
0
100
AcDbLine
 10
494.7543984977788
 20
526.0059342116124
 30
0.0000000000000000
 11
475.2373751726028
 21
526.0059342116124
 31
0.0000000000000000
  0
LINE
  5
12C
100
AcDbEntity
  8
MAIN0
  6
BYBLOCK
 62
0
100
AcDbLine
 10
499.7543984977788
 20
551.0013205163975
 30
0.0000000000000000
 11
499.7543984977788
 21
521.0059342116124
 31
0.0000000000000000
  0
MTEXT
  5
12D
100
AcDbEntity
  8
MAIN0
  6
BYBLOCK
 62
0
100
AcDbMText
 10
484.3623754110213
 20
531.1309340924031
 30
0.0000000000000000
 40
7.749999761581421
 41
0.0000000000000000
 71
     5
 72
     1
  1
\A1;14.5
 11
1.000000000000000
 21
0.0000000000000000
 31
0.0000000000000000
  7
STANDARD
  0
ENDBLK
  5
12E
100
AcDbEntity
  8
MAIN0
  6
CONTINUOUS
 62
3
100
AcDbBlockEnd
  0
BLOCK
  5
131
100
AcDbEntity
  8
MAIN0
  6
CONTINUOUS
 62
3
100
AcDbBlockBegin
  2
*D17
 70
    65
 10
0.0
 20
0.0
 30
0.0
  0
LINE
  5
132
100
AcDbEntity
  8
MAIN0
  6
BYBLOCK
 62
0
100
AcDbLine
 10
319.2543985259227
 20
418.2959685536295
 30
0.0000000000000000
 11
259.9974421599320
 21
418.2959685536295
 31
0.0000000000000000
  0
LINE
  5
133
100
AcDbEntity
  8
MAIN0
  6
BYBLOCK
 62
0
100
AcDbLine
 10
264.9974421599320
 20
418.2959685536295
 30
0.0000000000000000
 11
264.9974421599320
 21
399.2959685536295
 31
0.0000000000000000
  0
INSERT
  5
134
100
AcDbEntity
  8
MAIN0
  6
BYBLOCK
 62
0
100
AcDbBlockReference
  2
_OPEN
 10
264.9974421599320
 20
418.2959685536295
 30
0.0000000000000000
 41
5.000000000000000
 42
5.000000000000000
 43
5.000000000000000
 50
270.0000000000000
  0
INSERT
  5
135
100
AcDbEntity
  8
MAIN0
  6
BYBLOCK
 62
0
100
AcDbBlockReference
  2
_DOT
 10
264.9974421599320
 20
398.2959685536295
 30
0.0000000000000000
 41
2.500000000000000
 42
2.500000000000000
 43
2.500000000000000
 50
270.0000000000000
  0
LINE
  5
136
100
AcDbEntity
  8
MAIN0
  6
BYBLOCK
 62
0
100
AcDbLine
 10
264.9974421599320
 20
423.2959685536295
 30
0.0000000000000000
 11
264.9974421599320
 21
425.7959685536295
 31
0.0000000000000000
  0
LINE
  5
137
100
AcDbEntity
  8
MAIN0
  6
BYBLOCK
 62
0
100
AcDbLine
 10
284.3543985256088
 20
398.2959685536295
 30
0.0000000000000000
 11
259.9974421599320
 21
398.2959685536295
 31
0.0000000000000000
  0
MTEXT
  5
138
100
AcDbEntity
  8
MAIN0
  6
BYBLOCK
 62
0
100
AcDbMText
 10
260.6224422791412
 20
408.2959685536295
 30
0.0000000000000000
 40
7.749999761581421
 41
0.0000000000000000
 71
     5
 72
     1
  1
\A1;20
 11
6.123233995736766e-017
 21
1.000000000000000
 31
0.0000000000000000
  7
STANDARD
  0
ENDBLK
  5
139
100
AcDbEntity
  8
MAIN0
  6
CONTINUOUS
 62
3
100
AcDbBlockEnd
  0
BLOCK
  5
13B
100
AcDbEntity
  8
MAIN0
  6
CONTINUOUS
 62
3
100
AcDbBlockBegin
  2
*D18
 70
    65
 10
0.0
 20
0.0
 30
0.0
  0
LINE
  5
13C
100
AcDbEntity
  8
MAIN0
  6
BYBLOCK
 62
0
100
AcDbLine
 10
284.3543985256088
 20
398.2959685536295
 30
0.0000000000000000
 11
259.9974421599320
 21
398.2959685536295
 31
0.0000000000000000
  0
LINE
  5
13D
100
AcDbEntity
  8
MAIN0
  6
BYBLOCK
 62
0
100
AcDbLine
 10
264.9974421599320
 20
397.2959685536295
 30
0.0000000000000000
 11
264.9974421599320
 21
378.2959685536285
 31
0.0000000000000000
  0
INSERT
  5
13E
100
AcDbEntity
  8
MAIN0
  6
BYBLOCK
 62
0
100
AcDbBlockReference
  2
_DOT
 10
264.9974421599320
 20
398.2959685536295
 30
0.0000000000000000
 41
2.500000000000000
 42
2.500000000000000
 43
2.500000000000000
 50
90.00000000000000
  0
INSERT
  5
13F
100
AcDbEntity
  8
MAIN0
  6
BYBLOCK
 62
0
100
AcDbBlockReference
  2
_OPEN
 10
264.9974421599320
 20
378.2959685536285
 30
0.0000000000000000
 41
5.000000000000000
 42
5.000000000000000
 43
5.000000000000000
 50
90.00000000000000
  0
LINE
  5
140
100
AcDbEntity
  8
MAIN0
  6
BYBLOCK
 62
0
100
AcDbLine
 10
264.9974421599320
 20
373.2959685536285
 30
0.0000000000000000
 11
264.9974421599320
 21
370.7959685536285
 31
0.0000000000000000
  0
LINE
  5
141
100
AcDbEntity
  8
MAIN0
  6
BYBLOCK
 62
0
100
AcDbLine
 10
283.3543985256087
 20
378.2959685536293
 30
0.0000000000000000
 11
259.9974421599320
 21
378.2959685536284
 31
0.0000000000000000
  0
MTEXT
  5
142
100
AcDbEntity
  8
MAIN0
  6
BYBLOCK
 62
0
100
AcDbMText
 10
260.6224422791412
 20
388.2959685536290
 30
0.0000000000000000
 40
7.749999761581421
 41
0.0000000000000000
 71
     5
 72
     1
  1
\A1;20
 11
6.123233995736766e-017
 21
1.000000000000000
 31
0.0000000000000000
  7
STANDARD
  0
ENDBLK
  5
143
100
AcDbEntity
  8
MAIN0
  6
CONTINUOUS
 62
3
100
AcDbBlockEnd
  0
BLOCK
  5
145
100
AcDbEntity
  8
MAIN0
  6
CONTINUOUS
 62
3
100
AcDbBlockBegin
  2
*D19
 70
    65
 10
0.0
 20
0.0
 30
0.0
  0
LINE
  5
146
100
AcDbEntity
  8
MAIN0
  6
BYBLOCK
 62
0
100
AcDbLine
 10
358.7543985554109
 20
420.0959685834318
 30
0.0000000000000000
 11
358.7543985554109
 21
460.4518980340733
 31
0.0000000000000000
  0
LINE
  5
147
100
AcDbEntity
  8
MAIN0
  6
BYBLOCK
 62
0
100
AcDbLine
 10
353.7543985554109
 20
455.4518980340733
 30
0.0000000000000000
 11
325.7543985557253
 21
455.4518980340733
 31
0.0000000000000000
  0
INSERT
  5
148
100
AcDbEntity
  8
MAIN0
  6
BYBLOCK
 62
0
100
AcDbBlockReference
  2
_OPEN
 10
358.7543985554109
 20
455.4518980340733
 30
0.0000000000000000
 41
5.000000000000000
 42
5.000000000000000
 43
5.000000000000000
 50
360.0000000000000
  0
INSERT
  5
149
100
AcDbEntity
  8
MAIN0
  6
BYBLOCK
 62
0
100
AcDbBlockReference
  2
_OPEN
 10
320.7543985557253
 20
455.4518980340733
 30
0.0000000000000000
 41
5.000000000000000
 42
5.000000000000000
 43
5.000000000000000
 50
180.0000000000000
  0
LINE
  5
14A
100
AcDbEntity
  8
MAIN0
  6
BYBLOCK
 62
0
100
AcDbLine
 10
320.7543985557253
 20
419.7959685834319
 30
0.0000000000000000
 11
320.7543985557253
 21
460.4518980340733
 31
0.0000000000000000
  0
MTEXT
  5
14B
100
AcDbEntity
  8
MAIN0
  6
BYBLOCK
 62
0
100
AcDbMText
 10
339.7543985555681
 20
459.8268979148641
 30
0.0000000000000000
 40
7.749999761581421
 41
0.0000000000000000
 71
     5
 72
     1
  1
\A1;38
 11
1.000000000000000
 21
0.0000000000000000
 31
0.0000000000000000
  7
STANDARD
  0
ENDBLK
  5
14C
100
AcDbEntity
  8
MAIN0
  6
CONTINUOUS
 62
3
100
AcDbBlockEnd
  0
BLOCK
  5
14E
100
AcDbEntity
  8
MAIN0
  6
CONTINUOUS
 62
3
100
AcDbBlockBegin
  2
*D20
 70
    65
 10
0.0
 20
0.0
 30
0.0
  0
LINE
  5
14F
100
AcDbEntity
  8
MAIN0
  6
BYBLOCK
 62
0
100
AcDbLine
 10
320.7543985557253
 20
419.7959685834319
 30
0.0000000000000000
 11
320.7543985557253
 21
460.4518980340733
 31
0.0000000000000000
  0
LINE
  5
150
100
AcDbEntity
  8
MAIN0
  6
BYBLOCK
 62
0
100
AcDbLine
 10
315.7543985557253
 20
455.4518980340733
 30
0.0000000000000000
 11
290.7543985554111
 21
455.4518980340733
 31
0.0000000000000000
  0
INSERT
  5
151
100
AcDbEntity
  8
MAIN0
  6
BYBLOCK
 62
0
100
AcDbBlockReference
  2
_OPEN
 10
320.7543985557253
 20
455.4518980340733
 30
0.0000000000000000
 41
5.000000000000000
 42
5.000000000000000
 43
5.000000000000000
 50
360.0000000000000
  0
INSERT
  5
152
100
AcDbEntity
  8
MAIN0
  6
BYBLOCK
 62
0
100
AcDbBlockReference
  2
_OPEN
 10
285.7543985554111
 20
455.4518980340733
 30
0.0000000000000000
 41
5.000000000000000
 42
5.000000000000000
 43
5.000000000000000
 50
180.0000000000000
  0
LINE
  5
153
100
AcDbEntity
  8
MAIN0
  6
BYBLOCK
 62
0
100
AcDbLine
 10
285.7543985554111
 20
399.6959685834318
 30
0.0000000000000000
 11
285.7543985554111
 21
460.4518980340733
 31
0.0000000000000000
  0
MTEXT
  5
154
100
AcDbEntity
  8
MAIN0
  6
BYBLOCK
 62
0
100
AcDbMText
 10
296.8349510210417
 20
460.5768979148641
 30
0.0000000000000000
 40
7.749999761581421
 41
0.0000000000000000
 71
     5
 72
     1
  1
\A1;35
 11
1.000000000000000
 21
0.0000000000000000
 31
0.0000000000000000
  7
STANDARD
  0
ENDBLK
  5
155
100
AcDbEntity
  8
MAIN0
  6
CONTINUOUS
 62
3
100
AcDbBlockEnd
  0
BLOCK
  5
157
100
AcDbEntity
  8
MAIN0
  6
CONTINUOUS
 62
3
100
AcDbBlockBegin
  2
*D21
 70
    65
 10
0.0
 20
0.0
 30
0.0
  0
LINE
  5
158
100
AcDbEntity
  8
MAIN0
  6
BYBLOCK
 62
0
100
AcDbLine
 10
563.7543985554113
 20
399.6959685834581
 30
0.0000000000000000
 11
563.7543985554113
 21
460.4518980340733
 31
0.0000000000000000
  0
LINE
  5
159
100
AcDbEntity
  8
MAIN0
  6
BYBLOCK
 62
0
100
AcDbLine
 10
558.7543985554113
 20
455.4518980340733
 30
0.0000000000000000
 11
533.7543985554113
 21
455.4518980340733
 31
0.0000000000000000
  0
INSERT
  5
15A
100
AcDbEntity
  8
MAIN0
  6
BYBLOCK
 62
0
100
AcDbBlockReference
  2
_OPEN
 10
563.7543985554113
 20
455.4518980340733
 30
0.0000000000000000
 41
5.000000000000000
 42
5.000000000000000
 43
5.000000000000000
 50
360.0000000000000
  0
INSERT
  5
15B
100
AcDbEntity
  8
MAIN0
  6
BYBLOCK
 62
0
100
AcDbBlockReference
  2
_OPEN
 10
528.7543985554113
 20
455.4518980340733
 30
0.0000000000000000
 41
5.000000000000000
 42
5.000000000000000
 43
5.000000000000000
 50
180.0000000000000
  0
LINE
  5
15C
100
AcDbEntity
  8
MAIN0
  6
BYBLOCK
 62
0
100
AcDbLine
 10
528.7543985554113
 20
419.7959685834318
 30
0.0000000000000000
 11
528.7543985554113
 21
460.4518980340733
 31
0.0000000000000000
  0
MTEXT
  5
15D
100
AcDbEntity
  8
MAIN0
  6
BYBLOCK
 62
0
100
AcDbMText
 10
546.2543985554113
 20
459.8268979148641
 30
0.0000000000000000
 40
7.749999761581421
 41
0.0000000000000000
 71
     5
 72
     1
  1
\A1;35
 11
1.000000000000000
 21
0.0000000000000000
 31
0.0000000000000000
  7
STANDARD
  0
ENDBLK
  5
15E
100
AcDbEntity
  8
MAIN0
  6
CONTINUOUS
 62
3
100
AcDbBlockEnd
  0
BLOCK
  5
160
100
AcDbEntity
  8
MAIN0
  6
CONTINUOUS
 62
3
100
AcDbBlockBegin
  2
*D22
 70
    65
 10
0.0
 20
0.0
 30
0.0
  0
LINE
  5
161
100
AcDbEntity
  8
MAIN0
  6
BYBLOCK
 62
0
100
AcDbLine
 10
528.7543985554113
 20
419.7959685834318
 30
0.0000000000000000
 11
528.7543985554113
 21
460.4518980340733
 31
0.0000000000000000
  0
LINE
  5
162
100
AcDbEntity
  8
MAIN0
  6
BYBLOCK
 62
0
100
AcDbLine
 10
523.7543985554113
 20
455.4518980340733
 30
0.0000000000000000
 11
504.7543985554111
 21
455.4518980340733
 31
0.0000000000000000
  0
INSERT
  5
163
100
AcDbEntity
  8
MAIN0
  6
BYBLOCK
 62
0
100
AcDbBlockReference
  2
_OPEN
 10
528.7543985554113
 20
455.4518980340733
 30
0.0000000000000000
 41
5.000000000000000
 42
5.000000000000000
 43
5.000000000000000
 50
360.0000000000000
  0
INSERT
  5
164
100
AcDbEntity
  8
MAIN0
  6
BYBLOCK
 62
0
100
AcDbBlockReference
  2
_OPEN
 10
499.7543985554111
 20
455.4518980340733
 30
0.0000000000000000
 41
5.000000000000000
 42
5.000000000000000
 43
5.000000000000000
 50
180.0000000000000
  0
LINE
  5
165
100
AcDbEntity
  8
MAIN0
  6
BYBLOCK
 62
0
100
AcDbLine
 10
499.7543985554111
 20
420.0959685834318
 30
0.0000000000000000
 11
499.7543985554111
 21
460.4518980340733
 31
0.0000000000000000
  0
MTEXT
  5
166
100
AcDbEntity
  8
MAIN0
  6
BYBLOCK
 62
0
100
AcDbMText
 10
514.2543985554112
 20
459.8268979148641
 30
0.0000000000000000
 40
7.749999761581421
 41
0.0000000000000000
 71
     5
 72
     1
  1
\A1;29
 11
1.000000000000000
 21
0.0000000000000000
 31
0.0000000000000000
  7
STANDARD
  0
ENDBLK
  5
167
100
AcDbEntity
  8
MAIN0
  6
CONTINUOUS
 62
3
100
AcDbBlockEnd
  0
BLOCK
  5
169
100
AcDbEntity
  8
MAIN0
  6
CONTINUOUS
 62
3
100
AcDbBlockBegin
  2
*D23
 70
    65
 10
0.0
 20
0.0
 30
0.0
  0
LINE
  5
16A
100
AcDbEntity
  8
MAIN0
  6
BYBLOCK
 62
0
100
AcDbLine
 10
284.7543985554225
 20
311.6959685239652
 30
0.0000000000000000
 11
284.7543985554225
 21
221.2959685536209
 31
0.0000000000000000
  0
LINE
  5
16B
100
AcDbEntity
  8
MAIN0
  6
BYBLOCK
 62
0
100
AcDbLine
 10
289.7543985554225
 20
226.2959685536209
 30
0.0000000000000000
 11
711.2543985554162
 21
226.2959685536209
 31
0.0000000000000000
  0
INSERT
  5
16C
100
AcDbEntity
  8
MAIN0
  6
BYBLOCK
 62
0
100
AcDbBlockReference
  2
_OPEN
 10
284.7543985554225
 20
226.2959685536209
 30
0.0000000000000000
 41
5.000000000000000
 42
5.000000000000000
 43
5.000000000000000
 50
180.0000000000000
  0
INSERT
  5
16D
100
AcDbEntity
  8
MAIN0
  6
BYBLOCK
 62
0
100
AcDbBlockReference
  2
_OPEN
 10
716.2543985554162
 20
226.2959685536209
 30
0.0000000000000000
 41
5.000000000000000
 42
5.000000000000000
 43
5.000000000000000
 50
0.0000000000000000
  0
LINE
  5
16E
100
AcDbEntity
  8
MAIN0
  6
BYBLOCK
 62
0
100
AcDbLine
 10
716.2543985554162
 20
320.2959685235470
 30
0.0000000000000000
 11
716.2543985554162
 21
221.2959685536209
 31
0.0000000000000000
  0
MTEXT
  5
16F
100
AcDbEntity
  8
MAIN0
  6
BYBLOCK
 62
0
100
AcDbMText
 10
500.5043985554194
 20
230.6709684344116
 30
0.0000000000000000
 40
7.749999761581421
 41
0.0000000000000000
 71
     5
 72
     1
  1
\A1;431.5
 11
1.000000000000000
 21
0.0000000000000000
 31
0.0000000000000000
  7
STANDARD
  0
ENDBLK
  5
170
100
AcDbEntity
  8
MAIN0
  6
CONTINUOUS
 62
3
100
AcDbBlockEnd
  0
BLOCK
  5
199
100
AcDbEntity
  8
MAIN0
  6
CONTINUOUS
 62
3
100
AcDbBlockBegin
  2
*D24
 70
    65
 10
0.0
 20
0.0
 30
0.0
  0
LINE
  5
19A
100
AcDbEntity
  8
MAIN0
  6
BYBLOCK
 62
0
100
AcDbLine
 10
901.7285002275627
 20
311.2959685236438
 30
0.0000000000000000
 11
901.7285002275627
 21
253.2959685536208
 31
0.0000000000000000
  0
LINE
  5
19B
100
AcDbEntity
  8
MAIN0
  6
BYBLOCK
 62
0
100
AcDbLine
 10
901.7285002275627
 20
258.2959685536208
 30
0.0000000000000000
 11
884.7285002275630
 21
258.2959685536208
 31
0.0000000000000000
  0
INSERT
  5
19C
100
AcDbEntity
  8
MAIN0
  6
BYBLOCK
 62
0
100
AcDbBlockReference
  2
_OPEN
 10
901.7285002275627
 20
258.2959685536208
 30
0.0000000000000000
 41
5.000000000000000
 42
5.000000000000000
 43
5.000000000000000
 50
180.0000000000000
  0
INSERT
  5
19D
100
AcDbEntity
  8
MAIN0
  6
BYBLOCK
 62
0
100
AcDbBlockReference
  2
_OPEN
 10
884.7285002275630
 20
258.2959685536208
 30
0.0000000000000000
 41
5.000000000000000
 42
5.000000000000000
 43
5.000000000000000
 50
360.0000000000000
  0
LINE
  5
19E
100
AcDbEntity
  8
MAIN0
  6
BYBLOCK
 62
0
100
AcDbLine
 10
906.7285002275627
 20
258.2959685536208
 30
0.0000000000000000
 11
909.2285002275627
 21
258.2959685536208
 31
0.0000000000000000
  0
LINE
  5
19F
100
AcDbEntity
  8
MAIN0
  6
BYBLOCK
 62
0
100
AcDbLine
 10
879.7285002275630
 20
258.2959685536208
 30
0.0000000000000000
 11
877.2285002275630
 21
258.2959685536208
 31
0.0000000000000000
  0
MTEXT
  5
1A0
100
AcDbEntity
  8
MAIN0
  6
BYBLOCK
 62
0
100
AcDbMText
 10
892.9174911159266
 20
263.4209684344115
 30
0.0000000000000000
 40
7.749999761581421
 41
0.0000000000000000
 71
     5
 72
     1
  1
\A1;17
 11
1.000000000000000
 21
0.0000000000000000
 31
0.0000000000000000
  7
STANDARD
  0
ENDBLK
  5
1A1
100
AcDbEntity
  8
MAIN0
  6
CONTINUOUS
 62
3
100
AcDbBlockEnd
  0
BLOCK
  5
1A3
100
AcDbEntity
  8
MAIN0
  6
CONTINUOUS
 62
3
100
AcDbBlockBegin
  2
*D25
 70
    65
 10
0.0
 20
0.0
 30
0.0
  0
LINE
  5
1A4
100
AcDbEntity
  8
MAIN0
  6
BYBLOCK
 62
0
100
AcDbLine
 10
1004.728500227562
 20
311.2959685236438
 30
0.0000000000000000
 11
1004.728500227562
 21
237.2959685536209
 31
0.0000000000000000
  0
LINE
  5
1A5
100
AcDbEntity
  8
MAIN0
  6
BYBLOCK
 62
0
100
AcDbLine
 10
999.7285002275625
 20
242.2959685536209
 30
0.0000000000000000
 11
906.7285002275627
 21
242.2959685536209
 31
0.0000000000000000
  0
INSERT
  5
1A6
100
AcDbEntity
  8
MAIN0
  6
BYBLOCK
 62
0
100
AcDbBlockReference
  2
_OPEN
 10
1004.728500227562
 20
242.2959685536209
 30
0.0000000000000000
 41
5.000000000000000
 42
5.000000000000000
 43
5.000000000000000
 50
360.0000000000000
  0
INSERT
  5
1A7
100
AcDbEntity
  8
MAIN0
  6
BYBLOCK
 62
0
100
AcDbBlockReference
  2
_OPEN
 10
901.7285002275627
 20
242.2959685536209
 30
0.0000000000000000
 41
5.000000000000000
 42
5.000000000000000
 43
5.000000000000000
 50
180.0000000000000
  0
LINE
  5
1A8
100
AcDbEntity
  8
MAIN0
  6
BYBLOCK
 62
0
100
AcDbLine
 10
901.7285002275627
 20
311.2959685236438
 30
0.0000000000000000
 11
901.7285002275627
 21
237.2959685536209
 31
0.0000000000000000
  0
MTEXT
  5
1A9
100
AcDbEntity
  8
MAIN0
  6
BYBLOCK
 62
0
100
AcDbMText
 10
953.2285002275626
 20
246.6709684344116
 30
0.0000000000000000
 40
7.749999761581421
 41
0.0000000000000000
 71
     5
 72
     1
  1
\A1;103
 11
1.000000000000000
 21
0.0000000000000000
 31
0.0000000000000000
  7
STANDARD
  0
ENDBLK
  5
1AA
100
AcDbEntity
  8
MAIN0
  6
CONTINUOUS
 62
3
100
AcDbBlockEnd
  0
BLOCK
  5
1AC
100
AcDbEntity
  8
MAIN0
  6
CONTINUOUS
 62
3
100
AcDbBlockBegin
  2
*D26
 70
    65
 10
0.0
 20
0.0
 30
0.0
  0
LINE
  5
1AD
100
AcDbEntity
  8
MAIN0
  6
BYBLOCK
 62
0
100
AcDbLine
 10
901.7285002275627
 20
311.2959685236438
 30
0.0000000000000000
 11
901.7285002275627
 21
237.2959685536209
 31
0.0000000000000000
  0
LINE
  5
1AE
100
AcDbEntity
  8
MAIN0
  6
BYBLOCK
 62
0
100
AcDbLine
 10
896.7285002275627
 20
242.2959685536209
 30
0.0000000000000000
 11
866.7285002275627
 21
242.2959685536209
 31
0.0000000000000000
  0
INSERT
  5
1AF
100
AcDbEntity
  8
MAIN0
  6
BYBLOCK
 62
0
100
AcDbBlockReference
  2
_OPEN
 10
901.7285002275627
 20
242.2959685536209
 30
0.0000000000000000
 41
5.000000000000000
 42
5.000000000000000
 43
5.000000000000000
 50
360.0000000000000
  0
INSERT
  5
1B0
100
AcDbEntity
  8
MAIN0
  6
BYBLOCK
 62
0
100
AcDbBlockReference
  2
_OPEN
 10
861.7285002275627
 20
242.2959685536209
 30
0.0000000000000000
 41
5.000000000000000
 42
5.000000000000000
 43
5.000000000000000
 50
180.0000000000000
  0
LINE
  5
1B1
100
AcDbEntity
  8
MAIN0
  6
BYBLOCK
 62
0
100
AcDbLine
 10
861.7285002275627
 20
332.2959685236439
 30
0.0000000000000000
 11
861.7285002275627
 21
237.2959685536209
 31
0.0000000000000000
  0
MTEXT
  5
1B2
100
AcDbEntity
  8
MAIN0
  6
BYBLOCK
 62
0
100
AcDbMText
 10
876.6068451673060
 20
247.4209684344116
 30
0.0000000000000000
 40
7.749999761581421
 41
0.0000000000000000
 71
     5
 72
     1
  1
\A1;40
 11
1.000000000000000
 21
0.0000000000000000
 31
0.0000000000000000
  7
STANDARD
  0
ENDBLK
  5
1B3
100
AcDbEntity
  8
MAIN0
  6
CONTINUOUS
 62
3
100
AcDbBlockEnd
  0
BLOCK
  5
1B5
100
AcDbEntity
  8
MAIN0
  6
CONTINUOUS
 62
3
100
AcDbBlockBegin
  2
D27
 70
    64
 10
0.0
 20
0.0
 30
0.0
  0
LINE
  5
1B6
100
AcDbEntity
  8
MAIN0
  6
BYBLOCK
 62
0
100
AcDbLine
 10
14.67295613381009
 20
-78.55290763366395
 30
0.0000000000000000
 11
-91.50000000000046
 21
-78.55290763366378
 31
0.0000000000000000
  0
LINE
  5
1B7
100
AcDbEntity
  8
MAIN0
  6
BYBLOCK
 62
0
100
AcDbLine
 10
-86.50000000000046
 20
-80.05290769326844
 30
0.0000000000000000
 11
-91.50000000000046
 21
-78.55290763366378
 31
0.0000000000000000
  0
LINE
  5
1B8
100
AcDbEntity
  8
MAIN0
  6
BYBLOCK
 62
0
100
AcDbLine
 10
-91.50000000000046
 20
-78.55290763366378
 30
0.0000000000000000
 11
-86.50000000000046
 21
-77.05290757405915
 31
0.0000000000000000
  0
LINE
  5
1B9
100
AcDbEntity
  8
MAIN0
  6
BYBLOCK
 62
0
100
AcDbLine
 10
-91.50000000000034
 20
28.99520758070662
 30
0.0000000000000000
 11
-91.50000000000046
 21
-83.55290763366378
 31
0.0000000000000000
  0
MTEXT
  5
1BA
100
AcDbEntity
  8
MAIN0
  6
BYBLOCK
 62
0
100
AcDbMText
 10
0.7319466522951643
 20
-73.42790775287321
 30
0.0000000000000000
 40
7.749999761581421
 41
0.0000000000000000
 71
     5
 72
     1
  1
\A1;（183）
 11
1.000000000000000
 21
0.0000000000000000
 31
0.0000000000000000
  7
KNJYOKO
  0
ENDBLK
  5
1BB
100
AcDbEntity
  8
MAIN0
  6
CONTINUOUS
 62
3
100
AcDbBlockEnd
  0
BLOCK
  5
244
100
AcDbEntity
  8
MAIN0
  6
CONTINUOUS
 62
3
100
AcDbBlockBegin
  2
*D28
 70
    65
 10
0.0
 20
0.0
 30
0.0
  0
LINE
  5
245
100
AcDbEntity
  8
MAIN0
  6
BYBLOCK
 62
0
100
AcDbLine
 10
879.1372900033409
 20
537.1235409695819
 30
0.0000000000000000
 11
879.1372900033409
 21
593.2642748740893
 31
0.0000000000000000
  0
LINE
  5
246
100
AcDbEntity
  8
MAIN0
  6
BYBLOCK
 62
0
100
AcDbLine
 10
874.1372900033409
 20
588.2642748740893
 30
0.0000000000000000
 11
754.6372900033416
 21
588.2642748740893
 31
0.0000000000000000
  0
INSERT
  5
247
100
AcDbEntity
  8
MAIN0
  6
BYBLOCK
 62
0
100
AcDbBlockReference
  2
_OPEN
 10
879.1372900033409
 20
588.2642748740893
 30
0.0000000000000000
 41
5.000000000000000
 42
5.000000000000000
 43
5.000000000000000
 50
360.0000000000000
  0
INSERT
  5
248
100
AcDbEntity
  8
MAIN0
  6
BYBLOCK
 62
0
100
AcDbBlockReference
  2
_OPEN
 10
749.6372900033416
 20
588.2642748740893
 30
0.0000000000000000
 41
5.000000000000000
 42
5.000000000000000
 43
5.000000000000000
 50
180.0000000000000
  0
LINE
  5
249
100
AcDbEntity
  8
MAIN0
  6
BYBLOCK
 62
0
100
AcDbLine
 10
749.6372900033416
 20
408.5235409695820
 30
0.0000000000000000
 11
749.6372900033416
 21
593.2642748740893
 31
0.0000000000000000
  0
MTEXT
  5
24A
100
AcDbEntity
  8
MAIN0
  6
BYBLOCK
 62
0
100
AcDbMText
 10
814.3872900033413
 20
592.6392747548800
 30
0.0000000000000000
 40
7.749999761581421
 41
0.0000000000000000
 71
     5
 72
     1
  1
\A1;129.5
 11
1.000000000000000
 21
0.0000000000000000
 31
0.0000000000000000
  7
STANDARD
  0
ENDBLK
  5
24B
100
AcDbEntity
  8
MAIN0
  6
CONTINUOUS
 62
3
100
AcDbBlockEnd
  0
BLOCK
  5
24D
100
AcDbEntity
  8
MAIN0
  6
CONTINUOUS
 62
3
100
AcDbBlockBegin
  2
*D29
 70
    65
 10
0.0
 20
0.0
 30
0.0
  0
LINE
  5
24E
100
AcDbEntity
  8
MAIN0
  6
BYBLOCK
 62
0
100
AcDbLine
 10
791.4780393990393
 20
535.1235409397796
 30
0.0000000000000000
 11
727.9643222794862
 21
535.1235409397796
 31
0.0000000000000000
  0
LINE
  5
24F
100
AcDbEntity
  8
MAIN0
  6
BYBLOCK
 62
0
100
AcDbLine
 10
732.9643222794862
 20
530.1235409397796
 30
0.0000000000000000
 11
732.9643222794862
 21
405.1235409397797
 31
0.0000000000000000
  0
INSERT
  5
250
100
AcDbEntity
  8
MAIN0
  6
BYBLOCK
 62
0
100
AcDbBlockReference
  2
_OPEN
 10
732.9643222794862
 20
535.1235409397796
 30
0.0000000000000000
 41
5.000000000000000
 42
5.000000000000000
 43
5.000000000000000
 50
90.00000000000000
  0
INSERT
  5
251
100
AcDbEntity
  8
MAIN0
  6
BYBLOCK
 62
0
100
AcDbBlockReference
  2
_OPEN
 10
732.9643222794862
 20
400.1235409397797
 30
0.0000000000000000
 41
5.000000000000000
 42
5.000000000000000
 43
5.000000000000000
 50
270.0000000000000
  0
LINE
  5
252
100
AcDbEntity
  8
MAIN0
  6
BYBLOCK
 62
0
100
AcDbLine
 10
737.8131281982898
 20
400.1235409397797
 30
0.0000000000000000
 11
727.9643222794861
 21
400.1235409397797
 31
0.0000000000000000
  0
MTEXT
  5
253
100
AcDbEntity
  8
MAIN0
  6
BYBLOCK
 62
0
100
AcDbMText
 10
728.5893223986955
 20
467.6235409397797
 30
0.0000000000000000
 40
7.749999761581421
 41
0.0000000000000000
 71
     5
 72
     1
  1
\A1;135
 11
6.123233995736766e-017
 21
1.000000000000000
 31
0.0000000000000000
  7
STANDARD
  0
ENDBLK
  5
254
100
AcDbEntity
  8
MAIN0
  6
CONTINUOUS
 62
3
100
AcDbBlockEnd
  0
BLOCK
  5
256
100
AcDbEntity
  8
MAIN0
  6
CONTINUOUS
 62
3
100
AcDbBlockBegin
  2
*D30
 70
    65
 10
0.0
 20
0.0
 30
0.0
  0
LINE
  5
257
100
AcDbEntity
  8
MAIN0
  6
BYBLOCK
 62
0
100
AcDbLine
 10
284.7543985554225
 20
311.6959685239652
 30
0.0000000000000000
 11
284.7543985554225
 21
237.2959685536209
 31
0.0000000000000000
  0
LINE
  5
258
100
AcDbEntity
  8
MAIN0
  6
BYBLOCK
 62
0
100
AcDbLine
 10
289.7543985554225
 20
242.2959685536209
 30
0.0000000000000000
 11
479.7543985554221
 21
242.2959685536209
 31
0.0000000000000000
  0
INSERT
  5
259
100
AcDbEntity
  8
MAIN0
  6
BYBLOCK
 62
0
100
AcDbBlockReference
  2
_OPEN
 10
284.7543985554225
 20
242.2959685536209
 30
0.0000000000000000
 41
5.000000000000000
 42
5.000000000000000
 43
5.000000000000000
 50
180.0000000000000
  0
INSERT
  5
25A
100
AcDbEntity
  8
MAIN0
  6
BYBLOCK
 62
0
100
AcDbBlockReference
  2
_OPEN
 10
484.7543985554221
 20
242.2959685536209
 30
0.0000000000000000
 41
5.000000000000000
 42
5.000000000000000
 43
5.000000000000000
 50
0.0000000000000000
  0
LINE
  5
25B
100
AcDbEntity
  8
MAIN0
  6
BYBLOCK
 62
0
100
AcDbLine
 10
484.7543985554221
 20
303.2959685238193
 30
0.0000000000000000
 11
484.7543985554221
 21
237.2959685536209
 31
0.0000000000000000
  0
MTEXT
  5
25C
100
AcDbEntity
  8
MAIN0
  6
BYBLOCK
 62
0
100
AcDbMText
 10
384.7543985554223
 20
246.6709684344116
 30
0.0000000000000000
 40
7.749999761581421
 41
0.0000000000000000
 71
     5
 72
     1
  1
\A1;200
 11
1.000000000000000
 21
0.0000000000000000
 31
0.0000000000000000
  7
STANDARD
  0
ENDBLK
  5
25D
100
AcDbEntity
  8
MAIN0
  6
CONTINUOUS
 62
3
100
AcDbBlockEnd
  0
BLOCK
  5
25F
100
AcDbEntity
  8
MAIN0
  6
CONTINUOUS
 62
3
100
AcDbBlockBegin
  2
*D31
 70
    65
 10
0.0
 20
0.0
 30
0.0
  0
LINE
  5
260
100
AcDbEntity
  8
MAIN0
  6
BYBLOCK
 62
0
100
AcDbLine
 10
484.7543985554221
 20
303.2959685238193
 30
0.0000000000000000
 11
484.7543985554221
 21
237.2959685536209
 31
0.0000000000000000
  0
LINE
  5
261
100
AcDbEntity
  8
MAIN0
  6
BYBLOCK
 62
0
100
AcDbLine
 10
489.7543985554221
 20
242.2959685536209
 30
0.0000000000000000
 11
711.2543985554162
 21
242.2959685536209
 31
0.0000000000000000
  0
INSERT
  5
262
100
AcDbEntity
  8
MAIN0
  6
BYBLOCK
 62
0
100
AcDbBlockReference
  2
_OPEN
 10
484.7543985554221
 20
242.2959685536209
 30
0.0000000000000000
 41
5.000000000000000
 42
5.000000000000000
 43
5.000000000000000
 50
180.0000000000000
  0
INSERT
  5
263
100
AcDbEntity
  8
MAIN0
  6
BYBLOCK
 62
0
100
AcDbBlockReference
  2
_OPEN
 10
716.2543985554162
 20
242.2959685536209
 30
0.0000000000000000
 41
5.000000000000000
 42
5.000000000000000
 43
5.000000000000000
 50
0.0000000000000000
  0
LINE
  5
264
100
AcDbEntity
  8
MAIN0
  6
BYBLOCK
 62
0
100
AcDbLine
 10
716.2543985554162
 20
320.2959685235470
 30
0.0000000000000000
 11
716.2543985554162
 21
237.2959685536209
 31
0.0000000000000000
  0
MTEXT
  5
265
100
AcDbEntity
  8
MAIN0
  6
BYBLOCK
 62
0
100
AcDbMText
 10
600.5043985554191
 20
246.6709684344116
 30
0.0000000000000000
 40
7.749999761581421
 41
0.0000000000000000
 71
     5
 72
     1
  1
\A1;231.5
 11
1.000000000000000
 21
0.0000000000000000
 31
0.0000000000000000
  7
STANDARD
  0
ENDBLK
  5
266
100
AcDbEntity
  8
MAIN0
  6
CONTINUOUS
 62
3
100
AcDbBlockEnd
  0
BLOCK
  5
268
100
AcDbEntity
  8
MAIN0
  6
CONTINUOUS
 62
3
100
AcDbBlockBegin
  2
*D32
 70
    65
 10
0.0
 20
0.0
 30
0.0
  0
LINE
  5
269
100
AcDbEntity
  8
MAIN0
  6
BYBLOCK
 62
0
100
AcDbLine
 10
521.8470777191677
 20
318.2959685536217
 30
0.0000000000000000
 11
521.8470777191677
 21
360.7959685538939
 31
0.0000000000000000
  0
INSERT
  5
26A
100
AcDbEntity
  8
MAIN0
  6
BYBLOCK
 62
0
100
AcDbBlockReference
  2
_OPEN
 10
521.8470777191677
 20
313.2959685536217
 30
0.0000000000000000
 41
5.000000000000000
 42
5.000000000000000
 43
5.000000000000000
 50
270.0000000000000
  0
INSERT
  5
26B
100
AcDbEntity
  8
MAIN0
  6
BYBLOCK
 62
0
100
AcDbBlockReference
  2
_OPEN
 10
521.8470777191677
 20
365.7959685538939
 30
0.0000000000000000
 41
5.000000000000000
 42
5.000000000000000
 43
5.000000000000000
 50
90.00000000000000
  0
LINE
  5
26C
100
AcDbEntity
  8
MAIN0
  6
BYBLOCK
 62
0
100
AcDbLine
 10
547.7543985256136
 20
365.7959685538939
 30
0.0000000000000000
 11
516.8470777191677
 21
365.7959685538939
 31
0.0000000000000000
  0
MTEXT
  5
26D
100
AcDbEntity
  8
MAIN0
  6
BYBLOCK
 62
0
100
AcDbMText
 10
516.7220778383770
 20
343.6706926900253
 30
0.0000000000000000
 40
7.749999761581421
 41
0.0000000000000000
 71
     5
 72
     1
  1
\A1;52.5
 11
6.123233995736766e-017
 21
1.000000000000000
 31
0.0000000000000000
  7
STANDARD
  0
ENDBLK
  5
26E
100
AcDbEntity
  8
MAIN0
  6
CONTINUOUS
 62
3
100
AcDbBlockEnd
  0
BLOCK
  5
270
100
AcDbEntity
  8
MAIN0
  6
CONTINUOUS
 62
3
100
AcDbBlockBegin
  2
*D33
 70
    65
 10
0.0
 20
0.0
 30
0.0
  0
LINE
  5
271
100
AcDbEntity
  8
MAIN0
  6
BYBLOCK
 62
0
100
AcDbLine
 10
547.7543985256136
 20
365.7959685538939
 30
0.0000000000000000
 11
516.8470777191677
 21
365.7959685538939
 31
0.0000000000000000
  0
LINE
  5
272
100
AcDbEntity
  8
MAIN0
  6
BYBLOCK
 62
0
100
AcDbLine
 10
521.8470777191677
 20
365.7959685538939
 30
0.0000000000000000
 11
521.8470777191677
 21
378.2959685536236
 31
0.0000000000000000
  0
INSERT
  5
273
100
AcDbEntity
  8
MAIN0
  6
BYBLOCK
 62
0
100
AcDbBlockReference
  2
_OPEN
 10
521.8470777191677
 20
365.7959685538939
 30
0.0000000000000000
 41
5.000000000000000
 42
5.000000000000000
 43
5.000000000000000
 50
90.00000000000000
  0
INSERT
  5
274
100
AcDbEntity
  8
MAIN0
  6
BYBLOCK
 62
0
100
AcDbBlockReference
  2
_OPEN
 10
521.8470777191677
 20
378.2959685536236
 30
0.0000000000000000
 41
5.000000000000000
 42
5.000000000000000
 43
5.000000000000000
 50
270.0000000000000
  0
LINE
  5
275
100
AcDbEntity
  8
MAIN0
  6
BYBLOCK
 62
0
100
AcDbLine
 10
521.8470777191677
 20
360.7959685538939
 30
0.0000000000000000
 11
521.8470777191677
 21
358.2959685538939
 31
0.0000000000000000
  0
LINE
  5
276
100
AcDbEntity
  8
MAIN0
  6
BYBLOCK
 62
0
100
AcDbLine
 10
521.8470777191677
 20
383.2959685536236
 30
0.0000000000000000
 11
521.8470777191677
 21
401.2739086172749
 31
0.0000000000000000
  0
MTEXT
  5
277
100
AcDbEntity
  8
MAIN0
  6
BYBLOCK
 62
0
100
AcDbMText
 10
516.7220778383770
 20
392.1489083788563
 30
0.0000000000000000
 40
7.749999761581421
 41
0.0000000000000000
 71
     5
 72
     1
  1
\A1;12.5
 11
6.123233995736766e-017
 21
1.000000000000000
 31
0.0000000000000000
  7
STANDARD
  0
ENDBLK
  5
278
100
AcDbEntity
  8
MAIN0
  6
CONTINUOUS
 62
3
100
AcDbBlockEnd
  0
BLOCK
  5
27A
100
AcDbEntity
  8
MAIN0
  6
CONTINUOUS
 62
3
100
AcDbBlockBegin
  2
*D34
 70
    65
 10
0.0
 20
0.0
 30
0.0
  0
LINE
  5
27B
100
AcDbEntity
  8
MAIN0
  6
BYBLOCK
 62
0
100
AcDbLine
 10
749.6372900033416
 20
408.5235409695820
 30
0.0000000000000000
 11
749.6372900033421
 21
576.0571682109102
 31
0.0000000000000000
  0
LINE
  5
27C
100
AcDbEntity
  8
MAIN0
  6
BYBLOCK
 62
0
100
AcDbLine
 10
749.6372900033420
 20
571.0571682109102
 30
0.0000000000000000
 11
764.1372900033421
 21
571.0571682109102
 31
0.0000000000000000
  0
INSERT
  5
27D
100
AcDbEntity
  8
MAIN0
  6
BYBLOCK
 62
0
100
AcDbBlockReference
  2
_OPEN
 10
749.6372900033420
 20
571.0571682109102
 30
0.0000000000000000
 41
5.000000000000000
 42
5.000000000000000
 43
5.000000000000000
 50
0.0000000000000000
  0
INSERT
  5
27E
100
AcDbEntity
  8
MAIN0
  6
BYBLOCK
 62
0
100
AcDbBlockReference
  2
_OPEN
 10
764.1372900033421
 20
571.0571682109102
 30
0.0000000000000000
 41
5.000000000000000
 42
5.000000000000000
 43
5.000000000000000
 50
180.0000000000000
  0
LINE
  5
27F
100
AcDbEntity
  8
MAIN0
  6
BYBLOCK
 62
0
100
AcDbLine
 10
744.6372900033420
 20
571.0571682109102
 30
0.0000000000000000
 11
726.6001152330562
 21
571.0571682109102
 31
0.0000000000000000
  0
LINE
  5
280
100
AcDbEntity
  8
MAIN0
  6
BYBLOCK
 62
0
100
AcDbLine
 10
769.1372900033421
 20
571.0571682109102
 30
0.0000000000000000
 11
771.6372900033421
 21
571.0571682109102
 31
0.0000000000000000
  0
LINE
  5
281
100
AcDbEntity
  8
MAIN0
  6
BYBLOCK
 62
0
100
AcDbLine
 10
764.1372900033421
 20
411.7235409696024
 30
0.0000000000000000
 11
764.1372900033420
 21
576.0571682109102
 31
0.0000000000000000
  0
MTEXT
  5
282
100
AcDbEntity
  8
MAIN0
  6
BYBLOCK
 62
0
100
AcDbMText
 10
735.7251154714747
 20
576.1821680917009
 30
0.0000000000000000
 40
7.749999761581421
 41
0.0000000000000000
 71
     5
 72
     1
  1
\A1;14.5
 11
1.000000000000000
 21
0.0000000000000000
 31
0.0000000000000000
  7
STANDARD
  0
ENDBLK
  5
283
100
AcDbEntity
  8
MAIN0
  6
CONTINUOUS
 62
3
100
AcDbBlockEnd
  0
BLOCK
  5
285
100
AcDbEntity
  8
MAIN0
  6
CONTINUOUS
 62
3
100
AcDbBlockBegin
  2
*D35
 70
    65
 10
0.0
 20
0.0
 30
0.0
  0
LINE
  5
286
100
AcDbEntity
  8
MAIN0
  6
BYBLOCK
 62
0
100
AcDbLine
 10
764.1372900033421
 20
411.7235409696024
 30
0.0000000000000000
 11
764.1372900033420
 21
576.0571682109102
 31
0.0000000000000000
  0
LINE
  5
287
100
AcDbEntity
  8
MAIN0
  6
BYBLOCK
 62
0
100
AcDbLine
 10
769.1372900033412
 20
571.0571682109102
 30
0.0000000000000000
 11
802.1372900033420
 21
571.0571682109102
 31
0.0000000000000000
  0
INSERT
  5
288
100
AcDbEntity
  8
MAIN0
  6
BYBLOCK
 62
0
100
AcDbBlockReference
  2
_OPEN
 10
764.1372900033412
 20
571.0571682109102
 30
0.0000000000000000
 41
5.000000000000000
 42
5.000000000000000
 43
5.000000000000000
 50
180.0000000000000
  0
INSERT
  5
289
100
AcDbEntity
  8
MAIN0
  6
BYBLOCK
 62
0
100
AcDbBlockReference
  2
_OPEN
 10
807.1372900033420
 20
571.0571682109102
 30
0.0000000000000000
 41
5.000000000000000
 42
5.000000000000000
 43
5.000000000000000
 50
0.0000000000000000
  0
LINE
  5
28A
100
AcDbEntity
  8
MAIN0
  6
BYBLOCK
 62
0
100
AcDbLine
 10
807.1372900033420
 20
527.6235409695815
 30
0.0000000000000000
 11
807.1372900033420
 21
576.0571682109102
 31
0.0000000000000000
  0
MTEXT
  5
28B
100
AcDbEntity
  8
MAIN0
  6
BYBLOCK
 62
0
100
AcDbMText
 10
785.6372900033416
 20
575.4321680917009
 30
0.0000000000000000
 40
7.749999761581421
 41
0.0000000000000000
 71
     5
 72
     1
  1
\A1;43
 11
1.000000000000000
 21
0.0000000000000000
 31
0.0000000000000000
  7
STANDARD
  0
ENDBLK
  5
28C
100
AcDbEntity
  8
MAIN0
  6
CONTINUOUS
 62
3
100
AcDbBlockEnd
  0
BLOCK
  5
28E
100
AcDbEntity
  8
MAIN0
  6
CONTINUOUS
 62
3
100
AcDbBlockBegin
  2
*D36
 70
    65
 10
0.0
 20
0.0
 30
0.0
  0
LINE
  5
28F
100
AcDbEntity
  8
MAIN0
  6
BYBLOCK
 62
0
100
AcDbLine
 10
807.1372900033420
 20
527.6235409695815
 30
0.0000000000000000
 11
807.1372900033420
 21
576.0571682109102
 31
0.0000000000000000
  0
LINE
  5
290
100
AcDbEntity
  8
MAIN0
  6
BYBLOCK
 62
0
100
AcDbLine
 10
812.1372900033420
 20
571.0571682109102
 30
0.0000000000000000
 11
874.1372900033409
 21
571.0571682109102
 31
0.0000000000000000
  0
INSERT
  5
291
100
AcDbEntity
  8
MAIN0
  6
BYBLOCK
 62
0
100
AcDbBlockReference
  2
_OPEN
 10
807.1372900033420
 20
571.0571682109102
 30
0.0000000000000000
 41
5.000000000000000
 42
5.000000000000000
 43
5.000000000000000
 50
180.0000000000000
  0
INSERT
  5
292
100
AcDbEntity
  8
MAIN0
  6
BYBLOCK
 62
0
100
AcDbBlockReference
  2
_OPEN
 10
879.1372900033409
 20
571.0571682109102
 30
0.0000000000000000
 41
5.000000000000000
 42
5.000000000000000
 43
5.000000000000000
 50
0.0000000000000000
  0
LINE
  5
293
100
AcDbEntity
  8
MAIN0
  6
BYBLOCK
 62
0
100
AcDbLine
 10
879.1372900033409
 20
537.1235409695819
 30
0.0000000000000000
 11
879.1372900033409
 21
576.0571682109102
 31
0.0000000000000000
  0
MTEXT
  5
294
100
AcDbEntity
  8
MAIN0
  6
BYBLOCK
 62
0
100
AcDbMText
 10
843.1372900033414
 20
575.4321680917009
 30
0.0000000000000000
 40
7.749999761581421
 41
0.0000000000000000
 71
     5
 72
     1
  1
\A1;72
 11
1.000000000000000
 21
0.0000000000000000
 31
0.0000000000000000
  7
STANDARD
  0
ENDBLK
  5
295
100
AcDbEntity
  8
MAIN0
  6
CONTINUOUS
 62
3
100
AcDbBlockEnd
  0
BLOCK
  5
297
100
AcDbEntity
  8
MAIN0
  6
CONTINUOUS
 62
3
100
AcDbBlockBegin
  2
*D37
 70
    65
 10
0.0
 20
0.0
 30
0.0
  0
LINE
  5
298
100
AcDbEntity
  8
MAIN0
  6
BYBLOCK
 62
0
100
AcDbLine
 10
635.3543985852247
 20
313.2959685536218
 30
0.0000000000000000
 11
737.9643222794862
 21
313.2959685536218
 31
0.0000000000000000
  0
LINE
  5
299
100
AcDbEntity
  8
MAIN0
  6
BYBLOCK
 62
0
100
AcDbLine
 10
732.9643222794862
 20
318.2959685536218
 30
0.0000000000000000
 11
732.9643222794862
 21
342.2959685533963
 31
0.0000000000000000
  0
INSERT
  5
29A
100
AcDbEntity
  8
MAIN0
  6
BYBLOCK
 62
0
100
AcDbBlockReference
  2
_OPEN
 10
732.9643222794862
 20
313.2959685536218
 30
0.0000000000000000
 41
5.000000000000000
 42
5.000000000000000
 43
5.000000000000000
 50
270.0000000000000
  0
INSERT
  5
29B
100
AcDbEntity
  8
MAIN0
  6
BYBLOCK
 62
0
100
AcDbBlockReference
  2
_OPEN
 10
732.9643222794862
 20
347.2959685533963
 30
0.0000000000000000
 41
5.000000000000000
 42
5.000000000000000
 43
5.000000000000000
 50
90.00000000000000
  0
MTEXT
  5
29C
100
AcDbEntity
  8
MAIN0
  6
BYBLOCK
 62
0
100
AcDbMText
 10
728.5893223986955
 20
330.2959685535091
 30
0.0000000000000000
 40
7.749999761581421
 41
0.0000000000000000
 71
     5
 72
     1
  1
\A1;34
 11
6.123233995736766e-017
 21
1.000000000000000
 31
0.0000000000000000
  7
STANDARD
  0
ENDBLK
  5
29D
100
AcDbEntity
  8
MAIN0
  6
CONTINUOUS
 62
3
100
AcDbBlockEnd
  0
BLOCK
  5
29F
100
AcDbEntity
  8
MAIN0
  6
CONTINUOUS
 62
3
100
AcDbBlockBegin
  2
*D38
 70
    65
 10
0.0
 20
0.0
 30
0.0
  0
LINE
  5
2A0
100
AcDbEntity
  8
MAIN0
  6
BYBLOCK
 62
0
100
AcDbLine
 10
859.7285001977604
 20
334.2959685534462
 30
0.0000000000000000
 11
836.8139571895375
 21
334.2959685534462
 31
0.0000000000000000
  0
LINE
  5
2A1
100
AcDbEntity
  8
MAIN0
  6
BYBLOCK
 62
0
100
AcDbLine
 10
841.8139571895375
 20
329.2959685534462
 30
0.0000000000000000
 11
841.8139571895375
 21
318.2959685534460
 31
0.0000000000000000
  0
INSERT
  5
2A2
100
AcDbEntity
  8
MAIN0
  6
BYBLOCK
 62
0
100
AcDbBlockReference
  2
_OPEN
 10
841.8139571895375
 20
334.2959685534462
 30
0.0000000000000000
 41
5.000000000000000
 42
5.000000000000000
 43
5.000000000000000
 50
90.00000000000000
  0
INSERT
  5
2A3
100
AcDbEntity
  8
MAIN0
  6
BYBLOCK
 62
0
100
AcDbBlockReference
  2
_OPEN
 10
841.8139571895375
 20
313.2959685534460
 30
0.0000000000000000
 41
5.000000000000000
 42
5.000000000000000
 43
5.000000000000000
 50
270.0000000000000
  0
LINE
  5
2A4
100
AcDbEntity
  8
MAIN0
  6
BYBLOCK
 62
0
100
AcDbLine
 10
853.6285001977560
 20
313.2959685534460
 30
0.0000000000000000
 11
836.8139571895375
 21
313.2959685534460
 31
0.0000000000000000
  0
MTEXT
  5
2A5
100
AcDbEntity
  8
MAIN0
  6
BYBLOCK
 62
0
100
AcDbMText
 10
837.4389573087468
 20
323.7959685534461
 30
0.0000000000000000
 40
7.749999761581421
 41
0.0000000000000000
 71
     5
 72
     1
  1
\A1;21
 11
6.123233995736766e-017
 21
1.000000000000000
 31
0.0000000000000000
  7
STANDARD
  0
ENDBLK
  5
2A6
100
AcDbEntity
  8
MAIN0
  6
CONTINUOUS
 62
3
100
AcDbBlockEnd
  0
BLOCK
  5
2A9
100
AcDbEntity
  8
MAIN0
  6
CONTINUOUS
 62
3
100
AcDbBlockBegin
  2
*D39
 70
    65
 10
0.0
 20
0.0
 30
0.0
  0
LINE
  5
2AA
100
AcDbEntity
  8
MAIN0
  6
BYBLOCK
 62
0
100
AcDbLine
 10
897.2285002268300
 20
398.4959685826820
 30
0.0000000000000000
 11
897.2285002268300
 21
463.3615775965228
 31
0.0000000000000000
  0
LINE
  5
2AB
100
AcDbEntity
  8
MAIN0
  6
BYBLOCK
 62
0
100
AcDbLine
 10
902.2285002268300
 20
458.3615775965228
 30
0.0000000000000000
 11
1004.228500228387
 21
458.3615775965228
 31
0.0000000000000000
  0
INSERT
  5
2AC
100
AcDbEntity
  8
MAIN0
  6
BYBLOCK
 62
0
100
AcDbBlockReference
  2
_OPEN
 10
897.2285002268300
 20
458.3615775965228
 30
0.0000000000000000
 41
5.000000000000000
 42
5.000000000000000
 43
5.000000000000000
 50
180.0000000000000
  0
INSERT
  5
2AD
100
AcDbEntity
  8
MAIN0
  6
BYBLOCK
 62
0
100
AcDbBlockReference
  2
_OPEN
 10
1009.228500228387
 20
458.3615775965228
 30
0.0000000000000000
 41
5.000000000000000
 42
5.000000000000000
 43
5.000000000000000
 50
0.0000000000000000
  0
LINE
  5
2AE
100
AcDbEntity
  8
MAIN0
  6
BYBLOCK
 62
0
100
AcDbLine
 10
1009.228500228387
 20
398.4959685826821
 30
0.0000000000000000
 11
1009.228500228387
 21
463.3615775965228
 31
0.0000000000000000
  0
MTEXT
  5
2AF
100
AcDbEntity
  8
MAIN0
  6
BYBLOCK
 62
0
100
AcDbMText
 10
953.2285002276083
 20
462.7365774773135
 30
0.0000000000000000
 40
7.749999761581421
 41
0.0000000000000000
 71
     5
 72
     1
  1
\A1;112
 11
1.000000000000000
 21
0.0000000000000000
 31
0.0000000000000000
  7
STANDARD
  0
ENDBLK
  5
2B0
100
AcDbEntity
  8
MAIN0
  6
CONTINUOUS
 62
3
100
AcDbBlockEnd
  0
BLOCK
  5
2B7
100
AcDbEntity
  8
MAIN0
  6
CONTINUOUS
 62
3
100
AcDbBlockBegin
  2
*D40
 70
    65
 10
0.0
 20
0.0
 30
0.0
  0
LINE
  5
2B8
100
AcDbEntity
  8
MAIN0
  6
BYBLOCK
 62
0
100
AcDbLine
 10
565.7543985856355
 20
378.2959685536236
 30
0.0000000000000000
 11
594.4419299355903
 21
378.2959685536236
 31
0.0000000000000000
  0
LINE
  5
2B9
100
AcDbEntity
  8
MAIN0
  6
BYBLOCK
 62
0
100
AcDbLine
 10
589.4419299355903
 20
378.2959685536236
 30
0.0000000000000000
 11
589.4419299355903
 21
397.4959685526050
 31
0.0000000000000000
  0
INSERT
  5
2BA
100
AcDbEntity
  8
MAIN0
  6
BYBLOCK
 62
0
100
AcDbBlockReference
  2
_OPEN
 10
589.4419299355903
 20
378.2959685536236
 30
0.0000000000000000
 41
5.000000000000000
 42
5.000000000000000
 43
5.000000000000000
 50
90.00000000000000
  0
INSERT
  5
2BB
100
AcDbEntity
  8
MAIN0
  6
BYBLOCK
 62
0
100
AcDbBlockReference
  2
_OPEN
 10
589.4419299355903
 20
397.4959685526050
 30
0.0000000000000000
 41
5.000000000000000
 42
5.000000000000000
 43
5.000000000000000
 50
270.0000000000000
  0
LINE
  5
2BC
100
AcDbEntity
  8
MAIN0
  6
BYBLOCK
 62
0
100
AcDbLine
 10
589.4419299355903
 20
373.2959685536236
 30
0.0000000000000000
 11
589.4419299355903
 21
370.7959685536236
 31
0.0000000000000000
  0
LINE
  5
2BD
100
AcDbEntity
  8
MAIN0
  6
BYBLOCK
 62
0
100
AcDbLine
 10
589.4419299355903
 20
402.4959685526050
 30
0.0000000000000000
 11
589.4419299355903
 21
404.9959685526050
 31
0.0000000000000000
  0
MTEXT
  5
2BE
100
AcDbEntity
  8
MAIN0
  6
BYBLOCK
 62
0
100
AcDbMText
 10
585.0669300547996
 20
387.8959685531143
 30
0.0000000000000000
 40
7.749999761581421
 41
0.0000000000000000
 71
     5
 72
     1
  1
\A1;19
 11
6.123233995736766e-017
 21
1.000000000000000
 31
0.0000000000000000
  7
STANDARD
  0
ENDBLK
  5
2BF
100
AcDbEntity
  8
MAIN0
  6
CONTINUOUS
 62
3
100
AcDbBlockEnd
  0
BLOCK
  5
2C1
100
AcDbEntity
  8
MAIN0
  6
CONTINUOUS
 62
3
100
AcDbBlockBegin
  2
*D41
 70
    65
 10
0.0
 20
0.0
 30
0.0
  0
LINE
  5
2C2
100
AcDbEntity
  8
MAIN0
  6
BYBLOCK
 62
0
100
AcDbLine
 10
172.2543985554915
 20
329.8959685835013
 30
0.0000000000000000
 11
172.2543985554915
 21
340.7707703360338
 31
0.0000000000000000
  0
LINE
  5
2C3
100
AcDbEntity
  8
MAIN0
  6
BYBLOCK
 62
0
100
AcDbLine
 10
172.2543985554915
 20
335.7707703360338
 30
0.0000000000000000
 11
167.2543985554716
 21
335.7707703360338
 31
0.0000000000000000
  0
INSERT
  5
2C4
100
AcDbEntity
  8
MAIN0
  6
BYBLOCK
 62
0
100
AcDbBlockReference
  2
_OPEN
 10
172.2543985554915
 20
335.7707703360338
 30
0.0000000000000000
 41
5.000000000000000
 42
5.000000000000000
 43
5.000000000000000
 50
180.0000000000000
  0
INSERT
  5
2C5
100
AcDbEntity
  8
MAIN0
  6
BYBLOCK
 62
0
100
AcDbBlockReference
  2
_OPEN
 10
167.2543985554716
 20
335.7707703360338
 30
0.0000000000000000
 41
5.000000000000000
 42
5.000000000000000
 43
5.000000000000000
 50
360.0000000000000
  0
LINE
  5
2C6
100
AcDbEntity
  8
MAIN0
  6
BYBLOCK
 62
0
100
AcDbLine
 10
177.2543985554915
 20
335.7707703360338
 30
0.0000000000000000
 11
183.9881649047346
 21
335.7707703360338
 31
0.0000000000000000
  0
LINE
  5
2C7
100
AcDbEntity
  8
MAIN0
  6
BYBLOCK
 62
0
100
AcDbLine
 10
162.2543985554716
 20
335.7707703360338
 30
0.0000000000000000
 11
159.7543985554716
 21
335.7707703360338
 31
0.0000000000000000
  0
MTEXT
  5
2C8
100
AcDbEntity
  8
MAIN0
  6
BYBLOCK
 62
0
100
AcDbMText
 10
181.4881649047346
 20
340.8957702168245
 30
0.0000000000000000
 40
7.749999761581421
 41
0.0000000000000000
 71
     5
 72
     1
  1
\A1;5
 11
1.000000000000000
 21
0.0000000000000000
 31
0.0000000000000000
  7
STANDARD
  0
ENDBLK
  5
2C9
100
AcDbEntity
  8
MAIN0
  6
CONTINUOUS
 62
3
100
AcDbBlockEnd
  0
BLOCK
  5
2E6
100
AcDbEntity
  8
MAIN0
  6
CONTINUOUS
 62
3
100
AcDbBlockBegin
  2
*D42
 70
    65
 10
0.0
 20
0.0
 30
0.0
  0
LINE
  5
2E7
100
AcDbEntity
  8
MAIN0
  6
BYBLOCK
 62
0
100
AcDbLine
 10
784.9731133455681
 20
336.2959685832398
 30
0.0000000000000000
 11
784.9731133455681
 21
370.3755399609106
 31
0.0000000000000000
  0
LINE
  5
2E8
100
AcDbEntity
  8
MAIN0
  6
BYBLOCK
 62
0
100
AcDbLine
 10
789.9731133455681
 20
365.3755399609106
 30
0.0000000000000000
 11
814.9731133455681
 21
365.3755399609106
 31
0.0000000000000000
  0
INSERT
  5
2E9
100
AcDbEntity
  8
MAIN0
  6
BYBLOCK
 62
0
100
AcDbBlockReference
  2
_OPEN
 10
784.9731133455681
 20
365.3755399609106
 30
0.0000000000000000
 41
5.000000000000000
 42
5.000000000000000
 43
5.000000000000000
 50
180.0000000000000
  0
INSERT
  5
2EA
100
AcDbEntity
  8
MAIN0
  6
BYBLOCK
 62
0
100
AcDbBlockReference
  2
_OPEN
 10
819.9731133455681
 20
365.3755399609106
 30
0.0000000000000000
 41
5.000000000000000
 42
5.000000000000000
 43
5.000000000000000
 50
0.0000000000000000
  0
LINE
  5
2EB
100
AcDbEntity
  8
MAIN0
  6
BYBLOCK
 62
0
100
AcDbLine
 10
819.9731133455681
 20
336.2959685832398
 30
0.0000000000000000
 11
819.9731133455681
 21
370.3755399609106
 31
0.0000000000000000
  0
MTEXT
  5
2EC
100
AcDbEntity
  8
MAIN0
  6
BYBLOCK
 62
0
100
AcDbMText
 10
802.4731133455681
 20
369.7505398417013
 30
0.0000000000000000
 40
7.749999761581421
 41
0.0000000000000000
 71
     5
 72
     1
  1
\A1;35
 11
1.000000000000000
 21
0.0000000000000000
 31
0.0000000000000000
  7
STANDARD
  0
ENDBLK
  5
2ED
100
AcDbEntity
  8
MAIN0
  6
CONTINUOUS
 62
3
100
AcDbBlockEnd
  0
BLOCK
  5
2FC
100
AcDbEntity
  8
MAIN0
  6
CONTINUOUS
 62
3
100
AcDbBlockBegin
  2
*D43
 70
    65
 10
0.0
 20
0.0
 30
0.0
  0
LINE
  5
2FD
100
AcDbEntity
  8
MAIN0
  6
BYBLOCK
 62
0
100
AcDbLine
 10
871.6285001977593
 20
207.2870771835994
 30
0.0000000000000000
 11
848.9432970343422
 21
207.2870771835992
 31
0.0000000000000000
  0
LINE
  5
2FE
100
AcDbEntity
  8
MAIN0
  6
BYBLOCK
 62
0
100
AcDbLine
 10
853.9432970343422
 20
207.2870771835992
 30
0.0000000000000000
 11
853.9432970343422
 21
185.0870771835993
 31
0.0000000000000000
  0
INSERT
  5
2FF
100
AcDbEntity
  8
MAIN0
  6
BYBLOCK
 62
0
100
AcDbBlockReference
  2
_OPEN
 10
853.9432970343422
 20
207.2870771835992
 30
0.0000000000000000
 41
5.000000000000000
 42
5.000000000000000
 43
5.000000000000000
 50
270.0000000000000
  0
INSERT
  5
300
100
AcDbEntity
  8
MAIN0
  6
BYBLOCK
 62
0
100
AcDbBlockReference
  2
_OPEN
 10
853.9432970343422
 20
185.0870771835993
 30
0.0000000000000000
 41
5.000000000000000
 42
5.000000000000000
 43
5.000000000000000
 50
90.00000000000000
  0
LINE
  5
301
100
AcDbEntity
  8
MAIN0
  6
BYBLOCK
 62
0
100
AcDbLine
 10
853.9432970343422
 20
212.2870771835992
 30
0.0000000000000000
 11
853.9432970343422
 21
214.7870771835992
 31
0.0000000000000000
  0
LINE
  5
302
100
AcDbEntity
  8
MAIN0
  6
BYBLOCK
 62
0
100
AcDbLine
 10
853.9432970343422
 20
180.0870771835993
 30
0.0000000000000000
 11
853.9432970343422
 21
177.5870771835993
 31
0.0000000000000000
  0
LINE
  5
303
100
AcDbEntity
  8
MAIN0
  6
BYBLOCK
 62
0
100
AcDbLine
 10
871.6285001977622
 20
185.0870771835993
 30
0.0000000000000000
 11
848.9432970343422
 21
185.0870771835993
 31
0.0000000000000000
  0
MTEXT
  5
304
100
AcDbEntity
  8
MAIN0
  6
BYBLOCK
 62
0
100
AcDbMText
 10
849.5682971535515
 20
196.1870771835993
 30
0.0000000000000000
 40
7.749999761581421
 41
0.0000000000000000
 71
     5
 72
     1
  1
\A1;22.2
 11
6.123233995736766e-017
 21
1.000000000000000
 31
0.0000000000000000
  7
STANDARD
  0
ENDBLK
  5
305
100
AcDbEntity
  8
MAIN0
  6
CONTINUOUS
 62
3
100
AcDbBlockEnd
  0
BLOCK
  5
307
100
AcDbEntity
  8
MAIN0
  6
CONTINUOUS
 62
3
100
AcDbBlockBegin
  2
*D44
 70
    65
 10
0.0
 20
0.0
 30
0.0
  0
LINE
  5
308
100
AcDbEntity
  8
MAIN0
  6
BYBLOCK
 62
0
100
AcDbLine
 10
873.6285002275644
 20
183.0870771537969
 30
0.0000000000000000
 11
873.6285002275644
 21
158.7179542195379
 31
0.0000000000000000
  0
LINE
  5
309
100
AcDbEntity
  8
MAIN0
  6
BYBLOCK
 62
0
100
AcDbLine
 10
873.6285002275644
 20
163.7179542195379
 30
0.0000000000000000
 11
895.8285002275617
 21
163.7179542195379
 31
0.0000000000000000
  0
INSERT
  5
30A
100
AcDbEntity
  8
MAIN0
  6
BYBLOCK
 62
0
100
AcDbBlockReference
  2
_OPEN
 10
873.6285002275644
 20
163.7179542195379
 30
0.0000000000000000
 41
5.000000000000000
 42
5.000000000000000
 43
5.000000000000000
 50
0.0000000000000000
  0
INSERT
  5
30B
100
AcDbEntity
  8
MAIN0
  6
BYBLOCK
 62
0
100
AcDbBlockReference
  2
_OPEN
 10
895.8285002275617
 20
163.7179542195379
 30
0.0000000000000000
 41
5.000000000000000
 42
5.000000000000000
 43
5.000000000000000
 50
180.0000000000000
  0
LINE
  5
30C
100
AcDbEntity
  8
MAIN0
  6
BYBLOCK
 62
0
100
AcDbLine
 10
868.6285002275644
 20
163.7179542195379
 30
0.0000000000000000
 11
866.1285002275644
 21
163.7179542195379
 31
0.0000000000000000
  0
LINE
  5
30D
100
AcDbEntity
  8
MAIN0
  6
BYBLOCK
 62
0
100
AcDbLine
 10
900.8285002275617
 20
163.7179542195379
 30
0.0000000000000000
 11
903.3285002275617
 21
163.7179542195379
 31
0.0000000000000000
  0
LINE
  5
30E
100
AcDbEntity
  8
MAIN0
  6
BYBLOCK
 62
0
100
AcDbLine
 10
895.8285002275617
 20
183.0870771537971
 30
0.0000000000000000
 11
895.8285002275617
 21
158.7179542195379
 31
0.0000000000000000
  0
MTEXT
  5
30F
100
AcDbEntity
  8
MAIN0
  6
BYBLOCK
 62
0
100
AcDbMText
 10
884.7285002275630
 20
168.0929541003286
 30
0.0000000000000000
 40
7.749999761581421
 41
0.0000000000000000
 71
     5
 72
     1
  1
\A1;22.2
 11
1.000000000000000
 21
0.0000000000000000
 31
0.0000000000000000
  7
STANDARD
  0
ENDBLK
  5
310
100
AcDbEntity
  8
MAIN0
  6
CONTINUOUS
 62
3
100
AcDbBlockEnd
  0
BLOCK
  5
312
100
AcDbEntity
  8
MAIN0
  6
CONTINUOUS
 62
3
100
AcDbBlockBegin
  2
*D45
 70
    65
 10
0.0
 20
0.0
 30
0.0
  0
LINE
  5
313
100
AcDbEntity
  8
MAIN0
  6
BYBLOCK
 62
0
100
AcDbLine
 10
897.8285002573654
 20
203.0870771835994
 30
0.0000000000000000
 11
923.0771419349223
 21
203.0870771835994
 31
0.0000000000000000
  0
LINE
  5
314
100
AcDbEntity
  8
MAIN0
  6
BYBLOCK
 62
0
100
AcDbLine
 10
918.0771419349223
 20
203.0870771835994
 30
0.0000000000000000
 11
918.0771419349223
 21
189.2870771835994
 31
0.0000000000000000
  0
INSERT
  5
315
100
AcDbEntity
  8
MAIN0
  6
BYBLOCK
 62
0
100
AcDbBlockReference
  2
_OPEN
 10
918.0771419349223
 20
203.0870771835994
 30
0.0000000000000000
 41
5.000000000000000
 42
5.000000000000000
 43
5.000000000000000
 50
270.0000000000000
  0
INSERT
  5
316
100
AcDbEntity
  8
MAIN0
  6
BYBLOCK
 62
0
100
AcDbBlockReference
  2
_OPEN
 10
918.0771419349223
 20
189.2870771835994
 30
0.0000000000000000
 41
5.000000000000000
 42
5.000000000000000
 43
5.000000000000000
 50
90.00000000000000
  0
LINE
  5
317
100
AcDbEntity
  8
MAIN0
  6
BYBLOCK
 62
0
100
AcDbLine
 10
918.0771419349223
 20
208.0870771835994
 30
0.0000000000000000
 11
918.0771419349223
 21
210.5870771835994
 31
0.0000000000000000
  0
LINE
  5
318
100
AcDbEntity
  8
MAIN0
  6
BYBLOCK
 62
0
100
AcDbLine
 10
918.0771419349223
 20
184.2870771835994
 30
0.0000000000000000
 11
918.0771419349223
 21
165.0993291178563
 31
0.0000000000000000
  0
LINE
  5
319
100
AcDbEntity
  8
MAIN0
  6
BYBLOCK
 62
0
100
AcDbLine
 10
897.8285002573654
 20
189.2870771835994
 30
0.0000000000000000
 11
923.0771419349223
 21
189.2870771835994
 31
0.0000000000000000
  0
MTEXT
  5
31A
100
AcDbEntity
  8
MAIN0
  6
BYBLOCK
 62
0
100
AcDbMText
 10
912.9521420541316
 20
174.2243293562748
 30
0.0000000000000000
 40
7.749999761581421
 41
0.0000000000000000
 71
     5
 72
     1
  1
\A1;13.8
 11
6.123233995736766e-017
 21
1.000000000000000
 31
0.0000000000000000
  7
STANDARD
  0
ENDBLK
  5
31B
100
AcDbEntity
  8
MAIN0
  6
CONTINUOUS
 62
3
100
AcDbBlockEnd
  0
BLOCK
  5
31D
100
AcDbEntity
  8
MAIN0
  6
CONTINUOUS
 62
3
100
AcDbBlockBegin
  2
*D46
 70
    65
 10
0.0
 20
0.0
 30
0.0
  0
LINE
  5
31E
100
AcDbEntity
  8
MAIN0
  6
BYBLOCK
 62
0
100
AcDbLine
 10
358.7543985554166
 20
551.0013205164870
 30
0.0000000000000000
 11
358.7543985554166
 21
521.0059342116124
 31
0.0000000000000000
  0
LINE
  5
31F
100
AcDbEntity
  8
MAIN0
  6
BYBLOCK
 62
0
100
AcDbLine
 10
358.7543985554166
 20
526.0059342116124
 30
0.0000000000000000
 11
344.2543985554067
 21
526.0059342116124
 31
0.0000000000000000
  0
INSERT
  5
320
100
AcDbEntity
  8
MAIN0
  6
BYBLOCK
 62
0
100
AcDbBlockReference
  2
_OPEN
 10
358.7543985554166
 20
526.0059342116124
 30
0.0000000000000000
 41
5.000000000000000
 42
5.000000000000000
 43
5.000000000000000
 50
180.0000000000000
  0
INSERT
  5
321
100
AcDbEntity
  8
MAIN0
  6
BYBLOCK
 62
0
100
AcDbBlockReference
  2
_OPEN
 10
344.2543985554067
 20
526.0059342116124
 30
0.0000000000000000
 41
5.000000000000000
 42
5.000000000000000
 43
5.000000000000000
 50
360.0000000000000
  0
LINE
  5
322
100
AcDbEntity
  8
MAIN0
  6
BYBLOCK
 62
0
100
AcDbLine
 10
363.7543985554166
 20
526.0059342116124
 30
0.0000000000000000
 11
381.9715669338206
 21
526.0059342116124
 31
0.0000000000000000
  0
LINE
  5
323
100
AcDbEntity
  8
MAIN0
  6
BYBLOCK
 62
0
100
AcDbLine
 10
339.2543985554067
 20
526.0059342116124
 30
0.0000000000000000
 11
336.7543985554067
 21
526.0059342116124
 31
0.0000000000000000
  0
LINE
  5
324
100
AcDbEntity
  8
MAIN0
  6
BYBLOCK
 62
0
100
AcDbLine
 10
344.2543985554067
 20
552.0013205168108
 30
0.0000000000000000
 11
344.2543985554067
 21
521.0059342116124
 31
0.0000000000000000
  0
MTEXT
  5
325
100
AcDbEntity
  8
MAIN0
  6
BYBLOCK
 62
0
100
AcDbMText
 10
372.8465666954020
 20
531.1309340924031
 30
0.0000000000000000
 40
7.749999761581421
 41
0.0000000000000000
 71
     5
 72
     1
  1
\A1;14.5
 11
1.000000000000000
 21
0.0000000000000000
 31
0.0000000000000000
  7
STANDARD
  0
ENDBLK
  5
326
100
AcDbEntity
  8
MAIN0
  6
CONTINUOUS
 62
3
100
AcDbBlockEnd
  0
BLOCK
  5
328
100
AcDbEntity
  8
MAIN0
  6
CONTINUOUS
 62
3
100
AcDbBlockBegin
  2
*D47
 70
    65
 10
0.0
 20
0.0
 30
0.0
  0
LINE
  5
329
100
AcDbEntity
  8
MAIN0
  6
BYBLOCK
 62
0
100
AcDbLine
 10
358.7543985554109
 20
376.6959685238272
 30
0.0000000000000000
 11
358.7543985554109
 21
269.2959685536208
 31
0.0000000000000000
  0
LINE
  5
32A
100
AcDbEntity
  8
MAIN0
  6
BYBLOCK
 62
0
100
AcDbLine
 10
363.7543985554109
 20
274.2959685536208
 30
0.0000000000000000
 11
479.7543985554221
 21
274.2959685536208
 31
0.0000000000000000
  0
INSERT
  5
32B
100
AcDbEntity
  8
MAIN0
  6
BYBLOCK
 62
0
100
AcDbBlockReference
  2
_OPEN
 10
358.7543985554109
 20
274.2959685536208
 30
0.0000000000000000
 41
5.000000000000000
 42
5.000000000000000
 43
5.000000000000000
 50
180.0000000000000
  0
INSERT
  5
32C
100
AcDbEntity
  8
MAIN0
  6
BYBLOCK
 62
0
100
AcDbBlockReference
  2
_OPEN
 10
484.7543985554221
 20
274.2959685536208
 30
0.0000000000000000
 41
5.000000000000000
 42
5.000000000000000
 43
5.000000000000000
 50
0.0000000000000000
  0
LINE
  5
32D
100
AcDbEntity
  8
MAIN0
  6
BYBLOCK
 62
0
100
AcDbLine
 10
484.7543985554221
 20
303.2959685238193
 30
0.0000000000000000
 11
484.7543985554221
 21
269.2959685536208
 31
0.0000000000000000
  0
MTEXT
  5
32E
100
AcDbEntity
  8
MAIN0
  6
BYBLOCK
 62
0
100
AcDbMText
 10
421.7543985554165
 20
278.6709684344115
 30
0.0000000000000000
 40
7.749999761581421
 41
0.0000000000000000
 71
     5
 72
     1
  1
\A1;126
 11
1.000000000000000
 21
0.0000000000000000
 31
0.0000000000000000
  7
STANDARD
  0
ENDBLK
  5
32F
100
AcDbEntity
  8
MAIN0
  6
CONTINUOUS
 62
3
100
AcDbBlockEnd
  0
BLOCK
  5
331
100
AcDbEntity
  8
MAIN0
  6
CONTINUOUS
 62
3
100
AcDbBlockBegin
  2
*D48
 70
    65
 10
0.0
 20
0.0
 30
0.0
  0
LINE
  5
332
100
AcDbEntity
  8
MAIN0
  6
BYBLOCK
 62
0
100
AcDbLine
 10
484.7543985554221
 20
303.2959685238193
 30
0.0000000000000000
 11
484.7543985554221
 21
269.2959685536208
 31
0.0000000000000000
  0
LINE
  5
333
100
AcDbEntity
  8
MAIN0
  6
BYBLOCK
 62
0
100
AcDbLine
 10
489.7543985554221
 20
274.2959685536208
 30
0.0000000000000000
 11
628.7543985554160
 21
274.2959685536208
 31
0.0000000000000000
  0
INSERT
  5
334
100
AcDbEntity
  8
MAIN0
  6
BYBLOCK
 62
0
100
AcDbBlockReference
  2
_OPEN
 10
484.7543985554221
 20
274.2959685536208
 30
0.0000000000000000
 41
5.000000000000000
 42
5.000000000000000
 43
5.000000000000000
 50
180.0000000000000
  0
INSERT
  5
335
100
AcDbEntity
  8
MAIN0
  6
BYBLOCK
 62
0
100
AcDbBlockReference
  2
_OPEN
 10
633.7543985554160
 20
274.2959685536208
 30
0.0000000000000000
 41
5.000000000000000
 42
5.000000000000000
 43
5.000000000000000
 50
0.0000000000000000
  0
LINE
  5
336
100
AcDbEntity
  8
MAIN0
  6
BYBLOCK
 62
0
100
AcDbLine
 10
633.7543985554160
 20
311.6959685238197
 30
0.0000000000000000
 11
633.7543985554160
 21
269.2959685536208
 31
0.0000000000000000
  0
MTEXT
  5
337
100
AcDbEntity
  8
MAIN0
  6
BYBLOCK
 62
0
100
AcDbMText
 10
559.2543985554190
 20
278.6709684344115
 30
0.0000000000000000
 40
7.749999761581421
 41
0.0000000000000000
 71
     5
 72
     1
  1
\A1;149
 11
1.000000000000000
 21
0.0000000000000000
 31
0.0000000000000000
  7
STANDARD
  0
ENDBLK
  5
338
100
AcDbEntity
  8
MAIN0
  6
CONTINUOUS
 62
3
100
AcDbBlockEnd
  0
BLOCK
  5
33A
100
AcDbEntity
  8
MAIN0
  6
CONTINUOUS
 62
3
100
AcDbBlockBegin
  2
*D49
 70
    65
 10
0.0
 20
0.0
 30
0.0
  0
LINE
  5
33B
100
AcDbEntity
  8
MAIN0
  6
BYBLOCK
 62
0
100
AcDbLine
 10
283.1543985256205
 20
313.2959685537666
 30
0.0000000000000000
 11
242.6072596565384
 21
313.2959685537666
 31
0.0000000000000000
  0
LINE
  5
33C
100
AcDbEntity
  8
MAIN0
  6
BYBLOCK
 62
0
100
AcDbLine
 10
247.6072596565384
 20
318.2959685537666
 30
0.0000000000000000
 11
247.6072596565384
 21
373.2959685536295
 31
0.0000000000000000
  0
INSERT
  5
33D
100
AcDbEntity
  8
MAIN0
  6
BYBLOCK
 62
0
100
AcDbBlockReference
  2
_OPEN
 10
247.6072596565384
 20
313.2959685537666
 30
0.0000000000000000
 41
5.000000000000000
 42
5.000000000000000
 43
5.000000000000000
 50
270.0000000000000
  0
INSERT
  5
33E
100
AcDbEntity
  8
MAIN0
  6
BYBLOCK
 62
0
100
AcDbBlockReference
  2
_OPEN
 10
247.6072596565384
 20
378.2959685536295
 30
0.0000000000000000
 41
5.000000000000000
 42
5.000000000000000
 43
5.000000000000000
 50
90.00000000000000
  0
LINE
  5
33F
100
AcDbEntity
  8
MAIN0
  6
BYBLOCK
 62
0
100
AcDbLine
 10
284.1543985256087
 20
378.2959685536295
 30
0.0000000000000000
 11
242.6072596565384
 21
378.2959685536295
 31
0.0000000000000000
  0
MTEXT
  5
340
100
AcDbEntity
  8
MAIN0
  6
BYBLOCK
 62
0
100
AcDbMText
 10
243.2322597757477
 20
345.7959685536980
 30
0.0000000000000000
 40
7.749999761581421
 41
0.0000000000000000
 71
     5
 72
     1
  1
\A1;65
 11
6.123233995736766e-017
 21
1.000000000000000
 31
0.0000000000000000
  7
STANDARD
  0
ENDBLK
  5
341
100
AcDbEntity
  8
MAIN0
  6
CONTINUOUS
 62
3
100
AcDbBlockEnd
  0
BLOCK
  5
343
100
AcDbEntity
  8
MAIN0
  6
CONTINUOUS
 62
3
100
AcDbBlockBegin
  2
*D50
 70
    65
 10
0.0
 20
0.0
 30
0.0
  0
LINE
  5
344
100
AcDbEntity
  8
MAIN0
  6
BYBLOCK
 62
0
100
AcDbLine
 10
284.1543985256087
 20
378.2959685536295
 30
0.0000000000000000
 11
242.6072596565384
 21
378.2959685536295
 31
0.0000000000000000
  0
LINE
  5
345
100
AcDbEntity
  8
MAIN0
  6
BYBLOCK
 62
0
100
AcDbLine
 10
247.6072596565384
 20
383.2959685536295
 30
0.0000000000000000
 11
247.6072596565384
 21
413.2959685530514
 31
0.0000000000000000
  0
INSERT
  5
346
100
AcDbEntity
  8
MAIN0
  6
BYBLOCK
 62
0
100
AcDbBlockReference
  2
_OPEN
 10
247.6072596565384
 20
378.2959685536295
 30
0.0000000000000000
 41
5.000000000000000
 42
5.000000000000000
 43
5.000000000000000
 50
270.0000000000000
  0
INSERT
  5
347
100
AcDbEntity
  8
MAIN0
  6
BYBLOCK
 62
0
100
AcDbBlockReference
  2
_OPEN
 10
247.6072596565384
 20
418.2959685530514
 30
0.0000000000000000
 41
5.000000000000000
 42
5.000000000000000
 43
5.000000000000000
 50
90.00000000000000
  0
LINE
  5
348
100
AcDbEntity
  8
MAIN0
  6
BYBLOCK
 62
0
100
AcDbLine
 10
283.9543985250306
 20
418.2959685530514
 30
0.0000000000000000
 11
242.6072596565384
 21
418.2959685530514
 31
0.0000000000000000
  0
MTEXT
  5
349
100
AcDbEntity
  8
MAIN0
  6
BYBLOCK
 62
0
100
AcDbMText
 10
243.2322597757477
 20
398.2959685533405
 30
0.0000000000000000
 40
7.749999761581421
 41
0.0000000000000000
 71
     5
 72
     1
  1
\A1;40
 11
6.123233995736766e-017
 21
1.000000000000000
 31
0.0000000000000000
  7
STANDARD
  0
ENDBLK
  5
34A
100
AcDbEntity
  8
MAIN0
  6
CONTINUOUS
 62
3
100
AcDbBlockEnd
  0
BLOCK
  5
34C
100
AcDbEntity
  8
MAIN0
  6
CONTINUOUS
 62
3
100
AcDbBlockBegin
  2
*D51
 70
    65
 10
0.0
 20
0.0
 30
0.0
  0
LINE
  5
34D
100
AcDbEntity
  8
MAIN0
  6
BYBLOCK
 62
0
100
AcDbLine
 10
283.1543985256205
 20
313.2959685537666
 30
0.0000000000000000
 11
224.5482464448322
 21
313.2959685537666
 31
0.0000000000000000
  0
LINE
  5
34E
100
AcDbEntity
  8
MAIN0
  6
BYBLOCK
 62
0
100
AcDbLine
 10
229.5482464448322
 20
318.2959685537666
 30
0.0000000000000000
 11
229.5482464448322
 21
413.2959685530514
 31
0.0000000000000000
  0
INSERT
  5
34F
100
AcDbEntity
  8
MAIN0
  6
BYBLOCK
 62
0
100
AcDbBlockReference
  2
_OPEN
 10
229.5482464448322
 20
313.2959685537666
 30
0.0000000000000000
 41
5.000000000000000
 42
5.000000000000000
 43
5.000000000000000
 50
270.0000000000000
  0
INSERT
  5
350
100
AcDbEntity
  8
MAIN0
  6
BYBLOCK
 62
0
100
AcDbBlockReference
  2
_OPEN
 10
229.5482464448322
 20
418.2959685530514
 30
0.0000000000000000
 41
5.000000000000000
 42
5.000000000000000
 43
5.000000000000000
 50
90.00000000000000
  0
LINE
  5
351
100
AcDbEntity
  8
MAIN0
  6
BYBLOCK
 62
0
100
AcDbLine
 10
283.9543985250306
 20
418.2959685530514
 30
0.0000000000000000
 11
224.5482464448322
 21
418.2959685530514
 31
0.0000000000000000
  0
MTEXT
  5
352
100
AcDbEntity
  8
MAIN0
  6
BYBLOCK
 62
0
100
AcDbMText
 10
225.1732465640415
 20
365.7959685534090
 30
0.0000000000000000
 40
7.749999761581421
 41
0.0000000000000000
 71
     5
 72
     1
  1
\A1;105
 11
6.123233995736766e-017
 21
1.000000000000000
 31
0.0000000000000000
  7
STANDARD
  0
ENDBLK
  5
353
100
AcDbEntity
  8
MAIN0
  6
CONTINUOUS
 62
3
100
AcDbBlockEnd
  0
BLOCK
  5
355
100
AcDbEntity
  8
MAIN0
  6
CONTINUOUS
 62
3
100
AcDbBlockBegin
  2
*D52
 70
    65
 10
0.0
 20
0.0
 30
0.0
  0
LINE
  5
356
100
AcDbEntity
  8
MAIN0
  6
BYBLOCK
 62
0
100
AcDbLine
 10
173.8543985853204
 20
313.2959685536849
 30
0.0000000000000000
 11
205.9312228223589
 21
313.2959685534810
 31
0.0000000000000000
  0
LINE
  5
357
100
AcDbEntity
  8
MAIN0
  6
BYBLOCK
 62
0
100
AcDbLine
 10
200.9312228223589
 20
313.2959685535128
 30
0.0000000000000000
 11
200.9312228223589
 21
328.2959685536975
 31
0.0000000000000000
  0
INSERT
  5
358
100
AcDbEntity
  8
MAIN0
  6
BYBLOCK
 62
0
100
AcDbBlockReference
  2
_OPEN
 10
200.9312228223589
 20
313.2959685535128
 30
0.0000000000000000
 41
5.000000000000000
 42
5.000000000000000
 43
5.000000000000000
 50
90.00000000000000
  0
INSERT
  5
359
100
AcDbEntity
  8
MAIN0
  6
BYBLOCK
 62
0
100
AcDbBlockReference
  2
_OPEN
 10
200.9312228223589
 20
328.2959685536975
 30
0.0000000000000000
 41
5.000000000000000
 42
5.000000000000000
 43
5.000000000000000
 50
270.0000000000000
  0
LINE
  5
35A
100
AcDbEntity
  8
MAIN0
  6
BYBLOCK
 62
0
100
AcDbLine
 10
200.9312228223589
 20
308.2959685535128
 30
0.0000000000000000
 11
200.9312228223589
 21
305.7959685535128
 31
0.0000000000000000
  0
LINE
  5
35B
100
AcDbEntity
  8
MAIN0
  6
BYBLOCK
 62
0
100
AcDbLine
 10
200.9312228223589
 20
333.2959685536975
 30
0.0000000000000000
 11
200.9312228223589
 21
335.7959685536975
 31
0.0000000000000000
  0
LINE
  5
35C
100
AcDbEntity
  8
MAIN0
  6
BYBLOCK
 62
0
100
AcDbLine
 10
173.8543985852931
 20
328.2959685536975
 30
0.0000000000000000
 11
205.9312228223589
 21
328.2959685536975
 31
0.0000000000000000
  0
MTEXT
  5
35D
100
AcDbEntity
  8
MAIN0
  6
BYBLOCK
 62
0
100
AcDbMText
 10
196.5562229415682
 20
320.7959685536051
 30
0.0000000000000000
 40
7.749999761581421
 41
0.0000000000000000
 71
     5
 72
     1
  1
\A1;15
 11
6.123233995736766e-017
 21
1.000000000000000
 31
0.0000000000000000
  7
STANDARD
  0
ENDBLK
  5
35E
100
AcDbEntity
  8
MAIN0
  6
CONTINUOUS
 62
3
100
AcDbBlockEnd
  0
BLOCK
  5
360
100
AcDbEntity
  8
MAIN0
  6
CONTINUOUS
 62
3
100
AcDbBlockBegin
  2
*D53
 70
    65
 10
0.0
 20
0.0
 30
0.0
  0
LINE
  5
361
100
AcDbEntity
  8
MAIN0
  6
BYBLOCK
 62
0
100
AcDbLine
 10
173.8543985852931
 20
328.2959685536975
 30
0.0000000000000000
 11
205.9312228223589
 21
328.2959685536975
 31
0.0000000000000000
  0
LINE
  5
362
100
AcDbEntity
  8
MAIN0
  6
BYBLOCK
 62
0
100
AcDbLine
 10
200.9312228223589
 20
333.2959685536975
 30
0.0000000000000000
 11
200.9312228223589
 21
348.2959685536952
 31
0.0000000000000000
  0
INSERT
  5
363
100
AcDbEntity
  8
MAIN0
  6
BYBLOCK
 62
0
100
AcDbBlockReference
  2
_OPEN
 10
200.9312228223589
 20
328.2959685536975
 30
0.0000000000000000
 41
5.000000000000000
 42
5.000000000000000
 43
5.000000000000000
 50
270.0000000000000
  0
INSERT
  5
364
100
AcDbEntity
  8
MAIN0
  6
BYBLOCK
 62
0
100
AcDbBlockReference
  2
_OPEN
 10
200.9312228223589
 20
353.2959685536952
 30
0.0000000000000000
 41
5.000000000000000
 42
5.000000000000000
 43
5.000000000000000
 50
90.00000000000000
  0
LINE
  5
365
100
AcDbEntity
  8
MAIN0
  6
BYBLOCK
 62
0
100
AcDbLine
 10
173.2543985852225
 20
353.2959685536952
 30
0.0000000000000000
 11
205.9312228223589
 21
353.2959685536952
 31
0.0000000000000000
  0
MTEXT
  5
366
100
AcDbEntity
  8
MAIN0
  6
BYBLOCK
 62
0
100
AcDbMText
 10
196.5562229415682
 20
340.7959685536963
 30
0.0000000000000000
 40
7.749999761581421
 41
0.0000000000000000
 71
     5
 72
     1
  1
\A1;25
 11
6.123233995736766e-017
 21
1.000000000000000
 31
0.0000000000000000
  7
STANDARD
  0
ENDBLK
  5
367
100
AcDbEntity
  8
MAIN0
  6
CONTINUOUS
 62
3
100
AcDbBlockEnd
  0
BLOCK
  5
369
100
AcDbEntity
  8
MAIN0
  6
CONTINUOUS
 62
3
100
AcDbBlockBegin
  2
*D54
 70
    65
 10
0.0
 20
0.0
 30
0.0
  0
LINE
  5
36A
100
AcDbEntity
  8
MAIN0
  6
BYBLOCK
 62
0
100
AcDbLine
 10
173.2543985852225
 20
353.2959685536952
 30
0.0000000000000000
 11
205.9312228223589
 21
353.2959685536952
 31
0.0000000000000000
  0
LINE
  5
36B
100
AcDbEntity
  8
MAIN0
  6
BYBLOCK
 62
0
100
AcDbLine
 10
200.9312228223589
 20
358.2959685536952
 30
0.0000000000000000
 11
200.9312228223589
 21
373.2959685537210
 31
0.0000000000000000
  0
INSERT
  5
36C
100
AcDbEntity
  8
MAIN0
  6
BYBLOCK
 62
0
100
AcDbBlockReference
  2
_OPEN
 10
200.9312228223589
 20
353.2959685536952
 30
0.0000000000000000
 41
5.000000000000000
 42
5.000000000000000
 43
5.000000000000000
 50
270.0000000000000
  0
INSERT
  5
36D
100
AcDbEntity
  8
MAIN0
  6
BYBLOCK
 62
0
100
AcDbBlockReference
  2
_OPEN
 10
200.9312228223589
 20
378.2959685537210
 30
0.0000000000000000
 41
5.000000000000000
 42
5.000000000000000
 43
5.000000000000000
 50
90.00000000000000
  0
LINE
  5
36E
100
AcDbEntity
  8
MAIN0
  6
BYBLOCK
 62
0
100
AcDbLine
 10
172.7543985851827
 20
378.2959685537210
 30
0.0000000000000000
 11
205.9312228223589
 21
378.2959685537210
 31
0.0000000000000000
  0
MTEXT
  5
36F
100
AcDbEntity
  8
MAIN0
  6
BYBLOCK
 62
0
100
AcDbMText
 10
196.5562229415682
 20
365.7959685537081
 30
0.0000000000000000
 40
7.749999761581421
 41
0.0000000000000000
 71
     5
 72
     1
  1
\A1;25
 11
6.123233995736766e-017
 21
1.000000000000000
 31
0.0000000000000000
  7
STANDARD
  0
ENDBLK
  5
370
100
AcDbEntity
  8
MAIN0
  6
CONTINUOUS
 62
3
100
AcDbBlockEnd
  0
BLOCK
  5
3E8
100
AcDbEntity
  8
MAIN0
  6
CONTINUOUS
 62
3
100
AcDbBlockBegin
  2
*D55
 70
    65
 10
0.0
 20
0.0
 30
0.0
  0
LINE
  5
3E9
100
AcDbEntity
  8
MAIN0
  6
BYBLOCK
 62
0
100
AcDbLine
 10
903.2285002275631
 20
420.2959685827490
 30
0.0000000000000000
 11
903.2285002275631
 21
448.0866293888649
 31
0.0000000000000000
  0
LINE
  5
3EA
100
AcDbEntity
  8
MAIN0
  6
BYBLOCK
 62
0
100
AcDbLine
 10
908.2285002275631
 20
443.0866293888649
 30
0.0000000000000000
 11
998.2285002275629
 21
443.0866293888649
 31
0.0000000000000000
  0
INSERT
  5
3EB
100
AcDbEntity
  8
MAIN0
  6
BYBLOCK
 62
0
100
AcDbBlockReference
  2
_OPEN
 10
903.2285002275631
 20
443.0866293888649
 30
0.0000000000000000
 41
5.000000000000000
 42
5.000000000000000
 43
5.000000000000000
 50
180.0000000000000
  0
INSERT
  5
3EC
100
AcDbEntity
  8
MAIN0
  6
BYBLOCK
 62
0
100
AcDbBlockReference
  2
_OPEN
 10
1003.228500227563
 20
443.0866293888649
 30
0.0000000000000000
 41
5.000000000000000
 42
5.000000000000000
 43
5.000000000000000
 50
0.0000000000000000
  0
LINE
  5
3ED
100
AcDbEntity
  8
MAIN0
  6
BYBLOCK
 62
0
100
AcDbLine
 10
1003.228500227563
 20
420.2959685827490
 30
0.0000000000000000
 11
1003.228500227563
 21
448.0866293888649
 31
0.0000000000000000
  0
MTEXT
  5
3EE
100
AcDbEntity
  8
MAIN0
  6
BYBLOCK
 62
0
100
AcDbMText
 10
953.2285002275630
 20
447.4616292696557
 30
0.0000000000000000
 40
7.749999761581421
 41
0.0000000000000000
 71
     5
 72
     1
  1
\A1;100
 11
1.000000000000000
 21
0.0000000000000000
 31
0.0000000000000000
  7
STANDARD
  0
ENDBLK
  5
3EF
100
AcDbEntity
  8
MAIN0
  6
CONTINUOUS
 62
3
100
AcDbBlockEnd
  0
ENDSEC
  0
SECTION
  2
ENTITIES
  0
LINE
  5
46
100
AcDbEntity
  8
MAIN0
  6
CONTINUOUS
 62
3
100
AcDbLine
 10
671.7543985554171
 20
551.0013205460284
 30
0.0000000000000000
 11
671.7543985554171
 21
654.0013205460285
 31
0.0000000000000000
  0
LINE
  5
47
100
AcDbEntity
  8
MAIN0
  6
CONTINUOUS
 62
3
100
AcDbLine
 10
696.7543985547874
 20
564.1013205460741
 30
0.0000000000000000
 11
696.7543985546961
 21
640.9013205460736
 31
0.0000000000000000
  0
LINE
  5
48
100
AcDbEntity
  8
MAIN0
  6
CONTINUOUS
 62
3
100
AcDbLine
 10
696.1543985547414
 20
563.5013205460281
 30
0.0000000000000000
 11
686.7543985547418
 21
563.5013205460281
 31
0.0000000000000000
  0
LINE
  5
49
100
AcDbEntity
  8
MAIN0
  6
CONTINUOUS
 62
3
100
AcDbLine
 10
684.7543985547736
 20
565.5013205460288
 30
0.0000000000000000
 11
686.7543985547419
 21
563.5013205460283
 31
0.0000000000000000
  0
LINE
  5
4A
100
AcDbEntity
  8
MAIN0
  6
CONTINUOUS
 62
3
100
AcDbLine
 10
696.1543985547419
 20
563.5013205460278
 30
0.0000000000000000
 11
696.7543985547420
 21
564.1013205460279
 31
0.0000000000000000
  0
LINE
  5
4B
100
AcDbEntity
  8
MAIN0
  6
CONTINUOUS
 62
3
100
AcDbLine
 10
696.1543985547414
 20
641.5013205460281
 30
0.0000000000000000
 11
686.7543985547418
 21
641.5013205460281
 31
0.0000000000000000
  0
LINE
  5
4C
100
AcDbEntity
  8
MAIN0
  6
CONTINUOUS
 62
3
100
AcDbLine
 10
684.7543985547731
 20
639.5013205460273
 30
0.0000000000000000
 11
686.7543985547414
 21
641.5013205460277
 31
0.0000000000000000
  0
LINE
  5
4D
100
AcDbEntity
  8
MAIN0
  6
CONTINUOUS
 62
3
100
AcDbLine
 10
696.1543985547418
 20
641.5013205460286
 30
0.0000000000000000
 11
696.7543985547418
 21
640.9013205460286
 31
0.0000000000000000
  0
LINE
  5
4E
100
AcDbEntity
  8
MAIN0
  6
CONTINUOUS
 62
3
100
AcDbLine
 10
671.7543985554539
 20
639.5013205460282
 30
0.0000000000000000
 11
684.7543985547734
 21
639.5013205460282
 31
0.0000000000000000
  0
LINE
  5
4F
100
AcDbEntity
  8
MAIN0
  6
CONTINUOUS
 62
3
100
AcDbLine
 10
671.7543985553800
 20
565.5013205460281
 30
0.0000000000000000
 11
684.7543985547738
 21
565.5013205460281
 31
0.0000000000000000
  0
LINE
  5
50
100
AcDbEntity
  8
MAIN0
  6
CONTINUOUS
 62
3
100
AcDbLine
 10
716.2543985547418
 20
627.5013205460283
 30
0.0000000000000000
 11
696.7543985547422
 21
627.5013205460283
 31
0.0000000000000000
  0
LINE
  5
51
100
AcDbEntity
  8
MAIN0
  6
CONTINUOUS
 62
3
100
AcDbLine
 10
716.2543985547419
 20
627.5013205460284
 30
0.0000000000000000
 11
716.2543985547419
 21
577.5013205460284
 31
0.0000000000000000
  0
LINE
  5
52
100
AcDbEntity
  8
MAIN0
  6
CONTINUOUS
 62
3
100
AcDbLine
 10
716.2543985547418
 20
577.5013205460282
 30
0.0000000000000000
 11
696.7543985547422
 21
577.5013205460282
 31
0.0000000000000000
  0
LINE
  5
53
100
AcDbEntity
  8
MAIN0
  6
CONTINUOUS
 62
3
100
AcDbLine
 10
686.7543985548374
 20
563.5013205460280
 30
0.0000000000000000
 11
686.7543985548169
 21
580.2078237369931
 31
0.0000000000000000
  0
LINE
  5
54
100
AcDbEntity
  8
MAIN0
  6
CONTINUOUS
 62
3
100
AcDbLine
 10
686.7543985547621
 20
624.7948173550325
 30
0.0000000000000000
 11
686.7543985547417
 21
641.5013205460283
 31
0.0000000000000000
  0
LINE
  5
55
100
AcDbEntity
  8
MAIN0
  6
CONTINUOUS
 62
3
100
AcDbLine
 10
684.7543985548660
 20
565.5013205460280
 30
0.0000000000000000
 11
684.7543985548431
 21
583.9271449251729
 31
0.0000000000000000
  0
LINE
  5
56
100
AcDbEntity
  8
MAIN0
  6
CONTINUOUS
 62
3
100
AcDbLine
 10
684.7543985547968
 20
621.0754961668569
 30
0.0000000000000000
 11
684.7543985547738
 21
639.5013205460281
 31
0.0000000000000000
  0
LINE
  5
57
100
AcDbEntity
  8
MAIN0
  6
CONTINUOUS
 62
3
100
AcDbLine
 10
661.7543985563912
 20
654.0013205460389
 30
0.0000000000000000
 11
671.7543985554172
 21
654.0013205460285
 31
0.0000000000000000
  0
LINE
  5
58
100
AcDbEntity
  8
MAIN0
  6
CONTINUOUS
 62
3
100
AcDbLine
 10
661.7543985564612
 20
551.0013205460389
 30
0.0000000000000000
 11
671.7543985554172
 21
551.0013205460285
 31
0.0000000000000000
  0
LINE
  5
59
100
AcDbEntity
  8
MAIN0
  6
CONTINUOUS
 62
3
100
AcDbLine
 10
686.7543985548167
 20
580.2078237369931
 30
0.0000000000000000
 11
696.7543985547680
 21
580.2078237369676
 31
0.0000000000000000
  0
LINE
  5
5A
100
AcDbEntity
  8
MAIN0
  6
CONTINUOUS
 62
3
100
AcDbLine
 10
671.7543985554172
 20
583.9271449251925
 30
0.0000000000000000
 11
684.7543985548433
 21
583.9271449251728
 31
0.0000000000000000
  0
LINE
  5
5B
100
AcDbEntity
  8
MAIN0
  6
CONTINUOUS
 62
3
100
AcDbLine
 10
684.7543985548432
 20
583.9271449251728
 30
0.0000000000000000
 11
686.7543985548168
 21
580.2078237369931
 31
0.0000000000000000
  0
LINE
  5
5C
100
AcDbEntity
  8
MAIN0
  6
CONTINUOUS
 62
3
100
AcDbLine
 10
686.7543985548632
 20
624.7948173550326
 30
0.0000000000000000
 11
696.7543985548145
 21
624.7948173550371
 31
0.0000000000000000
  0
LINE
  5
5D
100
AcDbEntity
  8
MAIN0
  6
CONTINUOUS
 62
3
100
AcDbLine
 10
671.7543985554556
 20
621.0754961668641
 30
0.0000000000000000
 11
684.7543985548817
 21
621.0754961668569
 31
0.0000000000000000
  0
LINE
  5
5E
100
AcDbEntity
  8
MAIN0
  6
CONTINUOUS
 62
3
100
AcDbLine
 10
684.7543985548821
 20
621.0754961668574
 30
0.0000000000000000
 11
686.7543985548634
 21
624.7948173550331
 31
0.0000000000000000
  0
LINE
  5
5F
100
AcDbEntity
  8
MAIN0
  6
CENTER
 62
3
100
AcDbLine
 10
514.2543984982806
 20
610.5013205461999
 30
0.0000000000000000
 11
514.2543984982806
 21
594.5013205461999
 31
0.0000000000000000
  0
LINE
  5
60
100
AcDbEntity
  8
MAIN0
  6
CENTER
 62
3
100
AcDbLine
 10
274.1669986130548
 20
602.5013205463624
 30
0.0000000000000000
 11
722.5138756630607
 21
602.5013205459766
 31
0.0000000000000000
  0
LINE
  5
61
100
AcDbEntity
  8
MAIN0
  6
CONTINUOUS
 62
3
100
AcDbLine
 10
671.7543985554171
 20
562.1497406513975
 30
0.0000000000000000
 11
661.7543985564537
 21
562.1497406513975
 31
0.0000000000000000
  0
LINE
  5
62
100
AcDbEntity
  8
MAIN0
  6
CONTINUOUS
 62
3
100
AcDbLine
 10
671.7543985554170
 20
642.8529004400209
 30
0.0000000000000000
 11
661.7543985563988
 21
642.8529004400209
 31
0.0000000000000000
  0
LINE
  5
63
100
AcDbEntity
  8
MAIN0
  6
CONTINUOUS
 62
3
100
AcDbLine
 10
149.2543985554924
 20
308.2959685536054
 30
0.0000000000000000
 11
149.2543985554924
 21
313.2959685536054
 31
0.0000000000000000
  0
LINE
  5
64
100
AcDbEntity
  8
MAIN0
  6
CONTINUOUS
 62
3
100
AcDbLine
 10
149.2543985554925
 20
308.2959685536051
 30
0.0000000000000000
 11
169.2543985554925
 21
308.2959685536052
 31
0.0000000000000000
  0
LINE
  5
65
100
AcDbEntity
  8
MAIN0
  6
CONTINUOUS
 62
3
100
AcDbLine
 10
169.2543985554924
 20
308.2959685536054
 30
0.0000000000000000
 11
169.2543985554924
 21
313.2959685536054
 31
0.0000000000000000
  0
LINE
  5
66
100
AcDbEntity
  8
MAIN0
  6
CONTINUOUS
 62
3
100
AcDbLine
 10
92.25439855549286
 20
308.2959685536054
 30
0.0000000000000000
 11
92.25439855549286
 21
313.2959685536054
 31
0.0000000000000000
  0
LINE
  5
67
100
AcDbEntity
  8
MAIN0
  6
CONTINUOUS
 62
3
100
AcDbLine
 10
72.25439855549260
 20
308.2959685536054
 30
0.0000000000000000
 11
92.25439855549286
 21
308.2959685536054
 31
0.0000000000000000
  0
LINE
  5
68
100
AcDbEntity
  8
MAIN0
  6
CONTINUOUS
 62
3
100
AcDbLine
 10
72.25439855549260
 20
313.2959685536054
 30
0.0000000000000000
 11
72.25439855549260
 21
308.2959685536054
 31
0.0000000000000000
  0
DIMENSION
  5
73
100
AcDbEntity
  8
MAIN0
  6
CONTINUOUS
 62
3
100
AcDbDimension
  2
*D0
 10
946.2285002275627
 20
427.9432678463379
 30
0.0000000000000000
 11
953.2285002275627
 21
428.4432678463379
 31
0.0000000000000000
 70
32
  3
MAIN001
100
AcDbAlignedDimension
 13
960.2285002275627
 23
351.3374204377742
 33
0.0000000000000000
 14
946.2285002275627
 24
351.3374204377728
 34
0.0000000000000000
100
AcDbRotatedDimension
1001
ACAD
1000
DSTYLE
1002
{
1070
   173
1070
     1
1070
     6
1000
_OPEN
1070
     7
1000
_OPEN
1070
    41
1040
5.000000
1070
   287
1070
     0
1002
}
  0
DIMENSION
  5
7C
100
AcDbEntity
  8
MAIN0
  6
CONTINUOUS
 62
3
100
AcDbDimension
  2
*D1
 10
70.75439855537994
 20
443.9432678463363
 30
0.0000000000000000
 11
120.7543985553800
 21
444.4432678463363
 31
0.0000000000000000
 70
32
  3
MAIN001
100
AcDbAlignedDimension
 13
170.7543985553801
 23
418.2959685536330
 33
0.0000000000000000
 14
70.75439855537994
 24
418.2959685536330
 34
0.0000000000000000
100
AcDbRotatedDimension
1001
ACAD
1000
DSTYLE
1002
{
1070
   173
1070
     1
1070
     6
1000
_OPEN
1070
     7
1000
_OPEN
1070
    41
1040
5.000000
1002
}
  0
CIRCLE
  5
7D
100
AcDbEntity
  8
MAIN0
  6
CONTINUOUS
 62
3
100
AcDbCircle
 10
328.7543985554109
 20
388.2959685536296
 30
0.0000000000000000
 40
3.400000000000000
  0
CIRCLE
  5
7E
100
AcDbEntity
  8
MAIN0
  6
CONTINUOUS
 62
3
100
AcDbCircle
 10
328.7543985554109
 20
388.2959685536296
 30
0.0000000000000000
 40
4.000000000000000
  0
CIRCLE
  5
7F
100
AcDbEntity
  8
MAIN0
  6
CONTINUOUS
 62
3
100
AcDbCircle
 10
328.7543985554109
 20
408.2959685536295
 30
0.0000000000000000
 40
3.400000000000000
  0
CIRCLE
  5
80
100
AcDbEntity
  8
MAIN0
  6
CONTINUOUS
 62
3
100
AcDbCircle
 10
328.7543985554109
 20
408.2959685536295
 30
0.0000000000000000
 40
4.000000000000000
  0
LINE
  5
81
100
AcDbEntity
  8
MAIN0
  6
CENTER
 62
3
100
AcDbLine
 10
336.7543985554109
 20
388.2959685536296
 30
0.0000000000000000
 11
320.7543985554109
 21
388.2959685536296
 31
0.0000000000000000
  0
LINE
  5
82
100
AcDbEntity
  8
MAIN0
  6
CENTER
 62
3
100
AcDbLine
 10
336.7543985554109
 20
408.2959685536295
 30
0.0000000000000000
 11
320.7543985554109
 21
408.2959685536295
 31
0.0000000000000000
  0
LINE
  5
83
100
AcDbEntity
  8
MAIN0
  6
CENTER
 62
3
100
AcDbLine
 10
328.7543985554109
 20
380.2959685536296
 30
0.0000000000000000
 11
328.7543985554109
 21
416.2959685536295
 31
0.0000000000000000
  0
LEADER
  5
84
100
AcDbEntity
  8
MAIN0
  6
CONTINUOUS
 62
3
100
AcDbLeader
  3
MAIN001
 73
     0
 75
     1
 40
7.749999761581421
 41
73.97400202059743
 76
     3
 10
327.0757829865374
 20
411.9267053620384
 30
0.0000000000000000
 10
286.1642341131314
 20
494.1495096980124
 30
0.0000000000000000
 10
281.3482342526063
 20
494.1495096980124
 30
0.0000000000000000
340
85
213
0.0000000000000000
223
-1.250000000000000
233
0.0000000000000000
1001
ACAD
1000
DSTYLE
1002
{
1070
   147
1040
0.0
1070
    77
1070
     1
1070
   173
1070
     1
1070
     6
1000
_OPEN
1070
     7
1000
_OPEN
1002
}
  0
MTEXT
  5
85
102
{ACAD_REACTORS
330
84
102
}
100
AcDbEntity
  8
MAIN0
  6
CONTINUOUS
 62
3
100
AcDbMText
 10
207.3742322320089
 20
503.1495094595938
 30
0.0000000000000000
 40
7.749999761581421
 41
0.0000000000000000
 71
     1
 72
     1
  1
{\H0.93x;{2×2-M8深さ16\P　　　　DEPTH}}
 11
1.000000000000000
 21
0.0000000000000000
 31
0.0000000000000000
  7
KNJYOKO
  0
DIMENSION
  5
8E
100
AcDbEntity
  8
MAIN0
  6
CONTINUOUS
 62
3
100
AcDbDimension
  2
*D2
 10
358.7543985554109
 20
440.5744554692078
 30
0.0000000000000000
 11
343.7543985554109
 21
441.0744554692078
 31
0.0000000000000000
 70
32
  3
MAIN001
100
AcDbAlignedDimension
 13
328.7543985554109
 23
416.2959685536295
 33
0.0000000000000000
 14
358.7543985554109
 24
418.0959685536295
 34
0.0000000000000000
100
AcDbRotatedDimension
1001
ACAD
1000
DSTYLE
1002
{
1070
   173
1070
     1
1070
     6
1000
_OPEN
1070
     7
1000
_OPEN
1070
    41
1040
5.000000
1002
}
  0
DIMENSION
  5
98
100
AcDbEntity
  8
MAIN0
  6
CONTINUOUS
 62
3
100
AcDbDimension
  2
*D3
 10
343.6522021909736
 20
418.2959685536295
 30
0.0000000000000000
 11
342.6522021909736
 21
426.1372788998327
 31
0.0000000000000000
 70
160
  3
MAIN001
100
AcDbAlignedDimension
 13
336.7543985554109
 23
408.2959685536295
 33
0.0000000000000000
 14
321.2543985557251
 24
418.2959685536295
 34
0.0000000000000000
 50
90.00000000000000
100
AcDbRotatedDimension
1001
ACAD
1000
DSTYLE
1002
{
1070
   173
1070
     1
1070
     6
1000
_OPEN
1070
     7
1000
_OPEN
1070
    41
1040
5.000000
1070
   287
1070
     0
1002
}
  0
DIMENSION
  5
A1
100
AcDbEntity
  8
MAIN0
  6
CONTINUOUS
 62
3
100
AcDbDimension
  2
*D4
 10
343.6522021909736
 20
408.2959685536295
 30
0.0000000000000000
 11
343.1522021909736
 21
398.2959685536296
 31
0.0000000000000000
 70
32
  3
MAIN001
100
AcDbAlignedDimension
 13
336.7543985554109
 23
388.2959685536296
 33
0.0000000000000000
 14
336.7543985554109
 24
408.2959685536295
 34
0.0000000000000000
 50
90.00000000000000
100
AcDbRotatedDimension
1001
ACAD
1000
DSTYLE
1002
{
1070
   173
1070
     1
1070
     6
1000
_OPEN
1070
     7
1000
_OPEN
1070
    41
1040
5.000000
1002
}
  0
LINE
  5
A2
100
AcDbEntity
  8
MAIN0
  6
CENTER
 62
3
100
AcDbLine
 10
120.7543985553804
 20
424.2953598983484
 30
0.0000000000000000
 11
120.7543985553802
 21
304.4475765602971
 31
0.0000000000000000
  0
LINE
  5
A3
100
AcDbEntity
  8
MAIN0
  6
CONTINUOUS
 62
3
100
AcDbLine
 10
670.7543985553913
 20
315.2959685533659
 30
0.0000000000000000
 11
671.7543985553915
 21
316.2959685533660
 31
0.0000000000000000
  0
LINE
  5
A4
100
AcDbEntity
  8
MAIN0
  6
CONTINUOUS
 62
3
100
AcDbLine
 10
670.7543985554212
 20
378.2959685535229
 30
0.0000000000000000
 11
671.7543985554212
 21
377.2959685535229
 31
0.0000000000000000
  0
LINE
  5
A5
100
AcDbEntity
  8
MAIN0
  6
CONTINUOUS
 62
3
100
AcDbLine
 10
661.7543985558448
 20
378.2959685535234
 30
0.0000000000000000
 11
670.7543985554216
 21
378.2959685535234
 31
0.0000000000000000
  0
LINE
  5
A6
100
AcDbEntity
  8
MAIN0
  6
CONTINUOUS
 62
3
100
AcDbLine
 10
633.7543985553907
 20
315.2959685533664
 30
0.0000000000000000
 11
670.7543985553907
 21
315.2959685533664
 31
0.0000000000000000
  0
LINE
  5
A7
100
AcDbEntity
  8
MAIN0
  6
CONTINUOUS
 62
3
100
AcDbLine
 10
671.7543985554216
 20
374.2959685535236
 30
0.0000000000000000
 11
671.7543985554216
 21
377.8959685535247
 31
0.0000000000000000
  0
LINE
  5
A8
100
AcDbEntity
  8
MAIN0
  6
CONTINUOUS
 62
3
100
AcDbLine
 10
671.7543985554219
 20
377.8959685535244
 30
0.0000000000000000
 11
672.1543985554212
 21
378.2959685535237
 31
0.0000000000000000
  0
LINE
  5
A9
100
AcDbEntity
  8
MAIN0
  6
CONTINUOUS
 62
3
100
AcDbLine
 10
696.1543985554215
 20
378.2959685535243
 30
0.0000000000000000
 11
696.7543985554214
 21
377.6959685535244
 31
0.0000000000000000
  0
LINE
  5
AA
100
AcDbEntity
  8
MAIN0
  6
CONTINUOUS
 62
3
100
AcDbLine
 10
672.1543985554213
 20
378.2959685535243
 30
0.0000000000000000
 11
696.1543985554213
 21
378.2959685535243
 31
0.0000000000000000
  0
LINE
  5
AB
100
AcDbEntity
  8
MAIN0
  6
CONTINUOUS
 62
3
100
AcDbLine
 10
671.7543985553916
 20
317.2959685533666
 30
0.0000000000000000
 11
696.1543985553913
 21
317.2959685533666
 31
0.0000000000000000
  0
LINE
  5
AC
100
AcDbEntity
  8
MAIN0
  6
CONTINUOUS
 62
3
100
AcDbLine
 10
696.1543985553917
 20
317.2959685533671
 30
0.0000000000000000
 11
696.7543985553912
 21
317.8959685533669
 31
0.0000000000000000
  0
LINE
  5
AD
100
AcDbEntity
  8
MAIN0
  6
CONTINUOUS
 62
3
100
AcDbLine
 10
716.2543985554161
 20
372.2959685533492
 30
0.0000000000000000
 11
696.7543985554169
 21
372.2959685533492
 31
0.0000000000000000
  0
LINE
  5
AE
100
AcDbEntity
  8
MAIN0
  6
CONTINUOUS
 62
3
100
AcDbLine
 10
716.2543985554161
 20
322.2959685533488
 30
0.0000000000000000
 11
696.7543985554169
 21
322.2959685533488
 31
0.0000000000000000
  0
LINE
  5
AF
100
AcDbEntity
  8
MAIN0
  6
CONTINUOUS
 62
3
100
AcDbLine
 10
716.2543985554163
 20
372.2959685533493
 30
0.0000000000000000
 11
716.2543985554162
 21
322.2959685533493
 31
0.0000000000000000
  0
LINE
  5
B0
100
AcDbEntity
  8
MAIN0
  6
CONTINUOUS
 62
3
100
AcDbLine
 10
696.7543985553915
 20
318.3959685533675
 30
0.0000000000000000
 11
696.7543985554214
 21
377.6959685535238
 31
0.0000000000000000
  0
LINE
  5
B1
100
AcDbEntity
  8
MAIN0
  6
CONTINUOUS
 62
3
100
AcDbLine
 10
671.7543985553906
 20
316.2959685533660
 30
0.0000000000000000
 11
671.7543985554217
 21
377.3959685535242
 31
0.0000000000000000
  0
LINE
  5
B2
100
AcDbEntity
  8
MAIN0
  6
CONTINUOUS
 62
3
100
AcDbLine
 10
684.7543985553426
 20
378.2959685533740
 30
0.0000000000000000
 11
684.7543985556225
 21
317.2959685533666
 31
0.0000000000000000
  0
LINE
  5
B3
100
AcDbEntity
  8
MAIN0
  6
CONTINUOUS
 62
3
100
AcDbLine
 10
686.7543985553282
 20
378.2959685533740
 30
0.0000000000000000
 11
686.7543985557537
 21
317.2959685533666
 31
0.0000000000000000
  0
LINE
  5
B4
100
AcDbEntity
  8
MAIN0
  6
CONTINUOUS
 62
3
100
AcDbLine
 10
633.7543985554161
 20
325.1600249320849
 30
0.0000000000000000
 11
671.7543985554169
 21
325.1600249321165
 31
0.0000000000000000
  0
LINE
  5
B5
100
AcDbEntity
  8
MAIN0
  6
CONTINUOUS
 62
3
100
AcDbLine
 10
320.7543985554166
 20
552.9013205462894
 30
0.0000000000000000
 11
320.7543985554169
 21
652.1013205462898
 31
0.0000000000000000
  0
LINE
  5
B6
100
AcDbEntity
  8
MAIN0
  6
CONTINUOUS
 62
3
100
AcDbLine
 10
528.7543984977788
 20
652.1013205461999
 30
0.0000000000000000
 11
528.7543984977788
 21
552.9013205461996
 31
0.0000000000000000
  0
LINE
  5
B7
100
AcDbEntity
  8
MAIN0
  6
CONTINUOUS
 62
3
100
AcDbLine
 10
528.7543984977789
 20
553.1013205461999
 30
0.0000000000000000
 11
528.1543984977790
 21
552.5013205462000
 31
0.0000000000000000
  0
LINE
  5
B8
100
AcDbEntity
  8
MAIN0
  6
CONTINUOUS
 62
3
100
AcDbLine
 10
528.1543984977790
 20
652.5013205461999
 30
0.0000000000000000
 11
528.7543984977790
 21
651.9013205461998
 31
0.0000000000000000
  0
LINE
  5
B9
100
AcDbEntity
  8
MAIN0
  6
CONTINUOUS
 62
3
100
AcDbLine
 10
321.3543985554165
 20
552.5013205463499
 30
0.0000000000000000
 11
320.7543985554166
 21
553.1013205463499
 31
0.0000000000000000
  0
LINE
  5
BA
100
AcDbEntity
  8
MAIN0
  6
CONTINUOUS
 62
3
100
AcDbLine
 10
321.3543985554169
 20
652.5013205463499
 30
0.0000000000000000
 11
320.7543985554169
 21
651.9013205463500
 31
0.0000000000000000
  0
LEADER
  5
BB
100
AcDbEntity
  8
MAIN0
  6
CONTINUOUS
 62
3
100
AcDbLeader
  3
MAIN001
 73
     0
 75
     1
 40
7.749999761581421
 41
85.99900005215403
 76
     3
 10
341.6978716280532
 20
605.5777096742237
 30
0.0000000000000000
 10
297.7369983341786
 20
684.0194541002767
 30
0.0000000000000000
 10
293.2709984658303
 20
684.0194541002767
 30
0.0000000000000000
340
BC
213
0.0000000000000000
223
-1.250000000000000
233
0.0000000000000000
1001
ACAD
1000
DSTYLE
1002
{
1070
   147
1040
0.0
1070
    77
1070
     1
1070
   173
1070
     1
1070
     6
1000
_OPEN
1070
     7
1000
_OPEN
1002
}
  0
MTEXT
  5
BC
102
{ACAD_REACTORS
330
BB
102
}
100
AcDbEntity
  8
MAIN0
  6
CONTINUOUS
 62
3
100
AcDbMText
 10
207.2719984136763
 20
693.0194538618581
 30
0.0000000000000000
 40
7.749999761581421
 41
0.0000000000000000
 71
     1
 72
     1
  1
{\H0.71x;{吊りボルト用 EYE BOLT\P ２xＭ８ 深さ１６\P     DEPTH\P}
 11
1.000000000000000
 21
0.0000000000000000
 31
0.0000000000000000
  7
KNJYOKO
  0
LEADER
  5
BD
100
AcDbEntity
  8
MAIN0
  6
CONTINUOUS
 62
3
100
AcDbLeader
  3
MAIN001
 73
     0
 74
     0
 75
     1
 40
7.749999761581421
 41
42.62600122189531
 76
     3
 10
557.6236245570693
 20
369.3323500597192
 30
0.0000000000000000
 10
582.1755553745908
 20
420.6747052826952
 30
0.0000000000000000
 10
586.9895552351159
 20
420.6747052826952
 30
0.0000000000000000
340
BE
213
-0.001000000000090040
223
-1.250000000000000
233
0.0000000000000000
1001
ACAD
1000
DSTYLE
1002
{
1070
   147
1040
0.0
1070
    77
1070
     1
1070
   173
1070
     1
1070
     6
1000
_OPEN
1070
     7
1000
_OPEN
1002
}
  0
MTEXT
  5
BE
102
{ACAD_REACTORS
330
BD
102
}
100
AcDbEntity
  8
MAIN0
  6
CONTINUOUS
 62
3
100
AcDbMText
 10
586.9905552351160
 20
429.6747050442766
 30
0.0000000000000000
 40
7.749999761581421
 41
0.0000000000000000
 71
     1
 72
     1
  1
{\H0.92x;{2×2-M8}}
 11
1.000000000000000
 21
0.0000000000000000
 31
0.0000000000000000
  7
KNJYOKO
  0
DIMENSION
  5
C6
100
AcDbEntity
  8
MAIN0
  6
CONTINUOUS
 62
3
100
AcDbDimension
  2
*D5
 10
284.7543985554224
 20
333.2764092586788
 30
0.0000000000000000
 11
329.7543985554191
 21
333.7764092586788
 31
0.0000000000000000
 70
32
  3
MAIN001
100
AcDbAlignedDimension
 13
374.7543985554158
 23
359.7959685538939
 33
0.0000000000000000
 14
284.7543985554112
 24
377.6959685536295
 34
0.0000000000000000
100
AcDbRotatedDimension
1001
ACAD
1000
DSTYLE
1002
{
1070
   173
1070
     1
1070
     6
1000
_OPEN
1070
     7
1000
_OPEN
1070
    41
1040
5.000000
1002
}
  0
DIMENSION
  5
CF
100
AcDbEntity
  8
MAIN0
  6
CONTINUOUS
 62
3
100
AcDbDimension
  2
*D6
 10
374.7543985554158
 20
333.2764092586788
 30
0.0000000000000000
 11
465.2543985554159
 21
333.7764092586788
 31
0.0000000000000000
 70
32
  3
MAIN001
100
AcDbAlignedDimension
 13
555.7543985554160
 23
359.7959685538939
 33
0.0000000000000000
 14
374.7543985554158
 24
359.7959685538939
 34
0.0000000000000000
100
AcDbRotatedDimension
1001
ACAD
1000
DSTYLE
1002
{
1070
   173
1070
     1
1070
     6
1000
_OPEN
1070
     7
1000
_OPEN
1070
    41
1040
5.000000
1002
}
  0
DIMENSION
  5
D7
100
AcDbEntity
  8
MAIN0
  6
CONTINUOUS
 62
3
100
AcDbDimension
  2
*D7
 10
555.7543985554160
 20
333.2764092586788
 30
0.0000000000000000
 11
594.7543985554160
 21
333.7764092586788
 31
0.0000000000000000
 70
32
  3
MAIN001
100
AcDbAlignedDimension
 13
633.7543985554160
 23
313.6959685536220
 33
0.0000000000000000
 14
555.7543985554160
 24
359.7959685538939
 34
0.0000000000000000
100
AcDbRotatedDimension
1001
ACAD
1000
DSTYLE
1002
{
1070
   173
1070
     1
1070
     6
1000
_OPEN
1070
     7
1000
_OPEN
1070
    41
1040
5.000000
1002
}
  0
DIMENSION
  5
E1
100
AcDbEntity
  8
MAIN0
  6
CONTINUOUS
 62
3
100
AcDbDimension
  2
*D8
 10
452.7437067489465
 20
308.2959685536499
 30
0.0000000000000000
 11
451.4937067489465
 21
299.4393045059762
 31
0.0000000000000000
 70
160
  3
MAIN001
100
AcDbAlignedDimension
 13
285.1543985554228
 23
313.2959685537666
 33
0.0000000000000000
 14
477.7543985554221
 24
308.2959685536499
 34
0.0000000000000000
 50
90.00000000000000
100
AcDbRotatedDimension
1001
ACAD
1000
DSTYLE
1002
{
1070
   173
1070
     1
1070
     6
1000
_OPEN
1070
     7
1000
_OPEN
1070
    41
1040
5.000000
1070
   287
1070
     0
1002
}
  0
DIMENSION
  5
EC
100
AcDbEntity
  8
MAIN0
  6
CONTINUOUS
 62
3
100
AcDbDimension
  2
*D9
 10
477.7543985554221
 20
290.2959685536208
 30
0.0000000000000000
 11
501.4928239576967
 21
291.5459685536208
 31
0.0000000000000000
 70
160
  3
MAIN001
100
AcDbAlignedDimension
 13
491.7543985554221
 23
308.2959685536499
 33
0.0000000000000000
 14
477.7543985554221
 24
308.2959685536499
 34
0.0000000000000000
100
AcDbRotatedDimension
1001
ACAD
1000
DSTYLE
1002
{
1070
   173
1070
     1
1070
     6
1000
_OPEN
1070
     7
1000
_OPEN
1070
    41
1040
5.000000
1070
   287
1070
     0
1002
}
  0
DIMENSION
  5
F5
100
AcDbEntity
  8
MAIN0
  6
CONTINUOUS
 62
3
100
AcDbDimension
  2
*D10
 10
716.2543985554162
 20
258.2959685536208
 30
0.0000000000000000
 11
675.0043985554161
 21
258.7959685536208
 31
0.0000000000000000
 70
32
  3
MAIN001
100
AcDbAlignedDimension
 13
633.7543985554160
 23
313.6959685536220
 33
0.0000000000000000
 14
716.2543985554162
 24
322.2959685533493
 34
0.0000000000000000
100
AcDbRotatedDimension
1001
ACAD
1000
DSTYLE
1002
{
1070
   173
1070
     1
1070
     6
1000
_OPEN
1070
     7
1000
_OPEN
1070
    41
1040
5.000000
1002
}
  0
DIMENSION
  5
FE
100
AcDbEntity
  8
MAIN0
  6
CONTINUOUS
 62
3
100
AcDbDimension
  2
*D11
 10
633.7543985554160
 20
258.2959685536208
 30
0.0000000000000000
 11
459.2543985554192
 21
258.7959685536208
 31
0.0000000000000000
 70
32
  3
MAIN001
100
AcDbAlignedDimension
 13
284.7543985554225
 23
313.6959685537676
 33
0.0000000000000000
 14
633.7543985554160
 24
313.6959685536220
 34
0.0000000000000000
100
AcDbRotatedDimension
1001
ACAD
1000
DSTYLE
1002
{
1070
   173
1070
     1
1070
     6
1000
_OPEN
1070
     7
1000
_OPEN
1070
    41
1040
5.000000
1002
}
  0
DIMENSION
  5
109
100
AcDbEntity
  8
MAIN0
  6
CONTINUOUS
 62
3
100
AcDbDimension
  2
*D12
 10
284.7543985554112
 20
469.5251206800142
 30
0.0000000000000000
 11
276.9116010018146
 21
470.7751206800142
 31
0.0000000000000000
 70
160
  3
MAIN001
100
AcDbAlignedDimension
 13
285.7543985554111
 23
397.6959685536295
 33
0.0000000000000000
 14
284.7543985554112
 24
377.6959685536294
 34
0.0000000000000000
100
AcDbRotatedDimension
1001
ACAD
1000
DSTYLE
1002
{
1070
   173
1070
     1
1070
     6
1000
_OPEN
1070
     7
1000
_OPEN
1070
    41
1040
5.000000
1070
   287
1070
     0
1002
}
  0
DIMENSION
  5
112
100
AcDbEntity
  8
MAIN0
  6
CONTINUOUS
 62
3
100
AcDbDimension
  2
*D13
 10
285.7543985554111
 20
469.5251206800142
 30
0.0000000000000000
 11
322.2543985554110
 21
470.0251206800142
 31
0.0000000000000000
 70
32
  3
MAIN001
100
AcDbAlignedDimension
 13
358.7543985554109
 23
418.0959685536295
 33
0.0000000000000000
 14
285.7543985554111
 24
397.6959685536295
 34
0.0000000000000000
100
AcDbRotatedDimension
1001
ACAD
1000
DSTYLE
1002
{
1070
   173
1070
     1
1070
     6
1000
_OPEN
1070
     7
1000
_OPEN
1070
    41
1040
5.000000
1002
}
  0
DIMENSION
  5
11B
100
AcDbEntity
  8
MAIN0
  6
CONTINUOUS
 62
3
100
AcDbDimension
  2
*D14
 10
358.7543985554109
 20
469.5251206800142
 30
0.0000000000000000
 11
429.2543985554111
 21
470.0251206800142
 31
0.0000000000000000
 70
32
  1
\A1;MAX204
  3
MAIN001
100
AcDbAlignedDimension
 13
499.7543985554111
 23
418.0959685536295
 33
0.0000000000000000
 14
358.7543985554109
 24
418.0959685536295
 34
0.0000000000000000
100
AcDbRotatedDimension
1001
ACAD
1000
DSTYLE
1002
{
1070
   173
1070
     1
1070
     6
1000
_OPEN
1070
     7
1000
_OPEN
1070
    41
1040
5.000000
1002
}
  0
DIMENSION
  5
124
100
AcDbEntity
  8
MAIN0
  6
CONTINUOUS
 62
1
100
AcDbDimension
  2
*D15
 10
499.7543985554111
 20
469.5251206800142
 30
0.0000000000000000
 11
531.7543985554112
 21
470.0251206800142
 31
0.0000000000000000
 70
32
  3
MAIN001
100
AcDbAlignedDimension
 13
563.7543985554113
 23
397.6959685536558
 33
0.0000000000000000
 14
499.7543985554111
 24
418.0959685536295
 34
0.0000000000000000
100
AcDbRotatedDimension
1001
ACAD
1000
DSTYLE
1002
{
1070
   173
1070
     1
1070
     6
1000
_OPEN
1070
     7
1000
_OPEN
1070
    41
1040
5.000000
1002
}
  0
DIMENSION
  5
12F
100
AcDbEntity
  8
MAIN0
  6
CONTINUOUS
 62
3
100
AcDbDimension
  2
*D16
 10
514.2543984982806
 20
526.0059342116124
 30
0.0000000000000000
 11
484.3623754110213
 21
527.2559342116124
 31
0.0000000000000000
 70
160
  3
MAIN001
100
AcDbAlignedDimension
 13
499.7543984977788
 23
553.0013205461999
 33
0.0000000000000000
 14
514.2543984982806
 24
594.5013205461999
 34
0.0000000000000000
100
AcDbRotatedDimension
1001
ACAD
1000
DSTYLE
1002
{
1070
   173
1070
     1
1070
     6
1000
_OPEN
1070
     7
1000
_OPEN
1070
    41
1040
5.000000
1070
   287
1070
     0
1002
}
  0
LINE
  5
130
100
AcDbEntity
  8
MAIN0
  6
CONTINUOUS
 62
3
100
AcDbLine
 10
661.7543985558418
 20
353.2959685540064
 30
0.0000000000000000
 11
671.7543985554095
 21
353.2959685539898
 31
0.0000000000000000
  0
DIMENSION
  5
13A
100
AcDbEntity
  8
MAIN0
  6
CONTINUOUS
 62
3
100
AcDbDimension
  2
*D17
 10
264.9974421599320
 20
418.2959685536295
 30
0.0000000000000000
 11
264.4974421599320
 21
408.2959685536295
 31
0.0000000000000000
 70
32
  3
MAIN001
100
AcDbAlignedDimension
 13
286.3543985554111
 23
398.2959685536295
 33
0.0000000000000000
 14
321.2543985557251
 24
418.2959685536295
 34
0.0000000000000000
 50
90.00000000000000
100
AcDbRotatedDimension
1001
ACAD
1000
DSTYLE
1002
{
1070
   173
1070
     1
1070
     6
1000
_DOT
1070
     7
1000
_OPEN
1070
    41
1040
5.000000
1070
   287
1070
     0
1002
}
  0
DIMENSION
  5
144
100
AcDbEntity
  8
MAIN0
  6
CONTINUOUS
 62
3
100
AcDbDimension
  2
*D18
 10
264.9974421599320
 20
398.2959685536295
 30
0.0000000000000000
 11
264.4974421599320
 21
388.2959685536290
 31
0.0000000000000000
 70
32
  3
MAIN001
100
AcDbAlignedDimension
 13
285.3543985554110
 23
378.2959685536293
 33
0.0000000000000000
 14
286.3543985554111
 24
398.2959685536295
 34
0.0000000000000000
 50
90.00000000000000
100
AcDbRotatedDimension
1001
ACAD
1000
DSTYLE
1002
{
1070
   173
1070
     1
1070
     6
1000
_OPEN
1070
     7
1000
_DOT
1070
    41
1040
5.000000
1070
   287
1070
     0
1002
}
  0
DIMENSION
  5
14D
100
AcDbEntity
  8
MAIN0
  6
CONTINUOUS
 62
3
100
AcDbDimension
  2
*D19
 10
358.7543985554109
 20
455.4518980340733
 30
0.0000000000000000
 11
339.7543985555681
 21
455.9518980340733
 31
0.0000000000000000
 70
32
  3
MAIN001
100
AcDbAlignedDimension
 13
320.7543985557253
 23
417.7959685536296
 33
0.0000000000000000
 14
358.7543985554109
 24
418.0959685536295
 34
0.0000000000000000
100
AcDbRotatedDimension
1001
ACAD
1000
DSTYLE
1002
{
1070
   173
1070
     1
1070
     6
1000
_OPEN
1070
     7
1000
_OPEN
1070
    41
1040
5.000000
1002
}
  0
DIMENSION
  5
156
100
AcDbEntity
  8
MAIN0
  6
CONTINUOUS
 62
3
100
AcDbDimension
  2
*D20
 10
320.7543985557253
 20
455.4518980340733
 30
0.0000000000000000
 11
296.8349510210417
 21
456.7018980340733
 31
0.0000000000000000
 70
160
  3
MAIN001
100
AcDbAlignedDimension
 13
285.7543985554111
 23
397.6959685536295
 33
0.0000000000000000
 14
320.7543985557253
 24
417.7959685536296
 34
0.0000000000000000
100
AcDbRotatedDimension
1001
ACAD
1000
DSTYLE
1002
{
1070
   173
1070
     1
1070
     6
1000
_OPEN
1070
     7
1000
_OPEN
1070
    41
1040
5.000000
1002
}
  0
DIMENSION
  5
15F
100
AcDbEntity
  8
MAIN0
  6
CONTINUOUS
 62
3
100
AcDbDimension
  2
*D21
 10
563.7543985554113
 20
455.4518980340733
 30
0.0000000000000000
 11
546.2543985554113
 21
455.9518980340733
 31
0.0000000000000000
 70
32
  3
MAIN001
100
AcDbAlignedDimension
 13
528.7543985554113
 23
417.7959685536295
 33
0.0000000000000000
 14
563.7543985554113
 24
397.6959685536558
 34
0.0000000000000000
100
AcDbRotatedDimension
1001
ACAD
1000
DSTYLE
1002
{
1070
   173
1070
     1
1070
     6
1000
_OPEN
1070
     7
1000
_OPEN
1070
    41
1040
5.000000
1002
}
  0
DIMENSION
  5
168
100
AcDbEntity
  8
MAIN0
  6
CONTINUOUS
 62
3
100
AcDbDimension
  2
*D22
 10
528.7543985554113
 20
455.4518980340733
 30
0.0000000000000000
 11
514.2543985554112
 21
455.9518980340733
 31
0.0000000000000000
 70
32
  3
MAIN001
100
AcDbAlignedDimension
 13
499.7543985554111
 23
418.0959685536295
 33
0.0000000000000000
 14
528.7543985554113
 24
417.7959685536295
 34
0.0000000000000000
100
AcDbRotatedDimension
1001
ACAD
1000
DSTYLE
1002
{
1070
   173
1070
     1
1070
     6
1000
_OPEN
1070
     7
1000
_OPEN
1070
    41
1040
5.000000
1002
}
  0
DIMENSION
  5
171
100
AcDbEntity
  8
MAIN0
  6
CONTINUOUS
 62
3
100
AcDbDimension
  2
*D23
 10
284.7543985554225
 20
226.2959685536209
 30
0.0000000000000000
 11
500.5043985554194
 21
226.7959685536209
 31
0.0000000000000000
 70
32
  3
MAIN001
100
AcDbAlignedDimension
 13
716.2543985554162
 23
322.2959685533493
 33
0.0000000000000000
 14
284.7543985554225
 24
313.6959685537676
 34
0.0000000000000000
100
AcDbRotatedDimension
1001
ACAD
1000
DSTYLE
1002
{
1070
   173
1070
     1
1070
     6
1000
_OPEN
1070
     7
1000
_OPEN
1070
    41
1040
5.000000
1002
}
  0
ARC
  5
172
100
AcDbEntity
  8
MAIN0
  6
CONTINUOUS
 62
3
100
AcDbCircle
 10
101.7543985553466
 20
330.2959685540019
 30
0.0000000000000000
 40
6.000000000000000
100
AcDbArc
 50
180.0000000000000
 51
270.0000000000000
  0
LINE
  5
173
100
AcDbEntity
  8
MAIN0
  6
CONTINUOUS
 62
3
100
AcDbLine
 10
101.7543985553481
 20
324.2959685539186
 30
0.0000000000000000
 11
104.7543985553579
 21
324.2959685539194
 31
0.0000000000000000
  0
LINE
  5
174
100
AcDbEntity
  8
MAIN0
  6
CONTINUOUS
 62
3
100
AcDbLine
 10
95.75439855531774
 20
346.8959685536233
 30
0.0000000000000000
 11
95.75439855534820
 21
330.2959685539909
 31
0.0000000000000000
  0
LINE
  5
175
100
AcDbEntity
  8
MAIN0
  6
CONTINUOUS
 62
3
100
AcDbLine
 10
95.35439855531709
 20
347.2959685536274
 30
0.0000000000000000
 11
89.75439855531786
 21
347.2959685536279
 31
0.0000000000000000
  0
LINE
  5
176
100
AcDbEntity
  8
MAIN0
  6
CONTINUOUS
 62
3
100
AcDbLine
 10
89.75439855529524
 20
359.2959685536276
 30
0.0000000000000000
 11
89.75439855531735
 21
347.2959685536276
 31
0.0000000000000000
  0
LINE
  5
177
100
AcDbEntity
  8
MAIN0
  6
CONTINUOUS
 62
3
100
AcDbLine
 10
94.35439855529532
 20
359.2959685536271
 30
0.0000000000000000
 11
89.75439855529518
 21
359.2959685536277
 31
0.0000000000000000
  0
LINE
  5
178
100
AcDbEntity
  8
MAIN0
  6
CONTINUOUS
 62
3
100
AcDbLine
 10
94.75439855526729
 20
374.4959685536754
 30
0.0000000000000000
 11
94.75439855529457
 21
359.6959685536270
 31
0.0000000000000000
  0
LINE
  5
179
100
AcDbEntity
  8
MAIN0
  6
CONTINUOUS
 62
3
100
AcDbLine
 10
146.1543985553178
 20
347.2959685537263
 30
0.0000000000000000
 11
151.7543985553175
 21
347.2959685537421
 31
0.0000000000000000
  0
LINE
  5
17A
100
AcDbEntity
  8
MAIN0
  6
CONTINUOUS
 62
3
100
AcDbLine
 10
151.7543985552950
 20
359.2959685537422
 30
0.0000000000000000
 11
151.7543985553172
 21
347.2959685537422
 31
0.0000000000000000
  0
LINE
  5
17B
100
AcDbEntity
  8
MAIN0
  6
CONTINUOUS
 62
3
100
AcDbLine
 10
147.1543985552953
 20
359.2959685537245
 30
0.0000000000000000
 11
151.7543985552954
 21
359.2959685537421
 31
0.0000000000000000
  0
LINE
  5
17C
100
AcDbEntity
  8
MAIN0
  6
CONTINUOUS
 62
3
100
AcDbLine
 10
146.7543985552946
 20
359.6959685537232
 30
0.0000000000000000
 11
147.1543985552953
 21
359.2959685537247
 31
0.0000000000000000
  0
LINE
  5
17D
100
AcDbEntity
  8
MAIN0
  6
CONTINUOUS
 62
3
100
AcDbLine
 10
94.35439855529540
 20
359.2959685536274
 30
0.0000000000000000
 11
94.75439855529467
 21
359.6959685536273
 31
0.0000000000000000
  0
LINE
  5
17E
100
AcDbEntity
  8
MAIN0
  6
CONTINUOUS
 62
3
100
AcDbLine
 10
95.35439855531715
 20
347.2959685536273
 30
0.0000000000000000
 11
95.75439855531791
 21
346.8959685536272
 31
0.0000000000000000
  0
LINE
  5
17F
100
AcDbEntity
  8
MAIN0
  6
CONTINUOUS
 62
3
100
AcDbLine
 10
145.7543985553179
 20
346.8959685537192
 30
0.0000000000000000
 11
145.7543985553483
 21
330.2959685540873
 31
0.0000000000000000
  0
LINE
  5
180
100
AcDbEntity
  8
MAIN0
  6
CONTINUOUS
 62
3
100
AcDbLine
 10
146.1543985553177
 20
347.2959685537210
 30
0.0000000000000000
 11
145.7543985553185
 21
346.8959685537194
 31
0.0000000000000000
  0
ARC
  5
181
100
AcDbEntity
  8
MAIN0
  6
CONTINUOUS
 62
3
100
AcDbCircle
 10
139.7543985553466
 20
330.2959685540762
 30
0.0000000000000000
 40
6.000000000000000
100
AcDbArc
 50
270.0000000000000
 51
360.0000000000000
  0
LINE
  5
182
100
AcDbEntity
  8
MAIN0
  6
CONTINUOUS
 62
3
100
AcDbLine
 10
139.7543985553675
 20
324.2959685539886
 30
0.0000000000000000
 11
136.7543985553577
 21
324.2959685539784
 31
0.0000000000000000
  0
LINE
  5
183
100
AcDbEntity
  8
MAIN0
  6
CONTINUOUS
 62
3
100
AcDbLine
 10
104.7543985553596
 20
324.2959685546898
 30
0.0000000000000000
 11
136.7543985553594
 21
324.2959685548087
 31
0.0000000000000000
  0
LINE
  5
184
100
AcDbEntity
  8
MAIN0
  6
CONTINUOUS
 62
3
100
AcDbLine
 10
94.75439855526913
 20
373.4959685536313
 30
0.0000000000000000
 11
146.7543985553888
 21
373.4959685536306
 31
0.0000000000000000
  0
LINE
  5
185
100
AcDbEntity
  8
MAIN0
  6
CONTINUOUS
 62
3
100
AcDbLine
 10
95.75439855534913
 20
329.7959685546563
 30
0.0000000000000000
 11
145.7543985553492
 21
329.7959685548422
 31
0.0000000000000000
  0
LINE
  5
186
100
AcDbEntity
  8
MAIN0
  6
CONTINUOUS
 62
3
100
AcDbLine
 10
320.7543985554169
 20
652.1013205462897
 30
0.0000000000000000
 11
320.3543985554169
 21
652.5013205462897
 31
0.0000000000000000
  0
LINE
  5
187
100
AcDbEntity
  8
MAIN0
  6
CONTINUOUS
 62
3
100
AcDbLine
 10
320.3543985554165
 20
552.5013205462893
 30
0.0000000000000000
 11
320.7543985554166
 21
552.9013205462894
 31
0.0000000000000000
  0
LINE
  5
188
100
AcDbEntity
  8
MAIN0
  6
CONTINUOUS
 62
3
100
AcDbLine
 10
528.7543984977788
 20
652.1013205461998
 30
0.0000000000000000
 11
529.1543984977786
 21
652.5013205461996
 31
0.0000000000000000
  0
LINE
  5
189
100
AcDbEntity
  8
MAIN0
  6
CONTINUOUS
 62
3
100
AcDbLine
 10
528.7543984977788
 20
552.9013205461995
 30
0.0000000000000000
 11
529.1543984977787
 21
552.5013205461995
 31
0.0000000000000000
  0
LINE
  5
18A
100
AcDbEntity
  8
MAIN0
  6
CONTINUOUS
 62
3
100
AcDbLine
 10
321.3543985549899
 20
652.5013205459229
 30
0.0000000000000000
 11
358.2543985558483
 21
652.5013205458574
 31
0.0000000000000000
  0
LINE
  5
18B
100
AcDbEntity
  8
MAIN0
  6
CONTINUOUS
 62
3
100
AcDbLine
 10
321.3543985552735
 20
552.5013205464929
 30
0.0000000000000000
 11
358.2543985556201
 21
552.5013205464929
 31
0.0000000000000000
  0
LINE
  5
18C
100
AcDbEntity
  8
MAIN0
  6
CONTINUOUS
 62
3
100
AcDbLine
 10
500.2543984962097
 20
652.5013205446303
 30
0.0000000000000000
 11
528.1543984993485
 21
652.5013205446303
 31
0.0000000000000000
  0
LINE
  5
18D
100
AcDbEntity
  8
MAIN0
  6
CONTINUOUS
 62
3
100
AcDbLine
 10
500.2543984984600
 20
552.5013205455177
 30
0.0000000000000000
 11
528.1543984971463
 21
552.5013205455672
 31
0.0000000000000000
  0
LINE
  5
18E
100
AcDbEntity
  8
MAIN0
  6
CONTINUOUS
 62
3
100
AcDbLine
 10
563.7543984975126
 20
551.0013205470521
 30
0.0000000000000000
 11
563.7543984976419
 21
654.0013205470521
 31
0.0000000000000000
  0
LINE
  5
18F
100
AcDbEntity
  8
MAIN0
  6
CONTINUOUS
 62
3
100
AcDbLine
 10
285.9543985548330
 20
418.2959685530514
 30
0.0000000000000000
 11
320.5543985563031
 21
418.2959685530514
 31
0.0000000000000000
  0
LINE
  5
190
100
AcDbEntity
  8
MAIN0
  6
CONTINUOUS
 62
3
100
AcDbLine
 10
321.2543985551469
 20
418.2959685530514
 30
0.0000000000000000
 11
358.5543985559891
 21
418.2959685530514
 31
0.0000000000000000
  0
LINE
  5
191
100
AcDbEntity
  8
MAIN0
  6
CONTINUOUS
 62
3
100
AcDbLine
 10
499.9543985548328
 20
418.2959685530514
 30
0.0000000000000000
 11
528.2543985554108
 21
418.2959685530514
 31
0.0000000000000000
  0
LINE
  5
192
100
AcDbEntity
  8
MAIN0
  6
CONTINUOUS
 62
3
100
AcDbLine
 10
563.7543985559288
 20
396.4959685541538
 30
0.0000000000000000
 11
563.7543985559273
 21
397.6959685531396
 31
0.0000000000000000
  0
LINE
  5
193
100
AcDbEntity
  8
MAIN0
  6
CONTINUOUS
 62
3
100
AcDbLine
 10
285.7543985552447
 20
398.8959685537957
 30
0.0000000000000000
 11
285.7543985552326
 21
418.0959685534510
 31
0.0000000000000000
  0
LINE
  5
194
100
AcDbEntity
  8
MAIN0
  6
CONTINUOUS
 62
3
100
AcDbLine
 10
285.7543985552574
 20
378.6959685537832
 30
0.0000000000000000
 11
285.7543985552455
 21
397.6959685534639
 31
0.0000000000000000
  0
LEADER
  5
195
100
AcDbEntity
  8
MAIN0
  6
CONTINUOUS
 62
3
100
AcDbLeader
  3
MAIN001
 73
     0
 75
     1
 40
7.500000000000000
 41
60.74899839067462
 76
     3
 10
879.6941143777151
 20
341.9438293281808
 30
0.0000000000000000
 10
819.5061574244589
 20
229.2786218989027
 30
0.0000000000000000
 10
815.3051574244589
 20
229.2786218989027
 30
0.0000000000000000
340
196
213
0.0000000000000000
223
-1.250000000000000
233
0.0000000000000000
1001
ACAD
1000
DSTYLE
1002
{
1070
   147
1040
0.0
1070
    77
1070
     1
1070
   173
1070
     1
1070
     6
1000
_DOT
1070
     7
1000
_DOT
1002
}
  0
MTEXT
  5
196
102
{ACAD_REACTORS
330
195
102
}
100
AcDbEntity
  8
MAIN0
  6
CONTINUOUS
 62
3
100
AcDbMText
 10
754.5561590337843
 20
238.0286218989027
 30
0.0000000000000000
 40
7.500000000000000
 41
0.0000000000000000
 71
     1
 72
     1
  1
{\H0.60x;{六角穴付ボルト\PHEX,SOCKETHEAD\PCAP SCREW\PM12×45}}
 11
1.000000000000000
 21
0.0000000000000000
 31
0.0000000000000000
  7
KNJYOKO
  0
MTEXT
  5
197
100
AcDbEntity
  8
MAIN0
  6
CONTINUOUS
 62
3
100
AcDbMText
 10
701.7828257961742
 20
178.2164489741670
 30
0.0000000000000000
 40
7.749999761581421
 41
0.0000000000000000
 71
     1
 72
     1
  1
{\H0.70x;{(クランプ器具４セット付属)}}
 11
1.000000000000000
 21
0.0000000000000000
 31
0.0000000000000000
  7
KNJYOKO
  0
MTEXT
  5
198
100
AcDbEntity
  8
MAIN0
  6
CONTINUOUS
 62
3
100
AcDbMText
 10
701.7828257961742
 20
165.4664492125856
 30
0.0000000000000000
 40
7.500000000000000
 41
0.0000000000000000
 71
     1
 72
     1
  1
{\H0.63x;{(CLAMPING PARTS  ACCESSARY 4 PAIR)}}
 11
1.000000000000000
 21
0.0000000000000000
 31
0.0000000000000000
  7
STANDARD
  0
DIMENSION
  5
1A2
100
AcDbEntity
  8
MAIN0
  6
CONTINUOUS
 62
3
100
AcDbDimension
  2
*D24
 10
901.7285002275627
 20
258.2959685536208
 30
0.0000000000000000
 11
892.9174911159266
 21
259.5459685536208
 31
0.0000000000000000
 70
160
  3
MAIN001
100
AcDbAlignedDimension
 13
884.7285002275630
 23
179.0072298986978
 33
0.0000000000000000
 14
901.7285002275627
 24
313.2959685534461
 34
0.0000000000000000
100
AcDbRotatedDimension
1001
ACAD
1000
DSTYLE
1002
{
1070
   173
1070
     1
1070
     6
1000
_OPEN
1070
     7
1000
_OPEN
1070
    41
1040
5.000000
1070
   287
1070
     0
1002
}
  0
DIMENSION
  5
1AB
100
AcDbEntity
  8
MAIN0
  6
CONTINUOUS
 62
3
100
AcDbDimension
  2
*D25
 10
1004.728500227562
 20
242.2959685536209
 30
0.0000000000000000
 11
953.2285002275626
 21
242.7959685536209
 31
0.0000000000000000
 70
32
  3
MAIN001
100
AcDbAlignedDimension
 13
901.7285002275627
 23
313.2959685534461
 33
0.0000000000000000
 14
1004.728500227562
 24
313.2959685534461
 34
0.0000000000000000
100
AcDbRotatedDimension
1001
ACAD
1000
DSTYLE
1002
{
1070
   173
1070
     1
1070
     6
1000
_OPEN
1070
     7
1000
_OPEN
1070
    41
1040
5.000000
1002
}
  0
DIMENSION
  5
1B4
100
AcDbEntity
  8
MAIN0
  6
CONTINUOUS
 62
3
100
AcDbDimension
  2
*D26
 10
901.7285002275627
 20
242.2959685536209
 30
0.0000000000000000
 11
876.6068451673060
 21
243.5459685536209
 31
0.0000000000000000
 70
160
  3
MAIN001
100
AcDbAlignedDimension
 13
861.7285002275627
 23
334.2959685534462
 33
0.0000000000000000
 14
901.7285002275627
 24
313.2959685534461
 34
0.0000000000000000
100
AcDbRotatedDimension
1001
ACAD
1000
DSTYLE
1002
{
1070
   173
1070
     1
1070
     6
1000
_OPEN
1070
     7
1000
_OPEN
1070
    41
1040
5.000000
1002
}
  0
INSERT
  5
1BC
100
AcDbEntity
  8
MAIN0
  6
CONTINUOUS
 62
3
100
AcDbBlockReference
  2
D27
 10
953.2285002275630
 20
303.3007609429373
 30
0.0000000000000000
 50
0.0000000000000000
  0
LINE
  5
1BD
100
AcDbEntity
  8
MAIN0
  6
CENTER
 62
3
100
AcDbLine
 10
559.7543984976780
 20
584.0013205462010
 30
0.0000000000000000
 11
538.7543984976780
 21
584.0013205462371
 31
0.0000000000000000
  0
LINE
  5
1BE
100
AcDbEntity
  8
MAIN0
  6
CENTER
 62
3
100
AcDbLine
 10
549.2543984976600
 20
573.5013205462192
 30
0.0000000000000000
 11
549.2543984976961
 21
594.5013205462192
 31
0.0000000000000000
  0
CIRCLE
  5
1BF
100
AcDbEntity
  8
MAIN0
  6
HIDDEN
 62
3
100
AcDbCircle
 10
549.2543984976780
 20
584.0013205462191
 30
0.0000000000000000
 40
8.500000000000000
  0
CIRCLE
  5
1C0
100
AcDbEntity
  8
MAIN0
  6
HIDDEN
 62
3
100
AcDbCircle
 10
549.2543984976780
 20
584.0013205462192
 30
0.0000000000000000
 40
8.000000000000000
  0
LINE
  5
1C1
100
AcDbEntity
  8
MAIN0
  6
HIDDEN
 62
3
100
AcDbLine
 10
553.8732006511950
 20
584.0013205462113
 30
0.0000000000000000
 11
551.5637995744295
 21
580.0013205462150
 31
0.0000000000000000
  0
LINE
  5
1C2
100
AcDbEntity
  8
MAIN0
  6
HIDDEN
 62
3
100
AcDbLine
 10
551.5637995744297
 20
580.0013205462152
 30
0.0000000000000000
 11
546.9449974209127
 21
580.0013205462232
 31
0.0000000000000000
  0
LINE
  5
1C3
100
AcDbEntity
  8
MAIN0
  6
HIDDEN
 62
3
100
AcDbLine
 10
546.9449974209133
 20
580.0013205462226
 30
0.0000000000000000
 11
544.6355963441617
 21
584.0013205462267
 31
0.0000000000000000
  0
LINE
  5
1C4
100
AcDbEntity
  8
MAIN0
  6
HIDDEN
 62
3
100
AcDbLine
 10
544.6355963441612
 20
584.0013205462267
 30
0.0000000000000000
 11
546.9449974209267
 21
588.0013205462230
 31
0.0000000000000000
  0
LINE
  5
1C5
100
AcDbEntity
  8
MAIN0
  6
HIDDEN
 62
3
100
AcDbLine
 10
546.9449974209265
 20
588.0013205462232
 30
0.0000000000000000
 11
551.5637995744435
 21
588.0013205462152
 31
0.0000000000000000
  0
LINE
  5
1C6
100
AcDbEntity
  8
MAIN0
  6
HIDDEN
 62
3
100
AcDbLine
 10
551.5637995744437
 20
588.0013205462153
 30
0.0000000000000000
 11
553.8732006511951
 21
584.0013205462115
 31
0.0000000000000000
  0
CIRCLE
  5
1C7
100
AcDbEntity
  8
MAIN0
  6
CONTINUOUS
 62
3
100
AcDbCircle
 10
514.2543984977340
 20
584.0013205459238
 30
0.0000000000000000
 40
8.750000000000000
  0
LINE
  5
1C8
100
AcDbEntity
  8
MAIN0
  6
CENTER
 62
3
100
AcDbLine
 10
524.7543984977658
 20
621.0013205463698
 30
0.0000000000000000
 11
503.7543984977659
 21
621.0013205464060
 31
0.0000000000000000
  0
LINE
  5
1C9
100
AcDbEntity
  8
MAIN0
  6
CENTER
 62
3
100
AcDbLine
 10
514.2543984977477
 20
610.5013205463879
 30
0.0000000000000000
 11
514.2543984977839
 21
631.5013205463879
 31
0.0000000000000000
  0
CIRCLE
  5
1CA
100
AcDbEntity
  8
MAIN0
  6
HIDDEN
 62
3
100
AcDbCircle
 10
514.2543984977658
 20
621.0013205463879
 30
0.0000000000000000
 40
8.000000000000000
  0
LINE
  5
1CB
100
AcDbEntity
  8
MAIN0
  6
HIDDEN
 62
3
100
AcDbLine
 10
518.8732006512830
 20
621.0013205463798
 30
0.0000000000000000
 11
516.5637995745177
 21
617.0013205463838
 31
0.0000000000000000
  0
LINE
  5
1CC
100
AcDbEntity
  8
MAIN0
  6
HIDDEN
 62
3
100
AcDbLine
 10
516.5637995745175
 20
617.0013205463839
 30
0.0000000000000000
 11
511.9449974210006
 21
617.0013205463919
 31
0.0000000000000000
  0
LINE
  5
1CD
100
AcDbEntity
  8
MAIN0
  6
HIDDEN
 62
3
100
AcDbLine
 10
511.9449974210008
 20
617.0013205463913
 30
0.0000000000000000
 11
509.6355963442489
 21
621.0013205463960
 31
0.0000000000000000
  0
LINE
  5
1CE
100
AcDbEntity
  8
MAIN0
  6
HIDDEN
 62
3
100
AcDbLine
 10
509.6355963442491
 20
621.0013205463955
 30
0.0000000000000000
 11
511.9449974210145
 21
625.0013205463915
 31
0.0000000000000000
  0
LINE
  5
1CF
100
AcDbEntity
  8
MAIN0
  6
HIDDEN
 62
3
100
AcDbLine
 10
511.9449974210143
 20
625.0013205463919
 30
0.0000000000000000
 11
516.5637995745313
 21
625.0013205463839
 31
0.0000000000000000
  0
LINE
  5
1D0
100
AcDbEntity
  8
MAIN0
  6
HIDDEN
 62
3
100
AcDbLine
 10
516.5637995745315
 20
625.0013205463838
 30
0.0000000000000000
 11
518.8732006512830
 21
621.0013205463799
 31
0.0000000000000000
  0
CIRCLE
  5
1D1
100
AcDbEntity
  8
MAIN0
  6
CONTINUOUS
 62
3
100
AcDbCircle
 10
514.2543984977658
 20
621.0013205463879
 30
0.0000000000000000
 40
8.750000000000000
  0
LINE
  5
1D2
100
AcDbEntity
  8
MAIN0
  6
CONTINUOUS
 62
3
100
AcDbLine
 10
540.6355963443408
 20
637.5013205456538
 30
0.0000000000000000
 11
542.9449974211062
 21
641.5013205456497
 31
0.0000000000000000
  0
LINE
  5
1D3
100
AcDbEntity
  8
MAIN0
  6
CONTINUOUS
 62
3
100
AcDbLine
 10
542.9449974211060
 20
641.5013205456502
 30
0.0000000000000000
 11
547.5637995746230
 21
641.5013205456422
 31
0.0000000000000000
  0
LINE
  5
1D4
100
AcDbEntity
  8
MAIN0
  6
CONTINUOUS
 62
3
100
AcDbLine
 10
547.5637995746233
 20
641.5013205456421
 30
0.0000000000000000
 11
549.8732006513749
 21
637.5013205456382
 31
0.0000000000000000
  0
LINE
  5
1D5
100
AcDbEntity
  8
MAIN0
  6
CONTINUOUS
 62
3
100
AcDbLine
 10
549.8732006513748
 20
637.5013205456381
 30
0.0000000000000000
 11
547.5637995746095
 21
633.5013205456421
 31
0.0000000000000000
  0
LINE
  5
1D6
100
AcDbEntity
  8
MAIN0
  6
CONTINUOUS
 62
3
100
AcDbLine
 10
547.5637995746092
 20
633.5013205456422
 30
0.0000000000000000
 11
542.9449974210922
 21
633.5013205456502
 31
0.0000000000000000
  0
LINE
  5
1D7
100
AcDbEntity
  8
MAIN0
  6
CONTINUOUS
 62
3
100
AcDbLine
 10
542.9449974210925
 20
633.5013205456496
 30
0.0000000000000000
 11
540.6355963443407
 21
637.5013205456543
 31
0.0000000000000000
  0
CIRCLE
  5
1D8
100
AcDbEntity
  8
MAIN0
  6
CONTINUOUS
 62
3
100
AcDbCircle
 10
545.2543984978576
 20
637.5013205456462
 30
0.0000000000000000
 40
8.000000000000000
  0
LINE
  5
1D9
100
AcDbEntity
  8
MAIN0
  6
CONTINUOUS
 62
3
100
AcDbLine
 10
540.6355963442807
 20
567.5013205466125
 30
0.0000000000000000
 11
542.9449974210392
 21
563.5013205466127
 31
0.0000000000000000
  0
LINE
  5
1DA
100
AcDbEntity
  8
MAIN0
  6
CONTINUOUS
 62
3
100
AcDbLine
 10
542.9449974210389
 20
563.5013205466122
 30
0.0000000000000000
 11
547.5637995745559
 21
563.5013205466122
 31
0.0000000000000000
  0
LINE
  5
1DB
100
AcDbEntity
  8
MAIN0
  6
CONTINUOUS
 62
3
100
AcDbLine
 10
547.5637995745561
 20
563.5013205466125
 30
0.0000000000000000
 11
549.8732006513146
 21
567.5013205466124
 31
0.0000000000000000
  0
LINE
  5
1DC
100
AcDbEntity
  8
MAIN0
  6
CONTINUOUS
 62
3
100
AcDbLine
 10
549.8732006513144
 20
567.5013205466122
 30
0.0000000000000000
 11
547.5637995745560
 21
571.5013205466122
 31
0.0000000000000000
  0
LINE
  5
1DD
100
AcDbEntity
  8
MAIN0
  6
CONTINUOUS
 62
3
100
AcDbLine
 10
547.5637995745559
 20
571.5013205466122
 30
0.0000000000000000
 11
542.9449974210389
 21
571.5013205466122
 31
0.0000000000000000
  0
LINE
  5
1DE
100
AcDbEntity
  8
MAIN0
  6
CONTINUOUS
 62
3
100
AcDbLine
 10
542.9449974210392
 20
571.5013205466123
 30
0.0000000000000000
 11
540.6355963442804
 21
567.5013205466117
 31
0.0000000000000000
  0
CIRCLE
  5
1DF
100
AcDbEntity
  8
MAIN0
  6
CONTINUOUS
 62
3
100
AcDbCircle
 10
545.2543984977973
 20
567.5013205466122
 30
0.0000000000000000
 40
8.000000000000000
  0
CIRCLE
  5
1E0
100
AcDbEntity
  8
MAIN0
  6
CONTINUOUS
 62
3
100
AcDbCircle
 10
344.2543985560565
 20
602.5013205463022
 30
0.0000000000000000
 40
4.000000000000000
  0
CIRCLE
  5
1E1
100
AcDbEntity
  8
MAIN0
  6
CONTINUOUS
 62
3
100
AcDbCircle
 10
344.2543985560565
 20
602.5013205463022
 30
0.0000000000000000
 40
3.323417500000000
  0
LINE
  5
1E2
100
AcDbEntity
  8
MAIN0
  6
CENTER
 62
3
100
AcDbLine
 10
289.7543985553326
 20
564.5013205461668
 30
0.0000000000000000
 11
310.7543985553326
 21
564.5013205461307
 31
0.0000000000000000
  0
LINE
  5
1E3
100
AcDbEntity
  8
MAIN0
  6
CENTER
 62
3
100
AcDbLine
 10
300.2543985553508
 20
575.0013205461488
 30
0.0000000000000000
 11
300.2543985553147
 21
554.0013205461488
 31
0.0000000000000000
  0
CIRCLE
  5
1E4
100
AcDbEntity
  8
MAIN0
  6
HIDDEN
 62
3
100
AcDbCircle
 10
300.2543985553326
 20
564.5013205461486
 30
0.0000000000000000
 40
8.500000000000000
  0
CIRCLE
  5
1E5
100
AcDbEntity
  8
MAIN0
  6
HIDDEN
 62
3
100
AcDbCircle
 10
300.2543985553327
 20
564.5013205461486
 30
0.0000000000000000
 40
8.000000000000000
  0
LINE
  5
1E6
100
AcDbEntity
  8
MAIN0
  6
HIDDEN
 62
3
100
AcDbLine
 10
295.6355964018157
 20
564.5013205461565
 30
0.0000000000000000
 11
297.9449974785811
 21
568.5013205461526
 31
0.0000000000000000
  0
LINE
  5
1E7
100
AcDbEntity
  8
MAIN0
  6
HIDDEN
 62
3
100
AcDbLine
 10
297.9449974785811
 20
568.5013205461528
 30
0.0000000000000000
 11
302.5637996320980
 21
568.5013205461449
 31
0.0000000000000000
  0
LINE
  5
1E8
100
AcDbEntity
  8
MAIN0
  6
HIDDEN
 62
3
100
AcDbLine
 10
302.5637996320983
 20
568.5013205461444
 30
0.0000000000000000
 11
304.8732007088498
 21
564.5013205461405
 31
0.0000000000000000
  0
LINE
  5
1E9
100
AcDbEntity
  8
MAIN0
  6
HIDDEN
 62
3
100
AcDbLine
 10
304.8732007088497
 20
564.5013205461406
 30
0.0000000000000000
 11
302.5637996320842
 21
560.5013205461447
 31
0.0000000000000000
  0
LINE
  5
1EA
100
AcDbEntity
  8
MAIN0
  6
HIDDEN
 62
3
100
AcDbLine
 10
302.5637996320843
 20
560.5013205461448
 30
0.0000000000000000
 11
297.9449974785673
 21
560.5013205461528
 31
0.0000000000000000
  0
LINE
  5
1EB
100
AcDbEntity
  8
MAIN0
  6
HIDDEN
 62
3
100
AcDbLine
 10
297.9449974785674
 20
560.5013205461523
 30
0.0000000000000000
 11
295.6355964018156
 21
564.5013205461565
 31
0.0000000000000000
  0
CIRCLE
  5
1EC
100
AcDbEntity
  8
MAIN0
  6
CONTINUOUS
 62
3
100
AcDbCircle
 10
344.2543985554067
 20
564.5013205466132
 30
0.0000000000000000
 40
8.750000000000000
  0
LINE
  5
1ED
100
AcDbEntity
  8
MAIN0
  6
CENTER
 62
3
100
AcDbLine
 10
333.7543985554721
 20
640.5013205460092
 30
0.0000000000000000
 11
354.7543985554721
 21
640.5013205459732
 31
0.0000000000000000
  0
LINE
  5
1EE
100
AcDbEntity
  8
MAIN0
  6
CENTER
 62
3
100
AcDbLine
 10
344.2543985554902
 20
651.0013205459912
 30
0.0000000000000000
 11
344.2543985554542
 21
630.0013205459912
 31
0.0000000000000000
  0
CIRCLE
  5
1EF
100
AcDbEntity
  8
MAIN0
  6
HIDDEN
 62
3
100
AcDbCircle
 10
344.2543985554722
 20
640.5013205459910
 30
0.0000000000000000
 40
8.000000000000000
  0
LINE
  5
1F0
100
AcDbEntity
  8
MAIN0
  6
HIDDEN
 62
3
100
AcDbLine
 10
339.6355964019552
 20
640.5013205459989
 30
0.0000000000000000
 11
341.9449974787206
 21
644.5013205459949
 31
0.0000000000000000
  0
LINE
  5
1F1
100
AcDbEntity
  8
MAIN0
  6
HIDDEN
 62
3
100
AcDbLine
 10
341.9449974787206
 20
644.5013205459952
 30
0.0000000000000000
 11
346.5637996322375
 21
644.5013205459874
 31
0.0000000000000000
  0
LINE
  5
1F2
100
AcDbEntity
  8
MAIN0
  6
HIDDEN
 62
3
100
AcDbLine
 10
346.5637996322378
 20
644.5013205459869
 30
0.0000000000000000
 11
348.8732007089894
 21
640.5013205459829
 31
0.0000000000000000
  0
LINE
  5
1F3
100
AcDbEntity
  8
MAIN0
  6
HIDDEN
 62
3
100
AcDbLine
 10
348.8732007089893
 20
640.5013205459829
 30
0.0000000000000000
 11
346.5637996322238
 21
636.5013205459869
 31
0.0000000000000000
  0
LINE
  5
1F4
100
AcDbEntity
  8
MAIN0
  6
HIDDEN
 62
3
100
AcDbLine
 10
346.5637996322238
 20
636.5013205459873
 30
0.0000000000000000
 11
341.9449974787068
 21
636.5013205459952
 31
0.0000000000000000
  0
LINE
  5
1F5
100
AcDbEntity
  8
MAIN0
  6
HIDDEN
 62
3
100
AcDbLine
 10
341.9449974787069
 20
636.5013205459948
 30
0.0000000000000000
 11
339.6355964019551
 21
640.5013205459991
 31
0.0000000000000000
  0
CIRCLE
  5
1F6
100
AcDbEntity
  8
MAIN0
  6
CONTINUOUS
 62
3
100
AcDbCircle
 10
344.2543985554722
 20
640.5013205459911
 30
0.0000000000000000
 40
8.750000000000000
  0
LINE
  5
1F7
100
AcDbEntity
  8
MAIN0
  6
CONTINUOUS
 62
3
100
AcDbLine
 10
301.9449974786650
 20
629.0013205459525
 30
0.0000000000000000
 11
306.5637996321819
 21
629.0013205459446
 31
0.0000000000000000
  0
LINE
  5
1F8
100
AcDbEntity
  8
MAIN0
  6
CONTINUOUS
 62
3
100
AcDbLine
 10
299.6355964018997
 20
625.0013205459561
 30
0.0000000000000000
 11
301.9449974786650
 21
629.0013205459522
 31
0.0000000000000000
  0
LINE
  5
1F9
100
AcDbEntity
  8
MAIN0
  6
CONTINUOUS
 62
3
100
AcDbLine
 10
301.9449974786513
 20
621.0013205459520
 30
0.0000000000000000
 11
299.6355964018996
 21
625.0013205459563
 31
0.0000000000000000
  0
LINE
  5
1FA
100
AcDbEntity
  8
MAIN0
  6
CONTINUOUS
 62
3
100
AcDbLine
 10
306.5637996321682
 20
621.0013205459445
 30
0.0000000000000000
 11
301.9449974786512
 21
621.0013205459525
 31
0.0000000000000000
  0
LINE
  5
1FB
100
AcDbEntity
  8
MAIN0
  6
CONTINUOUS
 62
3
100
AcDbLine
 10
308.8732007089337
 20
625.0013205459403
 30
0.0000000000000000
 11
306.5637996321682
 21
621.0013205459442
 31
0.0000000000000000
  0
LINE
  5
1FC
100
AcDbEntity
  8
MAIN0
  6
CONTINUOUS
 62
3
100
AcDbLine
 10
306.5637996321822
 20
629.0013205459442
 30
0.0000000000000000
 11
308.8732007089337
 21
625.0013205459402
 31
0.0000000000000000
  0
CIRCLE
  5
1FD
100
AcDbEntity
  8
MAIN0
  6
CONTINUOUS
 62
3
100
AcDbCircle
 10
304.2543985554166
 20
625.0013205459483
 30
0.0000000000000000
 40
8.000000000000000
  0
LINE
  5
1FE
100
AcDbEntity
  8
MAIN0
  6
CONTINUOUS
 62
3
100
AcDbLine
 10
301.9449974786649
 20
584.0013205458549
 30
0.0000000000000000
 11
306.5637996321819
 21
584.0013205458471
 31
0.0000000000000000
  0
LINE
  5
1FF
100
AcDbEntity
  8
MAIN0
  6
CONTINUOUS
 62
3
100
AcDbLine
 10
299.6355964018997
 20
580.0013205458587
 30
0.0000000000000000
 11
301.9449974786650
 21
584.0013205458547
 31
0.0000000000000000
  0
LINE
  5
200
100
AcDbEntity
  8
MAIN0
  6
CONTINUOUS
 62
3
100
AcDbLine
 10
301.9449974786513
 20
576.0013205458545
 30
0.0000000000000000
 11
299.6355964018996
 21
580.0013205458587
 31
0.0000000000000000
  0
LINE
  5
201
100
AcDbEntity
  8
MAIN0
  6
CONTINUOUS
 62
3
100
AcDbLine
 10
306.5637996321681
 20
576.0013205458470
 30
0.0000000000000000
 11
301.9449974786512
 21
576.0013205458549
 31
0.0000000000000000
  0
LINE
  5
202
100
AcDbEntity
  8
MAIN0
  6
CONTINUOUS
 62
3
100
AcDbLine
 10
308.8732007089337
 20
580.0013205458428
 30
0.0000000000000000
 11
306.5637996321682
 21
576.0013205458466
 31
0.0000000000000000
  0
LINE
  5
203
100
AcDbEntity
  8
MAIN0
  6
CONTINUOUS
 62
3
100
AcDbLine
 10
306.5637996321821
 20
584.0013205458466
 30
0.0000000000000000
 11
308.8732007089336
 21
580.0013205458427
 31
0.0000000000000000
  0
CIRCLE
  5
204
100
AcDbEntity
  8
MAIN0
  6
CONTINUOUS
 62
3
100
AcDbCircle
 10
304.2543985554165
 20
580.0013205458507
 30
0.0000000000000000
 40
8.000000000000000
  0
LINE
  5
205
100
AcDbEntity
  8
MAIN0
  6
PHANTOM
 62
3
100
AcDbLine
 10
899.7285002275582
 20
313.2959685534460
 30
0.0000000000000000
 11
855.6285002275583
 21
313.2959685534460
 31
0.0000000000000000
  0
CIRCLE
  5
206
100
AcDbEntity
  8
MAIN0
  6
CONTINUOUS
 62
3
100
AcDbCircle
 10
304.2543985554164
 20
580.0013205458508
 30
0.0000000000000000
 40
8.500000000000000
  0
CIRCLE
  5
207
100
AcDbEntity
  8
MAIN0
  6
CONTINUOUS
 62
3
100
AcDbCircle
 10
304.2543985554165
 20
625.0013205459484
 30
0.0000000000000000
 40
8.500000000000000
  0
CIRCLE
  5
208
100
AcDbEntity
  8
MAIN0
  6
CONTINUOUS
 62
3
100
AcDbCircle
 10
545.2543984978574
 20
637.5013205456461
 30
0.0000000000000000
 40
8.500000000000000
  0
CIRCLE
  5
209
100
AcDbEntity
  8
MAIN0
  6
CONTINUOUS
 62
3
100
AcDbCircle
 10
545.2543984977787
 20
567.5013205466736
 30
0.0000000000000000
 40
8.500000000000000
  0
LINE
  5
20A
100
AcDbEntity
  8
MAIN0
  6
CONTINUOUS
 62
3
100
AcDbLine
 10
813.1372900033404
 20
539.6235409397799
 30
0.0000000000000000
 11
813.1372900033414
 21
530.6235409397799
 31
0.0000000000000000
  0
LINE
  5
20B
100
AcDbEntity
  8
MAIN0
  6
CONTINUOUS
 62
3
100
AcDbLine
 10
810.6372900033405
 20
542.1235409397796
 30
0.0000000000000000
 11
801.6372900033405
 21
542.1235409397796
 31
0.0000000000000000
  0
LINE
  5
20C
100
AcDbEntity
  8
MAIN0
  6
CONTINUOUS
 62
3
100
AcDbLine
 10
810.6372900033414
 20
528.1235409397796
 30
0.0000000000000000
 11
809.6372900033421
 21
528.1235409397796
 31
0.0000000000000000
  0
ARC
  5
20D
100
AcDbEntity
  8
MAIN0
  6
CONTINUOUS
 62
3
100
AcDbCircle
 10
801.6372900033405
 20
539.6235409397796
 30
0.0000000000000000
 40
2.500000000000000
100
AcDbArc
 50
90.00000000000000
 51
180.0000000000000
  0
ARC
  5
20E
100
AcDbEntity
  8
MAIN0
  6
CONTINUOUS
 62
3
100
AcDbCircle
 10
809.6372900033421
 20
525.6235409397796
 30
0.0000000000000000
 40
2.500000000000000
100
AcDbArc
 50
90.00000000000000
 51
180.0000000000000
  0
ARC
  5
20F
100
AcDbEntity
  8
MAIN0
  6
CONTINUOUS
 62
3
100
AcDbCircle
 10
801.6372900033405
 20
539.6235409397796
 30
0.0000000000000000
 40
2.500000000000000
100
AcDbArc
 50
90.00000000000000
 51
180.0000000000000
  0
ARC
  5
210
100
AcDbEntity
  8
MAIN0
  6
CONTINUOUS
 62
3
100
AcDbCircle
 10
809.6372900033421
 20
525.6235409397796
 30
0.0000000000000000
 40
2.500000000000000
100
AcDbArc
 50
90.00000000000000
 51
180.0000000000000
  0
ARC
  5
211
100
AcDbEntity
  8
MAIN0
  6
CONTINUOUS
 62
3
100
AcDbCircle
 10
810.6372900033405
 20
539.6235409397796
 30
0.0000000000000000
 40
2.500000000000000
100
AcDbArc
 50
0.0000000000000000
 51
90.00000000000000
  0
ARC
  5
212
100
AcDbEntity
  8
MAIN0
  6
CONTINUOUS
 62
3
100
AcDbCircle
 10
810.6372900033414
 20
530.6235409397796
 30
0.0000000000000000
 40
2.500000000000000
100
AcDbArc
 50
270.0000000000000
 51
360.0000000000000
  0
LINE
  5
213
100
AcDbEntity
  8
MAIN0
  6
CENTER
 62
3
100
AcDbLine
 10
793.4780394288416
 20
535.1235409397796
 30
0.0000000000000000
 11
882.9437006232772
 21
535.1235409397796
 31
0.0000000000000000
  0
LINE
  5
214
100
AcDbEntity
  8
MAIN0
  6
CONTINUOUS
 62
3
100
AcDbLine
 10
813.1372900033409
 20
542.1235409397793
 30
0.0000000000000000
 11
823.1372900033409
 21
542.1235409397793
 31
0.0000000000000000
  0
LINE
  5
215
100
AcDbEntity
  8
MAIN0
  6
CONTINUOUS
 62
3
100
AcDbLine
 10
813.1372900033409
 20
528.1235409397796
 30
0.0000000000000000
 11
823.1372900033409
 21
528.1235409397796
 31
0.0000000000000000
  0
LINE
  5
216
100
AcDbEntity
  8
MAIN0
  6
CONTINUOUS
 62
3
100
AcDbLine
 10
813.1372900033409
 20
542.1235409397796
 30
0.0000000000000000
 11
813.1372900033409
 21
528.1235409397796
 31
0.0000000000000000
  0
LINE
  5
217
100
AcDbEntity
  8
MAIN0
  6
CONTINUOUS
 62
3
100
AcDbLine
 10
877.9524472715389
 20
544.1235409397796
 30
0.0000000000000000
 11
877.9524472715389
 21
526.1235409397796
 31
0.0000000000000000
  0
LINE
  5
218
100
AcDbEntity
  8
MAIN0
  6
CONTINUOUS
 62
3
100
AcDbLine
 10
844.1372900033409
 20
544.1235409397796
 30
0.0000000000000000
 11
877.9524472715389
 21
544.1235409397796
 31
0.0000000000000000
  0
LINE
  5
219
100
AcDbEntity
  8
MAIN0
  6
CONTINUOUS
 62
3
100
AcDbLine
 10
844.1372900033409
 20
526.1235409397796
 30
0.0000000000000000
 11
877.9524472715389
 21
526.1235409397796
 31
0.0000000000000000
  0
ARC
  5
21A
100
AcDbEntity
  8
MAIN0
  6
CONTINUOUS
 62
3
100
AcDbCircle
 10
844.3639900033409
 20
535.1235409397796
 30
0.0000000000000000
 40
34.77330000000001
100
AcDbArc
 50
345.0001829205646
 51
374.9998170794221
  0
LINE
  5
21B
100
AcDbEntity
  8
MAIN0
  6
CONTINUOUS
 62
3
100
AcDbLine
 10
844.1372900033409
 20
544.1235409397796
 30
0.0000000000000000
 11
844.1372900033409
 21
526.1235409397796
 31
0.0000000000000000
  0
LINE
  5
21C
100
AcDbEntity
  8
MAIN0
  6
CONTINUOUS
 62
3
100
AcDbLine
 10
824.1372900033409
 20
542.9235409397797
 30
0.0000000000000000
 11
824.1372900033409
 21
527.3235409397796
 31
0.0000000000000000
  0
LINE
  5
21D
100
AcDbEntity
  8
MAIN0
  6
CONTINUOUS
 62
3
100
AcDbLine
 10
823.1372900033409
 20
542.1235409397796
 30
0.0000000000000000
 11
823.1372900033409
 21
528.1235409397796
 31
0.0000000000000000
  0
LINE
  5
21E
100
AcDbEntity
  8
MAIN0
  6
CONTINUOUS
 62
3
100
AcDbLine
 10
824.1372900033416
 20
542.9235409397800
 30
0.0000000000000000
 11
844.1372900033413
 21
544.1235409397799
 31
0.0000000000000000
  0
LINE
  5
21F
100
AcDbEntity
  8
MAIN0
  6
CONTINUOUS
 62
3
100
AcDbLine
 10
824.1372900033414
 20
527.3235409397810
 30
0.0000000000000000
 11
844.1372900033413
 21
526.1235409397810
 31
0.0000000000000000
  0
LINE
  5
220
100
AcDbEntity
  8
MAIN0
  6
CONTINUOUS
 62
3
100
AcDbLine
 10
823.1372900033409
 20
541.1235409397793
 30
0.0000000000000000
 11
824.1372900033409
 21
541.1235409397793
 31
0.0000000000000000
  0
LINE
  5
221
100
AcDbEntity
  8
MAIN0
  6
CONTINUOUS
 62
3
100
AcDbLine
 10
823.1372900033409
 20
529.1235409397796
 30
0.0000000000000000
 11
824.1372900033409
 21
529.1235409397796
 31
0.0000000000000000
  0
LINE
  5
222
100
AcDbEntity
  8
MAIN0
  6
CONTINUOUS
 62
3
100
AcDbLine
 10
821.1372900033409
 20
540.1235409397793
 30
0.0000000000000000
 11
821.1372900033409
 21
530.1235409397796
 31
0.0000000000000000
  0
LINE
  5
223
100
AcDbEntity
  8
MAIN0
  6
CONTINUOUS
 62
3
100
AcDbLine
 10
813.1372900033409
 20
530.1235409397796
 30
0.0000000000000000
 11
821.1372900033409
 21
530.1235409397796
 31
0.0000000000000000
  0
LINE
  5
224
100
AcDbEntity
  8
MAIN0
  6
CONTINUOUS
 62
3
100
AcDbLine
 10
813.1372900033409
 20
540.1235409397793
 30
0.0000000000000000
 11
821.1372900033409
 21
540.1235409397793
 31
0.0000000000000000
  0
LINE
  5
225
100
AcDbEntity
  8
MAIN0
  6
CONTINUOUS
 62
3
100
AcDbLine
 10
813.1372900033409
 20
530.1235409397795
 30
0.0000000000000000
 11
821.1372900033409
 21
540.1235409397792
 31
0.0000000000000000
  0
LINE
  5
226
100
AcDbEntity
  8
MAIN0
  6
CONTINUOUS
 62
3
100
AcDbLine
 10
813.1372900033410
 20
540.1235409397793
 30
0.0000000000000000
 11
821.1372900033410
 21
530.1235409397796
 31
0.0000000000000000
  0
LINE
  5
227
100
AcDbEntity
  8
MAIN0
  6
CONTINUOUS
 62
3
100
AcDbLine
 10
799.1372900033406
 20
539.6235409397793
 30
0.0000000000000000
 11
799.1372900033492
 21
412.6235409397795
 31
0.0000000000000000
  0
LINE
  5
228
100
AcDbEntity
  8
MAIN0
  6
CONTINUOUS
 62
3
100
AcDbLine
 10
807.1372900033418
 20
525.6235409397793
 30
0.0000000000000000
 11
807.1372900033517
 21
388.6235409397796
 31
0.0000000000000000
  0
LINE
  5
229
100
AcDbEntity
  8
MAIN0
  6
CENTER
 62
3
100
AcDbLine
 10
739.8131282280901
 20
400.1235409397797
 30
0.0000000000000000
 11
809.0007543912228
 21
400.1235409397797
 31
0.0000000000000000
  0
LINE
  5
22A
100
AcDbEntity
  8
MAIN0
  6
CONTINUOUS
 62
3
100
AcDbLine
 10
764.1372900033418
 20
393.1235409397797
 30
0.0000000000000000
 11
750.2372900033417
 21
393.1235409397796
 31
0.0000000000000000
  0
LINE
  5
22B
100
AcDbEntity
  8
MAIN0
  6
CONTINUOUS
 62
3
100
AcDbLine
 10
787.1372900033409
 20
400.1235409397793
 30
0.0000000000000000
 11
787.1372900033418
 21
390.9718003973092
 31
0.0000000000000000
  0
LINE
  5
22C
100
AcDbEntity
  8
MAIN0
  6
CONTINUOUS
 62
3
100
AcDbLine
 10
749.6372900033410
 20
400.1235409397795
 30
0.0000000000000000
 11
749.6372900033417
 21
393.7235409397796
 31
0.0000000000000000
  0
LINE
  5
22D
100
AcDbEntity
  8
MAIN0
  6
CONTINUOUS
 62
3
100
AcDbLine
 10
749.6372900033418
 20
393.7235409397796
 30
0.0000000000000000
 11
750.2372900033420
 21
393.1235409397796
 31
0.0000000000000000
  0
LINE
  5
22E
100
AcDbEntity
  8
MAIN0
  6
CONTINUOUS
 62
3
100
AcDbLine
 10
749.6372900033409
 20
400.1235409397796
 30
0.0000000000000000
 11
764.1372900033409
 21
400.1235409397796
 31
0.0000000000000000
  0
LINE
  5
22F
100
AcDbEntity
  8
MAIN0
  6
CONTINUOUS
 62
3
100
AcDbLine
 10
764.1372900033418
 20
407.1235409397795
 30
0.0000000000000000
 11
750.2372900033417
 21
407.1235409397794
 31
0.0000000000000000
  0
LINE
  5
230
100
AcDbEntity
  8
MAIN0
  6
CONTINUOUS
 62
3
100
AcDbLine
 10
787.1372900033410
 20
400.1235409397796
 30
0.0000000000000000
 11
787.1372900033420
 21
408.9693627885697
 31
0.0000000000000000
  0
LINE
  5
231
100
AcDbEntity
  8
MAIN0
  6
CONTINUOUS
 62
3
100
AcDbLine
 10
749.6372900033409
 20
400.1235409397798
 30
0.0000000000000000
 11
749.6372900033416
 21
406.5235409397797
 31
0.0000000000000000
  0
LINE
  5
232
100
AcDbEntity
  8
MAIN0
  6
CONTINUOUS
 62
3
100
AcDbLine
 10
749.6372900033421
 20
406.5235409397793
 30
0.0000000000000000
 11
750.2372900033422
 21
407.1235409397795
 31
0.0000000000000000
  0
ELLIPSE
  5
233
100
AcDbEntity
  8
MAIN0
  6
CONTINUOUS
 62
3
100
AcDbEllipse
 10
757.1372900033414
 20
403.6235409397852
 30
0.0000000000000000
 11
-2.050000000000000
 21
0.0000000000000000
 31
0.0000000000000000
210
0.0000000000000000
220
0.0000000000000000
230
1.000000000000000
 40
0.8536585365853660
 41
0.0000000000000000
 42
6.283185307179586
  0
LINE
  5
234
100
AcDbEntity
  8
MAIN0
  6
CONTINUOUS
 62
3
100
AcDbLine
 10
801.3024939485265
 20
386.3279859820450
 30
0.0000000000000000
 11
788.4089554785544
 21
389.7827992026536
 31
0.0000000000000000
  0
LINE
  5
235
100
AcDbEntity
  8
MAIN0
  6
CONTINUOUS
 62
3
100
AcDbLine
 10
802.8554082191420
 20
386.1235409397797
 30
0.0000000000000000
 11
804.6372900033518
 21
386.1235409397797
 31
0.0000000000000000
  0
ARC
  5
236
100
AcDbEntity
  8
MAIN0
  6
CONTINUOUS
 62
3
100
AcDbCircle
 10
802.8554082191417
 20
392.1235409397797
 30
0.0000000000000000
 40
6.000000000000000
100
AcDbArc
 50
255.0000000000000
 51
270.0000000000001
  0
ARC
  5
237
100
AcDbEntity
  8
MAIN0
  6
CONTINUOUS
 62
3
100
AcDbCircle
 10
804.6372900033516
 20
388.6235409397797
 30
0.0000000000000000
 40
2.500000000000000
100
AcDbArc
 50
270.0000000000001
 51
360.0000000000001
  0
LINE
  5
238
100
AcDbEntity
  8
MAIN0
  6
CONTINUOUS
 62
3
100
AcDbLine
 10
794.6902042739636
 20
412.1473382190944
 30
0.0000000000000000
 11
788.4089554785544
 21
410.4642826769056
 31
0.0000000000000000
  0
ARC
  5
239
100
AcDbEntity
  8
MAIN0
  6
CONTINUOUS
 62
3
100
AcDbCircle
 10
793.1372900033484
 20
417.9428931768286
 30
0.0000000000000000
 40
6.000000000000000
100
AcDbArc
 50
285.0000000000001
 51
360.0000000000001
  0
ARC
  5
23A
100
AcDbEntity
  8
MAIN0
  6
CONTINUOUS
 62
3
100
AcDbCircle
 10
796.6372900033412
 20
412.6235409397795
 30
0.0000000000000000
 40
2.500000000000000
100
AcDbArc
 50
294.6420549541069
 51
360.0000000000001
  0
LINE
  5
23B
100
AcDbEntity
  8
MAIN0
  6
CONTINUOUS
 62
3
100
AcDbLine
 10
764.1372900033410
 20
400.1235409397773
 30
0.0000000000000000
 11
764.1372900033421
 21
390.5235409397588
 31
0.0000000000000000
  0
LINE
  5
23C
100
AcDbEntity
  8
MAIN0
  6
CONTINUOUS
 62
3
100
AcDbLine
 10
764.5372900033420
 20
390.1235409397589
 30
0.0000000000000000
 11
785.8207650275277
 21
390.1235409397631
 31
0.0000000000000000
  0
LINE
  5
23D
100
AcDbEntity
  8
MAIN0
  6
CONTINUOUS
 62
3
100
AcDbLine
 10
764.1372900033412
 20
400.1235409397817
 30
0.0000000000000000
 11
764.1372900033421
 21
409.7235409398001
 31
0.0000000000000000
  0
LINE
  5
23E
100
AcDbEntity
  8
MAIN0
  6
CONTINUOUS
 62
3
100
AcDbLine
 10
764.5372900033423
 20
410.1235409398000
 30
0.0000000000000000
 11
785.8207650275277
 21
410.1235409397959
 31
0.0000000000000000
  0
ARC
  5
23F
100
AcDbEntity
  8
MAIN0
  6
CONTINUOUS
 62
3
100
AcDbCircle
 10
785.8207650275294
 20
380.1235409397631
 30
0.0000000000000000
 40
10.00000000000000
100
AcDbArc
 50
75.00000000000004
 51
90.00000000000007
  0
ARC
  5
240
100
AcDbEntity
  8
MAIN0
  6
CONTINUOUS
 62
3
100
AcDbCircle
 10
785.8207650275294
 20
420.1235409397961
 30
0.0000000000000000
 40
10.00000000000000
100
AcDbArc
 50
270.0000000000001
 51
285.0000000000001
  0
LINE
  5
241
100
AcDbEntity
  8
MAIN0
  6
CONTINUOUS
 62
3
100
AcDbLine
 10
764.1372900033417
 20
409.7235409398002
 30
0.0000000000000000
 11
764.5372900033417
 21
410.1235409398001
 31
0.0000000000000000
  0
LINE
  5
242
100
AcDbEntity
  8
MAIN0
  6
CONTINUOUS
 62
3
100
AcDbLine
 10
764.1372900033417
 20
390.5235409397581
 30
0.0000000000000000
 11
764.5372900033417
 21
390.1235409397582
 31
0.0000000000000000
  0
LINE
  5
243
100
AcDbEntity
  8
MAIN0
  6
CONTINUOUS
 62
3
100
AcDbLine
 10
802.0654932336793
 20
407.6115967177248
 30
0.0000000000000000
 11
802.0654932336793
 21
388.4646746114279
 31
0.0000000000000000
  0
DIMENSION
  5
24C
100
AcDbEntity
  8
MAIN0
  6
CONTINUOUS
 62
3
100
AcDbDimension
  2
*D28
 10
879.1372900033409
 20
588.2642748740893
 30
0.0000000000000000
 11
814.3872900033413
 21
588.7642748740893
 31
0.0000000000000000
 70
32
  3
MAIN001
100
AcDbAlignedDimension
 13
749.6372900033416
 23
406.5235409397797
 33
0.0000000000000000
 14
879.1372900033409
 24
535.1235409397796
 34
0.0000000000000000
100
AcDbRotatedDimension
1001
ACAD
1000
DSTYLE
1002
{
1070
   173
1070
     1
1070
     6
1000
_OPEN
1070
     7
1000
_OPEN
1070
    41
1040
5.000000
1002
}
  0
DIMENSION
  5
255
100
AcDbEntity
  8
MAIN0
  6
CONTINUOUS
 62
3
100
AcDbDimension
  2
*D29
 10
732.9643222794862
 20
535.1235409397796
 30
0.0000000000000000
 11
732.4643222794862
 21
467.6235409397797
 31
0.0000000000000000
 70
32
  3
MAIN001
100
AcDbAlignedDimension
 13
739.8131282280921
 23
400.1235409397797
 33
0.0000000000000000
 14
793.4780394288416
 24
535.1235409397796
 34
0.0000000000000000
 50
90.00000000000000
100
AcDbRotatedDimension
1001
ACAD
1000
DSTYLE
1002
{
1070
   173
1070
     1
1070
     6
1000
_OPEN
1070
     7
1000
_OPEN
1070
    41
1040
5.000000
1002
}
  0
DIMENSION
  5
25E
100
AcDbEntity
  8
MAIN0
  6
CONTINUOUS
 62
3
100
AcDbDimension
  2
*D30
 10
284.7543985554225
 20
242.2959685536209
 30
0.0000000000000000
 11
384.7543985554223
 21
242.7959685536209
 31
0.0000000000000000
 70
32
  3
MAIN001
100
AcDbAlignedDimension
 13
484.7543985554221
 23
305.2959685536217
 33
0.0000000000000000
 14
284.7543985554225
 24
313.6959685537676
 34
0.0000000000000000
100
AcDbRotatedDimension
1001
ACAD
1000
DSTYLE
1002
{
1070
   173
1070
     1
1070
     6
1000
_OPEN
1070
     7
1000
_OPEN
1070
    41
1040
5.000000
1002
}
  0
DIMENSION
  5
267
100
AcDbEntity
  8
MAIN0
  6
CONTINUOUS
 62
3
100
AcDbDimension
  2
*D31
 10
484.7543985554221
 20
242.2959685536209
 30
0.0000000000000000
 11
600.5043985554191
 21
242.7959685536209
 31
0.0000000000000000
 70
32
  3
MAIN001
100
AcDbAlignedDimension
 13
716.2543985554162
 23
322.2959685533493
 33
0.0000000000000000
 14
484.7543985554221
 24
305.2959685536217
 34
0.0000000000000000
100
AcDbRotatedDimension
1001
ACAD
1000
DSTYLE
1002
{
1070
   173
1070
     1
1070
     6
1000
_OPEN
1070
     7
1000
_OPEN
1070
    41
1040
5.000000
1002
}
  0
DIMENSION
  5
26F
100
AcDbEntity
  8
MAIN0
  6
CONTINUOUS
 62
3
100
AcDbDimension
  2
*D32
 10
521.8470777191677
 20
313.2959685536217
 30
0.0000000000000000
 11
520.5970777191677
 21
343.6706926900253
 31
0.0000000000000000
 70
160
  3
MAIN001
100
AcDbAlignedDimension
 13
549.7543985554160
 23
365.7959685538939
 33
0.0000000000000000
 14
492.1543985554221
 24
313.2959685536217
 34
0.0000000000000000
 50
90.00000000000000
100
AcDbRotatedDimension
1001
ACAD
1000
DSTYLE
1002
{
1070
   173
1070
     1
1070
     6
1000
_OPEN
1070
     7
1000
_OPEN
1070
    41
1040
5.000000
1002
}
  0
DIMENSION
  5
279
100
AcDbEntity
  8
MAIN0
  6
CONTINUOUS
 62
3
100
AcDbDimension
  2
*D33
 10
521.8470777191677
 20
365.7959685538939
 30
0.0000000000000000
 11
520.5970777191677
 21
392.1489083788563
 31
0.0000000000000000
 70
160
  3
MAIN001
100
AcDbAlignedDimension
 13
563.7543985558332
 23
378.2959685536236
 33
0.0000000000000000
 14
549.7543985554160
 24
365.7959685538939
 34
0.0000000000000000
 50
90.00000000000000
100
AcDbRotatedDimension
1001
ACAD
1000
DSTYLE
1002
{
1070
   173
1070
     1
1070
     6
1000
_OPEN
1070
     7
1000
_OPEN
1070
    41
1040
5.000000
1070
   287
1070
     0
1002
}
  0
DIMENSION
  5
284
100
AcDbEntity
  8
MAIN0
  6
CONTINUOUS
 62
3
100
AcDbDimension
  2
*D34
 10
749.6372900033420
 20
571.0571682109102
 30
0.0000000000000000
 11
735.7251154714747
 21
572.3071682109102
 31
0.0000000000000000
 70
160
  3
MAIN001
100
AcDbAlignedDimension
 13
764.1372900033421
 23
409.7235409398001
 33
0.0000000000000000
 14
749.6372900033416
 24
406.5235409397797
 34
0.0000000000000000
100
AcDbRotatedDimension
1001
ACAD
1000
DSTYLE
1002
{
1070
   173
1070
     1
1070
     6
1000
_OPEN
1070
     7
1000
_OPEN
1070
    41
1040
5.000000
1070
   287
1070
     0
1002
}
  0
DIMENSION
  5
28D
100
AcDbEntity
  8
MAIN0
  6
CONTINUOUS
 62
3
100
AcDbDimension
  2
*D35
 10
764.1372900033412
 20
571.0571682109102
 30
0.0000000000000000
 11
785.6372900033416
 21
571.5571682109102
 31
0.0000000000000000
 70
32
  3
MAIN001
100
AcDbAlignedDimension
 13
807.1372900033420
 23
525.6235409397792
 33
0.0000000000000000
 14
764.1372900033421
 24
409.7235409398001
 34
0.0000000000000000
100
AcDbRotatedDimension
1001
ACAD
1000
DSTYLE
1002
{
1070
   173
1070
     1
1070
     6
1000
_OPEN
1070
     7
1000
_OPEN
1070
    41
1040
5.000000
1002
}
  0
DIMENSION
  5
296
100
AcDbEntity
  8
MAIN0
  6
CONTINUOUS
 62
3
100
AcDbDimension
  2
*D36
 10
807.1372900033420
 20
571.0571682109102
 30
0.0000000000000000
 11
843.1372900033414
 21
571.5571682109102
 31
0.0000000000000000
 70
32
  3
MAIN001
100
AcDbAlignedDimension
 13
879.1372900033409
 23
535.1235409397796
 33
0.0000000000000000
 14
807.1372900033420
 24
525.6235409397792
 34
0.0000000000000000
100
AcDbRotatedDimension
1001
ACAD
1000
DSTYLE
1002
{
1070
   173
1070
     1
1070
     6
1000
_OPEN
1070
     7
1000
_OPEN
1070
    41
1040
5.000000
1002
}
  0
DIMENSION
  5
29E
100
AcDbEntity
  8
MAIN0
  6
CONTINUOUS
 62
3
100
AcDbDimension
  2
*D37
 10
732.9643222794862
 20
313.2959685536218
 30
0.0000000000000000
 11
732.4643222794862
 21
330.2959685535091
 31
0.0000000000000000
 70
32
  3
MAIN001
100
AcDbAlignedDimension
 13
739.8131282284840
 23
347.2959685533963
 33
0.0000000000000000
 14
633.3543985554223
 24
313.2959685536218
 34
0.0000000000000000
 50
90.00000000000000
100
AcDbRotatedDimension
1001
ACAD
1000
DSTYLE
1002
{
1070
   173
1070
     1
1070
     6
1000
_OPEN
1070
     7
1000
_OPEN
1070
    41
1040
5.000000
1002
}
  0
DIMENSION
  5
2A7
100
AcDbEntity
  8
MAIN0
  6
CONTINUOUS
 62
3
100
AcDbDimension
  2
*D38
 10
841.8139571895375
 20
334.2959685534462
 30
0.0000000000000000
 11
841.3139571895375
 21
323.7959685534461
 31
0.0000000000000000
 70
32
  3
MAIN001
100
AcDbAlignedDimension
 13
855.6285002275583
 23
313.2959685534460
 33
0.0000000000000000
 14
861.7285002275627
 24
334.2959685534462
 34
0.0000000000000000
 50
90.00000000000000
100
AcDbRotatedDimension
1001
ACAD
1000
DSTYLE
1002
{
1070
   173
1070
     1
1070
     6
1000
_OPEN
1070
     7
1000
_OPEN
1070
    41
1040
5.000000
1002
}
  0
LINE
  5
2A8
100
AcDbEntity
  8
MAIN0
  6
CONTINUOUS
 62
3
100
AcDbLine
 10
929.5641810951643
 20
316.2959685534461
 30
0.0000000000000000
 11
976.8928193599612
 21
316.2959685534461
 31
0.0000000000000000
  0
DIMENSION
  5
2B1
100
AcDbEntity
  8
MAIN0
  6
CONTINUOUS
 62
3
100
AcDbDimension
  2
*D39
 10
897.2285002268300
 20
458.3615775965228
 30
0.0000000000000000
 11
953.2285002276083
 21
458.8615775965228
 31
0.0000000000000000
 70
32
  3
MAIN001
100
AcDbAlignedDimension
 13
1009.228500228387
 23
396.4959685528798
 33
0.0000000000000000
 14
897.2285002268300
 24
396.4959685528797
 34
0.0000000000000000
100
AcDbRotatedDimension
1001
ACAD
1000
DSTYLE
1002
{
1070
   173
1070
     1
1070
     6
1000
_OPEN
1070
     7
1000
_OPEN
1070
    41
1040
5.000000
1002
}
  0
LINE
  5
2B2
100
AcDbEntity
  8
MAIN0
  6
CONTINUOUS
 62
3
100
AcDbLine
 10
65.95439855455715
 20
379.9959685537069
 30
0.0000000000000000
 11
70.75439855538045
 21
379.9959685537281
 31
0.0000000000000000
  0
CIRCLE
  5
2B3
100
AcDbEntity
  8
MAIN0
  6
CONTINUOUS
 62
3
100
AcDbCircle
 10
953.2285002275630
 20
347.2959685534461
 30
0.0000000000000000
 40
12.00000000000000
  0
CIRCLE
  5
2B4
100
AcDbEntity
  8
MAIN0
  6
CONTINUOUS
 62
3
100
AcDbCircle
 10
986.2285002277986
 20
347.2959685534364
 30
0.0000000000000000
 40
4.750000000000000
  0
CIRCLE
  5
2B5
100
AcDbEntity
  8
MAIN0
  6
CONTINUOUS
 62
3
100
AcDbCircle
 10
920.2285002273273
 20
347.2959685534365
 30
0.0000000000000000
 40
4.750000000000000
  0
LINE
  5
2B6
100
AcDbEntity
  8
MAIN0
  6
CONTINUOUS
 62
3
100
AcDbLine
 10
563.7543985561124
 20
348.7959685526050
 30
0.0000000000000000
 11
652.7543985561575
 21
348.7959685526050
 31
0.0000000000000000
  0
DIMENSION
  5
2C0
100
AcDbEntity
  8
MAIN0
  6
CONTINUOUS
 62
3
100
AcDbDimension
  2
*D40
 10
589.4419299355903
 20
378.2959685536236
 30
0.0000000000000000
 11
588.9419299355903
 21
387.8959685531143
 31
0.0000000000000000
 70
32
  3
MAIN001
100
AcDbAlignedDimension
 13
564.7543985561123
 23
397.4959685526050
 33
0.0000000000000000
 14
563.7543985558332
 24
378.2959685536236
 34
0.0000000000000000
 50
90.00000000000000
100
AcDbRotatedDimension
1001
ACAD
1000
DSTYLE
1002
{
1070
   173
1070
     1
1070
     6
1000
_OPEN
1070
     7
1000
_OPEN
1070
    41
1040
5.000000
1070
   287
1070
     0
1002
}
  0
DIMENSION
  5
2CA
100
AcDbEntity
  8
MAIN0
  6
CONTINUOUS
 62
3
100
AcDbDimension
  2
*D41
 10
172.2543985554915
 20
335.7707703360338
 30
0.0000000000000000
 11
181.4881649047346
 21
337.0207703360338
 31
0.0000000000000000
 70
160
  3
MAIN001
100
AcDbAlignedDimension
 13
167.2543985554716
 23
328.2959685536787
 33
0.0000000000000000
 14
172.2543985554915
 24
327.8959685536989
 34
0.0000000000000000
100
AcDbRotatedDimension
1001
ACAD
1000
DSTYLE
1002
{
1070
   173
1070
     1
1070
     6
1000
_OPEN
1070
     7
1000
_OPEN
1070
    41
1040
5.000000
1070
   287
1070
     0
1002
}
  0
LINE
  5
2CB
100
AcDbEntity
  8
MAIN0
  6
CENTER
 62
3
100
AcDbLine
 10
739.8131282280901
 20
347.2959685534347
 30
0.0000000000000000
 11
739.8131282280901
 21
400.1235409397796
 31
0.0000000000000000
  0
LINE
  5
2CC
100
AcDbEntity
  8
MAIN0
  6
CONTINUOUS
 62
3
100
AcDbLine
 10
791.3731133455684
 20
290.5959685534376
 30
0.0000000000000000
 11
813.5731133455685
 21
290.5959685534376
 31
0.0000000000000000
  0
LINE
  5
2CD
100
AcDbEntity
  8
MAIN0
  6
CONTINUOUS
 62
3
100
AcDbLine
 10
791.3731133455682
 20
290.5959685534371
 30
0.0000000000000000
 11
791.3731133455681
 21
299.2959685534373
 31
0.0000000000000000
  0
LINE
  5
2CE
100
AcDbEntity
  8
MAIN0
  6
CONTINUOUS
 62
3
100
AcDbLine
 10
813.5731133455682
 20
290.5959685534375
 30
0.0000000000000000
 11
813.5731133455682
 21
299.2959685534373
 31
0.0000000000000000
  0
LINE
  5
2CF
100
AcDbEntity
  8
MAIN0
  6
CONTINUOUS
 62
3
100
AcDbLine
 10
808.4731133455657
 20
313.2959685534374
 30
0.0000000000000000
 11
808.4731133455650
 21
306.3959685534376
 31
0.0000000000000000
  0
LINE
  5
2D0
100
AcDbEntity
  8
MAIN0
  6
CONTINUOUS
 62
3
100
AcDbLine
 10
807.5258978455656
 20
313.2959685534374
 30
0.0000000000000000
 11
807.5258978455649
 21
306.3959685534376
 31
0.0000000000000000
  0
LINE
  5
2D1
100
AcDbEntity
  8
MAIN0
  6
CONTINUOUS
 62
3
100
AcDbLine
 10
797.4203288455659
 20
313.2959685534373
 30
0.0000000000000000
 11
797.4203288455652
 21
306.3959685534376
 31
0.0000000000000000
  0
LINE
  5
2D2
100
AcDbEntity
  8
MAIN0
  6
CONTINUOUS
 62
3
100
AcDbLine
 10
796.4731133455649
 20
306.3959685534376
 30
0.0000000000000000
 11
796.4731133455656
 21
313.2959685534373
 31
0.0000000000000000
  0
LINE
  5
2D3
100
AcDbEntity
  8
MAIN0
  6
CONTINUOUS
 62
3
100
AcDbLine
 10
809.3731133455680
 20
306.3959685534376
 30
0.0000000000000000
 11
795.5731133455681
 21
306.3959685534376
 31
0.0000000000000000
  0
LINE
  5
2D4
100
AcDbEntity
  8
MAIN0
  6
CENTER
 62
3
100
AcDbLine
 10
802.4731133455681
 20
284.5787862421974
 30
0.0000000000000000
 11
802.4731133455680
 21
356.1888265826567
 31
0.0000000000000000
  0
LINE
  5
2D5
100
AcDbEntity
  8
MAIN0
  6
CONTINUOUS
 62
3
100
AcDbLine
 10
786.3731133455682
 20
313.2959685534373
 30
0.0000000000000000
 11
818.5731133455681
 21
313.2959685534373
 31
0.0000000000000000
  0
LINE
  5
2D6
100
AcDbEntity
  8
MAIN0
  6
CONTINUOUS
 62
3
100
AcDbLine
 10
784.9731133455681
 20
334.2959685534375
 30
0.0000000000000000
 11
819.9731133455681
 21
334.2959685534375
 31
0.0000000000000000
  0
LINE
  5
2D7
100
AcDbEntity
  8
MAIN0
  6
CONTINUOUS
 62
3
100
AcDbLine
 10
793.4731133455694
 20
347.5959685534380
 30
0.0000000000000000
 11
793.4731133455683
 21
336.7959685534382
 31
0.0000000000000000
  0
LINE
  5
2D8
100
AcDbEntity
  8
MAIN0
  6
CONTINUOUS
 62
3
100
AcDbLine
 10
811.4731133455694
 20
347.5959685534364
 30
0.0000000000000000
 11
793.4731133455694
 21
347.5959685534381
 31
0.0000000000000000
  0
LINE
  5
2D9
100
AcDbEntity
  8
MAIN0
  6
CONTINUOUS
 62
3
100
AcDbLine
 10
795.5515743146524
 20
348.7959685534382
 30
0.0000000000000000
 11
793.4731133455695
 21
347.5959685534384
 31
0.0000000000000000
  0
LINE
  5
2DA
100
AcDbEntity
  8
MAIN0
  6
CONTINUOUS
 62
3
100
AcDbLine
 10
809.3946523764868
 20
348.7959685534365
 30
0.0000000000000000
 11
795.5515743146522
 21
348.7959685534378
 31
0.0000000000000000
  0
LINE
  5
2DB
100
AcDbEntity
  8
MAIN0
  6
CONTINUOUS
 62
3
100
AcDbLine
 10
811.4731133455667
 20
347.5959685534380
 30
0.0000000000000000
 11
811.4731133455678
 21
336.7959685534382
 31
0.0000000000000000
  0
LINE
  5
2DC
100
AcDbEntity
  8
MAIN0
  6
CONTINUOUS
 62
3
100
AcDbLine
 10
811.4731133455689
 20
347.5959685534360
 30
0.0000000000000000
 11
809.3946523764864
 21
348.7959685534362
 31
0.0000000000000000
  0
LINE
  5
2DD
100
AcDbEntity
  8
MAIN0
  6
CONTINUOUS
 62
3
100
AcDbLine
 10
809.3731133455681
 20
299.2959685534373
 30
0.0000000000000000
 11
809.3731133455681
 21
306.3959685534372
 31
0.0000000000000000
  0
LINE
  5
2DE
100
AcDbEntity
  8
MAIN0
  6
CONTINUOUS
 62
3
100
AcDbLine
 10
795.5731133455681
 20
299.2959685534374
 30
0.0000000000000000
 11
795.5731133455681
 21
306.3959685534373
 31
0.0000000000000000
  0
LINE
  5
2DF
100
AcDbEntity
  8
MAIN0
  6
CONTINUOUS
 62
3
100
AcDbLine
 10
795.5731133455682
 20
299.2959685534373
 30
0.0000000000000000
 11
791.3731133455682
 21
299.2959685534373
 31
0.0000000000000000
  0
LINE
  5
2E0
100
AcDbEntity
  8
MAIN0
  6
CONTINUOUS
 62
3
100
AcDbLine
 10
813.5731133455682
 20
299.2959685534373
 30
0.0000000000000000
 11
809.3731133455681
 21
299.2959685534373
 31
0.0000000000000000
  0
LINE
  5
2E1
100
AcDbEntity
  8
MAIN0
  6
CONTINUOUS
 62
3
100
AcDbLine
 10
784.9731133455682
 20
334.2959685534377
 30
0.0000000000000000
 11
786.3731133455682
 21
313.2959685534374
 31
0.0000000000000000
  0
LINE
  5
2E2
100
AcDbEntity
  8
MAIN0
  6
CONTINUOUS
 62
3
100
AcDbLine
 10
819.9731133455682
 20
334.2959685534376
 30
0.0000000000000000
 11
818.5731133455682
 21
313.2959685534374
 31
0.0000000000000000
  0
LINE
  5
2E3
100
AcDbEntity
  8
MAIN0
  6
CONTINUOUS
 62
3
100
AcDbLine
 10
790.4731133455681
 20
334.2959685534376
 30
0.0000000000000000
 11
790.4731133455681
 21
336.7959685534376
 31
0.0000000000000000
  0
LINE
  5
2E4
100
AcDbEntity
  8
MAIN0
  6
CONTINUOUS
 62
3
100
AcDbLine
 10
790.4731133455681
 20
336.7959685534376
 30
0.0000000000000000
 11
814.4731133455681
 21
336.7959685534376
 31
0.0000000000000000
  0
LINE
  5
2E5
100
AcDbEntity
  8
MAIN0
  6
CONTINUOUS
 62
3
100
AcDbLine
 10
814.4731133455681
 20
336.7959685534376
 30
0.0000000000000000
 11
814.4731133455681
 21
334.2959685534376
 31
0.0000000000000000
  0
DIMENSION
  5
2EE
100
AcDbEntity
  8
MAIN0
  6
CONTINUOUS
 62
3
100
AcDbDimension
  2
*D42
 10
784.9731133455681
 20
365.3755399609106
 30
0.0000000000000000
 11
802.4731133455681
 21
365.8755399609106
 31
0.0000000000000000
 70
32
  3
MAIN001
100
AcDbAlignedDimension
 13
819.9731133455681
 23
334.2959685534375
 33
0.0000000000000000
 14
784.9731133455681
 24
334.2959685534375
 34
0.0000000000000000
100
AcDbRotatedDimension
1001
ACAD
1000
DSTYLE
1002
{
1070
   173
1070
     1
1070
     6
1000
_OPEN
1070
     7
1000
_OPEN
1070
    41
1040
5.000000
1002
}
  0
LINE
  5
2EF
100
AcDbEntity
  8
MAIN0
  6
CONTINUOUS
 62
3
100
AcDbLine
 10
895.8285002275629
 20
306.3959685534463
 30
0.0000000000000000
 11
873.6285002275629
 21
306.3959685534464
 31
0.0000000000000000
  0
LINE
  5
2F0
100
AcDbEntity
  8
MAIN0
  6
CONTINUOUS
 62
3
100
AcDbLine
 10
873.6285002275630
 20
290.5959685534459
 30
0.0000000000000000
 11
873.6285002275629
 21
306.3959685534464
 31
0.0000000000000000
  0
LINE
  5
2F1
100
AcDbEntity
  8
MAIN0
  6
CONTINUOUS
 62
3
100
AcDbLine
 10
895.8285002275629
 20
299.2959685534461
 30
0.0000000000000000
 11
873.6285002275629
 21
299.2959685534461
 31
0.0000000000000000
  0
LINE
  5
2F2
100
AcDbEntity
  8
MAIN0
  6
CONTINUOUS
 62
3
100
AcDbLine
 10
895.8285002275629
 20
290.5959685534463
 30
0.0000000000000000
 11
895.8285002275629
 21
306.3959685534463
 31
0.0000000000000000
  0
LINE
  5
2F3
100
AcDbEntity
  8
MAIN0
  6
CONTINUOUS
 62
3
100
AcDbLine
 10
895.8285002275644
 20
207.2870771835994
 30
0.0000000000000000
 11
873.6285002275616
 21
207.2870771835994
 31
0.0000000000000000
  0
LINE
  5
2F4
100
AcDbEntity
  8
MAIN0
  6
CONTINUOUS
 62
3
100
AcDbLine
 10
873.6285002275644
 20
185.0870771835993
 30
0.0000000000000000
 11
873.6285002275616
 21
207.2870771835994
 31
0.0000000000000000
  0
LINE
  5
2F5
100
AcDbEntity
  8
MAIN0
  6
HIDDEN
 62
3
100
AcDbLine
 10
895.8285002275630
 20
203.0870771835994
 30
0.0000000000000000
 11
873.6285002275630
 21
203.0870771835994
 31
0.0000000000000000
  0
LINE
  5
2F6
100
AcDbEntity
  8
MAIN0
  6
CENTER
 62
3
100
AcDbLine
 10
869.6285002275616
 20
196.1870771835994
 30
0.0000000000000000
 11
899.8285002275644
 21
196.1870771835994
 31
0.0000000000000000
  0
LINE
  5
2F7
100
AcDbEntity
  8
MAIN0
  6
HIDDEN
 62
3
100
AcDbLine
 10
895.8285002275630
 20
189.2870771835994
 30
0.0000000000000000
 11
873.6285002275630
 21
189.2870771835994
 31
0.0000000000000000
  0
LINE
  5
2F8
100
AcDbEntity
  8
MAIN0
  6
CONTINUOUS
 62
3
100
AcDbLine
 10
895.8285002275617
 20
185.0870771835995
 30
0.0000000000000000
 11
873.6285002275645
 21
185.0870771835993
 31
0.0000000000000000
  0
LINE
  5
2F9
100
AcDbEntity
  8
MAIN0
  6
CONTINUOUS
 62
3
100
AcDbLine
 10
895.8285002275617
 20
185.0870771835994
 30
0.0000000000000000
 11
895.8285002275644
 21
207.2870771835994
 31
0.0000000000000000
  0
CIRCLE
  5
2FA
100
AcDbEntity
  8
MAIN0
  6
CONTINUOUS
 62
3
100
AcDbCircle
 10
884.7285002275630
 20
196.1870771835994
 30
0.0000000000000000
 40
6.000000000006736
  0
CIRCLE
  5
2FB
100
AcDbEntity
  8
MAIN0
  6
CONTINUOUS
 62
3
100
AcDbCircle
 10
884.7285002275630
 20
196.1870771835994
 30
0.0000000000000000
 40
5.052784500006425
  0
DIMENSION
  5
306
100
AcDbEntity
  8
MAIN0
  6
CONTINUOUS
 62
3
100
AcDbDimension
  2
*D43
 10
853.9432970343422
 20
207.2870771835992
 30
0.0000000000000000
 11
853.4432970343422
 21
196.1870771835993
 31
0.0000000000000000
 70
32
  3
MAIN001
100
AcDbAlignedDimension
 13
873.6285002275645
 23
185.0870771835993
 33
0.0000000000000000
 14
873.6285002275616
 24
207.2870771835994
 34
0.0000000000000000
 50
90.00000000000000
100
AcDbRotatedDimension
1001
ACAD
1000
DSTYLE
1002
{
1070
   173
1070
     1
1070
     6
1000
_OPEN
1070
     7
1000
_OPEN
1070
    41
1040
5.000000
1070
   287
1070
     0
1002
}
  0
DIMENSION
  5
311
100
AcDbEntity
  8
MAIN0
  6
CONTINUOUS
 62
3
100
AcDbDimension
  2
*D44
 10
873.6285002275644
 20
163.7179542195379
 30
0.0000000000000000
 11
884.7285002275630
 21
164.2179542195379
 31
0.0000000000000000
 70
32
  3
MAIN001
100
AcDbAlignedDimension
 13
895.8285002275617
 23
185.0870771835994
 33
0.0000000000000000
 14
873.6285002275644
 24
185.0870771835993
 34
0.0000000000000000
100
AcDbRotatedDimension
1001
ACAD
1000
DSTYLE
1002
{
1070
   173
1070
     1
1070
     6
1000
_OPEN
1070
     7
1000
_OPEN
1070
    41
1040
5.000000
1070
   287
1070
     0
1002
}
  0
DIMENSION
  5
31C
100
AcDbEntity
  8
MAIN0
  6
CONTINUOUS
 62
3
100
AcDbDimension
  2
*D45
 10
918.0771419349223
 20
203.0870771835994
 30
0.0000000000000000
 11
916.8271419349223
 21
174.2243293562748
 31
0.0000000000000000
 70
160
  3
MAIN001
100
AcDbAlignedDimension
 13
895.8285002275630
 23
189.2870771835994
 33
0.0000000000000000
 14
895.8285002275630
 24
203.0870771835994
 34
0.0000000000000000
 50
90.00000000000000
100
AcDbRotatedDimension
1001
ACAD
1000
DSTYLE
1002
{
1070
   173
1070
     1
1070
     6
1000
_OPEN
1070
     7
1000
_OPEN
1070
    41
1040
5.000000
1070
   287
1070
     0
1002
}
  0
DIMENSION
  5
327
100
AcDbEntity
  8
MAIN0
  6
CONTINUOUS
 62
3
100
AcDbDimension
  2
*D46
 10
358.7543985554166
 20
526.0059342116124
 30
0.0000000000000000
 11
372.8465666954020
 21
527.2559342116124
 31
0.0000000000000000
 70
160
  3
MAIN001
100
AcDbAlignedDimension
 13
344.2543985554067
 23
554.0013205466131
 33
0.0000000000000000
 14
358.7543985554166
 24
553.0013205462893
 34
0.0000000000000000
100
AcDbRotatedDimension
1001
ACAD
1000
DSTYLE
1002
{
1070
   173
1070
     1
1070
     6
1000
_OPEN
1070
     7
1000
_OPEN
1070
    41
1040
5.000000
1070
   287
1070
     0
1002
}
  0
DIMENSION
  5
330
100
AcDbEntity
  8
MAIN0
  6
CONTINUOUS
 62
3
100
AcDbDimension
  2
*D47
 10
358.7543985554109
 20
274.2959685536208
 30
0.0000000000000000
 11
421.7543985554165
 21
274.7959685536208
 31
0.0000000000000000
 70
32
  3
MAIN001
100
AcDbAlignedDimension
 13
484.7543985554221
 23
305.2959685536217
 33
0.0000000000000000
 14
358.7543985554109
 24
378.6959685536295
 34
0.0000000000000000
100
AcDbRotatedDimension
1001
ACAD
1000
DSTYLE
1002
{
1070
   173
1070
     1
1070
     6
1000
_OPEN
1070
     7
1000
_OPEN
1070
    41
1040
5.000000
1002
}
  0
DIMENSION
  5
339
100
AcDbEntity
  8
MAIN0
  6
CONTINUOUS
 62
3
100
AcDbDimension
  2
*D48
 10
484.7543985554221
 20
274.2959685536208
 30
0.0000000000000000
 11
559.2543985554190
 21
274.7959685536208
 31
0.0000000000000000
 70
32
  3
MAIN001
100
AcDbAlignedDimension
 13
633.7543985554160
 23
313.6959685536220
 33
0.0000000000000000
 14
484.7543985554221
 24
305.2959685536217
 34
0.0000000000000000
100
AcDbRotatedDimension
1001
ACAD
1000
DSTYLE
1002
{
1070
   173
1070
     1
1070
     6
1000
_OPEN
1070
     7
1000
_OPEN
1070
    41
1040
5.000000
1002
}
  0
DIMENSION
  5
342
100
AcDbEntity
  8
MAIN0
  6
CONTINUOUS
 62
3
100
AcDbDimension
  2
*D49
 10
247.6072596565384
 20
313.2959685537666
 30
0.0000000000000000
 11
247.1072596565384
 21
345.7959685536980
 31
0.0000000000000000
 70
32
  3
MAIN001
100
AcDbAlignedDimension
 13
286.1543985554110
 23
378.2959685536295
 33
0.0000000000000000
 14
285.1543985554228
 24
313.2959685537666
 34
0.0000000000000000
 50
90.00000000000000
100
AcDbRotatedDimension
1001
ACAD
1000
DSTYLE
1002
{
1070
   173
1070
     1
1070
     6
1000
_OPEN
1070
     7
1000
_OPEN
1070
    41
1040
5.000000
1002
}
  0
DIMENSION
  5
34B
100
AcDbEntity
  8
MAIN0
  6
CONTINUOUS
 62
3
100
AcDbDimension
  2
*D50
 10
247.6072596565384
 20
378.2959685536295
 30
0.0000000000000000
 11
247.1072596565384
 21
398.2959685533405
 31
0.0000000000000000
 70
32
  3
MAIN001
100
AcDbAlignedDimension
 13
285.9543985548330
 23
418.2959685530514
 33
0.0000000000000000
 14
286.1543985554110
 24
378.2959685536295
 34
0.0000000000000000
 50
90.00000000000000
100
AcDbRotatedDimension
1001
ACAD
1000
DSTYLE
1002
{
1070
   173
1070
     1
1070
     6
1000
_OPEN
1070
     7
1000
_OPEN
1070
    41
1040
5.000000
1002
}
  0
DIMENSION
  5
354
100
AcDbEntity
  8
MAIN0
  6
CONTINUOUS
 62
3
100
AcDbDimension
  2
*D51
 10
229.5482464448322
 20
313.2959685537666
 30
0.0000000000000000
 11
229.0482464448322
 21
365.7959685534090
 31
0.0000000000000000
 70
32
  3
MAIN001
100
AcDbAlignedDimension
 13
285.9543985548330
 23
418.2959685530514
 33
0.0000000000000000
 14
285.1543985554228
 24
313.2959685537666
 34
0.0000000000000000
 50
90.00000000000000
100
AcDbRotatedDimension
1001
ACAD
1000
DSTYLE
1002
{
1070
   173
1070
     1
1070
     6
1000
_OPEN
1070
     7
1000
_OPEN
1070
    41
1040
5.000000
1002
}
  0
DIMENSION
  5
35F
100
AcDbEntity
  8
MAIN0
  6
CONTINUOUS
 62
3
100
AcDbDimension
  2
*D52
 10
200.9312228223589
 20
313.2959685535128
 30
0.0000000000000000
 11
200.4312228223589
 21
320.7959685536051
 31
0.0000000000000000
 70
32
  3
MAIN001
100
AcDbAlignedDimension
 13
171.8543985554908
 23
328.2959685536975
 33
0.0000000000000000
 14
171.8543985555181
 24
313.2959685536977
 34
0.0000000000000000
 50
90.00000000000000
100
AcDbRotatedDimension
1001
ACAD
1000
DSTYLE
1002
{
1070
   173
1070
     1
1070
     6
1000
_OPEN
1070
     7
1000
_OPEN
1070
    41
1040
5.000000
1070
   287
1070
     0
1002
}
  0
DIMENSION
  5
368
100
AcDbEntity
  8
MAIN0
  6
CONTINUOUS
 62
3
100
AcDbDimension
  2
*D53
 10
200.9312228223589
 20
328.2959685536975
 30
0.0000000000000000
 11
200.4312228223589
 21
340.7959685536963
 31
0.0000000000000000
 70
32
  3
MAIN001
100
AcDbAlignedDimension
 13
171.2543985554201
 23
353.2959685536952
 33
0.0000000000000000
 14
171.8543985554908
 24
328.2959685536975
 34
0.0000000000000000
 50
90.00000000000000
100
AcDbRotatedDimension
1001
ACAD
1000
DSTYLE
1002
{
1070
   173
1070
     1
1070
     6
1000
_OPEN
1070
     7
1000
_OPEN
1070
    41
1040
5.000000
1002
}
  0
DIMENSION
  5
371
100
AcDbEntity
  8
MAIN0
  6
CONTINUOUS
 62
3
100
AcDbDimension
  2
*D54
 10
200.9312228223589
 20
353.2959685536952
 30
0.0000000000000000
 11
200.4312228223589
 21
365.7959685537081
 31
0.0000000000000000
 70
32
  3
MAIN001
100
AcDbAlignedDimension
 13
170.7543985553804
 23
378.2959685537210
 33
0.0000000000000000
 14
171.2543985554201
 24
353.2959685536952
 34
0.0000000000000000
 50
90.00000000000000
100
AcDbRotatedDimension
1001
ACAD
1000
DSTYLE
1002
{
1070
   173
1070
     1
1070
     6
1000
_OPEN
1070
     7
1000
_OPEN
1070
    41
1040
5.000000
1002
}
  0
MTEXT
  5
372
100
AcDbEntity
  8
MAIN0
  6
CONTINUOUS
 62
3
100
AcDbMText
 10
969.3950019524870
 20
358.7947661852276
 30
0.0000000000000000
 40
6.250000000000000
 41
0.0000000000000000
 71
     1
 72
     1
  1
{\H0.63x;{0}}
 11
0.5000000000000585
 21
-0.8660254037844049
 31
0.0000000000000000
  7
STANDARD
  0
MTEXT
  5
373
100
AcDbEntity
  8
MAIN0
  6
CONTINUOUS
 62
3
100
AcDbMText
 10
972.9785002275631
 20
349.1709685535058
 30
0.0000000000000000
 40
6.250000000000000
 41
0.0000000000000000
 71
     1
 72
     1
  1
{\H0.63x;{1}}
 11
-1.836970198721030e-016
 21
-1.000000000000000
 31
0.0000000000000000
  7
STANDARD
  0
MTEXT
  5
374
100
AcDbEntity
  8
MAIN0
  6
CONTINUOUS
 62
3
100
AcDbMText
 10
971.2700019521921
 20
339.0447661853432
 30
0.0000000000000000
 40
6.250000000000000
 41
0.0000000000000000
 71
     1
 72
     1
  1
{\H0.63x;{2}}
 11
-0.4999999999999527
 21
-0.8660254037844659
 31
0.0000000000000000
  7
STANDARD
  0
MTEXT
  5
375
100
AcDbEntity
  8
MAIN0
  6
CONTINUOUS
 62
3
100
AcDbMText
 10
964.7272978600478
 20
331.1294668289282
 30
0.0000000000000000
 40
6.250000000000000
 41
0.0000000000000000
 71
     1
 72
     1
  1
{\H0.63x;{3}}
 11
-0.8660254037845803
 21
-0.4999999999997548
 31
0.0000000000000000
  7
STANDARD
  0
LINE
  5
376
100
AcDbEntity
  8
MAIN0
  6
CENTER
 62
3
100
AcDbLine
 10
913.7285002275627
 20
352.2554283921631
 30
0.0000000000000000
 11
913.7285002275627
 21
341.5013010786565
 31
0.0000000000000000
  0
LINE
  5
377
100
AcDbEntity
  8
MAIN0
  6
CENTER
 62
3
100
AcDbLine
 10
992.7285002275625
 20
352.2554283921635
 30
0.0000000000000000
 11
992.7285002275625
 21
341.5013010786569
 31
0.0000000000000000
  0
LINE
  5
378
100
AcDbEntity
  8
MAIN0
  6
CONTINUOUS
 62
3
100
AcDbLine
 10
999.9285002275623
 20
353.2959685534462
 30
0.0000000000000000
 11
999.9285002275623
 21
328.2959685534461
 31
0.0000000000000000
  0
LINE
  5
379
100
AcDbEntity
  8
MAIN0
  6
CONTINUOUS
 62
3
100
AcDbLine
 10
916.1205495970042
 20
315.2959685534461
 30
0.0000000000000000
 11
990.3364508581221
 21
315.2959685534461
 31
0.0000000000000000
  0
LINE
  5
37A
100
AcDbEntity
  8
MAIN0
  6
CONTINUOUS
 62
3
100
AcDbLine
 10
903.2285002275631
 20
418.2959685529467
 30
0.0000000000000000
 11
1003.228500227563
 21
418.2959685529467
 31
0.0000000000000000
  0
LINE
  5
37B
100
AcDbEntity
  8
MAIN0
  6
CONTINUOUS
 62
3
100
AcDbLine
 10
999.7285002275625
 20
353.2959685534462
 30
0.0000000000000000
 11
999.7285002275625
 21
328.2959685534461
 31
0.0000000000000000
  0
LINE
  5
37C
100
AcDbEntity
  8
MAIN0
  6
CONTINUOUS
 62
3
100
AcDbLine
 10
1004.728500227562
 20
328.2959685534461
 30
0.0000000000000000
 11
1004.728500227562
 21
313.2959685534461
 31
0.0000000000000000
  0
LINE
  5
37D
100
AcDbEntity
  8
MAIN0
  6
CONTINUOUS
 62
3
100
AcDbLine
 10
901.7285002275627
 20
328.2959685534461
 30
0.0000000000000000
 11
901.7285002275627
 21
313.2959685534461
 31
0.0000000000000000
  0
LINE
  5
37E
100
AcDbEntity
  8
MAIN0
  6
CONTINUOUS
 62
3
100
AcDbLine
 10
999.7285002275623
 20
353.2959685534462
 30
0.0000000000000000
 11
1004.728500227562
 21
353.2959685534462
 31
0.0000000000000000
  0
LINE
  5
37F
100
AcDbEntity
  8
MAIN0
  6
CONTINUOUS
 62
3
100
AcDbLine
 10
1004.728500227563
 20
328.2959685534459
 30
0.0000000000000000
 11
999.7285002275626
 21
328.2959685534459
 31
0.0000000000000000
  0
LINE
  5
380
100
AcDbEntity
  8
MAIN0
  6
CONTINUOUS
 62
3
100
AcDbLine
 10
981.7285002275625
 20
308.2959685534461
 30
0.0000000000000000
 11
981.7285002275625
 21
313.2959685534461
 31
0.0000000000000000
  0
LINE
  5
381
100
AcDbEntity
  8
MAIN0
  6
CONTINUOUS
 62
3
100
AcDbLine
 10
924.7285002275631
 20
308.2959685534461
 30
0.0000000000000000
 11
924.7285002275631
 21
313.2959685534461
 31
0.0000000000000000
  0
LINE
  5
382
100
AcDbEntity
  8
MAIN0
  6
CONTINUOUS
 62
3
100
AcDbLine
 10
904.7285002275631
 20
308.2959685534461
 30
0.0000000000000000
 11
924.7285002275631
 21
308.2959685534461
 31
0.0000000000000000
  0
LINE
  5
383
100
AcDbEntity
  8
MAIN0
  6
CONTINUOUS
 62
3
100
AcDbLine
 10
981.7285002275625
 20
308.2959685534460
 30
0.0000000000000000
 11
1001.728500227562
 21
308.2959685534460
 31
0.0000000000000000
  0
LINE
  5
384
100
AcDbEntity
  8
MAIN0
  6
CONTINUOUS
 62
3
100
AcDbLine
 10
1001.728500227562
 20
308.2959685534461
 30
0.0000000000000000
 11
1001.728500227562
 21
313.2959685534461
 31
0.0000000000000000
  0
LINE
  5
385
100
AcDbEntity
  8
MAIN0
  6
CONTINUOUS
 62
3
100
AcDbLine
 10
904.7285002275631
 20
313.2959685534461
 30
0.0000000000000000
 11
904.7285002275631
 21
308.2959685534461
 31
0.0000000000000000
  0
LINE
  5
386
100
AcDbEntity
  8
MAIN0
  6
CONTINUOUS
 62
3
100
AcDbLine
 10
903.2285002275631
 20
418.2959685529467
 30
0.0000000000000000
 11
903.2285002275631
 21
397.4959685528797
 31
0.0000000000000000
  0
LINE
  5
387
100
AcDbEntity
  8
MAIN0
  6
CONTINUOUS
 62
3
100
AcDbLine
 10
1003.228500227563
 20
418.2959685529467
 30
0.0000000000000000
 11
1003.228500227563
 21
397.4959685528797
 31
0.0000000000000000
  0
CIRCLE
  5
388
100
AcDbEntity
  8
MAIN0
  6
CONTINUOUS
 62
3
100
AcDbCircle
 10
953.2285002275627
 20
347.2959685534461
 30
0.0000000000000000
 40
21.00000000000000
  0
LINE
  5
389
100
AcDbEntity
  8
MAIN0
  6
CONTINUOUS
 62
3
100
AcDbLine
 10
960.2285002275627
 20
343.2545166691189
 30
0.0000000000000000
 11
960.2285002275627
 21
351.3374204377742
 31
0.0000000000000000
  0
LINE
  5
38A
100
AcDbEntity
  8
MAIN0
  6
CONTINUOUS
 62
3
100
AcDbLine
 10
946.2285002275627
 20
343.2545166691184
 30
0.0000000000000000
 11
946.2285002275627
 21
351.3374204377728
 31
0.0000000000000000
  0
LINE
  5
38B
100
AcDbEntity
  8
MAIN0
  6
CONTINUOUS
 62
3
100
AcDbLine
 10
946.2285002275628
 20
351.3374204377731
 30
0.0000000000000000
 11
953.2285002275626
 21
355.3788723221010
 31
0.0000000000000000
  0
LINE
  5
38C
100
AcDbEntity
  8
MAIN0
  6
CONTINUOUS
 62
3
100
AcDbLine
 10
953.2285002275628
 20
339.2130647847906
 30
0.0000000000000000
 11
960.2285002275626
 21
343.2545166691185
 31
0.0000000000000000
  0
LINE
  5
38D
100
AcDbEntity
  8
MAIN0
  6
CONTINUOUS
 62
3
100
AcDbLine
 10
953.2285002275619
 20
355.3788723221007
 30
0.0000000000000000
 11
960.2285002275619
 21
351.3374204377739
 31
0.0000000000000000
  0
LINE
  5
38E
100
AcDbEntity
  8
MAIN0
  6
CONTINUOUS
 62
3
100
AcDbLine
 10
946.2285002275620
 20
343.2545166691190
 30
0.0000000000000000
 11
953.2285002275620
 21
339.2130647847918
 31
0.0000000000000000
  0
CIRCLE
  5
38F
100
AcDbEntity
  8
MAIN0
  6
CONTINUOUS
 62
3
100
AcDbCircle
 10
986.2285002275625
 20
347.2959685534461
 30
0.0000000000000000
 40
4.250000000000000
  0
CIRCLE
  5
390
100
AcDbEntity
  8
MAIN0
  6
CONTINUOUS
 62
3
100
AcDbCircle
 10
920.2285002275627
 20
347.2959685534461
 30
0.0000000000000000
 40
4.250000000000000
  0
LINE
  5
391
100
AcDbEntity
  8
MAIN0
  6
CONTINUOUS
 62
3
100
AcDbLine
 10
983.9190991508057
 20
347.2959685534456
 30
0.0000000000000000
 11
985.0737996891814
 21
349.2959685534456
 31
0.0000000000000000
  0
LINE
  5
392
100
AcDbEntity
  8
MAIN0
  6
CONTINUOUS
 62
3
100
AcDbLine
 10
987.3832007659431
 20
345.2959685534462
 30
0.0000000000000000
 11
988.5379013043189
 21
347.2959685534465
 31
0.0000000000000000
  0
LINE
  5
393
100
AcDbEntity
  8
MAIN0
  6
CONTINUOUS
 62
3
100
AcDbLine
 10
987.3832007659373
 20
349.2959685534460
 30
0.0000000000000000
 11
988.5379013043186
 21
347.2959685534460
 31
0.0000000000000000
  0
LINE
  5
394
100
AcDbEntity
  8
MAIN0
  6
CONTINUOUS
 62
3
100
AcDbLine
 10
985.0737996891866
 20
345.2959685534465
 30
0.0000000000000000
 11
983.9190991508058
 21
347.2959685534462
 31
0.0000000000000000
  0
LINE
  5
395
100
AcDbEntity
  8
MAIN0
  6
CONTINUOUS
 62
3
100
AcDbLine
 10
917.9190991508060
 20
347.2959685534459
 30
0.0000000000000000
 11
919.0737996891817
 21
349.2959685534459
 31
0.0000000000000000
  0
LINE
  5
396
100
AcDbEntity
  8
MAIN0
  6
CONTINUOUS
 62
3
100
AcDbLine
 10
921.3832007659438
 20
345.2959685534457
 30
0.0000000000000000
 11
922.5379013043194
 21
347.2959685534456
 31
0.0000000000000000
  0
LINE
  5
397
100
AcDbEntity
  8
MAIN0
  6
CONTINUOUS
 62
3
100
AcDbLine
 10
921.3832007659385
 20
349.2959685534462
 30
0.0000000000000000
 11
922.5379013043195
 21
347.2959685534463
 31
0.0000000000000000
  0
LINE
  5
398
100
AcDbEntity
  8
MAIN0
  6
CONTINUOUS
 62
3
100
AcDbLine
 10
917.9190991508059
 20
347.2959685534459
 30
0.0000000000000000
 11
919.0737996891868
 21
345.2959685534460
 31
0.0000000000000000
  0
LINE
  5
399
100
AcDbEntity
  8
MAIN0
  6
CONTINUOUS
 62
3
100
AcDbLine
 10
919.0737996891813
 20
349.2959685534461
 30
0.0000000000000000
 11
921.3832007659381
 21
349.2959685534461
 31
0.0000000000000000
  0
LINE
  5
39A
100
AcDbEntity
  8
MAIN0
  6
CONTINUOUS
 62
3
100
AcDbLine
 10
985.0737996891811
 20
349.2959685534461
 30
0.0000000000000000
 11
987.3832007659374
 21
349.2959685534461
 31
0.0000000000000000
  0
LINE
  5
39B
100
AcDbEntity
  8
MAIN0
  6
CONTINUOUS
 62
3
100
AcDbLine
 10
919.0737996891868
 20
345.2959685534461
 30
0.0000000000000000
 11
921.3832007659436
 21
345.2959685534461
 31
0.0000000000000000
  0
LINE
  5
39C
100
AcDbEntity
  8
MAIN0
  6
CONTINUOUS
 62
3
100
AcDbLine
 10
985.0737996891861
 20
345.2959685534461
 30
0.0000000000000000
 11
987.3832007659429
 21
345.2959685534461
 31
0.0000000000000000
  0
LINE
  5
39D
100
AcDbEntity
  8
MAIN0
  6
CONTINUOUS
 62
3
100
AcDbLine
 10
956.2285002275627
 20
358.9149185920684
 30
0.0000000000000000
 11
956.2285002275627
 21
368.0805782442726
 31
0.0000000000000000
  0
LINE
  5
39E
100
AcDbEntity
  8
MAIN0
  6
CONTINUOUS
 62
3
100
AcDbLine
 10
950.2285002275627
 20
358.9149185920683
 30
0.0000000000000000
 11
950.2285002275627
 21
368.0805782442726
 31
0.0000000000000000
  0
LINE
  5
39F
100
AcDbEntity
  8
MAIN0
  6
CONTINUOUS
 62
3
100
AcDbLine
 10
954.9285002275625
 20
322.6044214168246
 30
0.0000000000000000
 11
954.9285002275625
 21
326.3648911803148
 31
0.0000000000000000
  0
LINE
  5
3A0
100
AcDbEntity
  8
MAIN0
  6
CONTINUOUS
 62
3
100
AcDbLine
 10
951.5285002275624
 20
322.6044214168246
 30
0.0000000000000000
 11
951.5285002275624
 21
326.3648911803148
 31
0.0000000000000000
  0
LINE
  5
3A1
100
AcDbEntity
  8
MAIN0
  6
CENTER
 62
3
100
AcDbLine
 10
953.2285002275633
 20
425.2953598981616
 30
0.0000000000000000
 11
953.2285002275630
 21
303.3007609429373
 31
0.0000000000000000
  0
CIRCLE
  5
3A2
100
AcDbEntity
  8
MAIN0
  6
CONTINUOUS
 62
3
100
AcDbCircle
 10
953.2285002275627
 20
347.2959685534461
 30
0.0000000000000000
 40
24.75000000000000
  0
ARC
  5
3A3
100
AcDbEntity
  8
MAIN0
  6
CONTINUOUS
 62
3
100
AcDbCircle
 10
953.2285002275627
 20
347.2959685534461
 30
0.0000000000000000
 40
39.00000000000000
100
AcDbArc
 50
127.3568519724354
 51
232.6431480270969
  0
ARC
  5
3A4
100
AcDbEntity
  8
MAIN0
  6
CONTINUOUS
 62
3
100
AcDbCircle
 10
953.2285002275627
 20
347.2959685534461
 30
0.0000000000000000
 40
39.00000000000000
100
AcDbArc
 50
307.3568519729033
 51
412.6431480275646
  0
LINE
  5
3A5
100
AcDbEntity
  8
MAIN0
  6
CENTER
 62
3
100
AcDbLine
 10
986.2285002278098
 20
353.9438144189082
 30
0.0000000000000000
 11
986.2285002277853
 21
339.5142851139860
 31
0.0000000000000000
  0
LINE
  5
3A6
100
AcDbEntity
  8
MAIN0
  6
CENTER
 62
3
100
AcDbLine
 10
920.2285002277863
 20
353.9438144190111
 30
0.0000000000000000
 11
920.2285002277641
 21
339.5142851140889
 31
0.0000000000000000
  0
CIRCLE
  5
3A7
100
AcDbEntity
  8
MAIN0
  6
HIDDEN
 62
3
100
AcDbCircle
 10
992.7285002275625
 20
347.2959685534461
 30
0.0000000000000000
 40
3.000000000000000
  0
CIRCLE
  5
3A8
100
AcDbEntity
  8
MAIN0
  6
HIDDEN
 62
3
100
AcDbCircle
 10
913.7285002275627
 20
347.2959685534461
 30
0.0000000000000000
 40
3.000000000000000
  0
LINE
  5
3A9
100
AcDbEntity
  8
MAIN0
  6
CENTER
 62
3
100
AcDbLine
 10
910.7932554421258
 20
322.7959685534461
 30
0.0000000000000000
 11
929.8458143253835
 21
333.7959685534461
 31
0.0000000000000000
  0
ARC
  5
3AA
100
AcDbEntity
  8
MAIN0
  6
CENTER
 62
3
100
AcDbCircle
 10
953.2285002275627
 20
347.2959685534461
 30
0.0000000000000000
 40
37.99999999999996
100
AcDbArc
 50
193.3993994053433
 51
226.6006005946568
  0
LINE
  5
3AB
100
AcDbEntity
  8
MAIN0
  6
CONTINUOUS
 62
3
100
AcDbLine
 10
917.3195348837541
 20
330.0280193610151
 30
0.0000000000000000
 11
917.3195348837541
 21
326.5639177458775
 31
0.0000000000000000
  0
LINE
  5
3AC
100
AcDbEntity
  8
MAIN0
  6
CONTINUOUS
 62
3
100
AcDbLine
 10
917.3195348837542
 20
326.5639177458775
 30
0.0000000000000000
 11
920.3195348837542
 21
324.8318669383087
 31
0.0000000000000000
  0
LINE
  5
3AD
100
AcDbEntity
  8
MAIN0
  6
HIDDEN
 62
3
100
AcDbLine
 10
923.3195348837538
 20
326.5639177458777
 30
0.0000000000000000
 11
923.3195348837538
 21
330.0280193610154
 31
0.0000000000000000
  0
LINE
  5
3AE
100
AcDbEntity
  8
MAIN0
  6
HIDDEN
 62
3
100
AcDbLine
 10
923.3195348837537
 20
330.0280193610150
 30
0.0000000000000000
 11
920.3195348837537
 21
331.7600701685839
 31
0.0000000000000000
  0
LINE
  5
3AF
100
AcDbEntity
  8
MAIN0
  6
CONTINUOUS
 62
3
100
AcDbLine
 10
917.3195348837535
 20
330.0280193610151
 30
0.0000000000000000
 11
918.0535837465968
 21
330.4518226695763
 31
0.0000000000000000
  0
LINE
  5
3B0
100
AcDbEntity
  8
MAIN0
  6
HIDDEN
 62
3
100
AcDbLine
 10
918.0535837465969
 20
330.4518226695758
 30
0.0000000000000000
 11
920.3195348837529
 21
331.7600701685832
 31
0.0000000000000000
  0
LINE
  5
3B1
100
AcDbEntity
  8
MAIN0
  6
CONTINUOUS
 62
3
100
AcDbLine
 10
920.3195348837538
 20
324.8318669383085
 30
0.0000000000000000
 11
921.0535837465973
 21
325.2556702468693
 31
0.0000000000000000
  0
LINE
  5
3B2
100
AcDbEntity
  8
MAIN0
  6
HIDDEN
 62
3
100
AcDbLine
 10
921.0535837465972
 20
325.2556702468697
 30
0.0000000000000000
 11
923.3195348837534
 21
326.5639177458770
 31
0.0000000000000000
  0
ARC
  5
3B3
100
AcDbEntity
  8
MAIN0
  6
CONTINUOUS
 62
3
100
AcDbCircle
 10
920.3195348837541
 20
328.2959685534463
 30
0.0000000000000000
 40
6.500000000000000
100
AcDbArc
 50
124.0337531141074
 51
295.9662468858919
  0
ARC
  5
3B4
100
AcDbEntity
  8
MAIN0
  6
HIDDEN
 62
3
100
AcDbCircle
 10
920.3195348837541
 20
328.2959685534463
 30
0.0000000000000000
 40
6.500000000000000
100
AcDbArc
 50
295.9662468858919
 51
484.0337531141074
  0
ARC
  5
3B5
100
AcDbEntity
  8
MAIN0
  6
HIDDEN
 62
3
100
AcDbCircle
 10
920.3195348837541
 20
328.2959685534461
 30
0.0000000000000000
 40
7.000000000000000
100
AcDbArc
 50
296.9830386901834
 51
483.0169613098169
  0
ARC
  5
3B6
100
AcDbEntity
  8
MAIN0
  6
CONTINUOUS
 62
3
100
AcDbCircle
 10
920.3195348837541
 20
328.2959685534461
 30
0.0000000000000000
 40
7.000000000000000
100
AcDbArc
 50
123.0169613098168
 51
296.9830386901834
  0
LINE
  5
3B7
100
AcDbEntity
  8
MAIN0
  6
CENTER
 62
3
100
AcDbLine
 10
910.7932554421254
 20
371.7959685534450
 30
0.0000000000000000
 11
929.8458143253831
 21
360.7959685534451
 31
0.0000000000000000
  0
ARC
  5
3B8
100
AcDbEntity
  8
MAIN0
  6
CENTER
 62
3
100
AcDbCircle
 10
953.2285002275627
 20
347.2959685534447
 30
0.0000000000000000
 40
37.99999999999996
100
AcDbArc
 50
133.3993994053432
 51
166.6006005946568
  0
LINE
  5
3B9
100
AcDbEntity
  8
MAIN0
  6
CONTINUOUS
 62
3
100
AcDbLine
 10
917.3195348837541
 20
364.5639177458756
 30
0.0000000000000000
 11
917.3195348837541
 21
368.0280193610133
 31
0.0000000000000000
  0
LINE
  5
3BA
100
AcDbEntity
  8
MAIN0
  6
CONTINUOUS
 62
3
100
AcDbLine
 10
917.3195348837537
 20
368.0280193610129
 30
0.0000000000000000
 11
920.3195348837535
 21
369.7600701685817
 31
0.0000000000000000
  0
LINE
  5
3BB
100
AcDbEntity
  8
MAIN0
  6
HIDDEN
 62
3
100
AcDbLine
 10
923.3195348837542
 20
368.0280193610132
 30
0.0000000000000000
 11
923.3195348837542
 21
364.5639177458755
 31
0.0000000000000000
  0
LINE
  5
3BC
100
AcDbEntity
  8
MAIN0
  6
HIDDEN
 62
3
100
AcDbLine
 10
923.3195348837541
 20
364.5639177458758
 30
0.0000000000000000
 11
920.3195348837542
 21
362.8318669383070
 31
0.0000000000000000
  0
LINE
  5
3BD
100
AcDbEntity
  8
MAIN0
  6
CONTINUOUS
 62
3
100
AcDbLine
 10
917.3195348837537
 20
364.5639177458755
 30
0.0000000000000000
 11
918.0535837465970
 21
364.1401144373144
 31
0.0000000000000000
  0
LINE
  5
3BE
100
AcDbEntity
  8
MAIN0
  6
HIDDEN
 62
3
100
AcDbLine
 10
918.0535837465973
 20
364.1401144373150
 30
0.0000000000000000
 11
920.3195348837533
 21
362.8318669383077
 31
0.0000000000000000
  0
LINE
  5
3BF
100
AcDbEntity
  8
MAIN0
  6
CONTINUOUS
 62
3
100
AcDbLine
 10
920.3195348837539
 20
369.7600701685818
 30
0.0000000000000000
 11
921.0535837465973
 21
369.3362668600209
 31
0.0000000000000000
  0
LINE
  5
3C0
100
AcDbEntity
  8
MAIN0
  6
HIDDEN
 62
3
100
AcDbLine
 10
921.0535837465975
 20
369.3362668600215
 30
0.0000000000000000
 11
923.3195348837537
 21
368.0280193610142
 31
0.0000000000000000
  0
ARC
  5
3C1
100
AcDbEntity
  8
MAIN0
  6
CONTINUOUS
 62
3
100
AcDbCircle
 10
920.3195348837541
 20
366.2959685534445
 30
0.0000000000000000
 40
6.500000000000000
100
AcDbArc
 50
64.03375311410817
 51
235.9662468858925
  0
ARC
  5
3C2
100
AcDbEntity
  8
MAIN0
  6
HIDDEN
 62
3
100
AcDbCircle
 10
920.3195348837541
 20
366.2959685534445
 30
0.0000000000000000
 40
6.500000000000000
100
AcDbArc
 50
235.9662468858925
 51
424.0337531141082
  0
ARC
  5
3C3
100
AcDbEntity
  8
MAIN0
  6
HIDDEN
 62
3
100
AcDbCircle
 10
920.3195348837541
 20
366.2959685534447
 30
0.0000000000000000
 40
7.000000000000000
100
AcDbArc
 50
236.9830386901832
 51
423.0169613098166
  0
ARC
  5
3C4
100
AcDbEntity
  8
MAIN0
  6
CONTINUOUS
 62
3
100
AcDbCircle
 10
920.3195348837541
 20
366.2959685534447
 30
0.0000000000000000
 40
7.000000000000000
100
AcDbArc
 50
63.01696130981657
 51
236.9830386901832
  0
LINE
  5
3C5
100
AcDbEntity
  8
MAIN0
  6
CENTER
 62
3
100
AcDbLine
 10
995.6637450129998
 20
371.7959685534446
 30
0.0000000000000000
 11
976.6111861297421
 21
360.7959685534446
 31
0.0000000000000000
  0
ARC
  5
3C6
100
AcDbEntity
  8
MAIN0
  6
CENTER
 62
3
100
AcDbCircle
 10
953.2285002275618
 20
347.2959685534447
 30
0.0000000000000000
 40
37.99999999999996
100
AcDbArc
 50
13.39939940534304
 51
46.60060059465658
  0
LINE
  5
3C7
100
AcDbEntity
  8
MAIN0
  6
CONTINUOUS
 62
3
100
AcDbLine
 10
989.1374655713699
 20
364.5639177458756
 30
0.0000000000000000
 11
989.1374655713699
 21
368.0280193610133
 31
0.0000000000000000
  0
LINE
  5
3C8
100
AcDbEntity
  8
MAIN0
  6
CONTINUOUS
 62
3
100
AcDbLine
 10
989.1374655713707
 20
368.0280193610133
 30
0.0000000000000000
 11
986.1374655713707
 21
369.7600701685821
 31
0.0000000000000000
  0
LINE
  5
3C9
100
AcDbEntity
  8
MAIN0
  6
HIDDEN
 62
3
100
AcDbLine
 10
983.1374655713707
 20
368.0280193610131
 30
0.0000000000000000
 11
983.1374655713707
 21
364.5639177458754
 31
0.0000000000000000
  0
LINE
  5
3CA
100
AcDbEntity
  8
MAIN0
  6
HIDDEN
 62
3
100
AcDbLine
 10
983.1374655713705
 20
364.5639177458755
 30
0.0000000000000000
 11
986.1374655713703
 21
362.8318669383066
 31
0.0000000000000000
  0
LINE
  5
3CB
100
AcDbEntity
  8
MAIN0
  6
CONTINUOUS
 62
3
100
AcDbLine
 10
989.1374655713711
 20
364.5639177458754
 30
0.0000000000000000
 11
988.4034167085276
 21
364.1401144373143
 31
0.0000000000000000
  0
LINE
  5
3CC
100
AcDbEntity
  8
MAIN0
  6
HIDDEN
 62
3
100
AcDbLine
 10
988.4034167085276
 20
364.1401144373149
 30
0.0000000000000000
 11
986.1374655713714
 21
362.8318669383074
 31
0.0000000000000000
  0
LINE
  5
3CD
100
AcDbEntity
  8
MAIN0
  6
CONTINUOUS
 62
3
100
AcDbLine
 10
986.1374655713711
 20
369.7600701685818
 30
0.0000000000000000
 11
985.4034167085276
 21
369.3362668600211
 31
0.0000000000000000
  0
LINE
  5
3CE
100
AcDbEntity
  8
MAIN0
  6
HIDDEN
 62
3
100
AcDbLine
 10
985.4034167085274
 20
369.3362668600213
 30
0.0000000000000000
 11
983.1374655713712
 21
368.0280193610140
 31
0.0000000000000000
  0
ARC
  5
3CF
100
AcDbEntity
  8
MAIN0
  6
CONTINUOUS
 62
3
100
AcDbCircle
 10
986.1374655713702
 20
366.2959685534443
 30
0.0000000000000000
 40
6.500000000000000
100
AcDbArc
 50
304.0337531141072
 51
475.9662468858917
  0
ARC
  5
3D0
100
AcDbEntity
  8
MAIN0
  6
HIDDEN
 62
3
100
AcDbCircle
 10
986.1374655713702
 20
366.2959685534443
 30
0.0000000000000000
 40
6.500000000000000
100
AcDbArc
 50
115.9662468858916
 51
304.0337531141072
  0
ARC
  5
3D1
100
AcDbEntity
  8
MAIN0
  6
HIDDEN
 62
3
100
AcDbCircle
 10
986.1374655713702
 20
366.2959685534445
 30
0.0000000000000000
 40
7.000000000000000
100
AcDbArc
 50
116.9830386901832
 51
303.0169613098166
  0
ARC
  5
3D2
100
AcDbEntity
  8
MAIN0
  6
CONTINUOUS
 62
3
100
AcDbCircle
 10
986.1374655713702
 20
366.2959685534445
 30
0.0000000000000000
 40
7.000000000000000
100
AcDbArc
 50
303.0169613098166
 51
476.9830386901832
  0
LINE
  5
3D3
100
AcDbEntity
  8
MAIN0
  6
CENTER
 62
3
100
AcDbLine
 10
995.6637450129997
 20
322.7959685534459
 30
0.0000000000000000
 11
976.6111861297418
 21
333.7959685534458
 31
0.0000000000000000
  0
ARC
  5
3D4
100
AcDbEntity
  8
MAIN0
  6
CENTER
 62
3
100
AcDbCircle
 10
953.2285002275618
 20
347.2959685534461
 30
0.0000000000000000
 40
37.99999999999996
100
AcDbArc
 50
313.3993994053434
 51
346.6006005946570
  0
LINE
  5
3D5
100
AcDbEntity
  8
MAIN0
  6
CONTINUOUS
 62
3
100
AcDbLine
 10
989.1374655713705
 20
330.0280193610151
 30
0.0000000000000000
 11
989.1374655713705
 21
326.5639177458774
 31
0.0000000000000000
  0
LINE
  5
3D6
100
AcDbEntity
  8
MAIN0
  6
CONTINUOUS
 62
3
100
AcDbLine
 10
989.1374655713705
 20
326.5639177458778
 30
0.0000000000000000
 11
986.1374655713706
 21
324.8318669383090
 31
0.0000000000000000
  0
LINE
  5
3D7
100
AcDbEntity
  8
MAIN0
  6
HIDDEN
 62
3
100
AcDbLine
 10
983.1374655713703
 20
326.5639177458776
 30
0.0000000000000000
 11
983.1374655713703
 21
330.0280193610153
 31
0.0000000000000000
  0
LINE
  5
3D8
100
AcDbEntity
  8
MAIN0
  6
HIDDEN
 62
3
100
AcDbLine
 10
983.1374655713713
 20
330.0280193610153
 30
0.0000000000000000
 11
986.1374655713712
 21
331.7600701685841
 31
0.0000000000000000
  0
LINE
  5
3D9
100
AcDbEntity
  8
MAIN0
  6
CONTINUOUS
 62
3
100
AcDbLine
 10
989.1374655713710
 20
330.0280193610159
 30
0.0000000000000000
 11
988.4034167085275
 21
330.4518226695769
 31
0.0000000000000000
  0
LINE
  5
3DA
100
AcDbEntity
  8
MAIN0
  6
HIDDEN
 62
3
100
AcDbLine
 10
988.4034167085281
 20
330.4518226695759
 30
0.0000000000000000
 11
986.1374655713719
 21
331.7600701685834
 31
0.0000000000000000
  0
LINE
  5
3DB
100
AcDbEntity
  8
MAIN0
  6
CONTINUOUS
 62
3
100
AcDbLine
 10
986.1374655713709
 20
324.8318669383091
 30
0.0000000000000000
 11
985.4034167085274
 21
325.2556702468698
 31
0.0000000000000000
  0
LINE
  5
3DC
100
AcDbEntity
  8
MAIN0
  6
HIDDEN
 62
3
100
AcDbLine
 10
985.4034167085276
 20
325.2556702468692
 30
0.0000000000000000
 11
983.1374655713714
 21
326.5639177458765
 31
0.0000000000000000
  0
ARC
  5
3DD
100
AcDbEntity
  8
MAIN0
  6
CONTINUOUS
 62
3
100
AcDbCircle
 10
986.1374655713702
 20
328.2959685534465
 30
0.0000000000000000
 40
6.500000000000000
100
AcDbArc
 50
244.0337531141083
 51
415.9662468858927
  0
ARC
  5
3DE
100
AcDbEntity
  8
MAIN0
  6
HIDDEN
 62
3
100
AcDbCircle
 10
986.1374655713702
 20
328.2959685534465
 30
0.0000000000000000
 40
6.500000000000000
100
AcDbArc
 50
55.96624688589277
 51
244.0337531141084
  0
ARC
  5
3DF
100
AcDbEntity
  8
MAIN0
  6
HIDDEN
 62
3
100
AcDbCircle
 10
986.1374655713702
 20
328.2959685534463
 30
0.0000000000000000
 40
7.000000000000000
100
AcDbArc
 50
56.98303869018339
 51
243.0169613098168
  0
ARC
  5
3E0
100
AcDbEntity
  8
MAIN0
  6
CONTINUOUS
 62
3
100
AcDbCircle
 10
986.1374655713702
 20
328.2959685534463
 30
0.0000000000000000
 40
7.000000000000000
100
AcDbArc
 50
243.0169613098168
 51
416.9830386901834
  0
ARC
  5
3E1
100
AcDbEntity
  8
MAIN0
  6
CONTINUOUS
 62
3
100
AcDbCircle
 10
953.2285002275631
 20
347.2959685534461
 30
0.0000000000000000
 40
49.00000000000000
100
AcDbArc
 50
7.033461315379010
 51
39.24613294998708
  0
ARC
  5
3E2
100
AcDbEntity
  8
MAIN0
  6
CONTINUOUS
 62
3
100
AcDbCircle
 10
953.2285002275631
 20
347.2959685534461
 30
0.0000000000000000
 40
49.00000000000000
100
AcDbArc
 50
140.7538670500129
 51
172.9665386846211
  0
ARC
  5
3E3
100
AcDbEntity
  8
MAIN0
  6
CONTINUOUS
 62
3
100
AcDbCircle
 10
953.2285002275631
 20
347.2959685534461
 30
0.0000000000000000
 40
49.00000000000000
100
AcDbArc
 50
198.3811891141094
 51
220.7728046940429
  0
ARC
  5
3E4
100
AcDbEntity
  8
MAIN0
  6
CONTINUOUS
 62
3
100
AcDbCircle
 10
953.2285002275631
 20
347.2959685534461
 30
0.0000000000000000
 40
49.00000000000000
100
AcDbArc
 50
319.2271953059571
 51
341.6188108858881
  0
LINE
  5
3E5
100
AcDbEntity
  8
MAIN0
  6
CONTINUOUS
 62
3
100
AcDbLine
 10
901.7285002275625
 20
328.2959685534461
 30
0.0000000000000000
 11
906.7285002275879
 21
328.2959685534462
 31
0.0000000000000000
  0
LINE
  5
3E6
100
AcDbEntity
  8
MAIN0
  6
CONTINUOUS
 62
3
100
AcDbLine
 10
901.7285002275627
 20
358.7959685543699
 30
0.0000000000000000
 11
901.7285002275627
 21
353.2959685534461
 31
0.0000000000000000
  0
LINE
  5
3E7
100
AcDbEntity
  8
MAIN0
  6
CONTINUOUS
 62
3
100
AcDbLine
 10
1004.728500227562
 20
358.7959685538890
 30
0.0000000000000000
 11
1004.728500227562
 21
353.2959685534461
 31
0.0000000000000000
  0
DIMENSION
  5
3F0
100
AcDbEntity
  8
MAIN0
  6
CONTINUOUS
 62
3
100
AcDbDimension
  2
*D55
 10
903.2285002275631
 20
443.0866293888649
 30
0.0000000000000000
 11
953.2285002275630
 21
443.5866293888649
 31
0.0000000000000000
 70
32
  3
MAIN001
100
AcDbAlignedDimension
 13
1003.228500227563
 23
418.2959685529467
 33
0.0000000000000000
 14
903.2285002275631
 24
418.2959685529467
 34
0.0000000000000000
100
AcDbRotatedDimension
1001
ACAD
1000
DSTYLE
1002
{
1070
   173
1070
     1
1070
     6
1000
_OPEN
1070
     7
1000
_OPEN
1070
    41
1040
5.000000
1002
}
  0
LINE
  5
3F1
100
AcDbEntity
  8
MAIN0
  6
CONTINUOUS
 62
3
100
AcDbLine
 10
901.7285002275622
 20
353.2959685534461
 30
0.0000000000000000
 11
906.7285002275627
 21
353.2959685534461
 31
0.0000000000000000
  0
LINE
  5
3F2
100
AcDbEntity
  8
MAIN0
  6
CONTINUOUS
 62
3
100
AcDbLine
 10
906.5285002275629
 20
353.2959685534461
 30
0.0000000000000000
 11
906.5285002275629
 21
328.2959685534461
 31
0.0000000000000000
  0
LINE
  5
3F3
100
AcDbEntity
  8
MAIN0
  6
CONTINUOUS
 62
3
100
AcDbLine
 10
906.7285002275627
 20
353.2959685534461
 30
0.0000000000000000
 11
906.7285002275627
 21
328.2959685534461
 31
0.0000000000000000
  0
LINE
  5
3F4
100
AcDbEntity
  8
MAIN0
  6
CENTER
 62
3
100
AcDbLine
 10
965.5562461120925
 20
347.2959685534461
 30
0.0000000000000000
 11
905.4062694523515
 21
347.2959685534461
 31
0.0000000000000000
  0
LINE
  5
3F5
100
AcDbEntity
  8
MAIN0
  6
CENTER
 62
3
100
AcDbLine
 10
999.9619679479280
 20
347.2959685534461
 30
0.0000000000000000
 11
973.9213922252000
 21
347.2959685534461
 31
0.0000000000000000
  0
LINE
  5
3F6
100
AcDbEntity
  8
MAIN0
  6
CONTINUOUS
 62
3
100
AcDbLine
 10
901.7285002275623
 20
313.2959685534460
 30
0.0000000000000000
 11
1004.728500227563
 21
313.2959685534461
 31
0.0000000000000000
  0
LINE
  5
3F7
100
AcDbEntity
  8
MAIN0
  6
CONTINUOUS
 62
3
100
AcDbLine
 10
69.65439855549104
 20
328.2959685535125
 30
0.0000000000000000
 11
74.25439855547174
 21
328.2959685535125
 31
0.0000000000000000
  0
LINE
  5
3F8
100
AcDbEntity
  8
MAIN0
  6
CONTINUOUS
 62
3
100
AcDbLine
 10
70.25439855542058
 20
353.2959685535125
 30
0.0000000000000000
 11
74.25439855541990
 21
353.2959685535125
 31
0.0000000000000000
  0
LINE
  5
3F9
100
AcDbEntity
  8
MAIN0
  6
CONTINUOUS
 62
3
100
AcDbLine
 10
69.25439855549176
 20
327.8959685535124
 30
0.0000000000000000
 11
69.25439855551802
 21
313.6959685535120
 31
0.0000000000000000
  0
LINE
  5
3FA
100
AcDbEntity
  8
MAIN0
  6
CONTINUOUS
 62
3
100
AcDbLine
 10
171.8543985554908
 20
328.2959685536975
 30
0.0000000000000000
 11
167.2543985554717
 21
328.2959685536806
 31
0.0000000000000000
  0
LINE
  5
3FB
100
AcDbEntity
  8
MAIN0
  6
CONTINUOUS
 62
3
100
AcDbLine
 10
171.2543985554201
 20
353.2959685536952
 30
0.0000000000000000
 11
167.2543985554197
 21
353.2959685536804
 31
0.0000000000000000
  0
LINE
  5
3FC
100
AcDbEntity
  8
MAIN0
  6
CONTINUOUS
 62
3
100
AcDbLine
 10
167.2543985554253
 20
353.2959685536807
 30
0.0000000000000000
 11
167.2543985554716
 21
328.2959685536787
 31
0.0000000000000000
  0
LINE
  5
3FD
100
AcDbEntity
  8
MAIN0
  6
CONTINUOUS
 62
3
100
AcDbLine
 10
172.2543985554915
 20
327.8959685536989
 30
0.0000000000000000
 11
172.2543985555178
 21
313.6959685536983
 31
0.0000000000000000
  0
LINE
  5
3FE
100
AcDbEntity
  8
MAIN0
  6
CONTINUOUS
 62
3
100
AcDbLine
 10
172.2543985553830
 20
376.7959685537238
 30
0.0000000000000000
 11
172.2543985554241
 21
354.2959685537044
 31
0.0000000000000000
  0
LINE
  5
3FF
100
AcDbEntity
  8
MAIN0
  6
CONTINUOUS
 62
3
100
AcDbLine
 10
69.25439855551774
 20
313.6959685535123
 30
0.0000000000000000
 11
69.65439855551844
 21
313.2959685535131
 31
0.0000000000000000
  0
LINE
  5
400
100
AcDbEntity
  8
MAIN0
  6
CONTINUOUS
 62
3
100
AcDbLine
 10
171.8543985555182
 20
313.2959685536977
 30
0.0000000000000000
 11
172.2543985555176
 21
313.6959685536985
 31
0.0000000000000000
  0
LINE
  5
401
100
AcDbEntity
  8
MAIN0
  6
CONTINUOUS
 62
3
100
AcDbLine
 10
70.25439855542072
 20
353.2959685535127
 30
0.0000000000000000
 11
69.25439855541882
 21
354.2959685535127
 31
0.0000000000000000
  0
LINE
  5
402
100
AcDbEntity
  8
MAIN0
  6
CONTINUOUS
 62
3
100
AcDbLine
 10
171.2543985554206
 20
353.2959685536956
 30
0.0000000000000000
 11
172.2543985554187
 21
354.2959685536993
 31
0.0000000000000000
  0
LINE
  5
403
100
AcDbEntity
  8
MAIN0
  6
CONTINUOUS
 62
3
100
AcDbLine
 10
69.25439855538309
 20
376.7959685535378
 30
0.0000000000000000
 11
70.75439855538036
 21
378.2959685535407
 31
0.0000000000000000
  0
LINE
  5
404
100
AcDbEntity
  8
MAIN0
  6
CONTINUOUS
 62
3
100
AcDbLine
 10
170.7543985553801
 20
378.2959685537213
 30
0.0000000000000000
 11
172.2543985553829
 21
376.7959685537240
 31
0.0000000000000000
  0
LINE
  5
405
100
AcDbEntity
  8
MAIN0
  6
CONTINUOUS
 62
3
100
AcDbLine
 10
93.75439855538720
 20
374.4959685535810
 30
0.0000000000000000
 11
94.75439855538743
 21
374.4959685535828
 31
0.0000000000000000
  0
LINE
  5
406
100
AcDbEntity
  8
MAIN0
  6
CONTINUOUS
 62
3
100
AcDbLine
 10
93.75439855538129
 20
377.6959685535809
 30
0.0000000000000000
 11
93.75439855538720
 21
374.4959685535810
 31
0.0000000000000000
  0
LINE
  5
407
100
AcDbEntity
  8
MAIN0
  6
CONTINUOUS
 62
3
100
AcDbLine
 10
93.15439855538008
 20
378.2959685535799
 30
0.0000000000000000
 11
93.75439855538124
 21
377.6959685535809
 31
0.0000000000000000
  0
LINE
  5
408
100
AcDbEntity
  8
MAIN0
  6
CONTINUOUS
 62
3
100
AcDbLine
 10
147.7543985553870
 20
374.4959685536804
 30
0.0000000000000000
 11
146.7543985553870
 21
374.4959685536786
 31
0.0000000000000000
  0
LINE
  5
409
100
AcDbEntity
  8
MAIN0
  6
CONTINUOUS
 62
3
100
AcDbLine
 10
147.7543985553813
 20
377.6959685536805
 30
0.0000000000000000
 11
147.7543985553872
 21
374.4959685536805
 31
0.0000000000000000
  0
LINE
  5
40A
100
AcDbEntity
  8
MAIN0
  6
CONTINUOUS
 62
3
100
AcDbLine
 10
148.3543985553797
 20
378.2959685536815
 30
0.0000000000000000
 11
147.7543985553807
 21
377.6959685536805
 31
0.0000000000000000
  0
LINE
  5
40B
100
AcDbEntity
  8
MAIN0
  6
CONTINUOUS
 62
3
100
AcDbLine
 10
70.75439855537987
 20
378.2959685535404
 30
0.0000000000000000
 11
93.15439855538021
 21
378.2959685535799
 31
0.0000000000000000
  0
LINE
  5
40C
100
AcDbEntity
  8
MAIN0
  6
CONTINUOUS
 62
3
100
AcDbLine
 10
148.3543985553802
 20
378.2959685536815
 30
0.0000000000000000
 11
170.7543985553804
 21
378.2959685537210
 31
0.0000000000000000
  0
LINE
  5
40D
100
AcDbEntity
  8
MAIN0
  6
CONTINUOUS
 62
3
100
AcDbLine
 10
74.25439855547170
 20
328.2959685535126
 30
0.0000000000000000
 11
74.25439855541985
 21
353.2959685535126
 31
0.0000000000000000
  0
LINE
  5
40E
100
AcDbEntity
  8
MAIN0
  6
CONTINUOUS
 62
3
100
AcDbLine
 10
69.25439855541863
 20
354.2959685535124
 30
0.0000000000000000
 11
69.25439855538259
 21
376.7959685535375
 31
0.0000000000000000
  0
LINE
  5
40F
100
AcDbEntity
  8
MAIN0
  6
CONTINUOUS
 62
3
100
AcDbLine
 10
69.65439855549121
 20
328.2959685535125
 30
0.0000000000000000
 11
69.25439855549186
 21
327.8959685535124
 31
0.0000000000000000
  0
LINE
  5
410
100
AcDbEntity
  8
MAIN0
  6
CONTINUOUS
 62
3
100
AcDbLine
 10
172.2543985554915
 20
327.8959685536991
 30
0.0000000000000000
 11
171.8543985554910
 21
328.2959685536974
 31
0.0000000000000000
  0
LINE
  5
411
100
AcDbEntity
  8
MAIN0
  6
CONTINUOUS
 62
3
100
AcDbLine
 10
146.7543985553869
 20
374.4959685536788
 30
0.0000000000000000
 11
146.7543985554143
 21
359.6959685537232
 31
0.0000000000000000
  0
LINE
  5
412
100
AcDbEntity
  8
MAIN0
  6
CONTINUOUS
 62
3
100
AcDbLine
 10
94.75439855538711
 20
374.4959685535828
 30
0.0000000000000000
 11
94.75439855539118
 21
372.2959685535902
 31
0.0000000000000000
  0
LINE
  5
413
100
AcDbEntity
  8
MAIN0
  6
CONTINUOUS
 62
3
100
AcDbLine
 10
69.65439855551844
 20
313.2959685535128
 30
0.0000000000000000
 11
171.8543985555181
 21
313.2959685536977
 31
0.0000000000000000
  0
LINE
  5
414
100
AcDbEntity
  8
MAIN0
  6
CONTINUOUS
 62
3
100
AcDbLine
 10
284.7543985554229
 20
313.6959685537677
 30
0.0000000000000000
 11
285.1543985554228
 21
313.2959685537678
 31
0.0000000000000000
  0
LINE
  5
415
100
AcDbEntity
  8
MAIN0
  6
CONTINUOUS
 62
3
100
AcDbLine
 10
284.7543985554112
 20
377.6959685536294
 30
0.0000000000000000
 11
284.7543985554225
 21
313.6959685537676
 31
0.0000000000000000
  0
LINE
  5
416
100
AcDbEntity
  8
MAIN0
  6
CONTINUOUS
 62
3
100
AcDbLine
 10
491.7543985554221
 20
313.6959685536217
 30
0.0000000000000000
 11
491.7543985554221
 21
317.2959685536220
 31
0.0000000000000000
  0
LINE
  5
417
100
AcDbEntity
  8
MAIN0
  6
CONTINUOUS
 62
3
100
AcDbLine
 10
477.7543985554221
 20
313.6959685536205
 30
0.0000000000000000
 11
477.7543985554221
 21
317.2959685536220
 31
0.0000000000000000
  0
LINE
  5
418
100
AcDbEntity
  8
MAIN0
  6
CONTINUOUS
 62
3
100
AcDbLine
 10
491.7543985554221
 20
317.2959685536217
 30
0.0000000000000000
 11
477.7543985554221
 21
317.2959685536217
 31
0.0000000000000000
  0
LINE
  5
419
100
AcDbEntity
  8
MAIN0
  6
CONTINUOUS
 62
3
100
AcDbLine
 10
492.1543985554221
 20
313.2959685536217
 30
0.0000000000000000
 11
633.3543985554223
 21
313.2959685536218
 31
0.0000000000000000
  0
LINE
  5
41A
100
AcDbEntity
  8
MAIN0
  6
CONTINUOUS
 62
3
100
AcDbLine
 10
633.3543985554222
 20
313.2959685536222
 30
0.0000000000000000
 11
633.7543985554215
 21
313.6959685536215
 31
0.0000000000000000
  0
LINE
  5
41B
100
AcDbEntity
  8
MAIN0
  6
CONTINUOUS
 62
3
100
AcDbLine
 10
633.7543985554160
 20
313.6959685536220
 30
0.0000000000000000
 11
633.7543985554160
 21
348.7959685526051
 31
0.0000000000000000
  0
LINE
  5
41C
100
AcDbEntity
  8
MAIN0
  6
CONTINUOUS
 62
3
100
AcDbLine
 10
284.7543985554112
 20
377.6959685536295
 30
0.0000000000000000
 11
285.3543985554110
 21
378.2959685536295
 31
0.0000000000000000
  0
LINE
  5
41D
100
AcDbEntity
  8
MAIN0
  6
CONTINUOUS
 62
3
100
AcDbLine
 10
314.2543985554111
 20
371.7959685536295
 30
0.0000000000000000
 11
330.2543985554111
 21
371.7959685536295
 31
0.0000000000000000
  0
ARC
  5
41E
100
AcDbEntity
  8
MAIN0
  6
CONTINUOUS
 62
3
100
AcDbCircle
 10
314.2543985554111
 20
372.7959685536295
 30
0.0000000000000000
 40
1.000000000000000
100
AcDbArc
 50
180.0000000000000
 51
270.0000000000000
  0
LINE
  5
41F
100
AcDbEntity
  8
MAIN0
  6
CONTINUOUS
 62
3
100
AcDbLine
 10
313.2543985554111
 20
372.7959685536295
 30
0.0000000000000000
 11
313.2543985554111
 21
377.2959685536295
 31
0.0000000000000000
  0
LINE
  5
420
100
AcDbEntity
  8
MAIN0
  6
CONTINUOUS
 62
3
100
AcDbLine
 10
312.2543985554111
 20
378.2959685536295
 30
0.0000000000000000
 11
313.2543985554111
 21
377.2959685536295
 31
0.0000000000000000
  0
ARC
  5
421
100
AcDbEntity
  8
MAIN0
  6
CONTINUOUS
 62
3
100
AcDbCircle
 10
330.2543985554111
 20
372.7959685536295
 30
0.0000000000000000
 40
1.000000000000000
100
AcDbArc
 50
270.0000000000000
 51
360.0000000000000
  0
LINE
  5
422
100
AcDbEntity
  8
MAIN0
  6
CONTINUOUS
 62
3
100
AcDbLine
 10
331.2543985554111
 20
372.7959685536295
 30
0.0000000000000000
 11
331.2543985554111
 21
377.2959685536294
 31
0.0000000000000000
  0
LINE
  5
423
100
AcDbEntity
  8
MAIN0
  6
CONTINUOUS
 62
3
100
AcDbLine
 10
331.2543985554109
 20
377.2959685536294
 30
0.0000000000000000
 11
332.2543985554109
 21
378.2959685536294
 31
0.0000000000000000
  0
LINE
  5
424
100
AcDbEntity
  8
MAIN0
  6
CONTINUOUS
 62
3
100
AcDbLine
 10
285.3543985554110
 20
378.2959685536293
 30
0.0000000000000000
 11
312.2543985554111
 21
378.2959685536285
 31
0.0000000000000000
  0
LINE
  5
425
100
AcDbEntity
  8
MAIN0
  6
CONTINUOUS
 62
3
100
AcDbLine
 10
332.2543985554109
 20
378.2959685536280
 30
0.0000000000000000
 11
563.7543985558332
 21
378.2959685536236
 31
0.0000000000000000
  0
LINE
  5
426
100
AcDbEntity
  8
MAIN0
  6
CONTINUOUS
 62
3
100
AcDbLine
 10
492.1543985554220
 20
313.2959685536216
 30
0.0000000000000000
 11
491.7543985554219
 21
313.6959685536217
 31
0.0000000000000000
  0
LINE
  5
427
100
AcDbEntity
  8
MAIN0
  6
CONTINUOUS
 62
3
100
AcDbLine
 10
477.3543985554219
 20
313.2959685536208
 30
0.0000000000000000
 11
477.7543985554220
 21
313.6959685536206
 31
0.0000000000000000
  0
LINE
  5
428
100
AcDbEntity
  8
MAIN0
  6
CONTINUOUS
 62
3
100
AcDbLine
 10
285.3543985554155
 20
353.2959685543527
 30
0.0000000000000000
 11
563.7543985558332
 21
353.2959685541147
 31
0.0000000000000000
  0
LINE
  5
429
100
AcDbEntity
  8
MAIN0
  6
CONTINUOUS
 62
3
100
AcDbLine
 10
285.3543985554198
 20
328.2959685525217
 30
0.0000000000000000
 11
633.1543985554159
 21
328.2959685525217
 31
0.0000000000000000
  0
LINE
  5
42A
100
AcDbEntity
  8
MAIN0
  6
CONTINUOUS
 62
3
100
AcDbLine
 10
633.1543985554160
 20
328.2959685525218
 30
0.0000000000000000
 11
633.7543985554161
 21
327.6959685525217
 31
0.0000000000000000
  0
LINE
  5
42B
100
AcDbEntity
  8
MAIN0
  6
CONTINUOUS
 62
3
100
AcDbLine
 10
285.1543985554228
 20
313.2959685537666
 30
0.0000000000000000
 11
477.3543985554219
 21
313.2959685536208
 31
0.0000000000000000
  0
CIRCLE
  5
42C
100
AcDbEntity
  8
MAIN0
  6
CONTINUOUS
 62
3
100
AcDbCircle
 10
374.7543985554158
 20
365.7959685538939
 30
0.0000000000000000
 40
4.000000000000000
  0
CIRCLE
  5
42D
100
AcDbEntity
  8
MAIN0
  6
CONTINUOUS
 62
3
100
AcDbCircle
 10
374.7543985554158
 20
365.7959685538939
 30
0.0000000000000000
 40
3.400000000000000
  0
CIRCLE
  5
42E
100
AcDbEntity
  8
MAIN0
  6
CONTINUOUS
 62
3
100
AcDbCircle
 10
555.7543985554160
 20
365.7959685538939
 30
0.0000000000000000
 40
4.000000000000000
  0
CIRCLE
  5
42F
100
AcDbEntity
  8
MAIN0
  6
CONTINUOUS
 62
3
100
AcDbCircle
 10
555.7543985554160
 20
365.7959685538939
 30
0.0000000000000000
 40
3.400000000000000
  0
LINE
  5
430
100
AcDbEntity
  8
MAIN0
  6
CENTER
 62
3
100
AcDbLine
 10
561.7543985554160
 20
365.7959685538939
 30
0.0000000000000000
 11
549.7543985554160
 21
365.7959685538939
 31
0.0000000000000000
  0
LINE
  5
431
100
AcDbEntity
  8
MAIN0
  6
CENTER
 62
3
100
AcDbLine
 10
555.7543985554160
 20
371.7959685538938
 30
0.0000000000000000
 11
555.7543985554160
 21
359.7959685538939
 31
0.0000000000000000
  0
LINE
  5
432
100
AcDbEntity
  8
MAIN0
  6
CENTER
 62
3
100
AcDbLine
 10
380.7543985554158
 20
365.7959685538939
 30
0.0000000000000000
 11
368.7543985554158
 21
365.7959685538939
 31
0.0000000000000000
  0
LINE
  5
433
100
AcDbEntity
  8
MAIN0
  6
CENTER
 62
3
100
AcDbLine
 10
374.7543985554158
 20
371.7959685538938
 30
0.0000000000000000
 11
374.7543985554158
 21
359.7959685538939
 31
0.0000000000000000
  0
LINE
  5
434
100
AcDbEntity
  8
MAIN0
  6
CONTINUOUS
 62
3
100
AcDbLine
 10
93.75439855538811
 20
374.4959685536313
 30
0.0000000000000000
 11
93.75439855538630
 21
377.6959685536313
 31
0.0000000000000000
  0
LINE
  5
435
100
AcDbEntity
  8
MAIN0
  6
CONTINUOUS
 62
3
100
AcDbLine
 10
93.75439855538811
 20
374.4959685536313
 30
0.0000000000000000
 11
147.7543985553881
 21
374.4959685536306
 31
0.0000000000000000
  0
LINE
  5
436
100
AcDbEntity
  8
MAIN0
  6
CONTINUOUS
 62
3
100
AcDbLine
 10
147.7543985553881
 20
374.4959685536617
 30
0.0000000000000000
 11
147.7543985553863
 21
377.6959685536306
 31
0.0000000000000000
  0
LINE
  5
437
100
AcDbEntity
  8
MAIN0
  6
CONTINUOUS
 62
3
100
AcDbLine
 10
93.75439855538815
 20
377.6959685536313
 30
0.0000000000000000
 11
147.7543985553882
 21
377.6959685536306
 31
0.0000000000000000
  0
LINE
  5
438
100
AcDbEntity
  8
MAIN0
  6
CONTINUOUS
 62
3
100
AcDbLine
 10
70.75439855537994
 20
418.2959685536330
 30
0.0000000000000000
 11
170.7543985553801
 21
418.2959685536330
 31
0.0000000000000000
  0
LINE
  5
439
100
AcDbEntity
  8
MAIN0
  6
CONTINUOUS
 62
3
100
AcDbLine
 10
170.7543985553801
 20
418.2959685536330
 30
0.0000000000000000
 11
170.7543985553801
 21
378.2959685536330
 31
0.0000000000000000
  0
LINE
  5
43A
100
AcDbEntity
  8
MAIN0
  6
CONTINUOUS
 62
3
100
AcDbLine
 10
70.75439855537994
 20
418.2959685536330
 30
0.0000000000000000
 11
70.75439855537994
 21
378.2959685536330
 31
0.0000000000000000
  0
LINE
  5
43B
100
AcDbEntity
  8
MAIN0
  6
CONTINUOUS
 62
3
100
AcDbLine
 10
70.75439855537994
 20
398.2959685536330
 30
0.0000000000000000
 11
170.7543985553801
 21
398.2959685536330
 31
0.0000000000000000
  0
LINE
  5
43C
100
AcDbEntity
  8
MAIN0
  6
CONTINUOUS
 62
3
100
AcDbLine
 10
491.7543985554221
 20
308.2959685536499
 30
0.0000000000000000
 11
477.7543985554221
 21
308.2959685536499
 31
0.0000000000000000
  0
LINE
  5
43D
100
AcDbEntity
  8
MAIN0
  6
CENTER
 62
3
100
AcDbLine
 10
484.7543985554221
 20
323.3450024768212
 30
0.0000000000000000
 11
484.7543985554221
 21
305.2959685536217
 31
0.0000000000000000
  0
LINE
  5
43E
100
AcDbEntity
  8
MAIN0
  6
CONTINUOUS
 62
3
100
AcDbLine
 10
491.7543985554221
 20
308.2959685536499
 30
0.0000000000000000
 11
491.7543985554221
 21
317.2959685536219
 31
0.0000000000000000
  0
LINE
  5
43F
100
AcDbEntity
  8
MAIN0
  6
CONTINUOUS
 62
3
100
AcDbLine
 10
491.7543985554221
 20
317.2959685536217
 30
0.0000000000000000
 11
477.7543985554221
 21
317.2959685536217
 31
0.0000000000000000
  0
LINE
  5
440
100
AcDbEntity
  8
MAIN0
  6
CONTINUOUS
 62
3
100
AcDbLine
 10
477.7543985554221
 20
308.2959685536499
 30
0.0000000000000000
 11
477.7543985554221
 21
317.2959685536219
 31
0.0000000000000000
  0
LINE
  5
441
100
AcDbEntity
  8
MAIN0
  6
CONTINUOUS
 62
3
100
AcDbLine
 10
313.2543985554111
 20
373.2959685536295
 30
0.0000000000000000
 11
313.2543985554111
 21
377.6959685536295
 31
0.0000000000000000
  0
LINE
  5
442
100
AcDbEntity
  8
MAIN0
  6
CONTINUOUS
 62
3
100
AcDbLine
 10
313.2543985554111
 20
373.2959685536293
 30
0.0000000000000000
 11
314.2543985554111
 21
372.2959685536293
 31
0.0000000000000000
  0
LINE
  5
443
100
AcDbEntity
  8
MAIN0
  6
CONTINUOUS
 62
3
100
AcDbLine
 10
314.2543985554111
 20
372.2959685536295
 30
0.0000000000000000
 11
330.2543985554111
 21
372.2959685536295
 31
0.0000000000000000
  0
LINE
  5
444
100
AcDbEntity
  8
MAIN0
  6
CONTINUOUS
 62
3
100
AcDbLine
 10
286.1543985554110
 20
378.2959685536295
 30
0.0000000000000000
 11
312.6543985554110
 21
378.2959685536295
 31
0.0000000000000000
  0
ARC
  5
445
100
AcDbEntity
  8
MAIN0
  6
CONTINUOUS
 62
3
100
AcDbCircle
 10
312.6543985554110
 20
377.6959685536295
 30
0.0000000000000000
 40
0.6000000000000001
100
AcDbArc
 50
0.0000000000000000
 51
90.00000000000000
  0
LINE
  5
446
100
AcDbEntity
  8
MAIN0
  6
CONTINUOUS
 62
3
100
AcDbLine
 10
285.7543985554111
 20
378.6959685536294
 30
0.0000000000000000
 11
286.1543985554110
 21
378.2959685536295
 31
0.0000000000000000
  0
LINE
  5
447
100
AcDbEntity
  8
MAIN0
  6
CONTINUOUS
 62
3
100
AcDbLine
 10
285.7543985554111
 20
418.0959685536295
 30
0.0000000000000000
 11
285.7543985554111
 21
398.8959685536295
 31
0.0000000000000000
  0
LINE
  5
448
100
AcDbEntity
  8
MAIN0
  6
CONTINUOUS
 62
3
100
AcDbLine
 10
286.3543985554111
 20
398.2959685536295
 30
0.0000000000000000
 11
285.7543985554111
 21
397.6959685536295
 31
0.0000000000000000
  0
LINE
  5
449
100
AcDbEntity
  8
MAIN0
  6
CONTINUOUS
 62
3
100
AcDbLine
 10
286.3543985554111
 20
398.2959685536295
 30
0.0000000000000000
 11
320.1543985557253
 21
398.2959685536295
 31
0.0000000000000000
  0
LINE
  5
44A
100
AcDbEntity
  8
MAIN0
  6
CONTINUOUS
 62
3
100
AcDbLine
 10
319.4823451630501
 20
398.2959685536293
 30
0.0000000000000000
 11
319.8849996651371
 21
398.0863598870865
 31
0.0000000000000000
  0
ARC
  5
44B
100
AcDbEntity
  8
MAIN0
  6
CONTINUOUS
 62
3
100
AcDbCircle
 10
320.2543985557253
 20
398.7959685536295
 30
0.0000000000000000
 40
0.8000000000000000
100
AcDbArc
 50
242.5000000002250
 51
387.5000000000000
  0
LINE
  5
44C
100
AcDbEntity
  8
MAIN0
  6
CONTINUOUS
 62
3
100
AcDbLine
 10
320.7543985557253
 20
399.5680219463044
 30
0.0000000000000000
 11
320.9640072222681
 21
399.1653674442175
 31
0.0000000000000000
  0
LINE
  5
44D
100
AcDbEntity
  8
MAIN0
  6
CONTINUOUS
 62
3
100
AcDbLine
 10
320.7543985557253
 20
418.0959685536295
 30
0.0000000000000000
 11
320.7543985557253
 21
398.8959685536295
 31
0.0000000000000000
  0
LINE
  5
44E
100
AcDbEntity
  8
MAIN0
  6
CONTINUOUS
 62
3
100
AcDbLine
 10
320.7543985557252
 20
417.7959685536298
 30
0.0000000000000000
 11
321.2543985557252
 21
418.2959685536297
 31
0.0000000000000000
  0
LINE
  5
44F
100
AcDbEntity
  8
MAIN0
  6
CONTINUOUS
 62
3
100
AcDbLine
 10
285.9543985554111
 20
418.2959685536295
 30
0.0000000000000000
 11
320.5543985557253
 21
418.2959685536295
 31
0.0000000000000000
  0
LINE
  5
450
100
AcDbEntity
  8
MAIN0
  6
CONTINUOUS
 62
3
100
AcDbLine
 10
358.7543985554109
 20
418.0959685536295
 30
0.0000000000000000
 11
358.7543985554109
 21
378.6959685536295
 31
0.0000000000000000
  0
LINE
  5
451
100
AcDbEntity
  8
MAIN0
  6
CONTINUOUS
 62
3
100
AcDbLine
 10
358.5543985554110
 20
418.2959685536295
 30
0.0000000000000000
 11
358.7543985554110
 21
418.0959685536295
 31
0.0000000000000000
  0
LINE
  5
452
100
AcDbEntity
  8
MAIN0
  6
CONTINUOUS
 62
3
100
AcDbLine
 10
358.3543985554109
 20
378.2959685536294
 30
0.0000000000000000
 11
358.7543985554109
 21
378.6959685536294
 31
0.0000000000000000
  0
LINE
  5
453
100
AcDbEntity
  8
MAIN0
  6
CONTINUOUS
 62
3
100
AcDbLine
 10
331.8543985554111
 20
378.2959685536295
 30
0.0000000000000000
 11
358.3543985554110
 21
378.2959685536295
 31
0.0000000000000000
  0
LINE
  5
454
100
AcDbEntity
  8
MAIN0
  6
CONTINUOUS
 62
3
100
AcDbLine
 10
331.2543985554111
 20
373.2959685536295
 30
0.0000000000000000
 11
331.2543985554111
 21
377.6959685536295
 31
0.0000000000000000
  0
LINE
  5
455
100
AcDbEntity
  8
MAIN0
  6
CONTINUOUS
 62
3
100
AcDbLine
 10
330.2543985554112
 20
372.2959685536295
 30
0.0000000000000000
 11
331.2543985554112
 21
373.2959685536295
 31
0.0000000000000000
  0
ARC
  5
456
100
AcDbEntity
  8
MAIN0
  6
CONTINUOUS
 62
3
100
AcDbCircle
 10
331.8543985554111
 20
377.6959685536295
 30
0.0000000000000000
 40
0.6000000000000001
100
AcDbArc
 50
90.00000000000000
 51
180.0000000000000
  0
LINE
  5
457
100
AcDbEntity
  8
MAIN0
  6
CONTINUOUS
 62
3
100
AcDbLine
 10
286.3543985554111
 20
398.2959685536293
 30
0.0000000000000000
 11
285.7543985554110
 21
398.8959685536294
 31
0.0000000000000000
  0
LINE
  5
458
100
AcDbEntity
  8
MAIN0
  6
CONTINUOUS
 62
3
100
AcDbLine
 10
320.1543985557253
 20
398.2959685536293
 30
0.0000000000000000
 11
320.7543985557253
 21
398.8959685536294
 31
0.0000000000000000
  0
LINE
  5
459
100
AcDbEntity
  8
MAIN0
  6
CONTINUOUS
 62
3
100
AcDbLine
 10
285.7543985554110
 20
418.0959685536294
 30
0.0000000000000000
 11
285.9543985554110
 21
418.2959685536293
 31
0.0000000000000000
  0
LINE
  5
45A
100
AcDbEntity
  8
MAIN0
  6
CONTINUOUS
 62
3
100
AcDbLine
 10
320.5543985557252
 20
418.2959685536293
 30
0.0000000000000000
 11
320.7543985557252
 21
418.0959685536293
 31
0.0000000000000000
  0
LINE
  5
45B
100
AcDbEntity
  8
MAIN0
  6
CONTINUOUS
 62
3
100
AcDbLine
 10
563.7543985554113
 20
398.8959685536559
 30
0.0000000000000000
 11
563.7543985554113
 21
418.0959685536295
 31
0.0000000000000000
  0
LINE
  5
45C
100
AcDbEntity
  8
MAIN0
  6
CONTINUOUS
 62
3
100
AcDbLine
 10
541.3543985550241
 20
378.2959685536440
 30
0.0000000000000000
 11
563.3543985553713
 21
378.2959685536556
 31
0.0000000000000000
  0
LINE
  5
45D
100
AcDbEntity
  8
MAIN0
  6
CONTINUOUS
 62
3
100
AcDbLine
 10
563.7543985553712
 20
378.6959685536555
 30
0.0000000000000000
 11
563.3543985553713
 21
378.2959685536555
 31
0.0000000000000000
  0
LINE
  5
45E
100
AcDbEntity
  8
MAIN0
  6
CONTINUOUS
 62
3
100
AcDbLine
 10
529.3543985554112
 20
398.2959685536558
 30
0.0000000000000000
 11
563.1543985554113
 21
398.2959685536558
 31
0.0000000000000000
  0
LINE
  5
45F
100
AcDbEntity
  8
MAIN0
  6
CONTINUOUS
 62
3
100
AcDbLine
 10
563.1543985554112
 20
398.2959685536558
 30
0.0000000000000000
 11
563.7543985554112
 21
397.6959685536558
 31
0.0000000000000000
  0
LINE
  5
460
100
AcDbEntity
  8
MAIN0
  6
CONTINUOUS
 62
3
100
AcDbLine
 10
500.1543985553712
 20
378.2959685536221
 30
0.0000000000000000
 11
522.1543985550242
 21
378.2959685536338
 31
0.0000000000000000
  0
LINE
  5
461
100
AcDbEntity
  8
MAIN0
  6
CONTINUOUS
 62
3
100
AcDbLine
 10
500.1543985553714
 20
378.2959685536225
 30
0.0000000000000000
 11
499.7543985553714
 21
378.6959685536223
 31
0.0000000000000000
  0
LINE
  5
462
100
AcDbEntity
  8
MAIN0
  6
CONTINUOUS
 62
3
100
AcDbLine
 10
499.7543985554111
 20
378.6859685536558
 30
0.0000000000000000
 11
499.7543985554111
 21
418.0959685536295
 31
0.0000000000000000
  0
LINE
  5
463
100
AcDbEntity
  8
MAIN0
  6
CONTINUOUS
 62
3
100
AcDbLine
 10
528.9543985554113
 20
418.2959685536295
 30
0.0000000000000000
 11
563.5543985554112
 21
418.2959685536295
 31
0.0000000000000000
  0
LINE
  5
464
100
AcDbEntity
  8
MAIN0
  6
CONTINUOUS
 62
3
100
AcDbLine
 10
499.7543985554106
 20
418.0959685536291
 30
0.0000000000000000
 11
499.9543985554105
 21
418.2959685536291
 31
0.0000000000000000
  0
LINE
  5
465
100
AcDbEntity
  8
MAIN0
  6
CONTINUOUS
 62
3
100
AcDbLine
 10
528.2543985554108
 20
418.2959685536291
 30
0.0000000000000000
 11
528.7543985554108
 21
417.7959685536291
 31
0.0000000000000000
  0
LINE
  5
466
100
AcDbEntity
  8
MAIN0
  6
CONTINUOUS
 62
3
100
AcDbLine
 10
528.7543985554113
 20
398.8959685536559
 30
0.0000000000000000
 11
528.7543985554113
 21
418.0959685536295
 31
0.0000000000000000
  0
LINE
  5
467
100
AcDbEntity
  8
MAIN0
  6
CONTINUOUS
 62
3
100
AcDbLine
 10
528.7543985554113
 20
399.5680219463310
 30
0.0000000000000000
 11
528.5447898888684
 21
399.1653674442439
 31
0.0000000000000000
  0
ARC
  5
468
100
AcDbEntity
  8
MAIN0
  6
CONTINUOUS
 62
3
100
AcDbCircle
 10
529.2543985554113
 20
398.7959685536558
 30
0.0000000000000000
 40
0.8000000000000000
100
AcDbArc
 50
152.5000000000000
 51
297.4999999997751
  0
LINE
  5
469
100
AcDbEntity
  8
MAIN0
  6
CONTINUOUS
 62
3
100
AcDbLine
 10
530.0264519480867
 20
398.2959685536559
 30
0.0000000000000000
 11
529.6237974459996
 21
398.0863598871131
 31
0.0000000000000000
  0
LINE
  5
46A
100
AcDbEntity
  8
MAIN0
  6
CONTINUOUS
 62
3
100
AcDbLine
 10
528.7543985554111
 20
398.8959685536557
 30
0.0000000000000000
 11
529.3543985554111
 21
398.2959685536558
 31
0.0000000000000000
  0
LINE
  5
46B
100
AcDbEntity
  8
MAIN0
  6
CONTINUOUS
 62
3
100
AcDbLine
 10
563.1543985554112
 20
398.2959685536558
 30
0.0000000000000000
 11
563.7543985554112
 21
398.8959685536559
 31
0.0000000000000000
  0
LINE
  5
46C
100
AcDbEntity
  8
MAIN0
  6
CONTINUOUS
 62
3
100
AcDbLine
 10
528.7543985554112
 20
418.0959685536294
 30
0.0000000000000000
 11
528.9543985554112
 21
418.2959685536293
 31
0.0000000000000000
  0
LINE
  5
46D
100
AcDbEntity
  8
MAIN0
  6
CONTINUOUS
 62
3
100
AcDbLine
 10
563.5543985554111
 20
418.2959685536295
 30
0.0000000000000000
 11
563.7543985554112
 21
418.0959685536294
 31
0.0000000000000000
  0
LINE
  5
46E
100
AcDbEntity
  8
MAIN0
  6
CENTER
 62
3
100
AcDbLine
 10
333.7543985554067
 20
564.5013205466132
 30
0.0000000000000000
 11
354.7543985554067
 21
564.5013205466131
 31
0.0000000000000000
  0
CIRCLE
  5
46F
100
AcDbEntity
  8
MAIN0
  6
HIDDEN
 62
3
100
AcDbCircle
 10
344.2543985554067
 20
564.5013205466133
 30
0.0000000000000000
 40
8.000000000000000
  0
LINE
  5
470
100
AcDbEntity
  8
MAIN0
  6
HIDDEN
 62
3
100
AcDbLine
 10
339.6355964018898
 20
564.5013205466134
 30
0.0000000000000000
 11
341.9449974786483
 21
560.5013205466134
 31
0.0000000000000000
  0
LINE
  5
471
100
AcDbEntity
  8
MAIN0
  6
HIDDEN
 62
3
100
AcDbLine
 10
341.9449974786483
 20
560.5013205466131
 30
0.0000000000000000
 11
346.5637996321652
 21
560.5013205466130
 31
0.0000000000000000
  0
LINE
  5
472
100
AcDbEntity
  8
MAIN0
  6
HIDDEN
 62
3
100
AcDbLine
 10
346.5637996321654
 20
560.5013205466136
 30
0.0000000000000000
 11
348.8732007089239
 21
564.5013205466134
 31
0.0000000000000000
  0
LINE
  5
473
100
AcDbEntity
  8
MAIN0
  6
HIDDEN
 62
3
100
AcDbLine
 10
348.8732007089239
 20
564.5013205466132
 30
0.0000000000000000
 11
346.5637996321653
 21
568.5013205466132
 31
0.0000000000000000
  0
LINE
  5
474
100
AcDbEntity
  8
MAIN0
  6
HIDDEN
 62
3
100
AcDbLine
 10
346.5637996321653
 20
568.5013205466131
 30
0.0000000000000000
 11
341.9449974786483
 21
568.5013205466131
 31
0.0000000000000000
  0
LINE
  5
475
100
AcDbEntity
  8
MAIN0
  6
HIDDEN
 62
3
100
AcDbLine
 10
341.9449974786484
 20
568.5013205466137
 30
0.0000000000000000
 11
339.6355964018898
 21
564.5013205466134
 31
0.0000000000000000
  0
LINE
  5
476
100
AcDbEntity
  8
MAIN0
  6
CENTER
 62
3
100
AcDbLine
 10
344.2543985554067
 20
554.0013205466131
 30
0.0000000000000000
 11
344.2543985555098
 21
610.5013205462896
 31
0.0000000000000000
  0
LINE
  5
477
100
AcDbEntity
  8
MAIN0
  6
CENTER
 62
3
100
AcDbLine
 10
555.9761792268646
 20
637.5013205456462
 30
0.0000000000000000
 11
534.1657039740566
 21
637.5013205456462
 31
0.0000000000000000
  0
LINE
  5
478
100
AcDbEntity
  8
MAIN0
  6
CENTER
 62
3
100
AcDbLine
 10
545.2543984978576
 20
649.4204792759051
 30
0.0000000000000000
 11
545.2543984978576
 21
626.6752642993830
 31
0.0000000000000000
  0
LINE
  5
479
100
AcDbEntity
  8
MAIN0
  6
CENTER
 62
3
100
AcDbLine
 10
555.9761792268646
 20
567.5013205466737
 30
0.0000000000000000
 11
533.5425441582472
 21
567.5013205466737
 31
0.0000000000000000
  0
LINE
  5
47A
100
AcDbEntity
  8
MAIN0
  6
CENTER
 62
3
100
AcDbLine
 10
545.2543984977788
 20
579.6269584669193
 30
0.0000000000000000
 11
545.2543984977788
 21
555.9470155967350
 31
0.0000000000000000
  0
LINE
  5
47B
100
AcDbEntity
  8
MAIN0
  6
CENTER
 62
3
100
AcDbLine
 10
625.7273580477141
 20
347.2959685532829
 30
0.0000000000000000
 11
739.8131282280901
 21
347.2959685534123
 31
0.0000000000000000
  0
LINE
  5
47C
100
AcDbEntity
  8
MAIN0
  6
CONTINUOUS
 62
3
100
AcDbLine
 10
871.7285002275567
 20
313.2959685534461
 30
0.0000000000000000
 11
872.3799566051728
 21
315.4905612641104
 31
0.0000000000000000
  0
ARC
  5
47D
100
AcDbEntity
  8
MAIN0
  6
CONTINUOUS
 62
3
100
AcDbCircle
 10
876.3191876172222
 20
314.7959685534458
 30
0.0000000000000000
 40
4.000000000000000
100
AcDbArc
 50
90.00000000000000
 51
170.0000000000433
  0
LINE
  5
47E
100
AcDbEntity
  8
MAIN0
  6
CONTINUOUS
 62
3
100
AcDbLine
 10
863.2285002275019
 20
313.2959685534460
 30
0.0000000000000000
 11
871.7285002275627
 21
313.2959685534460
 31
0.0000000000000000
  0
LINE
  5
47F
100
AcDbEntity
  8
MAIN0
  6
CONTINUOUS
 62
3
100
AcDbLine
 10
861.7285002275627
 20
334.2959685534462
 30
0.0000000000000000
 11
906.7285002275622
 21
334.2959685534462
 31
0.0000000000000000
  0
LINE
  5
480
100
AcDbEntity
  8
MAIN0
  6
CONTINUOUS
 62
3
100
AcDbLine
 10
875.7285002275636
 20
347.5959685534466
 30
0.0000000000000000
 11
875.7285002275626
 21
336.7959685534469
 31
0.0000000000000000
  0
LINE
  5
481
100
AcDbEntity
  8
MAIN0
  6
CONTINUOUS
 62
3
100
AcDbLine
 10
893.7285002275636
 20
347.5959685534450
 30
0.0000000000000000
 11
875.7285002275636
 21
347.5959685534467
 31
0.0000000000000000
  0
LINE
  5
482
100
AcDbEntity
  8
MAIN0
  6
CONTINUOUS
 62
3
100
AcDbLine
 10
877.8069611966464
 20
348.7959685534469
 30
0.0000000000000000
 11
875.7285002275635
 21
347.5959685534471
 31
0.0000000000000000
  0
LINE
  5
483
100
AcDbEntity
  8
MAIN0
  6
CONTINUOUS
 62
3
100
AcDbLine
 10
891.6500392584809
 20
348.7959685534452
 30
0.0000000000000000
 11
877.8069611966463
 21
348.7959685534465
 31
0.0000000000000000
  0
LINE
  5
484
100
AcDbEntity
  8
MAIN0
  6
CONTINUOUS
 62
3
100
AcDbLine
 10
893.7285002275610
 20
347.5959685534467
 30
0.0000000000000000
 11
893.7285002275621
 21
336.7959685534469
 31
0.0000000000000000
  0
LINE
  5
485
100
AcDbEntity
  8
MAIN0
  6
CONTINUOUS
 62
3
100
AcDbLine
 10
893.7285002275633
 20
347.5959685534444
 30
0.0000000000000000
 11
891.6500392584806
 21
348.7959685534448
 31
0.0000000000000000
  0
LINE
  5
486
100
AcDbEntity
  8
MAIN0
  6
CONTINUOUS
 62
3
100
AcDbLine
 10
875.7285002275622
 20
318.7959685534458
 30
0.0000000000000000
 11
901.7285002275622
 21
318.7959685534459
 31
0.0000000000000000
  0
LINE
  5
487
100
AcDbEntity
  8
MAIN0
  6
CONTINUOUS
 62
3
100
AcDbLine
 10
906.7285002275622
 20
328.2959685534460
 30
0.0000000000000000
 11
901.7285002275622
 21
328.2959685534460
 31
0.0000000000000000
  0
LINE
  5
488
100
AcDbEntity
  8
MAIN0
  6
CONTINUOUS
 62
3
100
AcDbLine
 10
901.7285002275622
 20
328.2959685534460
 30
0.0000000000000000
 11
901.7285002275622
 21
318.7959685534459
 31
0.0000000000000000
  0
LINE
  5
489
100
AcDbEntity
  8
MAIN0
  6
CONTINUOUS
 62
3
100
AcDbLine
 10
906.7285002275622
 20
328.2959685534459
 30
0.0000000000000000
 11
906.7285002275622
 21
334.2959685534462
 31
0.0000000000000000
  0
LINE
  5
48A
100
AcDbEntity
  8
MAIN0
  6
CONTINUOUS
 62
3
100
AcDbLine
 10
889.7812847275601
 20
318.7959685534458
 30
0.0000000000000000
 11
889.7812847275590
 21
306.3959685534463
 31
0.0000000000000000
  0
LINE
  5
48B
100
AcDbEntity
  8
MAIN0
  6
CONTINUOUS
 62
3
100
AcDbLine
 10
890.7285002275602
 20
318.7959685534459
 30
0.0000000000000000
 11
890.7285002275590
 21
306.3959685534463
 31
0.0000000000000000
  0
LINE
  5
48C
100
AcDbEntity
  8
MAIN0
  6
CONTINUOUS
 62
3
100
AcDbLine
 10
878.7285002275590
 20
306.3959685534463
 30
0.0000000000000000
 11
878.7285002275602
 21
318.7959685534458
 31
0.0000000000000000
  0
LINE
  5
48D
100
AcDbEntity
  8
MAIN0
  6
CONTINUOUS
 62
3
100
AcDbLine
 10
861.7285002275621
 20
334.2959685534462
 30
0.0000000000000000
 11
863.2285002275020
 21
313.2959685534460
 31
0.0000000000000000
  0
LINE
  5
48E
100
AcDbEntity
  8
MAIN0
  6
CONTINUOUS
 62
3
100
AcDbLine
 10
872.7285002275622
 20
334.2959685534462
 30
0.0000000000000000
 11
872.7285002275622
 21
336.7959685534462
 31
0.0000000000000000
  0
LINE
  5
48F
100
AcDbEntity
  8
MAIN0
  6
CONTINUOUS
 62
3
100
AcDbLine
 10
872.7285002275622
 20
336.7959685534462
 30
0.0000000000000000
 11
896.7285002275622
 21
336.7959685534462
 31
0.0000000000000000
  0
LINE
  5
490
100
AcDbEntity
  8
MAIN0
  6
CONTINUOUS
 62
3
100
AcDbLine
 10
896.7285002275622
 20
336.7959685534462
 30
0.0000000000000000
 11
896.7285002275622
 21
334.2959685534462
 31
0.0000000000000000
  0
LINE
  5
491
100
AcDbEntity
  8
MAIN0
  6
CONTINUOUS
 62
3
100
AcDbLine
 10
879.6757157275646
 20
318.7959685534458
 30
0.0000000000000000
 11
879.6757157275658
 21
306.3959685534463
 31
0.0000000000000000
  0
LINE
  5
492
100
AcDbEntity
  8
MAIN0
  6
CENTER
 62
3
100
AcDbLine
 10
884.7285002275633
 20
179.0072298986995
 30
0.0000000000000000
 11
884.7285002275629
 21
357.6888265826653
 31
0.0000000000000000
  0
LINE
  5
493
100
AcDbEntity
  8
MAIN0
  6
CONTINUOUS
 62
3
100
AcDbLine
 10
873.6285002275624
 20
290.5959685534464
 30
0.0000000000000000
 11
895.8285002275625
 21
290.5959685534463
 31
0.0000000000000000
  0
CIRCLE
  5
494
100
AcDbEntity
  8
MAIN0
  6
CONTINUOUS
 62
3
100
AcDbCircle
 10
514.2543984982806
 20
602.5013205461557
 30
0.0000000000000000
 40
4.000000000000000
  0
CIRCLE
  5
495
100
AcDbEntity
  8
MAIN0
  6
CONTINUOUS
 62
3
100
AcDbCircle
 10
514.2543984982806
 20
602.5013205461557
 30
0.0000000000000000
 40
3.323417500000000
  0
LINE
  5
496
100
AcDbEntity
  8
MAIN0
  6
CONTINUOUS
 62
3
100
AcDbLine
 10
563.7543984976190
 20
658.5013205460900
 30
0.0000000000000000
 11
563.7543984975354
 21
546.5013205460900
 31
0.0000000000000000
  0
LINE
  5
497
100
AcDbEntity
  8
MAIN0
  6
CONTINUOUS
 62
3
100
AcDbLine
 10
661.7543985564623
 20
549.5013205482100
 30
0.0000000000000000
 11
661.7543985563901
 21
655.5013205461904
 31
0.0000000000000000
  0
LINE
  5
498
100
AcDbEntity
  8
MAIN0
  6
CONTINUOUS
 62
3
100
AcDbLine
 10
652.7543985558391
 20
655.5013205463379
 30
0.0000000000000000
 11
661.7543985569915
 21
655.5013205461904
 31
0.0000000000000000
  0
LINE
  5
499
100
AcDbEntity
  8
MAIN0
  6
CONTINUOUS
 62
3
100
AcDbLine
 10
652.7543985570133
 20
549.5013205481748
 30
0.0000000000000000
 11
661.7543985564622
 21
549.5013205482097
 31
0.0000000000000000
  0
LINE
  5
49A
100
AcDbEntity
  8
MAIN0
  6
CONTINUOUS
 62
3
100
AcDbLine
 10
564.7543985561123
 20
397.4959685526050
 30
0.0000000000000000
 11
636.7543985561125
 21
397.4959685526050
 31
0.0000000000000000
  0
LINE
  5
49B
100
AcDbEntity
  8
MAIN0
  6
CONTINUOUS
 62
3
100
AcDbLine
 10
637.7543985561124
 20
348.7959685526050
 30
0.0000000000000000
 11
637.7543985561124
 21
396.4959685526050
 31
0.0000000000000000
  0
LINE
  5
49C
100
AcDbEntity
  8
MAIN0
  6
CONTINUOUS
 62
3
100
AcDbLine
 10
637.7543985561124
 20
389.4559685526052
 30
0.0000000000000000
 11
637.7543985561124
 21
395.5702029900431
 31
0.0000000000000000
  0
LINE
  5
49D
100
AcDbEntity
  8
MAIN0
  6
CONTINUOUS
 62
3
100
AcDbLine
 10
563.7543985561124
 20
348.7959685526050
 30
0.0000000000000000
 11
563.7543985561124
 21
378.2559685527635
 31
0.0000000000000000
  0
LINE
  5
49E
100
AcDbEntity
  8
MAIN0
  6
CONTINUOUS
 62
3
100
AcDbLine
 10
563.7543985561124
 20
378.2559685527635
 30
0.0000000000000000
 11
563.7543985561124
 21
402.4559685526050
 31
0.0000000000000000
  0
ARC
  5
49F
100
AcDbEntity
  8
MAIN0
  6
CONTINUOUS
 62
3
100
AcDbCircle
 10
636.7543985561125
 20
396.4959685526050
 30
0.0000000000000000
 40
1.000000000000000
100
AcDbArc
 50
0.0000000000000000
 51
90.00000000000000
  0
ARC
  5
4A0
100
AcDbEntity
  8
MAIN0
  6
CONTINUOUS
 62
3
100
AcDbCircle
 10
564.7543985561123
 20
396.4959685526050
 30
0.0000000000000000
 40
1.000000000000000
100
AcDbArc
 50
90.00000000000000
 51
180.0000000000000
  0
LINE
  5
4A1
100
AcDbEntity
  8
MAIN0
  6
CONTINUOUS
 62
3
100
AcDbLine
 10
637.7543985561126
 20
388.4959685526044
 30
0.0000000000000000
 11
651.7543985561576
 21
388.4959685526112
 31
0.0000000000000000
  0
LINE
  5
4A2
100
AcDbEntity
  8
MAIN0
  6
CONTINUOUS
 62
3
100
AcDbLine
 10
652.7543985561575
 20
348.7959685526050
 30
0.0000000000000000
 11
652.7543985561575
 21
379.4959685527408
 31
0.0000000000000000
  0
LINE
  5
4A3
100
AcDbEntity
  8
MAIN0
  6
CONTINUOUS
 62
3
100
AcDbLine
 10
652.7543985561575
 20
379.4959685527408
 30
0.0000000000000000
 11
652.7543985561575
 21
387.4959685526087
 31
0.0000000000000000
  0
ARC
  5
4A4
100
AcDbEntity
  8
MAIN0
  6
CONTINUOUS
 62
3
100
AcDbCircle
 10
651.7543985561576
 20
387.4959685526087
 30
0.0000000000000000
 40
1.000000000000000
100
AcDbArc
 50
0.0000000000000000
 51
90.00000000000000
  0
LINE
  5
4A5
100
AcDbEntity
  8
MAIN0
  6
CONTINUOUS
 62
3
100
AcDbLine
 10
652.7543985561575
 20
350.9959685524898
 30
0.0000000000000000
 11
661.7543985558414
 21
350.9959685524711
 31
0.0000000000000000
  0
LINE
  5
4A6
100
AcDbEntity
  8
MAIN0
  6
CONTINUOUS
 62
3
100
AcDbLine
 10
652.7543985561575
 20
379.4959685527562
 30
0.0000000000000000
 11
661.7543985558449
 21
379.4959685527597
 31
0.0000000000000000
  0
LINE
  5
4A7
100
AcDbEntity
  8
MAIN0
  6
CONTINUOUS
 62
3
100
AcDbLine
 10
661.7543985558415
 20
350.9959685524632
 30
0.0000000000000000
 11
661.7543985558448
 21
378.2959685525372
 31
0.0000000000000000
  0
LINE
  5
4A8
100
AcDbEntity
  8
MAIN0
  6
CONTINUOUS
 62
3
100
AcDbLine
 10
661.7543985558448
 20
378.2959685525372
 30
0.0000000000000000
 11
661.7543985558449
 21
379.4959685527612
 31
0.0000000000000000
  0
LINE
  5
4A9
100
AcDbEntity
  8
MAIN0
  6
CONTINUOUS
 62
3
100
AcDbLine
 10
637.7543985559432
 20
546.5013205461150
 30
0.0000000000000000
 11
637.7543985562065
 21
658.5013205461154
 31
0.0000000000000000
  0
LINE
  5
4AA
100
AcDbEntity
  8
MAIN0
  6
CONTINUOUS
 62
3
100
AcDbLine
 10
563.7543984976192
 20
658.5013205460903
 30
0.0000000000000000
 11
637.7543985562065
 21
658.5013205461386
 31
0.0000000000000000
  0
LINE
  5
4AB
100
AcDbEntity
  8
MAIN0
  6
CONTINUOUS
 62
3
100
AcDbLine
 10
563.7543984975346
 20
546.5013205460901
 30
0.0000000000000000
 11
637.7543985559432
 21
546.5013205461385
 31
0.0000000000000000
  0
LINE
  5
4AC
100
AcDbEntity
  8
MAIN0
  6
CONTINUOUS
 62
3
100
AcDbLine
 10
652.7543985558225
 20
657.0013205460849
 30
0.0000000000000000
 11
652.7543985570298
 21
548.0013205460848
 31
0.0000000000000000
  0
LINE
  5
4AD
100
AcDbEntity
  8
MAIN0
  6
CONTINUOUS
 62
3
100
AcDbLine
 10
637.7543985559464
 20
548.0013205459646
 30
0.0000000000000000
 11
652.7543985570297
 21
548.0013205460850
 31
0.0000000000000000
  0
LINE
  5
4AE
100
AcDbEntity
  8
MAIN0
  6
CONTINUOUS
 62
3
100
AcDbLine
 10
637.7543985562029
 20
657.0013205459648
 30
0.0000000000000000
 11
652.7543985558225
 21
657.0013205460851
 31
0.0000000000000000
  0
LINE
  5
4AF
100
AcDbEntity
  8
MAIN0
  6
CONTINUOUS
 62
3
100
AcDbLine
 10
905.7285002268620
 20
352.1959685533761
 30
0.0000000000000000
 11
905.7285002268620
 21
350.9959685533761
 31
0.0000000000000000
  0
LINE
  5
4B0
100
AcDbEntity
  8
MAIN0
  6
CONTINUOUS
 62
3
100
AcDbLine
 10
901.4285002276690
 20
352.1959685533761
 30
0.0000000000000000
 11
905.7285002268618
 21
352.1959685533761
 31
0.0000000000000000
  0
LINE
  5
4B1
100
AcDbEntity
  8
MAIN0
  6
CONTINUOUS
 62
3
100
AcDbLine
 10
1000.728500228405
 20
352.1959685533760
 30
0.0000000000000000
 11
1005.028500227669
 21
352.1959685533760
 31
0.0000000000000000
  0
LINE
  5
4B2
100
AcDbEntity
  8
MAIN0
  6
CONTINUOUS
 62
3
100
AcDbLine
 10
901.2285002276692
 20
350.9959685533761
 30
0.0000000000000000
 11
905.7285002268620
 21
350.9959685533761
 31
0.0000000000000000
  0
LINE
  5
4B3
100
AcDbEntity
  8
MAIN0
  6
CONTINUOUS
 62
3
100
AcDbLine
 10
1000.728500228406
 20
350.9959685533759
 30
0.0000000000000000
 11
1005.228500227669
 21
350.9959685533759
 31
0.0000000000000000
  0
ARC
  5
4B4
100
AcDbEntity
  8
MAIN0
  6
CONTINUOUS
 62
3
100
AcDbCircle
 10
1005.228500227669
 20
378.4959685533761
 30
0.0000000000000000
 40
1.000000000000000
100
AcDbArc
 50
0.0000000000000000
 51
89.99999999942553
  0
ARC
  5
4B5
100
AcDbEntity
  8
MAIN0
  6
CONTINUOUS
 62
3
100
AcDbCircle
 10
901.2285002276692
 20
378.4959685533761
 30
0.0000000000000000
 40
1.000000000000000
100
AcDbArc
 50
89.99999999942553
 51
179.9999999999964
  0
LINE
  5
4B6
100
AcDbEntity
  8
MAIN0
  6
CONTINUOUS
 62
3
100
AcDbLine
 10
1000.728500228406
 20
352.1959685533761
 30
0.0000000000000000
 11
1000.728500228406
 21
350.9959685533761
 31
0.0000000000000000
  0
LINE
  5
4B7
100
AcDbEntity
  8
MAIN0
  6
CONTINUOUS
 62
3
100
AcDbLine
 10
944.2285002276688
 20
378.2959685533760
 30
0.0000000000000000
 11
962.2285002276688
 21
378.2959685533760
 31
0.0000000000000000
  0
LINE
  5
4B8
100
AcDbEntity
  8
MAIN0
  6
CONTINUOUS
 62
3
100
AcDbLine
 10
901.2285002276692
 20
379.4959685533761
 30
0.0000000000000000
 11
901.4285002276690
 21
379.4959685533761
 31
0.0000000000000000
  0
LINE
  5
4B9
100
AcDbEntity
  8
MAIN0
  6
CONTINUOUS
 62
3
100
AcDbLine
 10
1005.028500227669
 20
379.4959685533761
 30
0.0000000000000000
 11
1005.228500227669
 21
379.4959685533761
 31
0.0000000000000000
  0
LINE
  5
4BA
100
AcDbEntity
  8
MAIN0
  6
CONTINUOUS
 62
3
100
AcDbLine
 10
1006.228500227669
 20
351.9959685533761
 30
0.0000000000000000
 11
1006.228500227669
 21
378.4959685533761
 31
0.0000000000000000
  0
LINE
  5
4BB
100
AcDbEntity
  8
MAIN0
  6
CONTINUOUS
 62
3
100
AcDbLine
 10
900.2285002276692
 20
351.9959685533761
 30
0.0000000000000000
 11
900.2285002276692
 21
378.4959685533761
 31
0.0000000000000000
  0
LINE
  5
4BC
100
AcDbEntity
  8
MAIN0
  6
CONTINUOUS
 62
3
100
AcDbLine
 10
901.4285002276690
 20
379.4959685533761
 30
0.0000000000000000
 11
1005.028500227669
 21
379.4959685533761
 31
0.0000000000000000
  0
LINE
  5
4BD
100
AcDbEntity
  8
MAIN0
  6
CONTINUOUS
 62
3
100
AcDbLine
 10
1005.028500227669
 20
352.1959685533760
 30
0.0000000000000000
 11
1005.028500227669
 21
358.2959685533762
 31
0.0000000000000000
  0
LINE
  5
4BE
100
AcDbEntity
  8
MAIN0
  6
CONTINUOUS
 62
3
100
AcDbLine
 10
901.4285002276690
 20
352.1959685533761
 30
0.0000000000000000
 11
901.4285002276690
 21
358.2959685533765
 31
0.0000000000000000
  0
LINE
  5
4BF
100
AcDbEntity
  8
MAIN0
  6
CONTINUOUS
 62
3
100
AcDbLine
 10
962.2285002276688
 20
378.2959685533760
 30
0.0000000000000000
 11
993.0285002276685
 21
378.2959685533760
 31
0.0000000000000000
  0
LINE
  5
4C0
100
AcDbEntity
  8
MAIN0
  6
CONTINUOUS
 62
3
100
AcDbLine
 10
913.4285002276690
 20
378.2959685533760
 30
0.0000000000000000
 11
944.2285002276688
 21
378.2959685533760
 31
0.0000000000000000
  0
LINE
  5
4C1
100
AcDbEntity
  8
MAIN0
  6
CONTINUOUS
 62
3
100
AcDbLine
 10
993.0285002274884
 20
379.4959685542203
 30
0.0000000000000000
 11
993.0285002275105
 21
378.2959685536393
 31
0.0000000000000000
  0
LINE
  5
4C2
100
AcDbEntity
  8
MAIN0
  6
CONTINUOUS
 62
3
100
AcDbLine
 10
993.0285002275106
 20
378.2959685536392
 30
0.0000000000000000
 11
1005.028500227669
 21
358.2959685533762
 31
0.0000000000000000
  0
LINE
  5
4C3
100
AcDbEntity
  8
MAIN0
  6
CONTINUOUS
 62
3
100
AcDbLine
 10
901.4285002276689
 20
358.2959685533763
 30
0.0000000000000000
 11
913.4285002276688
 21
378.2959685533759
 31
0.0000000000000000
  0
LINE
  5
4C4
100
AcDbEntity
  8
MAIN0
  6
CONTINUOUS
 62
3
100
AcDbLine
 10
913.4285002276689
 20
378.2959685533759
 30
0.0000000000000000
 11
913.4285002276689
 21
379.4959685533761
 31
0.0000000000000000
  0
ARC
  5
4C5
100
AcDbEntity
  8
MAIN0
  6
CONTINUOUS
 62
3
100
AcDbCircle
 10
1005.228500227669
 20
351.9959685533759
 30
0.0000000000000000
 40
1.000000000000000
100
AcDbArc
 50
270.0000000000000
 51
360.0000000000000
  0
ARC
  5
4C6
100
AcDbEntity
  8
MAIN0
  6
CONTINUOUS
 62
3
100
AcDbCircle
 10
901.2285002276692
 20
351.9959685533761
 30
0.0000000000000000
 40
1.000000000000000
100
AcDbArc
 50
180.0000000000000
 51
270.0000000000000
  0
LINE
  5
4C7
100
AcDbEntity
  8
MAIN0
  6
CONTINUOUS
 62
3
100
AcDbLine
 10
1000.728500228074
 20
349.9959685531521
 30
0.0000000000000000
 11
1000.728500228074
 21
348.7959685531518
 31
0.0000000000000000
  0
LINE
  5
4C8
100
AcDbEntity
  8
MAIN0
  6
CONTINUOUS
 62
3
100
AcDbLine
 10
1000.728500228074
 20
349.9959685531518
 30
0.0000000000000000
 11
1006.528500228020
 21
349.9959685531518
 31
0.0000000000000000
  0
LINE
  5
4C9
100
AcDbEntity
  8
MAIN0
  6
CONTINUOUS
 62
3
100
AcDbLine
 10
1000.728500228074
 20
348.7959685531518
 30
0.0000000000000000
 11
1006.728500228074
 21
348.7959685531518
 31
0.0000000000000000
  0
LINE
  5
4CA
100
AcDbEntity
  8
MAIN0
  6
CONTINUOUS
 62
3
100
AcDbLine
 10
905.7285002265297
 20
349.9959685531521
 30
0.0000000000000000
 11
905.7285002265297
 21
348.7959685531518
 31
0.0000000000000000
  0
LINE
  5
4CB
100
AcDbEntity
  8
MAIN0
  6
CONTINUOUS
 62
3
100
AcDbLine
 10
905.7285002265297
 20
349.9959685531518
 30
0.0000000000000000
 11
899.9285002265298
 21
349.9959685531518
 31
0.0000000000000000
  0
LINE
  5
4CC
100
AcDbEntity
  8
MAIN0
  6
CONTINUOUS
 62
3
100
AcDbLine
 10
905.7285002265297
 20
348.7959685531518
 30
0.0000000000000000
 11
899.7285002265295
 21
348.7959685531518
 31
0.0000000000000000
  0
LINE
  5
4CD
100
AcDbEntity
  8
MAIN0
  6
CONTINUOUS
 62
3
100
AcDbLine
 10
1006.528500228023
 20
379.4959685533690
 30
0.0000000000000000
 11
1002.728500224775
 21
379.4959685533813
 31
0.0000000000000000
  0
LINE
  5
4CE
100
AcDbEntity
  8
MAIN0
  6
CONTINUOUS
 62
3
100
AcDbLine
 10
903.7285002298434
 20
379.4959685537160
 30
0.0000000000000000
 11
899.9285002265299
 21
379.4959685537285
 31
0.0000000000000000
  0
LINE
  5
4CF
100
AcDbEntity
  8
MAIN0
  6
CONTINUOUS
 62
3
100
AcDbLine
 10
1002.728500224774
 20
379.4959685533817
 30
0.0000000000000000
 11
991.7285002272811
 21
379.4959685535014
 31
0.0000000000000000
  0
LINE
  5
4D0
100
AcDbEntity
  8
MAIN0
  6
CONTINUOUS
 62
3
100
AcDbLine
 10
991.7285002272815
 20
379.4959685535012
 30
0.0000000000000000
 11
914.7285002272943
 21
379.4959685535965
 31
0.0000000000000000
  0
LINE
  5
4D1
100
AcDbEntity
  8
MAIN0
  6
CONTINUOUS
 62
3
100
AcDbLine
 10
914.7285002272937
 20
379.4959685535968
 30
0.0000000000000000
 11
903.7285002298426
 21
379.4959685537163
 31
0.0000000000000000
  0
LINE
  5
4D2
100
AcDbEntity
  8
MAIN0
  6
CONTINUOUS
 62
3
100
AcDbLine
 10
898.7285002265297
 20
349.7959685531518
 30
0.0000000000000000
 11
898.7285002265297
 21
387.4959685531518
 31
0.0000000000000000
  0
LINE
  5
4D3
100
AcDbEntity
  8
MAIN0
  6
CONTINUOUS
 62
3
100
AcDbLine
 10
1007.728500228074
 20
349.7959685531517
 30
0.0000000000000000
 11
1007.728500228074
 21
387.4959685531517
 31
0.0000000000000000
  0
LINE
  5
4D4
100
AcDbEntity
  8
MAIN0
  6
CONTINUOUS
 62
3
100
AcDbLine
 10
1006.728500228074
 20
388.4959685531517
 30
0.0000000000000000
 11
899.7285002265300
 21
388.4959685531518
 31
0.0000000000000000
  0
LINE
  5
4D5
100
AcDbEntity
  8
MAIN0
  6
CONTINUOUS
 62
3
100
AcDbLine
 10
899.9285002265298
 20
349.9959685531518
 30
0.0000000000000000
 11
899.9285002265300
 21
379.4959685537285
 31
0.0000000000000000
  0
LINE
  5
4D6
100
AcDbEntity
  8
MAIN0
  6
CONTINUOUS
 62
3
100
AcDbLine
 10
1006.528500228020
 20
349.9959685531518
 30
0.0000000000000000
 11
1006.528500228023
 21
379.4959685533690
 31
0.0000000000000000
  0
ARC
  5
4D7
100
AcDbEntity
  8
MAIN0
  6
CONTINUOUS
 62
3
100
AcDbCircle
 10
1006.728500228074
 20
349.7959685531517
 30
0.0000000000000000
 40
1.000000000000000
100
AcDbArc
 50
270.0000000000000
 51
360.0000000000000
  0
ARC
  5
4D8
100
AcDbEntity
  8
MAIN0
  6
CONTINUOUS
 62
3
100
AcDbCircle
 10
899.7285002265295
 20
349.7959685531518
 30
0.0000000000000000
 40
1.000000000000000
100
AcDbArc
 50
180.0000000000000
 51
270.0000000000000
  0
ARC
  5
4D9
100
AcDbEntity
  8
MAIN0
  6
CONTINUOUS
 62
3
100
AcDbCircle
 10
899.7285002265300
 20
387.4959685531518
 30
0.0000000000000000
 40
1.000000000000000
100
AcDbArc
 50
90.00000000000000
 51
180.0000000000000
  0
ARC
  5
4DA
100
AcDbEntity
  8
MAIN0
  6
CONTINUOUS
 62
3
100
AcDbCircle
 10
1006.728500228074
 20
387.4959685531517
 30
0.0000000000000000
 40
1.000000000000000
100
AcDbArc
 50
0.0000000000000000
 51
90.00000000000000
  0
ARC
  5
4DB
100
AcDbEntity
  8
MAIN0
  6
CONTINUOUS
 62
3
100
AcDbCircle
 10
1008.228500228387
 20
396.4959685528798
 30
0.0000000000000000
 40
1.000000000000000
100
AcDbArc
 50
3.613110118142555e-012
 51
90.00000000000081
  0
LINE
  5
4DC
100
AcDbEntity
  8
MAIN0
  6
CONTINUOUS
 62
3
100
AcDbLine
 10
1008.228500227669
 20
397.4959685528797
 30
0.0000000000000000
 11
898.2285002276690
 21
397.4959685528797
 31
0.0000000000000000
  0
ARC
  5
4DD
100
AcDbEntity
  8
MAIN0
  6
CONTINUOUS
 62
3
100
AcDbCircle
 10
898.2285002268300
 20
396.4959685528797
 30
0.0000000000000000
 40
1.000000000000000
100
AcDbArc
 50
90.00000000000040
 51
180.0000000000000
  0
LINE
  5
4DE
100
AcDbEntity
  8
MAIN0
  6
CONTINUOUS
 62
3
100
AcDbLine
 10
1009.228500228387
 20
348.7959685529012
 30
0.0000000000000000
 11
1008.028500228387
 21
348.7959685529012
 31
0.0000000000000000
  0
LINE
  5
4DF
100
AcDbEntity
  8
MAIN0
  6
CONTINUOUS
 62
3
100
AcDbLine
 10
898.4285002268302
 20
348.7959685529995
 30
0.0000000000000000
 11
897.2285002268300
 21
348.7959685529995
 31
0.0000000000000000
  0
LINE
  5
4E0
100
AcDbEntity
  8
MAIN0
  6
CONTINUOUS
 62
3
100
AcDbLine
 10
1009.228500228387
 20
348.7959685529012
 30
0.0000000000000000
 11
1009.228500228387
 21
396.4959685528798
 31
0.0000000000000000
  0
LINE
  5
4E1
100
AcDbEntity
  8
MAIN0
  6
CONTINUOUS
 62
3
100
AcDbLine
 10
1008.028500228387
 20
348.7959685529012
 30
0.0000000000000000
 11
1008.028500228387
 21
388.4948194710805
 31
0.0000000000000000
  0
LINE
  5
4E2
100
AcDbEntity
  8
MAIN0
  6
CONTINUOUS
 62
3
100
AcDbLine
 10
898.4285002268302
 20
348.7959685529995
 30
0.0000000000000000
 11
898.4285002268302
 21
388.4948194714596
 31
0.0000000000000000
  0
LINE
  5
4E3
100
AcDbEntity
  8
MAIN0
  6
CONTINUOUS
 62
3
100
AcDbLine
 10
897.2285002268300
 20
348.7959685529995
 30
0.0000000000000000
 11
897.2285002268300
 21
396.4959685528797
 31
0.0000000000000000
  0
LINE
  5
4E4
100
AcDbEntity
  8
MAIN0
  6
CONTINUOUS
 62
3
100
AcDbLine
 10
1008.028500228387
 20
388.4948194710805
 30
0.0000000000000000
 11
898.4285002268302
 21
388.4948194714596
 31
0.0000000000000000
  0
ARC
  5
4E5
100
AcDbEntity
  8
MAIN0
  6
CONTINUOUS
 62
3
100
AcDbCircle
 10
175.7543985562036
 20
396.4959685530515
 30
0.0000000000000000
 40
1.000000000000000
100
AcDbArc
 50
3.613110118142555e-012
 51
90.00000000000081
  0
ARC
  5
4E6
100
AcDbEntity
  8
MAIN0
  6
CONTINUOUS
 62
3
100
AcDbCircle
 10
65.75439855464697
 20
396.4959685530513
 30
0.0000000000000000
 40
1.000000000000000
100
AcDbArc
 50
90.00000000000040
 51
180.0000000000000
  0
LINE
  5
4E7
100
AcDbEntity
  8
MAIN0
  6
CONTINUOUS
 62
3
100
AcDbLine
 10
176.7543985562036
 20
348.7959685528651
 30
0.0000000000000000
 11
175.5543985562035
 21
348.7959685528651
 31
0.0000000000000000
  0
LINE
  5
4E8
100
AcDbEntity
  8
MAIN0
  6
CONTINUOUS
 62
3
100
AcDbLine
 10
65.95439855464726
 20
348.7959685528650
 30
0.0000000000000000
 11
64.75439855464698
 21
348.7959685528650
 31
0.0000000000000000
  0
LINE
  5
4E9
100
AcDbEntity
  8
MAIN0
  6
CONTINUOUS
 62
3
100
AcDbLine
 10
176.7543985562036
 20
348.7959685528651
 30
0.0000000000000000
 11
176.7543985562036
 21
396.4959685530515
 31
0.0000000000000000
  0
LINE
  5
4EA
100
AcDbEntity
  8
MAIN0
  6
CONTINUOUS
 62
3
100
AcDbLine
 10
175.5543985562035
 20
348.7959685528651
 30
0.0000000000000000
 11
175.5543985562035
 21
379.9959685537066
 31
0.0000000000000000
  0
LINE
  5
4EB
100
AcDbEntity
  8
MAIN0
  6
CONTINUOUS
 62
3
100
AcDbLine
 10
65.95439855464726
 20
348.7959685528650
 30
0.0000000000000000
 11
65.95439855464724
 21
379.9959685540858
 31
0.0000000000000000
  0
LINE
  5
4EC
100
AcDbEntity
  8
MAIN0
  6
CONTINUOUS
 62
3
100
AcDbLine
 10
64.75439855464698
 20
348.7959685528650
 30
0.0000000000000000
 11
64.75439855464697
 21
396.4959685530513
 31
0.0000000000000000
  0
LINE
  5
4ED
100
AcDbEntity
  8
MAIN0
  6
CONTINUOUS
 62
3
100
AcDbLine
 10
70.75439855537994
 20
397.4959685530513
 30
0.0000000000000000
 11
65.75439855548598
 21
397.4959685530513
 31
0.0000000000000000
  0
LINE
  5
4EE
100
AcDbEntity
  8
MAIN0
  6
CONTINUOUS
 62
3
100
AcDbLine
 10
175.7543985554862
 20
397.4959685530513
 30
0.0000000000000000
 11
170.7543985553801
 21
397.4959685530513
 31
0.0000000000000000
  0
LINE
  5
4EF
100
AcDbEntity
  8
MAIN0
  6
CONTINUOUS
 62
3
100
AcDbLine
 10
175.5543985562034
 20
379.9959685537066
 30
0.0000000000000000
 11
170.7543985553801
 21
379.9959685537278
 31
0.0000000000000000
  0
LINE
  5
4F0
100
AcDbEntity
  8
MAIN0
  6
CONTINUOUS
 62
3
100
AcDbLine
 10
168.2543985558908
 20
349.9959685525364
 30
0.0000000000000000
 11
168.2543985558908
 21
348.7959685525361
 31
0.0000000000000000
  0
LINE
  5
4F1
100
AcDbEntity
  8
MAIN0
  6
CONTINUOUS
 62
3
100
AcDbLine
 10
168.2543985558908
 20
349.9959685525362
 30
0.0000000000000000
 11
174.0543985558371
 21
349.9959685525362
 31
0.0000000000000000
  0
LINE
  5
4F2
100
AcDbEntity
  8
MAIN0
  6
CONTINUOUS
 62
3
100
AcDbLine
 10
168.2543985558908
 20
348.7959685525361
 30
0.0000000000000000
 11
174.2543985558908
 21
348.7959685525361
 31
0.0000000000000000
  0
LINE
  5
4F3
100
AcDbEntity
  8
MAIN0
  6
CONTINUOUS
 62
3
100
AcDbLine
 10
73.25439855434696
 20
349.9959685525365
 30
0.0000000000000000
 11
73.25439855434696
 21
348.7959685525362
 31
0.0000000000000000
  0
LINE
  5
4F4
100
AcDbEntity
  8
MAIN0
  6
CONTINUOUS
 62
3
100
AcDbLine
 10
73.25439855434696
 20
349.9959685525362
 30
0.0000000000000000
 11
67.45439855434712
 21
349.9959685525362
 31
0.0000000000000000
  0
LINE
  5
4F5
100
AcDbEntity
  8
MAIN0
  6
CONTINUOUS
 62
3
100
AcDbLine
 10
73.25439855434696
 20
348.7959685525362
 30
0.0000000000000000
 11
67.25439855434696
 21
348.7959685525362
 31
0.0000000000000000
  0
LINE
  5
4F6
100
AcDbEntity
  8
MAIN0
  6
CONTINUOUS
 62
3
100
AcDbLine
 10
66.25439855434696
 20
349.7959685525361
 30
0.0000000000000000
 11
66.25439855434695
 21
379.9959685540848
 31
0.0000000000000000
  0
LINE
  5
4F7
100
AcDbEntity
  8
MAIN0
  6
CONTINUOUS
 62
3
100
AcDbLine
 10
175.2543985558908
 20
349.7959685525362
 30
0.0000000000000000
 11
175.2543985558908
 21
379.9959685537082
 31
0.0000000000000000
  0
LINE
  5
4F8
100
AcDbEntity
  8
MAIN0
  6
CONTINUOUS
 62
3
100
AcDbLine
 10
67.45439855434714
 20
349.9959685525363
 30
0.0000000000000000
 11
67.45439855434728
 21
379.9959685540848
 31
0.0000000000000000
  0
LINE
  5
4F9
100
AcDbEntity
  8
MAIN0
  6
CONTINUOUS
 62
3
100
AcDbLine
 10
174.0543985558371
 20
349.9959685525362
 30
0.0000000000000000
 11
174.0543985558399
 21
379.9959685537083
 31
0.0000000000000000
  0
ARC
  5
4FA
100
AcDbEntity
  8
MAIN0
  6
CONTINUOUS
 62
3
100
AcDbCircle
 10
174.2543985558908
 20
349.7959685525362
 30
0.0000000000000000
 40
1.000000000000000
100
AcDbArc
 50
270.0000000000000
 51
360.0000000000000
  0
ARC
  5
4FB
100
AcDbEntity
  8
MAIN0
  6
CONTINUOUS
 62
3
100
AcDbCircle
 10
67.25439855434696
 20
349.7959685525361
 30
0.0000000000000000
 40
1.000000000000000
100
AcDbArc
 50
180.0000000000000
 51
270.0000000000000
  0
LINE
  5
4FC
100
AcDbEntity
  8
MAIN0
  6
CONTINUOUS
 62
3
100
AcDbLine
 10
73.25439855467926
 20
352.1959685533773
 30
0.0000000000000000
 11
73.25439855467926
 21
350.9959685533772
 31
0.0000000000000000
  0
LINE
  5
4FD
100
AcDbEntity
  8
MAIN0
  6
CONTINUOUS
 62
3
100
AcDbLine
 10
68.95439855548626
 20
352.1959685533773
 30
0.0000000000000000
 11
73.25439855467903
 21
352.1959685533773
 31
0.0000000000000000
  0
LINE
  5
4FE
100
AcDbEntity
  8
MAIN0
  6
CONTINUOUS
 62
3
100
AcDbLine
 10
168.2543985562226
 20
352.1959685533772
 30
0.0000000000000000
 11
172.5543985554862
 21
352.1959685533772
 31
0.0000000000000000
  0
LINE
  5
4FF
100
AcDbEntity
  8
MAIN0
  6
CONTINUOUS
 62
3
100
AcDbLine
 10
68.75439855548643
 20
350.9959685533772
 30
0.0000000000000000
 11
73.25439855467926
 21
350.9959685533772
 31
0.0000000000000000
  0
LINE
  5
500
100
AcDbEntity
  8
MAIN0
  6
CONTINUOUS
 62
3
100
AcDbLine
 10
168.2543985562228
 20
350.9959685533771
 30
0.0000000000000000
 11
172.7543985554861
 21
350.9959685533770
 31
0.0000000000000000
  0
ARC
  5
501
100
AcDbEntity
  8
MAIN0
  6
CONTINUOUS
 62
3
100
AcDbCircle
 10
172.7543985554864
 20
378.4959685533772
 30
0.0000000000000000
 40
1.000000000000000
100
AcDbArc
 50
0.0000000000000000
 51
89.99999999942553
  0
ARC
  5
502
100
AcDbEntity
  8
MAIN0
  6
CONTINUOUS
 62
3
100
AcDbCircle
 10
68.75439855548643
 20
378.4959685533772
 30
0.0000000000000000
 40
1.000000000000000
100
AcDbArc
 50
89.99999999942553
 51
179.9999999999964
  0
LINE
  5
503
100
AcDbEntity
  8
MAIN0
  6
CONTINUOUS
 62
3
100
AcDbLine
 10
168.2543985562231
 20
352.1959685533773
 30
0.0000000000000000
 11
168.2543985562231
 21
350.9959685533772
 31
0.0000000000000000
  0
LINE
  5
504
100
AcDbEntity
  8
MAIN0
  6
CONTINUOUS
 62
3
100
AcDbLine
 10
68.75439855548643
 20
379.4959685533772
 30
0.0000000000000000
 11
68.95439855548625
 21
379.4959685533772
 31
0.0000000000000000
  0
LINE
  5
505
100
AcDbEntity
  8
MAIN0
  6
CONTINUOUS
 62
3
100
AcDbLine
 10
172.5543985554862
 20
379.4959685533772
 30
0.0000000000000000
 11
172.7543985554864
 21
379.4959685533772
 31
0.0000000000000000
  0
LINE
  5
506
100
AcDbEntity
  8
MAIN0
  6
CONTINUOUS
 62
3
100
AcDbLine
 10
173.7543985554864
 20
351.9959685533772
 30
0.0000000000000000
 11
173.7543985554864
 21
378.4959685533772
 31
0.0000000000000000
  0
LINE
  5
507
100
AcDbEntity
  8
MAIN0
  6
CONTINUOUS
 62
3
100
AcDbLine
 10
67.75439855548643
 20
351.9959685533772
 30
0.0000000000000000
 11
67.75439855548643
 21
378.4959685533772
 31
0.0000000000000000
  0
LINE
  5
508
100
AcDbEntity
  8
MAIN0
  6
CONTINUOUS
 62
3
100
AcDbLine
 10
172.5543985554858
 20
358.2959685533772
 30
0.0000000000000000
 11
172.2543985554159
 21
358.7959685534937
 31
0.0000000000000000
  0
LINE
  5
509
100
AcDbEntity
  8
MAIN0
  6
CONTINUOUS
 62
3
100
AcDbLine
 10
68.95439855548607
 20
358.2959685533773
 30
0.0000000000000000
 11
69.25439855541144
 21
358.7959685532529
 31
0.0000000000000000
  0
LINE
  5
50A
100
AcDbEntity
  8
MAIN0
  6
CONTINUOUS
 62
3
100
AcDbLine
 10
172.5543985554862
 20
352.1959685533772
 30
0.0000000000000000
 11
172.5543985554862
 21
379.9959685537218
 31
0.0000000000000000
  0
LINE
  5
50B
100
AcDbEntity
  8
MAIN0
  6
CONTINUOUS
 62
3
100
AcDbLine
 10
68.95439855548625
 20
352.1959685533773
 30
0.0000000000000000
 11
68.95439855548625
 21
379.9959685537220
 31
0.0000000000000000
  0
LINE
  5
50C
100
AcDbEntity
  8
MAIN0
  6
CONTINUOUS
 62
3
100
AcDbLine
 10
170.7543985553801
 20
378.2959685533772
 30
0.0000000000000000
 11
172.5543985554862
 21
378.2959685533772
 31
0.0000000000000000
  0
LINE
  5
50D
100
AcDbEntity
  8
MAIN0
  6
CONTINUOUS
 62
3
100
AcDbLine
 10
68.95439855548629
 20
378.2959685533772
 30
0.0000000000000000
 11
70.75439855538036
 21
378.2959685533772
 31
0.0000000000000000
  0
ARC
  5
50E
100
AcDbEntity
  8
MAIN0
  6
CONTINUOUS
 62
3
100
AcDbCircle
 10
172.7543985554865
 20
351.9959685533771
 30
0.0000000000000000
 40
1.000000000000000
100
AcDbArc
 50
270.0000000000000
 51
360.0000000000000
  0
ARC
  5
50F
100
AcDbEntity
  8
MAIN0
  6
CONTINUOUS
 62
3
100
AcDbCircle
 10
68.75439855548643
 20
351.9959685533772
 30
0.0000000000000000
 40
1.000000000000000
100
AcDbArc
 50
180.0000000000000
 51
270.0000000000000
  0
LINE
  5
510
100
AcDbEntity
  8
MAIN0
  6
CONTINUOUS
 62
3
100
AcDbLine
 10
284.7543985554166
 20
552.0013205468426
 30
0.0000000000000000
 11
284.7543985554166
 21
653.0013205468430
 31
0.0000000000000000
  0
LINE
  5
511
100
AcDbEntity
  8
MAIN0
  6
CONTINUOUS
 62
3
100
AcDbLine
 10
284.7543985554166
 20
552.0013205468428
 30
0.0000000000000000
 11
285.7543985554166
 21
551.0013205468438
 31
0.0000000000000000
  0
LINE
  5
512
100
AcDbEntity
  8
MAIN0
  6
CONTINUOUS
 62
3
100
AcDbLine
 10
284.7543985554168
 20
653.0013205468430
 30
0.0000000000000000
 11
285.7543985554167
 21
654.0013205468440
 31
0.0000000000000000
  0
LINE
  5
513
100
AcDbEntity
  8
MAIN0
  6
CONTINUOUS
 62
3
100
AcDbLine
 10
358.7543985554166
 20
575.5013205456289
 30
0.0000000000000000
 11
499.1669985554170
 21
575.5013205454271
 31
0.0000000000000000
  0
LINE
  5
514
100
AcDbEntity
  8
MAIN0
  6
CONTINUOUS
 62
3
100
AcDbLine
 10
358.7543985554169
 20
629.5013205469197
 30
0.0000000000000000
 11
499.1669985554170
 21
629.5013205469866
 31
0.0000000000000000
  0
LINE
  5
515
100
AcDbEntity
  8
MAIN0
  6
CONTINUOUS
 62
3
100
AcDbLine
 10
285.7543985554166
 20
551.0013205468437
 30
0.0000000000000000
 11
563.7543984975387
 21
551.0013205470518
 31
0.0000000000000000
  0
LINE
  5
516
100
AcDbEntity
  8
MAIN0
  6
CONTINUOUS
 62
3
100
AcDbLine
 10
285.7543985554166
 20
654.0013205468438
 30
0.0000000000000000
 11
563.7543984976419
 21
654.0013205470521
 31
0.0000000000000000
  0
LINE
  5
517
100
AcDbEntity
  8
MAIN0
  6
CENTER
 62
3
100
AcDbLine
 10
524.7543984977340
 20
584.0013205459238
 30
0.0000000000000000
 11
503.7543984977340
 21
584.0013205459238
 31
0.0000000000000000
  0
LINE
  5
518
100
AcDbEntity
  8
MAIN0
  6
CENTER
 62
3
100
AcDbLine
 10
514.2543984977340
 20
594.5013205459238
 30
0.0000000000000000
 11
514.2543984977340
 21
573.5013205459238
 31
0.0000000000000000
  0
LINE
  5
519
100
AcDbEntity
  8
MAIN0
  6
CENTER
 62
3
100
AcDbLine
 10
559.7543984977099
 20
621.0013205460324
 30
0.0000000000000000
 11
538.7543984977099
 21
621.0013205460324
 31
0.0000000000000000
  0
LINE
  5
51A
100
AcDbEntity
  8
MAIN0
  6
CENTER
 62
3
100
AcDbLine
 10
549.2543984977099
 20
631.5013205460323
 30
0.0000000000000000
 11
549.2543984977099
 21
610.5013205460323
 31
0.0000000000000000
  0
CIRCLE
  5
51B
100
AcDbEntity
  8
MAIN0
  6
HIDDEN
 62
3
100
AcDbCircle
 10
514.2543984977340
 20
584.0013205459238
 30
0.0000000000000000
 40
8.000000000000000
  0
LINE
  5
51C
100
AcDbEntity
  8
MAIN0
  6
HIDDEN
 62
3
100
AcDbLine
 10
518.8732006512512
 20
584.0013205459239
 30
0.0000000000000000
 11
516.5637995744927
 21
588.0013205459239
 31
0.0000000000000000
  0
LINE
  5
51D
100
AcDbEntity
  8
MAIN0
  6
HIDDEN
 62
3
100
AcDbLine
 10
516.5637995744926
 20
588.0013205459238
 30
0.0000000000000000
 11
511.9449974209756
 21
588.0013205459238
 31
0.0000000000000000
  0
LINE
  5
51E
100
AcDbEntity
  8
MAIN0
  6
HIDDEN
 62
3
100
AcDbLine
 10
511.9449974209757
 20
588.0013205459241
 30
0.0000000000000000
 11
509.6355963442169
 21
584.0013205459234
 31
0.0000000000000000
  0
LINE
  5
51F
100
AcDbEntity
  8
MAIN0
  6
HIDDEN
 62
3
100
AcDbLine
 10
509.6355963442172
 20
584.0013205459241
 30
0.0000000000000000
 11
511.9449974209758
 21
580.0013205459241
 31
0.0000000000000000
  0
LINE
  5
520
100
AcDbEntity
  8
MAIN0
  6
HIDDEN
 62
3
100
AcDbLine
 10
511.9449974209756
 20
580.0013205459238
 30
0.0000000000000000
 11
516.5637995744926
 21
580.0013205459238
 31
0.0000000000000000
  0
LINE
  5
521
100
AcDbEntity
  8
MAIN0
  6
HIDDEN
 62
3
100
AcDbLine
 10
516.5637995744928
 20
580.0013205459243
 30
0.0000000000000000
 11
518.8732006512513
 21
584.0013205459241
 31
0.0000000000000000
  0
CIRCLE
  5
522
100
AcDbEntity
  8
MAIN0
  6
HIDDEN
 62
3
100
AcDbCircle
 10
549.2543984977099
 20
621.0013205460323
 30
0.0000000000000000
 40
8.000000000000000
  0
LINE
  5
523
100
AcDbEntity
  8
MAIN0
  6
HIDDEN
 62
3
100
AcDbLine
 10
553.8732006512269
 20
621.0013205460322
 30
0.0000000000000000
 11
551.5637995744683
 21
625.0013205460324
 31
0.0000000000000000
  0
LINE
  5
524
100
AcDbEntity
  8
MAIN0
  6
HIDDEN
 62
3
100
AcDbLine
 10
551.5637995744685
 20
625.0013205460323
 30
0.0000000000000000
 11
546.9449974209515
 21
625.0013205460323
 31
0.0000000000000000
  0
LINE
  5
525
100
AcDbEntity
  8
MAIN0
  6
HIDDEN
 62
3
100
AcDbLine
 10
546.9449974209520
 20
625.0013205460330
 30
0.0000000000000000
 11
544.6355963441935
 21
621.0013205460328
 31
0.0000000000000000
  0
LINE
  5
526
100
AcDbEntity
  8
MAIN0
  6
HIDDEN
 62
3
100
AcDbLine
 10
544.6355963441930
 20
621.0013205460327
 30
0.0000000000000000
 11
546.9449974209517
 21
617.0013205460325
 31
0.0000000000000000
  0
LINE
  5
527
100
AcDbEntity
  8
MAIN0
  6
HIDDEN
 62
3
100
AcDbLine
 10
546.9449974209515
 20
617.0013205460323
 30
0.0000000000000000
 11
551.5637995744685
 21
617.0013205460323
 31
0.0000000000000000
  0
LINE
  5
528
100
AcDbEntity
  8
MAIN0
  6
HIDDEN
 62
3
100
AcDbLine
 10
551.5637995744687
 20
617.0013205460324
 30
0.0000000000000000
 11
553.8732006512270
 21
621.0013205460322
 31
0.0000000000000000
  0
LINE
  5
529
100
AcDbEntity
  8
MAIN0
  6
CENTER
 62
3
100
AcDbLine
 10
289.7543985553980
 20
640.5013205465314
 30
0.0000000000000000
 11
310.7543985553980
 21
640.5013205465313
 31
0.0000000000000000
  0
LINE
  5
52A
100
AcDbEntity
  8
MAIN0
  6
CENTER
 62
3
100
AcDbLine
 10
300.2543985553980
 20
630.0013205465313
 30
0.0000000000000000
 11
300.2543985553981
 21
651.0013205465313
 31
0.0000000000000000
  0
LINE
  5
52B
100
AcDbEntity
  8
MAIN0
  6
CONTINUOUS
 62
3
100
AcDbLine
 10
320.3543985554166
 20
552.5013205462896
 30
0.0000000000000000
 11
286.1543985554164
 21
552.5013205462897
 31
0.0000000000000000
  0
LINE
  5
52C
100
AcDbEntity
  8
MAIN0
  6
CONTINUOUS
 62
3
100
AcDbLine
 10
320.3543985554169
 20
652.5013205462898
 30
0.0000000000000000
 11
286.1543985554168
 21
652.5013205462899
 31
0.0000000000000000
  0
LINE
  5
52D
100
AcDbEntity
  8
MAIN0
  6
CONTINUOUS
 62
3
100
AcDbLine
 10
358.2543985554163
 20
552.5013205462891
 30
0.0000000000000000
 11
358.7543985554163
 21
553.0013205462891
 31
0.0000000000000000
  0
LINE
  5
52E
100
AcDbEntity
  8
MAIN0
  6
CONTINUOUS
 62
3
100
AcDbLine
 10
358.7543985554166
 20
652.0013205462891
 30
0.0000000000000000
 11
358.2543985554166
 21
652.5013205462891
 31
0.0000000000000000
  0
LINE
  5
52F
100
AcDbEntity
  8
MAIN0
  6
CONTINUOUS
 62
3
100
AcDbLine
 10
285.7543985554165
 20
552.9013205462896
 30
0.0000000000000000
 11
285.7543985554168
 21
652.1013205462899
 31
0.0000000000000000
  0
LINE
  5
530
100
AcDbEntity
  8
MAIN0
  6
CONTINUOUS
 62
3
100
AcDbLine
 10
358.7543985554166
 20
553.0013205462893
 30
0.0000000000000000
 11
358.7543985554169
 21
652.0013205462896
 31
0.0000000000000000
  0
CIRCLE
  5
531
100
AcDbEntity
  8
MAIN0
  6
HIDDEN
 62
3
100
AcDbCircle
 10
300.2543985553979
 20
640.5013205465315
 30
0.0000000000000000
 40
8.500000000000000
  0
LINE
  5
532
100
AcDbEntity
  8
MAIN0
  6
CONTINUOUS
 62
3
100
AcDbLine
 10
285.7543985554167
 20
652.1013205462898
 30
0.0000000000000000
 11
286.1543985554168
 21
652.5013205462898
 31
0.0000000000000000
  0
LINE
  5
533
100
AcDbEntity
  8
MAIN0
  6
CONTINUOUS
 62
3
100
AcDbLine
 10
285.7543985554163
 20
552.9013205462895
 30
0.0000000000000000
 11
286.1543985554163
 21
552.5013205462896
 31
0.0000000000000000
  0
LINE
  5
534
100
AcDbEntity
  8
MAIN0
  6
CENTER
 62
3
100
AcDbLine
 10
315.7493597080192
 20
625.0013205459485
 30
0.0000000000000000
 11
293.0041506465230
 21
625.0013205459485
 31
0.0000000000000000
  0
LINE
  5
535
100
AcDbEntity
  8
MAIN0
  6
CENTER
 62
3
100
AcDbLine
 10
304.2543985554166
 20
638.5152298194491
 30
0.0000000000000000
 11
304.2543985554166
 21
613.5889791476982
 31
0.0000000000000000
  0
LINE
  5
536
100
AcDbEntity
  8
MAIN0
  6
CENTER
 62
3
100
AcDbLine
 10
315.4377857151405
 20
580.0013205458509
 30
0.0000000000000000
 11
292.6925707386184
 21
580.0013205458509
 31
0.0000000000000000
  0
LINE
  5
537
100
AcDbEntity
  8
MAIN0
  6
CENTER
 62
3
100
AcDbLine
 10
304.2543985554166
 20
592.7132436186041
 30
0.0000000000000000
 11
304.2543985554166
 21
568.7217208405152
 31
0.0000000000000000
  0
CIRCLE
  5
538
100
AcDbEntity
  8
MAIN0
  6
HIDDEN
 62
3
100
AcDbCircle
 10
549.2543984977099
 20
621.0013205460324
 30
0.0000000000000000
 40
8.500000000000000
  0
CIRCLE
  5
539
100
AcDbEntity
  8
MAIN0
  6
HIDDEN
 62
3
100
AcDbCircle
 10
300.2543985553980
 20
640.5013205465315
 30
0.0000000000000000
 40
8.000000000000000
  0
LINE
  5
53A
100
AcDbEntity
  8
MAIN0
  6
HIDDEN
 62
3
100
AcDbLine
 10
295.6355964018811
 20
640.5013205465314
 30
0.0000000000000000
 11
297.9449974786396
 21
636.5013205465315
 31
0.0000000000000000
  0
LINE
  5
53B
100
AcDbEntity
  8
MAIN0
  6
HIDDEN
 62
3
100
AcDbLine
 10
297.9449974786396
 20
636.5013205465313
 30
0.0000000000000000
 11
302.5637996321566
 21
636.5013205465311
 31
0.0000000000000000
  0
LINE
  5
53C
100
AcDbEntity
  8
MAIN0
  6
HIDDEN
 62
3
100
AcDbLine
 10
302.5637996321567
 20
636.5013205465317
 30
0.0000000000000000
 11
304.8732007089152
 21
640.5013205465317
 31
0.0000000000000000
  0
LINE
  5
53D
100
AcDbEntity
  8
MAIN0
  6
HIDDEN
 62
3
100
AcDbLine
 10
304.8732007089151
 20
640.5013205465314
 30
0.0000000000000000
 11
302.5637996321565
 21
644.5013205465314
 31
0.0000000000000000
  0
LINE
  5
53E
100
AcDbEntity
  8
MAIN0
  6
HIDDEN
 62
3
100
AcDbLine
 10
302.5637996321566
 20
644.5013205465313
 30
0.0000000000000000
 11
297.9449974786396
 21
644.5013205465313
 31
0.0000000000000000
  0
LINE
  5
53F
100
AcDbEntity
  8
MAIN0
  6
HIDDEN
 62
3
100
AcDbLine
 10
297.9449974786397
 20
644.5013205465318
 30
0.0000000000000000
 11
295.6355964018811
 21
640.5013205465315
 31
0.0000000000000000
  0
LINE
  5
540
100
AcDbEntity
  8
MAIN0
  6
CONTINUOUS
 62
3
100
AcDbLine
 10
529.1543984977787
 20
652.5013205461999
 30
0.0000000000000000
 11
563.3543984977788
 21
652.5013205461999
 31
0.0000000000000000
  0
LINE
  5
541
100
AcDbEntity
  8
MAIN0
  6
CONTINUOUS
 62
3
100
AcDbLine
 10
529.1543984977787
 20
552.5013205461996
 30
0.0000000000000000
 11
563.3543984977788
 21
552.5013205461996
 31
0.0000000000000000
  0
LINE
  5
542
100
AcDbEntity
  8
MAIN0
  6
CONTINUOUS
 62
3
100
AcDbLine
 10
500.2543984977788
 20
652.5013205461994
 30
0.0000000000000000
 11
499.7543984977785
 21
652.0013205461992
 31
0.0000000000000000
  0
LINE
  5
543
100
AcDbEntity
  8
MAIN0
  6
CONTINUOUS
 62
3
100
AcDbLine
 10
499.7543984977783
 20
553.0013205461995
 30
0.0000000000000000
 11
500.2543984977783
 21
552.5013205461994
 31
0.0000000000000000
  0
LINE
  5
544
100
AcDbEntity
  8
MAIN0
  6
CONTINUOUS
 62
3
100
AcDbLine
 10
499.7543984977788
 20
652.0013205461999
 30
0.0000000000000000
 11
499.7543984977788
 21
553.0013205461999
 31
0.0000000000000000
  0
LINE
  5
545
100
AcDbEntity
  8
MAIN0
  6
CONTINUOUS
 62
3
100
AcDbLine
 10
563.3543984977787
 20
652.5013205461999
 30
0.0000000000000000
 11
563.7543984977788
 21
652.1013205461998
 31
0.0000000000000000
  0
LINE
  5
546
100
AcDbEntity
  8
MAIN0
  6
CONTINUOUS
 62
3
100
AcDbLine
 10
563.3543984977786
 20
552.5013205461995
 30
0.0000000000000000
 11
563.7543984977787
 21
552.9013205461996
 31
0.0000000000000000
  0
LINE
  5
547
100
AcDbEntity
  8
WAKU0
  6
CONTINUOUS
 62
3
100
AcDbLine
 10
240.0000000000000
 20
51.00000000000000
 30
0.0000000000000000
 11
410.0000000000000
 21
51.00000000000000
 31
0.0000000000000000
  0
LINE
  5
548
100
AcDbEntity
  8
WAKU0
  6
CONTINUOUS
 62
3
100
AcDbLine
 10
240.0000000000000
 20
51.00000000000000
 30
0.0000000000000000
 11
240.0000000000000
 21
12.00000000000000
 31
0.0000000000000000
  0
LINE
  5
549
100
AcDbEntity
  8
WAKU0
  6
CONTINUOUS
 62
3
100
AcDbLine
 10
312.0000000000000
 20
51.00000000000000
 30
0.0000000000000000
 11
312.0000000000000
 21
12.00000000000000
 31
0.0000000000000000
  0
LINE
  5
54A
100
AcDbEntity
  8
WAKU0
  6
CONTINUOUS
 62
3
100
AcDbLine
 10
332.0000000000000
 20
51.00000000000000
 30
0.0000000000000000
 11
332.0000000000000
 21
12.00000000000000
 31
0.0000000000000000
  0
LINE
  5
54B
100
AcDbEntity
  8
WAKU0
  6
CONTINUOUS
 62
3
100
AcDbLine
 10
344.0000000000000
 20
51.00000000000000
 30
0.0000000000000000
 11
344.0000000000000
 21
12.00000000000000
 31
0.0000000000000000
  0
LINE
  5
54C
100
AcDbEntity
  8
WAKU0
  6
CONTINUOUS
 62
3
100
AcDbLine
 10
344.0000000000000
 20
37.00000000000000
 30
0.0000000000000000
 11
410.0000000000000
 21
37.00000000000000
 31
0.0000000000000000
  0
LINE
  5
54D
100
AcDbEntity
  8
WAKU0
  6
CONTINUOUS
 62
3
100
AcDbLine
 10
332.0000000000000
 20
23.00000000000000
 30
0.0000000000000000
 11
410.0000000000000
 21
23.00000000000000
 31
0.0000000000000000
  0
LINE
  5
54E
100
AcDbEntity
  8
WAKU0
  6
CONTINUOUS
 62
3
100
AcDbLine
 10
375.0000000000000
 20
51.00000000000000
 30
0.0000000000000000
 11
375.0000000000000
 21
44.00000000000000
 31
0.0000000000000000
  0
LINE
  5
54F
100
AcDbEntity
  8
WAKU0
  6
CONTINUOUS
 62
3
100
AcDbLine
 10
387.0000000000000
 20
51.00000000000000
 30
0.0000000000000000
 11
387.0000000000000
 21
44.00000000000000
 31
0.0000000000000000
  0
LINE
  5
550
100
AcDbEntity
  8
WAKU0
  6
CONTINUOUS
 62
3
100
AcDbLine
 10
312.0000000000000
 20
31.50000000000000
 30
0.0000000000000000
 11
332.0000000000000
 21
31.50000000000000
 31
0.0000000000000000
  0
LINE
  5
551
100
AcDbEntity
  8
WAKU0
  6
CONTINUOUS
 62
3
100
AcDbLine
 10
332.0000000000000
 20
44.00000000000000
 30
0.0000000000000000
 11
410.0000000000000
 21
44.00000000000000
 31
0.0000000000000000
  0
LINE
  5
552
100
AcDbEntity
  8
WAKU0
  6
CONTINUOUS
 62
3
100
AcDbLine
 10
240.0000000000000
 20
37.00000000000000
 30
0.0000000000000000
 11
312.0000000000000
 21
37.00000000000000
 31
0.0000000000000000
  0
LINE
  5
553
100
AcDbEntity
  8
WAKU0
  6
CONTINUOUS
 62
3
100
AcDbLine
 10
240.0000000000000
 20
23.00000000000000
 30
0.0000000000000000
 11
312.0000000000000
 21
23.00000000000000
 31
0.0000000000000000
  0
LINE
  5
554
100
AcDbEntity
  8
WAKU0
  6
CONTINUOUS
 62
3
100
AcDbLine
 10
288.0000000000000
 20
37.00000000000000
 30
0.0000000000000000
 11
288.0000000000000
 21
12.00000000000000
 31
0.0000000000000000
  0
LINE
  5
555
100
AcDbEntity
  8
WAKU0
  6
CONTINUOUS
 62
3
100
AcDbLine
 10
264.0000000000000
 20
37.00000000000000
 30
0.0000000000000000
 11
264.0000000000000
 21
23.00000000000000
 31
0.0000000000000000
  0
LINE
  5
556
100
AcDbEntity
  8
WAKU0
  6
CONTINUOUS
 62
3
100
AcDbLine
 10
300.0000000000000
 20
26.00000000000000
 30
0.0000000000000000
 11
300.0000000000000
 21
23.00000000000000
 31
0.0000000000000000
  0
LINE
  5
557
100
AcDbEntity
  8
WAKU0
  6
CONTINUOUS
 62
3
100
AcDbLine
 10
276.0000000000000
 20
26.00000000000000
 30
0.0000000000000000
 11
276.0000000000000
 21
23.00000000000000
 31
0.0000000000000000
  0
LINE
  5
558
100
AcDbEntity
  8
WAKU0
  6
CONTINUOUS
 62
3
100
AcDbLine
 10
252.0000000000000
 20
26.00000000000000
 30
0.0000000000000000
 11
252.0000000000000
 21
23.00000000000000
 31
0.0000000000000000
  0
LINE
  5
559
100
AcDbEntity
  8
WAKU0
  6
CONTINUOUS
 62
3
100
AcDbLine
 10
258.0000000000000
 20
51.00000000000000
 30
0.0000000000000000
 11
258.0000000000000
 21
37.00000000000000
 31
0.0000000000000000
  0
LINE
  5
55A
100
AcDbEntity
  8
WAKU0
  6
CONTINUOUS
 62
3
100
AcDbLine
 10
240.0000000000000
 20
45.00000000000000
 30
0.0000000000000000
 11
312.0000000000000
 21
45.00000000000000
 31
0.0000000000000000
  0
LINE
  5
55B
100
AcDbEntity
  8
WAKU0
  6
HIDDEN
 62
3
100
AcDbLine
 10
360.5000000000000
 20
23.00000000000000
 30
0.0000000000000000
 11
360.5000000000000
 21
12.00000000000000
 31
0.0000000000000000
  0
LINE
  5
55C
100
AcDbEntity
  8
WAKU0
  6
HIDDEN
 62
3
100
AcDbLine
 10
372.9000000000000
 20
23.00000000000000
 30
0.0000000000000000
 11
372.9000000000000
 21
12.00000000000000
 31
0.0000000000000000
  0
MTEXT
  5
55D
100
AcDbEntity
  8
WAKU0
  6
CONTINUOUS
 62
3
100
AcDbMText
 10
344.4820000243485
 20
49.04999995231628
 30
0.0000000000000000
 40
3.099999904632568
 41
0.0000000000000000
 71
     1
 72
     1
  1
{\H0.92x;{VC104N}}
 11
1.000000000000000
 21
0.0000000000000000
 31
0.0000000000000000
  7
STANDARD
  0
MTEXT
  5
55E
100
AcDbEntity
  8
WAKU0
  6
CONTINUOUS
 62
3
100
AcDbMText
 10
360.3350002765656
 20
43.50000000000000
 30
0.0000000000000000
 40
3.000000000000000
 41
0.0000000000000000
 71
     1
 72
     1
  1
{\H0.94x;{パワーバイス\PＰＯＷＥＲ　ＶＩＳＥ}}
 11
1.000000000000000
 21
0.0000000000000000
 31
0.0000000000000000
  7
KNJYOKO
  0
MTEXT
  5
55F
100
AcDbEntity
  8
WAKU0
  6
CONTINUOUS
 62
3
100
AcDbMText
 10
352.3499999865890
 20
34.23333326975504
 30
0.0000000000000000
 40
3.099999904632568
 41
0.0000000000000000
 71
     1
 72
     1
  1
{\H0.70x;{ＶＣ１０４Ｎ　ガイケイ\PＶＣ１０４Ｎ　ＯＵＴＳＩＤＥ　ＶＩＥＷ}}
 11
1.000000000000000
 21
0.0000000000000000
 31
0.0000000000000000
  7
KNJYOKO
  0
MTEXT
  5
560
100
AcDbEntity
  8
WAKU0
  6
CONTINUOUS
 62
3
100
AcDbMText
 10
318.0049998760223
 20
39.29999995231628
 30
0.0000000000000000
 40
3.099999904632568
 41
0.0000000000000000
 71
     1
 72
     1
  1
{\H0.90x;{2:5}}
 11
1.000000000000000
 21
0.0000000000000000
 31
0.0000000000000000
  7
STANDARD
  0
MTEXT
  5
561
100
AcDbEntity
  8
WAKU0
  6
CONTINUOUS
 62
3
100
AcDbMText
 10
374.4000001549721
 20
20.15000009536743
 30
0.0000000000000000
 40
5.300000190734863
 41
0.0000000000000000
 71
     1
 72
     1
  1
{\H0.90x;{6425}}
 11
1.000000000000000
 21
0.0000000000000000
 31
0.0000000000000000
  7
STANDARD
  0
MTEXT
  5
562
100
AcDbEntity
  8
WAKU0
  6
CONTINUOUS
 62
3
100
AcDbMText
 10
362.3000000834465
 20
20.15000009536743
 30
0.0000000000000000
 40
5.300000190734863
 41
0.0000000000000000
 71
     1
 72
     1
  1
{\H0.87x;{39}}
 11
1.000000000000000
 21
0.0000000000000000
 31
0.0000000000000000
  7
STANDARD
  0
MTEXT
  5
563
100
AcDbEntity
  8
WAKU0
  6
CONTINUOUS
 62
3
100
AcDbMText
 10
345.5000001192093
 20
20.15000009536743
 30
0.0000000000000000
 40
5.300000190734863
 41
0.0000000000000000
 71
     1
 72
     1
  1
{\H0.89x;{61M}}
 11
1.000000000000000
 21
0.0000000000000000
 31
0.0000000000000000
  7
STANDARD
  0
MTEXT
  5
564
100
AcDbEntity
  8
WAKU0
  6
CONTINUOUS
 62
3
100
AcDbMText
 10
400.0000000476837
 20
20.15000009536743
 30
0.0000000000000000
 40
5.300000190734863
 41
0.0000000000000000
 71
     1
 72
     1
  1
{\H0.81x;{0}}
 11
1.000000000000000
 21
0.0000000000000000
 31
0.0000000000000000
  7
STANDARD
  0
MTEXT
  5
565
100
AcDbEntity
  8
WAKU0
  6
CONTINUOUS
 62
3
100
AcDbMText
 10
400.0000000819564
 20
44.84999990463257
 30
0.0000000000000000
 40
5.300000190734863
 41
0.0000000000000000
 71
     7
 72
     1
  1
{\H0.81x;{ }}
 11
1.000000000000000
 21
0.0000000000000000
 31
0.0000000000000000
  7
STANDARD
  0
MTEXT
  5
566
100
AcDbEntity
  8
WAKU0
  6
CONTINUOUS
 62
3
100
AcDbMText
 10
289.3850002884865
 20
33.00000000000000
 30
0.0000000000000000
 40
3.000000000000000
 41
0.0000000000000000
 71
     7
 72
     1
  1
{\H0.93x;{DRAWN BY}}
 11
1.000000000000000
 21
0.0000000000000000
 31
0.0000000000000000
  7
STANDARD
  0
MTEXT
  5
567
100
AcDbEntity
  8
WAKU0
  6
CONTINUOUS
 62
3
100
AcDbMText
 10
269.2149997949600
 20
32.95000004768372
 30
0.0000000000000000
 40
3.099999904632568
 41
0.0000000000000000
 71
     7
 72
     1
  1
{\H0.92x;{CHIEF}}
 11
1.000000000000000
 21
0.0000000000000000
 31
0.0000000000000000
  7
STANDARD
  0
MTEXT
  5
568
100
AcDbEntity
  8
WAKU0
  6
CONTINUOUS
 62
3
100
AcDbMText
 10
242.4249997138977
 20
32.95000004768372
 30
0.0000000000000000
 40
3.099999904632568
 41
0.0000000000000000
 71
     7
 72
     1
  1
{\H0.92x;{MANAGER}}
 11
1.000000000000000
 21
0.0000000000000000
 31
0.0000000000000000
  7
STANDARD
  0
MTEXT
  5
569
100
AcDbEntity
  8
WAKU0
  6
CONTINUOUS
 62
3
100
AcDbMText
 10
244.6599994301796
 20
18.13333336512248
 30
0.0000000000000000
 40
3.099999904632568
 41
0.0000000000000000
 71
     7
 72
     1
  1
{\H0.93x;{KITAGAWA IRON\PWORKS CO.,LTD.}}
 11
1.000000000000000
 21
0.0000000000000000
 31
0.0000000000000000
  7
STANDARD
  0
MTEXT
  5
56A
100
AcDbEntity
  8
WAKU0
  6
CONTINUOUS
 62
3
100
AcDbMText
 10
241.0850002169609
 20
46.50000000000000
 30
0.0000000000000000
 40
3.000000000000000
 41
0.0000000000000000
 71
     7
 72
     1
  1
{\H0.92x;{CAREER}}
 11
1.000000000000000
 21
0.0000000000000000
 31
0.0000000000000000
  7
STANDARD
  0
MTEXT
  5
56B
100
AcDbEntity
  8
WAKU0
  6
CONTINUOUS
 62
3
100
AcDbMText
 10
294.6099998354912
 20
18.95000004768372
 30
0.0000000000000000
 40
3.099999904632568
 41
0.0000000000000000
 71
     7
 72
     1
  1
{\H0.91x;{DATE}}
 11
1.000000000000000
 21
0.0000000000000000
 31
0.0000000000000000
  7
STANDARD
  0
MTEXT
  5
56C
100
AcDbEntity
  8
WAKU0
  6
CONTINUOUS
 62
3
100
AcDbMText
 10
313.9000002145767
 20
26.50000000000000
 30
0.0000000000000000
 40
3.000000000000000
 41
0.0000000000000000
 71
     7
 72
     1
  1
{\H0.63x;{3RD ANGLE}}
 11
1.000000000000000
 21
0.0000000000000000
 31
0.0000000000000000
  7
STANDARD
  0
MTEXT
  5
56D
100
AcDbEntity
  8
WAKU0
  6
CONTINUOUS
 62
3
100
AcDbMText
 10
315.2149997949600
 20
45.95000004768372
 30
0.0000000000000000
 40
3.099999904632568
 41
0.0000000000000000
 71
     7
 72
     1
  1
{\H0.92x;{SCALE}}
 11
1.000000000000000
 21
0.0000000000000000
 31
0.0000000000000000
  7
STANDARD
  0
MTEXT
  5
56E
100
AcDbEntity
  8
WAKU0
  6
CONTINUOUS
 62
3
100
AcDbMText
 10
405.7000000476837
 20
46.00000000000000
 30
0.0000000000000000
 40
3.000000000000000
 41
0.0000000000000000
 71
     7
 72
     1
  1
{\H0.63x;{kg}}
 11
1.000000000000000
 21
0.0000000000000000
 31
0.0000000000000000
  7
STANDARD
  0
MTEXT
  5
56F
100
AcDbEntity
  8
WAKU0
  6
CONTINUOUS
 62
3
100
AcDbMText
 10
375.6000001430512
 20
46.00000000000000
 30
0.0000000000000000
 40
3.000000000000000
 41
0.0000000000000000
 71
     7
 72
     1
  1
{\H0.63x;{WEIGHT}}
 11
1.000000000000000
 21
0.0000000000000000
 31
0.0000000000000000
  7
STANDARD
  0
MTEXT
  5
570
100
AcDbEntity
  8
WAKU0
  6
CONTINUOUS
 62
3
100
AcDbMText
 10
334.0049998760223
 20
18.13333336512248
 30
0.0000000000000000
 40
3.099999904632568
 41
0.0000000000000000
 71
     7
 72
     1
  1
{\H0.90x;{DRW\PNO.}}
 11
1.000000000000000
 21
0.0000000000000000
 31
0.0000000000000000
  7
STANDARD
  0
MTEXT
  5
571
100
AcDbEntity
  8
WAKU0
  6
CONTINUOUS
 62
3
100
AcDbMText
 10
332.6099998354912
 20
31.95000004768372
 30
0.0000000000000000
 40
3.099999904632568
 41
0.0000000000000000
 71
     7
 72
     1
  1
{\H0.91x;{NAME}}
 11
1.000000000000000
 21
0.0000000000000000
 31
0.0000000000000000
  7
STANDARD
  0
MTEXT
  5
572
100
AcDbEntity
  8
WAKU0
  6
CONTINUOUS
 62
3
100
AcDbMText
 10
332.6099998354912
 20
45.95000004768372
 30
0.0000000000000000
 40
3.099999904632568
 41
0.0000000000000000
 71
     7
 72
     1
  1
{\H0.91x;{TYPE}}
 11
1.000000000000000
 21
0.0000000000000000
 31
0.0000000000000000
  7
STANDARD
  0
LINE
  5
573
100
AcDbEntity
  8
WAKU0
  6
HIDDEN
 62
3
100
AcDbLine
 10
407.1599564743885
 20
13.84999990463257
 30
0.0000000000000000
 11
396.9400436209789
 21
13.84999990463257
 31
0.0000000000000000
  0
LINE
  5
574
100
AcDbEntity
  8
WAKU0
  6
HIDDEN
 62
3
100
AcDbLine
 10
407.1599564743885
 20
13.84999990463250
 30
0.0000000000000000
 11
402.0500000476852
 21
22.70070406014901
 31
0.0000000000000000
  0
LINE
  5
575
100
AcDbEntity
  8
WAKU0
  6
HIDDEN
 62
3
100
AcDbLine
 10
402.0500000476852
 20
22.70070406014902
 30
0.0000000000000000
 11
396.9400436209789
 21
13.84999990463248
 31
0.0000000000000000
  0
LINE
  5
576
100
AcDbEntity
  8
WAKU0
  6
CONTINUOUS
 62
3
100
AcDbLine
 10
330.4713877753800
 20
15.78041421262812
 30
0.0000000000000000
 11
330.4713877753800
 21
21.78041421262815
 31
0.0000000000000000
  0
LINE
  5
577
100
AcDbEntity
  8
WAKU0
  6
CONTINUOUS
 62
3
100
AcDbLine
 10
323.9336941228225
 20
17.28041421262811
 30
0.0000000000000000
 11
323.9336941228225
 21
20.28041421262824
 31
0.0000000000000000
  0
LINE
  5
578
100
AcDbEntity
  8
WAKU0
  6
CENTER
 62
12
100
AcDbLine
 10
313.4321805514995
 20
18.78041421262813
 30
0.0000000000000000
 11
331.2765788964694
 21
18.78041421262813
 31
0.0000000000000000
  0
LINE
  5
579
100
AcDbEntity
  8
WAKU0
  6
CENTER
 62
12
100
AcDbLine
 10
317.4474565857986
 20
14.55921662918448
 30
0.0000000000000000
 11
317.4474565857986
 21
22.89865102149943
 31
0.0000000000000000
  0
LINE
  5
57A
100
AcDbEntity
  8
WAKU0
  6
CONTINUOUS
 62
3
100
AcDbLine
 10
323.9336941228225
 20
20.28041421262797
 30
0.0000000000000000
 11
330.4713877753800
 21
21.78041421262795
 31
0.0000000000000000
  0
LINE
  5
57B
100
AcDbEntity
  8
WAKU0
  6
CONTINUOUS
 62
3
100
AcDbLine
 10
323.9336941228225
 20
17.28041421262811
 30
0.0000000000000000
 11
330.4713877753799
 21
15.78041421262812
 31
0.0000000000000000
  0
CIRCLE
  5
57C
100
AcDbEntity
  8
WAKU0
  6
CONTINUOUS
 62
3
100
AcDbCircle
 10
317.4474565857986
 20
18.78041421262813
 30
0.0000000000000000
 40
1.499999999999972
  0
CIRCLE
  5
57D
100
AcDbEntity
  8
WAKU0
  6
CONTINUOUS
 62
3
100
AcDbCircle
 10
317.4474565857986
 20
18.78041421262813
 30
0.0000000000000000
 40
2.999999999999979
  0
LINE
  5
57E
100
AcDbEntity
  8
A0
  6
CONTINUOUS
 62
3
100
AcDbLine
 10
204.5740057553778
 20
659.4962845818021
 30
0.0000000000000000
 11
204.5740057553778
 21
544.9962868467741
 31
0.0000000000000000
  0
LINE
  5
57F
100
AcDbEntity
  8
A0
  6
CONTINUOUS
 62
3
100
AcDbLine
 10
71.57400623216776
 20
646.7462848205355
 30
0.0000000000000000
 11
204.5740057553778
 21
646.7462848205946
 31
0.0000000000000000
  0
LINE
  5
580
100
AcDbEntity
  8
A0
  6
CONTINUOUS
 62
3
100
AcDbLine
 10
71.57400623216674
 20
659.4962845816842
 30
0.0000000000000000
 11
204.5740057553778
 21
659.4962845818022
 31
0.0000000000000000
  0
MTEXT
  5
581
100
AcDbEntity
  8
A0
  6
CONTINUOUS
 62
3
100
AcDbMText
 10
88.44900504009844
 20
656.9962845821467
 30
0.0000000000000000
 40
7.749999761581421
 41
0.0000000000000000
 71
     1
 72
     1
  1
{\H0.71x;{仕様　　SPECIFICATIONS}}
 11
1.000000000000000
 21
0.0000000000000000
 31
0.0000000000000000
  7
KNJYOKO
  0
MTEXT
  5
582
100
AcDbEntity
  8
A0
  6
CONTINUOUS
 62
3
100
AcDbMText
 10
160.5740048016724
 20
640.3712849394826
 30
0.0000000000000000
 40
7.749999761581421
 41
0.0000000000000000
 71
     1
 72
     1
  1
{\H0.70x;{０～204mm}}
 11
1.000000000000000
 21
0.0000000000000000
 31
0.0000000000000000
  7
KNJYOKO
  0
MTEXT
  5
583
100
AcDbEntity
  8
A0
  6
CONTINUOUS
 62
3
100
AcDbMText
 10
72.82400623218386
 20
635.2462850586919
 30
0.0000000000000000
 40
7.749999761581421
 41
0.0000000000000000
 71
     1
 72
     1
  1
{\H0.71x;{CLAMPING RANGE}}
 11
1.000000000000000
 21
0.0000000000000000
 31
0.0000000000000000
  7
STANDARD
  0
LINE
  5
584
100
AcDbEntity
  8
A0
  6
CONTINUOUS
 62
3
100
AcDbLine
 10
71.57400623216930
 20
626.2462852969399
 30
0.0000000000000000
 11
204.5740057553778
 21
626.2462852970577
 31
0.0000000000000000
  0
LINE
  5
585
100
AcDbEntity
  8
A0
  6
CONTINUOUS
 62
3
100
AcDbLine
 10
159.3240048016701
 20
646.7462848205724
 30
0.0000000000000000
 11
159.3240048016701
 21
626.2462852970132
 31
0.0000000000000000
  0
MTEXT
  5
586
100
AcDbEntity
  8
A0
  6
CONTINUOUS
 62
3
100
AcDbMText
 10
72.82400623218386
 20
614.7462855355291
 30
0.0000000000000000
 40
7.749999761581421
 41
0.0000000000000000
 71
     1
 72
     1
  1
{\H0.71x;{TIGHTENING TORQUE}}
 11
1.000000000000000
 21
0.0000000000000000
 31
0.0000000000000000
  7
STANDARD
  0
LINE
  5
587
100
AcDbEntity
  8
A0
  6
CONTINUOUS
 62
3
100
AcDbLine
 10
204.5740057553777
 20
605.7462857742689
 30
0.0000000000000000
 11
71.57400623217092
 21
605.7462857742098
 31
0.0000000000000000
  0
LINE
  5
588
100
AcDbEntity
  8
A0
  6
CONTINUOUS
 62
3
100
AcDbLine
 10
159.3240048016701
 20
605.7462857742468
 30
0.0000000000000000
 11
159.3240048016701
 21
544.9962868467341
 31
0.0000000000000000
  0
LINE
  5
589
100
AcDbEntity
  8
A0
  6
CONTINUOUS
 62
3
100
AcDbLine
 10
159.3240048016701
 20
585.2462862510840
 30
0.0000000000000000
 11
204.5740057553778
 21
585.2462862511040
 31
0.0000000000000000
  0
MTEXT
  5
58A
100
AcDbEntity
  8
A0
  6
CONTINUOUS
 62
3
100
AcDbMText
 10
165.5740052785096
 20
583.9962862504066
 30
0.0000000000000000
 40
7.749999761581421
 41
0.0000000000000000
 71
     1
 72
     1
  1
{\H0.67x;{2}}
 11
1.000000000000000
 21
0.0000000000000000
 31
0.0000000000000000
  7
STANDARD
  0
LINE
  5
58B
100
AcDbEntity
  8
A0
  6
CONTINUOUS
 62
3
100
AcDbLine
 10
204.5740057553777
 20
564.7462864895247
 30
0.0000000000000000
 11
71.57400623217333
 21
564.7462864894656
 31
0.0000000000000000
  0
MTEXT
  5
58C
100
AcDbEntity
  8
A0
  6
CONTINUOUS
 62
3
100
AcDbMText
 10
165.5740052785096
 20
573.7462862507848
 30
0.0000000000000000
 40
7.749999761581421
 41
0.0000000000000000
 71
     1
 72
     1
  1
{\H0.67x;{3}}
 11
1.000000000000000
 21
0.0000000000000000
 31
0.0000000000000000
  7
STANDARD
  0
LINE
  5
58D
100
AcDbEntity
  8
A0
  6
CONTINUOUS
 62
3
100
AcDbLine
 10
159.3240048016701
 20
595.4962860122691
 30
0.0000000000000000
 11
204.5740057553778
 21
595.4962860123093
 31
0.0000000000000000
  0
LINE
  5
58E
100
AcDbEntity
  8
A0
  6
CONTINUOUS
 62
3
100
AcDbLine
 10
176.4727996715517
 20
605.7462857742544
 30
0.0000000000000000
 11
176.4727996715517
 21
564.7462864895124
 31
0.0000000000000000
  0
MTEXT
  5
58F
100
AcDbEntity
  8
A0
  6
CONTINUOUS
 62
3
100
AcDbMText
 10
180.2950589236723
 20
594.2462860119871
 30
0.0000000000000000
 40
7.749999761581421
 41
0.0000000000000000
 71
     1
 72
     1
  1
{\H0.70x;{10KN}}
 11
1.000000000000000
 21
0.0000000000000000
 31
0.0000000000000000
  7
STANDARD
  0
MTEXT
  5
590
100
AcDbEntity
  8
A0
  6
CONTINUOUS
 62
3
100
AcDbMText
 10
180.2950589236723
 20
583.9962862504057
 30
0.0000000000000000
 40
7.749999761581421
 41
0.0000000000000000
 71
     1
 72
     1
  1
{\H0.70x;{15KN}}
 11
1.000000000000000
 21
0.0000000000000000
 31
0.0000000000000000
  7
STANDARD
  0
MTEXT
  5
591
100
AcDbEntity
  8
A0
  6
CONTINUOUS
 62
3
100
AcDbMText
 10
180.2950589236722
 20
573.7462862507839
 30
0.0000000000000000
 40
7.749999761581421
 41
0.0000000000000000
 71
     1
 72
     1
  1
{\H0.70x;{20KN}}
 11
1.000000000000000
 21
0.0000000000000000
 31
0.0000000000000000
  7
STANDARD
  0
MTEXT
  5
592
100
AcDbEntity
  8
A0
  6
CONTINUOUS
 62
3
100
AcDbMText
 10
165.5740052785096
 20
594.2462860119880
 30
0.0000000000000000
 40
7.749999761581421
 41
0.0000000000000000
 71
     1
 72
     1
  1
{\H0.67x;{1}}
 11
1.000000000000000
 21
0.0000000000000000
 31
0.0000000000000000
  7
STANDARD
  0
MTEXT
  5
593
100
AcDbEntity
  8
A0
  6
CONTINUOUS
 62
3
100
AcDbMText
 10
170.9528184488439
 20
558.3712866084024
 30
0.0000000000000000
 40
7.749999761581421
 41
0.0000000000000000
 71
     1
 72
     1
  1
{\H0.70x;{19kg}}
 11
1.000000000000000
 21
0.0000000000000000
 31
0.0000000000000000
  7
STANDARD
  0
MTEXT
  5
594
100
AcDbEntity
  8
A0
  6
CONTINUOUS
 62
3
100
AcDbMText
 10
72.82400623218386
 20
553.2462867276220
 30
0.0000000000000000
 40
6.999999880790710
 41
0.0000000000000000
 71
     1
 72
     1
  1
{\H0.67x;{MASS OF POWER VISE}}
 11
1.000000000000000
 21
0.0000000000000000
 31
0.0000000000000000
  7
STANDARD
  0
MTEXT
  5
595
100
AcDbEntity
  8
A0
  6
CONTINUOUS
 62
3
100
AcDbMText
 10
72.82400623218386
 20
563.4962864892034
 30
0.0000000000000000
 40
7.749999761581421
 41
0.0000000000000000
 71
     1
 72
     1
  1
{\H0.70x;{製品質量}}
 11
1.000000000000000
 21
0.0000000000000000
 31
0.0000000000000000
  7
KNJYOKO
  0
MTEXT
  5
596
100
AcDbEntity
  8
A0
  6
CONTINUOUS
 62
3
100
AcDbMText
 10
72.82400623218386
 20
594.2462860123662
 30
0.0000000000000000
 40
7.749999761581421
 41
0.0000000000000000
 71
     1
 72
     1
  1
{\H0.71x;{CLAMP RANGE}}
 11
1.000000000000000
 21
0.0000000000000000
 31
0.0000000000000000
  7
STANDARD
  0
MTEXT
  5
597
100
AcDbEntity
  8
A0
  6
CONTINUOUS
 62
3
100
AcDbMText
 10
72.82400623218386
 20
604.4962857739477
 30
0.0000000000000000
 40
7.749999761581421
 41
0.0000000000000000
 71
     1
 72
     1
  1
{\H0.70x;{締付けレンジ}}
 11
1.000000000000000
 21
0.0000000000000000
 31
0.0000000000000000
  7
KNJYOKO
  0
LINE
  5
598
100
AcDbEntity
  8
A0
  6
CONTINUOUS
 62
3
100
AcDbLine
 10
71.57400623216674
 20
659.4962845816839
 30
0.0000000000000000
 11
71.57400623217490
 21
544.9962868466605
 31
0.0000000000000000
  0
LINE
  5
599
100
AcDbEntity
  8
A0
  6
CONTINUOUS
 62
3
100
AcDbLine
 10
204.5740057553778
 20
544.9962868467787
 30
0.0000000000000000
 11
71.57400623217491
 21
544.9962868466607
 31
0.0000000000000000
  0
MTEXT
  5
59A
100
AcDbEntity
  8
A0
  6
CONTINUOUS
 62
3
100
AcDbMText
 10
72.82400623218386
 20
624.9962852971105
 30
0.0000000000000000
 40
7.749999761581421
 41
0.0000000000000000
 71
     1
 72
     1
  1
{\H0.70x;{締付トルク}}
 11
1.000000000000000
 21
0.0000000000000000
 31
0.0000000000000000
  7
KNJYOKO
  0
MTEXT
  5
59B
100
AcDbEntity
  8
A0
  6
CONTINUOUS
 62
3
100
AcDbMText
 10
72.82400623218386
 20
645.4962848202733
 30
0.0000000000000000
 40
7.749999761581421
 41
0.0000000000000000
 71
     1
 72
     1
  1
{\H0.70x;{口金の開き}}
 11
1.000000000000000
 21
0.0000000000000000
 31
0.0000000000000000
  7
KNJYOKO
  0
LINE
  5
59C
100
AcDbEntity
  8
A0
  6
CONTINUOUS
 62
3
100
AcDbLine
 10
159.3240048016701
 20
574.9962862510840
 30
0.0000000000000000
 11
204.5740057553778
 21
574.9962862511040
 31
0.0000000000000000
  0
MTEXT
  5
59D
100
AcDbEntity
  8
A0
  6
CONTINUOUS
 62
3
100
AcDbMText
 10
180.2950589236722
 20
604.4962857739467
 30
0.0000000000000000
 40
7.749999761581421
 41
0.0000000000000000
 71
     1
 72
     1
  1
{\H0.70x;{ 8KN}}
 11
1.000000000000000
 21
0.0000000000000000
 31
0.0000000000000000
  7
STANDARD
  0
MTEXT
  5
59E
100
AcDbEntity
  8
A0
  6
CONTINUOUS
 62
3
100
AcDbMText
 10
165.5740052785096
 20
604.4962857739477
 30
0.0000000000000000
 40
7.749999761581421
 41
0.0000000000000000
 71
     1
 72
     1
  1
{\H0.67x;{0}}
 11
1.000000000000000
 21
0.0000000000000000
 31
0.0000000000000000
  7
STANDARD
  0
ENDSEC
  0
SECTION
  2
OBJECTS
  0
DICTIONARY
  5
600
100
AcDbDictionary
  3
ACAD_GROUP
350
601
  3
ACAD_MLINESTYLE
350
602
  3
DWGPROPS
350
603
  0
DICTIONARY
  5
601
102
{ACAD_REACTORS
330
600
102
}
100
AcDbDictionary
  0
DICTIONARY
  5
602
102
{ACAD_REACTORS
330
600
102
}
100
AcDbDictionary
  3
STANDARD
350
604
  0
MLINESTYLE
  5
604
102
{ACAD_REACTORS
330
602
102
}
100
AcDbMlineStyle
  2
STANDARD
 70
     0
  3

 62
   256
 51
90.00
 52
90.00
 71
     2
 49
0.50
 62
   256
  6
BYLAYER
 49
-0.50
 62
   256
  6
BYLAYER
  0
XRECORD
  5
603
102
{ACAD_REACTORS
330
600
102
}
100
AcDbXrecord
280
     1
  1
DWGPROPS COOKIE
  2
ＶＣ１０４　ガイケイ
  3

  4

  6
パワーバイス
  7

  8

  9

300
=
301
=
302
=
303
=
304
=
305
=
306
=
307
=
308
=
309
=
 40
0.000000
 41
0.000000
 42
0.000000
  1

 90
        0
  0
ENDSEC
  0
EOF
