  0
SECTION
  2
HEADER
  9
$ACADVER
  1
AC1014
  9
$DWGCODEPAGE
  3
ANSI_932
  9
$LTSCALE
 40
20.0
  9
$FILLMODE
 70
     1
  9
$CLAYER
  8
0
  9
$PDMODE
 70
     0
  9
$SPLFRAME
 70
     0
  9
$SPLINETYPE
 70
     6
  9
$SPLINESEGS
 70
     8
  9
$DIMASZ
 40
2.000000
  9
$DIMEXE
 40
2.000000
  9
$DIMEXO
 40
0.800000
  9
$DIMTAD
 70
     1
  9
$DIMTIH
 70
     0
  9
$DIMTOH
 70
     0
  9
$DIMTVP
 40
0.500000
  9
$DIMTXT
 40
3.100000
  9
$EXTMIN
 10
0.000000
 20
0.000000
 30
0.000000
  9
$EXTMAX
 10
297.000000
 20
420.000000
 30
0.000000
  9
$MEASUREMENT
 70
  1
  9
$LIMMIN
 10
0.000000
 20
0.000000
  9
$LIMMAX
 10
297.000000
 20
420.000000
  9
$HANDLING
 70
     1
  9
$HANDSEED
  5
5D7
  9
$DIMBLK
  1
_OPEN
  9
$DIMDEC
 70
     3
  9
$DIMAUNIT
 70
     1
  9
$DIMZIN
 70
     8
  9
$DIMTOFL
 70
     1
  0
ENDSEC
  0
SECTION
  2
CLASSES
  0
ENDSEC
  0
SECTION
  2
TABLES
  0
TABLE
  2
VPORT
  5
573
100
AcDbSymbolTable
 70
     1
  0
VPORT
  5
574
100
AcDbSymbolTableRecord
100
AcDbViewportTableRecord
  2
*ACTIVE
 70
     0
 12
1125.519455
 22
350.246774
 40
7277.055811
 41
1.314634
  0
ENDTAB
  0
TABLE
  2
LTYPE
  5
575
100
AcDbSymbolTable
 70
     4
  0
LTYPE
  5
576
100
AcDbSymbolTableRecord
100
AcDbLinetypeTableRecord
  2
BYBLOCK
 70
     0
  3

 72
    65
 73
     0
 40
0.0
  0
LTYPE
  5
577
100
AcDbSymbolTableRecord
100
AcDbLinetypeTableRecord
  2
BYLAYER
 70
     0
  3

 72
    65
 73
     0
 40
0.0
  0
LTYPE
  5
578
100
AcDbSymbolTableRecord
100
AcDbLinetypeTableRecord
  2
CONTINUOUS
 70
     0
  3
Solid line (NEC CAE2D for Win R12.1 : 2016.08.05)
 72
    65
 73
     0
 40
0.0
  0
LTYPE
  5
579
100
AcDbSymbolTableRecord
100
AcDbLinetypeTableRecord
  2
HIDDEN
 70
     0
  3
__ __ __ __ __ __ __ __ __ __ __ __ __ __
 72
    65
 73
     2
 40
0.375
 49
0.25
 74
     0
 49
-0.125
 74
     0
  0
LTYPE
  5
57A
100
AcDbSymbolTableRecord
100
AcDbLinetypeTableRecord
  2
CENTER
 70
     0
  3
____ _ ____ _ ____ _ ____ _ ____ _ ____
 72
    65
 73
     4
 40
2.0
 49
1.25
 74
     0
 49
-0.25
 74
     0
 49
0.25
 74
     0
 49
-0.25
 74
     0
  0
LTYPE
  5
57B
100
AcDbSymbolTableRecord
100
AcDbLinetypeTableRecord
  2
PHANTOM
 70
     0
  3
______  __  __  ______  __  __  ______ 
 72
    65
 73
     6
 40
2.5
 49
1.25
 74
     0
 49
-0.25
 74
     0
 49
0.25
 74
     0
 49
-0.25
 74
     0
 49
0.25
 74
     0
 49
-0.25
 74
     0
  0
ENDTAB
  0
TABLE
  2
LAYER
  5
57C
100
AcDbSymbolTable
 70
     8
  0
LAYER
  5
57D
100
AcDbSymbolTableRecord
100
AcDbLayerTableRecord
  2
0
 70
     0
 62
     7
  6
CONTINUOUS
  0
LAYER
  5
57E
100
AcDbSymbolTableRecord
100
AcDbLayerTableRecord
  2
MAIN0
 70
     0
 62
     7
  6
CONTINUOUS
  0
LAYER
  5
57F
100
AcDbSymbolTableRecord
100
AcDbLayerTableRecord
  2
MAIN10
 70
     0
 62
     7
  6
CONTINUOUS
  0
LAYER
  5
580
100
AcDbSymbolTableRecord
100
AcDbLayerTableRecord
  2
MAIN1023
 70
     0
 62
    16
  6
CONTINUOUS
  0
LAYER
  5
581
100
AcDbSymbolTableRecord
100
AcDbLayerTableRecord
  2
WAKU0
 70
     0
 62
     7
  6
CONTINUOUS
  0
LAYER
  5
582
100
AcDbSymbolTableRecord
100
AcDbLayerTableRecord
  2
WAKU1023
 70
     0
 62
    16
  6
CONTINUOUS
  0
LAYER
  5
583
100
AcDbSymbolTableRecord
100
AcDbLayerTableRecord
  2
A0
 70
     0
 62
     7
  6
CONTINUOUS
  0
LAYER
  5
584
100
AcDbSymbolTableRecord
100
AcDbLayerTableRecord
  2
A1023
 70
     0
 62
    16
  6
CONTINUOUS
  0
ENDTAB
  0
TABLE
  2
STYLE
  5
585
100
AcDbSymbolTable
 70
     4
  0
STYLE
  5
586
100
AcDbSymbolTableRecord
100
AcDbTextStyleTableRecord
  2
STANDARD
 70
    64
 40
0.0
 41
1.0
 50
0.0
 71
     0
 42
7.749999761581421
  3
TXT
  4

  0
STYLE
  5
587
100
AcDbSymbolTableRecord
100
AcDbTextStyleTableRecord
  2
ANKTATE
 70
    68
 40
0.0
 41
1.0
 50
0.0
 71
     0
 42
7.749999761581421
  3
TXT
  4

  0
STYLE
  5
588
100
AcDbSymbolTableRecord
100
AcDbTextStyleTableRecord
  2
KNJYOKO
 70
    64
 40
0.0
 41
1.0
 50
0.0
 71
     0
 42
7.749999761581421
  3
TXT
  4
BIGFONT
  0
STYLE
  5
589
100
AcDbSymbolTableRecord
100
AcDbTextStyleTableRecord
  2
KNJTATE
 70
    68
 40
0.0
 41
1.0
 50
0.0
 71
     0
 42
7.749999761581421
  3
TXT
  4
BIGFONT
  0
ENDTAB
  0
TABLE
  2
VIEW
  5
58A
100
AcDbSymbolTable
 70
     0
  0
ENDTAB
  0
TABLE
  2
UCS
  5
58B
100
AcDbSymbolTable
 70
     0
  0
ENDTAB
  0
TABLE
  2
APPID
  5
58C
100
AcDbSymbolTable
 70
     1
  0
APPID
  5
58D
100
AcDbSymbolTableRecord
100
AcDbRegAppTableRecord
  2
ACAD
 70
     0
  0
ENDTAB
  0
TABLE
  2
DIMSTYLE
  5
58E
100
AcDbSymbolTable
 70
     1
  0
DIMSTYLE
105
58F
100
AcDbSymbolTableRecord
100
AcDbDimStyleTableRecord
  2
STANDARD
 70
     0
 41
2.000000
 44
2.000000
 42
0.800000
145
0.661290
140
3.100000
144
1.000000
146
0.903226
340
586
  0
DIMSTYLE
105
590
100
AcDbSymbolTableRecord
100
AcDbDimStyleTableRecord
  2
MAIN001
 70
     0
 41
4.000000
 44
4.000000
 42
1.600000
145
0.580645
140
6.200000
144
1.000000
146
0.903226
 77
     1
 73
     0
 74
     0
271
     3
275
     1
 78
     8
172
     1
340
586
  0
DIMSTYLE
105
591
100
AcDbSymbolTableRecord
100
AcDbDimStyleTableRecord
  2
WAKU002
 70
     0
 41
2.000000
 44
2.000000
 42
0.800000
145
0.661290
140
3.100000
144
1.000000
146
0.903226
 77
     1
 73
     0
 74
     0
271
     3
275
     1
 78
     8
172
     1
340
586
  0
DIMSTYLE
105
592
100
AcDbSymbolTableRecord
100
AcDbDimStyleTableRecord
  2
A003
 70
     0
 41
5.000000
 44
5.000000
 42
2.000000
145
0.564516
140
7.750000
144
1.000000
146
0.903226
 77
     1
 73
     0
 74
     0
271
     3
275
     1
 78
     8
172
     1
340
586
  0
ENDTAB
  0
TABLE
  2
BLOCK_RECORD
  5
593
100
AcDbSymbolTable
 70
    68
  0
BLOCK_RECORD
  5
594
100
AcDbSymbolTableRecord
100
AcDbBlockTableRecord
  2
*MODEL_SPACE
  0
BLOCK_RECORD
  5
595
100
AcDbSymbolTableRecord
100
AcDbBlockTableRecord
  2
*PAPER_SPACE
  0
BLOCK_RECORD
  5
1
100
AcDbSymbolTableRecord
100
AcDbBlockTableRecord
  2
_NONE
  0
BLOCK_RECORD
  5
4
100
AcDbSymbolTableRecord
100
AcDbBlockTableRecord
  2
_CLOSED
  0
BLOCK_RECORD
  5
B
100
AcDbSymbolTableRecord
100
AcDbBlockTableRecord
  2
_DOT
  0
BLOCK_RECORD
  5
13
100
AcDbSymbolTableRecord
100
AcDbBlockTableRecord
  2
_OPEN
  0
BLOCK_RECORD
  5
19
100
AcDbSymbolTableRecord
100
AcDbBlockTableRecord
  2
_ORIGIN
  0
BLOCK_RECORD
  5
1E
100
AcDbSymbolTableRecord
100
AcDbBlockTableRecord
  2
_OPEN30
  0
BLOCK_RECORD
  5
24
100
AcDbSymbolTableRecord
100
AcDbBlockTableRecord
  2
_BOXFILLED
  0
BLOCK_RECORD
  5
29
100
AcDbSymbolTableRecord
100
AcDbBlockTableRecord
  2
_BOXBLANK
  0
BLOCK_RECORD
  5
31
100
AcDbSymbolTableRecord
100
AcDbBlockTableRecord
  2
_OBLIQUE
  0
BLOCK_RECORD
  5
35
100
AcDbSymbolTableRecord
100
AcDbBlockTableRecord
  2
_OPEN90
  0
BLOCK_RECORD
  5
3B
100
AcDbSymbolTableRecord
100
AcDbBlockTableRecord
  2
_CLOSEDBLANK
  0
BLOCK_RECORD
  5
41
100
AcDbSymbolTableRecord
100
AcDbBlockTableRecord
  2
_DOTBLANK
  0
BLOCK_RECORD
  5
596
100
AcDbSymbolTableRecord
100
AcDbBlockTableRecord
  2
*D0
  0
BLOCK_RECORD
  5
597
100
AcDbSymbolTableRecord
100
AcDbBlockTableRecord
  2
*D1
  0
BLOCK_RECORD
  5
598
100
AcDbSymbolTableRecord
100
AcDbBlockTableRecord
  2
*D2
  0
BLOCK_RECORD
  5
599
100
AcDbSymbolTableRecord
100
AcDbBlockTableRecord
  2
*D3
  0
BLOCK_RECORD
  5
59A
100
AcDbSymbolTableRecord
100
AcDbBlockTableRecord
  2
*D4
  0
BLOCK_RECORD
  5
59B
100
AcDbSymbolTableRecord
100
AcDbBlockTableRecord
  2
*D5
  0
BLOCK_RECORD
  5
59C
100
AcDbSymbolTableRecord
100
AcDbBlockTableRecord
  2
*D6
  0
BLOCK_RECORD
  5
59D
100
AcDbSymbolTableRecord
100
AcDbBlockTableRecord
  2
*D7
  0
BLOCK_RECORD
  5
59E
100
AcDbSymbolTableRecord
100
AcDbBlockTableRecord
  2
*D8
  0
BLOCK_RECORD
  5
59F
100
AcDbSymbolTableRecord
100
AcDbBlockTableRecord
  2
*D9
  0
BLOCK_RECORD
  5
5A0
100
AcDbSymbolTableRecord
100
AcDbBlockTableRecord
  2
*D10
  0
BLOCK_RECORD
  5
5A1
100
AcDbSymbolTableRecord
100
AcDbBlockTableRecord
  2
*D11
  0
BLOCK_RECORD
  5
5A2
100
AcDbSymbolTableRecord
100
AcDbBlockTableRecord
  2
*D12
  0
BLOCK_RECORD
  5
5A3
100
AcDbSymbolTableRecord
100
AcDbBlockTableRecord
  2
*D13
  0
BLOCK_RECORD
  5
5A4
100
AcDbSymbolTableRecord
100
AcDbBlockTableRecord
  2
*D14
  0
BLOCK_RECORD
  5
5A5
100
AcDbSymbolTableRecord
100
AcDbBlockTableRecord
  2
*D15
  0
BLOCK_RECORD
  5
5A6
100
AcDbSymbolTableRecord
100
AcDbBlockTableRecord
  2
*D16
  0
BLOCK_RECORD
  5
5A7
100
AcDbSymbolTableRecord
100
AcDbBlockTableRecord
  2
*D17
  0
BLOCK_RECORD
  5
5A8
100
AcDbSymbolTableRecord
100
AcDbBlockTableRecord
  2
*D18
  0
BLOCK_RECORD
  5
5A9
100
AcDbSymbolTableRecord
100
AcDbBlockTableRecord
  2
*D19
  0
BLOCK_RECORD
  5
5AA
100
AcDbSymbolTableRecord
100
AcDbBlockTableRecord
  2
*D20
  0
BLOCK_RECORD
  5
5AB
100
AcDbSymbolTableRecord
100
AcDbBlockTableRecord
  2
*D21
  0
BLOCK_RECORD
  5
5AC
100
AcDbSymbolTableRecord
100
AcDbBlockTableRecord
  2
*D22
  0
BLOCK_RECORD
  5
5AD
100
AcDbSymbolTableRecord
100
AcDbBlockTableRecord
  2
*D23
  0
BLOCK_RECORD
  5
5AE
100
AcDbSymbolTableRecord
100
AcDbBlockTableRecord
  2
*D24
  0
BLOCK_RECORD
  5
5AF
100
AcDbSymbolTableRecord
100
AcDbBlockTableRecord
  2
*D25
  0
BLOCK_RECORD
  5
5B0
100
AcDbSymbolTableRecord
100
AcDbBlockTableRecord
  2
*D26
  0
BLOCK_RECORD
  5
5B1
100
AcDbSymbolTableRecord
100
AcDbBlockTableRecord
  2
*D27
  0
BLOCK_RECORD
  5
5B2
100
AcDbSymbolTableRecord
100
AcDbBlockTableRecord
  2
*D28
  0
BLOCK_RECORD
  5
5B3
100
AcDbSymbolTableRecord
100
AcDbBlockTableRecord
  2
*D29
  0
BLOCK_RECORD
  5
5B4
100
AcDbSymbolTableRecord
100
AcDbBlockTableRecord
  2
*D30
  0
BLOCK_RECORD
  5
5B5
100
AcDbSymbolTableRecord
100
AcDbBlockTableRecord
  2
*D31
  0
BLOCK_RECORD
  5
5B6
100
AcDbSymbolTableRecord
100
AcDbBlockTableRecord
  2
*D32
  0
BLOCK_RECORD
  5
5B7
100
AcDbSymbolTableRecord
100
AcDbBlockTableRecord
  2
*D33
  0
BLOCK_RECORD
  5
5B8
100
AcDbSymbolTableRecord
100
AcDbBlockTableRecord
  2
*D34
  0
BLOCK_RECORD
  5
5B9
100
AcDbSymbolTableRecord
100
AcDbBlockTableRecord
  2
*D35
  0
BLOCK_RECORD
  5
5BA
100
AcDbSymbolTableRecord
100
AcDbBlockTableRecord
  2
*D36
  0
BLOCK_RECORD
  5
5BB
100
AcDbSymbolTableRecord
100
AcDbBlockTableRecord
  2
*D37
  0
BLOCK_RECORD
  5
5BC
100
AcDbSymbolTableRecord
100
AcDbBlockTableRecord
  2
*D38
  0
BLOCK_RECORD
  5
5BD
100
AcDbSymbolTableRecord
100
AcDbBlockTableRecord
  2
*D39
  0
BLOCK_RECORD
  5
5BE
100
AcDbSymbolTableRecord
100
AcDbBlockTableRecord
  2
*D40
  0
BLOCK_RECORD
  5
5BF
100
AcDbSymbolTableRecord
100
AcDbBlockTableRecord
  2
*D41
  0
BLOCK_RECORD
  5
5C0
100
AcDbSymbolTableRecord
100
AcDbBlockTableRecord
  2
*D42
  0
BLOCK_RECORD
  5
5C1
100
AcDbSymbolTableRecord
100
AcDbBlockTableRecord
  2
*D43
  0
BLOCK_RECORD
  5
5C2
100
AcDbSymbolTableRecord
100
AcDbBlockTableRecord
  2
*D44
  0
BLOCK_RECORD
  5
5C3
100
AcDbSymbolTableRecord
100
AcDbBlockTableRecord
  2
*D45
  0
BLOCK_RECORD
  5
5C4
100
AcDbSymbolTableRecord
100
AcDbBlockTableRecord
  2
*D46
  0
BLOCK_RECORD
  5
5C5
100
AcDbSymbolTableRecord
100
AcDbBlockTableRecord
  2
*D47
  0
BLOCK_RECORD
  5
5C6
100
AcDbSymbolTableRecord
100
AcDbBlockTableRecord
  2
*D48
  0
BLOCK_RECORD
  5
5C7
100
AcDbSymbolTableRecord
100
AcDbBlockTableRecord
  2
*D49
  0
BLOCK_RECORD
  5
5C8
100
AcDbSymbolTableRecord
100
AcDbBlockTableRecord
  2
*D50
  0
BLOCK_RECORD
  5
5C9
100
AcDbSymbolTableRecord
100
AcDbBlockTableRecord
  2
*D51
  0
BLOCK_RECORD
  5
5CA
100
AcDbSymbolTableRecord
100
AcDbBlockTableRecord
  2
*D52
  0
BLOCK_RECORD
  5
5CB
100
AcDbSymbolTableRecord
100
AcDbBlockTableRecord
  2
*D53
  0
BLOCK_RECORD
  5
5CC
100
AcDbSymbolTableRecord
100
AcDbBlockTableRecord
  2
D54
  0
BLOCK_RECORD
  5
5CD
100
AcDbSymbolTableRecord
100
AcDbBlockTableRecord
  2
*D55
  0
ENDTAB
  0
ENDSEC
  0
SECTION
  2
BLOCKS
  0
BLOCK
  5
5CE
100
AcDbEntity
  8
0
100
AcDbBlockBegin
  2
*MODEL_SPACE
 70
     0
 10
0.0
 20
0.0
 30
0.0
  3
*MODEL_SPACE
  1

  0
ENDBLK
  5
5CF
100
AcDbEntity
  8
0
100
AcDbBlockEnd
  0
BLOCK
  5
5D0
100
AcDbEntity
  8
0
100
AcDbBlockBegin
  2
*PAPER_SPACE
 70
     0
 10
0.0
 20
0.0
 30
0.0
  3
*PAPER_SPACE
  1

  0
ENDBLK
  5
5D1
100
AcDbEntity
  8
0
100
AcDbBlockEnd
  0
BLOCK
  5
2
100
AcDbEntity
  8
0
100
AcDbBlockBegin
  2
_NONE
 70
     0
 10
0.0
 20
0.0
 30
0.0
  3
_NONE
  1

  0
ENDBLK
  5
3
100
AcDbEntity
  8
0
100
AcDbBlockEnd
  0
BLOCK
  5
5
100
AcDbEntity
  8
0
100
AcDbBlockBegin
  2
_CLOSED
 70
     0
 10
0.0
 20
0.0
 30
0.0
  3
_CLOSED
  1

  0
LINE
  5
6
100
AcDbEntity
  8
0
  6
BYBLOCK
 62
     0
100
AcDbLine
 10
-1.0
 20
0.166667
 30
0.0
 11
0.0
 21
0.0
 31
0.0
  0
LINE
  5
7
100
AcDbEntity
  8
0
  6
BYBLOCK
 62
     0
100
AcDbLine
 10
0.0
 20
0.0
 30
0.0
 11
-1.0
 21
-0.166667
 31
0.0
  0
LINE
  5
8
100
AcDbEntity
  8
0
  6
BYBLOCK
 62
     0
100
AcDbLine
 10
-1.0
 20
0.166667
 30
0.0
 11
-1.0
 21
-0.166667
 31
0.0
  0
LINE
  5
9
100
AcDbEntity
  8
0
  6
BYBLOCK
 62
     0
100
AcDbLine
 10
0.0
 20
0.0
 30
0.0
 11
-1.0
 21
0.0
 31
0.0
  0
ENDBLK
  5
A
100
AcDbEntity
  8
0
100
AcDbBlockEnd
  0
BLOCK
  5
C
100
AcDbEntity
  8
0
100
AcDbBlockBegin
  2
_DOT
 70
     0
 10
0.0
 20
0.0
 30
0.0
  3
_DOT
  1

  0
POLYLINE
  5
D
100
AcDbEntity
  8
0
  6
BYBLOCK
 62
     0
100
AcDb2dPolyline
 66
     1
 10
0.0
 20
0.0
 30
0.0
 70
     1
 40
0.5
 41
0.5
  0
VERTEX
  5
E
100
AcDbEntity
  8
0
  6
BYBLOCK
 62
     0
100
AcDbVertex
100
AcDb2dVertex
 10
-0.25
 20
0.0
 30
0.0
 42
1.0
  0
VERTEX
  5
F
100
AcDbEntity
  8
0
  6
BYBLOCK
 62
     0
100
AcDbVertex
100
AcDb2dVertex
 10
0.25
 20
0.0
 30
0.0
 42
1.0
  0
SEQEND
  5
10
100
AcDbEntity
  8
0
  6
BYBLOCK
 62
     0
  0
LINE
  5
11
100
AcDbEntity
  8
0
  6
BYBLOCK
 62
     0
100
AcDbLine
 10
-0.5
 20
0.0
 30
0.0
 11
-1.0
 21
0.0
 31
0.0
  0
ENDBLK
  5
12
100
AcDbEntity
  8
0
100
AcDbBlockEnd
  0
BLOCK
  5
14
100
AcDbEntity
  8
0
100
AcDbBlockBegin
  2
_OPEN
 70
     0
 10
0.0
 20
0.0
 30
0.0
  3
_OPEN
  1

  0
LINE
  5
15
100
AcDbEntity
  8
0
  6
BYBLOCK
 62
     0
100
AcDbLine
 10
-1.0
 20
0.166667
 30
0.0
 11
0.0
 21
0.0
 31
0.0
  0
LINE
  5
16
100
AcDbEntity
  8
0
  6
BYBLOCK
 62
     0
100
AcDbLine
 10
0.0
 20
0.0
 30
0.0
 11
-1.0
 21
-0.166667
 31
0.0
  0
LINE
  5
17
100
AcDbEntity
  8
0
  6
BYBLOCK
 62
     0
100
AcDbLine
 10
0.0
 20
0.0
 30
0.0
 11
-1.0
 21
0.0
 31
0.0
  0
ENDBLK
  5
18
100
AcDbEntity
  8
0
100
AcDbBlockEnd
  0
BLOCK
  5
1A
100
AcDbEntity
  8
0
100
AcDbBlockBegin
  2
_ORIGIN
 70
     0
 10
0.0
 20
0.0
 30
0.0
  3
_ORIGIN
  1

  0
CIRCLE
  5
1B
100
AcDbEntity
  8
0
  6
BYBLOCK
 62
     0
100
AcDbCircle
 10
0.0
 20
0.0
 30
0.0
 40
0.5
  0
LINE
  5
1C
100
AcDbEntity
  8
0
  6
BYBLOCK
 62
     0
100
AcDbLine
 10
0.0
 20
0.0
 30
0.0
 11
-1.0
 21
0.0
 31
0.0
  0
ENDBLK
  5
1D
100
AcDbEntity
  8
0
100
AcDbBlockEnd
  0
BLOCK
  5
1F
100
AcDbEntity
  8
0
100
AcDbBlockBegin
  2
_OPEN30
 70
     0
 10
0.0
 20
0.0
 30
0.0
  3
_OPEN30
  1

  0
LINE
  5
20
100
AcDbEntity
  8
0
  6
BYBLOCK
 62
     0
100
AcDbLine
 10
-1.0
 20
0.267949
 30
0.0
 11
0.0
 21
0.0
 31
0.0
  0
LINE
  5
21
100
AcDbEntity
  8
0
  6
BYBLOCK
 62
     0
100
AcDbLine
 10
0.0
 20
0.0
 30
0.0
 11
-1.0
 21
-0.267949
 31
0.0
  0
LINE
  5
22
100
AcDbEntity
  8
0
  6
BYBLOCK
 62
     0
100
AcDbLine
 10
0.0
 20
0.0
 30
0.0
 11
-1.0
 21
0.0
 31
0.0
  0
ENDBLK
  5
23
100
AcDbEntity
  8
0
100
AcDbBlockEnd
  0
BLOCK
  5
25
100
AcDbEntity
  8
0
100
AcDbBlockBegin
  2
_BOXFILLED
 70
     0
 10
0.0
 20
0.0
 30
0.0
  3
_BOXFILLED
  1

  0
SOLID
  5
26
100
AcDbEntity
  8
0
  6
BYBLOCK
 62
     0
100
AcDbTrace
 10
-0.5
 20
0.5
 30
0.0
 11
0.5
 21
0.5
 31
0.0
 12
-0.5
 22
-0.5
 32
0.0
 13
0.5
 23
-0.5
 33
0.0
  0
LINE
  5
27
100
AcDbEntity
  8
0
  6
BYBLOCK
 62
     0
100
AcDbLine
 10
-0.5
 20
0.0
 30
0.0
 11
-1.0
 21
0.0
 31
0.0
  0
ENDBLK
  5
28
100
AcDbEntity
  8
0
100
AcDbBlockEnd
  0
BLOCK
  5
2A
100
AcDbEntity
  8
0
100
AcDbBlockBegin
  2
_BOXBLANK
 70
     0
 10
0.0
 20
0.0
 30
0.0
  3
_BOXBLANK
  1

  0
LINE
  5
2B
100
AcDbEntity
  8
0
  6
BYBLOCK
 62
     0
100
AcDbLine
 10
-0.5
 20
-0.5
 30
0.0
 11
0.5
 21
-0.5
 31
0.0
  0
LINE
  5
2C
100
AcDbEntity
  8
0
  6
BYBLOCK
 62
     0
100
AcDbLine
 10
0.5
 20
-0.5
 30
0.0
 11
0.5
 21
0.5
 31
0.0
  0
LINE
  5
2D
100
AcDbEntity
  8
0
  6
BYBLOCK
 62
     0
100
AcDbLine
 10
0.5
 20
0.5
 30
0.0
 11
-0.5
 21
0.5
 31
0.0
  0
LINE
  5
2E
100
AcDbEntity
  8
0
  6
BYBLOCK
 62
     0
100
AcDbLine
 10
-0.5
 20
0.5
 30
0.0
 11
-0.5
 21
-0.5
 31
0.0
  0
LINE
  5
2F
100
AcDbEntity
  8
0
  6
BYBLOCK
 62
     0
100
AcDbLine
 10
-0.5
 20
0.0
 30
0.0
 11
-1.0
 21
0.0
 31
0.0
  0
ENDBLK
  5
30
100
AcDbEntity
  8
0
100
AcDbBlockEnd
  0
BLOCK
  5
32
100
AcDbEntity
  8
0
100
AcDbBlockBegin
  2
_OBLIQUE
 70
     0
 10
0.0
 20
0.0
 30
0.0
  3
_OBLIQUE
  1

  0
LINE
  5
33
100
AcDbEntity
  8
0
  6
BYBLOCK
 62
     0
100
AcDbLine
 10
-0.5
 20
-0.5
 30
0.0
 11
0.5
 21
0.5
 31
0.0
  0
ENDBLK
  5
34
100
AcDbEntity
  8
0
100
AcDbBlockEnd
  0
BLOCK
  5
36
100
AcDbEntity
  8
0
100
AcDbBlockBegin
  2
_OPEN90
 70
     0
 10
0.0
 20
0.0
 30
0.0
  3
_OPEN90
  1

  0
LINE
  5
37
100
AcDbEntity
  8
0
  6
BYBLOCK
 62
     0
100
AcDbLine
 10
-0.5
 20
0.5
 30
0.0
 11
0.0
 21
0.0
 31
0.0
  0
LINE
  5
38
100
AcDbEntity
  8
0
  6
BYBLOCK
 62
     0
100
AcDbLine
 10
0.0
 20
0.0
 30
0.0
 11
-0.5
 21
-0.5
 31
0.0
  0
LINE
  5
39
100
AcDbEntity
  8
0
  6
BYBLOCK
 62
     0
100
AcDbLine
 10
0.0
 20
0.0
 30
0.0
 11
-1.0
 21
0.0
 31
0.0
  0
ENDBLK
  5
3A
100
AcDbEntity
  8
0
100
AcDbBlockEnd
  0
BLOCK
  5
3C
100
AcDbEntity
  8
0
100
AcDbBlockBegin
  2
_CLOSEDBLANK
 70
     0
 10
0.0
 20
0.0
 30
0.0
  3
_CLOSEDBLANK
  1

  0
LINE
  5
3D
100
AcDbEntity
  8
0
  6
BYBLOCK
 62
     0
100
AcDbLine
 10
-1.0
 20
0.1666666666666666
 30
0.0
 11
0.0
 21
0.0
 31
0.0
  0
LINE
  5
3E
100
AcDbEntity
  8
0
  6
BYBLOCK
 62
     0
100
AcDbLine
 10
0.0
 20
0.0
 30
0.0
 11
-1.0
 21
-0.1666666666666666
 31
0.0
  0
LINE
  5
3F
100
AcDbEntity
  8
0
  6
BYBLOCK
 62
     0
100
AcDbLine
 10
-1.0
 20
0.1666666666666666
 30
0.0
 11
-1.0
 21
-0.1666666666666666
 31
0.0
  0
ENDBLK
  5
40
100
AcDbEntity
  8
0
100
AcDbBlockEnd
  0
BLOCK
  5
42
100
AcDbEntity
  8
0
100
AcDbBlockBegin
  2
_DOTBLANK
 70
     0
 10
0.0
 20
0.0
 30
0.0
  3
_DOTBLANK
  1

  0
CIRCLE
  5
43
100
AcDbEntity
  8
0
  6
BYBLOCK
 62
     0
100
AcDbCircle
 10
0.0
 20
0.0
 30
0.0
 40
0.5
  0
LINE
  5
44
100
AcDbEntity
  8
0
  6
BYBLOCK
 62
     0
100
AcDbLine
 10
-0.5
 20
0.0
 30
0.0
 11
-1.0
 21
0.0
 31
0.0
  0
ENDBLK
  5
45
100
AcDbEntity
  8
0
100
AcDbBlockEnd
  0
BLOCK
  5
A8
100
AcDbEntity
  8
MAIN0
  6
CONTINUOUS
 62
3
100
AcDbBlockBegin
  2
*D0
 70
    65
 10
0.0
 20
0.0
 30
0.0
  0
LINE
  5
A9
100
AcDbEntity
  8
MAIN0
  6
BYBLOCK
 62
0
100
AcDbLine
 10
230.1364379884378
 20
228.0622225232177
 30
0.0000000000000000
 11
230.1364379884378
 21
163.0981083038293
 31
0.0000000000000000
  0
LINE
  5
AA
100
AcDbEntity
  8
MAIN0
  6
BYBLOCK
 62
0
100
AcDbLine
 10
234.1364379884378
 20
167.0981083038293
 30
0.0000000000000000
 11
386.1364379884375
 21
167.0981083038293
 31
0.0000000000000000
  0
INSERT
  5
AB
100
AcDbEntity
  8
MAIN0
  6
BYBLOCK
 62
0
100
AcDbBlockReference
  2
_OPEN
 10
230.1364379884378
 20
167.0981083038293
 30
0.0000000000000000
 41
4.000000000000000
 42
4.000000000000000
 43
4.000000000000000
 50
180.0000000000000
  0
INSERT
  5
AC
100
AcDbEntity
  8
MAIN0
  6
BYBLOCK
 62
0
100
AcDbBlockReference
  2
_OPEN
 10
390.1364379884375
 20
167.0981083038293
 30
0.0000000000000000
 41
4.000000000000000
 42
4.000000000000000
 43
4.000000000000000
 50
0.0000000000000000
  0
LINE
  5
AD
100
AcDbEntity
  8
MAIN0
  6
BYBLOCK
 62
0
100
AcDbLine
 10
390.1364379884375
 20
220.0622225230723
 30
0.0000000000000000
 11
390.1364379884375
 21
163.0981083038293
 31
0.0000000000000000
  0
MTEXT
  5
AE
100
AcDbEntity
  8
MAIN0
  6
BYBLOCK
 62
0
100
AcDbMText
 10
310.1364379884377
 20
170.6981082084619
 30
0.0000000000000000
 40
6.199999809265137
 41
0.0000000000000000
 71
     5
 72
     1
  1
\A1;160
 11
1.000000000000000
 21
0.0000000000000000
 31
0.0000000000000000
  7
STANDARD
  0
ENDBLK
  5
AF
100
AcDbEntity
  8
MAIN0
  6
CONTINUOUS
 62
3
100
AcDbBlockEnd
  0
BLOCK
  5
B1
100
AcDbEntity
  8
MAIN0
  6
CONTINUOUS
 62
3
100
AcDbBlockBegin
  2
*D1
 70
    65
 10
0.0
 20
0.0
 30
0.0
  0
LINE
  5
B2
100
AcDbEntity
  8
MAIN0
  6
BYBLOCK
 62
0
100
AcDbLine
 10
390.1364379884375
 20
220.0622225230723
 30
0.0000000000000000
 11
390.1364379884375
 21
163.0981083038293
 31
0.0000000000000000
  0
LINE
  5
B3
100
AcDbEntity
  8
MAIN0
  6
BYBLOCK
 62
0
100
AcDbLine
 10
394.1364379884375
 20
167.0981083038293
 30
0.0000000000000000
 11
581.6364379884316
 21
167.0981083038293
 31
0.0000000000000000
  0
INSERT
  5
B4
100
AcDbEntity
  8
MAIN0
  6
BYBLOCK
 62
0
100
AcDbBlockReference
  2
_OPEN
 10
390.1364379884375
 20
167.0981083038293
 30
0.0000000000000000
 41
4.000000000000000
 42
4.000000000000000
 43
4.000000000000000
 50
180.0000000000000
  0
INSERT
  5
B5
100
AcDbEntity
  8
MAIN0
  6
BYBLOCK
 62
0
100
AcDbBlockReference
  2
_OPEN
 10
585.6364379884316
 20
167.0981083038293
 30
0.0000000000000000
 41
4.000000000000000
 42
4.000000000000000
 43
4.000000000000000
 50
0.0000000000000000
  0
LINE
  5
B6
100
AcDbEntity
  8
MAIN0
  6
BYBLOCK
 62
0
100
AcDbLine
 10
585.6364379884316
 20
237.0622225228000
 30
0.0000000000000000
 11
585.6364379884316
 21
163.0981083038293
 31
0.0000000000000000
  0
MTEXT
  5
B7
100
AcDbEntity
  8
MAIN0
  6
BYBLOCK
 62
0
100
AcDbMText
 10
487.8864379884345
 20
170.6981082084619
 30
0.0000000000000000
 40
6.199999809265137
 41
0.0000000000000000
 71
     5
 72
     1
  1
\A1;195.5
 11
1.000000000000000
 21
0.0000000000000000
 31
0.0000000000000000
  7
STANDARD
  0
ENDBLK
  5
B8
100
AcDbEntity
  8
MAIN0
  6
CONTINUOUS
 62
3
100
AcDbBlockEnd
  0
BLOCK
  5
BA
100
AcDbEntity
  8
MAIN0
  6
CONTINUOUS
 62
3
100
AcDbBlockBegin
  2
*D2
 70
    65
 10
0.0
 20
0.0
 30
0.0
  0
LINE
  5
BB
100
AcDbEntity
  8
MAIN0
  6
BYBLOCK
 62
0
100
AcDbLine
 10
390.1364379884375
 20
220.0622225230723
 30
0.0000000000000000
 11
390.1364379884375
 21
192.9238663209812
 31
0.0000000000000000
  0
LINE
  5
BC
100
AcDbEntity
  8
MAIN0
  6
BYBLOCK
 62
0
100
AcDbLine
 10
394.1364379884375
 20
196.9238663209812
 30
0.0000000000000000
 11
499.1364379884061
 21
196.9238663209812
 31
0.0000000000000000
  0
INSERT
  5
BD
100
AcDbEntity
  8
MAIN0
  6
BYBLOCK
 62
0
100
AcDbBlockReference
  2
_OPEN
 10
390.1364379884375
 20
196.9238663209812
 30
0.0000000000000000
 41
4.000000000000000
 42
4.000000000000000
 43
4.000000000000000
 50
180.0000000000000
  0
INSERT
  5
BE
100
AcDbEntity
  8
MAIN0
  6
BYBLOCK
 62
0
100
AcDbBlockReference
  2
_OPEN
 10
503.1364379884061
 20
196.9238663209812
 30
0.0000000000000000
 41
4.000000000000000
 42
4.000000000000000
 43
4.000000000000000
 50
0.0000000000000000
  0
LINE
  5
BF
100
AcDbEntity
  8
MAIN0
  6
BYBLOCK
 62
0
100
AcDbLine
 10
503.1364379884061
 20
232.5622225228170
 30
0.0000000000000000
 11
503.1364379884061
 21
192.9238663209812
 31
0.0000000000000000
  0
MTEXT
  5
C0
100
AcDbEntity
  8
MAIN0
  6
BYBLOCK
 62
0
100
AcDbMText
 10
446.6364379884218
 20
200.5238662256138
 30
0.0000000000000000
 40
6.199999809265137
 41
0.0000000000000000
 71
     5
 72
     1
  1
\A1;113
 11
1.000000000000000
 21
0.0000000000000000
 31
0.0000000000000000
  7
STANDARD
  0
ENDBLK
  5
C1
100
AcDbEntity
  8
MAIN0
  6
CONTINUOUS
 62
3
100
AcDbBlockEnd
  0
BLOCK
  5
C3
100
AcDbEntity
  8
MAIN0
  6
CONTINUOUS
 62
3
100
AcDbBlockBegin
  2
*D3
 70
    65
 10
0.0
 20
0.0
 30
0.0
  0
LINE
  5
C4
100
AcDbEntity
  8
MAIN0
  6
BYBLOCK
 62
0
100
AcDbLine
 10
459.0349599107071
 20
305.8622225474475
 30
0.0000000000000000
 11
459.0349599107071
 21
294.6622225469480
 31
0.0000000000000000
  0
INSERT
  5
C5
100
AcDbEntity
  8
MAIN0
  6
BYBLOCK
 62
0
100
AcDbBlockReference
  2
_OPEN
 10
459.0349599107071
 20
305.8622225474475
 30
0.0000000000000000
 41
4.000000000000000
 42
4.000000000000000
 43
4.000000000000000
 50
270.0000000000000
  0
INSERT
  5
C6
100
AcDbEntity
  8
MAIN0
  6
BYBLOCK
 62
0
100
AcDbBlockReference
  2
_OPEN
 10
459.0349599107071
 20
294.6622225469480
 30
0.0000000000000000
 41
4.000000000000000
 42
4.000000000000000
 43
4.000000000000000
 50
90.00000000000000
  0
LINE
  5
C7
100
AcDbEntity
  8
MAIN0
  6
BYBLOCK
 62
0
100
AcDbLine
 10
459.0349599107071
 20
309.8622225474475
 30
0.0000000000000000
 11
459.0349599107071
 21
311.8622225474475
 31
0.0000000000000000
  0
LINE
  5
C8
100
AcDbEntity
  8
MAIN0
  6
BYBLOCK
 62
0
100
AcDbLine
 10
459.0349599107071
 20
290.6622225469480
 30
0.0000000000000000
 11
459.0349599107071
 21
288.6622225469480
 31
0.0000000000000000
  0
LINE
  5
C9
100
AcDbEntity
  8
MAIN0
  6
BYBLOCK
 62
0
100
AcDbLine
 10
434.3364380122286
 20
294.6622225469480
 30
0.0000000000000000
 11
463.0349599107071
 21
294.6622225469480
 31
0.0000000000000000
  0
MTEXT
  5
CA
100
AcDbEntity
  8
MAIN0
  6
BYBLOCK
 62
0
100
AcDbMText
 10
455.4349600060746
 20
300.2622225471978
 30
0.0000000000000000
 40
6.199999809265137
 41
0.0000000000000000
 71
     5
 72
     1
  1
\A1;11
 11
6.123233995736766e-017
 21
1.000000000000000
 31
0.0000000000000000
  7
STANDARD
  0
ENDBLK
  5
CB
100
AcDbEntity
  8
MAIN0
  6
CONTINUOUS
 62
3
100
AcDbBlockEnd
  0
BLOCK
  5
CD
100
AcDbEntity
  8
MAIN0
  6
CONTINUOUS
 62
3
100
AcDbBlockBegin
  2
*D4
 70
    65
 10
0.0
 20
0.0
 30
0.0
  0
LINE
  5
CE
100
AcDbEntity
  8
MAIN0
  6
BYBLOCK
 62
0
100
AcDbLine
 10
417.5364379645895
 20
282.1622225471865
 30
0.0000000000000000
 11
404.7424340794532
 21
282.1622225471865
 31
0.0000000000000000
  0
LINE
  5
CF
100
AcDbEntity
  8
MAIN0
  6
BYBLOCK
 62
0
100
AcDbLine
 10
408.7424340794532
 20
282.1622225471865
 30
0.0000000000000000
 11
408.7424340794532
 21
294.6622225469162
 31
0.0000000000000000
  0
INSERT
  5
D0
100
AcDbEntity
  8
MAIN0
  6
BYBLOCK
 62
0
100
AcDbBlockReference
  2
_OPEN
 10
408.7424340794532
 20
282.1622225471865
 30
0.0000000000000000
 41
4.000000000000000
 42
4.000000000000000
 43
4.000000000000000
 50
90.00000000000000
  0
INSERT
  5
D1
100
AcDbEntity
  8
MAIN0
  6
BYBLOCK
 62
0
100
AcDbBlockReference
  2
_OPEN
 10
408.7424340794532
 20
294.6622225469162
 30
0.0000000000000000
 41
4.000000000000000
 42
4.000000000000000
 43
4.000000000000000
 50
270.0000000000000
  0
LINE
  5
D2
100
AcDbEntity
  8
MAIN0
  6
BYBLOCK
 62
0
100
AcDbLine
 10
408.7424340794532
 20
278.1622225471865
 30
0.0000000000000000
 11
408.7424340794532
 21
276.1622225471865
 31
0.0000000000000000
  0
LINE
  5
D3
100
AcDbEntity
  8
MAIN0
  6
BYBLOCK
 62
0
100
AcDbLine
 10
408.7424340794532
 20
298.6622225469162
 30
0.0000000000000000
 11
408.7424340794532
 21
311.1811387234254
 31
0.0000000000000000
  0
MTEXT
  5
D4
100
AcDbEntity
  8
MAIN0
  6
BYBLOCK
 62
0
100
AcDbMText
 10
404.6424341748207
 20
303.8811385326905
 30
0.0000000000000000
 40
6.199999809265137
 41
0.0000000000000000
 71
     5
 72
     1
  1
\A1;12.5
 11
6.123233995736766e-017
 21
1.000000000000000
 31
0.0000000000000000
  7
STANDARD
  0
ENDBLK
  5
D5
100
AcDbEntity
  8
MAIN0
  6
CONTINUOUS
 62
3
100
AcDbBlockEnd
  0
BLOCK
  5
D7
100
AcDbEntity
  8
MAIN0
  6
CONTINUOUS
 62
3
100
AcDbBlockBegin
  2
*D5
 70
    65
 10
0.0
 20
0.0
 30
0.0
  0
LINE
  5
D8
100
AcDbEntity
  8
MAIN0
  6
BYBLOCK
 62
0
100
AcDbLine
 10
601.4269863180477
 20
324.4897949569749
 30
0.0000000000000000
 11
601.4269863180472
 21
478.8476884974892
 31
0.0000000000000000
  0
LINE
  5
D9
100
AcDbEntity
  8
MAIN0
  6
BYBLOCK
 62
0
100
AcDbLine
 10
601.4269863180472
 20
474.8476884974892
 30
0.0000000000000000
 11
615.9269863180482
 21
474.8476884974892
 31
0.0000000000000000
  0
INSERT
  5
DA
100
AcDbEntity
  8
MAIN0
  6
BYBLOCK
 62
0
100
AcDbBlockReference
  2
_OPEN
 10
601.4269863180472
 20
474.8476884974892
 30
0.0000000000000000
 41
4.000000000000000
 42
4.000000000000000
 43
4.000000000000000
 50
0.0000000000000000
  0
INSERT
  5
DB
100
AcDbEntity
  8
MAIN0
  6
BYBLOCK
 62
0
100
AcDbBlockReference
  2
_OPEN
 10
615.9269863180482
 20
474.8476884974892
 30
0.0000000000000000
 41
4.000000000000000
 42
4.000000000000000
 43
4.000000000000000
 50
180.0000000000000
  0
LINE
  5
DC
100
AcDbEntity
  8
MAIN0
  6
BYBLOCK
 62
0
100
AcDbLine
 10
597.4269863180472
 20
474.8476884974892
 30
0.0000000000000000
 11
595.4269863180472
 21
474.8476884974892
 31
0.0000000000000000
  0
LINE
  5
DD
100
AcDbEntity
  8
MAIN0
  6
BYBLOCK
 62
0
100
AcDbLine
 10
619.9269863180482
 20
474.8476884974892
 30
0.0000000000000000
 11
621.9269863180482
 21
474.8476884974892
 31
0.0000000000000000
  0
LINE
  5
DE
100
AcDbEntity
  8
MAIN0
  6
BYBLOCK
 62
0
100
AcDbLine
 10
615.9269863180482
 20
327.6897949569952
 30
0.0000000000000000
 11
615.9269863180482
 21
478.8476884974892
 31
0.0000000000000000
  0
MTEXT
  5
DF
100
AcDbEntity
  8
MAIN0
  6
BYBLOCK
 62
0
100
AcDbMText
 10
607.7837674707027
 20
478.9476884021218
 30
0.0000000000000000
 40
6.199999809265137
 41
0.0000000000000000
 71
     5
 72
     1
  1
\A1;14.5
 11
1.000000000000000
 21
0.0000000000000000
 31
0.0000000000000000
  7
STANDARD
  0
ENDBLK
  5
E0
100
AcDbEntity
  8
MAIN0
  6
CONTINUOUS
 62
3
100
AcDbBlockEnd
  0
BLOCK
  5
E2
100
AcDbEntity
  8
MAIN0
  6
CONTINUOUS
 62
3
100
AcDbBlockBegin
  2
*D6
 70
    65
 10
0.0
 20
0.0
 30
0.0
  0
LINE
  5
E3
100
AcDbEntity
  8
MAIN0
  6
BYBLOCK
 62
0
100
AcDbLine
 10
615.9269863180482
 20
327.6897949569952
 30
0.0000000000000000
 11
615.9269863180482
 21
478.8476884974892
 31
0.0000000000000000
  0
LINE
  5
E4
100
AcDbEntity
  8
MAIN0
  6
BYBLOCK
 62
0
100
AcDbLine
 10
619.9269863180482
 20
474.8476884974892
 30
0.0000000000000000
 11
654.9269863180482
 21
474.8476884974892
 31
0.0000000000000000
  0
INSERT
  5
E5
100
AcDbEntity
  8
MAIN0
  6
BYBLOCK
 62
0
100
AcDbBlockReference
  2
_OPEN
 10
615.9269863180482
 20
474.8476884974892
 30
0.0000000000000000
 41
4.000000000000000
 42
4.000000000000000
 43
4.000000000000000
 50
180.0000000000000
  0
INSERT
  5
E6
100
AcDbEntity
  8
MAIN0
  6
BYBLOCK
 62
0
100
AcDbBlockReference
  2
_OPEN
 10
658.9269863180482
 20
474.8476884974892
 30
0.0000000000000000
 41
4.000000000000000
 42
4.000000000000000
 43
4.000000000000000
 50
0.0000000000000000
  0
LINE
  5
E7
100
AcDbEntity
  8
MAIN0
  6
BYBLOCK
 62
0
100
AcDbLine
 10
658.9269863180482
 20
443.5897949569745
 30
0.0000000000000000
 11
658.9269863180482
 21
478.8476884974892
 31
0.0000000000000000
  0
MTEXT
  5
E8
100
AcDbEntity
  8
MAIN0
  6
BYBLOCK
 62
0
100
AcDbMText
 10
637.4269863180482
 20
478.4476884021218
 30
0.0000000000000000
 40
6.199999809265137
 41
0.0000000000000000
 71
     5
 72
     1
  1
\A1;43
 11
1.000000000000000
 21
0.0000000000000000
 31
0.0000000000000000
  7
STANDARD
  0
ENDBLK
  5
E9
100
AcDbEntity
  8
MAIN0
  6
CONTINUOUS
 62
3
100
AcDbBlockEnd
  0
BLOCK
  5
EB
100
AcDbEntity
  8
MAIN0
  6
CONTINUOUS
 62
3
100
AcDbBlockBegin
  2
*D7
 70
    65
 10
0.0
 20
0.0
 30
0.0
  0
LINE
  5
EC
100
AcDbEntity
  8
MAIN0
  6
BYBLOCK
 62
0
100
AcDbLine
 10
658.9269863180482
 20
443.5897949569745
 30
0.0000000000000000
 11
658.9269863180482
 21
478.8476884974892
 31
0.0000000000000000
  0
LINE
  5
ED
100
AcDbEntity
  8
MAIN0
  6
BYBLOCK
 62
0
100
AcDbLine
 10
662.9269863180482
 20
474.8476884974892
 30
0.0000000000000000
 11
726.9269863180471
 21
474.8476884974892
 31
0.0000000000000000
  0
INSERT
  5
EE
100
AcDbEntity
  8
MAIN0
  6
BYBLOCK
 62
0
100
AcDbBlockReference
  2
_OPEN
 10
658.9269863180482
 20
474.8476884974892
 30
0.0000000000000000
 41
4.000000000000000
 42
4.000000000000000
 43
4.000000000000000
 50
180.0000000000000
  0
INSERT
  5
EF
100
AcDbEntity
  8
MAIN0
  6
BYBLOCK
 62
0
100
AcDbBlockReference
  2
_OPEN
 10
730.9269863180471
 20
474.8476884974892
 30
0.0000000000000000
 41
4.000000000000000
 42
4.000000000000000
 43
4.000000000000000
 50
0.0000000000000000
  0
LINE
  5
F0
100
AcDbEntity
  8
MAIN0
  6
BYBLOCK
 62
0
100
AcDbLine
 10
730.9269863180471
 20
453.0897949569749
 30
0.0000000000000000
 11
730.9269863180471
 21
478.8476884974892
 31
0.0000000000000000
  0
MTEXT
  5
F1
100
AcDbEntity
  8
MAIN0
  6
BYBLOCK
 62
0
100
AcDbMText
 10
694.9269863180476
 20
478.4476884021218
 30
0.0000000000000000
 40
6.199999809265137
 41
0.0000000000000000
 71
     5
 72
     1
  1
\A1;72
 11
1.000000000000000
 21
0.0000000000000000
 31
0.0000000000000000
  7
STANDARD
  0
ENDBLK
  5
F2
100
AcDbEntity
  8
MAIN0
  6
CONTINUOUS
 62
3
100
AcDbBlockEnd
  0
BLOCK
  5
F4
100
AcDbEntity
  8
MAIN0
  6
CONTINUOUS
 62
3
100
AcDbBlockBegin
  2
*D8
 70
    65
 10
0.0
 20
0.0
 30
0.0
  0
LINE
  5
F5
100
AcDbEntity
  8
MAIN0
  6
BYBLOCK
 62
0
100
AcDbLine
 10
666.4088485192021
 20
250.6622225467388
 30
0.0000000000000000
 11
654.3802399286035
 21
250.6622225467388
 31
0.0000000000000000
  0
LINE
  5
F6
100
AcDbEntity
  8
MAIN0
  6
BYBLOCK
 62
0
100
AcDbLine
 10
658.3802399286035
 20
246.6622225467388
 30
0.0000000000000000
 11
658.3802399286035
 21
233.6622225467386
 31
0.0000000000000000
  0
INSERT
  5
F7
100
AcDbEntity
  8
MAIN0
  6
BYBLOCK
 62
0
100
AcDbBlockReference
  2
_OPEN
 10
658.3802399286035
 20
250.6622225467388
 30
0.0000000000000000
 41
4.000000000000000
 42
4.000000000000000
 43
4.000000000000000
 50
90.00000000000000
  0
INSERT
  5
F8
100
AcDbEntity
  8
MAIN0
  6
BYBLOCK
 62
0
100
AcDbBlockReference
  2
_OPEN
 10
658.3802399286035
 20
229.6622225467386
 30
0.0000000000000000
 41
4.000000000000000
 42
4.000000000000000
 43
4.000000000000000
 50
270.0000000000000
  0
LINE
  5
F9
100
AcDbEntity
  8
MAIN0
  6
BYBLOCK
 62
0
100
AcDbLine
 10
667.9088485191414
 20
229.6622225467386
 30
0.0000000000000000
 11
654.3802399286035
 21
229.6622225467386
 31
0.0000000000000000
  0
MTEXT
  5
FA
100
AcDbEntity
  8
MAIN0
  6
BYBLOCK
 62
0
100
AcDbMText
 10
654.7802400239709
 20
240.1622225467386
 30
0.0000000000000000
 40
6.199999809265137
 41
0.0000000000000000
 71
     5
 72
     1
  1
\A1;21
 11
6.123233995736766e-017
 21
1.000000000000000
 31
0.0000000000000000
  7
STANDARD
  0
ENDBLK
  5
FB
100
AcDbEntity
  8
MAIN0
  6
CONTINUOUS
 62
3
100
AcDbBlockEnd
  0
BLOCK
  5
125
100
AcDbEntity
  8
MAIN0
  6
CONTINUOUS
 62
3
100
AcDbBlockBegin
  2
*D9
 70
    65
 10
0.0
 20
0.0
 30
0.0
  0
LINE
  5
126
100
AcDbEntity
  8
MAIN0
  6
BYBLOCK
 62
0
100
AcDbLine
 10
678.3088485192008
 20
156.3414283393251
 30
0.0000000000000000
 11
663.2806826583671
 21
156.3414283393251
 31
0.0000000000000000
  0
LINE
  5
127
100
AcDbEntity
  8
MAIN0
  6
BYBLOCK
 62
0
100
AcDbLine
 10
667.2806826583671
 20
156.3414283393251
 30
0.0000000000000000
 11
667.2806826583671
 21
134.1414283393252
 31
0.0000000000000000
  0
INSERT
  5
128
100
AcDbEntity
  8
MAIN0
  6
BYBLOCK
 62
0
100
AcDbBlockReference
  2
_OPEN
 10
667.2806826583671
 20
156.3414283393251
 30
0.0000000000000000
 41
4.000000000000000
 42
4.000000000000000
 43
4.000000000000000
 50
270.0000000000000
  0
INSERT
  5
129
100
AcDbEntity
  8
MAIN0
  6
BYBLOCK
 62
0
100
AcDbBlockReference
  2
_OPEN
 10
667.2806826583671
 20
134.1414283393252
 30
0.0000000000000000
 41
4.000000000000000
 42
4.000000000000000
 43
4.000000000000000
 50
90.00000000000000
  0
LINE
  5
12A
100
AcDbEntity
  8
MAIN0
  6
BYBLOCK
 62
0
100
AcDbLine
 10
667.2806826583671
 20
160.3414283393251
 30
0.0000000000000000
 11
667.2806826583671
 21
162.3414283393251
 31
0.0000000000000000
  0
LINE
  5
12B
100
AcDbEntity
  8
MAIN0
  6
BYBLOCK
 62
0
100
AcDbLine
 10
667.2806826583671
 20
130.1414283393252
 30
0.0000000000000000
 11
667.2806826583671
 21
128.1414283393252
 31
0.0000000000000000
  0
LINE
  5
12C
100
AcDbEntity
  8
MAIN0
  6
BYBLOCK
 62
0
100
AcDbLine
 10
678.3088485192034
 20
134.1414283393251
 30
0.0000000000000000
 11
663.2806826583671
 21
134.1414283393253
 31
0.0000000000000000
  0
MTEXT
  5
12D
100
AcDbEntity
  8
MAIN0
  6
BYBLOCK
 62
0
100
AcDbMText
 10
663.6806827537346
 20
145.2414283393252
 30
0.0000000000000000
 40
6.199999809265137
 41
0.0000000000000000
 71
     5
 72
     1
  1
\A1;22.2
 11
6.123233995736766e-017
 21
1.000000000000000
 31
0.0000000000000000
  7
STANDARD
  0
ENDBLK
  5
12E
100
AcDbEntity
  8
MAIN0
  6
CONTINUOUS
 62
3
100
AcDbBlockEnd
  0
BLOCK
  5
130
100
AcDbEntity
  8
MAIN0
  6
CONTINUOUS
 62
3
100
AcDbBlockBegin
  2
*D10
 70
    65
 10
0.0
 20
0.0
 30
0.0
  0
LINE
  5
131
100
AcDbEntity
  8
MAIN0
  6
BYBLOCK
 62
0
100
AcDbLine
 10
679.9088485430452
 20
132.5414283154831
 30
0.0000000000000000
 11
679.9088485430452
 21
113.1410707494904
 31
0.0000000000000000
  0
LINE
  5
132
100
AcDbEntity
  8
MAIN0
  6
BYBLOCK
 62
0
100
AcDbLine
 10
679.9088485430452
 20
117.1410707494904
 30
0.0000000000000000
 11
702.1088485430425
 21
117.1410707494904
 31
0.0000000000000000
  0
INSERT
  5
133
100
AcDbEntity
  8
MAIN0
  6
BYBLOCK
 62
0
100
AcDbBlockReference
  2
_OPEN
 10
679.9088485430452
 20
117.1410707494904
 30
0.0000000000000000
 41
4.000000000000000
 42
4.000000000000000
 43
4.000000000000000
 50
0.0000000000000000
  0
INSERT
  5
134
100
AcDbEntity
  8
MAIN0
  6
BYBLOCK
 62
0
100
AcDbBlockReference
  2
_OPEN
 10
702.1088485430425
 20
117.1410707494904
 30
0.0000000000000000
 41
4.000000000000000
 42
4.000000000000000
 43
4.000000000000000
 50
180.0000000000000
  0
LINE
  5
135
100
AcDbEntity
  8
MAIN0
  6
BYBLOCK
 62
0
100
AcDbLine
 10
675.9088485430452
 20
117.1410707494904
 30
0.0000000000000000
 11
673.9088485430452
 21
117.1410707494904
 31
0.0000000000000000
  0
LINE
  5
136
100
AcDbEntity
  8
MAIN0
  6
BYBLOCK
 62
0
100
AcDbLine
 10
706.1088485430425
 20
117.1410707494904
 30
0.0000000000000000
 11
708.1088485430425
 21
117.1410707494904
 31
0.0000000000000000
  0
LINE
  5
137
100
AcDbEntity
  8
MAIN0
  6
BYBLOCK
 62
0
100
AcDbLine
 10
702.1088485430425
 20
132.5414283154833
 30
0.0000000000000000
 11
702.1088485430425
 21
113.1410707494904
 31
0.0000000000000000
  0
MTEXT
  5
138
100
AcDbEntity
  8
MAIN0
  6
BYBLOCK
 62
0
100
AcDbMText
 10
691.0088485430439
 20
120.7410706541230
 30
0.0000000000000000
 40
6.199999809265137
 41
0.0000000000000000
 71
     5
 72
     1
  1
\A1;22.2
 11
1.000000000000000
 21
0.0000000000000000
 31
0.0000000000000000
  7
STANDARD
  0
ENDBLK
  5
139
100
AcDbEntity
  8
MAIN0
  6
CONTINUOUS
 62
3
100
AcDbBlockEnd
  0
BLOCK
  5
13B
100
AcDbEntity
  8
MAIN0
  6
CONTINUOUS
 62
3
100
AcDbBlockBegin
  2
*D11
 70
    65
 10
0.0
 20
0.0
 30
0.0
  0
LINE
  5
13C
100
AcDbEntity
  8
MAIN0
  6
BYBLOCK
 62
0
100
AcDbLine
 10
703.7088485668858
 20
152.1414283393251
 30
0.0000000000000000
 11
725.4986699661030
 21
152.1414283393251
 31
0.0000000000000000
  0
LINE
  5
13D
100
AcDbEntity
  8
MAIN0
  6
BYBLOCK
 62
0
100
AcDbLine
 10
721.4986699661030
 20
152.1414283393251
 30
0.0000000000000000
 11
721.4986699661030
 21
138.3414283393251
 31
0.0000000000000000
  0
INSERT
  5
13E
100
AcDbEntity
  8
MAIN0
  6
BYBLOCK
 62
0
100
AcDbBlockReference
  2
_OPEN
 10
721.4986699661030
 20
152.1414283393251
 30
0.0000000000000000
 41
4.000000000000000
 42
4.000000000000000
 43
4.000000000000000
 50
270.0000000000000
  0
INSERT
  5
13F
100
AcDbEntity
  8
MAIN0
  6
BYBLOCK
 62
0
100
AcDbBlockReference
  2
_OPEN
 10
721.4986699661030
 20
138.3414283393251
 30
0.0000000000000000
 41
4.000000000000000
 42
4.000000000000000
 43
4.000000000000000
 50
90.00000000000000
  0
LINE
  5
140
100
AcDbEntity
  8
MAIN0
  6
BYBLOCK
 62
0
100
AcDbLine
 10
721.4986699661030
 20
156.1414283393251
 30
0.0000000000000000
 11
721.4986699661030
 21
158.1414283393251
 31
0.0000000000000000
  0
LINE
  5
141
100
AcDbEntity
  8
MAIN0
  6
BYBLOCK
 62
0
100
AcDbLine
 10
721.4986699661030
 20
134.3414283393251
 30
0.0000000000000000
 11
721.4986699661030
 21
119.7730073089055
 31
0.0000000000000000
  0
LINE
  5
142
100
AcDbEntity
  8
MAIN0
  6
BYBLOCK
 62
0
100
AcDbLine
 10
703.7088485668858
 20
138.3414283393251
 30
0.0000000000000000
 11
725.4986699661030
 21
138.3414283393251
 31
0.0000000000000000
  0
MTEXT
  5
143
100
AcDbEntity
  8
MAIN0
  6
BYBLOCK
 62
0
100
AcDbMText
 10
717.3986700614704
 20
127.0730074996404
 30
0.0000000000000000
 40
6.199999809265137
 41
0.0000000000000000
 71
     5
 72
     1
  1
\A1;13.8
 11
6.123233995736766e-017
 21
1.000000000000000
 31
0.0000000000000000
  7
STANDARD
  0
ENDBLK
  5
144
100
AcDbEntity
  8
MAIN0
  6
CONTINUOUS
 62
3
100
AcDbBlockEnd
  0
BLOCK
  5
146
100
AcDbEntity
  8
MAIN0
  6
CONTINUOUS
 62
3
100
AcDbBlockBegin
  2
*D12
 70
    65
 10
0.0
 20
0.0
 30
0.0
  0
LINE
  5
147
100
AcDbEntity
  8
MAIN0
  6
BYBLOCK
 62
0
100
AcDbLine
 10
610.5280527969896
 20
252.2622225705805
 30
0.0000000000000000
 11
610.5280527969896
 21
285.7417939542117
 31
0.0000000000000000
  0
LINE
  5
148
100
AcDbEntity
  8
MAIN0
  6
BYBLOCK
 62
0
100
AcDbLine
 10
614.5280527969896
 20
281.7417939542117
 30
0.0000000000000000
 11
641.5280527969896
 21
281.7417939542117
 31
0.0000000000000000
  0
INSERT
  5
149
100
AcDbEntity
  8
MAIN0
  6
BYBLOCK
 62
0
100
AcDbBlockReference
  2
_OPEN
 10
610.5280527969896
 20
281.7417939542117
 30
0.0000000000000000
 41
4.000000000000000
 42
4.000000000000000
 43
4.000000000000000
 50
180.0000000000000
  0
INSERT
  5
14A
100
AcDbEntity
  8
MAIN0
  6
BYBLOCK
 62
0
100
AcDbBlockReference
  2
_OPEN
 10
645.5280527969896
 20
281.7417939542117
 30
0.0000000000000000
 41
4.000000000000000
 42
4.000000000000000
 43
4.000000000000000
 50
0.0000000000000000
  0
LINE
  5
14B
100
AcDbEntity
  8
MAIN0
  6
BYBLOCK
 62
0
100
AcDbLine
 10
645.5280527969896
 20
252.2622225705805
 30
0.0000000000000000
 11
645.5280527969896
 21
285.7417939542117
 31
0.0000000000000000
  0
MTEXT
  5
14C
100
AcDbEntity
  8
MAIN0
  6
BYBLOCK
 62
0
100
AcDbMText
 10
628.0280527969896
 20
285.3417938588443
 30
0.0000000000000000
 40
6.199999809265137
 41
0.0000000000000000
 71
     5
 72
     1
  1
\A1;35
 11
1.000000000000000
 21
0.0000000000000000
 31
0.0000000000000000
  7
STANDARD
  0
ENDBLK
  5
14D
100
AcDbEntity
  8
MAIN0
  6
CONTINUOUS
 62
3
100
AcDbBlockEnd
  0
BLOCK
  5
14F
100
AcDbEntity
  8
MAIN0
  6
CONTINUOUS
 62
3
100
AcDbBlockBegin
  2
*D13
 70
    65
 10
0.0
 20
0.0
 30
0.0
  0
LINE
  5
150
100
AcDbEntity
  8
MAIN0
  6
BYBLOCK
 62
0
100
AcDbLine
 10
668.0088485430440
 20
249.0622225228969
 30
0.0000000000000000
 11
668.0088485430440
 21
180.2512239018445
 31
0.0000000000000000
  0
LINE
  5
151
100
AcDbEntity
  8
MAIN0
  6
BYBLOCK
 62
0
100
AcDbLine
 10
672.0088485430440
 20
184.2512239018445
 30
0.0000000000000000
 11
704.0088485430438
 21
184.2512239018445
 31
0.0000000000000000
  0
INSERT
  5
152
100
AcDbEntity
  8
MAIN0
  6
BYBLOCK
 62
0
100
AcDbBlockReference
  2
_OPEN
 10
668.0088485430440
 20
184.2512239018445
 30
0.0000000000000000
 41
4.000000000000000
 42
4.000000000000000
 43
4.000000000000000
 50
180.0000000000000
  0
INSERT
  5
153
100
AcDbEntity
  8
MAIN0
  6
BYBLOCK
 62
0
100
AcDbBlockReference
  2
_OPEN
 10
708.0088485430438
 20
184.2512239018445
 30
0.0000000000000000
 41
4.000000000000000
 42
4.000000000000000
 43
4.000000000000000
 50
0.0000000000000000
  0
LINE
  5
154
100
AcDbEntity
  8
MAIN0
  6
BYBLOCK
 62
0
100
AcDbLine
 10
708.0088485430438
 20
228.0622225228968
 30
0.0000000000000000
 11
708.0088485430438
 21
180.2512239018445
 31
0.0000000000000000
  0
MTEXT
  5
155
100
AcDbEntity
  8
MAIN0
  6
BYBLOCK
 62
0
100
AcDbMText
 10
685.2222683780407
 20
188.3512238064770
 30
0.0000000000000000
 40
6.199999809265137
 41
0.0000000000000000
 71
     5
 72
     1
  1
\A1;40
 11
1.000000000000000
 21
0.0000000000000000
 31
0.0000000000000000
  7
STANDARD
  0
ENDBLK
  5
156
100
AcDbEntity
  8
MAIN0
  6
CONTINUOUS
 62
3
100
AcDbBlockEnd
  0
BLOCK
  5
158
100
AcDbEntity
  8
MAIN0
  6
CONTINUOUS
 62
3
100
AcDbBlockBegin
  2
*D14
 70
    65
 10
0.0
 20
0.0
 30
0.0
  0
LINE
  5
159
100
AcDbEntity
  8
MAIN0
  6
BYBLOCK
 62
0
100
AcDbLine
 10
708.0088485430438
 20
228.0622225228968
 30
0.0000000000000000
 11
708.0088485430438
 21
180.2512239018445
 31
0.0000000000000000
  0
LINE
  5
15A
100
AcDbEntity
  8
MAIN0
  6
BYBLOCK
 62
0
100
AcDbLine
 10
712.0088485430438
 20
184.2512239018445
 30
0.0000000000000000
 11
807.0088485430435
 21
184.2512239018445
 31
0.0000000000000000
  0
INSERT
  5
15B
100
AcDbEntity
  8
MAIN0
  6
BYBLOCK
 62
0
100
AcDbBlockReference
  2
_OPEN
 10
708.0088485430438
 20
184.2512239018445
 30
0.0000000000000000
 41
4.000000000000000
 42
4.000000000000000
 43
4.000000000000000
 50
180.0000000000000
  0
INSERT
  5
15C
100
AcDbEntity
  8
MAIN0
  6
BYBLOCK
 62
0
100
AcDbBlockReference
  2
_OPEN
 10
811.0088485430435
 20
184.2512239018445
 30
0.0000000000000000
 41
4.000000000000000
 42
4.000000000000000
 43
4.000000000000000
 50
0.0000000000000000
  0
LINE
  5
15D
100
AcDbEntity
  8
MAIN0
  6
BYBLOCK
 62
0
100
AcDbLine
 10
811.0088485430435
 20
228.0622225228968
 30
0.0000000000000000
 11
811.0088485430435
 21
180.2512239018445
 31
0.0000000000000000
  0
MTEXT
  5
15E
100
AcDbEntity
  8
MAIN0
  6
BYBLOCK
 62
0
100
AcDbMText
 10
759.5088485430437
 20
187.8512238064770
 30
0.0000000000000000
 40
6.199999809265137
 41
0.0000000000000000
 71
     5
 72
     1
  1
\A1;103
 11
1.000000000000000
 21
0.0000000000000000
 31
0.0000000000000000
  7
STANDARD
  0
ENDBLK
  5
15F
100
AcDbEntity
  8
MAIN0
  6
CONTINUOUS
 62
3
100
AcDbBlockEnd
  0
BLOCK
  5
161
100
AcDbEntity
  8
MAIN0
  6
CONTINUOUS
 62
3
100
AcDbBlockBegin
  2
*D15
 70
    65
 10
0.0
 20
0.0
 30
0.0
  0
LINE
  5
162
100
AcDbEntity
  8
MAIN0
  6
BYBLOCK
 62
0
100
AcDbLine
 10
304.1364379884320
 20
435.8847318504684
 30
0.0000000000000000
 11
304.1364379884320
 21
410.5259306213475
 31
0.0000000000000000
  0
LINE
  5
163
100
AcDbEntity
  8
MAIN0
  6
BYBLOCK
 62
0
100
AcDbLine
 10
304.1364379884320
 20
414.5259306213475
 30
0.0000000000000000
 11
289.6364379884220
 21
414.5259306213475
 31
0.0000000000000000
  0
INSERT
  5
164
100
AcDbEntity
  8
MAIN0
  6
BYBLOCK
 62
0
100
AcDbBlockReference
  2
_OPEN
 10
304.1364379884320
 20
414.5259306213475
 30
0.0000000000000000
 41
4.000000000000000
 42
4.000000000000000
 43
4.000000000000000
 50
180.0000000000000
  0
INSERT
  5
165
100
AcDbEntity
  8
MAIN0
  6
BYBLOCK
 62
0
100
AcDbBlockReference
  2
_OPEN
 10
289.6364379884220
 20
414.5259306213475
 30
0.0000000000000000
 41
4.000000000000000
 42
4.000000000000000
 43
4.000000000000000
 50
360.0000000000000
  0
LINE
  5
166
100
AcDbEntity
  8
MAIN0
  6
BYBLOCK
 62
0
100
AcDbLine
 10
308.1364379884320
 20
414.5259306213475
 30
0.0000000000000000
 11
322.5652972398005
 21
414.5259306213475
 31
0.0000000000000000
  0
LINE
  5
167
100
AcDbEntity
  8
MAIN0
  6
BYBLOCK
 62
0
100
AcDbLine
 10
285.6364379884220
 20
414.5259306213475
 30
0.0000000000000000
 11
283.6364379884220
 21
414.5259306213475
 31
0.0000000000000000
  0
LINE
  5
168
100
AcDbEntity
  8
MAIN0
  6
BYBLOCK
 62
0
100
AcDbLine
 10
289.6364379884220
 20
436.8847318507922
 30
0.0000000000000000
 11
289.6364379884220
 21
410.5259306213475
 31
0.0000000000000000
  0
MTEXT
  5
169
100
AcDbEntity
  8
MAIN0
  6
BYBLOCK
 62
0
100
AcDbMText
 10
315.2652970490657
 20
418.6259305259800
 30
0.0000000000000000
 40
6.199999809265137
 41
0.0000000000000000
 71
     5
 72
     1
  1
\A1;14.5
 11
1.000000000000000
 21
0.0000000000000000
 31
0.0000000000000000
  7
STANDARD
  0
ENDBLK
  5
16A
100
AcDbEntity
  8
MAIN0
  6
CONTINUOUS
 62
3
100
AcDbBlockEnd
  0
BLOCK
  5
16C
100
AcDbEntity
  8
MAIN0
  6
CONTINUOUS
 62
3
100
AcDbBlockBegin
  2
*D16
 70
    65
 10
0.0
 20
0.0
 30
0.0
  0
LINE
  5
16D
100
AcDbEntity
  8
MAIN0
  6
BYBLOCK
 62
0
100
AcDbLine
 10
304.1364379884263
 20
336.0622225707638
 30
0.0000000000000000
 11
304.1364379884263
 21
356.1343773729237
 31
0.0000000000000000
  0
LINE
  5
16E
100
AcDbEntity
  8
MAIN0
  6
BYBLOCK
 62
0
100
AcDbLine
 10
300.1364379884263
 20
352.1343773729237
 30
0.0000000000000000
 11
278.1364379884263
 21
352.1343773729237
 31
0.0000000000000000
  0
INSERT
  5
16F
100
AcDbEntity
  8
MAIN0
  6
BYBLOCK
 62
0
100
AcDbBlockReference
  2
_OPEN
 10
304.1364379884263
 20
352.1343773729237
 30
0.0000000000000000
 41
4.000000000000000
 42
4.000000000000000
 43
4.000000000000000
 50
360.0000000000000
  0
INSERT
  5
170
100
AcDbEntity
  8
MAIN0
  6
BYBLOCK
 62
0
100
AcDbBlockReference
  2
_OPEN
 10
274.1364379884263
 20
352.1343773729237
 30
0.0000000000000000
 41
4.000000000000000
 42
4.000000000000000
 43
4.000000000000000
 50
180.0000000000000
  0
LINE
  5
171
100
AcDbEntity
  8
MAIN0
  6
BYBLOCK
 62
0
100
AcDbLine
 10
274.1364379884263
 20
346.7466579409058
 30
0.0000000000000000
 11
274.1364379884263
 21
356.1343773729237
 31
0.0000000000000000
  0
MTEXT
  5
172
100
AcDbEntity
  8
MAIN0
  6
BYBLOCK
 62
0
100
AcDbMText
 10
289.1364379884263
 20
355.7343772775562
 30
0.0000000000000000
 40
6.199999809265137
 41
0.0000000000000000
 71
     5
 72
     1
  1
\A1;30
 11
1.000000000000000
 21
0.0000000000000000
 31
0.0000000000000000
  7
STANDARD
  0
ENDBLK
  5
173
100
AcDbEntity
  8
MAIN0
  6
CONTINUOUS
 62
3
100
AcDbBlockEnd
  0
BLOCK
  5
175
100
AcDbEntity
  8
MAIN0
  6
CONTINUOUS
 62
3
100
AcDbBlockBegin
  2
*D17
 70
    65
 10
0.0
 20
0.0
 30
0.0
  0
LINE
  5
176
100
AcDbEntity
  8
MAIN0
  6
BYBLOCK
 62
0
100
AcDbLine
 10
228.9364379645963
 20
229.6622225470591
 30
0.0000000000000000
 11
200.1364379884266
 21
229.6622225470591
 31
0.0000000000000000
  0
LINE
  5
177
100
AcDbEntity
  8
MAIN0
  6
BYBLOCK
 62
0
100
AcDbLine
 10
204.1364379884266
 20
233.6622225470591
 30
0.0000000000000000
 11
204.1364379884266
 21
290.6622225469220
 31
0.0000000000000000
  0
INSERT
  5
178
100
AcDbEntity
  8
MAIN0
  6
BYBLOCK
 62
0
100
AcDbBlockReference
  2
_OPEN
 10
204.1364379884266
 20
229.6622225470591
 30
0.0000000000000000
 41
4.000000000000000
 42
4.000000000000000
 43
4.000000000000000
 50
270.0000000000000
  0
INSERT
  5
179
100
AcDbEntity
  8
MAIN0
  6
BYBLOCK
 62
0
100
AcDbBlockReference
  2
_OPEN
 10
204.1364379884266
 20
294.6622225469220
 30
0.0000000000000000
 41
4.000000000000000
 42
4.000000000000000
 43
4.000000000000000
 50
90.00000000000000
  0
LINE
  5
17A
100
AcDbEntity
  8
MAIN0
  6
BYBLOCK
 62
0
100
AcDbLine
 10
229.1364379645845
 20
294.6622225469220
 30
0.0000000000000000
 11
200.1364379884266
 21
294.6622225469220
 31
0.0000000000000000
  0
MTEXT
  5
17B
100
AcDbEntity
  8
MAIN0
  6
BYBLOCK
 62
0
100
AcDbMText
 10
200.5364380837940
 20
262.1622225469906
 30
0.0000000000000000
 40
6.199999809265137
 41
0.0000000000000000
 71
     5
 72
     1
  1
\A1;65
 11
6.123233995736766e-017
 21
1.000000000000000
 31
0.0000000000000000
  7
STANDARD
  0
ENDBLK
  5
17C
100
AcDbEntity
  8
MAIN0
  6
CONTINUOUS
 62
3
100
AcDbBlockEnd
  0
BLOCK
  5
17E
100
AcDbEntity
  8
MAIN0
  6
CONTINUOUS
 62
3
100
AcDbBlockBegin
  2
*D18
 70
    65
 10
0.0
 20
0.0
 30
0.0
  0
LINE
  5
17F
100
AcDbEntity
  8
MAIN0
  6
BYBLOCK
 62
0
100
AcDbLine
 10
229.1364379645845
 20
294.6622225469220
 30
0.0000000000000000
 11
200.1364379884266
 21
294.6622225469220
 31
0.0000000000000000
  0
LINE
  5
180
100
AcDbEntity
  8
MAIN0
  6
BYBLOCK
 62
0
100
AcDbLine
 10
204.1364379884266
 20
298.6622225469220
 30
0.0000000000000000
 11
204.1364379884266
 21
330.6622225469220
 31
0.0000000000000000
  0
INSERT
  5
181
100
AcDbEntity
  8
MAIN0
  6
BYBLOCK
 62
0
100
AcDbBlockReference
  2
_OPEN
 10
204.1364379884266
 20
294.6622225469220
 30
0.0000000000000000
 41
4.000000000000000
 42
4.000000000000000
 43
4.000000000000000
 50
270.0000000000000
  0
INSERT
  5
182
100
AcDbEntity
  8
MAIN0
  6
BYBLOCK
 62
0
100
AcDbBlockReference
  2
_OPEN
 10
204.1364379884266
 20
334.6622225469220
 30
0.0000000000000000
 41
4.000000000000000
 42
4.000000000000000
 43
4.000000000000000
 50
90.00000000000000
  0
LINE
  5
183
100
AcDbEntity
  8
MAIN0
  6
BYBLOCK
 62
0
100
AcDbLine
 10
229.7364379645846
 20
334.6622225469220
 30
0.0000000000000000
 11
200.1364379884266
 21
334.6622225469220
 31
0.0000000000000000
  0
MTEXT
  5
184
100
AcDbEntity
  8
MAIN0
  6
BYBLOCK
 62
0
100
AcDbMText
 10
200.5364380837940
 20
314.6622225469220
 30
0.0000000000000000
 40
6.199999809265137
 41
0.0000000000000000
 71
     5
 72
     1
  1
\A1;40
 11
6.123233995736766e-017
 21
1.000000000000000
 31
0.0000000000000000
  7
STANDARD
  0
ENDBLK
  5
185
100
AcDbEntity
  8
MAIN0
  6
CONTINUOUS
 62
3
100
AcDbBlockEnd
  0
BLOCK
  5
187
100
AcDbEntity
  8
MAIN0
  6
CONTINUOUS
 62
3
100
AcDbBlockBegin
  2
*D19
 70
    65
 10
0.0
 20
0.0
 30
0.0
  0
LINE
  5
188
100
AcDbEntity
  8
MAIN0
  6
BYBLOCK
 62
0
100
AcDbLine
 10
228.9364379645963
 20
229.6622225470591
 30
0.0000000000000000
 11
187.1364379884266
 21
229.6622225470591
 31
0.0000000000000000
  0
LINE
  5
189
100
AcDbEntity
  8
MAIN0
  6
BYBLOCK
 62
0
100
AcDbLine
 10
191.1364379884266
 20
233.6622225470591
 30
0.0000000000000000
 11
191.1364379884266
 21
330.6622225469220
 31
0.0000000000000000
  0
INSERT
  5
18A
100
AcDbEntity
  8
MAIN0
  6
BYBLOCK
 62
0
100
AcDbBlockReference
  2
_OPEN
 10
191.1364379884266
 20
229.6622225470591
 30
0.0000000000000000
 41
4.000000000000000
 42
4.000000000000000
 43
4.000000000000000
 50
270.0000000000000
  0
INSERT
  5
18B
100
AcDbEntity
  8
MAIN0
  6
BYBLOCK
 62
0
100
AcDbBlockReference
  2
_OPEN
 10
191.1364379884266
 20
334.6622225469220
 30
0.0000000000000000
 41
4.000000000000000
 42
4.000000000000000
 43
4.000000000000000
 50
90.00000000000000
  0
LINE
  5
18C
100
AcDbEntity
  8
MAIN0
  6
BYBLOCK
 62
0
100
AcDbLine
 10
229.7364379645846
 20
334.6622225469220
 30
0.0000000000000000
 11
187.1364379884266
 21
334.6622225469220
 31
0.0000000000000000
  0
MTEXT
  5
18D
100
AcDbEntity
  8
MAIN0
  6
BYBLOCK
 62
0
100
AcDbMText
 10
187.5364380837940
 20
282.1622225469906
 30
0.0000000000000000
 40
6.199999809265137
 41
0.0000000000000000
 71
     5
 72
     1
  1
\A1;105
 11
6.123233995736766e-017
 21
1.000000000000000
 31
0.0000000000000000
  7
STANDARD
  0
ENDBLK
  5
18E
100
AcDbEntity
  8
MAIN0
  6
CONTINUOUS
 62
3
100
AcDbBlockEnd
  0
BLOCK
  5
190
100
AcDbEntity
  8
MAIN0
  6
CONTINUOUS
 62
3
100
AcDbBlockBegin
  2
*D20
 70
    65
 10
0.0
 20
0.0
 30
0.0
  0
LINE
  5
191
100
AcDbEntity
  8
MAIN0
  6
BYBLOCK
 62
0
100
AcDbLine
 10
151.8841844729745
 20
229.6622225469941
 30
0.0000000000000000
 11
177.6930323225729
 21
229.6622225467903
 31
0.0000000000000000
  0
LINE
  5
192
100
AcDbEntity
  8
MAIN0
  6
BYBLOCK
 62
0
100
AcDbLine
 10
173.6930323225729
 20
229.6622225468219
 30
0.0000000000000000
 11
173.6930323225729
 21
244.6622225470066
 31
0.0000000000000000
  0
INSERT
  5
193
100
AcDbEntity
  8
MAIN0
  6
BYBLOCK
 62
0
100
AcDbBlockReference
  2
_OPEN
 10
173.6930323225729
 20
229.6622225468219
 30
0.0000000000000000
 41
4.000000000000000
 42
4.000000000000000
 43
4.000000000000000
 50
90.00000000000000
  0
INSERT
  5
194
100
AcDbEntity
  8
MAIN0
  6
BYBLOCK
 62
0
100
AcDbBlockReference
  2
_OPEN
 10
173.6930323225729
 20
244.6622225470066
 30
0.0000000000000000
 41
4.000000000000000
 42
4.000000000000000
 43
4.000000000000000
 50
270.0000000000000
  0
LINE
  5
195
100
AcDbEntity
  8
MAIN0
  6
BYBLOCK
 62
0
100
AcDbLine
 10
173.6930323225729
 20
225.6622225468219
 30
0.0000000000000000
 11
173.6930323225729
 21
223.6622225468219
 31
0.0000000000000000
  0
LINE
  5
196
100
AcDbEntity
  8
MAIN0
  6
BYBLOCK
 62
0
100
AcDbLine
 10
173.6930323225729
 20
248.6622225470066
 30
0.0000000000000000
 11
173.6930323225729
 21
250.6622225470066
 31
0.0000000000000000
  0
LINE
  5
197
100
AcDbEntity
  8
MAIN0
  6
BYBLOCK
 62
0
100
AcDbLine
 10
151.8841844729473
 20
244.6622225470066
 30
0.0000000000000000
 11
177.6930323225729
 21
244.6622225470066
 31
0.0000000000000000
  0
MTEXT
  5
198
100
AcDbEntity
  8
MAIN0
  6
BYBLOCK
 62
0
100
AcDbMText
 10
170.0930324179403
 20
237.1622225469142
 30
0.0000000000000000
 40
6.199999809265137
 41
0.0000000000000000
 71
     5
 72
     1
  1
\A1;15
 11
6.123233995736766e-017
 21
1.000000000000000
 31
0.0000000000000000
  7
STANDARD
  0
ENDBLK
  5
199
100
AcDbEntity
  8
MAIN0
  6
CONTINUOUS
 62
3
100
AcDbBlockEnd
  0
BLOCK
  5
19B
100
AcDbEntity
  8
MAIN0
  6
CONTINUOUS
 62
3
100
AcDbBlockBegin
  2
*D21
 70
    65
 10
0.0
 20
0.0
 30
0.0
  0
LINE
  5
19C
100
AcDbEntity
  8
MAIN0
  6
BYBLOCK
 62
0
100
AcDbLine
 10
151.8841844729473
 20
244.6622225470066
 30
0.0000000000000000
 11
177.6930323225729
 21
244.6622225470066
 31
0.0000000000000000
  0
LINE
  5
19D
100
AcDbEntity
  8
MAIN0
  6
BYBLOCK
 62
0
100
AcDbLine
 10
173.6930323225729
 20
248.6622225470066
 30
0.0000000000000000
 11
173.6930323225729
 21
265.6622225470043
 31
0.0000000000000000
  0
INSERT
  5
19E
100
AcDbEntity
  8
MAIN0
  6
BYBLOCK
 62
0
100
AcDbBlockReference
  2
_OPEN
 10
173.6930323225729
 20
244.6622225470066
 30
0.0000000000000000
 41
4.000000000000000
 42
4.000000000000000
 43
4.000000000000000
 50
270.0000000000000
  0
INSERT
  5
19F
100
AcDbEntity
  8
MAIN0
  6
BYBLOCK
 62
0
100
AcDbBlockReference
  2
_OPEN
 10
173.6930323225729
 20
269.6622225470043
 30
0.0000000000000000
 41
4.000000000000000
 42
4.000000000000000
 43
4.000000000000000
 50
90.00000000000000
  0
LINE
  5
1A0
100
AcDbEntity
  8
MAIN0
  6
BYBLOCK
 62
0
100
AcDbLine
 10
151.2841844728766
 20
269.6622225470043
 30
0.0000000000000000
 11
177.6930323225729
 21
269.6622225470043
 31
0.0000000000000000
  0
MTEXT
  5
1A1
100
AcDbEntity
  8
MAIN0
  6
BYBLOCK
 62
0
100
AcDbMText
 10
170.0930324179403
 20
257.1622225470054
 30
0.0000000000000000
 40
6.199999809265137
 41
0.0000000000000000
 71
     5
 72
     1
  1
\A1;25
 11
6.123233995736766e-017
 21
1.000000000000000
 31
0.0000000000000000
  7
STANDARD
  0
ENDBLK
  5
1A2
100
AcDbEntity
  8
MAIN0
  6
CONTINUOUS
 62
3
100
AcDbBlockEnd
  0
BLOCK
  5
1A4
100
AcDbEntity
  8
MAIN0
  6
CONTINUOUS
 62
3
100
AcDbBlockBegin
  2
*D22
 70
    65
 10
0.0
 20
0.0
 30
0.0
  0
LINE
  5
1A5
100
AcDbEntity
  8
MAIN0
  6
BYBLOCK
 62
0
100
AcDbLine
 10
151.2841844728766
 20
269.6622225470043
 30
0.0000000000000000
 11
177.6930323225729
 21
269.6622225470043
 31
0.0000000000000000
  0
LINE
  5
1A6
100
AcDbEntity
  8
MAIN0
  6
BYBLOCK
 62
0
100
AcDbLine
 10
173.6930323225729
 20
273.6622225470043
 30
0.0000000000000000
 11
173.6930323225729
 21
290.6622225470301
 31
0.0000000000000000
  0
INSERT
  5
1A7
100
AcDbEntity
  8
MAIN0
  6
BYBLOCK
 62
0
100
AcDbBlockReference
  2
_OPEN
 10
173.6930323225729
 20
269.6622225470043
 30
0.0000000000000000
 41
4.000000000000000
 42
4.000000000000000
 43
4.000000000000000
 50
270.0000000000000
  0
INSERT
  5
1A8
100
AcDbEntity
  8
MAIN0
  6
BYBLOCK
 62
0
100
AcDbBlockReference
  2
_OPEN
 10
173.6930323225729
 20
294.6622225470301
 30
0.0000000000000000
 41
4.000000000000000
 42
4.000000000000000
 43
4.000000000000000
 50
90.00000000000000
  0
LINE
  5
1A9
100
AcDbEntity
  8
MAIN0
  6
BYBLOCK
 62
0
100
AcDbLine
 10
150.7841844728369
 20
294.6622225470301
 30
0.0000000000000000
 11
177.6930323225729
 21
294.6622225470301
 31
0.0000000000000000
  0
MTEXT
  5
1AA
100
AcDbEntity
  8
MAIN0
  6
BYBLOCK
 62
0
100
AcDbMText
 10
170.0930324179403
 20
282.1622225470172
 30
0.0000000000000000
 40
6.199999809265137
 41
0.0000000000000000
 71
     5
 72
     1
  1
\A1;25
 11
6.123233995736766e-017
 21
1.000000000000000
 31
0.0000000000000000
  7
STANDARD
  0
ENDBLK
  5
1AB
100
AcDbEntity
  8
MAIN0
  6
CONTINUOUS
 62
3
100
AcDbBlockEnd
  0
BLOCK
  5
1AD
100
AcDbEntity
  8
MAIN0
  6
CONTINUOUS
 62
3
100
AcDbBlockBegin
  2
*D23
 70
    65
 10
0.0
 20
0.0
 30
0.0
  0
LINE
  5
1AE
100
AcDbEntity
  8
MAIN0
  6
BYBLOCK
 62
0
100
AcDbLine
 10
504.3364380122796
 20
229.6622225469143
 30
0.0000000000000000
 11
602.8790571044223
 21
229.6622225469142
 31
0.0000000000000000
  0
LINE
  5
1AF
100
AcDbEntity
  8
MAIN0
  6
BYBLOCK
 62
0
100
AcDbLine
 10
598.8790571044223
 20
233.6622225469142
 30
0.0000000000000000
 11
598.8790571044223
 21
259.6622225465754
 31
0.0000000000000000
  0
INSERT
  5
1B0
100
AcDbEntity
  8
MAIN0
  6
BYBLOCK
 62
0
100
AcDbBlockReference
  2
_OPEN
 10
598.8790571044223
 20
229.6622225469142
 30
0.0000000000000000
 41
4.000000000000000
 42
4.000000000000000
 43
4.000000000000000
 50
270.0000000000000
  0
INSERT
  5
1B1
100
AcDbEntity
  8
MAIN0
  6
BYBLOCK
 62
0
100
AcDbBlockReference
  2
_OPEN
 10
598.8790571044223
 20
263.6622225465754
 30
0.0000000000000000
 41
4.000000000000000
 42
4.000000000000000
 43
4.000000000000000
 50
90.00000000000000
  0
LINE
  5
1B2
100
AcDbEntity
  8
MAIN0
  6
BYBLOCK
 62
0
100
AcDbLine
 10
594.7364380122735
 20
263.6622225467037
 30
0.0000000000000000
 11
602.8790571044223
 21
263.6622225464515
 31
0.0000000000000000
  0
MTEXT
  5
1B3
100
AcDbEntity
  8
MAIN0
  6
BYBLOCK
 62
0
100
AcDbMText
 10
595.2790571997897
 20
246.6622225467448
 30
0.0000000000000000
 40
6.199999809265137
 41
0.0000000000000000
 71
     5
 72
     1
  1
\A1;34
 11
6.123233995736766e-017
 21
1.000000000000000
 31
0.0000000000000000
  7
STANDARD
  0
ENDBLK
  5
1B4
100
AcDbEntity
  8
MAIN0
  6
CONTINUOUS
 62
3
100
AcDbBlockEnd
  0
BLOCK
  5
1DF
100
AcDbEntity
  8
MAIN0
  6
CONTINUOUS
 62
3
100
AcDbBlockBegin
  2
*D24
 70
    65
 10
0.0
 20
0.0
 30
0.0
  0
LINE
  5
1E0
100
AcDbEntity
  8
MAIN0
  6
BYBLOCK
 62
0
100
AcDbLine
 10
752.5088485430438
 20
269.3036744549073
 30
0.0000000000000000
 11
752.5088485430438
 21
348.3095218396290
 31
0.0000000000000000
  0
LINE
  5
1E1
100
AcDbEntity
  8
MAIN0
  6
BYBLOCK
 62
0
100
AcDbLine
 10
752.5088485430438
 20
344.3095218396290
 30
0.0000000000000000
 11
766.5088485430438
 21
344.3095218396290
 31
0.0000000000000000
  0
INSERT
  5
1E2
100
AcDbEntity
  8
MAIN0
  6
BYBLOCK
 62
0
100
AcDbBlockReference
  2
_OPEN
 10
752.5088485430438
 20
344.3095218396290
 30
0.0000000000000000
 41
4.000000000000000
 42
4.000000000000000
 43
4.000000000000000
 50
0.0000000000000000
  0
INSERT
  5
1E3
100
AcDbEntity
  8
MAIN0
  6
BYBLOCK
 62
0
100
AcDbBlockReference
  2
_OPEN
 10
766.5088485430438
 20
344.3095218396290
 30
0.0000000000000000
 41
4.000000000000000
 42
4.000000000000000
 43
4.000000000000000
 50
180.0000000000000
  0
LINE
  5
1E4
100
AcDbEntity
  8
MAIN0
  6
BYBLOCK
 62
0
100
AcDbLine
 10
748.5088485430438
 20
344.3095218396290
 30
0.0000000000000000
 11
746.5088485430438
 21
344.3095218396290
 31
0.0000000000000000
  0
LINE
  5
1E5
100
AcDbEntity
  8
MAIN0
  6
BYBLOCK
 62
0
100
AcDbLine
 10
770.5088485430438
 20
344.3095218396290
 30
0.0000000000000000
 11
772.5088485430438
 21
344.3095218396290
 31
0.0000000000000000
  0
LINE
  5
1E6
100
AcDbEntity
  8
MAIN0
  6
BYBLOCK
 62
0
100
AcDbLine
 10
766.5088485430438
 20
269.3036744549086
 30
0.0000000000000000
 11
766.5088485430438
 21
348.3095218396290
 31
0.0000000000000000
  0
MTEXT
  5
1E7
100
AcDbEntity
  8
MAIN0
  6
BYBLOCK
 62
0
100
AcDbMText
 10
759.5088485430438
 20
347.9095217442616
 30
0.0000000000000000
 40
6.199999809265137
 41
0.0000000000000000
 71
     5
 72
     1
  1
\A1;14
 11
1.000000000000000
 21
0.0000000000000000
 31
0.0000000000000000
  7
STANDARD
  0
ENDBLK
  5
1E8
100
AcDbEntity
  8
MAIN0
  6
CONTINUOUS
 62
3
100
AcDbBlockEnd
  0
BLOCK
  5
1EA
100
AcDbEntity
  8
MAIN0
  6
CONTINUOUS
 62
3
100
AcDbBlockBegin
  2
*D25
 70
    65
 10
0.0
 20
0.0
 30
0.0
  0
LINE
  5
1EB
100
AcDbEntity
  8
MAIN0
  6
BYBLOCK
 62
0
100
AcDbLine
 10
145.6841844490862
 20
252.4267790091912
 30
0.0000000000000000
 11
150.6841844491060
 21
252.4267790091912
 31
0.0000000000000000
  0
INSERT
  5
1EC
100
AcDbEntity
  8
MAIN0
  6
BYBLOCK
 62
0
100
AcDbBlockReference
  2
_OPEN
 10
145.6841844490862
 20
252.4267790091912
 30
0.0000000000000000
 41
4.000000000000000
 42
4.000000000000000
 43
4.000000000000000
 50
0.0000000000000000
  0
INSERT
  5
1ED
100
AcDbEntity
  8
MAIN0
  6
BYBLOCK
 62
0
100
AcDbBlockReference
  2
_OPEN
 10
150.6841844491060
 20
252.4267790091912
 30
0.0000000000000000
 41
4.000000000000000
 42
4.000000000000000
 43
4.000000000000000
 50
180.0000000000000
  0
LINE
  5
1EE
100
AcDbEntity
  8
MAIN0
  6
BYBLOCK
 62
0
100
AcDbLine
 10
141.6841844490862
 20
252.4267790091912
 30
0.0000000000000000
 11
139.6841844490862
 21
252.4267790091912
 31
0.0000000000000000
  0
LINE
  5
1EF
100
AcDbEntity
  8
MAIN0
  6
BYBLOCK
 62
0
100
AcDbLine
 10
154.6841844491060
 20
252.4267790091912
 30
0.0000000000000000
 11
161.3605035041175
 21
252.4267790091912
 31
0.0000000000000000
  0
LINE
  5
1F0
100
AcDbEntity
  8
MAIN0
  6
BYBLOCK
 62
0
100
AcDbLine
 10
150.6841844491061
 20
245.8622225708499
 30
0.0000000000000000
 11
150.6841844491060
 21
256.4267790091912
 31
0.0000000000000000
  0
MTEXT
  5
1F1
100
AcDbEntity
  8
MAIN0
  6
BYBLOCK
 62
0
100
AcDbMText
 10
159.3605035041175
 20
256.5267789138238
 30
0.0000000000000000
 40
6.199999809265137
 41
0.0000000000000000
 71
     5
 72
     1
  1
\A1;5
 11
1.000000000000000
 21
0.0000000000000000
 31
0.0000000000000000
  7
STANDARD
  0
ENDBLK
  5
1F2
100
AcDbEntity
  8
MAIN0
  6
CONTINUOUS
 62
3
100
AcDbBlockEnd
  0
BLOCK
  5
1F4
100
AcDbEntity
  8
MAIN0
  6
CONTINUOUS
 62
3
100
AcDbBlockBegin
  2
*D26
 70
    65
 10
0.0
 20
0.0
 30
0.0
  0
LINE
  5
1F5
100
AcDbEntity
  8
MAIN0
  6
BYBLOCK
 62
0
100
AcDbLine
 10
49.18418444899453
 20
336.2622225707839
 30
0.0000000000000000
 11
49.18418444899453
 21
368.2493771974118
 31
0.0000000000000000
  0
LINE
  5
1F6
100
AcDbEntity
  8
MAIN0
  6
BYBLOCK
 62
0
100
AcDbLine
 10
53.18418444899453
 20
364.2493771974118
 30
0.0000000000000000
 11
145.1841844489947
 21
364.2493771974118
 31
0.0000000000000000
  0
INSERT
  5
1F7
100
AcDbEntity
  8
MAIN0
  6
BYBLOCK
 62
0
100
AcDbBlockReference
  2
_OPEN
 10
49.18418444899453
 20
364.2493771974118
 30
0.0000000000000000
 41
4.000000000000000
 42
4.000000000000000
 43
4.000000000000000
 50
180.0000000000000
  0
INSERT
  5
1F8
100
AcDbEntity
  8
MAIN0
  6
BYBLOCK
 62
0
100
AcDbBlockReference
  2
_OPEN
 10
149.1841844489947
 20
364.2493771974118
 30
0.0000000000000000
 41
4.000000000000000
 42
4.000000000000000
 43
4.000000000000000
 50
0.0000000000000000
  0
LINE
  5
1F9
100
AcDbEntity
  8
MAIN0
  6
BYBLOCK
 62
0
100
AcDbLine
 10
149.1841844489947
 20
336.2622225707839
 30
0.0000000000000000
 11
149.1841844489947
 21
368.2493771974118
 31
0.0000000000000000
  0
MTEXT
  5
1FA
100
AcDbEntity
  8
MAIN0
  6
BYBLOCK
 62
0
100
AcDbMText
 10
99.18418444899461
 20
367.8493771020444
 30
0.0000000000000000
 40
6.199999809265137
 41
0.0000000000000000
 71
     5
 72
     1
  1
\A1;100
 11
1.000000000000000
 21
0.0000000000000000
 31
0.0000000000000000
  7
STANDARD
  0
ENDBLK
  5
1FB
100
AcDbEntity
  8
MAIN0
  6
CONTINUOUS
 62
3
100
AcDbBlockEnd
  0
BLOCK
  5
1FD
100
AcDbEntity
  8
MAIN0
  6
CONTINUOUS
 62
3
100
AcDbBlockBegin
  2
*D27
 70
    65
 10
0.0
 20
0.0
 30
0.0
  0
LINE
  5
1FE
100
AcDbEntity
  8
MAIN0
  6
BYBLOCK
 62
0
100
AcDbLine
 10
705.0088485430442
 20
306.4622225707739
 30
0.0000000000000000
 11
705.0088485430442
 21
380.3095218396290
 31
0.0000000000000000
  0
LINE
  5
1FF
100
AcDbEntity
  8
MAIN0
  6
BYBLOCK
 62
0
100
AcDbLine
 10
709.0088485430442
 20
376.3095218396290
 30
0.0000000000000000
 11
810.0088485430442
 21
376.3095218396290
 31
0.0000000000000000
  0
INSERT
  5
200
100
AcDbEntity
  8
MAIN0
  6
BYBLOCK
 62
0
100
AcDbBlockReference
  2
_OPEN
 10
705.0088485430442
 20
376.3095218396290
 30
0.0000000000000000
 41
4.000000000000000
 42
4.000000000000000
 43
4.000000000000000
 50
180.0000000000000
  0
INSERT
  5
201
100
AcDbEntity
  8
MAIN0
  6
BYBLOCK
 62
0
100
AcDbBlockReference
  2
_OPEN
 10
814.0088485430442
 20
376.3095218396290
 30
0.0000000000000000
 41
4.000000000000000
 42
4.000000000000000
 43
4.000000000000000
 50
0.0000000000000000
  0
LINE
  5
202
100
AcDbEntity
  8
MAIN0
  6
BYBLOCK
 62
0
100
AcDbLine
 10
814.0088485430442
 20
306.4622225707739
 30
0.0000000000000000
 11
814.0088485430442
 21
380.3095218396290
 31
0.0000000000000000
  0
MTEXT
  5
203
100
AcDbEntity
  8
MAIN0
  6
BYBLOCK
 62
0
100
AcDbMText
 10
759.5088485430442
 20
379.9095217442616
 30
0.0000000000000000
 40
6.199999809265137
 41
0.0000000000000000
 71
     5
 72
     1
  1
\A1;109
 11
1.000000000000000
 21
0.0000000000000000
 31
0.0000000000000000
  7
STANDARD
  0
ENDBLK
  5
204
100
AcDbEntity
  8
MAIN0
  6
CONTINUOUS
 62
3
100
AcDbBlockEnd
  0
BLOCK
  5
20E
100
AcDbEntity
  8
MAIN0
  6
CONTINUOUS
 62
3
100
AcDbBlockBegin
  2
*D28
 70
    65
 10
0.0
 20
0.0
 30
0.0
  0
LINE
  5
20F
100
AcDbEntity
  8
MAIN0
  6
BYBLOCK
 62
0
100
AcDbLine
 10
289.0342416239890
 20
334.6622225469220
 30
0.0000000000000000
 11
289.0342416239890
 21
324.6622225469220
 31
0.0000000000000000
  0
INSERT
  5
210
100
AcDbEntity
  8
MAIN0
  6
BYBLOCK
 62
0
100
AcDbBlockReference
  2
_OPEN
 10
289.0342416239890
 20
334.6622225469220
 30
0.0000000000000000
 41
4.000000000000000
 42
4.000000000000000
 43
4.000000000000000
 50
270.0000000000000
  0
INSERT
  5
211
100
AcDbEntity
  8
MAIN0
  6
BYBLOCK
 62
0
100
AcDbBlockReference
  2
_OPEN
 10
289.0342416239890
 20
324.6622225469220
 30
0.0000000000000000
 41
4.000000000000000
 42
4.000000000000000
 43
4.000000000000000
 50
90.00000000000000
  0
LINE
  5
212
100
AcDbEntity
  8
MAIN0
  6
BYBLOCK
 62
0
100
AcDbLine
 10
289.0342416239890
 20
338.6622225469220
 30
0.0000000000000000
 11
289.0342416239890
 21
346.6035327977577
 31
0.0000000000000000
  0
LINE
  5
213
100
AcDbEntity
  8
MAIN0
  6
BYBLOCK
 62
0
100
AcDbLine
 10
289.0342416239890
 20
320.6622225469220
 30
0.0000000000000000
 11
289.0342416239890
 21
318.6622225469220
 31
0.0000000000000000
  0
LINE
  5
214
100
AcDbEntity
  8
MAIN0
  6
BYBLOCK
 62
0
100
AcDbLine
 10
283.7364380122682
 20
324.6622225469220
 30
0.0000000000000000
 11
293.0342416239890
 21
324.6622225469220
 31
0.0000000000000000
  0
MTEXT
  5
215
100
AcDbEntity
  8
MAIN0
  6
BYBLOCK
 62
0
100
AcDbMText
 10
284.9342417193564
 20
342.5035328931252
 30
0.0000000000000000
 40
6.199999809265137
 41
0.0000000000000000
 71
     5
 72
     1
  1
\A1;10
 11
6.123233995736766e-017
 21
1.000000000000000
 31
0.0000000000000000
  7
STANDARD
  0
ENDBLK
  5
216
100
AcDbEntity
  8
MAIN0
  6
CONTINUOUS
 62
3
100
AcDbBlockEnd
  0
BLOCK
  5
218
100
AcDbEntity
  8
MAIN0
  6
CONTINUOUS
 62
3
100
AcDbBlockBegin
  2
*D29
 70
    65
 10
0.0
 20
0.0
 30
0.0
  0
LINE
  5
219
100
AcDbEntity
  8
MAIN0
  6
BYBLOCK
 62
0
100
AcDbLine
 10
283.7364380122682
 20
324.6622225469220
 30
0.0000000000000000
 11
293.0342416239890
 21
324.6622225469220
 31
0.0000000000000000
  0
LINE
  5
21A
100
AcDbEntity
  8
MAIN0
  6
BYBLOCK
 62
0
100
AcDbLine
 10
289.0342416239890
 20
320.6622225469220
 30
0.0000000000000000
 11
289.0342416239890
 21
308.6622225469221
 31
0.0000000000000000
  0
INSERT
  5
21B
100
AcDbEntity
  8
MAIN0
  6
BYBLOCK
 62
0
100
AcDbBlockReference
  2
_OPEN
 10
289.0342416239890
 20
324.6622225469220
 30
0.0000000000000000
 41
4.000000000000000
 42
4.000000000000000
 43
4.000000000000000
 50
90.00000000000000
  0
INSERT
  5
21C
100
AcDbEntity
  8
MAIN0
  6
BYBLOCK
 62
0
100
AcDbBlockReference
  2
_OPEN
 10
289.0342416239890
 20
304.6622225469221
 30
0.0000000000000000
 41
4.000000000000000
 42
4.000000000000000
 43
4.000000000000000
 50
270.0000000000000
  0
LINE
  5
21D
100
AcDbEntity
  8
MAIN0
  6
BYBLOCK
 62
0
100
AcDbLine
 10
283.7364380122682
 20
304.6622225469221
 30
0.0000000000000000
 11
293.0342416239890
 21
304.6622225469221
 31
0.0000000000000000
  0
MTEXT
  5
21E
100
AcDbEntity
  8
MAIN0
  6
BYBLOCK
 62
0
100
AcDbMText
 10
285.4342417193564
 20
314.6622225469221
 30
0.0000000000000000
 40
6.199999809265137
 41
0.0000000000000000
 71
     5
 72
     1
  1
\A1;20
 11
6.123233995736766e-017
 21
1.000000000000000
 31
0.0000000000000000
  7
STANDARD
  0
ENDBLK
  5
21F
100
AcDbEntity
  8
MAIN0
  6
CONTINUOUS
 62
3
100
AcDbBlockEnd
  0
BLOCK
  5
23F
100
AcDbEntity
  8
MAIN0
  6
CONTINUOUS
 62
3
100
AcDbBlockBegin
  2
*D30
 70
    65
 10
0.0
 20
0.0
 30
0.0
  0
LINE
  5
240
100
AcDbEntity
  8
MAIN0
  6
BYBLOCK
 62
0
100
AcDbLine
 10
234.1364379884378
 20
249.6426632519713
 30
0.0000000000000000
 11
316.1364379884312
 21
249.6426632519713
 31
0.0000000000000000
  0
INSERT
  5
241
100
AcDbEntity
  8
MAIN0
  6
BYBLOCK
 62
0
100
AcDbBlockReference
  2
_OPEN
 10
230.1364379884378
 20
249.6426632519713
 30
0.0000000000000000
 41
4.000000000000000
 42
4.000000000000000
 43
4.000000000000000
 50
180.0000000000000
  0
INSERT
  5
242
100
AcDbEntity
  8
MAIN0
  6
BYBLOCK
 62
0
100
AcDbBlockReference
  2
_OPEN
 10
320.1364379884312
 20
249.6426632519713
 30
0.0000000000000000
 41
4.000000000000000
 42
4.000000000000000
 43
4.000000000000000
 50
0.0000000000000000
  0
LINE
  5
243
100
AcDbEntity
  8
MAIN0
  6
BYBLOCK
 62
0
100
AcDbLine
 10
320.1364379884312
 20
274.5622225233446
 30
0.0000000000000000
 11
320.1364379884312
 21
245.6426632519713
 31
0.0000000000000000
  0
MTEXT
  5
244
100
AcDbEntity
  8
MAIN0
  6
BYBLOCK
 62
0
100
AcDbMText
 10
275.1364379884345
 20
253.2426631566038
 30
0.0000000000000000
 40
6.199999809265137
 41
0.0000000000000000
 71
     5
 72
     1
  1
\A1;90
 11
1.000000000000000
 21
0.0000000000000000
 31
0.0000000000000000
  7
STANDARD
  0
ENDBLK
  5
245
100
AcDbEntity
  8
MAIN0
  6
CONTINUOUS
 62
3
100
AcDbBlockEnd
  0
BLOCK
  5
247
100
AcDbEntity
  8
MAIN0
  6
CONTINUOUS
 62
3
100
AcDbBlockBegin
  2
*D31
 70
    65
 10
0.0
 20
0.0
 30
0.0
  0
LINE
  5
248
100
AcDbEntity
  8
MAIN0
  6
BYBLOCK
 62
0
100
AcDbLine
 10
320.1364379884312
 20
274.5622225233446
 30
0.0000000000000000
 11
320.1364379884312
 21
245.6426632519713
 31
0.0000000000000000
  0
LINE
  5
249
100
AcDbEntity
  8
MAIN0
  6
BYBLOCK
 62
0
100
AcDbLine
 10
324.1364379884312
 20
249.6426632519713
 30
0.0000000000000000
 11
421.1364379884313
 21
249.6426632519713
 31
0.0000000000000000
  0
INSERT
  5
24A
100
AcDbEntity
  8
MAIN0
  6
BYBLOCK
 62
0
100
AcDbBlockReference
  2
_OPEN
 10
320.1364379884312
 20
249.6426632519713
 30
0.0000000000000000
 41
4.000000000000000
 42
4.000000000000000
 43
4.000000000000000
 50
180.0000000000000
  0
INSERT
  5
24B
100
AcDbEntity
  8
MAIN0
  6
BYBLOCK
 62
0
100
AcDbBlockReference
  2
_OPEN
 10
425.1364379884313
 20
249.6426632519713
 30
0.0000000000000000
 41
4.000000000000000
 42
4.000000000000000
 43
4.000000000000000
 50
0.0000000000000000
  0
LINE
  5
24C
100
AcDbEntity
  8
MAIN0
  6
BYBLOCK
 62
0
100
AcDbLine
 10
425.1364379884313
 20
274.5622225233446
 30
0.0000000000000000
 11
425.1364379884313
 21
245.6426632519713
 31
0.0000000000000000
  0
MTEXT
  5
24D
100
AcDbEntity
  8
MAIN0
  6
BYBLOCK
 62
0
100
AcDbMText
 10
372.6364379884313
 20
253.2426631566038
 30
0.0000000000000000
 40
6.199999809265137
 41
0.0000000000000000
 71
     5
 72
     1
  1
\A1;105
 11
1.000000000000000
 21
0.0000000000000000
 31
0.0000000000000000
  7
STANDARD
  0
ENDBLK
  5
24E
100
AcDbEntity
  8
MAIN0
  6
CONTINUOUS
 62
3
100
AcDbBlockEnd
  0
BLOCK
  5
250
100
AcDbEntity
  8
MAIN0
  6
CONTINUOUS
 62
3
100
AcDbBlockBegin
  2
*D32
 70
    65
 10
0.0
 20
0.0
 30
0.0
  0
LINE
  5
251
100
AcDbEntity
  8
MAIN0
  6
BYBLOCK
 62
0
100
AcDbLine
 10
425.1364379884313
 20
274.5622225233446
 30
0.0000000000000000
 11
425.1364379884313
 21
245.6426632519713
 31
0.0000000000000000
  0
LINE
  5
252
100
AcDbEntity
  8
MAIN0
  6
BYBLOCK
 62
0
100
AcDbLine
 10
429.1364379884313
 20
249.6426632519713
 30
0.0000000000000000
 11
499.1364379884313
 21
249.6426632519713
 31
0.0000000000000000
  0
INSERT
  5
253
100
AcDbEntity
  8
MAIN0
  6
BYBLOCK
 62
0
100
AcDbBlockReference
  2
_OPEN
 10
425.1364379884313
 20
249.6426632519713
 30
0.0000000000000000
 41
4.000000000000000
 42
4.000000000000000
 43
4.000000000000000
 50
180.0000000000000
  0
INSERT
  5
254
100
AcDbEntity
  8
MAIN0
  6
BYBLOCK
 62
0
100
AcDbBlockReference
  2
_OPEN
 10
503.1364379884313
 20
249.6426632519713
 30
0.0000000000000000
 41
4.000000000000000
 42
4.000000000000000
 43
4.000000000000000
 50
0.0000000000000000
  0
MTEXT
  5
255
100
AcDbEntity
  8
MAIN0
  6
BYBLOCK
 62
0
100
AcDbMText
 10
464.1364379884313
 20
253.2426631566038
 30
0.0000000000000000
 40
6.199999809265137
 41
0.0000000000000000
 71
     5
 72
     1
  1
\A1;78
 11
1.000000000000000
 21
0.0000000000000000
 31
0.0000000000000000
  7
STANDARD
  0
ENDBLK
  5
256
100
AcDbEntity
  8
MAIN0
  6
CONTINUOUS
 62
3
100
AcDbBlockEnd
  0
BLOCK
  5
258
100
AcDbEntity
  8
MAIN0
  6
CONTINUOUS
 62
3
100
AcDbBlockBegin
  2
*D33
 70
    65
 10
0.0
 20
0.0
 30
0.0
  0
LINE
  5
259
100
AcDbEntity
  8
MAIN0
  6
BYBLOCK
 62
0
100
AcDbLine
 10
408.7424340794532
 20
233.6622225469142
 30
0.0000000000000000
 11
408.7424340794532
 21
278.1622225471865
 31
0.0000000000000000
  0
INSERT
  5
25A
100
AcDbEntity
  8
MAIN0
  6
BYBLOCK
 62
0
100
AcDbBlockReference
  2
_OPEN
 10
408.7424340794532
 20
229.6622225469142
 30
0.0000000000000000
 41
4.000000000000000
 42
4.000000000000000
 43
4.000000000000000
 50
270.0000000000000
  0
INSERT
  5
25B
100
AcDbEntity
  8
MAIN0
  6
BYBLOCK
 62
0
100
AcDbBlockReference
  2
_OPEN
 10
408.7424340794532
 20
282.1622225471865
 30
0.0000000000000000
 41
4.000000000000000
 42
4.000000000000000
 43
4.000000000000000
 50
90.00000000000000
  0
LINE
  5
25C
100
AcDbEntity
  8
MAIN0
  6
BYBLOCK
 62
0
100
AcDbLine
 10
417.5364379645895
 20
282.1622225471865
 30
0.0000000000000000
 11
404.7424340794532
 21
282.1622225471865
 31
0.0000000000000000
  0
MTEXT
  5
25D
100
AcDbEntity
  8
MAIN0
  6
BYBLOCK
 62
0
100
AcDbMText
 10
404.6424341748207
 20
259.9832378868298
 30
0.0000000000000000
 40
6.199999809265137
 41
0.0000000000000000
 71
     5
 72
     1
  1
\A1;52.5
 11
6.123233995736766e-017
 21
1.000000000000000
 31
0.0000000000000000
  7
STANDARD
  0
ENDBLK
  5
25E
100
AcDbEntity
  8
MAIN0
  6
CONTINUOUS
 62
3
100
AcDbBlockEnd
  0
BLOCK
  5
260
100
AcDbEntity
  8
MAIN0
  6
CONTINUOUS
 62
3
100
AcDbBlockBegin
  2
*D34
 70
    65
 10
0.0
 20
0.0
 30
0.0
  0
LINE
  5
261
100
AcDbEntity
  8
MAIN0
  6
BYBLOCK
 62
0
100
AcDbLine
 10
585.6364379884316
 20
237.0622225228000
 30
0.0000000000000000
 11
585.6364379884316
 21
177.6285894197277
 31
0.0000000000000000
  0
LINE
  5
262
100
AcDbEntity
  8
MAIN0
  6
BYBLOCK
 62
0
100
AcDbLine
 10
581.6364379884316
 20
181.6285894197277
 30
0.0000000000000000
 11
507.1364379884313
 21
181.6285894197277
 31
0.0000000000000000
  0
INSERT
  5
263
100
AcDbEntity
  8
MAIN0
  6
BYBLOCK
 62
0
100
AcDbBlockReference
  2
_OPEN
 10
585.6364379884316
 20
181.6285894197277
 30
0.0000000000000000
 41
4.000000000000000
 42
4.000000000000000
 43
4.000000000000000
 50
360.0000000000000
  0
INSERT
  5
264
100
AcDbEntity
  8
MAIN0
  6
BYBLOCK
 62
0
100
AcDbBlockReference
  2
_OPEN
 10
503.1364379884313
 20
181.6285894197277
 30
0.0000000000000000
 41
4.000000000000000
 42
4.000000000000000
 43
4.000000000000000
 50
180.0000000000000
  0
LINE
  5
265
100
AcDbEntity
  8
MAIN0
  6
BYBLOCK
 62
0
100
AcDbLine
 10
503.1364379884313
 20
228.4622225230726
 30
0.0000000000000000
 11
503.1364379884313
 21
177.6285894197277
 31
0.0000000000000000
  0
MTEXT
  5
266
100
AcDbEntity
  8
MAIN0
  6
BYBLOCK
 62
0
100
AcDbMText
 10
544.3864379884315
 20
185.2285893243603
 30
0.0000000000000000
 40
6.199999809265137
 41
0.0000000000000000
 71
     5
 72
     1
  1
\A1;82.5
 11
1.000000000000000
 21
0.0000000000000000
 31
0.0000000000000000
  7
STANDARD
  0
ENDBLK
  5
267
100
AcDbEntity
  8
MAIN0
  6
CONTINUOUS
 62
3
100
AcDbBlockEnd
  0
BLOCK
  5
269
100
AcDbEntity
  8
MAIN0
  6
CONTINUOUS
 62
3
100
AcDbBlockBegin
  2
*D35
 70
    65
 10
0.0
 20
0.0
 30
0.0
  0
LINE
  5
26A
100
AcDbEntity
  8
MAIN0
  6
BYBLOCK
 62
0
100
AcDbLine
 10
503.1364379884313
 20
228.4622225230726
 30
0.0000000000000000
 11
503.1364379884313
 21
177.6285894197277
 31
0.0000000000000000
  0
LINE
  5
26B
100
AcDbEntity
  8
MAIN0
  6
BYBLOCK
 62
0
100
AcDbLine
 10
499.1364379884313
 20
181.6285894197277
 30
0.0000000000000000
 11
234.1364379884378
 21
181.6285894197277
 31
0.0000000000000000
  0
INSERT
  5
26C
100
AcDbEntity
  8
MAIN0
  6
BYBLOCK
 62
0
100
AcDbBlockReference
  2
_OPEN
 10
503.1364379884313
 20
181.6285894197277
 30
0.0000000000000000
 41
4.000000000000000
 42
4.000000000000000
 43
4.000000000000000
 50
360.0000000000000
  0
INSERT
  5
26D
100
AcDbEntity
  8
MAIN0
  6
BYBLOCK
 62
0
100
AcDbBlockReference
  2
_OPEN
 10
230.1364379884378
 20
181.6285894197277
 30
0.0000000000000000
 41
4.000000000000000
 42
4.000000000000000
 43
4.000000000000000
 50
180.0000000000000
  0
LINE
  5
26E
100
AcDbEntity
  8
MAIN0
  6
BYBLOCK
 62
0
100
AcDbLine
 10
230.1364379884379
 20
228.4622225232182
 30
0.0000000000000000
 11
230.1364379884378
 21
177.6285894197277
 31
0.0000000000000000
  0
MTEXT
  5
26F
100
AcDbEntity
  8
MAIN0
  6
BYBLOCK
 62
0
100
AcDbMText
 10
366.6364379884346
 20
185.2285893243603
 30
0.0000000000000000
 40
6.199999809265137
 41
0.0000000000000000
 71
     5
 72
     1
  1
\A1;273
 11
1.000000000000000
 21
0.0000000000000000
 31
0.0000000000000000
  7
STANDARD
  0
ENDBLK
  5
270
100
AcDbEntity
  8
MAIN0
  6
CONTINUOUS
 62
3
100
AcDbBlockEnd
  0
BLOCK
  5
272
100
AcDbEntity
  8
MAIN0
  6
CONTINUOUS
 62
3
100
AcDbBlockBegin
  2
*D36
 70
    65
 10
0.0
 20
0.0
 30
0.0
  0
LINE
  5
273
100
AcDbEntity
  8
MAIN0
  6
BYBLOCK
 62
0
100
AcDbLine
 10
230.1364379884266
 20
295.6622225707638
 30
0.0000000000000000
 11
230.1364379884266
 21
380.3095218396290
 31
0.0000000000000000
  0
LINE
  5
274
100
AcDbEntity
  8
MAIN0
  6
BYBLOCK
 62
0
100
AcDbLine
 10
230.1364379884266
 20
376.3095218396290
 30
0.0000000000000000
 11
231.1364379884265
 21
376.3095218396290
 31
0.0000000000000000
  0
INSERT
  5
275
100
AcDbEntity
  8
MAIN0
  6
BYBLOCK
 62
0
100
AcDbBlockReference
  2
_OPEN
 10
230.1364379884266
 20
376.3095218396290
 30
0.0000000000000000
 41
4.000000000000000
 42
4.000000000000000
 43
4.000000000000000
 50
0.0000000000000000
  0
INSERT
  5
276
100
AcDbEntity
  8
MAIN0
  6
BYBLOCK
 62
0
100
AcDbBlockReference
  2
_OPEN
 10
231.1364379884265
 20
376.3095218396290
 30
0.0000000000000000
 41
4.000000000000000
 42
4.000000000000000
 43
4.000000000000000
 50
180.0000000000000
  0
LINE
  5
277
100
AcDbEntity
  8
MAIN0
  6
BYBLOCK
 62
0
100
AcDbLine
 10
226.1364379884266
 20
376.3095218396290
 30
0.0000000000000000
 11
222.5128114476197
 21
376.3095218396290
 31
0.0000000000000000
  0
LINE
  5
278
100
AcDbEntity
  8
MAIN0
  6
BYBLOCK
 62
0
100
AcDbLine
 10
235.1364379884265
 20
376.3095218396290
 30
0.0000000000000000
 11
237.1364379884265
 21
376.3095218396290
 31
0.0000000000000000
  0
LINE
  5
279
100
AcDbEntity
  8
MAIN0
  6
BYBLOCK
 62
0
100
AcDbLine
 10
231.1364379884265
 20
314.6622225707638
 30
0.0000000000000000
 11
231.1364379884265
 21
380.3095218396290
 31
0.0000000000000000
  0
MTEXT
  5
27A
100
AcDbEntity
  8
MAIN0
  6
BYBLOCK
 62
0
100
AcDbMText
 10
224.5128114476197
 20
380.4095217442616
 30
0.0000000000000000
 40
6.199999809265137
 41
0.0000000000000000
 71
     5
 72
     1
  1
\A1;1
 11
1.000000000000000
 21
0.0000000000000000
 31
0.0000000000000000
  7
STANDARD
  0
ENDBLK
  5
27B
100
AcDbEntity
  8
MAIN0
  6
CONTINUOUS
 62
3
100
AcDbBlockEnd
  0
BLOCK
  5
27D
100
AcDbEntity
  8
MAIN0
  6
CONTINUOUS
 62
3
100
AcDbBlockBegin
  2
*D37
 70
    65
 10
0.0
 20
0.0
 30
0.0
  0
LINE
  5
27E
100
AcDbEntity
  8
MAIN0
  6
BYBLOCK
 62
0
100
AcDbLine
 10
231.1364379884265
 20
314.6622225707638
 30
0.0000000000000000
 11
231.1364379884265
 21
380.3095218396290
 31
0.0000000000000000
  0
LINE
  5
27F
100
AcDbEntity
  8
MAIN0
  6
BYBLOCK
 62
0
100
AcDbLine
 10
235.1364379884265
 20
376.3095218396290
 30
0.0000000000000000
 11
300.1364379884263
 21
376.3095218396290
 31
0.0000000000000000
  0
INSERT
  5
280
100
AcDbEntity
  8
MAIN0
  6
BYBLOCK
 62
0
100
AcDbBlockReference
  2
_OPEN
 10
231.1364379884265
 20
376.3095218396290
 30
0.0000000000000000
 41
4.000000000000000
 42
4.000000000000000
 43
4.000000000000000
 50
180.0000000000000
  0
INSERT
  5
281
100
AcDbEntity
  8
MAIN0
  6
BYBLOCK
 62
0
100
AcDbBlockReference
  2
_OPEN
 10
304.1364379884263
 20
376.3095218396290
 30
0.0000000000000000
 41
4.000000000000000
 42
4.000000000000000
 43
4.000000000000000
 50
0.0000000000000000
  0
LINE
  5
282
100
AcDbEntity
  8
MAIN0
  6
BYBLOCK
 62
0
100
AcDbLine
 10
304.1364379884263
 20
336.0622225707638
 30
0.0000000000000000
 11
304.1364379884263
 21
380.3095218396290
 31
0.0000000000000000
  0
MTEXT
  5
283
100
AcDbEntity
  8
MAIN0
  6
BYBLOCK
 62
0
100
AcDbMText
 10
267.6364379884264
 20
379.9095217442616
 30
0.0000000000000000
 40
6.199999809265137
 41
0.0000000000000000
 71
     5
 72
     1
  1
\A1;73
 11
1.000000000000000
 21
0.0000000000000000
 31
0.0000000000000000
  7
STANDARD
  0
ENDBLK
  5
284
100
AcDbEntity
  8
MAIN0
  6
CONTINUOUS
 62
3
100
AcDbBlockEnd
  0
BLOCK
  5
286
100
AcDbEntity
  8
MAIN0
  6
CONTINUOUS
 62
3
100
AcDbBlockBegin
  2
*D38
 70
    65
 10
0.0
 20
0.0
 30
0.0
  0
LINE
  5
287
100
AcDbEntity
  8
MAIN0
  6
BYBLOCK
 62
0
100
AcDbLine
 10
304.1364379884263
 20
336.0622225707638
 30
0.0000000000000000
 11
304.1364379884263
 21
380.3095218396290
 31
0.0000000000000000
  0
LINE
  5
288
100
AcDbEntity
  8
MAIN0
  6
BYBLOCK
 62
0
100
AcDbLine
 10
308.1364379884263
 20
376.3095218396290
 30
0.0000000000000000
 11
365.1364379884265
 21
376.3095218396290
 31
0.0000000000000000
  0
INSERT
  5
289
100
AcDbEntity
  8
MAIN0
  6
BYBLOCK
 62
0
100
AcDbBlockReference
  2
_OPEN
 10
304.1364379884263
 20
376.3095218396290
 30
0.0000000000000000
 41
4.000000000000000
 42
4.000000000000000
 43
4.000000000000000
 50
180.0000000000000
  0
INSERT
  5
28A
100
AcDbEntity
  8
MAIN0
  6
BYBLOCK
 62
0
100
AcDbBlockReference
  2
_OPEN
 10
369.1364379884265
 20
376.3095218396290
 30
0.0000000000000000
 41
4.000000000000000
 42
4.000000000000000
 43
4.000000000000000
 50
0.0000000000000000
  0
LINE
  5
28B
100
AcDbEntity
  8
MAIN0
  6
BYBLOCK
 62
0
100
AcDbLine
 10
369.1364379884265
 20
336.0622225707639
 30
0.0000000000000000
 11
369.1364379884265
 21
380.3095218396290
 31
0.0000000000000000
  0
MTEXT
  5
28C
100
AcDbEntity
  8
MAIN0
  6
BYBLOCK
 62
0
100
AcDbMText
 10
336.6364379884264
 20
379.9095217442616
 30
0.0000000000000000
 40
6.199999809265137
 41
0.0000000000000000
 71
     5
 72
     1
  1
\A1;MAX128
 11
1.000000000000000
 21
0.0000000000000000
 31
0.0000000000000000
  7
STANDARD
  0
ENDBLK
  5
28D
100
AcDbEntity
  8
MAIN0
  6
CONTINUOUS
 62
3
100
AcDbBlockEnd
  0
BLOCK
  5
28F
100
AcDbEntity
  8
MAIN0
  6
CONTINUOUS
 62
1
100
AcDbBlockBegin
  2
*D39
 70
    65
 10
0.0
 20
0.0
 30
0.0
  0
LINE
  5
290
100
AcDbEntity
  8
MAIN0
  6
BYBLOCK
 62
0
100
AcDbLine
 10
369.1364379884265
 20
336.0622225707639
 30
0.0000000000000000
 11
369.1364379884265
 21
380.3095218396290
 31
0.0000000000000000
  0
LINE
  5
291
100
AcDbEntity
  8
MAIN0
  6
BYBLOCK
 62
0
100
AcDbLine
 10
373.1364379884265
 20
376.3095218396290
 30
0.0000000000000000
 11
429.1364379884267
 21
376.3095218396290
 31
0.0000000000000000
  0
INSERT
  5
292
100
AcDbEntity
  8
MAIN0
  6
BYBLOCK
 62
0
100
AcDbBlockReference
  2
_OPEN
 10
369.1364379884265
 20
376.3095218396290
 30
0.0000000000000000
 41
4.000000000000000
 42
4.000000000000000
 43
4.000000000000000
 50
180.0000000000000
  0
INSERT
  5
293
100
AcDbEntity
  8
MAIN0
  6
BYBLOCK
 62
0
100
AcDbBlockReference
  2
_OPEN
 10
433.1364379884267
 20
376.3095218396290
 30
0.0000000000000000
 41
4.000000000000000
 42
4.000000000000000
 43
4.000000000000000
 50
0.0000000000000000
  0
LINE
  5
294
100
AcDbEntity
  8
MAIN0
  6
BYBLOCK
 62
0
100
AcDbLine
 10
433.1364379884267
 20
315.6622225707902
 30
0.0000000000000000
 11
433.1364379884267
 21
380.3095218396290
 31
0.0000000000000000
  0
MTEXT
  5
295
100
AcDbEntity
  8
MAIN0
  6
BYBLOCK
 62
0
100
AcDbMText
 10
401.1364379884266
 20
379.9095217442616
 30
0.0000000000000000
 40
6.199999809265137
 41
0.0000000000000000
 71
     5
 72
     1
  1
\A1;64
 11
1.000000000000000
 21
0.0000000000000000
 31
0.0000000000000000
  7
STANDARD
  0
ENDBLK
  5
296
100
AcDbEntity
  8
MAIN0
  6
CONTINUOUS
 62
1
100
AcDbBlockEnd
  0
BLOCK
  5
298
100
AcDbEntity
  8
MAIN0
  6
CONTINUOUS
 62
3
100
AcDbBlockBegin
  2
*D40
 70
    65
 10
0.0
 20
0.0
 30
0.0
  0
LINE
  5
299
100
AcDbEntity
  8
MAIN0
  6
BYBLOCK
 62
0
100
AcDbLine
 10
383.6364379312959
 20
477.3847318503789
 30
0.0000000000000000
 11
383.6364379312959
 21
410.5259306213475
 31
0.0000000000000000
  0
LINE
  5
29A
100
AcDbEntity
  8
MAIN0
  6
BYBLOCK
 62
0
100
AcDbLine
 10
383.6364379312959
 20
414.5259306213475
 30
0.0000000000000000
 11
369.1364379307942
 21
414.5259306213475
 31
0.0000000000000000
  0
INSERT
  5
29B
100
AcDbEntity
  8
MAIN0
  6
BYBLOCK
 62
0
100
AcDbBlockReference
  2
_OPEN
 10
383.6364379312959
 20
414.5259306213475
 30
0.0000000000000000
 41
4.000000000000000
 42
4.000000000000000
 43
4.000000000000000
 50
180.0000000000000
  0
INSERT
  5
29C
100
AcDbEntity
  8
MAIN0
  6
BYBLOCK
 62
0
100
AcDbBlockReference
  2
_OPEN
 10
369.1364379307942
 20
414.5259306213475
 30
0.0000000000000000
 41
4.000000000000000
 42
4.000000000000000
 43
4.000000000000000
 50
360.0000000000000
  0
LINE
  5
29D
100
AcDbEntity
  8
MAIN0
  6
BYBLOCK
 62
0
100
AcDbLine
 10
387.6364379312959
 20
414.5259306213475
 30
0.0000000000000000
 11
389.6364379312959
 21
414.5259306213475
 31
0.0000000000000000
  0
LINE
  5
29E
100
AcDbEntity
  8
MAIN0
  6
BYBLOCK
 62
0
100
AcDbLine
 10
365.1364379307942
 20
414.5259306213475
 30
0.0000000000000000
 11
350.7530183646636
 21
414.5259306213475
 31
0.0000000000000000
  0
LINE
  5
29F
100
AcDbEntity
  8
MAIN0
  6
BYBLOCK
 62
0
100
AcDbLine
 10
369.1364379307942
 20
435.8847318503789
 30
0.0000000000000000
 11
369.1364379307942
 21
410.5259306213475
 31
0.0000000000000000
  0
MTEXT
  5
2A0
100
AcDbEntity
  8
MAIN0
  6
BYBLOCK
 62
0
100
AcDbMText
 10
358.0530185553985
 20
418.6259305259800
 30
0.0000000000000000
 40
6.199999809265137
 41
0.0000000000000000
 71
     5
 72
     1
  1
\A1;14.5
 11
1.000000000000000
 21
0.0000000000000000
 31
0.0000000000000000
  7
STANDARD
  0
ENDBLK
  5
2A1
100
AcDbEntity
  8
MAIN0
  6
CONTINUOUS
 62
3
100
AcDbBlockEnd
  0
BLOCK
  5
2A5
100
AcDbEntity
  8
MAIN0
  6
CONTINUOUS
 62
3
100
AcDbBlockBegin
  2
*D41
 70
    65
 10
0.0
 20
0.0
 30
0.0
  0
LINE
  5
2A6
100
AcDbEntity
  8
MAIN0
  6
BYBLOCK
 62
0
100
AcDbLine
 10
433.1364379884267
 20
315.6622225707902
 30
0.0000000000000000
 11
433.1364379884267
 21
368.2493771973955
 31
0.0000000000000000
  0
LINE
  5
2A7
100
AcDbEntity
  8
MAIN0
  6
BYBLOCK
 62
0
100
AcDbLine
 10
429.1364379884267
 20
364.2493771973955
 30
0.0000000000000000
 11
402.1364379884267
 21
364.2493771973955
 31
0.0000000000000000
  0
INSERT
  5
2A8
100
AcDbEntity
  8
MAIN0
  6
BYBLOCK
 62
0
100
AcDbBlockReference
  2
_OPEN
 10
433.1364379884267
 20
364.2493771973955
 30
0.0000000000000000
 41
4.000000000000000
 42
4.000000000000000
 43
4.000000000000000
 50
360.0000000000000
  0
INSERT
  5
2A9
100
AcDbEntity
  8
MAIN0
  6
BYBLOCK
 62
0
100
AcDbBlockReference
  2
_OPEN
 10
398.1364379884267
 20
364.2493771973955
 30
0.0000000000000000
 41
4.000000000000000
 42
4.000000000000000
 43
4.000000000000000
 50
180.0000000000000
  0
LINE
  5
2AA
100
AcDbEntity
  8
MAIN0
  6
BYBLOCK
 62
0
100
AcDbLine
 10
398.1364379884267
 20
335.7622225707638
 30
0.0000000000000000
 11
398.1364379884267
 21
368.2493771973955
 31
0.0000000000000000
  0
MTEXT
  5
2AB
100
AcDbEntity
  8
MAIN0
  6
BYBLOCK
 62
0
100
AcDbMText
 10
415.6364379884267
 20
367.8493771020280
 30
0.0000000000000000
 40
6.199999809265137
 41
0.0000000000000000
 71
     5
 72
     1
  1
\A1;35
 11
1.000000000000000
 21
0.0000000000000000
 31
0.0000000000000000
  7
STANDARD
  0
ENDBLK
  5
2AC
100
AcDbEntity
  8
MAIN0
  6
CONTINUOUS
 62
3
100
AcDbBlockEnd
  0
BLOCK
  5
2AE
100
AcDbEntity
  8
MAIN0
  6
CONTINUOUS
 62
3
100
AcDbBlockBegin
  2
*D42
 70
    65
 10
0.0
 20
0.0
 30
0.0
  0
LINE
  5
2AF
100
AcDbEntity
  8
MAIN0
  6
BYBLOCK
 62
0
100
AcDbLine
 10
398.1364379884267
 20
335.7622225707638
 30
0.0000000000000000
 11
398.1364379884267
 21
368.2493771973955
 31
0.0000000000000000
  0
LINE
  5
2B0
100
AcDbEntity
  8
MAIN0
  6
BYBLOCK
 62
0
100
AcDbLine
 10
394.1364379884267
 20
364.2493771973955
 30
0.0000000000000000
 11
373.1364379884265
 21
364.2493771973955
 31
0.0000000000000000
  0
INSERT
  5
2B1
100
AcDbEntity
  8
MAIN0
  6
BYBLOCK
 62
0
100
AcDbBlockReference
  2
_OPEN
 10
398.1364379884267
 20
364.2493771973955
 30
0.0000000000000000
 41
4.000000000000000
 42
4.000000000000000
 43
4.000000000000000
 50
360.0000000000000
  0
INSERT
  5
2B2
100
AcDbEntity
  8
MAIN0
  6
BYBLOCK
 62
0
100
AcDbBlockReference
  2
_OPEN
 10
369.1364379884265
 20
364.2493771973955
 30
0.0000000000000000
 41
4.000000000000000
 42
4.000000000000000
 43
4.000000000000000
 50
180.0000000000000
  0
LINE
  5
2B3
100
AcDbEntity
  8
MAIN0
  6
BYBLOCK
 62
0
100
AcDbLine
 10
369.1364379884265
 20
336.0622225707639
 30
0.0000000000000000
 11
369.1364379884265
 21
368.2493771973955
 31
0.0000000000000000
  0
MTEXT
  5
2B4
100
AcDbEntity
  8
MAIN0
  6
BYBLOCK
 62
0
100
AcDbMText
 10
383.6364379884266
 20
367.8493771020280
 30
0.0000000000000000
 40
6.199999809265137
 41
0.0000000000000000
 71
     5
 72
     1
  1
\A1;29
 11
1.000000000000000
 21
0.0000000000000000
 31
0.0000000000000000
  7
STANDARD
  0
ENDBLK
  5
2B5
100
AcDbEntity
  8
MAIN0
  6
CONTINUOUS
 62
3
100
AcDbBlockEnd
  0
BLOCK
  5
2B7
100
AcDbEntity
  8
MAIN0
  6
CONTINUOUS
 62
3
100
AcDbBlockBegin
  2
*D43
 70
    65
 10
0.0
 20
0.0
 30
0.0
  0
LINE
  5
2B8
100
AcDbEntity
  8
MAIN0
  6
BYBLOCK
 62
0
100
AcDbLine
 10
304.1364379884263
 20
336.0622225707638
 30
0.0000000000000000
 11
304.1364379884263
 21
368.2493771973955
 31
0.0000000000000000
  0
LINE
  5
2B9
100
AcDbEntity
  8
MAIN0
  6
BYBLOCK
 62
0
100
AcDbLine
 10
300.1364379884263
 20
364.2493771973955
 30
0.0000000000000000
 11
270.1364379887407
 21
364.2493771973955
 31
0.0000000000000000
  0
INSERT
  5
2BA
100
AcDbEntity
  8
MAIN0
  6
BYBLOCK
 62
0
100
AcDbBlockReference
  2
_OPEN
 10
304.1364379884263
 20
364.2493771973955
 30
0.0000000000000000
 41
4.000000000000000
 42
4.000000000000000
 43
4.000000000000000
 50
360.0000000000000
  0
INSERT
  5
2BB
100
AcDbEntity
  8
MAIN0
  6
BYBLOCK
 62
0
100
AcDbBlockReference
  2
_OPEN
 10
266.1364379887407
 20
364.2493771973955
 30
0.0000000000000000
 41
4.000000000000000
 42
4.000000000000000
 43
4.000000000000000
 50
180.0000000000000
  0
LINE
  5
2BC
100
AcDbEntity
  8
MAIN0
  6
BYBLOCK
 62
0
100
AcDbLine
 10
266.1364379887407
 20
335.7622225707639
 30
0.0000000000000000
 11
266.1364379887407
 21
368.2493771973955
 31
0.0000000000000000
  0
MTEXT
  5
2BD
100
AcDbEntity
  8
MAIN0
  6
BYBLOCK
 62
0
100
AcDbMText
 10
285.1364379885835
 20
367.8493771020280
 30
0.0000000000000000
 40
6.199999809265137
 41
0.0000000000000000
 71
     5
 72
     1
  1
\A1;38
 11
1.000000000000000
 21
0.0000000000000000
 31
0.0000000000000000
  7
STANDARD
  0
ENDBLK
  5
2BE
100
AcDbEntity
  8
MAIN0
  6
CONTINUOUS
 62
3
100
AcDbBlockEnd
  0
BLOCK
  5
2C0
100
AcDbEntity
  8
MAIN0
  6
CONTINUOUS
 62
3
100
AcDbBlockBegin
  2
*D44
 70
    65
 10
0.0
 20
0.0
 30
0.0
  0
LINE
  5
2C1
100
AcDbEntity
  8
MAIN0
  6
BYBLOCK
 62
0
100
AcDbLine
 10
266.1364379887407
 20
335.7622225707639
 30
0.0000000000000000
 11
266.1364379887407
 21
368.2493771973955
 31
0.0000000000000000
  0
LINE
  5
2C2
100
AcDbEntity
  8
MAIN0
  6
BYBLOCK
 62
0
100
AcDbLine
 10
262.1364379887407
 20
364.2493771973955
 30
0.0000000000000000
 11
235.1364379884265
 21
364.2493771973955
 31
0.0000000000000000
  0
INSERT
  5
2C3
100
AcDbEntity
  8
MAIN0
  6
BYBLOCK
 62
0
100
AcDbBlockReference
  2
_OPEN
 10
266.1364379887407
 20
364.2493771973955
 30
0.0000000000000000
 41
4.000000000000000
 42
4.000000000000000
 43
4.000000000000000
 50
360.0000000000000
  0
INSERT
  5
2C4
100
AcDbEntity
  8
MAIN0
  6
BYBLOCK
 62
0
100
AcDbBlockReference
  2
_OPEN
 10
231.1364379884265
 20
364.2493771973955
 30
0.0000000000000000
 41
4.000000000000000
 42
4.000000000000000
 43
4.000000000000000
 50
180.0000000000000
  0
LINE
  5
2C5
100
AcDbEntity
  8
MAIN0
  6
BYBLOCK
 62
0
100
AcDbLine
 10
231.1364379884265
 20
315.6622225707638
 30
0.0000000000000000
 11
231.1364379884265
 21
368.2493771973955
 31
0.0000000000000000
  0
MTEXT
  5
2C6
100
AcDbEntity
  8
MAIN0
  6
BYBLOCK
 62
0
100
AcDbMText
 10
248.6364379885836
 20
367.8493771020280
 30
0.0000000000000000
 40
6.199999809265137
 41
0.0000000000000000
 71
     5
 72
     1
  1
\A1;35
 11
1.000000000000000
 21
0.0000000000000000
 31
0.0000000000000000
  7
STANDARD
  0
ENDBLK
  5
2C7
100
AcDbEntity
  8
MAIN0
  6
CONTINUOUS
 62
3
100
AcDbBlockEnd
  0
BLOCK
  5
2C9
100
AcDbEntity
  8
MAIN0
  6
CONTINUOUS
 62
3
100
AcDbBlockBegin
  2
*D45
 70
    65
 10
0.0
 20
0.0
 30
0.0
  0
LINE
  5
2CA
100
AcDbEntity
  8
MAIN0
  6
BYBLOCK
 62
0
100
AcDbLine
 10
229.7364379645846
 20
334.6622225469220
 30
0.0000000000000000
 11
213.1364379884266
 21
334.6622225469220
 31
0.0000000000000000
  0
LINE
  5
2CB
100
AcDbEntity
  8
MAIN0
  6
BYBLOCK
 62
0
100
AcDbLine
 10
217.1364379884266
 20
330.6622225469220
 30
0.0000000000000000
 11
217.1364379884266
 21
318.6622225469220
 31
0.0000000000000000
  0
INSERT
  5
2CC
100
AcDbEntity
  8
MAIN0
  6
BYBLOCK
 62
0
100
AcDbBlockReference
  2
_OPEN
 10
217.1364379884266
 20
334.6622225469220
 30
0.0000000000000000
 41
4.000000000000000
 42
4.000000000000000
 43
4.000000000000000
 50
90.00000000000000
  0
INSERT
  5
2CD
100
AcDbEntity
  8
MAIN0
  6
BYBLOCK
 62
0
100
AcDbBlockReference
  2
_OPEN
 10
217.1364379884266
 20
314.6622225469220
 30
0.0000000000000000
 41
4.000000000000000
 42
4.000000000000000
 43
4.000000000000000
 50
270.0000000000000
  0
LINE
  5
2CE
100
AcDbEntity
  8
MAIN0
  6
BYBLOCK
 62
0
100
AcDbLine
 10
230.1364379645846
 20
314.6622225469220
 30
0.0000000000000000
 11
213.1364379884266
 21
314.6622225469220
 31
0.0000000000000000
  0
MTEXT
  5
2CF
100
AcDbEntity
  8
MAIN0
  6
BYBLOCK
 62
0
100
AcDbMText
 10
213.5364380837940
 20
324.6622225469220
 30
0.0000000000000000
 40
6.199999809265137
 41
0.0000000000000000
 71
     5
 72
     1
  1
\A1;20
 11
6.123233995736766e-017
 21
1.000000000000000
 31
0.0000000000000000
  7
STANDARD
  0
ENDBLK
  5
2D0
100
AcDbEntity
  8
MAIN0
  6
CONTINUOUS
 62
3
100
AcDbBlockEnd
  0
BLOCK
  5
2D2
100
AcDbEntity
  8
MAIN0
  6
CONTINUOUS
 62
3
100
AcDbBlockBegin
  2
*D46
 70
    65
 10
0.0
 20
0.0
 30
0.0
  0
LINE
  5
2D3
100
AcDbEntity
  8
MAIN0
  6
BYBLOCK
 62
0
100
AcDbLine
 10
230.1364379645846
 20
314.6622225469220
 30
0.0000000000000000
 11
213.1364379884266
 21
314.6622225469220
 31
0.0000000000000000
  0
LINE
  5
2D4
100
AcDbEntity
  8
MAIN0
  6
BYBLOCK
 62
0
100
AcDbLine
 10
217.1364379884266
 20
310.6622225469220
 30
0.0000000000000000
 11
217.1364379884266
 21
298.6622225469221
 31
0.0000000000000000
  0
INSERT
  5
2D5
100
AcDbEntity
  8
MAIN0
  6
BYBLOCK
 62
0
100
AcDbBlockReference
  2
_OPEN
 10
217.1364379884266
 20
314.6622225469220
 30
0.0000000000000000
 41
4.000000000000000
 42
4.000000000000000
 43
4.000000000000000
 50
90.00000000000000
  0
INSERT
  5
2D6
100
AcDbEntity
  8
MAIN0
  6
BYBLOCK
 62
0
100
AcDbBlockReference
  2
_OPEN
 10
217.1364379884266
 20
294.6622225469221
 30
0.0000000000000000
 41
4.000000000000000
 42
4.000000000000000
 43
4.000000000000000
 50
270.0000000000000
  0
LINE
  5
2D7
100
AcDbEntity
  8
MAIN0
  6
BYBLOCK
 62
0
100
AcDbLine
 10
229.9364379645846
 20
294.6622225469221
 30
0.0000000000000000
 11
213.1364379884266
 21
294.6622225469221
 31
0.0000000000000000
  0
MTEXT
  5
2D8
100
AcDbEntity
  8
MAIN0
  6
BYBLOCK
 62
0
100
AcDbMText
 10
213.5364380837940
 20
304.6622225469220
 30
0.0000000000000000
 40
6.199999809265137
 41
0.0000000000000000
 71
     5
 72
     1
  1
\A1;20
 11
6.123233995736766e-017
 21
1.000000000000000
 31
0.0000000000000000
  7
STANDARD
  0
ENDBLK
  5
2D9
100
AcDbEntity
  8
MAIN0
  6
CONTINUOUS
 62
3
100
AcDbBlockEnd
  0
BLOCK
  5
2ED
100
AcDbEntity
  8
MAIN0
  6
CONTINUOUS
 62
3
100
AcDbBlockBegin
  2
*D47
 70
    65
 10
0.0
 20
0.0
 30
0.0
  0
LINE
  5
2EE
100
AcDbEntity
  8
MAIN0
  6
BYBLOCK
 62
0
100
AcDbLine
 10
230.1364379884379
 20
228.4622225232182
 30
0.0000000000000000
 11
230.1364379884378
 21
150.0971606853822
 31
0.0000000000000000
  0
LINE
  5
2EF
100
AcDbEntity
  8
MAIN0
  6
BYBLOCK
 62
0
100
AcDbLine
 10
234.1364379884378
 20
154.0971606853822
 30
0.0000000000000000
 11
581.6364379884316
 21
154.0971606853822
 31
0.0000000000000000
  0
INSERT
  5
2F0
100
AcDbEntity
  8
MAIN0
  6
BYBLOCK
 62
0
100
AcDbBlockReference
  2
_OPEN
 10
230.1364379884378
 20
154.0971606853822
 30
0.0000000000000000
 41
4.000000000000000
 42
4.000000000000000
 43
4.000000000000000
 50
180.0000000000000
  0
INSERT
  5
2F1
100
AcDbEntity
  8
MAIN0
  6
BYBLOCK
 62
0
100
AcDbBlockReference
  2
_OPEN
 10
585.6364379884316
 20
154.0971606853822
 30
0.0000000000000000
 41
4.000000000000000
 42
4.000000000000000
 43
4.000000000000000
 50
0.0000000000000000
  0
LINE
  5
2F2
100
AcDbEntity
  8
MAIN0
  6
BYBLOCK
 62
0
100
AcDbLine
 10
585.6364379884316
 20
237.0622225228000
 30
0.0000000000000000
 11
585.6364379884316
 21
150.0971606853822
 31
0.0000000000000000
  0
MTEXT
  5
2F3
100
AcDbEntity
  8
MAIN0
  6
BYBLOCK
 62
0
100
AcDbMText
 10
407.8864379884347
 20
157.6971605900147
 30
0.0000000000000000
 40
6.199999809265137
 41
0.0000000000000000
 71
     5
 72
     1
  1
\A1;355.5
 11
1.000000000000000
 21
0.0000000000000000
 31
0.0000000000000000
  7
STANDARD
  0
ENDBLK
  5
2F4
100
AcDbEntity
  8
MAIN0
  6
CONTINUOUS
 62
3
100
AcDbBlockEnd
  0
BLOCK
  5
30A
100
AcDbEntity
  8
MAIN0
  6
CONTINUOUS
 62
3
100
AcDbBlockBegin
  2
*D48
 70
    65
 10
0.0
 20
0.0
 30
0.0
  0
LINE
  5
30B
100
AcDbEntity
  8
MAIN0
  6
BYBLOCK
 62
0
100
AcDbLine
 10
383.1364379884375
 20
223.0622225231005
 30
0.0000000000000000
 11
383.1364379884375
 21
202.6622225469133
 31
0.0000000000000000
  0
LINE
  5
30C
100
AcDbEntity
  8
MAIN0
  6
BYBLOCK
 62
0
100
AcDbLine
 10
383.1364379884375
 20
206.6622225469133
 30
0.0000000000000000
 11
397.1364379884375
 21
206.6622225469133
 31
0.0000000000000000
  0
INSERT
  5
30D
100
AcDbEntity
  8
MAIN0
  6
BYBLOCK
 62
0
100
AcDbBlockReference
  2
_OPEN
 10
383.1364379884375
 20
206.6622225469133
 30
0.0000000000000000
 41
4.000000000000000
 42
4.000000000000000
 43
4.000000000000000
 50
0.0000000000000000
  0
INSERT
  5
30E
100
AcDbEntity
  8
MAIN0
  6
BYBLOCK
 62
0
100
AcDbBlockReference
  2
_OPEN
 10
397.1364379884375
 20
206.6622225469133
 30
0.0000000000000000
 41
4.000000000000000
 42
4.000000000000000
 43
4.000000000000000
 50
180.0000000000000
  0
LINE
  5
30F
100
AcDbEntity
  8
MAIN0
  6
BYBLOCK
 62
0
100
AcDbLine
 10
379.1364379884375
 20
206.6622225469133
 30
0.0000000000000000
 11
377.1364379884375
 21
206.6622225469133
 31
0.0000000000000000
  0
LINE
  5
310
100
AcDbEntity
  8
MAIN0
  6
BYBLOCK
 62
0
100
AcDbLine
 10
401.1364379884375
 20
206.6622225469133
 30
0.0000000000000000
 11
408.3072745409566
 21
206.6622225469133
 31
0.0000000000000000
  0
LINE
  5
311
100
AcDbEntity
  8
MAIN0
  6
BYBLOCK
 62
0
100
AcDbLine
 10
397.1364379884375
 20
223.0622225231005
 30
0.0000000000000000
 11
397.1364379884375
 21
202.6622225469133
 31
0.0000000000000000
  0
MTEXT
  5
312
100
AcDbEntity
  8
MAIN0
  6
BYBLOCK
 62
0
100
AcDbMText
 10
404.2072746363240
 20
210.7622224515459
 30
0.0000000000000000
 40
6.199999809265137
 41
0.0000000000000000
 71
     5
 72
     1
  1
\A1;14
 11
1.000000000000000
 21
0.0000000000000000
 31
0.0000000000000000
  7
STANDARD
  0
ENDBLK
  5
313
100
AcDbEntity
  8
MAIN0
  6
CONTINUOUS
 62
3
100
AcDbBlockEnd
  0
BLOCK
  5
315
100
AcDbEntity
  8
MAIN0
  6
CONTINUOUS
 62
3
100
AcDbBlockBegin
  2
*D49
 70
    65
 10
0.0
 20
0.0
 30
0.0
  0
LINE
  5
316
100
AcDbEntity
  8
MAIN0
  6
BYBLOCK
 62
0
100
AcDbLine
 10
304.1364379884263
 20
293.4622225230802
 30
0.0000000000000000
 11
304.1364379884263
 21
192.9238663209812
 31
0.0000000000000000
  0
LINE
  5
317
100
AcDbEntity
  8
MAIN0
  6
BYBLOCK
 62
0
100
AcDbLine
 10
308.1364379884263
 20
196.9238663209812
 30
0.0000000000000000
 11
386.1364379884375
 21
196.9238663209812
 31
0.0000000000000000
  0
INSERT
  5
318
100
AcDbEntity
  8
MAIN0
  6
BYBLOCK
 62
0
100
AcDbBlockReference
  2
_OPEN
 10
304.1364379884263
 20
196.9238663209812
 30
0.0000000000000000
 41
4.000000000000000
 42
4.000000000000000
 43
4.000000000000000
 50
180.0000000000000
  0
INSERT
  5
319
100
AcDbEntity
  8
MAIN0
  6
BYBLOCK
 62
0
100
AcDbBlockReference
  2
_OPEN
 10
390.1364379884375
 20
196.9238663209812
 30
0.0000000000000000
 41
4.000000000000000
 42
4.000000000000000
 43
4.000000000000000
 50
0.0000000000000000
  0
LINE
  5
31A
100
AcDbEntity
  8
MAIN0
  6
BYBLOCK
 62
0
100
AcDbLine
 10
390.1364379884375
 20
220.0622225230723
 30
0.0000000000000000
 11
390.1364379884375
 21
192.9238663209812
 31
0.0000000000000000
  0
MTEXT
  5
31B
100
AcDbEntity
  8
MAIN0
  6
BYBLOCK
 62
0
100
AcDbMText
 10
347.1364379884319
 20
200.5238662256138
 30
0.0000000000000000
 40
6.199999809265137
 41
0.0000000000000000
 71
     5
 72
     1
  1
\A1;86
 11
1.000000000000000
 21
0.0000000000000000
 31
0.0000000000000000
  7
STANDARD
  0
ENDBLK
  5
31C
100
AcDbEntity
  8
MAIN0
  6
CONTINUOUS
 62
3
100
AcDbBlockEnd
  0
BLOCK
  5
31E
100
AcDbEntity
  8
MAIN0
  6
CONTINUOUS
 62
3
100
AcDbBlockBegin
  2
*D50
 70
    65
 10
0.0
 20
0.0
 30
0.0
  0
LINE
  5
31F
100
AcDbEntity
  8
MAIN0
  6
BYBLOCK
 62
0
100
AcDbLine
 10
381.5364379645957
 20
224.6622225469424
 30
0.0000000000000000
 11
365.7063004095036
 21
224.6622225469424
 31
0.0000000000000000
  0
LINE
  5
320
100
AcDbEntity
  8
MAIN0
  6
BYBLOCK
 62
0
100
AcDbLine
 10
369.7063004095036
 20
224.6622225469424
 30
0.0000000000000000
 11
369.7063004095036
 21
229.6622225468986
 31
0.0000000000000000
  0
INSERT
  5
321
100
AcDbEntity
  8
MAIN0
  6
BYBLOCK
 62
0
100
AcDbBlockReference
  2
_OPEN
 10
369.7063004095036
 20
224.6622225469424
 30
0.0000000000000000
 41
4.000000000000000
 42
4.000000000000000
 43
4.000000000000000
 50
90.00000000000000
  0
INSERT
  5
322
100
AcDbEntity
  8
MAIN0
  6
BYBLOCK
 62
0
100
AcDbBlockReference
  2
_OPEN
 10
369.7063004095036
 20
229.6622225468986
 30
0.0000000000000000
 41
4.000000000000000
 42
4.000000000000000
 43
4.000000000000000
 50
270.0000000000000
  0
LINE
  5
323
100
AcDbEntity
  8
MAIN0
  6
BYBLOCK
 62
0
100
AcDbLine
 10
369.7063004095036
 20
220.6622225469424
 30
0.0000000000000000
 11
369.7063004095036
 21
215.5463950969465
 31
0.0000000000000000
  0
LINE
  5
324
100
AcDbEntity
  8
MAIN0
  6
BYBLOCK
 62
0
100
AcDbLine
 10
369.7063004095036
 20
233.6622225468986
 30
0.0000000000000000
 11
369.7063004095036
 21
235.6622225468986
 31
0.0000000000000000
  0
MTEXT
  5
325
100
AcDbEntity
  8
MAIN0
  6
BYBLOCK
 62
0
100
AcDbMText
 10
365.6063005048710
 20
217.5463950969465
 30
0.0000000000000000
 40
6.199999809265137
 41
0.0000000000000000
 71
     5
 72
     1
  1
\A1;5
 11
6.123233995736766e-017
 21
1.000000000000000
 31
0.0000000000000000
  7
STANDARD
  0
ENDBLK
  5
326
100
AcDbEntity
  8
MAIN0
  6
CONTINUOUS
 62
3
100
AcDbBlockEnd
  0
BLOCK
  5
345
100
AcDbEntity
  8
MAIN0
  6
CONTINUOUS
 62
3
100
AcDbBlockBegin
  2
*D51
 70
    65
 10
0.0
 20
0.0
 30
0.0
  0
LINE
  5
346
100
AcDbEntity
  8
MAIN0
  6
BYBLOCK
 62
0
100
AcDbLine
 10
730.9269863180471
 20
453.0897949569749
 30
0.0000000000000000
 11
730.9269863180471
 21
490.1308545197451
 31
0.0000000000000000
  0
LINE
  5
347
100
AcDbEntity
  8
MAIN0
  6
BYBLOCK
 62
0
100
AcDbLine
 10
726.9269863180471
 20
486.1308545197451
 30
0.0000000000000000
 11
605.4269863180479
 21
486.1308545197451
 31
0.0000000000000000
  0
INSERT
  5
348
100
AcDbEntity
  8
MAIN0
  6
BYBLOCK
 62
0
100
AcDbBlockReference
  2
_OPEN
 10
730.9269863180471
 20
486.1308545197451
 30
0.0000000000000000
 41
4.000000000000000
 42
4.000000000000000
 43
4.000000000000000
 50
360.0000000000000
  0
INSERT
  5
349
100
AcDbEntity
  8
MAIN0
  6
BYBLOCK
 62
0
100
AcDbBlockReference
  2
_OPEN
 10
601.4269863180479
 20
486.1308545197451
 30
0.0000000000000000
 41
4.000000000000000
 42
4.000000000000000
 43
4.000000000000000
 50
180.0000000000000
  0
LINE
  5
34A
100
AcDbEntity
  8
MAIN0
  6
BYBLOCK
 62
0
100
AcDbLine
 10
601.4269863180479
 20
324.4897949569749
 30
0.0000000000000000
 11
601.4269863180479
 21
490.1308545197451
 31
0.0000000000000000
  0
MTEXT
  5
34B
100
AcDbEntity
  8
MAIN0
  6
BYBLOCK
 62
0
100
AcDbMText
 10
666.1769863180475
 20
489.7308544243776
 30
0.0000000000000000
 40
6.199999809265137
 41
0.0000000000000000
 71
     5
 72
     1
  1
\A1;129.5
 11
1.000000000000000
 21
0.0000000000000000
 31
0.0000000000000000
  7
STANDARD
  0
ENDBLK
  5
34C
100
AcDbEntity
  8
MAIN0
  6
CONTINUOUS
 62
3
100
AcDbBlockEnd
  0
BLOCK
  5
34E
100
AcDbEntity
  8
MAIN0
  6
CONTINUOUS
 62
3
100
AcDbBlockBegin
  2
*D52
 70
    65
 10
0.0
 20
0.0
 30
0.0
  0
LINE
  5
34F
100
AcDbEntity
  8
MAIN0
  6
BYBLOCK
 62
0
100
AcDbLine
 10
643.6677357197060
 20
451.4897949331330
 30
0.0000000000000000
 11
580.5481748623438
 21
451.4897949331329
 31
0.0000000000000000
  0
LINE
  5
350
100
AcDbEntity
  8
MAIN0
  6
BYBLOCK
 62
0
100
AcDbLine
 10
584.5481748623438
 20
447.4897949331329
 30
0.0000000000000000
 11
584.5481748623438
 21
320.4897949331330
 31
0.0000000000000000
  0
INSERT
  5
351
100
AcDbEntity
  8
MAIN0
  6
BYBLOCK
 62
0
100
AcDbBlockReference
  2
_OPEN
 10
584.5481748623438
 20
451.4897949331329
 30
0.0000000000000000
 41
4.000000000000000
 42
4.000000000000000
 43
4.000000000000000
 50
90.00000000000000
  0
INSERT
  5
352
100
AcDbEntity
  8
MAIN0
  6
BYBLOCK
 62
0
100
AcDbBlockReference
  2
_OPEN
 10
584.5481748623438
 20
316.4897949331330
 30
0.0000000000000000
 41
4.000000000000000
 42
4.000000000000000
 43
4.000000000000000
 50
270.0000000000000
  0
LINE
  5
353
100
AcDbEntity
  8
MAIN0
  6
BYBLOCK
 62
0
100
AcDbLine
 10
591.5364379645901
 20
316.4897949331330
 30
0.0000000000000000
 11
580.5481748623438
 21
316.4897949331330
 31
0.0000000000000000
  0
MTEXT
  5
354
100
AcDbEntity
  8
MAIN0
  6
BYBLOCK
 62
0
100
AcDbMText
 10
580.9481749577112
 20
383.9897949331329
 30
0.0000000000000000
 40
6.199999809265137
 41
0.0000000000000000
 71
     5
 72
     1
  1
\A1;135
 11
6.123233995736766e-017
 21
1.000000000000000
 31
0.0000000000000000
  7
STANDARD
  0
ENDBLK
  5
355
100
AcDbEntity
  8
MAIN0
  6
CONTINUOUS
 62
3
100
AcDbBlockEnd
  0
BLOCK
  5
357
100
AcDbEntity
  8
MAIN0
  6
CONTINUOUS
 62
3
100
AcDbBlockBegin
  2
*D53
 70
    65
 10
0.0
 20
0.0
 30
0.0
  0
LINE
  5
358
100
AcDbEntity
  8
MAIN0
  6
BYBLOCK
 62
0
100
AcDbLine
 10
708.0088485430438
 20
228.0622225228968
 30
0.0000000000000000
 11
708.0088485430439
 21
191.3454961069604
 31
0.0000000000000000
  0
LINE
  5
359
100
AcDbEntity
  8
MAIN0
  6
BYBLOCK
 62
0
100
AcDbLine
 10
704.0088485430439
 20
195.3454961069604
 30
0.0000000000000000
 11
695.0088485430445
 21
195.3454961069604
 31
0.0000000000000000
  0
INSERT
  5
35A
100
AcDbEntity
  8
MAIN0
  6
BYBLOCK
 62
0
100
AcDbBlockReference
  2
_OPEN
 10
708.0088485430439
 20
195.3454961069604
 30
0.0000000000000000
 41
4.000000000000000
 42
4.000000000000000
 43
4.000000000000000
 50
360.0000000000000
  0
INSERT
  5
35B
100
AcDbEntity
  8
MAIN0
  6
BYBLOCK
 62
0
100
AcDbBlockReference
  2
_OPEN
 10
691.0088485430445
 20
195.3454961069604
 30
0.0000000000000000
 41
4.000000000000000
 42
4.000000000000000
 43
4.000000000000000
 50
180.0000000000000
  0
MTEXT
  5
35C
100
AcDbEntity
  8
MAIN0
  6
BYBLOCK
 62
0
100
AcDbMText
 10
698.9482324838979
 20
199.4454960115930
 30
0.0000000000000000
 40
6.199999809265137
 41
0.0000000000000000
 71
     5
 72
     1
  1
\A1;17
 11
1.000000000000000
 21
0.0000000000000000
 31
0.0000000000000000
  7
STANDARD
  0
ENDBLK
  5
35D
100
AcDbEntity
  8
MAIN0
  6
CONTINUOUS
 62
3
100
AcDbBlockEnd
  0
BLOCK
  5
35F
100
AcDbEntity
  8
MAIN0
  6
CONTINUOUS
 62
3
100
AcDbBlockBegin
  2
D54
 70
    64
 10
0.0
 20
0.0
 30
0.0
  0
LINE
  5
360
100
AcDbEntity
  8
MAIN0
  6
BYBLOCK
 62
0
100
AcDbLine
 10
6.612957353848742
 20
-46.33112917301515
 30
0.0000000000000000
 11
-91.50000000000034
 21
-46.33112917301497
 31
0.0000000000000000
  0
LINE
  5
361
100
AcDbEntity
  8
MAIN0
  6
BYBLOCK
 62
0
100
AcDbLine
 10
-87.50000000000034
 20
-47.53112922069869
 30
0.0000000000000000
 11
-91.50000000000034
 21
-46.33112917301497
 31
0.0000000000000000
  0
LINE
  5
362
100
AcDbEntity
  8
MAIN0
  6
BYBLOCK
 62
0
100
AcDbLine
 10
-91.50000000000034
 20
-46.33112917301497
 30
0.0000000000000000
 11
-87.50000000000034
 21
-45.13112912533126
 31
0.0000000000000000
  0
LINE
  5
363
100
AcDbEntity
  8
MAIN0
  6
BYBLOCK
 62
0
100
AcDbLine
 10
-91.50000000000017
 20
29.39520758666715
 30
0.0000000000000000
 11
-91.50000000000034
 21
-50.33112917301497
 31
0.0000000000000000
  0
MTEXT
  5
364
100
AcDbEntity
  8
MAIN0
  6
BYBLOCK
 62
0
100
AcDbMText
 10
-10.05850167181586
 20
-42.23112926838252
 30
0.0000000000000000
 40
6.199999809265137
 41
0.0000000000000000
 71
     5
 72
     1
  1
\A1;（183）
 11
1.000000000000000
 21
0.0000000000000000
 31
0.0000000000000000
  7
KNJYOKO
  0
ENDBLK
  5
365
100
AcDbEntity
  8
MAIN0
  6
CONTINUOUS
 62
3
100
AcDbBlockEnd
  0
BLOCK
  5
3EB
100
AcDbEntity
  8
MAIN0
  6
CONTINUOUS
 62
3
100
AcDbBlockBegin
  2
*D55
 70
    65
 10
0.0
 20
0.0
 30
0.0
  0
LINE
  5
3EC
100
AcDbEntity
  8
MAIN0
  6
BYBLOCK
 62
0
100
AcDbLine
 10
709.5088485430442
 20
336.2622225700810
 30
0.0000000000000000
 11
709.5088485430442
 21
364.3095218396290
 31
0.0000000000000000
  0
LINE
  5
3ED
100
AcDbEntity
  8
MAIN0
  6
BYBLOCK
 62
0
100
AcDbLine
 10
713.5088485430442
 20
360.3095218396290
 30
0.0000000000000000
 11
805.5088485430440
 21
360.3095218396290
 31
0.0000000000000000
  0
INSERT
  5
3EE
100
AcDbEntity
  8
MAIN0
  6
BYBLOCK
 62
0
100
AcDbBlockReference
  2
_OPEN
 10
709.5088485430442
 20
360.3095218396290
 30
0.0000000000000000
 41
4.000000000000000
 42
4.000000000000000
 43
4.000000000000000
 50
180.0000000000000
  0
INSERT
  5
3EF
100
AcDbEntity
  8
MAIN0
  6
BYBLOCK
 62
0
100
AcDbBlockReference
  2
_OPEN
 10
809.5088485430440
 20
360.3095218396290
 30
0.0000000000000000
 41
4.000000000000000
 42
4.000000000000000
 43
4.000000000000000
 50
0.0000000000000000
  0
LINE
  5
3F0
100
AcDbEntity
  8
MAIN0
  6
BYBLOCK
 62
0
100
AcDbLine
 10
809.5088485430440
 20
336.2622225700810
 30
0.0000000000000000
 11
809.5088485430440
 21
364.3095218396290
 31
0.0000000000000000
  0
MTEXT
  5
3F1
100
AcDbEntity
  8
MAIN0
  6
BYBLOCK
 62
0
100
AcDbMText
 10
759.5088485430441
 20
363.9095217442616
 30
0.0000000000000000
 40
6.199999809265137
 41
0.0000000000000000
 71
     5
 72
     1
  1
\A1;100
 11
1.000000000000000
 21
0.0000000000000000
 31
0.0000000000000000
  7
STANDARD
  0
ENDBLK
  5
3F2
100
AcDbEntity
  8
MAIN0
  6
CONTINUOUS
 62
3
100
AcDbBlockEnd
  0
ENDSEC
  0
SECTION
  2
ENTITIES
  0
LINE
  5
46
100
AcDbEntity
  8
MAIN0
  6
PHANTOM
 62
3
100
AcDbLine
 10
706.0088485430441
 20
229.6622225467384
 30
0.0000000000000000
 11
658.4453725843509
 21
229.6622225467385
 31
0.0000000000000000
  0
LINE
  5
47
100
AcDbEntity
  8
MAIN0
  6
CENTER
 62
3
100
AcDbLine
 10
235.1364379884134
 20
524.9847318745524
 30
0.0000000000000000
 11
256.1364379884134
 21
524.9847318745523
 31
0.0000000000000000
  0
LINE
  5
48
100
AcDbEntity
  8
MAIN0
  6
CENTER
 62
3
100
AcDbLine
 10
245.6364379884133
 20
514.4847318745522
 30
0.0000000000000000
 11
245.6364379884134
 21
535.4847318745522
 31
0.0000000000000000
  0
CIRCLE
  5
49
100
AcDbEntity
  8
MAIN0
  6
HIDDEN
 62
3
100
AcDbCircle
 10
245.6364379884134
 20
524.9847318745524
 30
0.0000000000000000
 40
8.000000000000000
  0
LINE
  5
4A
100
AcDbEntity
  8
MAIN0
  6
HIDDEN
 62
3
100
AcDbLine
 10
241.0176358348965
 20
524.9847318745523
 30
0.0000000000000000
 11
243.3270369116550
 21
520.9847318745523
 31
0.0000000000000000
  0
LINE
  5
4B
100
AcDbEntity
  8
MAIN0
  6
HIDDEN
 62
3
100
AcDbLine
 10
243.3270369116549
 20
520.9847318745522
 30
0.0000000000000000
 11
247.9458390651719
 21
520.9847318745522
 31
0.0000000000000000
  0
LINE
  5
4C
100
AcDbEntity
  8
MAIN0
  6
HIDDEN
 62
3
100
AcDbLine
 10
247.9458390651721
 20
520.9847318745526
 30
0.0000000000000000
 11
250.2552401419306
 21
524.9847318745526
 31
0.0000000000000000
  0
LINE
  5
4D
100
AcDbEntity
  8
MAIN0
  6
HIDDEN
 62
3
100
AcDbLine
 10
250.2552401419306
 20
524.9847318745523
 30
0.0000000000000000
 11
247.9458390651720
 21
528.9847318745524
 31
0.0000000000000000
  0
LINE
  5
4E
100
AcDbEntity
  8
MAIN0
  6
HIDDEN
 62
3
100
AcDbLine
 10
247.9458390651720
 20
528.9847318745522
 30
0.0000000000000000
 11
243.3270369116550
 21
528.9847318745522
 31
0.0000000000000000
  0
LINE
  5
4F
100
AcDbEntity
  8
MAIN0
  6
HIDDEN
 62
3
100
AcDbLine
 10
243.3270369116550
 20
528.9847318745525
 30
0.0000000000000000
 11
241.0176358348964
 21
524.9847318745522
 31
0.0000000000000000
  0
LINE
  5
50
100
AcDbEntity
  8
MAIN0
  6
CENTER
 62
3
100
AcDbLine
 10
235.1364379883347
 20
448.9847318741817
 30
0.0000000000000000
 11
256.1364379883347
 21
448.9847318741382
 31
0.0000000000000000
  0
LINE
  5
51
100
AcDbEntity
  8
MAIN0
  6
CENTER
 62
3
100
AcDbLine
 10
245.6364379883563
 20
459.4847318741601
 30
0.0000000000000000
 11
245.6364379883129
 21
438.4847318741601
 31
0.0000000000000000
  0
CIRCLE
  5
52
100
AcDbEntity
  8
MAIN0
  6
HIDDEN
 62
3
100
AcDbCircle
 10
245.6364379883347
 20
448.9847318741599
 30
0.0000000000000000
 40
8.000000000000000
  0
LINE
  5
53
100
AcDbEntity
  8
MAIN0
  6
HIDDEN
 62
3
100
AcDbLine
 10
241.0176358348177
 20
448.9847318741696
 30
0.0000000000000000
 11
243.3270369115845
 21
452.9847318741648
 31
0.0000000000000000
  0
LINE
  5
54
100
AcDbEntity
  8
MAIN0
  6
HIDDEN
 62
3
100
AcDbLine
 10
243.3270369115845
 20
452.9847318741649
 30
0.0000000000000000
 11
247.9458390651015
 21
452.9847318741554
 31
0.0000000000000000
  0
LINE
  5
55
100
AcDbEntity
  8
MAIN0
  6
HIDDEN
 62
3
100
AcDbLine
 10
247.9458390651016
 20
452.9847318741549
 30
0.0000000000000000
 11
250.2552401418518
 21
448.9847318741502
 31
0.0000000000000000
  0
LINE
  5
56
100
AcDbEntity
  8
MAIN0
  6
HIDDEN
 62
3
100
AcDbLine
 10
250.2552401418519
 20
448.9847318741504
 30
0.0000000000000000
 11
247.9458390650849
 21
444.9847318741551
 31
0.0000000000000000
  0
LINE
  5
57
100
AcDbEntity
  8
MAIN0
  6
HIDDEN
 62
3
100
AcDbLine
 10
247.9458390650849
 20
444.9847318741553
 30
0.0000000000000000
 11
243.3270369115679
 21
444.9847318741649
 31
0.0000000000000000
  0
LINE
  5
58
100
AcDbEntity
  8
MAIN0
  6
HIDDEN
 62
3
100
AcDbLine
 10
243.3270369115680
 20
444.9847318741645
 30
0.0000000000000000
 11
241.0176358348176
 21
448.9847318741696
 31
0.0000000000000000
  0
CIRCLE
  5
59
100
AcDbEntity
  8
MAIN0
  6
CONTINUOUS
 62
3
100
AcDbCircle
 10
289.6364379884134
 20
524.9847318745524
 30
0.0000000000000000
 40
8.750000000000000
  0
LINE
  5
5A
100
AcDbEntity
  8
MAIN0
  6
HIDDEN
 62
3
100
AcDbLine
 10
294.2552401419393
 20
448.9847318746341
 30
0.0000000000000000
 11
291.9458390651807
 21
452.9847318746341
 31
0.0000000000000000
  0
LINE
  5
5B
100
AcDbEntity
  8
MAIN0
  6
HIDDEN
 62
3
100
AcDbLine
 10
291.9458390651807
 20
452.9847318746340
 30
0.0000000000000000
 11
287.3270369116637
 21
452.9847318746340
 31
0.0000000000000000
  0
LINE
  5
5C
100
AcDbEntity
  8
MAIN0
  6
HIDDEN
 62
3
100
AcDbLine
 10
287.3270369116638
 20
452.9847318746344
 30
0.0000000000000000
 11
285.0176358349051
 21
448.9847318746340
 31
0.0000000000000000
  0
LINE
  5
5D
100
AcDbEntity
  8
MAIN0
  6
HIDDEN
 62
3
100
AcDbLine
 10
285.0176358349052
 20
448.9847318746341
 30
0.0000000000000000
 11
287.3270369116636
 21
444.9847318746341
 31
0.0000000000000000
  0
LINE
  5
5E
100
AcDbEntity
  8
MAIN0
  6
HIDDEN
 62
3
100
AcDbLine
 10
287.3270369116636
 20
444.9847318746340
 30
0.0000000000000000
 11
291.9458390651806
 21
444.9847318746340
 31
0.0000000000000000
  0
LINE
  5
5F
100
AcDbEntity
  8
MAIN0
  6
HIDDEN
 62
3
100
AcDbLine
 10
291.9458390651807
 20
444.9847318746344
 30
0.0000000000000000
 11
294.2552401419392
 21
448.9847318746344
 31
0.0000000000000000
  0
CIRCLE
  5
60
100
AcDbEntity
  8
MAIN0
  6
HIDDEN
 62
3
100
AcDbCircle
 10
289.6364379884221
 20
448.9847318746342
 30
0.0000000000000000
 40
8.000000000000000
  0
CIRCLE
  5
61
100
AcDbEntity
  8
MAIN0
  6
CONTINUOUS
 62
3
100
AcDbCircle
 10
289.6364379884221
 20
448.9847318746342
 30
0.0000000000000000
 40
8.750000000000000
  0
LINE
  5
62
100
AcDbEntity
  8
MAIN0
  6
CONTINUOUS
 62
3
100
AcDbLine
 10
254.2552401419493
 20
464.4847318738717
 30
0.0000000000000000
 11
251.9458390651906
 21
468.4847318738717
 31
0.0000000000000000
  0
LINE
  5
63
100
AcDbEntity
  8
MAIN0
  6
CONTINUOUS
 62
3
100
AcDbLine
 10
251.9458390651906
 20
468.4847318738716
 30
0.0000000000000000
 11
247.3270369116736
 21
468.4847318738716
 31
0.0000000000000000
  0
LINE
  5
64
100
AcDbEntity
  8
MAIN0
  6
CONTINUOUS
 62
3
100
AcDbLine
 10
247.3270369116737
 20
468.4847318738720
 30
0.0000000000000000
 11
245.0176358349150
 21
464.4847318738717
 31
0.0000000000000000
  0
LINE
  5
65
100
AcDbEntity
  8
MAIN0
  6
CONTINUOUS
 62
3
100
AcDbLine
 10
245.0176358349151
 20
464.4847318738717
 30
0.0000000000000000
 11
247.3270369116736
 21
460.4847318738717
 31
0.0000000000000000
  0
LINE
  5
66
100
AcDbEntity
  8
MAIN0
  6
CONTINUOUS
 62
3
100
AcDbLine
 10
247.3270369116736
 20
460.4847318738717
 30
0.0000000000000000
 11
251.9458390651906
 21
460.4847318738716
 31
0.0000000000000000
  0
LINE
  5
67
100
AcDbEntity
  8
MAIN0
  6
CONTINUOUS
 62
3
100
AcDbLine
 10
251.9458390651907
 20
460.4847318738720
 30
0.0000000000000000
 11
254.2552401419492
 21
464.4847318738720
 31
0.0000000000000000
  0
CIRCLE
  5
68
100
AcDbEntity
  8
MAIN0
  6
CONTINUOUS
 62
3
100
AcDbCircle
 10
249.6364379884321
 20
464.4847318738719
 30
0.0000000000000000
 40
8.000000000000000
  0
LINE
  5
69
100
AcDbEntity
  8
MAIN0
  6
CONTINUOUS
 62
3
100
AcDbLine
 10
254.2552401419493
 20
509.4847318739693
 30
0.0000000000000000
 11
251.9458390651907
 21
513.4847318739694
 31
0.0000000000000000
  0
LINE
  5
6A
100
AcDbEntity
  8
MAIN0
  6
CONTINUOUS
 62
3
100
AcDbLine
 10
251.9458390651907
 20
513.4847318739692
 30
0.0000000000000000
 11
247.3270369116737
 21
513.4847318739692
 31
0.0000000000000000
  0
LINE
  5
6B
100
AcDbEntity
  8
MAIN0
  6
CONTINUOUS
 62
3
100
AcDbLine
 10
247.3270369116738
 20
513.4847318739695
 30
0.0000000000000000
 11
245.0176358349151
 21
509.4847318739692
 31
0.0000000000000000
  0
LINE
  5
6C
100
AcDbEntity
  8
MAIN0
  6
CONTINUOUS
 62
3
100
AcDbLine
 10
245.0176358349152
 20
509.4847318739693
 30
0.0000000000000000
 11
247.3270369116736
 21
505.4847318739693
 31
0.0000000000000000
  0
LINE
  5
6D
100
AcDbEntity
  8
MAIN0
  6
CONTINUOUS
 62
3
100
AcDbLine
 10
247.3270369116736
 20
505.4847318739692
 30
0.0000000000000000
 11
251.9458390651906
 21
505.4847318739692
 31
0.0000000000000000
  0
LINE
  5
6E
100
AcDbEntity
  8
MAIN0
  6
CONTINUOUS
 62
3
100
AcDbLine
 10
251.9458390651908
 20
505.4847318739695
 30
0.0000000000000000
 11
254.2552401419493
 21
509.4847318739695
 31
0.0000000000000000
  0
CIRCLE
  5
6F
100
AcDbEntity
  8
MAIN0
  6
CONTINUOUS
 62
3
100
AcDbCircle
 10
249.6364379884321
 20
509.4847318739694
 30
0.0000000000000000
 40
8.000000000000000
  0
LINE
  5
70
100
AcDbEntity
  8
MAIN0
  6
CENTER
 62
3
100
AcDbLine
 10
429.1364379306869
 20
468.4847318742786
 30
0.0000000000000000
 11
408.1364379306869
 21
468.4847318743222
 31
0.0000000000000000
  0
LINE
  5
71
100
AcDbEntity
  8
MAIN0
  6
CENTER
 62
3
100
AcDbLine
 10
418.6364379306652
 20
457.9847318743005
 30
0.0000000000000000
 11
418.6364379307088
 21
478.9847318743005
 31
0.0000000000000000
  0
CIRCLE
  5
72
100
AcDbEntity
  8
MAIN0
  6
HIDDEN
 62
3
100
AcDbCircle
 10
418.6364379306870
 20
468.4847318743005
 30
0.0000000000000000
 40
8.000000000000000
  0
LINE
  5
73
100
AcDbEntity
  8
MAIN0
  6
HIDDEN
 62
3
100
AcDbLine
 10
423.2552400842040
 20
468.4847318742907
 30
0.0000000000000000
 11
420.9458390074373
 21
464.4847318742955
 31
0.0000000000000000
  0
LINE
  5
74
100
AcDbEntity
  8
MAIN0
  6
HIDDEN
 62
3
100
AcDbLine
 10
420.9458390074371
 20
464.4847318742957
 30
0.0000000000000000
 11
416.3270368539202
 21
464.4847318743052
 31
0.0000000000000000
  0
LINE
  5
75
100
AcDbEntity
  8
MAIN0
  6
HIDDEN
 62
3
100
AcDbLine
 10
416.3270368539205
 20
464.4847318743051
 30
0.0000000000000000
 11
414.0176357771703
 21
468.4847318743099
 31
0.0000000000000000
  0
LINE
  5
76
100
AcDbEntity
  8
MAIN0
  6
HIDDEN
 62
3
100
AcDbLine
 10
414.0176357771701
 20
468.4847318743098
 30
0.0000000000000000
 11
416.3270368539370
 21
472.4847318743052
 31
0.0000000000000000
  0
LINE
  5
77
100
AcDbEntity
  8
MAIN0
  6
HIDDEN
 62
3
100
AcDbLine
 10
416.3270368539368
 20
472.4847318743052
 30
0.0000000000000000
 11
420.9458390074537
 21
472.4847318742957
 31
0.0000000000000000
  0
LINE
  5
78
100
AcDbEntity
  8
MAIN0
  6
HIDDEN
 62
3
100
AcDbLine
 10
420.9458390074539
 20
472.4847318742958
 30
0.0000000000000000
 11
423.2552400842041
 21
468.4847318742910
 31
0.0000000000000000
  0
LINE
  5
79
100
AcDbEntity
  8
MAIN0
  6
CENTER
 62
3
100
AcDbLine
 10
383.6364379307660
 20
494.9847318744815
 30
0.0000000000000000
 11
383.6364379308095
 21
515.9847318744814
 31
0.0000000000000000
  0
LINE
  5
7A
100
AcDbEntity
  8
MAIN0
  6
CENTER
 62
3
100
AcDbLine
 10
373.1364379312959
 20
468.4847318739447
 30
0.0000000000000000
 11
394.1364379312959
 21
468.4847318739446
 31
0.0000000000000000
  0
LINE
  5
7B
100
AcDbEntity
  8
MAIN0
  6
HIDDEN
 62
3
100
AcDbLine
 10
388.2552400848132
 20
468.4847318739446
 30
0.0000000000000000
 11
385.9458390080545
 21
472.4847318739447
 31
0.0000000000000000
  0
LINE
  5
7C
100
AcDbEntity
  8
MAIN0
  6
HIDDEN
 62
3
100
AcDbLine
 10
385.9458390080545
 20
472.4847318739445
 30
0.0000000000000000
 11
381.3270368545375
 21
472.4847318739445
 31
0.0000000000000000
  0
LINE
  5
7D
100
AcDbEntity
  8
MAIN0
  6
HIDDEN
 62
3
100
AcDbLine
 10
381.3270368545376
 20
472.4847318739448
 30
0.0000000000000000
 11
379.0176357777790
 21
468.4847318739446
 31
0.0000000000000000
  0
LINE
  5
7E
100
AcDbEntity
  8
MAIN0
  6
HIDDEN
 62
3
100
AcDbLine
 10
379.0176357777790
 20
468.4847318739446
 30
0.0000000000000000
 11
381.3270368545375
 21
464.4847318739446
 31
0.0000000000000000
  0
LINE
  5
7F
100
AcDbEntity
  8
MAIN0
  6
HIDDEN
 62
3
100
AcDbLine
 10
381.3270368545375
 20
464.4847318739446
 30
0.0000000000000000
 11
385.9458390080545
 21
464.4847318739445
 31
0.0000000000000000
  0
LINE
  5
80
100
AcDbEntity
  8
MAIN0
  6
HIDDEN
 62
3
100
AcDbLine
 10
385.9458390080546
 20
464.4847318739448
 30
0.0000000000000000
 11
388.2552400848131
 21
468.4847318739448
 31
0.0000000000000000
  0
CIRCLE
  5
81
100
AcDbEntity
  8
MAIN0
  6
HIDDEN
 62
3
100
AcDbCircle
 10
383.6364379312960
 20
468.4847318739447
 30
0.0000000000000000
 40
8.000000000000000
  0
CIRCLE
  5
82
100
AcDbEntity
  8
MAIN0
  6
CONTINUOUS
 62
3
100
AcDbCircle
 10
383.6364379312960
 20
468.4847318739447
 30
0.0000000000000000
 40
8.750000000000000
  0
LINE
  5
83
100
AcDbEntity
  8
MAIN0
  6
CENTER
 62
3
100
AcDbLine
 10
373.1364379307878
 20
505.4847318744815
 30
0.0000000000000000
 11
394.1364379307878
 21
505.4847318744814
 31
0.0000000000000000
  0
LINE
  5
84
100
AcDbEntity
  8
MAIN0
  6
HIDDEN
 62
3
100
AcDbLine
 10
388.2552400843051
 20
505.4847318744814
 30
0.0000000000000000
 11
385.9458390075464
 21
509.4847318744814
 31
0.0000000000000000
  0
LINE
  5
85
100
AcDbEntity
  8
MAIN0
  6
HIDDEN
 62
3
100
AcDbLine
 10
385.9458390075464
 20
509.4847318744813
 30
0.0000000000000000
 11
381.3270368540294
 21
509.4847318744813
 31
0.0000000000000000
  0
LINE
  5
86
100
AcDbEntity
  8
MAIN0
  6
HIDDEN
 62
3
100
AcDbLine
 10
381.3270368540295
 20
509.4847318744816
 30
0.0000000000000000
 11
379.0176357772708
 21
505.4847318744813
 31
0.0000000000000000
  0
LINE
  5
87
100
AcDbEntity
  8
MAIN0
  6
HIDDEN
 62
3
100
AcDbLine
 10
379.0176357772709
 20
505.4847318744814
 30
0.0000000000000000
 11
381.3270368540293
 21
501.4847318744814
 31
0.0000000000000000
  0
LINE
  5
88
100
AcDbEntity
  8
MAIN0
  6
HIDDEN
 62
3
100
AcDbLine
 10
381.3270368540294
 20
501.4847318744813
 30
0.0000000000000000
 11
385.9458390075464
 21
501.4847318744813
 31
0.0000000000000000
  0
LINE
  5
89
100
AcDbEntity
  8
MAIN0
  6
HIDDEN
 62
3
100
AcDbLine
 10
385.9458390075465
 20
501.4847318744816
 30
0.0000000000000000
 11
388.2552400843050
 21
505.4847318744816
 31
0.0000000000000000
  0
CIRCLE
  5
8A
100
AcDbEntity
  8
MAIN0
  6
HIDDEN
 62
3
100
AcDbCircle
 10
383.6364379307879
 20
505.4847318744815
 30
0.0000000000000000
 40
8.000000000000000
  0
CIRCLE
  5
8B
100
AcDbEntity
  8
MAIN0
  6
CONTINUOUS
 62
3
100
AcDbCircle
 10
383.6364379307879
 20
505.4847318744815
 30
0.0000000000000000
 40
8.750000000000000
  0
LINE
  5
8C
100
AcDbEntity
  8
MAIN0
  6
CENTER
 62
3
100
AcDbLine
 10
404.1364379308731
 20
521.9847318736671
 30
0.0000000000000000
 11
425.1364379308730
 21
521.9847318736670
 31
0.0000000000000000
  0
LINE
  5
8D
100
AcDbEntity
  8
MAIN0
  6
CONTINUOUS
 62
3
100
AcDbLine
 10
419.2552400843903
 20
521.9847318736670
 30
0.0000000000000000
 11
416.9458390076317
 21
525.9847318736670
 31
0.0000000000000000
  0
LINE
  5
8E
100
AcDbEntity
  8
MAIN0
  6
CONTINUOUS
 62
3
100
AcDbLine
 10
416.9458390076316
 20
525.9847318736669
 30
0.0000000000000000
 11
412.3270368541146
 21
525.9847318736669
 31
0.0000000000000000
  0
LINE
  5
8F
100
AcDbEntity
  8
MAIN0
  6
CONTINUOUS
 62
3
100
AcDbLine
 10
412.3270368541147
 20
525.9847318736672
 30
0.0000000000000000
 11
410.0176357773561
 21
521.9847318736670
 31
0.0000000000000000
  0
LINE
  5
90
100
AcDbEntity
  8
MAIN0
  6
CONTINUOUS
 62
3
100
AcDbLine
 10
410.0176357773561
 20
521.9847318736670
 30
0.0000000000000000
 11
412.3270368541146
 21
517.9847318736670
 31
0.0000000000000000
  0
LINE
  5
91
100
AcDbEntity
  8
MAIN0
  6
CONTINUOUS
 62
3
100
AcDbLine
 10
412.3270368541146
 20
517.9847318736670
 30
0.0000000000000000
 11
416.9458390076316
 21
517.9847318736670
 31
0.0000000000000000
  0
LINE
  5
92
100
AcDbEntity
  8
MAIN0
  6
CONTINUOUS
 62
3
100
AcDbLine
 10
416.9458390076317
 20
517.9847318736672
 30
0.0000000000000000
 11
419.2552400843902
 21
521.9847318736672
 31
0.0000000000000000
  0
CIRCLE
  5
93
100
AcDbEntity
  8
MAIN0
  6
CONTINUOUS
 62
3
100
AcDbCircle
 10
414.6364379308731
 20
521.9847318736671
 30
0.0000000000000000
 40
8.000000000000000
  0
LINE
  5
94
100
AcDbEntity
  8
MAIN0
  6
CENTER
 62
3
100
AcDbLine
 10
404.1364379307942
 20
451.9847318746946
 30
0.0000000000000000
 11
425.1364379307942
 21
451.9847318746945
 31
0.0000000000000000
  0
LINE
  5
95
100
AcDbEntity
  8
MAIN0
  6
CONTINUOUS
 62
3
100
AcDbLine
 10
419.2552400843115
 20
451.9847318746946
 30
0.0000000000000000
 11
416.9458390075529
 21
455.9847318746946
 31
0.0000000000000000
  0
LINE
  5
96
100
AcDbEntity
  8
MAIN0
  6
CONTINUOUS
 62
3
100
AcDbLine
 10
416.9458390075528
 20
455.9847318746944
 30
0.0000000000000000
 11
412.3270368540358
 21
455.9847318746944
 31
0.0000000000000000
  0
LINE
  5
97
100
AcDbEntity
  8
MAIN0
  6
CONTINUOUS
 62
3
100
AcDbLine
 10
412.3270368540359
 20
455.9847318746947
 30
0.0000000000000000
 11
410.0176357772772
 21
451.9847318746944
 31
0.0000000000000000
  0
LINE
  5
98
100
AcDbEntity
  8
MAIN0
  6
CONTINUOUS
 62
3
100
AcDbLine
 10
410.0176357772773
 20
451.9847318746944
 30
0.0000000000000000
 11
412.3270368540357
 21
447.9847318746945
 31
0.0000000000000000
  0
LINE
  5
99
100
AcDbEntity
  8
MAIN0
  6
CONTINUOUS
 62
3
100
AcDbLine
 10
412.3270368540358
 20
447.9847318746945
 30
0.0000000000000000
 11
416.9458390075528
 21
447.9847318746944
 31
0.0000000000000000
  0
LINE
  5
9A
100
AcDbEntity
  8
MAIN0
  6
CONTINUOUS
 62
3
100
AcDbLine
 10
416.9458390075529
 20
447.9847318746947
 30
0.0000000000000000
 11
419.2552400843114
 21
451.9847318746947
 31
0.0000000000000000
  0
CIRCLE
  5
9B
100
AcDbEntity
  8
MAIN0
  6
CONTINUOUS
 62
3
100
AcDbCircle
 10
414.6364379307943
 20
451.9847318746946
 30
0.0000000000000000
 40
8.000000000000000
  0
LINE
  5
9C
100
AcDbEntity
  8
MAIN0
  6
CENTER
 62
3
100
AcDbLine
 10
274.1364379885398
 20
541.7132651162231
 30
0.0000000000000000
 11
274.1364379885086
 21
526.6810947295985
 31
0.0000000000000000
  0
CIRCLE
  5
9D
100
AcDbEntity
  8
MAIN0
  6
CONTINUOUS
 62
3
100
AcDbCircle
 10
414.6364379307942
 20
451.9847318746946
 30
0.0000000000000000
 40
8.500000000000000
  0
CIRCLE
  5
9E
100
AcDbEntity
  8
MAIN0
  6
HIDDEN
 62
3
100
AcDbCircle
 10
418.6364379307253
 20
505.4847318740533
 30
0.0000000000000000
 40
8.500000000000000
  0
CIRCLE
  5
9F
100
AcDbEntity
  8
MAIN0
  6
HIDDEN
 62
3
100
AcDbCircle
 10
245.6364379884134
 20
524.9847318745524
 30
0.0000000000000000
 40
8.500000000000000
  0
CIRCLE
  5
A0
100
AcDbEntity
  8
MAIN0
  6
HIDDEN
 62
3
100
AcDbCircle
 10
245.6364379883346
 20
448.9847318741599
 30
0.0000000000000000
 40
8.500000000000000
  0
CIRCLE
  5
A1
100
AcDbEntity
  8
MAIN0
  6
CONTINUOUS
 62
3
100
AcDbCircle
 10
414.6364379308730
 20
521.9847318736671
 30
0.0000000000000000
 40
8.500000000000000
  0
CIRCLE
  5
A2
100
AcDbEntity
  8
MAIN0
  6
CONTINUOUS
 62
3
100
AcDbCircle
 10
249.6364379884321
 20
509.4847318739694
 30
0.0000000000000000
 40
8.500000000000000
  0
CIRCLE
  5
A3
100
AcDbEntity
  8
MAIN0
  6
CONTINUOUS
 62
3
100
AcDbCircle
 10
249.6364379884320
 20
464.4847318738719
 30
0.0000000000000000
 40
8.500000000000000
  0
MTEXT
  5
A4
100
AcDbEntity
  8
MAIN0
  6
CONTINUOUS
 62
3
100
AcDbMText
 10
540.2840301482245
 20
129.7532535494958
 30
0.0000000000000000
 40
6.199999809265137
 41
0.0000000000000000
 71
     1
 72
     1
  1
{\H0.94x;{(押さえ金具４セット付属)}}
 11
1.000000000000000
 21
0.0000000000000000
 31
0.0000000000000000
  7
KNJYOKO
  0
MTEXT
  5
A5
100
AcDbEntity
  8
MAIN0
  6
CONTINUOUS
 62
3
100
AcDbMText
 10
541.3839839831901
 20
119.5765898034118
 30
0.0000000000000000
 40
6.000000000000000
 41
0.0000000000000000
 71
     1
 72
     1
  1
{\H0.63x;{(CLAMPING PARTS  ACCESSARY 4 PAIR)}}
 11
1.000000000000000
 21
0.0000000000000000
 31
0.0000000000000000
  7
STANDARD
  0
LEADER
  5
A6
100
AcDbEntity
  8
MAIN0
  6
CONTINUOUS
 62
3
100
AcDbLeader
  3
MAIN001
 73
     0
 75
     1
 40
6.000000000000000
 41
52.19899861717227
 76
     3
 10
685.6909321887930
 20
258.0104026273023
 30
0.0000000000000000
 10
655.4461244127830
 20
183.4054894146226
 30
0.0000000000000000
 10
652.0851244127830
 20
183.4054894146226
 30
0.0000000000000000
340
A7
213
0.0000000000000000
223
-1.000000000000000
233
0.0000000000000000
1001
ACAD
1000
DSTYLE
1002
{
1070
   147
1040
0.0
1070
    77
1070
     1
1070
   173
1070
     1
1070
     6
1000
_DOT
1070
     7
1000
_DOT
1002
}
  0
MTEXT
  5
A7
102
{ACAD_REACTORS
330
A6
102
}
100
AcDbEntity
  8
MAIN0
  6
CONTINUOUS
 62
3
100
AcDbMText
 10
599.8861257956107
 20
190.4054894146226
 30
0.0000000000000000
 40
6.000000000000000
 41
0.0000000000000000
 71
     1
 72
     1
  1
{\H0.61x;{六角穴付ボルト\PM12×45\PHEX,SOCKET HEAD\PCAP SCREW}}
 11
1.000000000000000
 21
0.0000000000000000
 31
0.0000000000000000
  7
KNJYOKO
  0
DIMENSION
  5
B0
100
AcDbEntity
  8
MAIN0
  6
CONTINUOUS
 62
3
100
AcDbDimension
  2
*D0
 10
230.1364379884378
 20
167.0981083038293
 30
0.0000000000000000
 11
310.1364379884377
 21
167.5981083038293
 31
0.0000000000000000
 70
32
  3
MAIN001
100
AcDbAlignedDimension
 13
390.1364379884375
 23
221.6622225469142
 33
0.0000000000000000
 14
230.1364379884378
 24
229.6622225470596
 34
0.0000000000000000
100
AcDbRotatedDimension
1001
ACAD
1000
DSTYLE
1002
{
1070
   173
1070
     1
1070
     6
1000
_OPEN
1070
     7
1000
_OPEN
1070
    41
1040
4.000000
1002
}
  0
DIMENSION
  5
B9
100
AcDbEntity
  8
MAIN0
  6
CONTINUOUS
 62
3
100
AcDbDimension
  2
*D1
 10
390.1364379884375
 20
167.0981083038293
 30
0.0000000000000000
 11
487.8864379884345
 21
167.5981083038293
 31
0.0000000000000000
 70
32
  3
MAIN001
100
AcDbAlignedDimension
 13
585.6364379884316
 23
238.6622225466419
 33
0.0000000000000000
 14
390.1364379884375
 24
221.6622225469142
 34
0.0000000000000000
100
AcDbRotatedDimension
1001
ACAD
1000
DSTYLE
1002
{
1070
   173
1070
     1
1070
     6
1000
_OPEN
1070
     7
1000
_OPEN
1070
    41
1040
4.000000
1002
}
  0
DIMENSION
  5
C2
100
AcDbEntity
  8
MAIN0
  6
CONTINUOUS
 62
3
100
AcDbDimension
  2
*D2
 10
390.1364379884375
 20
196.9238663209812
 30
0.0000000000000000
 11
446.6364379884218
 21
197.4238663209812
 31
0.0000000000000000
 70
32
  3
MAIN001
100
AcDbAlignedDimension
 13
503.1364379884061
 23
234.1622225466589
 33
0.0000000000000000
 14
390.1364379884375
 24
221.6622225469142
 34
0.0000000000000000
100
AcDbRotatedDimension
1001
ACAD
1000
DSTYLE
1002
{
1070
   173
1070
     1
1070
     6
1000
_OPEN
1070
     7
1000
_OPEN
1070
    41
1040
4.000000
1002
}
  0
DIMENSION
  5
CC
100
AcDbEntity
  8
MAIN0
  6
CONTINUOUS
 62
3
100
AcDbDimension
  2
*D3
 10
459.0349599107071
 20
305.8622225474475
 30
0.0000000000000000
 11
458.5349599107071
 21
300.2622225471978
 31
0.0000000000000000
 70
32
  3
MAIN001
100
AcDbAlignedDimension
 13
432.7364379883867
 23
294.6622225469480
 33
0.0000000000000000
 14
434.1364379888486
 24
305.8622225474475
 34
0.0000000000000000
 50
90.00000000000000
100
AcDbRotatedDimension
1001
ACAD
1000
DSTYLE
1002
{
1070
   173
1070
     1
1070
     6
1000
_OPEN
1070
     7
1000
_OPEN
1070
    41
1040
4.000000
1070
   287
1070
     0
1002
}
  0
DIMENSION
  5
D6
100
AcDbEntity
  8
MAIN0
  6
CONTINUOUS
 62
3
100
AcDbDimension
  2
*D4
 10
408.7424340794532
 20
282.1622225471865
 30
0.0000000000000000
 11
407.7424340794532
 21
303.8811385326905
 31
0.0000000000000000
 70
160
  3
MAIN001
100
AcDbAlignedDimension
 13
433.1364379888485
 23
294.6622225469162
 33
0.0000000000000000
 14
419.1364379884313
 24
282.1622225471865
 34
0.0000000000000000
 50
90.00000000000000
100
AcDbRotatedDimension
1001
ACAD
1000
DSTYLE
1002
{
1070
   173
1070
     1
1070
     6
1000
_OPEN
1070
     7
1000
_OPEN
1070
    41
1040
4.000000
1070
   287
1070
     0
1002
}
  0
DIMENSION
  5
E1
100
AcDbEntity
  8
MAIN0
  6
CONTINUOUS
 62
3
100
AcDbDimension
  2
*D5
 10
601.4269863180472
 20
474.8476884974892
 30
0.0000000000000000
 11
607.7837674707027
 21
475.8476884974892
 31
0.0000000000000000
 70
160
  3
MAIN001
100
AcDbAlignedDimension
 13
615.9269863180482
 23
326.0897949331534
 33
0.0000000000000000
 14
601.4269863180477
 24
322.8897949331330
 34
0.0000000000000000
100
AcDbRotatedDimension
1001
ACAD
1000
DSTYLE
1002
{
1070
   173
1070
     1
1070
     6
1000
_OPEN
1070
     7
1000
_OPEN
1070
    41
1040
4.000000
1070
   287
1070
     0
1002
}
  0
DIMENSION
  5
EA
100
AcDbEntity
  8
MAIN0
  6
CONTINUOUS
 62
3
100
AcDbDimension
  2
*D6
 10
615.9269863180482
 20
474.8476884974892
 30
0.0000000000000000
 11
637.4269863180482
 21
475.3476884974892
 31
0.0000000000000000
 70
32
  3
MAIN001
100
AcDbAlignedDimension
 13
658.9269863180482
 23
441.9897949331327
 33
0.0000000000000000
 14
615.9269863180482
 24
326.0897949331534
 34
0.0000000000000000
100
AcDbRotatedDimension
1001
ACAD
1000
DSTYLE
1002
{
1070
   173
1070
     1
1070
     6
1000
_OPEN
1070
     7
1000
_OPEN
1070
    41
1040
4.000000
1002
}
  0
DIMENSION
  5
F3
100
AcDbEntity
  8
MAIN0
  6
CONTINUOUS
 62
3
100
AcDbDimension
  2
*D7
 10
658.9269863180482
 20
474.8476884974892
 30
0.0000000000000000
 11
694.9269863180476
 21
475.3476884974892
 31
0.0000000000000000
 70
32
  3
MAIN001
100
AcDbAlignedDimension
 13
730.9269863180471
 23
451.4897949331330
 33
0.0000000000000000
 14
658.9269863180482
 24
441.9897949331327
 34
0.0000000000000000
100
AcDbRotatedDimension
1001
ACAD
1000
DSTYLE
1002
{
1070
   173
1070
     1
1070
     6
1000
_OPEN
1070
     7
1000
_OPEN
1070
    41
1040
4.000000
1002
}
  0
DIMENSION
  5
FC
100
AcDbEntity
  8
MAIN0
  6
CONTINUOUS
 62
3
100
AcDbDimension
  2
*D8
 10
658.3802399286035
 20
250.6622225467388
 30
0.0000000000000000
 11
657.8802399286035
 21
240.1622225467386
 31
0.0000000000000000
 70
32
  3
MAIN001
100
AcDbAlignedDimension
 13
669.5088485429833
 23
229.6622225467386
 33
0.0000000000000000
 14
668.0088485430440
 24
250.6622225467388
 34
0.0000000000000000
 50
90.00000000000000
100
AcDbRotatedDimension
1001
ACAD
1000
DSTYLE
1002
{
1070
   173
1070
     1
1070
     6
1000
_OPEN
1070
     7
1000
_OPEN
1070
    41
1040
4.000000
1002
}
  0
LINE
  5
FD
100
AcDbEntity
  8
MAIN0
  6
CENTER
 62
3
100
AcDbLine
 10
593.1364379884317
 20
263.6622225467883
 30
0.0000000000000000
 11
593.1364379884317
 21
316.4897949331332
 31
0.0000000000000000
  0
LINE
  5
FE
100
AcDbEntity
  8
MAIN0
  6
CONTINUOUS
 62
3
100
AcDbLine
 10
616.9280527969899
 20
206.9622225467388
 30
0.0000000000000000
 11
639.1280527969899
 21
206.9622225467387
 31
0.0000000000000000
  0
LINE
  5
FF
100
AcDbEntity
  8
MAIN0
  6
CONTINUOUS
 62
3
100
AcDbLine
 10
616.9280527969897
 20
206.9622225467382
 30
0.0000000000000000
 11
616.9280527969897
 21
215.6622225467385
 31
0.0000000000000000
  0
LINE
  5
100
100
AcDbEntity
  8
MAIN0
  6
CONTINUOUS
 62
3
100
AcDbLine
 10
639.1280527969898
 20
206.9622225467387
 30
0.0000000000000000
 11
639.1280527969898
 21
215.6622225467385
 31
0.0000000000000000
  0
LINE
  5
101
100
AcDbEntity
  8
MAIN0
  6
CONTINUOUS
 62
3
100
AcDbLine
 10
634.0280527969871
 20
229.6622225467385
 30
0.0000000000000000
 11
634.0280527969865
 21
222.7622225467387
 31
0.0000000000000000
  0
LINE
  5
102
100
AcDbEntity
  8
MAIN0
  6
CONTINUOUS
 62
3
100
AcDbLine
 10
633.0808372969871
 20
229.6622225467385
 30
0.0000000000000000
 11
633.0808372969864
 21
222.7622225467387
 31
0.0000000000000000
  0
LINE
  5
103
100
AcDbEntity
  8
MAIN0
  6
CONTINUOUS
 62
3
100
AcDbLine
 10
622.9752682969875
 20
229.6622225467385
 30
0.0000000000000000
 11
622.9752682969868
 21
222.7622225467387
 31
0.0000000000000000
  0
LINE
  5
104
100
AcDbEntity
  8
MAIN0
  6
CONTINUOUS
 62
3
100
AcDbLine
 10
622.0280527969865
 20
222.7622225467387
 30
0.0000000000000000
 11
622.0280527969871
 21
229.6622225467385
 31
0.0000000000000000
  0
LINE
  5
105
100
AcDbEntity
  8
MAIN0
  6
CONTINUOUS
 62
3
100
AcDbLine
 10
634.9280527969896
 20
222.7622225467387
 30
0.0000000000000000
 11
621.1280527969898
 21
222.7622225467387
 31
0.0000000000000000
  0
LINE
  5
106
100
AcDbEntity
  8
MAIN0
  6
CENTER
 62
3
100
AcDbLine
 10
628.0280527969896
 20
200.9450402354985
 30
0.0000000000000000
 11
628.0280527969896
 21
272.5550805759579
 31
0.0000000000000000
  0
LINE
  5
107
100
AcDbEntity
  8
MAIN0
  6
CONTINUOUS
 62
3
100
AcDbLine
 10
611.9280527969897
 20
229.6622225467385
 30
0.0000000000000000
 11
644.1280527969897
 21
229.6622225467385
 31
0.0000000000000000
  0
LINE
  5
108
100
AcDbEntity
  8
MAIN0
  6
CONTINUOUS
 62
3
100
AcDbLine
 10
610.5280527969896
 20
250.6622225467387
 30
0.0000000000000000
 11
645.5280527969896
 21
250.6622225467387
 31
0.0000000000000000
  0
LINE
  5
109
100
AcDbEntity
  8
MAIN0
  6
CONTINUOUS
 62
3
100
AcDbLine
 10
619.0280527969909
 20
263.9622225467391
 30
0.0000000000000000
 11
619.0280527969899
 21
253.1622225467394
 31
0.0000000000000000
  0
LINE
  5
10A
100
AcDbEntity
  8
MAIN0
  6
CONTINUOUS
 62
3
100
AcDbLine
 10
637.0280527969908
 20
263.9622225467375
 30
0.0000000000000000
 11
619.0280527969909
 21
263.9622225467392
 31
0.0000000000000000
  0
LINE
  5
10B
100
AcDbEntity
  8
MAIN0
  6
CONTINUOUS
 62
3
100
AcDbLine
 10
621.1065137660738
 20
265.1622225467394
 30
0.0000000000000000
 11
619.0280527969909
 21
263.9622225467396
 31
0.0000000000000000
  0
LINE
  5
10C
100
AcDbEntity
  8
MAIN0
  6
CONTINUOUS
 62
3
100
AcDbLine
 10
634.9495918279082
 20
265.1622225467376
 30
0.0000000000000000
 11
621.1065137660736
 21
265.1622225467389
 31
0.0000000000000000
  0
LINE
  5
10D
100
AcDbEntity
  8
MAIN0
  6
CONTINUOUS
 62
3
100
AcDbLine
 10
637.0280527969883
 20
263.9622225467391
 30
0.0000000000000000
 11
637.0280527969893
 21
253.1622225467394
 31
0.0000000000000000
  0
LINE
  5
10E
100
AcDbEntity
  8
MAIN0
  6
CONTINUOUS
 62
3
100
AcDbLine
 10
637.0280527969906
 20
263.9622225467371
 30
0.0000000000000000
 11
634.9495918279080
 21
265.1622225467373
 31
0.0000000000000000
  0
LINE
  5
10F
100
AcDbEntity
  8
MAIN0
  6
CONTINUOUS
 62
3
100
AcDbLine
 10
634.9280527969896
 20
215.6622225467385
 30
0.0000000000000000
 11
634.9280527969896
 21
222.7622225467384
 31
0.0000000000000000
  0
LINE
  5
110
100
AcDbEntity
  8
MAIN0
  6
CONTINUOUS
 62
3
100
AcDbLine
 10
621.1280527969898
 20
215.6622225467385
 30
0.0000000000000000
 11
621.1280527969897
 21
222.7622225467384
 31
0.0000000000000000
  0
LINE
  5
111
100
AcDbEntity
  8
MAIN0
  6
CONTINUOUS
 62
3
100
AcDbLine
 10
621.1280527969898
 20
215.6622225467385
 30
0.0000000000000000
 11
616.9280527969897
 21
215.6622225467385
 31
0.0000000000000000
  0
LINE
  5
112
100
AcDbEntity
  8
MAIN0
  6
CONTINUOUS
 62
3
100
AcDbLine
 10
639.1280527969898
 20
215.6622225467385
 30
0.0000000000000000
 11
634.9280527969896
 21
215.6622225467385
 31
0.0000000000000000
  0
LINE
  5
113
100
AcDbEntity
  8
MAIN0
  6
CONTINUOUS
 62
3
100
AcDbLine
 10
610.5280527969896
 20
250.6622225467387
 30
0.0000000000000000
 11
611.9280527969897
 21
229.6622225467385
 31
0.0000000000000000
  0
LINE
  5
114
100
AcDbEntity
  8
MAIN0
  6
CONTINUOUS
 62
3
100
AcDbLine
 10
645.5280527969896
 20
250.6622225467387
 30
0.0000000000000000
 11
644.1280527969897
 21
229.6622225467385
 31
0.0000000000000000
  0
LINE
  5
115
100
AcDbEntity
  8
MAIN0
  6
CONTINUOUS
 62
3
100
AcDbLine
 10
616.0280527969896
 20
250.6622225467387
 30
0.0000000000000000
 11
616.0280527969896
 21
253.1622225467387
 31
0.0000000000000000
  0
LINE
  5
116
100
AcDbEntity
  8
MAIN0
  6
CONTINUOUS
 62
3
100
AcDbLine
 10
616.0280527969896
 20
253.1622225467387
 30
0.0000000000000000
 11
640.0280527969896
 21
253.1622225467387
 31
0.0000000000000000
  0
LINE
  5
117
100
AcDbEntity
  8
MAIN0
  6
CONTINUOUS
 62
3
100
AcDbLine
 10
640.0280527969896
 20
253.1622225467387
 30
0.0000000000000000
 11
640.0280527969896
 21
250.6622225467387
 31
0.0000000000000000
  0
LINE
  5
118
100
AcDbEntity
  8
MAIN0
  6
CONTINUOUS
 62
3
100
AcDbLine
 10
702.1088485430444
 20
222.7622225467388
 30
0.0000000000000000
 11
679.9088485430443
 21
222.7622225467388
 31
0.0000000000000000
  0
LINE
  5
119
100
AcDbEntity
  8
MAIN0
  6
CONTINUOUS
 62
3
100
AcDbLine
 10
679.9088485430443
 20
206.9622225467383
 30
0.0000000000000000
 11
679.9088485430443
 21
222.7622225467388
 31
0.0000000000000000
  0
LINE
  5
11A
100
AcDbEntity
  8
MAIN0
  6
CONTINUOUS
 62
3
100
AcDbLine
 10
702.1088485430444
 20
215.6622225467386
 30
0.0000000000000000
 11
679.9088485430443
 21
215.6622225467386
 31
0.0000000000000000
  0
LINE
  5
11B
100
AcDbEntity
  8
MAIN0
  6
CONTINUOUS
 62
3
100
AcDbLine
 10
702.1088485430444
 20
206.9622225467387
 30
0.0000000000000000
 11
702.1088485430444
 21
222.7622225467388
 31
0.0000000000000000
  0
LINE
  5
11C
100
AcDbEntity
  8
MAIN0
  6
CONTINUOUS
 62
3
100
AcDbLine
 10
702.1088485430425
 20
134.1414283393252
 30
0.0000000000000000
 11
679.9088485430452
 21
134.1414283393251
 31
0.0000000000000000
  0
LINE
  5
11D
100
AcDbEntity
  8
MAIN0
  6
CONTINUOUS
 62
3
100
AcDbLine
 10
679.9088485430452
 20
134.1414283393250
 30
0.0000000000000000
 11
679.9088485430425
 21
156.3414283393251
 31
0.0000000000000000
  0
LINE
  5
11E
100
AcDbEntity
  8
MAIN0
  6
HIDDEN
 62
3
100
AcDbLine
 10
702.1088485430439
 20
138.3414283393251
 30
0.0000000000000000
 11
679.9088485430440
 21
138.3414283393251
 31
0.0000000000000000
  0
LINE
  5
11F
100
AcDbEntity
  8
MAIN0
  6
CONTINUOUS
 62
3
100
AcDbLine
 10
702.1088485430425
 20
134.1414283393252
 30
0.0000000000000000
 11
702.1088485430453
 21
156.3414283393251
 31
0.0000000000000000
  0
LINE
  5
120
100
AcDbEntity
  8
MAIN0
  6
CONTINUOUS
 62
3
100
AcDbLine
 10
702.1088485430454
 20
156.3414283393251
 30
0.0000000000000000
 11
679.9088485430426
 21
156.3414283393251
 31
0.0000000000000000
  0
LINE
  5
121
100
AcDbEntity
  8
MAIN0
  6
HIDDEN
 62
3
100
AcDbLine
 10
702.1088485430439
 20
152.1414283393251
 30
0.0000000000000000
 11
679.9088485430439
 21
152.1414283393251
 31
0.0000000000000000
  0
CIRCLE
  5
122
100
AcDbEntity
  8
MAIN0
  6
CONTINUOUS
 62
3
100
AcDbCircle
 10
691.0088485430440
 20
145.2414283393251
 30
0.0000000000000000
 40
5.052784500006425
  0
CIRCLE
  5
123
100
AcDbEntity
  8
MAIN0
  6
CONTINUOUS
 62
3
100
AcDbCircle
 10
691.0088485430440
 20
145.2414283393251
 30
0.0000000000000000
 40
6.000000000006736
  0
LINE
  5
124
100
AcDbEntity
  8
MAIN0
  6
CENTER
 62
3
100
AcDbLine
 10
675.9088485430426
 20
145.2414283393251
 30
0.0000000000000000
 11
706.1088485430454
 21
145.2414283393251
 31
0.0000000000000000
  0
DIMENSION
  5
12F
100
AcDbEntity
  8
MAIN0
  6
CONTINUOUS
 62
3
100
AcDbDimension
  2
*D9
 10
667.2806826583671
 20
156.3414283393251
 30
0.0000000000000000
 11
666.7806826583671
 21
145.2414283393252
 31
0.0000000000000000
 70
32
  3
MAIN001
100
AcDbAlignedDimension
 13
679.9088485430452
 23
134.1414283393251
 33
0.0000000000000000
 14
679.9088485430426
 24
156.3414283393251
 34
0.0000000000000000
 50
90.00000000000000
100
AcDbRotatedDimension
1001
ACAD
1000
DSTYLE
1002
{
1070
   173
1070
     1
1070
     6
1000
_OPEN
1070
     7
1000
_OPEN
1070
    41
1040
4.000000
1070
   287
1070
     0
1002
}
  0
DIMENSION
  5
13A
100
AcDbEntity
  8
MAIN0
  6
CONTINUOUS
 62
3
100
AcDbDimension
  2
*D10
 10
679.9088485430452
 20
117.1410707494904
 30
0.0000000000000000
 11
691.0088485430439
 21
117.6410707494904
 31
0.0000000000000000
 70
32
  3
MAIN001
100
AcDbAlignedDimension
 13
702.1088485430425
 23
134.1414283393252
 33
0.0000000000000000
 14
679.9088485430452
 24
134.1414283393250
 34
0.0000000000000000
100
AcDbRotatedDimension
1001
ACAD
1000
DSTYLE
1002
{
1070
   173
1070
     1
1070
     6
1000
_OPEN
1070
     7
1000
_OPEN
1070
    41
1040
4.000000
1070
   287
1070
     0
1002
}
  0
DIMENSION
  5
145
100
AcDbEntity
  8
MAIN0
  6
CONTINUOUS
 62
3
100
AcDbDimension
  2
*D11
 10
721.4986699661030
 20
152.1414283393251
 30
0.0000000000000000
 11
720.4986699661030
 21
127.0730074996404
 31
0.0000000000000000
 70
160
  3
MAIN001
100
AcDbAlignedDimension
 13
702.1088485430439
 23
138.3414283393251
 33
0.0000000000000000
 14
702.1088485430439
 24
152.1414283393251
 34
0.0000000000000000
 50
90.00000000000000
100
AcDbRotatedDimension
1001
ACAD
1000
DSTYLE
1002
{
1070
   173
1070
     1
1070
     6
1000
_OPEN
1070
     7
1000
_OPEN
1070
    41
1040
4.000000
1070
   287
1070
     0
1002
}
  0
DIMENSION
  5
14E
100
AcDbEntity
  8
MAIN0
  6
CONTINUOUS
 62
3
100
AcDbDimension
  2
*D12
 10
610.5280527969896
 20
281.7417939542117
 30
0.0000000000000000
 11
628.0280527969896
 21
282.2417939542117
 31
0.0000000000000000
 70
33
  3
MAIN001
100
AcDbAlignedDimension
 13
645.5280527969896
 23
250.6622225467387
 33
0.0000000000000000
 14
610.5280527969896
 24
250.6622225467387
 34
0.0000000000000000
1001
ACAD
1000
DSTYLE
1002
{
1070
   173
1070
     1
1070
     6
1000
_OPEN
1070
     7
1000
_OPEN
1070
    41
1040
4.000000
1002
}
  0
DIMENSION
  5
157
100
AcDbEntity
  8
MAIN0
  6
CONTINUOUS
 62
3
100
AcDbDimension
  2
*D13
 10
668.0088485430440
 20
184.2512239018445
 30
0.0000000000000000
 11
685.2222683780407
 21
185.2512239018445
 31
0.0000000000000000
 70
160
  3
MAIN001
100
AcDbAlignedDimension
 13
708.0088485430438
 23
229.6622225467386
 33
0.0000000000000000
 14
668.0088485430440
 24
250.6622225467387
 34
0.0000000000000000
100
AcDbRotatedDimension
1001
ACAD
1000
DSTYLE
1002
{
1070
   173
1070
     1
1070
     6
1000
_OPEN
1070
     7
1000
_OPEN
1070
    41
1040
4.000000
1002
}
  0
DIMENSION
  5
160
100
AcDbEntity
  8
MAIN0
  6
CONTINUOUS
 62
3
100
AcDbDimension
  2
*D14
 10
708.0088485430438
 20
184.2512239018445
 30
0.0000000000000000
 11
759.5088485430437
 21
184.7512239018445
 31
0.0000000000000000
 70
32
  3
MAIN001
100
AcDbAlignedDimension
 13
811.0088485430435
 23
229.6622225467386
 33
0.0000000000000000
 14
708.0088485430438
 24
229.6622225467386
 34
0.0000000000000000
100
AcDbRotatedDimension
1001
ACAD
1000
DSTYLE
1002
{
1070
   173
1070
     1
1070
     6
1000
_OPEN
1070
     7
1000
_OPEN
1070
    41
1040
4.000000
1002
}
  0
DIMENSION
  5
16B
100
AcDbEntity
  8
MAIN0
  6
CONTINUOUS
 62
3
100
AcDbDimension
  2
*D15
 10
304.1364379884320
 20
414.5259306213475
 30
0.0000000000000000
 11
315.2652970490657
 21
415.5259306213475
 31
0.0000000000000000
 70
160
  3
MAIN001
100
AcDbAlignedDimension
 13
289.6364379884220
 23
438.4847318746341
 33
0.0000000000000000
 14
304.1364379884320
 24
437.4847318743102
 34
0.0000000000000000
100
AcDbRotatedDimension
1001
ACAD
1000
DSTYLE
1002
{
1070
   173
1070
     1
1070
     6
1000
_OPEN
1070
     7
1000
_OPEN
1070
    41
1040
4.000000
1070
   287
1070
     0
1002
}
  0
DIMENSION
  5
174
100
AcDbEntity
  8
MAIN0
  6
CONTINUOUS
 62
3
100
AcDbDimension
  2
*D16
 10
304.1364379884263
 20
352.1343773729237
 30
0.0000000000000000
 11
289.1364379884263
 21
352.6343773729237
 31
0.0000000000000000
 70
32
  3
MAIN001
100
AcDbAlignedDimension
 13
274.1364379884263
 23
345.1466579170640
 33
0.0000000000000000
 14
304.1364379884263
 24
334.4622225469220
 34
0.0000000000000000
100
AcDbRotatedDimension
1001
ACAD
1000
DSTYLE
1002
{
1070
   173
1070
     1
1070
     6
1000
_OPEN
1070
     7
1000
_OPEN
1070
    41
1040
4.000000
1002
}
  0
DIMENSION
  5
17D
100
AcDbEntity
  8
MAIN0
  6
CONTINUOUS
 62
3
100
AcDbDimension
  2
*D17
 10
204.1364379884266
 20
229.6622225470591
 30
0.0000000000000000
 11
203.6364379884266
 21
262.1622225469906
 31
0.0000000000000000
 70
32
  3
MAIN001
100
AcDbAlignedDimension
 13
230.7364379884264
 23
294.6622225469220
 33
0.0000000000000000
 14
230.5364379884381
 24
229.6622225470591
 34
0.0000000000000000
 50
90.00000000000000
100
AcDbRotatedDimension
1001
ACAD
1000
DSTYLE
1002
{
1070
   173
1070
     1
1070
     6
1000
_OPEN
1070
     7
1000
_OPEN
1070
    41
1040
4.000000
1002
}
  0
DIMENSION
  5
186
100
AcDbEntity
  8
MAIN0
  6
CONTINUOUS
 62
3
100
AcDbDimension
  2
*D18
 10
204.1364379884266
 20
294.6622225469220
 30
0.0000000000000000
 11
203.6364379884266
 21
314.6622225469220
 31
0.0000000000000000
 70
32
  3
MAIN001
100
AcDbAlignedDimension
 13
231.3364379884264
 23
334.6622225469220
 33
0.0000000000000000
 14
230.7364379884264
 24
294.6622225469220
 34
0.0000000000000000
 50
90.00000000000000
100
AcDbRotatedDimension
1001
ACAD
1000
DSTYLE
1002
{
1070
   173
1070
     1
1070
     6
1000
_OPEN
1070
     7
1000
_OPEN
1070
    41
1040
4.000000
1002
}
  0
DIMENSION
  5
18F
100
AcDbEntity
  8
MAIN0
  6
CONTINUOUS
 62
3
100
AcDbDimension
  2
*D19
 10
191.1364379884266
 20
229.6622225470591
 30
0.0000000000000000
 11
190.6364379884266
 21
282.1622225469906
 31
0.0000000000000000
 70
32
  3
MAIN001
100
AcDbAlignedDimension
 13
231.3364379884264
 23
334.6622225469220
 33
0.0000000000000000
 14
230.5364379884381
 24
229.6622225470591
 34
0.0000000000000000
 50
90.00000000000000
100
AcDbRotatedDimension
1001
ACAD
1000
DSTYLE
1002
{
1070
   173
1070
     1
1070
     6
1000
_OPEN
1070
     7
1000
_OPEN
1070
    41
1040
4.000000
1002
}
  0
DIMENSION
  5
19A
100
AcDbEntity
  8
MAIN0
  6
CONTINUOUS
 62
3
100
AcDbDimension
  2
*D20
 10
173.6930323225729
 20
229.6622225468219
 30
0.0000000000000000
 11
173.1930323225729
 21
237.1622225469142
 31
0.0000000000000000
 70
32
  3
MAIN001
100
AcDbAlignedDimension
 13
150.2841844491054
 23
244.6622225470066
 33
0.0000000000000000
 14
150.2841844491327
 24
229.6622225470068
 34
0.0000000000000000
 50
90.00000000000000
100
AcDbRotatedDimension
1001
ACAD
1000
DSTYLE
1002
{
1070
   173
1070
     1
1070
     6
1000
_OPEN
1070
     7
1000
_OPEN
1070
    41
1040
4.000000
1070
   287
1070
     0
1002
}
  0
DIMENSION
  5
1A3
100
AcDbEntity
  8
MAIN0
  6
CONTINUOUS
 62
3
100
AcDbDimension
  2
*D21
 10
173.6930323225729
 20
244.6622225470066
 30
0.0000000000000000
 11
173.1930323225729
 21
257.1622225470054
 31
0.0000000000000000
 70
32
  3
MAIN001
100
AcDbAlignedDimension
 13
149.6841844490347
 23
269.6622225470043
 33
0.0000000000000000
 14
150.2841844491054
 24
244.6622225470066
 34
0.0000000000000000
 50
90.00000000000000
100
AcDbRotatedDimension
1001
ACAD
1000
DSTYLE
1002
{
1070
   173
1070
     1
1070
     6
1000
_OPEN
1070
     7
1000
_OPEN
1070
    41
1040
4.000000
1002
}
  0
DIMENSION
  5
1AC
100
AcDbEntity
  8
MAIN0
  6
CONTINUOUS
 62
3
100
AcDbDimension
  2
*D22
 10
173.6930323225729
 20
269.6622225470043
 30
0.0000000000000000
 11
173.1930323225729
 21
282.1622225470172
 31
0.0000000000000000
 70
32
  3
MAIN001
100
AcDbAlignedDimension
 13
149.1841844489950
 23
294.6622225470301
 33
0.0000000000000000
 14
149.6841844490347
 24
269.6622225470043
 34
0.0000000000000000
 50
90.00000000000000
100
AcDbRotatedDimension
1001
ACAD
1000
DSTYLE
1002
{
1070
   173
1070
     1
1070
     6
1000
_OPEN
1070
     7
1000
_OPEN
1070
    41
1040
4.000000
1002
}
  0
DIMENSION
  5
1B5
100
AcDbEntity
  8
MAIN0
  6
CONTINUOUS
 62
3
100
AcDbDimension
  2
*D23
 10
598.8790571044223
 20
229.6622225469142
 30
0.0000000000000000
 11
598.3790571044223
 21
246.6622225467448
 31
0.0000000000000000
 70
32
  3
MAIN001
100
AcDbAlignedDimension
 13
593.1364379884317
 23
263.6622225467532
 33
0.0000000000000000
 14
502.7364379884377
 24
229.6622225469143
 34
0.0000000000000000
 50
90.00000000000000
100
AcDbRotatedDimension
1001
ACAD
1000
DSTYLE
1002
{
1070
   173
1070
     1
1070
     6
1000
_OPEN
1070
     7
1000
_OPEN
1070
    41
1040
4.000000
1002
}
  0
LINE
  5
1B6
100
AcDbEntity
  8
MAIN0
  6
CONTINUOUS
 62
3
100
AcDbLine
 10
433.1364379307942
 20
541.4847318741607
 30
0.0000000000000000
 11
507.1364379887727
 21
541.4847318740845
 31
0.0000000000000000
  0
LINE
  5
1B7
100
AcDbEntity
  8
MAIN0
  6
CONTINUOUS
 62
3
100
AcDbLine
 10
433.1364379307942
 20
432.4847318741608
 30
0.0000000000000000
 11
507.1364379887727
 21
432.4847318740847
 31
0.0000000000000000
  0
LINE
  5
1B8
100
AcDbEntity
  8
MAIN0
  6
CONTINUOUS
 62
3
100
AcDbLine
 10
507.1364379884323
 20
539.9847318740760
 30
0.0000000000000000
 11
533.1364379884324
 21
539.9847318740492
 31
0.0000000000000000
  0
LINE
  5
1B9
100
AcDbEntity
  8
MAIN0
  6
CONTINUOUS
 62
3
100
AcDbLine
 10
507.1364379884323
 20
433.9847318740764
 30
0.0000000000000000
 11
533.1364379884324
 21
433.9847318740493
 31
0.0000000000000000
  0
LINE
  5
1BA
100
AcDbEntity
  8
MAIN0
  6
CONTINUOUS
 62
3
100
AcDbLine
 10
507.1364379887727
 20
432.4847318740847
 30
0.0000000000000000
 11
507.1364379887727
 21
541.4847318740843
 31
0.0000000000000000
  0
LINE
  5
1BB
100
AcDbEntity
  8
MAIN0
  6
CONTINUOUS
 62
3
100
AcDbLine
 10
541.1364379884325
 20
435.4847318740494
 30
0.0000000000000000
 11
541.1364379884325
 21
538.4847318740494
 31
0.0000000000000000
  0
LINE
  5
1BC
100
AcDbEntity
  8
MAIN0
  6
CONTINUOUS
 62
3
100
AcDbLine
 10
566.1364379878028
 20
448.5847318740953
 30
0.0000000000000000
 11
566.1364379877114
 21
525.3847318740945
 31
0.0000000000000000
  0
LINE
  5
1BD
100
AcDbEntity
  8
MAIN0
  6
CONTINUOUS
 62
3
100
AcDbLine
 10
565.5364379877568
 20
447.9847318740490
 30
0.0000000000000000
 11
556.1364379877572
 21
447.9847318740490
 31
0.0000000000000000
  0
LINE
  5
1BE
100
AcDbEntity
  8
MAIN0
  6
CONTINUOUS
 62
3
100
AcDbLine
 10
554.1364379877887
 20
449.9847318740495
 30
0.0000000000000000
 11
556.1364379877571
 21
447.9847318740490
 31
0.0000000000000000
  0
LINE
  5
1BF
100
AcDbEntity
  8
MAIN0
  6
CONTINUOUS
 62
3
100
AcDbLine
 10
565.5364379877569
 20
447.9847318740485
 30
0.0000000000000000
 11
566.1364379877571
 21
448.5847318740487
 31
0.0000000000000000
  0
LINE
  5
1C0
100
AcDbEntity
  8
MAIN0
  6
CONTINUOUS
 62
3
100
AcDbLine
 10
565.5364379877568
 20
525.9847318740490
 30
0.0000000000000000
 11
556.1364379877572
 21
525.9847318740490
 31
0.0000000000000000
  0
LINE
  5
1C1
100
AcDbEntity
  8
MAIN0
  6
CONTINUOUS
 62
3
100
AcDbLine
 10
554.1364379877882
 20
523.9847318740480
 30
0.0000000000000000
 11
556.1364379877566
 21
525.9847318740485
 31
0.0000000000000000
  0
LINE
  5
1C2
100
AcDbEntity
  8
MAIN0
  6
CONTINUOUS
 62
3
100
AcDbLine
 10
565.5364379877569
 20
525.9847318740494
 30
0.0000000000000000
 11
566.1364379877570
 21
525.3847318740493
 31
0.0000000000000000
  0
LINE
  5
1C3
100
AcDbEntity
  8
MAIN0
  6
CONTINUOUS
 62
3
100
AcDbLine
 10
541.1364379884693
 20
523.9847318740491
 30
0.0000000000000000
 11
554.1364379877888
 21
523.9847318740491
 31
0.0000000000000000
  0
LINE
  5
1C4
100
AcDbEntity
  8
MAIN0
  6
CONTINUOUS
 62
3
100
AcDbLine
 10
541.1364379883954
 20
449.9847318740490
 30
0.0000000000000000
 11
554.1364379877892
 21
449.9847318740490
 31
0.0000000000000000
  0
LINE
  5
1C5
100
AcDbEntity
  8
MAIN0
  6
CONTINUOUS
 62
3
100
AcDbLine
 10
585.6364379877572
 20
511.9847318740492
 30
0.0000000000000000
 11
566.1364379877576
 21
511.9847318740492
 31
0.0000000000000000
  0
LINE
  5
1C6
100
AcDbEntity
  8
MAIN0
  6
CONTINUOUS
 62
3
100
AcDbLine
 10
585.6364379877573
 20
511.9847318740493
 30
0.0000000000000000
 11
585.6364379877573
 21
461.9847318740493
 31
0.0000000000000000
  0
LINE
  5
1C7
100
AcDbEntity
  8
MAIN0
  6
CONTINUOUS
 62
3
100
AcDbLine
 10
585.6364379877572
 20
461.9847318740491
 30
0.0000000000000000
 11
566.1364379877576
 21
461.9847318740491
 31
0.0000000000000000
  0
LINE
  5
1C8
100
AcDbEntity
  8
MAIN0
  6
CONTINUOUS
 62
3
100
AcDbLine
 10
556.1364379878528
 20
447.9847318740490
 30
0.0000000000000000
 11
556.1364379878323
 21
464.6912350650141
 31
0.0000000000000000
  0
LINE
  5
1C9
100
AcDbEntity
  8
MAIN0
  6
CONTINUOUS
 62
3
100
AcDbLine
 10
556.1364379877775
 20
509.2782286830535
 30
0.0000000000000000
 11
556.1364379877571
 21
525.9847318740492
 31
0.0000000000000000
  0
LINE
  5
1CA
100
AcDbEntity
  8
MAIN0
  6
CONTINUOUS
 62
3
100
AcDbLine
 10
554.1364379878814
 20
449.9847318740489
 30
0.0000000000000000
 11
554.1364379878585
 21
468.4105562531939
 31
0.0000000000000000
  0
LINE
  5
1CB
100
AcDbEntity
  8
MAIN0
  6
CONTINUOUS
 62
3
100
AcDbLine
 10
554.1364379878123
 20
505.5589074948778
 30
0.0000000000000000
 11
554.1364379877894
 21
523.9847318740490
 31
0.0000000000000000
  0
LINE
  5
1CC
100
AcDbEntity
  8
MAIN0
  6
CONTINUOUS
 62
3
100
AcDbLine
 10
533.1364379885102
 20
433.9847318740493
 30
0.0000000000000000
 11
533.1364379885102
 21
539.9847318740492
 31
0.0000000000000000
  0
LINE
  5
1CD
100
AcDbEntity
  8
MAIN0
  6
CONTINUOUS
 62
3
100
AcDbLine
 10
533.1364379885102
 20
538.4847318740576
 30
0.0000000000000000
 11
541.1364379884325
 21
538.4847318740493
 31
0.0000000000000000
  0
LINE
  5
1CE
100
AcDbEntity
  8
MAIN0
  6
CONTINUOUS
 62
3
100
AcDbLine
 10
533.1364379885102
 20
435.4847318740577
 30
0.0000000000000000
 11
541.1364379884325
 21
435.4847318740494
 31
0.0000000000000000
  0
LINE
  5
1CF
100
AcDbEntity
  8
MAIN0
  6
CONTINUOUS
 62
3
100
AcDbLine
 10
556.1364379878323
 20
464.6912350650140
 30
0.0000000000000000
 11
566.1364379877837
 21
464.6912350649886
 31
0.0000000000000000
  0
LINE
  5
1D0
100
AcDbEntity
  8
MAIN0
  6
CONTINUOUS
 62
3
100
AcDbLine
 10
541.1364379884326
 20
468.4105562532135
 30
0.0000000000000000
 11
554.1364379878587
 21
468.4105562531938
 31
0.0000000000000000
  0
LINE
  5
1D1
100
AcDbEntity
  8
MAIN0
  6
CONTINUOUS
 62
3
100
AcDbLine
 10
554.1364379878585
 20
468.4105562531938
 30
0.0000000000000000
 11
556.1364379878321
 21
464.6912350650140
 31
0.0000000000000000
  0
LINE
  5
1D2
100
AcDbEntity
  8
MAIN0
  6
CONTINUOUS
 62
3
100
AcDbLine
 10
556.1364379878785
 20
509.2782286830534
 30
0.0000000000000000
 11
566.1364379878298
 21
509.2782286830581
 31
0.0000000000000000
  0
LINE
  5
1D3
100
AcDbEntity
  8
MAIN0
  6
CONTINUOUS
 62
3
100
AcDbLine
 10
541.1364379884711
 20
505.5589074948851
 30
0.0000000000000000
 11
554.1364379878972
 21
505.5589074948778
 31
0.0000000000000000
  0
LINE
  5
1D4
100
AcDbEntity
  8
MAIN0
  6
CONTINUOUS
 62
3
100
AcDbLine
 10
554.1364379878971
 20
505.5589074948779
 30
0.0000000000000000
 11
556.1364379878785
 21
509.2782286830536
 31
0.0000000000000000
  0
LINE
  5
1D5
100
AcDbEntity
  8
MAIN0
  6
CENTER
 62
3
100
AcDbLine
 10
383.6364379312959
 20
494.9847318742208
 30
0.0000000000000000
 11
383.6364379312959
 21
478.9847318742208
 31
0.0000000000000000
  0
LINE
  5
1D6
100
AcDbEntity
  8
MAIN0
  6
CENTER
 62
3
100
AcDbLine
 10
219.5490380460702
 20
486.9847318743832
 30
0.0000000000000000
 11
591.8959150960761
 21
486.9847318739973
 31
0.0000000000000000
  0
LINE
  5
1D7
100
AcDbEntity
  8
MAIN0
  6
CONTINUOUS
 62
3
100
AcDbLine
 10
541.1364379884325
 20
446.6331519794184
 30
0.0000000000000000
 11
533.1364379885102
 21
446.6331519794184
 31
0.0000000000000000
  0
LINE
  5
1D8
100
AcDbEntity
  8
MAIN0
  6
CONTINUOUS
 62
3
100
AcDbLine
 10
541.1364379884324
 20
527.3363117680418
 30
0.0000000000000000
 11
533.1364379885101
 21
527.3363117680418
 31
0.0000000000000000
  0
LINE
  5
1D9
100
AcDbEntity
  8
MAIN0
  6
CONTINUOUS
 62
3
100
AcDbLine
 10
127.6841844491070
 20
224.6622225469145
 30
0.0000000000000000
 11
127.6841844491070
 21
229.6622225469145
 31
0.0000000000000000
  0
LINE
  5
1DA
100
AcDbEntity
  8
MAIN0
  6
CONTINUOUS
 62
3
100
AcDbLine
 10
127.6841844491071
 20
224.6622225469143
 30
0.0000000000000000
 11
147.6841844491071
 21
224.6622225469143
 31
0.0000000000000000
  0
LINE
  5
1DB
100
AcDbEntity
  8
MAIN0
  6
CONTINUOUS
 62
3
100
AcDbLine
 10
147.6841844491070
 20
224.6622225469145
 30
0.0000000000000000
 11
147.6841844491070
 21
229.6622225469145
 31
0.0000000000000000
  0
LINE
  5
1DC
100
AcDbEntity
  8
MAIN0
  6
CONTINUOUS
 62
3
100
AcDbLine
 10
70.68418444910742
 20
224.6622225469145
 30
0.0000000000000000
 11
70.68418444910742
 21
229.6622225469145
 31
0.0000000000000000
  0
LINE
  5
1DD
100
AcDbEntity
  8
MAIN0
  6
CONTINUOUS
 62
3
100
AcDbLine
 10
50.68418444910719
 20
224.6622225469145
 30
0.0000000000000000
 11
70.68418444910742
 21
224.6622225469145
 31
0.0000000000000000
  0
LINE
  5
1DE
100
AcDbEntity
  8
MAIN0
  6
CONTINUOUS
 62
3
100
AcDbLine
 10
50.68418444910719
 20
229.6622225469145
 30
0.0000000000000000
 11
50.68418444910719
 21
224.6622225469145
 31
0.0000000000000000
  0
DIMENSION
  5
1E9
100
AcDbEntity
  8
MAIN0
  6
CONTINUOUS
 62
3
100
AcDbDimension
  2
*D24
 10
752.5088485430438
 20
344.3095218396290
 30
0.0000000000000000
 11
759.5088485430438
 21
344.8095218396290
 31
0.0000000000000000
 70
32
  3
MAIN001
100
AcDbAlignedDimension
 13
766.5088485430438
 23
267.7036744310668
 33
0.0000000000000000
 14
752.5088485430438
 24
267.7036744310654
 34
0.0000000000000000
100
AcDbRotatedDimension
1001
ACAD
1000
DSTYLE
1002
{
1070
   173
1070
     1
1070
     6
1000
_OPEN
1070
     7
1000
_OPEN
1070
    41
1040
4.000000
1070
   287
1070
     0
1002
}
  0
DIMENSION
  5
1F3
100
AcDbEntity
  8
MAIN0
  6
CONTINUOUS
 62
3
100
AcDbDimension
  2
*D25
 10
145.6841844490862
 20
252.4267790091912
 30
0.0000000000000000
 11
159.3605035041175
 21
253.4267790091912
 31
0.0000000000000000
 70
160
  3
MAIN001
100
AcDbAlignedDimension
 13
150.6841844491061
 23
244.2622225470081
 33
0.0000000000000000
 14
145.6841844490398
 24
269.6622225469897
 34
0.0000000000000000
100
AcDbRotatedDimension
1001
ACAD
1000
DSTYLE
1002
{
1070
   173
1070
     1
1070
     6
1000
_OPEN
1070
     7
1000
_OPEN
1070
    41
1040
4.000000
1070
   287
1070
     0
1002
}
  0
DIMENSION
  5
1FC
100
AcDbEntity
  8
MAIN0
  6
CONTINUOUS
 62
3
100
AcDbDimension
  2
*D26
 10
49.18418444899453
 20
364.2493771974118
 30
0.0000000000000000
 11
99.18418444899461
 21
364.7493771974118
 31
0.0000000000000000
 70
32
  3
MAIN001
100
AcDbAlignedDimension
 13
149.1841844489947
 23
334.6622225469421
 33
0.0000000000000000
 14
49.18418444899453
 24
334.6622225469421
 34
0.0000000000000000
100
AcDbRotatedDimension
1001
ACAD
1000
DSTYLE
1002
{
1070
   173
1070
     1
1070
     6
1000
_OPEN
1070
     7
1000
_OPEN
1070
    41
1040
4.000000
1002
}
  0
DIMENSION
  5
205
100
AcDbEntity
  8
MAIN0
  6
CONTINUOUS
 62
3
100
AcDbDimension
  2
*D27
 10
705.0088485430442
 20
376.3095218396290
 30
0.0000000000000000
 11
759.5088485430442
 21
376.8095218396290
 31
0.0000000000000000
 70
32
  3
MAIN001
100
AcDbAlignedDimension
 13
814.0088485430442
 23
304.8622225469320
 33
0.0000000000000000
 14
705.0088485430442
 24
304.8622225469320
 34
0.0000000000000000
100
AcDbRotatedDimension
1001
ACAD
1000
DSTYLE
1002
{
1070
   173
1070
     1
1070
     6
1000
_OPEN
1070
     7
1000
_OPEN
1070
    41
1040
4.000000
1002
}
  0
CIRCLE
  5
206
100
AcDbEntity
  8
MAIN0
  6
CONTINUOUS
 62
3
100
AcDbCircle
 10
274.1364379884263
 20
304.6622225469221
 30
0.0000000000000000
 40
3.400000000000000
  0
CIRCLE
  5
207
100
AcDbEntity
  8
MAIN0
  6
CONTINUOUS
 62
3
100
AcDbCircle
 10
274.1364379884263
 20
304.6622225469221
 30
0.0000000000000000
 40
4.000000000000000
  0
CIRCLE
  5
208
100
AcDbEntity
  8
MAIN0
  6
CONTINUOUS
 62
3
100
AcDbCircle
 10
274.1364379884263
 20
324.6622225469220
 30
0.0000000000000000
 40
3.400000000000000
  0
CIRCLE
  5
209
100
AcDbEntity
  8
MAIN0
  6
CONTINUOUS
 62
3
100
AcDbCircle
 10
274.1364379884263
 20
324.6622225469220
 30
0.0000000000000000
 40
4.000000000000000
  0
LINE
  5
20A
100
AcDbEntity
  8
MAIN0
  6
CENTER
 62
3
100
AcDbLine
 10
282.1364379884263
 20
304.6622225469221
 30
0.0000000000000000
 11
266.1364379884263
 21
304.6622225469221
 31
0.0000000000000000
  0
LINE
  5
20B
100
AcDbEntity
  8
MAIN0
  6
CENTER
 62
3
100
AcDbLine
 10
282.1364379884263
 20
324.6622225469220
 30
0.0000000000000000
 11
266.1364379884263
 21
324.6622225469220
 31
0.0000000000000000
  0
LEADER
  5
20C
100
AcDbEntity
  8
MAIN0
  6
CONTINUOUS
 62
3
100
AcDbLeader
  3
MAIN001
 73
     0
 75
     1
 40
6.199999809265137
 41
71.77900211715698
 76
     3
 10
272.4578224195528
 20
328.2929593553309
 30
0.0000000000000000
 10
243.3394611053948
 20
393.3267092191755
 30
0.0000000000000000
 10
239.4864612169747
 20
393.3267092191755
 30
0.0000000000000000
340
20D
213
0.0000000000000000
223
-1.000000000000000
233
0.0000000000000000
1001
ACAD
1000
DSTYLE
1002
{
1070
   147
1040
0.0
1070
    77
1070
     1
1070
   173
1070
     1
1070
     6
1000
_OPEN
1070
     7
1000
_OPEN
1002
}
  0
MTEXT
  5
20D
102
{ACAD_REACTORS
330
20C
102
}
100
AcDbEntity
  8
MAIN0
  6
CONTINUOUS
 62
3
100
AcDbMText
 10
167.7074590998177
 20
400.5267090284407
 30
0.0000000000000000
 40
6.199999809265137
 41
0.0000000000000000
 71
     1
 72
     1
  1
{\H0.93x;{2×2-M8 深さ16\P        DEPTH}}
 11
1.000000000000000
 21
0.0000000000000000
 31
0.0000000000000000
  7
KNJYOKO
  0
DIMENSION
  5
217
100
AcDbEntity
  8
MAIN0
  6
CONTINUOUS
 62
3
100
AcDbDimension
  2
*D28
 10
289.0342416239890
 20
334.6622225469220
 30
0.0000000000000000
 11
288.0342416239890
 21
342.5035328931252
 31
0.0000000000000000
 70
160
  3
MAIN001
100
AcDbAlignedDimension
 13
282.1364379884263
 23
324.6622225469220
 33
0.0000000000000000
 14
266.6364379887405
 24
334.6622225469220
 34
0.0000000000000000
 50
90.00000000000000
100
AcDbRotatedDimension
1001
ACAD
1000
DSTYLE
1002
{
1070
   173
1070
     1
1070
     6
1000
_OPEN
1070
     7
1000
_OPEN
1070
    41
1040
4.000000
1070
   287
1070
     0
1002
}
  0
DIMENSION
  5
220
100
AcDbEntity
  8
MAIN0
  6
CONTINUOUS
 62
3
100
AcDbDimension
  2
*D29
 10
289.0342416239890
 20
324.6622225469220
 30
0.0000000000000000
 11
288.5342416239890
 21
314.6622225469221
 31
0.0000000000000000
 70
32
  3
MAIN001
100
AcDbAlignedDimension
 13
282.1364379884263
 23
304.6622225469221
 33
0.0000000000000000
 14
282.1364379884263
 24
324.6622225469220
 34
0.0000000000000000
 50
90.00000000000000
100
AcDbRotatedDimension
1001
ACAD
1000
DSTYLE
1002
{
1070
   173
1070
     1
1070
     6
1000
_OPEN
1070
     7
1000
_OPEN
1070
    41
1040
4.000000
1002
}
  0
LINE
  5
221
100
AcDbEntity
  8
MAIN0
  6
CENTER
 62
3
100
AcDbLine
 10
99.18418444899501
 20
340.6616138916574
 30
0.0000000000000000
 11
99.18418444899479
 21
220.8138305536061
 31
0.0000000000000000
  0
LINE
  5
222
100
AcDbEntity
  8
MAIN0
  6
CENTER
 62
3
100
AcDbLine
 10
495.1093974807295
 20
263.6622225465754
 30
0.0000000000000000
 11
593.1364379884317
 21
263.6622225467532
 31
0.0000000000000000
  0
LINE
  5
223
100
AcDbEntity
  8
MAIN0
  6
CONTINUOUS
 62
3
100
AcDbLine
 10
540.1364379884071
 20
234.1622225466586
 30
0.0000000000000000
 11
541.1364379884072
 21
235.1622225466588
 31
0.0000000000000000
  0
LINE
  5
224
100
AcDbEntity
  8
MAIN0
  6
CONTINUOUS
 62
3
100
AcDbLine
 10
540.1364379884370
 20
294.6622225468157
 30
0.0000000000000000
 11
541.1364379884370
 21
293.6622225468157
 31
0.0000000000000000
  0
LINE
  5
225
100
AcDbEntity
  8
MAIN0
  6
CONTINUOUS
 62
3
100
AcDbLine
 10
533.1364379884361
 20
294.6622225468159
 30
0.0000000000000000
 11
540.1364379884370
 21
294.6622225468159
 31
0.0000000000000000
  0
LINE
  5
226
100
AcDbEntity
  8
MAIN0
  6
CONTINUOUS
 62
3
100
AcDbLine
 10
503.1364379884061
 20
234.1622225466589
 30
0.0000000000000000
 11
540.1364379884061
 21
234.1622225466589
 31
0.0000000000000000
  0
LINE
  5
227
100
AcDbEntity
  8
MAIN0
  6
CONTINUOUS
 62
3
100
AcDbLine
 10
541.1364379884370
 20
290.6622225468161
 30
0.0000000000000000
 11
541.1364379884370
 21
294.2622225468172
 31
0.0000000000000000
  0
LINE
  5
228
100
AcDbEntity
  8
MAIN0
  6
CONTINUOUS
 62
3
100
AcDbLine
 10
541.1364379884376
 20
294.2622225468172
 30
0.0000000000000000
 11
541.5364379884370
 21
294.6622225468165
 31
0.0000000000000000
  0
LINE
  5
229
100
AcDbEntity
  8
MAIN0
  6
CONTINUOUS
 62
3
100
AcDbLine
 10
565.5364379884369
 20
294.6622225468167
 30
0.0000000000000000
 11
566.1364379884368
 21
294.0622225468168
 31
0.0000000000000000
  0
LINE
  5
22A
100
AcDbEntity
  8
MAIN0
  6
CONTINUOUS
 62
3
100
AcDbLine
 10
541.5364379884367
 20
294.6622225468168
 30
0.0000000000000000
 11
565.5364379884367
 21
294.6622225468168
 31
0.0000000000000000
  0
LINE
  5
22B
100
AcDbEntity
  8
MAIN0
  6
CONTINUOUS
 62
3
100
AcDbLine
 10
541.1364379884070
 20
234.1622225466591
 30
0.0000000000000000
 11
565.5364379884067
 21
234.1622225466591
 31
0.0000000000000000
  0
LINE
  5
22C
100
AcDbEntity
  8
MAIN0
  6
CONTINUOUS
 62
3
100
AcDbLine
 10
565.5364379884069
 20
234.1622225466597
 30
0.0000000000000000
 11
566.1364379884066
 21
234.7622225466594
 31
0.0000000000000000
  0
LINE
  5
22D
100
AcDbEntity
  8
MAIN0
  6
CONTINUOUS
 62
3
100
AcDbLine
 10
585.6364379884315
 20
288.6622225466417
 30
0.0000000000000000
 11
566.1364379884323
 21
288.6622225466417
 31
0.0000000000000000
  0
LINE
  5
22E
100
AcDbEntity
  8
MAIN0
  6
CONTINUOUS
 62
3
100
AcDbLine
 10
585.6364379884315
 20
238.6622225466413
 30
0.0000000000000000
 11
566.1364379884323
 21
238.6622225466413
 31
0.0000000000000000
  0
LINE
  5
22F
100
AcDbEntity
  8
MAIN0
  6
CONTINUOUS
 62
3
100
AcDbLine
 10
585.6364379884317
 20
288.6622225466418
 30
0.0000000000000000
 11
585.6364379884316
 21
238.6622225466419
 31
0.0000000000000000
  0
LINE
  5
230
100
AcDbEntity
  8
MAIN0
  6
CONTINUOUS
 62
3
100
AcDbLine
 10
566.1364379884069
 20
234.7622225466599
 30
0.0000000000000000
 11
566.1364379884369
 21
294.0622225468163
 31
0.0000000000000000
  0
LINE
  5
231
100
AcDbEntity
  8
MAIN0
  6
CONTINUOUS
 62
3
100
AcDbLine
 10
541.1364379884071
 20
235.1622225466594
 30
0.0000000000000000
 11
541.1364379884370
 21
293.7622225468167
 31
0.0000000000000000
  0
LINE
  5
232
100
AcDbEntity
  8
MAIN0
  6
CONTINUOUS
 62
3
100
AcDbLine
 10
554.1364379883580
 20
294.6622225466665
 30
0.0000000000000000
 11
554.1364379886356
 21
234.1622225466714
 31
0.0000000000000000
  0
LINE
  5
233
100
AcDbEntity
  8
MAIN0
  6
CONTINUOUS
 62
3
100
AcDbLine
 10
556.1364379883435
 20
294.6622225466665
 30
0.0000000000000000
 11
556.1364379887655
 21
234.1622225466784
 31
0.0000000000000000
  0
LINE
  5
234
100
AcDbEntity
  8
MAIN0
  6
CONTINUOUS
 62
3
100
AcDbLine
 10
503.1364379884314
 20
241.5262789253774
 30
0.0000000000000000
 11
541.1364379884321
 21
241.5262789254090
 31
0.0000000000000000
  0
LINE
  5
235
100
AcDbEntity
  8
MAIN0
  6
CONTINUOUS
 62
3
100
AcDbLine
 10
266.1364379884320
 20
437.3847318743105
 30
0.0000000000000000
 11
266.1364379884323
 21
536.5847318743106
 31
0.0000000000000000
  0
LINE
  5
236
100
AcDbEntity
  8
MAIN0
  6
CONTINUOUS
 62
3
100
AcDbLine
 10
398.1364379307942
 20
536.5847318742208
 30
0.0000000000000000
 11
398.1364379307942
 21
437.3847318742206
 31
0.0000000000000000
  0
LINE
  5
237
100
AcDbEntity
  8
MAIN0
  6
CONTINUOUS
 62
3
100
AcDbLine
 10
398.1364379307940
 20
437.5847318742204
 30
0.0000000000000000
 11
397.5364379307941
 21
436.9847318742205
 31
0.0000000000000000
  0
LINE
  5
238
100
AcDbEntity
  8
MAIN0
  6
CONTINUOUS
 62
3
100
AcDbLine
 10
397.5364379307943
 20
536.9847318742208
 30
0.0000000000000000
 11
398.1364379307943
 21
536.3847318742209
 31
0.0000000000000000
  0
LINE
  5
239
100
AcDbEntity
  8
MAIN0
  6
CONTINUOUS
 62
3
100
AcDbLine
 10
266.7364379884320
 20
436.9847318743710
 30
0.0000000000000000
 11
266.1364379884321
 21
437.5847318743710
 31
0.0000000000000000
  0
LINE
  5
23A
100
AcDbEntity
  8
MAIN0
  6
CONTINUOUS
 62
3
100
AcDbLine
 10
266.7364379884323
 20
536.9847318743707
 30
0.0000000000000000
 11
266.1364379884322
 21
536.3847318743708
 31
0.0000000000000000
  0
LEADER
  5
23B
100
AcDbEntity
  8
MAIN0
  6
CONTINUOUS
 62
3
100
AcDbLeader
  3
MAIN001
 73
     0
 75
     1
 40
6.199999809265137
 41
99.55900256538391
 76
     3
 10
287.3853081384708
 20
490.2911520530225
 30
0.0000000000000000
 10
242.3317047914345
 20
558.8615848659360
 30
0.0000000000000000
 10
238.4787049030144
 20
558.8615848659360
 30
0.0000000000000000
340
23C
213
0.0000000000000000
223
-1.000000000000000
233
0.0000000000000000
1001
ACAD
1000
DSTYLE
1002
{
1070
   147
1040
0.0
1070
    77
1070
     1
1070
   173
1070
     1
1070
     6
1000
_OPEN
1070
     7
1000
_OPEN
1002
}
  0
MTEXT
  5
23C
102
{ACAD_REACTORS
330
23B
102
}
100
AcDbEntity
  8
MAIN0
  6
CONTINUOUS
 62
3
100
AcDbMText
 10
138.9197023376304
 20
566.0615846752012
 30
0.0000000000000000
 40
6.199999809265137
 41
0.0000000000000000
 71
     1
 72
     1
  1
{\H0.94x;{吊りボルト用（EYE BOLT）\P(2ｘM8深さ16)\P     DEPTH\P}
 11
1.000000000000000
 21
0.0000000000000000
 31
0.0000000000000000
  7
KNJYOKO
  0
LEADER
  5
23D
100
AcDbEntity
  8
MAIN0
  6
CONTINUOUS
 62
3
100
AcDbLeader
  3
MAIN001
 73
     0
 74
     0
 75
     1
 40
6.199999809265137
 41
34.10100097751615
 76
     3
 10
427.8659322075670
 20
285.0862371346510
 30
0.0000000000000000
 10
452.5350269062421
 20
324.0218017875405
 30
0.0000000000000000
 10
456.3860267946623
 20
324.0218017875405
 30
0.0000000000000000
340
23E
213
0.0000000000000000
223
-1.000000000000000
233
0.0000000000000000
1001
ACAD
1000
DSTYLE
1002
{
1070
   147
1040
0.0
1070
    77
1070
     1
1070
   173
1070
     1
1070
     6
1000
_OPEN
1070
     7
1000
_OPEN
1002
}
  0
MTEXT
  5
23E
102
{ACAD_REACTORS
330
23D
102
}
100
AcDbEntity
  8
MAIN0
  6
CONTINUOUS
 62
3
100
AcDbMText
 10
456.3870267946622
 20
331.2218015968056
 30
0.0000000000000000
 40
6.199999809265137
 41
0.0000000000000000
 71
     1
 72
     1
  1
{\H0.92x;{2×2-M8}}
 11
1.000000000000000
 21
0.0000000000000000
 31
0.0000000000000000
  7
KNJYOKO
  0
DIMENSION
  5
246
100
AcDbEntity
  8
MAIN0
  6
CONTINUOUS
 62
3
100
AcDbDimension
  2
*D30
 10
230.1364379884378
 20
249.6426632519713
 30
0.0000000000000000
 11
275.1364379884345
 21
250.1426632519713
 31
0.0000000000000000
 70
32
  3
MAIN001
100
AcDbAlignedDimension
 13
320.1364379884312
 23
276.1622225471865
 33
0.0000000000000000
 14
230.1364379884266
 24
294.0622225469219
 34
0.0000000000000000
100
AcDbRotatedDimension
1001
ACAD
1000
DSTYLE
1002
{
1070
   173
1070
     1
1070
     6
1000
_OPEN
1070
     7
1000
_OPEN
1070
    41
1040
4.000000
1002
}
  0
DIMENSION
  5
24F
100
AcDbEntity
  8
MAIN0
  6
CONTINUOUS
 62
3
100
AcDbDimension
  2
*D31
 10
320.1364379884312
 20
249.6426632519713
 30
0.0000000000000000
 11
372.6364379884313
 21
250.1426632519713
 31
0.0000000000000000
 70
32
  3
MAIN001
100
AcDbAlignedDimension
 13
425.1364379884313
 23
276.1622225471865
 33
0.0000000000000000
 14
320.1364379884312
 24
276.1622225471865
 34
0.0000000000000000
100
AcDbRotatedDimension
1001
ACAD
1000
DSTYLE
1002
{
1070
   173
1070
     1
1070
     6
1000
_OPEN
1070
     7
1000
_OPEN
1070
    41
1040
4.000000
1002
}
  0
DIMENSION
  5
257
100
AcDbEntity
  8
MAIN0
  6
CONTINUOUS
 62
3
100
AcDbDimension
  2
*D32
 10
425.1364379884313
 20
249.6426632519713
 30
0.0000000000000000
 11
464.1364379884313
 21
250.1426632519713
 31
0.0000000000000000
 70
32
  3
MAIN001
100
AcDbAlignedDimension
 13
503.1364379884313
 23
230.0622225469145
 33
0.0000000000000000
 14
425.1364379884313
 24
276.1622225471865
 34
0.0000000000000000
100
AcDbRotatedDimension
1001
ACAD
1000
DSTYLE
1002
{
1070
   173
1070
     1
1070
     6
1000
_OPEN
1070
     7
1000
_OPEN
1070
    41
1040
4.000000
1002
}
  0
DIMENSION
  5
25F
100
AcDbEntity
  8
MAIN0
  6
CONTINUOUS
 62
3
100
AcDbDimension
  2
*D33
 10
408.7424340794532
 20
229.6622225469142
 30
0.0000000000000000
 11
407.7424340794532
 21
259.9832378868298
 31
0.0000000000000000
 70
160
  3
MAIN001
100
AcDbAlignedDimension
 13
419.1364379884313
 23
282.1622225471865
 33
0.0000000000000000
 14
397.5364379884374
 24
229.6622225469142
 34
0.0000000000000000
 50
90.00000000000000
100
AcDbRotatedDimension
1001
ACAD
1000
DSTYLE
1002
{
1070
   173
1070
     1
1070
     6
1000
_OPEN
1070
     7
1000
_OPEN
1070
    41
1040
4.000000
1002
}
  0
DIMENSION
  5
268
100
AcDbEntity
  8
MAIN0
  6
CONTINUOUS
 62
3
100
AcDbDimension
  2
*D34
 10
585.6364379884316
 20
181.6285894197277
 30
0.0000000000000000
 11
544.3864379884315
 21
182.1285894197277
 31
0.0000000000000000
 70
32
  3
MAIN001
100
AcDbAlignedDimension
 13
503.1364379884313
 23
230.0622225469145
 33
0.0000000000000000
 14
585.6364379884316
 24
238.6622225466419
 34
0.0000000000000000
100
AcDbRotatedDimension
1001
ACAD
1000
DSTYLE
1002
{
1070
   173
1070
     1
1070
     6
1000
_OPEN
1070
     7
1000
_OPEN
1070
    41
1040
4.000000
1002
}
  0
DIMENSION
  5
271
100
AcDbEntity
  8
MAIN0
  6
CONTINUOUS
 62
3
100
AcDbDimension
  2
*D35
 10
503.1364379884313
 20
181.6285894197277
 30
0.0000000000000000
 11
366.6364379884346
 21
182.1285894197277
 31
0.0000000000000000
 70
32
  3
MAIN001
100
AcDbAlignedDimension
 13
230.1364379884379
 23
230.0622225470601
 33
0.0000000000000000
 14
503.1364379884313
 24
230.0622225469145
 34
0.0000000000000000
100
AcDbRotatedDimension
1001
ACAD
1000
DSTYLE
1002
{
1070
   173
1070
     1
1070
     6
1000
_OPEN
1070
     7
1000
_OPEN
1070
    41
1040
4.000000
1002
}
  0
DIMENSION
  5
27C
100
AcDbEntity
  8
MAIN0
  6
CONTINUOUS
 62
3
100
AcDbDimension
  2
*D36
 10
230.1364379884266
 20
376.3095218396290
 30
0.0000000000000000
 11
224.5128114476197
 21
377.3095218396290
 31
0.0000000000000000
 70
160
  3
MAIN001
100
AcDbAlignedDimension
 13
231.1364379884265
 23
314.0622225469220
 33
0.0000000000000000
 14
230.1364379884266
 24
294.0622225469219
 34
0.0000000000000000
100
AcDbRotatedDimension
1001
ACAD
1000
DSTYLE
1002
{
1070
   173
1070
     1
1070
     6
1000
_OPEN
1070
     7
1000
_OPEN
1070
    41
1040
4.000000
1070
   287
1070
     0
1002
}
  0
DIMENSION
  5
285
100
AcDbEntity
  8
MAIN0
  6
CONTINUOUS
 62
3
100
AcDbDimension
  2
*D37
 10
231.1364379884265
 20
376.3095218396290
 30
0.0000000000000000
 11
267.6364379884264
 21
376.8095218396290
 31
0.0000000000000000
 70
32
  3
MAIN001
100
AcDbAlignedDimension
 13
304.1364379884263
 23
334.4622225469220
 33
0.0000000000000000
 14
231.1364379884265
 24
314.0622225469220
 34
0.0000000000000000
100
AcDbRotatedDimension
1001
ACAD
1000
DSTYLE
1002
{
1070
   173
1070
     1
1070
     6
1000
_OPEN
1070
     7
1000
_OPEN
1070
    41
1040
4.000000
1002
}
  0
DIMENSION
  5
28E
100
AcDbEntity
  8
MAIN0
  6
CONTINUOUS
 62
3
100
AcDbDimension
  2
*D38
 10
304.1364379884263
 20
376.3095218396290
 30
0.0000000000000000
 11
336.6364379884264
 21
376.8095218396290
 31
0.0000000000000000
 70
32
  1
\A1;MAX128
  3
MAIN001
100
AcDbAlignedDimension
 13
369.1364379884265
 23
334.4622225469220
 33
0.0000000000000000
 14
304.1364379884263
 24
334.4622225469220
 34
0.0000000000000000
100
AcDbRotatedDimension
1001
ACAD
1000
DSTYLE
1002
{
1070
   173
1070
     1
1070
     6
1000
_OPEN
1070
     7
1000
_OPEN
1070
    41
1040
4.000000
1002
}
  0
DIMENSION
  5
297
100
AcDbEntity
  8
MAIN0
  6
CONTINUOUS
 62
1
100
AcDbDimension
  2
*D39
 10
369.1364379884265
 20
376.3095218396290
 30
0.0000000000000000
 11
401.1364379884266
 21
376.8095218396290
 31
0.0000000000000000
 70
32
  3
MAIN001
100
AcDbAlignedDimension
 13
433.1364379884267
 23
314.0622225469483
 33
0.0000000000000000
 14
369.1364379884265
 24
334.4622225469220
 34
0.0000000000000000
100
AcDbRotatedDimension
1001
ACAD
1000
DSTYLE
1002
{
1070
   173
1070
     1
1070
     6
1000
_OPEN
1070
     7
1000
_OPEN
1070
    41
1040
4.000000
1002
}
  0
DIMENSION
  5
2A2
100
AcDbEntity
  8
MAIN0
  6
CONTINUOUS
 62
3
100
AcDbDimension
  2
*D40
 10
383.6364379312959
 20
414.5259306213475
 30
0.0000000000000000
 11
358.0530185553985
 21
415.5259306213475
 31
0.0000000000000000
 70
160
  3
MAIN001
100
AcDbAlignedDimension
 13
369.1364379307942
 23
437.4847318742208
 33
0.0000000000000000
 14
383.6364379312959
 24
478.9847318742208
 34
0.0000000000000000
100
AcDbRotatedDimension
1001
ACAD
1000
DSTYLE
1002
{
1070
   173
1070
     1
1070
     6
1000
_OPEN
1070
     7
1000
_OPEN
1070
    41
1040
4.000000
1070
   287
1070
     0
1002
}
  0
LINE
  5
2A3
100
AcDbEntity
  8
MAIN0
  6
CONTINUOUS
 62
3
100
AcDbLine
 10
533.1364379896530
 20
269.6622225472955
 30
0.0000000000000000
 11
541.1364379884248
 21
269.6622225472822
 31
0.0000000000000000
  0
LINE
  5
2A4
100
AcDbEntity
  8
MAIN0
  6
CONTINUOUS
 62
3
100
AcDbLine
 10
150.1841844489949
 20
288.6622225470518
 30
0.0000000000000000
 11
150.1841844489949
 21
270.6622225470517
 31
0.0000000000000000
  0
DIMENSION
  5
2AD
100
AcDbEntity
  8
MAIN0
  6
CONTINUOUS
 62
3
100
AcDbDimension
  2
*D41
 10
433.1364379884267
 20
364.2493771973955
 30
0.0000000000000000
 11
415.6364379884267
 21
364.7493771973955
 31
0.0000000000000000
 70
32
  3
MAIN001
100
AcDbAlignedDimension
 13
398.1364379884267
 23
334.1622225469220
 33
0.0000000000000000
 14
433.1364379884267
 24
314.0622225469483
 34
0.0000000000000000
100
AcDbRotatedDimension
1001
ACAD
1000
DSTYLE
1002
{
1070
   173
1070
     1
1070
     6
1000
_OPEN
1070
     7
1000
_OPEN
1070
    41
1040
4.000000
1002
}
  0
DIMENSION
  5
2B6
100
AcDbEntity
  8
MAIN0
  6
CONTINUOUS
 62
3
100
AcDbDimension
  2
*D42
 10
398.1364379884267
 20
364.2493771973955
 30
0.0000000000000000
 11
383.6364379884266
 21
364.7493771973955
 31
0.0000000000000000
 70
32
  3
MAIN001
100
AcDbAlignedDimension
 13
369.1364379884265
 23
334.4622225469220
 33
0.0000000000000000
 14
398.1364379884267
 24
334.1622225469220
 34
0.0000000000000000
100
AcDbRotatedDimension
1001
ACAD
1000
DSTYLE
1002
{
1070
   173
1070
     1
1070
     6
1000
_OPEN
1070
     7
1000
_OPEN
1070
    41
1040
4.000000
1002
}
  0
DIMENSION
  5
2BF
100
AcDbEntity
  8
MAIN0
  6
CONTINUOUS
 62
3
100
AcDbDimension
  2
*D43
 10
304.1364379884263
 20
364.2493771973955
 30
0.0000000000000000
 11
285.1364379885835
 21
364.7493771973955
 31
0.0000000000000000
 70
32
  3
MAIN001
100
AcDbAlignedDimension
 13
266.1364379887407
 23
334.1622225469221
 33
0.0000000000000000
 14
304.1364379884263
 24
334.4622225469220
 34
0.0000000000000000
100
AcDbRotatedDimension
1001
ACAD
1000
DSTYLE
1002
{
1070
   173
1070
     1
1070
     6
1000
_OPEN
1070
     7
1000
_OPEN
1070
    41
1040
4.000000
1002
}
  0
DIMENSION
  5
2C8
100
AcDbEntity
  8
MAIN0
  6
CONTINUOUS
 62
3
100
AcDbDimension
  2
*D44
 10
266.1364379887407
 20
364.2493771973955
 30
0.0000000000000000
 11
248.6364379885836
 21
364.7493771973955
 31
0.0000000000000000
 70
32
  3
MAIN001
100
AcDbAlignedDimension
 13
231.1364379884265
 23
314.0622225469220
 33
0.0000000000000000
 14
266.1364379887407
 24
334.1622225469221
 34
0.0000000000000000
100
AcDbRotatedDimension
1001
ACAD
1000
DSTYLE
1002
{
1070
   173
1070
     1
1070
     6
1000
_OPEN
1070
     7
1000
_OPEN
1070
    41
1040
4.000000
1002
}
  0
DIMENSION
  5
2D1
100
AcDbEntity
  8
MAIN0
  6
CONTINUOUS
 62
3
100
AcDbDimension
  2
*D45
 10
217.1364379884266
 20
334.6622225469220
 30
0.0000000000000000
 11
216.6364379884266
 21
324.6622225469220
 31
0.0000000000000000
 70
32
  3
MAIN001
100
AcDbAlignedDimension
 13
231.7364379884265
 23
314.6622225469220
 33
0.0000000000000000
 14
231.3364379884264
 24
334.6622225469220
 34
0.0000000000000000
 50
90.00000000000000
100
AcDbRotatedDimension
1001
ACAD
1000
DSTYLE
1002
{
1070
   173
1070
     1
1070
     6
1000
_OPEN
1070
     7
1000
_OPEN
1070
    41
1040
4.000000
1002
}
  0
DIMENSION
  5
2DA
100
AcDbEntity
  8
MAIN0
  6
CONTINUOUS
 62
3
100
AcDbDimension
  2
*D46
 10
217.1364379884266
 20
314.6622225469220
 30
0.0000000000000000
 11
216.6364379884266
 21
304.6622225469220
 31
0.0000000000000000
 70
32
  3
MAIN001
100
AcDbAlignedDimension
 13
231.5364379884265
 23
294.6622225469221
 33
0.0000000000000000
 14
231.7364379884265
 24
314.6622225469220
 34
0.0000000000000000
 50
90.00000000000000
100
AcDbRotatedDimension
1001
ACAD
1000
DSTYLE
1002
{
1070
   173
1070
     1
1070
     6
1000
_OPEN
1070
     7
1000
_OPEN
1070
    41
1040
4.000000
1002
}
  0
LINE
  5
2DB
100
AcDbEntity
  8
MAIN0
  6
CONTINUOUS
 62
3
100
AcDbLine
 10
709.5088485430442
 20
314.6622225462392
 30
0.0000000000000000
 11
809.5088485430440
 21
314.6622225462392
 31
0.0000000000000000
  0
LINE
  5
2DC
100
AcDbEntity
  8
MAIN0
  6
CONTINUOUS
 62
3
100
AcDbLine
 10
73.78418444893171
 20
263.6622225469369
 30
0.0000000000000000
 11
68.18418444893248
 21
263.6622225469374
 31
0.0000000000000000
  0
LINE
  5
2DD
100
AcDbEntity
  8
MAIN0
  6
CONTINUOUS
 62
3
100
AcDbLine
 10
68.18418444890983
 20
275.6622225469370
 30
0.0000000000000000
 11
68.18418444893194
 21
263.6622225469370
 31
0.0000000000000000
  0
LINE
  5
2DE
100
AcDbEntity
  8
MAIN0
  6
CONTINUOUS
 62
3
100
AcDbLine
 10
72.78418444890988
 20
275.6622225469366
 30
0.0000000000000000
 11
68.18418444890975
 21
275.6622225469372
 31
0.0000000000000000
  0
LINE
  5
2DF
100
AcDbEntity
  8
MAIN0
  6
CONTINUOUS
 62
3
100
AcDbLine
 10
125.5841844489099
 20
275.6622225470339
 30
0.0000000000000000
 11
130.1841844489101
 21
275.6622225470514
 31
0.0000000000000000
  0
LINE
  5
2E0
100
AcDbEntity
  8
MAIN0
  6
CONTINUOUS
 62
3
100
AcDbLine
 10
130.1841844489096
 20
275.6622225470516
 30
0.0000000000000000
 11
130.1841844489318
 21
263.6622225470516
 31
0.0000000000000000
  0
LINE
  5
2E1
100
AcDbEntity
  8
MAIN0
  6
CONTINUOUS
 62
3
100
AcDbLine
 10
124.5841844489323
 20
263.6622225470358
 30
0.0000000000000000
 11
130.1841844489320
 21
263.6622225470515
 31
0.0000000000000000
  0
LINE
  5
2E2
100
AcDbEntity
  8
MAIN0
  6
CONTINUOUS
 62
3
100
AcDbLine
 10
124.1841844489325
 20
263.2622225470286
 30
0.0000000000000000
 11
124.1841844489630
 21
246.6622225473967
 31
0.0000000000000000
  0
ARC
  5
2E3
100
AcDbEntity
  8
MAIN0
  6
CONTINUOUS
 62
3
100
AcDbCircle
 10
118.1841844489612
 20
246.6622225473857
 30
0.0000000000000000
 40
6.000000000000000
100
AcDbArc
 50
270.0000000000000
 51
360.0000000000000
  0
LINE
  5
2E4
100
AcDbEntity
  8
MAIN0
  6
CONTINUOUS
 62
3
100
AcDbLine
 10
80.18418444896278
 20
240.6622225472279
 30
0.0000000000000000
 11
118.1841844489628
 21
240.6622225472380
 31
0.0000000000000000
  0
ARC
  5
2E5
100
AcDbEntity
  8
MAIN0
  6
CONTINUOUS
 62
3
100
AcDbCircle
 10
80.18418444896116
 20
246.6622225473113
 30
0.0000000000000000
 40
6.000000000000000
100
AcDbArc
 50
180.0000000000000
 51
270.0000000000000
  0
LINE
  5
2E6
100
AcDbEntity
  8
MAIN0
  6
CONTINUOUS
 62
3
100
AcDbLine
 10
74.18418444893231
 20
263.2622225469327
 30
0.0000000000000000
 11
74.18418444896281
 21
246.6622225473003
 31
0.0000000000000000
  0
LINE
  5
2E7
100
AcDbEntity
  8
MAIN0
  6
CONTINUOUS
 62
3
100
AcDbLine
 10
125.1841844489092
 20
276.0622225470328
 30
0.0000000000000000
 11
125.5841844489100
 21
275.6622225470343
 31
0.0000000000000000
  0
LINE
  5
2E8
100
AcDbEntity
  8
MAIN0
  6
CONTINUOUS
 62
3
100
AcDbLine
 10
72.78418444891000
 20
275.6622225469367
 30
0.0000000000000000
 11
73.18418444890926
 21
276.0622225469367
 31
0.0000000000000000
  0
LINE
  5
2E9
100
AcDbEntity
  8
MAIN0
  6
CONTINUOUS
 62
3
100
AcDbLine
 10
124.1841844489325
 20
263.2622225470346
 30
0.0000000000000000
 11
124.5841844489318
 21
263.6622225470358
 31
0.0000000000000000
  0
LINE
  5
2EA
100
AcDbEntity
  8
MAIN0
  6
CONTINUOUS
 62
3
100
AcDbLine
 10
74.18418444893243
 20
263.2622225469368
 30
0.0000000000000000
 11
73.78418444893163
 21
263.6622225469369
 31
0.0000000000000000
  0
LINE
  5
2EB
100
AcDbEntity
  8
MAIN0
  6
CONTINUOUS
 62
3
100
AcDbLine
 10
74.18418444896469
 20
246.1622225472263
 30
0.0000000000000000
 11
124.1841844489648
 21
246.1622225472396
 31
0.0000000000000000
  0
LINE
  5
2EC
100
AcDbEntity
  8
MAIN0
  6
CONTINUOUS
 62
3
100
AcDbLine
 10
125.1841844490037
 20
289.6622225469295
 30
0.0000000000000000
 11
73.18418444900391
 21
289.6622225469365
 31
0.0000000000000000
  0
DIMENSION
  5
2F5
100
AcDbEntity
  8
MAIN0
  6
CONTINUOUS
 62
3
100
AcDbDimension
  2
*D47
 10
230.1364379884378
 20
154.0971606853822
 30
0.0000000000000000
 11
407.8864379884347
 21
154.5971606853822
 31
0.0000000000000000
 70
32
  3
MAIN001
100
AcDbAlignedDimension
 13
585.6364379884316
 23
238.6622225466419
 33
0.0000000000000000
 14
230.1364379884379
 24
230.0622225470601
 34
0.0000000000000000
100
AcDbRotatedDimension
1001
ACAD
1000
DSTYLE
1002
{
1070
   173
1070
     1
1070
     6
1000
_OPEN
1070
     7
1000
_OPEN
1070
    41
1040
4.000000
1002
}
  0
LINE
  5
2F6
100
AcDbEntity
  8
MAIN0
  6
CONTINUOUS
 62
3
100
AcDbLine
 10
265.7364379884320
 20
436.9847318743105
 30
0.0000000000000000
 11
266.1364379884320
 21
437.3847318743105
 31
0.0000000000000000
  0
LINE
  5
2F7
100
AcDbEntity
  8
MAIN0
  6
CONTINUOUS
 62
3
100
AcDbLine
 10
266.7364379888974
 20
436.9847318739056
 30
0.0000000000000000
 11
303.6364379880681
 21
436.9847318739465
 31
0.0000000000000000
  0
LINE
  5
2F8
100
AcDbEntity
  8
MAIN0
  6
CONTINUOUS
 62
3
100
AcDbLine
 10
265.7364379884322
 20
536.9847318743107
 30
0.0000000000000000
 11
266.1364379884322
 21
536.5847318743106
 31
0.0000000000000000
  0
LINE
  5
2F9
100
AcDbEntity
  8
MAIN0
  6
CONTINUOUS
 62
3
100
AcDbLine
 10
266.7364379884323
 20
536.9847318745138
 30
0.0000000000000000
 11
303.6364379882285
 21
536.9847318745138
 31
0.0000000000000000
  0
LINE
  5
2FA
100
AcDbEntity
  8
MAIN0
  6
CONTINUOUS
 62
3
100
AcDbLine
 10
398.1364379307943
 20
437.3847318742206
 30
0.0000000000000000
 11
398.5364379307943
 21
436.9847318742206
 31
0.0000000000000000
  0
LINE
  5
2FB
100
AcDbEntity
  8
MAIN0
  6
CONTINUOUS
 62
3
100
AcDbLine
 10
398.1364379307942
 20
536.5847318742208
 30
0.0000000000000000
 11
398.5364379307941
 21
536.9847318742206
 31
0.0000000000000000
  0
LINE
  5
2FC
100
AcDbEntity
  8
MAIN0
  6
CONTINUOUS
 62
3
100
AcDbLine
 10
369.6364379310875
 20
536.9847318745138
 30
0.0000000000000000
 11
397.5364379305011
 21
536.9847318745138
 31
0.0000000000000000
  0
LINE
  5
2FD
100
AcDbEntity
  8
MAIN0
  6
CONTINUOUS
 62
3
100
AcDbLine
 10
369.6364379313749
 20
436.9847318736396
 30
0.0000000000000000
 11
397.5364379301515
 21
436.9847318735777
 31
0.0000000000000000
  0
LINE
  5
2FE
100
AcDbEntity
  8
MAIN0
  6
CONTINUOUS
 62
3
100
AcDbLine
 10
433.1364379305002
 20
432.4847318741609
 30
0.0000000000000000
 11
433.1364379306711
 21
541.4847318741606
 31
0.0000000000000000
  0
LINE
  5
2FF
100
AcDbEntity
  8
MAIN0
  6
CONTINUOUS
 62
3
100
AcDbLine
 10
231.1364379885102
 20
315.2622225468381
 30
0.0000000000000000
 11
231.1364379885102
 21
334.4622225470058
 31
0.0000000000000000
  0
LINE
  5
300
100
AcDbEntity
  8
MAIN0
  6
CONTINUOUS
 62
3
100
AcDbLine
 10
433.1364379885102
 20
295.0622225470718
 30
0.0000000000000000
 11
433.1364379885102
 21
314.0622225468646
 31
0.0000000000000000
  0
LINE
  5
301
100
AcDbEntity
  8
MAIN0
  6
CONTINUOUS
 62
3
100
AcDbLine
 10
266.6364379887706
 20
334.6622225469523
 30
0.0000000000000000
 11
304.1364379884263
 21
334.6622225469107
 31
0.0000000000000000
  0
LINE
  5
302
100
AcDbEntity
  8
MAIN0
  6
CONTINUOUS
 62
3
100
AcDbLine
 10
369.1364379884265
 20
334.6622225468387
 30
0.0000000000000000
 11
397.6364379884266
 21
334.6622225468071
 31
0.0000000000000000
  0
LINE
  5
303
100
AcDbEntity
  8
MAIN0
  6
CONTINUOUS
 62
3
100
AcDbLine
 10
397.1364379884375
 20
230.0622225469142
 30
0.0000000000000000
 11
397.1364379884375
 21
233.6622225469145
 31
0.0000000000000000
  0
LINE
  5
304
100
AcDbEntity
  8
MAIN0
  6
CONTINUOUS
 62
3
100
AcDbLine
 10
397.5364379884375
 20
229.6622225469142
 30
0.0000000000000000
 11
397.1364379884374
 21
230.0622225469142
 31
0.0000000000000000
  0
LINE
  5
305
100
AcDbEntity
  8
MAIN0
  6
CONTINUOUS
 62
3
100
AcDbLine
 10
397.1364379884375
 20
224.6622225469424
 30
0.0000000000000000
 11
383.1364379884375
 21
224.6622225469424
 31
0.0000000000000000
  0
LINE
  5
306
100
AcDbEntity
  8
MAIN0
  6
CENTER
 62
3
100
AcDbLine
 10
390.1364379884375
 20
239.7112564701137
 30
0.0000000000000000
 11
390.1364379884375
 21
221.6622225469142
 31
0.0000000000000000
  0
LINE
  5
307
100
AcDbEntity
  8
MAIN0
  6
CONTINUOUS
 62
3
100
AcDbLine
 10
397.1364379884375
 20
224.6622225469424
 30
0.0000000000000000
 11
397.1364379884375
 21
233.6622225469144
 31
0.0000000000000000
  0
LINE
  5
308
100
AcDbEntity
  8
MAIN0
  6
CONTINUOUS
 62
3
100
AcDbLine
 10
397.1364379884375
 20
233.6622225469142
 30
0.0000000000000000
 11
383.1364379884375
 21
233.6622225469142
 31
0.0000000000000000
  0
LINE
  5
309
100
AcDbEntity
  8
MAIN0
  6
CONTINUOUS
 62
3
100
AcDbLine
 10
383.1364379884375
 20
224.6622225469424
 30
0.0000000000000000
 11
383.1364379884375
 21
229.6622225468986
 31
0.0000000000000000
  0
DIMENSION
  5
314
100
AcDbEntity
  8
MAIN0
  6
CONTINUOUS
 62
3
100
AcDbDimension
  2
*D48
 10
383.1364379884375
 20
206.6622225469133
 30
0.0000000000000000
 11
404.2072746363240
 21
207.6622225469133
 31
0.0000000000000000
 70
160
  3
MAIN001
100
AcDbAlignedDimension
 13
397.1364379884375
 23
224.6622225469424
 33
0.0000000000000000
 14
383.1364379884375
 24
224.6622225469424
 34
0.0000000000000000
100
AcDbRotatedDimension
1001
ACAD
1000
DSTYLE
1002
{
1070
   173
1070
     1
1070
     6
1000
_OPEN
1070
     7
1000
_OPEN
1070
    41
1040
4.000000
1070
   287
1070
     0
1002
}
  0
DIMENSION
  5
31D
100
AcDbEntity
  8
MAIN0
  6
CONTINUOUS
 62
3
100
AcDbDimension
  2
*D49
 10
304.1364379884263
 20
196.9238663209812
 30
0.0000000000000000
 11
347.1364379884319
 21
197.4238663209812
 31
0.0000000000000000
 70
32
  3
MAIN001
100
AcDbAlignedDimension
 13
390.1364379884375
 23
221.6622225469142
 33
0.0000000000000000
 14
304.1364379884263
 24
295.0622225469220
 34
0.0000000000000000
100
AcDbRotatedDimension
1001
ACAD
1000
DSTYLE
1002
{
1070
   173
1070
     1
1070
     6
1000
_OPEN
1070
     7
1000
_OPEN
1070
    41
1040
4.000000
1002
}
  0
DIMENSION
  5
327
100
AcDbEntity
  8
MAIN0
  6
CONTINUOUS
 62
3
100
AcDbDimension
  2
*D50
 10
369.7063004095036
 20
224.6622225469424
 30
0.0000000000000000
 11
368.7063004095036
 21
217.5463950969465
 31
0.0000000000000000
 70
160
  3
MAIN001
100
AcDbAlignedDimension
 13
383.1364379884375
 23
229.6622225468986
 33
0.0000000000000000
 14
383.1364379884375
 24
224.6622225469424
 34
0.0000000000000000
 50
90.00000000000000
100
AcDbRotatedDimension
1001
ACAD
1000
DSTYLE
1002
{
1070
   173
1070
     1
1070
     6
1000
_OPEN
1070
     7
1000
_OPEN
1070
    41
1040
4.000000
1070
   287
1070
     0
1002
}
  0
LINE
  5
328
100
AcDbEntity
  8
MAIN0
  6
CONTINUOUS
 62
3
100
AcDbLine
 10
650.9269863180467
 20
455.9897949331327
 30
0.0000000000000000
 11
650.9269863180555
 21
328.9897949331329
 31
0.0000000000000000
  0
LINE
  5
329
100
AcDbEntity
  8
MAIN0
  6
CONTINUOUS
 62
3
100
AcDbLine
 10
658.9269863180482
 20
441.9897949331327
 30
0.0000000000000000
 11
658.9269863180580
 21
304.9897949331330
 31
0.0000000000000000
  0
LINE
  5
32A
100
AcDbEntity
  8
MAIN0
  6
CENTER
 62
3
100
AcDbLine
 10
593.1364379884317
 20
316.4897949331330
 30
0.0000000000000000
 11
660.7904507059288
 21
316.4897949331331
 31
0.0000000000000000
  0
LINE
  5
32B
100
AcDbEntity
  8
MAIN0
  6
CONTINUOUS
 62
3
100
AcDbLine
 10
615.9269863180480
 20
309.4897949331330
 30
0.0000000000000000
 11
602.0269863180479
 21
309.4897949331330
 31
0.0000000000000000
  0
LINE
  5
32C
100
AcDbEntity
  8
MAIN0
  6
CONTINUOUS
 62
3
100
AcDbLine
 10
638.9269863180472
 20
316.4897949331327
 30
0.0000000000000000
 11
638.9269863180482
 21
307.3380543906625
 31
0.0000000000000000
  0
LINE
  5
32D
100
AcDbEntity
  8
MAIN0
  6
CONTINUOUS
 62
3
100
AcDbLine
 10
601.4269863180473
 20
316.4897949331328
 30
0.0000000000000000
 11
601.4269863180480
 21
310.0897949331329
 31
0.0000000000000000
  0
LINE
  5
32E
100
AcDbEntity
  8
MAIN0
  6
CONTINUOUS
 62
3
100
AcDbLine
 10
601.4269863180480
 20
310.0897949331328
 30
0.0000000000000000
 11
602.0269863180481
 21
309.4897949331328
 31
0.0000000000000000
  0
LINE
  5
32F
100
AcDbEntity
  8
MAIN0
  6
CONTINUOUS
 62
3
100
AcDbLine
 10
601.4269863180473
 20
316.4897949331330
 30
0.0000000000000000
 11
615.9269863180473
 21
316.4897949331331
 31
0.0000000000000000
  0
LINE
  5
330
100
AcDbEntity
  8
MAIN0
  6
CONTINUOUS
 62
3
100
AcDbLine
 10
615.9269863180480
 20
323.4897949331328
 30
0.0000000000000000
 11
602.0269863180479
 21
323.4897949331328
 31
0.0000000000000000
  0
LINE
  5
331
100
AcDbEntity
  8
MAIN0
  6
CONTINUOUS
 62
3
100
AcDbLine
 10
638.9269863180473
 20
316.4897949331330
 30
0.0000000000000000
 11
638.9269863180482
 21
325.3356167819231
 31
0.0000000000000000
  0
LINE
  5
332
100
AcDbEntity
  8
MAIN0
  6
CONTINUOUS
 62
3
100
AcDbLine
 10
601.4269863180471
 20
316.4897949331332
 30
0.0000000000000000
 11
601.4269863180477
 21
322.8897949331330
 31
0.0000000000000000
  0
LINE
  5
333
100
AcDbEntity
  8
MAIN0
  6
CONTINUOUS
 62
3
100
AcDbLine
 10
601.4269863180484
 20
322.8897949331328
 30
0.0000000000000000
 11
602.0269863180486
 21
323.4897949331328
 31
0.0000000000000000
  0
ELLIPSE
  5
334
100
AcDbEntity
  8
MAIN0
  6
CONTINUOUS
 62
3
100
AcDbEllipse
 10
608.9269863180476
 20
319.9897949331386
 30
0.0000000000000000
 11
-2.050000000000000
 21
0.0000000000000000
 31
0.0000000000000000
210
0.0000000000000000
220
0.0000000000000000
230
1.000000000000000
 40
0.8536585365853660
 41
0.0000000000000000
 42
6.283185307179586
  0
LINE
  5
335
100
AcDbEntity
  8
MAIN0
  6
CONTINUOUS
 62
3
100
AcDbLine
 10
653.0921902632329
 20
302.6942399753985
 30
0.0000000000000000
 11
640.1986517932608
 21
306.1490531960071
 31
0.0000000000000000
  0
LINE
  5
336
100
AcDbEntity
  8
MAIN0
  6
CONTINUOUS
 62
3
100
AcDbLine
 10
654.6451045338481
 20
302.4897949331331
 30
0.0000000000000000
 11
656.4269863180580
 21
302.4897949331331
 31
0.0000000000000000
  0
ARC
  5
337
100
AcDbEntity
  8
MAIN0
  6
CONTINUOUS
 62
3
100
AcDbCircle
 10
654.6451045338480
 20
308.4897949331331
 30
0.0000000000000000
 40
6.000000000000000
100
AcDbArc
 50
255.0000000000000
 51
270.0000000000001
  0
ARC
  5
338
100
AcDbEntity
  8
MAIN0
  6
CONTINUOUS
 62
3
100
AcDbCircle
 10
656.4269863180579
 20
304.9897949331331
 30
0.0000000000000000
 40
2.500000000000000
100
AcDbArc
 50
270.0000000000001
 51
360.0000000000001
  0
LINE
  5
339
100
AcDbEntity
  8
MAIN0
  6
CONTINUOUS
 62
3
100
AcDbLine
 10
646.4799005886700
 20
328.5135922124478
 30
0.0000000000000000
 11
640.1986517932610
 21
326.8305366702589
 31
0.0000000000000000
  0
ARC
  5
33A
100
AcDbEntity
  8
MAIN0
  6
CONTINUOUS
 62
3
100
AcDbCircle
 10
644.9269863180547
 20
334.3091471701820
 30
0.0000000000000000
 40
6.000000000000000
100
AcDbArc
 50
285.0000000000001
 51
360.0000000000001
  0
ARC
  5
33B
100
AcDbEntity
  8
MAIN0
  6
CONTINUOUS
 62
3
100
AcDbCircle
 10
648.4269863180474
 20
328.9897949331329
 30
0.0000000000000000
 40
2.500000000000000
100
AcDbArc
 50
294.6420549541069
 51
360.0000000000001
  0
LINE
  5
33C
100
AcDbEntity
  8
MAIN0
  6
CONTINUOUS
 62
3
100
AcDbLine
 10
615.9269863180473
 20
316.4897949331307
 30
0.0000000000000000
 11
615.9269863180483
 21
306.8897949331122
 31
0.0000000000000000
  0
LINE
  5
33D
100
AcDbEntity
  8
MAIN0
  6
CONTINUOUS
 62
3
100
AcDbLine
 10
616.3269863180481
 20
306.4897949331123
 30
0.0000000000000000
 11
637.6104613422338
 21
306.4897949331165
 31
0.0000000000000000
  0
LINE
  5
33E
100
AcDbEntity
  8
MAIN0
  6
CONTINUOUS
 62
3
100
AcDbLine
 10
615.9269863180473
 20
316.4897949331351
 30
0.0000000000000000
 11
615.9269863180482
 21
326.0897949331534
 31
0.0000000000000000
  0
LINE
  5
33F
100
AcDbEntity
  8
MAIN0
  6
CONTINUOUS
 62
3
100
AcDbLine
 10
616.3269863180483
 20
326.4897949331535
 30
0.0000000000000000
 11
637.6104613422338
 21
326.4897949331493
 31
0.0000000000000000
  0
ARC
  5
340
100
AcDbEntity
  8
MAIN0
  6
CONTINUOUS
 62
3
100
AcDbCircle
 10
637.6104613422357
 20
296.4897949331165
 30
0.0000000000000000
 40
10.00000000000000
100
AcDbArc
 50
75.00000000000004
 51
90.00000000000007
  0
ARC
  5
341
100
AcDbEntity
  8
MAIN0
  6
CONTINUOUS
 62
3
100
AcDbCircle
 10
637.6104613422357
 20
336.4897949331495
 30
0.0000000000000000
 40
10.00000000000000
100
AcDbArc
 50
270.0000000000001
 51
285.0000000000001
  0
LINE
  5
342
100
AcDbEntity
  8
MAIN0
  6
CONTINUOUS
 62
3
100
AcDbLine
 10
615.9269863180482
 20
326.0897949331535
 30
0.0000000000000000
 11
616.3269863180482
 21
326.4897949331534
 31
0.0000000000000000
  0
LINE
  5
343
100
AcDbEntity
  8
MAIN0
  6
CONTINUOUS
 62
3
100
AcDbLine
 10
615.9269863180481
 20
306.8897949331117
 30
0.0000000000000000
 11
616.3269863180481
 21
306.4897949331119
 31
0.0000000000000000
  0
LINE
  5
344
100
AcDbEntity
  8
MAIN0
  6
CONTINUOUS
 62
3
100
AcDbLine
 10
653.8551895483854
 20
323.9778507110781
 30
0.0000000000000000
 11
653.8551895483854
 21
304.8309286047812
 31
0.0000000000000000
  0
DIMENSION
  5
34D
100
AcDbEntity
  8
MAIN0
  6
CONTINUOUS
 62
3
100
AcDbDimension
  2
*D51
 10
730.9269863180471
 20
486.1308545197451
 30
0.0000000000000000
 11
666.1769863180475
 21
486.6308545197451
 31
0.0000000000000000
 70
32
  3
MAIN001
100
AcDbAlignedDimension
 13
601.4269863180479
 23
322.8897949331330
 33
0.0000000000000000
 14
730.9269863180471
 24
451.4897949331330
 34
0.0000000000000000
100
AcDbRotatedDimension
1001
ACAD
1000
DSTYLE
1002
{
1070
   173
1070
     1
1070
     6
1000
_OPEN
1070
     7
1000
_OPEN
1070
    41
1040
4.000000
1002
}
  0
DIMENSION
  5
356
100
AcDbEntity
  8
MAIN0
  6
CONTINUOUS
 62
3
100
AcDbDimension
  2
*D52
 10
584.5481748623438
 20
451.4897949331329
 30
0.0000000000000000
 11
584.0481748623438
 21
383.9897949331329
 31
0.0000000000000000
 70
32
  3
MAIN001
100
AcDbAlignedDimension
 13
593.1364379884319
 23
316.4897949331330
 33
0.0000000000000000
 14
645.2677357435479
 24
451.4897949331330
 34
0.0000000000000000
 50
90.00000000000000
100
AcDbRotatedDimension
1001
ACAD
1000
DSTYLE
1002
{
1070
   173
1070
     1
1070
     6
1000
_OPEN
1070
     7
1000
_OPEN
1070
    41
1040
4.000000
1002
}
  0
DIMENSION
  5
35E
100
AcDbEntity
  8
MAIN0
  6
CONTINUOUS
 62
3
100
AcDbDimension
  2
*D53
 10
708.0088485430439
 20
195.3454961069604
 30
0.0000000000000000
 11
698.9482324838979
 21
196.3454961069604
 31
0.0000000000000000
 70
160
  3
MAIN001
100
AcDbAlignedDimension
 13
691.0088485430445
 23
129.1251700789850
 33
0.0000000000000000
 14
708.0088485430438
 24
229.6622225467386
 34
0.0000000000000000
100
AcDbRotatedDimension
1001
ACAD
1000
DSTYLE
1002
{
1070
   173
1070
     1
1070
     6
1000
_OPEN
1070
     7
1000
_OPEN
1070
    41
1040
4.000000
1002
}
  0
INSERT
  5
366
100
AcDbEntity
  8
MAIN0
  6
CONTINUOUS
 62
3
100
AcDbBlockReference
  2
D54
 10
759.5088485430442
 20
219.6670149362297
 30
0.0000000000000000
 50
0.0000000000000000
  0
LINE
  5
367
100
AcDbEntity
  8
MAIN0
  6
CENTER
 62
3
100
AcDbLine
 10
274.1364379884263
 20
296.6622225469221
 30
0.0000000000000000
 11
274.1364379884263
 21
345.1466579170640
 31
0.0000000000000000
  0
LINE
  5
368
100
AcDbEntity
  8
MAIN0
  6
CENTER
 62
3
100
AcDbLine
 10
274.1364379884263
 20
432.2561986324301
 30
0.0000000000000000
 11
274.1364379884263
 21
447.2883690190547
 31
0.0000000000000000
  0
CIRCLE
  5
369
100
AcDbEntity
  8
MAIN0
  6
CONTINUOUS
 62
3
100
AcDbCircle
 10
289.6364379885252
 20
486.9847318743105
 30
0.0000000000000000
 40
4.000000000000000
  0
CIRCLE
  5
36A
100
AcDbEntity
  8
MAIN0
  6
CONTINUOUS
 62
3
100
AcDbCircle
 10
289.6364379885252
 20
486.9847318743105
 30
0.0000000000000000
 40
3.323417500000000
  0
CIRCLE
  5
36B
100
AcDbEntity
  8
MAIN0
  6
CONTINUOUS
 62
3
100
AcDbCircle
 10
383.6364379312959
 20
486.9847318742131
 30
0.0000000000000000
 40
4.000000000000000
  0
CIRCLE
  5
36C
100
AcDbEntity
  8
MAIN0
  6
CONTINUOUS
 62
3
100
AcDbCircle
 10
383.6364379312959
 20
486.9847318742131
 30
0.0000000000000000
 40
3.323417500000000
  0
CIRCLE
  5
36D
100
AcDbEntity
  8
MAIN0
  6
HIDDEN
 62
3
100
AcDbCircle
 10
418.6364379306870
 20
468.4847318743004
 30
0.0000000000000000
 40
8.500000000000000
  0
MTEXT
  5
36E
100
AcDbEntity
  8
MAIN0
  6
CONTINUOUS
 62
3
100
AcDbMText
 10
776.2443770741436
 20
275.9600611988998
 30
0.0000000000000000
 40
6.199999809265137
 41
0.0000000000000000
 71
     1
 72
     1
  1
{\H0.81x;{0}}
 11
0.5000000000000585
 21
-0.8660254037844049
 31
0.0000000000000000
  7
STANDARD
  0
MTEXT
  5
36F
100
AcDbEntity
  8
MAIN0
  6
CONTINUOUS
 62
3
100
AcDbMText
 10
779.9351593238009
 20
265.9957258254486
 30
0.0000000000000000
 40
6.199999809265137
 41
0.0000000000000000
 71
     1
 72
     1
  1
{\H0.81x;{1}}
 11
-1.836970198721030e-016
 21
-1.000000000000000
 31
0.0000000000000000
  7
STANDARD
  0
MTEXT
  5
370
100
AcDbEntity
  8
MAIN0
  6
CONTINUOUS
 62
3
100
AcDbMText
 10
778.6468971067664
 20
255.5737663417189
 30
0.0000000000000000
 40
6.199999809265137
 41
0.0000000000000000
 71
     1
 72
     1
  1
{\H0.81x;{2}}
 11
-0.4999999999999527
 21
-0.8660254037844659
 31
0.0000000000000000
  7
STANDARD
  0
MTEXT
  5
371
100
AcDbEntity
  8
MAIN0
  6
CONTINUOUS
 62
3
100
AcDbMText
 10
771.9157198726924
 20
247.1265096046676
 30
0.0000000000000000
 40
6.199999809265137
 41
0.0000000000000000
 71
     1
 72
     1
  1
{\H0.81x;{3}}
 11
-0.8660254037845803
 21
-0.4999999999997548
 31
0.0000000000000000
  7
STANDARD
  0
LINE
  5
372
100
AcDbEntity
  8
MAIN0
  6
CENTER
 62
3
100
AcDbLine
 10
720.0088485430438
 20
268.6216823854557
 30
0.0000000000000000
 11
720.0088485430438
 21
257.8675550719491
 31
0.0000000000000000
  0
LINE
  5
373
100
AcDbEntity
  8
MAIN0
  6
CENTER
 62
3
100
AcDbLine
 10
799.0088485430434
 20
268.6216823854562
 30
0.0000000000000000
 11
799.0088485430434
 21
257.8675550719495
 31
0.0000000000000000
  0
LINE
  5
374
100
AcDbEntity
  8
MAIN0
  6
CONTINUOUS
 62
3
100
AcDbLine
 10
806.2088485430434
 20
269.6622225467387
 30
0.0000000000000000
 11
806.2088485430434
 21
244.6622225467386
 31
0.0000000000000000
  0
LINE
  5
375
100
AcDbEntity
  8
MAIN0
  6
CONTINUOUS
 62
3
100
AcDbLine
 10
720.3840482240651
 20
234.1622225467386
 30
0.0000000000000000
 11
798.6336488620236
 21
234.1622225467386
 31
0.0000000000000000
  0
LINE
  5
376
100
AcDbEntity
  8
MAIN0
  6
HIDDEN
 62
3
100
AcDbLine
 10
709.5088485430438
 20
294.6622225469317
 30
0.0000000000000000
 11
809.5088485430435
 21
294.6622225469317
 31
0.0000000000000000
  0
LINE
  5
377
100
AcDbEntity
  8
MAIN0
  6
CONTINUOUS
 62
3
100
AcDbLine
 10
709.5088485430442
 20
334.6622225462392
 30
0.0000000000000000
 11
809.5088485430440
 21
334.6622225462392
 31
0.0000000000000000
  0
LINE
  5
378
100
AcDbEntity
  8
MAIN0
  6
CONTINUOUS
 62
3
100
AcDbLine
 10
806.0088485430435
 20
269.6622225467387
 30
0.0000000000000000
 11
806.0088485430435
 21
244.6622225467386
 31
0.0000000000000000
  0
LINE
  5
379
100
AcDbEntity
  8
MAIN0
  6
CONTINUOUS
 62
3
100
AcDbLine
 10
811.0088485430435
 20
244.6622225467386
 30
0.0000000000000000
 11
811.0088485430435
 21
229.6622225467386
 31
0.0000000000000000
  0
LINE
  5
37A
100
AcDbEntity
  8
MAIN0
  6
CONTINUOUS
 62
3
100
AcDbLine
 10
708.0088485430438
 20
244.6622225467386
 30
0.0000000000000000
 11
708.0088485430438
 21
229.6622225467386
 31
0.0000000000000000
  0
LINE
  5
37B
100
AcDbEntity
  8
MAIN0
  6
CONTINUOUS
 62
3
100
AcDbLine
 10
806.0088485430435
 20
269.6622225467388
 30
0.0000000000000000
 11
811.0088485430435
 21
269.6622225467388
 31
0.0000000000000000
  0
LINE
  5
37C
100
AcDbEntity
  8
MAIN0
  6
CONTINUOUS
 62
3
100
AcDbLine
 10
811.0088485430437
 20
244.6622225467385
 30
0.0000000000000000
 11
806.0088485430437
 21
244.6622225467384
 31
0.0000000000000000
  0
LINE
  5
37D
100
AcDbEntity
  8
MAIN0
  6
CONTINUOUS
 62
3
100
AcDbLine
 10
788.0088485430435
 20
224.6622225467386
 30
0.0000000000000000
 11
788.0088485430435
 21
229.6622225467386
 31
0.0000000000000000
  0
LINE
  5
37E
100
AcDbEntity
  8
MAIN0
  6
CONTINUOUS
 62
3
100
AcDbLine
 10
731.0088485430442
 20
224.6622225467386
 30
0.0000000000000000
 11
731.0088485430442
 21
229.6622225467386
 31
0.0000000000000000
  0
LINE
  5
37F
100
AcDbEntity
  8
MAIN0
  6
CONTINUOUS
 62
3
100
AcDbLine
 10
711.0088485430442
 20
224.6622225467386
 30
0.0000000000000000
 11
731.0088485430442
 21
224.6622225467386
 31
0.0000000000000000
  0
LINE
  5
380
100
AcDbEntity
  8
MAIN0
  6
CONTINUOUS
 62
3
100
AcDbLine
 10
788.0088485430438
 20
224.6622225467386
 30
0.0000000000000000
 11
808.0088485430435
 21
224.6622225467386
 31
0.0000000000000000
  0
LINE
  5
381
100
AcDbEntity
  8
MAIN0
  6
CONTINUOUS
 62
3
100
AcDbLine
 10
808.0088485430435
 20
224.6622225467386
 30
0.0000000000000000
 11
808.0088485430435
 21
229.6622225467386
 31
0.0000000000000000
  0
LINE
  5
382
100
AcDbEntity
  8
MAIN0
  6
CONTINUOUS
 62
3
100
AcDbLine
 10
711.0088485430442
 20
229.6622225467386
 30
0.0000000000000000
 11
711.0088485430442
 21
224.6622225467386
 31
0.0000000000000000
  0
LINE
  5
383
100
AcDbEntity
  8
MAIN0
  6
CONTINUOUS
 62
3
100
AcDbLine
 10
709.5088485430442
 20
334.6622225462392
 30
0.0000000000000000
 11
709.5088485430442
 21
305.8622225469320
 31
0.0000000000000000
  0
LINE
  5
384
100
AcDbEntity
  8
MAIN0
  6
CONTINUOUS
 62
3
100
AcDbLine
 10
809.5088485430440
 20
334.6622225462392
 30
0.0000000000000000
 11
809.5088485430440
 21
305.8622225469320
 31
0.0000000000000000
  0
CIRCLE
  5
385
100
AcDbEntity
  8
MAIN0
  6
CONTINUOUS
 62
3
100
AcDbCircle
 10
759.5088485430438
 20
263.6622225467386
 30
0.0000000000000000
 40
21.00000000000000
  0
LINE
  5
386
100
AcDbEntity
  8
MAIN0
  6
CONTINUOUS
 62
3
100
AcDbLine
 10
766.5088485430438
 20
259.6207706624114
 30
0.0000000000000000
 11
766.5088485430438
 21
267.7036744310668
 31
0.0000000000000000
  0
LINE
  5
387
100
AcDbEntity
  8
MAIN0
  6
CONTINUOUS
 62
3
100
AcDbLine
 10
752.5088485430438
 20
259.6207706624110
 30
0.0000000000000000
 11
752.5088485430438
 21
267.7036744310654
 31
0.0000000000000000
  0
LINE
  5
388
100
AcDbEntity
  8
MAIN0
  6
CONTINUOUS
 62
3
100
AcDbLine
 10
752.5088485430441
 20
267.7036744310657
 30
0.0000000000000000
 11
759.5088485430439
 21
271.7451263153936
 31
0.0000000000000000
  0
LINE
  5
389
100
AcDbEntity
  8
MAIN0
  6
CONTINUOUS
 62
3
100
AcDbLine
 10
759.5088485430439
 20
255.5793187780832
 30
0.0000000000000000
 11
766.5088485430438
 21
259.6207706624111
 31
0.0000000000000000
  0
LINE
  5
38A
100
AcDbEntity
  8
MAIN0
  6
CONTINUOUS
 62
3
100
AcDbLine
 10
759.5088485430432
 20
271.7451263153932
 30
0.0000000000000000
 11
766.5088485430431
 21
267.7036744310664
 31
0.0000000000000000
  0
LINE
  5
38B
100
AcDbEntity
  8
MAIN0
  6
CONTINUOUS
 62
3
100
AcDbLine
 10
752.5088485430433
 20
259.6207706624114
 30
0.0000000000000000
 11
759.5088485430433
 21
255.5793187780842
 31
0.0000000000000000
  0
CIRCLE
  5
38C
100
AcDbEntity
  8
MAIN0
  6
CONTINUOUS
 62
3
100
AcDbCircle
 10
792.5088485430435
 20
263.6622225467386
 30
0.0000000000000000
 40
4.250000000000000
  0
CIRCLE
  5
38D
100
AcDbEntity
  8
MAIN0
  6
CONTINUOUS
 62
3
100
AcDbCircle
 10
726.5088485430438
 20
263.6622225467386
 30
0.0000000000000000
 40
4.250000000000000
  0
LINE
  5
38E
100
AcDbEntity
  8
MAIN0
  6
CONTINUOUS
 62
3
100
AcDbLine
 10
790.1994474662868
 20
263.6622225467380
 30
0.0000000000000000
 11
791.3541480046625
 21
265.6622225467381
 31
0.0000000000000000
  0
LINE
  5
38F
100
AcDbEntity
  8
MAIN0
  6
CONTINUOUS
 62
3
100
AcDbLine
 10
793.6635490814242
 20
261.6622225467388
 30
0.0000000000000000
 11
794.8182496198001
 21
263.6622225467390
 31
0.0000000000000000
  0
LINE
  5
390
100
AcDbEntity
  8
MAIN0
  6
CONTINUOUS
 62
3
100
AcDbLine
 10
793.6635490814186
 20
265.6622225467386
 30
0.0000000000000000
 11
794.8182496197999
 21
263.6622225467386
 31
0.0000000000000000
  0
LINE
  5
391
100
AcDbEntity
  8
MAIN0
  6
CONTINUOUS
 62
3
100
AcDbLine
 10
791.3541480046678
 20
261.6622225467389
 30
0.0000000000000000
 11
790.1994474662870
 21
263.6622225467387
 31
0.0000000000000000
  0
LINE
  5
392
100
AcDbEntity
  8
MAIN0
  6
CONTINUOUS
 62
3
100
AcDbLine
 10
724.1994474662872
 20
263.6622225467382
 30
0.0000000000000000
 11
725.3541480046629
 21
265.6622225467384
 31
0.0000000000000000
  0
LINE
  5
393
100
AcDbEntity
  8
MAIN0
  6
CONTINUOUS
 62
3
100
AcDbLine
 10
727.6635490814249
 20
261.6622225467382
 30
0.0000000000000000
 11
728.8182496198006
 21
263.6622225467380
 31
0.0000000000000000
  0
LINE
  5
394
100
AcDbEntity
  8
MAIN0
  6
CONTINUOUS
 62
3
100
AcDbLine
 10
727.6635490814196
 20
265.6622225467387
 30
0.0000000000000000
 11
728.8182496198006
 21
263.6622225467388
 31
0.0000000000000000
  0
LINE
  5
395
100
AcDbEntity
  8
MAIN0
  6
CONTINUOUS
 62
3
100
AcDbLine
 10
724.1994474662869
 20
263.6622225467384
 30
0.0000000000000000
 11
725.3541480046678
 21
261.6622225467384
 31
0.0000000000000000
  0
LINE
  5
396
100
AcDbEntity
  8
MAIN0
  6
CONTINUOUS
 62
3
100
AcDbLine
 10
725.3541480046624
 20
265.6622225467386
 30
0.0000000000000000
 11
727.6635490814192
 21
265.6622225467386
 31
0.0000000000000000
  0
LINE
  5
397
100
AcDbEntity
  8
MAIN0
  6
CONTINUOUS
 62
3
100
AcDbLine
 10
791.3541480046622
 20
265.6622225467386
 30
0.0000000000000000
 11
793.6635490814185
 21
265.6622225467386
 31
0.0000000000000000
  0
LINE
  5
398
100
AcDbEntity
  8
MAIN0
  6
CONTINUOUS
 62
3
100
AcDbLine
 10
725.3541480046679
 20
261.6622225467386
 30
0.0000000000000000
 11
727.6635490814247
 21
261.6622225467386
 31
0.0000000000000000
  0
LINE
  5
399
100
AcDbEntity
  8
MAIN0
  6
CONTINUOUS
 62
3
100
AcDbLine
 10
791.3541480046672
 20
261.6622225467386
 30
0.0000000000000000
 11
793.6635490814240
 21
261.6622225467386
 31
0.0000000000000000
  0
LINE
  5
39A
100
AcDbEntity
  8
MAIN0
  6
CONTINUOUS
 62
3
100
AcDbLine
 10
762.5088485430438
 20
277.3370168779161
 30
0.0000000000000000
 11
762.5088485430438
 21
284.4468322375651
 31
0.0000000000000000
  0
LINE
  5
39B
100
AcDbEntity
  8
MAIN0
  6
CONTINUOUS
 62
3
100
AcDbLine
 10
756.5088485430438
 20
277.3370168779161
 30
0.0000000000000000
 11
756.5088485430438
 21
284.4468322375651
 31
0.0000000000000000
  0
LINE
  5
39C
100
AcDbEntity
  8
MAIN0
  6
CONTINUOUS
 62
3
100
AcDbLine
 10
761.2088485430436
 20
238.9706754101172
 30
0.0000000000000000
 11
761.2088485430436
 21
242.7311451736073
 31
0.0000000000000000
  0
LINE
  5
39D
100
AcDbEntity
  8
MAIN0
  6
CONTINUOUS
 62
3
100
AcDbLine
 10
757.8088485430435
 20
238.9706754101172
 30
0.0000000000000000
 11
757.8088485430435
 21
242.7311451736073
 31
0.0000000000000000
  0
LINE
  5
39E
100
AcDbEntity
  8
MAIN0
  6
CENTER
 62
3
100
AcDbLine
 10
807.7423162634091
 20
263.6622225467386
 30
0.0000000000000000
 11
710.1866177678326
 21
263.6622225467386
 31
0.0000000000000000
  0
LINE
  5
39F
100
AcDbEntity
  8
MAIN0
  6
CENTER
 62
3
100
AcDbLine
 10
759.5088485430445
 20
341.6616138914540
 30
0.0000000000000000
 11
759.5088485430442
 21
219.6670149362297
 31
0.0000000000000000
  0
CIRCLE
  5
3A0
100
AcDbEntity
  8
MAIN0
  6
CONTINUOUS
 62
3
100
AcDbCircle
 10
759.5088485430438
 20
263.6622225467386
 30
0.0000000000000000
 40
24.75000000000000
  0
ARC
  5
3A1
100
AcDbEntity
  8
MAIN0
  6
CONTINUOUS
 62
3
100
AcDbCircle
 10
759.5088485430438
 20
263.6622225467386
 30
0.0000000000000000
 40
39.00000000000000
100
AcDbArc
 50
127.3568519724354
 51
229.1487478966941
  0
ARC
  5
3A2
100
AcDbEntity
  8
MAIN0
  6
CONTINUOUS
 62
3
100
AcDbCircle
 10
759.5088485430438
 20
263.6622225467386
 30
0.0000000000000000
 40
39.00000000000000
100
AcDbArc
 50
310.8512521033059
 51
412.6431480275646
  0
CIRCLE
  5
3A3
100
AcDbEntity
  8
MAIN0
  6
CONTINUOUS
 62
3
100
AcDbCircle
 10
759.5088485430438
 20
263.6622225467386
 30
0.0000000000000000
 40
14.00000000000000
  0
LINE
  5
3A4
100
AcDbEntity
  8
MAIN0
  6
CENTER
 62
3
100
AcDbLine
 10
792.5088485432909
 20
270.3100684122007
 30
0.0000000000000000
 11
792.5088485432664
 21
255.8805391072785
 31
0.0000000000000000
  0
LINE
  5
3A5
100
AcDbEntity
  8
MAIN0
  6
CENTER
 62
3
100
AcDbLine
 10
726.5088485432675
 20
270.3100684123036
 30
0.0000000000000000
 11
726.5088485432453
 21
255.8805391073814
 31
0.0000000000000000
  0
CIRCLE
  5
3A6
100
AcDbEntity
  8
MAIN0
  6
HIDDEN
 62
3
100
AcDbCircle
 10
799.0088485430435
 20
263.6622225467386
 30
0.0000000000000000
 40
3.000000000000000
  0
CIRCLE
  5
3A7
100
AcDbEntity
  8
MAIN0
  6
HIDDEN
 62
3
100
AcDbCircle
 10
720.0088485430438
 20
263.6622225467386
 30
0.0000000000000000
 40
3.000000000000000
  0
LINE
  5
3A8
100
AcDbEntity
  8
MAIN0
  6
CENTER
 62
3
100
AcDbLine
 10
717.0736037576069
 20
239.1622225467385
 30
0.0000000000000000
 11
736.1261626408646
 21
250.1622225467385
 31
0.0000000000000000
  0
ARC
  5
3A9
100
AcDbEntity
  8
MAIN0
  6
CENTER
 62
3
100
AcDbCircle
 10
759.5088485430438
 20
263.6622225467386
 30
0.0000000000000000
 40
37.99999999999996
100
AcDbArc
 50
193.3993994053433
 51
226.6006005946568
  0
LINE
  5
3AA
100
AcDbEntity
  8
MAIN0
  6
CONTINUOUS
 62
3
100
AcDbLine
 10
723.5998831992351
 20
246.3942733543077
 30
0.0000000000000000
 11
723.5998831992351
 21
242.9301717391700
 31
0.0000000000000000
  0
LINE
  5
3AB
100
AcDbEntity
  8
MAIN0
  6
CONTINUOUS
 62
3
100
AcDbLine
 10
723.5998831992355
 20
242.9301717391701
 30
0.0000000000000000
 11
726.5998831992354
 21
241.1981209316013
 31
0.0000000000000000
  0
LINE
  5
3AC
100
AcDbEntity
  8
MAIN0
  6
HIDDEN
 62
3
100
AcDbLine
 10
729.5998831992349
 20
242.9301717391702
 30
0.0000000000000000
 11
729.5998831992349
 21
246.3942733543079
 31
0.0000000000000000
  0
LINE
  5
3AD
100
AcDbEntity
  8
MAIN0
  6
HIDDEN
 62
3
100
AcDbLine
 10
729.5998831992348
 20
246.3942733543076
 30
0.0000000000000000
 11
726.5998831992349
 21
248.1263241618765
 31
0.0000000000000000
  0
LINE
  5
3AE
100
AcDbEntity
  8
MAIN0
  6
CONTINUOUS
 62
3
100
AcDbLine
 10
723.5998831992347
 20
246.3942733543078
 30
0.0000000000000000
 11
724.3339320620781
 21
246.8180766628689
 31
0.0000000000000000
  0
LINE
  5
3AF
100
AcDbEntity
  8
MAIN0
  6
HIDDEN
 62
3
100
AcDbLine
 10
724.3339320620781
 20
246.8180766628684
 30
0.0000000000000000
 11
726.5998831992341
 21
248.1263241618758
 31
0.0000000000000000
  0
LINE
  5
3B0
100
AcDbEntity
  8
MAIN0
  6
CONTINUOUS
 62
3
100
AcDbLine
 10
726.5998831992350
 20
241.1981209316010
 30
0.0000000000000000
 11
727.3339320620785
 21
241.6219242401618
 31
0.0000000000000000
  0
LINE
  5
3B1
100
AcDbEntity
  8
MAIN0
  6
HIDDEN
 62
3
100
AcDbLine
 10
727.3339320620783
 20
241.6219242401621
 30
0.0000000000000000
 11
729.5998831992346
 21
242.9301717391695
 31
0.0000000000000000
  0
ARC
  5
3B2
100
AcDbEntity
  8
MAIN0
  6
CONTINUOUS
 62
3
100
AcDbCircle
 10
726.5998831992351
 20
244.6622225467389
 30
0.0000000000000000
 40
6.500000000000000
100
AcDbArc
 50
124.0337531141074
 51
295.9662468858919
  0
ARC
  5
3B3
100
AcDbEntity
  8
MAIN0
  6
HIDDEN
 62
3
100
AcDbCircle
 10
726.5998831992351
 20
244.6622225467389
 30
0.0000000000000000
 40
6.500000000000000
100
AcDbArc
 50
295.9662468858919
 51
484.0337531141074
  0
ARC
  5
3B4
100
AcDbEntity
  8
MAIN0
  6
HIDDEN
 62
3
100
AcDbCircle
 10
726.5998831992351
 20
244.6622225467386
 30
0.0000000000000000
 40
7.000000000000000
100
AcDbArc
 50
296.9830386901834
 51
483.0169613098169
  0
ARC
  5
3B5
100
AcDbEntity
  8
MAIN0
  6
CONTINUOUS
 62
3
100
AcDbCircle
 10
726.5998831992351
 20
244.6622225467386
 30
0.0000000000000000
 40
7.000000000000000
100
AcDbArc
 50
123.0169613098168
 51
296.9830386901834
  0
LINE
  5
3B6
100
AcDbEntity
  8
MAIN0
  6
CENTER
 62
3
100
AcDbLine
 10
717.0736037576064
 20
288.1622225467373
 30
0.0000000000000000
 11
736.1261626408639
 21
277.1622225467374
 31
0.0000000000000000
  0
ARC
  5
3B7
100
AcDbEntity
  8
MAIN0
  6
CENTER
 62
3
100
AcDbCircle
 10
759.5088485430438
 20
263.6622225467373
 30
0.0000000000000000
 40
37.99999999999996
100
AcDbArc
 50
133.3993994053432
 51
166.6006005946568
  0
LINE
  5
3B8
100
AcDbEntity
  8
MAIN0
  6
CONTINUOUS
 62
3
100
AcDbLine
 10
723.5998831992351
 20
280.9301717391681
 30
0.0000000000000000
 11
723.5998831992351
 21
284.3942733543058
 31
0.0000000000000000
  0
LINE
  5
3B9
100
AcDbEntity
  8
MAIN0
  6
CONTINUOUS
 62
3
100
AcDbLine
 10
723.5998831992349
 20
284.3942733543055
 30
0.0000000000000000
 11
726.5998831992349
 21
286.1263241618743
 31
0.0000000000000000
  0
LINE
  5
3BA
100
AcDbEntity
  8
MAIN0
  6
HIDDEN
 62
3
100
AcDbLine
 10
729.5998831992354
 20
284.3942733543057
 30
0.0000000000000000
 11
729.5998831992354
 21
280.9301717391680
 31
0.0000000000000000
  0
LINE
  5
3BB
100
AcDbEntity
  8
MAIN0
  6
HIDDEN
 62
3
100
AcDbLine
 10
729.5998831992353
 20
280.9301717391683
 30
0.0000000000000000
 11
726.5998831992353
 21
279.1981209315995
 31
0.0000000000000000
  0
LINE
  5
3BC
100
AcDbEntity
  8
MAIN0
  6
CONTINUOUS
 62
3
100
AcDbLine
 10
723.5998831992349
 20
280.9301717391680
 30
0.0000000000000000
 11
724.3339320620783
 21
280.5063684306070
 31
0.0000000000000000
  0
LINE
  5
3BD
100
AcDbEntity
  8
MAIN0
  6
HIDDEN
 62
3
100
AcDbLine
 10
724.3339320620785
 20
280.5063684306075
 30
0.0000000000000000
 11
726.5998831992345
 21
279.1981209316001
 31
0.0000000000000000
  0
LINE
  5
3BE
100
AcDbEntity
  8
MAIN0
  6
CONTINUOUS
 62
3
100
AcDbLine
 10
726.5998831992349
 20
286.1263241618741
 30
0.0000000000000000
 11
727.3339320620784
 21
285.7025208533133
 31
0.0000000000000000
  0
LINE
  5
3BF
100
AcDbEntity
  8
MAIN0
  6
HIDDEN
 62
3
100
AcDbLine
 10
727.3339320620785
 20
285.7025208533141
 30
0.0000000000000000
 11
729.5998831992347
 21
284.3942733543067
 31
0.0000000000000000
  0
ARC
  5
3C0
100
AcDbEntity
  8
MAIN0
  6
CONTINUOUS
 62
3
100
AcDbCircle
 10
726.5998831992351
 20
282.6622225467370
 30
0.0000000000000000
 40
6.500000000000000
100
AcDbArc
 50
64.03375311410817
 51
235.9662468858925
  0
ARC
  5
3C1
100
AcDbEntity
  8
MAIN0
  6
HIDDEN
 62
3
100
AcDbCircle
 10
726.5998831992351
 20
282.6622225467370
 30
0.0000000000000000
 40
6.500000000000000
100
AcDbArc
 50
235.9662468858925
 51
424.0337531141082
  0
ARC
  5
3C2
100
AcDbEntity
  8
MAIN0
  6
HIDDEN
 62
3
100
AcDbCircle
 10
726.5998831992351
 20
282.6622225467372
 30
0.0000000000000000
 40
7.000000000000000
100
AcDbArc
 50
236.9830386901832
 51
423.0169613098166
  0
ARC
  5
3C3
100
AcDbEntity
  8
MAIN0
  6
CONTINUOUS
 62
3
100
AcDbCircle
 10
726.5998831992351
 20
282.6622225467372
 30
0.0000000000000000
 40
7.000000000000000
100
AcDbArc
 50
63.01696130981657
 51
236.9830386901832
  0
LINE
  5
3C4
100
AcDbEntity
  8
MAIN0
  6
CENTER
 62
3
100
AcDbLine
 10
801.9440933284807
 20
288.1622225467370
 30
0.0000000000000000
 11
782.8915344452230
 21
277.1622225467370
 31
0.0000000000000000
  0
ARC
  5
3C5
100
AcDbEntity
  8
MAIN0
  6
CENTER
 62
3
100
AcDbCircle
 10
759.5088485430429
 20
263.6622225467373
 30
0.0000000000000000
 40
37.99999999999996
100
AcDbArc
 50
13.39939940534304
 51
46.60060059465658
  0
LINE
  5
3C6
100
AcDbEntity
  8
MAIN0
  6
CONTINUOUS
 62
3
100
AcDbLine
 10
795.4178138868513
 20
280.9301717391681
 30
0.0000000000000000
 11
795.4178138868513
 21
284.3942733543058
 31
0.0000000000000000
  0
LINE
  5
3C7
100
AcDbEntity
  8
MAIN0
  6
CONTINUOUS
 62
3
100
AcDbLine
 10
795.4178138868517
 20
284.3942733543056
 30
0.0000000000000000
 11
792.4178138868518
 21
286.1263241618744
 31
0.0000000000000000
  0
LINE
  5
3C8
100
AcDbEntity
  8
MAIN0
  6
HIDDEN
 62
3
100
AcDbLine
 10
789.4178138868521
 20
284.3942733543056
 30
0.0000000000000000
 11
789.4178138868521
 21
280.9301717391679
 31
0.0000000000000000
  0
LINE
  5
3C9
100
AcDbEntity
  8
MAIN0
  6
HIDDEN
 62
3
100
AcDbLine
 10
789.4178138868520
 20
280.9301717391680
 30
0.0000000000000000
 11
792.4178138868518
 21
279.1981209315992
 31
0.0000000000000000
  0
LINE
  5
3CA
100
AcDbEntity
  8
MAIN0
  6
CONTINUOUS
 62
3
100
AcDbLine
 10
795.4178138868523
 20
280.9301717391679
 30
0.0000000000000000
 11
794.6837650240088
 21
280.5063684306069
 31
0.0000000000000000
  0
LINE
  5
3CB
100
AcDbEntity
  8
MAIN0
  6
HIDDEN
 62
3
100
AcDbLine
 10
794.6837650240087
 20
280.5063684306074
 30
0.0000000000000000
 11
792.4178138868524
 21
279.1981209315999
 31
0.0000000000000000
  0
LINE
  5
3CC
100
AcDbEntity
  8
MAIN0
  6
CONTINUOUS
 62
3
100
AcDbLine
 10
792.4178138868521
 20
286.1263241618742
 30
0.0000000000000000
 11
791.6837650240085
 21
285.7025208533134
 31
0.0000000000000000
  0
LINE
  5
3CD
100
AcDbEntity
  8
MAIN0
  6
HIDDEN
 62
3
100
AcDbLine
 10
791.6837650240085
 20
285.7025208533138
 30
0.0000000000000000
 11
789.4178138868522
 21
284.3942733543065
 31
0.0000000000000000
  0
ARC
  5
3CE
100
AcDbEntity
  8
MAIN0
  6
CONTINUOUS
 62
3
100
AcDbCircle
 10
792.4178138868513
 20
282.6622225467368
 30
0.0000000000000000
 40
6.500000000000000
100
AcDbArc
 50
304.0337531141072
 51
475.9662468858917
  0
ARC
  5
3CF
100
AcDbEntity
  8
MAIN0
  6
HIDDEN
 62
3
100
AcDbCircle
 10
792.4178138868513
 20
282.6622225467368
 30
0.0000000000000000
 40
6.500000000000000
100
AcDbArc
 50
115.9662468858916
 51
304.0337531141072
  0
ARC
  5
3D0
100
AcDbEntity
  8
MAIN0
  6
HIDDEN
 62
3
100
AcDbCircle
 10
792.4178138868513
 20
282.6622225467370
 30
0.0000000000000000
 40
7.000000000000000
100
AcDbArc
 50
116.9830386901832
 51
303.0169613098166
  0
ARC
  5
3D1
100
AcDbEntity
  8
MAIN0
  6
CONTINUOUS
 62
3
100
AcDbCircle
 10
792.4178138868513
 20
282.6622225467370
 30
0.0000000000000000
 40
7.000000000000000
100
AcDbArc
 50
303.0169613098166
 51
476.9830386901832
  0
LINE
  5
3D2
100
AcDbEntity
  8
MAIN0
  6
CENTER
 62
3
100
AcDbLine
 10
801.9440933284806
 20
239.1622225467385
 30
0.0000000000000000
 11
782.8915344452229
 21
250.1622225467384
 31
0.0000000000000000
  0
ARC
  5
3D3
100
AcDbEntity
  8
MAIN0
  6
CENTER
 62
3
100
AcDbCircle
 10
759.5088485430429
 20
263.6622225467386
 30
0.0000000000000000
 40
37.99999999999996
100
AcDbArc
 50
313.3993994053434
 51
346.6006005946570
  0
LINE
  5
3D4
100
AcDbEntity
  8
MAIN0
  6
CONTINUOUS
 62
3
100
AcDbLine
 10
795.4178138868516
 20
246.3942733543077
 30
0.0000000000000000
 11
795.4178138868517
 21
242.9301717391700
 31
0.0000000000000000
  0
LINE
  5
3D5
100
AcDbEntity
  8
MAIN0
  6
CONTINUOUS
 62
3
100
AcDbLine
 10
795.4178138868516
 20
242.9301717391702
 30
0.0000000000000000
 11
792.4178138868517
 21
241.1981209316014
 31
0.0000000000000000
  0
LINE
  5
3D6
100
AcDbEntity
  8
MAIN0
  6
HIDDEN
 62
3
100
AcDbLine
 10
789.4178138868514
 20
242.9301717391702
 30
0.0000000000000000
 11
789.4178138868514
 21
246.3942733543079
 31
0.0000000000000000
  0
LINE
  5
3D7
100
AcDbEntity
  8
MAIN0
  6
HIDDEN
 62
3
100
AcDbLine
 10
789.4178138868526
 20
246.3942733543079
 30
0.0000000000000000
 11
792.4178138868526
 21
248.1263241618767
 31
0.0000000000000000
  0
LINE
  5
3D8
100
AcDbEntity
  8
MAIN0
  6
CONTINUOUS
 62
3
100
AcDbLine
 10
795.4178138868522
 20
246.3942733543084
 30
0.0000000000000000
 11
794.6837650240088
 21
246.8180766628694
 31
0.0000000000000000
  0
LINE
  5
3D9
100
AcDbEntity
  8
MAIN0
  6
HIDDEN
 62
3
100
AcDbLine
 10
794.6837650240091
 20
246.8180766628685
 30
0.0000000000000000
 11
792.4178138868529
 21
248.1263241618760
 31
0.0000000000000000
  0
LINE
  5
3DA
100
AcDbEntity
  8
MAIN0
  6
CONTINUOUS
 62
3
100
AcDbLine
 10
792.4178138868518
 20
241.1981209316015
 30
0.0000000000000000
 11
791.6837650240084
 21
241.6219242401623
 31
0.0000000000000000
  0
LINE
  5
3DB
100
AcDbEntity
  8
MAIN0
  6
HIDDEN
 62
3
100
AcDbLine
 10
791.6837650240088
 20
241.6219242401617
 30
0.0000000000000000
 11
789.4178138868526
 21
242.9301717391690
 31
0.0000000000000000
  0
ARC
  5
3DC
100
AcDbEntity
  8
MAIN0
  6
CONTINUOUS
 62
3
100
AcDbCircle
 10
792.4178138868513
 20
244.6622225467391
 30
0.0000000000000000
 40
6.500000000000000
100
AcDbArc
 50
244.0337531141083
 51
415.9662468858927
  0
ARC
  5
3DD
100
AcDbEntity
  8
MAIN0
  6
HIDDEN
 62
3
100
AcDbCircle
 10
792.4178138868513
 20
244.6622225467391
 30
0.0000000000000000
 40
6.500000000000000
100
AcDbArc
 50
55.96624688589277
 51
244.0337531141084
  0
ARC
  5
3DE
100
AcDbEntity
  8
MAIN0
  6
HIDDEN
 62
3
100
AcDbCircle
 10
792.4178138868513
 20
244.6622225467389
 30
0.0000000000000000
 40
7.000000000000000
100
AcDbArc
 50
56.98303869018339
 51
243.0169613098168
  0
ARC
  5
3DF
100
AcDbEntity
  8
MAIN0
  6
CONTINUOUS
 62
3
100
AcDbCircle
 10
792.4178138868513
 20
244.6622225467389
 30
0.0000000000000000
 40
7.000000000000000
100
AcDbArc
 50
243.0169613098168
 51
416.9830386901834
  0
ARC
  5
3E0
100
AcDbEntity
  8
MAIN0
  6
CONTINUOUS
 62
3
100
AcDbCircle
 10
759.5088485430442
 20
263.6622225467386
 30
0.0000000000000000
 40
49.00000000000000
100
AcDbArc
 50
7.033461315379010
 51
39.24613294998708
  0
ARC
  5
3E1
100
AcDbEntity
  8
MAIN0
  6
CONTINUOUS
 62
3
100
AcDbCircle
 10
759.5088485430442
 20
263.6622225467386
 30
0.0000000000000000
 40
49.00000000000000
100
AcDbArc
 50
140.7538670500129
 51
172.9665386846211
  0
ARC
  5
3E2
100
AcDbEntity
  8
MAIN0
  6
CONTINUOUS
 62
3
100
AcDbCircle
 10
759.5088485430442
 20
263.6622225467386
 30
0.0000000000000000
 40
49.00000000000000
100
AcDbArc
 50
198.3811891141094
 51
217.0162006000758
  0
ARC
  5
3E3
100
AcDbEntity
  8
MAIN0
  6
CONTINUOUS
 62
3
100
AcDbCircle
 10
759.5088485430442
 20
263.6622225467386
 30
0.0000000000000000
 40
49.00000000000000
100
AcDbArc
 50
322.9837993999241
 51
341.6188108858881
  0
LINE
  5
3E4
100
AcDbEntity
  8
MAIN0
  6
CONTINUOUS
 62
3
100
AcDbLine
 10
708.0088485430437
 20
244.6622225467386
 30
0.0000000000000000
 11
713.0088485430691
 21
244.6622225467387
 31
0.0000000000000000
  0
LINE
  5
3E5
100
AcDbEntity
  8
MAIN0
  6
HIDDEN
 62
3
100
AcDbLine
 10
709.5088485430438
 20
294.6622225469316
 30
0.0000000000000000
 11
708.0088485430438
 21
293.1622225469317
 31
0.0000000000000000
  0
LINE
  5
3E6
100
AcDbEntity
  8
MAIN0
  6
HIDDEN
 62
3
100
AcDbLine
 10
809.5088485430434
 20
294.6622225469315
 30
0.0000000000000000
 11
811.0088485430435
 21
293.1622225469314
 31
0.0000000000000000
  0
LINE
  5
3E7
100
AcDbEntity
  8
MAIN0
  6
CONTINUOUS
 62
3
100
AcDbLine
 10
708.0088485430438
 20
275.1622225476624
 30
0.0000000000000000
 11
708.0088485430438
 21
269.6622225467386
 31
0.0000000000000000
  0
LINE
  5
3E8
100
AcDbEntity
  8
MAIN0
  6
HIDDEN
 62
3
100
AcDbLine
 10
708.0088485430438
 20
293.1622225469317
 30
0.0000000000000000
 11
708.0088485430438
 21
275.1622225476624
 31
0.0000000000000000
  0
LINE
  5
3E9
100
AcDbEntity
  8
MAIN0
  6
CONTINUOUS
 62
3
100
AcDbLine
 10
811.0088485430435
 20
275.1622225471815
 30
0.0000000000000000
 11
811.0088485430435
 21
269.6622225467386
 31
0.0000000000000000
  0
LINE
  5
3EA
100
AcDbEntity
  8
MAIN0
  6
HIDDEN
 62
3
100
AcDbLine
 10
811.0088485430435
 20
293.1622225469317
 30
0.0000000000000000
 11
811.0088485430435
 21
275.1622225471815
 31
0.0000000000000000
  0
DIMENSION
  5
3F3
100
AcDbEntity
  8
MAIN0
  6
CONTINUOUS
 62
3
100
AcDbDimension
  2
*D55
 10
709.5088485430442
 20
360.3095218396290
 30
0.0000000000000000
 11
759.5088485430441
 21
360.8095218396290
 31
0.0000000000000000
 70
32
  3
MAIN001
100
AcDbAlignedDimension
 13
809.5088485430440
 23
334.6622225462392
 33
0.0000000000000000
 14
709.5088485430442
 24
334.6622225462392
 34
0.0000000000000000
100
AcDbRotatedDimension
1001
ACAD
1000
DSTYLE
1002
{
1070
   173
1070
     1
1070
     6
1000
_OPEN
1070
     7
1000
_OPEN
1070
    41
1040
4.000000
1002
}
  0
LINE
  5
3F4
100
AcDbEntity
  8
MAIN0
  6
CONTINUOUS
 62
3
100
AcDbLine
 10
708.0088485430434
 20
269.6622225467386
 30
0.0000000000000000
 11
713.0088485430439
 21
269.6622225467386
 31
0.0000000000000000
  0
LINE
  5
3F5
100
AcDbEntity
  8
MAIN0
  6
CONTINUOUS
 62
3
100
AcDbLine
 10
712.8088485430440
 20
269.6622225467386
 30
0.0000000000000000
 11
712.8088485430440
 21
244.6622225467386
 31
0.0000000000000000
  0
LINE
  5
3F6
100
AcDbEntity
  8
MAIN0
  6
CONTINUOUS
 62
3
100
AcDbLine
 10
713.0088485430438
 20
269.6622225467386
 30
0.0000000000000000
 11
713.0088485430438
 21
244.6622225467386
 31
0.0000000000000000
  0
LINE
  5
3F7
100
AcDbEntity
  8
MAIN0
  6
CONTINUOUS
 62
3
100
AcDbLine
 10
708.0088485430435
 20
229.6622225467384
 30
0.0000000000000000
 11
811.0088485430438
 21
229.6622225467386
 31
0.0000000000000000
  0
LINE
  5
3F8
100
AcDbEntity
  8
MAIN0
  6
CONTINUOUS
 62
3
100
AcDbLine
 10
48.08418444910564
 20
244.6622225468215
 30
0.0000000000000000
 11
52.68418444908633
 21
244.6622225468215
 31
0.0000000000000000
  0
LINE
  5
3F9
100
AcDbEntity
  8
MAIN0
  6
CONTINUOUS
 62
3
100
AcDbLine
 10
48.68418444903517
 20
269.6622225468216
 30
0.0000000000000000
 11
52.68418444903449
 21
269.6622225468216
 31
0.0000000000000000
  0
LINE
  5
3FA
100
AcDbEntity
  8
MAIN0
  6
CONTINUOUS
 62
3
100
AcDbLine
 10
47.68418444910634
 20
244.2622225468216
 30
0.0000000000000000
 11
47.68418444913260
 21
230.0622225468212
 31
0.0000000000000000
  0
LINE
  5
3FB
100
AcDbEntity
  8
MAIN0
  6
CONTINUOUS
 62
3
100
AcDbLine
 10
150.2841844491054
 20
244.6622225470066
 30
0.0000000000000000
 11
145.6841844490863
 21
244.6622225469896
 31
0.0000000000000000
  0
LINE
  5
3FC
100
AcDbEntity
  8
MAIN0
  6
CONTINUOUS
 62
3
100
AcDbLine
 10
149.6841844490347
 20
269.6622225470043
 30
0.0000000000000000
 11
145.6841844490343
 21
269.6622225469895
 31
0.0000000000000000
  0
LINE
  5
3FD
100
AcDbEntity
  8
MAIN0
  6
CONTINUOUS
 62
3
100
AcDbLine
 10
145.6841844490399
 20
269.6622225469897
 30
0.0000000000000000
 11
145.6841844490862
 21
244.6622225469878
 31
0.0000000000000000
  0
LINE
  5
3FE
100
AcDbEntity
  8
MAIN0
  6
CONTINUOUS
 62
3
100
AcDbLine
 10
150.6841844491060
 20
244.2622225470081
 30
0.0000000000000000
 11
150.6841844491323
 21
230.0622225470075
 31
0.0000000000000000
  0
LINE
  5
3FF
100
AcDbEntity
  8
MAIN0
  6
CONTINUOUS
 62
3
100
AcDbLine
 10
150.6841844489975
 20
293.1622225470329
 30
0.0000000000000000
 11
150.6841844490387
 21
270.6622225470136
 31
0.0000000000000000
  0
LINE
  5
400
100
AcDbEntity
  8
MAIN0
  6
CONTINUOUS
 62
3
100
AcDbLine
 10
47.68418444913226
 20
230.0622225468213
 30
0.0000000000000000
 11
48.08418444913295
 21
229.6622225468221
 31
0.0000000000000000
  0
LINE
  5
401
100
AcDbEntity
  8
MAIN0
  6
CONTINUOUS
 62
3
100
AcDbLine
 10
150.2841844491327
 20
229.6622225470067
 30
0.0000000000000000
 11
150.6841844491321
 21
230.0622225470075
 31
0.0000000000000000
  0
LINE
  5
402
100
AcDbEntity
  8
MAIN0
  6
CONTINUOUS
 62
3
100
AcDbLine
 10
48.68418444903526
 20
269.6622225468218
 30
0.0000000000000000
 11
47.68418444903335
 21
270.6622225468218
 31
0.0000000000000000
  0
LINE
  5
403
100
AcDbEntity
  8
MAIN0
  6
CONTINUOUS
 62
3
100
AcDbLine
 10
149.6841844490352
 20
269.6622225470047
 30
0.0000000000000000
 11
150.6841844490332
 21
270.6622225470083
 31
0.0000000000000000
  0
LINE
  5
404
100
AcDbEntity
  8
MAIN0
  6
CONTINUOUS
 62
3
100
AcDbLine
 10
47.68418444899760
 20
293.1622225468469
 30
0.0000000000000000
 11
49.18418444899490
 21
294.6622225468498
 31
0.0000000000000000
  0
LINE
  5
405
100
AcDbEntity
  8
MAIN0
  6
CONTINUOUS
 62
3
100
AcDbLine
 10
149.1841844489946
 20
294.6622225470305
 30
0.0000000000000000
 11
150.6841844489975
 21
293.1622225470331
 31
0.0000000000000000
  0
LINE
  5
406
100
AcDbEntity
  8
MAIN0
  6
CONTINUOUS
 62
3
100
AcDbLine
 10
72.18418444900175
 20
290.8622225468901
 30
0.0000000000000000
 11
73.18418444900198
 21
290.8622225468919
 31
0.0000000000000000
  0
LINE
  5
407
100
AcDbEntity
  8
MAIN0
  6
CONTINUOUS
 62
3
100
AcDbLine
 10
72.18418444899584
 20
294.0622225468900
 30
0.0000000000000000
 11
72.18418444900175
 21
290.8622225468901
 31
0.0000000000000000
  0
LINE
  5
408
100
AcDbEntity
  8
MAIN0
  6
CONTINUOUS
 62
3
100
AcDbLine
 10
71.58418444899468
 20
294.6622225468889
 30
0.0000000000000000
 11
72.18418444899584
 21
294.0622225468899
 31
0.0000000000000000
  0
LINE
  5
409
100
AcDbEntity
  8
MAIN0
  6
CONTINUOUS
 62
3
100
AcDbLine
 10
126.1841844490016
 20
290.8622225469895
 30
0.0000000000000000
 11
125.1841844490016
 21
290.8622225469877
 31
0.0000000000000000
  0
LINE
  5
40A
100
AcDbEntity
  8
MAIN0
  6
CONTINUOUS
 62
3
100
AcDbLine
 10
126.1841844489959
 20
294.0622225469897
 30
0.0000000000000000
 11
126.1841844490018
 21
290.8622225469896
 31
0.0000000000000000
  0
LINE
  5
40B
100
AcDbEntity
  8
MAIN0
  6
CONTINUOUS
 62
3
100
AcDbLine
 10
126.7841844489944
 20
294.6622225469906
 30
0.0000000000000000
 11
126.1841844489954
 21
294.0622225469895
 31
0.0000000000000000
  0
LINE
  5
40C
100
AcDbEntity
  8
MAIN0
  6
CONTINUOUS
 62
3
100
AcDbLine
 10
49.18418444899447
 20
294.6622225468495
 30
0.0000000000000000
 11
71.58418444899479
 21
294.6622225468889
 31
0.0000000000000000
  0
LINE
  5
40D
100
AcDbEntity
  8
MAIN0
  6
CONTINUOUS
 62
3
100
AcDbLine
 10
126.7841844489948
 20
294.6622225469907
 30
0.0000000000000000
 11
149.1841844489950
 21
294.6622225470301
 31
0.0000000000000000
  0
LINE
  5
40E
100
AcDbEntity
  8
MAIN0
  6
CONTINUOUS
 62
3
100
AcDbLine
 10
52.68418444908627
 20
244.6622225468217
 30
0.0000000000000000
 11
52.68418444903443
 21
269.6622225468217
 31
0.0000000000000000
  0
LINE
  5
40F
100
AcDbEntity
  8
MAIN0
  6
CONTINUOUS
 62
3
100
AcDbLine
 10
47.68418444903321
 20
270.6622225468216
 30
0.0000000000000000
 11
47.68418444899717
 21
293.1622225468467
 31
0.0000000000000000
  0
LINE
  5
410
100
AcDbEntity
  8
MAIN0
  6
CONTINUOUS
 62
3
100
AcDbLine
 10
48.08418444910575
 20
244.6622225468216
 30
0.0000000000000000
 11
47.68418444910640
 21
244.2622225468216
 31
0.0000000000000000
  0
LINE
  5
411
100
AcDbEntity
  8
MAIN0
  6
CONTINUOUS
 62
3
100
AcDbLine
 10
150.6841844491061
 20
244.2622225470081
 30
0.0000000000000000
 11
150.2841844491056
 21
244.6622225470065
 31
0.0000000000000000
  0
LINE
  5
412
100
AcDbEntity
  8
MAIN0
  6
CONTINUOUS
 62
3
100
AcDbLine
 10
125.1841844490015
 20
290.8622225469879
 30
0.0000000000000000
 11
125.1841844490289
 21
276.0622225469133
 31
0.0000000000000000
  0
LINE
  5
413
100
AcDbEntity
  8
MAIN0
  6
CONTINUOUS
 62
3
100
AcDbLine
 10
73.18418444900169
 20
290.8622225468919
 30
0.0000000000000000
 11
73.18418444902903
 21
276.0622225470565
 31
0.0000000000000000
  0
LINE
  5
414
100
AcDbEntity
  8
MAIN0
  6
CONTINUOUS
 62
3
100
AcDbLine
 10
48.08418444913303
 20
229.6622225468219
 30
0.0000000000000000
 11
150.2841844491327
 21
229.6622225470068
 31
0.0000000000000000
  0
LINE
  5
415
100
AcDbEntity
  8
MAIN0
  6
CONTINUOUS
 62
3
100
AcDbLine
 10
230.1364379884383
 20
230.0622225470601
 30
0.0000000000000000
 11
230.5364379884382
 21
229.6622225470602
 31
0.0000000000000000
  0
LINE
  5
416
100
AcDbEntity
  8
MAIN0
  6
CONTINUOUS
 62
3
100
AcDbLine
 10
230.1364379884266
 20
294.0622225469220
 30
0.0000000000000000
 11
230.1364379884379
 21
230.0622225470601
 31
0.0000000000000000
  0
LINE
  5
417
100
AcDbEntity
  8
MAIN0
  6
CONTINUOUS
 62
3
100
AcDbLine
 10
383.1364379884375
 20
230.0622225469130
 30
0.0000000000000000
 11
383.1364379884375
 21
233.6622225469145
 31
0.0000000000000000
  0
LINE
  5
418
100
AcDbEntity
  8
MAIN0
  6
CONTINUOUS
 62
3
100
AcDbLine
 10
397.5364379884374
 20
229.6622225469142
 30
0.0000000000000000
 11
502.7364379884377
 21
229.6622225469143
 31
0.0000000000000000
  0
LINE
  5
419
100
AcDbEntity
  8
MAIN0
  6
CONTINUOUS
 62
3
100
AcDbLine
 10
502.7364379884382
 20
229.6622225469151
 30
0.0000000000000000
 11
503.1364379884375
 21
230.0622225469144
 31
0.0000000000000000
  0
LINE
  5
41A
100
AcDbEntity
  8
MAIN0
  6
CONTINUOUS
 62
3
100
AcDbLine
 10
503.1364379884313
 20
230.0622225469145
 30
0.0000000000000000
 11
503.1364379884313
 21
267.3622225481211
 31
0.0000000000000000
  0
LINE
  5
41B
100
AcDbEntity
  8
MAIN0
  6
CONTINUOUS
 62
3
100
AcDbLine
 10
230.1364379884266
 20
294.0622225469220
 30
0.0000000000000000
 11
230.7364379884264
 21
294.6622225469220
 31
0.0000000000000000
  0
LINE
  5
41C
100
AcDbEntity
  8
MAIN0
  6
CONTINUOUS
 62
3
100
AcDbLine
 10
259.6364379884265
 20
288.1622225469220
 30
0.0000000000000000
 11
275.6364379884265
 21
288.1622225469220
 31
0.0000000000000000
  0
ARC
  5
41D
100
AcDbEntity
  8
MAIN0
  6
CONTINUOUS
 62
3
100
AcDbCircle
 10
259.6364379884265
 20
289.1622225469220
 30
0.0000000000000000
 40
1.000000000000000
100
AcDbArc
 50
180.0000000000000
 51
270.0000000000000
  0
LINE
  5
41E
100
AcDbEntity
  8
MAIN0
  6
CONTINUOUS
 62
3
100
AcDbLine
 10
258.6364379884265
 20
289.1622225469220
 30
0.0000000000000000
 11
258.6364379884265
 21
293.6622225469220
 31
0.0000000000000000
  0
LINE
  5
41F
100
AcDbEntity
  8
MAIN0
  6
CONTINUOUS
 62
3
100
AcDbLine
 10
257.6364379884265
 20
294.6622225469221
 30
0.0000000000000000
 11
258.6364379884265
 21
293.6622225469220
 31
0.0000000000000000
  0
ARC
  5
420
100
AcDbEntity
  8
MAIN0
  6
CONTINUOUS
 62
3
100
AcDbCircle
 10
275.6364379884265
 20
289.1622225469220
 30
0.0000000000000000
 40
1.000000000000000
100
AcDbArc
 50
270.0000000000000
 51
360.0000000000000
  0
LINE
  5
421
100
AcDbEntity
  8
MAIN0
  6
CONTINUOUS
 62
3
100
AcDbLine
 10
276.6364379884265
 20
289.1622225469220
 30
0.0000000000000000
 11
276.6364379884265
 21
293.6622225469219
 31
0.0000000000000000
  0
LINE
  5
422
100
AcDbEntity
  8
MAIN0
  6
CONTINUOUS
 62
3
100
AcDbLine
 10
276.6364379884263
 20
293.6622225469220
 30
0.0000000000000000
 11
277.6364379884263
 21
294.6622225469220
 31
0.0000000000000000
  0
LINE
  5
423
100
AcDbEntity
  8
MAIN0
  6
CONTINUOUS
 62
3
100
AcDbLine
 10
230.7364379884264
 20
294.6622225469220
 30
0.0000000000000000
 11
257.6364379884265
 21
294.6622225469212
 31
0.0000000000000000
  0
LINE
  5
424
100
AcDbEntity
  8
MAIN0
  6
CONTINUOUS
 62
3
100
AcDbLine
 10
277.6364379884263
 20
294.6622225469207
 30
0.0000000000000000
 11
433.1364379888485
 21
294.6622225469162
 31
0.0000000000000000
  0
LINE
  5
425
100
AcDbEntity
  8
MAIN0
  6
CONTINUOUS
 62
3
100
AcDbLine
 10
382.7364379884373
 20
229.6622225469134
 30
0.0000000000000000
 11
383.1364379884374
 21
230.0622225469130
 31
0.0000000000000000
  0
LINE
  5
426
100
AcDbEntity
  8
MAIN0
  6
CONTINUOUS
 62
3
100
AcDbLine
 10
230.7364379884309
 20
269.6622225476453
 30
0.0000000000000000
 11
433.1364379888486
 21
269.6622225474073
 31
0.0000000000000000
  0
LINE
  5
427
100
AcDbEntity
  8
MAIN0
  6
CONTINUOUS
 62
3
100
AcDbLine
 10
230.7364379884352
 20
244.6622225458142
 30
0.0000000000000000
 11
502.5364379884313
 21
244.6622225458142
 31
0.0000000000000000
  0
LINE
  5
428
100
AcDbEntity
  8
MAIN0
  6
CONTINUOUS
 62
3
100
AcDbLine
 10
502.5364379884314
 20
244.6622225458142
 30
0.0000000000000000
 11
503.1364379884315
 21
244.0622225458141
 31
0.0000000000000000
  0
LINE
  5
429
100
AcDbEntity
  8
MAIN0
  6
CONTINUOUS
 62
3
100
AcDbLine
 10
230.5364379884381
 20
229.6622225470591
 30
0.0000000000000000
 11
383.1364379884375
 21
229.6622225468986
 31
0.0000000000000000
  0
CIRCLE
  5
42A
100
AcDbEntity
  8
MAIN0
  6
CONTINUOUS
 62
3
100
AcDbCircle
 10
320.1364379884312
 20
282.1622225471865
 30
0.0000000000000000
 40
4.000000000000000
  0
CIRCLE
  5
42B
100
AcDbEntity
  8
MAIN0
  6
CONTINUOUS
 62
3
100
AcDbCircle
 10
320.1364379884312
 20
282.1622225471865
 30
0.0000000000000000
 40
3.400000000000000
  0
CIRCLE
  5
42C
100
AcDbEntity
  8
MAIN0
  6
CONTINUOUS
 62
3
100
AcDbCircle
 10
425.1364379884313
 20
282.1622225471865
 30
0.0000000000000000
 40
4.000000000000000
  0
CIRCLE
  5
42D
100
AcDbEntity
  8
MAIN0
  6
CONTINUOUS
 62
3
100
AcDbCircle
 10
425.1364379884313
 20
282.1622225471865
 30
0.0000000000000000
 40
3.400000000000000
  0
LINE
  5
42E
100
AcDbEntity
  8
MAIN0
  6
CENTER
 62
3
100
AcDbLine
 10
431.1364379884313
 20
282.1622225471865
 30
0.0000000000000000
 11
419.1364379884313
 21
282.1622225471865
 31
0.0000000000000000
  0
LINE
  5
42F
100
AcDbEntity
  8
MAIN0
  6
CENTER
 62
3
100
AcDbLine
 10
425.1364379884313
 20
288.1622225471863
 30
0.0000000000000000
 11
425.1364379884313
 21
276.1622225471865
 31
0.0000000000000000
  0
LINE
  5
430
100
AcDbEntity
  8
MAIN0
  6
CENTER
 62
3
100
AcDbLine
 10
326.1364379884312
 20
282.1622225471865
 30
0.0000000000000000
 11
314.1364379884312
 21
282.1622225471865
 31
0.0000000000000000
  0
LINE
  5
431
100
AcDbEntity
  8
MAIN0
  6
CENTER
 62
3
100
AcDbLine
 10
320.1364379884312
 20
288.1622225471863
 30
0.0000000000000000
 11
320.1364379884312
 21
276.1622225471865
 31
0.0000000000000000
  0
LINE
  5
432
100
AcDbEntity
  8
MAIN0
  6
CONTINUOUS
 62
3
100
AcDbLine
 10
383.1364379884375
 20
233.6622225469142
 30
0.0000000000000000
 11
397.1364379884375
 21
233.6622225469142
 31
0.0000000000000000
  0
LINE
  5
433
100
AcDbEntity
  8
MAIN0
  6
CONTINUOUS
 62
3
100
AcDbLine
 10
72.18418444900271
 20
290.8622225469403
 30
0.0000000000000000
 11
72.18418444900090
 21
294.0622225469404
 31
0.0000000000000000
  0
LINE
  5
434
100
AcDbEntity
  8
MAIN0
  6
CONTINUOUS
 62
3
100
AcDbLine
 10
72.18418444900266
 20
290.8622225469404
 30
0.0000000000000000
 11
126.1841844490027
 21
290.8622225469397
 31
0.0000000000000000
  0
LINE
  5
435
100
AcDbEntity
  8
MAIN0
  6
CONTINUOUS
 62
3
100
AcDbLine
 10
126.1841844490027
 20
290.8622225469708
 30
0.0000000000000000
 11
126.1841844490009
 21
294.0622225469397
 31
0.0000000000000000
  0
LINE
  5
436
100
AcDbEntity
  8
MAIN0
  6
CONTINUOUS
 62
3
100
AcDbLine
 10
72.18418444900269
 20
294.0622225469404
 30
0.0000000000000000
 11
126.1841844490027
 21
294.0622225469397
 31
0.0000000000000000
  0
LINE
  5
437
100
AcDbEntity
  8
MAIN0
  6
CONTINUOUS
 62
3
100
AcDbLine
 10
49.18418444899453
 20
334.6622225469421
 30
0.0000000000000000
 11
149.1841844489947
 21
334.6622225469421
 31
0.0000000000000000
  0
LINE
  5
438
100
AcDbEntity
  8
MAIN0
  6
CONTINUOUS
 62
3
100
AcDbLine
 10
149.1841844489947
 20
334.6622225469421
 30
0.0000000000000000
 11
149.1841844489947
 21
294.6622225469421
 31
0.0000000000000000
  0
LINE
  5
439
100
AcDbEntity
  8
MAIN0
  6
CONTINUOUS
 62
3
100
AcDbLine
 10
49.18418444899453
 20
334.6622225469421
 30
0.0000000000000000
 11
49.18418444899453
 21
294.6622225469421
 31
0.0000000000000000
  0
LINE
  5
43A
100
AcDbEntity
  8
MAIN0
  6
CONTINUOUS
 62
3
100
AcDbLine
 10
45.68418444899498
 20
305.8622225469421
 30
0.0000000000000000
 11
49.18418444899430
 21
305.8622225469421
 31
0.0000000000000000
  0
ARC
  5
43B
100
AcDbEntity
  8
MAIN0
  6
CONTINUOUS
 62
3
100
AcDbCircle
 10
45.68418444899498
 20
304.8622225469421
 30
0.0000000000000000
 40
1.000000000000000
100
AcDbArc
 50
89.99999999999919
 51
179.9999999999964
  0
LINE
  5
43C
100
AcDbEntity
  8
MAIN0
  6
CONTINUOUS
 62
3
100
AcDbLine
 10
44.68418444899498
 20
304.8622225469421
 30
0.0000000000000000
 11
44.68418444899498
 21
267.3622225469419
 31
0.0000000000000000
  0
LINE
  5
43D
100
AcDbEntity
  8
MAIN0
  6
CONTINUOUS
 62
3
100
AcDbLine
 10
45.88418444899480
 20
295.8622225469421
 30
0.0000000000000000
 11
49.18418444899453
 21
295.8622225469421
 31
0.0000000000000000
  0
LINE
  5
43E
100
AcDbEntity
  8
MAIN0
  6
CONTINUOUS
 62
3
100
AcDbLine
 10
45.88418444899480
 20
295.8622225469421
 30
0.0000000000000000
 11
45.88418444899480
 21
267.3622225469419
 31
0.0000000000000000
  0
ARC
  5
43F
100
AcDbEntity
  8
MAIN0
  6
CONTINUOUS
 62
3
100
AcDbCircle
 10
47.18418444899498
 20
294.8622225469419
 30
0.0000000000000000
 40
1.000000000000000
100
AcDbArc
 50
89.99999999942553
 51
179.9999999999964
  0
LINE
  5
440
100
AcDbEntity
  8
MAIN0
  6
CONTINUOUS
 62
3
100
AcDbLine
 10
46.18418444899498
 20
294.8622225469419
 30
0.0000000000000000
 11
46.18418444899498
 21
268.3622225469419
 31
0.0000000000000000
  0
LINE
  5
441
100
AcDbEntity
  8
MAIN0
  6
CONTINUOUS
 62
3
100
AcDbLine
 10
47.38418444899480
 20
294.6622225469421
 30
0.0000000000000000
 11
47.38418444899480
 21
269.1622225469421
 31
0.0000000000000000
  0
LINE
  5
442
100
AcDbEntity
  8
MAIN0
  6
CONTINUOUS
 62
3
100
AcDbLine
 10
47.38418444899480
 20
294.6622225469421
 30
0.0000000000000000
 11
150.9841844489949
 21
294.6622225469421
 31
0.0000000000000000
  0
LINE
  5
443
100
AcDbEntity
  8
MAIN0
  6
CONTINUOUS
 62
3
100
AcDbLine
 10
44.68418444899498
 20
267.3622225469419
 30
0.0000000000000000
 11
45.88418444899480
 21
267.3622225469419
 31
0.0000000000000000
  0
ARC
  5
444
100
AcDbEntity
  8
MAIN0
  6
CONTINUOUS
 62
3
100
AcDbCircle
 10
47.18418444899498
 20
268.3622225469419
 30
0.0000000000000000
 40
1.000000000000000
100
AcDbArc
 50
179.9999999999964
 51
270.0000000005678
  0
LINE
  5
445
100
AcDbEntity
  8
MAIN0
  6
CONTINUOUS
 62
3
100
AcDbLine
 10
47.18418444899498
 20
267.3622225469419
 30
0.0000000000000000
 11
51.68418444899498
 21
267.3622225469419
 31
0.0000000000000000
  0
LINE
  5
446
100
AcDbEntity
  8
MAIN0
  6
CONTINUOUS
 62
3
100
AcDbLine
 10
51.68418444899498
 20
268.5622225469422
 30
0.0000000000000000
 11
51.68418444899498
 21
267.3622225469419
 31
0.0000000000000000
  0
LINE
  5
447
100
AcDbEntity
  8
MAIN0
  6
CONTINUOUS
 62
3
100
AcDbLine
 10
47.98418444899525
 20
268.5622225469416
 30
0.0000000000000000
 11
51.68418444899552
 21
268.5622225469416
 31
0.0000000000000000
  0
ARC
  5
448
100
AcDbEntity
  8
MAIN0
  6
CONTINUOUS
 62
3
100
AcDbCircle
 10
47.98418444899471
 20
269.1622225469421
 30
0.0000000000000000
 40
0.6000000000000000
100
AcDbArc
 50
179.9999999999964
 51
270.0000000005678
  0
LINE
  5
449
100
AcDbEntity
  8
MAIN0
  6
CONTINUOUS
 62
3
100
AcDbLine
 10
146.6841844489952
 20
267.3622225469419
 30
0.0000000000000000
 11
151.1841844489952
 21
267.3622225469419
 31
0.0000000000000000
  0
LINE
  5
44A
100
AcDbEntity
  8
MAIN0
  6
CONTINUOUS
 62
3
100
AcDbLine
 10
146.6841844489948
 20
268.5622225469419
 30
0.0000000000000000
 11
146.6841844489948
 21
267.3622225469421
 31
0.0000000000000000
  0
LINE
  5
44B
100
AcDbEntity
  8
MAIN0
  6
CONTINUOUS
 62
3
100
AcDbLine
 10
146.6841844489949
 20
268.5622225469424
 30
0.0000000000000000
 11
150.3841844489947
 21
268.5622225469424
 31
0.0000000000000000
  0
ARC
  5
44C
100
AcDbEntity
  8
MAIN0
  6
CONTINUOUS
 62
3
100
AcDbCircle
 10
150.3841844489950
 20
269.1622225469421
 30
0.0000000000000000
 40
0.6000000000000000
100
AcDbArc
 50
270.0000000005678
 51
359.9999999999934
  0
ARC
  5
44D
100
AcDbEntity
  8
MAIN0
  6
CONTINUOUS
 62
3
100
AcDbCircle
 10
151.1841844489952
 20
268.3622225469419
 30
0.0000000000000000
 40
1.000000000000000
100
AcDbArc
 50
270.0000000005678
 51
359.9999999999934
  0
LINE
  5
44E
100
AcDbEntity
  8
MAIN0
  6
CONTINUOUS
 62
3
100
AcDbLine
 10
152.4841844489949
 20
295.8622225469421
 30
0.0000000000000000
 11
152.4841844489949
 21
267.3622225469419
 31
0.0000000000000000
  0
LINE
  5
44F
100
AcDbEntity
  8
MAIN0
  6
CONTINUOUS
 62
3
100
AcDbLine
 10
152.4841844489949
 20
267.3622225469419
 30
0.0000000000000000
 11
153.6841844489952
 21
267.3622225469419
 31
0.0000000000000000
  0
LINE
  5
450
100
AcDbEntity
  8
MAIN0
  6
CONTINUOUS
 62
3
100
AcDbLine
 10
153.6841844489952
 20
304.8622225469421
 30
0.0000000000000000
 11
153.6841844489952
 21
267.3622225469419
 31
0.0000000000000000
  0
LINE
  5
451
100
AcDbEntity
  8
MAIN0
  6
CONTINUOUS
 62
3
100
AcDbLine
 10
152.1841844489952
 20
294.8622225469419
 30
0.0000000000000000
 11
152.1841844489952
 21
268.3622225469419
 31
0.0000000000000000
  0
LINE
  5
452
100
AcDbEntity
  8
MAIN0
  6
CONTINUOUS
 62
3
100
AcDbLine
 10
150.9841844489949
 20
294.6622225469421
 30
0.0000000000000000
 11
150.9841844489949
 21
269.1622225469421
 31
0.0000000000000000
  0
LINE
  5
453
100
AcDbEntity
  8
MAIN0
  6
CONTINUOUS
 62
3
100
AcDbLine
 10
149.1841844489949
 20
305.8622225469421
 30
0.0000000000000000
 11
152.6841844489952
 21
305.8622225469421
 31
0.0000000000000000
  0
ARC
  5
454
100
AcDbEntity
  8
MAIN0
  6
CONTINUOUS
 62
3
100
AcDbCircle
 10
152.6841844489952
 20
304.8622225469421
 30
0.0000000000000000
 40
1.000000000000000
100
AcDbArc
 50
0.0000000000000000
 51
89.99999999999959
  0
ARC
  5
455
100
AcDbEntity
  8
MAIN0
  6
CONTINUOUS
 62
3
100
AcDbCircle
 10
151.1841844489952
 20
294.8622225469419
 30
0.0000000000000000
 40
1.000000000000000
100
AcDbArc
 50
0.0000000000000000
 51
89.99999999942553
  0
LINE
  5
456
100
AcDbEntity
  8
MAIN0
  6
CONTINUOUS
 62
3
100
AcDbLine
 10
149.1841844489947
 20
295.8622225469421
 30
0.0000000000000000
 11
152.4841844489949
 21
295.8622225469421
 31
0.0000000000000000
  0
LINE
  5
457
100
AcDbEntity
  8
MAIN0
  6
CONTINUOUS
 62
3
100
AcDbLine
 10
49.18418444899453
 20
314.6622225469421
 30
0.0000000000000000
 11
149.1841844489947
 21
314.6622225469421
 31
0.0000000000000000
  0
LINE
  5
458
100
AcDbEntity
  8
MAIN0
  6
CENTER
 62
3
100
AcDbLine
 10
390.1364379884375
 20
239.7112564701137
 30
0.0000000000000000
 11
390.1364379884375
 21
221.6622225469142
 31
0.0000000000000000
  0
LINE
  5
459
100
AcDbEntity
  8
MAIN0
  6
CONTINUOUS
 62
3
100
AcDbLine
 10
383.1364379884375
 20
229.6622225469130
 30
0.0000000000000000
 11
383.1364379884375
 21
233.6622225469144
 31
0.0000000000000000
  0
LINE
  5
45A
100
AcDbEntity
  8
MAIN0
  6
CONTINUOUS
 62
3
100
AcDbLine
 10
258.6364379884265
 20
289.6622225469220
 30
0.0000000000000000
 11
258.6364379884265
 21
294.0622225469220
 31
0.0000000000000000
  0
LINE
  5
45B
100
AcDbEntity
  8
MAIN0
  6
CONTINUOUS
 62
3
100
AcDbLine
 10
258.6364379884265
 20
289.6622225469220
 30
0.0000000000000000
 11
259.6364379884265
 21
288.6622225469219
 31
0.0000000000000000
  0
LINE
  5
45C
100
AcDbEntity
  8
MAIN0
  6
CONTINUOUS
 62
3
100
AcDbLine
 10
259.6364379884265
 20
288.6622225469220
 30
0.0000000000000000
 11
275.6364379884265
 21
288.6622225469220
 31
0.0000000000000000
  0
LINE
  5
45D
100
AcDbEntity
  8
MAIN0
  6
CONTINUOUS
 62
3
100
AcDbLine
 10
231.5364379884265
 20
294.6622225469221
 30
0.0000000000000000
 11
258.0364379884264
 21
294.6622225469220
 31
0.0000000000000000
  0
ARC
  5
45E
100
AcDbEntity
  8
MAIN0
  6
CONTINUOUS
 62
3
100
AcDbCircle
 10
258.0364379884264
 20
294.0622225469220
 30
0.0000000000000000
 40
0.6000000000000001
100
AcDbArc
 50
0.0000000000000000
 51
90.00000000000000
  0
LINE
  5
45F
100
AcDbEntity
  8
MAIN0
  6
CONTINUOUS
 62
3
100
AcDbLine
 10
231.1364379884265
 20
295.0622225469219
 30
0.0000000000000000
 11
231.5364379884265
 21
294.6622225469220
 31
0.0000000000000000
  0
LINE
  5
460
100
AcDbEntity
  8
MAIN0
  6
CONTINUOUS
 62
3
100
AcDbLine
 10
231.1364379884265
 20
314.0622225469220
 30
0.0000000000000000
 11
231.1364379884265
 21
295.0622225469219
 31
0.0000000000000000
  0
LINE
  5
461
100
AcDbEntity
  8
MAIN0
  6
CONTINUOUS
 62
3
100
AcDbLine
 10
231.7364379884265
 20
314.6622225469220
 30
0.0000000000000000
 11
231.1364379884265
 21
314.0622225469220
 31
0.0000000000000000
  0
LINE
  5
462
100
AcDbEntity
  8
MAIN0
  6
CONTINUOUS
 62
3
100
AcDbLine
 10
231.7364379884265
 20
314.6622225469220
 30
0.0000000000000000
 11
265.5364379887407
 21
314.6622225469220
 31
0.0000000000000000
  0
LINE
  5
463
100
AcDbEntity
  8
MAIN0
  6
CONTINUOUS
 62
3
100
AcDbLine
 10
264.8643845960655
 20
314.6622225469218
 30
0.0000000000000000
 11
265.2670390981525
 21
314.4526138803790
 31
0.0000000000000000
  0
ARC
  5
464
100
AcDbEntity
  8
MAIN0
  6
CONTINUOUS
 62
3
100
AcDbCircle
 10
265.6364379887407
 20
315.1622225469220
 30
0.0000000000000000
 40
0.8000000000000000
100
AcDbArc
 50
242.5000000002250
 51
387.5000000000000
  0
LINE
  5
465
100
AcDbEntity
  8
MAIN0
  6
CONTINUOUS
 62
3
100
AcDbLine
 10
266.1364379887408
 20
315.9342759395970
 30
0.0000000000000000
 11
266.3460466552835
 21
315.5316214375101
 31
0.0000000000000000
  0
LINE
  5
466
100
AcDbEntity
  8
MAIN0
  6
CONTINUOUS
 62
3
100
AcDbLine
 10
266.1364379887407
 20
334.4622225469220
 30
0.0000000000000000
 11
266.1364379887407
 21
315.2622225469220
 31
0.0000000000000000
  0
LINE
  5
467
100
AcDbEntity
  8
MAIN0
  6
CONTINUOUS
 62
3
100
AcDbLine
 10
266.1364379887406
 20
334.1622225469223
 30
0.0000000000000000
 11
266.6364379887405
 21
334.6622225469222
 31
0.0000000000000000
  0
LINE
  5
468
100
AcDbEntity
  8
MAIN0
  6
CONTINUOUS
 62
3
100
AcDbLine
 10
231.3364379884264
 20
334.6622225469220
 30
0.0000000000000000
 11
265.9364379887407
 21
334.6622225469220
 31
0.0000000000000000
  0
LINE
  5
469
100
AcDbEntity
  8
MAIN0
  6
CONTINUOUS
 62
3
100
AcDbLine
 10
304.1364379884263
 20
334.4622225469220
 30
0.0000000000000000
 11
304.1364379884263
 21
295.0622225469220
 31
0.0000000000000000
  0
LINE
  5
46A
100
AcDbEntity
  8
MAIN0
  6
CONTINUOUS
 62
3
100
AcDbLine
 10
303.9364379884264
 20
334.6622225469220
 30
0.0000000000000000
 11
304.1364379884265
 21
334.4622225469220
 31
0.0000000000000000
  0
LINE
  5
46B
100
AcDbEntity
  8
MAIN0
  6
CONTINUOUS
 62
3
100
AcDbLine
 10
303.7364379884264
 20
294.6622225469220
 30
0.0000000000000000
 11
304.1364379884263
 21
295.0622225469220
 31
0.0000000000000000
  0
LINE
  5
46C
100
AcDbEntity
  8
MAIN0
  6
CONTINUOUS
 62
3
100
AcDbLine
 10
277.2364379884265
 20
294.6622225469220
 30
0.0000000000000000
 11
303.7364379884264
 21
294.6622225469220
 31
0.0000000000000000
  0
LINE
  5
46D
100
AcDbEntity
  8
MAIN0
  6
CONTINUOUS
 62
3
100
AcDbLine
 10
276.6364379884265
 20
289.6622225469220
 30
0.0000000000000000
 11
276.6364379884265
 21
294.0622225469220
 31
0.0000000000000000
  0
LINE
  5
46E
100
AcDbEntity
  8
MAIN0
  6
CONTINUOUS
 62
3
100
AcDbLine
 10
275.6364379884266
 20
288.6622225469220
 30
0.0000000000000000
 11
276.6364379884266
 21
289.6622225469220
 31
0.0000000000000000
  0
ARC
  5
46F
100
AcDbEntity
  8
MAIN0
  6
CONTINUOUS
 62
3
100
AcDbCircle
 10
277.2364379884265
 20
294.0622225469220
 30
0.0000000000000000
 40
0.6000000000000001
100
AcDbArc
 50
90.00000000000000
 51
180.0000000000000
  0
LINE
  5
470
100
AcDbEntity
  8
MAIN0
  6
CONTINUOUS
 62
3
100
AcDbLine
 10
265.5364379887407
 20
314.6622225469220
 30
0.0000000000000000
 11
266.1364379887407
 21
315.2622225469219
 31
0.0000000000000000
  0
LINE
  5
471
100
AcDbEntity
  8
MAIN0
  6
CONTINUOUS
 62
3
100
AcDbLine
 10
231.7364379884265
 20
314.6622225469220
 30
0.0000000000000000
 11
231.1364379884265
 21
315.2622225469220
 31
0.0000000000000000
  0
LINE
  5
472
100
AcDbEntity
  8
MAIN0
  6
CONTINUOUS
 62
3
100
AcDbLine
 10
266.1364379887407
 20
334.4622225469220
 30
0.0000000000000000
 11
265.9364379887407
 21
334.6622225469220
 31
0.0000000000000000
  0
LINE
  5
473
100
AcDbEntity
  8
MAIN0
  6
CONTINUOUS
 62
3
100
AcDbLine
 10
231.1364379884265
 20
334.4622225469220
 30
0.0000000000000000
 11
231.3364379884264
 21
334.6622225469220
 31
0.0000000000000000
  0
LINE
  5
474
100
AcDbEntity
  8
MAIN0
  6
CONTINUOUS
 62
3
100
AcDbLine
 10
433.1364379884267
 20
315.2622225469484
 30
0.0000000000000000
 11
433.1364379884267
 21
334.4622225469220
 31
0.0000000000000000
  0
LINE
  5
475
100
AcDbEntity
  8
MAIN0
  6
CONTINUOUS
 62
3
100
AcDbLine
 10
410.7364379880395
 20
294.6622225469364
 30
0.0000000000000000
 11
432.7364379883867
 21
294.6622225469480
 31
0.0000000000000000
  0
LINE
  5
476
100
AcDbEntity
  8
MAIN0
  6
CONTINUOUS
 62
3
100
AcDbLine
 10
433.1364379883868
 20
295.0622225469482
 30
0.0000000000000000
 11
432.7364379883868
 21
294.6622225469483
 31
0.0000000000000000
  0
LINE
  5
477
100
AcDbEntity
  8
MAIN0
  6
CONTINUOUS
 62
3
100
AcDbLine
 10
398.7364379884267
 20
314.6622225469483
 30
0.0000000000000000
 11
432.5364379884267
 21
314.6622225469483
 31
0.0000000000000000
  0
LINE
  5
478
100
AcDbEntity
  8
MAIN0
  6
CONTINUOUS
 62
3
100
AcDbLine
 10
432.5364379884265
 20
314.6622225469483
 30
0.0000000000000000
 11
433.1364379884266
 21
314.0622225469483
 31
0.0000000000000000
  0
LINE
  5
479
100
AcDbEntity
  8
MAIN0
  6
CONTINUOUS
 62
3
100
AcDbLine
 10
369.5364379883866
 20
294.6622225469146
 30
0.0000000000000000
 11
391.5364379880396
 21
294.6622225469262
 31
0.0000000000000000
  0
LINE
  5
47A
100
AcDbEntity
  8
MAIN0
  6
CONTINUOUS
 62
3
100
AcDbLine
 10
369.5364379883865
 20
294.6622225469146
 30
0.0000000000000000
 11
369.1364379883866
 21
295.0622225469144
 31
0.0000000000000000
  0
LINE
  5
47B
100
AcDbEntity
  8
MAIN0
  6
CONTINUOUS
 62
3
100
AcDbLine
 10
369.1364379884263
 20
295.0522225469483
 30
0.0000000000000000
 11
369.1364379884265
 21
334.4622225469220
 31
0.0000000000000000
  0
LINE
  5
47C
100
AcDbEntity
  8
MAIN0
  6
CONTINUOUS
 62
3
100
AcDbLine
 10
398.3364379884266
 20
334.6622225469220
 30
0.0000000000000000
 11
432.9364379884267
 21
334.6622225469220
 31
0.0000000000000000
  0
LINE
  5
47D
100
AcDbEntity
  8
MAIN0
  6
CONTINUOUS
 62
3
100
AcDbLine
 10
369.1364379884263
 20
334.4622225469220
 30
0.0000000000000000
 11
369.3364379884263
 21
334.6622225469220
 31
0.0000000000000000
  0
LINE
  5
47E
100
AcDbEntity
  8
MAIN0
  6
CONTINUOUS
 62
3
100
AcDbLine
 10
397.6364379884267
 20
334.6622225469221
 30
0.0000000000000000
 11
398.1364379884267
 21
334.1622225469221
 31
0.0000000000000000
  0
LINE
  5
47F
100
AcDbEntity
  8
MAIN0
  6
CONTINUOUS
 62
3
100
AcDbLine
 10
398.1364379884267
 20
315.2622225469484
 30
0.0000000000000000
 11
398.1364379884267
 21
334.4622225469220
 31
0.0000000000000000
  0
LINE
  5
480
100
AcDbEntity
  8
MAIN0
  6
CONTINUOUS
 62
3
100
AcDbLine
 10
398.1364379884266
 20
315.9342759396234
 30
0.0000000000000000
 11
397.9268293218838
 21
315.5316214375365
 31
0.0000000000000000
  0
ARC
  5
481
100
AcDbEntity
  8
MAIN0
  6
CONTINUOUS
 62
3
100
AcDbCircle
 10
398.6364379884267
 20
315.1622225469483
 30
0.0000000000000000
 40
0.8000000000000000
100
AcDbArc
 50
152.5000000000000
 51
297.4999999997751
  0
LINE
  5
482
100
AcDbEntity
  8
MAIN0
  6
CONTINUOUS
 62
3
100
AcDbLine
 10
399.4084913811019
 20
314.6622225469482
 30
0.0000000000000000
 11
399.0058368790149
 21
314.4526138804054
 31
0.0000000000000000
  0
LINE
  5
483
100
AcDbEntity
  8
MAIN0
  6
CONTINUOUS
 62
3
100
AcDbLine
 10
432.9364379884268
 20
334.6622225469221
 30
0.0000000000000000
 11
433.1364379884267
 21
334.4622225469221
 31
0.0000000000000000
  0
LINE
  5
484
100
AcDbEntity
  8
MAIN0
  6
CONTINUOUS
 62
3
100
AcDbLine
 10
398.1364379884267
 20
334.4622225469220
 30
0.0000000000000000
 11
398.3364379884266
 21
334.6622225469221
 31
0.0000000000000000
  0
LINE
  5
485
100
AcDbEntity
  8
MAIN0
  6
CONTINUOUS
 62
3
100
AcDbLine
 10
398.1364379884266
 20
315.2622225469483
 30
0.0000000000000000
 11
398.7364379884266
 21
314.6622225469483
 31
0.0000000000000000
  0
LINE
  5
486
100
AcDbEntity
  8
MAIN0
  6
CONTINUOUS
 62
3
100
AcDbLine
 10
433.1364379884267
 20
315.2622225469484
 30
0.0000000000000000
 11
432.5364379884267
 21
314.6622225469484
 31
0.0000000000000000
  0
LINE
  5
487
100
AcDbEntity
  8
MAIN0
  6
CONTINUOUS
 62
3
100
AcDbLine
 10
434.1364379888486
 20
305.8622225474475
 30
0.0000000000000000
 11
506.1364379891610
 21
305.8622225474475
 31
0.0000000000000000
  0
ARC
  5
488
100
AcDbEntity
  8
MAIN0
  6
CONTINUOUS
 62
3
100
AcDbCircle
 10
434.1364379888486
 20
304.8622225474475
 30
0.0000000000000000
 40
1.000000000000000
100
AcDbArc
 50
90.00000000000000
 51
180.0000000000000
  0
LINE
  5
489
100
AcDbEntity
  8
MAIN0
  6
CONTINUOUS
 62
3
100
AcDbLine
 10
433.1364379888485
 20
304.8622225474475
 30
0.0000000000000000
 11
433.1364379888487
 21
267.3622225481211
 31
0.0000000000000000
  0
ARC
  5
48A
100
AcDbEntity
  8
MAIN0
  6
CONTINUOUS
 62
3
100
AcDbCircle
 10
506.1364379891610
 20
304.8622225474476
 30
0.0000000000000000
 40
1.000000000000000
100
AcDbArc
 50
0.0000000000000000
 51
89.99999999999838
  0
LINE
  5
48B
100
AcDbEntity
  8
MAIN0
  6
CONTINUOUS
 62
3
100
AcDbLine
 10
507.1364379891610
 20
304.8622225474476
 30
0.0000000000000000
 11
507.1364379891610
 21
267.3622225481210
 31
0.0000000000000000
  0
LINE
  5
48C
100
AcDbEntity
  8
MAIN0
  6
CONTINUOUS
 62
3
100
AcDbLine
 10
507.1364379891610
 20
295.8622225474082
 30
0.0000000000000000
 11
533.1364379896560
 21
295.8622225474082
 31
0.0000000000000000
  0
LINE
  5
48D
100
AcDbEntity
  8
MAIN0
  6
CONTINUOUS
 62
3
100
AcDbLine
 10
533.1364379896528
 20
267.3622225481211
 30
0.0000000000000000
 11
533.1364379896558
 21
295.8622225474080
 31
0.0000000000000000
  0
LINE
  5
48E
100
AcDbEntity
  8
MAIN0
  6
CONTINUOUS
 62
3
100
AcDbLine
 10
533.1364379896528
 20
267.3622225481211
 30
0.0000000000000000
 11
433.1364379888487
 21
267.3622225481211
 31
0.0000000000000000
  0
LINE
  5
48F
100
AcDbEntity
  8
MAIN0
  6
CONTINUOUS
 62
3
100
AcDbLine
 10
712.0088485431938
 20
268.5622225469317
 30
0.0000000000000000
 11
712.0088485431938
 21
267.3622225469317
 31
0.0000000000000000
  0
LINE
  5
490
100
AcDbEntity
  8
MAIN0
  6
CONTINUOUS
 62
3
100
AcDbLine
 10
708.3088485431938
 20
268.5622225469319
 30
0.0000000000000000
 11
712.0088485431936
 21
268.5622225469319
 31
0.0000000000000000
  0
LINE
  5
491
100
AcDbEntity
  8
MAIN0
  6
CONTINUOUS
 62
3
100
AcDbLine
 10
807.0088485431938
 20
268.5622225469317
 30
0.0000000000000000
 11
810.7088485431937
 21
268.5622225469317
 31
0.0000000000000000
  0
LINE
  5
492
100
AcDbEntity
  8
MAIN0
  6
CONTINUOUS
 62
3
100
AcDbLine
 10
707.5088485431938
 20
267.3622225469318
 30
0.0000000000000000
 11
712.0088485431938
 21
267.3622225469318
 31
0.0000000000000000
  0
LINE
  5
493
100
AcDbEntity
  8
MAIN0
  6
CONTINUOUS
 62
3
100
AcDbLine
 10
807.0088485431938
 20
267.3622225469318
 30
0.0000000000000000
 11
811.5088485431938
 21
267.3622225469318
 31
0.0000000000000000
  0
ARC
  5
494
100
AcDbEntity
  8
MAIN0
  6
CONTINUOUS
 62
3
100
AcDbCircle
 10
811.5088485431938
 20
294.8622225469318
 30
0.0000000000000000
 40
1.000000000000000
100
AcDbArc
 50
0.0000000000000000
 51
89.99999999942553
  0
ARC
  5
495
100
AcDbEntity
  8
MAIN0
  6
CONTINUOUS
 62
3
100
AcDbCircle
 10
707.5088485431938
 20
294.8622225469318
 30
0.0000000000000000
 40
1.000000000000000
100
AcDbArc
 50
89.99999999942553
 51
179.9999999999964
  0
ARC
  5
496
100
AcDbEntity
  8
MAIN0
  6
CONTINUOUS
 62
3
100
AcDbCircle
 10
810.7088485431939
 20
269.1622225469317
 30
0.0000000000000000
 40
0.6000000000000000
100
AcDbArc
 50
270.0000000005678
 51
359.9999999999934
  0
ARC
  5
497
100
AcDbEntity
  8
MAIN0
  6
CONTINUOUS
 62
3
100
AcDbCircle
 10
708.3088485431938
 20
269.1622225469317
 30
0.0000000000000000
 40
0.6000000000000000
100
AcDbArc
 50
179.9999999999964
 51
270.0000000005678
  0
ARC
  5
498
100
AcDbEntity
  8
MAIN0
  6
CONTINUOUS
 62
3
100
AcDbCircle
 10
707.5088485431938
 20
268.3622225469318
 30
0.0000000000000000
 40
1.000000000000000
100
AcDbArc
 50
179.9999999999964
 51
270.0000000005678
  0
ARC
  5
499
100
AcDbEntity
  8
MAIN0
  6
CONTINUOUS
 62
3
100
AcDbCircle
 10
811.5088485431938
 20
268.3622225469318
 30
0.0000000000000000
 40
1.000000000000000
100
AcDbArc
 50
270.0000000005678
 51
359.9999999999934
  0
LINE
  5
49A
100
AcDbEntity
  8
MAIN0
  6
CONTINUOUS
 62
3
100
AcDbLine
 10
807.0088485431938
 20
268.5622225469318
 30
0.0000000000000000
 11
807.0088485431938
 21
267.3622225469317
 31
0.0000000000000000
  0
LINE
  5
49B
100
AcDbEntity
  8
MAIN0
  6
CONTINUOUS
 62
3
100
AcDbLine
 10
707.7088485431939
 20
294.6622225469317
 30
0.0000000000000000
 11
811.3088485431938
 21
294.6622225469317
 31
0.0000000000000000
  0
LINE
  5
49C
100
AcDbEntity
  8
MAIN0
  6
CONTINUOUS
 62
3
100
AcDbLine
 10
811.3088485431938
 20
269.1622225469317
 30
0.0000000000000000
 11
811.3088485431938
 21
294.6622225469317
 31
0.0000000000000000
  0
LINE
  5
49D
100
AcDbEntity
  8
MAIN0
  6
CONTINUOUS
 62
3
100
AcDbLine
 10
812.5088485431938
 20
268.3622225469318
 30
0.0000000000000000
 11
812.5088485431938
 21
294.8622225469317
 31
0.0000000000000000
  0
LINE
  5
49E
100
AcDbEntity
  8
MAIN0
  6
CONTINUOUS
 62
3
100
AcDbLine
 10
706.5088485431938
 20
268.3622225469318
 30
0.0000000000000000
 11
706.5088485431938
 21
294.8622225469317
 31
0.0000000000000000
  0
LINE
  5
49F
100
AcDbEntity
  8
MAIN0
  6
CONTINUOUS
 62
3
100
AcDbLine
 10
707.7088485431939
 20
269.1622225469317
 30
0.0000000000000000
 11
707.7088485431939
 21
294.6622225469317
 31
0.0000000000000000
  0
LINE
  5
4A0
100
AcDbEntity
  8
MAIN0
  6
CONTINUOUS
 62
3
100
AcDbLine
 10
708.0088485431934
 20
294.6622225469317
 30
0.0000000000000000
 11
811.3088485431942
 21
294.6622225469317
 31
0.0000000000000000
  0
LINE
  5
4A1
100
AcDbEntity
  8
MAIN0
  6
CONTINUOUS
 62
3
100
AcDbLine
 10
707.5088485431938
 20
295.8622225469318
 30
0.0000000000000000
 11
707.7088485431939
 21
295.8622225469318
 31
0.0000000000000000
  0
LINE
  5
4A2
100
AcDbEntity
  8
MAIN0
  6
CONTINUOUS
 62
3
100
AcDbLine
 10
811.3088485431938
 20
295.8622225469318
 30
0.0000000000000000
 11
811.5088485431938
 21
295.8622225469318
 31
0.0000000000000000
  0
LINE
  5
4A3
100
AcDbEntity
  8
MAIN0
  6
CONTINUOUS
 62
3
100
AcDbLine
 10
707.7088485431939
 20
295.8622225469318
 30
0.0000000000000000
 11
811.3088485431938
 21
295.8622225469318
 31
0.0000000000000000
  0
LINE
  5
4A4
100
AcDbEntity
  8
MAIN0
  6
CONTINUOUS
 62
3
100
AcDbLine
 10
799.3088485431936
 20
294.6622225469317
 30
0.0000000000000000
 11
811.3088485431936
 21
274.6622225469317
 31
0.0000000000000000
  0
LINE
  5
4A5
100
AcDbEntity
  8
MAIN0
  6
CONTINUOUS
 62
3
100
AcDbLine
 10
719.7088485429219
 20
294.6622225471814
 30
0.0000000000000000
 11
707.7088485427964
 21
274.6622225472568
 31
0.0000000000000000
  0
ARC
  5
4A6
100
AcDbEntity
  8
MAIN0
  6
CONTINUOUS
 62
3
100
AcDbCircle
 10
706.0088485430442
 20
304.8622225469320
 30
0.0000000000000000
 40
1.000000000000000
100
AcDbArc
 50
89.99999999999919
 51
179.9999999999964
  0
LINE
  5
4A7
100
AcDbEntity
  8
MAIN0
  6
CONTINUOUS
 62
3
100
AcDbLine
 10
706.0088485430442
 20
305.8622225469320
 30
0.0000000000000000
 11
813.0088485430442
 21
305.8622225469320
 31
0.0000000000000000
  0
ARC
  5
4A8
100
AcDbEntity
  8
MAIN0
  6
CONTINUOUS
 62
3
100
AcDbCircle
 10
813.0088485430442
 20
304.8622225469320
 30
0.0000000000000000
 40
1.000000000000000
100
AcDbArc
 50
0.0000000000000000
 51
89.99999999999959
  0
LINE
  5
4A9
100
AcDbEntity
  8
MAIN0
  6
CONTINUOUS
 62
3
100
AcDbLine
 10
705.0088485430442
 20
267.3622225469320
 30
0.0000000000000000
 11
706.2088485430443
 21
267.3622225469320
 31
0.0000000000000000
  0
LINE
  5
4AA
100
AcDbEntity
  8
MAIN0
  6
CONTINUOUS
 62
3
100
AcDbLine
 10
812.8088485430444
 20
267.3622225469320
 30
0.0000000000000000
 11
814.0088485430442
 21
267.3622225469320
 31
0.0000000000000000
  0
LINE
  5
4AB
100
AcDbEntity
  8
MAIN0
  6
CONTINUOUS
 62
3
100
AcDbLine
 10
706.2088485430443
 20
295.8622225469320
 30
0.0000000000000000
 11
812.8088485430445
 21
295.8622225469318
 31
0.0000000000000000
  0
LINE
  5
4AC
100
AcDbEntity
  8
MAIN0
  6
CONTINUOUS
 62
3
100
AcDbLine
 10
705.0088485430442
 20
267.3622225469320
 30
0.0000000000000000
 11
705.0088485430442
 21
304.8622225469320
 31
0.0000000000000000
  0
LINE
  5
4AD
100
AcDbEntity
  8
MAIN0
  6
CONTINUOUS
 62
3
100
AcDbLine
 10
706.2088485430443
 20
267.3622225469320
 30
0.0000000000000000
 11
706.2088485430443
 21
305.8622225469320
 31
0.0000000000000000
  0
LINE
  5
4AE
100
AcDbEntity
  8
MAIN0
  6
CONTINUOUS
 62
3
100
AcDbLine
 10
812.8088485430444
 20
267.3622225469320
 30
0.0000000000000000
 11
812.8088485430444
 21
305.8622225469320
 31
0.0000000000000000
  0
LINE
  5
4AF
100
AcDbEntity
  8
MAIN0
  6
CONTINUOUS
 62
3
100
AcDbLine
 10
814.0088485430442
 20
267.3622225469320
 30
0.0000000000000000
 11
814.0088485430442
 21
304.8622225469320
 31
0.0000000000000000
  0
LINE
  5
4B0
100
AcDbEntity
  8
MAIN0
  6
CONTINUOUS
 62
3
100
AcDbLine
 10
230.1364379883411
 20
532.9847318745767
 30
0.0000000000000000
 11
230.1364379885231
 21
440.9847318741674
 31
0.0000000000000000
  0
LINE
  5
4B1
100
AcDbEntity
  8
MAIN0
  6
CENTER
 62
3
100
AcDbLine
 10
279.1364379884221
 20
448.9847318746342
 30
0.0000000000000000
 11
300.1364379884221
 21
448.9847318746341
 31
0.0000000000000000
  0
LINE
  5
4B2
100
AcDbEntity
  8
MAIN0
  6
CENTER
 62
3
100
AcDbLine
 10
289.6364379884220
 20
438.4847318746341
 30
0.0000000000000000
 11
289.6364379885252
 21
494.9847318743105
 31
0.0000000000000000
  0
LINE
  5
4B3
100
AcDbEntity
  8
MAIN0
  6
CENTER
 62
3
100
AcDbLine
 10
424.9877459561934
 20
521.9847318736671
 30
0.0000000000000000
 11
404.1648900742527
 21
521.9847318736671
 31
0.0000000000000000
  0
LINE
  5
4B4
100
AcDbEntity
  8
MAIN0
  6
CENTER
 62
3
100
AcDbLine
 10
414.6364379308729
 20
533.5645661726043
 30
0.0000000000000000
 11
414.6364379308729
 21
511.8121275860488
 31
0.0000000000000000
  0
LINE
  5
4B5
100
AcDbEntity
  8
MAIN0
  6
CENTER
 62
3
100
AcDbLine
 10
425.3595846852218
 20
451.9847318746946
 30
0.0000000000000000
 11
403.0493809461456
 21
451.9847318746946
 31
0.0000000000000000
  0
LINE
  5
4B6
100
AcDbEntity
  8
MAIN0
  6
CENTER
 62
3
100
AcDbLine
 10
414.6364379307942
 20
465.5184528862468
 30
0.0000000000000000
 11
414.6364379307942
 21
440.4194727974139
 31
0.0000000000000000
  0
LINE
  5
4B7
100
AcDbEntity
  8
MAIN0
  6
CONTINUOUS
 62
3
100
AcDbLine
 10
664.9269863180467
 20
455.9897949331334
 30
0.0000000000000000
 11
664.9269863180477
 21
446.9897949331334
 31
0.0000000000000000
  0
LINE
  5
4B8
100
AcDbEntity
  8
MAIN0
  6
CONTINUOUS
 62
3
100
AcDbLine
 10
662.4269863180467
 20
458.4897949331330
 30
0.0000000000000000
 11
653.4269863180467
 21
458.4897949331330
 31
0.0000000000000000
  0
LINE
  5
4B9
100
AcDbEntity
  8
MAIN0
  6
CONTINUOUS
 62
3
100
AcDbLine
 10
662.4269863180476
 20
444.4897949331330
 30
0.0000000000000000
 11
661.4269863180483
 21
444.4897949331330
 31
0.0000000000000000
  0
ARC
  5
4BA
100
AcDbEntity
  8
MAIN0
  6
CONTINUOUS
 62
3
100
AcDbCircle
 10
653.4269863180467
 20
455.9897949331330
 30
0.0000000000000000
 40
2.500000000000000
100
AcDbArc
 50
90.00000000000000
 51
180.0000000000000
  0
ARC
  5
4BB
100
AcDbEntity
  8
MAIN0
  6
CONTINUOUS
 62
3
100
AcDbCircle
 10
661.4269863180483
 20
441.9897949331330
 30
0.0000000000000000
 40
2.500000000000000
100
AcDbArc
 50
90.00000000000000
 51
180.0000000000000
  0
ARC
  5
4BC
100
AcDbEntity
  8
MAIN0
  6
CONTINUOUS
 62
3
100
AcDbCircle
 10
653.4269863180467
 20
455.9897949331330
 30
0.0000000000000000
 40
2.500000000000000
100
AcDbArc
 50
90.00000000000000
 51
180.0000000000000
  0
ARC
  5
4BD
100
AcDbEntity
  8
MAIN0
  6
CONTINUOUS
 62
3
100
AcDbCircle
 10
661.4269863180483
 20
441.9897949331330
 30
0.0000000000000000
 40
2.500000000000000
100
AcDbArc
 50
90.00000000000000
 51
180.0000000000000
  0
ARC
  5
4BE
100
AcDbEntity
  8
MAIN0
  6
CONTINUOUS
 62
3
100
AcDbCircle
 10
662.4269863180467
 20
455.9897949331330
 30
0.0000000000000000
 40
2.500000000000000
100
AcDbArc
 50
0.0000000000000000
 51
90.00000000000000
  0
ARC
  5
4BF
100
AcDbEntity
  8
MAIN0
  6
CONTINUOUS
 62
3
100
AcDbCircle
 10
662.4269863180476
 20
446.9897949331330
 30
0.0000000000000000
 40
2.500000000000000
100
AcDbArc
 50
270.0000000000000
 51
360.0000000000000
  0
LINE
  5
4C0
100
AcDbEntity
  8
MAIN0
  6
CENTER
 62
3
100
AcDbLine
 10
645.2677357435479
 20
451.4897949331330
 30
0.0000000000000000
 11
734.7333969379835
 21
451.4897949331330
 31
0.0000000000000000
  0
LINE
  5
4C1
100
AcDbEntity
  8
MAIN0
  6
CONTINUOUS
 62
3
100
AcDbLine
 10
664.9269863180472
 20
458.4897949331328
 30
0.0000000000000000
 11
674.9269863180472
 21
458.4897949331328
 31
0.0000000000000000
  0
LINE
  5
4C2
100
AcDbEntity
  8
MAIN0
  6
CONTINUOUS
 62
3
100
AcDbLine
 10
664.9269863180472
 20
444.4897949331330
 30
0.0000000000000000
 11
674.9269863180472
 21
444.4897949331330
 31
0.0000000000000000
  0
LINE
  5
4C3
100
AcDbEntity
  8
MAIN0
  6
CONTINUOUS
 62
3
100
AcDbLine
 10
664.9269863180472
 20
458.4897949331330
 30
0.0000000000000000
 11
664.9269863180472
 21
444.4897949331330
 31
0.0000000000000000
  0
LINE
  5
4C4
100
AcDbEntity
  8
MAIN0
  6
CONTINUOUS
 62
3
100
AcDbLine
 10
729.7421435862451
 20
460.4897949331330
 30
0.0000000000000000
 11
729.7421435862451
 21
442.4897949331330
 31
0.0000000000000000
  0
LINE
  5
4C5
100
AcDbEntity
  8
MAIN0
  6
CONTINUOUS
 62
3
100
AcDbLine
 10
695.9269863180472
 20
460.4897949331330
 30
0.0000000000000000
 11
729.7421435862451
 21
460.4897949331330
 31
0.0000000000000000
  0
LINE
  5
4C6
100
AcDbEntity
  8
MAIN0
  6
CONTINUOUS
 62
3
100
AcDbLine
 10
695.9269863180472
 20
442.4897949331330
 30
0.0000000000000000
 11
729.7421435862451
 21
442.4897949331330
 31
0.0000000000000000
  0
ARC
  5
4C7
100
AcDbEntity
  8
MAIN0
  6
CONTINUOUS
 62
3
100
AcDbCircle
 10
696.1536863180471
 20
451.4897949331330
 30
0.0000000000000000
 40
34.77330000000001
100
AcDbArc
 50
345.0001829205646
 51
374.9998170794221
  0
LINE
  5
4C8
100
AcDbEntity
  8
MAIN0
  6
CONTINUOUS
 62
3
100
AcDbLine
 10
695.9269863180472
 20
460.4897949331330
 30
0.0000000000000000
 11
695.9269863180472
 21
442.4897949331330
 31
0.0000000000000000
  0
LINE
  5
4C9
100
AcDbEntity
  8
MAIN0
  6
CONTINUOUS
 62
3
100
AcDbLine
 10
675.9269863180472
 20
459.2897949331332
 30
0.0000000000000000
 11
675.9269863180472
 21
443.6897949331330
 31
0.0000000000000000
  0
LINE
  5
4CA
100
AcDbEntity
  8
MAIN0
  6
CONTINUOUS
 62
3
100
AcDbLine
 10
674.9269863180472
 20
458.4897949331330
 30
0.0000000000000000
 11
674.9269863180472
 21
444.4897949331330
 31
0.0000000000000000
  0
LINE
  5
4CB
100
AcDbEntity
  8
MAIN0
  6
CONTINUOUS
 62
3
100
AcDbLine
 10
675.9269863180477
 20
459.2897949331333
 30
0.0000000000000000
 11
695.9269863180474
 21
460.4897949331332
 31
0.0000000000000000
  0
LINE
  5
4CC
100
AcDbEntity
  8
MAIN0
  6
CONTINUOUS
 62
3
100
AcDbLine
 10
675.9269863180475
 20
443.6897949331342
 30
0.0000000000000000
 11
695.9269863180475
 21
442.4897949331342
 31
0.0000000000000000
  0
LINE
  5
4CD
100
AcDbEntity
  8
MAIN0
  6
CONTINUOUS
 62
3
100
AcDbLine
 10
674.9269863180472
 20
457.4897949331328
 30
0.0000000000000000
 11
675.9269863180472
 21
457.4897949331328
 31
0.0000000000000000
  0
LINE
  5
4CE
100
AcDbEntity
  8
MAIN0
  6
CONTINUOUS
 62
3
100
AcDbLine
 10
674.9269863180472
 20
445.4897949331330
 30
0.0000000000000000
 11
675.9269863180472
 21
445.4897949331330
 31
0.0000000000000000
  0
LINE
  5
4CF
100
AcDbEntity
  8
MAIN0
  6
CONTINUOUS
 62
3
100
AcDbLine
 10
672.9269863180472
 20
456.4897949331328
 30
0.0000000000000000
 11
672.9269863180472
 21
446.4897949331330
 31
0.0000000000000000
  0
LINE
  5
4D0
100
AcDbEntity
  8
MAIN0
  6
CONTINUOUS
 62
3
100
AcDbLine
 10
664.9269863180472
 20
446.4897949331330
 30
0.0000000000000000
 11
672.9269863180472
 21
446.4897949331330
 31
0.0000000000000000
  0
LINE
  5
4D1
100
AcDbEntity
  8
MAIN0
  6
CONTINUOUS
 62
3
100
AcDbLine
 10
664.9269863180472
 20
456.4897949331328
 30
0.0000000000000000
 11
672.9269863180472
 21
456.4897949331328
 31
0.0000000000000000
  0
LINE
  5
4D2
100
AcDbEntity
  8
MAIN0
  6
CONTINUOUS
 62
3
100
AcDbLine
 10
664.9269863180473
 20
446.4897949331330
 30
0.0000000000000000
 11
672.9269863180473
 21
456.4897949331327
 31
0.0000000000000000
  0
LINE
  5
4D3
100
AcDbEntity
  8
MAIN0
  6
CONTINUOUS
 62
3
100
AcDbLine
 10
664.9269863180473
 20
456.4897949331329
 30
0.0000000000000000
 11
672.9269863180473
 21
446.4897949331331
 31
0.0000000000000000
  0
LINE
  5
4D4
100
AcDbEntity
  8
MAIN0
  6
CONTINUOUS
 62
3
100
AcDbLine
 10
678.0088485430380
 20
229.6622225467386
 30
0.0000000000000000
 11
678.6603049206542
 21
231.8568152574030
 31
0.0000000000000000
  0
ARC
  5
4D5
100
AcDbEntity
  8
MAIN0
  6
CONTINUOUS
 62
3
100
AcDbCircle
 10
682.5995359327035
 20
231.1622225467383
 30
0.0000000000000000
 40
4.000000000000000
100
AcDbArc
 50
90.00000000000000
 51
170.0000000000433
  0
LINE
  5
4D6
100
AcDbEntity
  8
MAIN0
  6
CONTINUOUS
 62
3
100
AcDbLine
 10
669.5088485429833
 20
229.6622225467386
 30
0.0000000000000000
 11
678.0088485430440
 21
229.6622225467386
 31
0.0000000000000000
  0
LINE
  5
4D7
100
AcDbEntity
  8
MAIN0
  6
CONTINUOUS
 62
3
100
AcDbLine
 10
668.0088485430440
 20
250.6622225467388
 30
0.0000000000000000
 11
713.0088485430435
 21
250.6622225467388
 31
0.0000000000000000
  0
LINE
  5
4D8
100
AcDbEntity
  8
MAIN0
  6
CONTINUOUS
 62
3
100
AcDbLine
 10
682.0088485430449
 20
263.9622225467392
 30
0.0000000000000000
 11
682.0088485430440
 21
253.1622225467394
 31
0.0000000000000000
  0
LINE
  5
4D9
100
AcDbEntity
  8
MAIN0
  6
CONTINUOUS
 62
3
100
AcDbLine
 10
700.0088485430449
 20
263.9622225467376
 30
0.0000000000000000
 11
682.0088485430449
 21
263.9622225467393
 31
0.0000000000000000
  0
LINE
  5
4DA
100
AcDbEntity
  8
MAIN0
  6
CONTINUOUS
 62
3
100
AcDbLine
 10
684.0873095121278
 20
265.1622225467394
 30
0.0000000000000000
 11
682.0088485430449
 21
263.9622225467396
 31
0.0000000000000000
  0
LINE
  5
4DB
100
AcDbEntity
  8
MAIN0
  6
CONTINUOUS
 62
3
100
AcDbLine
 10
697.9303875739622
 20
265.1622225467377
 30
0.0000000000000000
 11
684.0873095121276
 21
265.1622225467390
 31
0.0000000000000000
  0
LINE
  5
4DC
100
AcDbEntity
  8
MAIN0
  6
CONTINUOUS
 62
3
100
AcDbLine
 10
700.0088485430424
 20
263.9622225467392
 30
0.0000000000000000
 11
700.0088485430435
 21
253.1622225467395
 31
0.0000000000000000
  0
LINE
  5
4DD
100
AcDbEntity
  8
MAIN0
  6
CONTINUOUS
 62
3
100
AcDbLine
 10
700.0088485430446
 20
263.9622225467369
 30
0.0000000000000000
 11
697.9303875739620
 21
265.1622225467372
 31
0.0000000000000000
  0
LINE
  5
4DE
100
AcDbEntity
  8
MAIN0
  6
CONTINUOUS
 62
3
100
AcDbLine
 10
682.0088485430435
 20
235.1622225467383
 30
0.0000000000000000
 11
708.0088485430435
 21
235.1622225467384
 31
0.0000000000000000
  0
LINE
  5
4DF
100
AcDbEntity
  8
MAIN0
  6
CONTINUOUS
 62
3
100
AcDbLine
 10
713.0088485430435
 20
244.6622225467386
 30
0.0000000000000000
 11
708.0088485430435
 21
244.6622225467386
 31
0.0000000000000000
  0
LINE
  5
4E0
100
AcDbEntity
  8
MAIN0
  6
CONTINUOUS
 62
3
100
AcDbLine
 10
708.0088485430435
 20
244.6622225467386
 30
0.0000000000000000
 11
708.0088485430435
 21
235.1622225467385
 31
0.0000000000000000
  0
LINE
  5
4E1
100
AcDbEntity
  8
MAIN0
  6
CONTINUOUS
 62
3
100
AcDbLine
 10
713.0088485430435
 20
244.6622225467385
 30
0.0000000000000000
 11
713.0088485430435
 21
250.6622225467388
 31
0.0000000000000000
  0
LINE
  5
4E2
100
AcDbEntity
  8
MAIN0
  6
CONTINUOUS
 62
3
100
AcDbLine
 10
696.0616330430414
 20
235.1622225467384
 30
0.0000000000000000
 11
696.0616330430403
 21
222.7622225467388
 31
0.0000000000000000
  0
LINE
  5
4E3
100
AcDbEntity
  8
MAIN0
  6
CONTINUOUS
 62
3
100
AcDbLine
 10
697.0088485430415
 20
235.1622225467384
 30
0.0000000000000000
 11
697.0088485430404
 21
222.7622225467388
 31
0.0000000000000000
  0
LINE
  5
4E4
100
AcDbEntity
  8
MAIN0
  6
CONTINUOUS
 62
3
100
AcDbLine
 10
685.0088485430404
 20
222.7622225467388
 30
0.0000000000000000
 11
685.0088485430415
 21
235.1622225467383
 31
0.0000000000000000
  0
LINE
  5
4E5
100
AcDbEntity
  8
MAIN0
  6
CONTINUOUS
 62
3
100
AcDbLine
 10
668.0088485430435
 20
250.6622225467388
 30
0.0000000000000000
 11
669.5088485429834
 21
229.6622225467386
 31
0.0000000000000000
  0
LINE
  5
4E6
100
AcDbEntity
  8
MAIN0
  6
CONTINUOUS
 62
3
100
AcDbLine
 10
679.0088485430435
 20
250.6622225467388
 30
0.0000000000000000
 11
679.0088485430435
 21
253.1622225467388
 31
0.0000000000000000
  0
LINE
  5
4E7
100
AcDbEntity
  8
MAIN0
  6
CONTINUOUS
 62
3
100
AcDbLine
 10
679.0088485430435
 20
253.1622225467388
 30
0.0000000000000000
 11
703.0088485430435
 21
253.1622225467388
 31
0.0000000000000000
  0
LINE
  5
4E8
100
AcDbEntity
  8
MAIN0
  6
CONTINUOUS
 62
3
100
AcDbLine
 10
703.0088485430435
 20
253.1622225467388
 30
0.0000000000000000
 11
703.0088485430435
 21
250.6622225467388
 31
0.0000000000000000
  0
LINE
  5
4E9
100
AcDbEntity
  8
MAIN0
  6
CONTINUOUS
 62
3
100
AcDbLine
 10
685.9560640430459
 20
235.1622225467384
 30
0.0000000000000000
 11
685.9560640430473
 21
222.7622225467388
 31
0.0000000000000000
  0
LINE
  5
4EA
100
AcDbEntity
  8
MAIN0
  6
CENTER
 62
3
100
AcDbLine
 10
691.0088485430446
 20
129.1251700789858
 30
0.0000000000000000
 11
691.0088485430443
 21
274.0550805759579
 31
0.0000000000000000
  0
LINE
  5
4EB
100
AcDbEntity
  8
MAIN0
  6
CONTINUOUS
 62
3
100
AcDbLine
 10
679.9088485430436
 20
206.9622225467389
 30
0.0000000000000000
 11
702.1088485430437
 21
206.9622225467388
 31
0.0000000000000000
  0
LINE
  5
4EC
100
AcDbEntity
  8
MAIN0
  6
CONTINUOUS
 62
3
100
AcDbLine
 10
230.1364379884321
 20
436.4847318748635
 30
0.0000000000000000
 11
230.1364379884321
 21
537.4847318748639
 31
0.0000000000000000
  0
LINE
  5
4ED
100
AcDbEntity
  8
MAIN0
  6
CONTINUOUS
 62
3
100
AcDbLine
 10
231.1364379884320
 20
435.4847318748647
 30
0.0000000000000000
 11
433.1364379307942
 21
435.4847318750730
 31
0.0000000000000000
  0
LINE
  5
4EE
100
AcDbEntity
  8
MAIN0
  6
CONTINUOUS
 62
3
100
AcDbLine
 10
231.1364379884321
 20
538.4847318748647
 30
0.0000000000000000
 11
433.1364379307942
 21
538.4847318750730
 31
0.0000000000000000
  0
LINE
  5
4EF
100
AcDbEntity
  8
MAIN0
  6
CONTINUOUS
 62
3
100
AcDbLine
 10
230.1364379884320
 20
436.4847318748635
 30
0.0000000000000000
 11
231.1364379884320
 21
435.4847318748646
 31
0.0000000000000000
  0
LINE
  5
4F0
100
AcDbEntity
  8
MAIN0
  6
CONTINUOUS
 62
3
100
AcDbLine
 10
230.1364379884322
 20
537.4847318748639
 30
0.0000000000000000
 11
231.1364379884322
 21
538.4847318748650
 31
0.0000000000000000
  0
LINE
  5
4F1
100
AcDbEntity
  8
MAIN0
  6
CONTINUOUS
 62
3
100
AcDbLine
 10
304.1364379884320
 20
459.9847318736500
 30
0.0000000000000000
 11
368.5490379884324
 21
459.9847318734483
 31
0.0000000000000000
  0
LINE
  5
4F2
100
AcDbEntity
  8
MAIN0
  6
CONTINUOUS
 62
3
100
AcDbLine
 10
304.1364379884323
 20
513.9847318749409
 30
0.0000000000000000
 11
368.5490379884324
 21
513.9847318750076
 31
0.0000000000000000
  0
LINE
  5
4F3
100
AcDbEntity
  8
MAIN0
  6
CENTER
 62
3
100
AcDbLine
 10
429.1364379307253
 20
505.4847318740533
 30
0.0000000000000000
 11
408.1364379307253
 21
505.4847318740533
 31
0.0000000000000000
  0
LINE
  5
4F4
100
AcDbEntity
  8
MAIN0
  6
CENTER
 62
3
100
AcDbLine
 10
418.6364379307253
 20
515.9847318740532
 30
0.0000000000000000
 11
418.6364379307253
 21
494.9847318740532
 31
0.0000000000000000
  0
LINE
  5
4F5
100
AcDbEntity
  8
MAIN0
  6
CENTER
 62
3
100
AcDbLine
 10
383.6364379307494
 20
337.8232939826416
 30
0.0000000000000000
 11
383.6364379307494
 21
289.6432353632980
 31
0.0000000000000000
  0
LINE
  5
4F6
100
AcDbEntity
  8
MAIN0
  6
CENTER
 62
3
100
AcDbLine
 10
383.6364379307494
 20
478.9847318739447
 30
0.0000000000000000
 11
383.6364379307494
 21
455.3826179890365
 31
0.0000000000000000
  0
CIRCLE
  5
4F7
100
AcDbEntity
  8
MAIN0
  6
HIDDEN
 62
3
100
AcDbCircle
 10
418.6364379307253
 20
505.4847318740532
 30
0.0000000000000000
 40
8.000000000000000
  0
LINE
  5
4F8
100
AcDbEntity
  8
MAIN0
  6
HIDDEN
 62
3
100
AcDbLine
 10
423.2552400842423
 20
505.4847318740534
 30
0.0000000000000000
 11
420.9458390074839
 21
509.4847318740534
 31
0.0000000000000000
  0
LINE
  5
4F9
100
AcDbEntity
  8
MAIN0
  6
HIDDEN
 62
3
100
AcDbLine
 10
420.9458390074838
 20
509.4847318740532
 30
0.0000000000000000
 11
416.3270368539668
 21
509.4847318740532
 31
0.0000000000000000
  0
LINE
  5
4FA
100
AcDbEntity
  8
MAIN0
  6
HIDDEN
 62
3
100
AcDbLine
 10
416.3270368539672
 20
509.4847318740535
 30
0.0000000000000000
 11
414.0176357772087
 21
505.4847318740534
 31
0.0000000000000000
  0
LINE
  5
4FB
100
AcDbEntity
  8
MAIN0
  6
HIDDEN
 62
3
100
AcDbLine
 10
414.0176357772085
 20
505.4847318740535
 30
0.0000000000000000
 11
416.3270368539670
 21
501.4847318740534
 31
0.0000000000000000
  0
LINE
  5
4FC
100
AcDbEntity
  8
MAIN0
  6
HIDDEN
 62
3
100
AcDbLine
 10
416.3270368539668
 20
501.4847318740532
 30
0.0000000000000000
 11
420.9458390074838
 21
501.4847318740532
 31
0.0000000000000000
  0
LINE
  5
4FD
100
AcDbEntity
  8
MAIN0
  6
HIDDEN
 62
3
100
AcDbLine
 10
420.9458390074840
 20
501.4847318740531
 30
0.0000000000000000
 11
423.2552400842424
 21
505.4847318740531
 31
0.0000000000000000
  0
LINE
  5
4FE
100
AcDbEntity
  8
MAIN0
  6
CENTER
 62
3
100
AcDbLine
 10
279.1364379884134
 20
524.9847318745524
 30
0.0000000000000000
 11
300.1364379884134
 21
524.9847318745522
 31
0.0000000000000000
  0
LINE
  5
4FF
100
AcDbEntity
  8
MAIN0
  6
CENTER
 62
3
100
AcDbLine
 10
289.6364379884133
 20
514.4847318745522
 30
0.0000000000000000
 11
289.6364379884134
 21
535.4847318745522
 31
0.0000000000000000
  0
LINE
  5
500
100
AcDbEntity
  8
MAIN0
  6
CONTINUOUS
 62
3
100
AcDbLine
 10
265.7364379884320
 20
436.9847318743106
 30
0.0000000000000000
 11
231.5364379884319
 21
436.9847318743107
 31
0.0000000000000000
  0
LINE
  5
501
100
AcDbEntity
  8
MAIN0
  6
CONTINUOUS
 62
3
100
AcDbLine
 10
265.7364379884323
 20
536.9847318743107
 30
0.0000000000000000
 11
231.5364379884322
 21
536.9847318743107
 31
0.0000000000000000
  0
LINE
  5
502
100
AcDbEntity
  8
MAIN0
  6
CONTINUOUS
 62
3
100
AcDbLine
 10
303.6364379884319
 20
436.9847318743102
 30
0.0000000000000000
 11
304.1364379884319
 21
437.4847318743102
 31
0.0000000000000000
  0
LINE
  5
503
100
AcDbEntity
  8
MAIN0
  6
CONTINUOUS
 62
3
100
AcDbLine
 10
304.1364379884322
 20
536.4847318743101
 30
0.0000000000000000
 11
303.6364379884321
 21
536.9847318743102
 31
0.0000000000000000
  0
LINE
  5
504
100
AcDbEntity
  8
MAIN0
  6
CONTINUOUS
 62
3
100
AcDbLine
 10
231.1364379884320
 20
437.3847318743106
 30
0.0000000000000000
 11
231.1364379884323
 21
536.5847318743108
 31
0.0000000000000000
  0
LINE
  5
505
100
AcDbEntity
  8
MAIN0
  6
CONTINUOUS
 62
3
100
AcDbLine
 10
304.1364379884320
 20
437.4847318743102
 30
0.0000000000000000
 11
304.1364379884323
 21
536.4847318743105
 31
0.0000000000000000
  0
LINE
  5
506
100
AcDbEntity
  8
MAIN0
  6
CONTINUOUS
 62
3
100
AcDbLine
 10
231.1364379884322
 20
536.5847318743108
 30
0.0000000000000000
 11
231.5364379884322
 21
536.9847318743107
 31
0.0000000000000000
  0
LINE
  5
507
100
AcDbEntity
  8
MAIN0
  6
CONTINUOUS
 62
3
100
AcDbLine
 10
231.1364379884320
 20
437.3847318743106
 30
0.0000000000000000
 11
231.5364379884319
 21
436.9847318743106
 31
0.0000000000000000
  0
LINE
  5
508
100
AcDbEntity
  8
MAIN0
  6
CENTER
 62
3
100
AcDbLine
 10
263.2667566090570
 20
509.4847318739694
 30
0.0000000000000000
 11
237.2363767563776
 21
509.4847318739694
 31
0.0000000000000000
  0
LINE
  5
509
100
AcDbEntity
  8
MAIN0
  6
CENTER
 62
3
100
AcDbLine
 10
249.6364379884320
 20
523.1360579285097
 30
0.0000000000000000
 11
249.6364379884320
 21
497.3360366580656
 31
0.0000000000000000
  0
LINE
  5
50A
100
AcDbEntity
  8
MAIN0
  6
CENTER
 62
3
100
AcDbLine
 10
260.9631882791927
 20
464.4847318738719
 30
0.0000000000000000
 11
239.0792366680157
 21
464.4847318738719
 31
0.0000000000000000
  0
LINE
  5
50B
100
AcDbEntity
  8
MAIN0
  6
CENTER
 62
3
100
AcDbLine
 10
249.6364379884320
 20
477.9860207052325
 30
0.0000000000000000
 11
249.6364379884320
 21
450.8038566876209
 31
0.0000000000000000
  0
CIRCLE
  5
50C
100
AcDbEntity
  8
MAIN0
  6
HIDDEN
 62
3
100
AcDbCircle
 10
289.6364379884134
 20
524.9847318745524
 30
0.0000000000000000
 40
8.000000000000000
  0
LINE
  5
50D
100
AcDbEntity
  8
MAIN0
  6
HIDDEN
 62
3
100
AcDbLine
 10
285.0176358348965
 20
524.9847318745523
 30
0.0000000000000000
 11
287.3270369116549
 21
520.9847318745523
 31
0.0000000000000000
  0
LINE
  5
50E
100
AcDbEntity
  8
MAIN0
  6
HIDDEN
 62
3
100
AcDbLine
 10
287.3270369116549
 20
520.9847318745522
 30
0.0000000000000000
 11
291.9458390651719
 21
520.9847318745522
 31
0.0000000000000000
  0
LINE
  5
50F
100
AcDbEntity
  8
MAIN0
  6
HIDDEN
 62
3
100
AcDbLine
 10
291.9458390651721
 20
520.9847318745526
 30
0.0000000000000000
 11
294.2552401419306
 21
524.9847318745525
 31
0.0000000000000000
  0
LINE
  5
510
100
AcDbEntity
  8
MAIN0
  6
HIDDEN
 62
3
100
AcDbLine
 10
294.2552401419306
 20
524.9847318745523
 30
0.0000000000000000
 11
291.9458390651720
 21
528.9847318745524
 31
0.0000000000000000
  0
LINE
  5
511
100
AcDbEntity
  8
MAIN0
  6
HIDDEN
 62
3
100
AcDbLine
 10
291.9458390651720
 20
528.9847318745522
 30
0.0000000000000000
 11
287.3270369116550
 21
528.9847318745522
 31
0.0000000000000000
  0
LINE
  5
512
100
AcDbEntity
  8
MAIN0
  6
HIDDEN
 62
3
100
AcDbLine
 10
287.3270369116551
 20
528.9847318745525
 30
0.0000000000000000
 11
285.0176358348964
 21
524.9847318745522
 31
0.0000000000000000
  0
LINE
  5
513
100
AcDbEntity
  8
MAIN0
  6
CONTINUOUS
 62
3
100
AcDbLine
 10
398.5364379307942
 20
536.9847318742208
 30
0.0000000000000000
 11
432.7364379307942
 21
536.9847318742208
 31
0.0000000000000000
  0
LINE
  5
514
100
AcDbEntity
  8
MAIN0
  6
CONTINUOUS
 62
3
100
AcDbLine
 10
398.5364379307942
 20
436.9847318742206
 30
0.0000000000000000
 11
432.7364379307943
 21
436.9847318742206
 31
0.0000000000000000
  0
LINE
  5
515
100
AcDbEntity
  8
MAIN0
  6
CONTINUOUS
 62
3
100
AcDbLine
 10
369.6364379307944
 20
536.9847318742206
 30
0.0000000000000000
 11
369.1364379307944
 21
536.4847318742206
 31
0.0000000000000000
  0
LINE
  5
516
100
AcDbEntity
  8
MAIN0
  6
CONTINUOUS
 62
3
100
AcDbLine
 10
369.1364379307939
 20
437.4847318742207
 30
0.0000000000000000
 11
369.6364379307941
 21
436.9847318742206
 31
0.0000000000000000
  0
LINE
  5
517
100
AcDbEntity
  8
MAIN0
  6
CONTINUOUS
 62
3
100
AcDbLine
 10
369.1364379307942
 20
536.4847318742208
 30
0.0000000000000000
 11
369.1364379307942
 21
437.4847318742208
 31
0.0000000000000000
  0
LINE
  5
518
100
AcDbEntity
  8
MAIN0
  6
CONTINUOUS
 62
3
100
AcDbLine
 10
433.1364379307942
 20
536.5847318742208
 30
0.0000000000000000
 11
433.1364379307942
 21
437.3847318742206
 31
0.0000000000000000
  0
LINE
  5
519
100
AcDbEntity
  8
MAIN0
  6
CONTINUOUS
 62
3
100
AcDbLine
 10
432.7364379307942
 20
536.9847318742206
 30
0.0000000000000000
 11
433.1364379307942
 21
536.5847318742208
 31
0.0000000000000000
  0
LINE
  5
51A
100
AcDbEntity
  8
MAIN0
  6
CONTINUOUS
 62
3
100
AcDbLine
 10
432.7364379307942
 20
436.9847318742206
 30
0.0000000000000000
 11
433.1364379307942
 21
437.3847318742206
 31
0.0000000000000000
  0
LINE
  5
51B
100
AcDbEntity
  8
WAKU0
  6
CONTINUOUS
 62
3
100
AcDbLine
 10
240.0000000000000
 20
51.00000000000000
 30
0.0000000000000000
 11
410.0000000000000
 21
51.00000000000000
 31
0.0000000000000000
  0
LINE
  5
51C
100
AcDbEntity
  8
WAKU0
  6
CONTINUOUS
 62
3
100
AcDbLine
 10
240.0000000000000
 20
51.00000000000000
 30
0.0000000000000000
 11
240.0000000000000
 21
12.00000000000000
 31
0.0000000000000000
  0
LINE
  5
51D
100
AcDbEntity
  8
WAKU0
  6
CONTINUOUS
 62
3
100
AcDbLine
 10
312.0000000000000
 20
51.00000000000000
 30
0.0000000000000000
 11
312.0000000000000
 21
12.00000000000000
 31
0.0000000000000000
  0
LINE
  5
51E
100
AcDbEntity
  8
WAKU0
  6
CONTINUOUS
 62
3
100
AcDbLine
 10
332.0000000000000
 20
51.00000000000000
 30
0.0000000000000000
 11
332.0000000000000
 21
12.00000000000000
 31
0.0000000000000000
  0
LINE
  5
51F
100
AcDbEntity
  8
WAKU0
  6
CONTINUOUS
 62
3
100
AcDbLine
 10
344.0000000000000
 20
51.00000000000000
 30
0.0000000000000000
 11
344.0000000000000
 21
12.00000000000000
 31
0.0000000000000000
  0
LINE
  5
520
100
AcDbEntity
  8
WAKU0
  6
CONTINUOUS
 62
3
100
AcDbLine
 10
344.0000000000000
 20
37.00000000000000
 30
0.0000000000000000
 11
410.0000000000000
 21
37.00000000000000
 31
0.0000000000000000
  0
LINE
  5
521
100
AcDbEntity
  8
WAKU0
  6
CONTINUOUS
 62
3
100
AcDbLine
 10
332.0000000000000
 20
23.00000000000000
 30
0.0000000000000000
 11
410.0000000000000
 21
23.00000000000000
 31
0.0000000000000000
  0
LINE
  5
522
100
AcDbEntity
  8
WAKU0
  6
CONTINUOUS
 62
3
100
AcDbLine
 10
375.0000000000000
 20
51.00000000000000
 30
0.0000000000000000
 11
375.0000000000000
 21
44.00000000000000
 31
0.0000000000000000
  0
LINE
  5
523
100
AcDbEntity
  8
WAKU0
  6
CONTINUOUS
 62
3
100
AcDbLine
 10
387.0000000000000
 20
51.00000000000000
 30
0.0000000000000000
 11
387.0000000000000
 21
44.00000000000000
 31
0.0000000000000000
  0
LINE
  5
524
100
AcDbEntity
  8
WAKU0
  6
CONTINUOUS
 62
3
100
AcDbLine
 10
312.0000000000000
 20
31.50000000000000
 30
0.0000000000000000
 11
332.0000000000000
 21
31.50000000000000
 31
0.0000000000000000
  0
LINE
  5
525
100
AcDbEntity
  8
WAKU0
  6
CONTINUOUS
 62
3
100
AcDbLine
 10
332.0000000000000
 20
44.00000000000000
 30
0.0000000000000000
 11
410.0000000000000
 21
44.00000000000000
 31
0.0000000000000000
  0
LINE
  5
526
100
AcDbEntity
  8
WAKU0
  6
CONTINUOUS
 62
3
100
AcDbLine
 10
240.0000000000000
 20
37.00000000000000
 30
0.0000000000000000
 11
312.0000000000000
 21
37.00000000000000
 31
0.0000000000000000
  0
LINE
  5
527
100
AcDbEntity
  8
WAKU0
  6
CONTINUOUS
 62
3
100
AcDbLine
 10
240.0000000000000
 20
23.00000000000000
 30
0.0000000000000000
 11
312.0000000000000
 21
23.00000000000000
 31
0.0000000000000000
  0
LINE
  5
528
100
AcDbEntity
  8
WAKU0
  6
CONTINUOUS
 62
3
100
AcDbLine
 10
288.0000000000000
 20
37.00000000000000
 30
0.0000000000000000
 11
288.0000000000000
 21
12.00000000000000
 31
0.0000000000000000
  0
LINE
  5
529
100
AcDbEntity
  8
WAKU0
  6
CONTINUOUS
 62
3
100
AcDbLine
 10
264.0000000000000
 20
37.00000000000000
 30
0.0000000000000000
 11
264.0000000000000
 21
23.00000000000000
 31
0.0000000000000000
  0
LINE
  5
52A
100
AcDbEntity
  8
WAKU0
  6
CONTINUOUS
 62
3
100
AcDbLine
 10
300.0000000000000
 20
26.00000000000000
 30
0.0000000000000000
 11
300.0000000000000
 21
23.00000000000000
 31
0.0000000000000000
  0
LINE
  5
52B
100
AcDbEntity
  8
WAKU0
  6
CONTINUOUS
 62
3
100
AcDbLine
 10
276.0000000000000
 20
26.00000000000000
 30
0.0000000000000000
 11
276.0000000000000
 21
23.00000000000000
 31
0.0000000000000000
  0
LINE
  5
52C
100
AcDbEntity
  8
WAKU0
  6
CONTINUOUS
 62
3
100
AcDbLine
 10
252.0000000000000
 20
26.00000000000000
 30
0.0000000000000000
 11
252.0000000000000
 21
23.00000000000000
 31
0.0000000000000000
  0
LINE
  5
52D
100
AcDbEntity
  8
WAKU0
  6
CONTINUOUS
 62
3
100
AcDbLine
 10
258.0000000000000
 20
51.00000000000000
 30
0.0000000000000000
 11
258.0000000000000
 21
37.00000000000000
 31
0.0000000000000000
  0
LINE
  5
52E
100
AcDbEntity
  8
WAKU0
  6
CONTINUOUS
 62
3
100
AcDbLine
 10
240.0000000000000
 20
45.00000000000000
 30
0.0000000000000000
 11
312.0000000000000
 21
45.00000000000000
 31
0.0000000000000000
  0
LINE
  5
52F
100
AcDbEntity
  8
WAKU0
  6
HIDDEN
 62
3
100
AcDbLine
 10
360.5000000000000
 20
23.00000000000000
 30
0.0000000000000000
 11
360.5000000000000
 21
12.00000000000000
 31
0.0000000000000000
  0
LINE
  5
530
100
AcDbEntity
  8
WAKU0
  6
HIDDEN
 62
3
100
AcDbLine
 10
372.9000000000000
 20
23.00000000000000
 30
0.0000000000000000
 11
372.9000000000000
 21
12.00000000000000
 31
0.0000000000000000
  0
MTEXT
  5
531
100
AcDbEntity
  8
WAKU0
  6
CONTINUOUS
 62
3
100
AcDbMText
 10
344.4820000243485
 20
49.04999995231628
 30
0.0000000000000000
 40
3.099999904632568
 41
0.0000000000000000
 71
     1
 72
     1
  1
{\H0.92x;{VC103N}}
 11
1.000000000000000
 21
0.0000000000000000
 31
0.0000000000000000
  7
STANDARD
  0
MTEXT
  5
532
100
AcDbEntity
  8
WAKU0
  6
CONTINUOUS
 62
3
100
AcDbMText
 10
360.3350002765656
 20
43.50000000000000
 30
0.0000000000000000
 40
3.000000000000000
 41
0.0000000000000000
 71
     1
 72
     1
  1
{\H0.94x;{パワーバイス\PＰＯＷＥＲ　ＶＩＳＥ}}
 11
1.000000000000000
 21
0.0000000000000000
 31
0.0000000000000000
  7
KNJYOKO
  0
MTEXT
  5
533
100
AcDbEntity
  8
WAKU0
  6
CONTINUOUS
 62
3
100
AcDbMText
 10
350.3999990373850
 20
34.83333333333333
 30
0.0000000000000000
 40
4.000000000000000
 41
0.0000000000000000
 71
     1
 72
     1
  1
{\H0.59x;{ＶＣ１０３Ｎ　ガイケイ\PＶＣ１０３Ｎ　ＯＵＴＳＩＤＥ　ＶＩＥＷ}}
 11
1.000000000000000
 21
0.0000000000000000
 31
0.0000000000000000
  7
KNJYOKO
  0
MTEXT
  5
534
100
AcDbEntity
  8
WAKU0
  6
CONTINUOUS
 62
3
100
AcDbMText
 10
318.0049998760223
 20
39.29999995231628
 30
0.0000000000000000
 40
3.099999904632568
 41
0.0000000000000000
 71
     1
 72
     1
  1
{\H0.90x;{1:2}}
 11
1.000000000000000
 21
0.0000000000000000
 31
0.0000000000000000
  7
STANDARD
  0
MTEXT
  5
535
100
AcDbEntity
  8
WAKU0
  6
CONTINUOUS
 62
3
100
AcDbMText
 10
374.4000001549721
 20
20.15000009536743
 30
0.0000000000000000
 40
5.300000190734863
 41
0.0000000000000000
 71
     1
 72
     1
  1
{\H0.90x;{6429}}
 11
1.000000000000000
 21
0.0000000000000000
 31
0.0000000000000000
  7
STANDARD
  0
MTEXT
  5
536
100
AcDbEntity
  8
WAKU0
  6
CONTINUOUS
 62
3
100
AcDbMText
 10
362.3000000834465
 20
20.15000009536743
 30
0.0000000000000000
 40
5.300000190734863
 41
0.0000000000000000
 71
     1
 72
     1
  1
{\H0.87x;{39}}
 11
1.000000000000000
 21
0.0000000000000000
 31
0.0000000000000000
  7
STANDARD
  0
MTEXT
  5
537
100
AcDbEntity
  8
WAKU0
  6
CONTINUOUS
 62
3
100
AcDbMText
 10
345.5000001192093
 20
20.15000009536743
 30
0.0000000000000000
 40
5.300000190734863
 41
0.0000000000000000
 71
     1
 72
     1
  1
{\H0.89x;{61M}}
 11
1.000000000000000
 21
0.0000000000000000
 31
0.0000000000000000
  7
STANDARD
  0
MTEXT
  5
538
100
AcDbEntity
  8
WAKU0
  6
CONTINUOUS
 62
3
100
AcDbMText
 10
400.0000000476837
 20
20.15000009536743
 30
0.0000000000000000
 40
5.300000190734863
 41
0.0000000000000000
 71
     1
 72
     1
  1
{\H0.81x;{0}}
 11
1.000000000000000
 21
0.0000000000000000
 31
0.0000000000000000
  7
STANDARD
  0
MTEXT
  5
539
100
AcDbEntity
  8
WAKU0
  6
CONTINUOUS
 62
3
100
AcDbMText
 10
400.0000000819564
 20
44.84999990463257
 30
0.0000000000000000
 40
5.300000190734863
 41
0.0000000000000000
 71
     7
 72
     1
  1
{\H0.81x;{ }}
 11
1.000000000000000
 21
0.0000000000000000
 31
0.0000000000000000
  7
STANDARD
  0
MTEXT
  5
53A
100
AcDbEntity
  8
WAKU0
  6
CONTINUOUS
 62
3
100
AcDbMText
 10
289.3850002884865
 20
33.00000000000000
 30
0.0000000000000000
 40
3.000000000000000
 41
0.0000000000000000
 71
     7
 72
     1
  1
{\H0.93x;{DRAWN BY}}
 11
1.000000000000000
 21
0.0000000000000000
 31
0.0000000000000000
  7
STANDARD
  0
MTEXT
  5
53B
100
AcDbEntity
  8
WAKU0
  6
CONTINUOUS
 62
3
100
AcDbMText
 10
269.2149997949600
 20
32.95000004768372
 30
0.0000000000000000
 40
3.099999904632568
 41
0.0000000000000000
 71
     7
 72
     1
  1
{\H0.92x;{CHIEF}}
 11
1.000000000000000
 21
0.0000000000000000
 31
0.0000000000000000
  7
STANDARD
  0
MTEXT
  5
53C
100
AcDbEntity
  8
WAKU0
  6
CONTINUOUS
 62
3
100
AcDbMText
 10
242.4249997138977
 20
32.95000004768372
 30
0.0000000000000000
 40
3.099999904632568
 41
0.0000000000000000
 71
     7
 72
     1
  1
{\H0.92x;{MANAGER}}
 11
1.000000000000000
 21
0.0000000000000000
 31
0.0000000000000000
  7
STANDARD
  0
MTEXT
  5
53D
100
AcDbEntity
  8
WAKU0
  6
CONTINUOUS
 62
3
100
AcDbMText
 10
244.6599994301796
 20
18.13333336512248
 30
0.0000000000000000
 40
3.099999904632568
 41
0.0000000000000000
 71
     7
 72
     1
  1
{\H0.93x;{KITAGAWA IRON\PWORKS CO.,LTD.}}
 11
1.000000000000000
 21
0.0000000000000000
 31
0.0000000000000000
  7
STANDARD
  0
MTEXT
  5
53E
100
AcDbEntity
  8
WAKU0
  6
CONTINUOUS
 62
3
100
AcDbMText
 10
241.0850002169609
 20
46.50000000000000
 30
0.0000000000000000
 40
3.000000000000000
 41
0.0000000000000000
 71
     7
 72
     1
  1
{\H0.92x;{CAREER}}
 11
1.000000000000000
 21
0.0000000000000000
 31
0.0000000000000000
  7
STANDARD
  0
MTEXT
  5
53F
100
AcDbEntity
  8
WAKU0
  6
CONTINUOUS
 62
3
100
AcDbMText
 10
294.6099998354912
 20
18.95000004768372
 30
0.0000000000000000
 40
3.099999904632568
 41
0.0000000000000000
 71
     7
 72
     1
  1
{\H0.91x;{DATE}}
 11
1.000000000000000
 21
0.0000000000000000
 31
0.0000000000000000
  7
STANDARD
  0
MTEXT
  5
540
100
AcDbEntity
  8
WAKU0
  6
CONTINUOUS
 62
3
100
AcDbMText
 10
313.9000002145767
 20
26.50000000000000
 30
0.0000000000000000
 40
3.000000000000000
 41
0.0000000000000000
 71
     7
 72
     1
  1
{\H0.63x;{3RD ANGLE}}
 11
1.000000000000000
 21
0.0000000000000000
 31
0.0000000000000000
  7
STANDARD
  0
MTEXT
  5
541
100
AcDbEntity
  8
WAKU0
  6
CONTINUOUS
 62
3
100
AcDbMText
 10
315.2149997949600
 20
45.95000004768372
 30
0.0000000000000000
 40
3.099999904632568
 41
0.0000000000000000
 71
     7
 72
     1
  1
{\H0.92x;{SCALE}}
 11
1.000000000000000
 21
0.0000000000000000
 31
0.0000000000000000
  7
STANDARD
  0
MTEXT
  5
542
100
AcDbEntity
  8
WAKU0
  6
CONTINUOUS
 62
3
100
AcDbMText
 10
405.7000000476837
 20
46.00000000000000
 30
0.0000000000000000
 40
3.000000000000000
 41
0.0000000000000000
 71
     7
 72
     1
  1
{\H0.63x;{kg}}
 11
1.000000000000000
 21
0.0000000000000000
 31
0.0000000000000000
  7
STANDARD
  0
MTEXT
  5
543
100
AcDbEntity
  8
WAKU0
  6
CONTINUOUS
 62
3
100
AcDbMText
 10
375.6000001430512
 20
46.00000000000000
 30
0.0000000000000000
 40
3.000000000000000
 41
0.0000000000000000
 71
     7
 72
     1
  1
{\H0.63x;{WEIGHT}}
 11
1.000000000000000
 21
0.0000000000000000
 31
0.0000000000000000
  7
STANDARD
  0
MTEXT
  5
544
100
AcDbEntity
  8
WAKU0
  6
CONTINUOUS
 62
3
100
AcDbMText
 10
334.0049998760223
 20
18.13333336512248
 30
0.0000000000000000
 40
3.099999904632568
 41
0.0000000000000000
 71
     7
 72
     1
  1
{\H0.90x;{DRW\PNO.}}
 11
1.000000000000000
 21
0.0000000000000000
 31
0.0000000000000000
  7
STANDARD
  0
MTEXT
  5
545
100
AcDbEntity
  8
WAKU0
  6
CONTINUOUS
 62
3
100
AcDbMText
 10
332.6099998354912
 20
31.95000004768372
 30
0.0000000000000000
 40
3.099999904632568
 41
0.0000000000000000
 71
     7
 72
     1
  1
{\H0.91x;{NAME}}
 11
1.000000000000000
 21
0.0000000000000000
 31
0.0000000000000000
  7
STANDARD
  0
MTEXT
  5
546
100
AcDbEntity
  8
WAKU0
  6
CONTINUOUS
 62
3
100
AcDbMText
 10
332.6099998354912
 20
45.95000004768372
 30
0.0000000000000000
 40
3.099999904632568
 41
0.0000000000000000
 71
     7
 72
     1
  1
{\H0.91x;{TYPE}}
 11
1.000000000000000
 21
0.0000000000000000
 31
0.0000000000000000
  7
STANDARD
  0
LINE
  5
547
100
AcDbEntity
  8
WAKU0
  6
HIDDEN
 62
3
100
AcDbLine
 10
407.1599564743885
 20
13.84999990463257
 30
0.0000000000000000
 11
396.9400436209789
 21
13.84999990463257
 31
0.0000000000000000
  0
LINE
  5
548
100
AcDbEntity
  8
WAKU0
  6
HIDDEN
 62
3
100
AcDbLine
 10
407.1599564743885
 20
13.84999990463250
 30
0.0000000000000000
 11
402.0500000476852
 21
22.70070406014901
 31
0.0000000000000000
  0
LINE
  5
549
100
AcDbEntity
  8
WAKU0
  6
HIDDEN
 62
3
100
AcDbLine
 10
402.0500000476852
 20
22.70070406014902
 30
0.0000000000000000
 11
396.9400436209789
 21
13.84999990463248
 31
0.0000000000000000
  0
LINE
  5
54A
100
AcDbEntity
  8
WAKU0
  6
CONTINUOUS
 62
3
100
AcDbLine
 10
330.4713877753800
 20
15.78041421262812
 30
0.0000000000000000
 11
330.4713877753800
 21
21.78041421262815
 31
0.0000000000000000
  0
LINE
  5
54B
100
AcDbEntity
  8
WAKU0
  6
CONTINUOUS
 62
3
100
AcDbLine
 10
323.9336941228225
 20
17.28041421262811
 30
0.0000000000000000
 11
323.9336941228225
 21
20.28041421262824
 31
0.0000000000000000
  0
LINE
  5
54C
100
AcDbEntity
  8
WAKU0
  6
CENTER
 62
12
100
AcDbLine
 10
313.4321805514995
 20
18.78041421262813
 30
0.0000000000000000
 11
331.2765788964694
 21
18.78041421262813
 31
0.0000000000000000
  0
LINE
  5
54D
100
AcDbEntity
  8
WAKU0
  6
CENTER
 62
12
100
AcDbLine
 10
317.4474565857986
 20
14.55921662918448
 30
0.0000000000000000
 11
317.4474565857986
 21
22.89865102149943
 31
0.0000000000000000
  0
LINE
  5
54E
100
AcDbEntity
  8
WAKU0
  6
CONTINUOUS
 62
3
100
AcDbLine
 10
323.9336941228225
 20
20.28041421262797
 30
0.0000000000000000
 11
330.4713877753800
 21
21.78041421262795
 31
0.0000000000000000
  0
LINE
  5
54F
100
AcDbEntity
  8
WAKU0
  6
CONTINUOUS
 62
3
100
AcDbLine
 10
323.9336941228225
 20
17.28041421262811
 30
0.0000000000000000
 11
330.4713877753799
 21
15.78041421262812
 31
0.0000000000000000
  0
CIRCLE
  5
550
100
AcDbEntity
  8
WAKU0
  6
CONTINUOUS
 62
3
100
AcDbCircle
 10
317.4474565857986
 20
18.78041421262813
 30
0.0000000000000000
 40
1.499999999999972
  0
CIRCLE
  5
551
100
AcDbEntity
  8
WAKU0
  6
CONTINUOUS
 62
3
100
AcDbCircle
 10
317.4474565857986
 20
18.78041421262813
 30
0.0000000000000000
 40
2.999999999999979
  0
LINE
  5
552
100
AcDbEntity
  8
A0
  6
CONTINUOUS
 62
3
100
AcDbLine
 10
119.4041710644523
 20
647.4515422511211
 30
0.0000000000000000
 11
119.4041710644523
 21
532.9515445160930
 31
0.0000000000000000
  0
LINE
  5
553
100
AcDbEntity
  8
A0
  6
CONTINUOUS
 62
3
100
AcDbLine
 10
-13.59582845875768
 20
634.7015424898546
 30
0.0000000000000000
 11
119.4041710644523
 21
634.7015424899137
 31
0.0000000000000000
  0
LINE
  5
554
100
AcDbEntity
  8
A0
  6
CONTINUOUS
 62
3
100
AcDbLine
 10
-13.59582845875871
 20
647.4515422510033
 30
0.0000000000000000
 11
119.4041710644524
 21
647.4515422511213
 31
0.0000000000000000
  0
MTEXT
  5
555
100
AcDbEntity
  8
A0
  6
CONTINUOUS
 62
3
100
AcDbMText
 10
3.279170349173000
 20
644.9515422514658
 30
0.0000000000000000
 40
7.749999761581421
 41
0.0000000000000000
 71
     1
 72
     1
  1
{\H0.71x;{仕様　　SPECIFICATIONS}}
 11
1.000000000000000
 21
0.0000000000000000
 31
0.0000000000000000
  7
KNJYOKO
  0
MTEXT
  5
556
100
AcDbEntity
  8
A0
  6
CONTINUOUS
 62
3
100
AcDbMText
 10
75.40417011074695
 20
628.3265426088017
 30
0.0000000000000000
 40
7.749999761581421
 41
0.0000000000000000
 71
     1
 72
     1
  1
{\H0.70x;{０～１２８mm}}
 11
1.000000000000000
 21
0.0000000000000000
 31
0.0000000000000000
  7
KNJYOKO
  0
MTEXT
  5
557
100
AcDbEntity
  8
A0
  6
CONTINUOUS
 62
3
100
AcDbMText
 10
-12.34582845874158
 20
623.2015427280110
 30
0.0000000000000000
 40
7.749999761581421
 41
0.0000000000000000
 71
     1
 72
     1
  1
{\H0.71x;{CLAMPING RANGE}}
 11
1.000000000000000
 21
0.0000000000000000
 31
0.0000000000000000
  7
STANDARD
  0
LINE
  5
558
100
AcDbEntity
  8
A0
  6
CONTINUOUS
 62
3
100
AcDbLine
 10
-13.59582845875614
 20
614.2015429662588
 30
0.0000000000000000
 11
119.4041710644524
 21
614.2015429663768
 31
0.0000000000000000
  0
LINE
  5
559
100
AcDbEntity
  8
A0
  6
CONTINUOUS
 62
3
100
AcDbLine
 10
74.15417011074467
 20
634.7015424898914
 30
0.0000000000000000
 11
74.15417011074467
 21
614.2015429663322
 31
0.0000000000000000
  0
MTEXT
  5
55A
100
AcDbEntity
  8
A0
  6
CONTINUOUS
 62
3
100
AcDbMText
 10
-12.34582845874158
 20
602.7015432048481
 30
0.0000000000000000
 40
7.749999761581421
 41
0.0000000000000000
 71
     1
 72
     1
  1
{\H0.71x;{TIGHTENING TORQUE}}
 11
1.000000000000000
 21
0.0000000000000000
 31
0.0000000000000000
  7
STANDARD
  0
LINE
  5
55B
100
AcDbEntity
  8
A0
  6
CONTINUOUS
 62
3
100
AcDbLine
 10
119.4041710644522
 20
593.7015434435880
 30
0.0000000000000000
 11
-13.59582845875451
 21
593.7015434435289
 31
0.0000000000000000
  0
LINE
  5
55C
100
AcDbEntity
  8
A0
  6
CONTINUOUS
 62
3
100
AcDbLine
 10
74.15417011074467
 20
593.7015434435657
 30
0.0000000000000000
 11
74.15417011074467
 21
532.9515445160530
 31
0.0000000000000000
  0
LINE
  5
55D
100
AcDbEntity
  8
A0
  6
CONTINUOUS
 62
3
100
AcDbLine
 10
74.15417011074467
 20
573.2015439204031
 30
0.0000000000000000
 11
119.4041710644524
 21
573.2015439204231
 31
0.0000000000000000
  0
MTEXT
  5
55E
100
AcDbEntity
  8
A0
  6
CONTINUOUS
 62
3
100
AcDbMText
 10
80.40417058758416
 20
571.9515439197255
 30
0.0000000000000000
 40
7.749999761581421
 41
0.0000000000000000
 71
     1
 72
     1
  1
{\H0.67x;{2}}
 11
1.000000000000000
 21
0.0000000000000000
 31
0.0000000000000000
  7
STANDARD
  0
LINE
  5
55F
100
AcDbEntity
  8
A0
  6
CONTINUOUS
 62
3
100
AcDbLine
 10
119.4041710644523
 20
552.7015441588437
 30
0.0000000000000000
 11
-13.59582845875209
 21
552.7015441587846
 31
0.0000000000000000
  0
MTEXT
  5
560
100
AcDbEntity
  8
A0
  6
CONTINUOUS
 62
3
100
AcDbMText
 10
80.40417058758411
 20
561.7015439201039
 30
0.0000000000000000
 40
7.749999761581421
 41
0.0000000000000000
 71
     1
 72
     1
  1
{\H0.67x;{3}}
 11
1.000000000000000
 21
0.0000000000000000
 31
0.0000000000000000
  7
STANDARD
  0
LINE
  5
561
100
AcDbEntity
  8
A0
  6
CONTINUOUS
 62
3
100
AcDbLine
 10
74.15417011074464
 20
583.4515436815882
 30
0.0000000000000000
 11
119.4041710644524
 21
583.4515436816283
 31
0.0000000000000000
  0
LINE
  5
562
100
AcDbEntity
  8
A0
  6
CONTINUOUS
 62
3
100
AcDbLine
 10
91.30296498062623
 20
593.7015434435734
 30
0.0000000000000000
 11
91.30296498062623
 21
552.7015441588314
 31
0.0000000000000000
  0
MTEXT
  5
563
100
AcDbEntity
  8
A0
  6
CONTINUOUS
 62
3
100
AcDbMText
 10
95.12522423274683
 20
582.2015436813060
 30
0.0000000000000000
 40
7.749999761581421
 41
0.0000000000000000
 71
     1
 72
     1
  1
{\H0.70x;{10KN}}
 11
1.000000000000000
 21
0.0000000000000000
 31
0.0000000000000000
  7
STANDARD
  0
MTEXT
  5
564
100
AcDbEntity
  8
A0
  6
CONTINUOUS
 62
3
100
AcDbMText
 10
95.12522423274683
 20
571.9515439197246
 30
0.0000000000000000
 40
7.749999761581421
 41
0.0000000000000000
 71
     1
 72
     1
  1
{\H0.70x;{15KN}}
 11
1.000000000000000
 21
0.0000000000000000
 31
0.0000000000000000
  7
STANDARD
  0
MTEXT
  5
565
100
AcDbEntity
  8
A0
  6
CONTINUOUS
 62
3
100
AcDbMText
 10
95.12522423274677
 20
561.7015439201030
 30
0.0000000000000000
 40
7.749999761581421
 41
0.0000000000000000
 71
     1
 72
     1
  1
{\H0.70x;{20KN}}
 11
1.000000000000000
 21
0.0000000000000000
 31
0.0000000000000000
  7
STANDARD
  0
MTEXT
  5
566
100
AcDbEntity
  8
A0
  6
CONTINUOUS
 62
3
100
AcDbMText
 10
80.40417058758416
 20
582.2015436813069
 30
0.0000000000000000
 40
7.749999761581421
 41
0.0000000000000000
 71
     1
 72
     1
  1
{\H0.67x;{1}}
 11
1.000000000000000
 21
0.0000000000000000
 31
0.0000000000000000
  7
STANDARD
  0
MTEXT
  5
567
100
AcDbEntity
  8
A0
  6
CONTINUOUS
 62
3
100
AcDbMText
 10
85.78298375791840
 20
546.3265442777215
 30
0.0000000000000000
 40
7.749999761581421
 41
0.0000000000000000
 71
     1
 72
     1
  1
{\H0.70x;{16kg}}
 11
1.000000000000000
 21
0.0000000000000000
 31
0.0000000000000000
  7
STANDARD
  0
MTEXT
  5
568
100
AcDbEntity
  8
A0
  6
CONTINUOUS
 62
3
100
AcDbMText
 10
-12.34582845874158
 20
541.2015443969410
 30
0.0000000000000000
 40
6.999999880790710
 41
0.0000000000000000
 71
     1
 72
     1
  1
{\H0.67x;{MASS OF POWER VISE}}
 11
1.000000000000000
 21
0.0000000000000000
 31
0.0000000000000000
  7
STANDARD
  0
MTEXT
  5
569
100
AcDbEntity
  8
A0
  6
CONTINUOUS
 62
3
100
AcDbMText
 10
-12.34582845874158
 20
551.4515441585224
 30
0.0000000000000000
 40
7.749999761581421
 41
0.0000000000000000
 71
     1
 72
     1
  1
{\H0.70x;{製品質量}}
 11
1.000000000000000
 21
0.0000000000000000
 31
0.0000000000000000
  7
KNJYOKO
  0
MTEXT
  5
56A
100
AcDbEntity
  8
A0
  6
CONTINUOUS
 62
3
100
AcDbMText
 10
-12.34582845874158
 20
582.2015436816853
 30
0.0000000000000000
 40
7.749999761581421
 41
0.0000000000000000
 71
     1
 72
     1
  1
{\H0.71x;{CLAMP RANGE}}
 11
1.000000000000000
 21
0.0000000000000000
 31
0.0000000000000000
  7
STANDARD
  0
MTEXT
  5
56B
100
AcDbEntity
  8
A0
  6
CONTINUOUS
 62
3
100
AcDbMText
 10
-12.34582845874158
 20
592.4515434432667
 30
0.0000000000000000
 40
7.749999761581421
 41
0.0000000000000000
 71
     1
 72
     1
  1
{\H0.70x;{締付けレンジ}}
 11
1.000000000000000
 21
0.0000000000000000
 31
0.0000000000000000
  7
KNJYOKO
  0
LINE
  5
56C
100
AcDbEntity
  8
A0
  6
CONTINUOUS
 62
3
100
AcDbLine
 10
-13.59582845875871
 20
647.4515422510028
 30
0.0000000000000000
 11
-13.59582845875054
 21
532.9515445159794
 31
0.0000000000000000
  0
LINE
  5
56D
100
AcDbEntity
  8
A0
  6
CONTINUOUS
 62
3
100
AcDbLine
 10
119.4041710644524
 20
532.9515445160978
 30
0.0000000000000000
 11
-13.59582845875053
 21
532.9515445159798
 31
0.0000000000000000
  0
MTEXT
  5
56E
100
AcDbEntity
  8
A0
  6
CONTINUOUS
 62
3
100
AcDbMText
 10
-12.34582845874158
 20
612.9515429664295
 30
0.0000000000000000
 40
7.749999761581421
 41
0.0000000000000000
 71
     1
 72
     1
  1
{\H0.70x;{締付トルク}}
 11
1.000000000000000
 21
0.0000000000000000
 31
0.0000000000000000
  7
KNJYOKO
  0
MTEXT
  5
56F
100
AcDbEntity
  8
A0
  6
CONTINUOUS
 62
3
100
AcDbMText
 10
-12.34582845874158
 20
633.4515424895924
 30
0.0000000000000000
 40
7.749999761581421
 41
0.0000000000000000
 71
     1
 72
     1
  1
{\H0.70x;{口金の開き}}
 11
1.000000000000000
 21
0.0000000000000000
 31
0.0000000000000000
  7
KNJYOKO
  0
LINE
  5
570
100
AcDbEntity
  8
A0
  6
CONTINUOUS
 62
3
100
AcDbLine
 10
74.15417011074469
 20
562.9515439204031
 30
0.0000000000000000
 11
119.4041710644523
 21
562.9515439204231
 31
0.0000000000000000
  0
MTEXT
  5
571
100
AcDbEntity
  8
A0
  6
CONTINUOUS
 62
3
100
AcDbMText
 10
95.12522423274677
 20
592.4515434432658
 30
0.0000000000000000
 40
7.749999761581421
 41
0.0000000000000000
 71
     1
 72
     1
  1
{\H0.70x;{ 8KN}}
 11
1.000000000000000
 21
0.0000000000000000
 31
0.0000000000000000
  7
STANDARD
  0
MTEXT
  5
572
100
AcDbEntity
  8
A0
  6
CONTINUOUS
 62
3
100
AcDbMText
 10
80.40417058758411
 20
592.4515434432667
 30
0.0000000000000000
 40
7.749999761581421
 41
0.0000000000000000
 71
     1
 72
     1
  1
{\H0.67x;{0}}
 11
1.000000000000000
 21
0.0000000000000000
 31
0.0000000000000000
  7
STANDARD
  0
ENDSEC
  0
SECTION
  2
OBJECTS
  0
DICTIONARY
  5
5D2
100
AcDbDictionary
  3
ACAD_GROUP
350
5D3
  3
ACAD_MLINESTYLE
350
5D4
  3
DWGPROPS
350
5D5
  0
DICTIONARY
  5
5D3
102
{ACAD_REACTORS
330
5D2
102
}
100
AcDbDictionary
  0
DICTIONARY
  5
5D4
102
{ACAD_REACTORS
330
5D2
102
}
100
AcDbDictionary
  3
STANDARD
350
5D6
  0
MLINESTYLE
  5
5D6
102
{ACAD_REACTORS
330
5D4
102
}
100
AcDbMlineStyle
  2
STANDARD
 70
     0
  3

 62
   256
 51
90.00
 52
90.00
 71
     2
 49
0.50
 62
   256
  6
BYLAYER
 49
-0.50
 62
   256
  6
BYLAYER
  0
XRECORD
  5
5D5
102
{ACAD_REACTORS
330
5D2
102
}
100
AcDbXrecord
280
     1
  1
DWGPROPS COOKIE
  2
ＶＣ１０３　ガイケイ
  3

  4

  6
パワーバイス
  7

  8

  9

300
=
301
=
302
=
303
=
304
=
305
=
306
=
307
=
308
=
309
=
 40
0.000000
 41
0.000000
 42
0.000000
  1

 90
        0
  0
ENDSEC
  0
EOF
