  0
SECTION
  2
HEADER
  9
$ACADVER
  1
AC1014
  9
$DWGCODEPAGE
  3
ANSI_932
  9
$LTSCALE
 40
20.0
  9
$FILLMODE
 70
     1
  9
$CLAYER
  8
0
  9
$PDMODE
 70
     0
  9
$SPLFRAME
 70
     0
  9
$SPLINETYPE
 70
     6
  9
$SPLINESEGS
 70
     8
  9
$DIMASZ
 40
2.000000
  9
$DIMEXE
 40
2.000000
  9
$DIMEXO
 40
0.800000
  9
$DIMTAD
 70
     1
  9
$DIMTIH
 70
     0
  9
$DIMTOH
 70
     0
  9
$DIMTVP
 40
0.500000
  9
$DIMTXT
 40
3.100000
  9
$EXTMIN
 10
0.000000
 20
0.000000
 30
0.000000
  9
$EXTMAX
 10
297.000000
 20
420.000000
 30
0.000000
  9
$MEASUREMENT
 70
  1
  9
$LIMMIN
 10
0.000000
 20
0.000000
  9
$LIMMAX
 10
297.000000
 20
420.000000
  9
$HANDLING
 70
     1
  9
$HANDSEED
  5
62B
  9
$DIMBLK
  1
_OPEN
  9
$DIMDEC
 70
     3
  9
$DIMAUNIT
 70
     1
  9
$DIMZIN
 70
     8
  9
$DIMTOFL
 70
     1
  0
ENDSEC
  0
SECTION
  2
CLASSES
  0
ENDSEC
  0
SECTION
  2
TABLES
  0
TABLE
  2
VPORT
  5
5C7
100
AcDbSymbolTable
 70
     1
  0
VPORT
  5
5C8
100
AcDbSymbolTableRecord
100
AcDbViewportTableRecord
  2
*ACTIVE
 70
     0
 12
698.447614
 22
735.619506
 40
2545.909065
 41
1.314634
  0
ENDTAB
  0
TABLE
  2
LTYPE
  5
5C9
100
AcDbSymbolTable
 70
     3
  0
LTYPE
  5
5CA
100
AcDbSymbolTableRecord
100
AcDbLinetypeTableRecord
  2
BYBLOCK
 70
     0
  3

 72
    65
 73
     0
 40
0.0
  0
LTYPE
  5
5CB
100
AcDbSymbolTableRecord
100
AcDbLinetypeTableRecord
  2
BYLAYER
 70
     0
  3

 72
    65
 73
     0
 40
0.0
  0
LTYPE
  5
5CC
100
AcDbSymbolTableRecord
100
AcDbLinetypeTableRecord
  2
CONTINUOUS
 70
     0
  3
Solid line (NEC CAE2D for Win R12.1 : 2016.08.08)
 72
    65
 73
     0
 40
0.0
  0
LTYPE
  5
5CD
100
AcDbSymbolTableRecord
100
AcDbLinetypeTableRecord
  2
HIDDEN
 70
     0
  3
__ __ __ __ __ __ __ __ __ __ __ __ __ __
 72
    65
 73
     2
 40
0.375
 49
0.25
 74
     0
 49
-0.125
 74
     0
  0
LTYPE
  5
5CE
100
AcDbSymbolTableRecord
100
AcDbLinetypeTableRecord
  2
CENTER
 70
     0
  3
____ _ ____ _ ____ _ ____ _ ____ _ ____
 72
    65
 73
     4
 40
2.0
 49
1.25
 74
     0
 49
-0.25
 74
     0
 49
0.25
 74
     0
 49
-0.25
 74
     0
  0
ENDTAB
  0
TABLE
  2
LAYER
  5
5CF
100
AcDbSymbolTable
 70
    10
  0
LAYER
  5
5D0
100
AcDbSymbolTableRecord
100
AcDbLayerTableRecord
  2
0
 70
     0
 62
     7
  6
CONTINUOUS
  0
LAYER
  5
5D1
100
AcDbSymbolTableRecord
100
AcDbLayerTableRecord
  2
MAIN0
 70
     0
 62
     7
  6
CONTINUOUS
  0
LAYER
  5
5D2
100
AcDbSymbolTableRecord
100
AcDbLayerTableRecord
  2
MAIN1
 70
     0
 62
     7
  6
CONTINUOUS
  0
LAYER
  5
5D3
100
AcDbSymbolTableRecord
100
AcDbLayerTableRecord
  2
MAIN3
 70
     0
 62
     7
  6
CONTINUOUS
  0
LAYER
  5
5D4
100
AcDbSymbolTableRecord
100
AcDbLayerTableRecord
  2
MAIN10
 70
     0
 62
     7
  6
CONTINUOUS
  0
LAYER
  5
5D5
100
AcDbSymbolTableRecord
100
AcDbLayerTableRecord
  2
MAIN1023
 70
     0
 62
    16
  6
CONTINUOUS
  0
LAYER
  5
5D6
100
AcDbSymbolTableRecord
100
AcDbLayerTableRecord
  2
WAKU0
 70
     0
 62
     7
  6
CONTINUOUS
  0
LAYER
  5
5D7
100
AcDbSymbolTableRecord
100
AcDbLayerTableRecord
  2
WAKU1023
 70
     0
 62
    16
  6
CONTINUOUS
  0
LAYER
  5
5D8
100
AcDbSymbolTableRecord
100
AcDbLayerTableRecord
  2
A0
 70
     0
 62
     7
  6
CONTINUOUS
  0
LAYER
  5
5D9
100
AcDbSymbolTableRecord
100
AcDbLayerTableRecord
  2
A1023
 70
     0
 62
    16
  6
CONTINUOUS
  0
ENDTAB
  0
TABLE
  2
STYLE
  5
5DA
100
AcDbSymbolTable
 70
     4
  0
STYLE
  5
5DB
100
AcDbSymbolTableRecord
100
AcDbTextStyleTableRecord
  2
STANDARD
 70
    64
 40
0.0
 41
1.0
 50
0.0
 71
     0
 42
7.749999761581421
  3
TXT
  4

  0
STYLE
  5
5DC
100
AcDbSymbolTableRecord
100
AcDbTextStyleTableRecord
  2
ANKTATE
 70
    68
 40
0.0
 41
1.0
 50
0.0
 71
     0
 42
7.749999761581421
  3
TXT
  4

  0
STYLE
  5
333
100
AcDbSymbolTableRecord
100
AcDbTextStyleTableRecord
  2
KNJYOKO
 70
    64
 40
0.0
 41
1.0
 50
0.0
 71
     0
 42
7.749999761581421
  3
TXT
  4
BIGFONT
  0
STYLE
  5
5DD
100
AcDbSymbolTableRecord
100
AcDbTextStyleTableRecord
  2
KNJTATE
 70
    68
 40
0.0
 41
1.0
 50
0.0
 71
     0
 42
7.749999761581421
  3
TXT
  4
BIGFONT
  0
ENDTAB
  0
TABLE
  2
VIEW
  5
5DE
100
AcDbSymbolTable
 70
     0
  0
ENDTAB
  0
TABLE
  2
UCS
  5
5DF
100
AcDbSymbolTable
 70
     0
  0
ENDTAB
  0
TABLE
  2
APPID
  5
5E0
100
AcDbSymbolTable
 70
     1
  0
APPID
  5
5E1
100
AcDbSymbolTableRecord
100
AcDbRegAppTableRecord
  2
ACAD
 70
     0
  0
ENDTAB
  0
TABLE
  2
DIMSTYLE
  5
5E2
100
AcDbSymbolTable
 70
     1
  0
DIMSTYLE
105
5E3
100
AcDbSymbolTableRecord
100
AcDbDimStyleTableRecord
  2
STANDARD
 70
     0
 41
2.000000
 44
2.000000
 42
0.800000
145
0.661290
140
3.100000
144
1.000000
146
0.903226
340
5DB
  0
DIMSTYLE
105
5E4
100
AcDbSymbolTableRecord
100
AcDbDimStyleTableRecord
  2
MAIN001
 70
     0
 41
6.666667
 44
6.666667
 42
2.666667
145
0.548387
140
10.333333
144
1.000000
146
0.903226
 77
     1
 73
     0
 74
     0
271
     3
275
     1
 78
     8
172
     1
340
5DB
  0
DIMSTYLE
105
5E5
100
AcDbSymbolTableRecord
100
AcDbDimStyleTableRecord
  2
WAKU002
 70
     0
 41
2.000000
 44
2.000000
 42
0.800000
145
0.661290
140
3.100000
144
1.000000
146
0.903226
 77
     1
 73
     0
 74
     0
271
     3
275
     1
 78
     8
172
     1
340
5DB
  0
DIMSTYLE
105
5E6
100
AcDbSymbolTableRecord
100
AcDbDimStyleTableRecord
  2
A003
 70
     0
 41
5.000000
 44
5.000000
 42
2.000000
145
0.564516
140
7.750000
144
1.000000
146
0.903226
 77
     1
 73
     0
 74
     0
271
     3
275
     1
 78
     8
172
     1
340
5DB
  0
ENDTAB
  0
TABLE
  2
BLOCK_RECORD
  5
5E7
100
AcDbSymbolTable
 70
    68
  0
BLOCK_RECORD
  5
5E8
100
AcDbSymbolTableRecord
100
AcDbBlockTableRecord
  2
*MODEL_SPACE
  0
BLOCK_RECORD
  5
5E9
100
AcDbSymbolTableRecord
100
AcDbBlockTableRecord
  2
*PAPER_SPACE
  0
BLOCK_RECORD
  5
1
100
AcDbSymbolTableRecord
100
AcDbBlockTableRecord
  2
_NONE
  0
BLOCK_RECORD
  5
4
100
AcDbSymbolTableRecord
100
AcDbBlockTableRecord
  2
_CLOSED
  0
BLOCK_RECORD
  5
B
100
AcDbSymbolTableRecord
100
AcDbBlockTableRecord
  2
_DOT
  0
BLOCK_RECORD
  5
13
100
AcDbSymbolTableRecord
100
AcDbBlockTableRecord
  2
_OPEN
  0
BLOCK_RECORD
  5
19
100
AcDbSymbolTableRecord
100
AcDbBlockTableRecord
  2
_ORIGIN
  0
BLOCK_RECORD
  5
1E
100
AcDbSymbolTableRecord
100
AcDbBlockTableRecord
  2
_OPEN30
  0
BLOCK_RECORD
  5
24
100
AcDbSymbolTableRecord
100
AcDbBlockTableRecord
  2
_BOXFILLED
  0
BLOCK_RECORD
  5
29
100
AcDbSymbolTableRecord
100
AcDbBlockTableRecord
  2
_BOXBLANK
  0
BLOCK_RECORD
  5
31
100
AcDbSymbolTableRecord
100
AcDbBlockTableRecord
  2
_OBLIQUE
  0
BLOCK_RECORD
  5
35
100
AcDbSymbolTableRecord
100
AcDbBlockTableRecord
  2
_OPEN90
  0
BLOCK_RECORD
  5
3B
100
AcDbSymbolTableRecord
100
AcDbBlockTableRecord
  2
_CLOSEDBLANK
  0
BLOCK_RECORD
  5
41
100
AcDbSymbolTableRecord
100
AcDbBlockTableRecord
  2
_DOTBLANK
  0
BLOCK_RECORD
  5
5EA
100
AcDbSymbolTableRecord
100
AcDbBlockTableRecord
  2
*D0
  0
BLOCK_RECORD
  5
5EB
100
AcDbSymbolTableRecord
100
AcDbBlockTableRecord
  2
*D1
  0
BLOCK_RECORD
  5
5EC
100
AcDbSymbolTableRecord
100
AcDbBlockTableRecord
  2
*D2
  0
BLOCK_RECORD
  5
5ED
100
AcDbSymbolTableRecord
100
AcDbBlockTableRecord
  2
*D3
  0
BLOCK_RECORD
  5
5EE
100
AcDbSymbolTableRecord
100
AcDbBlockTableRecord
  2
*D4
  0
BLOCK_RECORD
  5
5EF
100
AcDbSymbolTableRecord
100
AcDbBlockTableRecord
  2
*D5
  0
BLOCK_RECORD
  5
5F0
100
AcDbSymbolTableRecord
100
AcDbBlockTableRecord
  2
*D6
  0
BLOCK_RECORD
  5
5F1
100
AcDbSymbolTableRecord
100
AcDbBlockTableRecord
  2
*D7
  0
BLOCK_RECORD
  5
5F2
100
AcDbSymbolTableRecord
100
AcDbBlockTableRecord
  2
*D8
  0
BLOCK_RECORD
  5
5F3
100
AcDbSymbolTableRecord
100
AcDbBlockTableRecord
  2
*D9
  0
BLOCK_RECORD
  5
5F4
100
AcDbSymbolTableRecord
100
AcDbBlockTableRecord
  2
*D10
  0
BLOCK_RECORD
  5
5F5
100
AcDbSymbolTableRecord
100
AcDbBlockTableRecord
  2
*D11
  0
BLOCK_RECORD
  5
5F6
100
AcDbSymbolTableRecord
100
AcDbBlockTableRecord
  2
*D12
  0
BLOCK_RECORD
  5
5F7
100
AcDbSymbolTableRecord
100
AcDbBlockTableRecord
  2
*D13
  0
BLOCK_RECORD
  5
5F8
100
AcDbSymbolTableRecord
100
AcDbBlockTableRecord
  2
*D14
  0
BLOCK_RECORD
  5
5F9
100
AcDbSymbolTableRecord
100
AcDbBlockTableRecord
  2
*D15
  0
BLOCK_RECORD
  5
5FA
100
AcDbSymbolTableRecord
100
AcDbBlockTableRecord
  2
*D16
  0
BLOCK_RECORD
  5
5FB
100
AcDbSymbolTableRecord
100
AcDbBlockTableRecord
  2
*D17
  0
BLOCK_RECORD
  5
5FC
100
AcDbSymbolTableRecord
100
AcDbBlockTableRecord
  2
*D18
  0
BLOCK_RECORD
  5
5FD
100
AcDbSymbolTableRecord
100
AcDbBlockTableRecord
  2
*D19
  0
BLOCK_RECORD
  5
5FE
100
AcDbSymbolTableRecord
100
AcDbBlockTableRecord
  2
*D20
  0
BLOCK_RECORD
  5
5FF
100
AcDbSymbolTableRecord
100
AcDbBlockTableRecord
  2
*D21
  0
BLOCK_RECORD
  5
600
100
AcDbSymbolTableRecord
100
AcDbBlockTableRecord
  2
*D22
  0
BLOCK_RECORD
  5
601
100
AcDbSymbolTableRecord
100
AcDbBlockTableRecord
  2
*D23
  0
BLOCK_RECORD
  5
602
100
AcDbSymbolTableRecord
100
AcDbBlockTableRecord
  2
*D24
  0
BLOCK_RECORD
  5
603
100
AcDbSymbolTableRecord
100
AcDbBlockTableRecord
  2
*D25
  0
BLOCK_RECORD
  5
604
100
AcDbSymbolTableRecord
100
AcDbBlockTableRecord
  2
*D26
  0
BLOCK_RECORD
  5
605
100
AcDbSymbolTableRecord
100
AcDbBlockTableRecord
  2
*D27
  0
BLOCK_RECORD
  5
606
100
AcDbSymbolTableRecord
100
AcDbBlockTableRecord
  2
*D28
  0
BLOCK_RECORD
  5
607
100
AcDbSymbolTableRecord
100
AcDbBlockTableRecord
  2
*D29
  0
BLOCK_RECORD
  5
608
100
AcDbSymbolTableRecord
100
AcDbBlockTableRecord
  2
*D30
  0
BLOCK_RECORD
  5
609
100
AcDbSymbolTableRecord
100
AcDbBlockTableRecord
  2
*D31
  0
BLOCK_RECORD
  5
60A
100
AcDbSymbolTableRecord
100
AcDbBlockTableRecord
  2
*D32
  0
BLOCK_RECORD
  5
60B
100
AcDbSymbolTableRecord
100
AcDbBlockTableRecord
  2
*D33
  0
BLOCK_RECORD
  5
60C
100
AcDbSymbolTableRecord
100
AcDbBlockTableRecord
  2
*D34
  0
BLOCK_RECORD
  5
60D
100
AcDbSymbolTableRecord
100
AcDbBlockTableRecord
  2
*D35
  0
BLOCK_RECORD
  5
60E
100
AcDbSymbolTableRecord
100
AcDbBlockTableRecord
  2
*D36
  0
BLOCK_RECORD
  5
60F
100
AcDbSymbolTableRecord
100
AcDbBlockTableRecord
  2
*D37
  0
BLOCK_RECORD
  5
610
100
AcDbSymbolTableRecord
100
AcDbBlockTableRecord
  2
*D38
  0
BLOCK_RECORD
  5
611
100
AcDbSymbolTableRecord
100
AcDbBlockTableRecord
  2
*D39
  0
BLOCK_RECORD
  5
612
100
AcDbSymbolTableRecord
100
AcDbBlockTableRecord
  2
*D40
  0
BLOCK_RECORD
  5
613
100
AcDbSymbolTableRecord
100
AcDbBlockTableRecord
  2
*D41
  0
BLOCK_RECORD
  5
614
100
AcDbSymbolTableRecord
100
AcDbBlockTableRecord
  2
*D42
  0
BLOCK_RECORD
  5
615
100
AcDbSymbolTableRecord
100
AcDbBlockTableRecord
  2
*D43
  0
BLOCK_RECORD
  5
616
100
AcDbSymbolTableRecord
100
AcDbBlockTableRecord
  2
*D44
  0
BLOCK_RECORD
  5
617
100
AcDbSymbolTableRecord
100
AcDbBlockTableRecord
  2
*D45
  0
BLOCK_RECORD
  5
618
100
AcDbSymbolTableRecord
100
AcDbBlockTableRecord
  2
D46
  0
BLOCK_RECORD
  5
619
100
AcDbSymbolTableRecord
100
AcDbBlockTableRecord
  2
*D47
  0
BLOCK_RECORD
  5
61A
100
AcDbSymbolTableRecord
100
AcDbBlockTableRecord
  2
*D48
  0
BLOCK_RECORD
  5
61B
100
AcDbSymbolTableRecord
100
AcDbBlockTableRecord
  2
*D49
  0
BLOCK_RECORD
  5
61C
100
AcDbSymbolTableRecord
100
AcDbBlockTableRecord
  2
*D50
  0
BLOCK_RECORD
  5
61D
100
AcDbSymbolTableRecord
100
AcDbBlockTableRecord
  2
*D51
  0
BLOCK_RECORD
  5
61E
100
AcDbSymbolTableRecord
100
AcDbBlockTableRecord
  2
*D52
  0
BLOCK_RECORD
  5
61F
100
AcDbSymbolTableRecord
100
AcDbBlockTableRecord
  2
*D53
  0
BLOCK_RECORD
  5
620
100
AcDbSymbolTableRecord
100
AcDbBlockTableRecord
  2
*D54
  0
BLOCK_RECORD
  5
621
100
AcDbSymbolTableRecord
100
AcDbBlockTableRecord
  2
*D55
  0
ENDTAB
  0
ENDSEC
  0
SECTION
  2
BLOCKS
  0
BLOCK
  5
622
100
AcDbEntity
  8
0
100
AcDbBlockBegin
  2
*MODEL_SPACE
 70
     0
 10
0.0
 20
0.0
 30
0.0
  3
*MODEL_SPACE
  1

  0
ENDBLK
  5
623
100
AcDbEntity
  8
0
100
AcDbBlockEnd
  0
BLOCK
  5
624
100
AcDbEntity
  8
0
100
AcDbBlockBegin
  2
*PAPER_SPACE
 70
     0
 10
0.0
 20
0.0
 30
0.0
  3
*PAPER_SPACE
  1

  0
ENDBLK
  5
625
100
AcDbEntity
  8
0
100
AcDbBlockEnd
  0
BLOCK
  5
2
100
AcDbEntity
  8
0
100
AcDbBlockBegin
  2
_NONE
 70
     0
 10
0.0
 20
0.0
 30
0.0
  3
_NONE
  1

  0
ENDBLK
  5
3
100
AcDbEntity
  8
0
100
AcDbBlockEnd
  0
BLOCK
  5
5
100
AcDbEntity
  8
0
100
AcDbBlockBegin
  2
_CLOSED
 70
     0
 10
0.0
 20
0.0
 30
0.0
  3
_CLOSED
  1

  0
LINE
  5
6
100
AcDbEntity
  8
0
  6
BYBLOCK
 62
     0
100
AcDbLine
 10
-1.0
 20
0.166667
 30
0.0
 11
0.0
 21
0.0
 31
0.0
  0
LINE
  5
7
100
AcDbEntity
  8
0
  6
BYBLOCK
 62
     0
100
AcDbLine
 10
0.0
 20
0.0
 30
0.0
 11
-1.0
 21
-0.166667
 31
0.0
  0
LINE
  5
8
100
AcDbEntity
  8
0
  6
BYBLOCK
 62
     0
100
AcDbLine
 10
-1.0
 20
0.166667
 30
0.0
 11
-1.0
 21
-0.166667
 31
0.0
  0
LINE
  5
9
100
AcDbEntity
  8
0
  6
BYBLOCK
 62
     0
100
AcDbLine
 10
0.0
 20
0.0
 30
0.0
 11
-1.0
 21
0.0
 31
0.0
  0
ENDBLK
  5
A
100
AcDbEntity
  8
0
100
AcDbBlockEnd
  0
BLOCK
  5
C
100
AcDbEntity
  8
0
100
AcDbBlockBegin
  2
_DOT
 70
     0
 10
0.0
 20
0.0
 30
0.0
  3
_DOT
  1

  0
POLYLINE
  5
D
100
AcDbEntity
  8
0
  6
BYBLOCK
 62
     0
100
AcDb2dPolyline
 66
     1
 10
0.0
 20
0.0
 30
0.0
 70
     1
 40
0.5
 41
0.5
  0
VERTEX
  5
E
100
AcDbEntity
  8
0
  6
BYBLOCK
 62
     0
100
AcDbVertex
100
AcDb2dVertex
 10
-0.25
 20
0.0
 30
0.0
 42
1.0
  0
VERTEX
  5
F
100
AcDbEntity
  8
0
  6
BYBLOCK
 62
     0
100
AcDbVertex
100
AcDb2dVertex
 10
0.25
 20
0.0
 30
0.0
 42
1.0
  0
SEQEND
  5
10
100
AcDbEntity
  8
0
  6
BYBLOCK
 62
     0
  0
LINE
  5
11
100
AcDbEntity
  8
0
  6
BYBLOCK
 62
     0
100
AcDbLine
 10
-0.5
 20
0.0
 30
0.0
 11
-1.0
 21
0.0
 31
0.0
  0
ENDBLK
  5
12
100
AcDbEntity
  8
0
100
AcDbBlockEnd
  0
BLOCK
  5
14
100
AcDbEntity
  8
0
100
AcDbBlockBegin
  2
_OPEN
 70
     0
 10
0.0
 20
0.0
 30
0.0
  3
_OPEN
  1

  0
LINE
  5
15
100
AcDbEntity
  8
0
  6
BYBLOCK
 62
     0
100
AcDbLine
 10
-1.0
 20
0.166667
 30
0.0
 11
0.0
 21
0.0
 31
0.0
  0
LINE
  5
16
100
AcDbEntity
  8
0
  6
BYBLOCK
 62
     0
100
AcDbLine
 10
0.0
 20
0.0
 30
0.0
 11
-1.0
 21
-0.166667
 31
0.0
  0
LINE
  5
17
100
AcDbEntity
  8
0
  6
BYBLOCK
 62
     0
100
AcDbLine
 10
0.0
 20
0.0
 30
0.0
 11
-1.0
 21
0.0
 31
0.0
  0
ENDBLK
  5
18
100
AcDbEntity
  8
0
100
AcDbBlockEnd
  0
BLOCK
  5
1A
100
AcDbEntity
  8
0
100
AcDbBlockBegin
  2
_ORIGIN
 70
     0
 10
0.0
 20
0.0
 30
0.0
  3
_ORIGIN
  1

  0
CIRCLE
  5
1B
100
AcDbEntity
  8
0
  6
BYBLOCK
 62
     0
100
AcDbCircle
 10
0.0
 20
0.0
 30
0.0
 40
0.5
  0
LINE
  5
1C
100
AcDbEntity
  8
0
  6
BYBLOCK
 62
     0
100
AcDbLine
 10
0.0
 20
0.0
 30
0.0
 11
-1.0
 21
0.0
 31
0.0
  0
ENDBLK
  5
1D
100
AcDbEntity
  8
0
100
AcDbBlockEnd
  0
BLOCK
  5
1F
100
AcDbEntity
  8
0
100
AcDbBlockBegin
  2
_OPEN30
 70
     0
 10
0.0
 20
0.0
 30
0.0
  3
_OPEN30
  1

  0
LINE
  5
20
100
AcDbEntity
  8
0
  6
BYBLOCK
 62
     0
100
AcDbLine
 10
-1.0
 20
0.267949
 30
0.0
 11
0.0
 21
0.0
 31
0.0
  0
LINE
  5
21
100
AcDbEntity
  8
0
  6
BYBLOCK
 62
     0
100
AcDbLine
 10
0.0
 20
0.0
 30
0.0
 11
-1.0
 21
-0.267949
 31
0.0
  0
LINE
  5
22
100
AcDbEntity
  8
0
  6
BYBLOCK
 62
     0
100
AcDbLine
 10
0.0
 20
0.0
 30
0.0
 11
-1.0
 21
0.0
 31
0.0
  0
ENDBLK
  5
23
100
AcDbEntity
  8
0
100
AcDbBlockEnd
  0
BLOCK
  5
25
100
AcDbEntity
  8
0
100
AcDbBlockBegin
  2
_BOXFILLED
 70
     0
 10
0.0
 20
0.0
 30
0.0
  3
_BOXFILLED
  1

  0
SOLID
  5
26
100
AcDbEntity
  8
0
  6
BYBLOCK
 62
     0
100
AcDbTrace
 10
-0.5
 20
0.5
 30
0.0
 11
0.5
 21
0.5
 31
0.0
 12
-0.5
 22
-0.5
 32
0.0
 13
0.5
 23
-0.5
 33
0.0
  0
LINE
  5
27
100
AcDbEntity
  8
0
  6
BYBLOCK
 62
     0
100
AcDbLine
 10
-0.5
 20
0.0
 30
0.0
 11
-1.0
 21
0.0
 31
0.0
  0
ENDBLK
  5
28
100
AcDbEntity
  8
0
100
AcDbBlockEnd
  0
BLOCK
  5
2A
100
AcDbEntity
  8
0
100
AcDbBlockBegin
  2
_BOXBLANK
 70
     0
 10
0.0
 20
0.0
 30
0.0
  3
_BOXBLANK
  1

  0
LINE
  5
2B
100
AcDbEntity
  8
0
  6
BYBLOCK
 62
     0
100
AcDbLine
 10
-0.5
 20
-0.5
 30
0.0
 11
0.5
 21
-0.5
 31
0.0
  0
LINE
  5
2C
100
AcDbEntity
  8
0
  6
BYBLOCK
 62
     0
100
AcDbLine
 10
0.5
 20
-0.5
 30
0.0
 11
0.5
 21
0.5
 31
0.0
  0
LINE
  5
2D
100
AcDbEntity
  8
0
  6
BYBLOCK
 62
     0
100
AcDbLine
 10
0.5
 20
0.5
 30
0.0
 11
-0.5
 21
0.5
 31
0.0
  0
LINE
  5
2E
100
AcDbEntity
  8
0
  6
BYBLOCK
 62
     0
100
AcDbLine
 10
-0.5
 20
0.5
 30
0.0
 11
-0.5
 21
-0.5
 31
0.0
  0
LINE
  5
2F
100
AcDbEntity
  8
0
  6
BYBLOCK
 62
     0
100
AcDbLine
 10
-0.5
 20
0.0
 30
0.0
 11
-1.0
 21
0.0
 31
0.0
  0
ENDBLK
  5
30
100
AcDbEntity
  8
0
100
AcDbBlockEnd
  0
BLOCK
  5
32
100
AcDbEntity
  8
0
100
AcDbBlockBegin
  2
_OBLIQUE
 70
     0
 10
0.0
 20
0.0
 30
0.0
  3
_OBLIQUE
  1

  0
LINE
  5
33
100
AcDbEntity
  8
0
  6
BYBLOCK
 62
     0
100
AcDbLine
 10
-0.5
 20
-0.5
 30
0.0
 11
0.5
 21
0.5
 31
0.0
  0
ENDBLK
  5
34
100
AcDbEntity
  8
0
100
AcDbBlockEnd
  0
BLOCK
  5
36
100
AcDbEntity
  8
0
100
AcDbBlockBegin
  2
_OPEN90
 70
     0
 10
0.0
 20
0.0
 30
0.0
  3
_OPEN90
  1

  0
LINE
  5
37
100
AcDbEntity
  8
0
  6
BYBLOCK
 62
     0
100
AcDbLine
 10
-0.5
 20
0.5
 30
0.0
 11
0.0
 21
0.0
 31
0.0
  0
LINE
  5
38
100
AcDbEntity
  8
0
  6
BYBLOCK
 62
     0
100
AcDbLine
 10
0.0
 20
0.0
 30
0.0
 11
-0.5
 21
-0.5
 31
0.0
  0
LINE
  5
39
100
AcDbEntity
  8
0
  6
BYBLOCK
 62
     0
100
AcDbLine
 10
0.0
 20
0.0
 30
0.0
 11
-1.0
 21
0.0
 31
0.0
  0
ENDBLK
  5
3A
100
AcDbEntity
  8
0
100
AcDbBlockEnd
  0
BLOCK
  5
3C
100
AcDbEntity
  8
0
100
AcDbBlockBegin
  2
_CLOSEDBLANK
 70
     0
 10
0.0
 20
0.0
 30
0.0
  3
_CLOSEDBLANK
  1

  0
LINE
  5
3D
100
AcDbEntity
  8
0
  6
BYBLOCK
 62
     0
100
AcDbLine
 10
-1.0
 20
0.1666666666666666
 30
0.0
 11
0.0
 21
0.0
 31
0.0
  0
LINE
  5
3E
100
AcDbEntity
  8
0
  6
BYBLOCK
 62
     0
100
AcDbLine
 10
0.0
 20
0.0
 30
0.0
 11
-1.0
 21
-0.1666666666666666
 31
0.0
  0
LINE
  5
3F
100
AcDbEntity
  8
0
  6
BYBLOCK
 62
     0
100
AcDbLine
 10
-1.0
 20
0.1666666666666666
 30
0.0
 11
-1.0
 21
-0.1666666666666666
 31
0.0
  0
ENDBLK
  5
40
100
AcDbEntity
  8
0
100
AcDbBlockEnd
  0
BLOCK
  5
42
100
AcDbEntity
  8
0
100
AcDbBlockBegin
  2
_DOTBLANK
 70
     0
 10
0.0
 20
0.0
 30
0.0
  3
_DOTBLANK
  1

  0
CIRCLE
  5
43
100
AcDbEntity
  8
0
  6
BYBLOCK
 62
     0
100
AcDbCircle
 10
0.0
 20
0.0
 30
0.0
 40
0.5
  0
LINE
  5
44
100
AcDbEntity
  8
0
  6
BYBLOCK
 62
     0
100
AcDbLine
 10
-0.5
 20
0.0
 30
0.0
 11
-1.0
 21
0.0
 31
0.0
  0
ENDBLK
  5
45
100
AcDbEntity
  8
0
100
AcDbBlockEnd
  0
BLOCK
  5
4A
100
AcDbEntity
  8
MAIN0
  6
CONTINUOUS
 62
3
100
AcDbBlockBegin
  2
*D0
 70
    65
 10
0.0
 20
0.0
 30
0.0
  0
LINE
  5
4B
100
AcDbEntity
  8
MAIN0
  6
BYBLOCK
 62
0
100
AcDbLine
 10
368.3292294381024
 20
536.8171276767666
 30
0.0000000000000000
 11
347.1292294776059
 21
536.8171276767665
 31
0.0000000000000000
  0
LINE
  5
4C
100
AcDbEntity
  8
MAIN0
  6
BYBLOCK
 62
0
100
AcDbLine
 10
353.7958961442726
 20
530.1504610100999
 30
0.0000000000000000
 11
353.7958961442726
 21
473.4837943434328
 31
0.0000000000000000
  0
INSERT
  5
4D
100
AcDbEntity
  8
MAIN0
  6
BYBLOCK
 62
0
100
AcDbBlockReference
  2
_OPEN
 10
353.7958961442726
 20
536.8171276767666
 30
0.0000000000000000
 41
6.666666666666667
 42
6.666666666666667
 43
6.666666666666667
 50
90.00000000000000
  0
INSERT
  5
4E
100
AcDbEntity
  8
MAIN0
  6
BYBLOCK
 62
0
100
AcDbBlockReference
  2
_OPEN
 10
353.7958961442726
 20
466.8171276767661
 30
0.0000000000000000
 41
6.666666666666667
 42
6.666666666666667
 43
6.666666666666667
 50
270.0000000000000
  0
LINE
  5
4F
100
AcDbEntity
  8
MAIN0
  6
BYBLOCK
 62
0
100
AcDbLine
 10
368.5292294381026
 20
466.8171276767661
 30
0.0000000000000000
 11
347.1292294776059
 21
466.8171276767661
 31
0.0000000000000000
  0
MTEXT
  5
50
100
AcDbEntity
  8
MAIN0
  6
BYBLOCK
 62
0
100
AcDbMText
 10
347.6292296365517
 20
489.7749100051376
 30
0.0000000000000000
 40
10.33333301544190
 41
0.0000000000000000
 71
     5
 72
     1
  1
\A1;70
 11
6.123233995736766e-017
 21
1.000000000000000
 31
0.0000000000000000
  7
STANDARD
  0
ENDBLK
  5
51
100
AcDbEntity
  8
MAIN0
  6
CONTINUOUS
 62
3
100
AcDbBlockEnd
  0
BLOCK
  5
53
100
AcDbEntity
  8
MAIN0
  6
CONTINUOUS
 62
3
100
AcDbBlockBegin
  2
*D1
 70
    65
 10
0.0
 20
0.0
 30
0.0
  0
LINE
  5
54
100
AcDbEntity
  8
MAIN0
  6
BYBLOCK
 62
0
100
AcDbLine
 10
368.5292294381026
 20
466.8171276767661
 30
0.0000000000000000
 11
347.1292294776059
 21
466.8171276767661
 31
0.0000000000000000
  0
LINE
  5
55
100
AcDbEntity
  8
MAIN0
  6
BYBLOCK
 62
0
100
AcDbLine
 10
353.7958961442726
 20
460.1504610100993
 30
0.0000000000000000
 11
353.7958961442726
 21
363.4837943489328
 31
0.0000000000000000
  0
INSERT
  5
56
100
AcDbEntity
  8
MAIN0
  6
BYBLOCK
 62
0
100
AcDbBlockReference
  2
_OPEN
 10
353.7958961442726
 20
466.8171276767660
 30
0.0000000000000000
 41
6.666666666666667
 42
6.666666666666667
 43
6.666666666666667
 50
90.00000000000000
  0
INSERT
  5
57
100
AcDbEntity
  8
MAIN0
  6
BYBLOCK
 62
0
100
AcDbBlockReference
  2
_OPEN
 10
353.7958961442726
 20
356.8171276822661
 30
0.0000000000000000
 41
6.666666666666667
 42
6.666666666666667
 43
6.666666666666667
 50
270.0000000000000
  0
LINE
  5
58
100
AcDbEntity
  8
MAIN0
  6
BYBLOCK
 62
0
100
AcDbLine
 10
367.5292294378708
 20
356.8171276822661
 30
0.0000000000000000
 11
347.1292294776059
 21
356.8171276822661
 31
0.0000000000000000
  0
MTEXT
  5
59
100
AcDbEntity
  8
MAIN0
  6
BYBLOCK
 62
0
100
AcDbMText
 10
348.1292296365517
 20
411.8171276795160
 30
0.0000000000000000
 40
10.33333301544190
 41
0.0000000000000000
 71
     5
 72
     1
  1
\A1;110
 11
6.123233995736766e-017
 21
1.000000000000000
 31
0.0000000000000000
  7
STANDARD
  0
ENDBLK
  5
5A
100
AcDbEntity
  8
MAIN0
  6
CONTINUOUS
 62
3
100
AcDbBlockEnd
  0
BLOCK
  5
5C
100
AcDbEntity
  8
MAIN0
  6
CONTINUOUS
 62
3
100
AcDbBlockBegin
  2
*D2
 70
    65
 10
0.0
 20
0.0
 30
0.0
  0
LINE
  5
5D
100
AcDbEntity
  8
MAIN0
  6
BYBLOCK
 62
0
100
AcDbLine
 10
368.3292294381024
 20
536.8171276767666
 30
0.0000000000000000
 11
331.1292294776059
 21
536.8171276767664
 31
0.0000000000000000
  0
LINE
  5
5E
100
AcDbEntity
  8
MAIN0
  6
BYBLOCK
 62
0
100
AcDbLine
 10
337.7958961442726
 20
530.1504610100998
 30
0.0000000000000000
 11
337.7958961442726
 21
363.4837943489328
 31
0.0000000000000000
  0
INSERT
  5
5F
100
AcDbEntity
  8
MAIN0
  6
BYBLOCK
 62
0
100
AcDbBlockReference
  2
_OPEN
 10
337.7958961442726
 20
536.8171276767664
 30
0.0000000000000000
 41
6.666666666666667
 42
6.666666666666667
 43
6.666666666666667
 50
90.00000000000000
  0
INSERT
  5
60
100
AcDbEntity
  8
MAIN0
  6
BYBLOCK
 62
0
100
AcDbBlockReference
  2
_OPEN
 10
337.7958961442726
 20
356.8171276822661
 30
0.0000000000000000
 41
6.666666666666667
 42
6.666666666666667
 43
6.666666666666667
 50
270.0000000000000
  0
LINE
  5
61
100
AcDbEntity
  8
MAIN0
  6
BYBLOCK
 62
0
100
AcDbLine
 10
367.5292294378708
 20
356.8171276822661
 30
0.0000000000000000
 11
331.1292294776059
 21
356.8171276822661
 31
0.0000000000000000
  0
MTEXT
  5
62
100
AcDbEntity
  8
MAIN0
  6
BYBLOCK
 62
0
100
AcDbMText
 10
332.1292296365517
 20
446.8171276795163
 30
0.0000000000000000
 40
10.33333301544190
 41
0.0000000000000000
 71
     5
 72
     1
  1
\A1;180
 11
6.123233995736766e-017
 21
1.000000000000000
 31
0.0000000000000000
  7
STANDARD
  0
ENDBLK
  5
63
100
AcDbEntity
  8
MAIN0
  6
CONTINUOUS
 62
3
100
AcDbBlockEnd
  0
BLOCK
  5
65
100
AcDbEntity
  8
MAIN0
  6
CONTINUOUS
 62
3
100
AcDbBlockBegin
  2
*D3
 70
    65
 10
0.0
 20
0.0
 30
0.0
  0
LINE
  5
66
100
AcDbEntity
  8
MAIN0
  6
BYBLOCK
 62
0
100
AcDbLine
 10
537.7958961442727
 20
349.1504609753375
 30
0.0000000000000000
 11
537.7958961442727
 21
325.1504610150735
 31
0.0000000000000000
  0
LINE
  5
67
100
AcDbEntity
  8
MAIN0
  6
BYBLOCK
 62
0
100
AcDbLine
 10
537.7958961442727
 20
331.8171276817402
 30
0.0000000000000000
 11
555.7958961442727
 21
331.8171276817402
 31
0.0000000000000000
  0
INSERT
  5
68
100
AcDbEntity
  8
MAIN0
  6
BYBLOCK
 62
0
100
AcDbBlockReference
  2
_OPEN
 10
537.7958961442727
 20
331.8171276817402
 30
0.0000000000000000
 41
6.666666666666667
 42
6.666666666666667
 43
6.666666666666667
 50
0.0000000000000000
  0
INSERT
  5
69
100
AcDbEntity
  8
MAIN0
  6
BYBLOCK
 62
0
100
AcDbBlockReference
  2
_OPEN
 10
555.7958961442727
 20
331.8171276817402
 30
0.0000000000000000
 41
6.666666666666667
 42
6.666666666666667
 43
6.666666666666667
 50
180.0000000000000
  0
LINE
  5
6A
100
AcDbEntity
  8
MAIN0
  6
BYBLOCK
 62
0
100
AcDbLine
 10
531.1292294776060
 20
331.8171276817402
 30
0.0000000000000000
 11
513.7188578691722
 21
331.8171276817402
 31
0.0000000000000000
  0
LINE
  5
6B
100
AcDbEntity
  8
MAIN0
  6
BYBLOCK
 62
0
100
AcDbLine
 10
562.4625628109393
 20
331.8171276817402
 30
0.0000000000000000
 11
565.7958961442727
 21
331.8171276817402
 31
0.0000000000000000
  0
LINE
  5
6C
100
AcDbEntity
  8
MAIN0
  6
BYBLOCK
 62
0
100
AcDbLine
 10
555.7958961442727
 20
349.1504609753375
 30
0.0000000000000000
 11
555.7958961442727
 21
325.1504610150735
 31
0.0000000000000000
  0
MTEXT
  5
6D
100
AcDbEntity
  8
MAIN0
  6
BYBLOCK
 62
0
100
AcDbMText
 10
520.5521910435598
 20
338.6504608561278
 30
0.0000000000000000
 40
10.33333301544190
 41
0.0000000000000000
 71
     5
 72
     1
  1
\A1;18
 11
1.000000000000000
 21
0.0000000000000000
 31
0.0000000000000000
  7
STANDARD
  0
ENDBLK
  5
6E
100
AcDbEntity
  8
MAIN0
  6
CONTINUOUS
 62
3
100
AcDbBlockEnd
  0
BLOCK
  5
70
100
AcDbEntity
  8
MAIN0
  6
CONTINUOUS
 62
3
100
AcDbBlockBegin
  2
*D4
 70
    65
 10
0.0
 20
0.0
 30
0.0
  0
LINE
  5
71
100
AcDbEntity
  8
MAIN0
  6
BYBLOCK
 62
0
100
AcDbLine
 10
369.7958961442743
 20
354.5504609758627
 30
0.0000000000000000
 11
369.7958961442745
 21
265.1504610155740
 31
0.0000000000000000
  0
LINE
  5
72
100
AcDbEntity
  8
MAIN0
  6
BYBLOCK
 62
0
100
AcDbLine
 10
376.4625628109412
 20
271.8171276822407
 30
0.0000000000000000
 11
540.1292294776060
 21
271.8171276822407
 31
0.0000000000000000
  0
INSERT
  5
73
100
AcDbEntity
  8
MAIN0
  6
BYBLOCK
 62
0
100
AcDbBlockReference
  2
_OPEN
 10
369.7958961442745
 20
271.8171276822407
 30
0.0000000000000000
 41
6.666666666666667
 42
6.666666666666667
 43
6.666666666666667
 50
180.0000000000000
  0
INSERT
  5
74
100
AcDbEntity
  8
MAIN0
  6
BYBLOCK
 62
0
100
AcDbBlockReference
  2
_OPEN
 10
546.7958961442727
 20
271.8171276822407
 30
0.0000000000000000
 41
6.666666666666667
 42
6.666666666666667
 43
6.666666666666667
 50
0.0000000000000000
  0
LINE
  5
75
100
AcDbEntity
  8
MAIN0
  6
BYBLOCK
 62
0
100
AcDbLine
 10
546.7958961442727
 20
340.1607437151112
 30
0.0000000000000000
 11
546.7958961442727
 21
265.1504610155740
 31
0.0000000000000000
  0
MTEXT
  5
76
100
AcDbEntity
  8
MAIN0
  6
BYBLOCK
 62
0
100
AcDbMText
 10
478.8970793681452
 20
277.9837941899617
 30
0.0000000000000000
 40
10.33333301544190
 41
0.0000000000000000
 71
     5
 72
     1
  1
\A1;177
 11
1.000000000000000
 21
0.0000000000000000
 31
0.0000000000000000
  7
STANDARD
  0
ENDBLK
  5
77
100
AcDbEntity
  8
MAIN0
  6
CONTINUOUS
 62
3
100
AcDbBlockEnd
  0
BLOCK
  5
79
100
AcDbEntity
  8
MAIN0
  6
CONTINUOUS
 62
3
100
AcDbBlockBegin
  2
*D5
 70
    65
 10
0.0
 20
0.0
 30
0.0
  0
LINE
  5
7A
100
AcDbEntity
  8
MAIN0
  6
BYBLOCK
 62
0
100
AcDbLine
 10
546.7958961442727
 20
340.1607437151112
 30
0.0000000000000000
 11
546.7958961442727
 21
265.1504610155740
 31
0.0000000000000000
  0
LINE
  5
7B
100
AcDbEntity
  8
MAIN0
  6
BYBLOCK
 62
0
100
AcDbLine
 10
553.4625628109395
 20
271.8171276822407
 30
0.0000000000000000
 11
968.1292294779278
 21
271.8171276822407
 31
0.0000000000000000
  0
INSERT
  5
7C
100
AcDbEntity
  8
MAIN0
  6
BYBLOCK
 62
0
100
AcDbBlockReference
  2
_OPEN
 10
546.7958961442729
 20
271.8171276822407
 30
0.0000000000000000
 41
6.666666666666667
 42
6.666666666666667
 43
6.666666666666667
 50
180.0000000000000
  0
INSERT
  5
7D
100
AcDbEntity
  8
MAIN0
  6
BYBLOCK
 62
0
100
AcDbBlockReference
  2
_OPEN
 10
974.7958961445943
 20
271.8171276822407
 30
0.0000000000000000
 41
6.666666666666667
 42
6.666666666666667
 43
6.666666666666667
 50
0.0000000000000000
  0
LINE
  5
7E
100
AcDbEntity
  8
MAIN0
  6
BYBLOCK
 62
0
100
AcDbLine
 10
974.7958961445943
 20
404.1504609733118
 30
0.0000000000000000
 11
974.7958961445943
 21
265.1504610155740
 31
0.0000000000000000
  0
MTEXT
  5
7F
100
AcDbEntity
  8
MAIN0
  6
BYBLOCK
 62
0
100
AcDbMText
 10
722.8180819596856
 20
277.9837941899617
 30
0.0000000000000000
 40
10.33333301544190
 41
0.0000000000000000
 71
     5
 72
     1
  1
\A1;428
 11
1.000000000000000
 21
0.0000000000000000
 31
0.0000000000000000
  7
STANDARD
  0
ENDBLK
  5
80
100
AcDbEntity
  8
MAIN0
  6
CONTINUOUS
 62
3
100
AcDbBlockEnd
  0
BLOCK
  5
82
100
AcDbEntity
  8
MAIN0
  6
CONTINUOUS
 62
3
100
AcDbBlockBegin
  2
*D6
 70
    65
 10
0.0
 20
0.0
 30
0.0
  0
LINE
  5
83
100
AcDbEntity
  8
MAIN0
  6
BYBLOCK
 62
0
100
AcDbLine
 10
974.7958961445945
 20
404.1504609733118
 30
0.0000000000000000
 11
974.7958961445943
 21
245.1504610150735
 31
0.0000000000000000
  0
LINE
  5
84
100
AcDbEntity
  8
MAIN0
  6
BYBLOCK
 62
0
100
AcDbLine
 10
968.1292294779275
 20
251.8171276817402
 30
0.0000000000000000
 11
376.4625628109412
 21
251.8171276817402
 31
0.0000000000000000
  0
INSERT
  5
85
100
AcDbEntity
  8
MAIN0
  6
BYBLOCK
 62
0
100
AcDbBlockReference
  2
_OPEN
 10
974.7958961445941
 20
251.8171276817402
 30
0.0000000000000000
 41
6.666666666666667
 42
6.666666666666667
 43
6.666666666666667
 50
360.0000000000000
  0
INSERT
  5
86
100
AcDbEntity
  8
MAIN0
  6
BYBLOCK
 62
0
100
AcDbBlockReference
  2
_OPEN
 10
369.7958961442745
 20
251.8171276817402
 30
0.0000000000000000
 41
6.666666666666667
 42
6.666666666666667
 43
6.666666666666667
 50
180.0000000000000
  0
LINE
  5
87
100
AcDbEntity
  8
MAIN0
  6
BYBLOCK
 62
0
100
AcDbLine
 10
369.7958961442743
 20
354.5504609758627
 30
0.0000000000000000
 11
369.7958961442745
 21
245.1504610150735
 31
0.0000000000000000
  0
MTEXT
  5
88
100
AcDbEntity
  8
MAIN0
  6
BYBLOCK
 62
0
100
AcDbMText
 10
703.4149744662744
 20
257.9837941894611
 30
0.0000000000000000
 40
10.33333301544190
 41
0.0000000000000000
 71
     5
 72
     1
  1
\A1;605
 11
1.000000000000000
 21
0.0000000000000000
 31
0.0000000000000000
  7
STANDARD
  0
ENDBLK
  5
89
100
AcDbEntity
  8
MAIN0
  6
CONTINUOUS
 62
3
100
AcDbBlockEnd
  0
BLOCK
  5
8B
100
AcDbEntity
  8
MAIN0
  6
CONTINUOUS
 62
3
100
AcDbBlockBegin
  2
*D7
 70
    65
 10
0.0
 20
0.0
 30
0.0
  0
LINE
  5
8C
100
AcDbEntity
  8
MAIN0
  6
BYBLOCK
 62
0
100
AcDbLine
 10
1035.930808359362
 20
709.6447000661092
 30
0.0000000000000000
 11
967.2307666936276
 21
709.6447000661092
 31
0.0000000000000000
  0
LINE
  5
8D
100
AcDbEntity
  8
MAIN0
  6
BYBLOCK
 62
0
100
AcDbLine
 10
973.8974333602941
 20
702.9780333994424
 30
0.0000000000000000
 11
973.8974333602941
 21
491.3113667327758
 31
0.0000000000000000
  0
INSERT
  5
8E
100
AcDbEntity
  8
MAIN0
  6
BYBLOCK
 62
0
100
AcDbBlockReference
  2
_OPEN
 10
973.8974333602941
 20
709.6447000661092
 30
0.0000000000000000
 41
6.666666666666667
 42
6.666666666666667
 43
6.666666666666667
 50
90.00000000000000
  0
INSERT
  5
8F
100
AcDbEntity
  8
MAIN0
  6
BYBLOCK
 62
0
100
AcDbBlockReference
  2
_OPEN
 10
973.8974333602941
 20
484.6447000661091
 30
0.0000000000000000
 41
6.666666666666667
 42
6.666666666666667
 43
6.666666666666667
 50
270.0000000000000
  0
LINE
  5
90
100
AcDbEntity
  8
MAIN0
  6
BYBLOCK
 62
0
100
AcDbLine
 10
979.4115135265195
 20
484.6447000661091
 30
0.0000000000000000
 11
967.2307666936276
 21
484.6447000661091
 31
0.0000000000000000
  0
MTEXT
  5
91
100
AcDbEntity
  8
MAIN0
  6
BYBLOCK
 62
0
100
AcDbMText
 10
968.2307668525732
 20
597.1447000661092
 30
0.0000000000000000
 40
10.33333301544190
 41
0.0000000000000000
 71
     5
 72
     1
  1
\A1;225
 11
6.123233995736766e-017
 21
1.000000000000000
 31
0.0000000000000000
  7
STANDARD
  0
ENDBLK
  5
92
100
AcDbEntity
  8
MAIN0
  6
CONTINUOUS
 62
3
100
AcDbBlockEnd
  0
BLOCK
  5
94
100
AcDbEntity
  8
MAIN0
  6
CONTINUOUS
 62
3
100
AcDbBlockBegin
  2
*D8
 70
    65
 10
0.0
 20
0.0
 30
0.0
  0
LINE
  5
95
100
AcDbEntity
  8
MAIN0
  6
BYBLOCK
 62
0
100
AcDbLine
 10
369.7958961447409
 20
468.4837943830437
 30
0.0000000000000000
 11
369.7958961447411
 21
603.4837943463878
 31
0.0000000000000000
  0
LINE
  5
96
100
AcDbEntity
  8
MAIN0
  6
BYBLOCK
 62
0
100
AcDbLine
 10
369.7958961447411
 20
596.8171276797211
 30
0.0000000000000000
 11
370.7958961445060
 21
596.8171276797211
 31
0.0000000000000000
  0
INSERT
  5
97
100
AcDbEntity
  8
MAIN0
  6
BYBLOCK
 62
0
100
AcDbBlockReference
  2
_OPEN
 10
369.7958961447411
 20
596.8171276797211
 30
0.0000000000000000
 41
6.666666666666667
 42
6.666666666666667
 43
6.666666666666667
 50
0.0000000000000000
  0
INSERT
  5
98
100
AcDbEntity
  8
MAIN0
  6
BYBLOCK
 62
0
100
AcDbBlockReference
  2
_OPEN
 10
370.7958961445060
 20
596.8171276797211
 30
0.0000000000000000
 41
6.666666666666667
 42
6.666666666666667
 43
6.666666666666667
 50
180.0000000000000
  0
LINE
  5
99
100
AcDbEntity
  8
MAIN0
  6
BYBLOCK
 62
0
100
AcDbLine
 10
363.1292294780744
 20
596.8171276797211
 30
0.0000000000000000
 11
354.1876977072815
 21
596.8171276797211
 31
0.0000000000000000
  0
LINE
  5
9A
100
AcDbEntity
  8
MAIN0
  6
BYBLOCK
 62
0
100
AcDbLine
 10
377.4625628111726
 20
596.8171276797211
 30
0.0000000000000000
 11
380.7958961445060
 21
596.8171276797211
 31
0.0000000000000000
  0
LINE
  5
9B
100
AcDbEntity
  8
MAIN0
  6
BYBLOCK
 62
0
100
AcDbLine
 10
370.7958961445057
 20
539.2837943831693
 30
0.0000000000000000
 11
370.7958961445059
 21
603.4837943463878
 31
0.0000000000000000
  0
MTEXT
  5
9C
100
AcDbEntity
  8
MAIN0
  6
BYBLOCK
 62
0
100
AcDbMText
 10
357.5210310406148
 20
603.6504608541086
 30
0.0000000000000000
 40
10.33333301544190
 41
0.0000000000000000
 71
     5
 72
     1
  1
\A1;1
 11
1.000000000000000
 21
0.0000000000000000
 31
0.0000000000000000
  7
STANDARD
  0
ENDBLK
  5
9D
100
AcDbEntity
  8
MAIN0
  6
CONTINUOUS
 62
3
100
AcDbBlockEnd
  0
BLOCK
  5
9F
100
AcDbEntity
  8
MAIN0
  6
CONTINUOUS
 62
3
100
AcDbBlockBegin
  2
*D9
 70
    65
 10
0.0
 20
0.0
 30
0.0
  0
LINE
  5
A0
100
AcDbEntity
  8
MAIN0
  6
BYBLOCK
 62
0
100
AcDbLine
 10
370.7958961445057
 20
539.2837943831693
 30
0.0000000000000000
 11
370.7958961445059
 21
603.4837943463878
 31
0.0000000000000000
  0
LINE
  5
A1
100
AcDbEntity
  8
MAIN0
  6
BYBLOCK
 62
0
100
AcDbLine
 10
377.4625628111726
 20
596.8171276797211
 30
0.0000000000000000
 11
466.1292294778390
 21
596.8171276797211
 31
0.0000000000000000
  0
INSERT
  5
A2
100
AcDbEntity
  8
MAIN0
  6
BYBLOCK
 62
0
100
AcDbBlockReference
  2
_OPEN
 10
370.7958961445060
 20
596.8171276797211
 30
0.0000000000000000
 41
6.666666666666667
 42
6.666666666666667
 43
6.666666666666667
 50
180.0000000000000
  0
INSERT
  5
A3
100
AcDbEntity
  8
MAIN0
  6
BYBLOCK
 62
0
100
AcDbBlockReference
  2
_OPEN
 10
472.7958961445057
 20
596.8171276797211
 30
0.0000000000000000
 41
6.666666666666667
 42
6.666666666666667
 43
6.666666666666667
 50
0.0000000000000000
  0
LINE
  5
A4
100
AcDbEntity
  8
MAIN0
  6
BYBLOCK
 62
0
100
AcDbLine
 10
472.7958961445057
 20
538.9837943831692
 30
0.0000000000000000
 11
472.7958961445057
 21
603.4837943463878
 31
0.0000000000000000
  0
MTEXT
  5
A5
100
AcDbEntity
  8
MAIN0
  6
BYBLOCK
 62
0
100
AcDbMText
 10
421.7958961445058
 20
602.4837941874421
 30
0.0000000000000000
 40
10.33333301544190
 41
0.0000000000000000
 71
     5
 72
     1
  1
\A1;102
 11
1.000000000000000
 21
0.0000000000000000
 31
0.0000000000000000
  7
STANDARD
  0
ENDBLK
  5
A6
100
AcDbEntity
  8
MAIN0
  6
CONTINUOUS
 62
3
100
AcDbBlockEnd
  0
BLOCK
  5
A8
100
AcDbEntity
  8
MAIN0
  6
CONTINUOUS
 62
3
100
AcDbBlockBegin
  2
*D10
 70
    65
 10
0.0
 20
0.0
 30
0.0
  0
LINE
  5
A9
100
AcDbEntity
  8
MAIN0
  6
BYBLOCK
 62
0
100
AcDbLine
 10
472.7958961445057
 20
538.9837943831692
 30
0.0000000000000000
 11
472.7958961445057
 21
603.4837943463878
 31
0.0000000000000000
  0
LINE
  5
AA
100
AcDbEntity
  8
MAIN0
  6
BYBLOCK
 62
0
100
AcDbLine
 10
479.4625628111724
 20
596.8171276797211
 30
0.0000000000000000
 11
566.1292294778391
 21
596.8171276797211
 31
0.0000000000000000
  0
INSERT
  5
AB
100
AcDbEntity
  8
MAIN0
  6
BYBLOCK
 62
0
100
AcDbBlockReference
  2
_OPEN
 10
472.7958961445057
 20
596.8171276797211
 30
0.0000000000000000
 41
6.666666666666667
 42
6.666666666666667
 43
6.666666666666667
 50
180.0000000000000
  0
INSERT
  5
AC
100
AcDbEntity
  8
MAIN0
  6
BYBLOCK
 62
0
100
AcDbBlockReference
  2
_OPEN
 10
572.7958961445057
 20
596.8171276797211
 30
0.0000000000000000
 41
6.666666666666667
 42
6.666666666666667
 43
6.666666666666667
 50
0.0000000000000000
  0
LINE
  5
AD
100
AcDbEntity
  8
MAIN0
  6
BYBLOCK
 62
0
100
AcDbLine
 10
572.7958961445057
 20
539.2837943833667
 30
0.0000000000000000
 11
572.7958961445057
 21
603.4837943463878
 31
0.0000000000000000
  0
MTEXT
  5
AE
100
AcDbEntity
  8
MAIN0
  6
BYBLOCK
 62
0
100
AcDbMText
 10
522.7958961445057
 20
602.4837941874421
 30
0.0000000000000000
 40
10.33333301544190
 41
0.0000000000000000
 71
     5
 72
     1
  1
\A1;MAX 303
 11
1.000000000000000
 21
0.0000000000000000
 31
0.0000000000000000
  7
STANDARD
  0
ENDBLK
  5
AF
100
AcDbEntity
  8
MAIN0
  6
CONTINUOUS
 62
3
100
AcDbBlockEnd
  0
BLOCK
  5
B1
100
AcDbEntity
  8
MAIN0
  6
CONTINUOUS
 62
1
100
AcDbBlockBegin
  2
*D11
 70
    65
 10
0.0
 20
0.0
 30
0.0
  0
LINE
  5
B2
100
AcDbEntity
  8
MAIN0
  6
BYBLOCK
 62
0
100
AcDbLine
 10
572.7958961445057
 20
539.2837943833667
 30
0.0000000000000000
 11
572.7958961445057
 21
603.4837943463878
 31
0.0000000000000000
  0
LINE
  5
B3
100
AcDbEntity
  8
MAIN0
  6
BYBLOCK
 62
0
100
AcDbLine
 10
579.4625628111724
 20
596.8171276797211
 30
0.0000000000000000
 11
664.1292294778393
 21
596.8171276797211
 31
0.0000000000000000
  0
INSERT
  5
B4
100
AcDbEntity
  8
MAIN0
  6
BYBLOCK
 62
0
100
AcDbBlockReference
  2
_OPEN
 10
572.7958961445057
 20
596.8171276797211
 30
0.0000000000000000
 41
6.666666666666667
 42
6.666666666666667
 43
6.666666666666667
 50
180.0000000000000
  0
INSERT
  5
B5
100
AcDbEntity
  8
MAIN0
  6
BYBLOCK
 62
0
100
AcDbBlockReference
  2
_OPEN
 10
670.7958961445060
 20
596.8171276797211
 30
0.0000000000000000
 41
6.666666666666667
 42
6.666666666666667
 43
6.666666666666667
 50
0.0000000000000000
  0
LINE
  5
B6
100
AcDbEntity
  8
MAIN0
  6
BYBLOCK
 62
0
100
AcDbLine
 10
670.7958961445062
 20
538.9837943833663
 30
0.0000000000000000
 11
670.7958961445060
 21
603.4837943463878
 31
0.0000000000000000
  0
MTEXT
  5
B7
100
AcDbEntity
  8
MAIN0
  6
BYBLOCK
 62
0
100
AcDbMText
 10
621.7958961445058
 20
602.4837941874421
 30
0.0000000000000000
 40
10.33333301544190
 41
0.0000000000000000
 71
     5
 72
     1
  1
\A1;98
 11
1.000000000000000
 21
0.0000000000000000
 31
0.0000000000000000
  7
STANDARD
  0
ENDBLK
  5
B8
100
AcDbEntity
  8
MAIN0
  6
CONTINUOUS
 62
1
100
AcDbBlockEnd
  0
BLOCK
  5
BA
100
AcDbEntity
  8
MAIN0
  6
CONTINUOUS
 62
3
100
AcDbBlockBegin
  2
*D12
 70
    65
 10
0.0
 20
0.0
 30
0.0
  0
LINE
  5
BB
100
AcDbEntity
  8
MAIN0
  6
BYBLOCK
 62
0
100
AcDbLine
 10
558.4625628506758
 20
351.8171276817406
 30
0.0000000000000000
 11
592.4625628109426
 21
351.8171276817406
 31
0.0000000000000000
  0
LINE
  5
BC
100
AcDbEntity
  8
MAIN0
  6
BYBLOCK
 62
0
100
AcDbLine
 10
585.7958961442760
 20
351.8171276817406
 30
0.0000000000000000
 11
585.7958961442760
 21
356.8171276816839
 31
0.0000000000000000
  0
INSERT
  5
BD
100
AcDbEntity
  8
MAIN0
  6
BYBLOCK
 62
0
100
AcDbBlockReference
  2
_OPEN
 10
585.7958961442760
 20
351.8171276817406
 30
0.0000000000000000
 41
6.666666666666667
 42
6.666666666666667
 43
6.666666666666667
 50
90.00000000000000
  0
INSERT
  5
BE
100
AcDbEntity
  8
MAIN0
  6
BYBLOCK
 62
0
100
AcDbBlockReference
  2
_OPEN
 10
585.7958961442760
 20
356.8171276816839
 30
0.0000000000000000
 41
6.666666666666667
 42
6.666666666666667
 43
6.666666666666667
 50
270.0000000000000
  0
LINE
  5
BF
100
AcDbEntity
  8
MAIN0
  6
BYBLOCK
 62
0
100
AcDbLine
 10
585.7958961442760
 20
345.1504610150739
 30
0.0000000000000000
 11
585.7958961442760
 21
335.4376017097889
 31
0.0000000000000000
  0
LINE
  5
C0
100
AcDbEntity
  8
MAIN0
  6
BYBLOCK
 62
0
100
AcDbLine
 10
585.7958961442760
 20
363.4837943483506
 30
0.0000000000000000
 11
585.7958961442760
 21
366.8171276816839
 31
0.0000000000000000
  0
MTEXT
  5
C1
100
AcDbEntity
  8
MAIN0
  6
BYBLOCK
 62
0
100
AcDbMText
 10
578.9625629698884
 20
338.7709350431222
 30
0.0000000000000000
 40
10.33333301544190
 41
0.0000000000000000
 71
     5
 72
     1
  1
\A1;5
 11
6.123233995736766e-017
 21
1.000000000000000
 31
0.0000000000000000
  7
STANDARD
  0
ENDBLK
  5
C2
100
AcDbEntity
  8
MAIN0
  6
CONTINUOUS
 62
3
100
AcDbBlockEnd
  0
BLOCK
  5
C4
100
AcDbEntity
  8
MAIN0
  6
CONTINUOUS
 62
3
100
AcDbBlockBegin
  2
*D13
 70
    65
 10
0.0
 20
0.0
 30
0.0
  0
LINE
  5
C5
100
AcDbEntity
  8
MAIN0
  6
BYBLOCK
 62
0
100
AcDbLine
 10
421.7958961434066
 20
539.4837943831690
 30
0.0000000000000000
 11
421.7958961434066
 21
583.4837943463878
 31
0.0000000000000000
  0
LINE
  5
C6
100
AcDbEntity
  8
MAIN0
  6
BYBLOCK
 62
0
100
AcDbLine
 10
428.4625628100733
 20
576.8171276797211
 30
0.0000000000000000
 11
466.1292294778390
 21
576.8171276797211
 31
0.0000000000000000
  0
INSERT
  5
C7
100
AcDbEntity
  8
MAIN0
  6
BYBLOCK
 62
0
100
AcDbBlockReference
  2
_OPEN
 10
421.7958961434066
 20
576.8171276797211
 30
0.0000000000000000
 41
6.666666666666667
 42
6.666666666666667
 43
6.666666666666667
 50
180.0000000000000
  0
INSERT
  5
C8
100
AcDbEntity
  8
MAIN0
  6
BYBLOCK
 62
0
100
AcDbBlockReference
  2
_OPEN
 10
472.7958961445057
 20
576.8171276797211
 30
0.0000000000000000
 41
6.666666666666667
 42
6.666666666666667
 43
6.666666666666667
 50
0.0000000000000000
  0
LINE
  5
C9
100
AcDbEntity
  8
MAIN0
  6
BYBLOCK
 62
0
100
AcDbLine
 10
472.7958961445057
 20
538.9837943831692
 30
0.0000000000000000
 11
472.7958961445057
 21
583.4837943463878
 31
0.0000000000000000
  0
MTEXT
  5
CA
100
AcDbEntity
  8
MAIN0
  6
BYBLOCK
 62
0
100
AcDbMText
 10
447.2958961439562
 20
582.4837941874421
 30
0.0000000000000000
 40
10.33333301544190
 41
0.0000000000000000
 71
     5
 72
     1
  1
\A1;51
 11
1.000000000000000
 21
0.0000000000000000
 31
0.0000000000000000
  7
STANDARD
  0
ENDBLK
  5
CB
100
AcDbEntity
  8
MAIN0
  6
CONTINUOUS
 62
3
100
AcDbBlockEnd
  0
BLOCK
  5
CD
100
AcDbEntity
  8
MAIN0
  6
CONTINUOUS
 62
3
100
AcDbBlockBegin
  2
*D14
 70
    65
 10
0.0
 20
0.0
 30
0.0
  0
LINE
  5
CE
100
AcDbEntity
  8
MAIN0
  6
BYBLOCK
 62
0
100
AcDbLine
 10
451.7958961434061
 20
536.8171276767664
 30
0.0000000000000000
 11
451.7958961434061
 21
527.8171276767660
 31
0.0000000000000000
  0
INSERT
  5
CF
100
AcDbEntity
  8
MAIN0
  6
BYBLOCK
 62
0
100
AcDbBlockReference
  2
_OPEN
 10
451.7958961434061
 20
536.8171276767664
 30
0.0000000000000000
 41
6.666666666666667
 42
6.666666666666667
 43
6.666666666666667
 50
270.0000000000000
  0
INSERT
  5
D0
100
AcDbEntity
  8
MAIN0
  6
BYBLOCK
 62
0
100
AcDbBlockReference
  2
_DOT
 10
451.7958961434061
 20
526.8171276767660
 30
0.0000000000000000
 41
3.333333333333334
 42
3.333333333333334
 43
3.333333333333334
 50
270.0000000000000
  0
LINE
  5
D1
100
AcDbEntity
  8
MAIN0
  6
BYBLOCK
 62
0
100
AcDbLine
 10
451.7958961434061
 20
543.4837943434330
 30
0.0000000000000000
 11
451.7958961434061
 21
559.3381385050460
 31
0.0000000000000000
  0
LINE
  5
D2
100
AcDbEntity
  8
MAIN0
  6
BYBLOCK
 62
0
100
AcDbLine
 10
434.4625628498097
 20
526.8171276767660
 30
0.0000000000000000
 11
458.4625628100728
 21
526.8171276767660
 31
0.0000000000000000
  0
MTEXT
  5
D3
100
AcDbEntity
  8
MAIN0
  6
BYBLOCK
 62
0
100
AcDbMText
 10
444.9625629690185
 20
552.5048053306584
 30
0.0000000000000000
 40
10.33333301544190
 41
0.0000000000000000
 71
     5
 72
     1
  1
\A1;10
 11
6.123233995736766e-017
 21
1.000000000000000
 31
0.0000000000000000
  7
STANDARD
  0
ENDBLK
  5
D4
100
AcDbEntity
  8
MAIN0
  6
CONTINUOUS
 62
3
100
AcDbBlockEnd
  0
BLOCK
  5
D6
100
AcDbEntity
  8
MAIN0
  6
CONTINUOUS
 62
3
100
AcDbBlockBegin
  2
*D15
 70
    65
 10
0.0
 20
0.0
 30
0.0
  0
LINE
  5
D7
100
AcDbEntity
  8
MAIN0
  6
BYBLOCK
 62
0
100
AcDbLine
 10
434.4625628498097
 20
526.8171276767660
 30
0.0000000000000000
 11
458.4625628100728
 21
526.8171276767660
 31
0.0000000000000000
  0
LINE
  5
D8
100
AcDbEntity
  8
MAIN0
  6
BYBLOCK
 62
0
100
AcDbLine
 10
451.7958961434061
 20
525.8171276767660
 30
0.0000000000000000
 11
451.7958961434061
 21
506.8171276767660
 31
0.0000000000000000
  0
INSERT
  5
D9
100
AcDbEntity
  8
MAIN0
  6
BYBLOCK
 62
0
100
AcDbBlockReference
  2
_DOT
 10
451.7958961434061
 20
526.8171276767660
 30
0.0000000000000000
 41
3.333333333333334
 42
3.333333333333334
 43
3.333333333333334
 50
90.00000000000000
  0
INSERT
  5
DA
100
AcDbEntity
  8
MAIN0
  6
BYBLOCK
 62
0
100
AcDbBlockReference
  2
_OPEN
 10
451.7958961434061
 20
506.8171276767660
 30
0.0000000000000000
 41
6.666666666666667
 42
6.666666666666667
 43
6.666666666666667
 50
90.00000000000000
  0
LINE
  5
DB
100
AcDbEntity
  8
MAIN0
  6
BYBLOCK
 62
0
100
AcDbLine
 10
451.7958961434061
 20
500.1504610100993
 30
0.0000000000000000
 11
451.7958961434061
 21
496.8171276767660
 31
0.0000000000000000
  0
LINE
  5
DC
100
AcDbEntity
  8
MAIN0
  6
BYBLOCK
 62
0
100
AcDbLine
 10
434.4625628498097
 20
506.8171276767660
 30
0.0000000000000000
 11
458.4625628100728
 21
506.8171276767660
 31
0.0000000000000000
  0
MTEXT
  5
DD
100
AcDbEntity
  8
MAIN0
  6
BYBLOCK
 62
0
100
AcDbMText
 10
446.1292296356852
 20
516.8171276767660
 30
0.0000000000000000
 40
10.33333301544190
 41
0.0000000000000000
 71
     5
 72
     1
  1
\A1;20
 11
6.123233995736766e-017
 21
1.000000000000000
 31
0.0000000000000000
  7
STANDARD
  0
ENDBLK
  5
DE
100
AcDbEntity
  8
MAIN0
  6
CONTINUOUS
 62
3
100
AcDbBlockEnd
  0
BLOCK
  5
E0
100
AcDbEntity
  8
MAIN0
  6
CONTINUOUS
 62
3
100
AcDbBlockBegin
  2
*D16
 70
    65
 10
0.0
 20
0.0
 30
0.0
  0
LINE
  5
E1
100
AcDbEntity
  8
MAIN0
  6
BYBLOCK
 62
0
100
AcDbLine
 10
376.4625628109410
 20
391.8171276793915
 30
0.0000000000000000
 11
478.1292294778722
 21
391.8171276793915
 31
0.0000000000000000
  0
INSERT
  5
E2
100
AcDbEntity
  8
MAIN0
  6
BYBLOCK
 62
0
100
AcDbBlockReference
  2
_OPEN
 10
369.7958961442743
 20
391.8171276793915
 30
0.0000000000000000
 41
6.666666666666667
 42
6.666666666666667
 43
6.666666666666667
 50
180.0000000000000
  0
INSERT
  5
E3
100
AcDbEntity
  8
MAIN0
  6
BYBLOCK
 62
0
100
AcDbBlockReference
  2
_OPEN
 10
484.7958961445389
 20
391.8171276793915
 30
0.0000000000000000
 41
6.666666666666667
 42
6.666666666666667
 43
6.666666666666667
 50
0.0000000000000000
  0
LINE
  5
E4
100
AcDbEntity
  8
MAIN0
  6
BYBLOCK
 62
0
100
AcDbLine
 10
484.7958961445389
 20
397.6504609761399
 30
0.0000000000000000
 11
484.7958961445389
 21
385.1504610127248
 31
0.0000000000000000
  0
MTEXT
  5
E5
100
AcDbEntity
  8
MAIN0
  6
BYBLOCK
 62
0
100
AcDbMText
 10
427.2958961444066
 20
397.4837941871124
 30
0.0000000000000000
 40
10.33333301544190
 41
0.0000000000000000
 71
     5
 72
     1
  1
\A1;115
 11
1.000000000000000
 21
0.0000000000000000
 31
0.0000000000000000
  7
STANDARD
  0
ENDBLK
  5
E6
100
AcDbEntity
  8
MAIN0
  6
CONTINUOUS
 62
3
100
AcDbBlockEnd
  0
BLOCK
  5
E8
100
AcDbEntity
  8
MAIN0
  6
CONTINUOUS
 62
3
100
AcDbBlockBegin
  2
*D17
 70
    65
 10
0.0
 20
0.0
 30
0.0
  0
LINE
  5
E9
100
AcDbEntity
  8
MAIN0
  6
BYBLOCK
 62
0
100
AcDbLine
 10
484.7958961445389
 20
397.6504609761399
 30
0.0000000000000000
 11
484.7958961445389
 21
385.1504610127248
 31
0.0000000000000000
  0
LINE
  5
EA
100
AcDbEntity
  8
MAIN0
  6
BYBLOCK
 62
0
100
AcDbLine
 10
491.4625628112056
 20
391.8171276793915
 30
0.0000000000000000
 11
758.1292294778721
 21
391.8171276793915
 31
0.0000000000000000
  0
INSERT
  5
EB
100
AcDbEntity
  8
MAIN0
  6
BYBLOCK
 62
0
100
AcDbBlockReference
  2
_OPEN
 10
484.7958961445389
 20
391.8171276793915
 30
0.0000000000000000
 41
6.666666666666667
 42
6.666666666666667
 43
6.666666666666667
 50
180.0000000000000
  0
INSERT
  5
EC
100
AcDbEntity
  8
MAIN0
  6
BYBLOCK
 62
0
100
AcDbBlockReference
  2
_OPEN
 10
764.7958961445387
 20
391.8171276793915
 30
0.0000000000000000
 41
6.666666666666667
 42
6.666666666666667
 43
6.666666666666667
 50
0.0000000000000000
  0
LINE
  5
ED
100
AcDbEntity
  8
MAIN0
  6
BYBLOCK
 62
0
100
AcDbLine
 10
764.7958961445387
 20
397.6504609757009
 30
0.0000000000000000
 11
764.7958961445387
 21
385.1504610127248
 31
0.0000000000000000
  0
MTEXT
  5
EE
100
AcDbEntity
  8
MAIN0
  6
BYBLOCK
 62
0
100
AcDbMText
 10
624.7958961445388
 20
397.4837941871124
 30
0.0000000000000000
 40
10.33333301544190
 41
0.0000000000000000
 71
     5
 72
     1
  1
\A1;280
 11
1.000000000000000
 21
0.0000000000000000
 31
0.0000000000000000
  7
STANDARD
  0
ENDBLK
  5
EF
100
AcDbEntity
  8
MAIN0
  6
CONTINUOUS
 62
3
100
AcDbBlockEnd
  0
BLOCK
  5
F1
100
AcDbEntity
  8
MAIN0
  6
CONTINUOUS
 62
3
100
AcDbBlockBegin
  2
*D18
 70
    65
 10
0.0
 20
0.0
 30
0.0
  0
LINE
  5
F2
100
AcDbEntity
  8
MAIN0
  6
BYBLOCK
 62
0
100
AcDbLine
 10
764.7958961445387
 20
397.6504609757009
 30
0.0000000000000000
 11
764.7958961445387
 21
385.1504610127248
 31
0.0000000000000000
  0
LINE
  5
F3
100
AcDbEntity
  8
MAIN0
  6
BYBLOCK
 62
0
100
AcDbLine
 10
771.4625628112053
 20
391.8171276793915
 30
0.0000000000000000
 11
873.1292294776072
 21
391.8171276793915
 31
0.0000000000000000
  0
INSERT
  5
F4
100
AcDbEntity
  8
MAIN0
  6
BYBLOCK
 62
0
100
AcDbBlockReference
  2
_OPEN
 10
764.7958961445387
 20
391.8171276793915
 30
0.0000000000000000
 41
6.666666666666667
 42
6.666666666666667
 43
6.666666666666667
 50
180.0000000000000
  0
INSERT
  5
F5
100
AcDbEntity
  8
MAIN0
  6
BYBLOCK
 62
0
100
AcDbBlockReference
  2
_OPEN
 10
879.7958961442738
 20
391.8171276793915
 30
0.0000000000000000
 41
6.666666666666667
 42
6.666666666666667
 43
6.666666666666667
 50
0.0000000000000000
  0
MTEXT
  5
F6
100
AcDbEntity
  8
MAIN0
  6
BYBLOCK
 62
0
100
AcDbMText
 10
822.2958961444062
 20
397.4837941871124
 30
0.0000000000000000
 40
10.33333301544190
 41
0.0000000000000000
 71
     5
 72
     1
  1
\A1;115
 11
1.000000000000000
 21
0.0000000000000000
 31
0.0000000000000000
  7
STANDARD
  0
ENDBLK
  5
F7
100
AcDbEntity
  8
MAIN0
  6
CONTINUOUS
 62
3
100
AcDbBlockEnd
  0
BLOCK
  5
110
100
AcDbEntity
  8
MAIN0
  6
CONTINUOUS
 62
3
100
AcDbBlockBegin
  2
*D19
 70
    65
 10
0.0
 20
0.0
 30
0.0
  0
LINE
  5
111
100
AcDbEntity
  8
MAIN0
  6
BYBLOCK
 62
0
100
AcDbLine
 10
1359.503184849337
 20
493.6837943861240
 30
0.0000000000000000
 11
1359.503184849337
 21
583.4837943458600
 31
0.0000000000000000
  0
LINE
  5
112
100
AcDbEntity
  8
MAIN0
  6
BYBLOCK
 62
0
100
AcDbLine
 10
1352.836518182671
 20
576.8171276791934
 30
0.0000000000000000
 11
1152.169851516003
 21
576.8171276791934
 31
0.0000000000000000
  0
INSERT
  5
113
100
AcDbEntity
  8
MAIN0
  6
BYBLOCK
 62
0
100
AcDbBlockReference
  2
_OPEN
 10
1359.503184849337
 20
576.8171276791934
 30
0.0000000000000000
 41
6.666666666666667
 42
6.666666666666667
 43
6.666666666666667
 50
360.0000000000000
  0
INSERT
  5
114
100
AcDbEntity
  8
MAIN0
  6
BYBLOCK
 62
0
100
AcDbBlockReference
  2
_OPEN
 10
1145.503184849337
 20
576.8171276791934
 30
0.0000000000000000
 41
6.666666666666667
 42
6.666666666666667
 43
6.666666666666667
 50
180.0000000000000
  0
LINE
  5
115
100
AcDbEntity
  8
MAIN0
  6
BYBLOCK
 62
0
100
AcDbLine
 10
1145.503184849337
 20
493.6837943861240
 30
0.0000000000000000
 11
1145.503184849337
 21
583.4837943458600
 31
0.0000000000000000
  0
MTEXT
  5
116
100
AcDbEntity
  8
MAIN0
  6
BYBLOCK
 62
0
100
AcDbMText
 10
1252.503184849337
 20
582.4837941869143
 30
0.0000000000000000
 40
10.33333301544190
 41
0.0000000000000000
 71
     5
 72
     1
  1
\A1;214
 11
1.000000000000000
 21
0.0000000000000000
 31
0.0000000000000000
  7
STANDARD
  0
ENDBLK
  5
117
100
AcDbEntity
  8
MAIN0
  6
CONTINUOUS
 62
3
100
AcDbBlockEnd
  0
BLOCK
  5
11D
100
AcDbEntity
  8
MAIN0
  6
CONTINUOUS
 62
3
100
AcDbBlockBegin
  2
*D20
 70
    65
 10
0.0
 20
0.0
 30
0.0
  0
LINE
  5
11E
100
AcDbEntity
  8
MAIN0
  6
BYBLOCK
 62
0
100
AcDbLine
 10
1245.503184849564
 20
438.5252462704509
 30
0.0000000000000000
 11
1245.503184849564
 21
563.4837943474314
 31
0.0000000000000000
  0
LINE
  5
11F
100
AcDbEntity
  8
MAIN0
  6
BYBLOCK
 62
0
100
AcDbLine
 10
1245.503184849564
 20
556.8171276807648
 30
0.0000000000000000
 11
1259.503184849565
 21
556.8171276807648
 31
0.0000000000000000
  0
INSERT
  5
120
100
AcDbEntity
  8
MAIN0
  6
BYBLOCK
 62
0
100
AcDbBlockReference
  2
_OPEN
 10
1245.503184849564
 20
556.8171276807648
 30
0.0000000000000000
 41
6.666666666666667
 42
6.666666666666667
 43
6.666666666666667
 50
0.0000000000000000
  0
INSERT
  5
121
100
AcDbEntity
  8
MAIN0
  6
BYBLOCK
 62
0
100
AcDbBlockReference
  2
_OPEN
 10
1259.503184849565
 20
556.8171276807648
 30
0.0000000000000000
 41
6.666666666666667
 42
6.666666666666667
 43
6.666666666666667
 50
180.0000000000000
  0
LINE
  5
122
100
AcDbEntity
  8
MAIN0
  6
BYBLOCK
 62
0
100
AcDbLine
 10
1238.836518182898
 20
556.8171276807648
 30
0.0000000000000000
 11
1235.503184849564
 21
556.8171276807648
 31
0.0000000000000000
  0
LINE
  5
123
100
AcDbEntity
  8
MAIN0
  6
BYBLOCK
 62
0
100
AcDbLine
 10
1266.169851516231
 20
556.8171276807648
 30
0.0000000000000000
 11
1269.503184849565
 21
556.8171276807648
 31
0.0000000000000000
  0
LINE
  5
124
100
AcDbEntity
  8
MAIN0
  6
BYBLOCK
 62
0
100
AcDbLine
 10
1259.503184849565
 20
438.5252462704520
 30
0.0000000000000000
 11
1259.503184849565
 21
563.4837943474314
 31
0.0000000000000000
  0
MTEXT
  5
125
100
AcDbEntity
  8
MAIN0
  6
BYBLOCK
 62
0
100
AcDbMText
 10
1252.503184849564
 20
562.4837941884857
 30
0.0000000000000000
 40
10.33333301544190
 41
0.0000000000000000
 71
     5
 72
     1
  1
\A1;14
 11
1.000000000000000
 21
0.0000000000000000
 31
0.0000000000000000
  7
STANDARD
  0
ENDBLK
  5
126
100
AcDbEntity
  8
MAIN0
  6
CONTINUOUS
 62
3
100
AcDbBlockEnd
  0
BLOCK
  5
12B
100
AcDbEntity
  8
MAIN0
  6
CONTINUOUS
 62
3
100
AcDbBlockBegin
  2
*D21
 70
    65
 10
0.0
 20
0.0
 30
0.0
  0
LINE
  5
12C
100
AcDbEntity
  8
MAIN0
  6
BYBLOCK
 62
0
100
AcDbLine
 10
1108.336518142889
 20
391.8171276791210
 30
0.0000000000000000
 11
1061.224840532319
 21
391.8171276791210
 31
0.0000000000000000
  0
LINE
  5
12D
100
AcDbEntity
  8
MAIN0
  6
BYBLOCK
 62
0
100
AcDbLine
 10
1067.891507198985
 20
391.8171276791210
 30
0.0000000000000000
 11
1067.891507198985
 21
386.8171276791210
 31
0.0000000000000000
  0
INSERT
  5
12E
100
AcDbEntity
  8
MAIN0
  6
BYBLOCK
 62
0
100
AcDbBlockReference
  2
_OPEN
 10
1067.891507198985
 20
391.8171276791210
 30
0.0000000000000000
 41
6.666666666666667
 42
6.666666666666667
 43
6.666666666666667
 50
270.0000000000000
  0
INSERT
  5
12F
100
AcDbEntity
  8
MAIN0
  6
BYBLOCK
 62
0
100
AcDbBlockReference
  2
_OPEN
 10
1067.891507198985
 20
386.8171276791210
 30
0.0000000000000000
 41
6.666666666666667
 42
6.666666666666667
 43
6.666666666666667
 50
90.00000000000000
  0
LINE
  5
130
100
AcDbEntity
  8
MAIN0
  6
BYBLOCK
 62
0
100
AcDbLine
 10
1067.891507198985
 20
398.4837943457877
 30
0.0000000000000000
 11
1067.891507198985
 21
407.3521507859397
 31
0.0000000000000000
  0
LINE
  5
131
100
AcDbEntity
  8
MAIN0
  6
BYBLOCK
 62
0
100
AcDbLine
 10
1067.891507198985
 20
380.1504610124543
 30
0.0000000000000000
 11
1067.891507198985
 21
376.8171276791210
 31
0.0000000000000000
  0
LINE
  5
132
100
AcDbEntity
  8
MAIN0
  6
BYBLOCK
 62
0
100
AcDbLine
 10
1077.836518142889
 20
386.8171276791210
 30
0.0000000000000000
 11
1061.224840532319
 21
386.8171276791210
 31
0.0000000000000000
  0
MTEXT
  5
133
100
AcDbEntity
  8
MAIN0
  6
BYBLOCK
 62
0
100
AcDbMText
 10
1061.058174024597
 20
404.0188174526064
 30
0.0000000000000000
 40
10.33333301544190
 41
0.0000000000000000
 71
     5
 72
     1
  1
\A1;5
 11
6.123233995736766e-017
 21
1.000000000000000
 31
0.0000000000000000
  7
STANDARD
  0
ENDBLK
  5
134
100
AcDbEntity
  8
MAIN0
  6
CONTINUOUS
 62
3
100
AcDbBlockEnd
  0
BLOCK
  5
136
100
AcDbEntity
  8
MAIN0
  6
CONTINUOUS
 62
3
100
AcDbBlockBegin
  2
*D22
 70
    65
 10
0.0
 20
0.0
 30
0.0
  0
LINE
  5
137
100
AcDbEntity
  8
MAIN0
  6
BYBLOCK
 62
0
100
AcDbLine
 10
1077.836518142889
 20
386.8171276791210
 30
0.0000000000000000
 11
1061.224840532319
 21
386.8171276791210
 31
0.0000000000000000
  0
LINE
  5
138
100
AcDbEntity
  8
MAIN0
  6
BYBLOCK
 62
0
100
AcDbLine
 10
1067.891507198985
 20
380.1504610124543
 30
0.0000000000000000
 11
1067.891507198985
 21
363.4837943457877
 31
0.0000000000000000
  0
INSERT
  5
139
100
AcDbEntity
  8
MAIN0
  6
BYBLOCK
 62
0
100
AcDbBlockReference
  2
_OPEN
 10
1067.891507198985
 20
386.8171276791210
 30
0.0000000000000000
 41
6.666666666666667
 42
6.666666666666667
 43
6.666666666666667
 50
90.00000000000000
  0
INSERT
  5
13A
100
AcDbEntity
  8
MAIN0
  6
BYBLOCK
 62
0
100
AcDbBlockReference
  2
_OPEN
 10
1067.891507198985
 20
356.8171276791210
 30
0.0000000000000000
 41
6.666666666666667
 42
6.666666666666667
 43
6.666666666666667
 50
270.0000000000000
  0
LINE
  5
13B
100
AcDbEntity
  8
MAIN0
  6
BYBLOCK
 62
0
100
AcDbLine
 10
1079.536518142889
 20
356.8171276791210
 30
0.0000000000000000
 11
1061.224840532319
 21
356.8171276791210
 31
0.0000000000000000
  0
MTEXT
  5
13C
100
AcDbEntity
  8
MAIN0
  6
BYBLOCK
 62
0
100
AcDbMText
 10
1062.224840691264
 20
371.8171276791210
 30
0.0000000000000000
 40
10.33333301544190
 41
0.0000000000000000
 71
     5
 72
     1
  1
\A1;30
 11
6.123233995736766e-017
 21
1.000000000000000
 31
0.0000000000000000
  7
STANDARD
  0
ENDBLK
  5
13D
100
AcDbEntity
  8
MAIN0
  6
CONTINUOUS
 62
3
100
AcDbBlockEnd
  0
BLOCK
  5
19A
100
AcDbEntity
  8
MAIN0
  6
CONTINUOUS
 62
3
100
AcDbBlockBegin
  2
*D23
 70
    65
 10
0.0
 20
0.0
 30
0.0
  0
LINE
  5
19B
100
AcDbEntity
  8
MAIN0
  6
BYBLOCK
 62
0
100
AcDbLine
 10
279.9634363205462
 20
539.4837943861174
 30
0.0000000000000000
 11
279.9634363205462
 21
583.4837943458533
 31
0.0000000000000000
  0
LINE
  5
19C
100
AcDbEntity
  8
MAIN0
  6
BYBLOCK
 62
0
100
AcDbLine
 10
273.2967696538795
 20
576.8171276791867
 30
0.0000000000000000
 11
86.63010298721270
 21
576.8171276791867
 31
0.0000000000000000
  0
INSERT
  5
19D
100
AcDbEntity
  8
MAIN0
  6
BYBLOCK
 62
0
100
AcDbBlockReference
  2
_OPEN
 10
279.9634363205462
 20
576.8171276791867
 30
0.0000000000000000
 41
6.666666666666667
 42
6.666666666666667
 43
6.666666666666667
 50
360.0000000000000
  0
INSERT
  5
19E
100
AcDbEntity
  8
MAIN0
  6
BYBLOCK
 62
0
100
AcDbBlockReference
  2
_OPEN
 10
79.96343632054601
 20
576.8171276791867
 30
0.0000000000000000
 41
6.666666666666667
 42
6.666666666666667
 43
6.666666666666667
 50
180.0000000000000
  0
LINE
  5
19F
100
AcDbEntity
  8
MAIN0
  6
BYBLOCK
 62
0
100
AcDbLine
 10
79.96343632054601
 20
539.4837943861174
 30
0.0000000000000000
 11
79.96343632054601
 21
583.4837943458533
 31
0.0000000000000000
  0
MTEXT
  5
1A0
100
AcDbEntity
  8
MAIN0
  6
BYBLOCK
 62
0
100
AcDbMText
 10
179.9634363205461
 20
582.4837941869076
 30
0.0000000000000000
 40
10.33333301544190
 41
0.0000000000000000
 71
     5
 72
     1
  1
\A1;200
 11
1.000000000000000
 21
0.0000000000000000
 31
0.0000000000000000
  7
STANDARD
  0
ENDBLK
  5
1A1
100
AcDbEntity
  8
MAIN0
  6
CONTINUOUS
 62
3
100
AcDbBlockEnd
  0
BLOCK
  5
1C2
100
AcDbEntity
  8
MAIN0
  6
CONTINUOUS
 62
3
100
AcDbBlockBegin
  2
*D24
 70
    65
 10
0.0
 20
0.0
 30
0.0
  0
LINE
  5
1C3
100
AcDbEntity
  8
MAIN0
  6
BYBLOCK
 62
0
100
AcDbLine
 10
282.1301030267099
 20
466.8171276796096
 30
0.0000000000000000
 11
313.6301029869169
 21
466.8171276796635
 31
0.0000000000000000
  0
LINE
  5
1C4
100
AcDbEntity
  8
MAIN0
  6
BYBLOCK
 62
0
100
AcDbLine
 10
306.9634363202503
 20
466.8171276796521
 30
0.0000000000000000
 11
306.9634363202503
 21
440.8171276792824
 31
0.0000000000000000
  0
INSERT
  5
1C5
100
AcDbEntity
  8
MAIN0
  6
BYBLOCK
 62
0
100
AcDbBlockReference
  2
_OPEN
 10
306.9634363202503
 20
466.8171276796521
 30
0.0000000000000000
 41
6.666666666666667
 42
6.666666666666667
 43
6.666666666666667
 50
270.0000000000000
  0
INSERT
  5
1C6
100
AcDbEntity
  8
MAIN0
  6
BYBLOCK
 62
0
100
AcDbBlockReference
  2
_OPEN
 10
306.9634363202503
 20
440.8171276792824
 30
0.0000000000000000
 41
6.666666666666667
 42
6.666666666666667
 43
6.666666666666667
 50
90.00000000000000
  0
LINE
  5
1C7
100
AcDbEntity
  8
MAIN0
  6
BYBLOCK
 62
0
100
AcDbLine
 10
306.9634363202503
 20
473.4837943463188
 30
0.0000000000000000
 11
306.9634363202503
 21
476.8171276796521
 31
0.0000000000000000
  0
LINE
  5
1C8
100
AcDbEntity
  8
MAIN0
  6
BYBLOCK
 62
0
100
AcDbLine
 10
306.9634363202503
 20
434.1504610126157
 30
0.0000000000000000
 11
306.9634363202503
 21
430.8171276792824
 31
0.0000000000000000
  0
LINE
  5
1C9
100
AcDbEntity
  8
MAIN0
  6
BYBLOCK
 62
0
100
AcDbLine
 10
282.6301030266742
 20
440.8171276792824
 30
0.0000000000000000
 11
313.6301029869169
 21
440.8171276792824
 31
0.0000000000000000
  0
MTEXT
  5
1CA
100
AcDbEntity
  8
MAIN0
  6
BYBLOCK
 62
0
100
AcDbMText
 10
301.2967698125293
 20
453.8171276794673
 30
0.0000000000000000
 40
10.33333301544190
 41
0.0000000000000000
 71
     5
 72
     1
  1
\A1;26
 11
6.123233995736766e-017
 21
1.000000000000000
 31
0.0000000000000000
  7
STANDARD
  0
ENDBLK
  5
1CB
100
AcDbEntity
  8
MAIN0
  6
CONTINUOUS
 62
3
100
AcDbBlockEnd
  0
BLOCK
  5
1CD
100
AcDbEntity
  8
MAIN0
  6
CONTINUOUS
 62
3
100
AcDbBlockBegin
  2
*D25
 70
    65
 10
0.0
 20
0.0
 30
0.0
  0
LINE
  5
1CE
100
AcDbEntity
  8
MAIN0
  6
BYBLOCK
 62
0
100
AcDbLine
 10
282.6301030266742
 20
440.8171276792824
 30
0.0000000000000000
 11
313.6301029869169
 21
440.8171276792824
 31
0.0000000000000000
  0
LINE
  5
1CF
100
AcDbEntity
  8
MAIN0
  6
BYBLOCK
 62
0
100
AcDbLine
 10
306.9634363202503
 20
434.1504610126207
 30
0.0000000000000000
 11
306.9634363202503
 21
384.4837943456977
 31
0.0000000000000000
  0
INSERT
  5
1D0
100
AcDbEntity
  8
MAIN0
  6
BYBLOCK
 62
0
100
AcDbBlockReference
  2
_OPEN
 10
306.9634363202503
 20
440.8171276792874
 30
0.0000000000000000
 41
6.666666666666667
 42
6.666666666666667
 43
6.666666666666667
 50
90.00000000000000
  0
INSERT
  5
1D1
100
AcDbEntity
  8
MAIN0
  6
BYBLOCK
 62
0
100
AcDbBlockReference
  2
_OPEN
 10
306.9634363202503
 20
377.8171276790310
 30
0.0000000000000000
 41
6.666666666666667
 42
6.666666666666667
 43
6.666666666666667
 50
270.0000000000000
  0
LINE
  5
1D2
100
AcDbEntity
  8
MAIN0
  6
BYBLOCK
 62
0
100
AcDbLine
 10
282.6301030266778
 20
377.8171276790310
 30
0.0000000000000000
 11
313.6301029869169
 21
377.8171276790310
 31
0.0000000000000000
  0
MTEXT
  5
1D3
100
AcDbEntity
  8
MAIN0
  6
BYBLOCK
 62
0
100
AcDbMText
 10
301.2967698125293
 20
409.3171276791592
 30
0.0000000000000000
 40
10.33333301544190
 41
0.0000000000000000
 71
     5
 72
     1
  1
\A1;63
 11
6.123233995736766e-017
 21
1.000000000000000
 31
0.0000000000000000
  7
STANDARD
  0
ENDBLK
  5
1D4
100
AcDbEntity
  8
MAIN0
  6
CONTINUOUS
 62
3
100
AcDbBlockEnd
  0
BLOCK
  5
1D6
100
AcDbEntity
  8
MAIN0
  6
CONTINUOUS
 62
3
100
AcDbBlockBegin
  2
*D26
 70
    65
 10
0.0
 20
0.0
 30
0.0
  0
LINE
  5
1D7
100
AcDbEntity
  8
MAIN0
  6
BYBLOCK
 62
0
100
AcDbLine
 10
282.6301030266778
 20
377.8171276790310
 30
0.0000000000000000
 11
313.6301029869169
 21
377.8171276790310
 31
0.0000000000000000
  0
LINE
  5
1D8
100
AcDbEntity
  8
MAIN0
  6
BYBLOCK
 62
0
100
AcDbLine
 10
306.9634363202503
 20
377.8171276790310
 30
0.0000000000000000
 11
306.9634363202503
 21
356.8171276789245
 31
0.0000000000000000
  0
INSERT
  5
1D9
100
AcDbEntity
  8
MAIN0
  6
BYBLOCK
 62
0
100
AcDbBlockReference
  2
_OPEN
 10
306.9634363202503
 20
377.8171276790310
 30
0.0000000000000000
 41
6.666666666666667
 42
6.666666666666667
 43
6.666666666666667
 50
270.0000000000000
  0
INSERT
  5
1DA
100
AcDbEntity
  8
MAIN0
  6
BYBLOCK
 62
0
100
AcDbBlockReference
  2
_OPEN
 10
306.9634363202503
 20
356.8171276789245
 30
0.0000000000000000
 41
6.666666666666667
 42
6.666666666666667
 43
6.666666666666667
 50
90.00000000000000
  0
LINE
  5
1DB
100
AcDbEntity
  8
MAIN0
  6
BYBLOCK
 62
0
100
AcDbLine
 10
306.9634363202503
 20
384.4837943456977
 30
0.0000000000000000
 11
306.9634363202503
 21
387.8171276790310
 31
0.0000000000000000
  0
LINE
  5
1DC
100
AcDbEntity
  8
MAIN0
  6
BYBLOCK
 62
0
100
AcDbLine
 10
306.9634363202503
 20
350.1504610122578
 30
0.0000000000000000
 11
306.9634363202503
 21
346.8171276789245
 31
0.0000000000000000
  0
LINE
  5
1DD
100
AcDbEntity
  8
MAIN0
  6
BYBLOCK
 62
0
100
AcDbLine
 10
283.2301030266535
 20
356.8171276789245
 30
0.0000000000000000
 11
313.6301029869169
 21
356.8171276789245
 31
0.0000000000000000
  0
MTEXT
  5
1DE
100
AcDbEntity
  8
MAIN0
  6
BYBLOCK
 62
0
100
AcDbMText
 10
301.2967698125293
 20
367.3171276789777
 30
0.0000000000000000
 40
10.33333301544190
 41
0.0000000000000000
 71
     5
 72
     1
  1
\A1;21
 11
6.123233995736766e-017
 21
1.000000000000000
 31
0.0000000000000000
  7
STANDARD
  0
ENDBLK
  5
1DF
100
AcDbEntity
  8
MAIN0
  6
CONTINUOUS
 62
3
100
AcDbBlockEnd
  0
BLOCK
  5
1E1
100
AcDbEntity
  8
MAIN0
  6
CONTINUOUS
 62
3
100
AcDbBlockBegin
  2
*D27
 70
    65
 10
0.0
 20
0.0
 30
0.0
  0
LINE
  5
1E2
100
AcDbEntity
  8
MAIN0
  6
BYBLOCK
 62
0
100
AcDbLine
 10
273.9634363202721
 20
401.8171276790362
 30
0.0000000000000000
 11
280.9634363202588
 21
401.8171276790362
 31
0.0000000000000000
  0
INSERT
  5
1E3
100
AcDbEntity
  8
MAIN0
  6
BYBLOCK
 62
0
100
AcDbBlockReference
  2
_OPEN
 10
273.9634363202721
 20
401.8171276790362
 30
0.0000000000000000
 41
6.666666666666667
 42
6.666666666666667
 43
6.666666666666667
 50
0.0000000000000000
  0
INSERT
  5
1E4
100
AcDbEntity
  8
MAIN0
  6
BYBLOCK
 62
0
100
AcDbBlockReference
  2
_OPEN
 10
280.9634363202588
 20
401.8171276790362
 30
0.0000000000000000
 41
6.666666666666667
 42
6.666666666666667
 43
6.666666666666667
 50
180.0000000000000
  0
LINE
  5
1E5
100
AcDbEntity
  8
MAIN0
  6
BYBLOCK
 62
0
100
AcDbLine
 10
267.2967696536054
 20
401.8171276790362
 30
0.0000000000000000
 11
256.6999095492074
 21
401.8171276790362
 31
0.0000000000000000
  0
LINE
  5
1E6
100
AcDbEntity
  8
MAIN0
  6
BYBLOCK
 62
0
100
AcDbLine
 10
287.6301029869255
 20
401.8171276790362
 30
0.0000000000000000
 11
290.9634363202588
 21
401.8171276790362
 31
0.0000000000000000
  0
LINE
  5
1E7
100
AcDbEntity
  8
MAIN0
  6
BYBLOCK
 62
0
100
AcDbLine
 10
280.9634363202588
 20
379.4837943854324
 30
0.0000000000000000
 11
280.9634363202588
 21
408.4837943457029
 31
0.0000000000000000
  0
MTEXT
  5
1E8
100
AcDbEntity
  8
MAIN0
  6
BYBLOCK
 62
0
100
AcDbMText
 10
260.0332428825407
 20
408.6504608534239
 30
0.0000000000000000
 40
10.33333301544190
 41
0.0000000000000000
 71
     5
 72
     1
  1
\A1;7
 11
1.000000000000000
 21
0.0000000000000000
 31
0.0000000000000000
  7
STANDARD
  0
ENDBLK
  5
1E9
100
AcDbEntity
  8
MAIN0
  6
CONTINUOUS
 62
3
100
AcDbBlockEnd
  0
BLOCK
  5
1FB
100
AcDbEntity
  8
MAIN0
  6
CONTINUOUS
 62
3
100
AcDbBlockBegin
  2
*D28
 70
    65
 10
0.0
 20
0.0
 30
0.0
  0
LINE
  5
1FC
100
AcDbEntity
  8
MAIN0
  6
BYBLOCK
 62
0
100
AcDbLine
 10
387.7958961445060
 20
757.6004562329847
 30
0.0000000000000000
 11
387.7958961445060
 21
672.3347045794606
 31
0.0000000000000000
  0
LINE
  5
1FD
100
AcDbEntity
  8
MAIN0
  6
BYBLOCK
 62
0
100
AcDbLine
 10
394.4625628111726
 20
679.0013712461273
 30
0.0000000000000000
 11
451.1292294778393
 21
679.0013712461273
 31
0.0000000000000000
  0
INSERT
  5
1FE
100
AcDbEntity
  8
MAIN0
  6
BYBLOCK
 62
0
100
AcDbBlockReference
  2
_OPEN
 10
387.7958961445060
 20
679.0013712461273
 30
0.0000000000000000
 41
6.666666666666667
 42
6.666666666666667
 43
6.666666666666667
 50
180.0000000000000
  0
INSERT
  5
1FF
100
AcDbEntity
  8
MAIN0
  6
BYBLOCK
 62
0
100
AcDbBlockReference
  2
_OPEN
 10
457.7958961445060
 20
679.0013712461273
 30
0.0000000000000000
 41
6.666666666666667
 42
6.666666666666667
 43
6.666666666666667
 50
0.0000000000000000
  0
LINE
  5
200
100
AcDbEntity
  8
MAIN0
  6
BYBLOCK
 62
0
100
AcDbLine
 10
457.7958961445060
 20
757.6004562329846
 30
0.0000000000000000
 11
457.7958961445060
 21
672.3347045794606
 31
0.0000000000000000
  0
MTEXT
  5
201
100
AcDbEntity
  8
MAIN0
  6
BYBLOCK
 62
0
100
AcDbMText
 10
422.7958961445060
 20
684.6680377538482
 30
0.0000000000000000
 40
10.33333301544190
 41
0.0000000000000000
 71
     5
 72
     1
  1
\A1;70
 11
1.000000000000000
 21
0.0000000000000000
 31
0.0000000000000000
  7
STANDARD
  0
ENDBLK
  5
202
100
AcDbEntity
  8
MAIN0
  6
CONTINUOUS
 62
3
100
AcDbBlockEnd
  0
BLOCK
  5
204
100
AcDbEntity
  8
MAIN0
  6
CONTINUOUS
 62
3
100
AcDbBlockBegin
  2
*D29
 70
    65
 10
0.0
 20
0.0
 30
0.0
  0
LINE
  5
205
100
AcDbEntity
  8
MAIN0
  6
BYBLOCK
 62
0
100
AcDbLine
 10
457.7958961445060
 20
757.6004562329846
 30
0.0000000000000000
 11
457.7958961445060
 21
672.3347045794606
 31
0.0000000000000000
  0
LINE
  5
206
100
AcDbEntity
  8
MAIN0
  6
BYBLOCK
 62
0
100
AcDbLine
 10
457.7958961445060
 20
679.0013712461273
 30
0.0000000000000000
 11
472.7958961445058
 21
679.0013712461273
 31
0.0000000000000000
  0
INSERT
  5
207
100
AcDbEntity
  8
MAIN0
  6
BYBLOCK
 62
0
100
AcDbBlockReference
  2
_OPEN
 10
457.7958961445060
 20
679.0013712461273
 30
0.0000000000000000
 41
6.666666666666667
 42
6.666666666666667
 43
6.666666666666667
 50
0.0000000000000000
  0
INSERT
  5
208
100
AcDbEntity
  8
MAIN0
  6
BYBLOCK
 62
0
100
AcDbBlockReference
  2
_OPEN
 10
472.7958961445058
 20
679.0013712461273
 30
0.0000000000000000
 41
6.666666666666667
 42
6.666666666666667
 43
6.666666666666667
 50
180.0000000000000
  0
LINE
  5
209
100
AcDbEntity
  8
MAIN0
  6
BYBLOCK
 62
0
100
AcDbLine
 10
451.1292294778393
 20
679.0013712461273
 30
0.0000000000000000
 11
447.7958961445060
 21
679.0013712461273
 31
0.0000000000000000
  0
LINE
  5
20A
100
AcDbEntity
  8
MAIN0
  6
BYBLOCK
 62
0
100
AcDbLine
 10
479.4625628111725
 20
679.0013712461273
 30
0.0000000000000000
 11
491.1276486797564
 21
679.0013712461273
 31
0.0000000000000000
  0
LINE
  5
20B
100
AcDbEntity
  8
MAIN0
  6
BYBLOCK
 62
0
100
AcDbLine
 10
472.7958961445058
 20
715.7671228996334
 30
0.0000000000000000
 11
472.7958961445058
 21
672.3347045794606
 31
0.0000000000000000
  0
MTEXT
  5
20C
100
AcDbEntity
  8
MAIN0
  6
BYBLOCK
 62
0
100
AcDbMText
 10
484.2943155053688
 20
685.8347044205148
 30
0.0000000000000000
 40
10.33333301544190
 41
0.0000000000000000
 71
     5
 72
     1
  1
\A1;15
 11
1.000000000000000
 21
0.0000000000000000
 31
0.0000000000000000
  7
STANDARD
  0
ENDBLK
  5
20D
100
AcDbEntity
  8
MAIN0
  6
CONTINUOUS
 62
3
100
AcDbBlockEnd
  0
BLOCK
  5
20F
100
AcDbEntity
  8
MAIN0
  6
CONTINUOUS
 62
3
100
AcDbBlockBegin
  2
*D30
 70
    65
 10
0.0
 20
0.0
 30
0.0
  0
LINE
  5
210
100
AcDbEntity
  8
MAIN0
  6
BYBLOCK
 62
0
100
AcDbLine
 10
377.4625627714361
 20
767.9337896060545
 30
0.0000000000000000
 11
323.1292294783793
 21
767.9337896060545
 31
0.0000000000000000
  0
LINE
  5
211
100
AcDbEntity
  8
MAIN0
  6
BYBLOCK
 62
0
100
AcDbLine
 10
329.7958961450459
 20
774.6004562727212
 30
0.0000000000000000
 11
329.7958961450459
 21
861.2671229392714
 31
0.0000000000000000
  0
INSERT
  5
212
100
AcDbEntity
  8
MAIN0
  6
BYBLOCK
 62
0
100
AcDbBlockReference
  2
_OPEN
 10
329.7958961450459
 20
767.9337896060545
 30
0.0000000000000000
 41
6.666666666666667
 42
6.666666666666667
 43
6.666666666666667
 50
270.0000000000000
  0
INSERT
  5
213
100
AcDbEntity
  8
MAIN0
  6
BYBLOCK
 62
0
100
AcDbBlockReference
  2
_OPEN
 10
329.7958961450459
 20
867.9337896059381
 30
0.0000000000000000
 41
6.666666666666667
 42
6.666666666666667
 43
6.666666666666667
 50
90.00000000000000
  0
LINE
  5
214
100
AcDbEntity
  8
MAIN0
  6
BYBLOCK
 62
0
100
AcDbLine
 10
377.4625627714362
 20
867.9337896059381
 30
0.0000000000000000
 11
323.1292294783793
 21
867.9337896059381
 31
0.0000000000000000
  0
MTEXT
  5
215
100
AcDbEntity
  8
MAIN0
  6
BYBLOCK
 62
0
100
AcDbMText
 10
324.1292296373250
 20
817.9337896059963
 30
0.0000000000000000
 40
10.33333301544190
 41
0.0000000000000000
 71
     5
 72
     1
  1
\A1;100
 11
6.123233995736766e-017
 21
1.000000000000000
 31
0.0000000000000000
  7
STANDARD
  0
ENDBLK
  5
216
100
AcDbEntity
  8
MAIN0
  6
CONTINUOUS
 62
3
100
AcDbBlockEnd
  0
BLOCK
  5
21C
100
AcDbEntity
  8
MAIN0
  6
CONTINUOUS
 62
3
100
AcDbBlockBegin
  2
*D31
 70
    65
 10
0.0
 20
0.0
 30
0.0
  0
LINE
  5
21D
100
AcDbEntity
  8
MAIN0
  6
BYBLOCK
 62
0
100
AcDbLine
 10
572.7958961445050
 20
920.0004563124396
 30
0.0000000000000000
 11
572.7958961445050
 21
943.9022096125027
 31
0.0000000000000000
  0
LINE
  5
21E
100
AcDbEntity
  8
MAIN0
  6
BYBLOCK
 62
0
100
AcDbLine
 10
579.4625628111717
 20
937.2355429458362
 30
0.0000000000000000
 11
615.1292294780676
 21
937.2355429458362
 31
0.0000000000000000
  0
INSERT
  5
21F
100
AcDbEntity
  8
MAIN0
  6
BYBLOCK
 62
0
100
AcDbBlockReference
  2
_OPEN
 10
572.7958961445050
 20
937.2355429458362
 30
0.0000000000000000
 41
6.666666666666667
 42
6.666666666666667
 43
6.666666666666667
 50
180.0000000000000
  0
INSERT
  5
220
100
AcDbEntity
  8
MAIN0
  6
BYBLOCK
 62
0
100
AcDbBlockReference
  2
_OPEN
 10
621.7958961447342
 20
937.2355429458362
 30
0.0000000000000000
 41
6.666666666666667
 42
6.666666666666667
 43
6.666666666666667
 50
0.0000000000000000
  0
LINE
  5
221
100
AcDbEntity
  8
MAIN0
  6
BYBLOCK
 62
0
100
AcDbLine
 10
621.7958961447342
 20
832.2671229791063
 30
0.0000000000000000
 11
621.7958961447342
 21
943.9022096125027
 31
0.0000000000000000
  0
MTEXT
  5
222
100
AcDbEntity
  8
MAIN0
  6
BYBLOCK
 62
0
100
AcDbMText
 10
597.2958961446196
 20
942.9022094535571
 30
0.0000000000000000
 40
10.33333301544190
 41
0.0000000000000000
 71
     5
 72
     1
  1
\A1;49
 11
1.000000000000000
 21
0.0000000000000000
 31
0.0000000000000000
  7
STANDARD
  0
ENDBLK
  5
223
100
AcDbEntity
  8
MAIN0
  6
CONTINUOUS
 62
3
100
AcDbBlockEnd
  0
BLOCK
  5
235
100
AcDbEntity
  8
MAIN0
  6
CONTINUOUS
 62
3
100
AcDbBlockBegin
  2
*D32
 70
    65
 10
0.0
 20
0.0
 30
0.0
  0
LINE
  5
236
100
AcDbEntity
  8
MAIN0
  6
BYBLOCK
 62
0
100
AcDbLine
 10
658.1292295180336
 20
742.9337896060364
 30
0.0000000000000000
 11
717.7781185759336
 21
742.9337896060363
 31
0.0000000000000000
  0
LINE
  5
237
100
AcDbEntity
  8
MAIN0
  6
BYBLOCK
 62
0
100
AcDbLine
 10
711.1114519092669
 20
749.6004562727030
 30
0.0000000000000000
 11
711.1114519092669
 21
886.2671229393695
 31
0.0000000000000000
  0
INSERT
  5
238
100
AcDbEntity
  8
MAIN0
  6
BYBLOCK
 62
0
100
AcDbBlockReference
  2
_OPEN
 10
711.1114519092669
 20
742.9337896060363
 30
0.0000000000000000
 41
6.666666666666667
 42
6.666666666666667
 43
6.666666666666667
 50
270.0000000000000
  0
INSERT
  5
239
100
AcDbEntity
  8
MAIN0
  6
BYBLOCK
 62
0
100
AcDbBlockReference
  2
_OPEN
 10
711.1114519092669
 20
892.9337896060360
 30
0.0000000000000000
 41
6.666666666666667
 42
6.666666666666667
 43
6.666666666666667
 50
90.00000000000000
  0
LINE
  5
23A
100
AcDbEntity
  8
MAIN0
  6
BYBLOCK
 62
0
100
AcDbLine
 10
658.1292295180336
 20
892.9337896060360
 30
0.0000000000000000
 11
717.7781185759336
 21
892.9337896060360
 31
0.0000000000000000
  0
MTEXT
  5
23B
100
AcDbEntity
  8
MAIN0
  6
BYBLOCK
 62
0
100
AcDbMText
 10
705.4447854015459
 20
817.9337896060363
 30
0.0000000000000000
 40
10.33333301544190
 41
0.0000000000000000
 71
     5
 72
     1
  1
\A1;150
 11
6.123233995736766e-017
 21
1.000000000000000
 31
0.0000000000000000
  7
STANDARD
  0
ENDBLK
  5
23C
100
AcDbEntity
  8
MAIN0
  6
CONTINUOUS
 62
3
100
AcDbBlockEnd
  0
BLOCK
  5
23E
100
AcDbEntity
  8
MAIN0
  6
CONTINUOUS
 62
3
100
AcDbBlockBegin
  2
*D33
 70
    65
 10
0.0
 20
0.0
 30
0.0
  0
LINE
  5
23F
100
AcDbEntity
  8
MAIN0
  6
BYBLOCK
 62
0
100
AcDbLine
 10
572.7958961445049
 20
715.8671228996336
 30
0.0000000000000000
 11
572.7958961445049
 21
672.3347045794606
 31
0.0000000000000000
  0
LINE
  5
240
100
AcDbEntity
  8
MAIN0
  6
BYBLOCK
 62
0
100
AcDbLine
 10
572.7958961445049
 20
679.0013712461273
 30
0.0000000000000000
 11
587.7958961449640
 21
679.0013712461273
 31
0.0000000000000000
  0
INSERT
  5
241
100
AcDbEntity
  8
MAIN0
  6
BYBLOCK
 62
0
100
AcDbBlockReference
  2
_OPEN
 10
572.7958961445049
 20
679.0013712461273
 30
0.0000000000000000
 41
6.666666666666667
 42
6.666666666666667
 43
6.666666666666667
 50
0.0000000000000000
  0
INSERT
  5
242
100
AcDbEntity
  8
MAIN0
  6
BYBLOCK
 62
0
100
AcDbBlockReference
  2
_OPEN
 10
587.7958961449640
 20
679.0013712461273
 30
0.0000000000000000
 41
6.666666666666667
 42
6.666666666666667
 43
6.666666666666667
 50
180.0000000000000
  0
LINE
  5
243
100
AcDbEntity
  8
MAIN0
  6
BYBLOCK
 62
0
100
AcDbLine
 10
566.1292294778383
 20
679.0013712461273
 30
0.0000000000000000
 11
554.3325391277163
 21
679.0013712461273
 31
0.0000000000000000
  0
LINE
  5
244
100
AcDbEntity
  8
MAIN0
  6
BYBLOCK
 62
0
100
AcDbLine
 10
594.4625628116306
 20
679.0013712461273
 30
0.0000000000000000
 11
597.7958961449640
 21
679.0013712461273
 31
0.0000000000000000
  0
LINE
  5
245
100
AcDbEntity
  8
MAIN0
  6
BYBLOCK
 62
0
100
AcDbLine
 10
587.7958961449640
 20
732.6004562329667
 30
0.0000000000000000
 11
587.7958961449640
 21
672.3347045794606
 31
0.0000000000000000
  0
MTEXT
  5
246
100
AcDbEntity
  8
MAIN0
  6
BYBLOCK
 62
0
100
AcDbMText
 10
561.1658723021038
 20
685.8347044205148
 30
0.0000000000000000
 40
10.33333301544190
 41
0.0000000000000000
 71
     5
 72
     1
  1
\A1;15
 11
1.000000000000000
 21
0.0000000000000000
 31
0.0000000000000000
  7
STANDARD
  0
ENDBLK
  5
247
100
AcDbEntity
  8
MAIN0
  6
CONTINUOUS
 62
3
100
AcDbBlockEnd
  0
BLOCK
  5
249
100
AcDbEntity
  8
MAIN0
  6
CONTINUOUS
 62
3
100
AcDbBlockBegin
  2
*D34
 70
    65
 10
0.0
 20
0.0
 30
0.0
  0
LINE
  5
24A
100
AcDbEntity
  8
MAIN0
  6
BYBLOCK
 62
0
100
AcDbLine
 10
587.7958961449640
 20
732.6004562329667
 30
0.0000000000000000
 11
587.7958961449640
 21
672.3347045794606
 31
0.0000000000000000
  0
LINE
  5
24B
100
AcDbEntity
  8
MAIN0
  6
BYBLOCK
 62
0
100
AcDbLine
 10
594.4625628116306
 20
679.0013712461273
 30
0.0000000000000000
 11
641.1292294782973
 21
679.0013712461273
 31
0.0000000000000000
  0
INSERT
  5
24C
100
AcDbEntity
  8
MAIN0
  6
BYBLOCK
 62
0
100
AcDbBlockReference
  2
_OPEN
 10
587.7958961449640
 20
679.0013712461273
 30
0.0000000000000000
 41
6.666666666666667
 42
6.666666666666667
 43
6.666666666666667
 50
180.0000000000000
  0
INSERT
  5
24D
100
AcDbEntity
  8
MAIN0
  6
BYBLOCK
 62
0
100
AcDbBlockReference
  2
_OPEN
 10
647.7958961449640
 20
679.0013712461273
 30
0.0000000000000000
 41
6.666666666666667
 42
6.666666666666667
 43
6.666666666666667
 50
0.0000000000000000
  0
LINE
  5
24E
100
AcDbEntity
  8
MAIN0
  6
BYBLOCK
 62
0
100
AcDbLine
 10
647.7958961449640
 20
732.6004562329666
 30
0.0000000000000000
 11
647.7958961449640
 21
672.3347045794606
 31
0.0000000000000000
  0
MTEXT
  5
24F
100
AcDbEntity
  8
MAIN0
  6
BYBLOCK
 62
0
100
AcDbMText
 10
617.7958961449640
 20
684.6680377538482
 30
0.0000000000000000
 40
10.33333301544190
 41
0.0000000000000000
 71
     5
 72
     1
  1
\A1;60
 11
1.000000000000000
 21
0.0000000000000000
 31
0.0000000000000000
  7
STANDARD
  0
ENDBLK
  5
250
100
AcDbEntity
  8
MAIN0
  6
CONTINUOUS
 62
3
100
AcDbBlockEnd
  0
BLOCK
  5
2BC
100
AcDbEntity
  8
MAIN0
  6
CONTINUOUS
 62
3
100
AcDbBlockBegin
  2
*D35
 70
    65
 10
0.0
 20
0.0
 30
0.0
  0
LINE
  5
2BD
100
AcDbEntity
  8
MAIN0
  6
BYBLOCK
 62
0
100
AcDbLine
 10
472.7958961445057
 20
464.5504609703631
 30
0.0000000000000000
 11
472.7958961445057
 21
305.1504610150735
 31
0.0000000000000000
  0
LINE
  5
2BE
100
AcDbEntity
  8
MAIN0
  6
BYBLOCK
 62
0
100
AcDbLine
 10
479.4625628111724
 20
311.8171276817402
 30
0.0000000000000000
 11
540.1292294776060
 21
311.8171276817402
 31
0.0000000000000000
  0
INSERT
  5
2BF
100
AcDbEntity
  8
MAIN0
  6
BYBLOCK
 62
0
100
AcDbBlockReference
  2
_OPEN
 10
472.7958961445057
 20
311.8171276817402
 30
0.0000000000000000
 41
6.666666666666667
 42
6.666666666666667
 43
6.666666666666667
 50
180.0000000000000
  0
INSERT
  5
2C0
100
AcDbEntity
  8
MAIN0
  6
BYBLOCK
 62
0
100
AcDbBlockReference
  2
_OPEN
 10
546.7958961442727
 20
311.8171276817402
 30
0.0000000000000000
 41
6.666666666666667
 42
6.666666666666667
 43
6.666666666666667
 50
0.0000000000000000
  0
LINE
  5
2C1
100
AcDbEntity
  8
MAIN0
  6
BYBLOCK
 62
0
100
AcDbLine
 10
546.7958961442727
 20
340.1607437151112
 30
0.0000000000000000
 11
546.7958961442727
 21
305.1504610150735
 31
0.0000000000000000
  0
MTEXT
  5
2C2
100
AcDbEntity
  8
MAIN0
  6
BYBLOCK
 62
0
100
AcDbMText
 10
509.7958961443892
 20
317.4837941894612
 30
0.0000000000000000
 40
10.33333301544190
 41
0.0000000000000000
 71
     5
 72
     1
  1
\A1;74
 11
1.000000000000000
 21
0.0000000000000000
 31
0.0000000000000000
  7
STANDARD
  0
ENDBLK
  5
2C3
100
AcDbEntity
  8
MAIN0
  6
CONTINUOUS
 62
3
100
AcDbBlockEnd
  0
BLOCK
  5
2C5
100
AcDbEntity
  8
MAIN0
  6
CONTINUOUS
 62
3
100
AcDbBlockBegin
  2
*D36
 70
    65
 10
0.0
 20
0.0
 30
0.0
  0
LINE
  5
2C6
100
AcDbEntity
  8
MAIN0
  6
BYBLOCK
 62
0
100
AcDbLine
 10
546.7958961442727
 20
340.1607437151112
 30
0.0000000000000000
 11
546.7958961442727
 21
305.1504610150735
 31
0.0000000000000000
  0
LINE
  5
2C7
100
AcDbEntity
  8
MAIN0
  6
BYBLOCK
 62
0
100
AcDbLine
 10
553.4625628109393
 20
311.8171276817402
 30
0.0000000000000000
 11
873.1292294776071
 21
311.8171276817402
 31
0.0000000000000000
  0
INSERT
  5
2C8
100
AcDbEntity
  8
MAIN0
  6
BYBLOCK
 62
0
100
AcDbBlockReference
  2
_OPEN
 10
546.7958961442727
 20
311.8171276817402
 30
0.0000000000000000
 41
6.666666666666667
 42
6.666666666666667
 43
6.666666666666667
 50
180.0000000000000
  0
INSERT
  5
2C9
100
AcDbEntity
  8
MAIN0
  6
BYBLOCK
 62
0
100
AcDbBlockReference
  2
_OPEN
 10
879.7958961442737
 20
311.8171276817402
 30
0.0000000000000000
 41
6.666666666666667
 42
6.666666666666667
 43
6.666666666666667
 50
0.0000000000000000
  0
LINE
  5
2CA
100
AcDbEntity
  8
MAIN0
  6
BYBLOCK
 62
0
100
AcDbLine
 10
879.7958961442737
 20
354.5504609742652
 30
0.0000000000000000
 11
879.7958961442737
 21
305.1504610150735
 31
0.0000000000000000
  0
MTEXT
  5
2CB
100
AcDbEntity
  8
MAIN0
  6
BYBLOCK
 62
0
100
AcDbMText
 10
713.2958961442732
 20
317.4837941894612
 30
0.0000000000000000
 40
10.33333301544190
 41
0.0000000000000000
 71
     5
 72
     1
  1
\A1;333
 11
1.000000000000000
 21
0.0000000000000000
 31
0.0000000000000000
  7
STANDARD
  0
ENDBLK
  5
2CC
100
AcDbEntity
  8
MAIN0
  6
CONTINUOUS
 62
3
100
AcDbBlockEnd
  0
BLOCK
  5
2CE
100
AcDbEntity
  8
MAIN0
  6
CONTINUOUS
 62
3
100
AcDbBlockBegin
  2
*D37
 70
    65
 10
0.0
 20
0.0
 30
0.0
  0
LINE
  5
2CF
100
AcDbEntity
  8
MAIN0
  6
BYBLOCK
 62
0
100
AcDbLine
 10
736.7958961445385
 20
363.4837943473361
 30
0.0000000000000000
 11
736.7958961445385
 21
402.6504610154373
 31
0.0000000000000000
  0
INSERT
  5
2D0
100
AcDbEntity
  8
MAIN0
  6
BYBLOCK
 62
0
100
AcDbBlockReference
  2
_OPEN
 10
736.7958961445385
 20
356.8171276806694
 30
0.0000000000000000
 41
6.666666666666667
 42
6.666666666666667
 43
6.666666666666667
 50
270.0000000000000
  0
INSERT
  5
2D1
100
AcDbEntity
  8
MAIN0
  6
BYBLOCK
 62
0
100
AcDbBlockReference
  2
_OPEN
 10
736.7958961445385
 20
409.3171276821039
 30
0.0000000000000000
 41
6.666666666666667
 42
6.666666666666667
 43
6.666666666666667
 50
90.00000000000000
  0
LINE
  5
2D2
100
AcDbEntity
  8
MAIN0
  6
BYBLOCK
 62
0
100
AcDbLine
 10
753.1292294381356
 20
409.3171276821039
 30
0.0000000000000000
 11
730.1292294778718
 21
409.3171276821039
 31
0.0000000000000000
  0
MTEXT
  5
2D3
100
AcDbEntity
  8
MAIN0
  6
BYBLOCK
 62
0
100
AcDbMText
 10
729.9625629701509
 20
374.5853583372034
 30
0.0000000000000000
 40
10.33333301544190
 41
0.0000000000000000
 71
     5
 72
     1
  1
\A1;52.5
 11
6.123233995736766e-017
 21
1.000000000000000
 31
0.0000000000000000
  7
STANDARD
  0
ENDBLK
  5
2D4
100
AcDbEntity
  8
MAIN0
  6
CONTINUOUS
 62
3
100
AcDbBlockEnd
  0
BLOCK
  5
2D6
100
AcDbEntity
  8
MAIN0
  6
CONTINUOUS
 62
3
100
AcDbBlockBegin
  2
*D38
 70
    65
 10
0.0
 20
0.0
 30
0.0
  0
LINE
  5
2D7
100
AcDbEntity
  8
MAIN0
  6
BYBLOCK
 62
0
100
AcDbLine
 10
753.1292294381356
 20
409.3171276821039
 30
0.0000000000000000
 11
730.1292294778718
 21
409.3171276821039
 31
0.0000000000000000
  0
LINE
  5
2D8
100
AcDbEntity
  8
MAIN0
  6
BYBLOCK
 62
0
100
AcDbLine
 10
736.7958961445385
 20
415.9837943487706
 30
0.0000000000000000
 11
736.7958961445385
 21
460.1504610109178
 31
0.0000000000000000
  0
INSERT
  5
2D9
100
AcDbEntity
  8
MAIN0
  6
BYBLOCK
 62
0
100
AcDbBlockReference
  2
_OPEN
 10
736.7958961445385
 20
409.3171276821039
 30
0.0000000000000000
 41
6.666666666666667
 42
6.666666666666667
 43
6.666666666666667
 50
270.0000000000000
  0
INSERT
  5
2DA
100
AcDbEntity
  8
MAIN0
  6
BYBLOCK
 62
0
100
AcDbBlockReference
  2
_OPEN
 10
736.7958961445385
 20
466.8171276775844
 30
0.0000000000000000
 41
6.666666666666667
 42
6.666666666666667
 43
6.666666666666667
 50
90.00000000000000
  0
LINE
  5
2DB
100
AcDbEntity
  8
MAIN0
  6
BYBLOCK
 62
0
100
AcDbLine
 10
673.4625628508862
 20
466.8171276775844
 30
0.0000000000000000
 11
743.4625628112051
 21
466.8171276775844
 31
0.0000000000000000
  0
MTEXT
  5
2DC
100
AcDbEntity
  8
MAIN0
  6
BYBLOCK
 62
0
100
AcDbMText
 10
731.1292296368175
 20
438.0671276798442
 30
0.0000000000000000
 40
10.33333301544190
 41
0.0000000000000000
 71
     5
 72
     1
  1
\A1;57.5
 11
6.123233995736766e-017
 21
1.000000000000000
 31
0.0000000000000000
  7
STANDARD
  0
ENDBLK
  5
2DD
100
AcDbEntity
  8
MAIN0
  6
CONTINUOUS
 62
3
100
AcDbBlockEnd
  0
BLOCK
  5
2DF
100
AcDbEntity
  8
MAIN0
  6
CONTINUOUS
 62
3
100
AcDbBlockBegin
  2
*D39
 70
    65
 10
0.0
 20
0.0
 30
0.0
  0
LINE
  5
2E0
100
AcDbEntity
  8
MAIN0
  6
BYBLOCK
 62
0
100
AcDbLine
 10
421.7958961449946
 20
831.6004563124394
 30
0.0000000000000000
 11
421.7958961449946
 21
943.9022096125027
 31
0.0000000000000000
  0
LINE
  5
2E1
100
AcDbEntity
  8
MAIN0
  6
BYBLOCK
 62
0
100
AcDbLine
 10
428.4625628116613
 20
937.2355429458362
 30
0.0000000000000000
 11
466.1292294778393
 21
937.2355429458362
 31
0.0000000000000000
  0
INSERT
  5
2E2
100
AcDbEntity
  8
MAIN0
  6
BYBLOCK
 62
0
100
AcDbBlockReference
  2
_OPEN
 10
421.7958961449946
 20
937.2355429458362
 30
0.0000000000000000
 41
6.666666666666667
 42
6.666666666666667
 43
6.666666666666667
 50
180.0000000000000
  0
INSERT
  5
2E3
100
AcDbEntity
  8
MAIN0
  6
BYBLOCK
 62
0
100
AcDbBlockReference
  2
_OPEN
 10
472.7958961445060
 20
937.2355429458362
 30
0.0000000000000000
 41
6.666666666666667
 42
6.666666666666667
 43
6.666666666666667
 50
0.0000000000000000
  0
LINE
  5
2E4
100
AcDbEntity
  8
MAIN0
  6
BYBLOCK
 62
0
100
AcDbLine
 10
472.7958961445060
 20
920.1004563124395
 30
0.0000000000000000
 11
472.7958961445060
 21
943.9022096125027
 31
0.0000000000000000
  0
MTEXT
  5
2E5
100
AcDbEntity
  8
MAIN0
  6
BYBLOCK
 62
0
100
AcDbMText
 10
447.2958961447503
 20
942.9022094535571
 30
0.0000000000000000
 40
10.33333301544190
 41
0.0000000000000000
 71
     5
 72
     1
  1
\A1;51
 11
1.000000000000000
 21
0.0000000000000000
 31
0.0000000000000000
  7
STANDARD
  0
ENDBLK
  5
2E6
100
AcDbEntity
  8
MAIN0
  6
CONTINUOUS
 62
3
100
AcDbBlockEnd
  0
BLOCK
  5
2E8
100
AcDbEntity
  8
MAIN0
  6
CONTINUOUS
 62
3
100
AcDbBlockBegin
  2
*D40
 70
    65
 10
0.0
 20
0.0
 30
0.0
  0
LINE
  5
2E9
100
AcDbEntity
  8
MAIN0
  6
BYBLOCK
 62
0
100
AcDbLine
 10
1001.286144523019
 20
487.3113667725122
 30
0.0000000000000000
 11
1001.286144523019
 21
739.0002902878287
 31
0.0000000000000000
  0
LINE
  5
2EA
100
AcDbEntity
  8
MAIN0
  6
BYBLOCK
 62
0
100
AcDbLine
 10
1001.286144523019
 20
732.3336236211619
 30
0.0000000000000000
 11
1016.286144523019
 21
732.3336236211619
 31
0.0000000000000000
  0
INSERT
  5
2EB
100
AcDbEntity
  8
MAIN0
  6
BYBLOCK
 62
0
100
AcDbBlockReference
  2
_OPEN
 10
1001.286144523019
 20
732.3336236211619
 30
0.0000000000000000
 41
6.666666666666667
 42
6.666666666666667
 43
6.666666666666667
 50
0.0000000000000000
  0
INSERT
  5
2EC
100
AcDbEntity
  8
MAIN0
  6
BYBLOCK
 62
0
100
AcDbBlockReference
  2
_OPEN
 10
1016.286144523019
 20
732.3336236211619
 30
0.0000000000000000
 41
6.666666666666667
 42
6.666666666666667
 43
6.666666666666667
 50
180.0000000000000
  0
LINE
  5
2ED
100
AcDbEntity
  8
MAIN0
  6
BYBLOCK
 62
0
100
AcDbLine
 10
994.6194778563524
 20
732.3336236211619
 30
0.0000000000000000
 11
991.2861445230192
 21
732.3336236211619
 31
0.0000000000000000
  0
LINE
  5
2EE
100
AcDbEntity
  8
MAIN0
  6
BYBLOCK
 62
0
100
AcDbLine
 10
1022.952811189686
 20
732.3336236211619
 30
0.0000000000000000
 11
1026.286144523019
 21
732.3336236211619
 31
0.0000000000000000
  0
LINE
  5
2EF
100
AcDbEntity
  8
MAIN0
  6
BYBLOCK
 62
0
100
AcDbLine
 10
1016.286144523012
 20
496.9113667725121
 30
0.0000000000000000
 11
1016.286144523019
 21
739.0002902878287
 31
0.0000000000000000
  0
MTEXT
  5
2F0
100
AcDbEntity
  8
MAIN0
  6
BYBLOCK
 62
0
100
AcDbMText
 10
1008.786144523019
 20
738.0002901288829
 30
0.0000000000000000
 40
10.33333301544190
 41
0.0000000000000000
 71
     5
 72
     1
  1
\A1;15
 11
1.000000000000000
 21
0.0000000000000000
 31
0.0000000000000000
  7
STANDARD
  0
ENDBLK
  5
2F1
100
AcDbEntity
  8
MAIN0
  6
CONTINUOUS
 62
3
100
AcDbBlockEnd
  0
BLOCK
  5
2F3
100
AcDbEntity
  8
MAIN0
  6
CONTINUOUS
 62
3
100
AcDbBlockBegin
  2
*D41
 70
    65
 10
0.0
 20
0.0
 30
0.0
  0
LINE
  5
2F4
100
AcDbEntity
  8
MAIN0
  6
BYBLOCK
 62
0
100
AcDbLine
 10
1016.286144523012
 20
496.9113667725121
 30
0.0000000000000000
 11
1016.286144523019
 21
739.0002902878287
 31
0.0000000000000000
  0
LINE
  5
2F5
100
AcDbEntity
  8
MAIN0
  6
BYBLOCK
 62
0
100
AcDbLine
 10
1022.952811189686
 20
732.3336236211619
 30
0.0000000000000000
 11
1046.619477856518
 21
732.3336236211619
 31
0.0000000000000000
  0
INSERT
  5
2F6
100
AcDbEntity
  8
MAIN0
  6
BYBLOCK
 62
0
100
AcDbBlockReference
  2
_OPEN
 10
1016.286144523019
 20
732.3336236211619
 30
0.0000000000000000
 41
6.666666666666667
 42
6.666666666666667
 43
6.666666666666667
 50
180.0000000000000
  0
INSERT
  5
2F7
100
AcDbEntity
  8
MAIN0
  6
BYBLOCK
 62
0
100
AcDbBlockReference
  2
_OPEN
 10
1053.286144523184
 20
732.3336236211619
 30
0.0000000000000000
 41
6.666666666666667
 42
6.666666666666667
 43
6.666666666666667
 50
0.0000000000000000
  0
LINE
  5
2F8
100
AcDbEntity
  8
MAIN0
  6
BYBLOCK
 62
0
100
AcDbLine
 10
1053.286144523184
 20
700.3113667725145
 30
0.0000000000000000
 11
1053.286144523184
 21
739.0002902878287
 31
0.0000000000000000
  0
MTEXT
  5
2F9
100
AcDbEntity
  8
MAIN0
  6
BYBLOCK
 62
0
100
AcDbMText
 10
1034.786144523102
 20
738.0002901288829
 30
0.0000000000000000
 40
10.33333301544190
 41
0.0000000000000000
 71
     5
 72
     1
  1
\A1;37
 11
1.000000000000000
 21
0.0000000000000000
 31
0.0000000000000000
  7
STANDARD
  0
ENDBLK
  5
2FA
100
AcDbEntity
  8
MAIN0
  6
CONTINUOUS
 62
3
100
AcDbBlockEnd
  0
BLOCK
  5
2FC
100
AcDbEntity
  8
MAIN0
  6
CONTINUOUS
 62
3
100
AcDbBlockBegin
  2
*D42
 70
    65
 10
0.0
 20
0.0
 30
0.0
  0
LINE
  5
2FD
100
AcDbEntity
  8
MAIN0
  6
BYBLOCK
 62
0
100
AcDbLine
 10
1053.286144523184
 20
700.3113667725145
 30
0.0000000000000000
 11
1053.286144523184
 21
739.0002902878287
 31
0.0000000000000000
  0
LINE
  5
2FE
100
AcDbEntity
  8
MAIN0
  6
BYBLOCK
 62
0
100
AcDbLine
 10
1059.952811189851
 20
732.3336236211619
 30
0.0000000000000000
 11
1141.619477856530
 21
732.3336236211619
 31
0.0000000000000000
  0
INSERT
  5
2FF
100
AcDbEntity
  8
MAIN0
  6
BYBLOCK
 62
0
100
AcDbBlockReference
  2
_OPEN
 10
1053.286144523184
 20
732.3336236211619
 30
0.0000000000000000
 41
6.666666666666667
 42
6.666666666666667
 43
6.666666666666667
 50
180.0000000000000
  0
INSERT
  5
300
100
AcDbEntity
  8
MAIN0
  6
BYBLOCK
 62
0
100
AcDbBlockReference
  2
_OPEN
 10
1148.286144523197
 20
732.3336236211619
 30
0.0000000000000000
 41
6.666666666666667
 42
6.666666666666667
 43
6.666666666666667
 50
0.0000000000000000
  0
LINE
  5
301
100
AcDbEntity
  8
MAIN0
  6
BYBLOCK
 62
0
100
AcDbLine
 10
1148.286144523197
 20
712.3113667725122
 30
0.0000000000000000
 11
1148.286144523197
 21
739.0002902878287
 31
0.0000000000000000
  0
MTEXT
  5
302
100
AcDbEntity
  8
MAIN0
  6
BYBLOCK
 62
0
100
AcDbMText
 10
1100.786144523190
 20
738.0002901288829
 30
0.0000000000000000
 40
10.33333301544190
 41
0.0000000000000000
 71
     5
 72
     1
  1
\A1;95
 11
1.000000000000000
 21
0.0000000000000000
 31
0.0000000000000000
  7
STANDARD
  0
ENDBLK
  5
303
100
AcDbEntity
  8
MAIN0
  6
CONTINUOUS
 62
3
100
AcDbBlockEnd
  0
BLOCK
  5
305
100
AcDbEntity
  8
MAIN0
  6
CONTINUOUS
 62
3
100
AcDbBlockBegin
  2
*D43
 70
    65
 10
0.0
 20
0.0
 30
0.0
  0
LINE
  5
306
100
AcDbEntity
  8
MAIN0
  6
BYBLOCK
 62
0
100
AcDbLine
 10
1001.286144523019
 20
487.3113667725122
 30
0.0000000000000000
 11
1001.286144523019
 21
763.2134157821104
 31
0.0000000000000000
  0
LINE
  5
307
100
AcDbEntity
  8
MAIN0
  6
BYBLOCK
 62
0
100
AcDbLine
 10
1007.952811189686
 20
756.5467491154437
 30
0.0000000000000000
 11
1141.619477856530
 21
756.5467491154437
 31
0.0000000000000000
  0
INSERT
  5
308
100
AcDbEntity
  8
MAIN0
  6
BYBLOCK
 62
0
100
AcDbBlockReference
  2
_OPEN
 10
1001.286144523019
 20
756.5467491154437
 30
0.0000000000000000
 41
6.666666666666667
 42
6.666666666666667
 43
6.666666666666667
 50
180.0000000000000
  0
INSERT
  5
309
100
AcDbEntity
  8
MAIN0
  6
BYBLOCK
 62
0
100
AcDbBlockReference
  2
_OPEN
 10
1148.286144523197
 20
756.5467491154437
 30
0.0000000000000000
 41
6.666666666666667
 42
6.666666666666667
 43
6.666666666666667
 50
0.0000000000000000
  0
LINE
  5
30A
100
AcDbEntity
  8
MAIN0
  6
BYBLOCK
 62
0
100
AcDbLine
 10
1148.286144523197
 20
712.3113667725122
 30
0.0000000000000000
 11
1148.286144523197
 21
763.2134157821104
 31
0.0000000000000000
  0
MTEXT
  5
30B
100
AcDbEntity
  8
MAIN0
  6
BYBLOCK
 62
0
100
AcDbMText
 10
1074.786144523108
 20
762.2134156231647
 30
0.0000000000000000
 40
10.33333301544190
 41
0.0000000000000000
 71
     5
 72
     1
  1
\A1;147
 11
1.000000000000000
 21
0.0000000000000000
 31
0.0000000000000000
  7
STANDARD
  0
ENDBLK
  5
30C
100
AcDbEntity
  8
MAIN0
  6
CONTINUOUS
 62
3
100
AcDbBlockEnd
  0
BLOCK
  5
30F
100
AcDbEntity
  8
MAIN0
  6
CONTINUOUS
 62
3
100
AcDbBlockBegin
  2
*D44
 70
    65
 10
0.0
 20
0.0
 30
0.0
  0
LINE
  5
310
100
AcDbEntity
  8
MAIN0
  6
BYBLOCK
 62
0
100
AcDbLine
 10
1080.503184849292
 20
384.1504609727180
 30
0.0000000000000000
 11
1080.503184849292
 21
271.3467145246424
 31
0.0000000000000000
  0
LINE
  5
311
100
AcDbEntity
  8
MAIN0
  6
BYBLOCK
 62
0
100
AcDbLine
 10
1087.169851515959
 20
278.0133811913091
 30
0.0000000000000000
 11
1144.836518182663
 21
278.0133811913091
 31
0.0000000000000000
  0
INSERT
  5
312
100
AcDbEntity
  8
MAIN0
  6
BYBLOCK
 62
0
100
AcDbBlockReference
  2
_OPEN
 10
1080.503184849292
 20
278.0133811913091
 30
0.0000000000000000
 41
6.666666666666667
 42
6.666666666666667
 43
6.666666666666667
 50
180.0000000000000
  0
INSERT
  5
313
100
AcDbEntity
  8
MAIN0
  6
BYBLOCK
 62
0
100
AcDbBlockReference
  2
_OPEN
 10
1151.503184849330
 20
278.0133811913091
 30
0.0000000000000000
 41
6.666666666666667
 42
6.666666666666667
 43
6.666666666666667
 50
0.0000000000000000
  0
LINE
  5
314
100
AcDbEntity
  8
MAIN0
  6
BYBLOCK
 62
0
100
AcDbLine
 10
1151.503184849330
 20
354.5504609726124
 30
0.0000000000000000
 11
1151.503184849330
 21
271.3467145246424
 31
0.0000000000000000
  0
MTEXT
  5
315
100
AcDbEntity
  8
MAIN0
  6
BYBLOCK
 62
0
100
AcDbMText
 10
1116.003184849311
 20
283.6800476990301
 30
0.0000000000000000
 40
10.33333301544190
 41
0.0000000000000000
 71
     5
 72
     1
  1
\A1;71
 11
1.000000000000000
 21
0.0000000000000000
 31
0.0000000000000000
  7
STANDARD
  0
ENDBLK
  5
316
100
AcDbEntity
  8
MAIN0
  6
CONTINUOUS
 62
3
100
AcDbBlockEnd
  0
BLOCK
  5
318
100
AcDbEntity
  8
MAIN0
  6
CONTINUOUS
 62
3
100
AcDbBlockBegin
  2
*D45
 70
    65
 10
0.0
 20
0.0
 30
0.0
  0
LINE
  5
319
100
AcDbEntity
  8
MAIN0
  6
BYBLOCK
 62
0
100
AcDbLine
 10
1151.503184849330
 20
354.5504609726124
 30
0.0000000000000000
 11
1151.503184849330
 21
271.3467145246424
 31
0.0000000000000000
  0
LINE
  5
31A
100
AcDbEntity
  8
MAIN0
  6
BYBLOCK
 62
0
100
AcDbLine
 10
1158.169851515997
 20
278.0133811913091
 30
0.0000000000000000
 11
1346.836518182617
 21
278.0133811913091
 31
0.0000000000000000
  0
INSERT
  5
31B
100
AcDbEntity
  8
MAIN0
  6
BYBLOCK
 62
0
100
AcDbBlockReference
  2
_OPEN
 10
1151.503184849330
 20
278.0133811913091
 30
0.0000000000000000
 41
6.666666666666667
 42
6.666666666666667
 43
6.666666666666667
 50
180.0000000000000
  0
INSERT
  5
31C
100
AcDbEntity
  8
MAIN0
  6
BYBLOCK
 62
0
100
AcDbBlockReference
  2
_OPEN
 10
1353.503184849283
 20
278.0133811913091
 30
0.0000000000000000
 41
6.666666666666667
 42
6.666666666666667
 43
6.666666666666667
 50
0.0000000000000000
  0
LINE
  5
31D
100
AcDbEntity
  8
MAIN0
  6
BYBLOCK
 62
0
100
AcDbLine
 10
1353.503184849283
 20
354.5504609725273
 30
0.0000000000000000
 11
1353.503184849283
 21
271.3467145246424
 31
0.0000000000000000
  0
MTEXT
  5
31E
100
AcDbEntity
  8
MAIN0
  6
BYBLOCK
 62
0
100
AcDbMText
 10
1252.503184849307
 20
283.6800476990301
 30
0.0000000000000000
 40
10.33333301544190
 41
0.0000000000000000
 71
     5
 72
     1
  1
\A1;202
 11
1.000000000000000
 21
0.0000000000000000
 31
0.0000000000000000
  7
STANDARD
  0
ENDBLK
  5
31F
100
AcDbEntity
  8
MAIN0
  6
CONTINUOUS
 62
3
100
AcDbBlockEnd
  0
BLOCK
  5
321
100
AcDbEntity
  8
MAIN0
  6
CONTINUOUS
 62
3
100
AcDbBlockBegin
  2
D46
 70
    64
 10
0.0
 20
0.0
 30
0.0
  0
LINE
  5
322
100
AcDbEntity
  8
MAIN0
  6
BYBLOCK
 62
0
100
AcDbLine
 10
25.04874125201138
 20
-94.19513397313871
 30
0.0000000000000000
 11
-172.0000000000511
 21
-94.19513397305596
 31
0.0000000000000000
  0
LINE
  5
323
100
AcDbEntity
  8
MAIN0
  6
BYBLOCK
 62
0
100
AcDbLine
 10
-165.3333333333852
 20
-96.19513405253161
 30
0.0000000000000000
 11
-172.0000000000511
 21
-94.19513397305596
 31
0.0000000000000000
  0
LINE
  5
324
100
AcDbEntity
  8
MAIN0
  6
BYBLOCK
 62
0
100
AcDbLine
 10
-172.0000000000511
 20
-94.19513397305596
 30
0.0000000000000000
 11
-165.3333333333835
 21
-92.19513389358590
 31
0.0000000000000000
  0
LINE
  5
325
100
AcDbEntity
  8
MAIN0
  6
BYBLOCK
 62
0
100
AcDbLine
 10
-171.9999999999957
 20
37.58054349377758
 30
0.0000000000000000
 11
-172.0000000000539
 21
-100.8618006397226
 31
0.0000000000000000
  0
MTEXT
  5
326
100
AcDbEntity
  8
MAIN0
  6
BYBLOCK
 62
0
100
AcDbMText
 10
17.29874124828632
 20
-88.52846746541449
 30
0.0000000000000000
 40
10.33333301544190
 41
0.0000000000000000
 71
     5
 72
     1
  1
\A1;（344）
 11
1.000000000000000
 21
0.0000000000000000
 31
0.0000000000000000
  7
KNJYOKO
  0
ENDBLK
  5
327
100
AcDbEntity
  8
MAIN0
  6
CONTINUOUS
 62
3
100
AcDbBlockEnd
  0
BLOCK
  5
329
100
AcDbEntity
  8
MAIN0
  6
CONTINUOUS
 62
1
100
AcDbBlockBegin
  2
*D47
 70
    65
 10
0.0
 20
0.0
 30
0.0
  0
LINE
  5
32A
100
AcDbEntity
  8
MAIN0
  6
BYBLOCK
 62
0
100
AcDbLine
 10
1128.503184849291
 20
301.8738794138785
 30
0.0000000000000000
 11
1151.503184849330
 21
301.8738794138785
 31
0.0000000000000000
  0
INSERT
  5
32B
100
AcDbEntity
  8
MAIN0
  6
BYBLOCK
 62
0
100
AcDbBlockReference
  2
_OPEN
 10
1128.503184849291
 20
301.8738794138785
 30
0.0000000000000000
 41
6.666666666666667
 42
6.666666666666667
 43
6.666666666666667
 50
0.0000000000000000
  0
INSERT
  5
32C
100
AcDbEntity
  8
MAIN0
  6
BYBLOCK
 62
0
100
AcDbBlockReference
  2
_OPEN
 10
1151.503184849330
 20
301.8738794138785
 30
0.0000000000000000
 41
6.666666666666667
 42
6.666666666666667
 43
6.666666666666667
 50
180.0000000000000
  0
LINE
  5
32D
100
AcDbEntity
  8
MAIN0
  6
BYBLOCK
 62
0
100
AcDbLine
 10
1121.836518182624
 20
301.8738794138785
 30
0.0000000000000000
 11
1118.503184849291
 21
301.8738794138785
 31
0.0000000000000000
  0
LINE
  5
32E
100
AcDbEntity
  8
MAIN0
  6
BYBLOCK
 62
0
100
AcDbLine
 10
1158.169851515997
 20
301.8738794138785
 30
0.0000000000000000
 11
1195.366578867303
 21
301.8738794138785
 31
0.0000000000000000
  0
LINE
  5
32F
100
AcDbEntity
  8
MAIN0
  6
BYBLOCK
 62
0
100
AcDbLine
 10
1151.503184849330
 20
354.5504609726124
 30
0.0000000000000000
 11
1151.503184849330
 21
295.2072127472118
 31
0.0000000000000000
  0
MTEXT
  5
330
100
AcDbEntity
  8
MAIN0
  6
BYBLOCK
 62
0
100
AcDbMText
 10
1177.199912836419
 20
308.7072125882661
 30
0.0000000000000000
 40
10.33333301544190
 41
0.0000000000000000
 71
     5
 72
     1
  1
\A1;15～31
 11
1.000000000000000
 21
0.0000000000000000
 31
0.0000000000000000
  7
KNJYOKO
  0
ENDBLK
  5
331
100
AcDbEntity
  8
MAIN0
  6
CONTINUOUS
 62
1
100
AcDbBlockEnd
  0
BLOCK
  5
33A
100
AcDbEntity
  8
MAIN0
  6
CONTINUOUS
 62
3
100
AcDbBlockBegin
  2
*D48
 70
    65
 10
0.0
 20
0.0
 30
0.0
  0
LINE
  5
33B
100
AcDbEntity
  8
MAIN0
  6
BYBLOCK
 62
0
100
AcDbLine
 10
1003.811780498933
 20
389.4837943855562
 30
0.0000000000000000
 11
1003.811780498933
 21
427.2567886448604
 31
0.0000000000000000
  0
LINE
  5
33C
100
AcDbEntity
  8
MAIN0
  6
BYBLOCK
 62
0
100
AcDbLine
 10
1010.478447165600
 20
420.5901219781938
 30
0.0000000000000000
 11
1042.145113832266
 21
420.5901219781938
 31
0.0000000000000000
  0
INSERT
  5
33D
100
AcDbEntity
  8
MAIN0
  6
BYBLOCK
 62
0
100
AcDbBlockReference
  2
_OPEN
 10
1003.811780498933
 20
420.5901219781938
 30
0.0000000000000000
 41
6.666666666666667
 42
6.666666666666667
 43
6.666666666666667
 50
180.0000000000000
  0
INSERT
  5
33E
100
AcDbEntity
  8
MAIN0
  6
BYBLOCK
 62
0
100
AcDbBlockReference
  2
_OPEN
 10
1048.811780498933
 20
420.5901219781938
 30
0.0000000000000000
 41
6.666666666666667
 42
6.666666666666667
 43
6.666666666666667
 50
0.0000000000000000
  0
LINE
  5
33F
100
AcDbEntity
  8
MAIN0
  6
BYBLOCK
 62
0
100
AcDbLine
 10
1048.811780498933
 20
389.4837943855423
 30
0.0000000000000000
 11
1048.811780498933
 21
427.2567886448604
 31
0.0000000000000000
  0
MTEXT
  5
340
100
AcDbEntity
  8
MAIN0
  6
BYBLOCK
 62
0
100
AcDbMText
 10
1026.311780498933
 20
426.2567884859147
 30
0.0000000000000000
 40
10.33333301544190
 41
0.0000000000000000
 71
     5
 72
     1
  1
\A1;45
 11
1.000000000000000
 21
0.0000000000000000
 31
0.0000000000000000
  7
STANDARD
  0
ENDBLK
  5
341
100
AcDbEntity
  8
MAIN0
  6
CONTINUOUS
 62
3
100
AcDbBlockEnd
  0
BLOCK
  5
343
100
AcDbEntity
  8
MAIN0
  6
CONTINUOUS
 62
3
100
AcDbBlockBegin
  2
*D49
 70
    65
 10
0.0
 20
0.0
 30
0.0
  0
LINE
  5
344
100
AcDbEntity
  8
MAIN0
  6
BYBLOCK
 62
0
100
AcDbLine
 10
1110.836518142843
 20
233.5290217654578
 30
0.0000000000000000
 11
1085.325515147931
 21
233.5290217654578
 31
0.0000000000000000
  0
LINE
  5
345
100
AcDbEntity
  8
MAIN0
  6
BYBLOCK
 62
0
100
AcDbLine
 10
1091.992181814597
 20
233.5290217654578
 30
0.0000000000000000
 11
1091.992181814597
 21
205.0290217654581
 31
0.0000000000000000
  0
INSERT
  5
346
100
AcDbEntity
  8
MAIN0
  6
BYBLOCK
 62
0
100
AcDbBlockReference
  2
_OPEN
 10
1091.992181814597
 20
233.5290217654578
 30
0.0000000000000000
 41
6.666666666666667
 42
6.666666666666667
 43
6.666666666666667
 50
270.0000000000000
  0
INSERT
  5
347
100
AcDbEntity
  8
MAIN0
  6
BYBLOCK
 62
0
100
AcDbBlockReference
  2
_OPEN
 10
1091.992181814597
 20
205.0290217654581
 30
0.0000000000000000
 41
6.666666666666667
 42
6.666666666666667
 43
6.666666666666667
 50
90.00000000000000
  0
LINE
  5
348
100
AcDbEntity
  8
MAIN0
  6
BYBLOCK
 62
0
100
AcDbLine
 10
1091.992181814597
 20
240.1956884321245
 30
0.0000000000000000
 11
1091.992181814597
 21
243.5290217654578
 31
0.0000000000000000
  0
LINE
  5
349
100
AcDbEntity
  8
MAIN0
  6
BYBLOCK
 62
0
100
AcDbLine
 10
1091.992181814597
 20
198.3623550987914
 30
0.0000000000000000
 11
1091.992181814597
 21
195.0290217654581
 31
0.0000000000000000
  0
LINE
  5
34A
100
AcDbEntity
  8
MAIN0
  6
BYBLOCK
 62
0
100
AcDbLine
 10
1110.836518142863
 20
205.0290217654581
 30
0.0000000000000000
 11
1085.325515147931
 21
205.0290217654581
 31
0.0000000000000000
  0
MTEXT
  5
34B
100
AcDbEntity
  8
MAIN0
  6
BYBLOCK
 62
0
100
AcDbMText
 10
1086.325515306876
 20
219.2790217654579
 30
0.0000000000000000
 40
10.33333301544190
 41
0.0000000000000000
 71
     5
 72
     1
  1
\A1;28.5
 11
6.123233995736766e-017
 21
1.000000000000000
 31
0.0000000000000000
  7
STANDARD
  0
ENDBLK
  5
34C
100
AcDbEntity
  8
MAIN0
  6
CONTINUOUS
 62
3
100
AcDbBlockEnd
  0
BLOCK
  5
34E
100
AcDbEntity
  8
MAIN0
  6
CONTINUOUS
 62
3
100
AcDbBlockBegin
  2
*D50
 70
    65
 10
0.0
 20
0.0
 30
0.0
  0
LINE
  5
34F
100
AcDbEntity
  8
MAIN0
  6
BYBLOCK
 62
0
100
AcDbLine
 10
1146.169851555653
 20
228.0290217654505
 30
0.0000000000000000
 11
1177.085938714321
 21
228.0290217654600
 31
0.0000000000000000
  0
LINE
  5
350
100
AcDbEntity
  8
MAIN0
  6
BYBLOCK
 62
0
100
AcDbLine
 10
1170.419272047654
 20
228.0290217654579
 30
0.0000000000000000
 11
1170.419272047654
 21
210.5290217654581
 31
0.0000000000000000
  0
INSERT
  5
351
100
AcDbEntity
  8
MAIN0
  6
BYBLOCK
 62
0
100
AcDbBlockReference
  2
_OPEN
 10
1170.419272047654
 20
228.0290217654579
 30
0.0000000000000000
 41
6.666666666666667
 42
6.666666666666667
 43
6.666666666666667
 50
270.0000000000000
  0
INSERT
  5
352
100
AcDbEntity
  8
MAIN0
  6
BYBLOCK
 62
0
100
AcDbBlockReference
  2
_OPEN
 10
1170.419272047654
 20
210.5290217654581
 30
0.0000000000000000
 41
6.666666666666667
 42
6.666666666666667
 43
6.666666666666667
 50
90.00000000000000
  0
LINE
  5
353
100
AcDbEntity
  8
MAIN0
  6
BYBLOCK
 62
0
100
AcDbLine
 10
1170.419272047654
 20
234.6956884321246
 30
0.0000000000000000
 11
1170.419272047654
 21
238.0290217654579
 31
0.0000000000000000
  0
LINE
  5
354
100
AcDbEntity
  8
MAIN0
  6
BYBLOCK
 62
0
100
AcDbLine
 10
1170.419272047654
 20
203.8623550987914
 30
0.0000000000000000
 11
1170.419272047654
 21
178.7086079364544
 31
0.0000000000000000
  0
LINE
  5
355
100
AcDbEntity
  8
MAIN0
  6
BYBLOCK
 62
0
100
AcDbLine
 10
1146.169851555665
 20
210.5290217654506
 30
0.0000000000000000
 11
1177.085938714321
 21
210.5290217654601
 31
0.0000000000000000
  0
MTEXT
  5
356
100
AcDbEntity
  8
MAIN0
  6
BYBLOCK
 62
0
100
AcDbMText
 10
1163.585938873267
 20
190.8752749210125
 30
0.0000000000000000
 40
10.33333301544190
 41
0.0000000000000000
 71
     5
 72
     1
  1
\A1;17.5
 11
6.123233995736766e-017
 21
1.000000000000000
 31
0.0000000000000000
  7
STANDARD
  0
ENDBLK
  5
357
100
AcDbEntity
  8
MAIN0
  6
CONTINUOUS
 62
3
100
AcDbBlockEnd
  0
BLOCK
  5
359
100
AcDbEntity
  8
MAIN0
  6
CONTINUOUS
 62
3
100
AcDbBlockBegin
  2
*D51
 70
    65
 10
0.0
 20
0.0
 30
0.0
  0
LINE
  5
35A
100
AcDbEntity
  8
MAIN0
  6
BYBLOCK
 62
0
100
AcDbLine
 10
1113.503184849266
 20
202.3623550590549
 30
0.0000000000000000
 11
1113.503184849266
 21
174.3878466141959
 31
0.0000000000000000
  0
LINE
  5
35B
100
AcDbEntity
  8
MAIN0
  6
BYBLOCK
 62
0
100
AcDbLine
 10
1120.169851515933
 20
181.0545132808625
 30
0.0000000000000000
 11
1136.836518182599
 21
181.0545132808625
 31
0.0000000000000000
  0
INSERT
  5
35C
100
AcDbEntity
  8
MAIN0
  6
BYBLOCK
 62
0
100
AcDbBlockReference
  2
_OPEN
 10
1113.503184849266
 20
181.0545132808625
 30
0.0000000000000000
 41
6.666666666666667
 42
6.666666666666667
 43
6.666666666666667
 50
180.0000000000000
  0
INSERT
  5
35D
100
AcDbEntity
  8
MAIN0
  6
BYBLOCK
 62
0
100
AcDbBlockReference
  2
_OPEN
 10
1143.503184849266
 20
181.0545132808625
 30
0.0000000000000000
 41
6.666666666666667
 42
6.666666666666667
 43
6.666666666666667
 50
0.0000000000000000
  0
LINE
  5
35E
100
AcDbEntity
  8
MAIN0
  6
BYBLOCK
 62
0
100
AcDbLine
 10
1143.503184849266
 20
202.3623550590466
 30
0.0000000000000000
 11
1143.503184849266
 21
174.3878466141959
 31
0.0000000000000000
  0
MTEXT
  5
35F
100
AcDbEntity
  8
MAIN0
  6
BYBLOCK
 62
0
100
AcDbMText
 10
1128.503184849266
 20
186.7211797885835
 30
0.0000000000000000
 40
10.33333301544190
 41
0.0000000000000000
 71
     5
 72
     1
  1
\A1;30
 11
1.000000000000000
 21
0.0000000000000000
 31
0.0000000000000000
  7
STANDARD
  0
ENDBLK
  5
360
100
AcDbEntity
  8
MAIN0
  6
CONTINUOUS
 62
3
100
AcDbBlockEnd
  0
BLOCK
  5
362
100
AcDbEntity
  8
MAIN0
  6
CONTINUOUS
 62
3
100
AcDbBlockBegin
  2
*D52
 70
    65
 10
0.0
 20
0.0
 30
0.0
  0
LINE
  5
363
100
AcDbEntity
  8
MAIN0
  6
BYBLOCK
 62
0
100
AcDbLine
 10
644.7958961444916
 20
466.8171276768411
 30
0.0000000000000000
 11
644.7958961444916
 21
492.0171276765054
 31
0.0000000000000000
  0
INSERT
  5
364
100
AcDbEntity
  8
MAIN0
  6
BYBLOCK
 62
0
100
AcDbBlockReference
  2
_OPEN
 10
644.7958961444916
 20
466.8171276768411
 30
0.0000000000000000
 41
6.666666666666667
 42
6.666666666666667
 43
6.666666666666667
 50
90.00000000000000
  0
INSERT
  5
365
100
AcDbEntity
  8
MAIN0
  6
BYBLOCK
 62
0
100
AcDbBlockReference
  2
_OPEN
 10
644.7958961444916
 20
492.0171276765054
 30
0.0000000000000000
 41
6.666666666666667
 42
6.666666666666667
 43
6.666666666666667
 50
270.0000000000000
  0
LINE
  5
366
100
AcDbEntity
  8
MAIN0
  6
BYBLOCK
 62
0
100
AcDbLine
 10
644.7958961444916
 20
460.1504610101745
 30
0.0000000000000000
 11
644.7958961444916
 21
456.8171276768411
 31
0.0000000000000000
  0
LINE
  5
367
100
AcDbEntity
  8
MAIN0
  6
BYBLOCK
 62
0
100
AcDbLine
 10
644.7958961444916
 20
498.6837943431721
 30
0.0000000000000000
 11
644.7958961444916
 21
502.0171276765054
 31
0.0000000000000000
  0
LINE
  5
368
100
AcDbEntity
  8
MAIN0
  6
BYBLOCK
 62
0
100
AcDbLine
 10
668.1292294381028
 20
492.0171276765054
 30
0.0000000000000000
 11
638.1292294778250
 21
492.0171276765054
 31
0.0000000000000000
  0
MTEXT
  5
369
100
AcDbEntity
  8
MAIN0
  6
BYBLOCK
 62
0
100
AcDbMText
 10
639.1292296367707
 20
479.4171276766732
 30
0.0000000000000000
 40
10.33333301544190
 41
0.0000000000000000
 71
     5
 72
     1
  1
\A1;25
 11
6.123233995736766e-017
 21
1.000000000000000
 31
0.0000000000000000
  7
STANDARD
  0
ENDBLK
  5
36A
100
AcDbEntity
  8
MAIN0
  6
CONTINUOUS
 62
3
100
AcDbBlockEnd
  0
BLOCK
  5
36C
100
AcDbEntity
  8
MAIN0
  6
CONTINUOUS
 62
3
100
AcDbBlockBegin
  2
*D53
 70
    65
 10
0.0
 20
0.0
 30
0.0
  0
LINE
  5
36D
100
AcDbEntity
  8
MAIN0
  6
BYBLOCK
 62
0
100
AcDbLine
 10
369.7958961442743
 20
354.5504609758627
 30
0.0000000000000000
 11
369.7958961442743
 21
285.1504610155740
 31
0.0000000000000000
  0
LINE
  5
36E
100
AcDbEntity
  8
MAIN0
  6
BYBLOCK
 62
0
100
AcDbLine
 10
376.4625628109410
 20
291.8171276822407
 30
0.0000000000000000
 11
873.1292294776071
 21
291.8171276822407
 31
0.0000000000000000
  0
INSERT
  5
36F
100
AcDbEntity
  8
MAIN0
  6
BYBLOCK
 62
0
100
AcDbBlockReference
  2
_OPEN
 10
369.7958961442743
 20
291.8171276822407
 30
0.0000000000000000
 41
6.666666666666667
 42
6.666666666666667
 43
6.666666666666667
 50
180.0000000000000
  0
INSERT
  5
370
100
AcDbEntity
  8
MAIN0
  6
BYBLOCK
 62
0
100
AcDbBlockReference
  2
_OPEN
 10
879.7958961442737
 20
291.8171276822407
 30
0.0000000000000000
 41
6.666666666666667
 42
6.666666666666667
 43
6.666666666666667
 50
0.0000000000000000
  0
LINE
  5
371
100
AcDbEntity
  8
MAIN0
  6
BYBLOCK
 62
0
100
AcDbLine
 10
879.7958961442737
 20
354.5504609742652
 30
0.0000000000000000
 11
879.7958961442737
 21
285.1504610155740
 31
0.0000000000000000
  0
MTEXT
  5
372
100
AcDbEntity
  8
MAIN0
  6
BYBLOCK
 62
0
100
AcDbMText
 10
624.7958961442740
 20
297.4837941899617
 30
0.0000000000000000
 40
10.33333301544190
 41
0.0000000000000000
 71
     5
 72
     1
  1
\A1;510
 11
1.000000000000000
 21
0.0000000000000000
 31
0.0000000000000000
  7
STANDARD
  0
ENDBLK
  5
373
100
AcDbEntity
  8
MAIN0
  6
CONTINUOUS
 62
3
100
AcDbBlockEnd
  0
BLOCK
  5
375
100
AcDbEntity
  8
MAIN0
  6
CONTINUOUS
 62
3
100
AcDbBlockBegin
  2
*D54
 70
    65
 10
0.0
 20
0.0
 30
0.0
  0
LINE
  5
376
100
AcDbEntity
  8
MAIN0
  6
BYBLOCK
 62
0
100
AcDbLine
 10
879.7958961442737
 20
354.5504609742652
 30
0.0000000000000000
 11
879.7958961442737
 21
285.1504610155740
 31
0.0000000000000000
  0
LINE
  5
377
100
AcDbEntity
  8
MAIN0
  6
BYBLOCK
 62
0
100
AcDbLine
 10
886.4625628109404
 20
291.8171276822407
 30
0.0000000000000000
 11
968.1292294779278
 21
291.8171276822407
 31
0.0000000000000000
  0
INSERT
  5
378
100
AcDbEntity
  8
MAIN0
  6
BYBLOCK
 62
0
100
AcDbBlockReference
  2
_OPEN
 10
879.7958961442737
 20
291.8171276822407
 30
0.0000000000000000
 41
6.666666666666667
 42
6.666666666666667
 43
6.666666666666667
 50
180.0000000000000
  0
INSERT
  5
379
100
AcDbEntity
  8
MAIN0
  6
BYBLOCK
 62
0
100
AcDbBlockReference
  2
_OPEN
 10
974.7958961445943
 20
291.8171276822407
 30
0.0000000000000000
 41
6.666666666666667
 42
6.666666666666667
 43
6.666666666666667
 50
0.0000000000000000
  0
LINE
  5
37A
100
AcDbEntity
  8
MAIN0
  6
BYBLOCK
 62
0
100
AcDbLine
 10
974.7958961445943
 20
404.1504609733117
 30
0.0000000000000000
 11
974.7958961445943
 21
285.1504610155740
 31
0.0000000000000000
  0
MTEXT
  5
37B
100
AcDbEntity
  8
MAIN0
  6
BYBLOCK
 62
0
100
AcDbMText
 10
927.2958961444340
 20
297.4837941899617
 30
0.0000000000000000
 40
10.33333301544190
 41
0.0000000000000000
 71
     5
 72
     1
  1
\A1;95
 11
1.000000000000000
 21
0.0000000000000000
 31
0.0000000000000000
  7
STANDARD
  0
ENDBLK
  5
37C
100
AcDbEntity
  8
MAIN0
  6
CONTINUOUS
 62
3
100
AcDbBlockEnd
  0
BLOCK
  5
37E
100
AcDbEntity
  8
MAIN0
  6
CONTINUOUS
 62
3
100
AcDbBlockBegin
  2
*D55
 70
    65
 10
0.0
 20
0.0
 30
0.0
  0
LINE
  5
37F
100
AcDbEntity
  8
MAIN0
  6
BYBLOCK
 62
0
100
AcDbLine
 10
882.0625628506757
 20
356.8171276806938
 30
0.0000000000000000
 11
996.9434277387716
 21
356.8171276817449
 31
0.0000000000000000
  0
LINE
  5
380
100
AcDbEntity
  8
MAIN0
  6
BYBLOCK
 62
0
100
AcDbLine
 10
990.2767610721048
 20
363.4837943483506
 30
0.0000000000000000
 11
990.2767610721048
 21
425.1504610130485
 31
0.0000000000000000
  0
INSERT
  5
381
100
AcDbEntity
  8
MAIN0
  6
BYBLOCK
 62
0
100
AcDbBlockReference
  2
_OPEN
 10
990.2767610721048
 20
356.8171276816839
 30
0.0000000000000000
 41
6.666666666666667
 42
6.666666666666667
 43
6.666666666666667
 50
270.0000000000000
  0
INSERT
  5
382
100
AcDbEntity
  8
MAIN0
  6
BYBLOCK
 62
0
100
AcDbBlockReference
  2
_OPEN
 10
990.2767610721048
 20
431.8171276797152
 30
0.0000000000000000
 41
6.666666666666667
 42
6.666666666666667
 43
6.666666666666667
 50
90.00000000000000
  0
LINE
  5
383
100
AcDbEntity
  8
MAIN0
  6
BYBLOCK
 62
0
100
AcDbLine
 10
984.7448469393257
 20
431.8171276797152
 30
0.0000000000000000
 11
996.9434277387716
 21
431.8171276797152
 31
0.0000000000000000
  0
MTEXT
  5
384
100
AcDbEntity
  8
MAIN0
  6
BYBLOCK
 62
0
100
AcDbMText
 10
984.6100945643839
 20
394.3171276806995
 30
0.0000000000000000
 40
10.33333301544190
 41
0.0000000000000000
 71
     5
 72
     1
  1
\A1;75
 11
6.123233995736766e-017
 21
1.000000000000000
 31
0.0000000000000000
  7
STANDARD
  0
ENDBLK
  5
385
100
AcDbEntity
  8
MAIN0
  6
CONTINUOUS
 62
3
100
AcDbBlockEnd
  0
ENDSEC
  0
SECTION
  2
ENTITIES
  0
LEADER
  5
46
100
AcDbEntity
  8
MAIN0
  6
CONTINUOUS
 62
3
100
AcDbLeader
  3
MAIN001
 73
     0
 75
     1
 40
10.33333301544190
 41
119.6323368619283
 76
     3
 10
418.4179400997979
 20
530.8784118171964
 30
0.0000000000000000
 10
358.8412081052955
 20
641.2263224713438
 30
0.0000000000000000
 10
352.4202082912620
 20
641.2263224713438
 30
0.0000000000000000
340
47
213
0.0000000000000000
223
-1.666666666666629
233
0.0000000000000000
1001
ACAD
1000
DSTYLE
1002
{
1070
   147
1040
0.0
1070
    77
1070
     1
1070
   173
1070
     1
1070
     6
1000
_OPEN
1070
     7
1000
_OPEN
1002
}
  0
MTEXT
  5
47
102
{ACAD_REACTORS
330
46
102
}
100
AcDbEntity
  8
MAIN0
  6
CONTINUOUS
 62
3
100
AcDbMText
 10
232.7878714293337
 20
653.2263221534523
 30
0.0000000000000000
 40
10.33333301544190
 41
0.0000000000000000
 71
     1
 72
     1
  1
{\H0.93x;{2×2-M10 深さ20\P        DEPTH}}
 11
1.000000000000000
 21
0.0000000000000000
 31
0.0000000000000000
  7
KNJYOKO
  0
LEADER
  5
48
100
AcDbEntity
  8
MAIN0
  6
CONTINUOUS
 62
3
100
AcDbLeader
  3
MAIN001
 73
     0
 74
     0
 75
     1
 40
10.33333301544190
 41
66.13433523273466
 76
     3
 10
766.0247745048189
 20
414.1637613566904
 30
0.0000000000000000
 10
789.0150532794572
 20
504.0171276762401
 30
0.0000000000000000
 10
795.4340530934908
 20
504.0171276762401
 30
0.0000000000000000
340
49
213
0.0000000000000000
223
-1.666666666666686
233
0.0000000000000000
1001
ACAD
1000
DSTYLE
1002
{
1070
   147
1040
0.0
1070
    77
1070
     1
1070
   173
1070
     1
1070
     6
1000
_OPEN
1070
     7
1000
_OPEN
1002
}
  0
MTEXT
  5
49
102
{ACAD_REACTORS
330
48
102
}
100
AcDbEntity
  8
MAIN0
  6
CONTINUOUS
 62
3
100
AcDbMText
 10
795.4350530934908
 20
516.0171273583487
 30
0.0000000000000000
 40
10.33333301544190
 41
0.0000000000000000
 71
     1
 72
     1
  1
{\H0.93x;{2×2-M10}}
 11
1.000000000000000
 21
0.0000000000000000
 31
0.0000000000000000
  7
KNJYOKO
  0
DIMENSION
  5
52
100
AcDbEntity
  8
MAIN0
  6
CONTINUOUS
 62
3
100
AcDbDimension
  2
*D0
 10
353.7958961442726
 20
536.8171276767666
 30
0.0000000000000000
 11
352.7958961442726
 21
489.7749100051376
 31
0.0000000000000000
 70
160
  3
MAIN001
100
AcDbAlignedDimension
 13
371.1958961445057
 23
466.8171276767661
 33
0.0000000000000000
 14
370.9958961445055
 24
536.8171276767666
 34
0.0000000000000000
 50
90.00000000000000
100
AcDbRotatedDimension
1001
ACAD
1000
DSTYLE
1002
{
1070
   173
1070
     1
1070
     6
1000
_OPEN
1070
     7
1000
_OPEN
1070
    41
1040
6.666667
1002
}
  0
DIMENSION
  5
5B
100
AcDbEntity
  8
MAIN0
  6
CONTINUOUS
 62
3
100
AcDbDimension
  2
*D1
 10
353.7958961442726
 20
466.8171276767660
 30
0.0000000000000000
 11
353.2958961442726
 21
411.8171276795160
 31
0.0000000000000000
 70
32
  3
MAIN001
100
AcDbAlignedDimension
 13
370.1958961442738
 23
356.8171276822661
 33
0.0000000000000000
 14
371.1958961445057
 24
466.8171276767661
 34
0.0000000000000000
 50
90.00000000000000
100
AcDbRotatedDimension
1001
ACAD
1000
DSTYLE
1002
{
1070
   173
1070
     1
1070
     6
1000
_OPEN
1070
     7
1000
_OPEN
1070
    41
1040
6.666667
1002
}
  0
DIMENSION
  5
64
100
AcDbEntity
  8
MAIN0
  6
CONTINUOUS
 62
3
100
AcDbDimension
  2
*D2
 10
337.7958961442726
 20
536.8171276767664
 30
0.0000000000000000
 11
337.2958961442726
 21
446.8171276795163
 31
0.0000000000000000
 70
32
  3
MAIN001
100
AcDbAlignedDimension
 13
370.1958961442738
 23
356.8171276822661
 33
0.0000000000000000
 14
370.9958961445055
 24
536.8171276767666
 34
0.0000000000000000
 50
90.00000000000000
100
AcDbRotatedDimension
1001
ACAD
1000
DSTYLE
1002
{
1070
   173
1070
     1
1070
     6
1000
_OPEN
1070
     7
1000
_OPEN
1070
    41
1040
6.666667
1002
}
  0
DIMENSION
  5
6F
100
AcDbEntity
  8
MAIN0
  6
CONTINUOUS
 62
3
100
AcDbDimension
  2
*D3
 10
537.7958961442727
 20
331.8171276817402
 30
0.0000000000000000
 11
520.5521910435598
 21
333.4837943484068
 31
0.0000000000000000
 70
160
  3
MAIN001
100
AcDbAlignedDimension
 13
555.7958961442727
 23
351.8171276817406
 33
0.0000000000000000
 14
537.7958961442727
 24
351.8171276817406
 34
0.0000000000000000
100
AcDbRotatedDimension
1001
ACAD
1000
DSTYLE
1002
{
1070
   173
1070
     1
1070
     6
1000
_OPEN
1070
     7
1000
_OPEN
1070
    41
1040
6.666667
1070
   287
1070
     0
1002
}
  0
DIMENSION
  5
78
100
AcDbEntity
  8
MAIN0
  6
CONTINUOUS
 62
3
100
AcDbDimension
  2
*D4
 10
369.7958961442745
 20
271.8171276822407
 30
0.0000000000000000
 11
478.8970793681452
 21
272.8171276822407
 31
0.0000000000000000
 70
160
  3
MAIN001
100
AcDbAlignedDimension
 13
546.7958961442727
 23
342.8274104215142
 33
0.0000000000000000
 14
369.7958961442743
 24
357.2171276822658
 34
0.0000000000000000
100
AcDbRotatedDimension
1001
ACAD
1000
DSTYLE
1002
{
1070
   173
1070
     1
1070
     6
1000
_OPEN
1070
     7
1000
_OPEN
1070
    41
1040
6.666667
1002
}
  0
DIMENSION
  5
81
100
AcDbEntity
  8
MAIN0
  6
CONTINUOUS
 62
3
100
AcDbDimension
  2
*D5
 10
546.7958961442729
 20
271.8171276822407
 30
0.0000000000000000
 11
722.8180819596856
 21
272.8171276822407
 31
0.0000000000000000
 70
160
  3
MAIN001
100
AcDbAlignedDimension
 13
974.7958961445943
 23
406.8171276797149
 33
0.0000000000000000
 14
546.7958961442727
 24
342.8274104215142
 34
0.0000000000000000
100
AcDbRotatedDimension
1001
ACAD
1000
DSTYLE
1002
{
1070
   173
1070
     1
1070
     6
1000
_OPEN
1070
     7
1000
_OPEN
1070
    41
1040
6.666667
1002
}
  0
DIMENSION
  5
8A
100
AcDbEntity
  8
MAIN0
  6
CONTINUOUS
 62
3
100
AcDbDimension
  2
*D6
 10
974.7958961445941
 20
251.8171276817402
 30
0.0000000000000000
 11
703.4149744662744
 21
252.8171276817402
 31
0.0000000000000000
 70
160
  3
MAIN001
100
AcDbAlignedDimension
 13
369.7958961442743
 23
357.2171276822658
 33
0.0000000000000000
 14
974.7958961445945
 24
406.8171276797149
 34
0.0000000000000000
100
AcDbRotatedDimension
1001
ACAD
1000
DSTYLE
1002
{
1070
   173
1070
     1
1070
     6
1000
_OPEN
1070
     7
1000
_OPEN
1070
    41
1040
6.666667
1002
}
  0
DIMENSION
  5
93
100
AcDbEntity
  8
MAIN0
  6
CONTINUOUS
 62
3
100
AcDbDimension
  2
*D7
 10
973.8974333602941
 20
709.6447000661092
 30
0.0000000000000000
 11
973.3974333602941
 21
597.1447000661092
 31
0.0000000000000000
 70
32
  3
MAIN001
100
AcDbAlignedDimension
 13
982.0781802329225
 23
484.6447000661091
 33
0.0000000000000000
 14
1038.597475065765
 24
709.6447000661092
 34
0.0000000000000000
 50
90.00000000000000
100
AcDbRotatedDimension
1001
ACAD
1000
DSTYLE
1002
{
1070
   173
1070
     1
1070
     6
1000
_OPEN
1070
     7
1000
_OPEN
1070
    41
1040
6.666667
1002
}
  0
DIMENSION
  5
9E
100
AcDbEntity
  8
MAIN0
  6
CONTINUOUS
 62
3
100
AcDbDimension
  2
*D8
 10
369.7958961447411
 20
596.8171276797211
 30
0.0000000000000000
 11
357.5210310406148
 21
598.4837943463876
 31
0.0000000000000000
 70
160
  3
MAIN001
100
AcDbAlignedDimension
 13
370.7958961445057
 23
536.6171276767661
 33
0.0000000000000000
 14
369.7958961447408
 24
465.8171276766407
 34
0.0000000000000000
100
AcDbRotatedDimension
1001
ACAD
1000
DSTYLE
1002
{
1070
   173
1070
     1
1070
     6
1000
_OPEN
1070
     7
1000
_OPEN
1070
    41
1040
6.666667
1070
   287
1070
     0
1002
}
  0
DIMENSION
  5
A7
100
AcDbEntity
  8
MAIN0
  6
CONTINUOUS
 62
3
100
AcDbDimension
  2
*D9
 10
370.7958961445060
 20
596.8171276797211
 30
0.0000000000000000
 11
421.7958961445058
 21
597.3171276797211
 31
0.0000000000000000
 70
32
  3
MAIN001
100
AcDbAlignedDimension
 13
472.7958961445057
 23
536.3171276767662
 33
0.0000000000000000
 14
370.7958961445057
 24
536.6171276767661
 34
0.0000000000000000
100
AcDbRotatedDimension
1001
ACAD
1000
DSTYLE
1002
{
1070
   173
1070
     1
1070
     6
1000
_OPEN
1070
     7
1000
_OPEN
1070
    41
1040
6.666667
1002
}
  0
DIMENSION
  5
B0
100
AcDbEntity
  8
MAIN0
  6
CONTINUOUS
 62
3
100
AcDbDimension
  2
*D10
 10
472.7958961445057
 20
596.8171276797211
 30
0.0000000000000000
 11
522.7958961445057
 21
597.3171276797211
 31
0.0000000000000000
 70
32
  1
\A1;MAX 303
  3
MAIN001
100
AcDbAlignedDimension
 13
572.7958961445057
 23
536.6171276769637
 33
0.0000000000000000
 14
472.7958961445057
 24
536.3171276767662
 34
0.0000000000000000
100
AcDbRotatedDimension
1001
ACAD
1000
DSTYLE
1002
{
1070
   173
1070
     1
1070
     6
1000
_OPEN
1070
     7
1000
_OPEN
1070
    41
1040
6.666667
1002
}
  0
DIMENSION
  5
B9
100
AcDbEntity
  8
MAIN0
  6
CONTINUOUS
 62
1
100
AcDbDimension
  2
*D11
 10
572.7958961445057
 20
596.8171276797211
 30
0.0000000000000000
 11
621.7958961445058
 21
597.3171276797211
 31
0.0000000000000000
 70
32
  3
MAIN001
100
AcDbAlignedDimension
 13
670.7958961445062
 23
536.3171276769633
 33
0.0000000000000000
 14
572.7958961445057
 24
536.6171276769637
 34
0.0000000000000000
100
AcDbRotatedDimension
1001
ACAD
1000
DSTYLE
1002
{
1070
   173
1070
     1
1070
     6
1000
_OPEN
1070
     7
1000
_OPEN
1070
    41
1040
6.666667
1002
}
  0
DIMENSION
  5
C3
100
AcDbEntity
  8
MAIN0
  6
CONTINUOUS
 62
3
100
AcDbDimension
  2
*D12
 10
585.7958961442760
 20
351.8171276817406
 30
0.0000000000000000
 11
584.1292294776093
 21
338.7709350431222
 31
0.0000000000000000
 70
160
  3
MAIN001
100
AcDbAlignedDimension
 13
555.7958961442726
 23
356.8171276816839
 33
0.0000000000000000
 14
555.7958961442727
 24
351.8171276817406
 34
0.0000000000000000
 50
90.00000000000000
100
AcDbRotatedDimension
1001
ACAD
1000
DSTYLE
1002
{
1070
   173
1070
     1
1070
     6
1000
_OPEN
1070
     7
1000
_OPEN
1070
    41
1040
6.666667
1070
   287
1070
     0
1002
}
  0
DIMENSION
  5
CC
100
AcDbEntity
  8
MAIN0
  6
CONTINUOUS
 62
3
100
AcDbDimension
  2
*D13
 10
421.7958961434066
 20
576.8171276797211
 30
0.0000000000000000
 11
447.2958961439562
 21
577.3171276797211
 31
0.0000000000000000
 70
32
  3
MAIN001
100
AcDbAlignedDimension
 13
472.7958961445057
 23
536.3171276767662
 33
0.0000000000000000
 14
421.7958961434066
 24
536.8171276767660
 34
0.0000000000000000
100
AcDbRotatedDimension
1001
ACAD
1000
DSTYLE
1002
{
1070
   173
1070
     1
1070
     6
1000
_OPEN
1070
     7
1000
_OPEN
1070
    41
1040
6.666667
1002
}
  0
DIMENSION
  5
D5
100
AcDbEntity
  8
MAIN0
  6
CONTINUOUS
 62
3
100
AcDbDimension
  2
*D14
 10
451.7958961434061
 20
536.8171276767664
 30
0.0000000000000000
 11
450.1292294767395
 21
552.5048053306584
 31
0.0000000000000000
 70
160
  3
MAIN001
100
AcDbAlignedDimension
 13
431.7958961434066
 23
526.8171276767660
 33
0.0000000000000000
 14
472.2958961445055
 24
536.8171276767664
 34
0.0000000000000000
 50
90.00000000000000
100
AcDbRotatedDimension
1001
ACAD
1000
DSTYLE
1002
{
1070
   173
1070
     1
1070
     6
1000
_DOT
1070
     7
1000
_OPEN
1070
    41
1040
6.666667
1070
   287
1070
     0
1002
}
  0
DIMENSION
  5
DF
100
AcDbEntity
  8
MAIN0
  6
CONTINUOUS
 62
3
100
AcDbDimension
  2
*D15
 10
451.7958961434061
 20
526.8171276767660
 30
0.0000000000000000
 11
451.2958961434061
 21
516.8171276767660
 31
0.0000000000000000
 70
32
  3
MAIN001
100
AcDbAlignedDimension
 13
431.7958961434066
 23
506.8171276767660
 33
0.0000000000000000
 14
431.7958961434066
 24
526.8171276767660
 34
0.0000000000000000
 50
90.00000000000000
100
AcDbRotatedDimension
1001
ACAD
1000
DSTYLE
1002
{
1070
   173
1070
     1
1070
     6
1000
_OPEN
1070
     7
1000
_DOT
1070
    41
1040
6.666667
1070
   287
1070
     0
1002
}
  0
DIMENSION
  5
E7
100
AcDbEntity
  8
MAIN0
  6
CONTINUOUS
 62
3
100
AcDbDimension
  2
*D16
 10
369.7958961442743
 20
391.8171276793915
 30
0.0000000000000000
 11
427.2958961444066
 21
392.3171276793915
 31
0.0000000000000000
 70
32
  3
MAIN001
100
AcDbAlignedDimension
 13
484.7958961445389
 23
400.3171276825430
 33
0.0000000000000000
 14
369.7958961442743
 24
357.2171276822658
 34
0.0000000000000000
100
AcDbRotatedDimension
1001
ACAD
1000
DSTYLE
1002
{
1070
   173
1070
     1
1070
     6
1000
_OPEN
1070
     7
1000
_OPEN
1070
    41
1040
6.666667
1002
}
  0
DIMENSION
  5
F0
100
AcDbEntity
  8
MAIN0
  6
CONTINUOUS
 62
3
100
AcDbDimension
  2
*D17
 10
484.7958961445389
 20
391.8171276793915
 30
0.0000000000000000
 11
624.7958961445388
 21
392.3171276793915
 31
0.0000000000000000
 70
32
  3
MAIN001
100
AcDbAlignedDimension
 13
764.7958961445387
 23
400.3171276821039
 33
0.0000000000000000
 14
484.7958961445389
 24
400.3171276825430
 34
0.0000000000000000
100
AcDbRotatedDimension
1001
ACAD
1000
DSTYLE
1002
{
1070
   173
1070
     1
1070
     6
1000
_OPEN
1070
     7
1000
_OPEN
1070
    41
1040
6.666667
1002
}
  0
DIMENSION
  5
F8
100
AcDbEntity
  8
MAIN0
  6
CONTINUOUS
 62
3
100
AcDbDimension
  2
*D18
 10
764.7958961445387
 20
391.8171276793915
 30
0.0000000000000000
 11
822.2958961444062
 21
392.3171276793915
 31
0.0000000000000000
 70
32
  3
MAIN001
100
AcDbAlignedDimension
 13
879.7958961442738
 23
357.2171276806682
 33
0.0000000000000000
 14
764.7958961445387
 24
400.3171276821039
 34
0.0000000000000000
100
AcDbRotatedDimension
1001
ACAD
1000
DSTYLE
1002
{
1070
   173
1070
     1
1070
     6
1000
_OPEN
1070
     7
1000
_OPEN
1070
    41
1040
6.666667
1002
}
  0
LINE
  5
F9
100
AcDbEntity
  8
MAIN0
  6
CONTINUOUS
 62
3
100
AcDbLine
 10
1157.503184849291
 20
377.8171276791210
 30
0.0000000000000000
 11
1151.503184849292
 21
377.8171276791210
 31
0.0000000000000000
  0
LINE
  5
FA
100
AcDbEntity
  8
MAIN0
  6
CONTINUOUS
 62
3
100
AcDbLine
 10
1151.503184849292
 20
366.8171276791210
 30
0.0000000000000000
 11
1151.503184849292
 21
377.8171276791210
 31
0.0000000000000000
  0
LINE
  5
FB
100
AcDbEntity
  8
MAIN0
  6
CONTINUOUS
 62
3
100
AcDbLine
 10
1157.503184849291
 20
386.8171276791210
 30
0.0000000000000000
 11
1080.503184849292
 21
386.8171276791210
 31
0.0000000000000000
  0
LINE
  5
FC
100
AcDbEntity
  8
MAIN0
  6
CONTINUOUS
 62
3
100
AcDbLine
 10
1151.503184849292
 20
366.8171276791210
 30
0.0000000000000000
 11
1104.001052433821
 21
366.8171276791210
 31
0.0000000000000000
  0
LINE
  5
FD
100
AcDbEntity
  8
MAIN0
  6
CONTINUOUS
 62
3
100
AcDbLine
 10
1080.503184849292
 20
386.8171276791205
 30
0.0000000000000000
 11
1082.203184849292
 21
356.8171276791205
 31
0.0000000000000000
  0
LINE
  5
FE
100
AcDbEntity
  8
MAIN0
  6
CONTINUOUS
 62
3
100
AcDbLine
 10
1097.203184839654
 20
356.8171276791211
 30
0.0000000000000000
 11
1098.092205915751
 21
361.8590167451439
 31
0.0000000000000000
  0
ARC
  5
FF
100
AcDbEntity
  8
MAIN0
  6
CONTINUOUS
 62
3
100
AcDbCircle
 10
1104.001052433821
 20
360.8171276791210
 30
0.0000000000000000
 40
6.000000000000000
100
AcDbArc
 50
90.00000000000000
 51
169.9999999997949
  0
LINE
  5
100
100
AcDbEntity
  8
MAIN0
  6
CONTINUOUS
 62
3
100
AcDbLine
 10
1097.203184839654
 20
356.8171276791210
 30
0.0000000000000000
 11
1082.203184849292
 21
356.8171276791210
 31
0.0000000000000000
  0
LINE
  5
101
100
AcDbEntity
  8
MAIN0
  6
CENTER
 62
3
100
AcDbLine
 10
1128.503184849291
 20
199.6220717855483
 30
0.0000000000000000
 11
1128.503184849292
 21
412.7673892126419
 31
0.0000000000000000
  0
LINE
  5
102
100
AcDbEntity
  8
MAIN0
  6
CONTINUOUS
 62
3
100
AcDbLine
 10
1146.003184849292
 20
391.8171276791210
 30
0.0000000000000000
 11
1111.003184849292
 21
391.8171276791210
 31
0.0000000000000000
  0
LINE
  5
103
100
AcDbEntity
  8
MAIN0
  6
CONTINUOUS
 62
3
100
AcDbLine
 10
1146.003184849292
 20
386.8171276791210
 30
0.0000000000000000
 11
1146.003184849292
 21
391.8171276791210
 31
0.0000000000000000
  0
LINE
  5
104
100
AcDbEntity
  8
MAIN0
  6
CONTINUOUS
 62
3
100
AcDbLine
 10
1111.003184849292
 20
386.8171276791210
 30
0.0000000000000000
 11
1111.003184849292
 21
391.8171276791210
 31
0.0000000000000000
  0
LINE
  5
105
100
AcDbEntity
  8
MAIN0
  6
CONTINUOUS
 62
3
100
AcDbLine
 10
1157.503184849291
 20
377.8171276791210
 30
0.0000000000000000
 11
1157.503184849291
 21
386.8171276791210
 31
0.0000000000000000
  0
LINE
  5
106
100
AcDbEntity
  8
MAIN0
  6
CONTINUOUS
 62
3
100
AcDbLine
 10
1140.503184849292
 20
391.8171276791210
 30
0.0000000000000000
 11
1140.503184849292
 21
406.2171276791211
 31
0.0000000000000000
  0
LINE
  5
107
100
AcDbEntity
  8
MAIN0
  6
CONTINUOUS
 62
3
100
AcDbLine
 10
1140.503184849291
 20
406.2171276791211
 30
0.0000000000000000
 11
1137.731903557181
 21
407.8171276791211
 31
0.0000000000000000
  0
LINE
  5
108
100
AcDbEntity
  8
MAIN0
  6
CONTINUOUS
 62
3
100
AcDbLine
 10
1137.731903557182
 20
407.8171276791210
 30
0.0000000000000000
 11
1119.274466141402
 21
407.8171276791210
 31
0.0000000000000000
  0
LINE
  5
109
100
AcDbEntity
  8
MAIN0
  6
CONTINUOUS
 62
3
100
AcDbLine
 10
1119.274466141402
 20
407.8171276791215
 30
0.0000000000000000
 11
1116.503184849291
 21
406.2171276791214
 31
0.0000000000000000
  0
LINE
  5
10A
100
AcDbEntity
  8
MAIN0
  6
CONTINUOUS
 62
3
100
AcDbLine
 10
1116.503184849292
 20
406.2171276791211
 30
0.0000000000000000
 11
1116.503184849292
 21
391.8171276791210
 31
0.0000000000000000
  0
LINE
  5
10B
100
AcDbEntity
  8
MAIN0
  6
CONTINUOUS
 62
3
100
AcDbLine
 10
1140.503184849292
 20
406.2171276791211
 30
0.0000000000000000
 11
1116.503184849292
 21
406.2171276791211
 31
0.0000000000000000
  0
LINE
  5
10C
100
AcDbEntity
  8
MAIN0
  6
CONTINUOUS
 62
3
100
AcDbLine
 10
1136.503184849292
 20
366.8171276791210
 30
0.0000000000000000
 11
1136.503184849292
 21
345.8171276791210
 31
0.0000000000000000
  0
LINE
  5
10D
100
AcDbEntity
  8
MAIN0
  6
CONTINUOUS
 62
3
100
AcDbLine
 10
1120.503184849292
 20
345.8171276791210
 30
0.0000000000000000
 11
1120.503184849292
 21
366.8171276791210
 31
0.0000000000000000
  0
LINE
  5
10E
100
AcDbEntity
  8
MAIN0
  6
CONTINUOUS
 62
3
100
AcDbLine
 10
1135.420652849292
 20
366.8171276791210
 30
0.0000000000000000
 11
1135.420652849292
 21
345.8171276791210
 31
0.0000000000000000
  0
LINE
  5
10F
100
AcDbEntity
  8
MAIN0
  6
CONTINUOUS
 62
3
100
AcDbLine
 10
1121.585716849292
 20
366.8171276791210
 30
0.0000000000000000
 11
1121.585716849292
 21
345.8171276791210
 31
0.0000000000000000
  0
DIMENSION
  5
118
100
AcDbEntity
  8
MAIN0
  6
CONTINUOUS
 62
3
100
AcDbDimension
  2
*D19
 10
1359.503184849337
 20
576.8171276791934
 30
0.0000000000000000
 11
1252.503184849337
 21
577.3171276791934
 31
0.0000000000000000
 70
32
  3
MAIN001
100
AcDbAlignedDimension
 13
1145.503184849337
 23
491.0171276797209
 33
0.0000000000000000
 14
1359.503184849337
 24
491.0171276797209
 34
0.0000000000000000
100
AcDbRotatedDimension
1001
ACAD
1000
DSTYLE
1002
{
1070
   173
1070
     1
1070
     6
1000
_OPEN
1070
     7
1000
_OPEN
1070
    41
1040
6.666667
1002
}
  0
MTEXT
  5
119
100
AcDbEntity
  8
MAIN0
  6
CONTINUOUS
 62
3
100
AcDbMText
 10
1240.352885599545
 20
448.3879039495508
 30
0.0000000000000000
 40
6.666666666666667
 41
0.0000000000000000
 71
     1
 72
     1
  1
{\H0.63x;{0}}
 11
0.8660254037844389
 21
0.4999999999999996
 31
0.0000000000000000
  7
STANDARD
  0
MTEXT
  5
11A
100
AcDbEntity
  8
MAIN0
  6
CONTINUOUS
 62
3
100
AcDbMText
 10
1250.266105170350
 20
452.2429905147100
 30
0.0000000000000000
 40
6.666666666666667
 41
0.0000000000000000
 71
     1
 72
     1
  1
{\H0.63x;{1}}
 11
1.000000000000000
 21
0.0000000000000000
 31
0.0000000000000000
  7
STANDARD
  0
MTEXT
  5
11B
100
AcDbEntity
  8
MAIN0
  6
CONTINUOUS
 62
3
100
AcDbMText
 10
1260.778748434540
 20
450.6249836285232
 30
0.0000000000000000
 40
6.666666666666667
 41
0.0000000000000000
 71
     1
 72
     1
  1
{\H0.63x;{2}}
 11
0.8660254037844388
 21
-0.4999999999999997
 31
0.0000000000000000
  7
STANDARD
  0
MTEXT
  5
11C
100
AcDbEntity
  8
MAIN0
  6
CONTINUOUS
 62
3
100
AcDbMText
 10
1269.073961119158
 20
443.9674269294926
 30
0.0000000000000000
 40
6.666666666666667
 41
0.0000000000000000
 71
     1
 72
     1
  1
{\H0.63x;{3}}
 11
0.5000000000000009
 21
-0.8660254037844382
 31
0.0000000000000000
  7
STANDARD
  0
DIMENSION
  5
127
100
AcDbEntity
  8
MAIN0
  6
CONTINUOUS
 62
3
100
AcDbDimension
  2
*D20
 10
1245.503184849564
 20
556.8171276807648
 30
0.0000000000000000
 11
1252.503184849564
 21
557.3171276807648
 31
0.0000000000000000
 70
32
  3
MAIN001
100
AcDbAlignedDimension
 13
1259.503184849565
 23
435.8585795640489
 33
0.0000000000000000
 14
1245.503184849564
 24
435.8585795640478
 34
0.0000000000000000
100
AcDbRotatedDimension
1001
ACAD
1000
DSTYLE
1002
{
1070
   173
1070
     1
1070
     6
1000
_OPEN
1070
     7
1000
_OPEN
1070
    41
1040
6.666667
1070
   287
1070
     0
1002
}
  0
MTEXT
  5
128
100
AcDbEntity
  8
MAIN0
  6
CONTINUOUS
 62
3
100
AcDbMText
 10
891.7696467849983
 20
203.2650529340698
 30
0.0000000000000000
 40
10.33333301544190
 41
0.0000000000000000
 71
     1
 72
     1
  1
{\H0.94x;{押さえ金具４セット付属}}
 11
1.000000000000000
 21
0.0000000000000000
 31
0.0000000000000000
  7
KNJYOKO
  0
MTEXT
  5
129
100
AcDbEntity
  8
MAIN0
  6
CONTINUOUS
 62
3
100
AcDbMText
 10
884.3110239194398
 20
203.9306621787375
 30
0.0000000000000000
 40
10.33333301544190
 41
0.0000000000000000
 71
     1
 72
     1
  1
{\H0.81x;{(}}
 11
1.000000000000000
 21
0.0000000000000000
 31
0.0000000000000000
  7
STANDARD
  0
MTEXT
  5
12A
100
AcDbEntity
  8
MAIN0
  6
CONTINUOUS
 62
3
100
AcDbMText
 10
1017.877802504465
 20
203.7661306408510
 30
0.0000000000000000
 40
10.33333301544190
 41
0.0000000000000000
 71
     1
 72
     1
  1
{\H0.81x;{)}}
 11
1.000000000000000
 21
0.0000000000000000
 31
0.0000000000000000
  7
STANDARD
  0
DIMENSION
  5
135
100
AcDbEntity
  8
MAIN0
  6
CONTINUOUS
 62
3
100
AcDbDimension
  2
*D21
 10
1067.891507198985
 20
391.8171276791210
 30
0.0000000000000000
 11
1066.224840532318
 21
404.0188174526064
 31
0.0000000000000000
 70
160
  3
MAIN001
100
AcDbAlignedDimension
 13
1080.503184849292
 23
386.8171276791210
 33
0.0000000000000000
 14
1111.003184849292
 24
391.8171276791210
 34
0.0000000000000000
 50
90.00000000000000
100
AcDbRotatedDimension
1001
ACAD
1000
DSTYLE
1002
{
1070
   173
1070
     1
1070
     6
1000
_OPEN
1070
     7
1000
_OPEN
1070
    41
1040
6.666667
1070
   287
1070
     0
1002
}
  0
DIMENSION
  5
13E
100
AcDbEntity
  8
MAIN0
  6
CONTINUOUS
 62
3
100
AcDbDimension
  2
*D22
 10
1067.891507198985
 20
386.8171276791210
 30
0.0000000000000000
 11
1067.391507198985
 21
371.8171276791210
 31
0.0000000000000000
 70
32
  3
MAIN001
100
AcDbAlignedDimension
 13
1082.203184849292
 23
356.8171276791210
 33
0.0000000000000000
 14
1080.503184849292
 24
386.8171276791210
 34
0.0000000000000000
 50
90.00000000000000
100
AcDbRotatedDimension
1001
ACAD
1000
DSTYLE
1002
{
1070
   173
1070
     1
1070
     6
1000
_OPEN
1070
     7
1000
_OPEN
1070
    41
1040
6.666667
1002
}
  0
LEADER
  5
13F
100
AcDbEntity
  8
MAIN0
  6
CONTINUOUS
 62
3
100
AcDbLeader
  3
MAIN001
 73
     0
 75
     1
 40
10.00000000000000
 41
86.99899769528702
 76
     3
 10
1120.474265195560
 20
398.1706808428769
 30
0.0000000000000000
 10
1074.688083654531
 20
271.0173722572137
 30
0.0000000000000000
 10
1069.087083654531
 20
271.0173722572137
 30
0.0000000000000000
340
140
213
0.0000000000000000
223
-1.666666666666686
233
0.0000000000000000
1001
ACAD
1000
DSTYLE
1002
{
1070
   147
1040
0.0
1070
    77
1070
     1
1070
   173
1070
     1
1070
     6
1000
_DOT
1070
     7
1000
_DOT
1002
}
  0
MTEXT
  5
140
102
{ACAD_REACTORS
330
13F
102
}
100
AcDbEntity
  8
MAIN0
  6
CONTINUOUS
 62
3
100
AcDbMText
 10
982.0880859592435
 20
282.6840389238804
 30
0.0000000000000000
 40
10.00000000000000
 41
0.0000000000000000
 71
     1
 72
     1
  1
{\H0.61x;{六角穴付ボルト\PM16×65\PHEX,SOCKET HEAD\PCAP SCREW}}
 11
1.000000000000000
 21
0.0000000000000000
 31
0.0000000000000000
  7
KNJYOKO
  0
LINE
  5
141
100
AcDbEntity
  8
MAIN0
  6
CONTINUOUS
 62
3
100
AcDbLine
 10
104.4634363205002
 20
351.8171276789667
 30
0.0000000000000000
 11
79.46343632050008
 21
351.8171276789667
 31
0.0000000000000000
  0
LINE
  5
142
100
AcDbEntity
  8
MAIN0
  6
CONTINUOUS
 62
3
100
AcDbLine
 10
104.4634363204997
 20
351.8171276789665
 30
0.0000000000000000
 11
104.4634363204997
 21
356.8171276789665
 31
0.0000000000000000
  0
LINE
  5
143
100
AcDbEntity
  8
MAIN0
  6
CONTINUOUS
 62
3
100
AcDbLine
 10
79.46343632050008
 20
356.8171276789670
 30
0.0000000000000000
 11
79.46343632050008
 21
351.8171276789670
 31
0.0000000000000000
  0
LINE
  5
144
100
AcDbEntity
  8
MAIN0
  6
CONTINUOUS
 62
3
100
AcDbLine
 10
255.4634363200111
 20
351.8171276789032
 30
0.0000000000000000
 11
280.4634363200111
 21
351.8171276788821
 31
0.0000000000000000
  0
LINE
  5
145
100
AcDbEntity
  8
MAIN0
  6
CONTINUOUS
 62
3
100
AcDbLine
 10
255.4634363200112
 20
351.8171276789027
 30
0.0000000000000000
 11
255.4634363200154
 21
356.8171276789027
 31
0.0000000000000000
  0
LINE
  5
146
100
AcDbEntity
  8
MAIN0
  6
CONTINUOUS
 62
3
100
AcDbLine
 10
280.4634363200152
 20
356.8171276788820
 30
0.0000000000000000
 11
280.4634363200109
 21
351.8171276788820
 31
0.0000000000000000
  0
LINE
  5
147
100
AcDbEntity
  8
MAIN0
  6
CONTINUOUS
 62
3
100
AcDbLine
 10
279.9634363202711
 20
440.8171276792824
 30
0.0000000000000000
 11
273.9634363202902
 21
440.8171276792874
 31
0.0000000000000000
  0
LINE
  5
148
100
AcDbEntity
  8
MAIN0
  6
CONTINUOUS
 62
3
100
AcDbLine
 10
279.9634363202698
 20
440.8171276792821
 30
0.0000000000000000
 11
280.9634363202706
 21
441.8171276792816
 31
0.0000000000000000
  0
LINE
  5
149
100
AcDbEntity
  8
MAIN0
  6
CONTINUOUS
 62
3
100
AcDbLine
 10
79.96343632027629
 20
440.8171276793652
 30
0.0000000000000000
 11
78.96343632027634
 21
441.8171276793656
 31
0.0000000000000000
  0
LINE
  5
14A
100
AcDbEntity
  8
MAIN0
  6
CONTINUOUS
 62
3
100
AcDbLine
 10
79.96343632027487
 20
440.8171276793662
 30
0.0000000000000000
 11
85.96343632029556
 21
440.8171276793662
 31
0.0000000000000000
  0
LINE
  5
14B
100
AcDbEntity
  8
MAIN0
  6
CONTINUOUS
 62
3
100
AcDbLine
 10
273.9634363202638
 20
377.8171276790351
 30
0.0000000000000000
 11
273.9634363202900
 21
440.8171276792877
 31
0.0000000000000000
  0
LINE
  5
14C
100
AcDbEntity
  8
MAIN0
  6
CONTINUOUS
 62
3
100
AcDbLine
 10
79.26343632030449
 20
439.7171276797085
 30
0.0000000000000000
 11
82.96343632030465
 21
439.7171276797085
 31
0.0000000000000000
  0
LINE
  5
14D
100
AcDbEntity
  8
MAIN0
  6
CONTINUOUS
 62
3
100
AcDbLine
 10
82.96343632030420
 20
439.7171276797085
 30
0.0000000000000000
 11
82.96343632030420
 21
438.5171276797087
 31
0.0000000000000000
  0
ARC
  5
14E
100
AcDbEntity
  8
MAIN0
  6
CONTINUOUS
 62
3
100
AcDbCircle
 10
78.46343632030431
 20
439.5171276797087
 30
0.0000000000000000
 40
1.000000000000000
100
AcDbArc
 50
179.9999999999964
 51
269.9999999999942
  0
ARC
  5
14F
100
AcDbEntity
  8
MAIN0
  6
CONTINUOUS
 62
3
100
AcDbCircle
 10
79.26343632030449
 20
440.3171276797084
 30
0.0000000000000000
 40
0.6000000000000000
100
AcDbArc
 50
179.9999999999964
 51
270.0000000005678
  0
LINE
  5
150
100
AcDbEntity
  8
MAIN0
  6
CONTINUOUS
 62
3
100
AcDbLine
 10
78.46343632030431
 20
438.5171276797087
 30
0.0000000000000000
 11
82.96343632030420
 21
438.5171276797087
 31
0.0000000000000000
  0
LINE
  5
151
100
AcDbEntity
  8
MAIN0
  6
CONTINUOUS
 62
3
100
AcDbLine
 10
82.96343632030420
 20
435.7171276797144
 30
0.0000000000000000
 11
76.26343642096555
 21
435.7171276797144
 31
0.0000000000000000
  0
LINE
  5
152
100
AcDbEntity
  8
MAIN0
  6
CONTINUOUS
 62
3
100
AcDbLine
 10
75.46343611388721
 20
434.5171276797141
 30
0.0000000000000000
 11
82.96343632030465
 21
434.5171276797141
 31
0.0000000000000000
  0
ARC
  5
153
100
AcDbEntity
  8
MAIN0
  6
CONTINUOUS
 62
3
100
AcDbCircle
 10
75.46343632030431
 20
435.5171276797141
 30
0.0000000000000000
 40
1.000000000000000
100
AcDbArc
 50
179.9999999999964
 51
269.9999999999942
  0
ARC
  5
154
100
AcDbEntity
  8
MAIN0
  6
CONTINUOUS
 62
3
100
AcDbCircle
 10
76.26343632030449
 20
436.3171276797143
 30
0.0000000000000000
 40
0.6000000000000000
100
AcDbArc
 50
179.9999999999964
 51
269.9999999999947
  0
LINE
  5
155
100
AcDbEntity
  8
MAIN0
  6
CONTINUOUS
 62
3
100
AcDbLine
 10
72.96343632030431
 20
434.5171276797137
 30
0.0000000000000000
 11
74.16343632030458
 21
434.5171276797137
 31
0.0000000000000000
  0
LINE
  5
156
100
AcDbEntity
  8
MAIN0
  6
CONTINUOUS
 62
3
100
AcDbLine
 10
82.96343632030420
 20
435.7171276797144
 30
0.0000000000000000
 11
82.96343632030420
 21
434.5171276797141
 31
0.0000000000000000
  0
LINE
  5
157
100
AcDbEntity
  8
MAIN0
  6
CONTINUOUS
 62
3
100
AcDbLine
 10
82.96343632030420
 20
437.7171276797144
 30
0.0000000000000000
 11
77.76343642096555
 21
437.7171276797144
 31
0.0000000000000000
  0
LINE
  5
158
100
AcDbEntity
  8
MAIN0
  6
CONTINUOUS
 62
3
100
AcDbLine
 10
76.96343611388721
 20
436.5171276797141
 30
0.0000000000000000
 11
82.96343632030420
 21
436.5171276797141
 31
0.0000000000000000
  0
ARC
  5
159
100
AcDbEntity
  8
MAIN0
  6
CONTINUOUS
 62
3
100
AcDbCircle
 10
77.76343632030449
 20
438.3171276797143
 30
0.0000000000000000
 40
0.6000000000000000
100
AcDbArc
 50
179.9999999999964
 51
269.9999999999947
  0
ARC
  5
15A
100
AcDbEntity
  8
MAIN0
  6
CONTINUOUS
 62
3
100
AcDbCircle
 10
76.96343632030431
 20
437.5171276797141
 30
0.0000000000000000
 40
1.000000000000000
100
AcDbArc
 50
179.9999999999964
 51
269.9999999999942
  0
LINE
  5
15B
100
AcDbEntity
  8
MAIN0
  6
CONTINUOUS
 62
3
100
AcDbLine
 10
82.96343632030420
 20
437.7171276797144
 30
0.0000000000000000
 11
82.96343632030420
 21
436.5171276797141
 31
0.0000000000000000
  0
LINE
  5
15C
100
AcDbEntity
  8
MAIN0
  6
CONTINUOUS
 62
3
100
AcDbLine
 10
280.6634363202812
 20
439.7171276796240
 30
0.0000000000000000
 11
276.9634363202810
 21
439.7171276796271
 31
0.0000000000000000
  0
LINE
  5
15D
100
AcDbEntity
  8
MAIN0
  6
CONTINUOUS
 62
3
100
AcDbLine
 10
276.9634363202815
 20
439.7171276796271
 30
0.0000000000000000
 11
276.9634363202805
 21
438.5171276796273
 31
0.0000000000000000
  0
ARC
  5
15E
100
AcDbEntity
  8
MAIN0
  6
CONTINUOUS
 62
3
100
AcDbCircle
 10
281.4634363202813
 20
439.5171276796234
 30
0.0000000000000000
 40
1.000000000000000
100
AcDbArc
 50
269.9999999999578
 51
359.9999999999555
  0
ARC
  5
15F
100
AcDbEntity
  8
MAIN0
  6
CONTINUOUS
 62
3
100
AcDbCircle
 10
280.6634363202818
 20
440.3171276796238
 30
0.0000000000000000
 40
0.6000000000000000
100
AcDbArc
 50
269.9999999993840
 51
359.9999999999555
  0
LINE
  5
160
100
AcDbEntity
  8
MAIN0
  6
CONTINUOUS
 62
3
100
AcDbLine
 10
281.4634363202804
 20
438.5171276796235
 30
0.0000000000000000
 11
276.9634363202804
 21
438.5171276796273
 31
0.0000000000000000
  0
LINE
  5
161
100
AcDbEntity
  8
MAIN0
  6
CONTINUOUS
 62
3
100
AcDbLine
 10
276.9634363202780
 20
435.7171276796330
 30
0.0000000000000000
 11
283.6634362196168
 21
435.7171276796274
 31
0.0000000000000000
  0
LINE
  5
162
100
AcDbEntity
  8
MAIN0
  6
CONTINUOUS
 62
3
100
AcDbLine
 10
284.4634365266941
 20
434.5171276796264
 30
0.0000000000000000
 11
276.9634363202765
 21
434.5171276796327
 31
0.0000000000000000
  0
ARC
  5
163
100
AcDbEntity
  8
MAIN0
  6
CONTINUOUS
 62
3
100
AcDbCircle
 10
284.4634363202779
 20
435.5171276796264
 30
0.0000000000000000
 40
1.000000000000000
100
AcDbArc
 50
269.9999999999578
 51
359.9999999999555
  0
ARC
  5
164
100
AcDbEntity
  8
MAIN0
  6
CONTINUOUS
 62
3
100
AcDbCircle
 10
283.6634363202784
 20
436.3171276796272
 30
0.0000000000000000
 40
0.6000000000000000
100
AcDbArc
 50
269.9999999999571
 51
359.9999999999555
  0
LINE
  5
165
100
AcDbEntity
  8
MAIN0
  6
CONTINUOUS
 62
3
100
AcDbLine
 10
286.9634363202771
 20
434.5171276796239
 30
0.0000000000000000
 11
285.7634363202768
 21
434.5171276796248
 31
0.0000000000000000
  0
LINE
  5
166
100
AcDbEntity
  8
MAIN0
  6
CONTINUOUS
 62
3
100
AcDbLine
 10
276.9634363202781
 20
435.7171276796330
 30
0.0000000000000000
 11
276.9634363202771
 21
434.5171276796327
 31
0.0000000000000000
  0
LINE
  5
167
100
AcDbEntity
  8
MAIN0
  6
CONTINUOUS
 62
3
100
AcDbLine
 10
276.9634363202797
 20
437.7171276796330
 30
0.0000000000000000
 11
282.1634362196185
 21
437.7171276796286
 31
0.0000000000000000
  0
LINE
  5
168
100
AcDbEntity
  8
MAIN0
  6
CONTINUOUS
 62
3
100
AcDbLine
 10
282.9634365266958
 20
436.5171276796277
 30
0.0000000000000000
 11
276.9634363202787
 21
436.5171276796327
 31
0.0000000000000000
  0
ARC
  5
169
100
AcDbEntity
  8
MAIN0
  6
CONTINUOUS
 62
3
100
AcDbCircle
 10
282.1634363202800
 20
438.3171276796284
 30
0.0000000000000000
 40
0.6000000000000000
100
AcDbArc
 50
269.9999999999571
 51
359.9999999999555
  0
ARC
  5
16A
100
AcDbEntity
  8
MAIN0
  6
CONTINUOUS
 62
3
100
AcDbCircle
 10
282.9634363202797
 20
437.5171276796275
 30
0.0000000000000000
 40
1.000000000000000
100
AcDbArc
 50
269.9999999999578
 51
359.9999999999555
  0
LINE
  5
16B
100
AcDbEntity
  8
MAIN0
  6
CONTINUOUS
 62
3
100
AcDbLine
 10
276.9634363202798
 20
437.7171276796330
 30
0.0000000000000000
 11
276.9634363202788
 21
436.5171276796327
 31
0.0000000000000000
  0
LINE
  5
16C
100
AcDbEntity
  8
MAIN0
  6
CONTINUOUS
 62
3
100
AcDbLine
 10
80.46343632030681
 20
466.8171276796883
 30
0.0000000000000000
 11
130.3634363203074
 21
466.8171276796987
 31
0.0000000000000000
  0
LINE
  5
16D
100
AcDbEntity
  8
MAIN0
  6
CONTINUOUS
 62
3
100
AcDbLine
 10
79.96343632025906
 20
377.8171276791141
 30
0.0000000000000000
 11
85.96343632025929
 21
377.8171276791143
 31
0.0000000000000000
  0
LINE
  5
16E
100
AcDbEntity
  8
MAIN0
  6
CONTINUOUS
 62
3
100
AcDbLine
 10
78.96343632025838
 20
376.8171276791138
 30
0.0000000000000000
 11
78.96343632025014
 21
357.2171276790083
 31
0.0000000000000000
  0
LINE
  5
16F
100
AcDbEntity
  8
MAIN0
  6
CONTINUOUS
 62
3
100
AcDbLine
 10
79.96343632025929
 20
377.8171276791141
 30
0.0000000000000000
 11
78.96343632025884
 21
376.8171276791142
 31
0.0000000000000000
  0
LINE
  5
170
100
AcDbEntity
  8
MAIN0
  6
CONTINUOUS
 62
3
100
AcDbLine
 10
280.9634363202588
 20
376.8171276790293
 30
0.0000000000000000
 11
280.9634363202506
 21
357.2171276789235
 31
0.0000000000000000
  0
LINE
  5
171
100
AcDbEntity
  8
MAIN0
  6
CONTINUOUS
 62
3
100
AcDbLine
 10
279.4634363203068
 20
466.8171276796051
 30
0.0000000000000000
 11
229.5634363203008
 21
466.8171276796571
 31
0.0000000000000000
  0
LINE
  5
172
100
AcDbEntity
  8
MAIN0
  6
CONTINUOUS
 62
3
100
AcDbLine
 10
280.9634363202505
 20
357.2171276789235
 30
0.0000000000000000
 11
280.5634363202503
 21
356.8171276789238
 31
0.0000000000000000
  0
LINE
  5
173
100
AcDbEntity
  8
MAIN0
  6
CONTINUOUS
 62
3
100
AcDbLine
 10
78.96343632025031
 20
357.2171276790085
 30
0.0000000000000000
 11
79.36343632025017
 21
356.8171276790085
 31
0.0000000000000000
  0
LINE
  5
174
100
AcDbEntity
  8
MAIN0
  6
CONTINUOUS
 62
3
100
AcDbLine
 10
279.9634363202748
 20
377.8171276790310
 30
0.0000000000000000
 11
273.9634363202745
 21
377.8171276790362
 31
0.0000000000000000
  0
LINE
  5
175
100
AcDbEntity
  8
MAIN0
  6
CONTINUOUS
 62
3
100
AcDbLine
 10
279.9634363202745
 20
377.8171276790305
 30
0.0000000000000000
 11
280.9634363202744
 21
376.8171276790294
 31
0.0000000000000000
  0
LINE
  5
176
100
AcDbEntity
  8
MAIN0
  6
CONTINUOUS
 62
3
100
AcDbLine
 10
170.9634363203706
 20
356.8171276789703
 30
0.0000000000000000
 11
170.9634363203706
 21
361.8171276787639
 31
0.0000000000000000
  0
LINE
  5
177
100
AcDbEntity
  8
MAIN0
  6
CONTINUOUS
 62
3
100
AcDbLine
 10
188.9634363203704
 20
361.8171276787636
 30
0.0000000000000000
 11
170.9634363203704
 21
361.8171276787636
 31
0.0000000000000000
  0
LINE
  5
178
100
AcDbEntity
  8
MAIN0
  6
CONTINUOUS
 62
3
100
AcDbLine
 10
188.9634363203706
 20
356.8171276789631
 30
0.0000000000000000
 11
188.9634363203706
 21
361.8171276787639
 31
0.0000000000000000
  0
LINE
  5
179
100
AcDbEntity
  8
MAIN0
  6
CONTINUOUS
 62
3
100
AcDbLine
 10
85.96343632026981
 20
377.8171276791140
 30
0.0000000000000000
 11
85.96343632029584
 21
440.8171276793662
 31
0.0000000000000000
  0
LINE
  5
17A
100
AcDbEntity
  8
MAIN0
  6
CONTINUOUS
 62
3
100
AcDbLine
 10
79.36343632025029
 20
356.8171276790091
 30
0.0000000000000000
 11
170.9634363203706
 21
356.8171276789706
 31
0.0000000000000000
  0
LINE
  5
17B
100
AcDbEntity
  8
MAIN0
  6
CONTINUOUS
 62
3
100
AcDbLine
 10
188.9634363203706
 20
356.8171276789630
 30
0.0000000000000000
 11
280.5634363202505
 21
356.8171276789245
 31
0.0000000000000000
  0
LINE
  5
17C
100
AcDbEntity
  8
MAIN0
  6
CONTINUOUS
 62
3
100
AcDbLine
 10
85.96343632029510
 20
466.8171276797143
 30
0.0000000000000000
 11
273.9634363202838
 21
466.8171276797143
 31
0.0000000000000000
  0
LINE
  5
17D
100
AcDbEntity
  8
MAIN0
  6
CENTER
 62
3
100
AcDbLine
 10
179.9634363202538
 20
346.5699174789336
 30
0.0000000000000000
 11
179.9634363203364
 21
543.3824539743810
 31
0.0000000000000000
  0
LINE
  5
17E
100
AcDbEntity
  8
MAIN0
  6
CONTINUOUS
 62
3
100
AcDbLine
 10
78.96343632029613
 20
441.8171276793457
 30
0.0000000000000000
 11
78.96343632030624
 21
465.3171276796880
 31
0.0000000000000000
  0
LINE
  5
17F
100
AcDbEntity
  8
MAIN0
  6
CONTINUOUS
 62
3
100
AcDbLine
 10
280.9634363202945
 20
441.8171276793051
 30
0.0000000000000000
 11
280.9634363203062
 21
465.3171276796035
 31
0.0000000000000000
  0
LINE
  5
180
100
AcDbEntity
  8
MAIN0
  6
CONTINUOUS
 62
3
100
AcDbLine
 10
78.66343632030424
 20
466.8171276797143
 30
0.0000000000000000
 11
281.2634363203044
 21
466.8171276797143
 31
0.0000000000000000
  0
LINE
  5
181
100
AcDbEntity
  8
MAIN0
  6
CONTINUOUS
 62
3
100
AcDbLine
 10
79.96343632054601
 20
536.8171276797143
 30
0.0000000000000000
 11
279.9634363205462
 21
536.8171276797143
 31
0.0000000000000000
  0
LINE
  5
182
100
AcDbEntity
  8
MAIN0
  6
CONTINUOUS
 62
3
100
AcDbLine
 10
282.4634363203043
 20
467.0171276797087
 30
0.0000000000000000
 11
282.4634363203043
 21
439.5171276796234
 31
0.0000000000000000
  0
LINE
  5
183
100
AcDbEntity
  8
MAIN0
  6
CONTINUOUS
 62
3
100
AcDbLine
 10
77.46343632030408
 20
467.0171276797087
 30
0.0000000000000000
 11
77.46343632030408
 21
439.5171276797087
 31
0.0000000000000000
  0
LINE
  5
184
100
AcDbEntity
  8
MAIN0
  6
CONTINUOUS
 62
3
100
AcDbLine
 10
78.66343632030436
 20
466.8171276797084
 30
0.0000000000000000
 11
78.66343632030436
 21
440.3171276797084
 31
0.0000000000000000
  0
ARC
  5
185
100
AcDbEntity
  8
MAIN0
  6
CONTINUOUS
 62
3
100
AcDbCircle
 10
281.4634363203043
 20
467.0171276797087
 30
0.0000000000000000
 40
1.000000000000000
100
AcDbArc
 50
0.0000000000000000
 51
89.99999999942553
  0
ARC
  5
186
100
AcDbEntity
  8
MAIN0
  6
CONTINUOUS
 62
3
100
AcDbCircle
 10
78.46343632030408
 20
467.0171276797087
 30
0.0000000000000000
 40
1.000000000000000
100
AcDbArc
 50
89.99999999999919
 51
179.9999999999964
  0
LINE
  5
187
100
AcDbEntity
  8
MAIN0
  6
CONTINUOUS
 62
3
100
AcDbLine
 10
279.9634363205462
 20
466.8171276797143
 30
0.0000000000000000
 11
279.9634363205462
 21
536.8171276797143
 31
0.0000000000000000
  0
LINE
  5
188
100
AcDbEntity
  8
MAIN0
  6
CONTINUOUS
 62
3
100
AcDbLine
 10
79.96343632054601
 20
466.8171276796882
 30
0.0000000000000000
 11
79.96343632054601
 21
536.8171276797143
 31
0.0000000000000000
  0
LINE
  5
189
100
AcDbEntity
  8
MAIN0
  6
CONTINUOUS
 62
3
100
AcDbLine
 10
285.7634363203044
 20
484.0171276797141
 30
0.0000000000000000
 11
285.7634363203044
 21
434.5171276796250
 31
0.0000000000000000
  0
LINE
  5
18A
100
AcDbEntity
  8
MAIN0
  6
CONTINUOUS
 62
3
100
AcDbLine
 10
286.9634363203047
 20
491.0171276797141
 30
0.0000000000000000
 11
286.9634363203047
 21
434.5171276796241
 31
0.0000000000000000
  0
ARC
  5
18B
100
AcDbEntity
  8
MAIN0
  6
CONTINUOUS
 62
3
100
AcDbCircle
 10
285.9634363203047
 20
491.0171276797141
 30
0.0000000000000000
 40
1.000000000000000
100
AcDbArc
 50
0.0000000000000000
 51
90.00000000000000
  0
LINE
  5
18C
100
AcDbEntity
  8
MAIN0
  6
CONTINUOUS
 62
3
100
AcDbLine
 10
74.16343632030436
 20
484.0171276797141
 30
0.0000000000000000
 11
74.16343632030436
 21
434.5171276797139
 31
0.0000000000000000
  0
LINE
  5
18D
100
AcDbEntity
  8
MAIN0
  6
CONTINUOUS
 62
3
100
AcDbLine
 10
72.96343632030408
 20
491.0171276797141
 30
0.0000000000000000
 11
72.96343632030408
 21
434.5171276797139
 31
0.0000000000000000
  0
ARC
  5
18E
100
AcDbEntity
  8
MAIN0
  6
CONTINUOUS
 62
3
100
AcDbCircle
 10
73.96343632030408
 20
491.0171276797141
 30
0.0000000000000000
 40
1.000000000000000
100
AcDbArc
 50
90.00000000000000
 51
180.0000000000000
  0
LINE
  5
18F
100
AcDbEntity
  8
MAIN0
  6
CONTINUOUS
 62
3
100
AcDbLine
 10
75.96343632030408
 20
437.5171276797141
 30
0.0000000000000000
 11
75.96343632030408
 21
476.0171276797141
 31
0.0000000000000000
  0
LINE
  5
190
100
AcDbEntity
  8
MAIN0
  6
CONTINUOUS
 62
3
100
AcDbLine
 10
77.16343632030436
 20
438.3171276797143
 30
0.0000000000000000
 11
77.16343632030436
 21
468.0171276797141
 31
0.0000000000000000
  0
LINE
  5
191
100
AcDbEntity
  8
MAIN0
  6
CONTINUOUS
 62
3
100
AcDbLine
 10
283.9634363203043
 20
437.5171276796275
 30
0.0000000000000000
 11
283.9634363203043
 21
476.0171276797141
 31
0.0000000000000000
  0
LINE
  5
192
100
AcDbEntity
  8
MAIN0
  6
CONTINUOUS
 62
3
100
AcDbLine
 10
282.7634363203044
 20
438.3171276796284
 30
0.0000000000000000
 11
282.7634363203044
 21
468.0171276797141
 31
0.0000000000000000
  0
LINE
  5
193
100
AcDbEntity
  8
MAIN0
  6
CONTINUOUS
 62
3
100
AcDbLine
 10
285.4634363203047
 20
484.0171276797141
 30
0.0000000000000000
 11
285.4634363203047
 21
435.5171276796264
 31
0.0000000000000000
  0
LINE
  5
194
100
AcDbEntity
  8
MAIN0
  6
CONTINUOUS
 62
3
100
AcDbLine
 10
284.2634363203044
 20
476.0171276797141
 30
0.0000000000000000
 11
284.2634363203044
 21
436.3171276796272
 31
0.0000000000000000
  0
LINE
  5
195
100
AcDbEntity
  8
MAIN0
  6
CONTINUOUS
 62
3
100
AcDbLine
 10
74.46343632030408
 20
483.0171276797141
 30
0.0000000000000000
 11
74.46343632030408
 21
435.5171276797141
 31
0.0000000000000000
  0
LINE
  5
196
100
AcDbEntity
  8
MAIN0
  6
CONTINUOUS
 62
3
100
AcDbLine
 10
75.66343632030436
 20
476.0171276797141
 30
0.0000000000000000
 11
75.66343632030436
 21
436.3171276797143
 31
0.0000000000000000
  0
ARC
  5
197
100
AcDbEntity
  8
MAIN0
  6
CONTINUOUS
 62
3
100
AcDbCircle
 10
284.4634363203043
 20
483.0171276797141
 30
0.0000000000000000
 40
1.000000000000000
100
AcDbArc
 50
0.0000000000000000
 51
89.99999999999838
  0
ARC
  5
198
100
AcDbEntity
  8
MAIN0
  6
CONTINUOUS
 62
3
100
AcDbCircle
 10
75.46343632030408
 20
483.0171276797141
 30
0.0000000000000000
 40
1.000000000000000
100
AcDbArc
 50
89.99999999999720
 51
179.9999999999964
  0
LINE
  5
199
100
AcDbEntity
  8
MAIN0
  6
CONTINUOUS
 62
3
100
AcDbLine
 10
281.2634363203044
 20
440.3171276796238
 30
0.0000000000000000
 11
281.2634363203044
 21
466.8171276797143
 31
0.0000000000000000
  0
DIMENSION
  5
1A2
100
AcDbEntity
  8
MAIN0
  6
CONTINUOUS
 62
3
100
AcDbDimension
  2
*D23
 10
279.9634363205462
 20
576.8171276791867
 30
0.0000000000000000
 11
179.9634363205461
 21
577.3171276791867
 31
0.0000000000000000
 70
32
  3
MAIN001
100
AcDbAlignedDimension
 13
79.96343632054601
 23
536.8171276797143
 33
0.0000000000000000
 14
279.9634363205462
 24
536.8171276797143
 34
0.0000000000000000
100
AcDbRotatedDimension
1001
ACAD
1000
DSTYLE
1002
{
1070
   173
1070
     1
1070
     6
1000
_OPEN
1070
     7
1000
_OPEN
1070
    41
1040
6.666667
1002
}
  0
LINE
  5
1A3
100
AcDbEntity
  8
MAIN0
  6
CONTINUOUS
 62
3
100
AcDbLine
 10
78.96343632030613
 20
465.3171276796879
 30
0.0000000000000000
 11
80.46343632030681
 21
466.8171276796883
 31
0.0000000000000000
  0
LINE
  5
1A4
100
AcDbEntity
  8
MAIN0
  6
CONTINUOUS
 62
3
100
AcDbLine
 10
279.4634363203069
 20
466.8171276796052
 30
0.0000000000000000
 11
280.9634363203061
 21
465.3171276796036
 31
0.0000000000000000
  0
LINE
  5
1A5
100
AcDbEntity
  8
MAIN0
  6
CONTINUOUS
 62
3
100
AcDbLine
 10
73.96343632030408
 20
492.0171276797141
 30
0.0000000000000000
 11
79.96343632054601
 21
492.0171276797141
 31
0.0000000000000000
  0
LINE
  5
1A6
100
AcDbEntity
  8
MAIN0
  6
CONTINUOUS
 62
3
100
AcDbLine
 10
279.9634363205462
 20
492.0171276797141
 30
0.0000000000000000
 11
285.9634363203047
 21
492.0171276797141
 31
0.0000000000000000
  0
LINE
  5
1A7
100
AcDbEntity
  8
MAIN0
  6
CONTINUOUS
 62
3
100
AcDbLine
 10
74.16343632030436
 20
484.0171276797141
 30
0.0000000000000000
 11
79.96343632054601
 21
484.0171276797141
 31
0.0000000000000000
  0
LINE
  5
1A8
100
AcDbEntity
  8
MAIN0
  6
CONTINUOUS
 62
3
100
AcDbLine
 10
279.9634363205461
 20
484.0171276797141
 30
0.0000000000000000
 11
285.7634363203044
 21
484.0171276797141
 31
0.0000000000000000
  0
LINE
  5
1A9
100
AcDbEntity
  8
MAIN0
  6
CONTINUOUS
 62
3
100
AcDbLine
 10
75.66343632030436
 20
476.0171276797141
 30
0.0000000000000000
 11
79.96343632054601
 21
476.0171276797141
 31
0.0000000000000000
  0
LINE
  5
1AA
100
AcDbEntity
  8
MAIN0
  6
CONTINUOUS
 62
3
100
AcDbLine
 10
279.9634363205462
 20
476.0171276797141
 30
0.0000000000000000
 11
284.2634363203044
 21
476.0171276797141
 31
0.0000000000000000
  0
LINE
  5
1AB
100
AcDbEntity
  8
MAIN0
  6
CONTINUOUS
 62
3
100
AcDbLine
 10
77.16343632030436
 20
468.0171276797141
 30
0.0000000000000000
 11
79.96343632054601
 21
468.0171276797141
 31
0.0000000000000000
  0
LINE
  5
1AC
100
AcDbEntity
  8
MAIN0
  6
CONTINUOUS
 62
3
100
AcDbLine
 10
279.9634363205462
 20
468.0171276797141
 30
0.0000000000000000
 11
282.7634363203044
 21
468.0171276797141
 31
0.0000000000000000
  0
LINE
  5
1AD
100
AcDbEntity
  8
MAIN0
  6
CONTINUOUS
 62
3
100
AcDbLine
 10
131.9634363203054
 20
463.0171276797044
 30
0.0000000000000000
 11
131.9634363202990
 21
447.8171276797041
 31
0.0000000000000000
  0
LINE
  5
1AE
100
AcDbEntity
  8
MAIN0
  6
CONTINUOUS
 62
3
100
AcDbLine
 10
130.9634363202958
 20
446.8171276797040
 30
0.0000000000000000
 11
131.9634363202961
 21
447.8171276797040
 31
0.0000000000000000
  0
LINE
  5
1AF
100
AcDbEntity
  8
MAIN0
  6
CONTINUOUS
 62
3
100
AcDbLine
 10
123.4634363202956
 20
446.8171276797021
 30
0.0000000000000000
 11
130.9634363202956
 21
446.8171276797038
 31
0.0000000000000000
  0
LINE
  5
1B0
100
AcDbEntity
  8
MAIN0
  6
CONTINUOUS
 62
3
100
AcDbLine
 10
123.4634363202870
 20
426.8171276798202
 30
0.0000000000000000
 11
134.3602671003551
 21
426.8171276798225
 31
0.0000000000000000
  0
LINE
  5
1B1
100
AcDbEntity
  8
MAIN0
  6
CONTINUOUS
 62
3
100
AcDbLine
 10
123.4634363202954
 20
446.8171276797028
 30
0.0000000000000000
 11
123.4634363202870
 21
426.8171276797028
 31
0.0000000000000000
  0
LINE
  5
1B2
100
AcDbEntity
  8
MAIN0
  6
CONTINUOUS
 62
3
100
AcDbLine
 10
134.3602671003553
 20
426.8171276798226
 30
0.0000000000000000
 11
135.3964514548092
 21
425.7809433253686
 31
0.0000000000000000
  0
LINE
  5
1B3
100
AcDbEntity
  8
MAIN0
  6
CONTINUOUS
 62
3
100
AcDbLine
 10
135.3964514548090
 20
425.7809433253690
 30
0.0000000000000000
 11
136.0708696624015
 21
406.4681327120293
 31
0.0000000000000000
  0
ARC
  5
1B4
100
AcDbEntity
  8
MAIN0
  6
CONTINUOUS
 62
3
100
AcDbCircle
 10
146.0647779325937
 20
406.8171276790162
 30
0.0000000000000000
 40
10.00000000000000
100
AcDbArc
 50
181.9999999997814
 51
270.0000000000000
  0
LINE
  5
1B5
100
AcDbEntity
  8
MAIN0
  6
CONTINUOUS
 62
3
100
AcDbLine
 10
146.0647779325897
 20
396.8171276790162
 30
0.0000000000000000
 11
213.8620947079602
 21
396.8171276789882
 31
0.0000000000000000
  0
LINE
  5
1B6
100
AcDbEntity
  8
MAIN0
  6
CONTINUOUS
 62
3
100
AcDbLine
 10
224.5304211857648
 20
425.7809433253316
 30
0.0000000000000000
 11
223.8560029781561
 21
406.4681327119923
 31
0.0000000000000000
  0
ARC
  5
1B7
100
AcDbEntity
  8
MAIN0
  6
CONTINUOUS
 62
3
100
AcDbCircle
 10
213.8620947079643
 20
406.8171276789876
 30
0.0000000000000000
 40
10.00000000000000
100
AcDbArc
 50
269.9999999999519
 51
358.0000000001705
  0
LINE
  5
1B8
100
AcDbEntity
  8
MAIN0
  6
CONTINUOUS
 62
3
100
AcDbLine
 10
236.4634363202870
 20
426.8171276796556
 30
0.0000000000000000
 11
225.5666055401017
 21
426.8171276796667
 31
0.0000000000000000
  0
LINE
  5
1B9
100
AcDbEntity
  8
MAIN0
  6
CONTINUOUS
 62
3
100
AcDbLine
 10
225.5666055402193
 20
426.8171276797842
 30
0.0000000000000000
 11
224.5304211857646
 21
425.7809433253311
 31
0.0000000000000000
  0
LINE
  5
1BA
100
AcDbEntity
  8
MAIN0
  6
CONTINUOUS
 62
3
100
AcDbLine
 10
236.4634363202954
 20
446.8171276796549
 30
0.0000000000000000
 11
236.4634363202870
 21
426.8171276796549
 31
0.0000000000000000
  0
LINE
  5
1BB
100
AcDbEntity
  8
MAIN0
  6
CONTINUOUS
 62
3
100
AcDbLine
 10
236.4634363202955
 20
446.8171276796551
 30
0.0000000000000000
 11
228.9634363202955
 21
446.8171276796628
 31
0.0000000000000000
  0
LINE
  5
1BC
100
AcDbEntity
  8
MAIN0
  6
CONTINUOUS
 62
3
100
AcDbLine
 10
228.9634363202956
 20
446.8171276796628
 30
0.0000000000000000
 11
227.9634363202957
 21
447.8171276796640
 31
0.0000000000000000
  0
LINE
  5
1BD
100
AcDbEntity
  8
MAIN0
  6
CONTINUOUS
 62
3
100
AcDbLine
 10
227.9634363203055
 20
463.0171276796638
 30
0.0000000000000000
 11
227.9634363202989
 21
447.8171276796638
 31
0.0000000000000000
  0
LINE
  5
1BE
100
AcDbEntity
  8
MAIN0
  6
CONTINUOUS
 62
3
100
AcDbLine
 10
130.9634363203068
 20
466.8171276797144
 30
0.0000000000000000
 11
130.9634363202925
 21
463.0171276796990
 31
0.0000000000000000
  0
LINE
  5
1BF
100
AcDbEntity
  8
MAIN0
  6
CONTINUOUS
 62
3
100
AcDbLine
 10
130.9634363202951
 20
466.2171276796990
 30
0.0000000000000000
 11
228.9634363203119
 21
466.2171276796582
 31
0.0000000000000000
  0
LINE
  5
1C0
100
AcDbEntity
  8
MAIN0
  6
CONTINUOUS
 62
3
100
AcDbLine
 10
130.9634363202937
 20
463.0171276796991
 30
0.0000000000000000
 11
228.9634363203106
 21
463.0171276796582
 31
0.0000000000000000
  0
LINE
  5
1C1
100
AcDbEntity
  8
MAIN0
  6
CONTINUOUS
 62
3
100
AcDbLine
 10
228.9634363203002
 20
466.8171276797142
 30
0.0000000000000000
 11
228.9634363203116
 21
463.0171276796576
 31
0.0000000000000000
  0
DIMENSION
  5
1CC
100
AcDbEntity
  8
MAIN0
  6
CONTINUOUS
 62
3
100
AcDbDimension
  2
*D24
 10
306.9634363202503
 20
466.8171276796521
 30
0.0000000000000000
 11
306.4634363202503
 21
453.8171276794673
 31
0.0000000000000000
 70
32
  3
MAIN001
100
AcDbAlignedDimension
 13
279.9634363202711
 23
440.8171276792824
 33
0.0000000000000000
 14
279.4634363203068
 24
466.8171276796051
 34
0.0000000000000000
 50
90.00000000000000
100
AcDbRotatedDimension
1001
ACAD
1000
DSTYLE
1002
{
1070
   173
1070
     1
1070
     6
1000
_OPEN
1070
     7
1000
_OPEN
1070
    41
1040
6.666667
1070
   287
1070
     0
1002
}
  0
DIMENSION
  5
1D5
100
AcDbEntity
  8
MAIN0
  6
CONTINUOUS
 62
3
100
AcDbDimension
  2
*D25
 10
306.9634363202503
 20
440.8171276792874
 30
0.0000000000000000
 11
306.4634363202503
 21
409.3171276791592
 31
0.0000000000000000
 70
32
  3
MAIN001
100
AcDbAlignedDimension
 13
279.9634363202747
 23
377.8171276790310
 33
0.0000000000000000
 14
279.9634363202711
 24
440.8171276792824
 34
0.0000000000000000
 50
90.00000000000000
100
AcDbRotatedDimension
1001
ACAD
1000
DSTYLE
1002
{
1070
   173
1070
     1
1070
     6
1000
_OPEN
1070
     7
1000
_OPEN
1070
    41
1040
6.666667
1002
}
  0
DIMENSION
  5
1E0
100
AcDbEntity
  8
MAIN0
  6
CONTINUOUS
 62
3
100
AcDbDimension
  2
*D26
 10
306.9634363202503
 20
377.8171276790310
 30
0.0000000000000000
 11
306.4634363202503
 21
367.3171276789777
 31
0.0000000000000000
 70
32
  3
MAIN001
100
AcDbAlignedDimension
 13
280.5634363202504
 23
356.8171276789245
 33
0.0000000000000000
 14
279.9634363202747
 24
377.8171276790310
 34
0.0000000000000000
 50
90.00000000000000
100
AcDbRotatedDimension
1001
ACAD
1000
DSTYLE
1002
{
1070
   173
1070
     1
1070
     6
1000
_OPEN
1070
     7
1000
_OPEN
1070
    41
1040
6.666667
1070
   287
1070
     0
1002
}
  0
DIMENSION
  5
1EA
100
AcDbEntity
  8
MAIN0
  6
CONTINUOUS
 62
3
100
AcDbDimension
  2
*D27
 10
273.9634363202721
 20
401.8171276790362
 30
0.0000000000000000
 11
260.0332428825407
 21
403.4837943457029
 31
0.0000000000000000
 70
160
  3
MAIN001
100
AcDbAlignedDimension
 13
280.9634363202588
 23
376.8171276790293
 33
0.0000000000000000
 14
273.9634363202638
 24
377.8171276790351
 34
0.0000000000000000
100
AcDbRotatedDimension
1001
ACAD
1000
DSTYLE
1002
{
1070
   173
1070
     1
1070
     6
1000
_OPEN
1070
     7
1000
_OPEN
1070
    41
1040
6.666667
1070
   287
1070
     0
1002
}
  0
LINE
  5
1EB
100
AcDbEntity
  8
MAIN0
  6
CENTER
 62
3
100
AcDbLine
 10
457.7958961445060
 20
775.6004562727212
 30
0.0000000000000000
 11
457.7958961445060
 21
760.2671229393877
 31
0.0000000000000000
  0
LINE
  5
1EC
100
AcDbEntity
  8
MAIN0
  6
CENTER
 62
3
100
AcDbLine
 10
450.1292294778392
 20
767.9337896060545
 30
0.0000000000000000
 11
465.4625628111727
 21
767.9337896060545
 31
0.0000000000000000
  0
LINE
  5
1ED
100
AcDbEntity
  8
MAIN0
  6
CENTER
 62
3
100
AcDbLine
 10
387.7958961445060
 20
775.6004562727212
 30
0.0000000000000000
 11
387.7958961445060
 21
760.2671229393877
 31
0.0000000000000000
  0
LINE
  5
1EE
100
AcDbEntity
  8
MAIN0
  6
CENTER
 62
3
100
AcDbLine
 10
380.1292294778392
 20
767.9337896060545
 30
0.0000000000000000
 11
395.4625628111727
 21
767.9337896060545
 31
0.0000000000000000
  0
LINE
  5
1EF
100
AcDbEntity
  8
MAIN0
  6
CENTER
 62
3
100
AcDbLine
 10
387.7958961445059
 20
875.6004562726048
 30
0.0000000000000000
 11
387.7958961445058
 21
860.2671229392715
 31
0.0000000000000000
  0
LINE
  5
1F0
100
AcDbEntity
  8
MAIN0
  6
CENTER
 62
3
100
AcDbLine
 10
380.1292294778394
 20
867.9337896059381
 30
0.0000000000000000
 11
395.4625628111726
 21
867.9337896059381
 31
0.0000000000000000
  0
LINE
  5
1F1
100
AcDbEntity
  8
MAIN0
  6
CENTER
 62
3
100
AcDbLine
 10
457.7958961445061
 20
875.6004562726048
 30
0.0000000000000000
 11
457.7958961445061
 21
860.2671229392713
 31
0.0000000000000000
  0
LINE
  5
1F2
100
AcDbEntity
  8
MAIN0
  6
CENTER
 62
3
100
AcDbLine
 10
450.1292294778394
 20
867.9337896059381
 30
0.0000000000000000
 11
465.4625628111726
 21
867.9337896059381
 31
0.0000000000000000
  0
CIRCLE
  5
1F3
100
AcDbEntity
  8
MAIN0
  6
CONTINUOUS
 62
3
100
AcDbCircle
 10
421.7958961449947
 20
817.9337896060363
 30
0.0000000000000000
 40
5.000000000000000
  0
CIRCLE
  5
1F4
100
AcDbEntity
  8
MAIN0
  6
CONTINUOUS
 62
3
100
AcDbCircle
 10
421.7958961449947
 20
817.9337896060363
 30
0.0000000000000000
 40
4.250000000000000
  0
CIRCLE
  5
1F5
100
AcDbEntity
  8
MAIN0
  6
CONTINUOUS
 62
3
100
AcDbCircle
 10
457.7958961445061
 20
867.9337896059381
 30
0.0000000000000000
 40
5.000000000000000
  0
CIRCLE
  5
1F6
100
AcDbEntity
  8
MAIN0
  6
CONTINUOUS
 62
3
100
AcDbCircle
 10
457.7958961445061
 20
867.9337896059381
 30
0.0000000000000000
 40
4.250000000000000
  0
CIRCLE
  5
1F7
100
AcDbEntity
  8
MAIN0
  6
CONTINUOUS
 62
3
100
AcDbCircle
 10
387.7958961445060
 20
767.9337896060545
 30
0.0000000000000000
 40
5.000000000000000
  0
CIRCLE
  5
1F8
100
AcDbEntity
  8
MAIN0
  6
CONTINUOUS
 62
3
100
AcDbCircle
 10
387.7958961445060
 20
767.9337896060545
 30
0.0000000000000000
 40
4.250000000000000
  0
CIRCLE
  5
1F9
100
AcDbEntity
  8
MAIN0
  6
CONTINUOUS
 62
3
100
AcDbCircle
 10
457.7958961445060
 20
767.9337896060545
 30
0.0000000000000000
 40
5.000000000000000
  0
CIRCLE
  5
1FA
100
AcDbEntity
  8
MAIN0
  6
CONTINUOUS
 62
3
100
AcDbCircle
 10
457.7958961445060
 20
767.9337896060545
 30
0.0000000000000000
 40
4.250000000000000
  0
DIMENSION
  5
203
100
AcDbEntity
  8
MAIN0
  6
CONTINUOUS
 62
3
100
AcDbDimension
  2
*D28
 10
387.7958961445060
 20
679.0013712461273
 30
0.0000000000000000
 11
422.7958961445060
 21
679.5013712461273
 31
0.0000000000000000
 70
32
  3
MAIN001
100
AcDbAlignedDimension
 13
457.7958961445060
 23
760.2671229393877
 33
0.0000000000000000
 14
387.7958961445060
 24
760.2671229393877
 34
0.0000000000000000
100
AcDbRotatedDimension
1001
ACAD
1000
DSTYLE
1002
{
1070
   173
1070
     1
1070
     6
1000
_OPEN
1070
     7
1000
_OPEN
1070
    41
1040
6.666667
1002
}
  0
DIMENSION
  5
20E
100
AcDbEntity
  8
MAIN0
  6
CONTINUOUS
 62
3
100
AcDbDimension
  2
*D29
 10
457.7958961445060
 20
679.0013712461273
 30
0.0000000000000000
 11
484.2943155053688
 21
680.6680379127938
 31
0.0000000000000000
 70
160
  3
MAIN001
100
AcDbAlignedDimension
 13
472.7958961445058
 23
718.4337896060365
 33
0.0000000000000000
 14
457.7958961445060
 24
760.2671229393877
 34
0.0000000000000000
100
AcDbRotatedDimension
1001
ACAD
1000
DSTYLE
1002
{
1070
   173
1070
     1
1070
     6
1000
_OPEN
1070
     7
1000
_OPEN
1070
    41
1040
6.666667
1070
   287
1070
     0
1002
}
  0
DIMENSION
  5
217
100
AcDbEntity
  8
MAIN0
  6
CONTINUOUS
 62
3
100
AcDbDimension
  2
*D30
 10
329.7958961450459
 20
767.9337896060545
 30
0.0000000000000000
 11
329.2958961450459
 21
817.9337896059963
 31
0.0000000000000000
 70
32
  3
MAIN001
100
AcDbAlignedDimension
 13
380.1292294778394
 23
867.9337896059381
 33
0.0000000000000000
 14
380.1292294778392
 24
767.9337896060545
 34
0.0000000000000000
 50
90.00000000000000
100
AcDbRotatedDimension
1001
ACAD
1000
DSTYLE
1002
{
1070
   173
1070
     1
1070
     6
1000
_OPEN
1070
     7
1000
_OPEN
1070
    41
1040
6.666667
1002
}
  0
CIRCLE
  5
218
100
AcDbEntity
  8
MAIN0
  6
CONTINUOUS
 62
3
100
AcDbCircle
 10
451.7958961445058
 20
742.9337896060365
 30
0.0000000000000000
 40
15.90000000000000
  0
CIRCLE
  5
219
100
AcDbEntity
  8
MAIN0
  6
CONTINUOUS
 62
3
100
AcDbCircle
 10
391.7958961445058
 20
742.9337896060367
 30
0.0000000000000000
 40
15.90000000000000
  0
CIRCLE
  5
21A
100
AcDbEntity
  8
MAIN0
  6
CONTINUOUS
 62
3
100
AcDbCircle
 10
391.7958961445060
 20
892.9337896060365
 30
0.0000000000000000
 40
15.90000000000000
  0
CIRCLE
  5
21B
100
AcDbEntity
  8
MAIN0
  6
CONTINUOUS
 62
3
100
AcDbCircle
 10
451.7958961445061
 20
892.9337896060363
 30
0.0000000000000000
 40
15.90000000000000
  0
DIMENSION
  5
224
100
AcDbEntity
  8
MAIN0
  6
CONTINUOUS
 62
3
100
AcDbDimension
  2
*D31
 10
572.7958961445050
 20
937.2355429458362
 30
0.0000000000000000
 11
597.2958961446196
 21
937.7355429458362
 31
0.0000000000000000
 70
32
  3
MAIN001
100
AcDbAlignedDimension
 13
621.7958961447342
 23
829.6004562727032
 33
0.0000000000000000
 14
572.7958961445052
 24
917.3337896060364
 34
0.0000000000000000
100
AcDbRotatedDimension
1001
ACAD
1000
DSTYLE
1002
{
1070
   173
1070
     1
1070
     6
1000
_OPEN
1070
     7
1000
_OPEN
1070
    41
1040
6.666667
1002
}
  0
LINE
  5
225
100
AcDbEntity
  8
MAIN0
  6
CENTER
 62
3
100
AcDbLine
 10
647.7958961449640
 20
735.2671229393698
 30
0.0000000000000000
 11
647.7958961449640
 21
750.6004562727031
 31
0.0000000000000000
  0
LINE
  5
226
100
AcDbEntity
  8
MAIN0
  6
CENTER
 62
3
100
AcDbLine
 10
655.4625628116305
 20
742.9337896060364
 30
0.0000000000000000
 11
640.1292294782973
 21
742.9337896060364
 31
0.0000000000000000
  0
CIRCLE
  5
227
100
AcDbEntity
  8
MAIN0
  6
CONTINUOUS
 62
3
100
AcDbCircle
 10
647.7958961449640
 20
742.9337896060363
 30
0.0000000000000000
 40
5.000000000000000
  0
CIRCLE
  5
228
100
AcDbEntity
  8
MAIN0
  6
CONTINUOUS
 62
3
100
AcDbCircle
 10
647.7958961449640
 20
742.9337896060363
 30
0.0000000000000000
 40
4.250000000000000
  0
LINE
  5
229
100
AcDbEntity
  8
MAIN0
  6
CENTER
 62
3
100
AcDbLine
 10
647.7958961449640
 20
900.6004562727028
 30
0.0000000000000000
 11
647.7958961449640
 21
885.2671229393693
 31
0.0000000000000000
  0
LINE
  5
22A
100
AcDbEntity
  8
MAIN0
  6
CENTER
 62
3
100
AcDbLine
 10
655.4625628116305
 20
892.9337896060360
 30
0.0000000000000000
 11
640.1292294782973
 21
892.9337896060360
 31
0.0000000000000000
  0
CIRCLE
  5
22B
100
AcDbEntity
  8
MAIN0
  6
CONTINUOUS
 62
3
100
AcDbCircle
 10
647.7958961449640
 20
892.9337896060360
 30
0.0000000000000000
 40
5.000000000000000
  0
CIRCLE
  5
22C
100
AcDbEntity
  8
MAIN0
  6
CONTINUOUS
 62
3
100
AcDbCircle
 10
647.7958961449640
 20
892.9337896060360
 30
0.0000000000000000
 40
4.250000000000000
  0
LINE
  5
22D
100
AcDbEntity
  8
MAIN0
  6
CENTER
 62
3
100
AcDbLine
 10
587.7958961449641
 20
900.6004562727026
 30
0.0000000000000000
 11
587.7958961449640
 21
885.2671229393693
 31
0.0000000000000000
  0
LINE
  5
22E
100
AcDbEntity
  8
MAIN0
  6
CENTER
 62
3
100
AcDbLine
 10
595.4625628116305
 20
892.9337896060360
 30
0.0000000000000000
 11
580.1292294782973
 21
892.9337896060360
 31
0.0000000000000000
  0
CIRCLE
  5
22F
100
AcDbEntity
  8
MAIN0
  6
CONTINUOUS
 62
3
100
AcDbCircle
 10
587.7958961449640
 20
892.9337896060360
 30
0.0000000000000000
 40
5.000000000000000
  0
CIRCLE
  5
230
100
AcDbEntity
  8
MAIN0
  6
CONTINUOUS
 62
3
100
AcDbCircle
 10
587.7958961449640
 20
892.9337896060360
 30
0.0000000000000000
 40
4.250000000000000
  0
LINE
  5
231
100
AcDbEntity
  8
MAIN0
  6
CENTER
 62
3
100
AcDbLine
 10
587.7958961449640
 20
735.2671229393698
 30
0.0000000000000000
 11
587.7958961449640
 21
750.6004562727031
 31
0.0000000000000000
  0
LINE
  5
232
100
AcDbEntity
  8
MAIN0
  6
CENTER
 62
3
100
AcDbLine
 10
595.4625628116305
 20
742.9337896060365
 30
0.0000000000000000
 11
580.1292294782973
 21
742.9337896060364
 31
0.0000000000000000
  0
CIRCLE
  5
233
100
AcDbEntity
  8
MAIN0
  6
CONTINUOUS
 62
3
100
AcDbCircle
 10
587.7958961449640
 20
742.9337896060363
 30
0.0000000000000000
 40
5.000000000000000
  0
CIRCLE
  5
234
100
AcDbEntity
  8
MAIN0
  6
CONTINUOUS
 62
3
100
AcDbCircle
 10
587.7958961449640
 20
742.9337896060363
 30
0.0000000000000000
 40
4.250000000000000
  0
DIMENSION
  5
23D
100
AcDbEntity
  8
MAIN0
  6
CONTINUOUS
 62
3
100
AcDbDimension
  2
*D32
 10
711.1114519092669
 20
742.9337896060363
 30
0.0000000000000000
 11
710.6114519092669
 21
817.9337896060363
 31
0.0000000000000000
 70
32
  3
MAIN001
100
AcDbAlignedDimension
 13
655.4625628116305
 23
892.9337896060360
 33
0.0000000000000000
 14
655.4625628116305
 24
742.9337896060364
 34
0.0000000000000000
 50
90.00000000000000
100
AcDbRotatedDimension
1001
ACAD
1000
DSTYLE
1002
{
1070
   173
1070
     1
1070
     6
1000
_OPEN
1070
     7
1000
_OPEN
1070
    41
1040
6.666667
1002
}
  0
DIMENSION
  5
248
100
AcDbEntity
  8
MAIN0
  6
CONTINUOUS
 62
3
100
AcDbDimension
  2
*D33
 10
572.7958961445049
 20
679.0013712461273
 30
0.0000000000000000
 11
561.1658723021038
 21
680.6680379127938
 31
0.0000000000000000
 70
160
  3
MAIN001
100
AcDbAlignedDimension
 13
587.7958961449640
 23
735.2671229393698
 33
0.0000000000000000
 14
572.7958961445049
 24
718.5337896060366
 34
0.0000000000000000
100
AcDbRotatedDimension
1001
ACAD
1000
DSTYLE
1002
{
1070
   173
1070
     1
1070
     6
1000
_OPEN
1070
     7
1000
_OPEN
1070
    41
1040
6.666667
1070
   287
1070
     0
1002
}
  0
DIMENSION
  5
251
100
AcDbEntity
  8
MAIN0
  6
CONTINUOUS
 62
3
100
AcDbDimension
  2
*D34
 10
587.7958961449640
 20
679.0013712461273
 30
0.0000000000000000
 11
617.7958961449640
 21
679.5013712461273
 31
0.0000000000000000
 70
32
  3
MAIN001
100
AcDbAlignedDimension
 13
647.7958961449640
 23
735.2671229393698
 33
0.0000000000000000
 14
587.7958961449640
 24
735.2671229393698
 34
0.0000000000000000
100
AcDbRotatedDimension
1001
ACAD
1000
DSTYLE
1002
{
1070
   173
1070
     1
1070
     6
1000
_OPEN
1070
     7
1000
_OPEN
1070
    41
1040
6.666667
1002
}
  0
CIRCLE
  5
252
100
AcDbEntity
  8
MAIN0
  6
CONTINUOUS
 62
3
100
AcDbCircle
 10
591.7958961445050
 20
850.4337896060365
 30
0.0000000000000000
 40
13.00000000000000
  0
CIRCLE
  5
253
100
AcDbEntity
  8
MAIN0
  6
CONTINUOUS
 62
3
100
AcDbCircle
 10
591.7958961445048
 20
785.4337896060365
 30
0.0000000000000000
 40
13.00000000000000
  0
CIRCLE
  5
254
100
AcDbEntity
  8
MAIN0
  6
CONTINUOUS
 62
3
100
AcDbCircle
 10
651.7958961445050
 20
785.4337896060363
 30
0.0000000000000000
 40
13.00000000000000
  0
CIRCLE
  5
255
100
AcDbEntity
  8
MAIN0
  6
CONTINUOUS
 62
3
100
AcDbCircle
 10
651.7958961445050
 20
850.4337896060363
 30
0.0000000000000000
 40
13.00000000000000
  0
LEADER
  5
256
100
AcDbEntity
  8
MAIN0
  6
CONTINUOUS
 62
3
100
AcDbLeader
  3
MAIN001
 73
     0
 75
     1
 40
10.33333301544190
 41
126.4323365360896
 76
     3
 10
383.4341383853808
 20
764.7173566311228
 30
0.0000000000000000
 10
325.6716466028403
 20
706.2882157642928
 30
0.0000000000000000
 10
319.2506467888068
 20
706.2882157642928
 30
0.0000000000000000
340
257
213
0.0000000000000000
223
-1.666666666666629
233
0.0000000000000000
1001
ACAD
1000
DSTYLE
1002
{
1070
   147
1040
0.0
1070
    77
1070
     1
1070
   173
1070
     1
1070
     6
1000
_OPEN
1070
     7
1000
_OPEN
1002
}
  0
MTEXT
  5
257
102
{ACAD_REACTORS
330
256
102
}
100
AcDbEntity
  8
MAIN0
  6
CONTINUOUS
 62
3
100
AcDbMText
 10
192.8183102527172
 20
718.2882154464013
 30
0.0000000000000000
 40
10.33333301544190
 41
0.0000000000000000
 71
     1
 72
     1
  1
{\H0.94x;{2×5-M10　深さ20\P　　　　　　　DEPTH\P}
 11
1.000000000000000
 21
0.0000000000000000
 31
0.0000000000000000
  7
KNJYOKO
  0
LINE
  5
258
100
AcDbEntity
  8
MAIN0
  6
CONTINUOUS
 62
3
100
AcDbLine
 10
460.2958961445061
 20
869.3771652789119
 30
0.0000000000000000
 11
457.7958961445061
 21
870.8205409518860
 31
0.0000000000000000
  0
LINE
  5
259
100
AcDbEntity
  8
MAIN0
  6
CONTINUOUS
 62
3
100
AcDbLine
 10
457.7958961445060
 20
870.8205409518860
 30
0.0000000000000000
 11
455.2958961445060
 21
869.3771652789119
 31
0.0000000000000000
  0
LINE
  5
25A
100
AcDbEntity
  8
MAIN0
  6
CONTINUOUS
 62
3
100
AcDbLine
 10
455.2958961445061
 20
869.3771652789119
 30
0.0000000000000000
 11
455.2958961445061
 21
866.4904139329640
 31
0.0000000000000000
  0
LINE
  5
25B
100
AcDbEntity
  8
MAIN0
  6
CONTINUOUS
 62
3
100
AcDbLine
 10
455.2958961445060
 20
866.4904139329638
 30
0.0000000000000000
 11
457.7958961445060
 21
865.0470382599897
 31
0.0000000000000000
  0
LINE
  5
25C
100
AcDbEntity
  8
MAIN0
  6
CONTINUOUS
 62
3
100
AcDbLine
 10
457.7958961445061
 20
865.0470382599897
 30
0.0000000000000000
 11
460.2958961445061
 21
866.4904139329638
 31
0.0000000000000000
  0
LINE
  5
25D
100
AcDbEntity
  8
MAIN0
  6
CONTINUOUS
 62
3
100
AcDbLine
 10
460.2958961445061
 20
866.4904139329640
 30
0.0000000000000000
 11
460.2958961445061
 21
869.3771652789119
 31
0.0000000000000000
  0
LINE
  5
25E
100
AcDbEntity
  8
MAIN0
  6
CONTINUOUS
 62
3
100
AcDbLine
 10
590.2958961449640
 20
894.3771652790101
 30
0.0000000000000000
 11
587.7958961449640
 21
895.8205409519840
 31
0.0000000000000000
  0
LINE
  5
25F
100
AcDbEntity
  8
MAIN0
  6
CONTINUOUS
 62
3
100
AcDbLine
 10
587.7958961449639
 20
895.8205409519842
 30
0.0000000000000000
 11
585.2958961449640
 21
894.3771652790101
 31
0.0000000000000000
  0
LINE
  5
260
100
AcDbEntity
  8
MAIN0
  6
CONTINUOUS
 62
3
100
AcDbLine
 10
585.2958961449640
 20
894.3771652790101
 30
0.0000000000000000
 11
585.2958961449640
 21
891.4904139330620
 31
0.0000000000000000
  0
LINE
  5
261
100
AcDbEntity
  8
MAIN0
  6
CONTINUOUS
 62
3
100
AcDbLine
 10
585.2958961449640
 20
891.4904139330620
 30
0.0000000000000000
 11
587.7958961449640
 21
890.0470382600879
 31
0.0000000000000000
  0
LINE
  5
262
100
AcDbEntity
  8
MAIN0
  6
CONTINUOUS
 62
3
100
AcDbLine
 10
587.7958961449640
 20
890.0470382600879
 30
0.0000000000000000
 11
590.2958961449640
 21
891.4904139330620
 31
0.0000000000000000
  0
LINE
  5
263
100
AcDbEntity
  8
MAIN0
  6
CONTINUOUS
 62
3
100
AcDbLine
 10
590.2958961449640
 20
891.4904139330620
 30
0.0000000000000000
 11
590.2958961449640
 21
894.3771652790101
 31
0.0000000000000000
  0
LINE
  5
264
100
AcDbEntity
  8
MAIN0
  6
CONTINUOUS
 62
3
100
AcDbLine
 10
650.2958961449640
 20
894.3771652790101
 30
0.0000000000000000
 11
647.7958961449640
 21
895.8205409519842
 31
0.0000000000000000
  0
LINE
  5
265
100
AcDbEntity
  8
MAIN0
  6
CONTINUOUS
 62
3
100
AcDbLine
 10
647.7958961449639
 20
895.8205409519842
 30
0.0000000000000000
 11
645.2958961449640
 21
894.3771652790101
 31
0.0000000000000000
  0
LINE
  5
266
100
AcDbEntity
  8
MAIN0
  6
CONTINUOUS
 62
3
100
AcDbLine
 10
645.2958961449640
 20
894.3771652790101
 30
0.0000000000000000
 11
645.2958961449640
 21
891.4904139330620
 31
0.0000000000000000
  0
LINE
  5
267
100
AcDbEntity
  8
MAIN0
  6
CONTINUOUS
 62
3
100
AcDbLine
 10
645.2958961449640
 20
891.4904139330620
 30
0.0000000000000000
 11
647.7958961449640
 21
890.0470382600879
 31
0.0000000000000000
  0
LINE
  5
268
100
AcDbEntity
  8
MAIN0
  6
CONTINUOUS
 62
3
100
AcDbLine
 10
647.7958961449640
 20
890.0470382600879
 30
0.0000000000000000
 11
650.2958961449640
 21
891.4904139330620
 31
0.0000000000000000
  0
LINE
  5
269
100
AcDbEntity
  8
MAIN0
  6
CONTINUOUS
 62
3
100
AcDbLine
 10
650.2958961449640
 20
891.4904139330620
 30
0.0000000000000000
 11
650.2958961449640
 21
894.3771652790101
 31
0.0000000000000000
  0
LINE
  5
26A
100
AcDbEntity
  8
MAIN0
  6
CONTINUOUS
 62
3
100
AcDbLine
 10
460.2958961445060
 20
769.3771652790283
 30
0.0000000000000000
 11
457.7958961445060
 21
770.8205409520024
 31
0.0000000000000000
  0
LINE
  5
26B
100
AcDbEntity
  8
MAIN0
  6
CONTINUOUS
 62
3
100
AcDbLine
 10
457.7958961445059
 20
770.8205409520024
 30
0.0000000000000000
 11
455.2958961445060
 21
769.3771652790283
 31
0.0000000000000000
  0
LINE
  5
26C
100
AcDbEntity
  8
MAIN0
  6
CONTINUOUS
 62
3
100
AcDbLine
 10
455.2958961445060
 20
769.3771652790283
 30
0.0000000000000000
 11
455.2958961445060
 21
766.4904139330804
 31
0.0000000000000000
  0
LINE
  5
26D
100
AcDbEntity
  8
MAIN0
  6
CONTINUOUS
 62
3
100
AcDbLine
 10
455.2958961445059
 20
766.4904139330802
 30
0.0000000000000000
 11
457.7958961445059
 21
765.0470382601061
 31
0.0000000000000000
  0
LINE
  5
26E
100
AcDbEntity
  8
MAIN0
  6
CONTINUOUS
 62
3
100
AcDbLine
 10
457.7958961445060
 20
765.0470382601061
 30
0.0000000000000000
 11
460.2958961445060
 21
766.4904139330802
 31
0.0000000000000000
  0
LINE
  5
26F
100
AcDbEntity
  8
MAIN0
  6
CONTINUOUS
 62
3
100
AcDbLine
 10
460.2958961445060
 20
766.4904139330804
 30
0.0000000000000000
 11
460.2958961445060
 21
769.3771652790283
 31
0.0000000000000000
  0
LINE
  5
270
100
AcDbEntity
  8
MAIN0
  6
CONTINUOUS
 62
3
100
AcDbLine
 10
390.2958961445060
 20
769.3771652790283
 30
0.0000000000000000
 11
387.7958961445060
 21
770.8205409520024
 31
0.0000000000000000
  0
LINE
  5
271
100
AcDbEntity
  8
MAIN0
  6
CONTINUOUS
 62
3
100
AcDbLine
 10
387.7958961445059
 20
770.8205409520024
 30
0.0000000000000000
 11
385.2958961445060
 21
769.3771652790283
 31
0.0000000000000000
  0
LINE
  5
272
100
AcDbEntity
  8
MAIN0
  6
CONTINUOUS
 62
3
100
AcDbLine
 10
385.2958961445060
 20
769.3771652790283
 30
0.0000000000000000
 11
385.2958961445060
 21
766.4904139330804
 31
0.0000000000000000
  0
LINE
  5
273
100
AcDbEntity
  8
MAIN0
  6
CONTINUOUS
 62
3
100
AcDbLine
 10
385.2958961445059
 20
766.4904139330803
 30
0.0000000000000000
 11
387.7958961445059
 21
765.0470382601062
 31
0.0000000000000000
  0
LINE
  5
274
100
AcDbEntity
  8
MAIN0
  6
CONTINUOUS
 62
3
100
AcDbLine
 10
387.7958961445060
 20
765.0470382601061
 30
0.0000000000000000
 11
390.2958961445060
 21
766.4904139330802
 31
0.0000000000000000
  0
LINE
  5
275
100
AcDbEntity
  8
MAIN0
  6
CONTINUOUS
 62
3
100
AcDbLine
 10
390.2958961445060
 20
766.4904139330804
 30
0.0000000000000000
 11
390.2958961445060
 21
769.3771652790283
 31
0.0000000000000000
  0
LINE
  5
276
100
AcDbEntity
  8
MAIN0
  6
CONTINUOUS
 62
3
100
AcDbLine
 10
590.2958961449640
 20
744.3771652790103
 30
0.0000000000000000
 11
587.7958961449640
 21
745.8205409519844
 31
0.0000000000000000
  0
LINE
  5
277
100
AcDbEntity
  8
MAIN0
  6
CONTINUOUS
 62
3
100
AcDbLine
 10
587.7958961449640
 20
745.8205409519844
 30
0.0000000000000000
 11
585.2958961449640
 21
744.3771652790103
 31
0.0000000000000000
  0
LINE
  5
278
100
AcDbEntity
  8
MAIN0
  6
CONTINUOUS
 62
3
100
AcDbLine
 10
585.2958961449640
 20
744.3771652790103
 30
0.0000000000000000
 11
585.2958961449640
 21
741.4904139330622
 31
0.0000000000000000
  0
LINE
  5
279
100
AcDbEntity
  8
MAIN0
  6
CONTINUOUS
 62
3
100
AcDbLine
 10
585.2958961449639
 20
741.4904139330622
 30
0.0000000000000000
 11
587.7958961449640
 21
740.0470382600881
 31
0.0000000000000000
  0
LINE
  5
27A
100
AcDbEntity
  8
MAIN0
  6
CONTINUOUS
 62
3
100
AcDbLine
 10
587.7958961449640
 20
740.0470382600881
 30
0.0000000000000000
 11
590.2958961449640
 21
741.4904139330622
 31
0.0000000000000000
  0
LINE
  5
27B
100
AcDbEntity
  8
MAIN0
  6
CONTINUOUS
 62
3
100
AcDbLine
 10
590.2958961449640
 20
741.4904139330622
 30
0.0000000000000000
 11
590.2958961449640
 21
744.3771652790103
 31
0.0000000000000000
  0
LINE
  5
27C
100
AcDbEntity
  8
MAIN0
  6
CONTINUOUS
 62
3
100
AcDbLine
 10
650.2958961449640
 20
744.3771652790103
 30
0.0000000000000000
 11
647.7958961449640
 21
745.8205409519844
 31
0.0000000000000000
  0
LINE
  5
27D
100
AcDbEntity
  8
MAIN0
  6
CONTINUOUS
 62
3
100
AcDbLine
 10
647.7958961449640
 20
745.8205409519844
 30
0.0000000000000000
 11
645.2958961449640
 21
744.3771652790103
 31
0.0000000000000000
  0
LINE
  5
27E
100
AcDbEntity
  8
MAIN0
  6
CONTINUOUS
 62
3
100
AcDbLine
 10
645.2958961449640
 20
744.3771652790103
 30
0.0000000000000000
 11
645.2958961449640
 21
741.4904139330622
 31
0.0000000000000000
  0
LINE
  5
27F
100
AcDbEntity
  8
MAIN0
  6
CONTINUOUS
 62
3
100
AcDbLine
 10
645.2958961449640
 20
741.4904139330622
 30
0.0000000000000000
 11
647.7958961449640
 21
740.0470382600881
 31
0.0000000000000000
  0
LINE
  5
280
100
AcDbEntity
  8
MAIN0
  6
CONTINUOUS
 62
3
100
AcDbLine
 10
647.7958961449640
 20
740.0470382600881
 30
0.0000000000000000
 11
650.2958961449640
 21
741.4904139330622
 31
0.0000000000000000
  0
LINE
  5
281
100
AcDbEntity
  8
MAIN0
  6
CONTINUOUS
 62
3
100
AcDbLine
 10
650.2958961449640
 20
741.4904139330622
 30
0.0000000000000000
 11
650.2958961449640
 21
744.3771652790103
 31
0.0000000000000000
  0
MTEXT
  5
282
100
AcDbEntity
  8
MAIN0
  6
CONTINUOUS
 62
3
100
AcDbMText
 10
886.3807025586962
 20
190.0431246923573
 30
0.0000000000000000
 40
10.00000000000000
 41
0.0000000000000000
 71
     1
 72
     1
  1
{\H0.63x;{(CLAMPING PARTS  ACCESSARY 4 PAIR)}}
 11
1.000000000000000
 21
0.0000000000000000
 31
0.0000000000000000
  7
STANDARD
  0
LEADER
  5
283
100
AcDbEntity
  8
MAIN0
  6
CONTINUOUS
 62
3
100
AcDbLeader
  3
MAIN001
 73
     0
 75
     1
 40
10.33333301544190
 41
72.99900004470354
 76
     3
 10
419.2393692175381
 20
821.0101787339577
 30
0.0000000000000000
 10
324.6940128700679
 20
912.8996292016179
 30
0.0000000000000000
 10
318.7396797122703
 20
912.8996292016179
 30
0.0000000000000000
340
284
213
0.0000000000000000
223
-1.666666666666629
233
0.0000000000000000
1001
ACAD
1000
DSTYLE
1002
{
1070
   147
1040
0.0
1070
    77
1070
     1
1070
   173
1070
     1
1070
     6
1000
_OPEN
1070
     7
1000
_OPEN
1002
}
  0
MTEXT
  5
284
102
{ACAD_REACTORS
330
283
102
}
100
AcDbEntity
  8
MAIN0
  6
CONTINUOUS
 62
3
100
AcDbMText
 10
245.7406796675668
 20
924.8996288837265
 30
0.0000000000000000
 40
10.33333301544190
 41
0.0000000000000000
 71
     1
 72
     1
  1
{\H0.70x;{（吊りボルト用）\P（EYE BOLT）\P}
 11
1.000000000000000
 21
0.0000000000000000
 31
0.0000000000000000
  7
KNJYOKO
  0
LINE
  5
285
100
AcDbEntity
  8
MAIN0
  6
CONTINUOUS
 62
3
100
AcDbLine
 10
1043.286144523198
 20
715.6447000661112
 30
0.0000000000000000
 11
1043.286144523034
 21
504.0717474577318
 31
0.0000000000000000
  0
LINE
  5
286
100
AcDbEntity
  8
MAIN0
  6
CONTINUOUS
 62
3
100
AcDbLine
 10
1060.286144523198
 20
718.6447000661092
 30
0.0000000000000000
 11
1046.286144523198
 21
718.6447000661092
 31
0.0000000000000000
  0
LINE
  5
287
100
AcDbEntity
  8
MAIN0
  6
CONTINUOUS
 62
3
100
AcDbLine
 10
1063.286144523198
 20
715.6447000661069
 30
0.0000000000000000
 11
1063.286144523189
 21
703.6447000661069
 31
0.0000000000000000
  0
LINE
  5
288
100
AcDbEntity
  8
MAIN0
  6
CONTINUOUS
 62
3
100
AcDbLine
 10
1001.286144523019
 20
484.6447000661091
 30
0.0000000000000000
 11
1001.286144523014
 21
478.2447000661091
 31
0.0000000000000000
  0
LINE
  5
289
100
AcDbEntity
  8
MAIN0
  6
CONTINUOUS
 62
3
100
AcDbLine
 10
1016.286144523014
 20
477.6447000661091
 30
0.0000000000000000
 11
1001.886144523014
 21
477.6447000661091
 31
0.0000000000000000
  0
LINE
  5
28A
100
AcDbEntity
  8
MAIN0
  6
CONTINUOUS
 62
3
100
AcDbLine
 10
1016.286144523019
 20
484.6447000661091
 30
0.0000000000000000
 11
1016.286144523012
 21
475.0447000661092
 31
0.0000000000000000
  0
LINE
  5
28B
100
AcDbEntity
  8
MAIN0
  6
CONTINUOUS
 62
3
100
AcDbLine
 10
1001.286144523019
 20
484.6447000661091
 30
0.0000000000000000
 11
1001.286144523014
 21
491.0447000661090
 31
0.0000000000000000
  0
LINE
  5
28C
100
AcDbEntity
  8
MAIN0
  6
CONTINUOUS
 62
3
100
AcDbLine
 10
1016.286144523014
 20
491.6447000661091
 30
0.0000000000000000
 11
1001.886144523014
 21
491.6447000661091
 31
0.0000000000000000
  0
LINE
  5
28D
100
AcDbEntity
  8
MAIN0
  6
CONTINUOUS
 62
3
100
AcDbLine
 10
1016.286144523019
 20
484.6447000661091
 30
0.0000000000000000
 11
1016.286144523012
 21
494.2447000661090
 31
0.0000000000000000
  0
LINE
  5
28E
100
AcDbEntity
  8
MAIN0
  6
CONTINUOUS
 62
3
100
AcDbLine
 10
1060.286144523189
 20
700.6447000661092
 30
0.0000000000000000
 11
1056.286144523185
 21
700.6447000661092
 31
0.0000000000000000
  0
ARC
  5
28F
100
AcDbEntity
  8
MAIN0
  6
CONTINUOUS
 62
3
100
AcDbCircle
 10
1046.286144523198
 20
715.6447000661092
 30
0.0000000000000000
 40
3.000000000000000
100
AcDbArc
 50
90.00000000000007
 51
180.0000000000001
  0
LINE
  5
290
100
AcDbEntity
  8
MAIN0
  6
CONTINUOUS
 62
3
100
AcDbLine
 10
1016.286144523019
 20
484.6447000661092
 30
0.0000000000000000
 11
1001.286144523019
 21
484.6447000661091
 31
0.0000000000000000
  0
LINE
  5
291
100
AcDbEntity
  8
MAIN0
  6
CONTINUOUS
 62
3
100
AcDbLine
 10
1001.286144523014
 20
478.2447000661091
 30
0.0000000000000000
 11
1001.886144523014
 21
477.6447000661091
 31
0.0000000000000000
  0
LINE
  5
292
100
AcDbEntity
  8
MAIN0
  6
CONTINUOUS
 62
3
100
AcDbLine
 10
1001.886144523014
 20
491.6447000661092
 30
0.0000000000000000
 11
1001.286144523014
 21
491.0447000661092
 31
0.0000000000000000
  0
ELLIPSE
  5
293
100
AcDbEntity
  8
MAIN0
  6
CONTINUOUS
 62
3
100
AcDbEllipse
 10
1009.286144523016
 20
488.1447000661149
 30
0.0000000000000000
 11
-2.050000000000000
 21
0.0000000000000000
 31
0.0000000000000000
210
0.0000000000000000
220
0.0000000000000000
230
1.000000000000000
 40
0.8536585365853660
 41
0.0000000000000000
 42
6.283185307179586
  0
LINE
  5
294
100
AcDbEntity
  8
MAIN0
  6
CONTINUOUS
 62
3
100
AcDbLine
 10
1025.286144523011
 20
474.6447000661091
 30
0.0000000000000000
 11
1016.686144523011
 21
474.6447000661091
 31
0.0000000000000000
  0
LINE
  5
295
100
AcDbEntity
  8
MAIN0
  6
CONTINUOUS
 62
3
100
AcDbLine
 10
1025.286144523027
 20
494.6447000661091
 30
0.0000000000000000
 11
1016.686144523011
 21
494.6447000661091
 31
0.0000000000000000
  0
LINE
  5
296
100
AcDbEntity
  8
MAIN0
  6
CONTINUOUS
 62
3
100
AcDbLine
 10
1025.286144523027
 20
494.6447000661091
 30
0.0000000000000000
 11
1025.286144523011
 21
474.6447000661091
 31
0.0000000000000000
  0
LINE
  5
297
100
AcDbEntity
  8
MAIN0
  6
CONTINUOUS
 62
3
100
AcDbLine
 10
1053.286144523184
 20
697.6447000661113
 30
0.0000000000000000
 11
1053.286144523010
 21
472.6447000661069
 31
0.0000000000000000
  0
LINE
  5
298
100
AcDbEntity
  8
MAIN0
  6
CONTINUOUS
 62
3
100
AcDbLine
 10
1050.286144523010
 20
469.6447000661092
 30
0.0000000000000000
 11
1043.946398560847
 21
469.6447000661092
 31
0.0000000000000000
  0
LINE
  5
299
100
AcDbEntity
  8
MAIN0
  6
CONTINUOUS
 62
3
100
AcDbLine
 10
1025.286144523011
 20
474.6447000661065
 30
0.0000000000000000
 11
1043.946398560846
 21
469.6447000661092
 31
0.0000000000000000
  0
LINE
  5
29A
100
AcDbEntity
  8
MAIN0
  6
CONTINUOUS
 62
3
100
AcDbLine
 10
1025.286144523058
 20
494.6447000661091
 30
0.0000000000000000
 11
1038.839058793649
 21
498.2761925000021
 31
0.0000000000000000
  0
ARC
  5
29B
100
AcDbEntity
  8
MAIN0
  6
CONTINUOUS
 62
3
100
AcDbCircle
 10
1050.286144523010
 20
472.6447000661092
 30
0.0000000000000000
 40
3.000000000000000
100
AcDbArc
 50
270.0000000000001
 51
360.0000000000001
  0
ARC
  5
29C
100
AcDbEntity
  8
MAIN0
  6
CONTINUOUS
 62
3
100
AcDbCircle
 10
1060.286144523198
 20
715.6447000661092
 30
0.0000000000000000
 40
3.000000000000000
100
AcDbArc
 50
7.633331235512440e-014
 51
90.00000000000007
  0
ARC
  5
29D
100
AcDbEntity
  8
MAIN0
  6
CONTINUOUS
 62
3
100
AcDbCircle
 10
1060.286144523189
 20
703.6447000661092
 30
0.0000000000000000
 40
3.000000000000000
100
AcDbArc
 50
270.0000000000001
 51
360.0000000000001
  0
LINE
  5
29E
100
AcDbEntity
  8
MAIN0
  6
CONTINUOUS
 62
3
100
AcDbLine
 10
1006.286144523012
 20
475.0447000661091
 30
0.0000000000000000
 11
1006.686144523011
 21
474.6447000661090
 31
0.0000000000000000
  0
LINE
  5
29F
100
AcDbEntity
  8
MAIN0
  6
CONTINUOUS
 62
3
100
AcDbLine
 10
1016.286144523012
 20
494.2447000661091
 30
0.0000000000000000
 11
1016.686144523011
 21
494.6447000661091
 31
0.0000000000000000
  0
ARC
  5
2A0
100
AcDbEntity
  8
MAIN0
  6
CONTINUOUS
 62
3
100
AcDbCircle
 10
1037.286144523034
 20
504.0717474577365
 30
0.0000000000000000
 40
6.000000000000000
100
AcDbArc
 50
284.9999999999988
 51
360.0000000000001
  0
ARC
  5
2A1
100
AcDbEntity
  8
MAIN0
  6
CONTINUOUS
 62
3
100
AcDbCircle
 10
1056.286144523184
 20
697.6447000661092
 30
0.0000000000000000
 40
3.000000000000000
100
AcDbArc
 50
90.00000000000007
 51
180.0000000000001
  0
ARC
  5
2A2
100
AcDbEntity
  8
MAIN1
  6
CONTINUOUS
 62
7
100
AcDbCircle
 10
1143.599031689216
 20
716.6447000661092
 30
0.0000000000000000
 40
4.000000000000000
100
AcDbArc
 50
11.21227141764971
 51
90.00000000000000
  0
ARC
  5
2A3
100
AcDbEntity
  8
MAIN1
  6
CONTINUOUS
 62
7
100
AcDbCircle
 10
1143.599031689216
 20
702.6447000661092
 30
0.0000000000000000
 40
4.000000000000000
100
AcDbArc
 50
270.0000000000000
 51
348.7877285823506
  0
LINE
  5
2A4
100
AcDbEntity
  8
MAIN1
  6
CONTINUOUS
 62
7
100
AcDbLine
 10
1097.286144523197
 20
720.6447000661092
 30
0.0000000000000000
 11
1075.202883433772
 21
719.7245641873831
 31
0.0000000000000000
  0
LINE
  5
2A5
100
AcDbEntity
  8
MAIN1
  6
CONTINUOUS
 62
7
100
AcDbLine
 10
1075.202883433772
 20
699.5648359448353
 30
0.0000000000000000
 11
1097.286144523196
 21
698.6447000661092
 31
0.0000000000000000
  0
ARC
  5
2A6
100
AcDbEntity
  8
MAIN1
  6
CONTINUOUS
 62
7
100
AcDbCircle
 10
1108.286144523197
 20
709.6447000661092
 30
0.0000000000000000
 40
40.00000000000002
100
AcDbArc
 50
348.7877285823503
 51
371.2122714176497
  0
LINE
  5
2A7
100
AcDbEntity
  8
MAIN1
  6
CONTINUOUS
 62
7
100
AcDbLine
 10
1072.786144523197
 20
718.1447000661092
 30
0.0000000000000000
 11
1072.786144523197
 21
701.1447000661092
 31
0.0000000000000000
  0
LINE
  5
2A8
100
AcDbEntity
  8
MAIN1
  6
CONTINUOUS
 62
7
100
AcDbLine
 10
1063.786144523197
 20
718.1447000661092
 30
0.0000000000000000
 11
1063.786144523197
 21
715.1219256411608
 31
0.0000000000000000
  0
LINE
  5
2A9
100
AcDbEntity
  8
MAIN1
  6
CONTINUOUS
 62
7
100
AcDbLine
 10
1063.286144523197
 20
715.1219256411608
 30
0.0000000000000000
 11
1070.786144523197
 21
715.1219256411608
 31
0.0000000000000000
  0
LINE
  5
2AA
100
AcDbEntity
  8
MAIN1
  6
CONTINUOUS
 62
7
100
AcDbLine
 10
1063.286144523197
 20
704.1674744910575
 30
0.0000000000000000
 11
1070.786144523197
 21
704.1674744910575
 31
0.0000000000000000
  0
LINE
  5
2AB
100
AcDbEntity
  8
MAIN1
  6
CONTINUOUS
 62
7
100
AcDbLine
 10
1143.599031689216
 20
720.6447000661092
 30
0.0000000000000000
 11
1097.286144523197
 21
720.6447000661092
 31
0.0000000000000000
  0
LINE
  5
2AC
100
AcDbEntity
  8
MAIN1
  6
CONTINUOUS
 62
7
100
AcDbLine
 10
1143.599031689216
 20
698.6447000661092
 30
0.0000000000000000
 11
1097.286144523197
 21
698.6447000661092
 31
0.0000000000000000
  0
LINE
  5
2AD
100
AcDbEntity
  8
MAIN1
  6
CONTINUOUS
 62
7
100
AcDbLine
 10
1063.786144523197
 20
718.1447000661094
 30
0.0000000000000000
 11
1063.286144523197
 21
717.6447000661094
 31
0.0000000000000000
  0
LINE
  5
2AE
100
AcDbEntity
  8
MAIN1
  6
CONTINUOUS
 62
7
100
AcDbLine
 10
1072.786144523197
 20
718.1447000661094
 30
0.0000000000000000
 11
1073.286144523197
 21
717.6447000661094
 31
0.0000000000000000
  0
LINE
  5
2AF
100
AcDbEntity
  8
MAIN1
  6
CONTINUOUS
 62
7
100
AcDbLine
 10
1072.786144523196
 20
701.1447000661092
 30
0.0000000000000000
 11
1073.286144523197
 21
701.6447000661094
 31
0.0000000000000000
  0
LINE
  5
2B0
100
AcDbEntity
  8
MAIN1
  6
CONTINUOUS
 62
7
100
AcDbLine
 10
1063.286144523197
 20
701.6447000661092
 30
0.0000000000000000
 11
1063.786144523197
 21
701.1447000661092
 31
0.0000000000000000
  0
LINE
  5
2B1
100
AcDbEntity
  8
MAIN1
  6
CONTINUOUS
 62
7
100
AcDbLine
 10
1063.786144523197
 20
718.1447000661092
 30
0.0000000000000000
 11
1072.786144523197
 21
718.1447000661092
 31
0.0000000000000000
  0
LINE
  5
2B2
100
AcDbEntity
  8
MAIN1
  6
CONTINUOUS
 62
7
100
AcDbLine
 10
1063.786144523197
 20
701.1447000661092
 30
0.0000000000000000
 11
1072.786144523197
 21
701.1447000661092
 31
0.0000000000000000
  0
LINE
  5
2B3
100
AcDbEntity
  8
MAIN1
  6
CONTINUOUS
 62
7
100
AcDbLine
 10
1063.286144523197
 20
701.6447000661092
 30
0.0000000000000000
 11
1063.286144523197
 21
717.6447000661092
 31
0.0000000000000000
  0
LINE
  5
2B4
100
AcDbEntity
  8
MAIN1
  6
CONTINUOUS
 62
7
100
AcDbLine
 10
1063.786144523197
 20
701.1447000661092
 30
0.0000000000000000
 11
1063.786144523197
 21
704.1674744910575
 31
0.0000000000000000
  0
LINE
  5
2B5
100
AcDbEntity
  8
MAIN1
  6
CONTINUOUS
 62
7
100
AcDbLine
 10
1073.286144523197
 20
701.5631020910200
 30
0.0000000000000000
 11
1073.286144523197
 21
717.7262980411985
 31
0.0000000000000000
  0
ARC
  5
2B6
100
AcDbEntity
  8
MAIN1
  6
CONTINUOUS
 62
7
100
AcDbCircle
 10
1075.286144523197
 20
717.7262980411985
 30
0.0000000000000000
 40
2.000000000000000
100
AcDbArc
 50
92.38594403038889
 51
179.9999999999999
  0
ARC
  5
2B7
100
AcDbEntity
  8
MAIN1
  6
CONTINUOUS
 62
7
100
AcDbCircle
 10
1075.286144523197
 20
701.5631020910200
 30
0.0000000000000000
 40
2.000000000000000
100
AcDbArc
 50
180.0000000000000
 51
267.6140559696109
  0
LINE
  5
2B8
100
AcDbEntity
  8
MAIN1
  6
CONTINUOUS
 62
7
100
AcDbLine
 10
1070.786144523197
 20
704.1674744910575
 30
0.0000000000000000
 11
1070.786144523197
 21
715.1219256411608
 31
0.0000000000000000
  0
LINE
  5
2B9
100
AcDbEntity
  8
MAIN3
  6
CONTINUOUS
 62
3
100
AcDbLine
 10
1070.786144523197
 20
704.1674744910577
 30
0.0000000000000000
 11
1063.286144523197
 21
715.1219256411608
 31
0.0000000000000000
  0
LINE
  5
2BA
100
AcDbEntity
  8
MAIN3
  6
CONTINUOUS
 62
3
100
AcDbLine
 10
1070.786144523196
 20
715.1219256411612
 30
0.0000000000000000
 11
1063.286144523197
 21
704.1674744910579
 31
0.0000000000000000
  0
LINE
  5
2BB
100
AcDbEntity
  8
MAIN1
  6
CONTINUOUS
 62
7
100
AcDbLine
 10
1097.286144523197
 20
720.6447000661092
 30
0.0000000000000000
 11
1097.286144523197
 21
698.6447000661092
 31
0.0000000000000000
  0
DIMENSION
  5
2C4
100
AcDbEntity
  8
MAIN0
  6
CONTINUOUS
 62
3
100
AcDbDimension
  2
*D35
 10
472.7958961445057
 20
311.8171276817402
 30
0.0000000000000000
 11
509.7958961443892
 21
312.3171276817402
 31
0.0000000000000000
 70
32
  3
MAIN001
100
AcDbAlignedDimension
 13
546.7958961442727
 23
342.8274104215142
 33
0.0000000000000000
 14
472.7958961445057
 24
467.2171276767662
 34
0.0000000000000000
100
AcDbRotatedDimension
1001
ACAD
1000
DSTYLE
1002
{
1070
   173
1070
     1
1070
     6
1000
_OPEN
1070
     7
1000
_OPEN
1070
    41
1040
6.666667
1002
}
  0
DIMENSION
  5
2CD
100
AcDbEntity
  8
MAIN0
  6
CONTINUOUS
 62
3
100
AcDbDimension
  2
*D36
 10
546.7958961442727
 20
311.8171276817402
 30
0.0000000000000000
 11
713.2958961442732
 21
312.3171276817402
 31
0.0000000000000000
 70
32
  3
MAIN001
100
AcDbAlignedDimension
 13
879.7958961442737
 23
357.2171276806682
 33
0.0000000000000000
 14
546.7958961442727
 24
342.8274104215142
 34
0.0000000000000000
100
AcDbRotatedDimension
1001
ACAD
1000
DSTYLE
1002
{
1070
   173
1070
     1
1070
     6
1000
_OPEN
1070
     7
1000
_OPEN
1070
    41
1040
6.666667
1002
}
  0
DIMENSION
  5
2D5
100
AcDbEntity
  8
MAIN0
  6
CONTINUOUS
 62
3
100
AcDbDimension
  2
*D37
 10
736.7958961445385
 20
356.8171276806694
 30
0.0000000000000000
 11
735.1292294778718
 21
374.5853583372034
 31
0.0000000000000000
 70
160
  3
MAIN001
100
AcDbAlignedDimension
 13
755.7958961445387
 23
409.3171276821039
 33
0.0000000000000000
 14
736.7958961445385
 24
356.8171276806694
 34
0.0000000000000000
 50
90.00000000000000
100
AcDbRotatedDimension
1001
ACAD
1000
DSTYLE
1002
{
1070
   173
1070
     1
1070
     6
1000
_OPEN
1070
     7
1000
_OPEN
1070
    41
1040
6.666667
1002
}
  0
DIMENSION
  5
2DE
100
AcDbEntity
  8
MAIN0
  6
CONTINUOUS
 62
3
100
AcDbDimension
  2
*D38
 10
736.7958961445385
 20
409.3171276821039
 30
0.0000000000000000
 11
736.2958961445385
 21
438.0671276798442
 31
0.0000000000000000
 70
32
  3
MAIN001
100
AcDbAlignedDimension
 13
670.7958961444831
 23
466.8171276775844
 33
0.0000000000000000
 14
755.7958961445387
 24
409.3171276821039
 34
0.0000000000000000
 50
90.00000000000000
100
AcDbRotatedDimension
1001
ACAD
1000
DSTYLE
1002
{
1070
   173
1070
     1
1070
     6
1000
_OPEN
1070
     7
1000
_OPEN
1070
    41
1040
6.666667
1002
}
  0
DIMENSION
  5
2E7
100
AcDbEntity
  8
MAIN0
  6
CONTINUOUS
 62
3
100
AcDbDimension
  2
*D39
 10
421.7958961449946
 20
937.2355429458362
 30
0.0000000000000000
 11
447.2958961447503
 21
937.7355429458362
 31
0.0000000000000000
 70
32
  3
MAIN001
100
AcDbAlignedDimension
 13
472.7958961445060
 23
917.4337896060365
 33
0.0000000000000000
 14
421.7958961449946
 24
828.9337896060363
 34
0.0000000000000000
100
AcDbRotatedDimension
1001
ACAD
1000
DSTYLE
1002
{
1070
   173
1070
     1
1070
     6
1000
_OPEN
1070
     7
1000
_OPEN
1070
    41
1040
6.666667
1002
}
  0
DIMENSION
  5
2F2
100
AcDbEntity
  8
MAIN0
  6
CONTINUOUS
 62
3
100
AcDbDimension
  2
*D40
 10
1001.286144523019
 20
732.3336236211619
 30
0.0000000000000000
 11
1008.786144523019
 21
732.8336236211619
 31
0.0000000000000000
 70
32
  3
MAIN001
100
AcDbAlignedDimension
 13
1016.286144523012
 23
494.2447000661090
 33
0.0000000000000000
 14
1001.286144523019
 24
484.6447000661091
 34
0.0000000000000000
100
AcDbRotatedDimension
1001
ACAD
1000
DSTYLE
1002
{
1070
   173
1070
     1
1070
     6
1000
_OPEN
1070
     7
1000
_OPEN
1070
    41
1040
6.666667
1070
   287
1070
     0
1002
}
  0
DIMENSION
  5
2FB
100
AcDbEntity
  8
MAIN0
  6
CONTINUOUS
 62
3
100
AcDbDimension
  2
*D41
 10
1016.286144523019
 20
732.3336236211619
 30
0.0000000000000000
 11
1034.786144523102
 21
732.8336236211619
 31
0.0000000000000000
 70
32
  3
MAIN001
100
AcDbAlignedDimension
 13
1053.286144523184
 23
697.6447000661113
 33
0.0000000000000000
 14
1016.286144523012
 24
494.2447000661090
 34
0.0000000000000000
100
AcDbRotatedDimension
1001
ACAD
1000
DSTYLE
1002
{
1070
   173
1070
     1
1070
     6
1000
_OPEN
1070
     7
1000
_OPEN
1070
    41
1040
6.666667
1002
}
  0
DIMENSION
  5
304
100
AcDbEntity
  8
MAIN0
  6
CONTINUOUS
 62
3
100
AcDbDimension
  2
*D42
 10
1053.286144523184
 20
732.3336236211619
 30
0.0000000000000000
 11
1100.786144523190
 21
732.8336236211619
 31
0.0000000000000000
 70
32
  3
MAIN001
100
AcDbAlignedDimension
 13
1148.286144523197
 23
709.6447000661092
 33
0.0000000000000000
 14
1053.286144523184
 24
697.6447000661113
 34
0.0000000000000000
100
AcDbRotatedDimension
1001
ACAD
1000
DSTYLE
1002
{
1070
   173
1070
     1
1070
     6
1000
_OPEN
1070
     7
1000
_OPEN
1070
    41
1040
6.666667
1002
}
  0
DIMENSION
  5
30D
100
AcDbEntity
  8
MAIN0
  6
CONTINUOUS
 62
3
100
AcDbDimension
  2
*D43
 10
1001.286144523019
 20
756.5467491154437
 30
0.0000000000000000
 11
1074.786144523108
 21
757.0467491154437
 31
0.0000000000000000
 70
32
  3
MAIN001
100
AcDbAlignedDimension
 13
1148.286144523197
 23
709.6447000661092
 33
0.0000000000000000
 14
1001.286144523019
 24
484.6447000661091
 34
0.0000000000000000
100
AcDbRotatedDimension
1001
ACAD
1000
DSTYLE
1002
{
1070
   173
1070
     1
1070
     6
1000
_OPEN
1070
     7
1000
_OPEN
1070
    41
1040
6.666667
1002
}
  0
LINE
  5
30E
100
AcDbEntity
  8
MAIN0
  6
CONTINUOUS
 62
3
100
AcDbLine
 10
1151.503184849330
 20
357.2171276790155
 30
0.0000000000000000
 11
1151.503184849404
 21
376.8171276792330
 31
0.0000000000000000
  0
DIMENSION
  5
317
100
AcDbEntity
  8
MAIN0
  6
CONTINUOUS
 62
3
100
AcDbDimension
  2
*D44
 10
1080.503184849292
 20
278.0133811913091
 30
0.0000000000000000
 11
1116.003184849311
 21
278.5133811913091
 31
0.0000000000000000
 70
32
  3
MAIN001
100
AcDbAlignedDimension
 13
1151.503184849330
 23
357.2171276790155
 33
0.0000000000000000
 14
1080.503184849292
 24
386.8171276791210
 34
0.0000000000000000
100
AcDbRotatedDimension
1001
ACAD
1000
DSTYLE
1002
{
1070
   173
1070
     1
1070
     6
1000
_OPEN
1070
     7
1000
_OPEN
1070
    41
1040
6.666667
1002
}
  0
DIMENSION
  5
320
100
AcDbEntity
  8
MAIN0
  6
CONTINUOUS
 62
3
100
AcDbDimension
  2
*D45
 10
1151.503184849330
 20
278.0133811913091
 30
0.0000000000000000
 11
1252.503184849307
 21
278.5133811913091
 31
0.0000000000000000
 70
32
  3
MAIN001
100
AcDbAlignedDimension
 13
1353.503184849283
 23
357.2171276789304
 33
0.0000000000000000
 14
1151.503184849330
 24
357.2171276790155
 34
0.0000000000000000
100
AcDbRotatedDimension
1001
ACAD
1000
DSTYLE
1002
{
1070
   173
1070
     1
1070
     6
1000
_OPEN
1070
     7
1000
_OPEN
1070
    41
1040
6.666667
1002
}
  0
INSERT
  5
328
100
AcDbEntity
  8
MAIN0
  6
CONTINUOUS
 62
3
100
AcDbBlockReference
  2
D46
 10
1252.503184849286
 20
346.5699174789403
 30
0.0000000000000000
 50
0.0000000000000000
  0
DIMENSION
  5
332
100
AcDbEntity
  8
MAIN0
  6
CONTINUOUS
 62
1
100
AcDbDimension
  2
*D47
 10
1128.503184849291
 20
301.8738794138785
 30
0.0000000000000000
 11
1177.199912836419
 21
303.5405460805451
 31
0.0000000000000000
 70
160
  1
\A1;15～31
  3
MAIN001
100
AcDbAlignedDimension
 13
1151.503184849330
 23
357.2171276790155
 33
0.0000000000000000
 14
1128.503184849291
 24
199.6220717855483
 34
0.0000000000000000
100
AcDbRotatedDimension
1001
ACAD
1000
DSTYLE
1002
{
1070
   173
1070
     1
1070
     6
1000
_OPEN
1070
     7
1000
_OPEN
1070
    41
1040
6.666667
1070
   287
1070
     0
1070
   340
1005
333
1002
}
  0
LINE
  5
334
100
AcDbEntity
  8
MAIN0
  6
CENTER
 62
3
100
AcDbLine
 10
982.0781802329225
 20
431.8171276797642
 30
0.0000000000000000
 11
982.0781802329225
 21
484.6447000661091
 31
0.0000000000000000
  0
LINE
  5
335
100
AcDbEntity
  8
MAIN0
  6
CENTER
 62
3
100
AcDbLine
 10
1026.311780498942
 20
412.7673892126768
 30
0.0000000000000000
 11
1026.311780498913
 21
319.8063108319964
 31
0.0000000000000000
  0
LINE
  5
336
100
AcDbEntity
  8
MAIN0
  6
CONTINUOUS
 62
3
100
AcDbLine
 10
1003.811780498934
 20
386.8171276791530
 30
0.0000000000000000
 11
1005.483911646466
 21
356.8171276792718
 31
0.0000000000000000
  0
LINE
  5
337
100
AcDbEntity
  8
MAIN0
  6
CONTINUOUS
 62
3
100
AcDbLine
 10
1048.811780498933
 20
386.8171276791395
 30
0.0000000000000000
 11
1047.139649351383
 21
356.8171276792591
 31
0.0000000000000000
  0
LINE
  5
338
100
AcDbEntity
  8
MAIN0
  6
CONTINUOUS
 62
3
100
AcDbLine
 10
1003.811780498933
 20
386.8171276791533
 30
0.0000000000000000
 11
1048.811780498933
 21
386.8171276791395
 31
0.0000000000000000
  0
LINE
  5
339
100
AcDbEntity
  8
MAIN0
  6
CONTINUOUS
 62
3
100
AcDbLine
 10
1005.483911646466
 20
356.8171276792719
 30
0.0000000000000000
 11
1047.139649351383
 21
356.8171276792591
 31
0.0000000000000000
  0
DIMENSION
  5
342
100
AcDbEntity
  8
MAIN0
  6
CONTINUOUS
 62
3
100
AcDbDimension
  2
*D48
 10
1003.811780498933
 20
420.5901219781938
 30
0.0000000000000000
 11
1026.311780498933
 21
421.0901219781938
 31
0.0000000000000000
 70
32
  3
MAIN001
100
AcDbAlignedDimension
 13
1048.811780498933
 23
386.8171276791392
 33
0.0000000000000000
 14
1003.811780498933
 24
386.8171276791531
 34
0.0000000000000000
100
AcDbRotatedDimension
1001
ACAD
1000
DSTYLE
1002
{
1070
   173
1070
     1
1070
     6
1000
_OPEN
1070
     7
1000
_OPEN
1070
    41
1040
6.666667
1002
}
  0
DIMENSION
  5
34D
100
AcDbEntity
  8
MAIN0
  6
CONTINUOUS
 62
3
100
AcDbDimension
  2
*D49
 10
1091.992181814597
 20
233.5290217654578
 30
0.0000000000000000
 11
1091.492181814597
 21
219.2790217654579
 31
0.0000000000000000
 70
32
  3
MAIN001
100
AcDbAlignedDimension
 13
1113.503184849266
 23
205.0290217654581
 33
0.0000000000000000
 14
1113.503184849246
 24
233.5290217654578
 34
0.0000000000000000
 50
90.00000000000000
100
AcDbRotatedDimension
1001
ACAD
1000
DSTYLE
1002
{
1070
   173
1070
     1
1070
     6
1000
_OPEN
1070
     7
1000
_OPEN
1070
    41
1040
6.666667
1070
   287
1070
     0
1002
}
  0
DIMENSION
  5
358
100
AcDbEntity
  8
MAIN0
  6
CONTINUOUS
 62
3
100
AcDbDimension
  2
*D50
 10
1170.419272047654
 20
228.0290217654579
 30
0.0000000000000000
 11
1168.752605380988
 21
190.8752749210125
 31
0.0000000000000000
 70
160
  3
MAIN001
100
AcDbAlignedDimension
 13
1143.503184849262
 23
210.5290217654498
 33
0.0000000000000000
 14
1143.503184849250
 24
228.0290217654496
 34
0.0000000000000000
 50
90.00000000000000
100
AcDbRotatedDimension
1001
ACAD
1000
DSTYLE
1002
{
1070
   173
1070
     1
1070
     6
1000
_OPEN
1070
     7
1000
_OPEN
1070
    41
1040
6.666667
1070
   287
1070
     0
1002
}
  0
DIMENSION
  5
361
100
AcDbEntity
  8
MAIN0
  6
CONTINUOUS
 62
3
100
AcDbDimension
  2
*D51
 10
1113.503184849266
 20
181.0545132808625
 30
0.0000000000000000
 11
1128.503184849266
 21
181.5545132808625
 31
0.0000000000000000
 70
32
  3
MAIN001
100
AcDbAlignedDimension
 13
1143.503184849266
 23
205.0290217654497
 33
0.0000000000000000
 14
1113.503184849266
 24
205.0290217654580
 34
0.0000000000000000
100
AcDbRotatedDimension
1001
ACAD
1000
DSTYLE
1002
{
1070
   173
1070
     1
1070
     6
1000
_OPEN
1070
     7
1000
_OPEN
1070
    41
1040
6.666667
1002
}
  0
DIMENSION
  5
36B
100
AcDbEntity
  8
MAIN0
  6
CONTINUOUS
 62
3
100
AcDbDimension
  2
*D52
 10
644.7958961444916
 20
466.8171276768411
 30
0.0000000000000000
 11
644.2958961444916
 21
479.4171276766732
 31
0.0000000000000000
 70
32
  3
MAIN001
100
AcDbAlignedDimension
 13
670.7958961445060
 23
492.0171276765054
 33
0.0000000000000000
 14
433.7958961433871
 24
466.8171276768411
 34
0.0000000000000000
 50
90.00000000000000
100
AcDbRotatedDimension
1001
ACAD
1000
DSTYLE
1002
{
1070
   173
1070
     1
1070
     6
1000
_OPEN
1070
     7
1000
_OPEN
1070
    41
1040
6.666667
1070
   287
1070
     0
1002
}
  0
DIMENSION
  5
374
100
AcDbEntity
  8
MAIN0
  6
CONTINUOUS
 62
3
100
AcDbDimension
  2
*D53
 10
369.7958961442743
 20
291.8171276822407
 30
0.0000000000000000
 11
624.7958961442740
 21
292.3171276822407
 31
0.0000000000000000
 70
32
  3
MAIN001
100
AcDbAlignedDimension
 13
879.7958961442737
 23
357.2171276806682
 33
0.0000000000000000
 14
369.7958961442743
 24
357.2171276822658
 34
0.0000000000000000
100
AcDbRotatedDimension
1001
ACAD
1000
DSTYLE
1002
{
1070
   173
1070
     1
1070
     6
1000
_OPEN
1070
     7
1000
_OPEN
1070
    41
1040
6.666667
1002
}
  0
DIMENSION
  5
37D
100
AcDbEntity
  8
MAIN0
  6
CONTINUOUS
 62
3
100
AcDbDimension
  2
*D54
 10
879.7958961442737
 20
291.8171276822407
 30
0.0000000000000000
 11
927.2958961444340
 21
292.3171276822407
 31
0.0000000000000000
 70
32
  3
MAIN001
100
AcDbAlignedDimension
 13
974.7958961445943
 23
406.8171276797149
 33
0.0000000000000000
 14
879.7958961442737
 24
357.2171276806682
 34
0.0000000000000000
100
AcDbRotatedDimension
1001
ACAD
1000
DSTYLE
1002
{
1070
   173
1070
     1
1070
     6
1000
_OPEN
1070
     7
1000
_OPEN
1070
    41
1040
6.666667
1002
}
  0
DIMENSION
  5
386
100
AcDbEntity
  8
MAIN0
  6
CONTINUOUS
 62
3
100
AcDbDimension
  2
*D55
 10
990.2767610721048
 20
356.8171276816839
 30
0.0000000000000000
 11
989.7767610721048
 21
394.3171276806995
 31
0.0000000000000000
 70
32
  3
MAIN001
100
AcDbAlignedDimension
 13
982.0781802329227
 23
431.8171276797152
 33
0.0000000000000000
 14
879.3958961442726
 24
356.8171276806693
 34
0.0000000000000000
 50
90.00000000000000
100
AcDbRotatedDimension
1001
ACAD
1000
DSTYLE
1002
{
1070
   173
1070
     1
1070
     6
1000
_OPEN
1070
     7
1000
_OPEN
1070
    41
1040
6.666667
1002
}
  0
LINE
  5
387
100
AcDbEntity
  8
MAIN0
  6
CENTER
 62
3
100
AcDbLine
 10
1050.926399255646
 20
484.6447000661091
 30
0.0000000000000000
 11
982.0781802329225
 21
484.6447000661091
 31
0.0000000000000000
  0
LINE
  5
388
100
AcDbEntity
  8
MAIN0
  6
CONTINUOUS
 62
3
100
AcDbLine
 10
131.9634363203043
 20
460.8171276797041
 30
0.0000000000000000
 11
131.9634363202985
 21
446.8171276797041
 31
0.0000000000000000
  0
LINE
  5
389
100
AcDbEntity
  8
MAIN0
  6
CONTINUOUS
 62
3
100
AcDbLine
 10
123.4634363202955
 20
446.8171276797020
 30
0.0000000000000000
 11
131.9634363202985
 21
446.8171276797040
 31
0.0000000000000000
  0
LINE
  5
38A
100
AcDbEntity
  8
MAIN0
  6
CONTINUOUS
 62
3
100
AcDbLine
 10
123.4634363202869
 20
426.8171276797017
 30
0.0000000000000000
 11
138.4634363204814
 21
426.8171276797049
 31
0.0000000000000000
  0
LINE
  5
38B
100
AcDbEntity
  8
MAIN0
  6
CONTINUOUS
 62
3
100
AcDbLine
 10
236.4634363202954
 20
446.8171276796551
 30
0.0000000000000000
 11
227.9634363202984
 21
446.8171276796638
 31
0.0000000000000000
  0
LINE
  5
38C
100
AcDbEntity
  8
MAIN0
  6
CONTINUOUS
 62
3
100
AcDbLine
 10
227.9634363203045
 20
460.8171276797260
 30
0.0000000000000000
 11
227.9634363202984
 21
446.8171276796638
 31
0.0000000000000000
  0
LINE
  5
38D
100
AcDbEntity
  8
MAIN0
  6
CONTINUOUS
 62
3
100
AcDbLine
 10
236.4634363202869
 20
426.8171276796543
 30
0.0000000000000000
 11
221.4634363200927
 21
426.8171276796695
 31
0.0000000000000000
  0
LINE
  5
38E
100
AcDbEntity
  8
MAIN0
  6
CONTINUOUS
 62
3
100
AcDbLine
 10
123.4634363202954
 20
446.8171276797027
 30
0.0000000000000000
 11
123.4634363202870
 21
426.8171276797018
 31
0.0000000000000000
  0
LINE
  5
38F
100
AcDbEntity
  8
MAIN0
  6
CONTINUOUS
 62
3
100
AcDbLine
 10
236.4634363202953
 20
446.8171276796546
 30
0.0000000000000000
 11
236.4634363202869
 21
426.8171276796555
 31
0.0000000000000000
  0
LINE
  5
390
100
AcDbEntity
  8
MAIN0
  6
CONTINUOUS
 62
3
100
AcDbLine
 10
369.7958961458617
 20
717.9337896060363
 30
0.0000000000000000
 11
369.7958961459160
 21
917.9337896000329
 31
0.0000000000000000
  0
LINE
  5
391
100
AcDbEntity
  8
MAIN0
  6
CONTINUOUS
 62
3
100
AcDbLine
 10
370.7958961459161
 20
918.9337896000393
 30
0.0000000000000000
 11
369.7958961459158
 21
917.9337896000329
 31
0.0000000000000000
  0
LINE
  5
392
100
AcDbEntity
  8
MAIN0
  6
CONTINUOUS
 62
3
100
AcDbLine
 10
369.7958961458614
 20
717.9337896060360
 30
0.0000000000000000
 11
370.7958961458612
 21
716.9337896060360
 31
0.0000000000000000
  0
LINE
  5
393
100
AcDbEntity
  8
MAIN0
  6
CONTINUOUS
 62
3
100
AcDbLine
 10
472.7958961445057
 20
768.9337896006789
 30
0.0000000000000000
 11
572.7958961445046
 21
768.9337896013060
 31
0.0000000000000000
  0
LINE
  5
394
100
AcDbEntity
  8
MAIN0
  6
CONTINUOUS
 62
3
100
AcDbLine
 10
472.7958961445060
 20
866.9337896113938
 30
0.0000000000000000
 11
572.7958961445049
 21
866.9337896107666
 31
0.0000000000000000
  0
LINE
  5
395
100
AcDbEntity
  8
MAIN0
  6
CENTER
 62
3
100
AcDbLine
 10
421.7958961449946
 20
828.9337896060363
 30
0.0000000000000000
 11
421.7958961449946
 21
806.9337896060363
 31
0.0000000000000000
  0
CIRCLE
  5
396
100
AcDbEntity
  8
MAIN0
  6
CONTINUOUS
 62
3
100
AcDbCircle
 10
492.7958961445048
 20
817.9337896060363
 30
0.0000000000000000
 40
3.000000000000000
  0
LINE
  5
397
100
AcDbEntity
  8
MAIN0
  6
CENTER
 62
3
100
AcDbLine
 10
492.7958961445048
 20
826.9337896060363
 30
0.0000000000000000
 11
492.7958961445048
 21
808.9337896060363
 31
0.0000000000000000
  0
LINE
  5
398
100
AcDbEntity
  8
MAIN0
  6
CONTINUOUS
 62
3
100
AcDbLine
 10
748.7958961433873
 20
710.9337896060363
 30
0.0000000000000000
 11
748.7958961433873
 21
924.9337896060363
 31
0.0000000000000000
  0
LINE
  5
399
100
AcDbEntity
  8
MAIN0
  6
CONTINUOUS
 62
3
100
AcDbLine
 10
790.3958961448774
 20
712.4337896060365
 30
0.0000000000000000
 11
790.3958961448774
 21
923.4337896060365
 31
0.0000000000000000
  0
LINE
  5
39A
100
AcDbEntity
  8
MAIN0
  6
CONTINUOUS
 62
3
100
AcDbLine
 10
834.9958961445441
 20
713.9337896060363
 30
0.0000000000000000
 11
834.9958961454140
 21
921.9337896060363
 31
0.0000000000000000
  0
LINE
  5
39B
100
AcDbEntity
  8
MAIN0
  6
CONTINUOUS
 62
3
100
AcDbLine
 10
882.7958961433872
 20
715.4337896060363
 30
0.0000000000000000
 11
882.7958961433872
 21
920.4337896060363
 31
0.0000000000000000
  0
LINE
  5
39C
100
AcDbEntity
  8
MAIN0
  6
CONTINUOUS
 62
3
100
AcDbLine
 10
370.7958961459161
 20
918.9337896000397
 30
0.0000000000000000
 11
670.7958961445044
 21
918.9337896019213
 31
0.0000000000000000
  0
LINE
  5
39D
100
AcDbEntity
  8
MAIN0
  6
CONTINUOUS
 62
3
100
AcDbLine
 10
370.7958961458613
 20
716.9337896060363
 30
0.0000000000000000
 11
670.7958961445041
 21
716.9337896060363
 31
0.0000000000000000
  0
LINE
  5
39E
100
AcDbEntity
  8
MAIN0
  6
CONTINUOUS
 62
3
100
AcDbLine
 10
670.7958961445041
 20
924.9337896060363
 30
0.0000000000000000
 11
748.7958961433873
 21
924.9337896060363
 31
0.0000000000000000
  0
LINE
  5
39F
100
AcDbEntity
  8
MAIN0
  6
CONTINUOUS
 62
3
100
AcDbLine
 10
670.7958961445041
 20
710.9337896060363
 30
0.0000000000000000
 11
748.7958961433873
 21
710.9337896060363
 31
0.0000000000000000
  0
LINE
  5
3A0
100
AcDbEntity
  8
MAIN0
  6
CONTINUOUS
 62
3
100
AcDbLine
 10
748.7958961433873
 20
923.4337896060363
 30
0.0000000000000000
 11
790.3958961448774
 21
923.4337896060363
 31
0.0000000000000000
  0
LINE
  5
3A1
100
AcDbEntity
  8
MAIN0
  6
CONTINUOUS
 62
3
100
AcDbLine
 10
748.7958961433873
 20
712.4337896060363
 30
0.0000000000000000
 11
790.3958961448774
 21
712.4337896060363
 31
0.0000000000000000
  0
LINE
  5
3A2
100
AcDbEntity
  8
MAIN0
  6
CONTINUOUS
 62
3
100
AcDbLine
 10
790.3958961448774
 20
921.9337896060363
 30
0.0000000000000000
 11
834.9958961454134
 21
921.9337896060363
 31
0.0000000000000000
  0
LINE
  5
3A3
100
AcDbEntity
  8
MAIN0
  6
CONTINUOUS
 62
3
100
AcDbLine
 10
790.3958961448774
 20
921.9337896060363
 30
0.0000000000000000
 11
834.9958961454139
 21
921.9337896060363
 31
0.0000000000000000
  0
LINE
  5
3A4
100
AcDbEntity
  8
MAIN0
  6
CONTINUOUS
 62
3
100
AcDbLine
 10
790.3958961448774
 20
713.9337896060363
 30
0.0000000000000000
 11
834.9958961445440
 21
713.9337896060363
 31
0.0000000000000000
  0
LINE
  5
3A5
100
AcDbEntity
  8
MAIN0
  6
CONTINUOUS
 62
3
100
AcDbLine
 10
834.9958961454080
 20
920.4337896060363
 30
0.0000000000000000
 11
882.7958961433872
 21
920.4337896060363
 31
0.0000000000000000
  0
LINE
  5
3A6
100
AcDbEntity
  8
MAIN0
  6
CONTINUOUS
 62
3
100
AcDbLine
 10
834.9958961445503
 20
715.4337896060363
 30
0.0000000000000000
 11
882.7958961433872
 21
715.4337896060363
 31
0.0000000000000000
  0
LINE
  5
3A7
100
AcDbEntity
  8
MAIN0
  6
CONTINUOUS
 62
3
100
AcDbLine
 10
882.7958961433872
 20
716.9337896060363
 30
0.0000000000000000
 11
924.7958961481215
 21
716.9337896060363
 31
0.0000000000000000
  0
LINE
  5
3A8
100
AcDbEntity
  8
MAIN0
  6
CONTINUOUS
 62
3
100
AcDbLine
 10
882.7958961433872
 20
918.9337896060358
 30
0.0000000000000000
 11
924.7958961481215
 21
918.9337896060358
 31
0.0000000000000000
  0
LINE
  5
3A9
100
AcDbEntity
  8
MAIN0
  6
CONTINUOUS
 62
3
100
AcDbLine
 10
930.7958961487414
 20
804.4708775876995
 30
0.0000000000000000
 11
927.7958961486643
 21
804.4708775877123
 31
0.0000000000000000
  0
LINE
  5
3AA
100
AcDbEntity
  8
MAIN0
  6
CONTINUOUS
 62
3
100
AcDbLine
 10
930.7958961487684
 20
831.3967016226585
 30
0.0000000000000000
 11
927.7958961488457
 21
831.3967016226710
 31
0.0000000000000000
  0
LINE
  5
3AB
100
AcDbEntity
  8
MAIN0
  6
CONTINUOUS
 62
3
100
AcDbLine
 10
930.7958961487177
 20
780.4337896059010
 30
0.0000000000000000
 11
927.7958961485012
 21
780.4337896059010
 31
0.0000000000000000
  0
LINE
  5
3AC
100
AcDbEntity
  8
MAIN0
  6
CONTINUOUS
 62
3
100
AcDbLine
 10
930.7958961487923
 20
855.4337896059008
 30
0.0000000000000000
 11
927.7958961490090
 21
855.4337896059008
 31
0.0000000000000000
  0
LINE
  5
3AD
100
AcDbEntity
  8
MAIN0
  6
CONTINUOUS
 62
3
100
AcDbLine
 10
930.7958961487173
 20
780.4337896059006
 30
0.0000000000000000
 11
930.7958961487923
 21
855.4337896059009
 31
0.0000000000000000
  0
LINE
  5
3AE
100
AcDbEntity
  8
MAIN0
  6
CONTINUOUS
 62
3
100
AcDbLine
 10
955.7958961481256
 20
779.5337896060826
 30
0.0000000000000000
 11
955.7958961480344
 21
856.3337896060821
 31
0.0000000000000000
  0
LINE
  5
3AF
100
AcDbEntity
  8
MAIN0
  6
CONTINUOUS
 62
3
100
AcDbLine
 10
955.1958961480793
 20
778.9337896060360
 30
0.0000000000000000
 11
945.7958961480797
 21
778.9337896060360
 31
0.0000000000000000
  0
LINE
  5
3B0
100
AcDbEntity
  8
MAIN0
  6
CONTINUOUS
 62
3
100
AcDbLine
 10
943.7958961481113
 20
780.9337896060365
 30
0.0000000000000000
 11
945.7958961480797
 21
778.9337896060360
 31
0.0000000000000000
  0
LINE
  5
3B1
100
AcDbEntity
  8
MAIN0
  6
CONTINUOUS
 62
3
100
AcDbLine
 10
955.1958961480796
 20
778.9337896060356
 30
0.0000000000000000
 11
955.7958961480797
 21
779.5337896060358
 31
0.0000000000000000
  0
LINE
  5
3B2
100
AcDbEntity
  8
MAIN0
  6
CONTINUOUS
 62
3
100
AcDbLine
 10
955.1958961480789
 20
856.9337896060360
 30
0.0000000000000000
 11
945.7958961480792
 21
856.9337896060360
 31
0.0000000000000000
  0
LINE
  5
3B3
100
AcDbEntity
  8
MAIN0
  6
CONTINUOUS
 62
3
100
AcDbLine
 10
943.7958961481108
 20
854.9337896060351
 30
0.0000000000000000
 11
945.7958961480790
 21
856.9337896060354
 31
0.0000000000000000
  0
LINE
  5
3B4
100
AcDbEntity
  8
MAIN0
  6
CONTINUOUS
 62
3
100
AcDbLine
 10
955.1958961480793
 20
856.9337896060366
 30
0.0000000000000000
 11
955.7958961480795
 21
856.3337896060366
 31
0.0000000000000000
  0
LINE
  5
3B5
100
AcDbEntity
  8
MAIN0
  6
CONTINUOUS
 62
3
100
AcDbLine
 10
930.7958961487918
 20
854.9337896060363
 30
0.0000000000000000
 11
943.7958961481111
 21
854.9337896060363
 31
0.0000000000000000
  0
LINE
  5
3B6
100
AcDbEntity
  8
MAIN0
  6
CONTINUOUS
 62
3
100
AcDbLine
 10
930.7958961487177
 20
780.9337896060360
 30
0.0000000000000000
 11
943.7958961481120
 21
780.9337896060360
 31
0.0000000000000000
  0
LINE
  5
3B7
100
AcDbEntity
  8
MAIN0
  6
CONTINUOUS
 62
3
100
AcDbLine
 10
974.7958961480797
 20
842.9337896060363
 30
0.0000000000000000
 11
955.7958961480802
 21
842.9337896060363
 31
0.0000000000000000
  0
LINE
  5
3B8
100
AcDbEntity
  8
MAIN0
  6
CONTINUOUS
 62
3
100
AcDbLine
 10
974.7958961480802
 20
842.9337896060367
 30
0.0000000000000000
 11
974.7958961480799
 21
792.9337896060365
 31
0.0000000000000000
  0
LINE
  5
3B9
100
AcDbEntity
  8
MAIN0
  6
CONTINUOUS
 62
3
100
AcDbLine
 10
974.7958961480797
 20
792.9337896060363
 30
0.0000000000000000
 11
955.7958961480802
 21
792.9337896060363
 31
0.0000000000000000
  0
LINE
  5
3BA
100
AcDbEntity
  8
MAIN0
  6
CONTINUOUS
 62
3
100
AcDbLine
 10
955.7958961480995
 20
800.7291390690332
 30
0.0000000000000000
 11
945.7958961481481
 21
800.7291390690755
 31
0.0000000000000000
  0
LINE
  5
3BB
100
AcDbEntity
  8
MAIN0
  6
CONTINUOUS
 62
3
100
AcDbLine
 10
943.7958961481729
 20
805.9337896021148
 30
0.0000000000000000
 11
930.7958961487423
 21
805.9337896021373
 31
0.0000000000000000
  0
LINE
  5
3BC
100
AcDbEntity
  8
MAIN0
  6
CONTINUOUS
 62
3
100
AcDbLine
 10
943.7958961481429
 20
829.9337896102318
 30
0.0000000000000000
 11
930.7958961487668
 21
829.9337896101929
 31
0.0000000000000000
  0
LINE
  5
3BD
100
AcDbEntity
  8
MAIN0
  6
CONTINUOUS
 62
3
100
AcDbLine
 10
955.7958961480595
 20
835.1384401430340
 30
0.0000000000000000
 11
945.7958961481068
 21
835.1384401430239
 31
0.0000000000000000
  0
LINE
  5
3BE
100
AcDbEntity
  8
MAIN0
  6
CONTINUOUS
 62
3
100
AcDbLine
 10
943.7958961481429
 20
829.9337896102318
 30
0.0000000000000000
 11
945.7958961481065
 21
835.1384401430237
 31
0.0000000000000000
  0
LINE
  5
3BF
100
AcDbEntity
  8
MAIN0
  6
CONTINUOUS
 62
3
100
AcDbLine
 10
943.7958961481727
 20
805.9337896021152
 30
0.0000000000000000
 11
945.7958961481486
 21
800.7291390690757
 31
0.0000000000000000
  0
LINE
  5
3C0
100
AcDbEntity
  8
MAIN0
  6
CONTINUOUS
 62
3
100
AcDbLine
 10
945.7958961481752
 20
778.9337896060358
 30
0.0000000000000000
 11
945.7958961481484
 21
800.7291390690753
 31
0.0000000000000000
  0
LINE
  5
3C1
100
AcDbEntity
  8
MAIN0
  6
CONTINUOUS
 62
3
100
AcDbLine
 10
945.7958961481068
 20
835.1384401430233
 30
0.0000000000000000
 11
945.7958961480799
 21
856.9337896060360
 31
0.0000000000000000
  0
LINE
  5
3C2
100
AcDbEntity
  8
MAIN0
  6
CONTINUOUS
 62
3
100
AcDbLine
 10
943.7958961482041
 20
780.9337896060358
 30
0.0000000000000000
 11
943.7958961481729
 21
805.9337896021150
 31
0.0000000000000000
  0
LINE
  5
3C3
100
AcDbEntity
  8
MAIN0
  6
CONTINUOUS
 62
3
100
AcDbLine
 10
943.7958961481431
 20
829.9337896102318
 30
0.0000000000000000
 11
943.7958961481120
 21
854.9337896060360
 31
0.0000000000000000
  0
LINE
  5
3C4
100
AcDbEntity
  8
MAIN0
  6
CONTINUOUS
 62
3
100
AcDbLine
 10
924.7958961481220
 20
716.9337896060359
 30
0.0000000000000000
 11
924.7958961486520
 21
801.4708775877310
 31
0.0000000000000000
  0
LINE
  5
3C5
100
AcDbEntity
  8
MAIN0
  6
CONTINUOUS
 62
3
100
AcDbLine
 10
924.7958961488582
 20
834.3967016226895
 30
0.0000000000000000
 11
924.7958961493885
 21
918.9337896060356
 31
0.0000000000000000
  0
LINE
  5
3C6
100
AcDbEntity
  8
MAIN0
  6
CENTER
 62
3
100
AcDbLine
 10
621.7958961447342
 20
829.6004562727032
 30
0.0000000000000000
 11
621.7958961447342
 21
806.2671229393700
 31
0.0000000000000000
  0
LINE
  5
3C7
100
AcDbEntity
  8
MAIN0
  6
CONTINUOUS
 62
3
100
AcDbLine
 10
924.7958961482223
 20
732.9337896047182
 30
0.0000000000000000
 11
882.7958961433874
 21
732.9337896046392
 31
0.0000000000000000
  0
LINE
  5
3C8
100
AcDbEntity
  8
MAIN0
  6
CONTINUOUS
 62
3
100
AcDbLine
 10
924.7958961492880
 20
902.9337896048739
 30
0.0000000000000000
 11
882.7958961433872
 21
902.9337896048739
 31
0.0000000000000000
  0
ARC
  5
3C9
100
AcDbEntity
  8
MAIN0
  6
CONTINUOUS
 62
3
100
AcDbCircle
 10
927.7958961490090
 20
858.4337896059008
 30
0.0000000000000000
 40
3.000000000000000
100
AcDbArc
 50
180.0000000000000
 51
270.0000000000000
  0
ARC
  5
3CA
100
AcDbEntity
  8
MAIN0
  6
CONTINUOUS
 62
3
100
AcDbCircle
 10
927.7958961488582
 20
834.3967016226709
 30
0.0000000000000000
 40
3.000000000000000
100
AcDbArc
 50
180.0000000000000
 51
270.0000000000000
  0
ARC
  5
3CB
100
AcDbEntity
  8
MAIN0
  6
CONTINUOUS
 62
3
100
AcDbCircle
 10
927.7958961485012
 20
777.4337896059010
 30
0.0000000000000000
 40
3.000000000000000
100
AcDbArc
 50
90.00000000000000
 51
180.0000000000000
  0
ARC
  5
3CC
100
AcDbEntity
  8
MAIN0
  6
CONTINUOUS
 62
3
100
AcDbCircle
 10
927.7958961486518
 20
801.4708775877123
 30
0.0000000000000000
 40
3.000000000000000
100
AcDbArc
 50
90.00000000000000
 51
180.0000000000000
  0
LINE
  5
3CD
100
AcDbEntity
  8
MAIN0
  6
CENTER
 62
3
100
AcDbLine
 10
355.6762930444678
 20
817.9337896060363
 30
0.0000000000000000
 11
689.4714497022942
 21
817.9337896060365
 31
0.0000000000000000
  0
LINE
  5
3CE
100
AcDbEntity
  8
MAIN0
  6
CENTER
 62
3
100
AcDbLine
 10
709.8047827177362
 20
817.9337896060363
 30
0.0000000000000000
 11
987.8800601870196
 21
817.9337896060363
 31
0.0000000000000000
  0
LINE
  5
3CF
100
AcDbEntity
  8
MAIN0
  6
CONTINUOUS
 62
3
100
AcDbLine
 10
409.7958961433873
 20
457.8171276767658
 30
0.0000000000000000
 11
409.7958961433873
 21
466.8171276767659
 31
0.0000000000000000
  0
LINE
  5
3D0
100
AcDbEntity
  8
MAIN0
  6
CONTINUOUS
 62
3
100
AcDbLine
 10
433.7958961433873
 20
457.8171276768411
 30
0.0000000000000000
 11
433.7958961433873
 21
466.8171276768413
 31
0.0000000000000000
  0
LINE
  5
3D1
100
AcDbEntity
  8
MAIN0
  6
CONTINUOUS
 62
3
100
AcDbLine
 10
369.7958961446507
 20
440.8171276797901
 30
0.0000000000000000
 11
670.7958961444747
 21
440.8171276797538
 31
0.0000000000000000
  0
LINE
  5
3D2
100
AcDbEntity
  8
MAIN0
  6
CONTINUOUS
 62
3
100
AcDbLine
 10
409.7958961433872
 20
457.8171276767659
 30
0.0000000000000000
 11
433.7958961433868
 21
457.8171276768412
 31
0.0000000000000000
  0
LINE
  5
3D3
100
AcDbEntity
  8
MAIN0
  6
CONTINUOUS
 62
3
100
AcDbLine
 10
790.3958961445071
 20
436.5171276796548
 30
0.0000000000000000
 11
834.9958961445074
 21
436.5171276796627
 31
0.0000000000000000
  0
LINE
  5
3D4
100
AcDbEntity
  8
MAIN0
  6
CONTINUOUS
 62
3
100
AcDbLine
 10
834.9958961445085
 20
438.5171276796580
 30
0.0000000000000000
 11
882.7958961440249
 21
438.5171276796664
 31
0.0000000000000000
  0
LINE
  5
3D5
100
AcDbEntity
  8
MAIN0
  6
CONTINUOUS
 62
3
100
AcDbLine
 10
409.7958961433841
 20
458.8171276767659
 30
0.0000000000000000
 11
433.7958961433836
 21
458.8171276768412
 31
0.0000000000000000
  0
LINE
  5
3D6
100
AcDbEntity
  8
MAIN0
  6
CONTINUOUS
 62
3
100
AcDbLine
 10
943.7958961461686
 20
399.8171276797152
 30
0.0000000000000000
 11
943.7958961458885
 21
466.8171276797157
 31
0.0000000000000000
  0
LINE
  5
3D7
100
AcDbEntity
  8
MAIN0
  6
CONTINUOUS
 62
3
100
AcDbLine
 10
945.7958961433872
 20
399.8171276797152
 30
0.0000000000000000
 11
945.7958961433872
 21
466.8171276797156
 31
0.0000000000000000
  0
CIRCLE
  5
3D8
100
AcDbEntity
  8
MAIN0
  6
CONTINUOUS
 62
3
100
AcDbCircle
 10
484.7958961445389
 20
409.3171276825430
 30
0.0000000000000000
 40
5.000000000000000
  0
CIRCLE
  5
3D9
100
AcDbEntity
  8
MAIN0
  6
CONTINUOUS
 62
3
100
AcDbCircle
 10
484.7958961445389
 20
409.3171276825430
 30
0.0000000000000000
 40
4.250000000000000
  0
CIRCLE
  5
3DA
100
AcDbEntity
  8
MAIN0
  6
CONTINUOUS
 62
3
100
AcDbCircle
 10
764.7958961445387
 20
409.3171276821039
 30
0.0000000000000000
 40
5.000000000000000
  0
CIRCLE
  5
3DB
100
AcDbEntity
  8
MAIN0
  6
CONTINUOUS
 62
3
100
AcDbCircle
 10
764.7958961445387
 20
409.3171276821039
 30
0.0000000000000000
 40
4.250000000000000
  0
LINE
  5
3DC
100
AcDbEntity
  8
MAIN0
  6
CENTER
 62
3
100
AcDbLine
 10
493.7958961445389
 20
409.3171276825430
 30
0.0000000000000000
 11
475.7958961445389
 21
409.3171276825430
 31
0.0000000000000000
  0
LINE
  5
3DD
100
AcDbEntity
  8
MAIN0
  6
CENTER
 62
3
100
AcDbLine
 10
484.7958961445389
 20
418.3171276825430
 30
0.0000000000000000
 11
484.7958961445389
 21
400.3171276825430
 31
0.0000000000000000
  0
LINE
  5
3DE
100
AcDbEntity
  8
MAIN0
  6
CENTER
 62
3
100
AcDbLine
 10
773.7958961445387
 20
409.3171276821039
 30
0.0000000000000000
 11
755.7958961445387
 21
409.3171276821039
 31
0.0000000000000000
  0
LINE
  5
3DF
100
AcDbEntity
  8
MAIN0
  6
CENTER
 62
3
100
AcDbLine
 10
764.7958961445387
 20
418.3171276821039
 30
0.0000000000000000
 11
764.7958961445387
 21
400.3171276821039
 31
0.0000000000000000
  0
LINE
  5
3E0
100
AcDbEntity
  8
MAIN0
  6
CENTER
 62
3
100
AcDbLine
 10
431.7958961434066
 20
506.8171276767660
 30
0.0000000000000000
 11
411.7958961434066
 21
506.8171276767660
 31
0.0000000000000000
  0
LINE
  5
3E1
100
AcDbEntity
  8
MAIN0
  6
CENTER
 62
3
100
AcDbLine
 10
431.7958961434066
 20
526.8171276767660
 30
0.0000000000000000
 11
411.7958961434066
 21
526.8171276767660
 31
0.0000000000000000
  0
LINE
  5
3E2
100
AcDbEntity
  8
MAIN0
  6
CENTER
 62
3
100
AcDbLine
 10
421.7958961434066
 20
496.8171276767660
 30
0.0000000000000000
 11
421.7958961434066
 21
536.8171276767660
 31
0.0000000000000000
  0
LINE
  5
3E3
100
AcDbEntity
  8
MAIN0
  6
CONTINUOUS
 62
3
100
AcDbLine
 10
369.7958961443630
 20
377.8171276793914
 30
0.0000000000000000
 11
719.7958964624299
 21
377.8171276792714
 31
0.0000000000000000
  0
LINE
  5
3E4
100
AcDbEntity
  8
MAIN0
  6
CONTINUOUS
 62
3
100
AcDbLine
 10
740.1292294778718
 20
377.8171276792644
 30
0.0000000000000000
 11
879.7958961443453
 21
377.8171276792165
 31
0.0000000000000000
  0
LINE
  5
3E5
100
AcDbEntity
  8
MAIN0
  6
CONTINUOUS
 62
3
100
AcDbLine
 10
924.7958961445625
 20
450.8171276795676
 30
0.0000000000000000
 11
882.7958961440240
 21
450.8171276797053
 31
0.0000000000000000
  0
LINE
  5
3E6
100
AcDbEntity
  8
MAIN0
  6
CONTINUOUS
 62
3
100
AcDbLine
 10
924.7958961445008
 20
413.0671276795107
 30
0.0000000000000000
 11
924.7958961445891
 21
466.8171276795579
 31
0.0000000000000000
  0
LINE
  5
3E7
100
AcDbEntity
  8
MAIN0
  6
CONTINUOUS
 62
3
100
AcDbLine
 10
924.7958961445406
 20
437.3171276795107
 30
0.0000000000000000
 11
879.7958961445169
 21
437.3171276796583
 31
0.0000000000000000
  0
LINE
  5
3E8
100
AcDbEntity
  8
MAIN0
  6
CONTINUOUS
 62
3
100
AcDbLine
 10
924.7958961445227
 20
440.8171276795676
 30
0.0000000000000000
 11
882.7958961440206
 21
440.8171276797053
 31
0.0000000000000000
  0
LINE
  5
3E9
100
AcDbEntity
  8
MAIN0
  6
CONTINUOUS
 62
3
100
AcDbLine
 10
902.7958961444904
 20
406.6775174996500
 30
0.0000000000000000
 11
879.7958961444904
 21
406.6775174997254
 31
0.0000000000000000
  0
LINE
  5
3EA
100
AcDbEntity
  8
MAIN0
  6
CONTINUOUS
 62
3
100
AcDbLine
 10
904.7958961444660
 20
391.8171276796414
 30
0.0000000000000000
 11
904.7958961445324
 21
432.3171276795680
 31
0.0000000000000000
  0
LINE
  5
3EB
100
AcDbEntity
  8
MAIN0
  6
CONTINUOUS
 62
3
100
AcDbLine
 10
902.7958961445240
 20
427.3171276795828
 30
0.0000000000000000
 11
879.7958961445240
 21
427.3171276796582
 31
0.0000000000000000
  0
ARC
  5
3EC
100
AcDbEntity
  8
MAIN0
  6
CONTINUOUS
 62
3
100
AcDbCircle
 10
909.7958961444620
 20
389.3171276796168
 30
0.0000000000000000
 40
5.000000000000000
100
AcDbArc
 50
89.99999999981210
 51
165.5224878138822
  0
ARC
  5
3ED
100
AcDbEntity
  8
MAIN0
  6
CONTINUOUS
 62
3
100
AcDbCircle
 10
899.7958961444660
 20
391.8171276796497
 30
0.0000000000000000
 40
5.000000000000000
100
AcDbArc
 50
269.9999999998121
 51
359.9999999998121
  0
ARC
  5
3EE
100
AcDbEntity
  8
MAIN0
  6
CONTINUOUS
 62
3
100
AcDbCircle
 10
900.1134377789515
 20
391.8171276796485
 30
0.0000000000000000
 40
5.000000000000000
100
AcDbArc
 50
269.9999999998121
 51
345.5224878138821
  0
LINE
  5
3EF
100
AcDbEntity
  8
MAIN0
  6
CONTINUOUS
 62
3
100
AcDbLine
 10
930.7958961444717
 20
394.3171276795479
 30
0.0000000000000000
 11
909.7958961444783
 21
394.3171276796168
 31
0.0000000000000000
  0
ARC
  5
3F0
100
AcDbEntity
  8
MAIN0
  6
CONTINUOUS
 62
3
100
AcDbCircle
 10
909.7958961445322
 20
432.3171276795598
 30
0.0000000000000000
 40
5.000000000000000
100
AcDbArc
 50
90.00000000000000
 51
180.0000000000000
  0
LINE
  5
3F1
100
AcDbEntity
  8
MAIN0
  6
CONTINUOUS
 62
3
100
AcDbLine
 10
670.7958961444772
 20
434.5171276796336
 30
0.0000000000000000
 11
719.7958964624299
 21
434.5171276796423
 31
0.0000000000000000
  0
LINE
  5
3F2
100
AcDbEntity
  8
MAIN0
  6
CONTINUOUS
 62
3
100
AcDbLine
 10
740.1292294778718
 20
434.5171276796459
 30
0.0000000000000000
 11
790.3958961445057
 21
434.5171276796548
 31
0.0000000000000000
  0
LINE
  5
3F3
100
AcDbEntity
  8
MAIN0
  6
CONTINUOUS
 62
3
100
AcDbLine
 10
1177.003184849533
 20
351.8171276789736
 30
0.0000000000000000
 11
1152.003184849533
 21
351.8171276789736
 31
0.0000000000000000
  0
LINE
  5
3F4
100
AcDbEntity
  8
MAIN0
  6
CONTINUOUS
 62
3
100
AcDbLine
 10
1177.003184849532
 20
351.8171276789732
 30
0.0000000000000000
 11
1177.003184849532
 21
356.8171276789732
 31
0.0000000000000000
  0
LINE
  5
3F5
100
AcDbEntity
  8
MAIN0
  6
CONTINUOUS
 62
3
100
AcDbLine
 10
1152.003184849533
 20
356.8171276789737
 30
0.0000000000000000
 11
1152.003184849533
 21
351.8171276789737
 31
0.0000000000000000
  0
LINE
  5
3F6
100
AcDbEntity
  8
MAIN0
  6
CONTINUOUS
 62
3
100
AcDbLine
 10
1328.003184849044
 20
351.8171276789100
 30
0.0000000000000000
 11
1353.003184849044
 21
351.8171276788890
 31
0.0000000000000000
  0
LINE
  5
3F7
100
AcDbEntity
  8
MAIN0
  6
CONTINUOUS
 62
3
100
AcDbLine
 10
1328.003184849044
 20
351.8171276789097
 30
0.0000000000000000
 11
1328.003184849048
 21
356.8171276789097
 31
0.0000000000000000
  0
LINE
  5
3F8
100
AcDbEntity
  8
MAIN0
  6
CONTINUOUS
 62
3
100
AcDbLine
 10
1353.003184849048
 20
356.8171276788888
 30
0.0000000000000000
 11
1353.003184849044
 21
351.8171276788888
 31
0.0000000000000000
  0
CIRCLE
  5
3F9
100
AcDbEntity
  8
MAIN0
  6
CONTINUOUS
 62
3
100
AcDbCircle
 10
1252.503184849564
 20
431.8171276797211
 30
0.0000000000000000
 40
25.00000000000000
  0
CIRCLE
  5
3FA
100
AcDbEntity
  8
MAIN0
  6
CONTINUOUS
 62
3
100
AcDbCircle
 10
1252.503184849564
 20
431.8171276797211
 30
0.0000000000000000
 40
21.00000000000000
  0
CIRCLE
  5
3FB
100
AcDbEntity
  8
MAIN0
  6
CONTINUOUS
 62
3
100
AcDbCircle
 10
1252.503184849564
 20
431.8171276797211
 30
0.0000000000000000
 40
12.00000000000000
  0
LINE
  5
3FC
100
AcDbEntity
  8
MAIN0
  6
CONTINUOUS
 62
3
100
AcDbLine
 10
1249.503184849080
 20
420.1981776410871
 30
0.0000000000000000
 11
1249.503184849080
 21
411.0325179888828
 31
0.0000000000000000
  0
LINE
  5
3FD
100
AcDbEntity
  8
MAIN0
  6
CONTINUOUS
 62
3
100
AcDbLine
 10
1255.503184849080
 20
420.1981776410871
 30
0.0000000000000000
 11
1255.503184849080
 21
411.0325179888827
 31
0.0000000000000000
  0
LINE
  5
3FE
100
AcDbEntity
  8
MAIN0
  6
CONTINUOUS
 62
3
100
AcDbLine
 10
1259.503184849565
 20
427.7756757953936
 30
0.0000000000000000
 11
1259.503184849565
 21
435.8585795640489
 31
0.0000000000000000
  0
LINE
  5
3FF
100
AcDbEntity
  8
MAIN0
  6
CONTINUOUS
 62
3
100
AcDbLine
 10
1245.503184849564
 20
427.7756757953929
 30
0.0000000000000000
 11
1245.503184849564
 21
435.8585795640478
 31
0.0000000000000000
  0
LINE
  5
400
100
AcDbEntity
  8
MAIN0
  6
CONTINUOUS
 62
3
100
AcDbLine
 10
1252.503184849564
 20
423.7342239110653
 30
0.0000000000000000
 11
1259.503184849564
 21
427.7756757953937
 31
0.0000000000000000
  0
LINE
  5
401
100
AcDbEntity
  8
MAIN0
  6
CONTINUOUS
 62
3
100
AcDbLine
 10
1245.503184849564
 20
435.8585795640477
 30
0.0000000000000000
 11
1252.503184849564
 21
439.9000314483757
 31
0.0000000000000000
  0
LINE
  5
402
100
AcDbEntity
  8
MAIN0
  6
CONTINUOUS
 62
3
100
AcDbLine
 10
1252.503184849564
 20
423.7342239110664
 30
0.0000000000000000
 11
1245.503184849565
 21
427.7756757953933
 31
0.0000000000000000
  0
LINE
  5
403
100
AcDbEntity
  8
MAIN0
  6
CONTINUOUS
 62
3
100
AcDbLine
 10
1259.503184849564
 20
435.8585795640487
 30
0.0000000000000000
 11
1252.503184849564
 21
439.9000314483756
 31
0.0000000000000000
  0
LINE
  5
404
100
AcDbEntity
  8
MAIN0
  6
CENTER
 62
3
100
AcDbLine
 10
1285.503184850294
 20
439.4833165500710
 30
0.0000000000000000
 11
1285.503184850291
 21
422.6540697051266
 31
0.0000000000000000
  0
LINE
  5
405
100
AcDbEntity
  8
MAIN0
  6
CENTER
 62
3
100
AcDbLine
 10
1219.503184850219
 20
439.4833165500805
 30
0.0000000000000000
 11
1219.503184850216
 21
422.6540697051365
 31
0.0000000000000000
  0
CIRCLE
  5
406
100
AcDbEntity
  8
MAIN0
  6
CONTINUOUS
 62
3
100
AcDbCircle
 10
1285.503184849564
 20
431.8171276797211
 30
0.0000000000000000
 40
4.250000000000000
  0
LINE
  5
407
100
AcDbEntity
  8
MAIN0
  6
CONTINUOUS
 62
3
100
AcDbLine
 10
1285.503184849564
 20
434.1265287564805
 30
0.0000000000000000
 11
1283.503184849564
 21
432.9718282181012
 31
0.0000000000000000
  0
LINE
  5
408
100
AcDbEntity
  8
MAIN0
  6
CONTINUOUS
 62
3
100
AcDbLine
 10
1283.503184849564
 20
432.9718282181001
 30
0.0000000000000000
 11
1283.503184849564
 21
430.6624271413420
 31
0.0000000000000000
  0
LINE
  5
409
100
AcDbEntity
  8
MAIN0
  6
CONTINUOUS
 62
3
100
AcDbLine
 10
1283.503184849564
 20
430.6624271413415
 30
0.0000000000000000
 11
1285.503184849564
 21
429.5077266029625
 31
0.0000000000000000
  0
LINE
  5
40A
100
AcDbEntity
  8
MAIN0
  6
CONTINUOUS
 62
3
100
AcDbLine
 10
1285.503184849564
 20
429.5077266029634
 30
0.0000000000000000
 11
1287.503184849564
 21
430.6624271413428
 31
0.0000000000000000
  0
LINE
  5
40B
100
AcDbEntity
  8
MAIN0
  6
CONTINUOUS
 62
3
100
AcDbLine
 10
1287.503184849564
 20
430.6624271413420
 30
0.0000000000000000
 11
1287.503184849564
 21
432.9718282181001
 31
0.0000000000000000
  0
LINE
  5
40C
100
AcDbEntity
  8
MAIN0
  6
CONTINUOUS
 62
3
100
AcDbLine
 10
1287.503184849564
 20
432.9718282181002
 30
0.0000000000000000
 11
1285.503184849564
 21
434.1265287564793
 31
0.0000000000000000
  0
CIRCLE
  5
40D
100
AcDbEntity
  8
MAIN0
  6
CONTINUOUS
 62
3
100
AcDbCircle
 10
1219.503184849564
 20
431.8171276797211
 30
0.0000000000000000
 40
4.250000000000000
  0
LINE
  5
40E
100
AcDbEntity
  8
MAIN0
  6
CONTINUOUS
 62
3
100
AcDbLine
 10
1219.503184849564
 20
434.1265287564800
 30
0.0000000000000000
 11
1217.503184849564
 21
432.9718282181007
 31
0.0000000000000000
  0
LINE
  5
40F
100
AcDbEntity
  8
MAIN0
  6
CONTINUOUS
 62
3
100
AcDbLine
 10
1217.503184849564
 20
432.9718282181001
 30
0.0000000000000000
 11
1217.503184849564
 21
430.6624271413420
 31
0.0000000000000000
  0
LINE
  5
410
100
AcDbEntity
  8
MAIN0
  6
CONTINUOUS
 62
3
100
AcDbLine
 10
1217.503184849564
 20
430.6624271413417
 30
0.0000000000000000
 11
1219.503184849564
 21
429.5077266029624
 31
0.0000000000000000
  0
LINE
  5
411
100
AcDbEntity
  8
MAIN0
  6
CONTINUOUS
 62
3
100
AcDbLine
 10
1219.503184849564
 20
429.5077266029630
 30
0.0000000000000000
 11
1221.503184849564
 21
430.6624271413423
 31
0.0000000000000000
  0
LINE
  5
412
100
AcDbEntity
  8
MAIN0
  6
CONTINUOUS
 62
3
100
AcDbLine
 10
1221.503184849564
 20
430.6624271413420
 30
0.0000000000000000
 11
1221.503184849564
 21
432.9718282181001
 31
0.0000000000000000
  0
LINE
  5
413
100
AcDbEntity
  8
MAIN0
  6
CONTINUOUS
 62
3
100
AcDbLine
 10
1221.503184849564
 20
432.9718282181001
 30
0.0000000000000000
 11
1219.503184849564
 21
434.1265287564794
 31
0.0000000000000000
  0
CIRCLE
  5
414
100
AcDbEntity
  8
MAIN0
  6
CONTINUOUS
 62
3
100
AcDbCircle
 10
1285.503184848430
 20
431.8171276796874
 30
0.0000000000000000
 40
4.750000000000000
  0
LINE
  5
415
100
AcDbEntity
  8
MAIN0
  6
CONTINUOUS
 62
3
100
AcDbLine
 10
1352.503184849304
 20
440.8171276792892
 30
0.0000000000000000
 11
1346.503184849323
 21
440.8171276792943
 31
0.0000000000000000
  0
LINE
  5
416
100
AcDbEntity
  8
MAIN0
  6
CONTINUOUS
 62
3
100
AcDbLine
 10
1352.503184849302
 20
440.8171276792889
 30
0.0000000000000000
 11
1353.503184849303
 21
441.8171276792884
 31
0.0000000000000000
  0
LINE
  5
417
100
AcDbEntity
  8
MAIN0
  6
CONTINUOUS
 62
3
100
AcDbLine
 10
1152.503184849309
 20
440.8171276793719
 30
0.0000000000000000
 11
1151.503184849309
 21
441.8171276793723
 31
0.0000000000000000
  0
LINE
  5
418
100
AcDbEntity
  8
MAIN0
  6
CONTINUOUS
 62
3
100
AcDbLine
 10
1152.503184849307
 20
440.8171276793730
 30
0.0000000000000000
 11
1158.503184849328
 21
440.8171276793730
 31
0.0000000000000000
  0
LINE
  5
419
100
AcDbEntity
  8
MAIN0
  6
CONTINUOUS
 62
3
100
AcDbLine
 10
1346.503184849297
 20
377.8171276790420
 30
0.0000000000000000
 11
1346.503184849323
 21
440.8171276792946
 31
0.0000000000000000
  0
LINE
  5
41A
100
AcDbEntity
  8
MAIN0
  6
CONTINUOUS
 62
3
100
AcDbLine
 10
1151.803184849337
 20
439.7171276797153
 30
0.0000000000000000
 11
1155.503184849337
 21
439.7171276797153
 31
0.0000000000000000
  0
LINE
  5
41B
100
AcDbEntity
  8
MAIN0
  6
CONTINUOUS
 62
3
100
AcDbLine
 10
1155.503184849337
 20
439.7171276797153
 30
0.0000000000000000
 11
1155.503184849337
 21
438.5171276797154
 31
0.0000000000000000
  0
ARC
  5
41C
100
AcDbEntity
  8
MAIN0
  6
CONTINUOUS
 62
3
100
AcDbCircle
 10
1151.003184849337
 20
439.5171276797154
 30
0.0000000000000000
 40
1.000000000000000
100
AcDbArc
 50
179.9999999999964
 51
269.9999999999942
  0
ARC
  5
41D
100
AcDbEntity
  8
MAIN0
  6
CONTINUOUS
 62
3
100
AcDbCircle
 10
1151.803184849337
 20
440.3171276797152
 30
0.0000000000000000
 40
0.6000000000000000
100
AcDbArc
 50
179.9999999999964
 51
270.0000000005678
  0
LINE
  5
41E
100
AcDbEntity
  8
MAIN0
  6
CONTINUOUS
 62
3
100
AcDbLine
 10
1151.003184849337
 20
438.5171276797154
 30
0.0000000000000000
 11
1155.503184849337
 21
438.5171276797154
 31
0.0000000000000000
  0
LINE
  5
41F
100
AcDbEntity
  8
MAIN0
  6
CONTINUOUS
 62
3
100
AcDbLine
 10
1155.503184849337
 20
435.7171276797212
 30
0.0000000000000000
 11
1148.803184949998
 21
435.7171276797212
 31
0.0000000000000000
  0
LINE
  5
420
100
AcDbEntity
  8
MAIN0
  6
CONTINUOUS
 62
3
100
AcDbLine
 10
1148.003184642920
 20
434.5171276797209
 30
0.0000000000000000
 11
1155.503184849337
 21
434.5171276797209
 31
0.0000000000000000
  0
ARC
  5
421
100
AcDbEntity
  8
MAIN0
  6
CONTINUOUS
 62
3
100
AcDbCircle
 10
1148.003184849337
 20
435.5171276797209
 30
0.0000000000000000
 40
1.000000000000000
100
AcDbArc
 50
179.9999999999964
 51
269.9999999999942
  0
ARC
  5
422
100
AcDbEntity
  8
MAIN0
  6
CONTINUOUS
 62
3
100
AcDbCircle
 10
1148.803184849337
 20
436.3171276797211
 30
0.0000000000000000
 40
0.6000000000000000
100
AcDbArc
 50
179.9999999999964
 51
269.9999999999947
  0
LINE
  5
423
100
AcDbEntity
  8
MAIN0
  6
CONTINUOUS
 62
3
100
AcDbLine
 10
1145.503184849337
 20
434.5171276797205
 30
0.0000000000000000
 11
1146.703184849337
 21
434.5171276797205
 31
0.0000000000000000
  0
LINE
  5
424
100
AcDbEntity
  8
MAIN0
  6
CONTINUOUS
 62
3
100
AcDbLine
 10
1155.503184849337
 20
435.7171276797212
 30
0.0000000000000000
 11
1155.503184849337
 21
434.5171276797209
 31
0.0000000000000000
  0
LINE
  5
425
100
AcDbEntity
  8
MAIN0
  6
CONTINUOUS
 62
3
100
AcDbLine
 10
1155.503184849337
 20
437.7171276797212
 30
0.0000000000000000
 11
1150.303184949998
 21
437.7171276797212
 31
0.0000000000000000
  0
LINE
  5
426
100
AcDbEntity
  8
MAIN0
  6
CONTINUOUS
 62
3
100
AcDbLine
 10
1149.503184642920
 20
436.5171276797209
 30
0.0000000000000000
 11
1155.503184849337
 21
436.5171276797209
 31
0.0000000000000000
  0
ARC
  5
427
100
AcDbEntity
  8
MAIN0
  6
CONTINUOUS
 62
3
100
AcDbCircle
 10
1150.303184849337
 20
438.3171276797211
 30
0.0000000000000000
 40
0.6000000000000000
100
AcDbArc
 50
179.9999999999964
 51
269.9999999999947
  0
ARC
  5
428
100
AcDbEntity
  8
MAIN0
  6
CONTINUOUS
 62
3
100
AcDbCircle
 10
1149.503184849337
 20
437.5171276797209
 30
0.0000000000000000
 40
1.000000000000000
100
AcDbArc
 50
179.9999999999964
 51
269.9999999999942
  0
LINE
  5
429
100
AcDbEntity
  8
MAIN0
  6
CONTINUOUS
 62
3
100
AcDbLine
 10
1155.503184849337
 20
437.7171276797212
 30
0.0000000000000000
 11
1155.503184849337
 21
436.5171276797209
 31
0.0000000000000000
  0
LINE
  5
42A
100
AcDbEntity
  8
MAIN0
  6
CONTINUOUS
 62
3
100
AcDbLine
 10
1353.203184849314
 20
439.7171276796306
 30
0.0000000000000000
 11
1349.503184849313
 21
439.7171276796337
 31
0.0000000000000000
  0
LINE
  5
42B
100
AcDbEntity
  8
MAIN0
  6
CONTINUOUS
 62
3
100
AcDbLine
 10
1349.503184849314
 20
439.7171276796337
 30
0.0000000000000000
 11
1349.503184849313
 21
438.5171276796339
 31
0.0000000000000000
  0
ARC
  5
42C
100
AcDbEntity
  8
MAIN0
  6
CONTINUOUS
 62
3
100
AcDbCircle
 10
1354.003184849314
 20
439.5171276796302
 30
0.0000000000000000
 40
1.000000000000000
100
AcDbArc
 50
269.9999999999578
 51
359.9999999999555
  0
ARC
  5
42D
100
AcDbEntity
  8
MAIN0
  6
CONTINUOUS
 62
3
100
AcDbCircle
 10
1353.203184849314
 20
440.3171276796306
 30
0.0000000000000000
 40
0.6000000000000000
100
AcDbArc
 50
269.9999999993840
 51
359.9999999999555
  0
LINE
  5
42E
100
AcDbEntity
  8
MAIN0
  6
CONTINUOUS
 62
3
100
AcDbLine
 10
1354.003184849313
 20
438.5171276796301
 30
0.0000000000000000
 11
1349.503184849313
 21
438.5171276796339
 31
0.0000000000000000
  0
LINE
  5
42F
100
AcDbEntity
  8
MAIN0
  6
CONTINUOUS
 62
3
100
AcDbLine
 10
1349.503184849310
 20
435.7171276796397
 30
0.0000000000000000
 11
1356.203184748649
 21
435.7171276796340
 31
0.0000000000000000
  0
LINE
  5
430
100
AcDbEntity
  8
MAIN0
  6
CONTINUOUS
 62
3
100
AcDbLine
 10
1357.003185055727
 20
434.5171276796331
 30
0.0000000000000000
 11
1349.503184849309
 21
434.5171276796394
 31
0.0000000000000000
  0
ARC
  5
431
100
AcDbEntity
  8
MAIN0
  6
CONTINUOUS
 62
3
100
AcDbCircle
 10
1357.003184849310
 20
435.5171276796331
 30
0.0000000000000000
 40
1.000000000000000
100
AcDbArc
 50
269.9999999999578
 51
359.9999999999555
  0
ARC
  5
432
100
AcDbEntity
  8
MAIN0
  6
CONTINUOUS
 62
3
100
AcDbCircle
 10
1356.203184849311
 20
436.3171276796340
 30
0.0000000000000000
 40
0.6000000000000000
100
AcDbArc
 50
269.9999999999571
 51
359.9999999999555
  0
LINE
  5
433
100
AcDbEntity
  8
MAIN0
  6
CONTINUOUS
 62
3
100
AcDbLine
 10
1359.503184849310
 20
434.5171276796308
 30
0.0000000000000000
 11
1358.303184849309
 21
434.5171276796318
 31
0.0000000000000000
  0
LINE
  5
434
100
AcDbEntity
  8
MAIN0
  6
CONTINUOUS
 62
3
100
AcDbLine
 10
1349.503184849311
 20
435.7171276796397
 30
0.0000000000000000
 11
1349.503184849310
 21
434.5171276796394
 31
0.0000000000000000
  0
LINE
  5
435
100
AcDbEntity
  8
MAIN0
  6
CONTINUOUS
 62
3
100
AcDbLine
 10
1349.503184849312
 20
437.7171276796397
 30
0.0000000000000000
 11
1354.703184748651
 21
437.7171276796353
 31
0.0000000000000000
  0
LINE
  5
436
100
AcDbEntity
  8
MAIN0
  6
CONTINUOUS
 62
3
100
AcDbLine
 10
1355.503185055728
 20
436.5171276796343
 30
0.0000000000000000
 11
1349.503184849311
 21
436.5171276796394
 31
0.0000000000000000
  0
ARC
  5
437
100
AcDbEntity
  8
MAIN0
  6
CONTINUOUS
 62
3
100
AcDbCircle
 10
1354.703184849313
 20
438.3171276796351
 30
0.0000000000000000
 40
0.6000000000000000
100
AcDbArc
 50
269.9999999999571
 51
359.9999999999555
  0
ARC
  5
438
100
AcDbEntity
  8
MAIN0
  6
CONTINUOUS
 62
3
100
AcDbCircle
 10
1355.503184849312
 20
437.5171276796343
 30
0.0000000000000000
 40
1.000000000000000
100
AcDbArc
 50
269.9999999999578
 51
359.9999999999555
  0
LINE
  5
439
100
AcDbEntity
  8
MAIN0
  6
CONTINUOUS
 62
3
100
AcDbLine
 10
1349.503184849312
 20
437.7171276796397
 30
0.0000000000000000
 11
1349.503184849311
 21
436.5171276796394
 31
0.0000000000000000
  0
LINE
  5
43A
100
AcDbEntity
  8
MAIN0
  6
CONTINUOUS
 62
3
100
AcDbLine
 10
1167.503184849322
 20
466.8171276797150
 30
0.0000000000000000
 11
1151.503184849325
 21
450.8171276798464
 31
0.0000000000000000
  0
LINE
  5
43B
100
AcDbEntity
  8
MAIN0
  6
CONTINUOUS
 62
3
100
AcDbLine
 10
1165.203184849333
 20
466.8171276797156
 30
0.0000000000000000
 11
1151.203184849337
 21
452.8171276797101
 31
0.0000000000000000
  0
LINE
  5
43C
100
AcDbEntity
  8
MAIN0
  6
CONTINUOUS
 62
3
100
AcDbLine
 10
1337.503184849352
 20
466.8171276796435
 30
0.0000000000000000
 11
1353.503184849335
 21
450.8171276797615
 31
0.0000000000000000
  0
LINE
  5
43D
100
AcDbEntity
  8
MAIN0
  6
CONTINUOUS
 62
3
100
AcDbLine
 10
1339.803184849342
 20
466.8171276796431
 30
0.0000000000000000
 11
1353.803184849337
 21
452.8171276796148
 31
0.0000000000000000
  0
LINE
  5
43E
100
AcDbEntity
  8
MAIN0
  6
CONTINUOUS
 62
3
100
AcDbLine
 10
1193.902132525901
 20
438.3171276797206
 30
0.0000000000000000
 11
1158.503184849328
 21
438.3171276797208
 31
0.0000000000000000
  0
ARC
  5
43F
100
AcDbEntity
  8
MAIN0
  6
CONTINUOUS
 62
3
100
AcDbCircle
 10
1165.503184849322
 20
428.3171276797211
 30
0.0000000000000000
 40
10.00000000000000
100
AcDbArc
 50
359.9999999999998
 51
449.9999999999998
  0
ARC
  5
440
100
AcDbEntity
  8
MAIN0
  6
CONTINUOUS
 62
3
100
AcDbCircle
 10
1252.503184849322
 20
431.8171276797152
 30
0.0000000000000000
 40
81.00000000000000
100
AcDbArc
 50
199.3240781601049
 51
209.5351717610631
  0
ARC
  5
441
100
AcDbEntity
  8
MAIN0
  6
CONTINUOUS
 62
3
100
AcDbCircle
 10
1185.503184849322
 20
408.3224474307733
 30
0.0000000000000000
 40
10.00000000000000
100
AcDbArc
 50
180.0000000000000
 51
199.3240781601049
  0
ARC
  5
442
100
AcDbEntity
  8
MAIN0
  6
CONTINUOUS
 62
3
100
AcDbCircle
 10
1190.729404003400
 20
396.8171276797152
 30
0.0000000000000000
 40
10.00000000000000
100
AcDbArc
 50
209.5351717610631
 51
270.0000000000000
  0
ARC
  5
443
100
AcDbEntity
  8
MAIN0
  6
CONTINUOUS
 62
3
100
AcDbCircle
 10
1252.503184849322
 20
431.8171276797152
 30
0.0000000000000000
 40
37.49999999999955
100
AcDbArc
 50
238.5760935141553
 51
301.4239064858446
  0
ARC
  5
444
100
AcDbEntity
  8
MAIN0
  6
CONTINUOUS
 62
3
100
AcDbCircle
 10
1339.503184849322
 20
428.3171276797211
 30
0.0000000000000000
 40
10.00000000000000
100
AcDbArc
 50
90.00000000000020
 51
180.0000000000002
  0
ARC
  5
445
100
AcDbEntity
  8
MAIN0
  6
CONTINUOUS
 62
3
100
AcDbCircle
 10
1252.503184849322
 20
431.8171276797152
 30
0.0000000000000000
 40
81.00000000000000
100
AcDbArc
 50
330.4648282389370
 51
340.6759218398951
  0
ARC
  5
446
100
AcDbEntity
  8
MAIN0
  6
CONTINUOUS
 62
3
100
AcDbCircle
 10
1319.503184849322
 20
408.3224474307733
 30
0.0000000000000000
 40
10.00000000000000
100
AcDbArc
 50
340.6759218398951
 51
360.0000000000000
  0
ARC
  5
447
100
AcDbEntity
  8
MAIN0
  6
CONTINUOUS
 62
3
100
AcDbCircle
 10
1314.276965695244
 20
396.8171276797152
 30
0.0000000000000000
 40
10.00000000000000
100
AcDbArc
 50
270.0000000000000
 51
330.4648282389370
  0
LINE
  5
448
100
AcDbEntity
  8
MAIN0
  6
CONTINUOUS
 62
3
100
AcDbLine
 10
1311.104237172749
 20
438.3171276796717
 30
0.0000000000000000
 11
1346.503184849322
 21
438.3171276796421
 31
0.0000000000000000
  0
LINE
  5
449
100
AcDbEntity
  8
MAIN0
  6
CONTINUOUS
 62
3
100
AcDbLine
 10
1230.209688039714
 20
399.8171276797152
 30
0.0000000000000000
 11
1274.796681658930
 21
399.8171276797152
 31
0.0000000000000000
  0
ARC
  5
44A
100
AcDbEntity
  8
MAIN0
  6
CONTINUOUS
 62
3
100
AcDbCircle
 10
1252.503184849322
 20
431.8171276797152
 30
0.0000000000000000
 40
39.00000000000000
100
AcDbArc
 50
116.1769521716469
 51
235.1361620456966
  0
ARC
  5
44B
100
AcDbEntity
  8
MAIN0
  6
CONTINUOUS
 62
3
100
AcDbCircle
 10
1252.503184849322
 20
431.8171276797152
 30
0.0000000000000000
 40
39.00000000000000
100
AcDbArc
 50
304.8638379543035
 51
423.8230478283530
  0
LINE
  5
44C
100
AcDbEntity
  8
MAIN0
  6
CONTINUOUS
 62
3
100
AcDbLine
 10
1152.503184849292
 20
377.8171276791210
 30
0.0000000000000000
 11
1158.503184849292
 21
377.8171276791211
 31
0.0000000000000000
  0
LINE
  5
44D
100
AcDbEntity
  8
MAIN0
  6
CONTINUOUS
 62
3
100
AcDbLine
 10
1152.503184849292
 20
377.8171276791209
 30
0.0000000000000000
 11
1151.503184849292
 21
376.8171276791210
 31
0.0000000000000000
  0
LINE
  5
44E
100
AcDbEntity
  8
MAIN0
  6
CONTINUOUS
 62
3
100
AcDbLine
 10
1353.503184849292
 20
376.8171276790362
 30
0.0000000000000000
 11
1353.503184849283
 21
357.2171276789304
 31
0.0000000000000000
  0
LINE
  5
44F
100
AcDbEntity
  8
MAIN0
  6
CONTINUOUS
 62
3
100
AcDbLine
 10
1352.003184849340
 20
466.8171276796119
 30
0.0000000000000000
 11
1302.103184849334
 21
466.8171276796639
 31
0.0000000000000000
  0
LINE
  5
450
100
AcDbEntity
  8
MAIN0
  6
CONTINUOUS
 62
3
100
AcDbLine
 10
1353.503184849284
 20
357.2171276789303
 30
0.0000000000000000
 11
1353.103184849283
 21
356.8171276789306
 31
0.0000000000000000
  0
LINE
  5
451
100
AcDbEntity
  8
MAIN0
  6
CONTINUOUS
 62
3
100
AcDbLine
 10
1151.503184849283
 20
357.2171276790155
 30
0.0000000000000000
 11
1151.903184849283
 21
356.8171276790155
 31
0.0000000000000000
  0
LINE
  5
452
100
AcDbEntity
  8
MAIN0
  6
CONTINUOUS
 62
3
100
AcDbLine
 10
1352.503184849307
 20
377.8171276790376
 30
0.0000000000000000
 11
1346.503184849307
 21
377.8171276790428
 31
0.0000000000000000
  0
LINE
  5
453
100
AcDbEntity
  8
MAIN0
  6
CONTINUOUS
 62
3
100
AcDbLine
 10
1352.503184849307
 20
377.8171276790374
 30
0.0000000000000000
 11
1353.503184849307
 21
376.8171276790362
 31
0.0000000000000000
  0
LINE
  5
454
100
AcDbEntity
  8
MAIN0
  6
CONTINUOUS
 62
3
100
AcDbLine
 10
1243.503184849403
 20
356.8171276789771
 30
0.0000000000000000
 11
1243.503184849403
 21
361.8171276787707
 31
0.0000000000000000
  0
LINE
  5
455
100
AcDbEntity
  8
MAIN0
  6
CONTINUOUS
 62
3
100
AcDbLine
 10
1261.503184849403
 20
361.8171276787705
 30
0.0000000000000000
 11
1243.503184849403
 21
361.8171276787704
 31
0.0000000000000000
  0
LINE
  5
456
100
AcDbEntity
  8
MAIN0
  6
CONTINUOUS
 62
3
100
AcDbLine
 10
1261.503184849403
 20
356.8171276789698
 30
0.0000000000000000
 11
1261.503184849403
 21
361.8171276787707
 31
0.0000000000000000
  0
LINE
  5
457
100
AcDbEntity
  8
MAIN0
  6
CENTER
 62
3
100
AcDbLine
 10
1303.003184849080
 20
408.8171276797092
 30
0.0000000000000000
 11
1326.003184849080
 21
408.8171276797092
 31
0.0000000000000000
  0
LINE
  5
458
100
AcDbEntity
  8
MAIN0
  6
CONTINUOUS
 62
3
100
AcDbLine
 10
1158.503184849302
 20
377.8171276791210
 30
0.0000000000000000
 11
1158.503184849328
 21
440.8171276793731
 31
0.0000000000000000
  0
LINE
  5
459
100
AcDbEntity
  8
MAIN0
  6
CONTINUOUS
 62
3
100
AcDbLine
 10
1151.903184849283
 20
356.8171276790160
 30
0.0000000000000000
 11
1243.503184849403
 21
356.8171276789775
 31
0.0000000000000000
  0
LINE
  5
45A
100
AcDbEntity
  8
MAIN0
  6
CONTINUOUS
 62
3
100
AcDbLine
 10
1261.503184849403
 20
356.8171276789699
 30
0.0000000000000000
 11
1353.103184849283
 21
356.8171276789315
 31
0.0000000000000000
  0
LINE
  5
45B
100
AcDbEntity
  8
MAIN0
  6
CONTINUOUS
 62
3
100
AcDbLine
 10
1158.503184849328
 20
466.8171276797211
 30
0.0000000000000000
 11
1346.503184849316
 21
466.8171276797211
 31
0.0000000000000000
  0
LINE
  5
45C
100
AcDbEntity
  8
MAIN0
  6
CONTINUOUS
 62
3
100
AcDbLine
 10
1329.503184849322
 20
428.3171276797211
 30
0.0000000000000000
 11
1329.503184849322
 21
408.3224474307733
 31
0.0000000000000000
  0
LINE
  5
45D
100
AcDbEntity
  8
MAIN0
  6
CONTINUOUS
 62
3
100
AcDbLine
 10
1175.503184849323
 20
428.3171276797210
 30
0.0000000000000000
 11
1175.503184849323
 21
408.3224474307733
 31
0.0000000000000000
  0
LINE
  5
45E
100
AcDbEntity
  8
MAIN0
  6
CONTINUOUS
 62
3
100
AcDbLine
 10
1314.276965695244
 20
386.8171276797146
 30
0.0000000000000000
 11
1190.729404003400
 21
386.8171276797149
 31
0.0000000000000000
  0
CIRCLE
  5
45F
100
AcDbEntity
  8
MAIN0
  6
CONTINUOUS
 62
3
100
AcDbCircle
 10
1190.503184849564
 20
408.8171276797092
 30
0.0000000000000000
 40
9.500000000000000
  0
CIRCLE
  5
460
100
AcDbEntity
  8
MAIN0
  6
CONTINUOUS
 62
3
100
AcDbCircle
 10
1314.503184849080
 20
408.8171276797092
 30
0.0000000000000000
 40
9.500000000000000
  0
CIRCLE
  5
461
100
AcDbEntity
  8
MAIN0
  6
CONTINUOUS
 62
3
100
AcDbCircle
 10
1190.503184849564
 20
454.8171276797211
 30
0.0000000000000000
 40
9.500000000000000
  0
CIRCLE
  5
462
100
AcDbEntity
  8
MAIN0
  6
CONTINUOUS
 62
3
100
AcDbCircle
 10
1314.503184849564
 20
454.8171276797211
 30
0.0000000000000000
 40
9.500000000000000
  0
LINE
  5
463
100
AcDbEntity
  8
MAIN0
  6
CENTER
 62
3
100
AcDbLine
 10
1190.503184849564
 20
466.3171276797211
 30
0.0000000000000000
 11
1190.503184849564
 21
443.3171276797211
 31
0.0000000000000000
  0
LINE
  5
464
100
AcDbEntity
  8
MAIN0
  6
CENTER
 62
3
100
AcDbLine
 10
1201.457673789415
 20
431.8171276797152
 30
0.0000000000000000
 11
1302.486386397423
 21
431.8171276797152
 31
0.0000000000000000
  0
LINE
  5
465
100
AcDbEntity
  8
MAIN0
  6
CENTER
 62
3
100
AcDbLine
 10
1252.503184849286
 20
346.5699174789403
 30
0.0000000000000000
 11
1252.503184849369
 21
543.3824539743877
 31
0.0000000000000000
  0
LINE
  5
466
100
AcDbEntity
  8
MAIN0
  6
CENTER
 62
3
100
AcDbLine
 10
1179.003184849564
 20
408.8171276797092
 30
0.0000000000000000
 11
1202.003184849564
 21
408.8171276797092
 31
0.0000000000000000
  0
LINE
  5
467
100
AcDbEntity
  8
MAIN0
  6
CENTER
 62
3
100
AcDbLine
 10
1190.503184849564
 20
397.3171276797092
 30
0.0000000000000000
 11
1190.503184849564
 21
420.3171276797092
 31
0.0000000000000000
  0
LINE
  5
468
100
AcDbEntity
  8
MAIN0
  6
CENTER
 62
3
100
AcDbLine
 10
1179.003184849564
 20
454.8171276797211
 30
0.0000000000000000
 11
1202.003184849564
 21
454.8171276797211
 31
0.0000000000000000
  0
LINE
  5
469
100
AcDbEntity
  8
MAIN0
  6
CENTER
 62
3
100
AcDbLine
 10
1314.503184849564
 20
443.3171276797211
 30
0.0000000000000000
 11
1314.503184849564
 21
466.3171276797211
 31
0.0000000000000000
  0
LINE
  5
46A
100
AcDbEntity
  8
MAIN0
  6
CENTER
 62
3
100
AcDbLine
 10
1303.003184849564
 20
454.8171276797211
 30
0.0000000000000000
 11
1326.003184849564
 21
454.8171276797211
 31
0.0000000000000000
  0
LINE
  5
46B
100
AcDbEntity
  8
MAIN0
  6
CENTER
 62
3
100
AcDbLine
 10
1314.503184849080
 20
397.3171276797092
 30
0.0000000000000000
 11
1314.503184849080
 21
420.3171276797092
 31
0.0000000000000000
  0
LINE
  5
46C
100
AcDbEntity
  8
MAIN0
  6
CONTINUOUS
 62
3
100
AcDbLine
 10
1151.503184849329
 20
441.8171276793524
 30
0.0000000000000000
 11
1151.503184849334
 21
453.1171276797070
 31
0.0000000000000000
  0
LINE
  5
46D
100
AcDbEntity
  8
MAIN0
  6
CONTINUOUS
 62
3
100
AcDbLine
 10
1353.503184849328
 20
441.8171276793120
 30
0.0000000000000000
 11
1353.503184849333
 21
453.1171276796201
 31
0.0000000000000000
  0
CIRCLE
  5
46E
100
AcDbEntity
  8
MAIN0
  6
CONTINUOUS
 62
3
100
AcDbCircle
 10
1190.503184849564
 20
454.8171276797211
 30
0.0000000000000000
 40
9.000000000000000
  0
LINE
  5
46F
100
AcDbEntity
  8
MAIN0
  6
CONTINUOUS
 62
3
100
AcDbLine
 10
1190.503184849564
 20
460.5906303716176
 30
0.0000000000000000
 11
1185.503184849564
 21
457.7038790256694
 31
0.0000000000000000
  0
LINE
  5
470
100
AcDbEntity
  8
MAIN0
  6
CONTINUOUS
 62
3
100
AcDbLine
 10
1185.503184849564
 20
457.7038790256692
 30
0.0000000000000000
 11
1185.503184849564
 21
451.9303763337729
 31
0.0000000000000000
  0
LINE
  5
471
100
AcDbEntity
  8
MAIN0
  6
CONTINUOUS
 62
3
100
AcDbLine
 10
1185.503184849564
 20
451.9303763337725
 30
0.0000000000000000
 11
1190.503184849564
 21
449.0436249878244
 31
0.0000000000000000
  0
LINE
  5
472
100
AcDbEntity
  8
MAIN0
  6
CONTINUOUS
 62
3
100
AcDbLine
 10
1190.503184849564
 20
449.0436249878251
 30
0.0000000000000000
 11
1195.503184849564
 21
451.9303763337731
 31
0.0000000000000000
  0
LINE
  5
473
100
AcDbEntity
  8
MAIN0
  6
CONTINUOUS
 62
3
100
AcDbLine
 10
1195.503184849564
 20
451.9303763337729
 30
0.0000000000000000
 11
1195.503184849564
 21
457.7038790256692
 31
0.0000000000000000
  0
LINE
  5
474
100
AcDbEntity
  8
MAIN0
  6
CONTINUOUS
 62
3
100
AcDbLine
 10
1195.503184849564
 20
457.7038790256688
 30
0.0000000000000000
 11
1190.503184849564
 21
460.5906303716169
 31
0.0000000000000000
  0
CIRCLE
  5
475
100
AcDbEntity
  8
MAIN0
  6
CONTINUOUS
 62
3
100
AcDbCircle
 10
1190.503184849564
 20
408.8171276797092
 30
0.0000000000000000
 40
9.000000000000000
  0
LINE
  5
476
100
AcDbEntity
  8
MAIN0
  6
CONTINUOUS
 62
3
100
AcDbLine
 10
1190.503184849564
 20
414.5906303716058
 30
0.0000000000000000
 11
1185.503184849564
 21
411.7038790256576
 31
0.0000000000000000
  0
LINE
  5
477
100
AcDbEntity
  8
MAIN0
  6
CONTINUOUS
 62
3
100
AcDbLine
 10
1185.503184849564
 20
411.7038790256574
 30
0.0000000000000000
 11
1185.503184849564
 21
405.9303763337611
 31
0.0000000000000000
  0
LINE
  5
478
100
AcDbEntity
  8
MAIN0
  6
CONTINUOUS
 62
3
100
AcDbLine
 10
1185.503184849564
 20
405.9303763337607
 30
0.0000000000000000
 11
1190.503184849564
 21
403.0436249878125
 31
0.0000000000000000
  0
LINE
  5
479
100
AcDbEntity
  8
MAIN0
  6
CONTINUOUS
 62
3
100
AcDbLine
 10
1190.503184849564
 20
403.0436249878131
 30
0.0000000000000000
 11
1195.503184849564
 21
405.9303763337613
 31
0.0000000000000000
  0
LINE
  5
47A
100
AcDbEntity
  8
MAIN0
  6
CONTINUOUS
 62
3
100
AcDbLine
 10
1195.503184849564
 20
405.9303763337611
 30
0.0000000000000000
 11
1195.503184849564
 21
411.7038790256574
 31
0.0000000000000000
  0
LINE
  5
47B
100
AcDbEntity
  8
MAIN0
  6
CONTINUOUS
 62
3
100
AcDbLine
 10
1195.503184849564
 20
411.7038790256569
 30
0.0000000000000000
 11
1190.503184849564
 21
414.5906303716050
 31
0.0000000000000000
  0
CIRCLE
  5
47C
100
AcDbEntity
  8
MAIN0
  6
CONTINUOUS
 62
3
100
AcDbCircle
 10
1314.503184849061
 20
408.8171276796572
 30
0.0000000000000000
 40
9.000000000000000
  0
LINE
  5
47D
100
AcDbEntity
  8
MAIN0
  6
CONTINUOUS
 62
3
100
AcDbLine
 10
1314.503184849061
 20
414.5906303715539
 30
0.0000000000000000
 11
1309.503184849061
 21
411.7038790256058
 31
0.0000000000000000
  0
LINE
  5
47E
100
AcDbEntity
  8
MAIN0
  6
CONTINUOUS
 62
3
100
AcDbLine
 10
1309.503184849061
 20
411.7038790256053
 30
0.0000000000000000
 11
1309.503184849061
 21
405.9303763337090
 31
0.0000000000000000
  0
LINE
  5
47F
100
AcDbEntity
  8
MAIN0
  6
CONTINUOUS
 62
3
100
AcDbLine
 10
1309.503184849061
 20
405.9303763337085
 30
0.0000000000000000
 11
1314.503184849061
 21
403.0436249877603
 31
0.0000000000000000
  0
LINE
  5
480
100
AcDbEntity
  8
MAIN0
  6
CONTINUOUS
 62
3
100
AcDbLine
 10
1314.503184849061
 20
403.0436249877614
 30
0.0000000000000000
 11
1319.503184849061
 21
405.9303763337096
 31
0.0000000000000000
  0
LINE
  5
481
100
AcDbEntity
  8
MAIN0
  6
CONTINUOUS
 62
3
100
AcDbLine
 10
1319.503184849061
 20
405.9303763337090
 30
0.0000000000000000
 11
1319.503184849061
 21
411.7038790256053
 31
0.0000000000000000
  0
LINE
  5
482
100
AcDbEntity
  8
MAIN0
  6
CONTINUOUS
 62
3
100
AcDbLine
 10
1319.503184849061
 20
411.7038790256051
 30
0.0000000000000000
 11
1314.503184849061
 21
414.5906303715532
 31
0.0000000000000000
  0
CIRCLE
  5
483
100
AcDbEntity
  8
MAIN0
  6
CONTINUOUS
 62
3
100
AcDbCircle
 10
1314.503184849099
 20
454.8171276796690
 30
0.0000000000000000
 40
9.000000000000000
  0
LINE
  5
484
100
AcDbEntity
  8
MAIN0
  6
CONTINUOUS
 62
3
100
AcDbLine
 10
1314.503184849099
 20
460.5906303715653
 30
0.0000000000000000
 11
1309.503184849099
 21
457.7038790256174
 31
0.0000000000000000
  0
LINE
  5
485
100
AcDbEntity
  8
MAIN0
  6
CONTINUOUS
 62
3
100
AcDbLine
 10
1309.503184849099
 20
457.7038790256171
 30
0.0000000000000000
 11
1309.503184849099
 21
451.9303763337209
 31
0.0000000000000000
  0
LINE
  5
486
100
AcDbEntity
  8
MAIN0
  6
CONTINUOUS
 62
3
100
AcDbLine
 10
1309.503184849099
 20
451.9303763337202
 30
0.0000000000000000
 11
1314.503184849099
 21
449.0436249877721
 31
0.0000000000000000
  0
LINE
  5
487
100
AcDbEntity
  8
MAIN0
  6
CONTINUOUS
 62
3
100
AcDbLine
 10
1314.503184849099
 20
449.0436249877729
 30
0.0000000000000000
 11
1319.503184849099
 21
451.9303763337210
 31
0.0000000000000000
  0
LINE
  5
488
100
AcDbEntity
  8
MAIN0
  6
CONTINUOUS
 62
3
100
AcDbLine
 10
1319.503184849099
 20
451.9303763337209
 30
0.0000000000000000
 11
1319.503184849099
 21
457.7038790256171
 31
0.0000000000000000
  0
LINE
  5
489
100
AcDbEntity
  8
MAIN0
  6
CONTINUOUS
 62
3
100
AcDbLine
 10
1319.503184849099
 20
457.7038790256165
 30
0.0000000000000000
 11
1314.503184849099
 21
460.5906303715647
 31
0.0000000000000000
  0
CIRCLE
  5
48A
100
AcDbEntity
  8
MAIN0
  6
CONTINUOUS
 62
3
100
AcDbCircle
 10
1219.503184850218
 20
431.8171276797152
 30
0.0000000000000000
 40
4.750000000000000
  0
LINE
  5
48B
100
AcDbEntity
  8
MAIN0
  6
CONTINUOUS
 62
3
100
AcDbLine
 10
1152.503184849579
 20
536.8171276797211
 30
0.0000000000000000
 11
1352.503184849579
 21
536.8171276797211
 31
0.0000000000000000
  0
LINE
  5
48C
100
AcDbEntity
  8
MAIN0
  6
CONTINUOUS
 62
3
100
AcDbLine
 10
1355.003184849337
 20
467.0171276797154
 30
0.0000000000000000
 11
1355.003184849337
 21
439.5171276796302
 31
0.0000000000000000
  0
LINE
  5
48D
100
AcDbEntity
  8
MAIN0
  6
CONTINUOUS
 62
3
100
AcDbLine
 10
1150.003184849337
 20
467.0171276797154
 30
0.0000000000000000
 11
1150.003184849337
 21
439.5171276797154
 31
0.0000000000000000
  0
LINE
  5
48E
100
AcDbEntity
  8
MAIN0
  6
CONTINUOUS
 62
3
100
AcDbLine
 10
1151.203184849337
 20
466.8171276797152
 30
0.0000000000000000
 11
1151.203184849337
 21
440.3171276797152
 31
0.0000000000000000
  0
ARC
  5
48F
100
AcDbEntity
  8
MAIN0
  6
CONTINUOUS
 62
3
100
AcDbCircle
 10
1354.003184849337
 20
467.0171276797154
 30
0.0000000000000000
 40
1.000000000000000
100
AcDbArc
 50
0.0000000000000000
 51
89.99999999942553
  0
ARC
  5
490
100
AcDbEntity
  8
MAIN0
  6
CONTINUOUS
 62
3
100
AcDbCircle
 10
1151.003184849337
 20
467.0171276797154
 30
0.0000000000000000
 40
1.000000000000000
100
AcDbArc
 50
89.99999999999919
 51
179.9999999999964
  0
LINE
  5
491
100
AcDbEntity
  8
MAIN0
  6
CONTINUOUS
 62
3
100
AcDbLine
 10
1352.503184849579
 20
492.0171276797209
 30
0.0000000000000000
 11
1352.503184849579
 21
536.8171276797211
 31
0.0000000000000000
  0
LINE
  5
492
100
AcDbEntity
  8
MAIN0
  6
CONTINUOUS
 62
3
100
AcDbLine
 10
1152.503184849579
 20
492.0171276797209
 30
0.0000000000000000
 11
1152.503184849579
 21
536.8171276797211
 31
0.0000000000000000
  0
LINE
  5
493
100
AcDbEntity
  8
MAIN0
  6
CONTINUOUS
 62
3
100
AcDbLine
 10
1148.203184849337
 20
476.0171276797209
 30
0.0000000000000000
 11
1356.803184849337
 21
476.0171276797209
 31
0.0000000000000000
  0
LINE
  5
494
100
AcDbEntity
  8
MAIN0
  6
CONTINUOUS
 62
3
100
AcDbLine
 10
1146.503184849337
 20
492.0171276797209
 30
0.0000000000000000
 11
1358.503184849337
 21
492.0171276797209
 31
0.0000000000000000
  0
LINE
  5
495
100
AcDbEntity
  8
MAIN0
  6
CONTINUOUS
 62
3
100
AcDbLine
 10
1358.303184849337
 20
484.0171276797209
 30
0.0000000000000000
 11
1358.303184849337
 21
434.5171276796318
 31
0.0000000000000000
  0
LINE
  5
496
100
AcDbEntity
  8
MAIN0
  6
CONTINUOUS
 62
3
100
AcDbLine
 10
1359.503184849337
 20
491.0171276797209
 30
0.0000000000000000
 11
1359.503184849337
 21
434.5171276796309
 31
0.0000000000000000
  0
ARC
  5
497
100
AcDbEntity
  8
MAIN0
  6
CONTINUOUS
 62
3
100
AcDbCircle
 10
1358.503184849337
 20
491.0171276797209
 30
0.0000000000000000
 40
1.000000000000000
100
AcDbArc
 50
0.0000000000000000
 51
90.00000000000000
  0
LINE
  5
498
100
AcDbEntity
  8
MAIN0
  6
CONTINUOUS
 62
3
100
AcDbLine
 10
1146.703184849337
 20
484.0171276797209
 30
0.0000000000000000
 11
1146.703184849337
 21
434.5171276797207
 31
0.0000000000000000
  0
LINE
  5
499
100
AcDbEntity
  8
MAIN0
  6
CONTINUOUS
 62
3
100
AcDbLine
 10
1145.503184849337
 20
491.0171276797209
 30
0.0000000000000000
 11
1145.503184849337
 21
434.5171276797207
 31
0.0000000000000000
  0
ARC
  5
49A
100
AcDbEntity
  8
MAIN0
  6
CONTINUOUS
 62
3
100
AcDbCircle
 10
1146.503184849337
 20
491.0171276797209
 30
0.0000000000000000
 40
1.000000000000000
100
AcDbArc
 50
90.00000000000000
 51
180.0000000000000
  0
LINE
  5
49B
100
AcDbEntity
  8
MAIN0
  6
CONTINUOUS
 62
3
100
AcDbLine
 10
1148.503184849337
 20
437.5171276797209
 30
0.0000000000000000
 11
1148.503184849337
 21
476.0171276797209
 31
0.0000000000000000
  0
LINE
  5
49C
100
AcDbEntity
  8
MAIN0
  6
CONTINUOUS
 62
3
100
AcDbLine
 10
1149.703184849337
 20
438.3171276797211
 30
0.0000000000000000
 11
1149.703184849337
 21
468.0171276797209
 31
0.0000000000000000
  0
LINE
  5
49D
100
AcDbEntity
  8
MAIN0
  6
CONTINUOUS
 62
3
100
AcDbLine
 10
1356.503184849337
 20
437.5171276796343
 30
0.0000000000000000
 11
1356.503184849337
 21
476.0171276797209
 31
0.0000000000000000
  0
LINE
  5
49E
100
AcDbEntity
  8
MAIN0
  6
CONTINUOUS
 62
3
100
AcDbLine
 10
1355.303184849337
 20
438.3171276796351
 30
0.0000000000000000
 11
1355.303184849337
 21
468.0171276797209
 31
0.0000000000000000
  0
LINE
  5
49F
100
AcDbEntity
  8
MAIN0
  6
CONTINUOUS
 62
3
100
AcDbLine
 10
1146.703184849337
 20
484.0171276797209
 30
0.0000000000000000
 11
1358.303184849337
 21
484.0171276797209
 31
0.0000000000000000
  0
LINE
  5
4A0
100
AcDbEntity
  8
MAIN0
  6
CONTINUOUS
 62
3
100
AcDbLine
 10
1358.003184849337
 20
484.0171276797209
 30
0.0000000000000000
 11
1358.003184849337
 21
435.5171276796331
 31
0.0000000000000000
  0
LINE
  5
4A1
100
AcDbEntity
  8
MAIN0
  6
CONTINUOUS
 62
3
100
AcDbLine
 10
1356.803184849337
 20
476.0171276797209
 30
0.0000000000000000
 11
1356.803184849337
 21
436.3171276796340
 31
0.0000000000000000
  0
LINE
  5
4A2
100
AcDbEntity
  8
MAIN0
  6
CONTINUOUS
 62
3
100
AcDbLine
 10
1147.003184849337
 20
483.0171276797209
 30
0.0000000000000000
 11
1147.003184849337
 21
435.5171276797209
 31
0.0000000000000000
  0
LINE
  5
4A3
100
AcDbEntity
  8
MAIN0
  6
CONTINUOUS
 62
3
100
AcDbLine
 10
1148.203184849337
 20
476.0171276797209
 30
0.0000000000000000
 11
1148.203184849337
 21
436.3171276797211
 31
0.0000000000000000
  0
ARC
  5
4A4
100
AcDbEntity
  8
MAIN0
  6
CONTINUOUS
 62
3
100
AcDbCircle
 10
1357.003184849337
 20
483.0171276797209
 30
0.0000000000000000
 40
1.000000000000000
100
AcDbArc
 50
0.0000000000000000
 51
89.99999999999838
  0
ARC
  5
4A5
100
AcDbEntity
  8
MAIN0
  6
CONTINUOUS
 62
3
100
AcDbCircle
 10
1148.003184849337
 20
483.0171276797209
 30
0.0000000000000000
 40
1.000000000000000
100
AcDbArc
 50
89.99999999999720
 51
179.9999999999964
  0
LINE
  5
4A6
100
AcDbEntity
  8
MAIN0
  6
CONTINUOUS
 62
3
100
AcDbLine
 10
1299.503184849337
 20
468.0171276797209
 30
0.0000000000000000
 11
1355.303184849337
 21
468.0171276797209
 31
0.0000000000000000
  0
LINE
  5
4A7
100
AcDbEntity
  8
MAIN0
  6
CONTINUOUS
 62
3
100
AcDbLine
 10
1149.703184849337
 20
468.0171276797209
 30
0.0000000000000000
 11
1355.303184849337
 21
468.0171276797209
 31
0.0000000000000000
  0
LINE
  5
4A8
100
AcDbEntity
  8
MAIN0
  6
CONTINUOUS
 62
3
100
AcDbLine
 10
1353.803184849337
 20
440.3171276796306
 30
0.0000000000000000
 11
1353.803184849337
 21
466.8171276797211
 31
0.0000000000000000
  0
LINE
  5
4A9
100
AcDbEntity
  8
MAIN0
  6
CONTINUOUS
 62
3
100
AcDbLine
 10
1151.203184849337
 20
466.8171276797211
 30
0.0000000000000000
 11
1353.803184849337
 21
466.8171276797211
 31
0.0000000000000000
  0
LINE
  5
4AA
100
AcDbEntity
  8
MAIN0
  6
CONTINUOUS
 62
3
100
AcDbLine
 10
1290.335208812161
 20
422.3441153353297
 30
0.0000000000000000
 11
1293.783729097048
 21
428.3171276796800
 31
0.0000000000000000
  0
ARC
  5
4AB
100
AcDbEntity
  8
MAIN0
  6
CONTINUOUS
 62
3
100
AcDbCircle
 10
1311.104237172733
 20
418.3171276796717
 30
0.0000000000000000
 40
20.00000000000000
100
AcDbArc
 50
90.00000000000000
 51
149.9999999999739
  0
ARC
  5
4AC
100
AcDbEntity
  8
MAIN0
  6
CONTINUOUS
 62
3
100
AcDbCircle
 10
1193.902132525901
 20
418.3171276797208
 30
0.0000000000000000
 40
20.00000000000000
100
AcDbArc
 50
29.99999999997811
 51
89.99999999995197
  0
LINE
  5
4AD
100
AcDbEntity
  8
MAIN0
  6
CONTINUOUS
 62
3
100
AcDbLine
 10
1214.671160886475
 20
422.3441153353613
 30
0.0000000000000000
 11
1211.222640601593
 21
428.3171276797146
 31
0.0000000000000000
  0
CIRCLE
  5
4AE
100
AcDbEntity
  8
MAIN0
  6
CONTINUOUS
 62
3
100
AcDbCircle
 10
421.7958961434066
 20
506.8171276767660
 30
0.0000000000000000
 40
5.000000000000000
  0
CIRCLE
  5
4AF
100
AcDbEntity
  8
MAIN0
  6
CONTINUOUS
 62
3
100
AcDbCircle
 10
421.7958961434066
 20
506.8171276767660
 30
0.0000000000000000
 40
4.250000000000000
  0
CIRCLE
  5
4B0
100
AcDbEntity
  8
MAIN0
  6
CONTINUOUS
 62
3
100
AcDbCircle
 10
421.7958961434066
 20
526.8171276767660
 30
0.0000000000000000
 40
5.000000000000000
  0
CIRCLE
  5
4B1
100
AcDbEntity
  8
MAIN0
  6
CONTINUOUS
 62
3
100
AcDbCircle
 10
421.7958961434066
 20
526.8171276767660
 30
0.0000000000000000
 40
4.250000000000000
  0
CIRCLE
  5
4B2
100
AcDbEntity
  8
MAIN0
  6
CONTINUOUS
 62
3
100
AcDbCircle
 10
387.7958961445058
 20
867.9337896059381
 30
0.0000000000000000
 40
5.000000000000000
  0
CIRCLE
  5
4B3
100
AcDbEntity
  8
MAIN0
  6
CONTINUOUS
 62
3
100
AcDbCircle
 10
387.7958961445058
 20
867.9337896059381
 30
0.0000000000000000
 40
4.188101000000000
  0
LINE
  5
4B4
100
AcDbEntity
  8
MAIN0
  6
CONTINUOUS
 62
3
100
AcDbLine
 10
387.7958961445058
 20
870.8205409518860
 30
0.0000000000000000
 11
385.2958961445058
 21
869.3771652789119
 31
0.0000000000000000
  0
LINE
  5
4B5
100
AcDbEntity
  8
MAIN0
  6
CONTINUOUS
 62
3
100
AcDbLine
 10
385.2958961445058
 20
869.3771652789121
 30
0.0000000000000000
 11
385.2958961445058
 21
866.4904139329640
 31
0.0000000000000000
  0
LINE
  5
4B6
100
AcDbEntity
  8
MAIN0
  6
CONTINUOUS
 62
3
100
AcDbLine
 10
385.2958961445058
 20
866.4904139329640
 30
0.0000000000000000
 11
387.7958961445058
 21
865.0470382599899
 31
0.0000000000000000
  0
LINE
  5
4B7
100
AcDbEntity
  8
MAIN0
  6
CONTINUOUS
 62
3
100
AcDbLine
 10
387.7958961445059
 20
865.0470382599899
 30
0.0000000000000000
 11
390.2958961445059
 21
866.4904139329640
 31
0.0000000000000000
  0
LINE
  5
4B8
100
AcDbEntity
  8
MAIN0
  6
CONTINUOUS
 62
3
100
AcDbLine
 10
390.2958961445058
 20
866.4904139329640
 30
0.0000000000000000
 11
390.2958961445058
 21
869.3771652789121
 31
0.0000000000000000
  0
LINE
  5
4B9
100
AcDbEntity
  8
MAIN0
  6
CONTINUOUS
 62
3
100
AcDbLine
 10
390.2958961445058
 20
869.3771652789119
 30
0.0000000000000000
 11
387.7958961445058
 21
870.8205409518860
 31
0.0000000000000000
  0
LINE
  5
4BA
100
AcDbEntity
  8
MAIN0
  6
CONTINUOUS
 62
3
100
AcDbLine
 10
1038.311780498932
 20
391.8171276791535
 30
0.0000000000000000
 11
1038.311780498932
 21
406.2171276791536
 31
0.0000000000000000
  0
LINE
  5
4BB
100
AcDbEntity
  8
MAIN0
  6
CONTINUOUS
 62
3
100
AcDbLine
 10
1038.311780498933
 20
406.2171276791536
 30
0.0000000000000000
 11
1035.540499206823
 21
407.8171276791535
 31
0.0000000000000000
  0
LINE
  5
4BC
100
AcDbEntity
  8
MAIN0
  6
CONTINUOUS
 62
3
100
AcDbLine
 10
1035.540499206823
 20
407.8171276791535
 30
0.0000000000000000
 11
1017.083061791043
 21
407.8171276791535
 31
0.0000000000000000
  0
LINE
  5
4BD
100
AcDbEntity
  8
MAIN0
  6
CONTINUOUS
 62
3
100
AcDbLine
 10
1017.083061791043
 20
407.8171276791539
 30
0.0000000000000000
 11
1014.311780498933
 21
406.2171276791538
 31
0.0000000000000000
  0
LINE
  5
4BE
100
AcDbEntity
  8
MAIN0
  6
CONTINUOUS
 62
3
100
AcDbLine
 10
1014.311780498932
 20
406.2171276791536
 30
0.0000000000000000
 11
1014.311780498932
 21
391.8171276791535
 31
0.0000000000000000
  0
LINE
  5
4BF
100
AcDbEntity
  8
MAIN0
  6
CONTINUOUS
 62
3
100
AcDbLine
 10
1038.311780498932
 20
406.2171276791536
 30
0.0000000000000000
 11
1014.311780498932
 21
406.2171276791536
 31
0.0000000000000000
  0
LINE
  5
4C0
100
AcDbEntity
  8
MAIN0
  6
CONTINUOUS
 62
3
100
AcDbLine
 10
1043.811780498932
 20
391.8171276791535
 30
0.0000000000000000
 11
1008.811780498932
 21
391.8171276791535
 31
0.0000000000000000
  0
LINE
  5
4C1
100
AcDbEntity
  8
MAIN0
  6
CONTINUOUS
 62
3
100
AcDbLine
 10
1043.811780498932
 20
386.8171276791535
 30
0.0000000000000000
 11
1043.811780498932
 21
391.8171276791535
 31
0.0000000000000000
  0
LINE
  5
4C2
100
AcDbEntity
  8
MAIN0
  6
CONTINUOUS
 62
3
100
AcDbLine
 10
1008.811780498932
 20
386.8171276791535
 30
0.0000000000000000
 11
1008.811780498932
 21
391.8171276791535
 31
0.0000000000000000
  0
LINE
  5
4C3
100
AcDbEntity
  8
MAIN0
  6
CONTINUOUS
 62
3
100
AcDbLine
 10
1012.061780498915
 20
326.8171276792686
 30
0.0000000000000000
 11
1012.061780498908
 21
337.8171276792686
 31
0.0000000000000000
  0
LINE
  5
4C4
100
AcDbEntity
  8
MAIN0
  6
CONTINUOUS
 62
3
100
AcDbLine
 10
1040.561780498915
 20
326.8171276792805
 30
0.0000000000000000
 11
1040.561780498908
 21
337.8171276792805
 31
0.0000000000000000
  0
LINE
  5
4C5
100
AcDbEntity
  8
MAIN0
  6
CONTINUOUS
 62
3
100
AcDbLine
 10
1012.061780498916
 20
326.8171276792687
 30
0.0000000000000000
 11
1040.561780498916
 21
326.8171276792805
 31
0.0000000000000000
  0
LINE
  5
4C6
100
AcDbEntity
  8
MAIN0
  6
CONTINUOUS
 62
3
100
AcDbLine
 10
1017.561780498902
 20
345.8171276792709
 30
0.0000000000000000
 11
1035.061780498902
 21
345.8171276792781
 31
0.0000000000000000
  0
LINE
  5
4C7
100
AcDbEntity
  8
MAIN0
  6
CONTINUOUS
 62
3
100
AcDbLine
 10
1012.061780498908
 20
337.8171276792687
 30
0.0000000000000000
 11
1017.561780498908
 21
337.8171276792709
 31
0.0000000000000000
  0
LINE
  5
4C8
100
AcDbEntity
  8
MAIN0
  6
CONTINUOUS
 62
3
100
AcDbLine
 10
1035.061780498908
 20
337.8171276792782
 30
0.0000000000000000
 11
1040.561780498908
 21
337.8171276792805
 31
0.0000000000000000
  0
LINE
  5
4C9
100
AcDbEntity
  8
MAIN0
  6
CONTINUOUS
 62
3
100
AcDbLine
 10
1017.561780498908
 20
337.8171276792708
 30
0.0000000000000000
 11
1017.561780498902
 21
345.8171276792708
 31
0.0000000000000000
  0
LINE
  5
4CA
100
AcDbEntity
  8
MAIN0
  6
CONTINUOUS
 62
3
100
AcDbLine
 10
1035.061780498908
 20
337.8171276792781
 30
0.0000000000000000
 11
1035.061780498902
 21
345.8171276792781
 31
0.0000000000000000
  0
LINE
  5
4CB
100
AcDbEntity
  8
MAIN0
  6
CONTINUOUS
 62
3
100
AcDbLine
 10
1019.394312498915
 20
356.8171276792776
 30
0.0000000000000000
 11
1019.394312498915
 21
345.8171276792806
 31
0.0000000000000000
  0
LINE
  5
4CC
100
AcDbEntity
  8
MAIN0
  6
CONTINUOUS
 62
3
100
AcDbLine
 10
1018.311780498915
 20
345.8171276792806
 30
0.0000000000000000
 11
1018.311780498915
 21
356.8171276792772
 31
0.0000000000000000
  0
LINE
  5
4CD
100
AcDbEntity
  8
MAIN0
  6
CONTINUOUS
 62
3
100
AcDbLine
 10
1033.229248498916
 20
356.8171276792834
 30
0.0000000000000000
 11
1033.229248498916
 21
345.8171276792806
 31
0.0000000000000000
  0
LINE
  5
4CE
100
AcDbEntity
  8
MAIN0
  6
CONTINUOUS
 62
3
100
AcDbLine
 10
1034.311780498915
 20
356.8171276792839
 30
0.0000000000000000
 11
1034.311780498915
 21
345.8171276792806
 31
0.0000000000000000
  0
LINE
  5
4CF
100
AcDbEntity
  8
MAIN0
  6
CONTINUOUS
 62
3
100
AcDbLine
 10
1113.503184849279
 20
345.8171276791148
 30
0.0000000000000000
 11
1143.503184849279
 21
345.8171276791273
 31
0.0000000000000000
  0
LINE
  5
4D0
100
AcDbEntity
  8
MAIN0
  6
CONTINUOUS
 62
3
100
AcDbLine
 10
1113.503184849285
 20
337.8171276791149
 30
0.0000000000000000
 11
1143.503184849285
 21
337.8171276791274
 31
0.0000000000000000
  0
LINE
  5
4D1
100
AcDbEntity
  8
MAIN0
  6
CONTINUOUS
 62
3
100
AcDbLine
 10
1113.503184849292
 20
326.8171276791148
 30
0.0000000000000000
 11
1143.503184849292
 21
326.8171276791273
 31
0.0000000000000000
  0
LINE
  5
4D2
100
AcDbEntity
  8
MAIN0
  6
CONTINUOUS
 62
3
100
AcDbLine
 10
1143.503184849292
 20
326.8171276791273
 30
0.0000000000000000
 11
1143.503184849279
 21
345.8171276791273
 31
0.0000000000000000
  0
LINE
  5
4D3
100
AcDbEntity
  8
MAIN0
  6
CONTINUOUS
 62
3
100
AcDbLine
 10
1113.503184849292
 20
326.8171276791149
 30
0.0000000000000000
 11
1113.503184849279
 21
345.8171276791149
 31
0.0000000000000000
  0
LINE
  5
4D4
100
AcDbEntity
  8
MAIN0
  6
CONTINUOUS
 62
3
100
AcDbLine
 10
1113.503184849246
 20
233.5290217654578
 30
0.0000000000000000
 11
1143.503184849246
 21
233.5290217654495
 31
0.0000000000000000
  0
LINE
  5
4D5
100
AcDbEntity
  8
MAIN0
  6
HIDDEN
 62
3
100
AcDbLine
 10
1113.503184849250
 20
228.0290217654579
 30
0.0000000000000000
 11
1143.503184849250
 21
228.0290217654496
 31
0.0000000000000000
  0
LINE
  5
4D6
100
AcDbEntity
  8
MAIN0
  6
CONTINUOUS
 62
3
100
AcDbLine
 10
1113.503184849266
 20
205.0290217654580
 30
0.0000000000000000
 11
1113.503184849247
 21
233.5290217654580
 31
0.0000000000000000
  0
LINE
  5
4D7
100
AcDbEntity
  8
MAIN0
  6
CENTER
 62
3
100
AcDbLine
 10
1110.240566826967
 20
219.2790217654589
 30
0.0000000000000000
 11
1147.058664190605
 21
219.2790217654487
 31
0.0000000000000000
  0
LINE
  5
4D8
100
AcDbEntity
  8
MAIN0
  6
HIDDEN
 62
3
100
AcDbLine
 10
1113.503184849263
 20
210.5290217654581
 30
0.0000000000000000
 11
1143.503184849262
 21
210.5290217654498
 31
0.0000000000000000
  0
LINE
  5
4D9
100
AcDbEntity
  8
MAIN0
  6
CONTINUOUS
 62
3
100
AcDbLine
 10
1113.503184849266
 20
205.0290217654581
 30
0.0000000000000000
 11
1143.503184849266
 21
205.0290217654498
 31
0.0000000000000000
  0
LINE
  5
4DA
100
AcDbEntity
  8
MAIN0
  6
CONTINUOUS
 62
3
100
AcDbLine
 10
1143.503184849266
 20
205.0290217654498
 30
0.0000000000000000
 11
1143.503184849246
 21
233.5290217654497
 31
0.0000000000000000
  0
LINE
  5
4DB
100
AcDbEntity
  8
MAIN0
  6
CENTER
 62
3
100
AcDbLine
 10
1155.734346815601
 20
709.6447000661092
 30
0.0000000000000000
 11
1038.597475065765
 21
709.6447000661092
 31
0.0000000000000000
  0
LINE
  5
4DC
100
AcDbEntity
  8
MAIN0
  6
CONTINUOUS
 62
3
100
AcDbLine
 10
131.9634363203045
 20
460.8171276797040
 30
0.0000000000000000
 11
227.9634363203046
 21
460.8171276797258
 31
0.0000000000000000
  0
LINE
  5
4DD
100
AcDbEntity
  8
MAIN0
  6
CONTINUOUS
 62
3
100
AcDbLine
 10
138.4634363202980
 20
401.8171276790190
 30
0.0000000000000000
 11
138.4634363204852
 21
426.8171276797050
 31
0.0000000000000000
  0
LINE
  5
4DE
100
AcDbEntity
  8
MAIN0
  6
CONTINUOUS
 62
3
100
AcDbLine
 10
138.4634363202980
 20
401.8171276790191
 30
0.0000000000000000
 11
221.4634363202556
 21
401.8171276789848
 31
0.0000000000000000
  0
LINE
  5
4DF
100
AcDbEntity
  8
MAIN0
  6
CONTINUOUS
 62
3
100
AcDbLine
 10
221.4634363202555
 20
401.8171276789848
 30
0.0000000000000000
 11
221.4634363200894
 21
426.8171276796696
 31
0.0000000000000000
  0
LINE
  5
4E0
100
AcDbEntity
  8
MAIN0
  6
CENTER
 62
3
100
AcDbLine
 10
903.1853912294116
 20
431.8171276797152
 30
0.0000000000000000
 11
982.0781802329227
 21
431.8171276797152
 31
0.0000000000000000
  0
LINE
  5
4E1
100
AcDbEntity
  8
MAIN0
  6
CONTINUOUS
 62
3
100
AcDbLine
 10
670.7958961445060
 20
492.0171276765054
 30
0.0000000000000000
 11
748.7958961445055
 21
492.0171276765054
 31
0.0000000000000000
  0
LINE
  5
4E2
100
AcDbEntity
  8
MAIN0
  6
CONTINUOUS
 62
3
100
AcDbLine
 10
748.7958961445055
 20
484.0171276765054
 30
0.0000000000000000
 11
790.3958961445059
 21
484.0171276765054
 31
0.0000000000000000
  0
LINE
  5
4E3
100
AcDbEntity
  8
MAIN0
  6
CONTINUOUS
 62
3
100
AcDbLine
 10
748.7958961445055
 20
492.0171276765054
 30
0.0000000000000000
 11
748.7958961445055
 21
434.5171276796474
 31
0.0000000000000000
  0
LINE
  5
4E4
100
AcDbEntity
  8
MAIN0
  6
CONTINUOUS
 62
3
100
AcDbLine
 10
790.3958961445059
 20
476.0171276765054
 30
0.0000000000000000
 11
834.9958961445058
 21
476.0171276765054
 31
0.0000000000000000
  0
LINE
  5
4E5
100
AcDbEntity
  8
MAIN0
  6
CONTINUOUS
 62
3
100
AcDbLine
 10
790.3958961445059
 20
484.0171276765054
 30
0.0000000000000000
 11
790.3958961445059
 21
434.5171276796548
 31
0.0000000000000000
  0
LINE
  5
4E6
100
AcDbEntity
  8
MAIN0
  6
CONTINUOUS
 62
3
100
AcDbLine
 10
834.9958961445058
 20
468.0171276765054
 30
0.0000000000000000
 11
882.7958961440302
 21
468.0171276765054
 31
0.0000000000000000
  0
LINE
  5
4E7
100
AcDbEntity
  8
MAIN0
  6
CONTINUOUS
 62
3
100
AcDbLine
 10
834.9958961445058
 20
476.0171276765054
 30
0.0000000000000000
 11
834.9958961445058
 21
436.5171276796626
 31
0.0000000000000000
  0
LINE
  5
4E8
100
AcDbEntity
  8
MAIN0
  6
CONTINUOUS
 62
3
100
AcDbLine
 10
882.7958961440304
 20
468.0171276765057
 30
0.0000000000000000
 11
882.7958961440197
 21
438.5171276796666
 31
0.0000000000000000
  0
CIRCLE
  5
4E9
100
AcDbEntity
  8
MAIN0
  6
CONTINUOUS
 62
3
100
AcDbCircle
 10
1128.503184849256
 20
219.2790217654540
 30
0.0000000000000000
 40
7.000000000000000
  0
CIRCLE
  5
4EA
100
AcDbEntity
  8
MAIN0
  6
CONTINUOUS
 62
3
100
AcDbCircle
 10
1128.503184849256
 20
219.2790217654540
 30
0.0000000000000000
 40
8.000000000000000
  0
LINE
  5
4EB
100
AcDbEntity
  8
MAIN0
  6
CONTINUOUS
 62
3
100
AcDbLine
 10
472.2958961445057
 20
917.9337896060360
 30
0.0000000000000000
 11
371.3958961445056
 21
917.9337896060363
 31
0.0000000000000000
  0
LINE
  5
4EC
100
AcDbEntity
  8
MAIN0
  6
CONTINUOUS
 62
3
100
AcDbLine
 10
472.2958961445060
 20
717.9337896060360
 30
0.0000000000000000
 11
371.3958961445063
 21
717.9337896060363
 31
0.0000000000000000
  0
LINE
  5
4ED
100
AcDbEntity
  8
MAIN0
  6
CONTINUOUS
 62
3
100
AcDbLine
 10
472.7958961445058
 20
718.4337896060365
 30
0.0000000000000000
 11
472.7958961445060
 21
917.4337896060365
 31
0.0000000000000000
  0
LINE
  5
4EE
100
AcDbEntity
  8
MAIN0
  6
CONTINUOUS
 62
3
100
AcDbLine
 10
370.7958961445058
 20
718.5337896060364
 30
0.0000000000000000
 11
370.7958961445060
 21
917.3337896060366
 31
0.0000000000000000
  0
LINE
  5
4EF
100
AcDbEntity
  8
MAIN0
  6
CENTER
 62
3
100
AcDbLine
 10
430.4807457727088
 20
742.9337896060366
 30
0.0000000000000000
 11
472.7958961445065
 21
742.9337896060365
 31
0.0000000000000000
  0
LINE
  5
4F0
100
AcDbEntity
  8
MAIN0
  6
CENTER
 62
3
100
AcDbLine
 10
451.7958961445059
 20
762.4287402487856
 30
0.0000000000000000
 11
451.7958961445058
 21
722.0404720302107
 31
0.0000000000000000
  0
LINE
  5
4F1
100
AcDbEntity
  8
MAIN0
  6
CENTER
 62
3
100
AcDbLine
 10
373.6442219206360
 20
742.9337896060367
 30
0.0000000000000000
 11
412.7011259371597
 21
742.9337896060367
 31
0.0000000000000000
  0
LINE
  5
4F2
100
AcDbEntity
  8
MAIN0
  6
CENTER
 62
3
100
AcDbLine
 10
391.7958961445058
 20
762.4287402487855
 30
0.0000000000000000
 11
391.7958961445057
 21
722.6234234886481
 31
0.0000000000000000
  0
LINE
  5
4F3
100
AcDbEntity
  8
MAIN0
  6
CONTINUOUS
 62
3
100
AcDbLine
 10
472.2958961445055
 20
717.9337896060362
 30
0.0000000000000000
 11
472.7958961445053
 21
718.4337896060358
 31
0.0000000000000000
  0
LINE
  5
4F4
100
AcDbEntity
  8
MAIN0
  6
CONTINUOUS
 62
3
100
AcDbLine
 10
472.7958961445056
 20
917.4337896060360
 30
0.0000000000000000
 11
472.2958961445055
 21
917.9337896060363
 31
0.0000000000000000
  0
LINE
  5
4F5
100
AcDbEntity
  8
MAIN0
  6
CONTINUOUS
 62
3
100
AcDbLine
 10
371.3958961445057
 20
917.9337896060367
 30
0.0000000000000000
 11
370.7958961445056
 21
917.3337896060366
 31
0.0000000000000000
  0
LINE
  5
4F6
100
AcDbEntity
  8
MAIN0
  6
CONTINUOUS
 62
3
100
AcDbLine
 10
370.7958961445058
 20
718.5337896060368
 30
0.0000000000000000
 11
371.3958961445057
 21
717.9337896060368
 31
0.0000000000000000
  0
CIRCLE
  5
4F7
100
AcDbEntity
  8
MAIN0
  6
HIDDEN
 62
3
100
AcDbCircle
 10
391.7958961445053
 20
742.9337896060367
 30
0.0000000000000000
 40
13.50000000000000
  0
LINE
  5
4F8
100
AcDbEntity
  8
MAIN0
  6
HIDDEN
 62
3
100
AcDbLine
 10
391.7958961445054
 20
751.0166933746914
 30
0.0000000000000000
 11
384.7958961445053
 21
746.9752414903639
 31
0.0000000000000000
  0
LINE
  5
4F9
100
AcDbEntity
  8
MAIN0
  6
HIDDEN
 62
3
100
AcDbLine
 10
384.7958961445053
 20
746.9752414903642
 30
0.0000000000000000
 11
384.7958961445053
 21
738.8923377217095
 31
0.0000000000000000
  0
LINE
  5
4FA
100
AcDbEntity
  8
MAIN0
  6
HIDDEN
 62
3
100
AcDbLine
 10
384.7958961445052
 20
738.8923377217093
 30
0.0000000000000000
 11
391.7958961445049
 21
734.8508858373821
 31
0.0000000000000000
  0
LINE
  5
4FB
100
AcDbEntity
  8
MAIN0
  6
HIDDEN
 62
3
100
AcDbLine
 10
391.7958961445053
 20
734.8508858373818
 30
0.0000000000000000
 11
398.7958961445054
 21
738.8923377217093
 31
0.0000000000000000
  0
LINE
  5
4FC
100
AcDbEntity
  8
MAIN0
  6
HIDDEN
 62
3
100
AcDbLine
 10
398.7958961445053
 20
738.8923377217095
 30
0.0000000000000000
 11
398.7958961445053
 21
746.9752414903642
 31
0.0000000000000000
  0
LINE
  5
4FD
100
AcDbEntity
  8
MAIN0
  6
HIDDEN
 62
3
100
AcDbLine
 10
398.7958961445049
 20
746.9752414903639
 30
0.0000000000000000
 11
391.7958961445047
 21
751.0166933746914
 31
0.0000000000000000
  0
CIRCLE
  5
4FE
100
AcDbEntity
  8
MAIN0
  6
HIDDEN
 62
3
100
AcDbCircle
 10
451.7958961445057
 20
742.9337896060365
 30
0.0000000000000000
 40
13.50000000000000
  0
LINE
  5
4FF
100
AcDbEntity
  8
MAIN0
  6
HIDDEN
 62
3
100
AcDbLine
 10
451.7958961445060
 20
751.0166933746912
 30
0.0000000000000000
 11
444.7958961445060
 21
746.9752414903637
 31
0.0000000000000000
  0
LINE
  5
500
100
AcDbEntity
  8
MAIN0
  6
HIDDEN
 62
3
100
AcDbLine
 10
444.7958961445057
 20
746.9752414903639
 30
0.0000000000000000
 11
444.7958961445057
 21
738.8923377217093
 31
0.0000000000000000
  0
LINE
  5
501
100
AcDbEntity
  8
MAIN0
  6
HIDDEN
 62
3
100
AcDbLine
 10
444.7958961445055
 20
738.8923377217091
 30
0.0000000000000000
 11
451.7958961445052
 21
734.8508858373817
 31
0.0000000000000000
  0
LINE
  5
502
100
AcDbEntity
  8
MAIN0
  6
HIDDEN
 62
3
100
AcDbLine
 10
451.7958961445060
 20
734.8508858373816
 30
0.0000000000000000
 11
458.7958961445061
 21
738.8923377217091
 31
0.0000000000000000
  0
LINE
  5
503
100
AcDbEntity
  8
MAIN0
  6
HIDDEN
 62
3
100
AcDbLine
 10
458.7958961445057
 20
738.8923377217093
 30
0.0000000000000000
 11
458.7958961445057
 21
746.9752414903639
 31
0.0000000000000000
  0
LINE
  5
504
100
AcDbEntity
  8
MAIN0
  6
HIDDEN
 62
3
100
AcDbLine
 10
458.7958961445052
 20
746.9752414903636
 30
0.0000000000000000
 11
451.7958961445050
 21
751.0166933746912
 31
0.0000000000000000
  0
CIRCLE
  5
505
100
AcDbEntity
  8
MAIN0
  6
HIDDEN
 62
3
100
AcDbCircle
 10
451.7958961445062
 20
892.9337896060363
 30
0.0000000000000000
 40
13.50000000000000
  0
LINE
  5
506
100
AcDbEntity
  8
MAIN0
  6
HIDDEN
 62
3
100
AcDbLine
 10
451.7958961445067
 20
901.0166933746914
 30
0.0000000000000000
 11
444.7958961445065
 21
896.9752414903637
 31
0.0000000000000000
  0
LINE
  5
507
100
AcDbEntity
  8
MAIN0
  6
HIDDEN
 62
3
100
AcDbLine
 10
444.7958961445062
 20
896.9752414903637
 30
0.0000000000000000
 11
444.7958961445062
 21
888.8923377217091
 31
0.0000000000000000
  0
LINE
  5
508
100
AcDbEntity
  8
MAIN0
  6
HIDDEN
 62
3
100
AcDbLine
 10
444.7958961445060
 20
888.8923377217088
 30
0.0000000000000000
 11
451.7958961445056
 21
884.8508858373816
 31
0.0000000000000000
  0
LINE
  5
509
100
AcDbEntity
  8
MAIN0
  6
HIDDEN
 62
3
100
AcDbLine
 10
451.7958961445066
 20
884.8508858373816
 30
0.0000000000000000
 11
458.7958961445069
 21
888.8923377217093
 31
0.0000000000000000
  0
LINE
  5
50A
100
AcDbEntity
  8
MAIN0
  6
HIDDEN
 62
3
100
AcDbLine
 10
458.7958961445062
 20
888.8923377217091
 30
0.0000000000000000
 11
458.7958961445062
 21
896.9752414903637
 31
0.0000000000000000
  0
LINE
  5
50B
100
AcDbEntity
  8
MAIN0
  6
HIDDEN
 62
3
100
AcDbLine
 10
458.7958961445057
 20
896.9752414903637
 30
0.0000000000000000
 11
451.7958961445056
 21
901.0166933746912
 31
0.0000000000000000
  0
CIRCLE
  5
50C
100
AcDbEntity
  8
MAIN0
  6
HIDDEN
 62
3
100
AcDbCircle
 10
391.7958961445057
 20
892.9337896060365
 30
0.0000000000000000
 40
13.50000000000000
  0
LINE
  5
50D
100
AcDbEntity
  8
MAIN0
  6
HIDDEN
 62
3
100
AcDbLine
 10
391.7958961445058
 20
901.0166933746916
 30
0.0000000000000000
 11
384.7958961445057
 21
896.9752414903642
 31
0.0000000000000000
  0
LINE
  5
50E
100
AcDbEntity
  8
MAIN0
  6
HIDDEN
 62
3
100
AcDbLine
 10
384.7958961445057
 20
896.9752414903639
 30
0.0000000000000000
 11
384.7958961445057
 21
888.8923377217093
 31
0.0000000000000000
  0
LINE
  5
50F
100
AcDbEntity
  8
MAIN0
  6
HIDDEN
 62
3
100
AcDbLine
 10
384.7958961445054
 20
888.8923377217088
 30
0.0000000000000000
 11
391.7958961445052
 21
884.8508858373816
 31
0.0000000000000000
  0
LINE
  5
510
100
AcDbEntity
  8
MAIN0
  6
HIDDEN
 62
3
100
AcDbLine
 10
391.7958961445059
 20
884.8508858373818
 30
0.0000000000000000
 11
398.7958961445060
 21
888.8923377217093
 31
0.0000000000000000
  0
LINE
  5
511
100
AcDbEntity
  8
MAIN0
  6
HIDDEN
 62
3
100
AcDbLine
 10
398.7958961445057
 20
888.8923377217093
 30
0.0000000000000000
 11
398.7958961445057
 21
896.9752414903639
 31
0.0000000000000000
  0
LINE
  5
512
100
AcDbEntity
  8
MAIN0
  6
HIDDEN
 62
3
100
AcDbLine
 10
398.7958961445052
 20
896.9752414903637
 30
0.0000000000000000
 11
391.7958961445052
 21
901.0166933746912
 31
0.0000000000000000
  0
CIRCLE
  5
513
100
AcDbEntity
  8
MAIN0
  6
CONTINUOUS
 62
3
100
AcDbCircle
 10
621.7958961447342
 20
817.9337896060365
 30
0.0000000000000000
 40
5.000000000000000
  0
CIRCLE
  5
514
100
AcDbEntity
  8
MAIN0
  6
CONTINUOUS
 62
3
100
AcDbCircle
 10
621.7958961447342
 20
817.9337896060365
 30
0.0000000000000000
 40
4.250000000000000
  0
LINE
  5
515
100
AcDbEntity
  8
MAIN0
  6
CONTINUOUS
 62
3
100
AcDbLine
 10
670.2958961445045
 20
917.9337896060358
 30
0.0000000000000000
 11
573.3958961445048
 21
917.9337896060360
 31
0.0000000000000000
  0
LINE
  5
516
100
AcDbEntity
  8
MAIN0
  6
CONTINUOUS
 62
3
100
AcDbLine
 10
670.2958961445049
 20
717.9337896060362
 30
0.0000000000000000
 11
573.3958961445048
 21
717.9337896060364
 31
0.0000000000000000
  0
LINE
  5
517
100
AcDbEntity
  8
MAIN0
  6
CONTINUOUS
 62
3
100
AcDbLine
 10
670.7958961445041
 20
710.9337896060365
 30
0.0000000000000000
 11
670.7958961445041
 21
924.9337896060363
 31
0.0000000000000000
  0
LINE
  5
518
100
AcDbEntity
  8
MAIN0
  6
CONTINUOUS
 62
3
100
AcDbLine
 10
572.7958961445049
 20
718.5337896060366
 30
0.0000000000000000
 11
572.7958961445052
 21
917.3337896060364
 31
0.0000000000000000
  0
LINE
  5
519
100
AcDbEntity
  8
MAIN0
  6
CENTER
 62
3
100
AcDbLine
 10
636.6292294778384
 20
850.4337896060362
 30
0.0000000000000000
 11
666.9625628111719
 21
850.4337896060360
 31
0.0000000000000000
  0
LINE
  5
51A
100
AcDbEntity
  8
MAIN0
  6
CENTER
 62
3
100
AcDbLine
 10
651.7958961445049
 20
835.2671229393695
 30
0.0000000000000000
 11
651.7958961445049
 21
865.6004562727026
 31
0.0000000000000000
  0
LINE
  5
51B
100
AcDbEntity
  8
MAIN0
  6
CENTER
 62
3
100
AcDbLine
 10
576.6292294778382
 20
850.4337896060363
 30
0.0000000000000000
 11
606.9625628111717
 21
850.4337896060363
 31
0.0000000000000000
  0
LINE
  5
51C
100
AcDbEntity
  8
MAIN0
  6
CENTER
 62
3
100
AcDbLine
 10
591.7958961445047
 20
835.2671229393698
 30
0.0000000000000000
 11
591.7958961445047
 21
865.6004562727028
 31
0.0000000000000000
  0
LINE
  5
51D
100
AcDbEntity
  8
MAIN0
  6
CENTER
 62
3
100
AcDbLine
 10
636.6292294778382
 20
785.4337896060362
 30
0.0000000000000000
 11
666.9625628111717
 21
785.4337896060360
 31
0.0000000000000000
  0
LINE
  5
51E
100
AcDbEntity
  8
MAIN0
  6
CENTER
 62
3
100
AcDbLine
 10
651.7958961445047
 20
770.2671229393695
 30
0.0000000000000000
 11
651.7958961445048
 21
800.6004562727030
 31
0.0000000000000000
  0
LINE
  5
51F
100
AcDbEntity
  8
MAIN0
  6
CENTER
 62
3
100
AcDbLine
 10
576.6292294778381
 20
785.4337896060363
 30
0.0000000000000000
 11
606.9625628111716
 21
785.4337896060363
 31
0.0000000000000000
  0
LINE
  5
520
100
AcDbEntity
  8
MAIN0
  6
CENTER
 62
3
100
AcDbLine
 10
591.7958961445045
 20
770.2671229393698
 30
0.0000000000000000
 11
591.7958961445046
 21
800.6004562727032
 31
0.0000000000000000
  0
LINE
  5
521
100
AcDbEntity
  8
MAIN0
  6
CONTINUOUS
 62
3
100
AcDbLine
 10
573.3958961445051
 20
717.9337896060365
 30
0.0000000000000000
 11
572.7958961445048
 21
718.5337896060366
 31
0.0000000000000000
  0
LINE
  5
522
100
AcDbEntity
  8
MAIN0
  6
CONTINUOUS
 62
3
100
AcDbLine
 10
572.7958961445052
 20
917.3337896060366
 30
0.0000000000000000
 11
573.3958961445051
 21
917.9337896060365
 31
0.0000000000000000
  0
LINE
  5
523
100
AcDbEntity
  8
MAIN0
  6
CONTINUOUS
 62
3
100
AcDbLine
 10
670.2958961445047
 20
717.9337896060360
 30
0.0000000000000000
 11
670.7958961445047
 21
718.4337896060360
 31
0.0000000000000000
  0
LINE
  5
524
100
AcDbEntity
  8
MAIN0
  6
CONTINUOUS
 62
3
100
AcDbLine
 10
670.7958961445047
 20
917.4337896060363
 30
0.0000000000000000
 11
670.2958961445047
 21
917.9337896060363
 31
0.0000000000000000
  0
CIRCLE
  5
525
100
AcDbEntity
  8
MAIN0
  6
HIDDEN
 62
3
100
AcDbCircle
 10
651.7958961445046
 20
785.4337896060360
 30
0.0000000000000000
 40
12.00000000000000
  0
LINE
  5
526
100
AcDbEntity
  8
MAIN0
  6
HIDDEN
 62
3
100
AcDbLine
 10
643.7129923758498
 20
785.4337896060358
 30
0.0000000000000000
 11
647.7544442601774
 21
778.4337896060356
 31
0.0000000000000000
  0
LINE
  5
527
100
AcDbEntity
  8
MAIN0
  6
HIDDEN
 62
3
100
AcDbLine
 10
647.7544442601770
 20
778.4337896060363
 30
0.0000000000000000
 11
655.8373480288319
 21
778.4337896060363
 31
0.0000000000000000
  0
LINE
  5
528
100
AcDbEntity
  8
MAIN0
  6
HIDDEN
 62
3
100
AcDbLine
 10
655.8373480288324
 20
778.4337896060358
 30
0.0000000000000000
 11
659.8787999131598
 21
785.4337896060359
 31
0.0000000000000000
  0
LINE
  5
529
100
AcDbEntity
  8
MAIN0
  6
HIDDEN
 62
3
100
AcDbLine
 10
659.8787999131594
 20
785.4337896060358
 30
0.0000000000000000
 11
655.8373480288321
 21
792.4337896060357
 31
0.0000000000000000
  0
LINE
  5
52A
100
AcDbEntity
  8
MAIN0
  6
HIDDEN
 62
3
100
AcDbLine
 10
655.8373480288319
 20
792.4337896060363
 30
0.0000000000000000
 11
647.7544442601770
 21
792.4337896060363
 31
0.0000000000000000
  0
LINE
  5
52B
100
AcDbEntity
  8
MAIN0
  6
HIDDEN
 62
3
100
AcDbLine
 10
647.7544442601777
 20
792.4337896060360
 30
0.0000000000000000
 11
643.7129923758505
 21
785.4337896060363
 31
0.0000000000000000
  0
CIRCLE
  5
52C
100
AcDbEntity
  8
MAIN0
  6
HIDDEN
 62
3
100
AcDbCircle
 10
651.7958961445046
 20
850.4337896060360
 30
0.0000000000000000
 40
12.00000000000000
  0
LINE
  5
52D
100
AcDbEntity
  8
MAIN0
  6
HIDDEN
 62
3
100
AcDbLine
 10
643.7129923758500
 20
850.4337896060360
 30
0.0000000000000000
 11
647.7544442601775
 21
843.4337896060356
 31
0.0000000000000000
  0
LINE
  5
52E
100
AcDbEntity
  8
MAIN0
  6
HIDDEN
 62
3
100
AcDbLine
 10
647.7544442601771
 20
843.4337896060363
 30
0.0000000000000000
 11
655.8373480288320
 21
843.4337896060363
 31
0.0000000000000000
  0
LINE
  5
52F
100
AcDbEntity
  8
MAIN0
  6
HIDDEN
 62
3
100
AcDbLine
 10
655.8373480288325
 20
843.4337896060356
 30
0.0000000000000000
 11
659.8787999131599
 21
850.4337896060358
 31
0.0000000000000000
  0
LINE
  5
530
100
AcDbEntity
  8
MAIN0
  6
HIDDEN
 62
3
100
AcDbLine
 10
659.8787999131594
 20
850.4337896060358
 30
0.0000000000000000
 11
655.8373480288321
 21
857.4337896060357
 31
0.0000000000000000
  0
LINE
  5
531
100
AcDbEntity
  8
MAIN0
  6
HIDDEN
 62
3
100
AcDbLine
 10
655.8373480288320
 20
857.4337896060363
 30
0.0000000000000000
 11
647.7544442601771
 21
857.4337896060363
 31
0.0000000000000000
  0
LINE
  5
532
100
AcDbEntity
  8
MAIN0
  6
HIDDEN
 62
3
100
AcDbLine
 10
647.7544442601778
 20
857.4337896060358
 30
0.0000000000000000
 11
643.7129923758506
 21
850.4337896060360
 31
0.0000000000000000
  0
CIRCLE
  5
533
100
AcDbEntity
  8
MAIN0
  6
HIDDEN
 62
3
100
AcDbCircle
 10
591.7958961445046
 20
850.4337896060356
 30
0.0000000000000000
 40
12.00000000000000
  0
LINE
  5
534
100
AcDbEntity
  8
MAIN0
  6
HIDDEN
 62
3
100
AcDbLine
 10
583.7129923758494
 20
850.4337896060354
 30
0.0000000000000000
 11
587.7544442601769
 21
843.4337896060351
 31
0.0000000000000000
  0
LINE
  5
535
100
AcDbEntity
  8
MAIN0
  6
HIDDEN
 62
3
100
AcDbLine
 10
587.7544442601774
 20
843.4337896060359
 30
0.0000000000000000
 11
595.8373480288318
 21
843.4337896060358
 31
0.0000000000000000
  0
LINE
  5
536
100
AcDbEntity
  8
MAIN0
  6
HIDDEN
 62
3
100
AcDbLine
 10
595.8373480288325
 20
843.4337896060354
 30
0.0000000000000000
 11
599.8787999131599
 21
850.4337896060354
 31
0.0000000000000000
  0
LINE
  5
537
100
AcDbEntity
  8
MAIN0
  6
HIDDEN
 62
3
100
AcDbLine
 10
599.8787999131594
 20
850.4337896060356
 30
0.0000000000000000
 11
595.8373480288320
 21
857.4337896060355
 31
0.0000000000000000
  0
LINE
  5
538
100
AcDbEntity
  8
MAIN0
  6
HIDDEN
 62
3
100
AcDbLine
 10
595.8373480288318
 20
857.4337896060358
 30
0.0000000000000000
 11
587.7544442601774
 21
857.4337896060359
 31
0.0000000000000000
  0
LINE
  5
539
100
AcDbEntity
  8
MAIN0
  6
HIDDEN
 62
3
100
AcDbLine
 10
587.7544442601777
 20
857.4337896060354
 30
0.0000000000000000
 11
583.7129923758505
 21
850.4337896060357
 31
0.0000000000000000
  0
CIRCLE
  5
53A
100
AcDbEntity
  8
MAIN0
  6
HIDDEN
 62
3
100
AcDbCircle
 10
591.7958961445046
 20
785.4337896060356
 30
0.0000000000000000
 40
12.00000000000000
  0
LINE
  5
53B
100
AcDbEntity
  8
MAIN0
  6
HIDDEN
 62
3
100
AcDbLine
 10
583.7129923758494
 20
785.4337896060354
 30
0.0000000000000000
 11
587.7544442601769
 21
778.4337896060351
 31
0.0000000000000000
  0
LINE
  5
53C
100
AcDbEntity
  8
MAIN0
  6
HIDDEN
 62
3
100
AcDbLine
 10
587.7544442601773
 20
778.4337896060359
 30
0.0000000000000000
 11
595.8373480288317
 21
778.4337896060358
 31
0.0000000000000000
  0
LINE
  5
53D
100
AcDbEntity
  8
MAIN0
  6
HIDDEN
 62
3
100
AcDbLine
 10
595.8373480288321
 20
778.4337896060349
 30
0.0000000000000000
 11
599.8787999131596
 21
785.4337896060349
 31
0.0000000000000000
  0
LINE
  5
53E
100
AcDbEntity
  8
MAIN0
  6
HIDDEN
 62
3
100
AcDbLine
 10
599.8787999131589
 20
785.4337896060354
 30
0.0000000000000000
 11
595.8373480288316
 21
792.4337896060351
 31
0.0000000000000000
  0
LINE
  5
53F
100
AcDbEntity
  8
MAIN0
  6
HIDDEN
 62
3
100
AcDbLine
 10
595.8373480288317
 20
792.4337896060358
 30
0.0000000000000000
 11
587.7544442601773
 21
792.4337896060359
 31
0.0000000000000000
  0
LINE
  5
540
100
AcDbEntity
  8
MAIN0
  6
HIDDEN
 62
3
100
AcDbLine
 10
587.7544442601774
 20
792.4337896060349
 30
0.0000000000000000
 11
583.7129923758502
 21
785.4337896060354
 31
0.0000000000000000
  0
LINE
  5
541
100
AcDbEntity
  8
MAIN0
  6
CONTINUOUS
 62
3
100
AcDbLine
 10
369.7958961442743
 20
357.2171276822658
 30
0.0000000000000000
 11
369.7958961447409
 21
465.8171276766407
 31
0.0000000000000000
  0
LINE
  5
542
100
AcDbEntity
  8
MAIN0
  6
CONTINUOUS
 62
3
100
AcDbLine
 10
555.7958961442727
 20
361.8171276817406
 30
0.0000000000000000
 11
537.7958961442727
 21
361.8171276817406
 31
0.0000000000000000
  0
LINE
  5
543
100
AcDbEntity
  8
MAIN0
  6
CONTINUOUS
 62
3
100
AcDbLine
 10
555.7958961442727
 20
351.8171276817406
 30
0.0000000000000000
 11
537.7958961442727
 21
351.8171276817406
 31
0.0000000000000000
  0
LINE
  5
544
100
AcDbEntity
  8
MAIN0
  6
CENTER
 62
3
100
AcDbLine
 10
546.7958961442727
 20
370.3607211682360
 30
0.0000000000000000
 11
546.7958961442727
 21
342.8274104215142
 31
0.0000000000000000
  0
LINE
  5
545
100
AcDbEntity
  8
MAIN0
  6
CONTINUOUS
 62
3
100
AcDbLine
 10
370.1958961442738
 20
356.8171276822661
 30
0.0000000000000000
 11
537.7958961442727
 21
356.8171276817406
 31
0.0000000000000000
  0
LINE
  5
546
100
AcDbEntity
  8
MAIN0
  6
CONTINUOUS
 62
3
100
AcDbLine
 10
555.7958961442727
 20
356.8171276816839
 30
0.0000000000000000
 11
879.3958961442726
 21
356.8171276806693
 31
0.0000000000000000
  0
LINE
  5
547
100
AcDbEntity
  8
MAIN0
  6
CONTINUOUS
 62
3
100
AcDbLine
 10
879.3958961442731
 20
356.8171276806697
 30
0.0000000000000000
 11
879.7958961442748
 21
357.2171276806685
 31
0.0000000000000000
  0
LINE
  5
548
100
AcDbEntity
  8
MAIN0
  6
CONTINUOUS
 62
3
100
AcDbLine
 10
369.7958961442723
 20
357.2171276822679
 30
0.0000000000000000
 11
370.1958961442725
 21
356.8171276822676
 31
0.0000000000000000
  0
LINE
  5
549
100
AcDbEntity
  8
MAIN0
  6
CONTINUOUS
 62
3
100
AcDbLine
 10
370.7958961447451
 20
466.8171276766437
 30
0.0000000000000000
 11
369.7958961447409
 21
465.8171276766407
 31
0.0000000000000000
  0
LINE
  5
54A
100
AcDbEntity
  8
MAIN0
  6
CONTINUOUS
 62
3
100
AcDbLine
 10
537.7958961442727
 20
351.8171276817406
 30
0.0000000000000000
 11
537.7958961442727
 21
361.8171276817406
 31
0.0000000000000000
  0
LINE
  5
54B
100
AcDbEntity
  8
MAIN0
  6
CONTINUOUS
 62
3
100
AcDbLine
 10
555.7958961442727
 20
351.8171276817406
 30
0.0000000000000000
 11
555.7958961442727
 21
361.8171276817402
 31
0.0000000000000000
  0
LINE
  5
54C
100
AcDbEntity
  8
MAIN0
  6
CONTINUOUS
 62
3
100
AcDbLine
 10
370.7958961447453
 20
466.8171276766435
 30
0.0000000000000000
 11
409.7958961433872
 21
466.8171276767658
 31
0.0000000000000000
  0
LINE
  5
54D
100
AcDbEntity
  8
MAIN0
  6
CONTINUOUS
 62
3
100
AcDbLine
 10
433.7958961433871
 20
466.8171276768411
 30
0.0000000000000000
 11
670.7958961444831
 21
466.8171276775844
 31
0.0000000000000000
  0
LINE
  5
54E
100
AcDbEntity
  8
MAIN0
  6
CONTINUOUS
 62
3
100
AcDbLine
 10
670.2958961445058
 20
536.8171276769634
 30
0.0000000000000000
 11
670.7958961445057
 21
536.3171276769635
 31
0.0000000000000000
  0
LINE
  5
54F
100
AcDbEntity
  8
MAIN0
  6
CONTINUOUS
 62
3
100
AcDbLine
 10
533.7958961444591
 20
466.8171276769520
 30
0.0000000000000000
 11
570.3958961445054
 21
466.8171276769453
 31
0.0000000000000000
  0
LINE
  5
550
100
AcDbEntity
  8
MAIN0
  6
CONTINUOUS
 62
3
100
AcDbLine
 10
472.7958961445057
 20
536.6171276769637
 30
0.0000000000000000
 11
472.7958961445057
 21
467.2171276769636
 31
0.0000000000000000
  0
LINE
  5
551
100
AcDbEntity
  8
MAIN0
  6
CONTINUOUS
 62
3
100
AcDbLine
 10
572.9958961445059
 20
536.8171276769634
 30
0.0000000000000000
 11
670.2958961445058
 21
536.8171276769632
 31
0.0000000000000000
  0
LINE
  5
552
100
AcDbEntity
  8
MAIN0
  6
CONTINUOUS
 62
3
100
AcDbLine
 10
572.7958961445055
 20
536.6171276769632
 30
0.0000000000000000
 11
572.9958961445054
 21
536.8171276769632
 31
0.0000000000000000
  0
LINE
  5
553
100
AcDbEntity
  8
MAIN0
  6
CONTINUOUS
 62
3
100
AcDbLine
 10
572.7958961445057
 20
467.2171276769633
 30
0.0000000000000000
 11
572.7958961445057
 21
536.6171276769637
 31
0.0000000000000000
  0
LINE
  5
554
100
AcDbEntity
  8
MAIN0
  6
CONTINUOUS
 62
3
100
AcDbLine
 10
473.1958961445056
 20
466.8171276769636
 30
0.0000000000000000
 11
509.7958961444587
 21
466.8171276769569
 31
0.0000000000000000
  0
LINE
  5
555
100
AcDbEntity
  8
MAIN0
  6
CONTINUOUS
 62
3
100
AcDbLine
 10
930.7958961446520
 20
466.8171276795475
 30
0.0000000000000000
 11
882.7958961440299
 21
466.8171276797052
 31
0.0000000000000000
  0
LINE
  5
556
100
AcDbEntity
  8
MAIN0
  6
CONTINUOUS
 62
3
100
AcDbLine
 10
900.1134377789349
 20
386.8171276796483
 30
0.0000000000000000
 11
879.7958961445207
 21
386.8171276797150
 31
0.0000000000000000
  0
LINE
  5
557
100
AcDbEntity
  8
MAIN0
  6
CONTINUOUS
 62
3
100
AcDbLine
 10
879.7958961445206
 20
386.8171276797152
 30
0.0000000000000000
 11
879.7958961445597
 21
410.5671276797157
 31
0.0000000000000000
  0
LINE
  5
558
100
AcDbEntity
  8
MAIN0
  6
CONTINUOUS
 62
3
100
AcDbLine
 10
930.7958961446409
 20
459.8171276795475
 30
0.0000000000000000
 11
930.7958961446525
 21
466.8171276795475
 31
0.0000000000000000
  0
LINE
  5
559
100
AcDbEntity
  8
MAIN0
  6
CONTINUOUS
 62
3
100
AcDbLine
 10
879.7958961442737
 20
357.2171276806682
 30
0.0000000000000000
 11
879.7958961445543
 21
438.5171276796659
 31
0.0000000000000000
  0
LINE
  5
55A
100
AcDbEntity
  8
MAIN0
  6
CONTINUOUS
 62
3
100
AcDbLine
 10
375.8595493487703
 20
466.8171276767661
 30
0.0000000000000000
 11
371.1958961445057
 21
466.8171276767661
 31
0.0000000000000000
  0
LINE
  5
55B
100
AcDbEntity
  8
MAIN0
  6
CONTINUOUS
 62
3
100
AcDbLine
 10
370.7958961445058
 20
467.2171276767662
 30
0.0000000000000000
 11
370.7958961445057
 21
536.6171276767661
 31
0.0000000000000000
  0
LINE
  5
55C
100
AcDbEntity
  8
MAIN0
  6
CONTINUOUS
 62
3
100
AcDbLine
 10
472.7958961445057
 20
536.3171276767662
 30
0.0000000000000000
 11
472.7958961445057
 21
467.2171276767662
 31
0.0000000000000000
  0
LINE
  5
55D
100
AcDbEntity
  8
MAIN0
  6
CONTINUOUS
 62
3
100
AcDbLine
 10
472.7958961445057
 20
536.3171276767662
 30
0.0000000000000000
 11
472.7958961445057
 21
467.2171276767662
 31
0.0000000000000000
  0
LINE
  5
55E
100
AcDbEntity
  8
MAIN0
  6
CONTINUOUS
 62
3
100
AcDbLine
 10
370.9958961445055
 20
536.8171276767666
 30
0.0000000000000000
 11
472.2958961445055
 21
536.8171276767664
 31
0.0000000000000000
  0
LINE
  5
55F
100
AcDbEntity
  8
MAIN0
  6
CONTINUOUS
 62
3
100
AcDbLine
 10
370.7958961445056
 20
536.6171276767661
 30
0.0000000000000000
 11
370.9958961445057
 21
536.8171276767663
 31
0.0000000000000000
  0
LINE
  5
560
100
AcDbEntity
  8
MAIN0
  6
CONTINUOUS
 62
3
100
AcDbLine
 10
370.7958961445061
 20
467.2171276767666
 30
0.0000000000000000
 11
371.1958961445060
 21
466.8171276767666
 31
0.0000000000000000
  0
LINE
  5
561
100
AcDbEntity
  8
MAIN0
  6
CONTINUOUS
 62
3
100
AcDbLine
 10
472.2958961445061
 20
536.8171276767661
 30
0.0000000000000000
 11
472.7958961445060
 21
536.3171276767662
 31
0.0000000000000000
  0
LINE
  5
562
100
AcDbEntity
  8
MAIN0
  6
CONTINUOUS
 62
3
100
AcDbLine
 10
670.7958961444728
 20
434.5171276796336
 30
0.0000000000000000
 11
670.7958961445062
 21
536.3171276769632
 31
0.0000000000000000
  0
LINE
  5
563
100
AcDbEntity
  8
MAIN0
  6
CENTER
 62
3
100
AcDbLine
 10
430.4807457727089
 20
892.9337896060365
 30
0.0000000000000000
 11
472.7958961445061
 21
892.9337896060363
 31
0.0000000000000000
  0
LINE
  5
564
100
AcDbEntity
  8
MAIN0
  6
CENTER
 62
3
100
AcDbLine
 10
451.7958961445062
 20
873.4388389632870
 30
0.0000000000000000
 11
451.7958961445063
 21
913.8271071818620
 31
0.0000000000000000
  0
LINE
  5
565
100
AcDbEntity
  8
MAIN0
  6
CENTER
 62
3
100
AcDbLine
 10
373.6442219206361
 20
892.9337896060365
 30
0.0000000000000000
 11
412.7011259371598
 21
892.9337896060365
 31
0.0000000000000000
  0
LINE
  5
566
100
AcDbEntity
  8
MAIN0
  6
CENTER
 62
3
100
AcDbLine
 10
391.7958961445059
 20
873.4388389632868
 30
0.0000000000000000
 11
391.7958961445060
 21
913.2441557234242
 31
0.0000000000000000
  0
LINE
  5
567
100
AcDbEntity
  8
MAIN0
  6
CONTINUOUS
 62
3
100
AcDbLine
 10
955.7958961445945
 20
399.8171276797152
 30
0.0000000000000000
 11
930.7958961445950
 21
399.8171276797152
 31
0.0000000000000000
  0
LINE
  5
568
100
AcDbEntity
  8
MAIN0
  6
CONTINUOUS
 62
3
100
AcDbLine
 10
930.7958961445945
 20
466.8171276797156
 30
0.0000000000000000
 11
955.7958961445945
 21
466.8171276797156
 31
0.0000000000000000
  0
LINE
  5
569
100
AcDbEntity
  8
MAIN0
  6
CONTINUOUS
 62
3
100
AcDbLine
 10
974.7958961445941
 20
456.8171276797152
 30
0.0000000000000000
 11
955.7958961445945
 21
456.8171276797152
 31
0.0000000000000000
  0
LINE
  5
56A
100
AcDbEntity
  8
MAIN0
  6
CONTINUOUS
 62
3
100
AcDbLine
 10
974.7958961445938
 20
406.8171276797148
 30
0.0000000000000000
 11
955.7958961445947
 21
406.8171276797148
 31
0.0000000000000000
  0
LINE
  5
56B
100
AcDbEntity
  8
MAIN0
  6
CONTINUOUS
 62
3
100
AcDbLine
 10
974.7958961445945
 20
456.8171276797149
 30
0.0000000000000000
 11
974.7958961445943
 21
406.8171276797149
 31
0.0000000000000000
  0
LINE
  5
56C
100
AcDbEntity
  8
MAIN0
  6
CONTINUOUS
 62
3
100
AcDbLine
 10
930.7958961445945
 20
403.8171276797154
 30
0.0000000000000000
 11
930.7958961445945
 21
394.3171276795475
 31
0.0000000000000000
  0
LINE
  5
56D
100
AcDbEntity
  8
MAIN0
  6
CONTINUOUS
 62
3
100
AcDbLine
 10
955.7958961445945
 20
399.8171276797152
 30
0.0000000000000000
 11
955.7958961445945
 21
466.8171276797152
 31
0.0000000000000000
  0
LINE
  5
56E
100
AcDbEntity
  8
MAIN0
  6
CONTINUOUS
 62
3
100
AcDbLine
 10
930.7958961445333
 20
394.3171276795474
 30
0.0000000000000000
 11
930.7958961445947
 21
466.8171276797152
 31
0.0000000000000000
  0
LINE
  5
56F
100
AcDbEntity
  8
WAKU0
  6
CONTINUOUS
 62
3
100
AcDbLine
 10
240.0000000000000
 20
51.00000000000000
 30
0.0000000000000000
 11
410.0000000000000
 21
51.00000000000000
 31
0.0000000000000000
  0
LINE
  5
570
100
AcDbEntity
  8
WAKU0
  6
CONTINUOUS
 62
3
100
AcDbLine
 10
240.0000000000000
 20
51.00000000000000
 30
0.0000000000000000
 11
240.0000000000000
 21
12.00000000000000
 31
0.0000000000000000
  0
LINE
  5
571
100
AcDbEntity
  8
WAKU0
  6
CONTINUOUS
 62
3
100
AcDbLine
 10
312.0000000000000
 20
51.00000000000000
 30
0.0000000000000000
 11
312.0000000000000
 21
12.00000000000000
 31
0.0000000000000000
  0
LINE
  5
572
100
AcDbEntity
  8
WAKU0
  6
CONTINUOUS
 62
3
100
AcDbLine
 10
332.0000000000000
 20
51.00000000000000
 30
0.0000000000000000
 11
332.0000000000000
 21
12.00000000000000
 31
0.0000000000000000
  0
LINE
  5
573
100
AcDbEntity
  8
WAKU0
  6
CONTINUOUS
 62
3
100
AcDbLine
 10
344.0000000000000
 20
51.00000000000000
 30
0.0000000000000000
 11
344.0000000000000
 21
12.00000000000000
 31
0.0000000000000000
  0
LINE
  5
574
100
AcDbEntity
  8
WAKU0
  6
CONTINUOUS
 62
3
100
AcDbLine
 10
344.0000000000000
 20
37.00000000000000
 30
0.0000000000000000
 11
410.0000000000000
 21
37.00000000000000
 31
0.0000000000000000
  0
LINE
  5
575
100
AcDbEntity
  8
WAKU0
  6
CONTINUOUS
 62
3
100
AcDbLine
 10
332.0000000000000
 20
23.00000000000000
 30
0.0000000000000000
 11
410.0000000000000
 21
23.00000000000000
 31
0.0000000000000000
  0
LINE
  5
576
100
AcDbEntity
  8
WAKU0
  6
CONTINUOUS
 62
3
100
AcDbLine
 10
375.0000000000000
 20
51.00000000000000
 30
0.0000000000000000
 11
375.0000000000000
 21
44.00000000000000
 31
0.0000000000000000
  0
LINE
  5
577
100
AcDbEntity
  8
WAKU0
  6
CONTINUOUS
 62
3
100
AcDbLine
 10
387.0000000000000
 20
51.00000000000000
 30
0.0000000000000000
 11
387.0000000000000
 21
44.00000000000000
 31
0.0000000000000000
  0
LINE
  5
578
100
AcDbEntity
  8
WAKU0
  6
CONTINUOUS
 62
3
100
AcDbLine
 10
312.0000000000000
 20
31.50000000000000
 30
0.0000000000000000
 11
332.0000000000000
 21
31.50000000000000
 31
0.0000000000000000
  0
LINE
  5
579
100
AcDbEntity
  8
WAKU0
  6
CONTINUOUS
 62
3
100
AcDbLine
 10
332.0000000000000
 20
44.00000000000000
 30
0.0000000000000000
 11
410.0000000000000
 21
44.00000000000000
 31
0.0000000000000000
  0
LINE
  5
57A
100
AcDbEntity
  8
WAKU0
  6
CONTINUOUS
 62
3
100
AcDbLine
 10
240.0000000000000
 20
37.00000000000000
 30
0.0000000000000000
 11
312.0000000000000
 21
37.00000000000000
 31
0.0000000000000000
  0
LINE
  5
57B
100
AcDbEntity
  8
WAKU0
  6
CONTINUOUS
 62
3
100
AcDbLine
 10
240.0000000000000
 20
23.00000000000000
 30
0.0000000000000000
 11
312.0000000000000
 21
23.00000000000000
 31
0.0000000000000000
  0
LINE
  5
57C
100
AcDbEntity
  8
WAKU0
  6
CONTINUOUS
 62
3
100
AcDbLine
 10
288.0000000000000
 20
37.00000000000000
 30
0.0000000000000000
 11
288.0000000000000
 21
12.00000000000000
 31
0.0000000000000000
  0
LINE
  5
57D
100
AcDbEntity
  8
WAKU0
  6
CONTINUOUS
 62
3
100
AcDbLine
 10
264.0000000000000
 20
37.00000000000000
 30
0.0000000000000000
 11
264.0000000000000
 21
23.00000000000000
 31
0.0000000000000000
  0
LINE
  5
57E
100
AcDbEntity
  8
WAKU0
  6
CONTINUOUS
 62
3
100
AcDbLine
 10
300.0000000000000
 20
26.00000000000000
 30
0.0000000000000000
 11
300.0000000000000
 21
23.00000000000000
 31
0.0000000000000000
  0
LINE
  5
57F
100
AcDbEntity
  8
WAKU0
  6
CONTINUOUS
 62
3
100
AcDbLine
 10
276.0000000000000
 20
26.00000000000000
 30
0.0000000000000000
 11
276.0000000000000
 21
23.00000000000000
 31
0.0000000000000000
  0
LINE
  5
580
100
AcDbEntity
  8
WAKU0
  6
CONTINUOUS
 62
3
100
AcDbLine
 10
252.0000000000000
 20
26.00000000000000
 30
0.0000000000000000
 11
252.0000000000000
 21
23.00000000000000
 31
0.0000000000000000
  0
LINE
  5
581
100
AcDbEntity
  8
WAKU0
  6
CONTINUOUS
 62
3
100
AcDbLine
 10
258.0000000000000
 20
51.00000000000000
 30
0.0000000000000000
 11
258.0000000000000
 21
37.00000000000000
 31
0.0000000000000000
  0
LINE
  5
582
100
AcDbEntity
  8
WAKU0
  6
CONTINUOUS
 62
3
100
AcDbLine
 10
240.0000000000000
 20
45.00000000000000
 30
0.0000000000000000
 11
312.0000000000000
 21
45.00000000000000
 31
0.0000000000000000
  0
LINE
  5
583
100
AcDbEntity
  8
WAKU0
  6
HIDDEN
 62
3
100
AcDbLine
 10
360.5000000000000
 20
23.00000000000000
 30
0.0000000000000000
 11
360.5000000000000
 21
12.00000000000000
 31
0.0000000000000000
  0
LINE
  5
584
100
AcDbEntity
  8
WAKU0
  6
HIDDEN
 62
3
100
AcDbLine
 10
372.9000000000000
 20
23.00000000000000
 30
0.0000000000000000
 11
372.9000000000000
 21
12.00000000000000
 31
0.0000000000000000
  0
MTEXT
  5
585
100
AcDbEntity
  8
WAKU0
  6
CONTINUOUS
 62
3
100
AcDbMText
 10
344.4820000243485
 20
49.04999995231628
 30
0.0000000000000000
 40
3.099999904632568
 41
0.0000000000000000
 71
     1
 72
     1
  1
{\H0.92x;{VE200N}}
 11
1.000000000000000
 21
0.0000000000000000
 31
0.0000000000000000
  7
STANDARD
  0
MTEXT
  5
586
100
AcDbEntity
  8
WAKU0
  6
CONTINUOUS
 62
3
100
AcDbMText
 10
360.3350002765656
 20
43.50000000000000
 30
0.0000000000000000
 40
3.000000000000000
 41
0.0000000000000000
 71
     1
 72
     1
  1
{\H0.94x;{パワーバイス\PＰＯＷＥＲ　ＶＩＳＥ}}
 11
1.000000000000000
 21
0.0000000000000000
 31
0.0000000000000000
  7
KNJYOKO
  0
MTEXT
  5
587
100
AcDbEntity
  8
WAKU0
  6
CONTINUOUS
 62
3
100
AcDbMText
 10
350.3999990373850
 20
34.83333333333333
 30
0.0000000000000000
 40
4.000000000000000
 41
0.0000000000000000
 71
     1
 72
     1
  1
{\H0.59x;{ＶＥ２００Ｎ　ガイケイ\PＶＥ２００Ｎ　ＯＵＴＳＩＤＥ　ＶＩＥＷ}}
 11
1.000000000000000
 21
0.0000000000000000
 31
0.0000000000000000
  7
KNJYOKO
  0
MTEXT
  5
588
100
AcDbEntity
  8
WAKU0
  6
CONTINUOUS
 62
3
100
AcDbMText
 10
316.6099998354912
 20
39.29999995231628
 30
0.0000000000000000
 40
3.099999904632568
 41
0.0000000000000000
 71
     1
 72
     1
  1
{\H0.91x;{3:10}}
 11
1.000000000000000
 21
0.0000000000000000
 31
0.0000000000000000
  7
STANDARD
  0
MTEXT
  5
589
100
AcDbEntity
  8
WAKU0
  6
CONTINUOUS
 62
3
100
AcDbMText
 10
374.4000001549721
 20
20.15000009536743
 30
0.0000000000000000
 40
5.300000190734863
 41
0.0000000000000000
 71
     1
 72
     1
  1
{\H0.90x;{6433}}
 11
1.000000000000000
 21
0.0000000000000000
 31
0.0000000000000000
  7
STANDARD
  0
MTEXT
  5
58A
100
AcDbEntity
  8
WAKU0
  6
CONTINUOUS
 62
3
100
AcDbMText
 10
362.3000000834465
 20
20.15000009536743
 30
0.0000000000000000
 40
5.300000190734863
 41
0.0000000000000000
 71
     1
 72
     1
  1
{\H0.87x;{39}}
 11
1.000000000000000
 21
0.0000000000000000
 31
0.0000000000000000
  7
STANDARD
  0
MTEXT
  5
58B
100
AcDbEntity
  8
WAKU0
  6
CONTINUOUS
 62
3
100
AcDbMText
 10
345.5000001192093
 20
20.15000009536743
 30
0.0000000000000000
 40
5.300000190734863
 41
0.0000000000000000
 71
     1
 72
     1
  1
{\H0.89x;{61M}}
 11
1.000000000000000
 21
0.0000000000000000
 31
0.0000000000000000
  7
STANDARD
  0
MTEXT
  5
58C
100
AcDbEntity
  8
WAKU0
  6
CONTINUOUS
 62
3
100
AcDbMText
 10
400.0000000476837
 20
20.15000009536743
 30
0.0000000000000000
 40
5.300000190734863
 41
0.0000000000000000
 71
     1
 72
     1
  1
{\H0.81x;{0}}
 11
1.000000000000000
 21
0.0000000000000000
 31
0.0000000000000000
  7
STANDARD
  0
MTEXT
  5
58D
100
AcDbEntity
  8
WAKU0
  6
CONTINUOUS
 62
3
100
AcDbMText
 10
400.0000000819564
 20
44.84999990463257
 30
0.0000000000000000
 40
5.300000190734863
 41
0.0000000000000000
 71
     7
 72
     1
  1
{\H0.81x;{ }}
 11
1.000000000000000
 21
0.0000000000000000
 31
0.0000000000000000
  7
STANDARD
  0
MTEXT
  5
58E
100
AcDbEntity
  8
WAKU0
  6
CONTINUOUS
 62
3
100
AcDbMText
 10
289.3850002884865
 20
33.00000000000000
 30
0.0000000000000000
 40
3.000000000000000
 41
0.0000000000000000
 71
     7
 72
     1
  1
{\H0.93x;{DRAWN BY}}
 11
1.000000000000000
 21
0.0000000000000000
 31
0.0000000000000000
  7
STANDARD
  0
MTEXT
  5
58F
100
AcDbEntity
  8
WAKU0
  6
CONTINUOUS
 62
3
100
AcDbMText
 10
269.2149997949600
 20
32.95000004768372
 30
0.0000000000000000
 40
3.099999904632568
 41
0.0000000000000000
 71
     7
 72
     1
  1
{\H0.92x;{CHIEF}}
 11
1.000000000000000
 21
0.0000000000000000
 31
0.0000000000000000
  7
STANDARD
  0
MTEXT
  5
590
100
AcDbEntity
  8
WAKU0
  6
CONTINUOUS
 62
3
100
AcDbMText
 10
242.4249997138977
 20
32.95000004768372
 30
0.0000000000000000
 40
3.099999904632568
 41
0.0000000000000000
 71
     7
 72
     1
  1
{\H0.92x;{MANAGER}}
 11
1.000000000000000
 21
0.0000000000000000
 31
0.0000000000000000
  7
STANDARD
  0
MTEXT
  5
591
100
AcDbEntity
  8
WAKU0
  6
CONTINUOUS
 62
3
100
AcDbMText
 10
244.6599994301796
 20
18.13333336512248
 30
0.0000000000000000
 40
3.099999904632568
 41
0.0000000000000000
 71
     7
 72
     1
  1
{\H0.93x;{KITAGAWA IRON\PWORKS CO.,LTD.}}
 11
1.000000000000000
 21
0.0000000000000000
 31
0.0000000000000000
  7
STANDARD
  0
MTEXT
  5
592
100
AcDbEntity
  8
WAKU0
  6
CONTINUOUS
 62
3
100
AcDbMText
 10
241.0850002169609
 20
46.50000000000000
 30
0.0000000000000000
 40
3.000000000000000
 41
0.0000000000000000
 71
     7
 72
     1
  1
{\H0.92x;{CAREER}}
 11
1.000000000000000
 21
0.0000000000000000
 31
0.0000000000000000
  7
STANDARD
  0
MTEXT
  5
593
100
AcDbEntity
  8
WAKU0
  6
CONTINUOUS
 62
3
100
AcDbMText
 10
294.6099998354912
 20
18.95000004768372
 30
0.0000000000000000
 40
3.099999904632568
 41
0.0000000000000000
 71
     7
 72
     1
  1
{\H0.91x;{DATE}}
 11
1.000000000000000
 21
0.0000000000000000
 31
0.0000000000000000
  7
STANDARD
  0
MTEXT
  5
594
100
AcDbEntity
  8
WAKU0
  6
CONTINUOUS
 62
3
100
AcDbMText
 10
313.9000002145767
 20
26.50000000000000
 30
0.0000000000000000
 40
3.000000000000000
 41
0.0000000000000000
 71
     7
 72
     1
  1
{\H0.63x;{3RD ANGLE}}
 11
1.000000000000000
 21
0.0000000000000000
 31
0.0000000000000000
  7
STANDARD
  0
MTEXT
  5
595
100
AcDbEntity
  8
WAKU0
  6
CONTINUOUS
 62
3
100
AcDbMText
 10
315.2149997949600
 20
45.95000004768372
 30
0.0000000000000000
 40
3.099999904632568
 41
0.0000000000000000
 71
     7
 72
     1
  1
{\H0.92x;{SCALE}}
 11
1.000000000000000
 21
0.0000000000000000
 31
0.0000000000000000
  7
STANDARD
  0
MTEXT
  5
596
100
AcDbEntity
  8
WAKU0
  6
CONTINUOUS
 62
3
100
AcDbMText
 10
405.7000000476837
 20
46.00000000000000
 30
0.0000000000000000
 40
3.000000000000000
 41
0.0000000000000000
 71
     7
 72
     1
  1
{\H0.63x;{kg}}
 11
1.000000000000000
 21
0.0000000000000000
 31
0.0000000000000000
  7
STANDARD
  0
MTEXT
  5
597
100
AcDbEntity
  8
WAKU0
  6
CONTINUOUS
 62
3
100
AcDbMText
 10
375.6000001430512
 20
46.00000000000000
 30
0.0000000000000000
 40
3.000000000000000
 41
0.0000000000000000
 71
     7
 72
     1
  1
{\H0.63x;{WEIGHT}}
 11
1.000000000000000
 21
0.0000000000000000
 31
0.0000000000000000
  7
STANDARD
  0
MTEXT
  5
598
100
AcDbEntity
  8
WAKU0
  6
CONTINUOUS
 62
3
100
AcDbMText
 10
334.0049998760223
 20
18.13333336512248
 30
0.0000000000000000
 40
3.099999904632568
 41
0.0000000000000000
 71
     7
 72
     1
  1
{\H0.90x;{DRW\PNO.}}
 11
1.000000000000000
 21
0.0000000000000000
 31
0.0000000000000000
  7
STANDARD
  0
MTEXT
  5
599
100
AcDbEntity
  8
WAKU0
  6
CONTINUOUS
 62
3
100
AcDbMText
 10
332.6099998354912
 20
31.95000004768372
 30
0.0000000000000000
 40
3.099999904632568
 41
0.0000000000000000
 71
     7
 72
     1
  1
{\H0.91x;{NAME}}
 11
1.000000000000000
 21
0.0000000000000000
 31
0.0000000000000000
  7
STANDARD
  0
MTEXT
  5
59A
100
AcDbEntity
  8
WAKU0
  6
CONTINUOUS
 62
3
100
AcDbMText
 10
332.6099998354912
 20
45.95000004768372
 30
0.0000000000000000
 40
3.099999904632568
 41
0.0000000000000000
 71
     7
 72
     1
  1
{\H0.91x;{TYPE}}
 11
1.000000000000000
 21
0.0000000000000000
 31
0.0000000000000000
  7
STANDARD
  0
LINE
  5
59B
100
AcDbEntity
  8
WAKU0
  6
HIDDEN
 62
3
100
AcDbLine
 10
407.1599564743885
 20
13.84999990463257
 30
0.0000000000000000
 11
396.9400436209789
 21
13.84999990463257
 31
0.0000000000000000
  0
LINE
  5
59C
100
AcDbEntity
  8
WAKU0
  6
HIDDEN
 62
3
100
AcDbLine
 10
407.1599564743885
 20
13.84999990463250
 30
0.0000000000000000
 11
402.0500000476852
 21
22.70070406014901
 31
0.0000000000000000
  0
LINE
  5
59D
100
AcDbEntity
  8
WAKU0
  6
HIDDEN
 62
3
100
AcDbLine
 10
402.0500000476852
 20
22.70070406014902
 30
0.0000000000000000
 11
396.9400436209789
 21
13.84999990463248
 31
0.0000000000000000
  0
LINE
  5
59E
100
AcDbEntity
  8
WAKU0
  6
CONTINUOUS
 62
3
100
AcDbLine
 10
330.4713877753800
 20
15.78041421262812
 30
0.0000000000000000
 11
330.4713877753800
 21
21.78041421262815
 31
0.0000000000000000
  0
LINE
  5
59F
100
AcDbEntity
  8
WAKU0
  6
CONTINUOUS
 62
3
100
AcDbLine
 10
323.9336941228225
 20
17.28041421262811
 30
0.0000000000000000
 11
323.9336941228225
 21
20.28041421262824
 31
0.0000000000000000
  0
LINE
  5
5A0
100
AcDbEntity
  8
WAKU0
  6
CENTER
 62
12
100
AcDbLine
 10
313.4321805514995
 20
18.78041421262813
 30
0.0000000000000000
 11
331.2765788964694
 21
18.78041421262813
 31
0.0000000000000000
  0
LINE
  5
5A1
100
AcDbEntity
  8
WAKU0
  6
CENTER
 62
12
100
AcDbLine
 10
317.4474565857986
 20
14.55921662918448
 30
0.0000000000000000
 11
317.4474565857986
 21
22.89865102149943
 31
0.0000000000000000
  0
LINE
  5
5A2
100
AcDbEntity
  8
WAKU0
  6
CONTINUOUS
 62
3
100
AcDbLine
 10
323.9336941228225
 20
20.28041421262797
 30
0.0000000000000000
 11
330.4713877753800
 21
21.78041421262795
 31
0.0000000000000000
  0
LINE
  5
5A3
100
AcDbEntity
  8
WAKU0
  6
CONTINUOUS
 62
3
100
AcDbLine
 10
323.9336941228225
 20
17.28041421262811
 30
0.0000000000000000
 11
330.4713877753799
 21
15.78041421262812
 31
0.0000000000000000
  0
CIRCLE
  5
5A4
100
AcDbEntity
  8
WAKU0
  6
CONTINUOUS
 62
3
100
AcDbCircle
 10
317.4474565857986
 20
18.78041421262813
 30
0.0000000000000000
 40
1.499999999999972
  0
CIRCLE
  5
5A5
100
AcDbEntity
  8
WAKU0
  6
CONTINUOUS
 62
3
100
AcDbCircle
 10
317.4474565857986
 20
18.78041421262813
 30
0.0000000000000000
 40
2.999999999999979
  0
LINE
  5
5A6
100
AcDbEntity
  8
A0
  6
CONTINUOUS
 62
3
100
AcDbLine
 10
146.6363622020118
 20
133.1525886256661
 30
0.0000000000000000
 11
146.6363622020118
 21
18.65259089063800
 31
0.0000000000000000
  0
LINE
  5
5A7
100
AcDbEntity
  8
A0
  6
CONTINUOUS
 62
3
100
AcDbLine
 10
13.63636267880174
 20
120.4025888643994
 30
0.0000000000000000
 11
146.6363622020118
 21
120.4025888644585
 31
0.0000000000000000
  0
LINE
  5
5A8
100
AcDbEntity
  8
A0
  6
CONTINUOUS
 62
3
100
AcDbLine
 10
13.63636267880076
 20
133.1525886255482
 30
0.0000000000000000
 11
146.6363622020118
 21
133.1525886256662
 31
0.0000000000000000
  0
MTEXT
  5
5A9
100
AcDbEntity
  8
A0
  6
CONTINUOUS
 62
3
100
AcDbMText
 10
30.51136148673240
 20
130.6525886260106
 30
0.0000000000000000
 40
7.749999761581421
 41
0.0000000000000000
 71
     1
 72
     1
  1
{\H0.71x;{仕様　　SPECIFICATIONS}}
 11
1.000000000000000
 21
0.0000000000000000
 31
0.0000000000000000
  7
KNJYOKO
  0
MTEXT
  5
5AA
100
AcDbEntity
  8
A0
  6
CONTINUOUS
 62
3
100
AcDbMText
 10
102.6363612483064
 20
114.0275889833466
 30
0.0000000000000000
 40
7.749999761581421
 41
0.0000000000000000
 71
     1
 72
     1
  1
{\H0.70x;{０～３０３mm}}
 11
1.000000000000000
 21
0.0000000000000000
 31
0.0000000000000000
  7
KNJYOKO
  0
MTEXT
  5
5AB
100
AcDbEntity
  8
A0
  6
CONTINUOUS
 62
3
100
AcDbMText
 10
14.88636267881790
 20
108.9025891025558
 30
0.0000000000000000
 40
7.749999761581421
 41
0.0000000000000000
 71
     1
 72
     1
  1
{\H0.71x;{CLAMPING RANGE}}
 11
1.000000000000000
 21
0.0000000000000000
 31
0.0000000000000000
  7
STANDARD
  0
LINE
  5
5AC
100
AcDbEntity
  8
A0
  6
CONTINUOUS
 62
3
100
AcDbLine
 10
13.63636267880320
 20
99.90258934080376
 30
0.0000000000000000
 11
146.6363622020118
 21
99.90258934092165
 31
0.0000000000000000
  0
LINE
  5
5AD
100
AcDbEntity
  8
A0
  6
CONTINUOUS
 62
3
100
AcDbLine
 10
101.3863612483042
 20
120.4025888644364
 30
0.0000000000000000
 11
101.3863612483042
 21
99.90258934087710
 31
0.0000000000000000
  0
MTEXT
  5
5AE
100
AcDbEntity
  8
A0
  6
CONTINUOUS
 62
3
100
AcDbMText
 10
14.88636267881790
 20
88.40258957939300
 30
0.0000000000000000
 40
7.749999761581421
 41
0.0000000000000000
 71
     1
 72
     1
  1
{\H0.71x;{TIGHTENING TORQUE}}
 11
1.000000000000000
 21
0.0000000000000000
 31
0.0000000000000000
  7
STANDARD
  0
LINE
  5
5AF
100
AcDbEntity
  8
A0
  6
CONTINUOUS
 62
3
100
AcDbLine
 10
146.6363622020117
 20
79.40258981813285
 30
0.0000000000000000
 11
13.63636267880484
 21
79.40258981807374
 31
0.0000000000000000
  0
LINE
  5
5B0
100
AcDbEntity
  8
A0
  6
CONTINUOUS
 62
3
100
AcDbLine
 10
101.3863612483042
 20
79.40258981811068
 30
0.0000000000000000
 11
101.3863612483042
 21
18.65259089059798
 31
0.0000000000000000
  0
LINE
  5
5B1
100
AcDbEntity
  8
A0
  6
CONTINUOUS
 62
3
100
AcDbLine
 10
101.3863612483041
 20
58.90259029494799
 30
0.0000000000000000
 11
146.6363622020118
 21
58.90259029496800
 31
0.0000000000000000
  0
MTEXT
  5
5B2
100
AcDbEntity
  8
A0
  6
CONTINUOUS
 62
3
100
AcDbMText
 10
107.6363617251436
 20
57.65259029427050
 30
0.0000000000000000
 40
7.749999761581421
 41
0.0000000000000000
 71
     1
 72
     1
  1
{\H0.67x;{2}}
 11
1.000000000000000
 21
0.0000000000000000
 31
0.0000000000000000
  7
STANDARD
  0
LINE
  5
5B3
100
AcDbEntity
  8
A0
  6
CONTINUOUS
 62
3
100
AcDbLine
 10
146.6363622020117
 20
38.40259053338859
 30
0.0000000000000000
 11
13.63636267880726
 21
38.40259053332947
 31
0.0000000000000000
  0
MTEXT
  5
5B4
100
AcDbEntity
  8
A0
  6
CONTINUOUS
 62
3
100
AcDbMText
 10
107.6363617251436
 20
47.40259029464873
 30
0.0000000000000000
 40
7.749999761581421
 41
0.0000000000000000
 71
     1
 72
     1
  1
{\H0.67x;{3}}
 11
1.000000000000000
 21
0.0000000000000000
 31
0.0000000000000000
  7
STANDARD
  0
LINE
  5
5B5
100
AcDbEntity
  8
A0
  6
CONTINUOUS
 62
3
100
AcDbLine
 10
101.3863612483040
 20
69.15259005613308
 30
0.0000000000000000
 11
146.6363622020117
 21
69.15259005617321
 31
0.0000000000000000
  0
LINE
  5
5B6
100
AcDbEntity
  8
A0
  6
CONTINUOUS
 62
3
100
AcDbLine
 10
118.5351561181857
 20
79.40258981811830
 30
0.0000000000000000
 11
118.5351561181857
 21
38.40259053337631
 31
0.0000000000000000
  0
MTEXT
  5
5B7
100
AcDbEntity
  8
A0
  6
CONTINUOUS
 62
3
100
AcDbMText
 10
122.3574153703063
 20
67.90259005585101
 30
0.0000000000000000
 40
7.749999761581421
 41
0.0000000000000000
 71
     1
 72
     1
  1
{\H0.70x;{20KN}}
 11
1.000000000000000
 21
0.0000000000000000
 31
0.0000000000000000
  7
STANDARD
  0
MTEXT
  5
5B8
100
AcDbEntity
  8
A0
  6
CONTINUOUS
 62
3
100
AcDbMText
 10
122.3574153703063
 20
57.65259029426959
 30
0.0000000000000000
 40
7.749999761581421
 41
0.0000000000000000
 71
     1
 72
     1
  1
{\H0.70x;{32KN}}
 11
1.000000000000000
 21
0.0000000000000000
 31
0.0000000000000000
  7
STANDARD
  0
MTEXT
  5
5B9
100
AcDbEntity
  8
A0
  6
CONTINUOUS
 62
3
100
AcDbMText
 10
122.3574153703063
 20
47.40259029464782
 30
0.0000000000000000
 40
7.749999761581421
 41
0.0000000000000000
 71
     1
 72
     1
  1
{\H0.70x;{45KN}}
 11
1.000000000000000
 21
0.0000000000000000
 31
0.0000000000000000
  7
STANDARD
  0
MTEXT
  5
5BA
100
AcDbEntity
  8
A0
  6
CONTINUOUS
 62
3
100
AcDbMText
 10
107.6363617251436
 20
67.90259005585192
 30
0.0000000000000000
 40
7.749999761581421
 41
0.0000000000000000
 71
     1
 72
     1
  1
{\H0.67x;{1}}
 11
1.000000000000000
 21
0.0000000000000000
 31
0.0000000000000000
  7
STANDARD
  0
MTEXT
  5
5BB
100
AcDbEntity
  8
A0
  6
CONTINUOUS
 62
3
100
AcDbMText
 10
113.0151748954779
 20
32.02759065226637
 30
0.0000000000000000
 40
7.749999761581421
 41
0.0000000000000000
 71
     1
 72
     1
  1
{\H0.70x;{95kg}}
 11
1.000000000000000
 21
0.0000000000000000
 31
0.0000000000000000
  7
STANDARD
  0
MTEXT
  5
5BC
100
AcDbEntity
  8
A0
  6
CONTINUOUS
 62
3
100
AcDbMText
 10
14.88636267881790
 20
26.90259077148589
 30
0.0000000000000000
 40
6.999999880790710
 41
0.0000000000000000
 71
     1
 72
     1
  1
{\H0.67x;{MASS OF POWER VISE}}
 11
1.000000000000000
 21
0.0000000000000000
 31
0.0000000000000000
  7
STANDARD
  0
MTEXT
  5
5BD
100
AcDbEntity
  8
A0
  6
CONTINUOUS
 62
3
100
AcDbMText
 10
14.88636267881790
 20
37.15259053306731
 30
0.0000000000000000
 40
7.749999761581421
 41
0.0000000000000000
 71
     1
 72
     1
  1
{\H0.70x;{製品質量}}
 11
1.000000000000000
 21
0.0000000000000000
 31
0.0000000000000000
  7
KNJYOKO
  0
MTEXT
  5
5BE
100
AcDbEntity
  8
A0
  6
CONTINUOUS
 62
3
100
AcDbMText
 10
14.88636267881790
 20
67.90259005623015
 30
0.0000000000000000
 40
7.749999761581421
 41
0.0000000000000000
 71
     1
 72
     1
  1
{\H0.71x;{CLAMP RANGE}}
 11
1.000000000000000
 21
0.0000000000000000
 31
0.0000000000000000
  7
STANDARD
  0
MTEXT
  5
5BF
100
AcDbEntity
  8
A0
  6
CONTINUOUS
 62
3
100
AcDbMText
 10
14.88636267881790
 20
78.15258981781157
 30
0.0000000000000000
 40
7.749999761581421
 41
0.0000000000000000
 71
     1
 72
     1
  1
{\H0.70x;{締付けレンジ}}
 11
1.000000000000000
 21
0.0000000000000000
 31
0.0000000000000000
  7
KNJYOKO
  0
LINE
  5
5C0
100
AcDbEntity
  8
A0
  6
CONTINUOUS
 62
3
100
AcDbLine
 10
13.63636267880084
 20
133.1525886255478
 30
0.0000000000000000
 11
13.63636267880901
 21
18.65259089052437
 31
0.0000000000000000
  0
LINE
  5
5C1
100
AcDbEntity
  8
A0
  6
CONTINUOUS
 62
3
100
AcDbLine
 10
146.6363622020117
 20
18.65259089064267
 30
0.0000000000000000
 11
13.63636267880887
 21
18.65259089052472
 31
0.0000000000000000
  0
MTEXT
  5
5C2
100
AcDbEntity
  8
A0
  6
CONTINUOUS
 62
3
100
AcDbMText
 10
14.88636267881790
 20
98.65258934097442
 30
0.0000000000000000
 40
7.749999761581421
 41
0.0000000000000000
 71
     1
 72
     1
  1
{\H0.70x;{締付トルク}}
 11
1.000000000000000
 21
0.0000000000000000
 31
0.0000000000000000
  7
KNJYOKO
  0
MTEXT
  5
5C3
100
AcDbEntity
  8
A0
  6
CONTINUOUS
 62
3
100
AcDbMText
 10
14.88636267881790
 20
119.1525888641373
 30
0.0000000000000000
 40
7.749999761581421
 41
0.0000000000000000
 71
     1
 72
     1
  1
{\H0.70x;{口金の開き}}
 11
1.000000000000000
 21
0.0000000000000000
 31
0.0000000000000000
  7
KNJYOKO
  0
LINE
  5
5C4
100
AcDbEntity
  8
A0
  6
CONTINUOUS
 62
3
100
AcDbLine
 10
101.3863612483042
 20
48.65259029494799
 30
0.0000000000000000
 11
146.6363622020118
 21
48.65259029496800
 31
0.0000000000000000
  0
MTEXT
  5
5C5
100
AcDbEntity
  8
A0
  6
CONTINUOUS
 62
3
100
AcDbMText
 10
122.3574153703063
 20
78.15258981781066
 30
0.0000000000000000
 40
7.749999761581421
 41
0.0000000000000000
 71
     1
 72
     1
  1
{\H0.70x;{10KN}}
 11
1.000000000000000
 21
0.0000000000000000
 31
0.0000000000000000
  7
STANDARD
  0
MTEXT
  5
5C6
100
AcDbEntity
  8
A0
  6
CONTINUOUS
 62
3
100
AcDbMText
 10
107.6363617251436
 20
78.15258981781157
 30
0.0000000000000000
 40
7.749999761581421
 41
0.0000000000000000
 71
     1
 72
     1
  1
{\H0.67x;{0}}
 11
1.000000000000000
 21
0.0000000000000000
 31
0.0000000000000000
  7
STANDARD
  0
ENDSEC
  0
SECTION
  2
OBJECTS
  0
DICTIONARY
  5
626
100
AcDbDictionary
  3
ACAD_GROUP
350
627
  3
ACAD_MLINESTYLE
350
628
  3
DWGPROPS
350
629
  0
DICTIONARY
  5
627
102
{ACAD_REACTORS
330
626
102
}
100
AcDbDictionary
  0
DICTIONARY
  5
628
102
{ACAD_REACTORS
330
626
102
}
100
AcDbDictionary
  3
STANDARD
350
62A
  0
MLINESTYLE
  5
62A
102
{ACAD_REACTORS
330
628
102
}
100
AcDbMlineStyle
  2
STANDARD
 70
     0
  3

 62
   256
 51
90.00
 52
90.00
 71
     2
 49
0.50
 62
   256
  6
BYLAYER
 49
-0.50
 62
   256
  6
BYLAYER
  0
XRECORD
  5
629
102
{ACAD_REACTORS
330
626
102
}
100
AcDbXrecord
280
     1
  1
DWGPROPS COOKIE
  2
ＶＥ２００　ガイケイ
  3

  4

  6
パワーバイス
  7

  8

  9

300
=
301
=
302
=
303
=
304
=
305
=
306
=
307
=
308
=
309
=
 40
0.000000
 41
0.000000
 42
0.000000
  1

 90
        0
  0
ENDSEC
  0
EOF
