  0
SECTION
  2
HEADER
  9
$ACADVER
  1
AC1014
  9
$DWGCODEPAGE
  3
ANSI_932
  9
$LTSCALE
 40
20.0
  9
$FILLMODE
 70
     1
  9
$CLAYER
  8
0
  9
$PDMODE
 70
     0
  9
$SPLFRAME
 70
     0
  9
$SPLINETYPE
 70
     6
  9
$SPLINESEGS
 70
     8
  9
$DIMASZ
 40
2.000000
  9
$DIMEXE
 40
2.000000
  9
$DIMEXO
 40
0.800000
  9
$DIMTAD
 70
     1
  9
$DIMTIH
 70
     0
  9
$DIMTOH
 70
     0
  9
$DIMTVP
 40
0.500000
  9
$DIMTXT
 40
3.100000
  9
$EXTMIN
 10
0.000000
 20
0.000000
 30
0.000000
  9
$EXTMAX
 10
297.000000
 20
420.000000
 30
0.000000
  9
$MEASUREMENT
 70
  1
  9
$LIMMIN
 10
0.000000
 20
0.000000
  9
$LIMMAX
 10
297.000000
 20
420.000000
  9
$HANDLING
 70
     1
  9
$HANDSEED
  5
645
  9
$DIMBLK
  1
_OPEN
  9
$DIMDEC
 70
     3
  9
$DIMAUNIT
 70
     1
  9
$DIMZIN
 70
     8
  9
$DIMTOFL
 70
     1
  0
ENDSEC
  0
SECTION
  2
CLASSES
  0
ENDSEC
  0
SECTION
  2
TABLES
  0
TABLE
  2
VPORT
  5
5E1
100
AcDbSymbolTable
 70
     1
  0
VPORT
  5
5E2
100
AcDbSymbolTableRecord
100
AcDbViewportTableRecord
  2
*ACTIVE
 70
     0
 12
323.817437
 22
182.202491
 40
2340.543768
 41
1.112649
  0
ENDTAB
  0
TABLE
  2
LTYPE
  5
5E3
100
AcDbSymbolTable
 70
     3
  0
LTYPE
  5
5E4
100
AcDbSymbolTableRecord
100
AcDbLinetypeTableRecord
  2
BYBLOCK
 70
     0
  3

 72
    65
 73
     0
 40
0.0
  0
LTYPE
  5
5E5
100
AcDbSymbolTableRecord
100
AcDbLinetypeTableRecord
  2
BYLAYER
 70
     0
  3

 72
    65
 73
     0
 40
0.0
  0
LTYPE
  5
5E6
100
AcDbSymbolTableRecord
100
AcDbLinetypeTableRecord
  2
CONTINUOUS
 70
     0
  3
Solid line (NEC CAE2D for Win R12.1 : 2016.08.08)
 72
    65
 73
     0
 40
0.0
  0
LTYPE
  5
5E7
100
AcDbSymbolTableRecord
100
AcDbLinetypeTableRecord
  2
HIDDEN
 70
     0
  3
__ __ __ __ __ __ __ __ __ __ __ __ __ __
 72
    65
 73
     2
 40
0.375
 49
0.25
 74
     0
 49
-0.125
 74
     0
  0
LTYPE
  5
5E8
100
AcDbSymbolTableRecord
100
AcDbLinetypeTableRecord
  2
CENTER
 70
     0
  3
____ _ ____ _ ____ _ ____ _ ____ _ ____
 72
    65
 73
     4
 40
2.0
 49
1.25
 74
     0
 49
-0.25
 74
     0
 49
0.25
 74
     0
 49
-0.25
 74
     0
  0
ENDTAB
  0
TABLE
  2
LAYER
  5
5E9
100
AcDbSymbolTable
 70
    10
  0
LAYER
  5
5EA
100
AcDbSymbolTableRecord
100
AcDbLayerTableRecord
  2
0
 70
     0
 62
     7
  6
CONTINUOUS
  0
LAYER
  5
5EB
100
AcDbSymbolTableRecord
100
AcDbLayerTableRecord
  2
MAIN0
 70
     0
 62
     7
  6
CONTINUOUS
  0
LAYER
  5
5EC
100
AcDbSymbolTableRecord
100
AcDbLayerTableRecord
  2
MAIN1
 70
     0
 62
     7
  6
CONTINUOUS
  0
LAYER
  5
5ED
100
AcDbSymbolTableRecord
100
AcDbLayerTableRecord
  2
MAIN3
 70
     0
 62
     7
  6
CONTINUOUS
  0
LAYER
  5
5EE
100
AcDbSymbolTableRecord
100
AcDbLayerTableRecord
  2
MAIN10
 70
     0
 62
     7
  6
CONTINUOUS
  0
LAYER
  5
5EF
100
AcDbSymbolTableRecord
100
AcDbLayerTableRecord
  2
MAIN1023
 70
     0
 62
    16
  6
CONTINUOUS
  0
LAYER
  5
5F0
100
AcDbSymbolTableRecord
100
AcDbLayerTableRecord
  2
WAKU0
 70
     0
 62
     7
  6
CONTINUOUS
  0
LAYER
  5
5F1
100
AcDbSymbolTableRecord
100
AcDbLayerTableRecord
  2
WAKU1023
 70
     0
 62
    16
  6
CONTINUOUS
  0
LAYER
  5
5F2
100
AcDbSymbolTableRecord
100
AcDbLayerTableRecord
  2
A0
 70
     0
 62
     7
  6
CONTINUOUS
  0
LAYER
  5
5F3
100
AcDbSymbolTableRecord
100
AcDbLayerTableRecord
  2
A1023
 70
     0
 62
    16
  6
CONTINUOUS
  0
ENDTAB
  0
TABLE
  2
STYLE
  5
5F4
100
AcDbSymbolTable
 70
     4
  0
STYLE
  5
5F5
100
AcDbSymbolTableRecord
100
AcDbTextStyleTableRecord
  2
STANDARD
 70
    64
 40
0.0
 41
1.0
 50
0.0
 71
     0
 42
7.749999761581421
  3
TXT
  4

  0
STYLE
  5
5F6
100
AcDbSymbolTableRecord
100
AcDbTextStyleTableRecord
  2
ANKTATE
 70
    68
 40
0.0
 41
1.0
 50
0.0
 71
     0
 42
7.749999761581421
  3
TXT
  4

  0
STYLE
  5
128
100
AcDbSymbolTableRecord
100
AcDbTextStyleTableRecord
  2
KNJYOKO
 70
    64
 40
0.0
 41
1.0
 50
0.0
 71
     0
 42
7.749999761581421
  3
TXT
  4
BIGFONT
  0
STYLE
  5
5F7
100
AcDbSymbolTableRecord
100
AcDbTextStyleTableRecord
  2
KNJTATE
 70
    68
 40
0.0
 41
1.0
 50
0.0
 71
     0
 42
7.749999761581421
  3
TXT
  4
BIGFONT
  0
ENDTAB
  0
TABLE
  2
VIEW
  5
5F8
100
AcDbSymbolTable
 70
     0
  0
ENDTAB
  0
TABLE
  2
UCS
  5
5F9
100
AcDbSymbolTable
 70
     0
  0
ENDTAB
  0
TABLE
  2
APPID
  5
5FA
100
AcDbSymbolTable
 70
     1
  0
APPID
  5
5FB
100
AcDbSymbolTableRecord
100
AcDbRegAppTableRecord
  2
ACAD
 70
     0
  0
ENDTAB
  0
TABLE
  2
DIMSTYLE
  5
5FC
100
AcDbSymbolTable
 70
     1
  0
DIMSTYLE
105
5FD
100
AcDbSymbolTableRecord
100
AcDbDimStyleTableRecord
  2
STANDARD
 70
     0
 41
2.000000
 44
2.000000
 42
0.800000
145
0.661290
140
3.100000
144
1.000000
146
0.903226
340
5F5
  0
DIMSTYLE
105
5FE
100
AcDbSymbolTableRecord
100
AcDbDimStyleTableRecord
  2
MAIN001
 70
     0
 41
8.000000
 44
8.000000
 42
3.200000
145
0.540323
140
12.400000
144
1.000000
146
0.903226
 77
     1
 73
     0
 74
     0
271
     3
275
     1
 78
     8
172
     1
340
5F5
  0
DIMSTYLE
105
5FF
100
AcDbSymbolTableRecord
100
AcDbDimStyleTableRecord
  2
WAKU002
 70
     0
 41
2.000000
 44
2.000000
 42
0.800000
145
0.661290
140
3.100000
144
1.000000
146
0.903226
 77
     1
 73
     0
 74
     0
271
     3
275
     1
 78
     8
172
     1
340
5F5
  0
DIMSTYLE
105
600
100
AcDbSymbolTableRecord
100
AcDbDimStyleTableRecord
  2
A003
 70
     0
 41
5.000000
 44
5.000000
 42
2.000000
145
0.564516
140
7.750000
144
1.000000
146
0.903226
 77
     1
 73
     0
 74
     0
271
     3
275
     1
 78
     8
172
     1
340
5F5
  0
ENDTAB
  0
TABLE
  2
BLOCK_RECORD
  5
601
100
AcDbSymbolTable
 70
    68
  0
BLOCK_RECORD
  5
602
100
AcDbSymbolTableRecord
100
AcDbBlockTableRecord
  2
*MODEL_SPACE
  0
BLOCK_RECORD
  5
603
100
AcDbSymbolTableRecord
100
AcDbBlockTableRecord
  2
*PAPER_SPACE
  0
BLOCK_RECORD
  5
1
100
AcDbSymbolTableRecord
100
AcDbBlockTableRecord
  2
_NONE
  0
BLOCK_RECORD
  5
4
100
AcDbSymbolTableRecord
100
AcDbBlockTableRecord
  2
_CLOSED
  0
BLOCK_RECORD
  5
B
100
AcDbSymbolTableRecord
100
AcDbBlockTableRecord
  2
_DOT
  0
BLOCK_RECORD
  5
13
100
AcDbSymbolTableRecord
100
AcDbBlockTableRecord
  2
_OPEN
  0
BLOCK_RECORD
  5
19
100
AcDbSymbolTableRecord
100
AcDbBlockTableRecord
  2
_ORIGIN
  0
BLOCK_RECORD
  5
1E
100
AcDbSymbolTableRecord
100
AcDbBlockTableRecord
  2
_OPEN30
  0
BLOCK_RECORD
  5
24
100
AcDbSymbolTableRecord
100
AcDbBlockTableRecord
  2
_BOXFILLED
  0
BLOCK_RECORD
  5
29
100
AcDbSymbolTableRecord
100
AcDbBlockTableRecord
  2
_BOXBLANK
  0
BLOCK_RECORD
  5
31
100
AcDbSymbolTableRecord
100
AcDbBlockTableRecord
  2
_OBLIQUE
  0
BLOCK_RECORD
  5
35
100
AcDbSymbolTableRecord
100
AcDbBlockTableRecord
  2
_OPEN90
  0
BLOCK_RECORD
  5
3B
100
AcDbSymbolTableRecord
100
AcDbBlockTableRecord
  2
_CLOSEDBLANK
  0
BLOCK_RECORD
  5
41
100
AcDbSymbolTableRecord
100
AcDbBlockTableRecord
  2
_DOTBLANK
  0
BLOCK_RECORD
  5
604
100
AcDbSymbolTableRecord
100
AcDbBlockTableRecord
  2
*D0
  0
BLOCK_RECORD
  5
605
100
AcDbSymbolTableRecord
100
AcDbBlockTableRecord
  2
*D1
  0
BLOCK_RECORD
  5
606
100
AcDbSymbolTableRecord
100
AcDbBlockTableRecord
  2
*D2
  0
BLOCK_RECORD
  5
607
100
AcDbSymbolTableRecord
100
AcDbBlockTableRecord
  2
*D3
  0
BLOCK_RECORD
  5
608
100
AcDbSymbolTableRecord
100
AcDbBlockTableRecord
  2
*D4
  0
BLOCK_RECORD
  5
609
100
AcDbSymbolTableRecord
100
AcDbBlockTableRecord
  2
*D5
  0
BLOCK_RECORD
  5
60A
100
AcDbSymbolTableRecord
100
AcDbBlockTableRecord
  2
*D6
  0
BLOCK_RECORD
  5
60B
100
AcDbSymbolTableRecord
100
AcDbBlockTableRecord
  2
*D7
  0
BLOCK_RECORD
  5
60C
100
AcDbSymbolTableRecord
100
AcDbBlockTableRecord
  2
*D8
  0
BLOCK_RECORD
  5
60D
100
AcDbSymbolTableRecord
100
AcDbBlockTableRecord
  2
*D9
  0
BLOCK_RECORD
  5
60E
100
AcDbSymbolTableRecord
100
AcDbBlockTableRecord
  2
*D10
  0
BLOCK_RECORD
  5
60F
100
AcDbSymbolTableRecord
100
AcDbBlockTableRecord
  2
*D11
  0
BLOCK_RECORD
  5
610
100
AcDbSymbolTableRecord
100
AcDbBlockTableRecord
  2
*D12
  0
BLOCK_RECORD
  5
611
100
AcDbSymbolTableRecord
100
AcDbBlockTableRecord
  2
*D13
  0
BLOCK_RECORD
  5
612
100
AcDbSymbolTableRecord
100
AcDbBlockTableRecord
  2
*D14
  0
BLOCK_RECORD
  5
613
100
AcDbSymbolTableRecord
100
AcDbBlockTableRecord
  2
*D15
  0
BLOCK_RECORD
  5
614
100
AcDbSymbolTableRecord
100
AcDbBlockTableRecord
  2
*D16
  0
BLOCK_RECORD
  5
615
100
AcDbSymbolTableRecord
100
AcDbBlockTableRecord
  2
*D17
  0
BLOCK_RECORD
  5
616
100
AcDbSymbolTableRecord
100
AcDbBlockTableRecord
  2
*D18
  0
BLOCK_RECORD
  5
617
100
AcDbSymbolTableRecord
100
AcDbBlockTableRecord
  2
*D19
  0
BLOCK_RECORD
  5
618
100
AcDbSymbolTableRecord
100
AcDbBlockTableRecord
  2
*D20
  0
BLOCK_RECORD
  5
619
100
AcDbSymbolTableRecord
100
AcDbBlockTableRecord
  2
*D21
  0
BLOCK_RECORD
  5
61A
100
AcDbSymbolTableRecord
100
AcDbBlockTableRecord
  2
*D22
  0
BLOCK_RECORD
  5
61B
100
AcDbSymbolTableRecord
100
AcDbBlockTableRecord
  2
*D23
  0
BLOCK_RECORD
  5
61C
100
AcDbSymbolTableRecord
100
AcDbBlockTableRecord
  2
*D24
  0
BLOCK_RECORD
  5
61D
100
AcDbSymbolTableRecord
100
AcDbBlockTableRecord
  2
*D25
  0
BLOCK_RECORD
  5
61E
100
AcDbSymbolTableRecord
100
AcDbBlockTableRecord
  2
*D26
  0
BLOCK_RECORD
  5
61F
100
AcDbSymbolTableRecord
100
AcDbBlockTableRecord
  2
*D27
  0
BLOCK_RECORD
  5
620
100
AcDbSymbolTableRecord
100
AcDbBlockTableRecord
  2
*D28
  0
BLOCK_RECORD
  5
621
100
AcDbSymbolTableRecord
100
AcDbBlockTableRecord
  2
*D29
  0
BLOCK_RECORD
  5
622
100
AcDbSymbolTableRecord
100
AcDbBlockTableRecord
  2
*D30
  0
BLOCK_RECORD
  5
623
100
AcDbSymbolTableRecord
100
AcDbBlockTableRecord
  2
*D31
  0
BLOCK_RECORD
  5
624
100
AcDbSymbolTableRecord
100
AcDbBlockTableRecord
  2
*D32
  0
BLOCK_RECORD
  5
625
100
AcDbSymbolTableRecord
100
AcDbBlockTableRecord
  2
*D33
  0
BLOCK_RECORD
  5
626
100
AcDbSymbolTableRecord
100
AcDbBlockTableRecord
  2
*D34
  0
BLOCK_RECORD
  5
627
100
AcDbSymbolTableRecord
100
AcDbBlockTableRecord
  2
*D35
  0
BLOCK_RECORD
  5
628
100
AcDbSymbolTableRecord
100
AcDbBlockTableRecord
  2
*D36
  0
BLOCK_RECORD
  5
629
100
AcDbSymbolTableRecord
100
AcDbBlockTableRecord
  2
*D37
  0
BLOCK_RECORD
  5
62A
100
AcDbSymbolTableRecord
100
AcDbBlockTableRecord
  2
*D38
  0
BLOCK_RECORD
  5
62B
100
AcDbSymbolTableRecord
100
AcDbBlockTableRecord
  2
*D39
  0
BLOCK_RECORD
  5
62C
100
AcDbSymbolTableRecord
100
AcDbBlockTableRecord
  2
*D40
  0
BLOCK_RECORD
  5
62D
100
AcDbSymbolTableRecord
100
AcDbBlockTableRecord
  2
*D41
  0
BLOCK_RECORD
  5
62E
100
AcDbSymbolTableRecord
100
AcDbBlockTableRecord
  2
*D42
  0
BLOCK_RECORD
  5
62F
100
AcDbSymbolTableRecord
100
AcDbBlockTableRecord
  2
D43
  0
BLOCK_RECORD
  5
630
100
AcDbSymbolTableRecord
100
AcDbBlockTableRecord
  2
*D44
  0
BLOCK_RECORD
  5
631
100
AcDbSymbolTableRecord
100
AcDbBlockTableRecord
  2
*D45
  0
BLOCK_RECORD
  5
632
100
AcDbSymbolTableRecord
100
AcDbBlockTableRecord
  2
*D46
  0
BLOCK_RECORD
  5
633
100
AcDbSymbolTableRecord
100
AcDbBlockTableRecord
  2
*D47
  0
BLOCK_RECORD
  5
634
100
AcDbSymbolTableRecord
100
AcDbBlockTableRecord
  2
*D48
  0
BLOCK_RECORD
  5
635
100
AcDbSymbolTableRecord
100
AcDbBlockTableRecord
  2
*D49
  0
BLOCK_RECORD
  5
636
100
AcDbSymbolTableRecord
100
AcDbBlockTableRecord
  2
*D50
  0
BLOCK_RECORD
  5
637
100
AcDbSymbolTableRecord
100
AcDbBlockTableRecord
  2
*D51
  0
BLOCK_RECORD
  5
638
100
AcDbSymbolTableRecord
100
AcDbBlockTableRecord
  2
*D52
  0
BLOCK_RECORD
  5
639
100
AcDbSymbolTableRecord
100
AcDbBlockTableRecord
  2
*D53
  0
BLOCK_RECORD
  5
63A
100
AcDbSymbolTableRecord
100
AcDbBlockTableRecord
  2
*D54
  0
BLOCK_RECORD
  5
63B
100
AcDbSymbolTableRecord
100
AcDbBlockTableRecord
  2
*D55
  0
ENDTAB
  0
ENDSEC
  0
SECTION
  2
BLOCKS
  0
BLOCK
  5
63C
100
AcDbEntity
  8
0
100
AcDbBlockBegin
  2
*MODEL_SPACE
 70
     0
 10
0.0
 20
0.0
 30
0.0
  3
*MODEL_SPACE
  1

  0
ENDBLK
  5
63D
100
AcDbEntity
  8
0
100
AcDbBlockEnd
  0
BLOCK
  5
63E
100
AcDbEntity
  8
0
100
AcDbBlockBegin
  2
*PAPER_SPACE
 70
     0
 10
0.0
 20
0.0
 30
0.0
  3
*PAPER_SPACE
  1

  0
ENDBLK
  5
63F
100
AcDbEntity
  8
0
100
AcDbBlockEnd
  0
BLOCK
  5
2
100
AcDbEntity
  8
0
100
AcDbBlockBegin
  2
_NONE
 70
     0
 10
0.0
 20
0.0
 30
0.0
  3
_NONE
  1

  0
ENDBLK
  5
3
100
AcDbEntity
  8
0
100
AcDbBlockEnd
  0
BLOCK
  5
5
100
AcDbEntity
  8
0
100
AcDbBlockBegin
  2
_CLOSED
 70
     0
 10
0.0
 20
0.0
 30
0.0
  3
_CLOSED
  1

  0
LINE
  5
6
100
AcDbEntity
  8
0
  6
BYBLOCK
 62
     0
100
AcDbLine
 10
-1.0
 20
0.166667
 30
0.0
 11
0.0
 21
0.0
 31
0.0
  0
LINE
  5
7
100
AcDbEntity
  8
0
  6
BYBLOCK
 62
     0
100
AcDbLine
 10
0.0
 20
0.0
 30
0.0
 11
-1.0
 21
-0.166667
 31
0.0
  0
LINE
  5
8
100
AcDbEntity
  8
0
  6
BYBLOCK
 62
     0
100
AcDbLine
 10
-1.0
 20
0.166667
 30
0.0
 11
-1.0
 21
-0.166667
 31
0.0
  0
LINE
  5
9
100
AcDbEntity
  8
0
  6
BYBLOCK
 62
     0
100
AcDbLine
 10
0.0
 20
0.0
 30
0.0
 11
-1.0
 21
0.0
 31
0.0
  0
ENDBLK
  5
A
100
AcDbEntity
  8
0
100
AcDbBlockEnd
  0
BLOCK
  5
C
100
AcDbEntity
  8
0
100
AcDbBlockBegin
  2
_DOT
 70
     0
 10
0.0
 20
0.0
 30
0.0
  3
_DOT
  1

  0
POLYLINE
  5
D
100
AcDbEntity
  8
0
  6
BYBLOCK
 62
     0
100
AcDb2dPolyline
 66
     1
 10
0.0
 20
0.0
 30
0.0
 70
     1
 40
0.5
 41
0.5
  0
VERTEX
  5
E
100
AcDbEntity
  8
0
  6
BYBLOCK
 62
     0
100
AcDbVertex
100
AcDb2dVertex
 10
-0.25
 20
0.0
 30
0.0
 42
1.0
  0
VERTEX
  5
F
100
AcDbEntity
  8
0
  6
BYBLOCK
 62
     0
100
AcDbVertex
100
AcDb2dVertex
 10
0.25
 20
0.0
 30
0.0
 42
1.0
  0
SEQEND
  5
10
100
AcDbEntity
  8
0
  6
BYBLOCK
 62
     0
  0
LINE
  5
11
100
AcDbEntity
  8
0
  6
BYBLOCK
 62
     0
100
AcDbLine
 10
-0.5
 20
0.0
 30
0.0
 11
-1.0
 21
0.0
 31
0.0
  0
ENDBLK
  5
12
100
AcDbEntity
  8
0
100
AcDbBlockEnd
  0
BLOCK
  5
14
100
AcDbEntity
  8
0
100
AcDbBlockBegin
  2
_OPEN
 70
     0
 10
0.0
 20
0.0
 30
0.0
  3
_OPEN
  1

  0
LINE
  5
15
100
AcDbEntity
  8
0
  6
BYBLOCK
 62
     0
100
AcDbLine
 10
-1.0
 20
0.166667
 30
0.0
 11
0.0
 21
0.0
 31
0.0
  0
LINE
  5
16
100
AcDbEntity
  8
0
  6
BYBLOCK
 62
     0
100
AcDbLine
 10
0.0
 20
0.0
 30
0.0
 11
-1.0
 21
-0.166667
 31
0.0
  0
LINE
  5
17
100
AcDbEntity
  8
0
  6
BYBLOCK
 62
     0
100
AcDbLine
 10
0.0
 20
0.0
 30
0.0
 11
-1.0
 21
0.0
 31
0.0
  0
ENDBLK
  5
18
100
AcDbEntity
  8
0
100
AcDbBlockEnd
  0
BLOCK
  5
1A
100
AcDbEntity
  8
0
100
AcDbBlockBegin
  2
_ORIGIN
 70
     0
 10
0.0
 20
0.0
 30
0.0
  3
_ORIGIN
  1

  0
CIRCLE
  5
1B
100
AcDbEntity
  8
0
  6
BYBLOCK
 62
     0
100
AcDbCircle
 10
0.0
 20
0.0
 30
0.0
 40
0.5
  0
LINE
  5
1C
100
AcDbEntity
  8
0
  6
BYBLOCK
 62
     0
100
AcDbLine
 10
0.0
 20
0.0
 30
0.0
 11
-1.0
 21
0.0
 31
0.0
  0
ENDBLK
  5
1D
100
AcDbEntity
  8
0
100
AcDbBlockEnd
  0
BLOCK
  5
1F
100
AcDbEntity
  8
0
100
AcDbBlockBegin
  2
_OPEN30
 70
     0
 10
0.0
 20
0.0
 30
0.0
  3
_OPEN30
  1

  0
LINE
  5
20
100
AcDbEntity
  8
0
  6
BYBLOCK
 62
     0
100
AcDbLine
 10
-1.0
 20
0.267949
 30
0.0
 11
0.0
 21
0.0
 31
0.0
  0
LINE
  5
21
100
AcDbEntity
  8
0
  6
BYBLOCK
 62
     0
100
AcDbLine
 10
0.0
 20
0.0
 30
0.0
 11
-1.0
 21
-0.267949
 31
0.0
  0
LINE
  5
22
100
AcDbEntity
  8
0
  6
BYBLOCK
 62
     0
100
AcDbLine
 10
0.0
 20
0.0
 30
0.0
 11
-1.0
 21
0.0
 31
0.0
  0
ENDBLK
  5
23
100
AcDbEntity
  8
0
100
AcDbBlockEnd
  0
BLOCK
  5
25
100
AcDbEntity
  8
0
100
AcDbBlockBegin
  2
_BOXFILLED
 70
     0
 10
0.0
 20
0.0
 30
0.0
  3
_BOXFILLED
  1

  0
SOLID
  5
26
100
AcDbEntity
  8
0
  6
BYBLOCK
 62
     0
100
AcDbTrace
 10
-0.5
 20
0.5
 30
0.0
 11
0.5
 21
0.5
 31
0.0
 12
-0.5
 22
-0.5
 32
0.0
 13
0.5
 23
-0.5
 33
0.0
  0
LINE
  5
27
100
AcDbEntity
  8
0
  6
BYBLOCK
 62
     0
100
AcDbLine
 10
-0.5
 20
0.0
 30
0.0
 11
-1.0
 21
0.0
 31
0.0
  0
ENDBLK
  5
28
100
AcDbEntity
  8
0
100
AcDbBlockEnd
  0
BLOCK
  5
2A
100
AcDbEntity
  8
0
100
AcDbBlockBegin
  2
_BOXBLANK
 70
     0
 10
0.0
 20
0.0
 30
0.0
  3
_BOXBLANK
  1

  0
LINE
  5
2B
100
AcDbEntity
  8
0
  6
BYBLOCK
 62
     0
100
AcDbLine
 10
-0.5
 20
-0.5
 30
0.0
 11
0.5
 21
-0.5
 31
0.0
  0
LINE
  5
2C
100
AcDbEntity
  8
0
  6
BYBLOCK
 62
     0
100
AcDbLine
 10
0.5
 20
-0.5
 30
0.0
 11
0.5
 21
0.5
 31
0.0
  0
LINE
  5
2D
100
AcDbEntity
  8
0
  6
BYBLOCK
 62
     0
100
AcDbLine
 10
0.5
 20
0.5
 30
0.0
 11
-0.5
 21
0.5
 31
0.0
  0
LINE
  5
2E
100
AcDbEntity
  8
0
  6
BYBLOCK
 62
     0
100
AcDbLine
 10
-0.5
 20
0.5
 30
0.0
 11
-0.5
 21
-0.5
 31
0.0
  0
LINE
  5
2F
100
AcDbEntity
  8
0
  6
BYBLOCK
 62
     0
100
AcDbLine
 10
-0.5
 20
0.0
 30
0.0
 11
-1.0
 21
0.0
 31
0.0
  0
ENDBLK
  5
30
100
AcDbEntity
  8
0
100
AcDbBlockEnd
  0
BLOCK
  5
32
100
AcDbEntity
  8
0
100
AcDbBlockBegin
  2
_OBLIQUE
 70
     0
 10
0.0
 20
0.0
 30
0.0
  3
_OBLIQUE
  1

  0
LINE
  5
33
100
AcDbEntity
  8
0
  6
BYBLOCK
 62
     0
100
AcDbLine
 10
-0.5
 20
-0.5
 30
0.0
 11
0.5
 21
0.5
 31
0.0
  0
ENDBLK
  5
34
100
AcDbEntity
  8
0
100
AcDbBlockEnd
  0
BLOCK
  5
36
100
AcDbEntity
  8
0
100
AcDbBlockBegin
  2
_OPEN90
 70
     0
 10
0.0
 20
0.0
 30
0.0
  3
_OPEN90
  1

  0
LINE
  5
37
100
AcDbEntity
  8
0
  6
BYBLOCK
 62
     0
100
AcDbLine
 10
-0.5
 20
0.5
 30
0.0
 11
0.0
 21
0.0
 31
0.0
  0
LINE
  5
38
100
AcDbEntity
  8
0
  6
BYBLOCK
 62
     0
100
AcDbLine
 10
0.0
 20
0.0
 30
0.0
 11
-0.5
 21
-0.5
 31
0.0
  0
LINE
  5
39
100
AcDbEntity
  8
0
  6
BYBLOCK
 62
     0
100
AcDbLine
 10
0.0
 20
0.0
 30
0.0
 11
-1.0
 21
0.0
 31
0.0
  0
ENDBLK
  5
3A
100
AcDbEntity
  8
0
100
AcDbBlockEnd
  0
BLOCK
  5
3C
100
AcDbEntity
  8
0
100
AcDbBlockBegin
  2
_CLOSEDBLANK
 70
     0
 10
0.0
 20
0.0
 30
0.0
  3
_CLOSEDBLANK
  1

  0
LINE
  5
3D
100
AcDbEntity
  8
0
  6
BYBLOCK
 62
     0
100
AcDbLine
 10
-1.0
 20
0.1666666666666666
 30
0.0
 11
0.0
 21
0.0
 31
0.0
  0
LINE
  5
3E
100
AcDbEntity
  8
0
  6
BYBLOCK
 62
     0
100
AcDbLine
 10
0.0
 20
0.0
 30
0.0
 11
-1.0
 21
-0.1666666666666666
 31
0.0
  0
LINE
  5
3F
100
AcDbEntity
  8
0
  6
BYBLOCK
 62
     0
100
AcDbLine
 10
-1.0
 20
0.1666666666666666
 30
0.0
 11
-1.0
 21
-0.1666666666666666
 31
0.0
  0
ENDBLK
  5
40
100
AcDbEntity
  8
0
100
AcDbBlockEnd
  0
BLOCK
  5
42
100
AcDbEntity
  8
0
100
AcDbBlockBegin
  2
_DOTBLANK
 70
     0
 10
0.0
 20
0.0
 30
0.0
  3
_DOTBLANK
  1

  0
CIRCLE
  5
43
100
AcDbEntity
  8
0
  6
BYBLOCK
 62
     0
100
AcDbCircle
 10
0.0
 20
0.0
 30
0.0
 40
0.5
  0
LINE
  5
44
100
AcDbEntity
  8
0
  6
BYBLOCK
 62
     0
100
AcDbLine
 10
-0.5
 20
0.0
 30
0.0
 11
-1.0
 21
0.0
 31
0.0
  0
ENDBLK
  5
45
100
AcDbEntity
  8
0
100
AcDbBlockEnd
  0
BLOCK
  5
4A
100
AcDbEntity
  8
MAIN0
  6
CONTINUOUS
 62
3
100
AcDbBlockBegin
  2
*D0
 70
    65
 10
0.0
 20
0.0
 30
0.0
  0
LINE
  5
4B
100
AcDbEntity
  8
MAIN0
  6
BYBLOCK
 62
0
100
AcDbLine
 10
412.1794495326779
 20
600.3815010006035
 30
0.0000000000000000
 11
386.1794495809020
 21
600.3815010006033
 31
0.0000000000000000
  0
LINE
  5
4C
100
AcDbEntity
  8
MAIN0
  6
BYBLOCK
 62
0
100
AcDbLine
 10
394.1794495809019
 20
592.3815010006033
 30
0.0000000000000000
 11
394.1794495809019
 21
538.3815010006027
 31
0.0000000000000000
  0
INSERT
  5
4D
100
AcDbEntity
  8
MAIN0
  6
BYBLOCK
 62
0
100
AcDbBlockReference
  2
_OPEN
 10
394.1794495809019
 20
600.3815010006033
 30
0.0000000000000000
 41
8.000000000000000
 42
8.000000000000000
 43
8.000000000000000
 50
90.00000000000000
  0
INSERT
  5
4E
100
AcDbEntity
  8
MAIN0
  6
BYBLOCK
 62
0
100
AcDbBlockReference
  2
_OPEN
 10
394.1794495809019
 20
530.3815010006027
 30
0.0000000000000000
 41
8.000000000000000
 42
8.000000000000000
 43
8.000000000000000
 50
270.0000000000000
  0
LINE
  5
4F
100
AcDbEntity
  8
MAIN0
  6
BYBLOCK
 62
0
100
AcDbLine
 10
412.3794495326780
 20
530.3815010006027
 30
0.0000000000000000
 11
386.1794495809019
 21
530.3815010006027
 31
0.0000000000000000
  0
MTEXT
  5
50
100
AcDbEntity
  8
MAIN0
  6
BYBLOCK
 62
0
100
AcDbMText
 10
386.9794497716368
 20
553.3392833289744
 30
0.0000000000000000
 40
12.39999961853027
 41
0.0000000000000000
 71
     5
 72
     1
  1
\A1;70
 11
6.123233995736766e-017
 21
1.000000000000000
 31
0.0000000000000000
  7
STANDARD
  0
ENDBLK
  5
51
100
AcDbEntity
  8
MAIN0
  6
CONTINUOUS
 62
3
100
AcDbBlockEnd
  0
BLOCK
  5
53
100
AcDbEntity
  8
MAIN0
  6
CONTINUOUS
 62
3
100
AcDbBlockBegin
  2
*D1
 70
    65
 10
0.0
 20
0.0
 30
0.0
  0
LINE
  5
54
100
AcDbEntity
  8
MAIN0
  6
BYBLOCK
 62
0
100
AcDbLine
 10
412.3794495326780
 20
530.3815010006027
 30
0.0000000000000000
 11
386.1794495809019
 21
530.3815010006027
 31
0.0000000000000000
  0
LINE
  5
55
100
AcDbEntity
  8
MAIN0
  6
BYBLOCK
 62
0
100
AcDbLine
 10
394.1794495809019
 20
522.3815010006027
 30
0.0000000000000000
 11
394.1794495809019
 21
428.3815010061028
 31
0.0000000000000000
  0
INSERT
  5
56
100
AcDbEntity
  8
MAIN0
  6
BYBLOCK
 62
0
100
AcDbBlockReference
  2
_OPEN
 10
394.1794495809019
 20
530.3815010006027
 30
0.0000000000000000
 41
8.000000000000000
 42
8.000000000000000
 43
8.000000000000000
 50
90.00000000000000
  0
INSERT
  5
57
100
AcDbEntity
  8
MAIN0
  6
BYBLOCK
 62
0
100
AcDbBlockReference
  2
_OPEN
 10
394.1794495809019
 20
420.3815010061028
 30
0.0000000000000000
 41
8.000000000000000
 42
8.000000000000000
 43
8.000000000000000
 50
270.0000000000000
  0
LINE
  5
58
100
AcDbEntity
  8
MAIN0
  6
BYBLOCK
 62
0
100
AcDbLine
 10
411.3794495324461
 20
420.3815010061028
 30
0.0000000000000000
 11
386.1794495809019
 21
420.3815010061028
 31
0.0000000000000000
  0
MTEXT
  5
59
100
AcDbEntity
  8
MAIN0
  6
BYBLOCK
 62
0
100
AcDbMText
 10
387.4794497716368
 20
475.3815010033528
 30
0.0000000000000000
 40
12.39999961853027
 41
0.0000000000000000
 71
     5
 72
     1
  1
\A1;110
 11
6.123233995736766e-017
 21
1.000000000000000
 31
0.0000000000000000
  7
STANDARD
  0
ENDBLK
  5
5A
100
AcDbEntity
  8
MAIN0
  6
CONTINUOUS
 62
3
100
AcDbBlockEnd
  0
BLOCK
  5
5C
100
AcDbEntity
  8
MAIN0
  6
CONTINUOUS
 62
3
100
AcDbBlockBegin
  2
*D2
 70
    65
 10
0.0
 20
0.0
 30
0.0
  0
LINE
  5
5D
100
AcDbEntity
  8
MAIN0
  6
BYBLOCK
 62
0
100
AcDbLine
 10
412.1794495326778
 20
600.3815010006034
 30
0.0000000000000000
 11
366.1794495809019
 21
600.3815010006032
 31
0.0000000000000000
  0
LINE
  5
5E
100
AcDbEntity
  8
MAIN0
  6
BYBLOCK
 62
0
100
AcDbLine
 10
374.1794495809019
 20
592.3815010006032
 30
0.0000000000000000
 11
374.1794495809019
 21
428.3815010061028
 31
0.0000000000000000
  0
INSERT
  5
5F
100
AcDbEntity
  8
MAIN0
  6
BYBLOCK
 62
0
100
AcDbBlockReference
  2
_OPEN
 10
374.1794495809019
 20
600.3815010006032
 30
0.0000000000000000
 41
8.000000000000000
 42
8.000000000000000
 43
8.000000000000000
 50
90.00000000000000
  0
INSERT
  5
60
100
AcDbEntity
  8
MAIN0
  6
BYBLOCK
 62
0
100
AcDbBlockReference
  2
_OPEN
 10
374.1794495809019
 20
420.3815010061028
 30
0.0000000000000000
 41
8.000000000000000
 42
8.000000000000000
 43
8.000000000000000
 50
270.0000000000000
  0
LINE
  5
61
100
AcDbEntity
  8
MAIN0
  6
BYBLOCK
 62
0
100
AcDbLine
 10
411.3794495324461
 20
420.3815010061028
 30
0.0000000000000000
 11
366.1794495809019
 21
420.3815010061028
 31
0.0000000000000000
  0
MTEXT
  5
62
100
AcDbEntity
  8
MAIN0
  6
BYBLOCK
 62
0
100
AcDbMText
 10
367.4794497716368
 20
510.3815010033530
 30
0.0000000000000000
 40
12.39999961853027
 41
0.0000000000000000
 71
     5
 72
     1
  1
\A1;180
 11
6.123233995736766e-017
 21
1.000000000000000
 31
0.0000000000000000
  7
STANDARD
  0
ENDBLK
  5
63
100
AcDbEntity
  8
MAIN0
  6
CONTINUOUS
 62
3
100
AcDbBlockEnd
  0
BLOCK
  5
65
100
AcDbEntity
  8
MAIN0
  6
CONTINUOUS
 62
3
100
AcDbBlockBegin
  2
*D3
 70
    65
 10
0.0
 20
0.0
 30
0.0
  0
LINE
  5
66
100
AcDbEntity
  8
MAIN0
  6
BYBLOCK
 62
0
100
AcDbLine
 10
582.1794495801287
 20
412.1815009578936
 30
0.0000000000000000
 11
582.1794495801287
 21
387.3815010055769
 31
0.0000000000000000
  0
LINE
  5
67
100
AcDbEntity
  8
MAIN0
  6
BYBLOCK
 62
0
100
AcDbLine
 10
582.1794495801287
 20
395.3815010055769
 30
0.0000000000000000
 11
600.1794495801287
 21
395.3815010055769
 31
0.0000000000000000
  0
INSERT
  5
68
100
AcDbEntity
  8
MAIN0
  6
BYBLOCK
 62
0
100
AcDbBlockReference
  2
_OPEN
 10
582.1794495801287
 20
395.3815010055769
 30
0.0000000000000000
 41
8.000000000000000
 42
8.000000000000000
 43
8.000000000000000
 50
0.0000000000000000
  0
INSERT
  5
69
100
AcDbEntity
  8
MAIN0
  6
BYBLOCK
 62
0
100
AcDbBlockReference
  2
_OPEN
 10
600.1794495801287
 20
395.3815010055769
 30
0.0000000000000000
 41
8.000000000000000
 42
8.000000000000000
 43
8.000000000000000
 50
180.0000000000000
  0
LINE
  5
6A
100
AcDbEntity
  8
MAIN0
  6
BYBLOCK
 62
0
100
AcDbLine
 10
574.1794495801287
 20
395.3815010055769
 30
0.0000000000000000
 11
556.7357446701507
 21
395.3815010055769
 31
0.0000000000000000
  0
LINE
  5
6B
100
AcDbEntity
  8
MAIN0
  6
BYBLOCK
 62
0
100
AcDbLine
 10
608.1794495801287
 20
395.3815010055769
 30
0.0000000000000000
 11
612.1794495801287
 21
395.3815010055769
 31
0.0000000000000000
  0
LINE
  5
6C
100
AcDbEntity
  8
MAIN0
  6
BYBLOCK
 62
0
100
AcDbLine
 10
600.1794495801287
 20
412.1815009578936
 30
0.0000000000000000
 11
600.1794495801287
 21
387.3815010055769
 31
0.0000000000000000
  0
MTEXT
  5
6D
100
AcDbEntity
  8
MAIN0
  6
BYBLOCK
 62
0
100
AcDbMText
 10
564.9357444794158
 20
403.2481674815087
 30
0.0000000000000000
 40
12.39999961853027
 41
0.0000000000000000
 71
     5
 72
     1
  1
\A1;18
 11
1.000000000000000
 21
0.0000000000000000
 31
0.0000000000000000
  7
STANDARD
  0
ENDBLK
  5
6E
100
AcDbEntity
  8
MAIN0
  6
CONTINUOUS
 62
3
100
AcDbBlockEnd
  0
BLOCK
  5
70
100
AcDbEntity
  8
MAIN0
  6
CONTINUOUS
 62
3
100
AcDbBlockBegin
  2
*D4
 70
    65
 10
0.0
 20
0.0
 30
0.0
  0
LINE
  5
71
100
AcDbEntity
  8
MAIN0
  6
BYBLOCK
 62
0
100
AcDbLine
 10
414.1794495801303
 20
417.5815009584187
 30
0.0000000000000000
 11
414.1794495801303
 21
315.4166093396863
 31
0.0000000000000000
  0
LINE
  5
72
100
AcDbEntity
  8
MAIN0
  6
BYBLOCK
 62
0
100
AcDbLine
 10
422.1794495801303
 20
323.4166093396863
 30
0.0000000000000000
 11
583.1794495801287
 21
323.4166093396863
 31
0.0000000000000000
  0
INSERT
  5
73
100
AcDbEntity
  8
MAIN0
  6
BYBLOCK
 62
0
100
AcDbBlockReference
  2
_OPEN
 10
414.1794495801303
 20
323.4166093396863
 30
0.0000000000000000
 41
8.000000000000000
 42
8.000000000000000
 43
8.000000000000000
 50
180.0000000000000
  0
INSERT
  5
74
100
AcDbEntity
  8
MAIN0
  6
BYBLOCK
 62
0
100
AcDbBlockReference
  2
_OPEN
 10
591.1794495801287
 20
323.4166093396863
 30
0.0000000000000000
 41
8.000000000000000
 42
8.000000000000000
 43
8.000000000000000
 50
0.0000000000000000
  0
LINE
  5
75
100
AcDbEntity
  8
MAIN0
  6
BYBLOCK
 62
0
100
AcDbLine
 10
591.1794495801287
 20
403.1917836976672
 30
0.0000000000000000
 11
591.1794495801287
 21
315.4166093396863
 31
0.0000000000000000
  0
MTEXT
  5
76
100
AcDbEntity
  8
MAIN0
  6
BYBLOCK
 62
0
100
AcDbMText
 10
499.9515422527222
 20
331.6166091489514
 30
0.0000000000000000
 40
12.39999961853027
 41
0.0000000000000000
 71
     5
 72
     1
  1
\A1;177
 11
1.000000000000000
 21
0.0000000000000000
 31
0.0000000000000000
  7
STANDARD
  0
ENDBLK
  5
77
100
AcDbEntity
  8
MAIN0
  6
CONTINUOUS
 62
3
100
AcDbBlockEnd
  0
BLOCK
  5
79
100
AcDbEntity
  8
MAIN0
  6
CONTINUOUS
 62
3
100
AcDbBlockBegin
  2
*D5
 70
    65
 10
0.0
 20
0.0
 30
0.0
  0
LINE
  5
7A
100
AcDbEntity
  8
MAIN0
  6
BYBLOCK
 62
0
100
AcDbLine
 10
591.1794495801287
 20
403.1917836976672
 30
0.0000000000000000
 11
591.1794495801287
 21
315.4166093396863
 31
0.0000000000000000
  0
LINE
  5
7B
100
AcDbEntity
  8
MAIN0
  6
BYBLOCK
 62
0
100
AcDbLine
 10
599.1794495801287
 20
323.4166093396863
 30
0.0000000000000000
 11
1116.179449580450
 21
323.4166093396863
 31
0.0000000000000000
  0
INSERT
  5
7C
100
AcDbEntity
  8
MAIN0
  6
BYBLOCK
 62
0
100
AcDbBlockReference
  2
_OPEN
 10
591.1794495801287
 20
323.4166093396863
 30
0.0000000000000000
 41
8.000000000000000
 42
8.000000000000000
 43
8.000000000000000
 50
180.0000000000000
  0
INSERT
  5
7D
100
AcDbEntity
  8
MAIN0
  6
BYBLOCK
 62
0
100
AcDbBlockReference
  2
_OPEN
 10
1124.179449580450
 20
323.4166093396863
 30
0.0000000000000000
 41
8.000000000000000
 42
8.000000000000000
 43
8.000000000000000
 50
0.0000000000000000
  0
LINE
  5
7E
100
AcDbEntity
  8
MAIN0
  6
BYBLOCK
 62
0
100
AcDbLine
 10
1124.179449580450
 20
467.1815009558678
 30
0.0000000000000000
 11
1124.179449580450
 21
315.4166093396863
 31
0.0000000000000000
  0
MTEXT
  5
7F
100
AcDbEntity
  8
MAIN0
  6
BYBLOCK
 62
0
100
AcDbMText
 10
850.5876042503357
 20
331.6166091489514
 30
0.0000000000000000
 40
12.39999961853027
 41
0.0000000000000000
 71
     5
 72
     1
  1
\A1;533
 11
1.000000000000000
 21
0.0000000000000000
 31
0.0000000000000000
  7
STANDARD
  0
ENDBLK
  5
80
100
AcDbEntity
  8
MAIN0
  6
CONTINUOUS
 62
3
100
AcDbBlockEnd
  0
BLOCK
  5
82
100
AcDbEntity
  8
MAIN0
  6
CONTINUOUS
 62
3
100
AcDbBlockBegin
  2
*D6
 70
    65
 10
0.0
 20
0.0
 30
0.0
  0
LINE
  5
83
100
AcDbEntity
  8
MAIN0
  6
BYBLOCK
 62
0
100
AcDbLine
 10
1124.179449580450
 20
467.1815009558678
 30
0.0000000000000000
 11
1124.179449580450
 21
287.6138265909922
 31
0.0000000000000000
  0
LINE
  5
84
100
AcDbEntity
  8
MAIN0
  6
BYBLOCK
 62
0
100
AcDbLine
 10
1116.179449580450
 20
295.6138265909922
 30
0.0000000000000000
 11
422.1794495801303
 21
295.6138265909922
 31
0.0000000000000000
  0
INSERT
  5
85
100
AcDbEntity
  8
MAIN0
  6
BYBLOCK
 62
0
100
AcDbBlockReference
  2
_OPEN
 10
1124.179449580450
 20
295.6138265909922
 30
0.0000000000000000
 41
8.000000000000000
 42
8.000000000000000
 43
8.000000000000000
 50
360.0000000000000
  0
INSERT
  5
86
100
AcDbEntity
  8
MAIN0
  6
BYBLOCK
 62
0
100
AcDbBlockReference
  2
_OPEN
 10
414.1794495801303
 20
295.6138265909922
 30
0.0000000000000000
 41
8.000000000000000
 42
8.000000000000000
 43
8.000000000000000
 50
180.0000000000000
  0
LINE
  5
87
100
AcDbEntity
  8
MAIN0
  6
BYBLOCK
 62
0
100
AcDbLine
 10
414.1794495801303
 20
417.5815009584187
 30
0.0000000000000000
 11
414.1794495801303
 21
287.6138265909922
 31
0.0000000000000000
  0
MTEXT
  5
88
100
AcDbEntity
  8
MAIN0
  6
BYBLOCK
 62
0
100
AcDbMText
 10
747.7985279021304
 20
302.8138264002573
 30
0.0000000000000000
 40
12.39999961853027
 41
0.0000000000000000
 71
     5
 72
     1
  1
\A1;710
 11
1.000000000000000
 21
0.0000000000000000
 31
0.0000000000000000
  7
STANDARD
  0
ENDBLK
  5
89
100
AcDbEntity
  8
MAIN0
  6
CONTINUOUS
 62
3
100
AcDbBlockEnd
  0
BLOCK
  5
8B
100
AcDbEntity
  8
MAIN0
  6
CONTINUOUS
 62
3
100
AcDbBlockBegin
  2
*D7
 70
    65
 10
0.0
 20
0.0
 30
0.0
  0
LINE
  5
8C
100
AcDbEntity
  8
MAIN0
  6
BYBLOCK
 62
0
100
AcDbLine
 10
1205.741437559914
 20
773.2090733898958
 30
0.0000000000000000
 11
1147.630107064849
 21
773.2090733898958
 31
0.0000000000000000
  0
LINE
  5
8D
100
AcDbEntity
  8
MAIN0
  6
BYBLOCK
 62
0
100
AcDbLine
 10
1155.630107064849
 20
765.2090733898958
 30
0.0000000000000000
 11
1155.630107064849
 21
556.2090733898958
 31
0.0000000000000000
  0
INSERT
  5
8E
100
AcDbEntity
  8
MAIN0
  6
BYBLOCK
 62
0
100
AcDbBlockReference
  2
_OPEN
 10
1155.630107064849
 20
773.2090733898958
 30
0.0000000000000000
 41
8.000000000000000
 42
8.000000000000000
 43
8.000000000000000
 50
90.00000000000000
  0
INSERT
  5
8F
100
AcDbEntity
  8
MAIN0
  6
BYBLOCK
 62
0
100
AcDbBlockReference
  2
_OPEN
 10
1155.630107064849
 20
548.2090733898958
 30
0.0000000000000000
 41
8.000000000000000
 42
8.000000000000000
 43
8.000000000000000
 50
270.0000000000000
  0
MTEXT
  5
90
100
AcDbEntity
  8
MAIN0
  6
BYBLOCK
 62
0
100
AcDbMText
 10
1148.930107255583
 20
660.7090733898958
 30
0.0000000000000000
 40
12.39999961853027
 41
0.0000000000000000
 71
     5
 72
     1
  1
\A1;225
 11
6.123233995736766e-017
 21
1.000000000000000
 31
0.0000000000000000
  7
STANDARD
  0
ENDBLK
  5
91
100
AcDbEntity
  8
MAIN0
  6
CONTINUOUS
 62
3
100
AcDbBlockEnd
  0
BLOCK
  5
93
100
AcDbEntity
  8
MAIN0
  6
CONTINUOUS
 62
3
100
AcDbBlockBegin
  2
*D8
 70
    65
 10
0.0
 20
0.0
 30
0.0
  0
LINE
  5
94
100
AcDbEntity
  8
MAIN0
  6
BYBLOCK
 62
0
100
AcDbLine
 10
414.1794495805969
 20
532.5815010481610
 30
0.0000000000000000
 11
414.1794495805969
 21
668.3815010035578
 31
0.0000000000000000
  0
LINE
  5
95
100
AcDbEntity
  8
MAIN0
  6
BYBLOCK
 62
0
100
AcDbLine
 10
414.1794495805969
 20
660.3815010035578
 30
0.0000000000000000
 11
415.1794495803618
 21
660.3815010035578
 31
0.0000000000000000
  0
INSERT
  5
96
100
AcDbEntity
  8
MAIN0
  6
BYBLOCK
 62
0
100
AcDbBlockReference
  2
_OPEN
 10
414.1794495805969
 20
660.3815010035578
 30
0.0000000000000000
 41
8.000000000000000
 42
8.000000000000000
 43
8.000000000000000
 50
0.0000000000000000
  0
INSERT
  5
97
100
AcDbEntity
  8
MAIN0
  6
BYBLOCK
 62
0
100
AcDbBlockReference
  2
_OPEN
 10
415.1794495803618
 20
660.3815010035578
 30
0.0000000000000000
 41
8.000000000000000
 42
8.000000000000000
 43
8.000000000000000
 50
180.0000000000000
  0
LINE
  5
98
100
AcDbEntity
  8
MAIN0
  6
BYBLOCK
 62
0
100
AcDbLine
 10
406.1794495805969
 20
660.3815010035578
 30
0.0000000000000000
 11
397.9045844764708
 21
660.3815010035578
 31
0.0000000000000000
  0
LINE
  5
99
100
AcDbEntity
  8
MAIN0
  6
BYBLOCK
 62
0
100
AcDbLine
 10
423.1794495803618
 20
660.3815010035578
 30
0.0000000000000000
 11
427.1794495803618
 21
660.3815010035578
 31
0.0000000000000000
  0
LINE
  5
9A
100
AcDbEntity
  8
MAIN0
  6
BYBLOCK
 62
0
100
AcDbLine
 10
415.1794495803618
 20
603.3815010482865
 30
0.0000000000000000
 11
415.1794495803618
 21
668.3815010035578
 31
0.0000000000000000
  0
MTEXT
  5
9B
100
AcDbEntity
  8
MAIN0
  6
BYBLOCK
 62
0
100
AcDbMText
 10
401.9045844764708
 20
668.2481674794896
 30
0.0000000000000000
 40
12.39999961853027
 41
0.0000000000000000
 71
     5
 72
     1
  1
\A1;1
 11
1.000000000000000
 21
0.0000000000000000
 31
0.0000000000000000
  7
STANDARD
  0
ENDBLK
  5
9C
100
AcDbEntity
  8
MAIN0
  6
CONTINUOUS
 62
3
100
AcDbBlockEnd
  0
BLOCK
  5
9E
100
AcDbEntity
  8
MAIN0
  6
CONTINUOUS
 62
3
100
AcDbBlockBegin
  2
*D9
 70
    65
 10
0.0
 20
0.0
 30
0.0
  0
LINE
  5
9F
100
AcDbEntity
  8
MAIN0
  6
BYBLOCK
 62
0
100
AcDbLine
 10
415.1794495803618
 20
603.3815010482865
 30
0.0000000000000000
 11
415.1794495803618
 21
668.3815010035578
 31
0.0000000000000000
  0
LINE
  5
A0
100
AcDbEntity
  8
MAIN0
  6
BYBLOCK
 62
0
100
AcDbLine
 10
423.1794495803618
 20
660.3815010035578
 30
0.0000000000000000
 11
509.1794495803617
 21
660.3815010035578
 31
0.0000000000000000
  0
INSERT
  5
A1
100
AcDbEntity
  8
MAIN0
  6
BYBLOCK
 62
0
100
AcDbBlockReference
  2
_OPEN
 10
415.1794495803618
 20
660.3815010035578
 30
0.0000000000000000
 41
8.000000000000000
 42
8.000000000000000
 43
8.000000000000000
 50
180.0000000000000
  0
INSERT
  5
A2
100
AcDbEntity
  8
MAIN0
  6
BYBLOCK
 62
0
100
AcDbBlockReference
  2
_OPEN
 10
517.1794495803617
 20
660.3815010035578
 30
0.0000000000000000
 41
8.000000000000000
 42
8.000000000000000
 43
8.000000000000000
 50
0.0000000000000000
  0
LINE
  5
A3
100
AcDbEntity
  8
MAIN0
  6
BYBLOCK
 62
0
100
AcDbLine
 10
517.1794495803617
 20
603.0815010482866
 30
0.0000000000000000
 11
517.1794495803617
 21
668.3815010035578
 31
0.0000000000000000
  0
MTEXT
  5
A4
100
AcDbEntity
  8
MAIN0
  6
BYBLOCK
 62
0
100
AcDbMText
 10
466.1794495803617
 20
667.0815008128229
 30
0.0000000000000000
 40
12.39999961853027
 41
0.0000000000000000
 71
     5
 72
     1
  1
\A1;102
 11
1.000000000000000
 21
0.0000000000000000
 31
0.0000000000000000
  7
STANDARD
  0
ENDBLK
  5
A5
100
AcDbEntity
  8
MAIN0
  6
CONTINUOUS
 62
3
100
AcDbBlockEnd
  0
BLOCK
  5
A7
100
AcDbEntity
  8
MAIN0
  6
CONTINUOUS
 62
3
100
AcDbBlockBegin
  2
*D10
 70
    65
 10
0.0
 20
0.0
 30
0.0
  0
LINE
  5
A8
100
AcDbEntity
  8
MAIN0
  6
BYBLOCK
 62
0
100
AcDbLine
 10
517.1794495803617
 20
603.0815010482866
 30
0.0000000000000000
 11
517.1794495803617
 21
668.3815010035578
 31
0.0000000000000000
  0
LINE
  5
A9
100
AcDbEntity
  8
MAIN0
  6
BYBLOCK
 62
0
100
AcDbLine
 10
525.1794495803617
 20
660.3815010035578
 30
0.0000000000000000
 11
624.1794495803617
 21
660.3815010035578
 31
0.0000000000000000
  0
INSERT
  5
AA
100
AcDbEntity
  8
MAIN0
  6
BYBLOCK
 62
0
100
AcDbBlockReference
  2
_OPEN
 10
517.1794495803617
 20
660.3815010035578
 30
0.0000000000000000
 41
8.000000000000000
 42
8.000000000000000
 43
8.000000000000000
 50
180.0000000000000
  0
INSERT
  5
AB
100
AcDbEntity
  8
MAIN0
  6
BYBLOCK
 62
0
100
AcDbBlockReference
  2
_OPEN
 10
632.1794495803617
 20
660.3815010035578
 30
0.0000000000000000
 41
8.000000000000000
 42
8.000000000000000
 43
8.000000000000000
 50
0.0000000000000000
  0
LINE
  5
AC
100
AcDbEntity
  8
MAIN0
  6
BYBLOCK
 62
0
100
AcDbLine
 10
632.1794495803617
 20
594.4732631548582
 30
0.0000000000000000
 11
632.1794495803617
 21
668.3815010035578
 31
0.0000000000000000
  0
MTEXT
  5
AD
100
AcDbEntity
  8
MAIN0
  6
BYBLOCK
 62
0
100
AcDbMText
 10
574.6794495803617
 20
667.0815008128229
 30
0.0000000000000000
 40
12.39999961853027
 41
0.0000000000000000
 71
     5
 72
     1
  1
\A1;MAX 405
 11
1.000000000000000
 21
0.0000000000000000
 31
0.0000000000000000
  7
STANDARD
  0
ENDBLK
  5
AE
100
AcDbEntity
  8
MAIN0
  6
CONTINUOUS
 62
3
100
AcDbBlockEnd
  0
BLOCK
  5
B0
100
AcDbEntity
  8
MAIN0
  6
CONTINUOUS
 62
3
100
AcDbBlockBegin
  2
*D11
 70
    65
 10
0.0
 20
0.0
 30
0.0
  0
LINE
  5
B1
100
AcDbEntity
  8
MAIN0
  6
BYBLOCK
 62
0
100
AcDbLine
 10
632.1794495803617
 20
594.4732631548582
 30
0.0000000000000000
 11
632.1794495803617
 21
668.3815010035578
 31
0.0000000000000000
  0
LINE
  5
B2
100
AcDbEntity
  8
MAIN0
  6
BYBLOCK
 62
0
100
AcDbLine
 10
640.1794495803617
 20
660.3815010035578
 30
0.0000000000000000
 11
722.1794495803622
 21
660.3815010035578
 31
0.0000000000000000
  0
INSERT
  5
B3
100
AcDbEntity
  8
MAIN0
  6
BYBLOCK
 62
0
100
AcDbBlockReference
  2
_OPEN
 10
632.1794495803617
 20
660.3815010035578
 30
0.0000000000000000
 41
8.000000000000000
 42
8.000000000000000
 43
8.000000000000000
 50
180.0000000000000
  0
INSERT
  5
B4
100
AcDbEntity
  8
MAIN0
  6
BYBLOCK
 62
0
100
AcDbBlockReference
  2
_OPEN
 10
730.1794495803622
 20
660.3815010035578
 30
0.0000000000000000
 41
8.000000000000000
 42
8.000000000000000
 43
8.000000000000000
 50
0.0000000000000000
  0
LINE
  5
B5
100
AcDbEntity
  8
MAIN0
  6
BYBLOCK
 62
0
100
AcDbLine
 10
730.1794495803622
 20
603.0815010484836
 30
0.0000000000000000
 11
730.1794495803622
 21
668.3815010035578
 31
0.0000000000000000
  0
MTEXT
  5
B6
100
AcDbEntity
  8
MAIN0
  6
BYBLOCK
 62
0
100
AcDbMText
 10
681.1794495803620
 20
667.0815008128229
 30
0.0000000000000000
 40
12.39999961853027
 41
0.0000000000000000
 71
     5
 72
     1
  1
\A1;98
 11
1.000000000000000
 21
0.0000000000000000
 31
0.0000000000000000
  7
STANDARD
  0
ENDBLK
  5
B7
100
AcDbEntity
  8
MAIN0
  6
CONTINUOUS
 62
3
100
AcDbBlockEnd
  0
BLOCK
  5
B9
100
AcDbEntity
  8
MAIN0
  6
CONTINUOUS
 62
3
100
AcDbBlockBegin
  2
*D12
 70
    65
 10
0.0
 20
0.0
 30
0.0
  0
LINE
  5
BA
100
AcDbEntity
  8
MAIN0
  6
BYBLOCK
 62
0
100
AcDbLine
 10
603.3794496278124
 20
415.3815010055773
 30
0.0000000000000000
 11
654.6067196665210
 21
415.3815010055773
 31
0.0000000000000000
  0
LINE
  5
BB
100
AcDbEntity
  8
MAIN0
  6
BYBLOCK
 62
0
100
AcDbLine
 10
646.6067196665210
 20
415.3815010055773
 30
0.0000000000000000
 11
646.6067196665210
 21
420.3815010053858
 31
0.0000000000000000
  0
INSERT
  5
BC
100
AcDbEntity
  8
MAIN0
  6
BYBLOCK
 62
0
100
AcDbBlockReference
  2
_OPEN
 10
646.6067196665210
 20
415.3815010055773
 30
0.0000000000000000
 41
8.000000000000000
 42
8.000000000000000
 43
8.000000000000000
 50
90.00000000000000
  0
INSERT
  5
BD
100
AcDbEntity
  8
MAIN0
  6
BYBLOCK
 62
0
100
AcDbBlockReference
  2
_OPEN
 10
646.6067196665210
 20
420.3815010053858
 30
0.0000000000000000
 41
8.000000000000000
 42
8.000000000000000
 43
8.000000000000000
 50
270.0000000000000
  0
LINE
  5
BE
100
AcDbEntity
  8
MAIN0
  6
BYBLOCK
 62
0
100
AcDbLine
 10
646.6067196665210
 20
407.3815010055773
 30
0.0000000000000000
 11
646.6067196665210
 21
398.3353083669589
 31
0.0000000000000000
  0
LINE
  5
BF
100
AcDbEntity
  8
MAIN0
  6
BYBLOCK
 62
0
100
AcDbLine
 10
646.6067196665210
 20
428.3815010053858
 30
0.0000000000000000
 11
646.6067196665210
 21
432.3815010053858
 31
0.0000000000000000
  0
MTEXT
  5
C0
100
AcDbEntity
  8
MAIN0
  6
BYBLOCK
 62
0
100
AcDbMText
 10
638.7400531905893
 20
402.3353083669589
 30
0.0000000000000000
 40
12.39999961853027
 41
0.0000000000000000
 71
     5
 72
     1
  1
\A1;5
 11
6.123233995736766e-017
 21
1.000000000000000
 31
0.0000000000000000
  7
STANDARD
  0
ENDBLK
  5
C1
100
AcDbEntity
  8
MAIN0
  6
CONTINUOUS
 62
3
100
AcDbBlockEnd
  0
BLOCK
  5
C3
100
AcDbEntity
  8
MAIN0
  6
CONTINUOUS
 62
3
100
AcDbBlockBegin
  2
*D13
 70
    65
 10
0.0
 20
0.0
 30
0.0
  0
LINE
  5
C4
100
AcDbEntity
  8
MAIN0
  6
BYBLOCK
 62
0
100
AcDbLine
 10
466.1794495792626
 20
603.5815010482863
 30
0.0000000000000000
 11
466.1794495792626
 21
648.3815010035578
 31
0.0000000000000000
  0
LINE
  5
C5
100
AcDbEntity
  8
MAIN0
  6
BYBLOCK
 62
0
100
AcDbLine
 10
474.1794495792626
 20
640.3815010035578
 30
0.0000000000000000
 11
509.1794495803617
 21
640.3815010035578
 31
0.0000000000000000
  0
INSERT
  5
C6
100
AcDbEntity
  8
MAIN0
  6
BYBLOCK
 62
0
100
AcDbBlockReference
  2
_OPEN
 10
466.1794495792626
 20
640.3815010035578
 30
0.0000000000000000
 41
8.000000000000000
 42
8.000000000000000
 43
8.000000000000000
 50
180.0000000000000
  0
INSERT
  5
C7
100
AcDbEntity
  8
MAIN0
  6
BYBLOCK
 62
0
100
AcDbBlockReference
  2
_OPEN
 10
517.1794495803617
 20
640.3815010035578
 30
0.0000000000000000
 41
8.000000000000000
 42
8.000000000000000
 43
8.000000000000000
 50
0.0000000000000000
  0
LINE
  5
C8
100
AcDbEntity
  8
MAIN0
  6
BYBLOCK
 62
0
100
AcDbLine
 10
517.1794495803617
 20
603.0815010482866
 30
0.0000000000000000
 11
517.1794495803617
 21
648.3815010035578
 31
0.0000000000000000
  0
MTEXT
  5
C9
100
AcDbEntity
  8
MAIN0
  6
BYBLOCK
 62
0
100
AcDbMText
 10
491.6794495798122
 20
647.0815008128229
 30
0.0000000000000000
 40
12.39999961853027
 41
0.0000000000000000
 71
     5
 72
     1
  1
\A1;51
 11
1.000000000000000
 21
0.0000000000000000
 31
0.0000000000000000
  7
STANDARD
  0
ENDBLK
  5
CA
100
AcDbEntity
  8
MAIN0
  6
CONTINUOUS
 62
3
100
AcDbBlockEnd
  0
BLOCK
  5
CC
100
AcDbEntity
  8
MAIN0
  6
CONTINUOUS
 62
3
100
AcDbBlockBegin
  2
*D14
 70
    65
 10
0.0
 20
0.0
 30
0.0
  0
LINE
  5
CD
100
AcDbEntity
  8
MAIN0
  6
BYBLOCK
 62
0
100
AcDbLine
 10
496.1794495792622
 20
600.3815010006031
 30
0.0000000000000000
 11
496.1794495792622
 21
591.3815010006026
 31
0.0000000000000000
  0
INSERT
  5
CE
100
AcDbEntity
  8
MAIN0
  6
BYBLOCK
 62
0
100
AcDbBlockReference
  2
_OPEN
 10
496.1794495792622
 20
600.3815010006031
 30
0.0000000000000000
 41
8.000000000000000
 42
8.000000000000000
 43
8.000000000000000
 50
270.0000000000000
  0
INSERT
  5
CF
100
AcDbEntity
  8
MAIN0
  6
BYBLOCK
 62
0
100
AcDbBlockReference
  2
_DOT
 10
496.1794495792622
 20
590.3815010006026
 30
0.0000000000000000
 41
4.000000000000000
 42
4.000000000000000
 43
4.000000000000000
 50
270.0000000000000
  0
LINE
  5
D0
100
AcDbEntity
  8
MAIN0
  6
BYBLOCK
 62
0
100
AcDbLine
 10
496.1794495792622
 20
608.3815010006031
 30
0.0000000000000000
 11
496.1794495792622
 21
624.2691784637602
 31
0.0000000000000000
  0
LINE
  5
D1
100
AcDbEntity
  8
MAIN0
  6
BYBLOCK
 62
0
100
AcDbLine
 10
479.3794496269463
 20
590.3815010006026
 30
0.0000000000000000
 11
504.1794495792622
 21
590.3815010006026
 31
0.0000000000000000
  0
MTEXT
  5
D2
100
AcDbEntity
  8
MAIN0
  6
BYBLOCK
 62
0
100
AcDbMText
 10
488.3127831033303
 20
616.0691786544951
 30
0.0000000000000000
 40
12.39999961853027
 41
0.0000000000000000
 71
     5
 72
     1
  1
\A1;10
 11
6.123233995736766e-017
 21
1.000000000000000
 31
0.0000000000000000
  7
STANDARD
  0
ENDBLK
  5
D3
100
AcDbEntity
  8
MAIN0
  6
CONTINUOUS
 62
3
100
AcDbBlockEnd
  0
BLOCK
  5
D5
100
AcDbEntity
  8
MAIN0
  6
CONTINUOUS
 62
3
100
AcDbBlockBegin
  2
*D15
 70
    65
 10
0.0
 20
0.0
 30
0.0
  0
LINE
  5
D6
100
AcDbEntity
  8
MAIN0
  6
BYBLOCK
 62
0
100
AcDbLine
 10
479.3794496269463
 20
590.3815010006026
 30
0.0000000000000000
 11
504.1794495792622
 21
590.3815010006026
 31
0.0000000000000000
  0
LINE
  5
D7
100
AcDbEntity
  8
MAIN0
  6
BYBLOCK
 62
0
100
AcDbLine
 10
496.1794495792622
 20
589.3815010006026
 30
0.0000000000000000
 11
496.1794495792622
 21
570.3815010006027
 31
0.0000000000000000
  0
INSERT
  5
D8
100
AcDbEntity
  8
MAIN0
  6
BYBLOCK
 62
0
100
AcDbBlockReference
  2
_DOT
 10
496.1794495792622
 20
590.3815010006026
 30
0.0000000000000000
 41
4.000000000000000
 42
4.000000000000000
 43
4.000000000000000
 50
90.00000000000000
  0
INSERT
  5
D9
100
AcDbEntity
  8
MAIN0
  6
BYBLOCK
 62
0
100
AcDbBlockReference
  2
_OPEN
 10
496.1794495792622
 20
570.3815010006027
 30
0.0000000000000000
 41
8.000000000000000
 42
8.000000000000000
 43
8.000000000000000
 50
90.00000000000000
  0
LINE
  5
DA
100
AcDbEntity
  8
MAIN0
  6
BYBLOCK
 62
0
100
AcDbLine
 10
496.1794495792622
 20
562.3815010006027
 30
0.0000000000000000
 11
496.1794495792622
 21
558.3815010006027
 31
0.0000000000000000
  0
LINE
  5
DB
100
AcDbEntity
  8
MAIN0
  6
BYBLOCK
 62
0
100
AcDbLine
 10
479.3794496269463
 20
570.3815010006027
 30
0.0000000000000000
 11
504.1794495792622
 21
570.3815010006027
 31
0.0000000000000000
  0
MTEXT
  5
DC
100
AcDbEntity
  8
MAIN0
  6
BYBLOCK
 62
0
100
AcDbMText
 10
489.4794497699970
 20
580.3815010006026
 30
0.0000000000000000
 40
12.39999961853027
 41
0.0000000000000000
 71
     5
 72
     1
  1
\A1;20
 11
6.123233995736766e-017
 21
1.000000000000000
 31
0.0000000000000000
  7
STANDARD
  0
ENDBLK
  5
DD
100
AcDbEntity
  8
MAIN0
  6
CONTINUOUS
 62
3
100
AcDbBlockEnd
  0
BLOCK
  5
DF
100
AcDbEntity
  8
MAIN0
  6
CONTINUOUS
 62
3
100
AcDbBlockBegin
  2
*D16
 70
    65
 10
0.0
 20
0.0
 30
0.0
  0
LINE
  5
E0
100
AcDbEntity
  8
MAIN0
  6
BYBLOCK
 62
0
100
AcDbLine
 10
422.1794495801303
 20
455.3815010032282
 30
0.0000000000000000
 11
521.1794495803949
 21
455.3815010032282
 31
0.0000000000000000
  0
INSERT
  5
E1
100
AcDbEntity
  8
MAIN0
  6
BYBLOCK
 62
0
100
AcDbBlockReference
  2
_OPEN
 10
414.1794495801303
 20
455.3815010032282
 30
0.0000000000000000
 41
8.000000000000000
 42
8.000000000000000
 43
8.000000000000000
 50
180.0000000000000
  0
INSERT
  5
E2
100
AcDbEntity
  8
MAIN0
  6
BYBLOCK
 62
0
100
AcDbBlockReference
  2
_OPEN
 10
529.1794495803949
 20
455.3815010032282
 30
0.0000000000000000
 41
8.000000000000000
 42
8.000000000000000
 43
8.000000000000000
 50
0.0000000000000000
  0
LINE
  5
E3
100
AcDbEntity
  8
MAIN0
  6
BYBLOCK
 62
0
100
AcDbLine
 10
529.1794495803949
 20
460.6815009586960
 30
0.0000000000000000
 11
529.1794495803949
 21
447.3815010032282
 31
0.0000000000000000
  0
MTEXT
  5
E4
100
AcDbEntity
  8
MAIN0
  6
BYBLOCK
 62
0
100
AcDbMText
 10
471.6794495802626
 20
462.0815008124934
 30
0.0000000000000000
 40
12.39999961853027
 41
0.0000000000000000
 71
     5
 72
     1
  1
\A1;115
 11
1.000000000000000
 21
0.0000000000000000
 31
0.0000000000000000
  7
STANDARD
  0
ENDBLK
  5
E5
100
AcDbEntity
  8
MAIN0
  6
CONTINUOUS
 62
3
100
AcDbBlockEnd
  0
BLOCK
  5
E7
100
AcDbEntity
  8
MAIN0
  6
CONTINUOUS
 62
3
100
AcDbBlockBegin
  2
*D17
 70
    65
 10
0.0
 20
0.0
 30
0.0
  0
LINE
  5
E8
100
AcDbEntity
  8
MAIN0
  6
BYBLOCK
 62
0
100
AcDbLine
 10
529.1794495803949
 20
460.6815009586960
 30
0.0000000000000000
 11
529.1794495803949
 21
447.3815010032282
 31
0.0000000000000000
  0
LINE
  5
E9
100
AcDbEntity
  8
MAIN0
  6
BYBLOCK
 62
0
100
AcDbLine
 10
537.1794495803949
 20
455.3815010032282
 30
0.0000000000000000
 11
906.1794495803947
 21
455.3815010032282
 31
0.0000000000000000
  0
INSERT
  5
EA
100
AcDbEntity
  8
MAIN0
  6
BYBLOCK
 62
0
100
AcDbBlockReference
  2
_OPEN
 10
529.1794495803949
 20
455.3815010032282
 30
0.0000000000000000
 41
8.000000000000000
 42
8.000000000000000
 43
8.000000000000000
 50
180.0000000000000
  0
INSERT
  5
EB
100
AcDbEntity
  8
MAIN0
  6
BYBLOCK
 62
0
100
AcDbBlockReference
  2
_OPEN
 10
914.1794495803947
 20
455.3815010032282
 30
0.0000000000000000
 41
8.000000000000000
 42
8.000000000000000
 43
8.000000000000000
 50
0.0000000000000000
  0
LINE
  5
EC
100
AcDbEntity
  8
MAIN0
  6
BYBLOCK
 62
0
100
AcDbLine
 10
914.1794495803947
 20
460.6815009582570
 30
0.0000000000000000
 11
914.1794495803947
 21
447.3815010032282
 31
0.0000000000000000
  0
MTEXT
  5
ED
100
AcDbEntity
  8
MAIN0
  6
BYBLOCK
 62
0
100
AcDbMText
 10
721.6794495803948
 20
462.0815008124934
 30
0.0000000000000000
 40
12.39999961853027
 41
0.0000000000000000
 71
     5
 72
     1
  1
\A1;385
 11
1.000000000000000
 21
0.0000000000000000
 31
0.0000000000000000
  7
STANDARD
  0
ENDBLK
  5
EE
100
AcDbEntity
  8
MAIN0
  6
CONTINUOUS
 62
3
100
AcDbBlockEnd
  0
BLOCK
  5
F0
100
AcDbEntity
  8
MAIN0
  6
CONTINUOUS
 62
3
100
AcDbBlockBegin
  2
*D18
 70
    65
 10
0.0
 20
0.0
 30
0.0
  0
LINE
  5
F1
100
AcDbEntity
  8
MAIN0
  6
BYBLOCK
 62
0
100
AcDbLine
 10
914.1794495803947
 20
460.6815009582570
 30
0.0000000000000000
 11
914.1794495803947
 21
447.3815010032282
 31
0.0000000000000000
  0
LINE
  5
F2
100
AcDbEntity
  8
MAIN0
  6
BYBLOCK
 62
0
100
AcDbLine
 10
922.1794495803947
 20
455.3815010032282
 30
0.0000000000000000
 11
1021.179449580130
 21
455.3815010032282
 31
0.0000000000000000
  0
INSERT
  5
F3
100
AcDbEntity
  8
MAIN0
  6
BYBLOCK
 62
0
100
AcDbBlockReference
  2
_OPEN
 10
914.1794495803947
 20
455.3815010032282
 30
0.0000000000000000
 41
8.000000000000000
 42
8.000000000000000
 43
8.000000000000000
 50
180.0000000000000
  0
INSERT
  5
F4
100
AcDbEntity
  8
MAIN0
  6
BYBLOCK
 62
0
100
AcDbBlockReference
  2
_OPEN
 10
1029.179449580130
 20
455.3815010032282
 30
0.0000000000000000
 41
8.000000000000000
 42
8.000000000000000
 43
8.000000000000000
 50
0.0000000000000000
  0
MTEXT
  5
F5
100
AcDbEntity
  8
MAIN0
  6
BYBLOCK
 62
0
100
AcDbMText
 10
971.6794495802623
 20
462.0815008124934
 30
0.0000000000000000
 40
12.39999961853027
 41
0.0000000000000000
 71
     5
 72
     1
  1
\A1;115
 11
1.000000000000000
 21
0.0000000000000000
 31
0.0000000000000000
  7
STANDARD
  0
ENDBLK
  5
F6
100
AcDbEntity
  8
MAIN0
  6
CONTINUOUS
 62
3
100
AcDbBlockEnd
  0
BLOCK
  5
113
100
AcDbEntity
  8
MAIN0
  6
CONTINUOUS
 62
3
100
AcDbBlockBegin
  2
*D19
 70
    65
 10
0.0
 20
0.0
 30
0.0
  0
LINE
  5
114
100
AcDbEntity
  8
MAIN0
  6
BYBLOCK
 62
0
100
AcDbLine
 10
1510.418743696073
 20
502.6229529355683
 30
0.0000000000000000
 11
1510.418743696073
 21
642.5150291840995
 31
0.0000000000000000
  0
LINE
  5
115
100
AcDbEntity
  8
MAIN0
  6
BYBLOCK
 62
0
100
AcDbLine
 10
1510.418743696073
 20
634.5150291840995
 30
0.0000000000000000
 11
1524.418743696074
 21
634.5150291840995
 31
0.0000000000000000
  0
INSERT
  5
116
100
AcDbEntity
  8
MAIN0
  6
BYBLOCK
 62
0
100
AcDbBlockReference
  2
_OPEN
 10
1510.418743696073
 20
634.5150291840995
 30
0.0000000000000000
 41
8.000000000000000
 42
8.000000000000000
 43
8.000000000000000
 50
0.0000000000000000
  0
INSERT
  5
117
100
AcDbEntity
  8
MAIN0
  6
BYBLOCK
 62
0
100
AcDbBlockReference
  2
_OPEN
 10
1524.418743696074
 20
634.5150291840995
 30
0.0000000000000000
 41
8.000000000000000
 42
8.000000000000000
 43
8.000000000000000
 50
180.0000000000000
  0
LINE
  5
118
100
AcDbEntity
  8
MAIN0
  6
BYBLOCK
 62
0
100
AcDbLine
 10
1502.418743696073
 20
634.5150291840995
 30
0.0000000000000000
 11
1498.418743696073
 21
634.5150291840995
 31
0.0000000000000000
  0
LINE
  5
119
100
AcDbEntity
  8
MAIN0
  6
BYBLOCK
 62
0
100
AcDbLine
 10
1532.418743696074
 20
634.5150291840995
 30
0.0000000000000000
 11
1536.418743696074
 21
634.5150291840995
 31
0.0000000000000000
  0
LINE
  5
11A
100
AcDbEntity
  8
MAIN0
  6
BYBLOCK
 62
0
100
AcDbLine
 10
1524.418743696074
 20
502.6229529355693
 30
0.0000000000000000
 11
1524.418743696074
 21
642.5150291840995
 31
0.0000000000000000
  0
MTEXT
  5
11B
100
AcDbEntity
  8
MAIN0
  6
BYBLOCK
 62
0
100
AcDbMText
 10
1517.418743696073
 20
641.2150289933646
 30
0.0000000000000000
 40
12.39999961853027
 41
0.0000000000000000
 71
     5
 72
     1
  1
\A1;14
 11
1.000000000000000
 21
0.0000000000000000
 31
0.0000000000000000
  7
STANDARD
  0
ENDBLK
  5
11C
100
AcDbEntity
  8
MAIN0
  6
CONTINUOUS
 62
3
100
AcDbBlockEnd
  0
BLOCK
  5
11E
100
AcDbEntity
  8
MAIN0
  6
CONTINUOUS
 62
3
100
AcDbBlockBegin
  2
*D20
 70
    65
 10
0.0
 20
0.0
 30
0.0
  0
LINE
  5
11F
100
AcDbEntity
  8
MAIN0
  6
BYBLOCK
 62
0
100
AcDbLine
 10
1393.418743695800
 20
370.3815010031217
 30
0.0000000000000000
 11
1416.418743695792
 21
370.3815010031217
 31
0.0000000000000000
  0
INSERT
  5
120
100
AcDbEntity
  8
MAIN0
  6
BYBLOCK
 62
0
100
AcDbBlockReference
  2
_OPEN
 10
1393.418743695800
 20
370.3815010031217
 30
0.0000000000000000
 41
8.000000000000000
 42
8.000000000000000
 43
8.000000000000000
 50
0.0000000000000000
  0
INSERT
  5
121
100
AcDbEntity
  8
MAIN0
  6
BYBLOCK
 62
0
100
AcDbBlockReference
  2
_OPEN
 10
1416.418743695792
 20
370.3815010031217
 30
0.0000000000000000
 41
8.000000000000000
 42
8.000000000000000
 43
8.000000000000000
 50
180.0000000000000
  0
LINE
  5
122
100
AcDbEntity
  8
MAIN0
  6
BYBLOCK
 62
0
100
AcDbLine
 10
1385.418743695800
 20
370.3815010031217
 30
0.0000000000000000
 11
1381.418743695800
 21
370.3815010031217
 31
0.0000000000000000
  0
LINE
  5
123
100
AcDbEntity
  8
MAIN0
  6
BYBLOCK
 62
0
100
AcDbLine
 10
1424.418743695792
 20
370.3815010031217
 30
0.0000000000000000
 11
1464.975501836133
 21
370.3815010031217
 31
0.0000000000000000
  0
LINE
  5
124
100
AcDbEntity
  8
MAIN0
  6
BYBLOCK
 62
0
100
AcDbLine
 10
1416.418743695792
 20
417.5815009551683
 30
0.0000000000000000
 11
1416.418743695792
 21
362.3815010031217
 31
0.0000000000000000
  0
MTEXT
  5
125
100
AcDbEntity
  8
MAIN0
  6
BYBLOCK
 62
0
100
AcDbMText
 10
1443.175502599073
 20
378.2481674790536
 30
0.0000000000000000
 40
12.39999961853027
 41
0.0000000000000000
 71
     5
 72
     1
  1
\A1;15～31
 11
1.000000000000000
 21
0.0000000000000000
 31
0.0000000000000000
  7
KNJYOKO
  0
ENDBLK
  5
126
100
AcDbEntity
  8
MAIN0
  6
CONTINUOUS
 62
3
100
AcDbBlockEnd
  0
BLOCK
  5
129
100
AcDbEntity
  8
MAIN0
  6
CONTINUOUS
 62
3
100
AcDbBlockBegin
  2
*D21
 70
    65
 10
0.0
 20
0.0
 30
0.0
  0
LINE
  5
12A
100
AcDbEntity
  8
MAIN0
  6
BYBLOCK
 62
0
100
AcDbLine
 10
1372.718743648117
 20
455.3815010029578
 30
0.0000000000000000
 11
1317.418743695022
 21
455.3815010029578
 31
0.0000000000000000
  0
LINE
  5
12B
100
AcDbEntity
  8
MAIN0
  6
BYBLOCK
 62
0
100
AcDbLine
 10
1325.418743695022
 20
455.3815010029578
 30
0.0000000000000000
 11
1325.418743695022
 21
450.3815010029578
 31
0.0000000000000000
  0
INSERT
  5
12C
100
AcDbEntity
  8
MAIN0
  6
BYBLOCK
 62
0
100
AcDbBlockReference
  2
_OPEN
 10
1325.418743695022
 20
455.3815010029578
 30
0.0000000000000000
 41
8.000000000000000
 42
8.000000000000000
 43
8.000000000000000
 50
270.0000000000000
  0
INSERT
  5
12D
100
AcDbEntity
  8
MAIN0
  6
BYBLOCK
 62
0
100
AcDbBlockReference
  2
_OPEN
 10
1325.418743695022
 20
450.3815010029578
 30
0.0000000000000000
 41
8.000000000000000
 42
8.000000000000000
 43
8.000000000000000
 50
90.00000000000000
  0
LINE
  5
12E
100
AcDbEntity
  8
MAIN0
  6
BYBLOCK
 62
0
100
AcDbLine
 10
1325.418743695022
 20
463.3815010029578
 30
0.0000000000000000
 11
1325.418743695022
 21
471.5831907764431
 31
0.0000000000000000
  0
LINE
  5
12F
100
AcDbEntity
  8
MAIN0
  6
BYBLOCK
 62
0
100
AcDbLine
 10
1325.418743695022
 20
442.3815010029578
 30
0.0000000000000000
 11
1325.418743695022
 21
438.3815010029578
 31
0.0000000000000000
  0
LINE
  5
130
100
AcDbEntity
  8
MAIN0
  6
BYBLOCK
 62
0
100
AcDbLine
 10
1342.218743648117
 20
450.3815010029578
 30
0.0000000000000000
 11
1317.418743695022
 21
450.3815010029578
 31
0.0000000000000000
  0
MTEXT
  5
131
100
AcDbEntity
  8
MAIN0
  6
BYBLOCK
 62
0
100
AcDbMText
 10
1317.552077219090
 20
467.5831907764431
 30
0.0000000000000000
 40
12.39999961853027
 41
0.0000000000000000
 71
     5
 72
     1
  1
\A1;5
 11
6.123233995736766e-017
 21
1.000000000000000
 31
0.0000000000000000
  7
STANDARD
  0
ENDBLK
  5
132
100
AcDbEntity
  8
MAIN0
  6
CONTINUOUS
 62
3
100
AcDbBlockEnd
  0
BLOCK
  5
134
100
AcDbEntity
  8
MAIN0
  6
CONTINUOUS
 62
3
100
AcDbBlockBegin
  2
*D22
 70
    65
 10
0.0
 20
0.0
 30
0.0
  0
LINE
  5
135
100
AcDbEntity
  8
MAIN0
  6
BYBLOCK
 62
0
100
AcDbLine
 10
1342.218743648117
 20
450.3815010029578
 30
0.0000000000000000
 11
1317.418743695022
 21
450.3815010029578
 31
0.0000000000000000
  0
LINE
  5
136
100
AcDbEntity
  8
MAIN0
  6
BYBLOCK
 62
0
100
AcDbLine
 10
1325.418743695022
 20
442.3815010029578
 30
0.0000000000000000
 11
1325.418743695022
 21
428.3815010029578
 31
0.0000000000000000
  0
INSERT
  5
137
100
AcDbEntity
  8
MAIN0
  6
BYBLOCK
 62
0
100
AcDbBlockReference
  2
_OPEN
 10
1325.418743695022
 20
450.3815010029578
 30
0.0000000000000000
 41
8.000000000000000
 42
8.000000000000000
 43
8.000000000000000
 50
90.00000000000000
  0
INSERT
  5
138
100
AcDbEntity
  8
MAIN0
  6
BYBLOCK
 62
0
100
AcDbBlockReference
  2
_OPEN
 10
1325.418743695022
 20
420.3815010029578
 30
0.0000000000000000
 41
8.000000000000000
 42
8.000000000000000
 43
8.000000000000000
 50
270.0000000000000
  0
LINE
  5
139
100
AcDbEntity
  8
MAIN0
  6
BYBLOCK
 62
0
100
AcDbLine
 10
1343.918743648117
 20
420.3815010029578
 30
0.0000000000000000
 11
1317.418743695022
 21
420.3815010029578
 31
0.0000000000000000
  0
MTEXT
  5
13A
100
AcDbEntity
  8
MAIN0
  6
BYBLOCK
 62
0
100
AcDbMText
 10
1318.718743885757
 20
435.3815010029578
 30
0.0000000000000000
 40
12.39999961853027
 41
0.0000000000000000
 71
     5
 72
     1
  1
\A1;30
 11
6.123233995736766e-017
 21
1.000000000000000
 31
0.0000000000000000
  7
STANDARD
  0
ENDBLK
  5
13B
100
AcDbEntity
  8
MAIN0
  6
CONTINUOUS
 62
3
100
AcDbBlockEnd
  0
BLOCK
  5
18D
100
AcDbEntity
  8
MAIN0
  6
CONTINUOUS
 62
3
100
AcDbBlockBegin
  2
*D23
 70
    65
 10
0.0
 20
0.0
 30
0.0
  0
LINE
  5
18E
100
AcDbEntity
  8
MAIN0
  6
BYBLOCK
 62
0
100
AcDbLine
 10
304.5709002851246
 20
603.5815010512305
 30
0.0000000000000000
 11
304.5709002851246
 21
642.5150291840886
 31
0.0000000000000000
  0
LINE
  5
18F
100
AcDbEntity
  8
MAIN0
  6
BYBLOCK
 62
0
100
AcDbLine
 10
296.5709002851246
 20
634.5150291840886
 30
0.0000000000000000
 11
112.5709002851245
 21
634.5150291840886
 31
0.0000000000000000
  0
INSERT
  5
190
100
AcDbEntity
  8
MAIN0
  6
BYBLOCK
 62
0
100
AcDbBlockReference
  2
_OPEN
 10
304.5709002851246
 20
634.5150291840886
 30
0.0000000000000000
 41
8.000000000000000
 42
8.000000000000000
 43
8.000000000000000
 50
360.0000000000000
  0
INSERT
  5
191
100
AcDbEntity
  8
MAIN0
  6
BYBLOCK
 62
0
100
AcDbBlockReference
  2
_OPEN
 10
104.5709002851245
 20
634.5150291840886
 30
0.0000000000000000
 41
8.000000000000000
 42
8.000000000000000
 43
8.000000000000000
 50
180.0000000000000
  0
LINE
  5
192
100
AcDbEntity
  8
MAIN0
  6
BYBLOCK
 62
0
100
AcDbLine
 10
104.5709002851245
 20
603.5815010512305
 30
0.0000000000000000
 11
104.5709002851245
 21
642.5150291840886
 31
0.0000000000000000
  0
MTEXT
  5
193
100
AcDbEntity
  8
MAIN0
  6
BYBLOCK
 62
0
100
AcDbMText
 10
204.5709002851245
 20
641.2150289933537
 30
0.0000000000000000
 40
12.39999961853027
 41
0.0000000000000000
 71
     5
 72
     1
  1
\A1;200
 11
1.000000000000000
 21
0.0000000000000000
 31
0.0000000000000000
  7
STANDARD
  0
ENDBLK
  5
194
100
AcDbEntity
  8
MAIN0
  6
CONTINUOUS
 62
3
100
AcDbBlockEnd
  0
BLOCK
  5
1A7
100
AcDbEntity
  8
MAIN0
  6
CONTINUOUS
 62
3
100
AcDbBlockBegin
  2
*D24
 70
    65
 10
0.0
 20
0.0
 30
0.0
  0
LINE
  5
1A8
100
AcDbEntity
  8
MAIN0
  6
BYBLOCK
 62
0
100
AcDbLine
 10
307.2709003325689
 20
530.3815010034430
 30
0.0000000000000000
 11
339.5709002848287
 21
530.3815010034982
 31
0.0000000000000000
  0
LINE
  5
1A9
100
AcDbEntity
  8
MAIN0
  6
BYBLOCK
 62
0
100
AcDbLine
 10
331.5709002848287
 20
530.3815010034846
 30
0.0000000000000000
 11
331.5709002848287
 21
504.3815010031148
 31
0.0000000000000000
  0
INSERT
  5
1AA
100
AcDbEntity
  8
MAIN0
  6
BYBLOCK
 62
0
100
AcDbBlockReference
  2
_OPEN
 10
331.5709002848287
 20
530.3815010034846
 30
0.0000000000000000
 41
8.000000000000000
 42
8.000000000000000
 43
8.000000000000000
 50
270.0000000000000
  0
INSERT
  5
1AB
100
AcDbEntity
  8
MAIN0
  6
BYBLOCK
 62
0
100
AcDbBlockReference
  2
_OPEN
 10
331.5709002848287
 20
504.3815010031148
 30
0.0000000000000000
 41
8.000000000000000
 42
8.000000000000000
 43
8.000000000000000
 50
90.00000000000000
  0
LINE
  5
1AC
100
AcDbEntity
  8
MAIN0
  6
BYBLOCK
 62
0
100
AcDbLine
 10
331.5709002848287
 20
538.3815010034846
 30
0.0000000000000000
 11
331.5709002848287
 21
542.3815010034846
 31
0.0000000000000000
  0
LINE
  5
1AD
100
AcDbEntity
  8
MAIN0
  6
BYBLOCK
 62
0
100
AcDbLine
 10
331.5709002848287
 20
496.3815010031148
 30
0.0000000000000000
 11
331.5709002848287
 21
492.3815010031148
 31
0.0000000000000000
  0
LINE
  5
1AE
100
AcDbEntity
  8
MAIN0
  6
BYBLOCK
 62
0
100
AcDbLine
 10
307.7709003325332
 20
504.3815010031148
 30
0.0000000000000000
 11
339.5709002848287
 21
504.3815010031148
 31
0.0000000000000000
  0
MTEXT
  5
1AF
100
AcDbEntity
  8
MAIN0
  6
BYBLOCK
 62
0
100
AcDbMText
 10
324.8709004755635
 20
517.3815010032997
 30
0.0000000000000000
 40
12.39999961853027
 41
0.0000000000000000
 71
     5
 72
     1
  1
\A1;26
 11
6.123233995736766e-017
 21
1.000000000000000
 31
0.0000000000000000
  7
STANDARD
  0
ENDBLK
  5
1B0
100
AcDbEntity
  8
MAIN0
  6
CONTINUOUS
 62
3
100
AcDbBlockEnd
  0
BLOCK
  5
1B2
100
AcDbEntity
  8
MAIN0
  6
CONTINUOUS
 62
3
100
AcDbBlockBegin
  2
*D25
 70
    65
 10
0.0
 20
0.0
 30
0.0
  0
LINE
  5
1B3
100
AcDbEntity
  8
MAIN0
  6
BYBLOCK
 62
0
100
AcDbLine
 10
307.7709003325332
 20
504.3815010031148
 30
0.0000000000000000
 11
339.5709002848287
 21
504.3815010031148
 31
0.0000000000000000
  0
LINE
  5
1B4
100
AcDbEntity
  8
MAIN0
  6
BYBLOCK
 62
0
100
AcDbLine
 10
331.5709002848287
 20
496.3815010031198
 30
0.0000000000000000
 11
331.5709002848287
 21
449.3815010028634
 31
0.0000000000000000
  0
INSERT
  5
1B5
100
AcDbEntity
  8
MAIN0
  6
BYBLOCK
 62
0
100
AcDbBlockReference
  2
_OPEN
 10
331.5709002848287
 20
504.3815010031198
 30
0.0000000000000000
 41
8.000000000000000
 42
8.000000000000000
 43
8.000000000000000
 50
90.00000000000000
  0
INSERT
  5
1B6
100
AcDbEntity
  8
MAIN0
  6
BYBLOCK
 62
0
100
AcDbBlockReference
  2
_OPEN
 10
331.5709002848287
 20
441.3815010028634
 30
0.0000000000000000
 41
8.000000000000000
 42
8.000000000000000
 43
8.000000000000000
 50
270.0000000000000
  0
LINE
  5
1B7
100
AcDbEntity
  8
MAIN0
  6
BYBLOCK
 62
0
100
AcDbLine
 10
307.7709003325368
 20
441.3815010028634
 30
0.0000000000000000
 11
339.5709002848287
 21
441.3815010028634
 31
0.0000000000000000
  0
MTEXT
  5
1B8
100
AcDbEntity
  8
MAIN0
  6
BYBLOCK
 62
0
100
AcDbMText
 10
324.8709004755635
 20
472.8815010029916
 30
0.0000000000000000
 40
12.39999961853027
 41
0.0000000000000000
 71
     5
 72
     1
  1
\A1;63
 11
6.123233995736766e-017
 21
1.000000000000000
 31
0.0000000000000000
  7
STANDARD
  0
ENDBLK
  5
1B9
100
AcDbEntity
  8
MAIN0
  6
CONTINUOUS
 62
3
100
AcDbBlockEnd
  0
BLOCK
  5
1BB
100
AcDbEntity
  8
MAIN0
  6
CONTINUOUS
 62
3
100
AcDbBlockBegin
  2
*D26
 70
    65
 10
0.0
 20
0.0
 30
0.0
  0
LINE
  5
1BC
100
AcDbEntity
  8
MAIN0
  6
BYBLOCK
 62
0
100
AcDbLine
 10
307.7709003325368
 20
441.3815010028634
 30
0.0000000000000000
 11
339.5709002848287
 21
441.3815010028634
 31
0.0000000000000000
  0
LINE
  5
1BD
100
AcDbEntity
  8
MAIN0
  6
BYBLOCK
 62
0
100
AcDbLine
 10
331.5709002848287
 20
441.3815010028634
 30
0.0000000000000000
 11
331.5709002848287
 21
420.3815010027569
 31
0.0000000000000000
  0
INSERT
  5
1BE
100
AcDbEntity
  8
MAIN0
  6
BYBLOCK
 62
0
100
AcDbBlockReference
  2
_OPEN
 10
331.5709002848287
 20
441.3815010028634
 30
0.0000000000000000
 41
8.000000000000000
 42
8.000000000000000
 43
8.000000000000000
 50
270.0000000000000
  0
INSERT
  5
1BF
100
AcDbEntity
  8
MAIN0
  6
BYBLOCK
 62
0
100
AcDbBlockReference
  2
_OPEN
 10
331.5709002848287
 20
420.3815010027569
 30
0.0000000000000000
 41
8.000000000000000
 42
8.000000000000000
 43
8.000000000000000
 50
90.00000000000000
  0
LINE
  5
1C0
100
AcDbEntity
  8
MAIN0
  6
BYBLOCK
 62
0
100
AcDbLine
 10
331.5709002848287
 20
449.3815010028634
 30
0.0000000000000000
 11
331.5709002848287
 21
453.3815010028634
 31
0.0000000000000000
  0
LINE
  5
1C1
100
AcDbEntity
  8
MAIN0
  6
BYBLOCK
 62
0
100
AcDbLine
 10
331.5709002848287
 20
412.3815010027569
 30
0.0000000000000000
 11
331.5709002848287
 21
408.3815010027569
 31
0.0000000000000000
  0
LINE
  5
1C2
100
AcDbEntity
  8
MAIN0
  6
BYBLOCK
 62
0
100
AcDbLine
 10
308.3709003325125
 20
420.3815010027569
 30
0.0000000000000000
 11
339.5709002848287
 21
420.3815010027569
 31
0.0000000000000000
  0
MTEXT
  5
1C3
100
AcDbEntity
  8
MAIN0
  6
BYBLOCK
 62
0
100
AcDbMText
 10
324.8709004755635
 20
430.8815010028102
 30
0.0000000000000000
 40
12.39999961853027
 41
0.0000000000000000
 71
     5
 72
     1
  1
\A1;21
 11
6.123233995736766e-017
 21
1.000000000000000
 31
0.0000000000000000
  7
STANDARD
  0
ENDBLK
  5
1C4
100
AcDbEntity
  8
MAIN0
  6
CONTINUOUS
 62
3
100
AcDbBlockEnd
  0
BLOCK
  5
1C6
100
AcDbEntity
  8
MAIN0
  6
CONTINUOUS
 62
3
100
AcDbBlockBegin
  2
*D27
 70
    65
 10
0.0
 20
0.0
 30
0.0
  0
LINE
  5
1C7
100
AcDbEntity
  8
MAIN0
  6
BYBLOCK
 62
0
100
AcDbLine
 10
298.5709002848505
 20
465.3815010028686
 30
0.0000000000000000
 11
305.5709002848372
 21
465.3815010028686
 31
0.0000000000000000
  0
INSERT
  5
1C8
100
AcDbEntity
  8
MAIN0
  6
BYBLOCK
 62
0
100
AcDbBlockReference
  2
_OPEN
 10
298.5709002848505
 20
465.3815010028686
 30
0.0000000000000000
 41
8.000000000000000
 42
8.000000000000000
 43
8.000000000000000
 50
0.0000000000000000
  0
INSERT
  5
1C9
100
AcDbEntity
  8
MAIN0
  6
BYBLOCK
 62
0
100
AcDbBlockReference
  2
_OPEN
 10
305.5709002848372
 20
465.3815010028686
 30
0.0000000000000000
 41
8.000000000000000
 42
8.000000000000000
 43
8.000000000000000
 50
180.0000000000000
  0
LINE
  5
1CA
100
AcDbEntity
  8
MAIN0
  6
BYBLOCK
 62
0
100
AcDbLine
 10
290.5709002848505
 20
465.3815010028686
 30
0.0000000000000000
 11
280.6407068471191
 21
465.3815010028686
 31
0.0000000000000000
  0
LINE
  5
1CB
100
AcDbEntity
  8
MAIN0
  6
BYBLOCK
 62
0
100
AcDbLine
 10
313.5709002848372
 20
465.3815010028686
 30
0.0000000000000000
 11
317.5709002848372
 21
465.3815010028686
 31
0.0000000000000000
  0
LINE
  5
1CC
100
AcDbEntity
  8
MAIN0
  6
BYBLOCK
 62
0
100
AcDbLine
 10
305.5709002848372
 20
443.5815010505454
 30
0.0000000000000000
 11
305.5709002848372
 21
473.3815010028686
 31
0.0000000000000000
  0
MTEXT
  5
1CD
100
AcDbEntity
  8
MAIN0
  6
BYBLOCK
 62
0
100
AcDbMText
 10
284.6407068471191
 20
473.2481674788004
 30
0.0000000000000000
 40
12.39999961853027
 41
0.0000000000000000
 71
     5
 72
     1
  1
\A1;7
 11
1.000000000000000
 21
0.0000000000000000
 31
0.0000000000000000
  7
STANDARD
  0
ENDBLK
  5
1CE
100
AcDbEntity
  8
MAIN0
  6
CONTINUOUS
 62
3
100
AcDbBlockEnd
  0
BLOCK
  5
1D1
100
AcDbEntity
  8
MAIN0
  6
CONTINUOUS
 62
3
100
AcDbBlockBegin
  2
*D28
 70
    65
 10
0.0
 20
0.0
 30
0.0
  0
LINE
  5
1D2
100
AcDbEntity
  8
MAIN0
  6
BYBLOCK
 62
0
100
AcDbLine
 10
1124.179449580450
 20
467.1815009558678
 30
0.0000000000000000
 11
1124.179449580450
 21
341.3731454502754
 31
0.0000000000000000
  0
LINE
  5
1D3
100
AcDbEntity
  8
MAIN0
  6
BYBLOCK
 62
0
100
AcDbLine
 10
1116.179449580450
 20
349.3731454502754
 30
0.0000000000000000
 11
1037.179449580130
 21
349.3731454502754
 31
0.0000000000000000
  0
INSERT
  5
1D4
100
AcDbEntity
  8
MAIN0
  6
BYBLOCK
 62
0
100
AcDbBlockReference
  2
_OPEN
 10
1124.179449580450
 20
349.3731454502754
 30
0.0000000000000000
 41
8.000000000000000
 42
8.000000000000000
 43
8.000000000000000
 50
360.0000000000000
  0
INSERT
  5
1D5
100
AcDbEntity
  8
MAIN0
  6
BYBLOCK
 62
0
100
AcDbBlockReference
  2
_OPEN
 10
1029.179449580130
 20
349.3731454502754
 30
0.0000000000000000
 41
8.000000000000000
 42
8.000000000000000
 43
8.000000000000000
 50
180.0000000000000
  0
LINE
  5
1D6
100
AcDbEntity
  8
MAIN0
  6
BYBLOCK
 62
0
100
AcDbLine
 10
1029.179449580130
 20
417.5815009568212
 30
0.0000000000000000
 11
1029.179449580130
 21
341.3731454502754
 31
0.0000000000000000
  0
MTEXT
  5
1D7
100
AcDbEntity
  8
MAIN0
  6
BYBLOCK
 62
0
100
AcDbMText
 10
1076.679449580290
 20
356.0731452595405
 30
0.0000000000000000
 40
12.39999961853027
 41
0.0000000000000000
 71
     5
 72
     1
  1
\A1;95
 11
1.000000000000000
 21
0.0000000000000000
 31
0.0000000000000000
  7
STANDARD
  0
ENDBLK
  5
1D8
100
AcDbEntity
  8
MAIN0
  6
CONTINUOUS
 62
3
100
AcDbBlockEnd
  0
BLOCK
  5
1DA
100
AcDbEntity
  8
MAIN0
  6
CONTINUOUS
 62
3
100
AcDbBlockBegin
  2
*D29
 70
    65
 10
0.0
 20
0.0
 30
0.0
  0
LINE
  5
1DB
100
AcDbEntity
  8
MAIN0
  6
BYBLOCK
 62
0
100
AcDbLine
 10
1029.179449580130
 20
417.5815009568212
 30
0.0000000000000000
 11
1029.179449580130
 21
341.3731454502754
 31
0.0000000000000000
  0
LINE
  5
1DC
100
AcDbEntity
  8
MAIN0
  6
BYBLOCK
 62
0
100
AcDbLine
 10
1021.179449580130
 20
349.3731454502754
 30
0.0000000000000000
 11
422.1794495801303
 21
349.3731454502754
 31
0.0000000000000000
  0
INSERT
  5
1DD
100
AcDbEntity
  8
MAIN0
  6
BYBLOCK
 62
0
100
AcDbBlockReference
  2
_OPEN
 10
1029.179449580130
 20
349.3731454502754
 30
0.0000000000000000
 41
8.000000000000000
 42
8.000000000000000
 43
8.000000000000000
 50
360.0000000000000
  0
INSERT
  5
1DE
100
AcDbEntity
  8
MAIN0
  6
BYBLOCK
 62
0
100
AcDbBlockReference
  2
_OPEN
 10
414.1794495801303
 20
349.3731454502754
 30
0.0000000000000000
 41
8.000000000000000
 42
8.000000000000000
 43
8.000000000000000
 50
180.0000000000000
  0
LINE
  5
1DF
100
AcDbEntity
  8
MAIN0
  6
BYBLOCK
 62
0
100
AcDbLine
 10
414.1794495801303
 20
417.5815009584187
 30
0.0000000000000000
 11
414.1794495801303
 21
341.3731454502754
 31
0.0000000000000000
  0
MTEXT
  5
1E0
100
AcDbEntity
  8
MAIN0
  6
BYBLOCK
 62
0
100
AcDbMText
 10
721.6794495801300
 20
356.0731452595405
 30
0.0000000000000000
 40
12.39999961853027
 41
0.0000000000000000
 71
     5
 72
     1
  1
\A1;615
 11
1.000000000000000
 21
0.0000000000000000
 31
0.0000000000000000
  7
STANDARD
  0
ENDBLK
  5
1E1
100
AcDbEntity
  8
MAIN0
  6
CONTINUOUS
 62
3
100
AcDbBlockEnd
  0
BLOCK
  5
20F
100
AcDbEntity
  8
MAIN0
  6
CONTINUOUS
 62
3
100
AcDbBlockBegin
  2
*D30
 70
    65
 10
0.0
 20
0.0
 30
0.0
  0
LINE
  5
210
100
AcDbEntity
  8
MAIN0
  6
BYBLOCK
 62
0
100
AcDbLine
 10
726.9794495326665
 20
563.5815010003422
 30
0.0000000000000000
 11
700.0941805178729
 21
563.5815010003422
 31
0.0000000000000000
  0
LINE
  5
211
100
AcDbEntity
  8
MAIN0
  6
BYBLOCK
 62
0
100
AcDbLine
 10
708.0941805178729
 20
563.5815010003422
 30
0.0000000000000000
 11
708.0941805178729
 21
530.3815010014839
 31
0.0000000000000000
  0
INSERT
  5
212
100
AcDbEntity
  8
MAIN0
  6
BYBLOCK
 62
0
100
AcDbBlockReference
  2
_OPEN
 10
708.0941805178729
 20
563.5815010003422
 30
0.0000000000000000
 41
8.000000000000000
 42
8.000000000000000
 43
8.000000000000000
 50
270.0000000000000
  0
INSERT
  5
213
100
AcDbEntity
  8
MAIN0
  6
BYBLOCK
 62
0
100
AcDbBlockReference
  2
_OPEN
 10
708.0941805178729
 20
530.3815010014839
 30
0.0000000000000000
 41
8.000000000000000
 42
8.000000000000000
 43
8.000000000000000
 50
90.00000000000000
  0
LINE
  5
214
100
AcDbEntity
  8
MAIN0
  6
BYBLOCK
 62
0
100
AcDbLine
 10
708.0941805178729
 20
571.5815010003422
 30
0.0000000000000000
 11
708.0941805178729
 21
575.5815010003422
 31
0.0000000000000000
  0
LINE
  5
215
100
AcDbEntity
  8
MAIN0
  6
BYBLOCK
 62
0
100
AcDbLine
 10
708.0941805178729
 20
522.3815010014839
 30
0.0000000000000000
 11
708.0941805178729
 21
518.3815010014839
 31
0.0000000000000000
  0
MTEXT
  5
216
100
AcDbEntity
  8
MAIN0
  6
BYBLOCK
 62
0
100
AcDbMText
 10
701.3941807086078
 20
546.9815010009131
 30
0.0000000000000000
 40
12.39999961853027
 41
0.0000000000000000
 71
     5
 72
     1
  1
\A1;33
 11
6.123233995736766e-017
 21
1.000000000000000
 31
0.0000000000000000
  7
STANDARD
  0
ENDBLK
  5
217
100
AcDbEntity
  8
MAIN0
  6
CONTINUOUS
 62
3
100
AcDbBlockEnd
  0
BLOCK
  5
219
100
AcDbEntity
  8
MAIN0
  6
CONTINUOUS
 62
3
100
AcDbBlockBegin
  2
*D31
 70
    65
 10
0.0
 20
0.0
 30
0.0
  0
LINE
  5
21A
100
AcDbEntity
  8
MAIN0
  6
BYBLOCK
 62
0
100
AcDbLine
 10
1625.918743695848
 20
565.7815010512414
 30
0.0000000000000000
 11
1625.918743695848
 21
673.1055829866066
 31
0.0000000000000000
  0
LINE
  5
21B
100
AcDbEntity
  8
MAIN0
  6
BYBLOCK
 62
0
100
AcDbLine
 10
1617.918743695848
 20
665.1055829866066
 30
0.0000000000000000
 11
1416.918743695846
 21
665.1055829866066
 31
0.0000000000000000
  0
INSERT
  5
21C
100
AcDbEntity
  8
MAIN0
  6
BYBLOCK
 62
0
100
AcDbBlockReference
  2
_OPEN
 10
1625.918743695848
 20
665.1055829866066
 30
0.0000000000000000
 41
8.000000000000000
 42
8.000000000000000
 43
8.000000000000000
 50
360.0000000000000
  0
INSERT
  5
21D
100
AcDbEntity
  8
MAIN0
  6
BYBLOCK
 62
0
100
AcDbBlockReference
  2
_OPEN
 10
1408.918743695846
 20
665.1055829866066
 30
0.0000000000000000
 41
8.000000000000000
 42
8.000000000000000
 43
8.000000000000000
 50
180.0000000000000
  0
LINE
  5
21E
100
AcDbEntity
  8
MAIN0
  6
BYBLOCK
 62
0
100
AcDbLine
 10
1408.918743695846
 20
565.7815010512414
 30
0.0000000000000000
 11
1408.918743695846
 21
673.1055829866066
 31
0.0000000000000000
  0
MTEXT
  5
21F
100
AcDbEntity
  8
MAIN0
  6
BYBLOCK
 62
0
100
AcDbMText
 10
1517.418743695847
 20
671.8055827958717
 30
0.0000000000000000
 40
12.39999961853027
 41
0.0000000000000000
 71
     5
 72
     1
  1
\A1;217
 11
1.000000000000000
 21
0.0000000000000000
 31
0.0000000000000000
  7
STANDARD
  0
ENDBLK
  5
220
100
AcDbEntity
  8
MAIN0
  6
CONTINUOUS
 62
3
100
AcDbBlockEnd
  0
BLOCK
  5
25B
100
AcDbEntity
  8
MAIN0
  6
CONTINUOUS
 62
3
100
AcDbBlockBegin
  2
*D32
 70
    65
 10
0.0
 20
0.0
 30
0.0
  0
LINE
  5
25C
100
AcDbEntity
  8
MAIN0
  6
BYBLOCK
 62
0
100
AcDbLine
 10
517.1794495803617
 20
527.5815009529192
 30
0.0000000000000000
 11
517.1794495803617
 21
367.3815010055769
 31
0.0000000000000000
  0
LINE
  5
25D
100
AcDbEntity
  8
MAIN0
  6
BYBLOCK
 62
0
100
AcDbLine
 10
525.1794495803617
 20
375.3815010055769
 30
0.0000000000000000
 11
583.1794495801287
 21
375.3815010055769
 31
0.0000000000000000
  0
INSERT
  5
25E
100
AcDbEntity
  8
MAIN0
  6
BYBLOCK
 62
0
100
AcDbBlockReference
  2
_OPEN
 10
517.1794495803617
 20
375.3815010055769
 30
0.0000000000000000
 41
8.000000000000000
 42
8.000000000000000
 43
8.000000000000000
 50
180.0000000000000
  0
INSERT
  5
25F
100
AcDbEntity
  8
MAIN0
  6
BYBLOCK
 62
0
100
AcDbBlockReference
  2
_OPEN
 10
591.1794495801287
 20
375.3815010055769
 30
0.0000000000000000
 41
8.000000000000000
 42
8.000000000000000
 43
8.000000000000000
 50
0.0000000000000000
  0
LINE
  5
260
100
AcDbEntity
  8
MAIN0
  6
BYBLOCK
 62
0
100
AcDbLine
 10
591.1794495801287
 20
403.1917836976672
 30
0.0000000000000000
 11
591.1794495801287
 21
367.3815010055769
 31
0.0000000000000000
  0
MTEXT
  5
261
100
AcDbEntity
  8
MAIN0
  6
BYBLOCK
 62
0
100
AcDbMText
 10
554.1794495802452
 20
382.0815008148421
 30
0.0000000000000000
 40
12.39999961853027
 41
0.0000000000000000
 71
     5
 72
     1
  1
\A1;74
 11
1.000000000000000
 21
0.0000000000000000
 31
0.0000000000000000
  7
STANDARD
  0
ENDBLK
  5
262
100
AcDbEntity
  8
MAIN0
  6
CONTINUOUS
 62
3
100
AcDbBlockEnd
  0
BLOCK
  5
264
100
AcDbEntity
  8
MAIN0
  6
CONTINUOUS
 62
3
100
AcDbBlockBegin
  2
*D33
 70
    65
 10
0.0
 20
0.0
 30
0.0
  0
LINE
  5
265
100
AcDbEntity
  8
MAIN0
  6
BYBLOCK
 62
0
100
AcDbLine
 10
591.1794495801287
 20
403.1917836976672
 30
0.0000000000000000
 11
591.1794495801287
 21
367.3815010055769
 31
0.0000000000000000
  0
LINE
  5
266
100
AcDbEntity
  8
MAIN0
  6
BYBLOCK
 62
0
100
AcDbLine
 10
599.1794495801287
 20
375.3815010055769
 30
0.0000000000000000
 11
1021.179449580130
 21
375.3815010055769
 31
0.0000000000000000
  0
INSERT
  5
267
100
AcDbEntity
  8
MAIN0
  6
BYBLOCK
 62
0
100
AcDbBlockReference
  2
_OPEN
 10
591.1794495801287
 20
375.3815010055769
 30
0.0000000000000000
 41
8.000000000000000
 42
8.000000000000000
 43
8.000000000000000
 50
180.0000000000000
  0
INSERT
  5
268
100
AcDbEntity
  8
MAIN0
  6
BYBLOCK
 62
0
100
AcDbBlockReference
  2
_OPEN
 10
1029.179449580130
 20
375.3815010055769
 30
0.0000000000000000
 41
8.000000000000000
 42
8.000000000000000
 43
8.000000000000000
 50
0.0000000000000000
  0
LINE
  5
269
100
AcDbEntity
  8
MAIN0
  6
BYBLOCK
 62
0
100
AcDbLine
 10
1029.179449580130
 20
417.5815009568212
 30
0.0000000000000000
 11
1029.179449580130
 21
367.3815010055769
 31
0.0000000000000000
  0
MTEXT
  5
26A
100
AcDbEntity
  8
MAIN0
  6
BYBLOCK
 62
0
100
AcDbMText
 10
810.1794495801291
 20
382.0815008148421
 30
0.0000000000000000
 40
12.39999961853027
 41
0.0000000000000000
 71
     5
 72
     1
  1
\A1;438
 11
1.000000000000000
 21
0.0000000000000000
 31
0.0000000000000000
  7
STANDARD
  0
ENDBLK
  5
26B
100
AcDbEntity
  8
MAIN0
  6
CONTINUOUS
 62
3
100
AcDbBlockEnd
  0
BLOCK
  5
26D
100
AcDbEntity
  8
MAIN0
  6
CONTINUOUS
 62
3
100
AcDbBlockBegin
  2
*D34
 70
    65
 10
0.0
 20
0.0
 30
0.0
  0
LINE
  5
26E
100
AcDbEntity
  8
MAIN0
  6
BYBLOCK
 62
0
100
AcDbLine
 10
889.8618120640713
 20
428.3815010041757
 30
0.0000000000000000
 11
889.8618120640713
 21
464.8815010059407
 31
0.0000000000000000
  0
INSERT
  5
26F
100
AcDbEntity
  8
MAIN0
  6
BYBLOCK
 62
0
100
AcDbBlockReference
  2
_OPEN
 10
889.8618120640713
 20
420.3815010041757
 30
0.0000000000000000
 41
8.000000000000000
 42
8.000000000000000
 43
8.000000000000000
 50
270.0000000000000
  0
INSERT
  5
270
100
AcDbEntity
  8
MAIN0
  6
BYBLOCK
 62
0
100
AcDbBlockReference
  2
_OPEN
 10
889.8618120640713
 20
472.8815010059407
 30
0.0000000000000000
 41
8.000000000000000
 42
8.000000000000000
 43
8.000000000000000
 50
90.00000000000000
  0
LINE
  5
271
100
AcDbEntity
  8
MAIN0
  6
BYBLOCK
 62
0
100
AcDbLine
 10
901.9794495327110
 20
472.8815010059407
 30
0.0000000000000000
 11
881.8618120640713
 21
472.8815010059407
 31
0.0000000000000000
  0
MTEXT
  5
272
100
AcDbEntity
  8
MAIN0
  6
BYBLOCK
 62
0
100
AcDbMText
 10
881.6618122548061
 20
437.5644275198488
 30
0.0000000000000000
 40
12.39999961853027
 41
0.0000000000000000
 71
     5
 72
     1
  1
\A1;52.5
 11
6.123233995736766e-017
 21
1.000000000000000
 31
0.0000000000000000
  7
STANDARD
  0
ENDBLK
  5
273
100
AcDbEntity
  8
MAIN0
  6
CONTINUOUS
 62
3
100
AcDbBlockEnd
  0
BLOCK
  5
275
100
AcDbEntity
  8
MAIN0
  6
CONTINUOUS
 62
3
100
AcDbBlockBegin
  2
*D35
 70
    65
 10
0.0
 20
0.0
 30
0.0
  0
LINE
  5
276
100
AcDbEntity
  8
MAIN0
  6
BYBLOCK
 62
0
100
AcDbLine
 10
901.9794495327110
 20
472.8815010059407
 30
0.0000000000000000
 11
881.8618120640713
 21
472.8815010059407
 31
0.0000000000000000
  0
LINE
  5
277
100
AcDbEntity
  8
MAIN0
  6
BYBLOCK
 62
0
100
AcDbLine
 10
889.8618120640713
 20
480.8815010059407
 30
0.0000000000000000
 11
889.8618120640713
 21
522.3815010014682
 31
0.0000000000000000
  0
INSERT
  5
278
100
AcDbEntity
  8
MAIN0
  6
BYBLOCK
 62
0
100
AcDbBlockReference
  2
_OPEN
 10
889.8618120640713
 20
472.8815010059407
 30
0.0000000000000000
 41
8.000000000000000
 42
8.000000000000000
 43
8.000000000000000
 50
270.0000000000000
  0
INSERT
  5
279
100
AcDbEntity
  8
MAIN0
  6
BYBLOCK
 62
0
100
AcDbBlockReference
  2
_OPEN
 10
889.8618120640713
 20
530.3815010014682
 30
0.0000000000000000
 41
8.000000000000000
 42
8.000000000000000
 43
8.000000000000000
 50
90.00000000000000
  0
LINE
  5
27A
100
AcDbEntity
  8
MAIN0
  6
BYBLOCK
 62
0
100
AcDbLine
 10
733.3794496280229
 20
530.3815010014682
 30
0.0000000000000000
 11
897.8618120640713
 21
530.3815010014682
 31
0.0000000000000000
  0
MTEXT
  5
27B
100
AcDbEntity
  8
MAIN0
  6
BYBLOCK
 62
0
100
AcDbMText
 10
883.1618122548061
 20
501.6315010037044
 30
0.0000000000000000
 40
12.39999961853027
 41
0.0000000000000000
 71
     5
 72
     1
  1
\A1;57.5
 11
6.123233995736766e-017
 21
1.000000000000000
 31
0.0000000000000000
  7
STANDARD
  0
ENDBLK
  5
27C
100
AcDbEntity
  8
MAIN0
  6
CONTINUOUS
 62
3
100
AcDbBlockEnd
  0
BLOCK
  5
27E
100
AcDbEntity
  8
MAIN0
  6
CONTINUOUS
 62
3
100
AcDbBlockBegin
  2
*D36
 70
    65
 10
0.0
 20
0.0
 30
0.0
  0
LINE
  5
27F
100
AcDbEntity
  8
MAIN0
  6
BYBLOCK
 62
0
100
AcDbLine
 10
1177.412599680215
 20
551.4090734375795
 30
0.0000000000000000
 11
1177.412599680207
 21
822.0570149838370
 31
0.0000000000000000
  0
LINE
  5
280
100
AcDbEntity
  8
MAIN0
  6
BYBLOCK
 62
0
100
AcDbLine
 10
1177.412599680208
 20
814.0570149838370
 30
0.0000000000000000
 11
1192.412599680208
 21
814.0570149838370
 31
0.0000000000000000
  0
INSERT
  5
281
100
AcDbEntity
  8
MAIN0
  6
BYBLOCK
 62
0
100
AcDbBlockReference
  2
_OPEN
 10
1177.412599680208
 20
814.0570149838370
 30
0.0000000000000000
 41
8.000000000000000
 42
8.000000000000000
 43
8.000000000000000
 50
0.0000000000000000
  0
INSERT
  5
282
100
AcDbEntity
  8
MAIN0
  6
BYBLOCK
 62
0
100
AcDbBlockReference
  2
_OPEN
 10
1192.412599680208
 20
814.0570149838370
 30
0.0000000000000000
 41
8.000000000000000
 42
8.000000000000000
 43
8.000000000000000
 50
180.0000000000000
  0
LINE
  5
283
100
AcDbEntity
  8
MAIN0
  6
BYBLOCK
 62
0
100
AcDbLine
 10
1169.412599680208
 20
814.0570149838370
 30
0.0000000000000000
 11
1165.412599680208
 21
814.0570149838370
 31
0.0000000000000000
  0
LINE
  5
284
100
AcDbEntity
  8
MAIN0
  6
BYBLOCK
 62
0
100
AcDbLine
 10
1200.412599680208
 20
814.0570149838370
 30
0.0000000000000000
 11
1204.412599680208
 21
814.0570149838370
 31
0.0000000000000000
  0
LINE
  5
285
100
AcDbEntity
  8
MAIN0
  6
BYBLOCK
 62
0
100
AcDbLine
 10
1192.412599680208
 20
561.0090734375795
 30
0.0000000000000000
 11
1192.412599680208
 21
822.0570149838370
 31
0.0000000000000000
  0
MTEXT
  5
286
100
AcDbEntity
  8
MAIN0
  6
BYBLOCK
 62
0
100
AcDbMText
 10
1184.912599680208
 20
820.7570147931021
 30
0.0000000000000000
 40
12.39999961853027
 41
0.0000000000000000
 71
     5
 72
     1
  1
\A1;15
 11
1.000000000000000
 21
0.0000000000000000
 31
0.0000000000000000
  7
STANDARD
  0
ENDBLK
  5
287
100
AcDbEntity
  8
MAIN0
  6
CONTINUOUS
 62
3
100
AcDbBlockEnd
  0
BLOCK
  5
289
100
AcDbEntity
  8
MAIN0
  6
CONTINUOUS
 62
3
100
AcDbBlockBegin
  2
*D37
 70
    65
 10
0.0
 20
0.0
 30
0.0
  0
LINE
  5
28A
100
AcDbEntity
  8
MAIN0
  6
BYBLOCK
 62
0
100
AcDbLine
 10
1192.412599680208
 20
561.0090734375795
 30
0.0000000000000000
 11
1192.412599680208
 21
822.0570149838370
 31
0.0000000000000000
  0
LINE
  5
28B
100
AcDbEntity
  8
MAIN0
  6
BYBLOCK
 62
0
100
AcDbLine
 10
1200.412599680215
 20
814.0570149838370
 30
0.0000000000000000
 11
1221.412599680381
 21
814.0570149838370
 31
0.0000000000000000
  0
INSERT
  5
28C
100
AcDbEntity
  8
MAIN0
  6
BYBLOCK
 62
0
100
AcDbBlockReference
  2
_OPEN
 10
1192.412599680215
 20
814.0570149838370
 30
0.0000000000000000
 41
8.000000000000000
 42
8.000000000000000
 43
8.000000000000000
 50
180.0000000000000
  0
INSERT
  5
28D
100
AcDbEntity
  8
MAIN0
  6
BYBLOCK
 62
0
100
AcDbBlockReference
  2
_OPEN
 10
1229.412599680381
 20
814.0570149838370
 30
0.0000000000000000
 41
8.000000000000000
 42
8.000000000000000
 43
8.000000000000000
 50
0.0000000000000000
  0
LINE
  5
28E
100
AcDbEntity
  8
MAIN0
  6
BYBLOCK
 62
0
100
AcDbLine
 10
1229.412599680381
 20
764.4090734375819
 30
0.0000000000000000
 11
1229.412599680381
 21
822.0570149838370
 31
0.0000000000000000
  0
MTEXT
  5
28F
100
AcDbEntity
  8
MAIN0
  6
BYBLOCK
 62
0
100
AcDbMText
 10
1210.912599680298
 20
820.7570147931021
 30
0.0000000000000000
 40
12.39999961853027
 41
0.0000000000000000
 71
     5
 72
     1
  1
\A1;37
 11
1.000000000000000
 21
0.0000000000000000
 31
0.0000000000000000
  7
STANDARD
  0
ENDBLK
  5
290
100
AcDbEntity
  8
MAIN0
  6
CONTINUOUS
 62
3
100
AcDbBlockEnd
  0
BLOCK
  5
292
100
AcDbEntity
  8
MAIN0
  6
CONTINUOUS
 62
3
100
AcDbBlockBegin
  2
*D38
 70
    65
 10
0.0
 20
0.0
 30
0.0
  0
LINE
  5
293
100
AcDbEntity
  8
MAIN0
  6
BYBLOCK
 62
0
100
AcDbLine
 10
1229.412599680381
 20
764.4090734375819
 30
0.0000000000000000
 11
1229.412599680381
 21
822.0570149838370
 31
0.0000000000000000
  0
LINE
  5
294
100
AcDbEntity
  8
MAIN0
  6
BYBLOCK
 62
0
100
AcDbLine
 10
1237.412599680381
 20
814.0570149838370
 30
0.0000000000000000
 11
1316.412599680392
 21
814.0570149838370
 31
0.0000000000000000
  0
INSERT
  5
295
100
AcDbEntity
  8
MAIN0
  6
BYBLOCK
 62
0
100
AcDbBlockReference
  2
_OPEN
 10
1229.412599680381
 20
814.0570149838370
 30
0.0000000000000000
 41
8.000000000000000
 42
8.000000000000000
 43
8.000000000000000
 50
180.0000000000000
  0
INSERT
  5
296
100
AcDbEntity
  8
MAIN0
  6
BYBLOCK
 62
0
100
AcDbBlockReference
  2
_OPEN
 10
1324.412599680392
 20
814.0570149838370
 30
0.0000000000000000
 41
8.000000000000000
 42
8.000000000000000
 43
8.000000000000000
 50
0.0000000000000000
  0
LINE
  5
297
100
AcDbEntity
  8
MAIN0
  6
BYBLOCK
 62
0
100
AcDbLine
 10
1324.412599680392
 20
776.4090734375795
 30
0.0000000000000000
 11
1324.412599680392
 21
822.0570149838370
 31
0.0000000000000000
  0
MTEXT
  5
298
100
AcDbEntity
  8
MAIN0
  6
BYBLOCK
 62
0
100
AcDbMText
 10
1276.912599680386
 20
820.7570147931021
 30
0.0000000000000000
 40
12.39999961853027
 41
0.0000000000000000
 71
     5
 72
     1
  1
\A1;95
 11
1.000000000000000
 21
0.0000000000000000
 31
0.0000000000000000
  7
STANDARD
  0
ENDBLK
  5
299
100
AcDbEntity
  8
MAIN0
  6
CONTINUOUS
 62
3
100
AcDbBlockEnd
  0
BLOCK
  5
29B
100
AcDbEntity
  8
MAIN0
  6
CONTINUOUS
 62
3
100
AcDbBlockBegin
  2
*D39
 70
    65
 10
0.0
 20
0.0
 30
0.0
  0
LINE
  5
29C
100
AcDbEntity
  8
MAIN0
  6
BYBLOCK
 62
0
100
AcDbLine
 10
1177.412599680215
 20
551.4090734375795
 30
0.0000000000000000
 11
1177.412599680215
 21
849.0887830139936
 31
0.0000000000000000
  0
LINE
  5
29D
100
AcDbEntity
  8
MAIN0
  6
BYBLOCK
 62
0
100
AcDbLine
 10
1185.412599680215
 20
841.0887830139936
 30
0.0000000000000000
 11
1316.412599680392
 21
841.0887830139936
 31
0.0000000000000000
  0
INSERT
  5
29E
100
AcDbEntity
  8
MAIN0
  6
BYBLOCK
 62
0
100
AcDbBlockReference
  2
_OPEN
 10
1177.412599680215
 20
841.0887830139936
 30
0.0000000000000000
 41
8.000000000000000
 42
8.000000000000000
 43
8.000000000000000
 50
180.0000000000000
  0
INSERT
  5
29F
100
AcDbEntity
  8
MAIN0
  6
BYBLOCK
 62
0
100
AcDbBlockReference
  2
_OPEN
 10
1324.412599680392
 20
841.0887830139936
 30
0.0000000000000000
 41
8.000000000000000
 42
8.000000000000000
 43
8.000000000000000
 50
0.0000000000000000
  0
LINE
  5
2A0
100
AcDbEntity
  8
MAIN0
  6
BYBLOCK
 62
0
100
AcDbLine
 10
1324.412599680392
 20
776.4090734375795
 30
0.0000000000000000
 11
1324.412599680392
 21
849.0887830139936
 31
0.0000000000000000
  0
MTEXT
  5
2A1
100
AcDbEntity
  8
MAIN0
  6
BYBLOCK
 62
0
100
AcDbMText
 10
1250.912599680304
 20
847.7887828232588
 30
0.0000000000000000
 40
12.39999961853027
 41
0.0000000000000000
 71
     5
 72
     1
  1
\A1;147
 11
1.000000000000000
 21
0.0000000000000000
 31
0.0000000000000000
  7
STANDARD
  0
ENDBLK
  5
2A2
100
AcDbEntity
  8
MAIN0
  6
CONTINUOUS
 62
3
100
AcDbBlockEnd
  0
BLOCK
  5
2A4
100
AcDbEntity
  8
MAIN0
  6
CONTINUOUS
 62
3
100
AcDbBlockBegin
  2
*D40
 70
    65
 10
0.0
 20
0.0
 30
0.0
  0
LINE
  5
2A5
100
AcDbEntity
  8
MAIN0
  6
BYBLOCK
 62
0
100
AcDbLine
 10
466.1794495808506
 20
945.6981629775568
 30
0.0000000000000000
 11
466.1794495808506
 21
1078.722487284842
 31
0.0000000000000000
  0
LINE
  5
2A6
100
AcDbEntity
  8
MAIN0
  6
BYBLOCK
 62
0
100
AcDbLine
 10
474.1794495808506
 20
1070.722487284842
 30
0.0000000000000000
 11
509.1794495803621
 21
1070.722487284842
 31
0.0000000000000000
  0
INSERT
  5
2A7
100
AcDbEntity
  8
MAIN0
  6
BYBLOCK
 62
0
100
AcDbBlockReference
  2
_OPEN
 10
466.1794495808506
 20
1070.722487284842
 30
0.0000000000000000
 41
8.000000000000000
 42
8.000000000000000
 43
8.000000000000000
 50
180.0000000000000
  0
INSERT
  5
2A8
100
AcDbEntity
  8
MAIN0
  6
BYBLOCK
 62
0
100
AcDbBlockReference
  2
_OPEN
 10
517.1794495803621
 20
1070.722487284842
 30
0.0000000000000000
 41
8.000000000000000
 42
8.000000000000000
 43
8.000000000000000
 50
0.0000000000000000
  0
LINE
  5
2A9
100
AcDbEntity
  8
MAIN0
  6
BYBLOCK
 62
0
100
AcDbLine
 10
517.1794495803621
 20
1034.198162977557
 30
0.0000000000000000
 11
517.1794495803621
 21
1078.722487284842
 31
0.0000000000000000
  0
MTEXT
  5
2AA
100
AcDbEntity
  8
MAIN0
  6
BYBLOCK
 62
0
100
AcDbMText
 10
491.6794495806064
 20
1077.422487094108
 30
0.0000000000000000
 40
12.39999961853027
 41
0.0000000000000000
 71
     5
 72
     1
  1
\A1;51
 11
1.000000000000000
 21
0.0000000000000000
 31
0.0000000000000000
  7
STANDARD
  0
ENDBLK
  5
2AB
100
AcDbEntity
  8
MAIN0
  6
CONTINUOUS
 62
3
100
AcDbBlockEnd
  0
BLOCK
  5
2AD
100
AcDbEntity
  8
MAIN0
  6
CONTINUOUS
 62
3
100
AcDbBlockBegin
  2
*D41
 70
    65
 10
0.0
 20
0.0
 30
0.0
  0
LINE
  5
2AE
100
AcDbEntity
  8
MAIN0
  6
BYBLOCK
 62
0
100
AcDbLine
 10
1345.418743695801
 20
447.1815009552740
 30
0.0000000000000000
 11
1345.418743695801
 21
331.1468552582385
 31
0.0000000000000000
  0
LINE
  5
2AF
100
AcDbEntity
  8
MAIN0
  6
BYBLOCK
 62
0
100
AcDbLine
 10
1353.418743695801
 20
339.1468552582385
 30
0.0000000000000000
 11
1408.418743695792
 21
339.1468552582385
 31
0.0000000000000000
  0
INSERT
  5
2B0
100
AcDbEntity
  8
MAIN0
  6
BYBLOCK
 62
0
100
AcDbBlockReference
  2
_OPEN
 10
1345.418743695801
 20
339.1468552582385
 30
0.0000000000000000
 41
8.000000000000000
 42
8.000000000000000
 43
8.000000000000000
 50
180.0000000000000
  0
INSERT
  5
2B1
100
AcDbEntity
  8
MAIN0
  6
BYBLOCK
 62
0
100
AcDbBlockReference
  2
_OPEN
 10
1416.418743695792
 20
339.1468552582385
 30
0.0000000000000000
 41
8.000000000000000
 42
8.000000000000000
 43
8.000000000000000
 50
0.0000000000000000
  0
LINE
  5
2B2
100
AcDbEntity
  8
MAIN0
  6
BYBLOCK
 62
0
100
AcDbLine
 10
1416.418743695792
 20
417.5815009551683
 30
0.0000000000000000
 11
1416.418743695792
 21
331.1468552582385
 31
0.0000000000000000
  0
MTEXT
  5
2B3
100
AcDbEntity
  8
MAIN0
  6
BYBLOCK
 62
0
100
AcDbMText
 10
1380.918743695796
 20
345.8468550675037
 30
0.0000000000000000
 40
12.39999961853027
 41
0.0000000000000000
 71
     5
 72
     1
  1
\A1;71
 11
1.000000000000000
 21
0.0000000000000000
 31
0.0000000000000000
  7
STANDARD
  0
ENDBLK
  5
2B4
100
AcDbEntity
  8
MAIN0
  6
CONTINUOUS
 62
3
100
AcDbBlockEnd
  0
BLOCK
  5
2B6
100
AcDbEntity
  8
MAIN0
  6
CONTINUOUS
 62
3
100
AcDbBlockBegin
  2
*D42
 70
    65
 10
0.0
 20
0.0
 30
0.0
  0
LINE
  5
2B7
100
AcDbEntity
  8
MAIN0
  6
BYBLOCK
 62
0
100
AcDbLine
 10
1416.418743695792
 20
417.5815009551683
 30
0.0000000000000000
 11
1416.418743695792
 21
331.1468552582385
 31
0.0000000000000000
  0
LINE
  5
2B8
100
AcDbEntity
  8
MAIN0
  6
BYBLOCK
 62
0
100
AcDbLine
 10
1424.418743695792
 20
339.1468552582385
 30
0.0000000000000000
 11
1610.418743695792
 21
339.1468552582385
 31
0.0000000000000000
  0
INSERT
  5
2B9
100
AcDbEntity
  8
MAIN0
  6
BYBLOCK
 62
0
100
AcDbBlockReference
  2
_OPEN
 10
1416.418743695792
 20
339.1468552582385
 30
0.0000000000000000
 41
8.000000000000000
 42
8.000000000000000
 43
8.000000000000000
 50
180.0000000000000
  0
INSERT
  5
2BA
100
AcDbEntity
  8
MAIN0
  6
BYBLOCK
 62
0
100
AcDbBlockReference
  2
_OPEN
 10
1618.418743695792
 20
339.1468552582385
 30
0.0000000000000000
 41
8.000000000000000
 42
8.000000000000000
 43
8.000000000000000
 50
0.0000000000000000
  0
LINE
  5
2BB
100
AcDbEntity
  8
MAIN0
  6
BYBLOCK
 62
0
100
AcDbLine
 10
1618.418743695792
 20
417.5815009550834
 30
0.0000000000000000
 11
1618.418743695792
 21
331.1468552582385
 31
0.0000000000000000
  0
MTEXT
  5
2BC
100
AcDbEntity
  8
MAIN0
  6
BYBLOCK
 62
0
100
AcDbMText
 10
1517.418743695792
 20
345.8468550675037
 30
0.0000000000000000
 40
12.39999961853027
 41
0.0000000000000000
 71
     5
 72
     1
  1
\A1;202
 11
1.000000000000000
 21
0.0000000000000000
 31
0.0000000000000000
  7
STANDARD
  0
ENDBLK
  5
2BD
100
AcDbEntity
  8
MAIN0
  6
CONTINUOUS
 62
3
100
AcDbBlockEnd
  0
BLOCK
  5
2BF
100
AcDbEntity
  8
MAIN0
  6
CONTINUOUS
 62
3
100
AcDbBlockBegin
  2
D43
 70
    64
 10
0.0
 20
0.0
 30
0.0
  0
LINE
  5
2C0
100
AcDbEntity
  8
MAIN0
  6
BYBLOCK
 62
0
100
AcDbLine
 10
29.36553431668403
 20
-100.7343716136167
 30
0.0000000000000000
 11
-172.0000000000538
 21
-100.7343716135321
 31
0.0000000000000000
  0
LINE
  5
2C1
100
AcDbEntity
  8
MAIN0
  6
BYBLOCK
 62
0
100
AcDbLine
 10
-164.0000000000548
 20
-103.1343717089029
 30
0.0000000000000000
 11
-172.0000000000538
 21
-100.7343716135321
 31
0.0000000000000000
  0
LINE
  5
2C2
100
AcDbEntity
  8
MAIN0
  6
BYBLOCK
 62
0
100
AcDbLine
 10
-172.0000000000538
 20
-100.7343716135321
 30
0.0000000000000000
 11
-164.0000000000528
 21
-98.33437151816800
 31
0.0000000000000000
  0
LINE
  5
2C3
100
AcDbEntity
  8
MAIN0
  6
BYBLOCK
 62
0
100
AcDbLine
 10
-171.9999999999958
 20
37.04721015249695
 30
0.0000000000000000
 11
-172.0000000000572
 21
-108.7343716135321
 31
0.0000000000000000
  0
MTEXT
  5
2C4
100
AcDbEntity
  8
MAIN0
  6
BYBLOCK
 62
0
100
AcDbMText
 10
21.61553431295874
 20
-94.03437180434835
 30
0.0000000000000000
 40
12.39999961853027
 41
0.0000000000000000
 71
     5
 72
     1
  1
\A1;（344）
 11
1.000000000000000
 21
0.0000000000000000
 31
0.0000000000000000
  7
KNJYOKO
  0
ENDBLK
  5
2C5
100
AcDbEntity
  8
MAIN0
  6
CONTINUOUS
 62
3
100
AcDbBlockEnd
  0
BLOCK
  5
2C9
100
AcDbEntity
  8
MAIN0
  6
CONTINUOUS
 62
3
100
AcDbBlockBegin
  2
*D44
 70
    65
 10
0.0
 20
0.0
 30
0.0
  0
LINE
  5
2CA
100
AcDbEntity
  8
MAIN0
  6
BYBLOCK
 62
0
100
AcDbLine
 10
1032.379449627812
 20
420.3815010042097
 30
0.0000000000000000
 11
1163.630107064808
 21
420.3815010056057
 31
0.0000000000000000
  0
LINE
  5
2CB
100
AcDbEntity
  8
MAIN0
  6
BYBLOCK
 62
0
100
AcDbLine
 10
1155.630107064808
 20
428.3815010055207
 30
0.0000000000000000
 11
1155.630107064808
 21
487.3815010035519
 31
0.0000000000000000
  0
INSERT
  5
2CC
100
AcDbEntity
  8
MAIN0
  6
BYBLOCK
 62
0
100
AcDbBlockReference
  2
_OPEN
 10
1155.630107064808
 20
420.3815010055207
 30
0.0000000000000000
 41
8.000000000000000
 42
8.000000000000000
 43
8.000000000000000
 50
270.0000000000000
  0
INSERT
  5
2CD
100
AcDbEntity
  8
MAIN0
  6
BYBLOCK
 62
0
100
AcDbBlockReference
  2
_OPEN
 10
1155.630107064808
 20
495.3815010035519
 30
0.0000000000000000
 41
8.000000000000000
 42
8.000000000000000
 43
8.000000000000000
 50
90.00000000000000
  0
LINE
  5
2CE
100
AcDbEntity
  8
MAIN0
  6
BYBLOCK
 62
0
100
AcDbLine
 10
1150.938179300808
 20
495.3815010035519
 30
0.0000000000000000
 11
1163.630107064808
 21
495.3815010035519
 31
0.0000000000000000
  0
MTEXT
  5
2CF
100
AcDbEntity
  8
MAIN0
  6
BYBLOCK
 62
0
100
AcDbMText
 10
1148.930107255543
 20
457.8815010045363
 30
0.0000000000000000
 40
12.39999961853027
 41
0.0000000000000000
 71
     5
 72
     1
  1
\A1;75
 11
6.123233995736766e-017
 21
1.000000000000000
 31
0.0000000000000000
  7
STANDARD
  0
ENDBLK
  5
2D0
100
AcDbEntity
  8
MAIN0
  6
CONTINUOUS
 62
3
100
AcDbBlockEnd
  0
BLOCK
  5
2D7
100
AcDbEntity
  8
MAIN0
  6
CONTINUOUS
 62
3
100
AcDbBlockBegin
  2
*D45
 70
    65
 10
0.0
 20
0.0
 30
0.0
  0
LINE
  5
2D8
100
AcDbEntity
  8
MAIN0
  6
BYBLOCK
 62
0
100
AcDbLine
 10
1232.268073143632
 20
453.5815010506797
 30
0.0000000000000000
 11
1232.268073143632
 21
492.1544953020367
 31
0.0000000000000000
  0
LINE
  5
2D9
100
AcDbEntity
  8
MAIN0
  6
BYBLOCK
 62
0
100
AcDbLine
 10
1240.268073143632
 20
484.1544953020367
 30
0.0000000000000000
 11
1269.268073143632
 21
484.1544953020367
 31
0.0000000000000000
  0
INSERT
  5
2DA
100
AcDbEntity
  8
MAIN0
  6
BYBLOCK
 62
0
100
AcDbBlockReference
  2
_OPEN
 10
1232.268073143632
 20
484.1544953020367
 30
0.0000000000000000
 41
8.000000000000000
 42
8.000000000000000
 43
8.000000000000000
 50
180.0000000000000
  0
INSERT
  5
2DB
100
AcDbEntity
  8
MAIN0
  6
BYBLOCK
 62
0
100
AcDbBlockReference
  2
_OPEN
 10
1277.268073143632
 20
484.1544953020367
 30
0.0000000000000000
 41
8.000000000000000
 42
8.000000000000000
 43
8.000000000000000
 50
0.0000000000000000
  0
LINE
  5
2DC
100
AcDbEntity
  8
MAIN0
  6
BYBLOCK
 62
0
100
AcDbLine
 10
1277.268073143632
 20
453.5815010506659
 30
0.0000000000000000
 11
1277.268073143632
 21
492.1544953020367
 31
0.0000000000000000
  0
MTEXT
  5
2DD
100
AcDbEntity
  8
MAIN0
  6
BYBLOCK
 62
0
100
AcDbMText
 10
1254.768073143632
 20
490.8544951113018
 30
0.0000000000000000
 40
12.39999961853027
 41
0.0000000000000000
 71
     5
 72
     1
  1
\A1;45
 11
1.000000000000000
 21
0.0000000000000000
 31
0.0000000000000000
  7
STANDARD
  0
ENDBLK
  5
2DE
100
AcDbEntity
  8
MAIN0
  6
CONTINUOUS
 62
3
100
AcDbBlockEnd
  0
BLOCK
  5
2E0
100
AcDbEntity
  8
MAIN0
  6
CONTINUOUS
 62
3
100
AcDbBlockBegin
  2
*D46
 70
    65
 10
0.0
 20
0.0
 30
0.0
  0
LINE
  5
2E1
100
AcDbEntity
  8
MAIN0
  6
BYBLOCK
 62
0
100
AcDbLine
 10
1375.218743648064
 20
280.4997479862271
 30
0.0000000000000000
 11
1347.250206862902
 21
280.4997479862271
 31
0.0000000000000000
  0
LINE
  5
2E2
100
AcDbEntity
  8
MAIN0
  6
BYBLOCK
 62
0
100
AcDbLine
 10
1355.250206862902
 20
280.4997479862271
 30
0.0000000000000000
 11
1355.250206862902
 21
251.9997479862273
 31
0.0000000000000000
  0
INSERT
  5
2E3
100
AcDbEntity
  8
MAIN0
  6
BYBLOCK
 62
0
100
AcDbBlockReference
  2
_OPEN
 10
1355.250206862902
 20
280.4997479862271
 30
0.0000000000000000
 41
8.000000000000000
 42
8.000000000000000
 43
8.000000000000000
 50
270.0000000000000
  0
INSERT
  5
2E4
100
AcDbEntity
  8
MAIN0
  6
BYBLOCK
 62
0
100
AcDbBlockReference
  2
_OPEN
 10
1355.250206862902
 20
251.9997479862273
 30
0.0000000000000000
 41
8.000000000000000
 42
8.000000000000000
 43
8.000000000000000
 50
90.00000000000000
  0
LINE
  5
2E5
100
AcDbEntity
  8
MAIN0
  6
BYBLOCK
 62
0
100
AcDbLine
 10
1355.250206862902
 20
288.4997479862271
 30
0.0000000000000000
 11
1355.250206862902
 21
292.4997479862271
 31
0.0000000000000000
  0
LINE
  5
2E6
100
AcDbEntity
  8
MAIN0
  6
BYBLOCK
 62
0
100
AcDbLine
 10
1355.250206862902
 20
243.9997479862273
 30
0.0000000000000000
 11
1355.250206862902
 21
239.9997479862273
 31
0.0000000000000000
  0
LINE
  5
2E7
100
AcDbEntity
  8
MAIN0
  6
BYBLOCK
 62
0
100
AcDbLine
 10
1375.218743648084
 20
251.9997479862273
 30
0.0000000000000000
 11
1347.250206862902
 21
251.9997479862273
 31
0.0000000000000000
  0
MTEXT
  5
2E8
100
AcDbEntity
  8
MAIN0
  6
BYBLOCK
 62
0
100
AcDbMText
 10
1348.550207053637
 20
266.2497479862272
 30
0.0000000000000000
 40
12.39999961853027
 41
0.0000000000000000
 71
     5
 72
     1
  1
\A1;28.5
 11
6.123233995736766e-017
 21
1.000000000000000
 31
0.0000000000000000
  7
STANDARD
  0
ENDBLK
  5
2E9
100
AcDbEntity
  8
MAIN0
  6
CONTINUOUS
 62
3
100
AcDbBlockEnd
  0
BLOCK
  5
2EB
100
AcDbEntity
  8
MAIN0
  6
CONTINUOUS
 62
3
100
AcDbBlockBegin
  2
*D47
 70
    65
 10
0.0
 20
0.0
 30
0.0
  0
LINE
  5
2EC
100
AcDbEntity
  8
MAIN0
  6
BYBLOCK
 62
0
100
AcDbLine
 10
1411.618743743435
 20
274.9997479862196
 30
0.0000000000000000
 11
1452.669773467696
 21
274.9997479862291
 31
0.0000000000000000
  0
LINE
  5
2ED
100
AcDbEntity
  8
MAIN0
  6
BYBLOCK
 62
0
100
AcDbLine
 10
1444.669773467696
 20
274.9997479862273
 30
0.0000000000000000
 11
1444.669773467696
 21
257.4997479862273
 31
0.0000000000000000
  0
INSERT
  5
2EE
100
AcDbEntity
  8
MAIN0
  6
BYBLOCK
 62
0
100
AcDbBlockReference
  2
_OPEN
 10
1444.669773467696
 20
274.9997479862273
 30
0.0000000000000000
 41
8.000000000000000
 42
8.000000000000000
 43
8.000000000000000
 50
270.0000000000000
  0
INSERT
  5
2EF
100
AcDbEntity
  8
MAIN0
  6
BYBLOCK
 62
0
100
AcDbBlockReference
  2
_OPEN
 10
1444.669773467696
 20
257.4997479862273
 30
0.0000000000000000
 41
8.000000000000000
 42
8.000000000000000
 43
8.000000000000000
 50
90.00000000000000
  0
LINE
  5
2F0
100
AcDbEntity
  8
MAIN0
  6
BYBLOCK
 62
0
100
AcDbLine
 10
1444.669773467696
 20
282.9997479862273
 30
0.0000000000000000
 11
1444.669773467696
 21
286.9997479862273
 31
0.0000000000000000
  0
LINE
  5
2F1
100
AcDbEntity
  8
MAIN0
  6
BYBLOCK
 62
0
100
AcDbLine
 10
1444.669773467696
 20
249.4997479862273
 30
0.0000000000000000
 11
1444.669773467696
 21
219.8485482588661
 31
0.0000000000000000
  0
LINE
  5
2F2
100
AcDbEntity
  8
MAIN0
  6
BYBLOCK
 62
0
100
AcDbLine
 10
1411.618743743447
 20
257.4997479862198
 30
0.0000000000000000
 11
1452.669773467696
 21
257.4997479862292
 31
0.0000000000000000
  0
MTEXT
  5
2F3
100
AcDbEntity
  8
MAIN0
  6
BYBLOCK
 62
0
100
AcDbMText
 10
1436.469773658431
 20
234.4485486403358
 30
0.0000000000000000
 40
12.39999961853027
 41
0.0000000000000000
 71
     5
 72
     1
  1
\A1;17.5
 11
6.123233995736766e-017
 21
1.000000000000000
 31
0.0000000000000000
  7
STANDARD
  0
ENDBLK
  5
2F4
100
AcDbEntity
  8
MAIN0
  6
CONTINUOUS
 62
3
100
AcDbBlockEnd
  0
BLOCK
  5
2F6
100
AcDbEntity
  8
MAIN0
  6
CONTINUOUS
 62
3
100
AcDbBlockBegin
  2
*D48
 70
    65
 10
0.0
 20
0.0
 30
0.0
  0
LINE
  5
2F7
100
AcDbEntity
  8
MAIN0
  6
BYBLOCK
 62
0
100
AcDbLine
 10
1378.418743695768
 20
248.7997479385436
 30
0.0000000000000000
 11
1378.418743695768
 21
211.6959043075557
 31
0.0000000000000000
  0
LINE
  5
2F8
100
AcDbEntity
  8
MAIN0
  6
BYBLOCK
 62
0
100
AcDbLine
 10
1378.418743695768
 20
219.6959043075557
 30
0.0000000000000000
 11
1408.418743695767
 21
219.6959043075557
 31
0.0000000000000000
  0
INSERT
  5
2F9
100
AcDbEntity
  8
MAIN0
  6
BYBLOCK
 62
0
100
AcDbBlockReference
  2
_OPEN
 10
1378.418743695768
 20
219.6959043075557
 30
0.0000000000000000
 41
8.000000000000000
 42
8.000000000000000
 43
8.000000000000000
 50
0.0000000000000000
  0
INSERT
  5
2FA
100
AcDbEntity
  8
MAIN0
  6
BYBLOCK
 62
0
100
AcDbBlockReference
  2
_OPEN
 10
1408.418743695767
 20
219.6959043075557
 30
0.0000000000000000
 41
8.000000000000000
 42
8.000000000000000
 43
8.000000000000000
 50
180.0000000000000
  0
LINE
  5
2FB
100
AcDbEntity
  8
MAIN0
  6
BYBLOCK
 62
0
100
AcDbLine
 10
1370.418743695768
 20
219.6959043075557
 30
0.0000000000000000
 11
1366.418743695768
 21
219.6959043075557
 31
0.0000000000000000
  0
LINE
  5
2FC
100
AcDbEntity
  8
MAIN0
  6
BYBLOCK
 62
0
100
AcDbLine
 10
1416.418743695767
 20
219.6959043075557
 30
0.0000000000000000
 11
1420.418743695767
 21
219.6959043075557
 31
0.0000000000000000
  0
LINE
  5
2FD
100
AcDbEntity
  8
MAIN0
  6
BYBLOCK
 62
0
100
AcDbLine
 10
1408.418743695767
 20
248.7997479385353
 30
0.0000000000000000
 11
1408.418743695767
 21
211.6959043075557
 31
0.0000000000000000
  0
MTEXT
  5
2FE
100
AcDbEntity
  8
MAIN0
  6
BYBLOCK
 62
0
100
AcDbMText
 10
1393.418743695767
 20
226.3959041168208
 30
0.0000000000000000
 40
12.39999961853027
 41
0.0000000000000000
 71
     5
 72
     1
  1
\A1;30
 11
1.000000000000000
 21
0.0000000000000000
 31
0.0000000000000000
  7
STANDARD
  0
ENDBLK
  5
2FF
100
AcDbEntity
  8
MAIN0
  6
CONTINUOUS
 62
3
100
AcDbBlockEnd
  0
BLOCK
  5
406
100
AcDbEntity
  8
MAIN0
  6
CONTINUOUS
 62
3
100
AcDbBlockBegin
  2
*D49
 70
    65
 10
0.0
 20
0.0
 30
0.0
  0
LINE
  5
407
100
AcDbEntity
  8
MAIN0
  6
BYBLOCK
 62
0
100
AcDbLine
 10
421.3127828660113
 20
881.4981629298911
 30
0.0000000000000000
 11
358.5916250205816
 21
881.4981629298911
 31
0.0000000000000000
  0
LINE
  5
408
100
AcDbEntity
  8
MAIN0
  6
BYBLOCK
 62
0
100
AcDbLine
 10
366.5916250205816
 20
889.4981629298911
 30
0.0000000000000000
 11
366.5916250205816
 21
973.4981629297748
 31
0.0000000000000000
  0
INSERT
  5
409
100
AcDbEntity
  8
MAIN0
  6
BYBLOCK
 62
0
100
AcDbBlockReference
  2
_OPEN
 10
366.5916250205816
 20
881.4981629298911
 30
0.0000000000000000
 41
8.000000000000000
 42
8.000000000000000
 43
8.000000000000000
 50
270.0000000000000
  0
INSERT
  5
40A
100
AcDbEntity
  8
MAIN0
  6
BYBLOCK
 62
0
100
AcDbBlockReference
  2
_OPEN
 10
366.5916250205816
 20
981.4981629297748
 30
0.0000000000000000
 41
8.000000000000000
 42
8.000000000000000
 43
8.000000000000000
 50
90.00000000000000
  0
LINE
  5
40B
100
AcDbEntity
  8
MAIN0
  6
BYBLOCK
 62
0
100
AcDbLine
 10
421.3127828660115
 20
981.4981629297748
 30
0.0000000000000000
 11
358.5916250205816
 21
981.4981629297748
 31
0.0000000000000000
  0
MTEXT
  5
40C
100
AcDbEntity
  8
MAIN0
  6
BYBLOCK
 62
0
100
AcDbMText
 10
359.8916252113164
 20
931.4981629298329
 30
0.0000000000000000
 40
12.39999961853027
 41
0.0000000000000000
 71
     5
 72
     1
  1
\A1;100
 11
6.123233995736766e-017
 21
1.000000000000000
 31
0.0000000000000000
  7
STANDARD
  0
ENDBLK
  5
40D
100
AcDbEntity
  8
MAIN0
  6
CONTINUOUS
 62
3
100
AcDbBlockEnd
  0
BLOCK
  5
40F
100
AcDbEntity
  8
MAIN0
  6
CONTINUOUS
 62
3
100
AcDbBlockBegin
  2
*D50
 70
    65
 10
0.0
 20
0.0
 30
0.0
  0
LINE
  5
410
100
AcDbEntity
  8
MAIN0
  6
BYBLOCK
 62
0
100
AcDbLine
 10
432.1794495803618
 20
870.6314962155408
 30
0.0000000000000000
 11
432.1794495803618
 21
784.4640532430518
 31
0.0000000000000000
  0
LINE
  5
411
100
AcDbEntity
  8
MAIN0
  6
BYBLOCK
 62
0
100
AcDbLine
 10
440.1794495803618
 20
792.4640532430518
 30
0.0000000000000000
 11
494.1794495803617
 21
792.4640532430518
 31
0.0000000000000000
  0
INSERT
  5
412
100
AcDbEntity
  8
MAIN0
  6
BYBLOCK
 62
0
100
AcDbBlockReference
  2
_OPEN
 10
432.1794495803618
 20
792.4640532430518
 30
0.0000000000000000
 41
8.000000000000000
 42
8.000000000000000
 43
8.000000000000000
 50
180.0000000000000
  0
INSERT
  5
413
100
AcDbEntity
  8
MAIN0
  6
BYBLOCK
 62
0
100
AcDbBlockReference
  2
_OPEN
 10
502.1794495803617
 20
792.4640532430518
 30
0.0000000000000000
 41
8.000000000000000
 42
8.000000000000000
 43
8.000000000000000
 50
0.0000000000000000
  0
LINE
  5
414
100
AcDbEntity
  8
MAIN0
  6
BYBLOCK
 62
0
100
AcDbLine
 10
502.1794495803617
 20
870.6314962155407
 30
0.0000000000000000
 11
502.1794495803617
 21
784.4640532430518
 31
0.0000000000000000
  0
MTEXT
  5
415
100
AcDbEntity
  8
MAIN0
  6
BYBLOCK
 62
0
100
AcDbMText
 10
467.1794495803617
 20
799.1640530523169
 30
0.0000000000000000
 40
12.39999961853027
 41
0.0000000000000000
 71
     5
 72
     1
  1
\A1;70
 11
1.000000000000000
 21
0.0000000000000000
 31
0.0000000000000000
  7
STANDARD
  0
ENDBLK
  5
416
100
AcDbEntity
  8
MAIN0
  6
CONTINUOUS
 62
3
100
AcDbBlockEnd
  0
BLOCK
  5
418
100
AcDbEntity
  8
MAIN0
  6
CONTINUOUS
 62
3
100
AcDbBlockBegin
  2
*D51
 70
    65
 10
0.0
 20
0.0
 30
0.0
  0
LINE
  5
419
100
AcDbEntity
  8
MAIN0
  6
BYBLOCK
 62
0
100
AcDbLine
 10
502.1794495803617
 20
870.6314962155407
 30
0.0000000000000000
 11
502.1794495803617
 21
784.4640532430518
 31
0.0000000000000000
  0
LINE
  5
41A
100
AcDbEntity
  8
MAIN0
  6
BYBLOCK
 62
0
100
AcDbLine
 10
502.1794495803617
 20
792.4640532430518
 30
0.0000000000000000
 11
517.1794495803620
 21
792.4640532430518
 31
0.0000000000000000
  0
INSERT
  5
41B
100
AcDbEntity
  8
MAIN0
  6
BYBLOCK
 62
0
100
AcDbBlockReference
  2
_OPEN
 10
502.1794495803617
 20
792.4640532430518
 30
0.0000000000000000
 41
8.000000000000000
 42
8.000000000000000
 43
8.000000000000000
 50
0.0000000000000000
  0
INSERT
  5
41C
100
AcDbEntity
  8
MAIN0
  6
BYBLOCK
 62
0
100
AcDbBlockReference
  2
_OPEN
 10
517.1794495803620
 20
792.4640532430518
 30
0.0000000000000000
 41
8.000000000000000
 42
8.000000000000000
 43
8.000000000000000
 50
180.0000000000000
  0
LINE
  5
41D
100
AcDbEntity
  8
MAIN0
  6
BYBLOCK
 62
0
100
AcDbLine
 10
494.1794495803617
 20
792.4640532430518
 30
0.0000000000000000
 11
490.1794495803617
 21
792.4640532430518
 31
0.0000000000000000
  0
LINE
  5
41E
100
AcDbEntity
  8
MAIN0
  6
BYBLOCK
 62
0
100
AcDbLine
 10
525.1794495803620
 20
792.4640532430518
 30
0.0000000000000000
 11
537.1284731891931
 21
792.4640532430518
 31
0.0000000000000000
  0
LINE
  5
41F
100
AcDbEntity
  8
MAIN0
  6
BYBLOCK
 62
0
100
AcDbLine
 10
517.1794495803620
 20
828.7981628821896
 30
0.0000000000000000
 11
517.1794495803620
 21
784.4640532430518
 31
0.0000000000000000
  0
MTEXT
  5
420
100
AcDbEntity
  8
MAIN0
  6
BYBLOCK
 62
0
100
AcDbMText
 10
528.9284733799279
 20
800.6640530523169
 30
0.0000000000000000
 40
12.39999961853027
 41
0.0000000000000000
 71
     5
 72
     1
  1
\A1;15
 11
1.000000000000000
 21
0.0000000000000000
 31
0.0000000000000000
  7
STANDARD
  0
ENDBLK
  5
421
100
AcDbEntity
  8
MAIN0
  6
CONTINUOUS
 62
3
100
AcDbBlockEnd
  0
BLOCK
  5
435
100
AcDbEntity
  8
MAIN0
  6
CONTINUOUS
 62
3
100
AcDbBlockBegin
  2
*D52
 70
    65
 10
0.0
 20
0.0
 30
0.0
  0
LINE
  5
436
100
AcDbEntity
  8
MAIN0
  6
BYBLOCK
 62
0
100
AcDbLine
 10
632.1794495803612
 20
1034.098162977557
 30
0.0000000000000000
 11
632.1794495803612
 21
1078.722487284842
 31
0.0000000000000000
  0
LINE
  5
437
100
AcDbEntity
  8
MAIN0
  6
BYBLOCK
 62
0
100
AcDbLine
 10
640.1794495803612
 20
1070.722487284842
 30
0.0000000000000000
 11
673.1794495805902
 21
1070.722487284842
 31
0.0000000000000000
  0
INSERT
  5
438
100
AcDbEntity
  8
MAIN0
  6
BYBLOCK
 62
0
100
AcDbBlockReference
  2
_OPEN
 10
632.1794495803612
 20
1070.722487284842
 30
0.0000000000000000
 41
8.000000000000000
 42
8.000000000000000
 43
8.000000000000000
 50
180.0000000000000
  0
INSERT
  5
439
100
AcDbEntity
  8
MAIN0
  6
BYBLOCK
 62
0
100
AcDbBlockReference
  2
_OPEN
 10
681.1794495805902
 20
1070.722487284842
 30
0.0000000000000000
 41
8.000000000000000
 42
8.000000000000000
 43
8.000000000000000
 50
0.0000000000000000
  0
LINE
  5
43A
100
AcDbEntity
  8
MAIN0
  6
BYBLOCK
 62
0
100
AcDbLine
 10
681.1794495805902
 20
946.3648296442236
 30
0.0000000000000000
 11
681.1794495805902
 21
1078.722487284842
 31
0.0000000000000000
  0
MTEXT
  5
43B
100
AcDbEntity
  8
MAIN0
  6
BYBLOCK
 62
0
100
AcDbMText
 10
656.6794495804757
 20
1077.422487094108
 30
0.0000000000000000
 40
12.39999961853027
 41
0.0000000000000000
 71
     5
 72
     1
  1
\A1;49
 11
1.000000000000000
 21
0.0000000000000000
 31
0.0000000000000000
  7
STANDARD
  0
ENDBLK
  5
43C
100
AcDbEntity
  8
MAIN0
  6
CONTINUOUS
 62
3
100
AcDbBlockEnd
  0
BLOCK
  5
43E
100
AcDbEntity
  8
MAIN0
  6
CONTINUOUS
 62
3
100
AcDbBlockBegin
  2
*D53
 70
    65
 10
0.0
 20
0.0
 30
0.0
  0
LINE
  5
43F
100
AcDbEntity
  8
MAIN0
  6
BYBLOCK
 62
0
100
AcDbLine
 10
718.0461162951702
 20
856.4981629298733
 30
0.0000000000000000
 11
776.7066162479134
 21
856.4981629298733
 31
0.0000000000000000
  0
LINE
  5
440
100
AcDbEntity
  8
MAIN0
  6
BYBLOCK
 62
0
100
AcDbLine
 10
768.7066162479134
 20
864.4981629298733
 30
0.0000000000000000
 11
768.7066162479134
 21
998.4981629298726
 31
0.0000000000000000
  0
INSERT
  5
441
100
AcDbEntity
  8
MAIN0
  6
BYBLOCK
 62
0
100
AcDbBlockReference
  2
_OPEN
 10
768.7066162479134
 20
856.4981629298733
 30
0.0000000000000000
 41
8.000000000000000
 42
8.000000000000000
 43
8.000000000000000
 50
270.0000000000000
  0
INSERT
  5
442
100
AcDbEntity
  8
MAIN0
  6
BYBLOCK
 62
0
100
AcDbBlockReference
  2
_OPEN
 10
768.7066162479134
 20
1006.498162929873
 30
0.0000000000000000
 41
8.000000000000000
 42
8.000000000000000
 43
8.000000000000000
 50
90.00000000000000
  0
LINE
  5
443
100
AcDbEntity
  8
MAIN0
  6
BYBLOCK
 62
0
100
AcDbLine
 10
718.0461162951702
 20
1006.498162929873
 30
0.0000000000000000
 11
776.7066162479134
 21
1006.498162929873
 31
0.0000000000000000
  0
MTEXT
  5
444
100
AcDbEntity
  8
MAIN0
  6
BYBLOCK
 62
0
100
AcDbMText
 10
762.0066164386483
 20
931.4981629298729
 30
0.0000000000000000
 40
12.39999961853027
 41
0.0000000000000000
 71
     5
 72
     1
  1
\A1;150
 11
6.123233995736766e-017
 21
1.000000000000000
 31
0.0000000000000000
  7
STANDARD
  0
ENDBLK
  5
445
100
AcDbEntity
  8
MAIN0
  6
CONTINUOUS
 62
3
100
AcDbBlockEnd
  0
BLOCK
  5
447
100
AcDbEntity
  8
MAIN0
  6
CONTINUOUS
 62
3
100
AcDbBlockBegin
  2
*D54
 70
    65
 10
0.0
 20
0.0
 30
0.0
  0
LINE
  5
448
100
AcDbEntity
  8
MAIN0
  6
BYBLOCK
 62
0
100
AcDbLine
 10
632.1794495803611
 20
828.8981628821897
 30
0.0000000000000000
 11
632.1794495803611
 21
784.4640532430518
 31
0.0000000000000000
  0
LINE
  5
449
100
AcDbEntity
  8
MAIN0
  6
BYBLOCK
 62
0
100
AcDbLine
 10
632.1794495803611
 20
792.4640532430518
 30
0.0000000000000000
 11
647.1794495808200
 21
792.4640532430518
 31
0.0000000000000000
  0
INSERT
  5
44A
100
AcDbEntity
  8
MAIN0
  6
BYBLOCK
 62
0
100
AcDbBlockReference
  2
_OPEN
 10
632.1794495803611
 20
792.4640532430518
 30
0.0000000000000000
 41
8.000000000000000
 42
8.000000000000000
 43
8.000000000000000
 50
0.0000000000000000
  0
INSERT
  5
44B
100
AcDbEntity
  8
MAIN0
  6
BYBLOCK
 62
0
100
AcDbBlockReference
  2
_OPEN
 10
647.1794495808200
 20
792.4640532430518
 30
0.0000000000000000
 41
8.000000000000000
 42
8.000000000000000
 43
8.000000000000000
 50
180.0000000000000
  0
LINE
  5
44C
100
AcDbEntity
  8
MAIN0
  6
BYBLOCK
 62
0
100
AcDbLine
 10
624.1794495803611
 20
792.4640532430518
 30
0.0000000000000000
 11
609.2192957466739
 21
792.4640532430518
 31
0.0000000000000000
  0
LINE
  5
44D
100
AcDbEntity
  8
MAIN0
  6
BYBLOCK
 62
0
100
AcDbLine
 10
655.1794495808200
 20
792.4640532430518
 30
0.0000000000000000
 11
659.1794495808200
 21
792.4640532430518
 31
0.0000000000000000
  0
LINE
  5
44E
100
AcDbEntity
  8
MAIN0
  6
BYBLOCK
 62
0
100
AcDbLine
 10
647.1794495808200
 20
845.6314962155229
 30
0.0000000000000000
 11
647.1794495808200
 21
784.4640532430518
 31
0.0000000000000000
  0
MTEXT
  5
44F
100
AcDbEntity
  8
MAIN0
  6
BYBLOCK
 62
0
100
AcDbMText
 10
617.4192955559390
 20
800.6640530523169
 30
0.0000000000000000
 40
12.39999961853027
 41
0.0000000000000000
 71
     5
 72
     1
  1
\A1;15
 11
1.000000000000000
 21
0.0000000000000000
 31
0.0000000000000000
  7
STANDARD
  0
ENDBLK
  5
450
100
AcDbEntity
  8
MAIN0
  6
CONTINUOUS
 62
3
100
AcDbBlockEnd
  0
BLOCK
  5
452
100
AcDbEntity
  8
MAIN0
  6
CONTINUOUS
 62
3
100
AcDbBlockBegin
  2
*D55
 70
    65
 10
0.0
 20
0.0
 30
0.0
  0
LINE
  5
453
100
AcDbEntity
  8
MAIN0
  6
BYBLOCK
 62
0
100
AcDbLine
 10
647.1794495808200
 20
845.6314962155229
 30
0.0000000000000000
 11
647.1794495808200
 21
784.4640532430518
 31
0.0000000000000000
  0
LINE
  5
454
100
AcDbEntity
  8
MAIN0
  6
BYBLOCK
 62
0
100
AcDbLine
 10
655.1794495808200
 20
792.4640532430518
 30
0.0000000000000000
 11
699.1794495808200
 21
792.4640532430518
 31
0.0000000000000000
  0
INSERT
  5
455
100
AcDbEntity
  8
MAIN0
  6
BYBLOCK
 62
0
100
AcDbBlockReference
  2
_OPEN
 10
647.1794495808200
 20
792.4640532430518
 30
0.0000000000000000
 41
8.000000000000000
 42
8.000000000000000
 43
8.000000000000000
 50
180.0000000000000
  0
INSERT
  5
456
100
AcDbEntity
  8
MAIN0
  6
BYBLOCK
 62
0
100
AcDbBlockReference
  2
_OPEN
 10
707.1794495808200
 20
792.4640532430518
 30
0.0000000000000000
 41
8.000000000000000
 42
8.000000000000000
 43
8.000000000000000
 50
0.0000000000000000
  0
LINE
  5
457
100
AcDbEntity
  8
MAIN0
  6
BYBLOCK
 62
0
100
AcDbLine
 10
707.1794495808200
 20
845.6314962155227
 30
0.0000000000000000
 11
707.1794495808200
 21
784.4640532430518
 31
0.0000000000000000
  0
MTEXT
  5
458
100
AcDbEntity
  8
MAIN0
  6
BYBLOCK
 62
0
100
AcDbMText
 10
677.1794495808200
 20
799.1640530523169
 30
0.0000000000000000
 40
12.39999961853027
 41
0.0000000000000000
 71
     5
 72
     1
  1
\A1;60
 11
1.000000000000000
 21
0.0000000000000000
 31
0.0000000000000000
  7
STANDARD
  0
ENDBLK
  5
459
100
AcDbEntity
  8
MAIN0
  6
CONTINUOUS
 62
3
100
AcDbBlockEnd
  0
ENDSEC
  0
SECTION
  2
ENTITIES
  0
LEADER
  5
46
100
AcDbEntity
  8
MAIN0
  6
CONTINUOUS
 62
3
100
AcDbLeader
  3
MAIN001
 73
     0
 75
     1
 40
12.39999961853027
 41
143.5590042343139
 76
     3
 10
463.7228316059568
 20
595.3327325664537
 30
0.0000000000000000
 10
415.0566329771652
 20
710.8703444581071
 30
0.0000000000000000
 10
407.3516332003250
 20
710.8703444581071
 30
0.0000000000000000
340
47
213
0.0000000000000000
223
-2.000000000000000
233
0.0000000000000000
1001
ACAD
1000
DSTYLE
1002
{
1070
   147
1040
0.0
1070
    77
1070
     1
1070
   173
1070
     1
1070
     6
1000
_OPEN
1070
     7
1000
_OPEN
1002
}
  0
MTEXT
  5
47
102
{ACAD_REACTORS
330
46
102
}
100
AcDbEntity
  8
MAIN0
  6
CONTINUOUS
 62
3
100
AcDbMText
 10
263.7926289660111
 20
725.2703440766373
 30
0.0000000000000000
 40
12.39999961853027
 41
0.0000000000000000
 71
     1
 72
     1
  1
{\H0.93x;{2×2-M10 深さ20\P        DEPTH}}
 11
1.000000000000000
 21
0.0000000000000000
 31
0.0000000000000000
  7
KNJYOKO
  0
LEADER
  5
48
100
AcDbEntity
  8
MAIN0
  6
CONTINUOUS
 62
3
100
AcDbLeader
  3
MAIN001
 73
     0
 74
     0
 75
     1
 40
12.39999961853027
 41
79.36100227928148
 76
     3
 10
915.4083279406749
 20
477.7281346805271
 30
0.0000000000000000
 10
942.9966624702410
 20
585.5521742639868
 30
0.0000000000000000
 10
950.6996622470812
 20
585.5521742639868
 30
0.0000000000000000
340
49
213
0.0000000000000000
223
-2.000000000000000
233
0.0000000000000000
1001
ACAD
1000
DSTYLE
1002
{
1070
   147
1040
0.0
1070
    77
1070
     1
1070
   173
1070
     1
1070
     6
1000
_OPEN
1070
     7
1000
_OPEN
1002
}
  0
MTEXT
  5
49
102
{ACAD_REACTORS
330
48
102
}
100
AcDbEntity
  8
MAIN0
  6
CONTINUOUS
 62
3
100
AcDbMText
 10
950.7006622470811
 20
599.9521738825171
 30
0.0000000000000000
 40
12.39999961853027
 41
0.0000000000000000
 71
     1
 72
     1
  1
{\H0.93x;{2×2-M10}}
 11
1.000000000000000
 21
0.0000000000000000
 31
0.0000000000000000
  7
KNJYOKO
  0
DIMENSION
  5
52
100
AcDbEntity
  8
MAIN0
  6
CONTINUOUS
 62
3
100
AcDbDimension
  2
*D0
 10
394.1794495809019
 20
600.3815010006033
 30
0.0000000000000000
 11
393.1794495809019
 21
553.3392833289744
 31
0.0000000000000000
 70
160
  3
MAIN001
100
AcDbAlignedDimension
 13
415.5794495803617
 23
530.3815010006027
 33
0.0000000000000000
 14
415.3794495803616
 24
600.3815010006035
 34
0.0000000000000000
 50
90.00000000000000
100
AcDbRotatedDimension
1001
ACAD
1000
DSTYLE
1002
{
1070
   173
1070
     1
1070
     6
1000
_OPEN
1070
     7
1000
_OPEN
1070
    41
1040
8.000000
1002
}
  0
DIMENSION
  5
5B
100
AcDbEntity
  8
MAIN0
  6
CONTINUOUS
 62
3
100
AcDbDimension
  2
*D1
 10
394.1794495809019
 20
530.3815010006027
 30
0.0000000000000000
 11
393.6794495809019
 21
475.3815010033528
 31
0.0000000000000000
 70
32
  3
MAIN001
100
AcDbAlignedDimension
 13
414.5794495801299
 23
420.3815010061028
 33
0.0000000000000000
 14
415.5794495803617
 24
530.3815010006027
 34
0.0000000000000000
 50
90.00000000000000
100
AcDbRotatedDimension
1001
ACAD
1000
DSTYLE
1002
{
1070
   173
1070
     1
1070
     6
1000
_OPEN
1070
     7
1000
_OPEN
1070
    41
1040
8.000000
1002
}
  0
DIMENSION
  5
64
100
AcDbEntity
  8
MAIN0
  6
CONTINUOUS
 62
3
100
AcDbDimension
  2
*D2
 10
374.1794495809019
 20
600.3815010006032
 30
0.0000000000000000
 11
373.6794495809019
 21
510.3815010033530
 31
0.0000000000000000
 70
32
  3
MAIN001
100
AcDbAlignedDimension
 13
414.5794495801299
 23
420.3815010061028
 33
0.0000000000000000
 14
415.3794495803616
 24
600.3815010006034
 34
0.0000000000000000
 50
90.00000000000000
100
AcDbRotatedDimension
1001
ACAD
1000
DSTYLE
1002
{
1070
   173
1070
     1
1070
     6
1000
_OPEN
1070
     7
1000
_OPEN
1070
    41
1040
8.000000
1002
}
  0
DIMENSION
  5
6F
100
AcDbEntity
  8
MAIN0
  6
CONTINUOUS
 62
3
100
AcDbDimension
  2
*D3
 10
582.1794495801287
 20
395.3815010055769
 30
0.0000000000000000
 11
564.9357444794158
 21
397.0481676722436
 31
0.0000000000000000
 70
160
  3
MAIN001
100
AcDbAlignedDimension
 13
600.1794495801287
 23
415.3815010055773
 33
0.0000000000000000
 14
582.1794495801287
 24
415.3815010055773
 34
0.0000000000000000
100
AcDbRotatedDimension
1001
ACAD
1000
DSTYLE
1002
{
1070
   173
1070
     1
1070
     6
1000
_OPEN
1070
     7
1000
_OPEN
1070
    41
1040
8.000000
1070
   287
1070
     0
1002
}
  0
DIMENSION
  5
78
100
AcDbEntity
  8
MAIN0
  6
CONTINUOUS
 62
3
100
AcDbDimension
  2
*D4
 10
414.1794495801303
 20
323.4166093396863
 30
0.0000000000000000
 11
499.9515422527222
 21
325.4166093396863
 31
0.0000000000000000
 70
160
  3
MAIN001
100
AcDbAlignedDimension
 13
591.1794495801287
 23
406.3917837453510
 33
0.0000000000000000
 14
414.1794495801303
 24
420.7815010061024
 34
0.0000000000000000
100
AcDbRotatedDimension
1001
ACAD
1000
DSTYLE
1002
{
1070
   173
1070
     1
1070
     6
1000
_OPEN
1070
     7
1000
_OPEN
1070
    41
1040
8.000000
1002
}
  0
DIMENSION
  5
81
100
AcDbEntity
  8
MAIN0
  6
CONTINUOUS
 62
3
100
AcDbDimension
  2
*D5
 10
591.1794495801287
 20
323.4166093396863
 30
0.0000000000000000
 11
850.5876042503357
 21
325.4166093396863
 31
0.0000000000000000
 70
160
  3
MAIN001
100
AcDbAlignedDimension
 13
1124.179449580450
 23
470.3815010035515
 33
0.0000000000000000
 14
591.1794495801287
 24
406.3917837453510
 34
0.0000000000000000
100
AcDbRotatedDimension
1001
ACAD
1000
DSTYLE
1002
{
1070
   173
1070
     1
1070
     6
1000
_OPEN
1070
     7
1000
_OPEN
1070
    41
1040
8.000000
1002
}
  0
DIMENSION
  5
8A
100
AcDbEntity
  8
MAIN0
  6
CONTINUOUS
 62
3
100
AcDbDimension
  2
*D6
 10
1124.179449580450
 20
295.6138265909922
 30
0.0000000000000000
 11
747.7985279021304
 21
296.6138265909922
 31
0.0000000000000000
 70
160
  3
MAIN001
100
AcDbAlignedDimension
 13
414.1794495801303
 23
420.7815010061024
 33
0.0000000000000000
 14
1124.179449580450
 24
470.3815010035515
 34
0.0000000000000000
100
AcDbRotatedDimension
1001
ACAD
1000
DSTYLE
1002
{
1070
   173
1070
     1
1070
     6
1000
_OPEN
1070
     7
1000
_OPEN
1070
    41
1040
8.000000
1002
}
  0
DIMENSION
  5
92
100
AcDbEntity
  8
MAIN0
  6
CONTINUOUS
 62
3
100
AcDbDimension
  2
*D7
 10
1155.630107064849
 20
773.2090733898958
 30
0.0000000000000000
 11
1155.130107064849
 21
660.7090733898958
 31
0.0000000000000000
 70
32
  3
MAIN001
100
AcDbAlignedDimension
 13
1147.738179253125
 23
548.2090733898958
 33
0.0000000000000000
 14
1208.941437607598
 24
773.2090733898958
 34
0.0000000000000000
 50
90.00000000000000
100
AcDbRotatedDimension
1001
ACAD
1000
DSTYLE
1002
{
1070
   173
1070
     1
1070
     6
1000
_OPEN
1070
     7
1000
_OPEN
1070
    41
1040
8.000000
1002
}
  0
DIMENSION
  5
9D
100
AcDbEntity
  8
MAIN0
  6
CONTINUOUS
 62
3
100
AcDbDimension
  2
*D8
 10
414.1794495805969
 20
660.3815010035578
 30
0.0000000000000000
 11
401.9045844764708
 21
662.0481676702244
 31
0.0000000000000000
 70
160
  3
MAIN001
100
AcDbAlignedDimension
 13
415.1794495803618
 23
600.1815010006028
 33
0.0000000000000000
 14
414.1794495805969
 24
529.3815010004773
 34
0.0000000000000000
100
AcDbRotatedDimension
1001
ACAD
1000
DSTYLE
1002
{
1070
   173
1070
     1
1070
     6
1000
_OPEN
1070
     7
1000
_OPEN
1070
    41
1040
8.000000
1070
   287
1070
     0
1002
}
  0
DIMENSION
  5
A6
100
AcDbEntity
  8
MAIN0
  6
CONTINUOUS
 62
3
100
AcDbDimension
  2
*D9
 10
415.1794495803618
 20
660.3815010035578
 30
0.0000000000000000
 11
466.1794495803617
 21
660.8815010035578
 31
0.0000000000000000
 70
32
  3
MAIN001
100
AcDbAlignedDimension
 13
517.1794495803617
 23
599.8815010006028
 33
0.0000000000000000
 14
415.1794495803618
 24
600.1815010006028
 34
0.0000000000000000
100
AcDbRotatedDimension
1001
ACAD
1000
DSTYLE
1002
{
1070
   173
1070
     1
1070
     6
1000
_OPEN
1070
     7
1000
_OPEN
1070
    41
1040
8.000000
1002
}
  0
DIMENSION
  5
AF
100
AcDbEntity
  8
MAIN0
  6
CONTINUOUS
 62
3
100
AcDbDimension
  2
*D10
 10
517.1794495803617
 20
660.3815010035578
 30
0.0000000000000000
 11
574.6794495803617
 21
660.8815010035578
 31
0.0000000000000000
 70
32
  1
\A1;MAX 405
  3
MAIN001
100
AcDbAlignedDimension
 13
632.1794495803617
 23
591.2732631071744
 33
0.0000000000000000
 14
517.1794495803617
 24
599.8815010006028
 34
0.0000000000000000
100
AcDbRotatedDimension
1001
ACAD
1000
DSTYLE
1002
{
1070
   173
1070
     1
1070
     6
1000
_OPEN
1070
     7
1000
_OPEN
1070
    41
1040
8.000000
1002
}
  0
DIMENSION
  5
B8
100
AcDbEntity
  8
MAIN0
  6
CONTINUOUS
 62
3
100
AcDbDimension
  2
*D11
 10
632.1794495803617
 20
660.3815010035578
 30
0.0000000000000000
 11
681.1794495803620
 21
660.8815010035578
 31
0.0000000000000000
 70
32
  3
MAIN001
100
AcDbAlignedDimension
 13
730.1794495803622
 23
599.8815010007999
 33
0.0000000000000000
 14
632.1794495803617
 24
591.2732631071744
 34
0.0000000000000000
100
AcDbRotatedDimension
1001
ACAD
1000
DSTYLE
1002
{
1070
   173
1070
     1
1070
     6
1000
_OPEN
1070
     7
1000
_OPEN
1070
    41
1040
8.000000
1002
}
  0
DIMENSION
  5
C2
100
AcDbEntity
  8
MAIN0
  6
CONTINUOUS
 62
3
100
AcDbDimension
  2
*D12
 10
646.6067196665210
 20
415.3815010055773
 30
0.0000000000000000
 11
644.9400529998544
 21
402.3353083669589
 31
0.0000000000000000
 70
160
  3
MAIN001
100
AcDbAlignedDimension
 13
600.1794495801288
 23
420.3815010055207
 33
0.0000000000000000
 14
600.1794495801287
 24
415.3815010055773
 34
0.0000000000000000
 50
90.00000000000000
100
AcDbRotatedDimension
1001
ACAD
1000
DSTYLE
1002
{
1070
   173
1070
     1
1070
     6
1000
_OPEN
1070
     7
1000
_OPEN
1070
    41
1040
8.000000
1070
   287
1070
     0
1002
}
  0
DIMENSION
  5
CB
100
AcDbEntity
  8
MAIN0
  6
CONTINUOUS
 62
3
100
AcDbDimension
  2
*D13
 10
466.1794495792626
 20
640.3815010035578
 30
0.0000000000000000
 11
491.6794495798122
 21
640.8815010035578
 31
0.0000000000000000
 70
32
  3
MAIN001
100
AcDbAlignedDimension
 13
517.1794495803617
 23
599.8815010006028
 33
0.0000000000000000
 14
466.1794495792626
 24
600.3815010006026
 34
0.0000000000000000
100
AcDbRotatedDimension
1001
ACAD
1000
DSTYLE
1002
{
1070
   173
1070
     1
1070
     6
1000
_OPEN
1070
     7
1000
_OPEN
1070
    41
1040
8.000000
1002
}
  0
DIMENSION
  5
D4
100
AcDbEntity
  8
MAIN0
  6
CONTINUOUS
 62
3
100
AcDbDimension
  2
*D14
 10
496.1794495792622
 20
600.3815010006031
 30
0.0000000000000000
 11
494.5127829125954
 21
616.0691786544951
 31
0.0000000000000000
 70
160
  3
MAIN001
100
AcDbAlignedDimension
 13
476.1794495792626
 23
590.3815010006026
 33
0.0000000000000000
 14
516.6794495803615
 24
600.3815010006031
 34
0.0000000000000000
 50
90.00000000000000
100
AcDbRotatedDimension
1001
ACAD
1000
DSTYLE
1002
{
1070
   173
1070
     1
1070
     6
1000
_DOT
1070
     7
1000
_OPEN
1070
    41
1040
8.000000
1070
   287
1070
     0
1002
}
  0
DIMENSION
  5
DE
100
AcDbEntity
  8
MAIN0
  6
CONTINUOUS
 62
3
100
AcDbDimension
  2
*D15
 10
496.1794495792622
 20
590.3815010006026
 30
0.0000000000000000
 11
495.6794495792622
 21
580.3815010006026
 31
0.0000000000000000
 70
32
  3
MAIN001
100
AcDbAlignedDimension
 13
476.1794495792626
 23
570.3815010006027
 33
0.0000000000000000
 14
476.1794495792626
 24
590.3815010006026
 34
0.0000000000000000
 50
90.00000000000000
100
AcDbRotatedDimension
1001
ACAD
1000
DSTYLE
1002
{
1070
   173
1070
     1
1070
     6
1000
_OPEN
1070
     7
1000
_DOT
1070
    41
1040
8.000000
1070
   287
1070
     0
1002
}
  0
DIMENSION
  5
E6
100
AcDbEntity
  8
MAIN0
  6
CONTINUOUS
 62
3
100
AcDbDimension
  2
*D16
 10
414.1794495801303
 20
455.3815010032282
 30
0.0000000000000000
 11
471.6794495802626
 21
455.8815010032282
 31
0.0000000000000000
 70
32
  3
MAIN001
100
AcDbAlignedDimension
 13
529.1794495803949
 23
463.8815010063797
 33
0.0000000000000000
 14
414.1794495801303
 24
420.7815010061024
 34
0.0000000000000000
100
AcDbRotatedDimension
1001
ACAD
1000
DSTYLE
1002
{
1070
   173
1070
     1
1070
     6
1000
_OPEN
1070
     7
1000
_OPEN
1070
    41
1040
8.000000
1002
}
  0
DIMENSION
  5
EF
100
AcDbEntity
  8
MAIN0
  6
CONTINUOUS
 62
3
100
AcDbDimension
  2
*D17
 10
529.1794495803949
 20
455.3815010032282
 30
0.0000000000000000
 11
721.6794495803948
 21
455.8815010032282
 31
0.0000000000000000
 70
32
  3
MAIN001
100
AcDbAlignedDimension
 13
914.1794495803947
 23
463.8815010059407
 33
0.0000000000000000
 14
529.1794495803949
 24
463.8815010063797
 34
0.0000000000000000
100
AcDbRotatedDimension
1001
ACAD
1000
DSTYLE
1002
{
1070
   173
1070
     1
1070
     6
1000
_OPEN
1070
     7
1000
_OPEN
1070
    41
1040
8.000000
1002
}
  0
DIMENSION
  5
F7
100
AcDbEntity
  8
MAIN0
  6
CONTINUOUS
 62
3
100
AcDbDimension
  2
*D18
 10
914.1794495803947
 20
455.3815010032282
 30
0.0000000000000000
 11
971.6794495802623
 21
455.8815010032282
 31
0.0000000000000000
 70
32
  3
MAIN001
100
AcDbAlignedDimension
 13
1029.179449580130
 23
420.7815010045049
 33
0.0000000000000000
 14
914.1794495803947
 24
463.8815010059407
 34
0.0000000000000000
100
AcDbRotatedDimension
1001
ACAD
1000
DSTYLE
1002
{
1070
   173
1070
     1
1070
     6
1000
_OPEN
1070
     7
1000
_OPEN
1070
    41
1040
8.000000
1002
}
  0
LINE
  5
F8
100
AcDbEntity
  8
MAIN0
  6
CONTINUOUS
 62
3
100
AcDbLine
 10
1422.418743695801
 20
441.3815010029578
 30
0.0000000000000000
 11
1416.418743695801
 21
441.3815010029578
 31
0.0000000000000000
  0
LINE
  5
F9
100
AcDbEntity
  8
MAIN0
  6
CONTINUOUS
 62
3
100
AcDbLine
 10
1416.418743695801
 20
430.3815010029578
 30
0.0000000000000000
 11
1416.418743695801
 21
440.3815010029574
 31
0.0000000000000000
  0
LINE
  5
FA
100
AcDbEntity
  8
MAIN0
  6
CONTINUOUS
 62
3
100
AcDbLine
 10
1422.418743695801
 20
450.3815010029578
 30
0.0000000000000000
 11
1345.418743695801
 21
450.3815010029578
 31
0.0000000000000000
  0
LINE
  5
FB
100
AcDbEntity
  8
MAIN0
  6
CONTINUOUS
 62
3
100
AcDbLine
 10
1416.418743695801
 20
430.3815010029578
 30
0.0000000000000000
 11
1368.916611280330
 21
430.3815010029578
 31
0.0000000000000000
  0
LINE
  5
FC
100
AcDbEntity
  8
MAIN0
  6
CONTINUOUS
 62
3
100
AcDbLine
 10
1345.418743695801
 20
450.3815010029571
 30
0.0000000000000000
 11
1347.118743695801
 21
420.3815010029571
 31
0.0000000000000000
  0
LINE
  5
FD
100
AcDbEntity
  8
MAIN0
  6
CONTINUOUS
 62
3
100
AcDbLine
 10
1362.118743686162
 20
420.3815010029579
 30
0.0000000000000000
 11
1363.007764762260
 21
425.4233900689806
 31
0.0000000000000000
  0
ARC
  5
FE
100
AcDbEntity
  8
MAIN0
  6
CONTINUOUS
 62
3
100
AcDbCircle
 10
1368.916611280330
 20
424.3815010029578
 30
0.0000000000000000
 40
6.000000000000000
100
AcDbArc
 50
90.00000000000000
 51
169.9999999997949
  0
LINE
  5
FF
100
AcDbEntity
  8
MAIN0
  6
CONTINUOUS
 62
3
100
AcDbLine
 10
1362.118743686163
 20
420.3815010029578
 30
0.0000000000000000
 11
1347.118743695801
 21
420.3815010029578
 31
0.0000000000000000
  0
LINE
  5
100
100
AcDbEntity
  8
MAIN0
  6
CENTER
 62
3
100
AcDbLine
 10
1393.418743695800
 20
245.5170380672421
 30
0.0000000000000000
 11
1393.418743695801
 21
476.3317625364786
 31
0.0000000000000000
  0
LINE
  5
101
100
AcDbEntity
  8
MAIN0
  6
CONTINUOUS
 62
3
100
AcDbLine
 10
1410.918743695801
 20
455.3815010029578
 30
0.0000000000000000
 11
1375.918743695801
 21
455.3815010029578
 31
0.0000000000000000
  0
LINE
  5
102
100
AcDbEntity
  8
MAIN0
  6
CONTINUOUS
 62
3
100
AcDbLine
 10
1410.918743695801
 20
450.3815010029578
 30
0.0000000000000000
 11
1410.918743695801
 21
455.3815010029578
 31
0.0000000000000000
  0
LINE
  5
103
100
AcDbEntity
  8
MAIN0
  6
CONTINUOUS
 62
3
100
AcDbLine
 10
1375.918743695801
 20
450.3815010029578
 30
0.0000000000000000
 11
1375.918743695801
 21
455.3815010029578
 31
0.0000000000000000
  0
LINE
  5
104
100
AcDbEntity
  8
MAIN0
  6
CONTINUOUS
 62
3
100
AcDbLine
 10
1422.418743695801
 20
441.3815010029578
 30
0.0000000000000000
 11
1422.418743695801
 21
450.3815010029578
 31
0.0000000000000000
  0
LINE
  5
105
100
AcDbEntity
  8
MAIN0
  6
CONTINUOUS
 62
3
100
AcDbLine
 10
1405.418743695801
 20
455.3815010029578
 30
0.0000000000000000
 11
1405.418743695801
 21
469.7815010029578
 31
0.0000000000000000
  0
LINE
  5
106
100
AcDbEntity
  8
MAIN0
  6
CONTINUOUS
 62
3
100
AcDbLine
 10
1405.418743695801
 20
469.7815010029579
 30
0.0000000000000000
 11
1402.647462403690
 21
471.3815010029578
 31
0.0000000000000000
  0
LINE
  5
107
100
AcDbEntity
  8
MAIN0
  6
CONTINUOUS
 62
3
100
AcDbLine
 10
1402.647462403691
 20
471.3815010029578
 30
0.0000000000000000
 11
1384.190024987911
 21
471.3815010029578
 31
0.0000000000000000
  0
LINE
  5
108
100
AcDbEntity
  8
MAIN0
  6
CONTINUOUS
 62
3
100
AcDbLine
 10
1384.190024987910
 20
471.3815010029582
 30
0.0000000000000000
 11
1381.418743695800
 21
469.7815010029580
 31
0.0000000000000000
  0
LINE
  5
109
100
AcDbEntity
  8
MAIN0
  6
CONTINUOUS
 62
3
100
AcDbLine
 10
1381.418743695801
 20
469.7815010029578
 30
0.0000000000000000
 11
1381.418743695801
 21
455.3815010029578
 31
0.0000000000000000
  0
LINE
  5
10A
100
AcDbEntity
  8
MAIN0
  6
CONTINUOUS
 62
3
100
AcDbLine
 10
1405.418743695801
 20
469.7815010029578
 30
0.0000000000000000
 11
1381.418743695801
 21
469.7815010029578
 31
0.0000000000000000
  0
LINE
  5
10B
100
AcDbEntity
  8
MAIN0
  6
CONTINUOUS
 62
3
100
AcDbLine
 10
1401.418743695801
 20
430.3815010029578
 30
0.0000000000000000
 11
1401.418743695801
 21
409.3815010029578
 31
0.0000000000000000
  0
LINE
  5
10C
100
AcDbEntity
  8
MAIN0
  6
CONTINUOUS
 62
3
100
AcDbLine
 10
1385.418743695801
 20
409.3815010029578
 30
0.0000000000000000
 11
1385.418743695801
 21
430.3815010029578
 31
0.0000000000000000
  0
LINE
  5
10D
100
AcDbEntity
  8
MAIN0
  6
CONTINUOUS
 62
3
100
AcDbLine
 10
1400.336211695801
 20
430.3815010029578
 30
0.0000000000000000
 11
1400.336211695801
 21
409.3815010029578
 31
0.0000000000000000
  0
LINE
  5
10E
100
AcDbEntity
  8
MAIN0
  6
CONTINUOUS
 62
3
100
AcDbLine
 10
1386.501275695801
 20
430.3815010029578
 30
0.0000000000000000
 11
1386.501275695801
 21
409.3815010029578
 31
0.0000000000000000
  0
MTEXT
  5
10F
100
AcDbEntity
  8
MAIN0
  6
CONTINUOUS
 62
3
100
AcDbMText
 10
1504.601777779387
 20
513.1069778117668
 30
0.0000000000000000
 40
8.000000000000000
 41
0.0000000000000000
 71
     1
 72
     1
  1
{\H0.63x;{0}}
 11
0.8660254037844389
 21
0.4999999999999996
 31
0.0000000000000000
  7
STANDARD
  0
MTEXT
  5
110
100
AcDbEntity
  8
MAIN0
  6
CONTINUOUS
 62
3
100
AcDbMText
 10
1515.181664016859
 20
517.1406971718800
 30
0.0000000000000000
 40
8.000000000000000
 41
0.0000000000000000
 71
     1
 72
     1
  1
{\H0.63x;{1}}
 11
1.000000000000000
 21
0.0000000000000000
 31
0.0000000000000000
  7
STANDARD
  0
MTEXT
  5
111
100
AcDbEntity
  8
MAIN0
  6
CONTINUOUS
 62
3
100
AcDbMText
 10
1526.360973947716
 20
515.3440574907392
 30
0.0000000000000000
 40
8.000000000000000
 41
0.0000000000000000
 71
     1
 72
     1
  1
{\H0.63x;{2}}
 11
0.8660254037844388
 21
-0.4999999999999997
 31
0.0000000000000000
  7
STANDARD
  0
MTEXT
  5
112
100
AcDbEntity
  8
MAIN0
  6
CONTINUOUS
 62
3
100
AcDbMText
 10
1535.144220504046
 20
508.1984669199960
 30
0.0000000000000000
 40
8.000000000000000
 41
0.0000000000000000
 71
     1
 72
     1
  1
{\H0.63x;{3}}
 11
0.5000000000000009
 21
-0.8660254037844382
 31
0.0000000000000000
  7
STANDARD
  0
DIMENSION
  5
11D
100
AcDbEntity
  8
MAIN0
  6
CONTINUOUS
 62
3
100
AcDbDimension
  2
*D19
 10
1510.418743696073
 20
634.5150291840995
 30
0.0000000000000000
 11
1517.418743696073
 21
635.0150291840995
 31
0.0000000000000000
 70
32
  3
MAIN001
100
AcDbAlignedDimension
 13
1524.418743696074
 23
499.4229528878856
 33
0.0000000000000000
 14
1510.418743696073
 24
499.4229528878846
 34
0.0000000000000000
100
AcDbRotatedDimension
1001
ACAD
1000
DSTYLE
1002
{
1070
   173
1070
     1
1070
     6
1000
_OPEN
1070
     7
1000
_OPEN
1070
    41
1040
8.000000
1070
   287
1070
     0
1002
}
  0
DIMENSION
  5
127
100
AcDbEntity
  8
MAIN0
  6
CONTINUOUS
 62
3
100
AcDbDimension
  2
*D20
 10
1393.418743695800
 20
370.3815010031217
 30
0.0000000000000000
 11
1443.175502599073
 21
372.0481676697884
 31
0.0000000000000000
 70
160
  1
\A1;15～31
  3
MAIN001
100
AcDbAlignedDimension
 13
1416.418743695792
 23
420.7815010028520
 33
0.0000000000000000
 14
1393.418743695800
 24
245.5170380672421
 34
0.0000000000000000
100
AcDbRotatedDimension
1001
ACAD
1000
DSTYLE
1002
{
1070
   173
1070
     1
1070
     6
1000
_OPEN
1070
     7
1000
_OPEN
1070
    41
1040
8.000000
1070
   287
1070
     0
1070
   340
1005
128
1002
}
  0
DIMENSION
  5
133
100
AcDbEntity
  8
MAIN0
  6
CONTINUOUS
 62
3
100
AcDbDimension
  2
*D21
 10
1325.418743695022
 20
455.3815010029578
 30
0.0000000000000000
 11
1323.752077028355
 21
467.5831907764431
 31
0.0000000000000000
 70
160
  3
MAIN001
100
AcDbAlignedDimension
 13
1345.418743695801
 23
450.3815010029578
 33
0.0000000000000000
 14
1375.918743695801
 24
455.3815010029578
 34
0.0000000000000000
 50
90.00000000000000
100
AcDbRotatedDimension
1001
ACAD
1000
DSTYLE
1002
{
1070
   173
1070
     1
1070
     6
1000
_OPEN
1070
     7
1000
_OPEN
1070
    41
1040
8.000000
1070
   287
1070
     0
1002
}
  0
DIMENSION
  5
13C
100
AcDbEntity
  8
MAIN0
  6
CONTINUOUS
 62
3
100
AcDbDimension
  2
*D22
 10
1325.418743695022
 20
450.3815010029578
 30
0.0000000000000000
 11
1324.918743695022
 21
435.3815010029578
 31
0.0000000000000000
 70
32
  3
MAIN001
100
AcDbAlignedDimension
 13
1347.118743695801
 23
420.3815010029578
 33
0.0000000000000000
 14
1345.418743695801
 24
450.3815010029578
 34
0.0000000000000000
 50
90.00000000000000
100
AcDbRotatedDimension
1001
ACAD
1000
DSTYLE
1002
{
1070
   173
1070
     1
1070
     6
1000
_OPEN
1070
     7
1000
_OPEN
1070
    41
1040
8.000000
1002
}
  0
LINE
  5
13D
100
AcDbEntity
  8
MAIN0
  6
CONTINUOUS
 62
3
100
AcDbLine
 10
129.0709002850786
 20
415.3815010027992
 30
0.0000000000000000
 11
104.0709002850784
 21
415.3815010027992
 31
0.0000000000000000
  0
LINE
  5
13E
100
AcDbEntity
  8
MAIN0
  6
CONTINUOUS
 62
3
100
AcDbLine
 10
129.0709002850782
 20
415.3815010027989
 30
0.0000000000000000
 11
129.0709002850782
 21
420.3815010027989
 31
0.0000000000000000
  0
LINE
  5
13F
100
AcDbEntity
  8
MAIN0
  6
CONTINUOUS
 62
3
100
AcDbLine
 10
104.0709002850784
 20
420.3815010027994
 30
0.0000000000000000
 11
104.0709002850784
 21
415.3815010027994
 31
0.0000000000000000
  0
LINE
  5
140
100
AcDbEntity
  8
MAIN0
  6
CONTINUOUS
 62
3
100
AcDbLine
 10
280.0709002845895
 20
415.3815010027355
 30
0.0000000000000000
 11
305.0709002845895
 21
415.3815010027145
 31
0.0000000000000000
  0
LINE
  5
141
100
AcDbEntity
  8
MAIN0
  6
CONTINUOUS
 62
3
100
AcDbLine
 10
280.0709002845896
 20
415.3815010027352
 30
0.0000000000000000
 11
280.0709002845938
 21
420.3815010027352
 31
0.0000000000000000
  0
LINE
  5
142
100
AcDbEntity
  8
MAIN0
  6
CONTINUOUS
 62
3
100
AcDbLine
 10
305.0709002845936
 20
420.3815010027144
 30
0.0000000000000000
 11
305.0709002845894
 21
415.3815010027144
 31
0.0000000000000000
  0
LINE
  5
143
100
AcDbEntity
  8
MAIN0
  6
CONTINUOUS
 62
3
100
AcDbLine
 10
304.5709002848495
 20
504.3815010031148
 30
0.0000000000000000
 11
298.5709002848686
 21
504.3815010031198
 31
0.0000000000000000
  0
LINE
  5
144
100
AcDbEntity
  8
MAIN0
  6
CONTINUOUS
 62
3
100
AcDbLine
 10
304.5709002848482
 20
504.3815010031145
 30
0.0000000000000000
 11
305.5709002848490
 21
505.3815010031140
 31
0.0000000000000000
  0
LINE
  5
145
100
AcDbEntity
  8
MAIN0
  6
CONTINUOUS
 62
3
100
AcDbLine
 10
104.5709002848547
 20
504.3815010031976
 30
0.0000000000000000
 11
103.5709002848548
 21
505.3815010031980
 31
0.0000000000000000
  0
LINE
  5
146
100
AcDbEntity
  8
MAIN0
  6
CONTINUOUS
 62
3
100
AcDbLine
 10
104.5709002848533
 20
504.3815010031986
 30
0.0000000000000000
 11
110.5709002848740
 21
504.3815010031986
 31
0.0000000000000000
  0
LINE
  5
147
100
AcDbEntity
  8
MAIN0
  6
CONTINUOUS
 62
3
100
AcDbLine
 10
298.5709002848423
 20
441.3815010028675
 30
0.0000000000000000
 11
298.5709002848684
 21
504.3815010031202
 31
0.0000000000000000
  0
LINE
  5
148
100
AcDbEntity
  8
MAIN0
  6
CONTINUOUS
 62
3
100
AcDbLine
 10
103.8709002848830
 20
503.2815010035409
 30
0.0000000000000000
 11
107.5709002848831
 21
503.2815010035409
 31
0.0000000000000000
  0
LINE
  5
149
100
AcDbEntity
  8
MAIN0
  6
CONTINUOUS
 62
3
100
AcDbLine
 10
107.5709002848827
 20
503.2815010035409
 30
0.0000000000000000
 11
107.5709002848827
 21
502.0815010035411
 31
0.0000000000000000
  0
ARC
  5
14A
100
AcDbEntity
  8
MAIN0
  6
CONTINUOUS
 62
3
100
AcDbCircle
 10
103.0709002848828
 20
503.0815010035411
 30
0.0000000000000000
 40
1.000000000000000
100
AcDbArc
 50
179.9999999999964
 51
269.9999999999942
  0
ARC
  5
14B
100
AcDbEntity
  8
MAIN0
  6
CONTINUOUS
 62
3
100
AcDbCircle
 10
103.8709002848830
 20
503.8815010035408
 30
0.0000000000000000
 40
0.6000000000000000
100
AcDbArc
 50
179.9999999999964
 51
270.0000000005678
  0
LINE
  5
14C
100
AcDbEntity
  8
MAIN0
  6
CONTINUOUS
 62
3
100
AcDbLine
 10
103.0709002848828
 20
502.0815010035411
 30
0.0000000000000000
 11
107.5709002848827
 21
502.0815010035411
 31
0.0000000000000000
  0
LINE
  5
14D
100
AcDbEntity
  8
MAIN0
  6
CONTINUOUS
 62
3
100
AcDbLine
 10
107.5709002848827
 20
499.2815010035468
 30
0.0000000000000000
 11
100.8709003855440
 21
499.2815010035468
 31
0.0000000000000000
  0
LINE
  5
14E
100
AcDbEntity
  8
MAIN0
  6
CONTINUOUS
 62
3
100
AcDbLine
 10
100.0709000784657
 20
498.0815010035465
 30
0.0000000000000000
 11
107.5709002848831
 21
498.0815010035465
 31
0.0000000000000000
  0
ARC
  5
14F
100
AcDbEntity
  8
MAIN0
  6
CONTINUOUS
 62
3
100
AcDbCircle
 10
100.0709002848828
 20
499.0815010035465
 30
0.0000000000000000
 40
1.000000000000000
100
AcDbArc
 50
179.9999999999964
 51
269.9999999999942
  0
ARC
  5
150
100
AcDbEntity
  8
MAIN0
  6
CONTINUOUS
 62
3
100
AcDbCircle
 10
100.8709002848830
 20
499.8815010035467
 30
0.0000000000000000
 40
0.6000000000000000
100
AcDbArc
 50
179.9999999999964
 51
269.9999999999947
  0
LINE
  5
151
100
AcDbEntity
  8
MAIN0
  6
CONTINUOUS
 62
3
100
AcDbLine
 10
107.5709002848827
 20
499.2815010035468
 30
0.0000000000000000
 11
107.5709002848827
 21
498.0815010035465
 31
0.0000000000000000
  0
LINE
  5
152
100
AcDbEntity
  8
MAIN0
  6
CONTINUOUS
 62
3
100
AcDbLine
 10
107.5709002848827
 20
501.2815010035468
 30
0.0000000000000000
 11
102.3709003855440
 21
501.2815010035468
 31
0.0000000000000000
  0
LINE
  5
153
100
AcDbEntity
  8
MAIN0
  6
CONTINUOUS
 62
3
100
AcDbLine
 10
101.5709000784657
 20
500.0815010035465
 30
0.0000000000000000
 11
107.5709002848827
 21
500.0815010035465
 31
0.0000000000000000
  0
ARC
  5
154
100
AcDbEntity
  8
MAIN0
  6
CONTINUOUS
 62
3
100
AcDbCircle
 10
102.3709002848830
 20
501.8815010035467
 30
0.0000000000000000
 40
0.6000000000000000
100
AcDbArc
 50
179.9999999999964
 51
269.9999999999947
  0
ARC
  5
155
100
AcDbEntity
  8
MAIN0
  6
CONTINUOUS
 62
3
100
AcDbCircle
 10
101.5709002848828
 20
501.0815010035465
 30
0.0000000000000000
 40
1.000000000000000
100
AcDbArc
 50
179.9999999999964
 51
269.9999999999942
  0
LINE
  5
156
100
AcDbEntity
  8
MAIN0
  6
CONTINUOUS
 62
3
100
AcDbLine
 10
107.5709002848827
 20
501.2815010035468
 30
0.0000000000000000
 11
107.5709002848827
 21
500.0815010035465
 31
0.0000000000000000
  0
LINE
  5
157
100
AcDbEntity
  8
MAIN0
  6
CONTINUOUS
 62
3
100
AcDbLine
 10
305.2709002848596
 20
503.2815010034564
 30
0.0000000000000000
 11
301.5709002848593
 21
503.2815010034595
 31
0.0000000000000000
  0
LINE
  5
158
100
AcDbEntity
  8
MAIN0
  6
CONTINUOUS
 62
3
100
AcDbLine
 10
301.5709002848599
 20
503.2815010034595
 30
0.0000000000000000
 11
301.5709002848589
 21
502.0815010034597
 31
0.0000000000000000
  0
ARC
  5
159
100
AcDbEntity
  8
MAIN0
  6
CONTINUOUS
 62
3
100
AcDbCircle
 10
306.0709002848597
 20
503.0815010034558
 30
0.0000000000000000
 40
1.000000000000000
100
AcDbArc
 50
269.9999999999578
 51
359.9999999999555
  0
ARC
  5
15A
100
AcDbEntity
  8
MAIN0
  6
CONTINUOUS
 62
3
100
AcDbCircle
 10
305.2709002848602
 20
503.8815010034562
 30
0.0000000000000000
 40
0.6000000000000000
100
AcDbArc
 50
269.9999999993840
 51
359.9999999999555
  0
LINE
  5
15B
100
AcDbEntity
  8
MAIN0
  6
CONTINUOUS
 62
3
100
AcDbLine
 10
306.0709002848587
 20
502.0815010034559
 30
0.0000000000000000
 11
301.5709002848587
 21
502.0815010034597
 31
0.0000000000000000
  0
LINE
  5
15C
100
AcDbEntity
  8
MAIN0
  6
CONTINUOUS
 62
3
100
AcDbLine
 10
301.5709002848564
 20
499.2815010034654
 30
0.0000000000000000
 11
308.2709001841952
 21
499.2815010034598
 31
0.0000000000000000
  0
LINE
  5
15D
100
AcDbEntity
  8
MAIN0
  6
CONTINUOUS
 62
3
100
AcDbLine
 10
309.0709004912725
 20
498.0815010034588
 30
0.0000000000000000
 11
301.5709002848549
 21
498.0815010034651
 31
0.0000000000000000
  0
ARC
  5
15E
100
AcDbEntity
  8
MAIN0
  6
CONTINUOUS
 62
3
100
AcDbCircle
 10
309.0709002848563
 20
499.0815010034588
 30
0.0000000000000000
 40
1.000000000000000
100
AcDbArc
 50
269.9999999999578
 51
359.9999999999555
  0
ARC
  5
15F
100
AcDbEntity
  8
MAIN0
  6
CONTINUOUS
 62
3
100
AcDbCircle
 10
308.2709002848568
 20
499.8815010034596
 30
0.0000000000000000
 40
0.6000000000000000
100
AcDbArc
 50
269.9999999999571
 51
359.9999999999555
  0
LINE
  5
160
100
AcDbEntity
  8
MAIN0
  6
CONTINUOUS
 62
3
100
AcDbLine
 10
301.5709002848565
 20
499.2815010034654
 30
0.0000000000000000
 11
301.5709002848555
 21
498.0815010034651
 31
0.0000000000000000
  0
LINE
  5
161
100
AcDbEntity
  8
MAIN0
  6
CONTINUOUS
 62
3
100
AcDbLine
 10
301.5709002848581
 20
501.2815010034654
 30
0.0000000000000000
 11
306.7709001841968
 21
501.2815010034610
 31
0.0000000000000000
  0
LINE
  5
162
100
AcDbEntity
  8
MAIN0
  6
CONTINUOUS
 62
3
100
AcDbLine
 10
307.5709004912742
 20
500.0815010034601
 30
0.0000000000000000
 11
301.5709002848571
 21
500.0815010034651
 31
0.0000000000000000
  0
ARC
  5
163
100
AcDbEntity
  8
MAIN0
  6
CONTINUOUS
 62
3
100
AcDbCircle
 10
306.7709002848584
 20
501.8815010034608
 30
0.0000000000000000
 40
0.6000000000000000
100
AcDbArc
 50
269.9999999999571
 51
359.9999999999555
  0
ARC
  5
164
100
AcDbEntity
  8
MAIN0
  6
CONTINUOUS
 62
3
100
AcDbCircle
 10
307.5709002848581
 20
501.0815010034599
 30
0.0000000000000000
 40
1.000000000000000
100
AcDbArc
 50
269.9999999999578
 51
359.9999999999555
  0
LINE
  5
165
100
AcDbEntity
  8
MAIN0
  6
CONTINUOUS
 62
3
100
AcDbLine
 10
301.5709002848582
 20
501.2815010034654
 30
0.0000000000000000
 11
301.5709002848572
 21
500.0815010034651
 31
0.0000000000000000
  0
LINE
  5
166
100
AcDbEntity
  8
MAIN0
  6
CONTINUOUS
 62
3
100
AcDbLine
 10
105.0709002848853
 20
530.3815010035206
 30
0.0000000000000000
 11
154.9709002848858
 21
530.3815010035311
 31
0.0000000000000000
  0
LINE
  5
167
100
AcDbEntity
  8
MAIN0
  6
CONTINUOUS
 62
3
100
AcDbLine
 10
104.5709002848374
 20
441.3815010029465
 30
0.0000000000000000
 11
110.5709002848377
 21
441.3815010029467
 31
0.0000000000000000
  0
LINE
  5
168
100
AcDbEntity
  8
MAIN0
  6
CONTINUOUS
 62
3
100
AcDbLine
 10
103.5709002848369
 20
440.3815010029462
 30
0.0000000000000000
 11
103.5709002848286
 21
420.7815010028407
 31
0.0000000000000000
  0
LINE
  5
169
100
AcDbEntity
  8
MAIN0
  6
CONTINUOUS
 62
3
100
AcDbLine
 10
104.5709002848378
 20
441.3815010029465
 30
0.0000000000000000
 11
103.5709002848374
 21
440.3815010029466
 31
0.0000000000000000
  0
LINE
  5
16A
100
AcDbEntity
  8
MAIN0
  6
CONTINUOUS
 62
3
100
AcDbLine
 10
305.5709002848372
 20
440.3815010028617
 30
0.0000000000000000
 11
305.5709002848290
 21
420.7815010027559
 31
0.0000000000000000
  0
LINE
  5
16B
100
AcDbEntity
  8
MAIN0
  6
CONTINUOUS
 62
3
100
AcDbLine
 10
304.0709002848852
 20
530.3815010034375
 30
0.0000000000000000
 11
254.1709002848791
 21
530.3815010034896
 31
0.0000000000000000
  0
LINE
  5
16C
100
AcDbEntity
  8
MAIN0
  6
CONTINUOUS
 62
3
100
AcDbLine
 10
305.5709002848289
 20
420.7815010027559
 30
0.0000000000000000
 11
305.1709002848288
 21
420.3815010027562
 31
0.0000000000000000
  0
LINE
  5
16D
100
AcDbEntity
  8
MAIN0
  6
CONTINUOUS
 62
3
100
AcDbLine
 10
103.5709002848288
 20
420.7815010028410
 30
0.0000000000000000
 11
103.9709002848286
 21
420.3815010028409
 31
0.0000000000000000
  0
LINE
  5
16E
100
AcDbEntity
  8
MAIN0
  6
CONTINUOUS
 62
3
100
AcDbLine
 10
304.5709002848532
 20
441.3815010028634
 30
0.0000000000000000
 11
298.5709002848529
 21
441.3815010028686
 31
0.0000000000000000
  0
LINE
  5
16F
100
AcDbEntity
  8
MAIN0
  6
CONTINUOUS
 62
3
100
AcDbLine
 10
304.5709002848529
 20
441.3815010028629
 30
0.0000000000000000
 11
305.5709002848527
 21
440.3815010028617
 31
0.0000000000000000
  0
LINE
  5
170
100
AcDbEntity
  8
MAIN0
  6
CONTINUOUS
 62
3
100
AcDbLine
 10
195.5709002849490
 20
420.3815010028027
 30
0.0000000000000000
 11
195.5709002849490
 21
425.3815010025963
 31
0.0000000000000000
  0
LINE
  5
171
100
AcDbEntity
  8
MAIN0
  6
CONTINUOUS
 62
3
100
AcDbLine
 10
213.5709002849488
 20
425.3815010025960
 30
0.0000000000000000
 11
195.5709002849488
 21
425.3815010025960
 31
0.0000000000000000
  0
LINE
  5
172
100
AcDbEntity
  8
MAIN0
  6
CONTINUOUS
 62
3
100
AcDbLine
 10
213.5709002849490
 20
420.3815010027955
 30
0.0000000000000000
 11
213.5709002849490
 21
425.3815010025963
 31
0.0000000000000000
  0
LINE
  5
173
100
AcDbEntity
  8
MAIN0
  6
CONTINUOUS
 62
3
100
AcDbLine
 10
110.5709002848482
 20
441.3815010029465
 30
0.0000000000000000
 11
110.5709002848742
 21
504.3815010031986
 31
0.0000000000000000
  0
LINE
  5
174
100
AcDbEntity
  8
MAIN0
  6
CONTINUOUS
 62
3
100
AcDbLine
 10
103.9709002848286
 20
420.3815010028415
 30
0.0000000000000000
 11
195.5709002849490
 21
420.3815010028030
 31
0.0000000000000000
  0
LINE
  5
175
100
AcDbEntity
  8
MAIN0
  6
CONTINUOUS
 62
3
100
AcDbLine
 10
213.5709002849490
 20
420.3815010027955
 30
0.0000000000000000
 11
305.1709002848289
 21
420.3815010027569
 31
0.0000000000000000
  0
LINE
  5
176
100
AcDbEntity
  8
MAIN0
  6
CONTINUOUS
 62
3
100
AcDbLine
 10
110.5709002848736
 20
530.3815010035468
 30
0.0000000000000000
 11
298.5709002848622
 21
530.3815010035468
 31
0.0000000000000000
  0
LINE
  5
177
100
AcDbEntity
  8
MAIN0
  6
CENTER
 62
3
100
AcDbLine
 10
204.5709002848322
 20
410.1342908027660
 30
0.0000000000000000
 11
204.5709002849148
 21
606.9468272982133
 31
0.0000000000000000
  0
LINE
  5
178
100
AcDbEntity
  8
MAIN0
  6
CONTINUOUS
 62
3
100
AcDbLine
 10
103.5709002848745
 20
505.3815010031781
 30
0.0000000000000000
 11
103.5709002848846
 21
528.8815010035204
 31
0.0000000000000000
  0
LINE
  5
179
100
AcDbEntity
  8
MAIN0
  6
CONTINUOUS
 62
3
100
AcDbLine
 10
305.5709002848730
 20
505.3815010031376
 30
0.0000000000000000
 11
305.5709002848846
 21
528.8815010034359
 31
0.0000000000000000
  0
LINE
  5
17A
100
AcDbEntity
  8
MAIN0
  6
CONTINUOUS
 62
3
100
AcDbLine
 10
97.27090028488249
 20
530.3815010035468
 30
0.0000000000000000
 11
311.8709002848834
 21
530.3815010035468
 31
0.0000000000000000
  0
LINE
  5
17B
100
AcDbEntity
  8
MAIN0
  6
CONTINUOUS
 62
3
100
AcDbLine
 10
104.5709002851245
 20
600.3815010035468
 30
0.0000000000000000
 11
304.5709002851246
 21
600.3815010035468
 31
0.0000000000000000
  0
LINE
  5
17C
100
AcDbEntity
  8
MAIN0
  6
CONTINUOUS
 62
3
100
AcDbLine
 10
102.0709002848826
 20
530.3815010035468
 30
0.0000000000000000
 11
102.0709002848826
 21
503.0815010035411
 31
0.0000000000000000
  0
LINE
  5
17D
100
AcDbEntity
  8
MAIN0
  6
CONTINUOUS
 62
3
100
AcDbLine
 10
103.2709002848828
 20
530.3815010035409
 30
0.0000000000000000
 11
103.2709002848828
 21
503.8815010035408
 31
0.0000000000000000
  0
LINE
  5
17E
100
AcDbEntity
  8
MAIN0
  6
CONTINUOUS
 62
3
100
AcDbLine
 10
304.5709002851246
 20
530.3815010035468
 30
0.0000000000000000
 11
304.5709002851246
 21
600.3815010035468
 31
0.0000000000000000
  0
LINE
  5
17F
100
AcDbEntity
  8
MAIN0
  6
CONTINUOUS
 62
3
100
AcDbLine
 10
104.5709002851245
 20
530.3815010035206
 30
0.0000000000000000
 11
104.5709002851245
 21
600.3815010035468
 31
0.0000000000000000
  0
LINE
  5
180
100
AcDbEntity
  8
MAIN0
  6
CONTINUOUS
 62
3
100
AcDbLine
 10
310.3709002848829
 20
530.3815010035468
 30
0.0000000000000000
 11
310.3709002848829
 21
497.8815010034587
 31
0.0000000000000000
  0
LINE
  5
181
100
AcDbEntity
  8
MAIN0
  6
CONTINUOUS
 62
3
100
AcDbLine
 10
311.5709002848831
 20
530.3815010035468
 30
0.0000000000000000
 11
311.5709002848831
 21
497.0815010034580
 31
0.0000000000000000
  0
LINE
  5
182
100
AcDbEntity
  8
MAIN0
  6
CONTINUOUS
 62
3
100
AcDbLine
 10
98.77090028488283
 20
530.3815010035468
 30
0.0000000000000000
 11
98.77090028488283
 21
497.8815010035474
 31
0.0000000000000000
  0
LINE
  5
183
100
AcDbEntity
  8
MAIN0
  6
CONTINUOUS
 62
3
100
AcDbLine
 10
97.57090028488256
 20
530.3815010035468
 30
0.0000000000000000
 11
97.57090028488256
 21
497.0815010035474
 31
0.0000000000000000
  0
LINE
  5
184
100
AcDbEntity
  8
MAIN0
  6
CONTINUOUS
 62
3
100
AcDbLine
 10
100.5709002848826
 20
501.0815010035465
 30
0.0000000000000000
 11
100.5709002848826
 21
530.3815010035468
 31
0.0000000000000000
  0
LINE
  5
185
100
AcDbEntity
  8
MAIN0
  6
CONTINUOUS
 62
3
100
AcDbLine
 10
101.7709002848828
 20
501.8815010035467
 30
0.0000000000000000
 11
101.7709002848828
 21
530.3815010035468
 31
0.0000000000000000
  0
LINE
  5
186
100
AcDbEntity
  8
MAIN0
  6
CONTINUOUS
 62
3
100
AcDbLine
 10
308.5709002848827
 20
501.0815010034599
 30
0.0000000000000000
 11
308.5709002848827
 21
530.3815010035468
 31
0.0000000000000000
  0
LINE
  5
187
100
AcDbEntity
  8
MAIN0
  6
CONTINUOUS
 62
3
100
AcDbLine
 10
307.3709002848829
 20
501.8815010034608
 30
0.0000000000000000
 11
307.3709002848829
 21
530.3815010035468
 31
0.0000000000000000
  0
LINE
  5
188
100
AcDbEntity
  8
MAIN0
  6
CONTINUOUS
 62
3
100
AcDbLine
 10
310.0709002848831
 20
530.3815010035468
 30
0.0000000000000000
 11
310.0709002848831
 21
499.0815010034588
 31
0.0000000000000000
  0
LINE
  5
189
100
AcDbEntity
  8
MAIN0
  6
CONTINUOUS
 62
3
100
AcDbLine
 10
308.8709002848829
 20
530.3815010035468
 30
0.0000000000000000
 11
308.8709002848829
 21
499.8815010034596
 31
0.0000000000000000
  0
LINE
  5
18A
100
AcDbEntity
  8
MAIN0
  6
CONTINUOUS
 62
3
100
AcDbLine
 10
99.07090028488256
 20
530.3815010035468
 30
0.0000000000000000
 11
99.07090028488256
 21
499.0815010035465
 31
0.0000000000000000
  0
LINE
  5
18B
100
AcDbEntity
  8
MAIN0
  6
CONTINUOUS
 62
3
100
AcDbLine
 10
100.2709002848828
 20
530.3815010035468
 30
0.0000000000000000
 11
100.2709002848828
 21
499.8815010035467
 31
0.0000000000000000
  0
LINE
  5
18C
100
AcDbEntity
  8
MAIN0
  6
CONTINUOUS
 62
3
100
AcDbLine
 10
305.8709002848829
 20
503.8815010034562
 30
0.0000000000000000
 11
305.8709002848829
 21
530.3815010035468
 31
0.0000000000000000
  0
DIMENSION
  5
195
100
AcDbEntity
  8
MAIN0
  6
CONTINUOUS
 62
3
100
AcDbDimension
  2
*D23
 10
304.5709002851246
 20
634.5150291840886
 30
0.0000000000000000
 11
204.5709002851245
 21
635.0150291840886
 31
0.0000000000000000
 70
32
  3
MAIN001
100
AcDbAlignedDimension
 13
104.5709002851245
 23
600.3815010035468
 33
0.0000000000000000
 14
304.5709002851246
 24
600.3815010035468
 34
0.0000000000000000
100
AcDbRotatedDimension
1001
ACAD
1000
DSTYLE
1002
{
1070
   173
1070
     1
1070
     6
1000
_OPEN
1070
     7
1000
_OPEN
1070
    41
1040
8.000000
1002
}
  0
LINE
  5
196
100
AcDbEntity
  8
MAIN0
  6
CONTINUOUS
 62
3
100
AcDbLine
 10
103.5709002848847
 20
528.8815010035204
 30
0.0000000000000000
 11
105.0709002848853
 21
530.3815010035207
 31
0.0000000000000000
  0
LINE
  5
197
100
AcDbEntity
  8
MAIN0
  6
CONTINUOUS
 62
3
100
AcDbLine
 10
304.0709002848853
 20
530.3815010034376
 30
0.0000000000000000
 11
305.5709002848845
 21
528.8815010034360
 31
0.0000000000000000
  0
LINE
  5
198
100
AcDbEntity
  8
MAIN0
  6
CONTINUOUS
 62
3
100
AcDbLine
 10
156.5709002848838
 20
526.5815010035368
 30
0.0000000000000000
 11
156.5709002848774
 21
511.3815010035365
 31
0.0000000000000000
  0
LINE
  5
199
100
AcDbEntity
  8
MAIN0
  6
CONTINUOUS
 62
3
100
AcDbLine
 10
155.5709002848743
 20
510.3815010035364
 30
0.0000000000000000
 11
156.5709002848745
 21
511.3815010035364
 31
0.0000000000000000
  0
LINE
  5
19A
100
AcDbEntity
  8
MAIN0
  6
CONTINUOUS
 62
3
100
AcDbLine
 10
148.0709002848740
 20
510.3815010035346
 30
0.0000000000000000
 11
155.5709002848740
 21
510.3815010035363
 31
0.0000000000000000
  0
LINE
  5
19B
100
AcDbEntity
  8
MAIN0
  6
CONTINUOUS
 62
3
100
AcDbLine
 10
148.0709002848738
 20
510.3815010035352
 30
0.0000000000000000
 11
148.0709002848654
 21
490.3815010035352
 31
0.0000000000000000
  0
ARC
  5
19C
100
AcDbEntity
  8
MAIN0
  6
CONTINUOUS
 62
3
100
AcDbCircle
 10
170.6722418971721
 20
470.3815010028486
 30
0.0000000000000000
 40
10.00000000000000
100
AcDbArc
 50
244.1580672271684
 51
270.0000000000000
  0
LINE
  5
19D
100
AcDbEntity
  8
MAIN0
  6
CONTINUOUS
 62
3
100
AcDbLine
 10
170.6722418971681
 20
460.3815010028486
 30
0.0000000000000000
 11
238.4695586725387
 21
460.3815010028206
 31
0.0000000000000000
  0
ARC
  5
19E
100
AcDbEntity
  8
MAIN0
  6
CONTINUOUS
 62
3
100
AcDbCircle
 10
238.4695586725427
 20
470.3815010028200
 30
0.0000000000000000
 40
10.00000000000000
100
AcDbArc
 50
269.9999999999519
 51
295.8419327721736
  0
LINE
  5
19F
100
AcDbEntity
  8
MAIN0
  6
CONTINUOUS
 62
3
100
AcDbLine
 10
261.0709002848738
 20
510.3815010034872
 30
0.0000000000000000
 11
261.0709002848654
 21
490.3815010034872
 31
0.0000000000000000
  0
LINE
  5
1A0
100
AcDbEntity
  8
MAIN0
  6
CONTINUOUS
 62
3
100
AcDbLine
 10
261.0709002848739
 20
510.3815010034875
 30
0.0000000000000000
 11
253.5709002848739
 21
510.3815010034952
 31
0.0000000000000000
  0
LINE
  5
1A1
100
AcDbEntity
  8
MAIN0
  6
CONTINUOUS
 62
3
100
AcDbLine
 10
253.5709002848741
 20
510.3815010034953
 30
0.0000000000000000
 11
252.5709002848743
 21
511.3815010034965
 31
0.0000000000000000
  0
LINE
  5
1A2
100
AcDbEntity
  8
MAIN0
  6
CONTINUOUS
 62
3
100
AcDbLine
 10
252.5709002848839
 20
526.5815010034962
 30
0.0000000000000000
 11
252.5709002848768
 21
510.3815010034962
 31
0.0000000000000000
  0
LINE
  5
1A3
100
AcDbEntity
  8
MAIN0
  6
CONTINUOUS
 62
3
100
AcDbLine
 10
155.5709002848852
 20
530.3815010035469
 30
0.0000000000000000
 11
155.5709002848709
 21
526.5815010035315
 31
0.0000000000000000
  0
LINE
  5
1A4
100
AcDbEntity
  8
MAIN0
  6
CONTINUOUS
 62
3
100
AcDbLine
 10
155.5709002848735
 20
529.7815010035313
 30
0.0000000000000000
 11
253.5709002848903
 21
529.7815010034906
 31
0.0000000000000000
  0
LINE
  5
1A5
100
AcDbEntity
  8
MAIN0
  6
CONTINUOUS
 62
3
100
AcDbLine
 10
155.5709002848721
 20
526.5815010035315
 30
0.0000000000000000
 11
253.5709002848890
 21
526.5815010034906
 31
0.0000000000000000
  0
LINE
  5
1A6
100
AcDbEntity
  8
MAIN0
  6
CONTINUOUS
 62
3
100
AcDbLine
 10
253.5709002848786
 20
530.3815010035464
 30
0.0000000000000000
 11
253.5709002848899
 21
526.5815010034900
 31
0.0000000000000000
  0
DIMENSION
  5
1B1
100
AcDbEntity
  8
MAIN0
  6
CONTINUOUS
 62
3
100
AcDbDimension
  2
*D24
 10
331.5709002848287
 20
530.3815010034846
 30
0.0000000000000000
 11
331.0709002848287
 21
517.3815010032997
 31
0.0000000000000000
 70
32
  3
MAIN001
100
AcDbAlignedDimension
 13
304.5709002848495
 23
504.3815010031148
 33
0.0000000000000000
 14
304.0709002848852
 24
530.3815010034375
 34
0.0000000000000000
 50
90.00000000000000
100
AcDbRotatedDimension
1001
ACAD
1000
DSTYLE
1002
{
1070
   173
1070
     1
1070
     6
1000
_OPEN
1070
     7
1000
_OPEN
1070
    41
1040
8.000000
1070
   287
1070
     0
1002
}
  0
DIMENSION
  5
1BA
100
AcDbEntity
  8
MAIN0
  6
CONTINUOUS
 62
3
100
AcDbDimension
  2
*D25
 10
331.5709002848287
 20
504.3815010031198
 30
0.0000000000000000
 11
331.0709002848287
 21
472.8815010029916
 31
0.0000000000000000
 70
32
  3
MAIN001
100
AcDbAlignedDimension
 13
304.5709002848531
 23
441.3815010028634
 33
0.0000000000000000
 14
304.5709002848495
 24
504.3815010031148
 34
0.0000000000000000
 50
90.00000000000000
100
AcDbRotatedDimension
1001
ACAD
1000
DSTYLE
1002
{
1070
   173
1070
     1
1070
     6
1000
_OPEN
1070
     7
1000
_OPEN
1070
    41
1040
8.000000
1002
}
  0
DIMENSION
  5
1C5
100
AcDbEntity
  8
MAIN0
  6
CONTINUOUS
 62
3
100
AcDbDimension
  2
*D26
 10
331.5709002848287
 20
441.3815010028634
 30
0.0000000000000000
 11
331.0709002848287
 21
430.8815010028102
 31
0.0000000000000000
 70
32
  3
MAIN001
100
AcDbAlignedDimension
 13
305.1709002848288
 23
420.3815010027569
 33
0.0000000000000000
 14
304.5709002848531
 24
441.3815010028634
 34
0.0000000000000000
 50
90.00000000000000
100
AcDbRotatedDimension
1001
ACAD
1000
DSTYLE
1002
{
1070
   173
1070
     1
1070
     6
1000
_OPEN
1070
     7
1000
_OPEN
1070
    41
1040
8.000000
1070
   287
1070
     0
1002
}
  0
DIMENSION
  5
1CF
100
AcDbEntity
  8
MAIN0
  6
CONTINUOUS
 62
3
100
AcDbDimension
  2
*D27
 10
298.5709002848505
 20
465.3815010028686
 30
0.0000000000000000
 11
284.6407068471191
 21
467.0481676695353
 31
0.0000000000000000
 70
160
  3
MAIN001
100
AcDbAlignedDimension
 13
305.5709002848372
 23
440.3815010028617
 33
0.0000000000000000
 14
298.5709002848423
 24
441.3815010028674
 34
0.0000000000000000
100
AcDbRotatedDimension
1001
ACAD
1000
DSTYLE
1002
{
1070
   173
1070
     1
1070
     6
1000
_OPEN
1070
     7
1000
_OPEN
1070
    41
1040
8.000000
1070
   287
1070
     0
1002
}
  0
LINE
  5
1D0
100
AcDbEntity
  8
MAIN0
  6
CONTINUOUS
 62
3
100
AcDbLine
 10
810.1794495803335
 20
563.5815010003422
 30
0.0000000000000000
 11
810.1794495803115
 21
496.0815010034095
 31
0.0000000000000000
  0
DIMENSION
  5
1D9
100
AcDbEntity
  8
MAIN0
  6
CONTINUOUS
 62
3
100
AcDbDimension
  2
*D28
 10
1124.179449580450
 20
349.3731454502754
 30
0.0000000000000000
 11
1076.679449580290
 21
349.8731454502754
 31
0.0000000000000000
 70
32
  3
MAIN001
100
AcDbAlignedDimension
 13
1029.179449580130
 23
420.7815010045049
 33
0.0000000000000000
 14
1124.179449580450
 24
470.3815010035515
 34
0.0000000000000000
100
AcDbRotatedDimension
1001
ACAD
1000
DSTYLE
1002
{
1070
   173
1070
     1
1070
     6
1000
_OPEN
1070
     7
1000
_OPEN
1070
    41
1040
8.000000
1002
}
  0
DIMENSION
  5
1E2
100
AcDbEntity
  8
MAIN0
  6
CONTINUOUS
 62
3
100
AcDbDimension
  2
*D29
 10
1029.179449580130
 20
349.3731454502754
 30
0.0000000000000000
 11
721.6794495801300
 21
349.8731454502754
 31
0.0000000000000000
 70
32
  3
MAIN001
100
AcDbAlignedDimension
 13
414.1794495801303
 23
420.7815010061024
 33
0.0000000000000000
 14
1029.179449580130
 24
420.7815010045049
 34
0.0000000000000000
100
AcDbRotatedDimension
1001
ACAD
1000
DSTYLE
1002
{
1070
   173
1070
     1
1070
     6
1000
_OPEN
1070
     7
1000
_OPEN
1070
    41
1040
8.000000
1002
}
  0
LINE
  5
1E3
100
AcDbEntity
  8
MAIN0
  6
CONTINUOUS
 62
3
100
AcDbLine
 10
810.1794495803335
 20
563.5815010003422
 30
0.0000000000000000
 11
730.1794495803503
 21
563.5815010003422
 31
0.0000000000000000
  0
LINE
  5
1E4
100
AcDbEntity
  8
MAIN0
  6
CONTINUOUS
 62
3
100
AcDbLine
 10
852.1794495801953
 20
496.0815010034561
 30
0.0000000000000000
 11
730.1794495803281
 21
496.0815010033208
 31
0.0000000000000000
  0
LINE
  5
1E5
100
AcDbEntity
  8
MAIN0
  6
CONTINUOUS
 62
3
100
AcDbLine
 10
962.1794495803320
 20
539.5815010003421
 30
0.0000000000000000
 11
962.1794495802080
 21
500.0815010034954
 31
0.0000000000000000
  0
LINE
  5
1E6
100
AcDbEntity
  8
MAIN0
  6
CONTINUOUS
 62
3
100
AcDbLine
 10
902.1794495803569
 20
547.5815010003421
 30
0.0000000000000000
 11
902.1794495802017
 21
498.0815010035044
 31
0.0000000000000000
  0
LINE
  5
1E7
100
AcDbEntity
  8
MAIN0
  6
CONTINUOUS
 62
3
100
AcDbLine
 10
852.1794495803820
 20
555.5815010003420
 30
0.0000000000000000
 11
852.1794495801953
 21
496.0815010034560
 31
0.0000000000000000
  0
LINE
  5
1E8
100
AcDbEntity
  8
MAIN0
  6
CONTINUOUS
 62
3
100
AcDbLine
 10
1411.418743695846
 20
496.0815010035584
 30
0.0000000000000000
 11
1420.418743695846
 21
496.0815010035584
 31
0.0000000000000000
  0
LINE
  5
1E9
100
AcDbEntity
  8
MAIN0
  6
CONTINUOUS
 62
3
100
AcDbLine
 10
1420.418743695846
 20
497.2815010035584
 30
0.0000000000000000
 11
1412.218743695846
 21
497.2815010035584
 31
0.0000000000000000
  0
LINE
  5
1EA
100
AcDbEntity
  8
MAIN0
  6
CONTINUOUS
 62
3
100
AcDbLine
 10
1408.918743695846
 20
496.0815010031869
 30
0.0000000000000000
 11
1408.918743695846
 21
562.5815010035577
 31
0.0000000000000000
  0
LINE
  5
1EB
100
AcDbEntity
  8
MAIN0
  6
CONTINUOUS
 62
3
100
AcDbLine
 10
1410.118743695846
 20
496.0815010031875
 30
0.0000000000000000
 11
1410.118743695846
 21
555.5815010035576
 31
0.0000000000000000
  0
LINE
  5
1EC
100
AcDbEntity
  8
MAIN0
  6
CONTINUOUS
 62
3
100
AcDbLine
 10
1420.418743695846
 20
496.0815010035584
 30
0.0000000000000000
 11
1420.418743695846
 21
497.2815010035584
 31
0.0000000000000000
  0
ARC
  5
1ED
100
AcDbEntity
  8
MAIN0
  6
CONTINUOUS
 62
3
100
AcDbCircle
 10
1412.218743695846
 20
497.8815010035585
 30
0.0000000000000000
 40
0.6000000000000001
100
AcDbArc
 50
180.0000000000000
 51
270.0000000000000
  0
ARC
  5
1EE
100
AcDbEntity
  8
MAIN0
  6
CONTINUOUS
 62
3
100
AcDbCircle
 10
1411.418743695846
 20
497.0815010035584
 30
0.0000000000000000
 40
1.000000000000000
100
AcDbArc
 50
180.0000000000000
 51
270.0000000000000
  0
LINE
  5
1EF
100
AcDbEntity
  8
MAIN0
  6
CONTINUOUS
 62
3
100
AcDbLine
 10
1408.918743695846
 20
496.0815010031869
 30
0.0000000000000000
 11
1410.118743695846
 21
496.0815010031876
 31
0.0000000000000000
  0
LINE
  5
1F0
100
AcDbEntity
  8
MAIN0
  6
CONTINUOUS
 62
3
100
AcDbLine
 10
1409.918743695846
 20
563.5815010035577
 30
0.0000000000000000
 11
1624.918743695847
 21
563.5815010035577
 31
0.0000000000000000
  0
ARC
  5
1F1
100
AcDbEntity
  8
MAIN0
  6
CONTINUOUS
 62
3
100
AcDbCircle
 10
1409.918743695846
 20
562.5815010035577
 30
0.0000000000000000
 40
1.000000000000000
100
AcDbArc
 50
90.00000000000000
 51
180.0000000000000
  0
LINE
  5
1F2
100
AcDbEntity
  8
MAIN0
  6
CONTINUOUS
 62
3
100
AcDbLine
 10
1623.418743695846
 20
496.0815010034688
 30
0.0000000000000000
 11
1614.418743696786
 21
496.0815010034764
 31
0.0000000000000000
  0
LINE
  5
1F3
100
AcDbEntity
  8
MAIN0
  6
CONTINUOUS
 62
3
100
AcDbLine
 10
1622.618743695846
 20
497.2815010034693
 30
0.0000000000000000
 11
1614.418743696786
 21
497.2815010034762
 31
0.0000000000000000
  0
LINE
  5
1F4
100
AcDbEntity
  8
MAIN0
  6
CONTINUOUS
 62
3
100
AcDbLine
 10
1614.418743696786
 20
496.0815010034763
 30
0.0000000000000000
 11
1614.418743696786
 21
497.2815010034762
 31
0.0000000000000000
  0
LINE
  5
1F5
100
AcDbEntity
  8
MAIN0
  6
CONTINUOUS
 62
3
100
AcDbLine
 10
1625.918743695848
 20
496.0815010033073
 30
0.0000000000000000
 11
1625.918743695848
 21
562.5815010035577
 31
0.0000000000000000
  0
LINE
  5
1F6
100
AcDbEntity
  8
MAIN0
  6
CONTINUOUS
 62
3
100
AcDbLine
 10
1624.718743695848
 20
496.0815010033066
 30
0.0000000000000000
 11
1624.718743695848
 21
555.5815010035576
 31
0.0000000000000000
  0
ARC
  5
1F7
100
AcDbEntity
  8
MAIN0
  6
CONTINUOUS
 62
3
100
AcDbCircle
 10
1623.418743695846
 20
497.0815010034688
 30
0.0000000000000000
 40
1.000000000000000
100
AcDbArc
 50
270.0000000000000
 51
360.0000000000000
  0
ARC
  5
1F8
100
AcDbEntity
  8
MAIN0
  6
CONTINUOUS
 62
3
100
AcDbCircle
 10
1622.618743695846
 20
497.8815010034694
 30
0.0000000000000000
 40
0.6000000000000001
100
AcDbArc
 50
270.0000000000000
 51
360.0000000000000
  0
LINE
  5
1F9
100
AcDbEntity
  8
MAIN0
  6
CONTINUOUS
 62
3
100
AcDbLine
 10
1624.718743695848
 20
496.0815010033066
 30
0.0000000000000000
 11
1625.918743695848
 21
496.0815010033073
 31
0.0000000000000000
  0
ARC
  5
1FA
100
AcDbEntity
  8
MAIN0
  6
CONTINUOUS
 62
3
100
AcDbCircle
 10
1624.918743695847
 20
562.5815010035577
 30
0.0000000000000000
 40
1.000000000000000
100
AcDbArc
 50
0.0000000000000000
 51
90.00000000000000
  0
LINE
  5
1FB
100
AcDbEntity
  8
MAIN0
  6
CONTINUOUS
 62
3
100
AcDbLine
 10
98.57090028488256
 20
496.0815010035474
 30
0.0000000000000000
 11
107.5709002848831
 21
496.0815010035474
 31
0.0000000000000000
  0
LINE
  5
1FC
100
AcDbEntity
  8
MAIN0
  6
CONTINUOUS
 62
3
100
AcDbLine
 10
99.37090028488274
 20
497.2815010035474
 30
0.0000000000000000
 11
107.5709002848831
 21
497.2815010035474
 31
0.0000000000000000
  0
LINE
  5
1FD
100
AcDbEntity
  8
MAIN0
  6
CONTINUOUS
 62
3
100
AcDbLine
 10
96.07090028488244
 20
496.0815010037908
 30
0.0000000000000000
 11
96.07090028488244
 21
562.5815010035486
 31
0.0000000000000000
  0
LINE
  5
1FE
100
AcDbEntity
  8
MAIN0
  6
CONTINUOUS
 62
3
100
AcDbLine
 10
97.27090028488249
 20
496.0815010037928
 30
0.0000000000000000
 11
97.27090028488249
 21
530.3815010035468
 31
0.0000000000000000
  0
LINE
  5
1FF
100
AcDbEntity
  8
MAIN0
  6
CONTINUOUS
 62
3
100
AcDbLine
 10
107.5709002848831
 20
496.0815010035474
 30
0.0000000000000000
 11
107.5709002848831
 21
497.2815010035474
 31
0.0000000000000000
  0
ARC
  5
200
100
AcDbEntity
  8
MAIN0
  6
CONTINUOUS
 62
3
100
AcDbCircle
 10
98.57090028488256
 20
497.0815010035474
 30
0.0000000000000000
 40
1.000000000000000
100
AcDbArc
 50
180.0000000000000
 51
270.0000000000000
  0
ARC
  5
201
100
AcDbEntity
  8
MAIN0
  6
CONTINUOUS
 62
3
100
AcDbCircle
 10
99.37090028488274
 20
497.8815010035474
 30
0.0000000000000000
 40
0.6000000000000001
100
AcDbArc
 50
180.0000000000000
 51
270.0000000000000
  0
LINE
  5
202
100
AcDbEntity
  8
MAIN0
  6
CONTINUOUS
 62
3
100
AcDbLine
 10
96.07090028488238
 20
496.0815010037910
 30
0.0000000000000000
 11
97.27090028488243
 21
496.0815010037928
 31
0.0000000000000000
  0
ARC
  5
203
100
AcDbEntity
  8
MAIN0
  6
CONTINUOUS
 62
3
100
AcDbCircle
 10
97.07090028488244
 20
562.5815010035486
 30
0.0000000000000000
 40
1.000000000000000
100
AcDbArc
 50
90.00000000000000
 51
180.0000000000000
  0
LINE
  5
204
100
AcDbEntity
  8
MAIN0
  6
CONTINUOUS
 62
3
100
AcDbLine
 10
301.5709002848550
 20
497.2815010034655
 30
0.0000000000000000
 11
309.7709002848823
 21
497.2815010034587
 31
0.0000000000000000
  0
LINE
  5
205
100
AcDbEntity
  8
MAIN0
  6
CONTINUOUS
 62
3
100
AcDbLine
 10
313.0709002848834
 20
496.0815010034560
 30
0.0000000000000000
 11
313.0709002848834
 21
562.5815010035504
 31
0.0000000000000000
  0
LINE
  5
206
100
AcDbEntity
  8
MAIN0
  6
CONTINUOUS
 62
3
100
AcDbLine
 10
311.8709002848834
 20
496.0815010034569
 30
0.0000000000000000
 11
311.8709002848834
 21
530.3815010035468
 31
0.0000000000000000
  0
LINE
  5
207
100
AcDbEntity
  8
MAIN0
  6
CONTINUOUS
 62
3
100
AcDbLine
 10
301.5709002848549
 20
496.0815010034655
 30
0.0000000000000000
 11
301.5709002848549
 21
497.2815010034654
 31
0.0000000000000000
  0
ARC
  5
208
100
AcDbEntity
  8
MAIN0
  6
CONTINUOUS
 62
3
100
AcDbCircle
 10
310.5709002848831
 20
497.0815010034580
 30
0.0000000000000000
 40
1.000000000000000
100
AcDbArc
 50
270.0000000000000
 51
360.0000000000000
  0
ARC
  5
209
100
AcDbEntity
  8
MAIN0
  6
CONTINUOUS
 62
3
100
AcDbCircle
 10
309.7709002848828
 20
497.8815010034587
 30
0.0000000000000000
 40
0.6000000000000001
100
AcDbArc
 50
270.0000000000000
 51
360.0000000000000
  0
LINE
  5
20A
100
AcDbEntity
  8
MAIN0
  6
CONTINUOUS
 62
3
100
AcDbLine
 10
301.5709002848549
 20
496.0815010034654
 30
0.0000000000000000
 11
310.5709002848822
 21
496.0815010034580
 31
0.0000000000000000
  0
LINE
  5
20B
100
AcDbEntity
  8
MAIN0
  6
CONTINUOUS
 62
3
100
AcDbLine
 10
311.8709002848834
 20
496.0815010034569
 30
0.0000000000000000
 11
313.0709002848834
 21
496.0815010034560
 31
0.0000000000000000
  0
ARC
  5
20C
100
AcDbEntity
  8
MAIN0
  6
CONTINUOUS
 62
3
100
AcDbCircle
 10
312.0709002848834
 20
562.5815010035504
 30
0.0000000000000000
 40
1.000000000000000
100
AcDbArc
 50
0.0000000000000000
 51
90.00000000000000
  0
LINE
  5
20D
100
AcDbEntity
  8
MAIN0
  6
CONTINUOUS
 62
3
100
AcDbLine
 10
97.07090028488256
 20
563.5815010035485
 30
0.0000000000000000
 11
104.5709002851245
 21
563.5815010035487
 31
0.0000000000000000
  0
LINE
  5
20E
100
AcDbEntity
  8
MAIN0
  6
CONTINUOUS
 62
3
100
AcDbLine
 10
304.5709002851246
 20
563.5815010035503
 30
0.0000000000000000
 11
312.0709002848834
 21
563.5815010035504
 31
0.0000000000000000
  0
DIMENSION
  5
218
100
AcDbEntity
  8
MAIN0
  6
CONTINUOUS
 62
3
100
AcDbDimension
  2
*D30
 10
708.0941805178729
 20
563.5815010003422
 30
0.0000000000000000
 11
707.5941805178729
 21
546.9815010009131
 31
0.0000000000000000
 70
32
  3
MAIN001
100
AcDbAlignedDimension
 13
735.1794495803393
 23
530.3815010014839
 33
0.0000000000000000
 14
730.1794495803503
 24
563.5815010003422
 34
0.0000000000000000
 50
90.00000000000000
100
AcDbRotatedDimension
1001
ACAD
1000
DSTYLE
1002
{
1070
   173
1070
     1
1070
     6
1000
_OPEN
1070
     7
1000
_OPEN
1070
    41
1040
8.000000
1070
   287
1070
     0
1002
}
  0
DIMENSION
  5
221
100
AcDbEntity
  8
MAIN0
  6
CONTINUOUS
 62
3
100
AcDbDimension
  2
*D31
 10
1625.918743695848
 20
665.1055829866066
 30
0.0000000000000000
 11
1517.418743695847
 21
665.6055829866066
 31
0.0000000000000000
 70
32
  3
MAIN001
100
AcDbAlignedDimension
 13
1408.918743695846
 23
562.5815010035577
 33
0.0000000000000000
 14
1625.918743695848
 24
562.5815010035577
 34
0.0000000000000000
100
AcDbRotatedDimension
1001
ACAD
1000
DSTYLE
1002
{
1070
   173
1070
     1
1070
     6
1000
_OPEN
1070
     7
1000
_OPEN
1070
    41
1040
8.000000
1002
}
  0
LINE
  5
222
100
AcDbEntity
  8
MAIN0
  6
CONTINUOUS
 62
3
100
AcDbLine
 10
247.5530589324642
 20
461.3815010035004
 30
0.0000000000000000
 11
161.5887416372089
 21
461.3815010035886
 31
0.0000000000000000
  0
LINE
  5
223
100
AcDbEntity
  8
MAIN0
  6
CENTER
 62
3
100
AcDbLine
 10
222.5709002848681
 20
495.3815010035408
 30
0.0000000000000000
 11
186.5709002848681
 21
495.3815010035408
 31
0.0000000000000000
  0
LINE
  5
224
100
AcDbEntity
  8
MAIN0
  6
CONTINUOUS
 62
3
100
AcDbLine
 10
170.8552538951712
 20
455.1407230737852
 30
0.0000000000000000
 11
238.2865466745425
 21
455.1407230737918
 31
0.0000000000000000
  0
ARC
  5
225
100
AcDbEntity
  8
MAIN0
  6
CONTINUOUS
 62
3
100
AcDbCircle
 10
238.2865466745414
 20
465.1407230737918
 30
0.0000000000000000
 40
10.00000000000000
100
AcDbArc
 50
270.0000000000000
 51
360.0000000000000
  0
ARC
  5
226
100
AcDbEntity
  8
MAIN0
  6
CONTINUOUS
 62
3
100
AcDbCircle
 10
170.8552538951701
 20
465.1407230737852
 30
0.0000000000000000
 40
10.00000000000000
100
AcDbArc
 50
180.0000000000000
 51
270.0000000000000
  0
LINE
  5
227
100
AcDbEntity
  8
MAIN0
  6
CONTINUOUS
 62
3
100
AcDbLine
 10
261.0709002848533
 20
490.3815010034875
 30
0.0000000000000000
 11
248.2865466744825
 21
490.3815010035006
 31
0.0000000000000000
  0
LINE
  5
228
100
AcDbEntity
  8
MAIN0
  6
CONTINUOUS
 62
3
100
AcDbLine
 10
248.2865466744727
 20
465.1407230737879
 30
0.0000000000000000
 11
248.2865466744826
 21
490.3815010035007
 31
0.0000000000000000
  0
LINE
  5
229
100
AcDbEntity
  8
MAIN0
  6
CONTINUOUS
 62
3
100
AcDbLine
 10
148.0709002848785
 20
490.3815010035350
 30
0.0000000000000000
 11
160.8552538952493
 21
490.3815010035373
 31
0.0000000000000000
  0
LINE
  5
22A
100
AcDbEntity
  8
MAIN0
  6
CONTINUOUS
 62
3
100
AcDbLine
 10
160.8552538952380
 20
465.1407230738246
 30
0.0000000000000000
 11
160.8552538952493
 21
490.3815010035374
 31
0.0000000000000000
  0
LINE
  5
22B
100
AcDbEntity
  8
MAIN0
  6
CONTINUOUS
 62
3
100
AcDbLine
 10
504.6794495803619
 20
982.9415386027487
 30
0.0000000000000000
 11
502.1794495803619
 21
984.3849142757229
 31
0.0000000000000000
  0
LINE
  5
22C
100
AcDbEntity
  8
MAIN0
  6
CONTINUOUS
 62
3
100
AcDbLine
 10
502.1794495803619
 20
984.3849142757227
 30
0.0000000000000000
 11
499.6794495803619
 21
982.9415386027487
 31
0.0000000000000000
  0
LINE
  5
22D
100
AcDbEntity
  8
MAIN0
  6
CONTINUOUS
 62
3
100
AcDbLine
 10
499.6794495803619
 20
982.9415386027488
 30
0.0000000000000000
 11
499.6794495803619
 21
980.0547872568006
 31
0.0000000000000000
  0
LINE
  5
22E
100
AcDbEntity
  8
MAIN0
  6
CONTINUOUS
 62
3
100
AcDbLine
 10
499.6794495803619
 20
980.0547872568005
 30
0.0000000000000000
 11
502.1794495803618
 21
978.6114115838265
 31
0.0000000000000000
  0
LINE
  5
22F
100
AcDbEntity
  8
MAIN0
  6
CONTINUOUS
 62
3
100
AcDbLine
 10
502.1794495803619
 20
978.6114115838265
 30
0.0000000000000000
 11
504.6794495803619
 21
980.0547872568005
 31
0.0000000000000000
  0
LINE
  5
230
100
AcDbEntity
  8
MAIN0
  6
CONTINUOUS
 62
3
100
AcDbLine
 10
504.6794495803619
 20
980.0547872568006
 30
0.0000000000000000
 11
504.6794495803619
 21
982.9415386027488
 31
0.0000000000000000
  0
LINE
  5
231
100
AcDbEntity
  8
MAIN0
  6
CONTINUOUS
 62
3
100
AcDbLine
 10
649.6794495808199
 20
1007.941538602847
 30
0.0000000000000000
 11
647.1794495808199
 21
1009.384914275821
 31
0.0000000000000000
  0
LINE
  5
232
100
AcDbEntity
  8
MAIN0
  6
CONTINUOUS
 62
3
100
AcDbLine
 10
647.1794495808200
 20
1009.384914275821
 30
0.0000000000000000
 11
644.6794495808200
 21
1007.941538602847
 31
0.0000000000000000
  0
LINE
  5
233
100
AcDbEntity
  8
MAIN0
  6
CONTINUOUS
 62
3
100
AcDbLine
 10
644.6794495808200
 20
1007.941538602847
 30
0.0000000000000000
 11
644.6794495808200
 21
1005.054787256899
 31
0.0000000000000000
  0
LINE
  5
234
100
AcDbEntity
  8
MAIN0
  6
CONTINUOUS
 62
3
100
AcDbLine
 10
644.6794495808200
 20
1005.054787256899
 30
0.0000000000000000
 11
647.1794495808199
 21
1003.611411583925
 31
0.0000000000000000
  0
LINE
  5
235
100
AcDbEntity
  8
MAIN0
  6
CONTINUOUS
 62
3
100
AcDbLine
 10
647.1794495808200
 20
1003.611411583925
 30
0.0000000000000000
 11
649.6794495808200
 21
1005.054787256899
 31
0.0000000000000000
  0
LINE
  5
236
100
AcDbEntity
  8
MAIN0
  6
CONTINUOUS
 62
3
100
AcDbLine
 10
649.6794495808200
 20
1005.054787256899
 30
0.0000000000000000
 11
649.6794495808200
 21
1007.941538602847
 31
0.0000000000000000
  0
LINE
  5
237
100
AcDbEntity
  8
MAIN0
  6
CONTINUOUS
 62
3
100
AcDbLine
 10
709.6794495808199
 20
1007.941538602847
 30
0.0000000000000000
 11
707.1794495808199
 21
1009.384914275821
 31
0.0000000000000000
  0
LINE
  5
238
100
AcDbEntity
  8
MAIN0
  6
CONTINUOUS
 62
3
100
AcDbLine
 10
707.1794495808199
 20
1009.384914275821
 30
0.0000000000000000
 11
704.6794495808199
 21
1007.941538602846
 31
0.0000000000000000
  0
LINE
  5
239
100
AcDbEntity
  8
MAIN0
  6
CONTINUOUS
 62
3
100
AcDbLine
 10
704.6794495808200
 20
1007.941538602847
 30
0.0000000000000000
 11
704.6794495808200
 21
1005.054787256899
 31
0.0000000000000000
  0
LINE
  5
23A
100
AcDbEntity
  8
MAIN0
  6
CONTINUOUS
 62
3
100
AcDbLine
 10
704.6794495808200
 20
1005.054787256898
 30
0.0000000000000000
 11
707.1794495808199
 21
1003.611411583924
 31
0.0000000000000000
  0
LINE
  5
23B
100
AcDbEntity
  8
MAIN0
  6
CONTINUOUS
 62
3
100
AcDbLine
 10
707.1794495808199
 20
1003.611411583924
 30
0.0000000000000000
 11
709.6794495808199
 21
1005.054787256898
 31
0.0000000000000000
  0
LINE
  5
23C
100
AcDbEntity
  8
MAIN0
  6
CONTINUOUS
 62
3
100
AcDbLine
 10
709.6794495808200
 20
1005.054787256899
 30
0.0000000000000000
 11
709.6794495808200
 21
1007.941538602847
 31
0.0000000000000000
  0
LINE
  5
23D
100
AcDbEntity
  8
MAIN0
  6
CONTINUOUS
 62
3
100
AcDbLine
 10
709.6794495808199
 20
857.9415386028472
 30
0.0000000000000000
 11
707.1794495808199
 21
859.3849142758214
 31
0.0000000000000000
  0
LINE
  5
23E
100
AcDbEntity
  8
MAIN0
  6
CONTINUOUS
 62
3
100
AcDbLine
 10
707.1794495808199
 20
859.3849142758213
 30
0.0000000000000000
 11
704.6794495808199
 21
857.9415386028472
 31
0.0000000000000000
  0
LINE
  5
23F
100
AcDbEntity
  8
MAIN0
  6
CONTINUOUS
 62
3
100
AcDbLine
 10
704.6794495808200
 20
857.9415386028473
 30
0.0000000000000000
 11
704.6794495808200
 21
855.0547872568992
 31
0.0000000000000000
  0
LINE
  5
240
100
AcDbEntity
  8
MAIN0
  6
CONTINUOUS
 62
3
100
AcDbLine
 10
704.6794495808200
 20
855.0547872568991
 30
0.0000000000000000
 11
707.1794495808199
 21
853.6114115839250
 31
0.0000000000000000
  0
LINE
  5
241
100
AcDbEntity
  8
MAIN0
  6
CONTINUOUS
 62
3
100
AcDbLine
 10
707.1794495808199
 20
853.6114115839250
 30
0.0000000000000000
 11
709.6794495808199
 21
855.0547872568991
 31
0.0000000000000000
  0
LINE
  5
242
100
AcDbEntity
  8
MAIN0
  6
CONTINUOUS
 62
3
100
AcDbLine
 10
709.6794495808200
 20
855.0547872568992
 30
0.0000000000000000
 11
709.6794495808200
 21
857.9415386028473
 31
0.0000000000000000
  0
LINE
  5
243
100
AcDbEntity
  8
MAIN0
  6
CONTINUOUS
 62
3
100
AcDbLine
 10
649.6794495808200
 20
857.9415386028471
 30
0.0000000000000000
 11
647.1794495808199
 21
859.3849142758213
 31
0.0000000000000000
  0
LINE
  5
244
100
AcDbEntity
  8
MAIN0
  6
CONTINUOUS
 62
3
100
AcDbLine
 10
647.1794495808199
 20
859.3849142758211
 30
0.0000000000000000
 11
644.6794495808199
 21
857.9415386028470
 31
0.0000000000000000
  0
LINE
  5
245
100
AcDbEntity
  8
MAIN0
  6
CONTINUOUS
 62
3
100
AcDbLine
 10
644.6794495808200
 20
857.9415386028472
 30
0.0000000000000000
 11
644.6794495808200
 21
855.0547872568991
 31
0.0000000000000000
  0
LINE
  5
246
100
AcDbEntity
  8
MAIN0
  6
CONTINUOUS
 62
3
100
AcDbLine
 10
644.6794495808200
 20
855.0547872568991
 30
0.0000000000000000
 11
647.1794495808200
 21
853.6114115839250
 31
0.0000000000000000
  0
LINE
  5
247
100
AcDbEntity
  8
MAIN0
  6
CONTINUOUS
 62
3
100
AcDbLine
 10
647.1794495808199
 20
853.6114115839249
 30
0.0000000000000000
 11
649.6794495808199
 21
855.0547872568990
 31
0.0000000000000000
  0
LINE
  5
248
100
AcDbEntity
  8
MAIN0
  6
CONTINUOUS
 62
3
100
AcDbLine
 10
649.6794495808200
 20
855.0547872568991
 30
0.0000000000000000
 11
649.6794495808200
 21
857.9415386028472
 31
0.0000000000000000
  0
LINE
  5
249
100
AcDbEntity
  8
MAIN0
  6
CONTINUOUS
 62
3
100
AcDbLine
 10
504.6794495803617
 20
882.9415386028650
 30
0.0000000000000000
 11
502.1794495803617
 21
884.3849142758390
 31
0.0000000000000000
  0
LINE
  5
24A
100
AcDbEntity
  8
MAIN0
  6
CONTINUOUS
 62
3
100
AcDbLine
 10
502.1794495803616
 20
884.3849142758390
 30
0.0000000000000000
 11
499.6794495803616
 21
882.9415386028650
 31
0.0000000000000000
  0
LINE
  5
24B
100
AcDbEntity
  8
MAIN0
  6
CONTINUOUS
 62
3
100
AcDbLine
 10
499.6794495803617
 20
882.9415386028651
 30
0.0000000000000000
 11
499.6794495803617
 21
880.0547872569169
 31
0.0000000000000000
  0
LINE
  5
24C
100
AcDbEntity
  8
MAIN0
  6
CONTINUOUS
 62
3
100
AcDbLine
 10
499.6794495803617
 20
880.0547872569168
 30
0.0000000000000000
 11
502.1794495803617
 21
878.6114115839428
 31
0.0000000000000000
  0
LINE
  5
24D
100
AcDbEntity
  8
MAIN0
  6
CONTINUOUS
 62
3
100
AcDbLine
 10
502.1794495803616
 20
878.6114115839428
 30
0.0000000000000000
 11
504.6794495803616
 21
880.0547872569168
 31
0.0000000000000000
  0
LINE
  5
24E
100
AcDbEntity
  8
MAIN0
  6
CONTINUOUS
 62
3
100
AcDbLine
 10
504.6794495803617
 20
880.0547872569169
 30
0.0000000000000000
 11
504.6794495803617
 21
882.9415386028651
 31
0.0000000000000000
  0
LINE
  5
24F
100
AcDbEntity
  8
MAIN0
  6
CONTINUOUS
 62
3
100
AcDbLine
 10
434.6794495803617
 20
882.9415386028651
 30
0.0000000000000000
 11
432.1794495803617
 21
884.3849142758393
 31
0.0000000000000000
  0
LINE
  5
250
100
AcDbEntity
  8
MAIN0
  6
CONTINUOUS
 62
3
100
AcDbLine
 10
432.1794495803617
 20
884.3849142758390
 30
0.0000000000000000
 11
429.6794495803617
 21
882.9415386028650
 31
0.0000000000000000
  0
LINE
  5
251
100
AcDbEntity
  8
MAIN0
  6
CONTINUOUS
 62
3
100
AcDbLine
 10
429.6794495803617
 20
882.9415386028652
 30
0.0000000000000000
 11
429.6794495803617
 21
880.0547872569171
 31
0.0000000000000000
  0
LINE
  5
252
100
AcDbEntity
  8
MAIN0
  6
CONTINUOUS
 62
3
100
AcDbLine
 10
429.6794495803618
 20
880.0547872569169
 30
0.0000000000000000
 11
432.1794495803617
 21
878.6114115839429
 31
0.0000000000000000
  0
LINE
  5
253
100
AcDbEntity
  8
MAIN0
  6
CONTINUOUS
 62
3
100
AcDbLine
 10
432.1794495803617
 20
878.6114115839429
 30
0.0000000000000000
 11
434.6794495803617
 21
880.0547872569169
 31
0.0000000000000000
  0
LINE
  5
254
100
AcDbEntity
  8
MAIN0
  6
CONTINUOUS
 62
3
100
AcDbLine
 10
434.6794495803617
 20
880.0547872569171
 30
0.0000000000000000
 11
434.6794495803617
 21
882.9415386028652
 31
0.0000000000000000
  0
MTEXT
  5
255
100
AcDbEntity
  8
MAIN0
  6
CONTINUOUS
 62
3
100
AcDbMText
 10
1100.332651667576
 20
244.2273755874268
 30
0.0000000000000000
 40
12.39999961853027
 41
0.0000000000000000
 71
     1
 72
     1
  1
{\H0.94x;{(押さえ金具４セット付属)}}
 11
1.000000000000000
 21
0.0000000000000000
 31
0.0000000000000000
  7
KNJYOKO
  0
MTEXT
  5
256
100
AcDbEntity
  8
MAIN0
  6
CONTINUOUS
 62
3
100
AcDbMText
 10
1101.432605502541
 20
227.8507120320777
 30
0.0000000000000000
 40
12.00000000000000
 41
0.0000000000000000
 71
     1
 72
     1
  1
{\H0.63x;{(CLAMPING PARTS  ACCESSARY 4 PAIR)}}
 11
1.000000000000000
 21
0.0000000000000000
 31
0.0000000000000000
  7
STANDARD
  0
LEADER
  5
257
100
AcDbEntity
  8
MAIN0
  6
CONTINUOUS
 62
3
100
AcDbLeader
  3
MAIN001
 73
     0
 75
     1
 40
12.00000000000000
 41
104.3989972343445
 76
     3
 10
1387.180267171565
 20
463.6812027839009
 30
0.0000000000000000
 10
1285.136773021396
 20
325.3635248048806
 30
0.0000000000000000
 10
1278.415773021396
 20
325.3635248048806
 30
0.0000000000000000
340
258
213
0.0000000000000000
223
-2.000000000000000
233
0.0000000000000000
1001
ACAD
1000
DSTYLE
1002
{
1070
   147
1040
0.0
1070
    77
1070
     1
1070
   173
1070
     1
1070
     6
1000
_DOT
1070
     7
1000
_DOT
1002
}
  0
MTEXT
  5
258
102
{ACAD_REACTORS
330
257
102
}
100
AcDbEntity
  8
MAIN0
  6
CONTINUOUS
 62
3
100
AcDbMText
 10
1174.016775787052
 20
339.3635248048806
 30
0.0000000000000000
 40
12.00000000000000
 41
0.0000000000000000
 71
     1
 72
     1
  1
{\H0.61x;{六角穴付ボルト\PM16×65\PHEX,SOCKET HEAD\PCAP SCREW}}
 11
1.000000000000000
 21
0.0000000000000000
 31
0.0000000000000000
  7
KNJYOKO
  0
LEADER
  5
259
100
AcDbEntity
  8
MAIN0
  6
CONTINUOUS
 62
3
100
AcDbLeader
  3
MAIN001
 73
     0
 75
     1
 40
12.39999961853027
 41
87.59900005364415
 76
     3
 10
463.6229226533937
 20
934.5745520577945
 30
0.0000000000000000
 10
354.4220897413445
 20
1061.665073937901
 30
0.0000000000000000
 10
347.2770899519873
 20
1061.665073937901
 30
0.0000000000000000
340
25A
213
0.0000000000000000
223
-2.000000000000000
233
0.0000000000000000
1001
ACAD
1000
DSTYLE
1002
{
1070
   147
1040
0.0
1070
    77
1070
     1
1070
   173
1070
     1
1070
     6
1000
_OPEN
1070
     7
1000
_OPEN
1002
}
  0
MTEXT
  5
25A
102
{ACAD_REACTORS
330
259
102
}
100
AcDbEntity
  8
MAIN0
  6
CONTINUOUS
 62
3
100
AcDbMText
 10
259.6780898983432
 20
1076.065073556431
 30
0.0000000000000000
 40
12.39999961853027
 41
0.0000000000000000
 71
     1
 72
     1
  1
{\H0.70x;{（吊りボルト用）\P（EYE BOLT）\P}
 11
1.000000000000000
 21
0.0000000000000000
 31
0.0000000000000000
  7
KNJYOKO
  0
DIMENSION
  5
263
100
AcDbEntity
  8
MAIN0
  6
CONTINUOUS
 62
3
100
AcDbDimension
  2
*D32
 10
517.1794495803617
 20
375.3815010055769
 30
0.0000000000000000
 11
554.1794495802452
 21
375.8815010055769
 31
0.0000000000000000
 70
32
  3
MAIN001
100
AcDbAlignedDimension
 13
591.1794495801287
 23
406.3917837453510
 33
0.0000000000000000
 14
517.1794495803617
 24
530.7815010006029
 34
0.0000000000000000
100
AcDbRotatedDimension
1001
ACAD
1000
DSTYLE
1002
{
1070
   173
1070
     1
1070
     6
1000
_OPEN
1070
     7
1000
_OPEN
1070
    41
1040
8.000000
1002
}
  0
DIMENSION
  5
26C
100
AcDbEntity
  8
MAIN0
  6
CONTINUOUS
 62
3
100
AcDbDimension
  2
*D33
 10
591.1794495801287
 20
375.3815010055769
 30
0.0000000000000000
 11
810.1794495801291
 21
375.8815010055769
 31
0.0000000000000000
 70
32
  3
MAIN001
100
AcDbAlignedDimension
 13
1029.179449580130
 23
420.7815010045049
 33
0.0000000000000000
 14
591.1794495801287
 24
406.3917837453510
 34
0.0000000000000000
100
AcDbRotatedDimension
1001
ACAD
1000
DSTYLE
1002
{
1070
   173
1070
     1
1070
     6
1000
_OPEN
1070
     7
1000
_OPEN
1070
    41
1040
8.000000
1002
}
  0
DIMENSION
  5
274
100
AcDbEntity
  8
MAIN0
  6
CONTINUOUS
 62
3
100
AcDbDimension
  2
*D34
 10
889.8618120640713
 20
420.3815010041757
 30
0.0000000000000000
 11
887.8618120640713
 21
437.5644275198488
 31
0.0000000000000000
 70
160
  3
MAIN001
100
AcDbAlignedDimension
 13
905.1794495803947
 23
472.8815010059407
 33
0.0000000000000000
 14
1029.179449580128
 24
420.3815010041757
 34
0.0000000000000000
 50
90.00000000000000
100
AcDbRotatedDimension
1001
ACAD
1000
DSTYLE
1002
{
1070
   173
1070
     1
1070
     6
1000
_OPEN
1070
     7
1000
_OPEN
1070
    41
1040
8.000000
1002
}
  0
DIMENSION
  5
27D
100
AcDbEntity
  8
MAIN0
  6
CONTINUOUS
 62
3
100
AcDbDimension
  2
*D35
 10
889.8618120640713
 20
472.8815010059407
 30
0.0000000000000000
 11
889.3618120640713
 21
501.6315010037044
 31
0.0000000000000000
 70
32
  3
MAIN001
100
AcDbAlignedDimension
 13
730.1794495803392
 23
530.3815010014682
 33
0.0000000000000000
 14
905.1794495803947
 24
472.8815010059407
 34
0.0000000000000000
 50
90.00000000000000
100
AcDbRotatedDimension
1001
ACAD
1000
DSTYLE
1002
{
1070
   173
1070
     1
1070
     6
1000
_OPEN
1070
     7
1000
_OPEN
1070
    41
1040
8.000000
1002
}
  0
DIMENSION
  5
288
100
AcDbEntity
  8
MAIN0
  6
CONTINUOUS
 62
3
100
AcDbDimension
  2
*D36
 10
1177.412599680208
 20
814.0570149838370
 30
0.0000000000000000
 11
1184.912599680208
 21
814.5570149838370
 31
0.0000000000000000
 70
32
  3
MAIN001
100
AcDbAlignedDimension
 13
1192.412599680208
 23
557.8090733898957
 33
0.0000000000000000
 14
1177.412599680215
 24
548.2090733898958
 34
0.0000000000000000
100
AcDbRotatedDimension
1001
ACAD
1000
DSTYLE
1002
{
1070
   173
1070
     1
1070
     6
1000
_OPEN
1070
     7
1000
_OPEN
1070
    41
1040
8.000000
1070
   287
1070
     0
1002
}
  0
DIMENSION
  5
291
100
AcDbEntity
  8
MAIN0
  6
CONTINUOUS
 62
3
100
AcDbDimension
  2
*D37
 10
1192.412599680215
 20
814.0570149838370
 30
0.0000000000000000
 11
1210.912599680298
 21
814.5570149838370
 31
0.0000000000000000
 70
32
  3
MAIN001
100
AcDbAlignedDimension
 13
1229.412599680381
 23
761.2090733898982
 33
0.0000000000000000
 14
1192.412599680208
 24
557.8090733898957
 34
0.0000000000000000
100
AcDbRotatedDimension
1001
ACAD
1000
DSTYLE
1002
{
1070
   173
1070
     1
1070
     6
1000
_OPEN
1070
     7
1000
_OPEN
1070
    41
1040
8.000000
1002
}
  0
DIMENSION
  5
29A
100
AcDbEntity
  8
MAIN0
  6
CONTINUOUS
 62
3
100
AcDbDimension
  2
*D38
 10
1229.412599680381
 20
814.0570149838370
 30
0.0000000000000000
 11
1276.912599680386
 21
814.5570149838370
 31
0.0000000000000000
 70
32
  3
MAIN001
100
AcDbAlignedDimension
 13
1324.412599680392
 23
773.2090733898958
 33
0.0000000000000000
 14
1229.412599680381
 24
761.2090733898982
 34
0.0000000000000000
100
AcDbRotatedDimension
1001
ACAD
1000
DSTYLE
1002
{
1070
   173
1070
     1
1070
     6
1000
_OPEN
1070
     7
1000
_OPEN
1070
    41
1040
8.000000
1002
}
  0
DIMENSION
  5
2A3
100
AcDbEntity
  8
MAIN0
  6
CONTINUOUS
 62
3
100
AcDbDimension
  2
*D39
 10
1177.412599680215
 20
841.0887830139936
 30
0.0000000000000000
 11
1250.912599680304
 21
841.5887830139936
 31
0.0000000000000000
 70
32
  3
MAIN001
100
AcDbAlignedDimension
 13
1324.412599680392
 23
773.2090733898958
 33
0.0000000000000000
 14
1177.412599680215
 24
548.2090733898958
 34
0.0000000000000000
100
AcDbRotatedDimension
1001
ACAD
1000
DSTYLE
1002
{
1070
   173
1070
     1
1070
     6
1000
_OPEN
1070
     7
1000
_OPEN
1070
    41
1040
8.000000
1002
}
  0
DIMENSION
  5
2AC
100
AcDbEntity
  8
MAIN0
  6
CONTINUOUS
 62
3
100
AcDbDimension
  2
*D40
 10
466.1794495808506
 20
1070.722487284842
 30
0.0000000000000000
 11
491.6794495806064
 21
1071.222487284842
 31
0.0000000000000000
 70
32
  3
MAIN001
100
AcDbAlignedDimension
 13
517.1794495803621
 23
1030.998162929873
 33
0.0000000000000000
 14
466.1794495808506
 24
942.4981629298731
 34
0.0000000000000000
100
AcDbRotatedDimension
1001
ACAD
1000
DSTYLE
1002
{
1070
   173
1070
     1
1070
     6
1000
_OPEN
1070
     7
1000
_OPEN
1070
    41
1040
8.000000
1002
}
  0
DIMENSION
  5
2B5
100
AcDbEntity
  8
MAIN0
  6
CONTINUOUS
 62
3
100
AcDbDimension
  2
*D41
 10
1345.418743695801
 20
339.1468552582385
 30
0.0000000000000000
 11
1380.918743695796
 21
339.6468552582385
 31
0.0000000000000000
 70
32
  3
MAIN001
100
AcDbAlignedDimension
 13
1416.418743695792
 23
420.7815010028520
 33
0.0000000000000000
 14
1345.418743695801
 24
450.3815010029578
 34
0.0000000000000000
100
AcDbRotatedDimension
1001
ACAD
1000
DSTYLE
1002
{
1070
   173
1070
     1
1070
     6
1000
_OPEN
1070
     7
1000
_OPEN
1070
    41
1040
8.000000
1002
}
  0
DIMENSION
  5
2BE
100
AcDbEntity
  8
MAIN0
  6
CONTINUOUS
 62
3
100
AcDbDimension
  2
*D42
 10
1416.418743695792
 20
339.1468552582385
 30
0.0000000000000000
 11
1517.418743695792
 21
339.6468552582385
 31
0.0000000000000000
 70
32
  3
MAIN001
100
AcDbAlignedDimension
 13
1618.418743695792
 23
420.7815010027671
 33
0.0000000000000000
 14
1416.418743695792
 24
420.7815010028520
 34
0.0000000000000000
100
AcDbRotatedDimension
1001
ACAD
1000
DSTYLE
1002
{
1070
   173
1070
     1
1070
     6
1000
_OPEN
1070
     7
1000
_OPEN
1070
    41
1040
8.000000
1002
}
  0
INSERT
  5
2C6
100
AcDbEntity
  8
MAIN0
  6
CONTINUOUS
 62
3
100
AcDbBlockReference
  2
D43
 10
1517.418743695796
 20
410.1342908027771
 30
0.0000000000000000
 50
0.0000000000000000
  0
LINE
  5
2C7
100
AcDbEntity
  8
MAIN0
  6
CONTINUOUS
 62
3
100
AcDbLine
 10
1416.418743695801
 20
441.3815010029578
 30
0.0000000000000000
 11
1416.418743695796
 21
430.3815010029578
 31
0.0000000000000000
  0
LINE
  5
2C8
100
AcDbEntity
  8
MAIN0
  6
CENTER
 62
3
100
AcDbLine
 10
1147.738179253125
 20
495.3815010036009
 30
0.0000000000000000
 11
1147.738179253125
 21
548.2090733899458
 31
0.0000000000000000
  0
DIMENSION
  5
2D1
100
AcDbEntity
  8
MAIN0
  6
CONTINUOUS
 62
3
100
AcDbDimension
  2
*D44
 10
1155.630107064808
 20
420.3815010055207
 30
0.0000000000000000
 11
1155.130107064808
 21
457.8815010045363
 31
0.0000000000000000
 70
32
  3
MAIN001
100
AcDbAlignedDimension
 13
1147.738179253125
 23
495.3815010035519
 33
0.0000000000000000
 14
1029.179449580128
 24
420.3815010041757
 34
0.0000000000000000
 50
90.00000000000000
100
AcDbRotatedDimension
1001
ACAD
1000
DSTYLE
1002
{
1070
   173
1070
     1
1070
     6
1000
_OPEN
1070
     7
1000
_OPEN
1070
    41
1040
8.000000
1002
}
  0
LINE
  5
2D2
100
AcDbEntity
  8
MAIN0
  6
CENTER
 62
3
100
AcDbLine
 10
1254.768073143640
 20
476.3317625365197
 30
0.0000000000000000
 11
1254.768073143612
 21
383.3706841558393
 31
0.0000000000000000
  0
LINE
  5
2D3
100
AcDbEntity
  8
MAIN0
  6
CONTINUOUS
 62
3
100
AcDbLine
 10
1232.268073143633
 20
450.3815010029960
 30
0.0000000000000000
 11
1233.940204291165
 21
420.3815010031148
 31
0.0000000000000000
  0
LINE
  5
2D4
100
AcDbEntity
  8
MAIN0
  6
CONTINUOUS
 62
3
100
AcDbLine
 10
1277.268073143632
 20
450.3815010029824
 30
0.0000000000000000
 11
1275.595941996081
 21
420.3815010031020
 31
0.0000000000000000
  0
LINE
  5
2D5
100
AcDbEntity
  8
MAIN0
  6
CONTINUOUS
 62
3
100
AcDbLine
 10
1232.268073143632
 20
450.3815010029962
 30
0.0000000000000000
 11
1277.268073143632
 21
450.3815010029824
 31
0.0000000000000000
  0
LINE
  5
2D6
100
AcDbEntity
  8
MAIN0
  6
CONTINUOUS
 62
3
100
AcDbLine
 10
1233.940204291165
 20
420.3815010031148
 30
0.0000000000000000
 11
1275.595941996081
 21
420.3815010031020
 31
0.0000000000000000
  0
DIMENSION
  5
2DF
100
AcDbEntity
  8
MAIN0
  6
CONTINUOUS
 62
3
100
AcDbDimension
  2
*D45
 10
1232.268073143632
 20
484.1544953020367
 30
0.0000000000000000
 11
1254.768073143632
 21
484.6544953020367
 31
0.0000000000000000
 70
32
  3
MAIN001
100
AcDbAlignedDimension
 13
1277.268073143632
 23
450.3815010029821
 33
0.0000000000000000
 14
1232.268073143632
 24
450.3815010029960
 34
0.0000000000000000
100
AcDbRotatedDimension
1001
ACAD
1000
DSTYLE
1002
{
1070
   173
1070
     1
1070
     6
1000
_OPEN
1070
     7
1000
_OPEN
1070
    41
1040
8.000000
1002
}
  0
DIMENSION
  5
2EA
100
AcDbEntity
  8
MAIN0
  6
CONTINUOUS
 62
3
100
AcDbDimension
  2
*D46
 10
1355.250206862902
 20
280.4997479862271
 30
0.0000000000000000
 11
1354.750206862902
 21
266.2497479862272
 31
0.0000000000000000
 70
32
  3
MAIN001
100
AcDbAlignedDimension
 13
1378.418743695768
 23
251.9997479862273
 33
0.0000000000000000
 14
1378.418743695748
 24
280.4997479862271
 34
0.0000000000000000
 50
90.00000000000000
100
AcDbRotatedDimension
1001
ACAD
1000
DSTYLE
1002
{
1070
   173
1070
     1
1070
     6
1000
_OPEN
1070
     7
1000
_OPEN
1070
    41
1040
8.000000
1070
   287
1070
     0
1002
}
  0
DIMENSION
  5
2F5
100
AcDbEntity
  8
MAIN0
  6
CONTINUOUS
 62
3
100
AcDbDimension
  2
*D47
 10
1444.669773467696
 20
274.9997479862273
 30
0.0000000000000000
 11
1442.669773467696
 21
234.4485486403358
 31
0.0000000000000000
 70
160
  3
MAIN001
100
AcDbAlignedDimension
 13
1408.418743695764
 23
257.4997479862191
 33
0.0000000000000000
 14
1408.418743695752
 24
274.9997479862190
 34
0.0000000000000000
 50
90.00000000000000
100
AcDbRotatedDimension
1001
ACAD
1000
DSTYLE
1002
{
1070
   173
1070
     1
1070
     6
1000
_OPEN
1070
     7
1000
_OPEN
1070
    41
1040
8.000000
1070
   287
1070
     0
1002
}
  0
DIMENSION
  5
300
100
AcDbEntity
  8
MAIN0
  6
CONTINUOUS
 62
3
100
AcDbDimension
  2
*D48
 10
1378.418743695768
 20
219.6959043075557
 30
0.0000000000000000
 11
1393.418743695767
 21
220.1959043075557
 31
0.0000000000000000
 70
32
  3
MAIN001
100
AcDbAlignedDimension
 13
1408.418743695767
 23
251.9997479862190
 33
0.0000000000000000
 14
1378.418743695768
 24
251.9997479862273
 34
0.0000000000000000
100
AcDbRotatedDimension
1001
ACAD
1000
DSTYLE
1002
{
1070
   173
1070
     1
1070
     6
1000
_OPEN
1070
     7
1000
_OPEN
1070
    41
1040
8.000000
1070
   287
1070
     0
1002
}
  0
LINE
  5
301
100
AcDbEntity
  8
MAIN0
  6
CENTER
 62
3
100
AcDbLine
 10
1242.321451821766
 20
548.2090733898958
 30
0.0000000000000000
 11
1147.738179253125
 21
548.2090733898958
 31
0.0000000000000000
  0
LINE
  5
302
100
AcDbEntity
  8
MAIN0
  6
CONTINUOUS
 62
3
100
AcDbLine
 10
156.5709002848827
 20
524.3815010035364
 30
0.0000000000000000
 11
156.5709002848769
 21
510.3815010035364
 31
0.0000000000000000
  0
LINE
  5
303
100
AcDbEntity
  8
MAIN0
  6
CONTINUOUS
 62
3
100
AcDbLine
 10
148.0709002848739
 20
510.3815010035345
 30
0.0000000000000000
 11
156.5709002848770
 21
510.3815010035364
 31
0.0000000000000000
  0
LINE
  5
304
100
AcDbEntity
  8
MAIN0
  6
CONTINUOUS
 62
3
100
AcDbLine
 10
261.0709002848738
 20
510.3815010034875
 30
0.0000000000000000
 11
252.5709002848768
 21
510.3815010034962
 31
0.0000000000000000
  0
LINE
  5
305
100
AcDbEntity
  8
MAIN0
  6
CONTINUOUS
 62
3
100
AcDbLine
 10
252.5709002848829
 20
524.3815010035585
 30
0.0000000000000000
 11
252.5709002848768
 21
510.3815010034963
 31
0.0000000000000000
  0
LINE
  5
306
100
AcDbEntity
  8
MAIN0
  6
CONTINUOUS
 62
3
100
AcDbLine
 10
148.0709002848738
 20
510.3815010035351
 30
0.0000000000000000
 11
148.0709002848654
 21
490.3815010035350
 31
0.0000000000000000
  0
LINE
  5
307
100
AcDbEntity
  8
MAIN0
  6
CONTINUOUS
 62
3
100
AcDbLine
 10
261.0709002848737
 20
510.3815010034870
 30
0.0000000000000000
 11
261.0709002848653
 21
490.3815010034872
 31
0.0000000000000000
  0
LINE
  5
308
100
AcDbEntity
  8
MAIN0
  6
CONTINUOUS
 62
3
100
AcDbLine
 10
454.1794495792433
 20
521.3815010006026
 30
0.0000000000000000
 11
454.1794495792433
 21
530.3815010006026
 31
0.0000000000000000
  0
LINE
  5
309
100
AcDbEntity
  8
MAIN0
  6
CONTINUOUS
 62
3
100
AcDbLine
 10
478.1794495792433
 20
521.3815010006779
 30
0.0000000000000000
 11
478.1794495792433
 21
530.3815010006780
 31
0.0000000000000000
  0
LINE
  5
30A
100
AcDbEntity
  8
MAIN0
  6
CONTINUOUS
 62
3
100
AcDbLine
 10
414.1794495805067
 20
504.3815010036268
 30
0.0000000000000000
 11
730.1794495803308
 21
504.3815010035887
 31
0.0000000000000000
  0
LINE
  5
30B
100
AcDbEntity
  8
MAIN0
  6
CONTINUOUS
 62
3
100
AcDbLine
 10
454.1794495792433
 20
521.3815010006026
 30
0.0000000000000000
 11
478.1794495792429
 21
521.3815010006779
 31
0.0000000000000000
  0
LINE
  5
30C
100
AcDbEntity
  8
MAIN0
  6
CONTINUOUS
 62
3
100
AcDbLine
 10
902.1794495802080
 20
500.0815010034849
 30
0.0000000000000000
 11
962.1794495802081
 21
500.0815010034955
 31
0.0000000000000000
  0
LINE
  5
30D
100
AcDbEntity
  8
MAIN0
  6
CONTINUOUS
 62
3
100
AcDbLine
 10
962.1794495802141
 20
502.0815010034909
 30
0.0000000000000000
 11
1032.179449579881
 21
502.0815010035032
 31
0.0000000000000000
  0
LINE
  5
30E
100
AcDbEntity
  8
MAIN0
  6
CONTINUOUS
 62
3
100
AcDbLine
 10
454.1794495792402
 20
522.3815010006026
 30
0.0000000000000000
 11
478.1794495792398
 21
522.3815010006779
 31
0.0000000000000000
  0
LINE
  5
30F
100
AcDbEntity
  8
MAIN0
  6
CONTINUOUS
 62
3
100
AcDbLine
 10
1093.179449582025
 20
463.3815010035518
 30
0.0000000000000000
 11
1093.179449581744
 21
530.3815010035524
 31
0.0000000000000000
  0
LINE
  5
310
100
AcDbEntity
  8
MAIN0
  6
CONTINUOUS
 62
3
100
AcDbLine
 10
1095.179449579243
 20
463.3815010035519
 30
0.0000000000000000
 11
1095.179449579243
 21
530.3815010035523
 31
0.0000000000000000
  0
CIRCLE
  5
311
100
AcDbEntity
  8
MAIN0
  6
CONTINUOUS
 62
3
100
AcDbCircle
 10
529.1794495803949
 20
472.8815010063797
 30
0.0000000000000000
 40
5.000000000000000
  0
CIRCLE
  5
312
100
AcDbEntity
  8
MAIN0
  6
CONTINUOUS
 62
3
100
AcDbCircle
 10
529.1794495803949
 20
472.8815010063797
 30
0.0000000000000000
 40
4.250000000000000
  0
CIRCLE
  5
313
100
AcDbEntity
  8
MAIN0
  6
CONTINUOUS
 62
3
100
AcDbCircle
 10
914.1794495803947
 20
472.8815010059407
 30
0.0000000000000000
 40
5.000000000000000
  0
CIRCLE
  5
314
100
AcDbEntity
  8
MAIN0
  6
CONTINUOUS
 62
3
100
AcDbCircle
 10
914.1794495803947
 20
472.8815010059407
 30
0.0000000000000000
 40
4.250000000000000
  0
LINE
  5
315
100
AcDbEntity
  8
MAIN0
  6
CENTER
 62
3
100
AcDbLine
 10
538.1794495803949
 20
472.8815010063797
 30
0.0000000000000000
 11
520.1794495803949
 21
472.8815010063797
 31
0.0000000000000000
  0
LINE
  5
316
100
AcDbEntity
  8
MAIN0
  6
CENTER
 62
3
100
AcDbLine
 10
529.1794495803949
 20
481.8815010063797
 30
0.0000000000000000
 11
529.1794495803949
 21
463.8815010063797
 31
0.0000000000000000
  0
LINE
  5
317
100
AcDbEntity
  8
MAIN0
  6
CENTER
 62
3
100
AcDbLine
 10
923.1794495803947
 20
472.8815010059407
 30
0.0000000000000000
 11
905.1794495803947
 21
472.8815010059407
 31
0.0000000000000000
  0
LINE
  5
318
100
AcDbEntity
  8
MAIN0
  6
CENTER
 62
3
100
AcDbLine
 10
914.1794495803947
 20
481.8815010059407
 30
0.0000000000000000
 11
914.1794495803947
 21
463.8815010059407
 31
0.0000000000000000
  0
LINE
  5
319
100
AcDbEntity
  8
MAIN0
  6
CENTER
 62
3
100
AcDbLine
 10
476.1794495792626
 20
570.3815010006027
 30
0.0000000000000000
 11
456.1794495792626
 21
570.3815010006027
 31
0.0000000000000000
  0
LINE
  5
31A
100
AcDbEntity
  8
MAIN0
  6
CENTER
 62
3
100
AcDbLine
 10
476.1794495792626
 20
590.3815010006026
 30
0.0000000000000000
 11
456.1794495792626
 21
590.3815010006026
 31
0.0000000000000000
  0
LINE
  5
31B
100
AcDbEntity
  8
MAIN0
  6
CENTER
 62
3
100
AcDbLine
 10
466.1794495792626
 20
560.3815010006027
 30
0.0000000000000000
 11
466.1794495792626
 21
600.3815010006026
 31
0.0000000000000000
  0
LINE
  5
31C
100
AcDbEntity
  8
MAIN0
  6
CONTINUOUS
 62
3
100
AcDbLine
 10
414.1794495802190
 20
441.3815010032281
 30
0.0000000000000000
 11
872.5061081087360
 21
441.3815010030710
 31
0.0000000000000000
  0
LINE
  5
31D
100
AcDbEntity
  8
MAIN0
  6
CONTINUOUS
 62
3
100
AcDbLine
 10
889.5127829137280
 20
441.3815010031011
 30
0.0000000000000000
 11
1029.179449580201
 21
441.3815010030532
 31
0.0000000000000000
  0
LINE
  5
31E
100
AcDbEntity
  8
MAIN0
  6
CONTINUOUS
 62
3
100
AcDbLine
 10
1074.179449580419
 20
514.3815010034043
 30
0.0000000000000000
 11
1032.179449579880
 21
514.3815010035421
 31
0.0000000000000000
  0
LINE
  5
31F
100
AcDbEntity
  8
MAIN0
  6
CONTINUOUS
 62
3
100
AcDbLine
 10
1074.179449580357
 20
476.6315010033475
 30
0.0000000000000000
 11
1074.179449580445
 21
530.3815010033945
 31
0.0000000000000000
  0
LINE
  5
320
100
AcDbEntity
  8
MAIN0
  6
CONTINUOUS
 62
3
100
AcDbLine
 10
1074.179449580397
 20
500.8815010033474
 30
0.0000000000000000
 11
1029.179449580373
 21
500.8815010034950
 31
0.0000000000000000
  0
LINE
  5
321
100
AcDbEntity
  8
MAIN0
  6
CONTINUOUS
 62
3
100
AcDbLine
 10
1074.179449580379
 20
504.3815010034043
 30
0.0000000000000000
 11
1032.179449579877
 21
504.3815010035420
 31
0.0000000000000000
  0
LINE
  5
322
100
AcDbEntity
  8
MAIN0
  6
CONTINUOUS
 62
3
100
AcDbLine
 10
1052.179449580347
 20
470.2418908234868
 30
0.0000000000000000
 11
1029.179449580347
 21
470.2418908235622
 31
0.0000000000000000
  0
LINE
  5
323
100
AcDbEntity
  8
MAIN0
  6
CONTINUOUS
 62
3
100
AcDbLine
 10
1054.179449580322
 20
455.3815010034781
 30
0.0000000000000000
 11
1054.179449580389
 21
495.8815010034047
 31
0.0000000000000000
  0
LINE
  5
324
100
AcDbEntity
  8
MAIN0
  6
CONTINUOUS
 62
3
100
AcDbLine
 10
1052.179449580380
 20
490.8815010034195
 30
0.0000000000000000
 11
1029.179449580380
 21
490.8815010034950
 31
0.0000000000000000
  0
ARC
  5
325
100
AcDbEntity
  8
MAIN0
  6
CONTINUOUS
 62
3
100
AcDbCircle
 10
1059.179449580318
 20
452.8815010034535
 30
0.0000000000000000
 40
5.000000000000000
100
AcDbArc
 50
89.99999999981210
 51
165.5224878138822
  0
ARC
  5
326
100
AcDbEntity
  8
MAIN0
  6
CONTINUOUS
 62
3
100
AcDbCircle
 10
1049.179449580322
 20
455.3815010034864
 30
0.0000000000000000
 40
5.000000000000000
100
AcDbArc
 50
269.9999999998121
 51
359.9999999998121
  0
ARC
  5
327
100
AcDbEntity
  8
MAIN0
  6
CONTINUOUS
 62
3
100
AcDbCircle
 10
1049.496991214807
 20
455.3815010034853
 30
0.0000000000000000
 40
5.000000000000000
100
AcDbArc
 50
269.9999999998121
 51
345.5224878138821
  0
LINE
  5
328
100
AcDbEntity
  8
MAIN0
  6
CONTINUOUS
 62
3
100
AcDbLine
 10
1080.179449580328
 20
457.8815010033847
 30
0.0000000000000000
 11
1059.179449580334
 21
457.8815010034535
 31
0.0000000000000000
  0
ARC
  5
329
100
AcDbEntity
  8
MAIN0
  6
CONTINUOUS
 62
3
100
AcDbCircle
 10
1059.179449580388
 20
495.8815010033965
 30
0.0000000000000000
 40
5.000000000000000
100
AcDbArc
 50
90.00000000000000
 51
180.0000000000000
  0
LINE
  5
32A
100
AcDbEntity
  8
MAIN0
  6
CONTINUOUS
 62
3
100
AcDbLine
 10
852.1794495802014
 20
498.0815010034957
 30
0.0000000000000000
 11
869.4618124455410
 21
498.0815010034987
 31
0.0000000000000000
  0
LINE
  5
32B
100
AcDbEntity
  8
MAIN0
  6
CONTINUOUS
 62
3
100
AcDbLine
 10
893.8618120640713
 20
498.0815010035030
 30
0.0000000000000000
 11
902.1794495802017
 21
498.0815010035045
 31
0.0000000000000000
  0
LINE
  5
32C
100
AcDbEntity
  8
MAIN0
  6
CONTINUOUS
 62
3
100
AcDbLine
 10
1441.918743696042
 20
415.3815010028103
 30
0.0000000000000000
 11
1416.918743696042
 21
415.3815010028103
 31
0.0000000000000000
  0
LINE
  5
32D
100
AcDbEntity
  8
MAIN0
  6
CONTINUOUS
 62
3
100
AcDbLine
 10
1441.918743696042
 20
415.3815010028100
 30
0.0000000000000000
 11
1441.918743696042
 21
420.3815010028100
 31
0.0000000000000000
  0
LINE
  5
32E
100
AcDbEntity
  8
MAIN0
  6
CONTINUOUS
 62
3
100
AcDbLine
 10
1416.918743696042
 20
420.3815010028105
 30
0.0000000000000000
 11
1416.918743696042
 21
415.3815010028105
 31
0.0000000000000000
  0
LINE
  5
32F
100
AcDbEntity
  8
MAIN0
  6
CONTINUOUS
 62
3
100
AcDbLine
 10
1592.918743695553
 20
415.3815010027467
 30
0.0000000000000000
 11
1617.918743695553
 21
415.3815010027257
 31
0.0000000000000000
  0
LINE
  5
330
100
AcDbEntity
  8
MAIN0
  6
CONTINUOUS
 62
3
100
AcDbLine
 10
1592.918743695553
 20
415.3815010027465
 30
0.0000000000000000
 11
1592.918743695557
 21
420.3815010027465
 31
0.0000000000000000
  0
LINE
  5
331
100
AcDbEntity
  8
MAIN0
  6
CONTINUOUS
 62
3
100
AcDbLine
 10
1617.918743695557
 20
420.3815010027255
 30
0.0000000000000000
 11
1617.918743695553
 21
415.3815010027255
 31
0.0000000000000000
  0
CIRCLE
  5
332
100
AcDbEntity
  8
MAIN0
  6
CONTINUOUS
 62
3
100
AcDbCircle
 10
1517.418743696073
 20
495.3815010035578
 30
0.0000000000000000
 40
25.00000000000000
  0
CIRCLE
  5
333
100
AcDbEntity
  8
MAIN0
  6
CONTINUOUS
 62
3
100
AcDbCircle
 10
1517.418743696073
 20
495.3815010035578
 30
0.0000000000000000
 40
21.00000000000000
  0
CIRCLE
  5
334
100
AcDbEntity
  8
MAIN0
  6
CONTINUOUS
 62
3
100
AcDbCircle
 10
1517.418743696073
 20
495.3815010035578
 30
0.0000000000000000
 40
12.00000000000000
  0
LINE
  5
335
100
AcDbEntity
  8
MAIN0
  6
CONTINUOUS
 62
3
100
AcDbLine
 10
1514.418743695589
 20
483.7625509649239
 30
0.0000000000000000
 11
1514.418743695589
 21
474.5968913127196
 31
0.0000000000000000
  0
LINE
  5
336
100
AcDbEntity
  8
MAIN0
  6
CONTINUOUS
 62
3
100
AcDbLine
 10
1520.418743695589
 20
483.7625509649238
 30
0.0000000000000000
 11
1520.418743695589
 21
474.5968913127195
 31
0.0000000000000000
  0
LINE
  5
337
100
AcDbEntity
  8
MAIN0
  6
CONTINUOUS
 62
3
100
AcDbLine
 10
1524.418743696074
 20
491.3400491192303
 30
0.0000000000000000
 11
1524.418743696074
 21
499.4229528878856
 31
0.0000000000000000
  0
LINE
  5
338
100
AcDbEntity
  8
MAIN0
  6
CONTINUOUS
 62
3
100
AcDbLine
 10
1510.418743696073
 20
491.3400491192297
 30
0.0000000000000000
 11
1510.418743696073
 21
499.4229528878846
 31
0.0000000000000000
  0
LINE
  5
339
100
AcDbEntity
  8
MAIN0
  6
CONTINUOUS
 62
3
100
AcDbLine
 10
1517.418743696073
 20
487.2985972349021
 30
0.0000000000000000
 11
1524.418743696073
 21
491.3400491192305
 31
0.0000000000000000
  0
LINE
  5
33A
100
AcDbEntity
  8
MAIN0
  6
CONTINUOUS
 62
3
100
AcDbLine
 10
1510.418743696073
 20
499.4229528878845
 30
0.0000000000000000
 11
1517.418743696073
 21
503.4644047722125
 31
0.0000000000000000
  0
LINE
  5
33B
100
AcDbEntity
  8
MAIN0
  6
CONTINUOUS
 62
3
100
AcDbLine
 10
1517.418743696073
 20
487.2985972349030
 30
0.0000000000000000
 11
1510.418743696074
 21
491.3400491192299
 31
0.0000000000000000
  0
LINE
  5
33C
100
AcDbEntity
  8
MAIN0
  6
CONTINUOUS
 62
3
100
AcDbLine
 10
1524.418743696074
 20
499.4229528878854
 30
0.0000000000000000
 11
1517.418743696074
 21
503.4644047722123
 31
0.0000000000000000
  0
LINE
  5
33D
100
AcDbEntity
  8
MAIN0
  6
CENTER
 62
3
100
AcDbLine
 10
1550.418743696803
 20
503.0476898739078
 30
0.0000000000000000
 11
1550.418743696800
 21
486.2184430289633
 31
0.0000000000000000
  0
LINE
  5
33E
100
AcDbEntity
  8
MAIN0
  6
CENTER
 62
3
100
AcDbLine
 10
1484.418743696728
 20
503.0476898739173
 30
0.0000000000000000
 11
1484.418743696725
 21
486.2184430289732
 31
0.0000000000000000
  0
CIRCLE
  5
33F
100
AcDbEntity
  8
MAIN0
  6
CONTINUOUS
 62
3
100
AcDbCircle
 10
1550.418743696073
 20
495.3815010035578
 30
0.0000000000000000
 40
4.250000000000000
  0
LINE
  5
340
100
AcDbEntity
  8
MAIN0
  6
CONTINUOUS
 62
3
100
AcDbLine
 10
1550.418743696072
 20
497.6909020803170
 30
0.0000000000000000
 11
1548.418743696072
 21
496.5362015419377
 31
0.0000000000000000
  0
LINE
  5
341
100
AcDbEntity
  8
MAIN0
  6
CONTINUOUS
 62
3
100
AcDbLine
 10
1548.418743696073
 20
496.5362015419369
 30
0.0000000000000000
 11
1548.418743696073
 21
494.2268004651787
 31
0.0000000000000000
  0
LINE
  5
342
100
AcDbEntity
  8
MAIN0
  6
CONTINUOUS
 62
3
100
AcDbLine
 10
1548.418743696073
 20
494.2268004651785
 30
0.0000000000000000
 11
1550.418743696072
 21
493.0720999267994
 31
0.0000000000000000
  0
LINE
  5
343
100
AcDbEntity
  8
MAIN0
  6
CONTINUOUS
 62
3
100
AcDbLine
 10
1550.418743696072
 20
493.0720999268000
 30
0.0000000000000000
 11
1552.418743696072
 21
494.2268004651793
 31
0.0000000000000000
  0
LINE
  5
344
100
AcDbEntity
  8
MAIN0
  6
CONTINUOUS
 62
3
100
AcDbLine
 10
1552.418743696073
 20
494.2268004651787
 30
0.0000000000000000
 11
1552.418743696073
 21
496.5362015419369
 31
0.0000000000000000
  0
LINE
  5
345
100
AcDbEntity
  8
MAIN0
  6
CONTINUOUS
 62
3
100
AcDbLine
 10
1552.418743696073
 20
496.5362015419372
 30
0.0000000000000000
 11
1550.418743696073
 21
497.6909020803163
 31
0.0000000000000000
  0
CIRCLE
  5
346
100
AcDbEntity
  8
MAIN0
  6
CONTINUOUS
 62
3
100
AcDbCircle
 10
1484.418743696073
 20
495.3815010035578
 30
0.0000000000000000
 40
4.250000000000000
  0
LINE
  5
347
100
AcDbEntity
  8
MAIN0
  6
CONTINUOUS
 62
3
100
AcDbLine
 10
1484.418743696072
 20
497.6909020803166
 30
0.0000000000000000
 11
1482.418743696072
 21
496.5362015419372
 31
0.0000000000000000
  0
LINE
  5
348
100
AcDbEntity
  8
MAIN0
  6
CONTINUOUS
 62
3
100
AcDbLine
 10
1482.418743696073
 20
496.5362015419369
 30
0.0000000000000000
 11
1482.418743696073
 21
494.2268004651787
 31
0.0000000000000000
  0
LINE
  5
349
100
AcDbEntity
  8
MAIN0
  6
CONTINUOUS
 62
3
100
AcDbLine
 10
1482.418743696073
 20
494.2268004651787
 30
0.0000000000000000
 11
1484.418743696073
 21
493.0720999267994
 31
0.0000000000000000
  0
LINE
  5
34A
100
AcDbEntity
  8
MAIN0
  6
CONTINUOUS
 62
3
100
AcDbLine
 10
1484.418743696072
 20
493.0720999267995
 30
0.0000000000000000
 11
1486.418743696072
 21
494.2268004651788
 31
0.0000000000000000
  0
LINE
  5
34B
100
AcDbEntity
  8
MAIN0
  6
CONTINUOUS
 62
3
100
AcDbLine
 10
1486.418743696073
 20
494.2268004651787
 30
0.0000000000000000
 11
1486.418743696073
 21
496.5362015419369
 31
0.0000000000000000
  0
LINE
  5
34C
100
AcDbEntity
  8
MAIN0
  6
CONTINUOUS
 62
3
100
AcDbLine
 10
1486.418743696073
 20
496.5362015419370
 30
0.0000000000000000
 11
1484.418743696073
 21
497.6909020803163
 31
0.0000000000000000
  0
CIRCLE
  5
34D
100
AcDbEntity
  8
MAIN0
  6
CONTINUOUS
 62
3
100
AcDbCircle
 10
1550.418743694939
 20
495.3815010035241
 30
0.0000000000000000
 40
4.750000000000000
  0
LINE
  5
34E
100
AcDbEntity
  8
MAIN0
  6
CONTINUOUS
 62
3
100
AcDbLine
 10
1617.418743695813
 20
504.3815010031260
 30
0.0000000000000000
 11
1611.418743695832
 21
504.3815010031310
 31
0.0000000000000000
  0
LINE
  5
34F
100
AcDbEntity
  8
MAIN0
  6
CONTINUOUS
 62
3
100
AcDbLine
 10
1617.418743695811
 20
504.3815010031252
 30
0.0000000000000000
 11
1618.418743695812
 21
505.3815010031248
 31
0.0000000000000000
  0
LINE
  5
350
100
AcDbEntity
  8
MAIN0
  6
CONTINUOUS
 62
3
100
AcDbLine
 10
1417.418743695818
 20
504.3815010032089
 30
0.0000000000000000
 11
1416.418743695818
 21
505.3815010032093
 31
0.0000000000000000
  0
LINE
  5
351
100
AcDbEntity
  8
MAIN0
  6
CONTINUOUS
 62
3
100
AcDbLine
 10
1417.418743695817
 20
504.3815010032097
 30
0.0000000000000000
 11
1423.418743695837
 21
504.3815010032097
 31
0.0000000000000000
  0
LINE
  5
352
100
AcDbEntity
  8
MAIN0
  6
CONTINUOUS
 62
3
100
AcDbLine
 10
1611.418743695806
 20
441.3815010028787
 30
0.0000000000000000
 11
1611.418743695832
 21
504.3815010031314
 31
0.0000000000000000
  0
LINE
  5
353
100
AcDbEntity
  8
MAIN0
  6
CONTINUOUS
 62
3
100
AcDbLine
 10
1416.718743695846
 20
503.2815010035520
 30
0.0000000000000000
 11
1420.418743695846
 21
503.2815010035520
 31
0.0000000000000000
  0
LINE
  5
354
100
AcDbEntity
  8
MAIN0
  6
CONTINUOUS
 62
3
100
AcDbLine
 10
1420.418743695846
 20
503.2815010035520
 30
0.0000000000000000
 11
1420.418743695846
 21
502.0815010035522
 31
0.0000000000000000
  0
ARC
  5
355
100
AcDbEntity
  8
MAIN0
  6
CONTINUOUS
 62
3
100
AcDbCircle
 10
1415.918743695846
 20
503.0815010035522
 30
0.0000000000000000
 40
1.000000000000000
100
AcDbArc
 50
179.9999999999964
 51
269.9999999999942
  0
ARC
  5
356
100
AcDbEntity
  8
MAIN0
  6
CONTINUOUS
 62
3
100
AcDbCircle
 10
1416.718743695846
 20
503.8815010035519
 30
0.0000000000000000
 40
0.6000000000000000
100
AcDbArc
 50
179.9999999999964
 51
270.0000000005678
  0
LINE
  5
357
100
AcDbEntity
  8
MAIN0
  6
CONTINUOUS
 62
3
100
AcDbLine
 10
1415.918743695846
 20
502.0815010035522
 30
0.0000000000000000
 11
1420.418743695846
 21
502.0815010035522
 31
0.0000000000000000
  0
LINE
  5
358
100
AcDbEntity
  8
MAIN0
  6
CONTINUOUS
 62
3
100
AcDbLine
 10
1420.418743695846
 20
499.2815010035579
 30
0.0000000000000000
 11
1413.718743796507
 21
499.2815010035579
 31
0.0000000000000000
  0
LINE
  5
359
100
AcDbEntity
  8
MAIN0
  6
CONTINUOUS
 62
3
100
AcDbLine
 10
1412.918743489429
 20
498.0815010035576
 30
0.0000000000000000
 11
1420.418743695846
 21
498.0815010035576
 31
0.0000000000000000
  0
ARC
  5
35A
100
AcDbEntity
  8
MAIN0
  6
CONTINUOUS
 62
3
100
AcDbCircle
 10
1412.918743695846
 20
499.0815010035576
 30
0.0000000000000000
 40
1.000000000000000
100
AcDbArc
 50
179.9999999999964
 51
269.9999999999942
  0
ARC
  5
35B
100
AcDbEntity
  8
MAIN0
  6
CONTINUOUS
 62
3
100
AcDbCircle
 10
1413.718743695846
 20
499.8815010035578
 30
0.0000000000000000
 40
0.6000000000000000
100
AcDbArc
 50
179.9999999999964
 51
269.9999999999947
  0
LINE
  5
35C
100
AcDbEntity
  8
MAIN0
  6
CONTINUOUS
 62
3
100
AcDbLine
 10
1420.418743695846
 20
499.2815010035579
 30
0.0000000000000000
 11
1420.418743695846
 21
498.0815010035576
 31
0.0000000000000000
  0
LINE
  5
35D
100
AcDbEntity
  8
MAIN0
  6
CONTINUOUS
 62
3
100
AcDbLine
 10
1420.418743695846
 20
501.2815010035579
 30
0.0000000000000000
 11
1415.218743796507
 21
501.2815010035579
 31
0.0000000000000000
  0
LINE
  5
35E
100
AcDbEntity
  8
MAIN0
  6
CONTINUOUS
 62
3
100
AcDbLine
 10
1414.418743489429
 20
500.0815010035576
 30
0.0000000000000000
 11
1420.418743695846
 21
500.0815010035576
 31
0.0000000000000000
  0
ARC
  5
35F
100
AcDbEntity
  8
MAIN0
  6
CONTINUOUS
 62
3
100
AcDbCircle
 10
1415.218743695846
 20
501.8815010035578
 30
0.0000000000000000
 40
0.6000000000000000
100
AcDbArc
 50
179.9999999999964
 51
269.9999999999947
  0
ARC
  5
360
100
AcDbEntity
  8
MAIN0
  6
CONTINUOUS
 62
3
100
AcDbCircle
 10
1414.418743695846
 20
501.0815010035576
 30
0.0000000000000000
 40
1.000000000000000
100
AcDbArc
 50
179.9999999999964
 51
269.9999999999942
  0
LINE
  5
361
100
AcDbEntity
  8
MAIN0
  6
CONTINUOUS
 62
3
100
AcDbLine
 10
1420.418743695846
 20
501.2815010035579
 30
0.0000000000000000
 11
1420.418743695846
 21
500.0815010035576
 31
0.0000000000000000
  0
LINE
  5
362
100
AcDbEntity
  8
MAIN0
  6
CONTINUOUS
 62
3
100
AcDbLine
 10
1618.118743695823
 20
503.2815010034674
 30
0.0000000000000000
 11
1614.418743695822
 21
503.2815010034705
 31
0.0000000000000000
  0
LINE
  5
363
100
AcDbEntity
  8
MAIN0
  6
CONTINUOUS
 62
3
100
AcDbLine
 10
1614.418743695823
 20
503.2815010034705
 30
0.0000000000000000
 11
1614.418743695822
 21
502.0815010034707
 31
0.0000000000000000
  0
ARC
  5
364
100
AcDbEntity
  8
MAIN0
  6
CONTINUOUS
 62
3
100
AcDbCircle
 10
1618.918743695823
 20
503.0815010034669
 30
0.0000000000000000
 40
1.000000000000000
100
AcDbArc
 50
269.9999999999578
 51
359.9999999999555
  0
ARC
  5
365
100
AcDbEntity
  8
MAIN0
  6
CONTINUOUS
 62
3
100
AcDbCircle
 10
1618.118743695824
 20
503.8815010034673
 30
0.0000000000000000
 40
0.6000000000000000
100
AcDbArc
 50
269.9999999993840
 51
359.9999999999555
  0
LINE
  5
366
100
AcDbEntity
  8
MAIN0
  6
CONTINUOUS
 62
3
100
AcDbLine
 10
1618.918743695822
 20
502.0815010034669
 30
0.0000000000000000
 11
1614.418743695822
 21
502.0815010034707
 31
0.0000000000000000
  0
LINE
  5
367
100
AcDbEntity
  8
MAIN0
  6
CONTINUOUS
 62
3
100
AcDbLine
 10
1614.418743695820
 20
499.2815010034764
 30
0.0000000000000000
 11
1621.118743595158
 21
499.2815010034708
 31
0.0000000000000000
  0
LINE
  5
368
100
AcDbEntity
  8
MAIN0
  6
CONTINUOUS
 62
3
100
AcDbLine
 10
1621.918743902236
 20
498.0815010034698
 30
0.0000000000000000
 11
1614.418743695818
 21
498.0815010034762
 31
0.0000000000000000
  0
ARC
  5
369
100
AcDbEntity
  8
MAIN0
  6
CONTINUOUS
 62
3
100
AcDbCircle
 10
1621.918743695820
 20
499.0815010034698
 30
0.0000000000000000
 40
1.000000000000000
100
AcDbArc
 50
269.9999999999578
 51
359.9999999999555
  0
ARC
  5
36A
100
AcDbEntity
  8
MAIN0
  6
CONTINUOUS
 62
3
100
AcDbCircle
 10
1621.118743695820
 20
499.8815010034707
 30
0.0000000000000000
 40
0.6000000000000000
100
AcDbArc
 50
269.9999999999571
 51
359.9999999999555
  0
LINE
  5
36B
100
AcDbEntity
  8
MAIN0
  6
CONTINUOUS
 62
3
100
AcDbLine
 10
1614.418743695820
 20
499.2815010034764
 30
0.0000000000000000
 11
1614.418743695819
 21
498.0815010034762
 31
0.0000000000000000
  0
LINE
  5
36C
100
AcDbEntity
  8
MAIN0
  6
CONTINUOUS
 62
3
100
AcDbLine
 10
1614.418743695821
 20
501.2815010034764
 30
0.0000000000000000
 11
1619.618743595160
 21
501.2815010034720
 31
0.0000000000000000
  0
LINE
  5
36D
100
AcDbEntity
  8
MAIN0
  6
CONTINUOUS
 62
3
100
AcDbLine
 10
1620.418743902237
 20
500.0815010034711
 30
0.0000000000000000
 11
1614.418743695820
 21
500.0815010034762
 31
0.0000000000000000
  0
ARC
  5
36E
100
AcDbEntity
  8
MAIN0
  6
CONTINUOUS
 62
3
100
AcDbCircle
 10
1619.618743695822
 20
501.8815010034718
 30
0.0000000000000000
 40
0.6000000000000000
100
AcDbArc
 50
269.9999999999571
 51
359.9999999999555
  0
ARC
  5
36F
100
AcDbEntity
  8
MAIN0
  6
CONTINUOUS
 62
3
100
AcDbCircle
 10
1620.418743695821
 20
501.0815010034710
 30
0.0000000000000000
 40
1.000000000000000
100
AcDbArc
 50
269.9999999999578
 51
359.9999999999555
  0
LINE
  5
370
100
AcDbEntity
  8
MAIN0
  6
CONTINUOUS
 62
3
100
AcDbLine
 10
1614.418743695821
 20
501.2815010034764
 30
0.0000000000000000
 11
1614.418743695820
 21
500.0815010034762
 31
0.0000000000000000
  0
LINE
  5
371
100
AcDbEntity
  8
MAIN0
  6
CONTINUOUS
 62
3
100
AcDbLine
 10
1432.418743695831
 20
530.3815010035515
 30
0.0000000000000000
 11
1416.418743695834
 21
514.3815010036830
 31
0.0000000000000000
  0
LINE
  5
372
100
AcDbEntity
  8
MAIN0
  6
CONTINUOUS
 62
3
100
AcDbLine
 10
1430.118743695843
 20
530.3815010035523
 30
0.0000000000000000
 11
1416.118743695846
 21
516.3815010035469
 31
0.0000000000000000
  0
LINE
  5
373
100
AcDbEntity
  8
MAIN0
  6
CONTINUOUS
 62
3
100
AcDbLine
 10
1602.418743695861
 20
530.3815010034804
 30
0.0000000000000000
 11
1618.418743695845
 21
514.3815010035983
 31
0.0000000000000000
  0
LINE
  5
374
100
AcDbEntity
  8
MAIN0
  6
CONTINUOUS
 62
3
100
AcDbLine
 10
1604.718743695851
 20
530.3815010034798
 30
0.0000000000000000
 11
1618.718743695847
 21
516.3815010034515
 31
0.0000000000000000
  0
LINE
  5
375
100
AcDbEntity
  8
MAIN0
  6
CONTINUOUS
 62
3
100
AcDbLine
 10
1458.817691372410
 20
501.8815010035573
 30
0.0000000000000000
 11
1423.418743695837
 21
501.8815010035577
 31
0.0000000000000000
  0
ARC
  5
376
100
AcDbEntity
  8
MAIN0
  6
CONTINUOUS
 62
3
100
AcDbCircle
 10
1430.418743695831
 20
491.8815010035578
 30
0.0000000000000000
 40
10.00000000000000
100
AcDbArc
 50
359.9999999999998
 51
449.9999999999998
  0
ARC
  5
377
100
AcDbEntity
  8
MAIN0
  6
CONTINUOUS
 62
3
100
AcDbCircle
 10
1517.418743695831
 20
495.3815010035519
 30
0.0000000000000000
 40
81.00000000000000
100
AcDbArc
 50
199.3240781601049
 51
209.5351717610631
  0
ARC
  5
378
100
AcDbEntity
  8
MAIN0
  6
CONTINUOUS
 62
3
100
AcDbCircle
 10
1450.418743695831
 20
471.8868207546100
 30
0.0000000000000000
 40
10.00000000000000
100
AcDbArc
 50
180.0000000000000
 51
199.3240781601049
  0
ARC
  5
379
100
AcDbEntity
  8
MAIN0
  6
CONTINUOUS
 62
3
100
AcDbCircle
 10
1455.644962849910
 20
460.3815010035519
 30
0.0000000000000000
 40
10.00000000000000
100
AcDbArc
 50
209.5351717610631
 51
270.0000000000000
  0
ARC
  5
37A
100
AcDbEntity
  8
MAIN0
  6
CONTINUOUS
 62
3
100
AcDbCircle
 10
1517.418743695831
 20
495.3815010035519
 30
0.0000000000000000
 40
37.49999999999955
100
AcDbArc
 50
238.5760935141553
 51
301.4239064858446
  0
ARC
  5
37B
100
AcDbEntity
  8
MAIN0
  6
CONTINUOUS
 62
3
100
AcDbCircle
 10
1604.418743695831
 20
491.8815010035578
 30
0.0000000000000000
 40
10.00000000000000
100
AcDbArc
 50
90.00000000000020
 51
180.0000000000002
  0
ARC
  5
37C
100
AcDbEntity
  8
MAIN0
  6
CONTINUOUS
 62
3
100
AcDbCircle
 10
1517.418743695831
 20
495.3815010035519
 30
0.0000000000000000
 40
81.00000000000000
100
AcDbArc
 50
330.4648282389370
 51
340.6759218398951
  0
ARC
  5
37D
100
AcDbEntity
  8
MAIN0
  6
CONTINUOUS
 62
3
100
AcDbCircle
 10
1584.418743695831
 20
471.8868207546100
 30
0.0000000000000000
 40
10.00000000000000
100
AcDbArc
 50
340.6759218398951
 51
360.0000000000000
  0
ARC
  5
37E
100
AcDbEntity
  8
MAIN0
  6
CONTINUOUS
 62
3
100
AcDbCircle
 10
1579.192524541753
 20
460.3815010035519
 30
0.0000000000000000
 40
10.00000000000000
100
AcDbArc
 50
270.0000000000000
 51
330.4648282389370
  0
LINE
  5
37F
100
AcDbEntity
  8
MAIN0
  6
CONTINUOUS
 62
3
100
AcDbLine
 10
1576.019796019259
 20
501.8815010035084
 30
0.0000000000000000
 11
1611.418743695831
 21
501.8815010034788
 31
0.0000000000000000
  0
LINE
  5
380
100
AcDbEntity
  8
MAIN0
  6
CONTINUOUS
 62
3
100
AcDbLine
 10
1495.125246886224
 20
463.3815010035519
 30
0.0000000000000000
 11
1539.712240505439
 21
463.3815010035519
 31
0.0000000000000000
  0
ARC
  5
381
100
AcDbEntity
  8
MAIN0
  6
CONTINUOUS
 62
3
100
AcDbCircle
 10
1517.418743695831
 20
495.3815010035519
 30
0.0000000000000000
 40
39.00000000000000
100
AcDbArc
 50
116.1769521716469
 51
235.1361620456966
  0
ARC
  5
382
100
AcDbEntity
  8
MAIN0
  6
CONTINUOUS
 62
3
100
AcDbCircle
 10
1517.418743695831
 20
495.3815010035519
 30
0.0000000000000000
 40
39.00000000000000
100
AcDbArc
 50
304.8638379543035
 51
423.8230478283530
  0
LINE
  5
383
100
AcDbEntity
  8
MAIN0
  6
CONTINUOUS
 62
3
100
AcDbLine
 10
1417.418743695801
 20
441.3815010029578
 30
0.0000000000000000
 11
1423.418743695801
 21
441.3815010029580
 31
0.0000000000000000
  0
LINE
  5
384
100
AcDbEntity
  8
MAIN0
  6
CONTINUOUS
 62
3
100
AcDbLine
 10
1416.418743695800
 20
440.3815010029574
 30
0.0000000000000000
 11
1416.418743695792
 21
420.7815010028520
 31
0.0000000000000000
  0
LINE
  5
385
100
AcDbEntity
  8
MAIN0
  6
CONTINUOUS
 62
3
100
AcDbLine
 10
1417.418743695801
 20
441.3815010029579
 30
0.0000000000000000
 11
1416.418743695801
 21
440.3815010029579
 31
0.0000000000000000
  0
LINE
  5
386
100
AcDbEntity
  8
MAIN0
  6
CONTINUOUS
 62
3
100
AcDbLine
 10
1618.418743695801
 20
440.3815010028729
 30
0.0000000000000000
 11
1618.418743695792
 21
420.7815010027671
 31
0.0000000000000000
  0
LINE
  5
387
100
AcDbEntity
  8
MAIN0
  6
CONTINUOUS
 62
3
100
AcDbLine
 10
1616.918743695849
 20
530.3815010034488
 30
0.0000000000000000
 11
1567.018743695843
 21
530.3815010035008
 31
0.0000000000000000
  0
LINE
  5
388
100
AcDbEntity
  8
MAIN0
  6
CONTINUOUS
 62
3
100
AcDbLine
 10
1618.418743695792
 20
420.7815010027668
 30
0.0000000000000000
 11
1618.018743695792
 21
420.3815010027672
 31
0.0000000000000000
  0
LINE
  5
389
100
AcDbEntity
  8
MAIN0
  6
CONTINUOUS
 62
3
100
AcDbLine
 10
1416.418743695792
 20
420.7815010028522
 30
0.0000000000000000
 11
1416.818743695792
 21
420.3815010028522
 31
0.0000000000000000
  0
LINE
  5
38A
100
AcDbEntity
  8
MAIN0
  6
CONTINUOUS
 62
3
100
AcDbLine
 10
1617.418743695817
 20
441.3815010028743
 30
0.0000000000000000
 11
1611.418743695816
 21
441.3815010028795
 31
0.0000000000000000
  0
LINE
  5
38B
100
AcDbEntity
  8
MAIN0
  6
CONTINUOUS
 62
3
100
AcDbLine
 10
1617.418743695816
 20
441.3815010028743
 30
0.0000000000000000
 11
1618.418743695816
 21
440.3815010028732
 31
0.0000000000000000
  0
LINE
  5
38C
100
AcDbEntity
  8
MAIN0
  6
CONTINUOUS
 62
3
100
AcDbLine
 10
1508.418743695912
 20
420.3815010028138
 30
0.0000000000000000
 11
1508.418743695912
 21
425.3815010026074
 31
0.0000000000000000
  0
LINE
  5
38D
100
AcDbEntity
  8
MAIN0
  6
CONTINUOUS
 62
3
100
AcDbLine
 10
1526.418743695912
 20
425.3815010026072
 30
0.0000000000000000
 11
1508.418743695912
 21
425.3815010026072
 31
0.0000000000000000
  0
LINE
  5
38E
100
AcDbEntity
  8
MAIN0
  6
CONTINUOUS
 62
3
100
AcDbLine
 10
1526.418743695912
 20
420.3815010028065
 30
0.0000000000000000
 11
1526.418743695912
 21
425.3815010026074
 31
0.0000000000000000
  0
LINE
  5
38F
100
AcDbEntity
  8
MAIN0
  6
CENTER
 62
3
100
AcDbLine
 10
1567.918743695589
 20
472.3815010035460
 30
0.0000000000000000
 11
1590.918743695589
 21
472.3815010035460
 31
0.0000000000000000
  0
LINE
  5
390
100
AcDbEntity
  8
MAIN0
  6
CONTINUOUS
 62
3
100
AcDbLine
 10
1423.418743695811
 20
441.3815010029576
 30
0.0000000000000000
 11
1423.418743695837
 21
504.3815010032098
 31
0.0000000000000000
  0
LINE
  5
391
100
AcDbEntity
  8
MAIN0
  6
CONTINUOUS
 62
3
100
AcDbLine
 10
1416.818743695792
 20
420.3815010028527
 30
0.0000000000000000
 11
1508.418743695912
 21
420.3815010028142
 31
0.0000000000000000
  0
LINE
  5
392
100
AcDbEntity
  8
MAIN0
  6
CONTINUOUS
 62
3
100
AcDbLine
 10
1526.418743695912
 20
420.3815010028067
 30
0.0000000000000000
 11
1618.018743695792
 21
420.3815010027681
 31
0.0000000000000000
  0
LINE
  5
393
100
AcDbEntity
  8
MAIN0
  6
CONTINUOUS
 62
3
100
AcDbLine
 10
1423.418743695837
 20
530.3815010035578
 30
0.0000000000000000
 11
1611.418743695826
 21
530.3815010035578
 31
0.0000000000000000
  0
LINE
  5
394
100
AcDbEntity
  8
MAIN0
  6
CONTINUOUS
 62
3
100
AcDbLine
 10
1594.418743695831
 20
491.8815010035578
 30
0.0000000000000000
 11
1594.418743695831
 21
471.8868207546100
 31
0.0000000000000000
  0
LINE
  5
395
100
AcDbEntity
  8
MAIN0
  6
CONTINUOUS
 62
3
100
AcDbLine
 10
1440.418743695832
 20
491.8815010035577
 30
0.0000000000000000
 11
1440.418743695831
 21
471.8868207546101
 31
0.0000000000000000
  0
LINE
  5
396
100
AcDbEntity
  8
MAIN0
  6
CONTINUOUS
 62
3
100
AcDbLine
 10
1579.192524541753
 20
450.3815010035514
 30
0.0000000000000000
 11
1455.644962849910
 21
450.3815010035515
 31
0.0000000000000000
  0
CIRCLE
  5
397
100
AcDbEntity
  8
MAIN0
  6
CONTINUOUS
 62
3
100
AcDbCircle
 10
1455.418743696073
 20
472.3815010035460
 30
0.0000000000000000
 40
9.500000000000000
  0
CIRCLE
  5
398
100
AcDbEntity
  8
MAIN0
  6
CONTINUOUS
 62
3
100
AcDbCircle
 10
1579.418743695589
 20
472.3815010035460
 30
0.0000000000000000
 40
9.500000000000000
  0
CIRCLE
  5
399
100
AcDbEntity
  8
MAIN0
  6
CONTINUOUS
 62
3
100
AcDbCircle
 10
1455.418743696073
 20
518.3815010035578
 30
0.0000000000000000
 40
9.500000000000000
  0
CIRCLE
  5
39A
100
AcDbEntity
  8
MAIN0
  6
CONTINUOUS
 62
3
100
AcDbCircle
 10
1579.418743696073
 20
518.3815010035578
 30
0.0000000000000000
 40
9.500000000000000
  0
LINE
  5
39B
100
AcDbEntity
  8
MAIN0
  6
CENTER
 62
3
100
AcDbLine
 10
1455.418743696073
 20
529.8815010035578
 30
0.0000000000000000
 11
1455.418743696073
 21
506.8815010035578
 31
0.0000000000000000
  0
LINE
  5
39C
100
AcDbEntity
  8
MAIN0
  6
CENTER
 62
3
100
AcDbLine
 10
1466.373232635925
 20
495.3815010035519
 30
0.0000000000000000
 11
1567.401945243933
 21
495.3815010035519
 31
0.0000000000000000
  0
LINE
  5
39D
100
AcDbEntity
  8
MAIN0
  6
CENTER
 62
3
100
AcDbLine
 10
1517.418743695796
 20
410.1342908027771
 30
0.0000000000000000
 11
1517.418743695878
 21
606.9468272982243
 31
0.0000000000000000
  0
LINE
  5
39E
100
AcDbEntity
  8
MAIN0
  6
CENTER
 62
3
100
AcDbLine
 10
1443.918743696073
 20
472.3815010035460
 30
0.0000000000000000
 11
1466.918743696073
 21
472.3815010035460
 31
0.0000000000000000
  0
LINE
  5
39F
100
AcDbEntity
  8
MAIN0
  6
CENTER
 62
3
100
AcDbLine
 10
1455.418743696073
 20
460.8815010035460
 30
0.0000000000000000
 11
1455.418743696073
 21
483.8815010035460
 31
0.0000000000000000
  0
LINE
  5
3A0
100
AcDbEntity
  8
MAIN0
  6
CENTER
 62
3
100
AcDbLine
 10
1443.918743696073
 20
518.3815010035578
 30
0.0000000000000000
 11
1466.918743696073
 21
518.3815010035578
 31
0.0000000000000000
  0
LINE
  5
3A1
100
AcDbEntity
  8
MAIN0
  6
CENTER
 62
3
100
AcDbLine
 10
1579.418743696073
 20
506.8815010035578
 30
0.0000000000000000
 11
1579.418743696073
 21
529.8815010035578
 31
0.0000000000000000
  0
LINE
  5
3A2
100
AcDbEntity
  8
MAIN0
  6
CENTER
 62
3
100
AcDbLine
 10
1567.918743696073
 20
518.3815010035578
 30
0.0000000000000000
 11
1590.918743696073
 21
518.3815010035578
 31
0.0000000000000000
  0
LINE
  5
3A3
100
AcDbEntity
  8
MAIN0
  6
CENTER
 62
3
100
AcDbLine
 10
1579.418743695589
 20
460.8815010035460
 30
0.0000000000000000
 11
1579.418743695589
 21
483.8815010035460
 31
0.0000000000000000
  0
LINE
  5
3A4
100
AcDbEntity
  8
MAIN0
  6
CONTINUOUS
 62
3
100
AcDbLine
 10
1416.418743695838
 20
505.3815010031893
 30
0.0000000000000000
 11
1416.418743695843
 21
516.6815010035439
 31
0.0000000000000000
  0
LINE
  5
3A5
100
AcDbEntity
  8
MAIN0
  6
CONTINUOUS
 62
3
100
AcDbLine
 10
1618.418743695837
 20
505.3815010031487
 30
0.0000000000000000
 11
1618.418743695842
 21
516.6815010034568
 31
0.0000000000000000
  0
CIRCLE
  5
3A6
100
AcDbEntity
  8
MAIN0
  6
CONTINUOUS
 62
3
100
AcDbCircle
 10
1455.418743696073
 20
518.3815010035578
 30
0.0000000000000000
 40
9.000000000000000
  0
LINE
  5
3A7
100
AcDbEntity
  8
MAIN0
  6
CONTINUOUS
 62
3
100
AcDbLine
 10
1455.418743696073
 20
524.1550036954545
 30
0.0000000000000000
 11
1450.418743696073
 21
521.2682523495064
 31
0.0000000000000000
  0
LINE
  5
3A8
100
AcDbEntity
  8
MAIN0
  6
CONTINUOUS
 62
3
100
AcDbLine
 10
1450.418743696073
 20
521.2682523495059
 30
0.0000000000000000
 11
1450.418743696073
 21
515.4947496576097
 31
0.0000000000000000
  0
LINE
  5
3A9
100
AcDbEntity
  8
MAIN0
  6
CONTINUOUS
 62
3
100
AcDbLine
 10
1450.418743696073
 20
515.4947496576087
 30
0.0000000000000000
 11
1455.418743696073
 21
512.6079983116606
 31
0.0000000000000000
  0
LINE
  5
3AA
100
AcDbEntity
  8
MAIN0
  6
CONTINUOUS
 62
3
100
AcDbLine
 10
1455.418743696073
 20
512.6079983116620
 30
0.0000000000000000
 11
1460.418743696073
 21
515.4947496576101
 31
0.0000000000000000
  0
LINE
  5
3AB
100
AcDbEntity
  8
MAIN0
  6
CONTINUOUS
 62
3
100
AcDbLine
 10
1460.418743696073
 20
515.4947496576097
 30
0.0000000000000000
 11
1460.418743696073
 21
521.2682523495059
 31
0.0000000000000000
  0
LINE
  5
3AC
100
AcDbEntity
  8
MAIN0
  6
CONTINUOUS
 62
3
100
AcDbLine
 10
1460.418743696073
 20
521.2682523495050
 30
0.0000000000000000
 11
1455.418743696073
 21
524.1550036954532
 31
0.0000000000000000
  0
CIRCLE
  5
3AD
100
AcDbEntity
  8
MAIN0
  6
CONTINUOUS
 62
3
100
AcDbCircle
 10
1455.418743696073
 20
472.3815010035460
 30
0.0000000000000000
 40
9.000000000000000
  0
LINE
  5
3AE
100
AcDbEntity
  8
MAIN0
  6
CONTINUOUS
 62
3
100
AcDbLine
 10
1455.418743696073
 20
478.1550036954426
 30
0.0000000000000000
 11
1450.418743696073
 21
475.2682523494945
 31
0.0000000000000000
  0
LINE
  5
3AF
100
AcDbEntity
  8
MAIN0
  6
CONTINUOUS
 62
3
100
AcDbLine
 10
1450.418743696073
 20
475.2682523494941
 30
0.0000000000000000
 11
1450.418743696073
 21
469.4947496575978
 31
0.0000000000000000
  0
LINE
  5
3B0
100
AcDbEntity
  8
MAIN0
  6
CONTINUOUS
 62
3
100
AcDbLine
 10
1450.418743696073
 20
469.4947496575969
 30
0.0000000000000000
 11
1455.418743696073
 21
466.6079983116488
 31
0.0000000000000000
  0
LINE
  5
3B1
100
AcDbEntity
  8
MAIN0
  6
CONTINUOUS
 62
3
100
AcDbLine
 10
1455.418743696073
 20
466.6079983116500
 30
0.0000000000000000
 11
1460.418743696073
 21
469.4947496575981
 31
0.0000000000000000
  0
LINE
  5
3B2
100
AcDbEntity
  8
MAIN0
  6
CONTINUOUS
 62
3
100
AcDbLine
 10
1460.418743696073
 20
469.4947496575978
 30
0.0000000000000000
 11
1460.418743696073
 21
475.2682523494941
 31
0.0000000000000000
  0
LINE
  5
3B3
100
AcDbEntity
  8
MAIN0
  6
CONTINUOUS
 62
3
100
AcDbLine
 10
1460.418743696073
 20
475.2682523494931
 30
0.0000000000000000
 11
1455.418743696073
 21
478.1550036954413
 31
0.0000000000000000
  0
CIRCLE
  5
3B4
100
AcDbEntity
  8
MAIN0
  6
CONTINUOUS
 62
3
100
AcDbCircle
 10
1579.418743695570
 20
472.3815010034939
 30
0.0000000000000000
 40
9.000000000000000
  0
LINE
  5
3B5
100
AcDbEntity
  8
MAIN0
  6
CONTINUOUS
 62
3
100
AcDbLine
 10
1579.418743695570
 20
478.1550036953907
 30
0.0000000000000000
 11
1574.418743695570
 21
475.2682523494426
 31
0.0000000000000000
  0
LINE
  5
3B6
100
AcDbEntity
  8
MAIN0
  6
CONTINUOUS
 62
3
100
AcDbLine
 10
1574.418743695570
 20
475.2682523494420
 30
0.0000000000000000
 11
1574.418743695570
 21
469.4947496575458
 31
0.0000000000000000
  0
LINE
  5
3B7
100
AcDbEntity
  8
MAIN0
  6
CONTINUOUS
 62
3
100
AcDbLine
 10
1574.418743695569
 20
469.4947496575448
 30
0.0000000000000000
 11
1579.418743695569
 21
466.6079983115967
 31
0.0000000000000000
  0
LINE
  5
3B8
100
AcDbEntity
  8
MAIN0
  6
CONTINUOUS
 62
3
100
AcDbLine
 10
1579.418743695570
 20
466.6079983115982
 30
0.0000000000000000
 11
1584.418743695570
 21
469.4947496575463
 31
0.0000000000000000
  0
LINE
  5
3B9
100
AcDbEntity
  8
MAIN0
  6
CONTINUOUS
 62
3
100
AcDbLine
 10
1584.418743695570
 20
469.4947496575458
 30
0.0000000000000000
 11
1584.418743695570
 21
475.2682523494420
 31
0.0000000000000000
  0
LINE
  5
3BA
100
AcDbEntity
  8
MAIN0
  6
CONTINUOUS
 62
3
100
AcDbLine
 10
1584.418743695570
 20
475.2682523494415
 30
0.0000000000000000
 11
1579.418743695570
 21
478.1550036953896
 31
0.0000000000000000
  0
CIRCLE
  5
3BB
100
AcDbEntity
  8
MAIN0
  6
CONTINUOUS
 62
3
100
AcDbCircle
 10
1579.418743695609
 20
518.3815010035057
 30
0.0000000000000000
 40
9.000000000000000
  0
LINE
  5
3BC
100
AcDbEntity
  8
MAIN0
  6
CONTINUOUS
 62
3
100
AcDbLine
 10
1579.418743695608
 20
524.1550036954022
 30
0.0000000000000000
 11
1574.418743695609
 21
521.2682523494542
 31
0.0000000000000000
  0
LINE
  5
3BD
100
AcDbEntity
  8
MAIN0
  6
CONTINUOUS
 62
3
100
AcDbLine
 10
1574.418743695609
 20
521.2682523494539
 30
0.0000000000000000
 11
1574.418743695609
 21
515.4947496575576
 31
0.0000000000000000
  0
LINE
  5
3BE
100
AcDbEntity
  8
MAIN0
  6
CONTINUOUS
 62
3
100
AcDbLine
 10
1574.418743695609
 20
515.4947496575567
 30
0.0000000000000000
 11
1579.418743695608
 21
512.6079983116088
 31
0.0000000000000000
  0
LINE
  5
3BF
100
AcDbEntity
  8
MAIN0
  6
CONTINUOUS
 62
3
100
AcDbLine
 10
1579.418743695608
 20
512.6079983116097
 30
0.0000000000000000
 11
1584.418743695608
 21
515.4947496575579
 31
0.0000000000000000
  0
LINE
  5
3C0
100
AcDbEntity
  8
MAIN0
  6
CONTINUOUS
 62
3
100
AcDbLine
 10
1584.418743695609
 20
515.4947496575576
 30
0.0000000000000000
 11
1584.418743695609
 21
521.2682523494539
 31
0.0000000000000000
  0
LINE
  5
3C1
100
AcDbEntity
  8
MAIN0
  6
CONTINUOUS
 62
3
100
AcDbLine
 10
1584.418743695608
 20
521.2682523494530
 30
0.0000000000000000
 11
1579.418743695608
 21
524.1550036954011
 31
0.0000000000000000
  0
CIRCLE
  5
3C2
100
AcDbEntity
  8
MAIN0
  6
CONTINUOUS
 62
3
100
AcDbCircle
 10
1484.418743696727
 20
495.3815010035519
 30
0.0000000000000000
 40
4.750000000000000
  0
LINE
  5
3C3
100
AcDbEntity
  8
MAIN0
  6
CONTINUOUS
 62
3
100
AcDbLine
 10
1417.418743696088
 20
600.3815010035578
 30
0.0000000000000000
 11
1617.418743696088
 21
600.3815010035578
 31
0.0000000000000000
  0
LINE
  5
3C4
100
AcDbEntity
  8
MAIN0
  6
CONTINUOUS
 62
3
100
AcDbLine
 10
1619.918743695846
 20
530.5815010035522
 30
0.0000000000000000
 11
1619.918743695846
 21
503.0815010034669
 31
0.0000000000000000
  0
LINE
  5
3C5
100
AcDbEntity
  8
MAIN0
  6
CONTINUOUS
 62
3
100
AcDbLine
 10
1414.918743695846
 20
530.5815010035522
 30
0.0000000000000000
 11
1414.918743695846
 21
503.0815010035522
 31
0.0000000000000000
  0
LINE
  5
3C6
100
AcDbEntity
  8
MAIN0
  6
CONTINUOUS
 62
3
100
AcDbLine
 10
1416.118743695846
 20
530.3815010035519
 30
0.0000000000000000
 11
1416.118743695846
 21
503.8815010035519
 31
0.0000000000000000
  0
ARC
  5
3C7
100
AcDbEntity
  8
MAIN0
  6
CONTINUOUS
 62
3
100
AcDbCircle
 10
1618.918743695846
 20
530.5815010035522
 30
0.0000000000000000
 40
1.000000000000000
100
AcDbArc
 50
0.0000000000000000
 51
89.99999999942553
  0
ARC
  5
3C8
100
AcDbEntity
  8
MAIN0
  6
CONTINUOUS
 62
3
100
AcDbCircle
 10
1415.918743695846
 20
530.5815010035522
 30
0.0000000000000000
 40
1.000000000000000
100
AcDbArc
 50
89.99999999999919
 51
179.9999999999964
  0
LINE
  5
3C9
100
AcDbEntity
  8
MAIN0
  6
CONTINUOUS
 62
3
100
AcDbLine
 10
1617.418743696088
 20
563.5815010035577
 30
0.0000000000000000
 11
1617.418743696088
 21
600.3815010035578
 31
0.0000000000000000
  0
LINE
  5
3CA
100
AcDbEntity
  8
MAIN0
  6
CONTINUOUS
 62
3
100
AcDbLine
 10
1417.418743696088
 20
563.5815010035577
 30
0.0000000000000000
 11
1417.418743696088
 21
600.3815010035578
 31
0.0000000000000000
  0
LINE
  5
3CB
100
AcDbEntity
  8
MAIN0
  6
CONTINUOUS
 62
3
100
AcDbLine
 10
1413.118743695846
 20
539.5815010035576
 30
0.0000000000000000
 11
1621.718743695846
 21
539.5815010035576
 31
0.0000000000000000
  0
LINE
  5
3CC
100
AcDbEntity
  8
MAIN0
  6
CONTINUOUS
 62
3
100
AcDbLine
 10
1410.118743695846
 20
555.5815010035576
 30
0.0000000000000000
 11
1624.718743695848
 21
555.5815010035576
 31
0.0000000000000000
  0
LINE
  5
3CD
100
AcDbEntity
  8
MAIN0
  6
CONTINUOUS
 62
3
100
AcDbLine
 10
1623.218743695846
 20
547.5815010035576
 30
0.0000000000000000
 11
1623.218743695846
 21
497.8815010034694
 31
0.0000000000000000
  0
LINE
  5
3CE
100
AcDbEntity
  8
MAIN0
  6
CONTINUOUS
 62
3
100
AcDbLine
 10
1624.418743695846
 20
554.5815010035576
 30
0.0000000000000000
 11
1624.418743695846
 21
497.0815010034688
 31
0.0000000000000000
  0
ARC
  5
3CF
100
AcDbEntity
  8
MAIN0
  6
CONTINUOUS
 62
3
100
AcDbCircle
 10
1623.418743695846
 20
554.5815010035576
 30
0.0000000000000000
 40
1.000000000000000
100
AcDbArc
 50
0.0000000000000000
 51
90.00000000000000
  0
LINE
  5
3D0
100
AcDbEntity
  8
MAIN0
  6
CONTINUOUS
 62
3
100
AcDbLine
 10
1411.618743695846
 20
547.5815010035576
 30
0.0000000000000000
 11
1411.618743695846
 21
497.8815010035585
 31
0.0000000000000000
  0
LINE
  5
3D1
100
AcDbEntity
  8
MAIN0
  6
CONTINUOUS
 62
3
100
AcDbLine
 10
1410.418743695846
 20
554.5815010035576
 30
0.0000000000000000
 11
1410.418743695846
 21
497.0815010035584
 31
0.0000000000000000
  0
ARC
  5
3D2
100
AcDbEntity
  8
MAIN0
  6
CONTINUOUS
 62
3
100
AcDbCircle
 10
1411.418743695846
 20
554.5815010035576
 30
0.0000000000000000
 40
1.000000000000000
100
AcDbArc
 50
90.00000000000000
 51
180.0000000000000
  0
LINE
  5
3D3
100
AcDbEntity
  8
MAIN0
  6
CONTINUOUS
 62
3
100
AcDbLine
 10
1413.418743695846
 20
501.0815010035576
 30
0.0000000000000000
 11
1413.418743695846
 21
538.5815010035576
 31
0.0000000000000000
  0
LINE
  5
3D4
100
AcDbEntity
  8
MAIN0
  6
CONTINUOUS
 62
3
100
AcDbLine
 10
1414.618743695846
 20
501.8815010035578
 30
0.0000000000000000
 11
1414.618743695846
 21
531.5815010035576
 31
0.0000000000000000
  0
LINE
  5
3D5
100
AcDbEntity
  8
MAIN0
  6
CONTINUOUS
 62
3
100
AcDbLine
 10
1621.418743695846
 20
501.0815010034710
 30
0.0000000000000000
 11
1621.418743695846
 21
538.5815010035576
 31
0.0000000000000000
  0
LINE
  5
3D6
100
AcDbEntity
  8
MAIN0
  6
CONTINUOUS
 62
3
100
AcDbLine
 10
1620.218743695846
 20
501.8815010034718
 30
0.0000000000000000
 11
1620.218743695846
 21
531.5815010035576
 31
0.0000000000000000
  0
LINE
  5
3D7
100
AcDbEntity
  8
MAIN0
  6
CONTINUOUS
 62
3
100
AcDbLine
 10
1411.618743695846
 20
547.5815010035576
 30
0.0000000000000000
 11
1623.218743695846
 21
547.5815010035576
 31
0.0000000000000000
  0
LINE
  5
3D8
100
AcDbEntity
  8
MAIN0
  6
CONTINUOUS
 62
3
100
AcDbLine
 10
1622.918743695846
 20
546.5815010035576
 30
0.0000000000000000
 11
1622.918743695846
 21
499.0815010034698
 31
0.0000000000000000
  0
LINE
  5
3D9
100
AcDbEntity
  8
MAIN0
  6
CONTINUOUS
 62
3
100
AcDbLine
 10
1621.718743695846
 20
539.5815010035576
 30
0.0000000000000000
 11
1621.718743695846
 21
499.8815010034707
 31
0.0000000000000000
  0
LINE
  5
3DA
100
AcDbEntity
  8
MAIN0
  6
CONTINUOUS
 62
3
100
AcDbLine
 10
1411.918743695846
 20
546.5815010035576
 30
0.0000000000000000
 11
1411.918743695846
 21
499.0815010035576
 31
0.0000000000000000
  0
LINE
  5
3DB
100
AcDbEntity
  8
MAIN0
  6
CONTINUOUS
 62
3
100
AcDbLine
 10
1413.118743695846
 20
539.5815010035576
 30
0.0000000000000000
 11
1413.118743695846
 21
499.8815010035578
 31
0.0000000000000000
  0
ARC
  5
3DC
100
AcDbEntity
  8
MAIN0
  6
CONTINUOUS
 62
3
100
AcDbCircle
 10
1621.918743695846
 20
546.5815010035576
 30
0.0000000000000000
 40
1.000000000000000
100
AcDbArc
 50
0.0000000000000000
 51
89.99999999999838
  0
ARC
  5
3DD
100
AcDbEntity
  8
MAIN0
  6
CONTINUOUS
 62
3
100
AcDbCircle
 10
1412.918743695846
 20
546.5815010035576
 30
0.0000000000000000
 40
1.000000000000000
100
AcDbArc
 50
89.99999999999720
 51
179.9999999999964
  0
LINE
  5
3DE
100
AcDbEntity
  8
MAIN0
  6
CONTINUOUS
 62
3
100
AcDbLine
 10
1564.418743695846
 20
531.5815010035576
 30
0.0000000000000000
 11
1620.218743695846
 21
531.5815010035576
 31
0.0000000000000000
  0
LINE
  5
3DF
100
AcDbEntity
  8
MAIN0
  6
CONTINUOUS
 62
3
100
AcDbLine
 10
1414.618743695846
 20
531.5815010035576
 30
0.0000000000000000
 11
1620.218743695846
 21
531.5815010035576
 31
0.0000000000000000
  0
LINE
  5
3E0
100
AcDbEntity
  8
MAIN0
  6
CONTINUOUS
 62
3
100
AcDbLine
 10
1618.718743695846
 20
503.8815010034673
 30
0.0000000000000000
 11
1618.718743695846
 21
530.3815010035578
 31
0.0000000000000000
  0
LINE
  5
3E1
100
AcDbEntity
  8
MAIN0
  6
CONTINUOUS
 62
3
100
AcDbLine
 10
1416.118743695846
 20
530.3815010035578
 30
0.0000000000000000
 11
1618.718743695846
 21
530.3815010035578
 31
0.0000000000000000
  0
LINE
  5
3E2
100
AcDbEntity
  8
MAIN0
  6
CONTINUOUS
 62
3
100
AcDbLine
 10
1555.250767658671
 20
485.9084886591664
 30
0.0000000000000000
 11
1558.699287943558
 21
491.8815010035168
 31
0.0000000000000000
  0
ARC
  5
3E3
100
AcDbEntity
  8
MAIN0
  6
CONTINUOUS
 62
3
100
AcDbCircle
 10
1576.019796019242
 20
481.8815010035085
 30
0.0000000000000000
 40
20.00000000000000
100
AcDbArc
 50
90.00000000000000
 51
149.9999999999739
  0
ARC
  5
3E4
100
AcDbEntity
  8
MAIN0
  6
CONTINUOUS
 62
3
100
AcDbCircle
 10
1458.817691372410
 20
481.8815010035576
 30
0.0000000000000000
 40
20.00000000000000
100
AcDbArc
 50
29.99999999997811
 51
89.99999999995197
  0
LINE
  5
3E5
100
AcDbEntity
  8
MAIN0
  6
CONTINUOUS
 62
3
100
AcDbLine
 10
1479.586719732984
 20
485.9084886591981
 30
0.0000000000000000
 11
1476.138199448103
 21
491.8815010035514
 31
0.0000000000000000
  0
ARC
  5
3E6
100
AcDbEntity
  8
MAIN0
  6
CONTINUOUS
 62
3
100
AcDbCircle
 10
1414.418743695846
 20
538.5815010035576
 30
0.0000000000000000
 40
1.000000000000000
100
AcDbArc
 50
90.00000000000000
 51
180.0000000000000
  0
ARC
  5
3E7
100
AcDbEntity
  8
MAIN0
  6
CONTINUOUS
 62
3
100
AcDbCircle
 10
1620.418743695846
 20
538.5815010035576
 30
0.0000000000000000
 40
1.000000000000000
100
AcDbArc
 50
0.0000000000000000
 51
90.00000000000000
  0
CIRCLE
  5
3E8
100
AcDbEntity
  8
MAIN0
  6
CONTINUOUS
 62
3
100
AcDbCircle
 10
466.1794495792626
 20
570.3815010006027
 30
0.0000000000000000
 40
5.000000000000000
  0
CIRCLE
  5
3E9
100
AcDbEntity
  8
MAIN0
  6
CONTINUOUS
 62
3
100
AcDbCircle
 10
466.1794495792626
 20
570.3815010006027
 30
0.0000000000000000
 40
4.250000000000000
  0
CIRCLE
  5
3EA
100
AcDbEntity
  8
MAIN0
  6
CONTINUOUS
 62
3
100
AcDbCircle
 10
466.1794495792626
 20
590.3815010006026
 30
0.0000000000000000
 40
5.000000000000000
  0
CIRCLE
  5
3EB
100
AcDbEntity
  8
MAIN0
  6
CONTINUOUS
 62
3
100
AcDbCircle
 10
466.1794495792626
 20
590.3815010006026
 30
0.0000000000000000
 40
4.250000000000000
  0
LINE
  5
3EC
100
AcDbEntity
  8
MAIN0
  6
CONTINUOUS
 62
3
100
AcDbLine
 10
810.1794495805582
 20
822.9981629298726
 30
0.0000000000000000
 11
810.1794495805582
 21
1039.998162929875
 31
0.0000000000000000
  0
LINE
  5
3ED
100
AcDbEntity
  8
MAIN0
  6
CONTINUOUS
 62
3
100
AcDbLine
 10
852.1794495805582
 20
824.4981629298731
 30
0.0000000000000000
 11
852.1794495805582
 21
1038.498162929873
 31
0.0000000000000000
  0
LINE
  5
3EE
100
AcDbEntity
  8
MAIN0
  6
CONTINUOUS
 62
3
100
AcDbLine
 10
902.1794495805582
 20
825.9981629298731
 30
0.0000000000000000
 11
902.1794495805582
 21
1036.998162929873
 31
0.0000000000000000
  0
LINE
  5
3EF
100
AcDbEntity
  8
MAIN0
  6
CONTINUOUS
 62
3
100
AcDbLine
 10
962.1794495792885
 20
827.4981629298731
 30
0.0000000000000000
 11
962.1794495789625
 21
1035.498162929873
 31
0.0000000000000000
  0
LINE
  5
3F0
100
AcDbEntity
  8
MAIN0
  6
CONTINUOUS
 62
3
100
AcDbLine
 10
810.1794495805582
 20
1039.998162929875
 30
0.0000000000000000
 11
730.1794495803601
 21
1039.998162929875
 31
0.0000000000000000
  0
LINE
  5
3F1
100
AcDbEntity
  8
MAIN0
  6
CONTINUOUS
 62
3
100
AcDbLine
 10
730.1794495803603
 20
822.9981629298725
 30
0.0000000000000000
 11
810.1794495805582
 21
822.9981629298727
 31
0.0000000000000000
  0
LINE
  5
3F2
100
AcDbEntity
  8
MAIN0
  6
CENTER
 62
3
100
AcDbLine
 10
502.1794495803619
 20
889.1648295965576
 30
0.0000000000000000
 11
502.1794495803618
 21
873.8314962632244
 31
0.0000000000000000
  0
LINE
  5
3F3
100
AcDbEntity
  8
MAIN0
  6
CENTER
 62
3
100
AcDbLine
 10
494.5127829136949
 20
881.4981629298910
 30
0.0000000000000000
 11
509.8461162470284
 21
881.4981629298910
 31
0.0000000000000000
  0
LINE
  5
3F4
100
AcDbEntity
  8
MAIN0
  6
CENTER
 62
3
100
AcDbLine
 10
432.1794495803619
 20
889.1648295965578
 30
0.0000000000000000
 11
432.1794495803618
 21
873.8314962632245
 31
0.0000000000000000
  0
LINE
  5
3F5
100
AcDbEntity
  8
MAIN0
  6
CENTER
 62
3
100
AcDbLine
 10
424.5127829136950
 20
881.4981629298911
 30
0.0000000000000000
 11
439.8461162470285
 21
881.4981629298911
 31
0.0000000000000000
  0
LINE
  5
3F6
100
AcDbEntity
  8
MAIN0
  6
CENTER
 62
3
100
AcDbLine
 10
432.1794495803617
 20
989.1648295964415
 30
0.0000000000000000
 11
432.1794495803617
 21
973.8314962631081
 31
0.0000000000000000
  0
LINE
  5
3F7
100
AcDbEntity
  8
MAIN0
  6
CENTER
 62
3
100
AcDbLine
 10
424.5127829136952
 20
981.4981629297748
 30
0.0000000000000000
 11
439.8461162470284
 21
981.4981629297748
 31
0.0000000000000000
  0
LINE
  5
3F8
100
AcDbEntity
  8
MAIN0
  6
CENTER
 62
3
100
AcDbLine
 10
502.1794495803620
 20
989.1648295964413
 30
0.0000000000000000
 11
502.1794495803620
 21
973.8314962631080
 31
0.0000000000000000
  0
LINE
  5
3F9
100
AcDbEntity
  8
MAIN0
  6
CENTER
 62
3
100
AcDbLine
 10
494.5127829136951
 20
981.4981629297747
 30
0.0000000000000000
 11
509.8461162470284
 21
981.4981629297747
 31
0.0000000000000000
  0
CIRCLE
  5
3FA
100
AcDbEntity
  8
MAIN0
  6
CONTINUOUS
 62
3
100
AcDbCircle
 10
466.1794495808504
 20
931.4981629298729
 30
0.0000000000000000
 40
5.000000000000000
  0
CIRCLE
  5
3FB
100
AcDbEntity
  8
MAIN0
  6
CONTINUOUS
 62
3
100
AcDbCircle
 10
466.1794495808504
 20
931.4981629298729
 30
0.0000000000000000
 40
4.250000000000000
  0
CIRCLE
  5
3FC
100
AcDbEntity
  8
MAIN0
  6
CONTINUOUS
 62
3
100
AcDbCircle
 10
502.1794495803619
 20
981.4981629297747
 30
0.0000000000000000
 40
5.000000000000000
  0
CIRCLE
  5
3FD
100
AcDbEntity
  8
MAIN0
  6
CONTINUOUS
 62
3
100
AcDbCircle
 10
502.1794495803619
 20
981.4981629297747
 30
0.0000000000000000
 40
4.250000000000000
  0
CIRCLE
  5
3FE
100
AcDbEntity
  8
MAIN0
  6
CONTINUOUS
 62
3
100
AcDbCircle
 10
432.1794495803617
 20
881.4981629298911
 30
0.0000000000000000
 40
5.000000000000000
  0
CIRCLE
  5
3FF
100
AcDbEntity
  8
MAIN0
  6
CONTINUOUS
 62
3
100
AcDbCircle
 10
432.1794495803617
 20
881.4981629298911
 30
0.0000000000000000
 40
4.250000000000000
  0
CIRCLE
  5
400
100
AcDbEntity
  8
MAIN0
  6
CONTINUOUS
 62
3
100
AcDbCircle
 10
502.1794495803617
 20
881.4981629298910
 30
0.0000000000000000
 40
5.000000000000000
  0
CIRCLE
  5
401
100
AcDbEntity
  8
MAIN0
  6
CONTINUOUS
 62
3
100
AcDbCircle
 10
502.1794495803617
 20
881.4981629298910
 30
0.0000000000000000
 40
4.250000000000000
  0
CIRCLE
  5
402
100
AcDbEntity
  8
MAIN0
  6
CONTINUOUS
 62
3
100
AcDbCircle
 10
496.1794495803622
 20
1006.498162929873
 30
0.0000000000000000
 40
15.90000000000000
  0
CIRCLE
  5
403
100
AcDbEntity
  8
MAIN0
  6
CONTINUOUS
 62
3
100
AcDbCircle
 10
436.1794495803620
 20
1006.498162929873
 30
0.0000000000000000
 40
15.90000000000000
  0
CIRCLE
  5
404
100
AcDbEntity
  8
MAIN0
  6
CONTINUOUS
 62
3
100
AcDbCircle
 10
436.1794495803617
 20
856.4981629298734
 30
0.0000000000000000
 40
15.90000000000000
  0
CIRCLE
  5
405
100
AcDbEntity
  8
MAIN0
  6
CONTINUOUS
 62
3
100
AcDbCircle
 10
496.1794495803620
 20
856.4981629298732
 30
0.0000000000000000
 40
15.90000000000000
  0
DIMENSION
  5
40E
100
AcDbEntity
  8
MAIN0
  6
CONTINUOUS
 62
3
100
AcDbDimension
  2
*D49
 10
366.5916250205816
 20
881.4981629298911
 30
0.0000000000000000
 11
366.0916250205816
 21
931.4981629298329
 31
0.0000000000000000
 70
32
  3
MAIN001
100
AcDbAlignedDimension
 13
424.5127829136952
 23
981.4981629297748
 33
0.0000000000000000
 14
424.5127829136950
 24
881.4981629298911
 34
0.0000000000000000
 50
90.00000000000000
100
AcDbRotatedDimension
1001
ACAD
1000
DSTYLE
1002
{
1070
   173
1070
     1
1070
     6
1000
_OPEN
1070
     7
1000
_OPEN
1070
    41
1040
8.000000
1002
}
  0
DIMENSION
  5
417
100
AcDbEntity
  8
MAIN0
  6
CONTINUOUS
 62
3
100
AcDbDimension
  2
*D50
 10
432.1794495803618
 20
792.4640532430518
 30
0.0000000000000000
 11
467.1794495803617
 21
792.9640532430518
 31
0.0000000000000000
 70
32
  3
MAIN001
100
AcDbAlignedDimension
 13
502.1794495803617
 23
873.8314962632244
 33
0.0000000000000000
 14
432.1794495803618
 24
873.8314962632245
 34
0.0000000000000000
100
AcDbRotatedDimension
1001
ACAD
1000
DSTYLE
1002
{
1070
   173
1070
     1
1070
     6
1000
_OPEN
1070
     7
1000
_OPEN
1070
    41
1040
8.000000
1002
}
  0
DIMENSION
  5
422
100
AcDbEntity
  8
MAIN0
  6
CONTINUOUS
 62
3
100
AcDbDimension
  2
*D51
 10
502.1794495803617
 20
792.4640532430518
 30
0.0000000000000000
 11
528.9284733799279
 21
794.4640532430518
 31
0.0000000000000000
 70
160
  3
MAIN001
100
AcDbAlignedDimension
 13
517.1794495803620
 23
831.9981629298733
 33
0.0000000000000000
 14
502.1794495803617
 24
873.8314962632244
 34
0.0000000000000000
100
AcDbRotatedDimension
1001
ACAD
1000
DSTYLE
1002
{
1070
   173
1070
     1
1070
     6
1000
_OPEN
1070
     7
1000
_OPEN
1070
    41
1040
8.000000
1070
   287
1070
     0
1002
}
  0
CIRCLE
  5
423
100
AcDbEntity
  8
MAIN0
  6
CONTINUOUS
 62
3
100
AcDbCircle
 10
681.1794495805902
 20
931.4981629298732
 30
0.0000000000000000
 40
4.250000000000000
  0
CIRCLE
  5
424
100
AcDbEntity
  8
MAIN0
  6
CONTINUOUS
 62
3
100
AcDbCircle
 10
681.1794495805902
 20
931.4981629298732
 30
0.0000000000000000
 40
5.000000000000000
  0
LINE
  5
425
100
AcDbEntity
  8
MAIN0
  6
CENTER
 62
3
100
AcDbLine
 10
647.1794495808200
 20
848.8314962632067
 30
0.0000000000000000
 11
647.1794495808199
 21
864.1648295965399
 31
0.0000000000000000
  0
LINE
  5
426
100
AcDbEntity
  8
MAIN0
  6
CENTER
 62
3
100
AcDbLine
 10
654.8461162474865
 20
856.4981629298732
 30
0.0000000000000000
 11
639.5127829141533
 21
856.4981629298732
 31
0.0000000000000000
  0
CIRCLE
  5
427
100
AcDbEntity
  8
MAIN0
  6
CONTINUOUS
 62
3
100
AcDbCircle
 10
647.1794495808200
 20
856.4981629298732
 30
0.0000000000000000
 40
4.250000000000000
  0
CIRCLE
  5
428
100
AcDbEntity
  8
MAIN0
  6
CONTINUOUS
 62
3
100
AcDbCircle
 10
647.1794495808200
 20
856.4981629298732
 30
0.0000000000000000
 40
5.000000000000000
  0
LINE
  5
429
100
AcDbEntity
  8
MAIN0
  6
CENTER
 62
3
100
AcDbLine
 10
707.1794495808199
 20
848.8314962632064
 30
0.0000000000000000
 11
707.1794495808199
 21
864.1648295965397
 31
0.0000000000000000
  0
LINE
  5
42A
100
AcDbEntity
  8
MAIN0
  6
CENTER
 62
3
100
AcDbLine
 10
714.8461162474864
 20
856.4981629298732
 30
0.0000000000000000
 11
699.5127829141532
 21
856.4981629298732
 31
0.0000000000000000
  0
CIRCLE
  5
42B
100
AcDbEntity
  8
MAIN0
  6
CONTINUOUS
 62
3
100
AcDbCircle
 10
707.1794495808200
 20
856.4981629298733
 30
0.0000000000000000
 40
4.250000000000000
  0
CIRCLE
  5
42C
100
AcDbEntity
  8
MAIN0
  6
CONTINUOUS
 62
3
100
AcDbCircle
 10
707.1794495808200
 20
856.4981629298733
 30
0.0000000000000000
 40
5.000000000000000
  0
LINE
  5
42D
100
AcDbEntity
  8
MAIN0
  6
CENTER
 62
3
100
AcDbLine
 10
647.1794495808200
 20
1014.164829596539
 30
0.0000000000000000
 11
647.1794495808200
 21
998.8314962632060
 31
0.0000000000000000
  0
LINE
  5
42E
100
AcDbEntity
  8
MAIN0
  6
CENTER
 62
3
100
AcDbLine
 10
654.8461162474865
 20
1006.498162929873
 30
0.0000000000000000
 11
639.5127829141533
 21
1006.498162929873
 31
0.0000000000000000
  0
CIRCLE
  5
42F
100
AcDbEntity
  8
MAIN0
  6
CONTINUOUS
 62
3
100
AcDbCircle
 10
647.1794495808200
 20
1006.498162929873
 30
0.0000000000000000
 40
4.250000000000000
  0
CIRCLE
  5
430
100
AcDbEntity
  8
MAIN0
  6
CONTINUOUS
 62
3
100
AcDbCircle
 10
647.1794495808200
 20
1006.498162929873
 30
0.0000000000000000
 40
5.000000000000000
  0
LINE
  5
431
100
AcDbEntity
  8
MAIN0
  6
CENTER
 62
3
100
AcDbLine
 10
707.1794495808201
 20
1014.164829596539
 30
0.0000000000000000
 11
707.1794495808200
 21
998.8314962632061
 31
0.0000000000000000
  0
LINE
  5
432
100
AcDbEntity
  8
MAIN0
  6
CENTER
 62
3
100
AcDbLine
 10
714.8461162474865
 20
1006.498162929873
 30
0.0000000000000000
 11
699.5127829141533
 21
1006.498162929873
 31
0.0000000000000000
  0
CIRCLE
  5
433
100
AcDbEntity
  8
MAIN0
  6
CONTINUOUS
 62
3
100
AcDbCircle
 10
707.1794495808200
 20
1006.498162929873
 30
0.0000000000000000
 40
4.250000000000000
  0
CIRCLE
  5
434
100
AcDbEntity
  8
MAIN0
  6
CONTINUOUS
 62
3
100
AcDbCircle
 10
707.1794495808200
 20
1006.498162929873
 30
0.0000000000000000
 40
5.000000000000000
  0
DIMENSION
  5
43D
100
AcDbEntity
  8
MAIN0
  6
CONTINUOUS
 62
3
100
AcDbDimension
  2
*D52
 10
632.1794495803612
 20
1070.722487284842
 30
0.0000000000000000
 11
656.6794495804757
 21
1071.222487284842
 31
0.0000000000000000
 70
32
  3
MAIN001
100
AcDbAlignedDimension
 13
681.1794495805902
 23
943.1648295965399
 33
0.0000000000000000
 14
632.1794495803612
 24
1030.898162929873
 34
0.0000000000000000
100
AcDbRotatedDimension
1001
ACAD
1000
DSTYLE
1002
{
1070
   173
1070
     1
1070
     6
1000
_OPEN
1070
     7
1000
_OPEN
1070
    41
1040
8.000000
1002
}
  0
DIMENSION
  5
446
100
AcDbEntity
  8
MAIN0
  6
CONTINUOUS
 62
3
100
AcDbDimension
  2
*D53
 10
768.7066162479134
 20
856.4981629298733
 30
0.0000000000000000
 11
768.2066162479134
 21
931.4981629298729
 31
0.0000000000000000
 70
32
  3
MAIN001
100
AcDbAlignedDimension
 13
714.8461162474865
 23
1006.498162929873
 33
0.0000000000000000
 14
714.8461162474865
 24
856.4981629298733
 34
0.0000000000000000
 50
90.00000000000000
100
AcDbRotatedDimension
1001
ACAD
1000
DSTYLE
1002
{
1070
   173
1070
     1
1070
     6
1000
_OPEN
1070
     7
1000
_OPEN
1070
    41
1040
8.000000
1002
}
  0
DIMENSION
  5
451
100
AcDbEntity
  8
MAIN0
  6
CONTINUOUS
 62
3
100
AcDbDimension
  2
*D54
 10
632.1794495803611
 20
792.4640532430518
 30
0.0000000000000000
 11
617.4192955559390
 21
794.4640532430518
 31
0.0000000000000000
 70
160
  3
MAIN001
100
AcDbAlignedDimension
 13
647.1794495808200
 23
848.8314962632067
 33
0.0000000000000000
 14
632.1794495803611
 24
832.0981629298734
 34
0.0000000000000000
100
AcDbRotatedDimension
1001
ACAD
1000
DSTYLE
1002
{
1070
   173
1070
     1
1070
     6
1000
_OPEN
1070
     7
1000
_OPEN
1070
    41
1040
8.000000
1070
   287
1070
     0
1002
}
  0
DIMENSION
  5
45A
100
AcDbEntity
  8
MAIN0
  6
CONTINUOUS
 62
3
100
AcDbDimension
  2
*D55
 10
647.1794495808200
 20
792.4640532430518
 30
0.0000000000000000
 11
677.1794495808200
 21
792.9640532430518
 31
0.0000000000000000
 70
32
  3
MAIN001
100
AcDbAlignedDimension
 13
707.1794495808200
 23
848.8314962632064
 33
0.0000000000000000
 14
647.1794495808200
 24
848.8314962632067
 34
0.0000000000000000
100
AcDbRotatedDimension
1001
ACAD
1000
DSTYLE
1002
{
1070
   173
1070
     1
1070
     6
1000
_OPEN
1070
     7
1000
_OPEN
1070
    41
1040
8.000000
1002
}
  0
LEADER
  5
45B
100
AcDbEntity
  8
MAIN0
  6
CONTINUOUS
 62
3
100
AcDbLeader
  3
MAIN001
 73
     0
 75
     1
 40
12.39999961853027
 41
148.9590038528442
 76
     3
 10
427.1281785211550
 20
878.6480632084893
 30
0.0000000000000000
 10
374.9718189658917
 20
808.8407822150621
 30
0.0000000000000000
 10
367.2668191890514
 20
808.8407822150621
 30
0.0000000000000000
340
45C
213
0.0000000000000000
223
-2.000000000000000
233
0.0000000000000000
1001
ACAD
1000
DSTYLE
1002
{
1070
   147
1040
0.0
1070
    77
1070
     1
1070
   173
1070
     1
1070
     6
1000
_OPEN
1070
     7
1000
_OPEN
1002
}
  0
MTEXT
  5
45C
102
{ACAD_REACTORS
330
45B
102
}
100
AcDbEntity
  8
MAIN0
  6
CONTINUOUS
 62
3
100
AcDbMText
 10
218.3078153362072
 20
823.2407818335923
 30
0.0000000000000000
 40
12.39999961853027
 41
0.0000000000000000
 71
     1
 72
     1
  1
{\H0.94x;{2×5-M10 深さ20\P　　 　　　　DEPTH}}
 11
1.000000000000000
 21
0.0000000000000000
 31
0.0000000000000000
  7
KNJYOKO
  0
CIRCLE
  5
45D
100
AcDbEntity
  8
MAIN0
  6
CONTINUOUS
 62
3
100
AcDbCircle
 10
711.1794495803608
 20
963.9981629298729
 30
0.0000000000000000
 40
13.00000000000000
  0
CIRCLE
  5
45E
100
AcDbEntity
  8
MAIN0
  6
CONTINUOUS
 62
3
100
AcDbCircle
 10
651.1794495803607
 20
963.9981629298732
 30
0.0000000000000000
 40
13.00000000000000
  0
CIRCLE
  5
45F
100
AcDbEntity
  8
MAIN0
  6
CONTINUOUS
 62
3
100
AcDbCircle
 10
651.1794495803605
 20
898.9981629298732
 30
0.0000000000000000
 40
13.00000000000000
  0
CIRCLE
  5
460
100
AcDbEntity
  8
MAIN0
  6
CONTINUOUS
 62
3
100
AcDbCircle
 10
711.1794495803608
 20
898.9981629298729
 30
0.0000000000000000
 40
13.00000000000000
  0
CIRCLE
  5
461
100
AcDbEntity
  8
MAIN0
  6
CONTINUOUS
 62
3
100
AcDbCircle
 10
432.1794495803616
 20
981.4981629297748
 30
0.0000000000000000
 40
5.000000000000000
  0
CIRCLE
  5
462
100
AcDbEntity
  8
MAIN0
  6
CONTINUOUS
 62
3
100
AcDbCircle
 10
432.1794495803616
 20
981.4981629297748
 30
0.0000000000000000
 40
4.188101000000000
  0
LINE
  5
463
100
AcDbEntity
  8
MAIN0
  6
CONTINUOUS
 62
3
100
AcDbLine
 10
432.1794495803616
 20
984.3849142757229
 30
0.0000000000000000
 11
429.6794495803616
 21
982.9415386027488
 31
0.0000000000000000
  0
LINE
  5
464
100
AcDbEntity
  8
MAIN0
  6
CONTINUOUS
 62
3
100
AcDbLine
 10
429.6794495803616
 20
982.9415386027489
 30
0.0000000000000000
 11
429.6794495803616
 21
980.0547872568008
 31
0.0000000000000000
  0
LINE
  5
465
100
AcDbEntity
  8
MAIN0
  6
CONTINUOUS
 62
3
100
AcDbLine
 10
429.6794495803616
 20
980.0547872568006
 30
0.0000000000000000
 11
432.1794495803616
 21
978.6114115838266
 31
0.0000000000000000
  0
LINE
  5
466
100
AcDbEntity
  8
MAIN0
  6
CONTINUOUS
 62
3
100
AcDbLine
 10
432.1794495803616
 20
978.6114115838266
 30
0.0000000000000000
 11
434.6794495803616
 21
980.0547872568006
 31
0.0000000000000000
  0
LINE
  5
467
100
AcDbEntity
  8
MAIN0
  6
CONTINUOUS
 62
3
100
AcDbLine
 10
434.6794495803616
 20
980.0547872568008
 30
0.0000000000000000
 11
434.6794495803616
 21
982.9415386027489
 31
0.0000000000000000
  0
LINE
  5
468
100
AcDbEntity
  8
MAIN0
  6
CONTINUOUS
 62
3
100
AcDbLine
 10
434.6794495803616
 20
982.9415386027488
 30
0.0000000000000000
 11
432.1794495803616
 21
984.3849142757230
 31
0.0000000000000000
  0
LINE
  5
469
100
AcDbEntity
  8
MAIN0
  6
CONTINUOUS
 62
3
100
AcDbLine
 10
1219.412599680394
 20
779.2090733898981
 30
0.0000000000000000
 11
1219.412599680230
 21
567.6361207815185
 31
0.0000000000000000
  0
LINE
  5
46A
100
AcDbEntity
  8
MAIN0
  6
CONTINUOUS
 62
3
100
AcDbLine
 10
1236.412599680394
 20
782.2090733898958
 30
0.0000000000000000
 11
1222.412599680394
 21
782.2090733898958
 31
0.0000000000000000
  0
LINE
  5
46B
100
AcDbEntity
  8
MAIN0
  6
CONTINUOUS
 62
3
100
AcDbLine
 10
1239.412599680394
 20
779.2090733898936
 30
0.0000000000000000
 11
1239.412599680385
 21
767.2090733898936
 31
0.0000000000000000
  0
LINE
  5
46C
100
AcDbEntity
  8
MAIN0
  6
CONTINUOUS
 62
3
100
AcDbLine
 10
1177.412599680215
 20
548.2090733898958
 30
0.0000000000000000
 11
1177.412599680210
 21
541.8090733898958
 31
0.0000000000000000
  0
LINE
  5
46D
100
AcDbEntity
  8
MAIN0
  6
CONTINUOUS
 62
3
100
AcDbLine
 10
1192.412599680210
 20
541.2090733898958
 30
0.0000000000000000
 11
1178.012599680209
 21
541.2090733898958
 31
0.0000000000000000
  0
LINE
  5
46E
100
AcDbEntity
  8
MAIN0
  6
CONTINUOUS
 62
3
100
AcDbLine
 10
1192.412599680215
 20
548.2090733898958
 30
0.0000000000000000
 11
1192.412599680207
 21
538.6090733898959
 31
0.0000000000000000
  0
LINE
  5
46F
100
AcDbEntity
  8
MAIN0
  6
CONTINUOUS
 62
3
100
AcDbLine
 10
1177.412599680215
 20
548.2090733898958
 30
0.0000000000000000
 11
1177.412599680210
 21
554.6090733898958
 31
0.0000000000000000
  0
LINE
  5
470
100
AcDbEntity
  8
MAIN0
  6
CONTINUOUS
 62
3
100
AcDbLine
 10
1192.412599680210
 20
555.2090733898958
 30
0.0000000000000000
 11
1178.012599680209
 21
555.2090733898958
 31
0.0000000000000000
  0
LINE
  5
471
100
AcDbEntity
  8
MAIN0
  6
CONTINUOUS
 62
3
100
AcDbLine
 10
1192.412599680215
 20
548.2090733898958
 30
0.0000000000000000
 11
1192.412599680208
 21
557.8090733898957
 31
0.0000000000000000
  0
LINE
  5
472
100
AcDbEntity
  8
MAIN0
  6
CONTINUOUS
 62
3
100
AcDbLine
 10
1236.412599680385
 20
764.2090733898958
 30
0.0000000000000000
 11
1232.412599680380
 21
764.2090733898958
 31
0.0000000000000000
  0
ARC
  5
473
100
AcDbEntity
  8
MAIN0
  6
CONTINUOUS
 62
3
100
AcDbCircle
 10
1222.412599680394
 20
779.2090733898958
 30
0.0000000000000000
 40
3.000000000000000
100
AcDbArc
 50
90.00000000000007
 51
180.0000000000001
  0
LINE
  5
474
100
AcDbEntity
  8
MAIN0
  6
CONTINUOUS
 62
3
100
AcDbLine
 10
1192.412599680215
 20
548.2090733898959
 30
0.0000000000000000
 11
1177.412599680215
 21
548.2090733898958
 31
0.0000000000000000
  0
LINE
  5
475
100
AcDbEntity
  8
MAIN0
  6
CONTINUOUS
 62
3
100
AcDbLine
 10
1177.412599680210
 20
541.8090733898960
 30
0.0000000000000000
 11
1178.012599680209
 21
541.2090733898959
 31
0.0000000000000000
  0
LINE
  5
476
100
AcDbEntity
  8
MAIN0
  6
CONTINUOUS
 62
3
100
AcDbLine
 10
1178.012599680209
 20
555.2090733898958
 30
0.0000000000000000
 11
1177.412599680210
 21
554.6090733898959
 31
0.0000000000000000
  0
ELLIPSE
  5
477
100
AcDbEntity
  8
MAIN0
  6
CONTINUOUS
 62
3
100
AcDbEllipse
 10
1185.412599680212
 20
551.7090733899015
 30
0.0000000000000000
 11
-2.050000000000000
 21
0.0000000000000000
 31
0.0000000000000000
210
0.0000000000000000
220
0.0000000000000000
230
1.000000000000000
 40
0.8536585365853660
 41
0.0000000000000000
 42
6.283185307179586
  0
LINE
  5
478
100
AcDbEntity
  8
MAIN0
  6
CONTINUOUS
 62
3
100
AcDbLine
 10
1201.412599680207
 20
538.2090733898958
 30
0.0000000000000000
 11
1192.812599680207
 21
538.2090733898958
 31
0.0000000000000000
  0
LINE
  5
479
100
AcDbEntity
  8
MAIN0
  6
CONTINUOUS
 62
3
100
AcDbLine
 10
1201.412599680223
 20
558.2090733898958
 30
0.0000000000000000
 11
1192.812599680207
 21
558.2090733898958
 31
0.0000000000000000
  0
LINE
  5
47A
100
AcDbEntity
  8
MAIN0
  6
CONTINUOUS
 62
3
100
AcDbLine
 10
1201.412599680223
 20
558.2090733898958
 30
0.0000000000000000
 11
1201.412599680207
 21
538.2090733898958
 31
0.0000000000000000
  0
LINE
  5
47B
100
AcDbEntity
  8
MAIN0
  6
CONTINUOUS
 62
3
100
AcDbLine
 10
1229.412599680381
 20
761.2090733898982
 30
0.0000000000000000
 11
1229.412599680206
 21
536.2090733898936
 31
0.0000000000000000
  0
LINE
  5
47C
100
AcDbEntity
  8
MAIN0
  6
CONTINUOUS
 62
3
100
AcDbLine
 10
1226.412599680206
 20
533.2090733898959
 30
0.0000000000000000
 11
1220.072853718043
 21
533.2090733898958
 31
0.0000000000000000
  0
LINE
  5
47D
100
AcDbEntity
  8
MAIN0
  6
CONTINUOUS
 62
3
100
AcDbLine
 10
1201.412599680207
 20
538.2090733898931
 30
0.0000000000000000
 11
1220.072853718042
 21
533.2090733898959
 31
0.0000000000000000
  0
LINE
  5
47E
100
AcDbEntity
  8
MAIN0
  6
CONTINUOUS
 62
3
100
AcDbLine
 10
1201.412599680254
 20
558.2090733898959
 30
0.0000000000000000
 11
1214.965513950845
 21
561.8405658237888
 31
0.0000000000000000
  0
ARC
  5
47F
100
AcDbEntity
  8
MAIN0
  6
CONTINUOUS
 62
3
100
AcDbCircle
 10
1226.412599680206
 20
536.2090733898958
 30
0.0000000000000000
 40
3.000000000000000
100
AcDbArc
 50
270.0000000000001
 51
360.0000000000001
  0
ARC
  5
480
100
AcDbEntity
  8
MAIN0
  6
CONTINUOUS
 62
3
100
AcDbCircle
 10
1236.412599680394
 20
779.2090733898958
 30
0.0000000000000000
 40
3.000000000000000
100
AcDbArc
 50
7.633331235512440e-014
 51
90.00000000000007
  0
ARC
  5
481
100
AcDbEntity
  8
MAIN0
  6
CONTINUOUS
 62
3
100
AcDbCircle
 10
1236.412599680385
 20
767.2090733898958
 30
0.0000000000000000
 40
3.000000000000000
100
AcDbArc
 50
270.0000000000001
 51
360.0000000000001
  0
LINE
  5
482
100
AcDbEntity
  8
MAIN0
  6
CONTINUOUS
 62
3
100
AcDbLine
 10
1192.412599680208
 20
538.6090733898961
 30
0.0000000000000000
 11
1192.812599680207
 21
538.2090733898961
 31
0.0000000000000000
  0
LINE
  5
483
100
AcDbEntity
  8
MAIN0
  6
CONTINUOUS
 62
3
100
AcDbLine
 10
1192.412599680208
 20
557.8090733898960
 30
0.0000000000000000
 11
1192.812599680207
 21
558.2090733898958
 31
0.0000000000000000
  0
ARC
  5
484
100
AcDbEntity
  8
MAIN0
  6
CONTINUOUS
 62
3
100
AcDbCircle
 10
1213.412599680230
 20
567.6361207815232
 30
0.0000000000000000
 40
6.000000000000000
100
AcDbArc
 50
284.9999999999988
 51
360.0000000000001
  0
ARC
  5
485
100
AcDbEntity
  8
MAIN0
  6
CONTINUOUS
 62
3
100
AcDbCircle
 10
1232.412599680380
 20
761.2090733898958
 30
0.0000000000000000
 40
3.000000000000000
100
AcDbArc
 50
90.00000000000007
 51
180.0000000000001
  0
ARC
  5
486
100
AcDbEntity
  8
MAIN1
  6
CONTINUOUS
 62
7
100
AcDbCircle
 10
1319.725486846411
 20
780.2090733898958
 30
0.0000000000000000
 40
4.000000000000000
100
AcDbArc
 50
11.21227141764971
 51
90.00000000000000
  0
ARC
  5
487
100
AcDbEntity
  8
MAIN1
  6
CONTINUOUS
 62
7
100
AcDbCircle
 10
1319.725486846411
 20
766.2090733898958
 30
0.0000000000000000
 40
4.000000000000000
100
AcDbArc
 50
270.0000000000000
 51
348.7877285823506
  0
LINE
  5
488
100
AcDbEntity
  8
MAIN1
  6
CONTINUOUS
 62
7
100
AcDbLine
 10
1273.412599680392
 20
784.2090733898958
 30
0.0000000000000000
 11
1251.329338590968
 21
783.2889375111698
 31
0.0000000000000000
  0
LINE
  5
489
100
AcDbEntity
  8
MAIN1
  6
CONTINUOUS
 62
7
100
AcDbLine
 10
1251.329338590968
 20
763.1292092686219
 30
0.0000000000000000
 11
1273.412599680393
 21
762.2090733898958
 31
0.0000000000000000
  0
ARC
  5
48A
100
AcDbEntity
  8
MAIN1
  6
CONTINUOUS
 62
7
100
AcDbCircle
 10
1284.412599680392
 20
773.2090733898958
 30
0.0000000000000000
 40
40.00000000000002
100
AcDbArc
 50
348.7877285823503
 51
371.2122714176497
  0
LINE
  5
48B
100
AcDbEntity
  8
MAIN1
  6
CONTINUOUS
 62
7
100
AcDbLine
 10
1248.912599680393
 20
781.7090733898958
 30
0.0000000000000000
 11
1248.912599680393
 21
764.7090733898958
 31
0.0000000000000000
  0
LINE
  5
48C
100
AcDbEntity
  8
MAIN1
  6
CONTINUOUS
 62
7
100
AcDbLine
 10
1239.912599680392
 20
781.7090733898958
 30
0.0000000000000000
 11
1239.912599680392
 21
778.6862989649476
 31
0.0000000000000000
  0
LINE
  5
48D
100
AcDbEntity
  8
MAIN1
  6
CONTINUOUS
 62
7
100
AcDbLine
 10
1239.412599680392
 20
778.6862989649476
 30
0.0000000000000000
 11
1246.912599680393
 21
778.6862989649476
 31
0.0000000000000000
  0
LINE
  5
48E
100
AcDbEntity
  8
MAIN1
  6
CONTINUOUS
 62
7
100
AcDbLine
 10
1239.412599680392
 20
767.7318478148443
 30
0.0000000000000000
 11
1246.912599680393
 21
767.7318478148443
 31
0.0000000000000000
  0
LINE
  5
48F
100
AcDbEntity
  8
MAIN1
  6
CONTINUOUS
 62
7
100
AcDbLine
 10
1319.725486846411
 20
784.2090733898958
 30
0.0000000000000000
 11
1273.412599680392
 21
784.2090733898958
 31
0.0000000000000000
  0
LINE
  5
490
100
AcDbEntity
  8
MAIN1
  6
CONTINUOUS
 62
7
100
AcDbLine
 10
1319.725486846411
 20
762.2090733898958
 30
0.0000000000000000
 11
1273.412599680393
 21
762.2090733898958
 31
0.0000000000000000
  0
LINE
  5
491
100
AcDbEntity
  8
MAIN1
  6
CONTINUOUS
 62
7
100
AcDbLine
 10
1239.912599680392
 20
781.7090733898958
 30
0.0000000000000000
 11
1239.412599680392
 21
781.2090733898961
 31
0.0000000000000000
  0
LINE
  5
492
100
AcDbEntity
  8
MAIN1
  6
CONTINUOUS
 62
7
100
AcDbLine
 10
1248.912599680392
 20
781.7090733898961
 30
0.0000000000000000
 11
1249.412599680392
 21
781.2090733898959
 31
0.0000000000000000
  0
LINE
  5
493
100
AcDbEntity
  8
MAIN1
  6
CONTINUOUS
 62
7
100
AcDbLine
 10
1248.912599680392
 20
764.7090733898959
 30
0.0000000000000000
 11
1249.412599680392
 21
765.2090733898961
 31
0.0000000000000000
  0
LINE
  5
494
100
AcDbEntity
  8
MAIN1
  6
CONTINUOUS
 62
7
100
AcDbLine
 10
1239.412599680392
 20
765.2090733898959
 30
0.0000000000000000
 11
1239.912599680392
 21
764.7090733898961
 31
0.0000000000000000
  0
LINE
  5
495
100
AcDbEntity
  8
MAIN1
  6
CONTINUOUS
 62
7
100
AcDbLine
 10
1239.912599680392
 20
781.7090733898958
 30
0.0000000000000000
 11
1248.912599680393
 21
781.7090733898958
 31
0.0000000000000000
  0
LINE
  5
496
100
AcDbEntity
  8
MAIN1
  6
CONTINUOUS
 62
7
100
AcDbLine
 10
1239.912599680392
 20
764.7090733898958
 30
0.0000000000000000
 11
1248.912599680393
 21
764.7090733898958
 31
0.0000000000000000
  0
LINE
  5
497
100
AcDbEntity
  8
MAIN1
  6
CONTINUOUS
 62
7
100
AcDbLine
 10
1239.412599680392
 20
765.2090733898958
 30
0.0000000000000000
 11
1239.412599680392
 21
781.2090733898958
 31
0.0000000000000000
  0
LINE
  5
498
100
AcDbEntity
  8
MAIN1
  6
CONTINUOUS
 62
7
100
AcDbLine
 10
1239.912599680392
 20
764.7090733898958
 30
0.0000000000000000
 11
1239.912599680392
 21
767.7318478148443
 31
0.0000000000000000
  0
LINE
  5
499
100
AcDbEntity
  8
MAIN1
  6
CONTINUOUS
 62
7
100
AcDbLine
 10
1249.412599680393
 20
765.1274754148067
 30
0.0000000000000000
 11
1249.412599680393
 21
781.2906713649852
 31
0.0000000000000000
  0
ARC
  5
49A
100
AcDbEntity
  8
MAIN1
  6
CONTINUOUS
 62
7
100
AcDbCircle
 10
1251.412599680393
 20
781.2906713649852
 30
0.0000000000000000
 40
2.000000000000000
100
AcDbArc
 50
92.38594403038889
 51
179.9999999999999
  0
ARC
  5
49B
100
AcDbEntity
  8
MAIN1
  6
CONTINUOUS
 62
7
100
AcDbCircle
 10
1251.412599680393
 20
765.1274754148067
 30
0.0000000000000000
 40
2.000000000000000
100
AcDbArc
 50
180.0000000000000
 51
267.6140559696109
  0
LINE
  5
49C
100
AcDbEntity
  8
MAIN1
  6
CONTINUOUS
 62
7
100
AcDbLine
 10
1246.912599680393
 20
767.7318478148443
 30
0.0000000000000000
 11
1246.912599680393
 21
778.6862989649476
 31
0.0000000000000000
  0
LINE
  5
49D
100
AcDbEntity
  8
MAIN3
  6
CONTINUOUS
 62
3
100
AcDbLine
 10
1246.912599680392
 20
767.7318478148445
 30
0.0000000000000000
 11
1239.412599680393
 21
778.6862989649477
 31
0.0000000000000000
  0
LINE
  5
49E
100
AcDbEntity
  8
MAIN3
  6
CONTINUOUS
 62
3
100
AcDbLine
 10
1246.912599680392
 20
778.6862989649476
 30
0.0000000000000000
 11
1239.412599680392
 21
767.7318478148443
 31
0.0000000000000000
  0
LINE
  5
49F
100
AcDbEntity
  8
MAIN1
  6
CONTINUOUS
 62
7
100
AcDbLine
 10
1273.412599680392
 20
784.2090733898958
 30
0.0000000000000000
 11
1273.412599680392
 21
762.2090733898958
 31
0.0000000000000000
  0
LINE
  5
4A0
100
AcDbEntity
  8
MAIN0
  6
CONTINUOUS
 62
3
100
AcDbLine
 10
1266.768073143631
 20
455.3815010029965
 30
0.0000000000000000
 11
1266.768073143631
 21
469.7815010029966
 31
0.0000000000000000
  0
LINE
  5
4A1
100
AcDbEntity
  8
MAIN0
  6
CONTINUOUS
 62
3
100
AcDbLine
 10
1266.768073143632
 20
469.7815010029967
 30
0.0000000000000000
 11
1263.996791851522
 21
471.3815010029966
 31
0.0000000000000000
  0
LINE
  5
4A2
100
AcDbEntity
  8
MAIN0
  6
CONTINUOUS
 62
3
100
AcDbLine
 10
1263.996791851521
 20
471.3815010029965
 30
0.0000000000000000
 11
1245.539354435742
 21
471.3815010029965
 31
0.0000000000000000
  0
LINE
  5
4A3
100
AcDbEntity
  8
MAIN0
  6
CONTINUOUS
 62
3
100
AcDbLine
 10
1245.539354435742
 20
471.3815010029968
 30
0.0000000000000000
 11
1242.768073143632
 21
469.7815010029967
 31
0.0000000000000000
  0
LINE
  5
4A4
100
AcDbEntity
  8
MAIN0
  6
CONTINUOUS
 62
3
100
AcDbLine
 10
1242.768073143631
 20
469.7815010029966
 30
0.0000000000000000
 11
1242.768073143631
 21
455.3815010029965
 31
0.0000000000000000
  0
LINE
  5
4A5
100
AcDbEntity
  8
MAIN0
  6
CONTINUOUS
 62
3
100
AcDbLine
 10
1266.768073143631
 20
469.7815010029966
 30
0.0000000000000000
 11
1242.768073143631
 21
469.7815010029966
 31
0.0000000000000000
  0
LINE
  5
4A6
100
AcDbEntity
  8
MAIN0
  6
CONTINUOUS
 62
3
100
AcDbLine
 10
1272.268073143631
 20
455.3815010029965
 30
0.0000000000000000
 11
1237.268073143631
 21
455.3815010029965
 31
0.0000000000000000
  0
LINE
  5
4A7
100
AcDbEntity
  8
MAIN0
  6
CONTINUOUS
 62
3
100
AcDbLine
 10
1272.268073143631
 20
450.3815010029965
 30
0.0000000000000000
 11
1272.268073143631
 21
455.3815010029965
 31
0.0000000000000000
  0
LINE
  5
4A8
100
AcDbEntity
  8
MAIN0
  6
CONTINUOUS
 62
3
100
AcDbLine
 10
1237.268073143631
 20
450.3815010029965
 30
0.0000000000000000
 11
1237.268073143631
 21
455.3815010029965
 31
0.0000000000000000
  0
LINE
  5
4A9
100
AcDbEntity
  8
MAIN0
  6
CONTINUOUS
 62
3
100
AcDbLine
 10
1240.518073143614
 20
390.3815010031115
 30
0.0000000000000000
 11
1240.518073143606
 21
401.3815010031115
 31
0.0000000000000000
  0
LINE
  5
4AA
100
AcDbEntity
  8
MAIN0
  6
CONTINUOUS
 62
3
100
AcDbLine
 10
1269.018073143614
 20
390.3815010031235
 30
0.0000000000000000
 11
1269.018073143606
 21
401.3815010031235
 31
0.0000000000000000
  0
LINE
  5
4AB
100
AcDbEntity
  8
MAIN0
  6
CONTINUOUS
 62
3
100
AcDbLine
 10
1240.518073143614
 20
390.3815010031116
 30
0.0000000000000000
 11
1269.018073143614
 21
390.3815010031235
 31
0.0000000000000000
  0
LINE
  5
4AC
100
AcDbEntity
  8
MAIN0
  6
CONTINUOUS
 62
3
100
AcDbLine
 10
1246.018073143601
 20
409.3815010031138
 30
0.0000000000000000
 11
1263.518073143601
 21
409.3815010031211
 31
0.0000000000000000
  0
LINE
  5
4AD
100
AcDbEntity
  8
MAIN0
  6
CONTINUOUS
 62
3
100
AcDbLine
 10
1240.518073143606
 20
401.3815010031116
 30
0.0000000000000000
 11
1246.018073143606
 21
401.3815010031138
 31
0.0000000000000000
  0
LINE
  5
4AE
100
AcDbEntity
  8
MAIN0
  6
CONTINUOUS
 62
3
100
AcDbLine
 10
1263.518073143606
 20
401.3815010031211
 30
0.0000000000000000
 11
1269.018073143606
 21
401.3815010031235
 31
0.0000000000000000
  0
LINE
  5
4AF
100
AcDbEntity
  8
MAIN0
  6
CONTINUOUS
 62
3
100
AcDbLine
 10
1246.018073143606
 20
401.3815010031137
 30
0.0000000000000000
 11
1246.018073143601
 21
409.3815010031137
 31
0.0000000000000000
  0
LINE
  5
4B0
100
AcDbEntity
  8
MAIN0
  6
CONTINUOUS
 62
3
100
AcDbLine
 10
1263.518073143606
 20
401.3815010031211
 30
0.0000000000000000
 11
1263.518073143601
 21
409.3815010031211
 31
0.0000000000000000
  0
LINE
  5
4B1
100
AcDbEntity
  8
MAIN0
  6
CONTINUOUS
 62
3
100
AcDbLine
 10
1247.850605143614
 20
420.3815010031206
 30
0.0000000000000000
 11
1247.850605143614
 21
409.3815010031235
 31
0.0000000000000000
  0
LINE
  5
4B2
100
AcDbEntity
  8
MAIN0
  6
CONTINUOUS
 62
3
100
AcDbLine
 10
1246.768073143614
 20
409.3815010031235
 30
0.0000000000000000
 11
1246.768073143614
 21
420.3815010031201
 31
0.0000000000000000
  0
LINE
  5
4B3
100
AcDbEntity
  8
MAIN0
  6
CONTINUOUS
 62
3
100
AcDbLine
 10
1261.685541143614
 20
420.3815010031264
 30
0.0000000000000000
 11
1261.685541143614
 21
409.3815010031235
 31
0.0000000000000000
  0
LINE
  5
4B4
100
AcDbEntity
  8
MAIN0
  6
CONTINUOUS
 62
3
100
AcDbLine
 10
1262.768073143614
 20
420.3815010031268
 30
0.0000000000000000
 11
1262.768073143614
 21
409.3815010031235
 31
0.0000000000000000
  0
LINE
  5
4B5
100
AcDbEntity
  8
MAIN0
  6
CONTINUOUS
 62
3
100
AcDbLine
 10
1378.418743695788
 20
409.3815010029516
 30
0.0000000000000000
 11
1408.418743695788
 21
409.3815010029640
 31
0.0000000000000000
  0
LINE
  5
4B6
100
AcDbEntity
  8
MAIN0
  6
CONTINUOUS
 62
3
100
AcDbLine
 10
1378.418743695794
 20
401.3815010029517
 30
0.0000000000000000
 11
1408.418743695794
 21
401.3815010029641
 31
0.0000000000000000
  0
LINE
  5
4B7
100
AcDbEntity
  8
MAIN0
  6
CONTINUOUS
 62
3
100
AcDbLine
 10
1408.418743695801
 20
390.3815010029640
 30
0.0000000000000000
 11
1408.418743695788
 21
409.3815010029640
 31
0.0000000000000000
  0
LINE
  5
4B8
100
AcDbEntity
  8
MAIN0
  6
CONTINUOUS
 62
3
100
AcDbLine
 10
1378.418743695801
 20
390.3815010029516
 30
0.0000000000000000
 11
1408.418743695801
 21
390.3815010029640
 31
0.0000000000000000
  0
LINE
  5
4B9
100
AcDbEntity
  8
MAIN0
  6
CONTINUOUS
 62
3
100
AcDbLine
 10
1378.418743695801
 20
390.3815010029517
 30
0.0000000000000000
 11
1378.418743695788
 21
409.3815010029517
 31
0.0000000000000000
  0
LINE
  5
4BA
100
AcDbEntity
  8
MAIN0
  6
CONTINUOUS
 62
3
100
AcDbLine
 10
1378.418743695768
 20
251.9997479862273
 30
0.0000000000000000
 11
1378.418743695748
 21
280.4997479862273
 31
0.0000000000000000
  0
LINE
  5
4BB
100
AcDbEntity
  8
MAIN0
  6
CONTINUOUS
 62
3
100
AcDbLine
 10
1378.418743695748
 20
280.4997479862271
 30
0.0000000000000000
 11
1408.418743695748
 21
280.4997479862188
 31
0.0000000000000000
  0
LINE
  5
4BC
100
AcDbEntity
  8
MAIN0
  6
HIDDEN
 62
3
100
AcDbLine
 10
1378.418743695751
 20
274.9997479862273
 30
0.0000000000000000
 11
1408.418743695751
 21
274.9997479862190
 31
0.0000000000000000
  0
LINE
  5
4BD
100
AcDbEntity
  8
MAIN0
  6
CENTER
 62
3
100
AcDbLine
 10
1375.156125673468
 20
266.2497479862282
 30
0.0000000000000000
 11
1411.974223037107
 21
266.2497479862179
 31
0.0000000000000000
  0
LINE
  5
4BE
100
AcDbEntity
  8
MAIN0
  6
HIDDEN
 62
3
100
AcDbLine
 10
1378.418743695764
 20
257.4997479862274
 30
0.0000000000000000
 11
1408.418743695764
 21
257.4997479862190
 31
0.0000000000000000
  0
LINE
  5
4BF
100
AcDbEntity
  8
MAIN0
  6
CONTINUOUS
 62
3
100
AcDbLine
 10
1378.418743695768
 20
251.9997479862273
 30
0.0000000000000000
 11
1408.418743695768
 21
251.9997479862190
 31
0.0000000000000000
  0
LINE
  5
4C0
100
AcDbEntity
  8
MAIN0
  6
CONTINUOUS
 62
3
100
AcDbLine
 10
1408.418743695767
 20
251.9997479862190
 30
0.0000000000000000
 11
1408.418743695748
 21
280.4997479862190
 31
0.0000000000000000
  0
LINE
  5
4C1
100
AcDbEntity
  8
MAIN0
  6
CENTER
 62
3
100
AcDbLine
 10
1339.877775457784
 20
773.2090733898958
 30
0.0000000000000000
 11
1208.941437607598
 21
773.2090733898958
 31
0.0000000000000000
  0
LINE
  5
4C2
100
AcDbEntity
  8
MAIN0
  6
CONTINUOUS
 62
3
100
AcDbLine
 10
156.5709002848829
 20
525.3815010035364
 30
0.0000000000000000
 11
252.5709002848830
 21
525.3815010035582
 31
0.0000000000000000
  0
LINE
  5
4C3
100
AcDbEntity
  8
MAIN0
  6
CENTER
 62
3
100
AcDbLine
 10
1057.568944665268
 20
495.3815010035519
 30
0.0000000000000000
 11
1147.738179253125
 21
495.3815010035519
 31
0.0000000000000000
  0
LINE
  5
4C4
100
AcDbEntity
  8
MAIN0
  6
CONTINUOUS
 62
3
100
AcDbLine
 10
810.1794495803310
 20
555.5815010003421
 30
0.0000000000000000
 11
852.1794495803820
 21
555.5815010003421
 31
0.0000000000000000
  0
LINE
  5
4C5
100
AcDbEntity
  8
MAIN0
  6
CONTINUOUS
 62
3
100
AcDbLine
 10
852.1794495803567
 20
547.5815010003421
 30
0.0000000000000000
 11
902.1794495803569
 21
547.5815010003421
 31
0.0000000000000000
  0
LINE
  5
4C6
100
AcDbEntity
  8
MAIN0
  6
CONTINUOUS
 62
3
100
AcDbLine
 10
902.1794495803317
 20
539.5815010003421
 30
0.0000000000000000
 11
962.1794495803317
 21
539.5815010003421
 31
0.0000000000000000
  0
LINE
  5
4C7
100
AcDbEntity
  8
MAIN0
  6
CONTINUOUS
 62
3
100
AcDbLine
 10
962.1794495803067
 20
531.5815010003421
 30
0.0000000000000000
 11
1032.179449579886
 21
531.5815010003421
 31
0.0000000000000000
  0
LINE
  5
4C8
100
AcDbEntity
  8
MAIN0
  6
CONTINUOUS
 62
3
100
AcDbLine
 10
1032.179449579886
 20
531.5815010003424
 30
0.0000000000000000
 11
1032.179449579876
 21
502.0815010035033
 31
0.0000000000000000
  0
LINE
  5
4C9
100
AcDbEntity
  8
MAIN0
  6
CONTINUOUS
 62
3
100
AcDbLine
 10
414.1794495817177
 20
831.4981629298729
 30
0.0000000000000000
 11
414.1794495817720
 21
1031.498162923870
 31
0.0000000000000000
  0
LINE
  5
4CA
100
AcDbEntity
  8
MAIN0
  6
CONTINUOUS
 62
3
100
AcDbLine
 10
415.1794495817723
 20
1032.498162923876
 30
0.0000000000000000
 11
414.1794495817719
 21
1031.498162923870
 31
0.0000000000000000
  0
LINE
  5
4CB
100
AcDbEntity
  8
MAIN0
  6
CONTINUOUS
 62
3
100
AcDbLine
 10
414.1794495817176
 20
831.4981629298729
 30
0.0000000000000000
 11
415.1794495817173
 21
830.4981629298729
 31
0.0000000000000000
  0
LINE
  5
4CC
100
AcDbEntity
  8
MAIN0
  6
CONTINUOUS
 62
3
100
AcDbLine
 10
517.1794495803617
 20
882.4981629245156
 30
0.0000000000000000
 11
632.1794495803611
 21
882.4981629252368
 31
0.0000000000000000
  0
LINE
  5
4CD
100
AcDbEntity
  8
MAIN0
  6
CONTINUOUS
 62
3
100
AcDbLine
 10
517.1794495803619
 20
980.4981629352304
 30
0.0000000000000000
 11
632.1794495803611
 21
980.4981629345092
 31
0.0000000000000000
  0
LINE
  5
4CE
100
AcDbEntity
  8
MAIN0
  6
CENTER
 62
3
100
AcDbLine
 10
466.1794495808506
 20
942.4981629298731
 30
0.0000000000000000
 11
466.1794495808506
 21
920.4981629298731
 31
0.0000000000000000
  0
CIRCLE
  5
4CF
100
AcDbEntity
  8
MAIN0
  6
CONTINUOUS
 62
3
100
AcDbCircle
 10
537.1794495803608
 20
931.4981629298729
 30
0.0000000000000000
 40
3.000000000000000
  0
LINE
  5
4D0
100
AcDbEntity
  8
MAIN0
  6
CENTER
 62
3
100
AcDbLine
 10
537.1794495803608
 20
940.4981629298729
 30
0.0000000000000000
 11
537.1794495803608
 21
922.4981629298729
 31
0.0000000000000000
  0
LINE
  5
4D1
100
AcDbEntity
  8
MAIN0
  6
CONTINUOUS
 62
3
100
AcDbLine
 10
1032.179449579243
 20
828.9981629298729
 30
0.0000000000000000
 11
1032.179449579243
 21
1033.998162929873
 31
0.0000000000000000
  0
LINE
  5
4D2
100
AcDbEntity
  8
MAIN0
  6
CONTINUOUS
 62
3
100
AcDbLine
 10
415.1794495817721
 20
1032.498162923876
 30
0.0000000000000000
 11
730.1794495803601
 21
1032.498162925852
 31
0.0000000000000000
  0
LINE
  5
4D3
100
AcDbEntity
  8
MAIN0
  6
CONTINUOUS
 62
3
100
AcDbLine
 10
415.1794495817173
 20
830.4981629298731
 30
0.0000000000000000
 11
730.1794495803601
 21
830.4981629298731
 31
0.0000000000000000
  0
LINE
  5
4D4
100
AcDbEntity
  8
MAIN0
  6
CONTINUOUS
 62
3
100
AcDbLine
 10
810.1794495805582
 20
1038.498162929873
 30
0.0000000000000000
 11
852.1794495805582
 21
1038.498162929873
 31
0.0000000000000000
  0
LINE
  5
4D5
100
AcDbEntity
  8
MAIN0
  6
CONTINUOUS
 62
3
100
AcDbLine
 10
810.1794495805582
 20
824.4981629298731
 30
0.0000000000000000
 11
852.1794495805582
 21
824.4981629298731
 31
0.0000000000000000
  0
LINE
  5
4D6
100
AcDbEntity
  8
MAIN0
  6
CONTINUOUS
 62
3
100
AcDbLine
 10
852.1794495805584
 20
1036.998162929873
 30
0.0000000000000000
 11
902.1794495805582
 21
1036.998162929873
 31
0.0000000000000000
  0
LINE
  5
4D7
100
AcDbEntity
  8
MAIN0
  6
CONTINUOUS
 62
3
100
AcDbLine
 10
852.1794495805584
 20
825.9981629298731
 30
0.0000000000000000
 11
902.1794495805582
 21
825.9981629298731
 31
0.0000000000000000
  0
LINE
  5
4D8
100
AcDbEntity
  8
MAIN0
  6
CONTINUOUS
 62
3
100
AcDbLine
 10
939.7794495807334
 20
1035.498162929873
 30
0.0000000000000000
 11
962.1794495789625
 21
1035.498162929873
 31
0.0000000000000000
  0
LINE
  5
4D9
100
AcDbEntity
  8
MAIN0
  6
CONTINUOUS
 62
3
100
AcDbLine
 10
902.1794495805581
 20
1035.498162929873
 30
0.0000000000000000
 11
962.1794495789625
 21
1035.498162929873
 31
0.0000000000000000
  0
LINE
  5
4DA
100
AcDbEntity
  8
MAIN0
  6
CONTINUOUS
 62
3
100
AcDbLine
 10
902.1794495805582
 20
827.4981629298731
 30
0.0000000000000000
 11
962.1794495792885
 21
827.4981629298731
 31
0.0000000000000000
  0
LINE
  5
4DB
100
AcDbEntity
  8
MAIN0
  6
CONTINUOUS
 62
3
100
AcDbLine
 10
962.1794495789648
 20
1033.998162929873
 30
0.0000000000000000
 11
1032.179449579243
 21
1033.998162929873
 31
0.0000000000000000
  0
LINE
  5
4DC
100
AcDbEntity
  8
MAIN0
  6
CONTINUOUS
 62
3
100
AcDbLine
 10
962.1794495792863
 20
828.9981629298731
 30
0.0000000000000000
 11
1032.179449579243
 21
828.9981629298731
 31
0.0000000000000000
  0
LINE
  5
4DD
100
AcDbEntity
  8
MAIN0
  6
CONTINUOUS
 62
3
100
AcDbLine
 10
1032.179449579243
 20
830.4981629298731
 30
0.0000000000000000
 11
1074.179449583978
 21
830.4981629298731
 31
0.0000000000000000
  0
LINE
  5
4DE
100
AcDbEntity
  8
MAIN0
  6
CONTINUOUS
 62
3
100
AcDbLine
 10
1032.179449579243
 20
1032.498162929873
 30
0.0000000000000000
 11
1074.179449583978
 21
1032.498162929873
 31
0.0000000000000000
  0
LINE
  5
4DF
100
AcDbEntity
  8
MAIN0
  6
CONTINUOUS
 62
3
100
AcDbLine
 10
1080.179449584598
 20
918.0352509115363
 30
0.0000000000000000
 11
1077.179449584520
 21
918.0352509115489
 31
0.0000000000000000
  0
LINE
  5
4E0
100
AcDbEntity
  8
MAIN0
  6
CONTINUOUS
 62
3
100
AcDbLine
 10
1080.179449584624
 20
944.9610749464952
 30
0.0000000000000000
 11
1077.179449584702
 21
944.9610749465077
 31
0.0000000000000000
  0
LINE
  5
4E1
100
AcDbEntity
  8
MAIN0
  6
CONTINUOUS
 62
3
100
AcDbLine
 10
1080.179449584574
 20
893.9981629297377
 30
0.0000000000000000
 11
1077.179449584357
 21
893.9981629297377
 31
0.0000000000000000
  0
LINE
  5
4E2
100
AcDbEntity
  8
MAIN0
  6
CONTINUOUS
 62
3
100
AcDbLine
 10
1080.179449584648
 20
968.9981629297375
 30
0.0000000000000000
 11
1077.179449584865
 21
968.9981629297375
 31
0.0000000000000000
  0
LINE
  5
4E3
100
AcDbEntity
  8
MAIN0
  6
CONTINUOUS
 62
3
100
AcDbLine
 10
1080.179449584573
 20
893.9981629297375
 30
0.0000000000000000
 11
1080.179449584648
 21
968.9981629297378
 31
0.0000000000000000
  0
LINE
  5
4E4
100
AcDbEntity
  8
MAIN0
  6
CONTINUOUS
 62
3
100
AcDbLine
 10
1105.179449583982
 20
893.0981629299191
 30
0.0000000000000000
 11
1105.179449583890
 21
969.8981629299186
 31
0.0000000000000000
  0
LINE
  5
4E5
100
AcDbEntity
  8
MAIN0
  6
CONTINUOUS
 62
3
100
AcDbLine
 10
1104.579449583936
 20
892.4981629298728
 30
0.0000000000000000
 11
1095.179449583936
 21
892.4981629298728
 31
0.0000000000000000
  0
LINE
  5
4E6
100
AcDbEntity
  8
MAIN0
  6
CONTINUOUS
 62
3
100
AcDbLine
 10
1093.179449583967
 20
894.4981629298734
 30
0.0000000000000000
 11
1095.179449583936
 21
892.4981629298729
 31
0.0000000000000000
  0
LINE
  5
4E7
100
AcDbEntity
  8
MAIN0
  6
CONTINUOUS
 62
3
100
AcDbLine
 10
1104.579449583936
 20
892.4981629298725
 30
0.0000000000000000
 11
1105.179449583936
 21
893.0981629298727
 31
0.0000000000000000
  0
LINE
  5
4E8
100
AcDbEntity
  8
MAIN0
  6
CONTINUOUS
 62
3
100
AcDbLine
 10
1104.579449583935
 20
970.4981629298728
 30
0.0000000000000000
 11
1095.179449583935
 21
970.4981629298727
 31
0.0000000000000000
  0
LINE
  5
4E9
100
AcDbEntity
  8
MAIN0
  6
CONTINUOUS
 62
3
100
AcDbLine
 10
1093.179449583967
 20
968.4981629298718
 30
0.0000000000000000
 11
1095.179449583935
 21
970.4981629298723
 31
0.0000000000000000
  0
LINE
  5
4EA
100
AcDbEntity
  8
MAIN0
  6
CONTINUOUS
 62
3
100
AcDbLine
 10
1104.579449583936
 20
970.4981629298732
 30
0.0000000000000000
 11
1105.179449583935
 21
969.8981629298730
 31
0.0000000000000000
  0
LINE
  5
4EB
100
AcDbEntity
  8
MAIN0
  6
CONTINUOUS
 62
3
100
AcDbLine
 10
1080.179449584648
 20
968.4981629298729
 30
0.0000000000000000
 11
1093.179449583967
 21
968.4981629298729
 31
0.0000000000000000
  0
LINE
  5
4EC
100
AcDbEntity
  8
MAIN0
  6
CONTINUOUS
 62
3
100
AcDbLine
 10
1080.179449584574
 20
894.4981629298728
 30
0.0000000000000000
 11
1093.179449583968
 21
894.4981629298728
 31
0.0000000000000000
  0
LINE
  5
4ED
100
AcDbEntity
  8
MAIN0
  6
CONTINUOUS
 62
3
100
AcDbLine
 10
1124.179449583936
 20
956.4981629298731
 30
0.0000000000000000
 11
1105.179449583936
 21
956.4981629298731
 31
0.0000000000000000
  0
LINE
  5
4EE
100
AcDbEntity
  8
MAIN0
  6
CONTINUOUS
 62
3
100
AcDbLine
 10
1124.179449583936
 20
956.4981629298734
 30
0.0000000000000000
 11
1124.179449583936
 21
906.4981629298732
 31
0.0000000000000000
  0
LINE
  5
4EF
100
AcDbEntity
  8
MAIN0
  6
CONTINUOUS
 62
3
100
AcDbLine
 10
1124.179449583936
 20
906.4981629298729
 30
0.0000000000000000
 11
1105.179449583936
 21
906.4981629298729
 31
0.0000000000000000
  0
LINE
  5
4F0
100
AcDbEntity
  8
MAIN0
  6
CONTINUOUS
 62
3
100
AcDbLine
 10
1105.179449583955
 20
914.2935123928700
 30
0.0000000000000000
 11
1095.179449584004
 21
914.2935123929123
 31
0.0000000000000000
  0
LINE
  5
4F1
100
AcDbEntity
  8
MAIN0
  6
CONTINUOUS
 62
3
100
AcDbLine
 10
1093.179449584029
 20
919.4981629259514
 30
0.0000000000000000
 11
1080.179449584598
 21
919.4981629259739
 31
0.0000000000000000
  0
LINE
  5
4F2
100
AcDbEntity
  8
MAIN0
  6
CONTINUOUS
 62
3
100
AcDbLine
 10
1093.179449583999
 20
943.4981629340684
 30
0.0000000000000000
 11
1080.179449584623
 21
943.4981629340296
 31
0.0000000000000000
  0
LINE
  5
4F3
100
AcDbEntity
  8
MAIN0
  6
CONTINUOUS
 62
3
100
AcDbLine
 10
1105.179449583916
 20
948.7028134668707
 30
0.0000000000000000
 11
1095.179449583963
 21
948.7028134668606
 31
0.0000000000000000
  0
LINE
  5
4F4
100
AcDbEntity
  8
MAIN0
  6
CONTINUOUS
 62
3
100
AcDbLine
 10
1093.179449583999
 20
943.4981629340683
 30
0.0000000000000000
 11
1095.179449583963
 21
948.7028134668602
 31
0.0000000000000000
  0
LINE
  5
4F5
100
AcDbEntity
  8
MAIN0
  6
CONTINUOUS
 62
3
100
AcDbLine
 10
1093.179449584029
 20
919.4981629259519
 30
0.0000000000000000
 11
1095.179449584005
 21
914.2935123929125
 31
0.0000000000000000
  0
LINE
  5
4F6
100
AcDbEntity
  8
MAIN0
  6
CONTINUOUS
 62
3
100
AcDbLine
 10
1095.179449584031
 20
892.4981629298725
 30
0.0000000000000000
 11
1095.179449584005
 21
914.2935123929119
 31
0.0000000000000000
  0
LINE
  5
4F7
100
AcDbEntity
  8
MAIN0
  6
CONTINUOUS
 62
3
100
AcDbLine
 10
1095.179449583963
 20
948.7028134668601
 30
0.0000000000000000
 11
1095.179449583936
 21
970.4981629298728
 31
0.0000000000000000
  0
LINE
  5
4F8
100
AcDbEntity
  8
MAIN0
  6
CONTINUOUS
 62
3
100
AcDbLine
 10
1093.179449584060
 20
894.4981629298726
 30
0.0000000000000000
 11
1093.179449584029
 21
919.4981629259517
 31
0.0000000000000000
  0
LINE
  5
4F9
100
AcDbEntity
  8
MAIN0
  6
CONTINUOUS
 62
3
100
AcDbLine
 10
1093.179449583999
 20
943.4981629340686
 30
0.0000000000000000
 11
1093.179449583968
 21
968.4981629298727
 31
0.0000000000000000
  0
LINE
  5
4FA
100
AcDbEntity
  8
MAIN0
  6
CONTINUOUS
 62
3
100
AcDbLine
 10
1074.179449583978
 20
830.4981629298727
 30
0.0000000000000000
 11
1074.179449584508
 21
915.0352509115678
 31
0.0000000000000000
  0
LINE
  5
4FB
100
AcDbEntity
  8
MAIN0
  6
CONTINUOUS
 62
3
100
AcDbLine
 10
1074.179449584714
 20
947.9610749465263
 30
0.0000000000000000
 11
1074.179449585245
 21
1032.498162929872
 31
0.0000000000000000
  0
LINE
  5
4FC
100
AcDbEntity
  8
MAIN0
  6
CENTER
 62
3
100
AcDbLine
 10
681.1794495805902
 20
943.1648295965399
 30
0.0000000000000000
 11
681.1794495805902
 21
919.8314962632067
 31
0.0000000000000000
  0
LINE
  5
4FD
100
AcDbEntity
  8
MAIN0
  6
CONTINUOUS
 62
3
100
AcDbLine
 10
1074.179449584078
 20
846.4981629285550
 30
0.0000000000000000
 11
1032.179449579243
 21
846.4981629284760
 31
0.0000000000000000
  0
LINE
  5
4FE
100
AcDbEntity
  8
MAIN0
  6
CONTINUOUS
 62
3
100
AcDbLine
 10
1074.179449585144
 20
1016.498162928711
 30
0.0000000000000000
 11
1032.179449579243
 21
1016.498162928711
 31
0.0000000000000000
  0
ARC
  5
4FF
100
AcDbEntity
  8
MAIN0
  6
CONTINUOUS
 62
3
100
AcDbCircle
 10
1077.179449584865
 20
971.9981629297375
 30
0.0000000000000000
 40
3.000000000000000
100
AcDbArc
 50
180.0000000000000
 51
270.0000000000000
  0
ARC
  5
500
100
AcDbEntity
  8
MAIN0
  6
CONTINUOUS
 62
3
100
AcDbCircle
 10
1077.179449584714
 20
947.9610749465076
 30
0.0000000000000000
 40
3.000000000000000
100
AcDbArc
 50
180.0000000000000
 51
270.0000000000000
  0
ARC
  5
501
100
AcDbEntity
  8
MAIN0
  6
CONTINUOUS
 62
3
100
AcDbCircle
 10
1077.179449584357
 20
890.9981629297377
 30
0.0000000000000000
 40
3.000000000000000
100
AcDbArc
 50
90.00000000000000
 51
180.0000000000000
  0
ARC
  5
502
100
AcDbEntity
  8
MAIN0
  6
CONTINUOUS
 62
3
100
AcDbCircle
 10
1077.179449584508
 20
915.0352509115489
 30
0.0000000000000000
 40
3.000000000000000
100
AcDbArc
 50
90.00000000000000
 51
180.0000000000000
  0
LINE
  5
503
100
AcDbEntity
  8
MAIN0
  6
CENTER
 62
3
100
AcDbLine
 10
400.0598464803238
 20
931.4981629298731
 30
0.0000000000000000
 11
748.3066166293831
 21
931.4981629298731
 31
0.0000000000000000
  0
LINE
  5
504
100
AcDbEntity
  8
MAIN0
  6
CENTER
 62
3
100
AcDbLine
 10
772.7066162479134
 20
931.4981629298731
 30
0.0000000000000000
 11
1139.179449580450
 21
931.4981629298731
 31
0.0000000000000000
  0
CIRCLE
  5
505
100
AcDbEntity
  8
MAIN0
  6
CONTINUOUS
 62
3
100
AcDbCircle
 10
1393.418743695757
 20
266.2497479862233
 30
0.0000000000000000
 40
8.000000000000000
  0
CIRCLE
  5
506
100
AcDbEntity
  8
MAIN0
  6
CONTINUOUS
 62
3
100
AcDbCircle
 10
1393.418743695757
 20
266.2497479862233
 30
0.0000000000000000
 40
7.000000000000000
  0
LINE
  5
507
100
AcDbEntity
  8
MAIN0
  6
CONTINUOUS
 62
3
100
AcDbLine
 10
414.1794495801303
 20
420.7815010061024
 30
0.0000000000000000
 11
414.1794495805969
 21
529.3815010004773
 31
0.0000000000000000
  0
LINE
  5
508
100
AcDbEntity
  8
MAIN0
  6
CONTINUOUS
 62
3
100
AcDbLine
 10
600.1794495801287
 20
425.3815010055773
 30
0.0000000000000000
 11
582.1794495801287
 21
425.3815010055773
 31
0.0000000000000000
  0
LINE
  5
509
100
AcDbEntity
  8
MAIN0
  6
CONTINUOUS
 62
3
100
AcDbLine
 10
600.1794495801287
 20
415.3815010055773
 30
0.0000000000000000
 11
582.1794495801287
 21
415.3815010055773
 31
0.0000000000000000
  0
LINE
  5
50A
100
AcDbEntity
  8
MAIN0
  6
CENTER
 62
3
100
AcDbLine
 10
591.1794495801287
 20
433.9250944920727
 30
0.0000000000000000
 11
591.1794495801287
 21
406.3917837453510
 31
0.0000000000000000
  0
LINE
  5
50B
100
AcDbEntity
  8
MAIN0
  6
CONTINUOUS
 62
3
100
AcDbLine
 10
414.5794495801299
 20
420.3815010061028
 30
0.0000000000000000
 11
582.1794495801287
 21
420.3815010055773
 31
0.0000000000000000
  0
LINE
  5
50C
100
AcDbEntity
  8
MAIN0
  6
CONTINUOUS
 62
3
100
AcDbLine
 10
600.1794495801288
 20
420.3815010055207
 30
0.0000000000000000
 11
1029.179449580128
 21
420.3815010041757
 31
0.0000000000000000
  0
LINE
  5
50D
100
AcDbEntity
  8
MAIN0
  6
CONTINUOUS
 62
3
100
AcDbLine
 10
1028.779449580129
 20
420.3815010045063
 30
0.0000000000000000
 11
1029.179449580131
 21
420.7815010045051
 31
0.0000000000000000
  0
LINE
  5
50E
100
AcDbEntity
  8
MAIN0
  6
CONTINUOUS
 62
3
100
AcDbLine
 10
414.1794495801283
 20
420.7815010061046
 30
0.0000000000000000
 11
414.5794495801285
 21
420.3815010061043
 31
0.0000000000000000
  0
LINE
  5
50F
100
AcDbEntity
  8
MAIN0
  6
CONTINUOUS
 62
3
100
AcDbLine
 10
415.1794495806013
 20
530.3815010004805
 30
0.0000000000000000
 11
414.1794495805970
 21
529.3815010004774
 31
0.0000000000000000
  0
LINE
  5
510
100
AcDbEntity
  8
MAIN0
  6
CONTINUOUS
 62
3
100
AcDbLine
 10
582.1794495801287
 20
415.3815010055773
 30
0.0000000000000000
 11
582.1794495801287
 21
425.3815010055773
 31
0.0000000000000000
  0
LINE
  5
511
100
AcDbEntity
  8
MAIN0
  6
CONTINUOUS
 62
3
100
AcDbLine
 10
600.1794495801287
 20
415.3815010055773
 30
0.0000000000000000
 11
600.1794495801287
 21
425.3815010055769
 31
0.0000000000000000
  0
LINE
  5
512
100
AcDbEntity
  8
MAIN0
  6
CONTINUOUS
 62
3
100
AcDbLine
 10
415.1794495806013
 20
530.3815010004802
 30
0.0000000000000000
 11
454.1794495792432
 21
530.3815010006025
 31
0.0000000000000000
  0
LINE
  5
513
100
AcDbEntity
  8
MAIN0
  6
CONTINUOUS
 62
3
100
AcDbLine
 10
478.1794495792431
 20
530.3815010006779
 30
0.0000000000000000
 11
730.1794495803392
 21
530.3815010014682
 31
0.0000000000000000
  0
LINE
  5
514
100
AcDbEntity
  8
MAIN0
  6
CONTINUOUS
 62
3
100
AcDbLine
 10
729.6794495803617
 20
600.3815010008000
 30
0.0000000000000000
 11
730.1794495803616
 21
599.8815010008001
 31
0.0000000000000000
  0
LINE
  5
515
100
AcDbEntity
  8
MAIN0
  6
CONTINUOUS
 62
3
100
AcDbLine
 10
578.1794495803151
 20
530.3815010007888
 30
0.0000000000000000
 11
614.7794495803614
 21
530.3815010007821
 31
0.0000000000000000
  0
LINE
  5
516
100
AcDbEntity
  8
MAIN0
  6
CONTINUOUS
 62
3
100
AcDbLine
 10
517.1794495803617
 20
600.1815010008004
 30
0.0000000000000000
 11
517.1794495803617
 21
530.7815010008003
 31
0.0000000000000000
  0
LINE
  5
517
100
AcDbEntity
  8
MAIN0
  6
CONTINUOUS
 62
3
100
AcDbLine
 10
632.3794495803619
 20
600.3815010008000
 30
0.0000000000000000
 11
729.6794495803619
 21
600.3815010007997
 31
0.0000000000000000
  0
LINE
  5
518
100
AcDbEntity
  8
MAIN0
  6
CONTINUOUS
 62
3
100
AcDbLine
 10
632.1794495803614
 20
600.1815010007998
 30
0.0000000000000000
 11
632.3794495803613
 21
600.3815010007999
 31
0.0000000000000000
  0
LINE
  5
519
100
AcDbEntity
  8
MAIN0
  6
CONTINUOUS
 62
3
100
AcDbLine
 10
632.1794495803617
 20
530.3815010011765
 30
0.0000000000000000
 11
632.1794495803617
 21
600.3815010008002
 31
0.0000000000000000
  0
LINE
  5
51A
100
AcDbEntity
  8
MAIN0
  6
CONTINUOUS
 62
3
100
AcDbLine
 10
517.5794495803616
 20
530.3815010008003
 30
0.0000000000000000
 11
554.1794495803147
 21
530.3815010007936
 31
0.0000000000000000
  0
LINE
  5
51B
100
AcDbEntity
  8
MAIN0
  6
CONTINUOUS
 62
3
100
AcDbLine
 10
1080.179449580508
 20
530.3815010033842
 30
0.0000000000000000
 11
1032.179449579886
 21
530.3815010035419
 31
0.0000000000000000
  0
LINE
  5
51C
100
AcDbEntity
  8
MAIN0
  6
CONTINUOUS
 62
3
100
AcDbLine
 10
1049.496991214791
 20
450.3815010034850
 30
0.0000000000000000
 11
1029.179449580377
 21
450.3815010035517
 31
0.0000000000000000
  0
LINE
  5
51D
100
AcDbEntity
  8
MAIN0
  6
CONTINUOUS
 62
3
100
AcDbLine
 10
1029.179449580377
 20
450.3815010035519
 30
0.0000000000000000
 11
1029.179449580416
 21
474.1315010035524
 31
0.0000000000000000
  0
LINE
  5
51E
100
AcDbEntity
  8
MAIN0
  6
CONTINUOUS
 62
3
100
AcDbLine
 10
1080.179449580497
 20
523.3815010033842
 30
0.0000000000000000
 11
1080.179449580508
 21
530.3815010033843
 31
0.0000000000000000
  0
LINE
  5
51F
100
AcDbEntity
  8
MAIN0
  6
CONTINUOUS
 62
3
100
AcDbLine
 10
1029.179449580130
 20
420.7815010045049
 30
0.0000000000000000
 11
1029.179449580410
 21
502.0815010035026
 31
0.0000000000000000
  0
LINE
  5
520
100
AcDbEntity
  8
MAIN0
  6
CONTINUOUS
 62
3
100
AcDbLine
 10
420.2431027846263
 20
530.3815010006027
 30
0.0000000000000000
 11
415.5794495803617
 21
530.3815010006027
 31
0.0000000000000000
  0
LINE
  5
521
100
AcDbEntity
  8
MAIN0
  6
CONTINUOUS
 62
3
100
AcDbLine
 10
415.1794495803618
 20
530.7815010006029
 30
0.0000000000000000
 11
415.1794495803617
 21
600.1815010006028
 31
0.0000000000000000
  0
LINE
  5
522
100
AcDbEntity
  8
MAIN0
  6
CONTINUOUS
 62
3
100
AcDbLine
 10
517.1794495803617
 20
599.8815010006028
 30
0.0000000000000000
 11
517.1794495803617
 21
530.7815010006029
 31
0.0000000000000000
  0
LINE
  5
523
100
AcDbEntity
  8
MAIN0
  6
CONTINUOUS
 62
3
100
AcDbLine
 10
517.1794495803617
 20
599.8815010006028
 30
0.0000000000000000
 11
517.1794495803617
 21
530.7815010006029
 31
0.0000000000000000
  0
LINE
  5
524
100
AcDbEntity
  8
MAIN0
  6
CONTINUOUS
 62
3
100
AcDbLine
 10
415.3794495803616
 20
600.3815010006034
 30
0.0000000000000000
 11
516.6794495803614
 21
600.3815010006031
 31
0.0000000000000000
  0
LINE
  5
525
100
AcDbEntity
  8
MAIN0
  6
CONTINUOUS
 62
3
100
AcDbLine
 10
415.1794495803616
 20
600.1815010006028
 30
0.0000000000000000
 11
415.3794495803617
 21
600.3815010006030
 31
0.0000000000000000
  0
LINE
  5
526
100
AcDbEntity
  8
MAIN0
  6
CONTINUOUS
 62
3
100
AcDbLine
 10
415.1794495803620
 20
530.7815010006032
 30
0.0000000000000000
 11
415.5794495803619
 21
530.3815010006033
 31
0.0000000000000000
  0
LINE
  5
527
100
AcDbEntity
  8
MAIN0
  6
CONTINUOUS
 62
3
100
AcDbLine
 10
516.6794495803620
 20
600.3815010006027
 30
0.0000000000000000
 11
517.1794495803619
 21
599.8815010006028
 31
0.0000000000000000
  0
LINE
  5
528
100
AcDbEntity
  8
MAIN0
  6
CONTINUOUS
 62
3
100
AcDbLine
 10
730.1794495803281
 20
496.0815010033208
 30
0.0000000000000000
 11
730.1794495803622
 21
599.8815010007999
 31
0.0000000000000000
  0
LINE
  5
529
100
AcDbEntity
  8
MAIN0
  6
CONTINUOUS
 62
3
100
AcDbLine
 10
516.6794495803617
 20
1031.498162929873
 30
0.0000000000000000
 11
415.7794495803616
 21
1031.498162929873
 31
0.0000000000000000
  0
LINE
  5
52A
100
AcDbEntity
  8
MAIN0
  6
CONTINUOUS
 62
3
100
AcDbLine
 10
516.6794495803620
 20
831.4981629298728
 30
0.0000000000000000
 11
415.7794495803624
 21
831.4981629298732
 31
0.0000000000000000
  0
LINE
  5
52B
100
AcDbEntity
  8
MAIN0
  6
CONTINUOUS
 62
3
100
AcDbLine
 10
517.1794495803620
 20
831.9981629298734
 30
0.0000000000000000
 11
517.1794495803621
 21
1030.998162929873
 31
0.0000000000000000
  0
LINE
  5
52C
100
AcDbEntity
  8
MAIN0
  6
CONTINUOUS
 62
3
100
AcDbLine
 10
415.1794495803619
 20
832.0981629298733
 30
0.0000000000000000
 11
415.1794495803620
 21
1030.898162929874
 31
0.0000000000000000
  0
LINE
  5
52D
100
AcDbEntity
  8
MAIN0
  6
CENTER
 62
3
100
AcDbLine
 10
474.8642992085648
 20
856.4981629298734
 30
0.0000000000000000
 11
517.1794495803625
 21
856.4981629298733
 31
0.0000000000000000
  0
LINE
  5
52E
100
AcDbEntity
  8
MAIN0
  6
CENTER
 62
3
100
AcDbLine
 10
496.1794495803620
 20
875.9931135726224
 30
0.0000000000000000
 11
496.1794495803619
 21
835.6048453540475
 31
0.0000000000000000
  0
LINE
  5
52F
100
AcDbEntity
  8
MAIN0
  6
CENTER
 62
3
100
AcDbLine
 10
418.0277753564920
 20
856.4981629298736
 30
0.0000000000000000
 11
457.0846793730157
 21
856.4981629298734
 31
0.0000000000000000
  0
LINE
  5
530
100
AcDbEntity
  8
MAIN0
  6
CENTER
 62
3
100
AcDbLine
 10
436.1794495803619
 20
875.9931135726224
 30
0.0000000000000000
 11
436.1794495803617
 21
836.1877968124850
 31
0.0000000000000000
  0
LINE
  5
531
100
AcDbEntity
  8
MAIN0
  6
CONTINUOUS
 62
3
100
AcDbLine
 10
516.6794495803615
 20
831.4981629298728
 30
0.0000000000000000
 11
517.1794495803613
 21
831.9981629298726
 31
0.0000000000000000
  0
LINE
  5
532
100
AcDbEntity
  8
MAIN0
  6
CONTINUOUS
 62
3
100
AcDbLine
 10
517.1794495803617
 20
1030.998162929873
 30
0.0000000000000000
 11
516.6794495803616
 21
1031.498162929873
 31
0.0000000000000000
  0
LINE
  5
533
100
AcDbEntity
  8
MAIN0
  6
CONTINUOUS
 62
3
100
AcDbLine
 10
415.7794495803617
 20
1031.498162929873
 30
0.0000000000000000
 11
415.1794495803615
 21
1030.898162929873
 31
0.0000000000000000
  0
LINE
  5
534
100
AcDbEntity
  8
MAIN0
  6
CONTINUOUS
 62
3
100
AcDbLine
 10
415.1794495803620
 20
832.0981629298734
 30
0.0000000000000000
 11
415.7794495803619
 21
831.4981629298735
 31
0.0000000000000000
  0
CIRCLE
  5
535
100
AcDbEntity
  8
MAIN0
  6
HIDDEN
 62
3
100
AcDbCircle
 10
436.1794495803613
 20
856.4981629298735
 30
0.0000000000000000
 40
13.50000000000000
  0
LINE
  5
536
100
AcDbEntity
  8
MAIN0
  6
HIDDEN
 62
3
100
AcDbLine
 10
436.1794495803614
 20
864.5810666985281
 30
0.0000000000000000
 11
429.1794495803613
 21
860.5396148142006
 31
0.0000000000000000
  0
LINE
  5
537
100
AcDbEntity
  8
MAIN0
  6
HIDDEN
 62
3
100
AcDbLine
 10
429.1794495803613
 20
860.5396148142008
 30
0.0000000000000000
 11
429.1794495803613
 21
852.4567110455462
 31
0.0000000000000000
  0
LINE
  5
538
100
AcDbEntity
  8
MAIN0
  6
HIDDEN
 62
3
100
AcDbLine
 10
429.1794495803612
 20
852.4567110455459
 30
0.0000000000000000
 11
436.1794495803608
 21
848.4152591612187
 31
0.0000000000000000
  0
LINE
  5
539
100
AcDbEntity
  8
MAIN0
  6
HIDDEN
 62
3
100
AcDbLine
 10
436.1794495803614
 20
848.4152591612186
 30
0.0000000000000000
 11
443.1794495803615
 21
852.4567110455461
 31
0.0000000000000000
  0
LINE
  5
53A
100
AcDbEntity
  8
MAIN0
  6
HIDDEN
 62
3
100
AcDbLine
 10
443.1794495803613
 20
852.4567110455462
 30
0.0000000000000000
 11
443.1794495803613
 21
860.5396148142008
 31
0.0000000000000000
  0
LINE
  5
53B
100
AcDbEntity
  8
MAIN0
  6
HIDDEN
 62
3
100
AcDbLine
 10
443.1794495803608
 20
860.5396148142006
 30
0.0000000000000000
 11
436.1794495803607
 21
864.5810666985282
 31
0.0000000000000000
  0
CIRCLE
  5
53C
100
AcDbEntity
  8
MAIN0
  6
HIDDEN
 62
3
100
AcDbCircle
 10
496.1794495803617
 20
856.4981629298733
 30
0.0000000000000000
 40
13.50000000000000
  0
LINE
  5
53D
100
AcDbEntity
  8
MAIN0
  6
HIDDEN
 62
3
100
AcDbLine
 10
496.1794495803620
 20
864.5810666985279
 30
0.0000000000000000
 11
489.1794495803620
 21
860.5396148142004
 31
0.0000000000000000
  0
LINE
  5
53E
100
AcDbEntity
  8
MAIN0
  6
HIDDEN
 62
3
100
AcDbLine
 10
489.1794495803617
 20
860.5396148142006
 30
0.0000000000000000
 11
489.1794495803617
 21
852.4567110455459
 31
0.0000000000000000
  0
LINE
  5
53F
100
AcDbEntity
  8
MAIN0
  6
HIDDEN
 62
3
100
AcDbLine
 10
489.1794495803615
 20
852.4567110455457
 30
0.0000000000000000
 11
496.1794495803612
 21
848.4152591612184
 31
0.0000000000000000
  0
LINE
  5
540
100
AcDbEntity
  8
MAIN0
  6
HIDDEN
 62
3
100
AcDbLine
 10
496.1794495803620
 20
848.4152591612183
 30
0.0000000000000000
 11
503.1794495803621
 21
852.4567110455458
 31
0.0000000000000000
  0
LINE
  5
541
100
AcDbEntity
  8
MAIN0
  6
HIDDEN
 62
3
100
AcDbLine
 10
503.1794495803617
 20
852.4567110455459
 30
0.0000000000000000
 11
503.1794495803617
 21
860.5396148142006
 31
0.0000000000000000
  0
LINE
  5
542
100
AcDbEntity
  8
MAIN0
  6
HIDDEN
 62
3
100
AcDbLine
 10
503.1794495803612
 20
860.5396148142004
 30
0.0000000000000000
 11
496.1794495803611
 21
864.5810666985278
 31
0.0000000000000000
  0
CIRCLE
  5
543
100
AcDbEntity
  8
MAIN0
  6
HIDDEN
 62
3
100
AcDbCircle
 10
496.1794495803622
 20
1006.498162929873
 30
0.0000000000000000
 40
13.50000000000000
  0
LINE
  5
544
100
AcDbEntity
  8
MAIN0
  6
HIDDEN
 62
3
100
AcDbLine
 10
496.1794495803628
 20
1014.581066698528
 30
0.0000000000000000
 11
489.1794495803625
 21
1010.539614814201
 31
0.0000000000000000
  0
LINE
  5
545
100
AcDbEntity
  8
MAIN0
  6
HIDDEN
 62
3
100
AcDbLine
 10
489.1794495803622
 20
1010.539614814200
 30
0.0000000000000000
 11
489.1794495803622
 21
1002.456711045546
 31
0.0000000000000000
  0
LINE
  5
546
100
AcDbEntity
  8
MAIN0
  6
HIDDEN
 62
3
100
AcDbLine
 10
489.1794495803619
 20
1002.456711045546
 30
0.0000000000000000
 11
496.1794495803616
 21
998.4152591612183
 31
0.0000000000000000
  0
LINE
  5
547
100
AcDbEntity
  8
MAIN0
  6
HIDDEN
 62
3
100
AcDbLine
 10
496.1794495803626
 20
998.4152591612183
 30
0.0000000000000000
 11
503.1794495803630
 21
1002.456711045546
 31
0.0000000000000000
  0
LINE
  5
548
100
AcDbEntity
  8
MAIN0
  6
HIDDEN
 62
3
100
AcDbLine
 10
503.1794495803622
 20
1002.456711045546
 30
0.0000000000000000
 11
503.1794495803622
 21
1010.539614814200
 31
0.0000000000000000
  0
LINE
  5
549
100
AcDbEntity
  8
MAIN0
  6
HIDDEN
 62
3
100
AcDbLine
 10
503.1794495803617
 20
1010.539614814200
 30
0.0000000000000000
 11
496.1794495803616
 21
1014.581066698528
 31
0.0000000000000000
  0
CIRCLE
  5
54A
100
AcDbEntity
  8
MAIN0
  6
HIDDEN
 62
3
100
AcDbCircle
 10
436.1794495803617
 20
1006.498162929873
 30
0.0000000000000000
 40
13.50000000000000
  0
LINE
  5
54B
100
AcDbEntity
  8
MAIN0
  6
HIDDEN
 62
3
100
AcDbLine
 10
436.1794495803619
 20
1014.581066698528
 30
0.0000000000000000
 11
429.1794495803618
 21
1010.539614814201
 31
0.0000000000000000
  0
LINE
  5
54C
100
AcDbEntity
  8
MAIN0
  6
HIDDEN
 62
3
100
AcDbLine
 10
429.1794495803617
 20
1010.539614814201
 30
0.0000000000000000
 11
429.1794495803617
 21
1002.456711045546
 31
0.0000000000000000
  0
LINE
  5
54D
100
AcDbEntity
  8
MAIN0
  6
HIDDEN
 62
3
100
AcDbLine
 10
429.1794495803614
 20
1002.456711045546
 30
0.0000000000000000
 11
436.1794495803611
 21
998.4152591612184
 31
0.0000000000000000
  0
LINE
  5
54E
100
AcDbEntity
  8
MAIN0
  6
HIDDEN
 62
3
100
AcDbLine
 10
436.1794495803620
 20
998.4152591612186
 30
0.0000000000000000
 11
443.1794495803621
 21
1002.456711045546
 31
0.0000000000000000
  0
LINE
  5
54F
100
AcDbEntity
  8
MAIN0
  6
HIDDEN
 62
3
100
AcDbLine
 10
443.1794495803617
 20
1002.456711045546
 30
0.0000000000000000
 11
443.1794495803617
 21
1010.539614814201
 31
0.0000000000000000
  0
LINE
  5
550
100
AcDbEntity
  8
MAIN0
  6
HIDDEN
 62
3
100
AcDbLine
 10
443.1794495803612
 20
1010.539614814201
 30
0.0000000000000000
 11
436.1794495803611
 21
1014.581066698528
 31
0.0000000000000000
  0
LINE
  5
551
100
AcDbEntity
  8
MAIN0
  6
CONTINUOUS
 62
3
100
AcDbLine
 10
729.6794495803605
 20
1031.498162929873
 30
0.0000000000000000
 11
632.7794495803609
 21
1031.498162929873
 31
0.0000000000000000
  0
LINE
  5
552
100
AcDbEntity
  8
MAIN0
  6
CONTINUOUS
 62
3
100
AcDbLine
 10
729.6794495803611
 20
831.4981629298728
 30
0.0000000000000000
 11
632.7794495803609
 21
831.4981629298732
 31
0.0000000000000000
  0
LINE
  5
553
100
AcDbEntity
  8
MAIN0
  6
CONTINUOUS
 62
3
100
AcDbLine
 10
730.1794495803601
 20
822.9981629298725
 30
0.0000000000000000
 11
730.1794495803601
 21
1039.998162929874
 31
0.0000000000000000
  0
LINE
  5
554
100
AcDbEntity
  8
MAIN0
  6
CONTINUOUS
 62
3
100
AcDbLine
 10
632.1794495803611
 20
832.0981629298735
 30
0.0000000000000000
 11
632.1794495803613
 21
1030.898162929873
 31
0.0000000000000000
  0
LINE
  5
555
100
AcDbEntity
  8
MAIN0
  6
CENTER
 62
3
100
AcDbLine
 10
696.0127829136945
 20
963.9981629298729
 30
0.0000000000000000
 11
726.3461162470280
 21
963.9981629298728
 31
0.0000000000000000
  0
LINE
  5
556
100
AcDbEntity
  8
MAIN0
  6
CENTER
 62
3
100
AcDbLine
 10
711.1794495803609
 20
948.8314962632063
 30
0.0000000000000000
 11
711.1794495803611
 21
979.1648295965393
 31
0.0000000000000000
  0
LINE
  5
557
100
AcDbEntity
  8
MAIN0
  6
CENTER
 62
3
100
AcDbLine
 10
636.0127829136942
 20
963.9981629298732
 30
0.0000000000000000
 11
666.3461162470277
 21
963.9981629298731
 31
0.0000000000000000
  0
LINE
  5
558
100
AcDbEntity
  8
MAIN0
  6
CENTER
 62
3
100
AcDbLine
 10
651.1794495803607
 20
948.8314962632064
 30
0.0000000000000000
 11
651.1794495803608
 21
979.1648295965395
 31
0.0000000000000000
  0
LINE
  5
559
100
AcDbEntity
  8
MAIN0
  6
CENTER
 62
3
100
AcDbLine
 10
696.0127829136943
 20
898.9981629298729
 30
0.0000000000000000
 11
726.3461162470278
 21
898.9981629298728
 31
0.0000000000000000
  0
LINE
  5
55A
100
AcDbEntity
  8
MAIN0
  6
CENTER
 62
3
100
AcDbLine
 10
711.1794495803608
 20
883.8314962632062
 30
0.0000000000000000
 11
711.1794495803608
 21
914.1648295965397
 31
0.0000000000000000
  0
LINE
  5
55B
100
AcDbEntity
  8
MAIN0
  6
CENTER
 62
3
100
AcDbLine
 10
636.0127829136941
 20
898.9981629298731
 30
0.0000000000000000
 11
666.3461162470276
 21
898.9981629298729
 31
0.0000000000000000
  0
LINE
  5
55C
100
AcDbEntity
  8
MAIN0
  6
CENTER
 62
3
100
AcDbLine
 10
651.1794495803605
 20
883.8314962632064
 30
0.0000000000000000
 11
651.1794495803606
 21
914.1648295965399
 31
0.0000000000000000
  0
LINE
  5
55D
100
AcDbEntity
  8
MAIN0
  6
CONTINUOUS
 62
3
100
AcDbLine
 10
632.7794495803612
 20
831.4981629298732
 30
0.0000000000000000
 11
632.1794495803608
 21
832.0981629298734
 31
0.0000000000000000
  0
LINE
  5
55E
100
AcDbEntity
  8
MAIN0
  6
CONTINUOUS
 62
3
100
AcDbLine
 10
632.1794495803613
 20
1030.898162929873
 30
0.0000000000000000
 11
632.7794495803612
 21
1031.498162929873
 31
0.0000000000000000
  0
LINE
  5
55F
100
AcDbEntity
  8
MAIN0
  6
CONTINUOUS
 62
3
100
AcDbLine
 10
729.6794495803609
 20
831.4981629298729
 30
0.0000000000000000
 11
730.1794495803611
 21
831.9981629298731
 31
0.0000000000000000
  0
LINE
  5
560
100
AcDbEntity
  8
MAIN0
  6
CONTINUOUS
 62
3
100
AcDbLine
 10
730.1794495803608
 20
1030.998162929873
 30
0.0000000000000000
 11
729.6794495803609
 21
1031.498162929873
 31
0.0000000000000000
  0
CIRCLE
  5
561
100
AcDbEntity
  8
MAIN0
  6
HIDDEN
 62
3
100
AcDbCircle
 10
711.1794495803606
 20
898.9981629298728
 30
0.0000000000000000
 40
12.00000000000000
  0
LINE
  5
562
100
AcDbEntity
  8
MAIN0
  6
HIDDEN
 62
3
100
AcDbLine
 10
703.0965458117059
 20
898.9981629298727
 30
0.0000000000000000
 11
707.1379976960335
 21
891.9981629298725
 31
0.0000000000000000
  0
LINE
  5
563
100
AcDbEntity
  8
MAIN0
  6
HIDDEN
 62
3
100
AcDbLine
 10
707.1379976960330
 20
891.9981629298729
 30
0.0000000000000000
 11
715.2209014646879
 21
891.9981629298729
 31
0.0000000000000000
  0
LINE
  5
564
100
AcDbEntity
  8
MAIN0
  6
HIDDEN
 62
3
100
AcDbLine
 10
715.2209014646883
 20
891.9981629298725
 30
0.0000000000000000
 11
719.2623533490159
 21
898.9981629298727
 31
0.0000000000000000
  0
LINE
  5
565
100
AcDbEntity
  8
MAIN0
  6
HIDDEN
 62
3
100
AcDbLine
 10
719.2623533490155
 20
898.9981629298726
 30
0.0000000000000000
 11
715.2209014646882
 21
905.9981629298725
 31
0.0000000000000000
  0
LINE
  5
566
100
AcDbEntity
  8
MAIN0
  6
HIDDEN
 62
3
100
AcDbLine
 10
715.2209014646879
 20
905.9981629298729
 30
0.0000000000000000
 11
707.1379976960330
 21
905.9981629298729
 31
0.0000000000000000
  0
LINE
  5
567
100
AcDbEntity
  8
MAIN0
  6
HIDDEN
 62
3
100
AcDbLine
 10
707.1379976960338
 20
905.9981629298727
 30
0.0000000000000000
 11
703.0965458117064
 21
898.9981629298729
 31
0.0000000000000000
  0
CIRCLE
  5
568
100
AcDbEntity
  8
MAIN0
  6
HIDDEN
 62
3
100
AcDbCircle
 10
711.1794495803606
 20
963.9981629298728
 30
0.0000000000000000
 40
12.00000000000000
  0
LINE
  5
569
100
AcDbEntity
  8
MAIN0
  6
HIDDEN
 62
3
100
AcDbLine
 10
703.0965458117059
 20
963.9981629298727
 30
0.0000000000000000
 11
707.1379976960335
 21
956.9981629298724
 31
0.0000000000000000
  0
LINE
  5
56A
100
AcDbEntity
  8
MAIN0
  6
HIDDEN
 62
3
100
AcDbLine
 10
707.1379976960332
 20
956.9981629298729
 30
0.0000000000000000
 11
715.2209014646880
 21
956.9981629298729
 31
0.0000000000000000
  0
LINE
  5
56B
100
AcDbEntity
  8
MAIN0
  6
HIDDEN
 62
3
100
AcDbLine
 10
715.2209014646885
 20
956.9981629298725
 30
0.0000000000000000
 11
719.2623533490159
 21
963.9981629298726
 31
0.0000000000000000
  0
LINE
  5
56C
100
AcDbEntity
  8
MAIN0
  6
HIDDEN
 62
3
100
AcDbLine
 10
719.2623533490155
 20
963.9981629298726
 30
0.0000000000000000
 11
715.2209014646883
 21
970.9981629298726
 31
0.0000000000000000
  0
LINE
  5
56D
100
AcDbEntity
  8
MAIN0
  6
HIDDEN
 62
3
100
AcDbLine
 10
715.2209014646880
 20
970.9981629298729
 30
0.0000000000000000
 11
707.1379976960332
 21
970.9981629298729
 31
0.0000000000000000
  0
LINE
  5
56E
100
AcDbEntity
  8
MAIN0
  6
HIDDEN
 62
3
100
AcDbLine
 10
707.1379976960338
 20
970.9981629298726
 30
0.0000000000000000
 11
703.0965458117066
 21
963.9981629298728
 31
0.0000000000000000
  0
CIRCLE
  5
56F
100
AcDbEntity
  8
MAIN0
  6
HIDDEN
 62
3
100
AcDbCircle
 10
651.1794495803606
 20
963.9981629298724
 30
0.0000000000000000
 40
12.00000000000000
  0
LINE
  5
570
100
AcDbEntity
  8
MAIN0
  6
HIDDEN
 62
3
100
AcDbLine
 10
643.0965458117055
 20
963.9981629298723
 30
0.0000000000000000
 11
647.1379976960330
 21
956.9981629298719
 31
0.0000000000000000
  0
LINE
  5
571
100
AcDbEntity
  8
MAIN0
  6
HIDDEN
 62
3
100
AcDbLine
 10
647.1379976960334
 20
956.9981629298726
 30
0.0000000000000000
 11
655.2209014646878
 21
956.9981629298726
 31
0.0000000000000000
  0
LINE
  5
572
100
AcDbEntity
  8
MAIN0
  6
HIDDEN
 62
3
100
AcDbLine
 10
655.2209014646885
 20
956.9981629298721
 30
0.0000000000000000
 11
659.2623533490159
 21
963.9981629298723
 31
0.0000000000000000
  0
LINE
  5
573
100
AcDbEntity
  8
MAIN0
  6
HIDDEN
 62
3
100
AcDbLine
 10
659.2623533490155
 20
963.9981629298724
 30
0.0000000000000000
 11
655.2209014646882
 21
970.9981629298723
 31
0.0000000000000000
  0
LINE
  5
574
100
AcDbEntity
  8
MAIN0
  6
HIDDEN
 62
3
100
AcDbLine
 10
655.2209014646878
 20
970.9981629298726
 30
0.0000000000000000
 11
647.1379976960334
 21
970.9981629298726
 31
0.0000000000000000
  0
LINE
  5
575
100
AcDbEntity
  8
MAIN0
  6
HIDDEN
 62
3
100
AcDbLine
 10
647.1379976960338
 20
970.9981629298723
 30
0.0000000000000000
 11
643.0965458117065
 21
963.9981629298725
 31
0.0000000000000000
  0
CIRCLE
  5
576
100
AcDbEntity
  8
MAIN0
  6
HIDDEN
 62
3
100
AcDbCircle
 10
651.1794495803606
 20
898.9981629298724
 30
0.0000000000000000
 40
12.00000000000000
  0
LINE
  5
577
100
AcDbEntity
  8
MAIN0
  6
HIDDEN
 62
3
100
AcDbLine
 10
643.0965458117055
 20
898.9981629298723
 30
0.0000000000000000
 11
647.1379976960330
 21
891.9981629298719
 31
0.0000000000000000
  0
LINE
  5
578
100
AcDbEntity
  8
MAIN0
  6
HIDDEN
 62
3
100
AcDbLine
 10
647.1379976960333
 20
891.9981629298726
 30
0.0000000000000000
 11
655.2209014646877
 21
891.9981629298726
 31
0.0000000000000000
  0
LINE
  5
579
100
AcDbEntity
  8
MAIN0
  6
HIDDEN
 62
3
100
AcDbLine
 10
655.2209014646880
 20
891.9981629298715
 30
0.0000000000000000
 11
659.2623533490155
 21
898.9981629298716
 31
0.0000000000000000
  0
LINE
  5
57A
100
AcDbEntity
  8
MAIN0
  6
HIDDEN
 62
3
100
AcDbLine
 10
659.2623533490150
 20
898.9981629298720
 30
0.0000000000000000
 11
655.2209014646877
 21
905.9981629298720
 31
0.0000000000000000
  0
LINE
  5
57B
100
AcDbEntity
  8
MAIN0
  6
HIDDEN
 62
3
100
AcDbLine
 10
655.2209014646877
 20
905.9981629298726
 30
0.0000000000000000
 11
647.1379976960333
 21
905.9981629298726
 31
0.0000000000000000
  0
LINE
  5
57C
100
AcDbEntity
  8
MAIN0
  6
HIDDEN
 62
3
100
AcDbLine
 10
647.1379976960334
 20
905.9981629298716
 30
0.0000000000000000
 11
643.0965458117062
 21
898.9981629298719
 31
0.0000000000000000
  0
LINE
  5
57D
100
AcDbEntity
  8
MAIN0
  6
CONTINUOUS
 62
3
100
AcDbLine
 10
1105.179449580451
 20
463.3815010035519
 30
0.0000000000000000
 11
1080.179449580451
 21
463.3815010035519
 31
0.0000000000000000
  0
LINE
  5
57E
100
AcDbEntity
  8
MAIN0
  6
CENTER
 62
3
100
AcDbLine
 10
474.8642992085648
 20
1006.498162929873
 30
0.0000000000000000
 11
517.1794495803621
 21
1006.498162929873
 31
0.0000000000000000
  0
LINE
  5
57F
100
AcDbEntity
  8
MAIN0
  6
CENTER
 62
3
100
AcDbLine
 10
496.1794495803622
 20
987.0032122871237
 30
0.0000000000000000
 11
496.1794495803623
 21
1027.391480505699
 31
0.0000000000000000
  0
LINE
  5
580
100
AcDbEntity
  8
MAIN0
  6
CENTER
 62
3
100
AcDbLine
 10
418.0277753564921
 20
1006.498162929873
 30
0.0000000000000000
 11
457.0846793730158
 21
1006.498162929873
 31
0.0000000000000000
  0
LINE
  5
581
100
AcDbEntity
  8
MAIN0
  6
CENTER
 62
3
100
AcDbLine
 10
436.1794495803620
 20
987.0032122871236
 30
0.0000000000000000
 11
436.1794495803621
 21
1026.808529047261
 31
0.0000000000000000
  0
LINE
  5
582
100
AcDbEntity
  8
MAIN0
  6
CONTINUOUS
 62
3
100
AcDbLine
 10
1080.179449580451
 20
530.3815010035523
 30
0.0000000000000000
 11
1105.179449580451
 21
530.3815010035523
 31
0.0000000000000000
  0
LINE
  5
583
100
AcDbEntity
  8
MAIN0
  6
CONTINUOUS
 62
3
100
AcDbLine
 10
1124.179449580450
 20
520.3815010035519
 30
0.0000000000000000
 11
1105.179449580451
 21
520.3815010035519
 31
0.0000000000000000
  0
LINE
  5
584
100
AcDbEntity
  8
MAIN0
  6
CONTINUOUS
 62
3
100
AcDbLine
 10
1124.179449580450
 20
470.3815010035515
 30
0.0000000000000000
 11
1105.179449580451
 21
470.3815010035515
 31
0.0000000000000000
  0
LINE
  5
585
100
AcDbEntity
  8
MAIN0
  6
CONTINUOUS
 62
3
100
AcDbLine
 10
1124.179449580451
 20
520.3815010035515
 30
0.0000000000000000
 11
1124.179449580450
 21
470.3815010035515
 31
0.0000000000000000
  0
LINE
  5
586
100
AcDbEntity
  8
MAIN0
  6
CONTINUOUS
 62
3
100
AcDbLine
 10
1080.179449580451
 20
467.3815010035521
 30
0.0000000000000000
 11
1080.179449580451
 21
457.8815010033842
 31
0.0000000000000000
  0
LINE
  5
587
100
AcDbEntity
  8
MAIN0
  6
CONTINUOUS
 62
3
100
AcDbLine
 10
1105.179449580451
 20
463.3815010035519
 30
0.0000000000000000
 11
1105.179449580451
 21
530.3815010035519
 31
0.0000000000000000
  0
LINE
  5
588
100
AcDbEntity
  8
MAIN0
  6
CONTINUOUS
 62
3
100
AcDbLine
 10
1080.179449580389
 20
457.8815010033841
 30
0.0000000000000000
 11
1080.179449580451
 21
530.3815010035519
 31
0.0000000000000000
  0
LINE
  5
589
100
AcDbEntity
  8
WAKU0
  6
CONTINUOUS
 62
3
100
AcDbLine
 10
240.0000000000000
 20
51.00000000000000
 30
0.0000000000000000
 11
410.0000000000000
 21
51.00000000000000
 31
0.0000000000000000
  0
LINE
  5
58A
100
AcDbEntity
  8
WAKU0
  6
CONTINUOUS
 62
3
100
AcDbLine
 10
240.0000000000000
 20
51.00000000000000
 30
0.0000000000000000
 11
240.0000000000000
 21
12.00000000000000
 31
0.0000000000000000
  0
LINE
  5
58B
100
AcDbEntity
  8
WAKU0
  6
CONTINUOUS
 62
3
100
AcDbLine
 10
312.0000000000000
 20
51.00000000000000
 30
0.0000000000000000
 11
312.0000000000000
 21
12.00000000000000
 31
0.0000000000000000
  0
LINE
  5
58C
100
AcDbEntity
  8
WAKU0
  6
CONTINUOUS
 62
3
100
AcDbLine
 10
332.0000000000000
 20
51.00000000000000
 30
0.0000000000000000
 11
332.0000000000000
 21
12.00000000000000
 31
0.0000000000000000
  0
LINE
  5
58D
100
AcDbEntity
  8
WAKU0
  6
CONTINUOUS
 62
3
100
AcDbLine
 10
344.0000000000000
 20
51.00000000000000
 30
0.0000000000000000
 11
344.0000000000000
 21
12.00000000000000
 31
0.0000000000000000
  0
LINE
  5
58E
100
AcDbEntity
  8
WAKU0
  6
CONTINUOUS
 62
3
100
AcDbLine
 10
344.0000000000000
 20
37.00000000000000
 30
0.0000000000000000
 11
410.0000000000000
 21
37.00000000000000
 31
0.0000000000000000
  0
LINE
  5
58F
100
AcDbEntity
  8
WAKU0
  6
CONTINUOUS
 62
3
100
AcDbLine
 10
332.0000000000000
 20
23.00000000000000
 30
0.0000000000000000
 11
410.0000000000000
 21
23.00000000000000
 31
0.0000000000000000
  0
LINE
  5
590
100
AcDbEntity
  8
WAKU0
  6
CONTINUOUS
 62
3
100
AcDbLine
 10
375.0000000000000
 20
51.00000000000000
 30
0.0000000000000000
 11
375.0000000000000
 21
44.00000000000000
 31
0.0000000000000000
  0
LINE
  5
591
100
AcDbEntity
  8
WAKU0
  6
CONTINUOUS
 62
3
100
AcDbLine
 10
387.0000000000000
 20
51.00000000000000
 30
0.0000000000000000
 11
387.0000000000000
 21
44.00000000000000
 31
0.0000000000000000
  0
LINE
  5
592
100
AcDbEntity
  8
WAKU0
  6
CONTINUOUS
 62
3
100
AcDbLine
 10
312.0000000000000
 20
31.50000000000000
 30
0.0000000000000000
 11
332.0000000000000
 21
31.50000000000000
 31
0.0000000000000000
  0
LINE
  5
593
100
AcDbEntity
  8
WAKU0
  6
CONTINUOUS
 62
3
100
AcDbLine
 10
332.0000000000000
 20
44.00000000000000
 30
0.0000000000000000
 11
410.0000000000000
 21
44.00000000000000
 31
0.0000000000000000
  0
LINE
  5
594
100
AcDbEntity
  8
WAKU0
  6
CONTINUOUS
 62
3
100
AcDbLine
 10
240.0000000000000
 20
37.00000000000000
 30
0.0000000000000000
 11
312.0000000000000
 21
37.00000000000000
 31
0.0000000000000000
  0
LINE
  5
595
100
AcDbEntity
  8
WAKU0
  6
CONTINUOUS
 62
3
100
AcDbLine
 10
240.0000000000000
 20
23.00000000000000
 30
0.0000000000000000
 11
312.0000000000000
 21
23.00000000000000
 31
0.0000000000000000
  0
LINE
  5
596
100
AcDbEntity
  8
WAKU0
  6
CONTINUOUS
 62
3
100
AcDbLine
 10
288.0000000000000
 20
37.00000000000000
 30
0.0000000000000000
 11
288.0000000000000
 21
12.00000000000000
 31
0.0000000000000000
  0
LINE
  5
597
100
AcDbEntity
  8
WAKU0
  6
CONTINUOUS
 62
3
100
AcDbLine
 10
264.0000000000000
 20
37.00000000000000
 30
0.0000000000000000
 11
264.0000000000000
 21
23.00000000000000
 31
0.0000000000000000
  0
LINE
  5
598
100
AcDbEntity
  8
WAKU0
  6
CONTINUOUS
 62
3
100
AcDbLine
 10
300.0000000000000
 20
26.00000000000000
 30
0.0000000000000000
 11
300.0000000000000
 21
23.00000000000000
 31
0.0000000000000000
  0
LINE
  5
599
100
AcDbEntity
  8
WAKU0
  6
CONTINUOUS
 62
3
100
AcDbLine
 10
276.0000000000000
 20
26.00000000000000
 30
0.0000000000000000
 11
276.0000000000000
 21
23.00000000000000
 31
0.0000000000000000
  0
LINE
  5
59A
100
AcDbEntity
  8
WAKU0
  6
CONTINUOUS
 62
3
100
AcDbLine
 10
252.0000000000000
 20
26.00000000000000
 30
0.0000000000000000
 11
252.0000000000000
 21
23.00000000000000
 31
0.0000000000000000
  0
LINE
  5
59B
100
AcDbEntity
  8
WAKU0
  6
CONTINUOUS
 62
3
100
AcDbLine
 10
258.0000000000000
 20
51.00000000000000
 30
0.0000000000000000
 11
258.0000000000000
 21
37.00000000000000
 31
0.0000000000000000
  0
LINE
  5
59C
100
AcDbEntity
  8
WAKU0
  6
CONTINUOUS
 62
3
100
AcDbLine
 10
240.0000000000000
 20
45.00000000000000
 30
0.0000000000000000
 11
312.0000000000000
 21
45.00000000000000
 31
0.0000000000000000
  0
LINE
  5
59D
100
AcDbEntity
  8
WAKU0
  6
HIDDEN
 62
3
100
AcDbLine
 10
360.5000000000000
 20
23.00000000000000
 30
0.0000000000000000
 11
360.5000000000000
 21
12.00000000000000
 31
0.0000000000000000
  0
LINE
  5
59E
100
AcDbEntity
  8
WAKU0
  6
HIDDEN
 62
3
100
AcDbLine
 10
372.9000000000000
 20
23.00000000000000
 30
0.0000000000000000
 11
372.9000000000000
 21
12.00000000000000
 31
0.0000000000000000
  0
MTEXT
  5
59F
100
AcDbEntity
  8
WAKU0
  6
CONTINUOUS
 62
3
100
AcDbMText
 10
344.4820000243485
 20
49.04999995231628
 30
0.0000000000000000
 40
3.099999904632568
 41
0.0000000000000000
 71
     1
 72
     1
  1
{\H0.92x;{VE200LN}}
 11
1.000000000000000
 21
0.0000000000000000
 31
0.0000000000000000
  7
STANDARD
  0
MTEXT
  5
5A0
100
AcDbEntity
  8
WAKU0
  6
CONTINUOUS
 62
3
100
AcDbMText
 10
360.3350002765656
 20
43.50000000000000
 30
0.0000000000000000
 40
3.000000000000000
 41
0.0000000000000000
 71
     1
 72
     1
  1
{\H0.94x;{パワーバイス\PＰＯＷＥＲ　ＶＩＳＥ}}
 11
1.000000000000000
 21
0.0000000000000000
 31
0.0000000000000000
  7
KNJYOKO
  0
MTEXT
  5
5A1
100
AcDbEntity
  8
WAKU0
  6
CONTINUOUS
 62
3
100
AcDbMText
 10
348.9999989867210
 20
34.83333333333333
 30
0.0000000000000000
 40
4.000000000000000
 41
0.0000000000000000
 71
     1
 72
     1
  1
{\H0.59x;{ＶＥ２００ＬＮ　ガイケイ\PＶＥ２００ＬＮ　ＯＵＴＳＩＤＥ　ＶＩＥＷ}}
 11
1.000000000000000
 21
0.0000000000000000
 31
0.0000000000000000
  7
KNJYOKO
  0
MTEXT
  5
5A2
100
AcDbEntity
  8
WAKU0
  6
CONTINUOUS
 62
3
100
AcDbMText
 10
318.0049998760223
 20
39.29999995231628
 30
0.0000000000000000
 40
3.099999904632568
 41
0.0000000000000000
 71
     1
 72
     1
  1
{\H0.90x;{1:4}}
 11
1.000000000000000
 21
0.0000000000000000
 31
0.0000000000000000
  7
STANDARD
  0
MTEXT
  5
5A3
100
AcDbEntity
  8
WAKU0
  6
CONTINUOUS
 62
3
100
AcDbMText
 10
374.4000001549721
 20
20.15000009536743
 30
0.0000000000000000
 40
5.300000190734863
 41
0.0000000000000000
 71
     1
 72
     1
  1
{\H0.90x;{6437}}
 11
1.000000000000000
 21
0.0000000000000000
 31
0.0000000000000000
  7
STANDARD
  0
MTEXT
  5
5A4
100
AcDbEntity
  8
WAKU0
  6
CONTINUOUS
 62
3
100
AcDbMText
 10
362.3000000834465
 20
20.15000009536743
 30
0.0000000000000000
 40
5.300000190734863
 41
0.0000000000000000
 71
     1
 72
     1
  1
{\H0.87x;{39}}
 11
1.000000000000000
 21
0.0000000000000000
 31
0.0000000000000000
  7
STANDARD
  0
MTEXT
  5
5A5
100
AcDbEntity
  8
WAKU0
  6
CONTINUOUS
 62
3
100
AcDbMText
 10
345.5000001192093
 20
20.15000009536743
 30
0.0000000000000000
 40
5.300000190734863
 41
0.0000000000000000
 71
     1
 72
     1
  1
{\H0.89x;{61M}}
 11
1.000000000000000
 21
0.0000000000000000
 31
0.0000000000000000
  7
STANDARD
  0
MTEXT
  5
5A6
100
AcDbEntity
  8
WAKU0
  6
CONTINUOUS
 62
3
100
AcDbMText
 10
400.0000000476837
 20
20.15000009536743
 30
0.0000000000000000
 40
5.300000190734863
 41
0.0000000000000000
 71
     1
 72
     1
  1
{\H0.81x;{0}}
 11
1.000000000000000
 21
0.0000000000000000
 31
0.0000000000000000
  7
STANDARD
  0
MTEXT
  5
5A7
100
AcDbEntity
  8
WAKU0
  6
CONTINUOUS
 62
3
100
AcDbMText
 10
400.0000000819564
 20
44.84999990463257
 30
0.0000000000000000
 40
5.300000190734863
 41
0.0000000000000000
 71
     7
 72
     1
  1
{\H0.81x;{ }}
 11
1.000000000000000
 21
0.0000000000000000
 31
0.0000000000000000
  7
STANDARD
  0
MTEXT
  5
5A8
100
AcDbEntity
  8
WAKU0
  6
CONTINUOUS
 62
3
100
AcDbMText
 10
289.3850002884865
 20
33.00000000000000
 30
0.0000000000000000
 40
3.000000000000000
 41
0.0000000000000000
 71
     7
 72
     1
  1
{\H0.93x;{DRAWN BY}}
 11
1.000000000000000
 21
0.0000000000000000
 31
0.0000000000000000
  7
STANDARD
  0
MTEXT
  5
5A9
100
AcDbEntity
  8
WAKU0
  6
CONTINUOUS
 62
3
100
AcDbMText
 10
269.2149997949600
 20
32.95000004768372
 30
0.0000000000000000
 40
3.099999904632568
 41
0.0000000000000000
 71
     7
 72
     1
  1
{\H0.92x;{CHIEF}}
 11
1.000000000000000
 21
0.0000000000000000
 31
0.0000000000000000
  7
STANDARD
  0
MTEXT
  5
5AA
100
AcDbEntity
  8
WAKU0
  6
CONTINUOUS
 62
3
100
AcDbMText
 10
242.4249997138977
 20
32.95000004768372
 30
0.0000000000000000
 40
3.099999904632568
 41
0.0000000000000000
 71
     7
 72
     1
  1
{\H0.92x;{MANAGER}}
 11
1.000000000000000
 21
0.0000000000000000
 31
0.0000000000000000
  7
STANDARD
  0
MTEXT
  5
5AB
100
AcDbEntity
  8
WAKU0
  6
CONTINUOUS
 62
3
100
AcDbMText
 10
244.6599994301796
 20
18.13333336512248
 30
0.0000000000000000
 40
3.099999904632568
 41
0.0000000000000000
 71
     7
 72
     1
  1
{\H0.93x;{KITAGAWA IRON\PWORKS CO.,LTD.}}
 11
1.000000000000000
 21
0.0000000000000000
 31
0.0000000000000000
  7
STANDARD
  0
MTEXT
  5
5AC
100
AcDbEntity
  8
WAKU0
  6
CONTINUOUS
 62
3
100
AcDbMText
 10
241.0850002169609
 20
46.50000000000000
 30
0.0000000000000000
 40
3.000000000000000
 41
0.0000000000000000
 71
     7
 72
     1
  1
{\H0.92x;{CAREER}}
 11
1.000000000000000
 21
0.0000000000000000
 31
0.0000000000000000
  7
STANDARD
  0
MTEXT
  5
5AD
100
AcDbEntity
  8
WAKU0
  6
CONTINUOUS
 62
3
100
AcDbMText
 10
294.6099998354912
 20
18.95000004768372
 30
0.0000000000000000
 40
3.099999904632568
 41
0.0000000000000000
 71
     7
 72
     1
  1
{\H0.91x;{DATE}}
 11
1.000000000000000
 21
0.0000000000000000
 31
0.0000000000000000
  7
STANDARD
  0
MTEXT
  5
5AE
100
AcDbEntity
  8
WAKU0
  6
CONTINUOUS
 62
3
100
AcDbMText
 10
313.9000002145767
 20
26.50000000000000
 30
0.0000000000000000
 40
3.000000000000000
 41
0.0000000000000000
 71
     7
 72
     1
  1
{\H0.63x;{3RD ANGLE}}
 11
1.000000000000000
 21
0.0000000000000000
 31
0.0000000000000000
  7
STANDARD
  0
MTEXT
  5
5AF
100
AcDbEntity
  8
WAKU0
  6
CONTINUOUS
 62
3
100
AcDbMText
 10
315.2149997949600
 20
45.95000004768372
 30
0.0000000000000000
 40
3.099999904632568
 41
0.0000000000000000
 71
     7
 72
     1
  1
{\H0.92x;{SCALE}}
 11
1.000000000000000
 21
0.0000000000000000
 31
0.0000000000000000
  7
STANDARD
  0
MTEXT
  5
5B0
100
AcDbEntity
  8
WAKU0
  6
CONTINUOUS
 62
3
100
AcDbMText
 10
405.7000000476837
 20
46.00000000000000
 30
0.0000000000000000
 40
3.000000000000000
 41
0.0000000000000000
 71
     7
 72
     1
  1
{\H0.63x;{kg}}
 11
1.000000000000000
 21
0.0000000000000000
 31
0.0000000000000000
  7
STANDARD
  0
MTEXT
  5
5B1
100
AcDbEntity
  8
WAKU0
  6
CONTINUOUS
 62
3
100
AcDbMText
 10
375.6000001430512
 20
46.00000000000000
 30
0.0000000000000000
 40
3.000000000000000
 41
0.0000000000000000
 71
     7
 72
     1
  1
{\H0.63x;{WEIGHT}}
 11
1.000000000000000
 21
0.0000000000000000
 31
0.0000000000000000
  7
STANDARD
  0
MTEXT
  5
5B2
100
AcDbEntity
  8
WAKU0
  6
CONTINUOUS
 62
3
100
AcDbMText
 10
334.0049998760223
 20
18.13333336512248
 30
0.0000000000000000
 40
3.099999904632568
 41
0.0000000000000000
 71
     7
 72
     1
  1
{\H0.90x;{DRW\PNO.}}
 11
1.000000000000000
 21
0.0000000000000000
 31
0.0000000000000000
  7
STANDARD
  0
MTEXT
  5
5B3
100
AcDbEntity
  8
WAKU0
  6
CONTINUOUS
 62
3
100
AcDbMText
 10
332.6099998354912
 20
31.95000004768372
 30
0.0000000000000000
 40
3.099999904632568
 41
0.0000000000000000
 71
     7
 72
     1
  1
{\H0.91x;{NAME}}
 11
1.000000000000000
 21
0.0000000000000000
 31
0.0000000000000000
  7
STANDARD
  0
MTEXT
  5
5B4
100
AcDbEntity
  8
WAKU0
  6
CONTINUOUS
 62
3
100
AcDbMText
 10
332.6099998354912
 20
45.95000004768372
 30
0.0000000000000000
 40
3.099999904632568
 41
0.0000000000000000
 71
     7
 72
     1
  1
{\H0.91x;{TYPE}}
 11
1.000000000000000
 21
0.0000000000000000
 31
0.0000000000000000
  7
STANDARD
  0
LINE
  5
5B5
100
AcDbEntity
  8
WAKU0
  6
HIDDEN
 62
3
100
AcDbLine
 10
407.1599564743885
 20
13.84999990463257
 30
0.0000000000000000
 11
396.9400436209789
 21
13.84999990463257
 31
0.0000000000000000
  0
LINE
  5
5B6
100
AcDbEntity
  8
WAKU0
  6
HIDDEN
 62
3
100
AcDbLine
 10
407.1599564743885
 20
13.84999990463250
 30
0.0000000000000000
 11
402.0500000476852
 21
22.70070406014901
 31
0.0000000000000000
  0
LINE
  5
5B7
100
AcDbEntity
  8
WAKU0
  6
HIDDEN
 62
3
100
AcDbLine
 10
402.0500000476852
 20
22.70070406014902
 30
0.0000000000000000
 11
396.9400436209789
 21
13.84999990463248
 31
0.0000000000000000
  0
LINE
  5
5B8
100
AcDbEntity
  8
WAKU0
  6
CONTINUOUS
 62
3
100
AcDbLine
 10
330.4713877753800
 20
15.78041421262812
 30
0.0000000000000000
 11
330.4713877753800
 21
21.78041421262815
 31
0.0000000000000000
  0
LINE
  5
5B9
100
AcDbEntity
  8
WAKU0
  6
CONTINUOUS
 62
3
100
AcDbLine
 10
323.9336941228225
 20
17.28041421262811
 30
0.0000000000000000
 11
323.9336941228225
 21
20.28041421262824
 31
0.0000000000000000
  0
LINE
  5
5BA
100
AcDbEntity
  8
WAKU0
  6
CENTER
 62
12
100
AcDbLine
 10
313.4321805514995
 20
18.78041421262813
 30
0.0000000000000000
 11
331.2765788964694
 21
18.78041421262813
 31
0.0000000000000000
  0
LINE
  5
5BB
100
AcDbEntity
  8
WAKU0
  6
CENTER
 62
12
100
AcDbLine
 10
317.4474565857986
 20
14.55921662918448
 30
0.0000000000000000
 11
317.4474565857986
 21
22.89865102149943
 31
0.0000000000000000
  0
LINE
  5
5BC
100
AcDbEntity
  8
WAKU0
  6
CONTINUOUS
 62
3
100
AcDbLine
 10
323.9336941228225
 20
20.28041421262797
 30
0.0000000000000000
 11
330.4713877753800
 21
21.78041421262795
 31
0.0000000000000000
  0
LINE
  5
5BD
100
AcDbEntity
  8
WAKU0
  6
CONTINUOUS
 62
3
100
AcDbLine
 10
323.9336941228225
 20
17.28041421262811
 30
0.0000000000000000
 11
330.4713877753799
 21
15.78041421262812
 31
0.0000000000000000
  0
CIRCLE
  5
5BE
100
AcDbEntity
  8
WAKU0
  6
CONTINUOUS
 62
3
100
AcDbCircle
 10
317.4474565857986
 20
18.78041421262813
 30
0.0000000000000000
 40
1.499999999999972
  0
CIRCLE
  5
5BF
100
AcDbEntity
  8
WAKU0
  6
CONTINUOUS
 62
3
100
AcDbCircle
 10
317.4474565857986
 20
18.78041421262813
 30
0.0000000000000000
 40
2.999999999999979
  0
LINE
  5
5C0
100
AcDbEntity
  8
A0
  6
CONTINUOUS
 62
3
100
AcDbLine
 10
199.2337657297720
 20
272.4382954840029
 30
0.0000000000000000
 11
199.2337657297720
 21
157.9382977489748
 31
0.0000000000000000
  0
LINE
  5
5C1
100
AcDbEntity
  8
A0
  6
CONTINUOUS
 62
3
100
AcDbLine
 10
66.23376620656197
 20
259.6882957227363
 30
0.0000000000000000
 11
199.2337657297720
 21
259.6882957227954
 31
0.0000000000000000
  0
LINE
  5
5C2
100
AcDbEntity
  8
A0
  6
CONTINUOUS
 62
3
100
AcDbLine
 10
66.23376620656094
 20
272.4382954838850
 30
0.0000000000000000
 11
199.2337657297720
 21
272.4382954840030
 31
0.0000000000000000
  0
MTEXT
  5
5C3
100
AcDbEntity
  8
A0
  6
CONTINUOUS
 62
3
100
AcDbMText
 10
83.10876501449260
 20
269.9382954843475
 30
0.0000000000000000
 40
7.749999761581421
 41
0.0000000000000000
 71
     1
 72
     1
  1
{\H0.71x;{仕様　　SPECIFICATIONS}}
 11
1.000000000000000
 21
0.0000000000000000
 31
0.0000000000000000
  7
KNJYOKO
  0
MTEXT
  5
5C4
100
AcDbEntity
  8
A0
  6
CONTINUOUS
 62
3
100
AcDbMText
 10
155.2337647760666
 20
253.3132958416834
 30
0.0000000000000000
 40
7.749999761581421
 41
0.0000000000000000
 71
     1
 72
     1
  1
{\H0.70x;{０～４０５mm}}
 11
1.000000000000000
 21
0.0000000000000000
 31
0.0000000000000000
  7
KNJYOKO
  0
MTEXT
  5
5C5
100
AcDbEntity
  8
A0
  6
CONTINUOUS
 62
3
100
AcDbMText
 10
67.48376620657811
 20
248.1882959608927
 30
0.0000000000000000
 40
7.749999761581421
 41
0.0000000000000000
 71
     1
 72
     1
  1
{\H0.71x;{CLAMPING RANGE}}
 11
1.000000000000000
 21
0.0000000000000000
 31
0.0000000000000000
  7
STANDARD
  0
LINE
  5
5C6
100
AcDbEntity
  8
A0
  6
CONTINUOUS
 62
3
100
AcDbLine
 10
66.23376620656346
 20
239.1882961991406
 30
0.0000000000000000
 11
199.2337657297720
 21
239.1882961992585
 31
0.0000000000000000
  0
LINE
  5
5C7
100
AcDbEntity
  8
A0
  6
CONTINUOUS
 62
3
100
AcDbLine
 10
153.9837647760644
 20
259.6882957227732
 30
0.0000000000000000
 11
153.9837647760644
 21
239.1882961992139
 31
0.0000000000000000
  0
MTEXT
  5
5C8
100
AcDbEntity
  8
A0
  6
CONTINUOUS
 62
3
100
AcDbMText
 10
67.48376620657811
 20
227.6882964377298
 30
0.0000000000000000
 40
7.749999761581421
 41
0.0000000000000000
 71
     1
 72
     1
  1
{\H0.71x;{TIGHTENING TORQUE}}
 11
1.000000000000000
 21
0.0000000000000000
 31
0.0000000000000000
  7
STANDARD
  0
LINE
  5
5C9
100
AcDbEntity
  8
A0
  6
CONTINUOUS
 62
3
100
AcDbLine
 10
199.2337657297719
 20
218.6882966764697
 30
0.0000000000000000
 11
66.23376620656508
 21
218.6882966764106
 31
0.0000000000000000
  0
LINE
  5
5CA
100
AcDbEntity
  8
A0
  6
CONTINUOUS
 62
3
100
AcDbLine
 10
153.9837647760644
 20
218.6882966764475
 30
0.0000000000000000
 11
153.9837647760644
 21
157.9382977489348
 31
0.0000000000000000
  0
LINE
  5
5CB
100
AcDbEntity
  8
A0
  6
CONTINUOUS
 62
3
100
AcDbLine
 10
153.9837647760643
 20
198.1882971532848
 30
0.0000000000000000
 11
199.2337657297720
 21
198.1882971533048
 31
0.0000000000000000
  0
MTEXT
  5
5CC
100
AcDbEntity
  8
A0
  6
CONTINUOUS
 62
3
100
AcDbMText
 10
160.2337652529038
 20
196.9382971526073
 30
0.0000000000000000
 40
7.749999761581421
 41
0.0000000000000000
 71
     1
 72
     1
  1
{\H0.67x;{2}}
 11
1.000000000000000
 21
0.0000000000000000
 31
0.0000000000000000
  7
STANDARD
  0
LINE
  5
5CD
100
AcDbEntity
  8
A0
  6
CONTINUOUS
 62
3
100
AcDbLine
 10
199.2337657297719
 20
177.6882973917254
 30
0.0000000000000000
 11
66.23376620656750
 21
177.6882973916663
 31
0.0000000000000000
  0
MTEXT
  5
5CE
100
AcDbEntity
  8
A0
  6
CONTINUOUS
 62
3
100
AcDbMText
 10
160.2337652529038
 20
186.6882971529856
 30
0.0000000000000000
 40
7.749999761581421
 41
0.0000000000000000
 71
     1
 72
     1
  1
{\H0.67x;{3}}
 11
1.000000000000000
 21
0.0000000000000000
 31
0.0000000000000000
  7
STANDARD
  0
LINE
  5
5CF
100
AcDbEntity
  8
A0
  6
CONTINUOUS
 62
3
100
AcDbLine
 10
153.9837647760642
 20
208.4382969144699
 30
0.0000000000000000
 11
199.2337657297719
 21
208.4382969145100
 31
0.0000000000000000
  0
LINE
  5
5D0
100
AcDbEntity
  8
A0
  6
CONTINUOUS
 62
3
100
AcDbLine
 10
171.1325596459459
 20
218.6882966764551
 30
0.0000000000000000
 11
171.1325596459459
 21
177.6882973917132
 31
0.0000000000000000
  0
MTEXT
  5
5D1
100
AcDbEntity
  8
A0
  6
CONTINUOUS
 62
3
100
AcDbMText
 10
174.9548188980665
 20
207.1882969141878
 30
0.0000000000000000
 40
7.749999761581421
 41
0.0000000000000000
 71
     1
 72
     1
  1
{\H0.70x;{20KN}}
 11
1.000000000000000
 21
0.0000000000000000
 31
0.0000000000000000
  7
STANDARD
  0
MTEXT
  5
5D2
100
AcDbEntity
  8
A0
  6
CONTINUOUS
 62
3
100
AcDbMText
 10
174.9548188980665
 20
196.9382971526064
 30
0.0000000000000000
 40
7.749999761581421
 41
0.0000000000000000
 71
     1
 72
     1
  1
{\H0.70x;{32KN}}
 11
1.000000000000000
 21
0.0000000000000000
 31
0.0000000000000000
  7
STANDARD
  0
MTEXT
  5
5D3
100
AcDbEntity
  8
A0
  6
CONTINUOUS
 62
3
100
AcDbMText
 10
174.9548188980665
 20
186.6882971529847
 30
0.0000000000000000
 40
7.749999761581421
 41
0.0000000000000000
 71
     1
 72
     1
  1
{\H0.70x;{45KN}}
 11
1.000000000000000
 21
0.0000000000000000
 31
0.0000000000000000
  7
STANDARD
  0
MTEXT
  5
5D4
100
AcDbEntity
  8
A0
  6
CONTINUOUS
 62
3
100
AcDbMText
 10
160.2337652529038
 20
207.1882969141888
 30
0.0000000000000000
 40
7.749999761581421
 41
0.0000000000000000
 71
     1
 72
     1
  1
{\H0.67x;{1}}
 11
1.000000000000000
 21
0.0000000000000000
 31
0.0000000000000000
  7
STANDARD
  0
MTEXT
  5
5D5
100
AcDbEntity
  8
A0
  6
CONTINUOUS
 62
3
100
AcDbMText
 10
165.6125784232381
 20
171.3132975106032
 30
0.0000000000000000
 40
7.749999761581421
 41
0.0000000000000000
 71
     1
 72
     1
  1
{\H0.70x;{108kg}}
 11
1.000000000000000
 21
0.0000000000000000
 31
0.0000000000000000
  7
STANDARD
  0
MTEXT
  5
5D6
100
AcDbEntity
  8
A0
  6
CONTINUOUS
 62
3
100
AcDbMText
 10
67.48376620657811
 20
166.1882976298227
 30
0.0000000000000000
 40
6.999999880790710
 41
0.0000000000000000
 71
     1
 72
     1
  1
{\H0.67x;{MASS OF POWER VISE}}
 11
1.000000000000000
 21
0.0000000000000000
 31
0.0000000000000000
  7
STANDARD
  0
MTEXT
  5
5D7
100
AcDbEntity
  8
A0
  6
CONTINUOUS
 62
3
100
AcDbMText
 10
67.48376620657811
 20
176.4382973914042
 30
0.0000000000000000
 40
7.749999761581421
 41
0.0000000000000000
 71
     1
 72
     1
  1
{\H0.70x;{製品質量}}
 11
1.000000000000000
 21
0.0000000000000000
 31
0.0000000000000000
  7
KNJYOKO
  0
MTEXT
  5
5D8
100
AcDbEntity
  8
A0
  6
CONTINUOUS
 62
3
100
AcDbMText
 10
67.48376620657811
 20
207.1882969145670
 30
0.0000000000000000
 40
7.749999761581421
 41
0.0000000000000000
 71
     1
 72
     1
  1
{\H0.71x;{CLAMP RANGE}}
 11
1.000000000000000
 21
0.0000000000000000
 31
0.0000000000000000
  7
STANDARD
  0
MTEXT
  5
5D9
100
AcDbEntity
  8
A0
  6
CONTINUOUS
 62
3
100
AcDbMText
 10
67.48376620657811
 20
217.4382966761484
 30
0.0000000000000000
 40
7.749999761581421
 41
0.0000000000000000
 71
     1
 72
     1
  1
{\H0.70x;{締付けレンジ}}
 11
1.000000000000000
 21
0.0000000000000000
 31
0.0000000000000000
  7
KNJYOKO
  0
LINE
  5
5DA
100
AcDbEntity
  8
A0
  6
CONTINUOUS
 62
3
100
AcDbLine
 10
66.23376620656100
 20
272.4382954838846
 30
0.0000000000000000
 11
66.23376620656917
 21
157.9382977488612
 31
0.0000000000000000
  0
LINE
  5
5DB
100
AcDbEntity
  8
A0
  6
CONTINUOUS
 62
3
100
AcDbLine
 10
199.2337657297719
 20
157.9382977489795
 30
0.0000000000000000
 11
66.23376620656909
 21
157.9382977488615
 31
0.0000000000000000
  0
MTEXT
  5
5DC
100
AcDbEntity
  8
A0
  6
CONTINUOUS
 62
3
100
AcDbMText
 10
67.48376620657811
 20
237.9382961993113
 30
0.0000000000000000
 40
7.749999761581421
 41
0.0000000000000000
 71
     1
 72
     1
  1
{\H0.70x;{締付トルク}}
 11
1.000000000000000
 21
0.0000000000000000
 31
0.0000000000000000
  7
KNJYOKO
  0
MTEXT
  5
5DD
100
AcDbEntity
  8
A0
  6
CONTINUOUS
 62
3
100
AcDbMText
 10
67.48376620657811
 20
258.4382957224741
 30
0.0000000000000000
 40
7.749999761581421
 41
0.0000000000000000
 71
     1
 72
     1
  1
{\H0.70x;{口金の開き}}
 11
1.000000000000000
 21
0.0000000000000000
 31
0.0000000000000000
  7
KNJYOKO
  0
LINE
  5
5DE
100
AcDbEntity
  8
A0
  6
CONTINUOUS
 62
3
100
AcDbLine
 10
153.9837647760644
 20
187.9382971532848
 30
0.0000000000000000
 11
199.2337657297720
 21
187.9382971533048
 31
0.0000000000000000
  0
MTEXT
  5
5DF
100
AcDbEntity
  8
A0
  6
CONTINUOUS
 62
3
100
AcDbMText
 10
174.9548188980665
 20
217.4382966761475
 30
0.0000000000000000
 40
7.749999761581421
 41
0.0000000000000000
 71
     1
 72
     1
  1
{\H0.70x;{10KN}}
 11
1.000000000000000
 21
0.0000000000000000
 31
0.0000000000000000
  7
STANDARD
  0
MTEXT
  5
5E0
100
AcDbEntity
  8
A0
  6
CONTINUOUS
 62
3
100
AcDbMText
 10
160.2337652529038
 20
217.4382966761484
 30
0.0000000000000000
 40
7.749999761581421
 41
0.0000000000000000
 71
     1
 72
     1
  1
{\H0.67x;{0}}
 11
1.000000000000000
 21
0.0000000000000000
 31
0.0000000000000000
  7
STANDARD
  0
ENDSEC
  0
SECTION
  2
OBJECTS
  0
DICTIONARY
  5
640
100
AcDbDictionary
  3
ACAD_GROUP
350
641
  3
ACAD_MLINESTYLE
350
642
  3
DWGPROPS
350
643
  0
DICTIONARY
  5
641
102
{ACAD_REACTORS
330
640
102
}
100
AcDbDictionary
  0
DICTIONARY
  5
642
102
{ACAD_REACTORS
330
640
102
}
100
AcDbDictionary
  3
STANDARD
350
644
  0
MLINESTYLE
  5
644
102
{ACAD_REACTORS
330
642
102
}
100
AcDbMlineStyle
  2
STANDARD
 70
     0
  3

 62
   256
 51
90.00
 52
90.00
 71
     2
 49
0.50
 62
   256
  6
BYLAYER
 49
-0.50
 62
   256
  6
BYLAYER
  0
XRECORD
  5
643
102
{ACAD_REACTORS
330
640
102
}
100
AcDbXrecord
280
     1
  1
DWGPROPS COOKIE
  2
ＶＥ２００Ｌ　ガイケイ
  3

  4

  6
パワーバイス
  7

  8

  9

300
=
301
=
302
=
303
=
304
=
305
=
306
=
307
=
308
=
309
=
 40
0.000000
 41
0.000000
 42
0.000000
  1

 90
        0
  0
ENDSEC
  0
EOF
