  0
SECTION
  2
HEADER
  9
$ACADVER
  1
AC1014
  9
$DWGCODEPAGE
  3
ANSI_932
  9
$LTSCALE
 40
20.0
  9
$FILLMODE
 70
     1
  9
$CLAYER
  8
0
  9
$PDMODE
 70
     0
  9
$SPLFRAME
 70
     0
  9
$SPLINETYPE
 70
     6
  9
$SPLINESEGS
 70
     8
  9
$DIMASZ
 40
2.000000
  9
$DIMEXE
 40
2.000000
  9
$DIMEXO
 40
0.800000
  9
$DIMTAD
 70
     1
  9
$DIMTIH
 70
     0
  9
$DIMTOH
 70
     0
  9
$DIMTVP
 40
0.500000
  9
$DIMTXT
 40
3.100000
  9
$EXTMIN
 10
0.000000
 20
0.000000
 30
0.000000
  9
$EXTMAX
 10
297.000000
 20
420.000000
 30
0.000000
  9
$MEASUREMENT
 70
  1
  9
$LIMMIN
 10
0.000000
 20
0.000000
  9
$LIMMAX
 10
297.000000
 20
420.000000
  9
$HANDLING
 70
     1
  9
$HANDSEED
  5
5AB
  9
$DIMBLK
  1
_OPEN
  9
$DIMDEC
 70
     3
  9
$DIMAUNIT
 70
     1
  9
$DIMZIN
 70
     8
  9
$DIMTOFL
 70
     1
  0
ENDSEC
  0
SECTION
  2
CLASSES
  0
ENDSEC
  0
SECTION
  2
TABLES
  0
TABLE
  2
VPORT
  5
546
100
AcDbSymbolTable
 70
     1
  0
VPORT
  5
547
100
AcDbSymbolTableRecord
100
AcDbViewportTableRecord
  2
*ACTIVE
 70
     0
 12
521.130561
 22
-91.433173
 40
3769.411224
 41
1.314634
  0
ENDTAB
  0
TABLE
  2
LTYPE
  5
548
100
AcDbSymbolTable
 70
     4
  0
LTYPE
  5
549
100
AcDbSymbolTableRecord
100
AcDbLinetypeTableRecord
  2
BYBLOCK
 70
     0
  3

 72
    65
 73
     0
 40
0.0
  0
LTYPE
  5
54A
100
AcDbSymbolTableRecord
100
AcDbLinetypeTableRecord
  2
BYLAYER
 70
     0
  3

 72
    65
 73
     0
 40
0.0
  0
LTYPE
  5
54B
100
AcDbSymbolTableRecord
100
AcDbLinetypeTableRecord
  2
CONTINUOUS
 70
     0
  3
Solid line (NEC CAE2D for Win R12.1 : 2016.08.08)
 72
    65
 73
     0
 40
0.0
  0
LTYPE
  5
54C
100
AcDbSymbolTableRecord
100
AcDbLinetypeTableRecord
  2
HIDDEN
 70
     0
  3
__ __ __ __ __ __ __ __ __ __ __ __ __ __
 72
    65
 73
     2
 40
0.375
 49
0.25
 74
     0
 49
-0.125
 74
     0
  0
LTYPE
  5
54D
100
AcDbSymbolTableRecord
100
AcDbLinetypeTableRecord
  2
CENTER
 70
     0
  3
____ _ ____ _ ____ _ ____ _ ____ _ ____
 72
    65
 73
     4
 40
2.0
 49
1.25
 74
     0
 49
-0.25
 74
     0
 49
0.25
 74
     0
 49
-0.25
 74
     0
  0
LTYPE
  5
54E
100
AcDbSymbolTableRecord
100
AcDbLinetypeTableRecord
  2
PHANTOM
 70
     0
  3
______  __  __  ______  __  __  ______ 
 72
    65
 73
     6
 40
2.5
 49
1.25
 74
     0
 49
-0.25
 74
     0
 49
0.25
 74
     0
 49
-0.25
 74
     0
 49
0.25
 74
     0
 49
-0.25
 74
     0
  0
ENDTAB
  0
TABLE
  2
LAYER
  5
54F
100
AcDbSymbolTable
 70
    10
  0
LAYER
  5
550
100
AcDbSymbolTableRecord
100
AcDbLayerTableRecord
  2
0
 70
     0
 62
     7
  6
CONTINUOUS
  0
LAYER
  5
551
100
AcDbSymbolTableRecord
100
AcDbLayerTableRecord
  2
MAIN0
 70
     0
 62
     7
  6
CONTINUOUS
  0
LAYER
  5
552
100
AcDbSymbolTableRecord
100
AcDbLayerTableRecord
  2
MAIN1
 70
     0
 62
     7
  6
CONTINUOUS
  0
LAYER
  5
553
100
AcDbSymbolTableRecord
100
AcDbLayerTableRecord
  2
MAIN3
 70
     0
 62
     7
  6
CONTINUOUS
  0
LAYER
  5
554
100
AcDbSymbolTableRecord
100
AcDbLayerTableRecord
  2
MAIN10
 70
     0
 62
     7
  6
CONTINUOUS
  0
LAYER
  5
555
100
AcDbSymbolTableRecord
100
AcDbLayerTableRecord
  2
MAIN1023
 70
     0
 62
    16
  6
CONTINUOUS
  0
LAYER
  5
556
100
AcDbSymbolTableRecord
100
AcDbLayerTableRecord
  2
WAKU0
 70
     0
 62
     7
  6
CONTINUOUS
  0
LAYER
  5
557
100
AcDbSymbolTableRecord
100
AcDbLayerTableRecord
  2
WAKU1023
 70
     0
 62
    16
  6
CONTINUOUS
  0
LAYER
  5
558
100
AcDbSymbolTableRecord
100
AcDbLayerTableRecord
  2
A0
 70
     0
 62
     7
  6
CONTINUOUS
  0
LAYER
  5
559
100
AcDbSymbolTableRecord
100
AcDbLayerTableRecord
  2
A1023
 70
     0
 62
    16
  6
CONTINUOUS
  0
ENDTAB
  0
TABLE
  2
STYLE
  5
55A
100
AcDbSymbolTable
 70
     4
  0
STYLE
  5
55B
100
AcDbSymbolTableRecord
100
AcDbTextStyleTableRecord
  2
STANDARD
 70
    64
 40
0.0
 41
1.0
 50
0.0
 71
     0
 42
7.749999761581421
  3
TXT
  4

  0
STYLE
  5
55C
100
AcDbSymbolTableRecord
100
AcDbTextStyleTableRecord
  2
ANKTATE
 70
    68
 40
0.0
 41
1.0
 50
0.0
 71
     0
 42
7.749999761581421
  3
TXT
  4

  0
STYLE
  5
28E
100
AcDbSymbolTableRecord
100
AcDbTextStyleTableRecord
  2
KNJYOKO
 70
    64
 40
0.0
 41
1.0
 50
0.0
 71
     0
 42
7.749999761581421
  3
TXT
  4
BIGFONT
  0
STYLE
  5
55D
100
AcDbSymbolTableRecord
100
AcDbTextStyleTableRecord
  2
KNJTATE
 70
    68
 40
0.0
 41
1.0
 50
0.0
 71
     0
 42
7.749999761581421
  3
TXT
  4
BIGFONT
  0
ENDTAB
  0
TABLE
  2
VIEW
  5
55E
100
AcDbSymbolTable
 70
     0
  0
ENDTAB
  0
TABLE
  2
UCS
  5
55F
100
AcDbSymbolTable
 70
     0
  0
ENDTAB
  0
TABLE
  2
APPID
  5
560
100
AcDbSymbolTable
 70
     1
  0
APPID
  5
561
100
AcDbSymbolTableRecord
100
AcDbRegAppTableRecord
  2
ACAD
 70
     0
  0
ENDTAB
  0
TABLE
  2
DIMSTYLE
  5
562
100
AcDbSymbolTable
 70
     1
  0
DIMSTYLE
105
563
100
AcDbSymbolTableRecord
100
AcDbDimStyleTableRecord
  2
STANDARD
 70
     0
 41
2.000000
 44
2.000000
 42
0.800000
145
0.661290
140
3.100000
144
1.000000
146
0.903226
340
55B
  0
DIMSTYLE
105
564
100
AcDbSymbolTableRecord
100
AcDbDimStyleTableRecord
  2
MAIN001
 70
     0
 41
4.000000
 44
4.000000
 42
1.600000
145
0.580645
140
6.200000
144
1.000000
146
0.903226
 77
     1
 73
     0
 74
     0
271
     3
275
     1
 78
     8
172
     1
340
55B
  0
DIMSTYLE
105
565
100
AcDbSymbolTableRecord
100
AcDbDimStyleTableRecord
  2
WAKU002
 70
     0
 41
2.000000
 44
2.000000
 42
0.800000
145
0.661290
140
3.100000
144
1.000000
146
0.903226
 77
     1
 73
     0
 74
     0
271
     3
275
     1
 78
     8
172
     1
340
55B
  0
DIMSTYLE
105
566
100
AcDbSymbolTableRecord
100
AcDbDimStyleTableRecord
  2
A003
 70
     0
 41
5.000000
 44
5.000000
 42
2.000000
145
0.564516
140
7.750000
144
1.000000
146
0.903226
 77
     1
 73
     0
 74
     0
271
     3
275
     1
 78
     8
172
     1
340
55B
  0
ENDTAB
  0
TABLE
  2
BLOCK_RECORD
  5
567
100
AcDbSymbolTable
 70
    68
  0
BLOCK_RECORD
  5
568
100
AcDbSymbolTableRecord
100
AcDbBlockTableRecord
  2
*MODEL_SPACE
  0
BLOCK_RECORD
  5
569
100
AcDbSymbolTableRecord
100
AcDbBlockTableRecord
  2
*PAPER_SPACE
  0
BLOCK_RECORD
  5
1
100
AcDbSymbolTableRecord
100
AcDbBlockTableRecord
  2
_NONE
  0
BLOCK_RECORD
  5
4
100
AcDbSymbolTableRecord
100
AcDbBlockTableRecord
  2
_CLOSED
  0
BLOCK_RECORD
  5
B
100
AcDbSymbolTableRecord
100
AcDbBlockTableRecord
  2
_DOT
  0
BLOCK_RECORD
  5
13
100
AcDbSymbolTableRecord
100
AcDbBlockTableRecord
  2
_OPEN
  0
BLOCK_RECORD
  5
19
100
AcDbSymbolTableRecord
100
AcDbBlockTableRecord
  2
_ORIGIN
  0
BLOCK_RECORD
  5
1E
100
AcDbSymbolTableRecord
100
AcDbBlockTableRecord
  2
_OPEN30
  0
BLOCK_RECORD
  5
24
100
AcDbSymbolTableRecord
100
AcDbBlockTableRecord
  2
_BOXFILLED
  0
BLOCK_RECORD
  5
29
100
AcDbSymbolTableRecord
100
AcDbBlockTableRecord
  2
_BOXBLANK
  0
BLOCK_RECORD
  5
31
100
AcDbSymbolTableRecord
100
AcDbBlockTableRecord
  2
_OBLIQUE
  0
BLOCK_RECORD
  5
35
100
AcDbSymbolTableRecord
100
AcDbBlockTableRecord
  2
_OPEN90
  0
BLOCK_RECORD
  5
3B
100
AcDbSymbolTableRecord
100
AcDbBlockTableRecord
  2
_CLOSEDBLANK
  0
BLOCK_RECORD
  5
41
100
AcDbSymbolTableRecord
100
AcDbBlockTableRecord
  2
_DOTBLANK
  0
BLOCK_RECORD
  5
56A
100
AcDbSymbolTableRecord
100
AcDbBlockTableRecord
  2
*D0
  0
BLOCK_RECORD
  5
56B
100
AcDbSymbolTableRecord
100
AcDbBlockTableRecord
  2
*D1
  0
BLOCK_RECORD
  5
56C
100
AcDbSymbolTableRecord
100
AcDbBlockTableRecord
  2
*D2
  0
BLOCK_RECORD
  5
56D
100
AcDbSymbolTableRecord
100
AcDbBlockTableRecord
  2
*D3
  0
BLOCK_RECORD
  5
56E
100
AcDbSymbolTableRecord
100
AcDbBlockTableRecord
  2
*D4
  0
BLOCK_RECORD
  5
56F
100
AcDbSymbolTableRecord
100
AcDbBlockTableRecord
  2
*D5
  0
BLOCK_RECORD
  5
570
100
AcDbSymbolTableRecord
100
AcDbBlockTableRecord
  2
*D6
  0
BLOCK_RECORD
  5
571
100
AcDbSymbolTableRecord
100
AcDbBlockTableRecord
  2
*D7
  0
BLOCK_RECORD
  5
572
100
AcDbSymbolTableRecord
100
AcDbBlockTableRecord
  2
*D8
  0
BLOCK_RECORD
  5
573
100
AcDbSymbolTableRecord
100
AcDbBlockTableRecord
  2
*D9
  0
BLOCK_RECORD
  5
574
100
AcDbSymbolTableRecord
100
AcDbBlockTableRecord
  2
*D10
  0
BLOCK_RECORD
  5
575
100
AcDbSymbolTableRecord
100
AcDbBlockTableRecord
  2
*D11
  0
BLOCK_RECORD
  5
576
100
AcDbSymbolTableRecord
100
AcDbBlockTableRecord
  2
*D12
  0
BLOCK_RECORD
  5
577
100
AcDbSymbolTableRecord
100
AcDbBlockTableRecord
  2
*D13
  0
BLOCK_RECORD
  5
578
100
AcDbSymbolTableRecord
100
AcDbBlockTableRecord
  2
*D14
  0
BLOCK_RECORD
  5
579
100
AcDbSymbolTableRecord
100
AcDbBlockTableRecord
  2
*D15
  0
BLOCK_RECORD
  5
57A
100
AcDbSymbolTableRecord
100
AcDbBlockTableRecord
  2
*D16
  0
BLOCK_RECORD
  5
57B
100
AcDbSymbolTableRecord
100
AcDbBlockTableRecord
  2
*D17
  0
BLOCK_RECORD
  5
57C
100
AcDbSymbolTableRecord
100
AcDbBlockTableRecord
  2
*D18
  0
BLOCK_RECORD
  5
57D
100
AcDbSymbolTableRecord
100
AcDbBlockTableRecord
  2
*D19
  0
BLOCK_RECORD
  5
57E
100
AcDbSymbolTableRecord
100
AcDbBlockTableRecord
  2
D20
  0
BLOCK_RECORD
  5
57F
100
AcDbSymbolTableRecord
100
AcDbBlockTableRecord
  2
*D21
  0
BLOCK_RECORD
  5
580
100
AcDbSymbolTableRecord
100
AcDbBlockTableRecord
  2
*D22
  0
BLOCK_RECORD
  5
581
100
AcDbSymbolTableRecord
100
AcDbBlockTableRecord
  2
*D23
  0
BLOCK_RECORD
  5
582
100
AcDbSymbolTableRecord
100
AcDbBlockTableRecord
  2
*D24
  0
BLOCK_RECORD
  5
583
100
AcDbSymbolTableRecord
100
AcDbBlockTableRecord
  2
*D25
  0
BLOCK_RECORD
  5
584
100
AcDbSymbolTableRecord
100
AcDbBlockTableRecord
  2
*D26
  0
BLOCK_RECORD
  5
585
100
AcDbSymbolTableRecord
100
AcDbBlockTableRecord
  2
*D27
  0
BLOCK_RECORD
  5
586
100
AcDbSymbolTableRecord
100
AcDbBlockTableRecord
  2
*D28
  0
BLOCK_RECORD
  5
587
100
AcDbSymbolTableRecord
100
AcDbBlockTableRecord
  2
*D29
  0
BLOCK_RECORD
  5
588
100
AcDbSymbolTableRecord
100
AcDbBlockTableRecord
  2
*D30
  0
BLOCK_RECORD
  5
589
100
AcDbSymbolTableRecord
100
AcDbBlockTableRecord
  2
*D31
  0
BLOCK_RECORD
  5
58A
100
AcDbSymbolTableRecord
100
AcDbBlockTableRecord
  2
*D32
  0
BLOCK_RECORD
  5
58B
100
AcDbSymbolTableRecord
100
AcDbBlockTableRecord
  2
*D33
  0
BLOCK_RECORD
  5
58C
100
AcDbSymbolTableRecord
100
AcDbBlockTableRecord
  2
*D34
  0
BLOCK_RECORD
  5
58D
100
AcDbSymbolTableRecord
100
AcDbBlockTableRecord
  2
*D35
  0
BLOCK_RECORD
  5
58E
100
AcDbSymbolTableRecord
100
AcDbBlockTableRecord
  2
*D36
  0
BLOCK_RECORD
  5
58F
100
AcDbSymbolTableRecord
100
AcDbBlockTableRecord
  2
*D37
  0
BLOCK_RECORD
  5
590
100
AcDbSymbolTableRecord
100
AcDbBlockTableRecord
  2
*D38
  0
BLOCK_RECORD
  5
591
100
AcDbSymbolTableRecord
100
AcDbBlockTableRecord
  2
*D39
  0
BLOCK_RECORD
  5
592
100
AcDbSymbolTableRecord
100
AcDbBlockTableRecord
  2
*D40
  0
BLOCK_RECORD
  5
593
100
AcDbSymbolTableRecord
100
AcDbBlockTableRecord
  2
*D41
  0
BLOCK_RECORD
  5
594
100
AcDbSymbolTableRecord
100
AcDbBlockTableRecord
  2
*D42
  0
BLOCK_RECORD
  5
595
100
AcDbSymbolTableRecord
100
AcDbBlockTableRecord
  2
*D43
  0
BLOCK_RECORD
  5
596
100
AcDbSymbolTableRecord
100
AcDbBlockTableRecord
  2
*D44
  0
BLOCK_RECORD
  5
597
100
AcDbSymbolTableRecord
100
AcDbBlockTableRecord
  2
*D45
  0
BLOCK_RECORD
  5
598
100
AcDbSymbolTableRecord
100
AcDbBlockTableRecord
  2
*D46
  0
BLOCK_RECORD
  5
599
100
AcDbSymbolTableRecord
100
AcDbBlockTableRecord
  2
*D47
  0
BLOCK_RECORD
  5
59A
100
AcDbSymbolTableRecord
100
AcDbBlockTableRecord
  2
*D48
  0
BLOCK_RECORD
  5
59B
100
AcDbSymbolTableRecord
100
AcDbBlockTableRecord
  2
*D49
  0
BLOCK_RECORD
  5
59C
100
AcDbSymbolTableRecord
100
AcDbBlockTableRecord
  2
*D50
  0
BLOCK_RECORD
  5
59D
100
AcDbSymbolTableRecord
100
AcDbBlockTableRecord
  2
*D51
  0
BLOCK_RECORD
  5
59E
100
AcDbSymbolTableRecord
100
AcDbBlockTableRecord
  2
*D52
  0
BLOCK_RECORD
  5
59F
100
AcDbSymbolTableRecord
100
AcDbBlockTableRecord
  2
*D53
  0
BLOCK_RECORD
  5
5A0
100
AcDbSymbolTableRecord
100
AcDbBlockTableRecord
  2
*D54
  0
BLOCK_RECORD
  5
5A1
100
AcDbSymbolTableRecord
100
AcDbBlockTableRecord
  2
*D55
  0
ENDTAB
  0
ENDSEC
  0
SECTION
  2
BLOCKS
  0
BLOCK
  5
5A2
100
AcDbEntity
  8
0
100
AcDbBlockBegin
  2
*MODEL_SPACE
 70
     0
 10
0.0
 20
0.0
 30
0.0
  3
*MODEL_SPACE
  1

  0
ENDBLK
  5
5A3
100
AcDbEntity
  8
0
100
AcDbBlockEnd
  0
BLOCK
  5
5A4
100
AcDbEntity
  8
0
100
AcDbBlockBegin
  2
*PAPER_SPACE
 70
     0
 10
0.0
 20
0.0
 30
0.0
  3
*PAPER_SPACE
  1

  0
ENDBLK
  5
5A5
100
AcDbEntity
  8
0
100
AcDbBlockEnd
  0
BLOCK
  5
2
100
AcDbEntity
  8
0
100
AcDbBlockBegin
  2
_NONE
 70
     0
 10
0.0
 20
0.0
 30
0.0
  3
_NONE
  1

  0
ENDBLK
  5
3
100
AcDbEntity
  8
0
100
AcDbBlockEnd
  0
BLOCK
  5
5
100
AcDbEntity
  8
0
100
AcDbBlockBegin
  2
_CLOSED
 70
     0
 10
0.0
 20
0.0
 30
0.0
  3
_CLOSED
  1

  0
LINE
  5
6
100
AcDbEntity
  8
0
  6
BYBLOCK
 62
     0
100
AcDbLine
 10
-1.0
 20
0.166667
 30
0.0
 11
0.0
 21
0.0
 31
0.0
  0
LINE
  5
7
100
AcDbEntity
  8
0
  6
BYBLOCK
 62
     0
100
AcDbLine
 10
0.0
 20
0.0
 30
0.0
 11
-1.0
 21
-0.166667
 31
0.0
  0
LINE
  5
8
100
AcDbEntity
  8
0
  6
BYBLOCK
 62
     0
100
AcDbLine
 10
-1.0
 20
0.166667
 30
0.0
 11
-1.0
 21
-0.166667
 31
0.0
  0
LINE
  5
9
100
AcDbEntity
  8
0
  6
BYBLOCK
 62
     0
100
AcDbLine
 10
0.0
 20
0.0
 30
0.0
 11
-1.0
 21
0.0
 31
0.0
  0
ENDBLK
  5
A
100
AcDbEntity
  8
0
100
AcDbBlockEnd
  0
BLOCK
  5
C
100
AcDbEntity
  8
0
100
AcDbBlockBegin
  2
_DOT
 70
     0
 10
0.0
 20
0.0
 30
0.0
  3
_DOT
  1

  0
POLYLINE
  5
D
100
AcDbEntity
  8
0
  6
BYBLOCK
 62
     0
100
AcDb2dPolyline
 66
     1
 10
0.0
 20
0.0
 30
0.0
 70
     1
 40
0.5
 41
0.5
  0
VERTEX
  5
E
100
AcDbEntity
  8
0
  6
BYBLOCK
 62
     0
100
AcDbVertex
100
AcDb2dVertex
 10
-0.25
 20
0.0
 30
0.0
 42
1.0
  0
VERTEX
  5
F
100
AcDbEntity
  8
0
  6
BYBLOCK
 62
     0
100
AcDbVertex
100
AcDb2dVertex
 10
0.25
 20
0.0
 30
0.0
 42
1.0
  0
SEQEND
  5
10
100
AcDbEntity
  8
0
  6
BYBLOCK
 62
     0
  0
LINE
  5
11
100
AcDbEntity
  8
0
  6
BYBLOCK
 62
     0
100
AcDbLine
 10
-0.5
 20
0.0
 30
0.0
 11
-1.0
 21
0.0
 31
0.0
  0
ENDBLK
  5
12
100
AcDbEntity
  8
0
100
AcDbBlockEnd
  0
BLOCK
  5
14
100
AcDbEntity
  8
0
100
AcDbBlockBegin
  2
_OPEN
 70
     0
 10
0.0
 20
0.0
 30
0.0
  3
_OPEN
  1

  0
LINE
  5
15
100
AcDbEntity
  8
0
  6
BYBLOCK
 62
     0
100
AcDbLine
 10
-1.0
 20
0.166667
 30
0.0
 11
0.0
 21
0.0
 31
0.0
  0
LINE
  5
16
100
AcDbEntity
  8
0
  6
BYBLOCK
 62
     0
100
AcDbLine
 10
0.0
 20
0.0
 30
0.0
 11
-1.0
 21
-0.166667
 31
0.0
  0
LINE
  5
17
100
AcDbEntity
  8
0
  6
BYBLOCK
 62
     0
100
AcDbLine
 10
0.0
 20
0.0
 30
0.0
 11
-1.0
 21
0.0
 31
0.0
  0
ENDBLK
  5
18
100
AcDbEntity
  8
0
100
AcDbBlockEnd
  0
BLOCK
  5
1A
100
AcDbEntity
  8
0
100
AcDbBlockBegin
  2
_ORIGIN
 70
     0
 10
0.0
 20
0.0
 30
0.0
  3
_ORIGIN
  1

  0
CIRCLE
  5
1B
100
AcDbEntity
  8
0
  6
BYBLOCK
 62
     0
100
AcDbCircle
 10
0.0
 20
0.0
 30
0.0
 40
0.5
  0
LINE
  5
1C
100
AcDbEntity
  8
0
  6
BYBLOCK
 62
     0
100
AcDbLine
 10
0.0
 20
0.0
 30
0.0
 11
-1.0
 21
0.0
 31
0.0
  0
ENDBLK
  5
1D
100
AcDbEntity
  8
0
100
AcDbBlockEnd
  0
BLOCK
  5
1F
100
AcDbEntity
  8
0
100
AcDbBlockBegin
  2
_OPEN30
 70
     0
 10
0.0
 20
0.0
 30
0.0
  3
_OPEN30
  1

  0
LINE
  5
20
100
AcDbEntity
  8
0
  6
BYBLOCK
 62
     0
100
AcDbLine
 10
-1.0
 20
0.267949
 30
0.0
 11
0.0
 21
0.0
 31
0.0
  0
LINE
  5
21
100
AcDbEntity
  8
0
  6
BYBLOCK
 62
     0
100
AcDbLine
 10
0.0
 20
0.0
 30
0.0
 11
-1.0
 21
-0.267949
 31
0.0
  0
LINE
  5
22
100
AcDbEntity
  8
0
  6
BYBLOCK
 62
     0
100
AcDbLine
 10
0.0
 20
0.0
 30
0.0
 11
-1.0
 21
0.0
 31
0.0
  0
ENDBLK
  5
23
100
AcDbEntity
  8
0
100
AcDbBlockEnd
  0
BLOCK
  5
25
100
AcDbEntity
  8
0
100
AcDbBlockBegin
  2
_BOXFILLED
 70
     0
 10
0.0
 20
0.0
 30
0.0
  3
_BOXFILLED
  1

  0
SOLID
  5
26
100
AcDbEntity
  8
0
  6
BYBLOCK
 62
     0
100
AcDbTrace
 10
-0.5
 20
0.5
 30
0.0
 11
0.5
 21
0.5
 31
0.0
 12
-0.5
 22
-0.5
 32
0.0
 13
0.5
 23
-0.5
 33
0.0
  0
LINE
  5
27
100
AcDbEntity
  8
0
  6
BYBLOCK
 62
     0
100
AcDbLine
 10
-0.5
 20
0.0
 30
0.0
 11
-1.0
 21
0.0
 31
0.0
  0
ENDBLK
  5
28
100
AcDbEntity
  8
0
100
AcDbBlockEnd
  0
BLOCK
  5
2A
100
AcDbEntity
  8
0
100
AcDbBlockBegin
  2
_BOXBLANK
 70
     0
 10
0.0
 20
0.0
 30
0.0
  3
_BOXBLANK
  1

  0
LINE
  5
2B
100
AcDbEntity
  8
0
  6
BYBLOCK
 62
     0
100
AcDbLine
 10
-0.5
 20
-0.5
 30
0.0
 11
0.5
 21
-0.5
 31
0.0
  0
LINE
  5
2C
100
AcDbEntity
  8
0
  6
BYBLOCK
 62
     0
100
AcDbLine
 10
0.5
 20
-0.5
 30
0.0
 11
0.5
 21
0.5
 31
0.0
  0
LINE
  5
2D
100
AcDbEntity
  8
0
  6
BYBLOCK
 62
     0
100
AcDbLine
 10
0.5
 20
0.5
 30
0.0
 11
-0.5
 21
0.5
 31
0.0
  0
LINE
  5
2E
100
AcDbEntity
  8
0
  6
BYBLOCK
 62
     0
100
AcDbLine
 10
-0.5
 20
0.5
 30
0.0
 11
-0.5
 21
-0.5
 31
0.0
  0
LINE
  5
2F
100
AcDbEntity
  8
0
  6
BYBLOCK
 62
     0
100
AcDbLine
 10
-0.5
 20
0.0
 30
0.0
 11
-1.0
 21
0.0
 31
0.0
  0
ENDBLK
  5
30
100
AcDbEntity
  8
0
100
AcDbBlockEnd
  0
BLOCK
  5
32
100
AcDbEntity
  8
0
100
AcDbBlockBegin
  2
_OBLIQUE
 70
     0
 10
0.0
 20
0.0
 30
0.0
  3
_OBLIQUE
  1

  0
LINE
  5
33
100
AcDbEntity
  8
0
  6
BYBLOCK
 62
     0
100
AcDbLine
 10
-0.5
 20
-0.5
 30
0.0
 11
0.5
 21
0.5
 31
0.0
  0
ENDBLK
  5
34
100
AcDbEntity
  8
0
100
AcDbBlockEnd
  0
BLOCK
  5
36
100
AcDbEntity
  8
0
100
AcDbBlockBegin
  2
_OPEN90
 70
     0
 10
0.0
 20
0.0
 30
0.0
  3
_OPEN90
  1

  0
LINE
  5
37
100
AcDbEntity
  8
0
  6
BYBLOCK
 62
     0
100
AcDbLine
 10
-0.5
 20
0.5
 30
0.0
 11
0.0
 21
0.0
 31
0.0
  0
LINE
  5
38
100
AcDbEntity
  8
0
  6
BYBLOCK
 62
     0
100
AcDbLine
 10
0.0
 20
0.0
 30
0.0
 11
-0.5
 21
-0.5
 31
0.0
  0
LINE
  5
39
100
AcDbEntity
  8
0
  6
BYBLOCK
 62
     0
100
AcDbLine
 10
0.0
 20
0.0
 30
0.0
 11
-1.0
 21
0.0
 31
0.0
  0
ENDBLK
  5
3A
100
AcDbEntity
  8
0
100
AcDbBlockEnd
  0
BLOCK
  5
3C
100
AcDbEntity
  8
0
100
AcDbBlockBegin
  2
_CLOSEDBLANK
 70
     0
 10
0.0
 20
0.0
 30
0.0
  3
_CLOSEDBLANK
  1

  0
LINE
  5
3D
100
AcDbEntity
  8
0
  6
BYBLOCK
 62
     0
100
AcDbLine
 10
-1.0
 20
0.1666666666666666
 30
0.0
 11
0.0
 21
0.0
 31
0.0
  0
LINE
  5
3E
100
AcDbEntity
  8
0
  6
BYBLOCK
 62
     0
100
AcDbLine
 10
0.0
 20
0.0
 30
0.0
 11
-1.0
 21
-0.1666666666666666
 31
0.0
  0
LINE
  5
3F
100
AcDbEntity
  8
0
  6
BYBLOCK
 62
     0
100
AcDbLine
 10
-1.0
 20
0.1666666666666666
 30
0.0
 11
-1.0
 21
-0.1666666666666666
 31
0.0
  0
ENDBLK
  5
40
100
AcDbEntity
  8
0
100
AcDbBlockEnd
  0
BLOCK
  5
42
100
AcDbEntity
  8
0
100
AcDbBlockBegin
  2
_DOTBLANK
 70
     0
 10
0.0
 20
0.0
 30
0.0
  3
_DOTBLANK
  1

  0
CIRCLE
  5
43
100
AcDbEntity
  8
0
  6
BYBLOCK
 62
     0
100
AcDbCircle
 10
0.0
 20
0.0
 30
0.0
 40
0.5
  0
LINE
  5
44
100
AcDbEntity
  8
0
  6
BYBLOCK
 62
     0
100
AcDbLine
 10
-0.5
 20
0.0
 30
0.0
 11
-1.0
 21
0.0
 31
0.0
  0
ENDBLK
  5
45
100
AcDbEntity
  8
0
100
AcDbBlockEnd
  0
BLOCK
  5
4B
100
AcDbEntity
  8
MAIN0
  6
CONTINUOUS
 62
3
100
AcDbBlockBegin
  2
*D0
 70
    65
 10
0.0
 20
0.0
 30
0.0
  0
LINE
  5
4C
100
AcDbEntity
  8
MAIN0
  6
BYBLOCK
 62
0
100
AcDbLine
 10
287.4282014479941
 20
288.6987603913158
 30
0.0000000000000000
 11
287.4282014479941
 21
172.8987604145634
 31
0.0000000000000000
  0
LINE
  5
4D
100
AcDbEntity
  8
MAIN0
  6
BYBLOCK
 62
0
100
AcDbLine
 10
291.4282014479941
 20
176.8987604145634
 30
0.0000000000000000
 11
321.9282014479941
 21
176.8987604145634
 31
0.0000000000000000
  0
INSERT
  5
4E
100
AcDbEntity
  8
MAIN0
  6
BYBLOCK
 62
0
100
AcDbBlockReference
  2
_OPEN
 10
287.4282014479941
 20
176.8987604145634
 30
0.0000000000000000
 41
4.000000000000000
 42
4.000000000000000
 43
4.000000000000000
 50
180.0000000000000
  0
INSERT
  5
4F
100
AcDbEntity
  8
MAIN0
  6
BYBLOCK
 62
0
100
AcDbBlockReference
  2
_OPEN
 10
325.9282014479941
 20
176.8987604145634
 30
0.0000000000000000
 41
4.000000000000000
 42
4.000000000000000
 43
4.000000000000000
 50
0.0000000000000000
  0
LINE
  5
50
100
AcDbEntity
  8
MAIN0
  6
BYBLOCK
 62
0
100
AcDbLine
 10
325.9282014479941
 20
205.2987603913161
 30
0.0000000000000000
 11
325.9282014479941
 21
172.8987604145634
 31
0.0000000000000000
  0
MTEXT
  5
51
100
AcDbEntity
  8
MAIN0
  6
BYBLOCK
 62
0
100
AcDbMText
 10
306.6782014479941
 20
180.4987603191960
 30
0.0000000000000000
 40
6.199999809265137
 41
0.0000000000000000
 71
     5
 72
     1
  1
\A1;38.5
 11
1.000000000000000
 21
0.0000000000000000
 31
0.0000000000000000
  7
STANDARD
  0
ENDBLK
  5
52
100
AcDbEntity
  8
MAIN0
  6
CONTINUOUS
 62
3
100
AcDbBlockEnd
  0
BLOCK
  5
54
100
AcDbEntity
  8
MAIN0
  6
CONTINUOUS
 62
3
100
AcDbBlockBegin
  2
*D1
 70
    65
 10
0.0
 20
0.0
 30
0.0
  0
LINE
  5
55
100
AcDbEntity
  8
MAIN0
  6
BYBLOCK
 62
0
100
AcDbLine
 10
325.9282014479941
 20
205.2987603913161
 30
0.0000000000000000
 11
325.9282014479941
 21
172.8987604145634
 31
0.0000000000000000
  0
LINE
  5
56
100
AcDbEntity
  8
MAIN0
  6
BYBLOCK
 62
0
100
AcDbLine
 10
329.9282014479941
 20
176.8987604145634
 30
0.0000000000000000
 11
482.4282014479941
 21
176.8987604145634
 31
0.0000000000000000
  0
INSERT
  5
57
100
AcDbEntity
  8
MAIN0
  6
BYBLOCK
 62
0
100
AcDbBlockReference
  2
_OPEN
 10
325.9282014479941
 20
176.8987604145634
 30
0.0000000000000000
 41
4.000000000000000
 42
4.000000000000000
 43
4.000000000000000
 50
180.0000000000000
  0
INSERT
  5
58
100
AcDbEntity
  8
MAIN0
  6
BYBLOCK
 62
0
100
AcDbBlockReference
  2
_OPEN
 10
486.4282014479941
 20
176.8987604145634
 30
0.0000000000000000
 41
4.000000000000000
 42
4.000000000000000
 43
4.000000000000000
 50
0.0000000000000000
  0
LINE
  5
59
100
AcDbEntity
  8
MAIN0
  6
BYBLOCK
 62
0
100
AcDbLine
 10
486.4282014479941
 20
213.6987603913162
 30
0.0000000000000000
 11
486.4282014479941
 21
172.8987604145634
 31
0.0000000000000000
  0
MTEXT
  5
5A
100
AcDbEntity
  8
MAIN0
  6
BYBLOCK
 62
0
100
AcDbMText
 10
406.1782014479941
 20
180.4987603191960
 30
0.0000000000000000
 40
6.199999809265137
 41
0.0000000000000000
 71
     5
 72
     1
  1
\A1;160.5
 11
1.000000000000000
 21
0.0000000000000000
 31
0.0000000000000000
  7
STANDARD
  0
ENDBLK
  5
5B
100
AcDbEntity
  8
MAIN0
  6
CONTINUOUS
 62
3
100
AcDbBlockEnd
  0
BLOCK
  5
5D
100
AcDbEntity
  8
MAIN0
  6
CONTINUOUS
 62
3
100
AcDbBlockBegin
  2
*D2
 70
    65
 10
0.0
 20
0.0
 30
0.0
  0
LINE
  5
5E
100
AcDbEntity
  8
MAIN0
  6
BYBLOCK
 62
0
100
AcDbLine
 10
448.1679685138969
 20
301.0987604151578
 30
0.0000000000000000
 11
448.1679685138969
 21
289.8987604151580
 31
0.0000000000000000
  0
INSERT
  5
5F
100
AcDbEntity
  8
MAIN0
  6
BYBLOCK
 62
0
100
AcDbBlockReference
  2
_OPEN
 10
448.1679685138969
 20
301.0987604151578
 30
0.0000000000000000
 41
4.000000000000000
 42
4.000000000000000
 43
4.000000000000000
 50
270.0000000000000
  0
INSERT
  5
60
100
AcDbEntity
  8
MAIN0
  6
BYBLOCK
 62
0
100
AcDbBlockReference
  2
_OPEN
 10
448.1679685138969
 20
289.8987604151580
 30
0.0000000000000000
 41
4.000000000000000
 42
4.000000000000000
 43
4.000000000000000
 50
90.00000000000000
  0
LINE
  5
61
100
AcDbEntity
  8
MAIN0
  6
BYBLOCK
 62
0
100
AcDbLine
 10
448.1679685138969
 20
305.0987604151578
 30
0.0000000000000000
 11
448.1679685138969
 21
307.0987604151578
 31
0.0000000000000000
  0
LINE
  5
62
100
AcDbEntity
  8
MAIN0
  6
BYBLOCK
 62
0
100
AcDbLine
 10
448.1679685138969
 20
285.8987604151580
 30
0.0000000000000000
 11
448.1679685138969
 21
283.8987604151580
 31
0.0000000000000000
  0
LINE
  5
63
100
AcDbEntity
  8
MAIN0
  6
BYBLOCK
 62
0
100
AcDbLine
 10
418.0282014718359
 20
289.8987604151580
 30
0.0000000000000000
 11
452.1679685138969
 21
289.8987604151580
 31
0.0000000000000000
  0
MTEXT
  5
64
100
AcDbEntity
  8
MAIN0
  6
BYBLOCK
 62
0
100
AcDbMText
 10
444.5679686092643
 20
295.4987604151579
 30
0.0000000000000000
 40
6.199999809265137
 41
0.0000000000000000
 71
     5
 72
     1
  1
\A1;11
 11
6.123233995736766e-017
 21
1.000000000000000
 31
0.0000000000000000
  7
STANDARD
  0
ENDBLK
  5
65
100
AcDbEntity
  8
MAIN0
  6
CONTINUOUS
 62
3
100
AcDbBlockEnd
  0
BLOCK
  5
67
100
AcDbEntity
  8
MAIN0
  6
CONTINUOUS
 62
3
100
AcDbBlockBegin
  2
*D3
 70
    65
 10
0.0
 20
0.0
 30
0.0
  0
LINE
  5
68
100
AcDbEntity
  8
MAIN0
  6
BYBLOCK
 62
0
100
AcDbLine
 10
386.5458075857035
 20
218.8987604151580
 30
0.0000000000000000
 11
386.5458075857035
 21
270.8987604151580
 31
0.0000000000000000
  0
INSERT
  5
69
100
AcDbEntity
  8
MAIN0
  6
BYBLOCK
 62
0
100
AcDbBlockReference
  2
_OPEN
 10
386.5458075857035
 20
214.8987604151580
 30
0.0000000000000000
 41
4.000000000000000
 42
4.000000000000000
 43
4.000000000000000
 50
270.0000000000000
  0
INSERT
  5
6A
100
AcDbEntity
  8
MAIN0
  6
BYBLOCK
 62
0
100
AcDbBlockReference
  2
_OPEN
 10
386.5458075857035
 20
274.8987604151580
 30
0.0000000000000000
 41
4.000000000000000
 42
4.000000000000000
 43
4.000000000000000
 50
90.00000000000000
  0
LINE
  5
6B
100
AcDbEntity
  8
MAIN0
  6
BYBLOCK
 62
0
100
AcDbLine
 10
400.8282014241526
 20
274.8987604151580
 30
0.0000000000000000
 11
382.5458075857035
 21
274.8987604151580
 31
0.0000000000000000
  0
MTEXT
  5
6C
100
AcDbEntity
  8
MAIN0
  6
BYBLOCK
 62
0
100
AcDbMText
 10
382.4458076810710
 20
236.9143842076830
 30
0.0000000000000000
 40
6.199999809265137
 41
0.0000000000000000
 71
     5
 72
     1
  1
\A1;60
 11
6.123233995736766e-017
 21
1.000000000000000
 31
0.0000000000000000
  7
STANDARD
  0
ENDBLK
  5
6D
100
AcDbEntity
  8
MAIN0
  6
CONTINUOUS
 62
3
100
AcDbBlockEnd
  0
BLOCK
  5
6F
100
AcDbEntity
  8
MAIN0
  6
CONTINUOUS
 62
3
100
AcDbBlockBegin
  2
*D4
 70
    65
 10
0.0
 20
0.0
 30
0.0
  0
LINE
  5
70
100
AcDbEntity
  8
MAIN0
  6
BYBLOCK
 62
0
100
AcDbLine
 10
400.8282014241526
 20
274.8987604151580
 30
0.0000000000000000
 11
382.5458075857035
 21
274.8987604151580
 31
0.0000000000000000
  0
LINE
  5
71
100
AcDbEntity
  8
MAIN0
  6
BYBLOCK
 62
0
100
AcDbLine
 10
386.5458075857035
 20
274.8987604151580
 30
0.0000000000000000
 11
386.5458075857035
 21
289.8987604151580
 31
0.0000000000000000
  0
INSERT
  5
72
100
AcDbEntity
  8
MAIN0
  6
BYBLOCK
 62
0
100
AcDbBlockReference
  2
_OPEN
 10
386.5458075857035
 20
274.8987604151580
 30
0.0000000000000000
 41
4.000000000000000
 42
4.000000000000000
 43
4.000000000000000
 50
90.00000000000000
  0
INSERT
  5
73
100
AcDbEntity
  8
MAIN0
  6
BYBLOCK
 62
0
100
AcDbBlockReference
  2
_OPEN
 10
386.5458075857035
 20
289.8987604151580
 30
0.0000000000000000
 41
4.000000000000000
 42
4.000000000000000
 43
4.000000000000000
 50
270.0000000000000
  0
LINE
  5
74
100
AcDbEntity
  8
MAIN0
  6
BYBLOCK
 62
0
100
AcDbLine
 10
386.5458075857035
 20
270.8987604151580
 30
0.0000000000000000
 11
386.5458075857035
 21
268.8987604151580
 31
0.0000000000000000
  0
LINE
  5
75
100
AcDbEntity
  8
MAIN0
  6
BYBLOCK
 62
0
100
AcDbLine
 10
386.5458075857035
 20
293.8987604151580
 30
0.0000000000000000
 11
386.5458075857035
 21
304.3391459706389
 31
0.0000000000000000
  0
MTEXT
  5
76
100
AcDbEntity
  8
MAIN0
  6
BYBLOCK
 62
0
100
AcDbMText
 10
382.4458076810710
 20
300.2391460660064
 30
0.0000000000000000
 40
6.199999809265137
 41
0.0000000000000000
 71
     5
 72
     1
  1
\A1;15
 11
6.123233995736766e-017
 21
1.000000000000000
 31
0.0000000000000000
  7
STANDARD
  0
ENDBLK
  5
77
100
AcDbEntity
  8
MAIN0
  6
CONTINUOUS
 62
3
100
AcDbBlockEnd
  0
BLOCK
  5
79
100
AcDbEntity
  8
MAIN0
  6
CONTINUOUS
 62
3
100
AcDbBlockBegin
  2
*D5
 70
    65
 10
0.0
 20
0.0
 30
0.0
  0
LINE
  5
7A
100
AcDbEntity
  8
MAIN0
  6
BYBLOCK
 62
0
100
AcDbLine
 10
604.0233160053981
 20
309.4987604381186
 30
0.0000000000000000
 11
604.0233160053981
 21
530.1350986196467
 31
0.0000000000000000
  0
LINE
  5
7B
100
AcDbEntity
  8
MAIN0
  6
BYBLOCK
 62
0
100
AcDbLine
 10
608.0233160053981
 20
526.1350986196467
 30
0.0000000000000000
 11
717.0233160053746
 21
526.1350986196467
 31
0.0000000000000000
  0
INSERT
  5
7C
100
AcDbEntity
  8
MAIN0
  6
BYBLOCK
 62
0
100
AcDbBlockReference
  2
_OPEN
 10
604.0233160053981
 20
526.1350986196467
 30
0.0000000000000000
 41
4.000000000000000
 42
4.000000000000000
 43
4.000000000000000
 50
180.0000000000000
  0
INSERT
  5
7D
100
AcDbEntity
  8
MAIN0
  6
BYBLOCK
 62
0
100
AcDbBlockReference
  2
_OPEN
 10
721.0233160053746
 20
526.1350986196467
 30
0.0000000000000000
 41
4.000000000000000
 42
4.000000000000000
 43
4.000000000000000
 50
0.0000000000000000
  0
LINE
  5
7E
100
AcDbEntity
  8
MAIN0
  6
BYBLOCK
 62
0
100
AcDbLine
 10
721.0233160053746
 20
489.4987604381189
 30
0.0000000000000000
 11
721.0233160053746
 21
530.1350986196467
 31
0.0000000000000000
  0
MTEXT
  5
7F
100
AcDbEntity
  8
MAIN0
  6
BYBLOCK
 62
0
100
AcDbMText
 10
662.5233160053863
 20
529.7350985242792
 30
0.0000000000000000
 40
6.199999809265137
 41
0.0000000000000000
 71
     5
 72
     1
  1
\A1;117
 11
1.000000000000000
 21
0.0000000000000000
 31
0.0000000000000000
  7
STANDARD
  0
ENDBLK
  5
80
100
AcDbEntity
  8
MAIN0
  6
CONTINUOUS
 62
3
100
AcDbBlockEnd
  0
BLOCK
  5
82
100
AcDbEntity
  8
MAIN0
  6
CONTINUOUS
 62
3
100
AcDbBlockBegin
  2
*D6
 70
    65
 10
0.0
 20
0.0
 30
0.0
  0
LINE
  5
83
100
AcDbEntity
  8
MAIN0
  6
BYBLOCK
 62
0
100
AcDbLine
 10
604.0233160053981
 20
309.4987604381186
 30
0.0000000000000000
 11
604.0233160053990
 21
514.0751130429266
 31
0.0000000000000000
  0
LINE
  5
84
100
AcDbEntity
  8
MAIN0
  6
BYBLOCK
 62
0
100
AcDbLine
 10
604.0233160053990
 20
510.0751130429266
 30
0.0000000000000000
 11
619.0233160053991
 21
510.0751130429266
 31
0.0000000000000000
  0
INSERT
  5
85
100
AcDbEntity
  8
MAIN0
  6
BYBLOCK
 62
0
100
AcDbBlockReference
  2
_OPEN
 10
604.0233160053990
 20
510.0751130429266
 30
0.0000000000000000
 41
4.000000000000000
 42
4.000000000000000
 43
4.000000000000000
 50
0.0000000000000000
  0
INSERT
  5
86
100
AcDbEntity
  8
MAIN0
  6
BYBLOCK
 62
0
100
AcDbBlockReference
  2
_OPEN
 10
619.0233160053991
 20
510.0751130429266
 30
0.0000000000000000
 41
4.000000000000000
 42
4.000000000000000
 43
4.000000000000000
 50
180.0000000000000
  0
LINE
  5
87
100
AcDbEntity
  8
MAIN0
  6
BYBLOCK
 62
0
100
AcDbLine
 10
600.0233160053990
 20
510.0751130429266
 30
0.0000000000000000
 11
598.0233160053990
 21
510.0751130429266
 31
0.0000000000000000
  0
LINE
  5
88
100
AcDbEntity
  8
MAIN0
  6
BYBLOCK
 62
0
100
AcDbLine
 10
623.0233160053991
 20
510.0751130429266
 30
0.0000000000000000
 11
625.0233160053991
 21
510.0751130429266
 31
0.0000000000000000
  0
LINE
  5
89
100
AcDbEntity
  8
MAIN0
  6
BYBLOCK
 62
0
100
AcDbLine
 10
619.0233160053992
 20
319.4987604381188
 30
0.0000000000000000
 11
619.0233160053991
 21
514.0751130429266
 31
0.0000000000000000
  0
MTEXT
  5
8A
100
AcDbEntity
  8
MAIN0
  6
BYBLOCK
 62
0
100
AcDbMText
 10
611.5233160053990
 20
513.6751129475591
 30
0.0000000000000000
 40
6.199999809265137
 41
0.0000000000000000
 71
     5
 72
     1
  1
\A1;15
 11
1.000000000000000
 21
0.0000000000000000
 31
0.0000000000000000
  7
STANDARD
  0
ENDBLK
  5
8B
100
AcDbEntity
  8
MAIN0
  6
CONTINUOUS
 62
3
100
AcDbBlockEnd
  0
BLOCK
  5
8D
100
AcDbEntity
  8
MAIN0
  6
CONTINUOUS
 62
3
100
AcDbBlockBegin
  2
*D7
 70
    65
 10
0.0
 20
0.0
 30
0.0
  0
LINE
  5
8E
100
AcDbEntity
  8
MAIN0
  6
BYBLOCK
 62
0
100
AcDbLine
 10
619.0233160053992
 20
319.4987604381188
 30
0.0000000000000000
 11
619.0233160053991
 21
514.0751130429266
 31
0.0000000000000000
  0
LINE
  5
8F
100
AcDbEntity
  8
MAIN0
  6
BYBLOCK
 62
0
100
AcDbLine
 10
623.0233160053982
 20
510.0751130429266
 30
0.0000000000000000
 11
645.0233160053803
 21
510.0751130429266
 31
0.0000000000000000
  0
INSERT
  5
90
100
AcDbEntity
  8
MAIN0
  6
BYBLOCK
 62
0
100
AcDbBlockReference
  2
_OPEN
 10
619.0233160053982
 20
510.0751130429266
 30
0.0000000000000000
 41
4.000000000000000
 42
4.000000000000000
 43
4.000000000000000
 50
180.0000000000000
  0
INSERT
  5
91
100
AcDbEntity
  8
MAIN0
  6
BYBLOCK
 62
0
100
AcDbBlockReference
  2
_OPEN
 10
649.0233160053803
 20
510.0751130429266
 30
0.0000000000000000
 41
4.000000000000000
 42
4.000000000000000
 43
4.000000000000000
 50
0.0000000000000000
  0
LINE
  5
92
100
AcDbEntity
  8
MAIN0
  6
BYBLOCK
 62
0
100
AcDbLine
 10
649.0233160053803
 20
479.9987604381185
 30
0.0000000000000000
 11
649.0233160053803
 21
514.0751130429266
 31
0.0000000000000000
  0
MTEXT
  5
93
100
AcDbEntity
  8
MAIN0
  6
BYBLOCK
 62
0
100
AcDbMText
 10
634.0233160053892
 20
513.6751129475591
 30
0.0000000000000000
 40
6.199999809265137
 41
0.0000000000000000
 71
     5
 72
     1
  1
\A1;30
 11
1.000000000000000
 21
0.0000000000000000
 31
0.0000000000000000
  7
STANDARD
  0
ENDBLK
  5
94
100
AcDbEntity
  8
MAIN0
  6
CONTINUOUS
 62
3
100
AcDbBlockEnd
  0
BLOCK
  5
96
100
AcDbEntity
  8
MAIN0
  6
CONTINUOUS
 62
3
100
AcDbBlockBegin
  2
*D8
 70
    65
 10
0.0
 20
0.0
 30
0.0
  0
LINE
  5
97
100
AcDbEntity
  8
MAIN0
  6
BYBLOCK
 62
0
100
AcDbLine
 10
649.0233160053803
 20
479.9987604381185
 30
0.0000000000000000
 11
649.0233160053803
 21
514.0751130429266
 31
0.0000000000000000
  0
LINE
  5
98
100
AcDbEntity
  8
MAIN0
  6
BYBLOCK
 62
0
100
AcDbLine
 10
653.0233160053803
 20
510.0751130429266
 30
0.0000000000000000
 11
717.0233160053746
 21
510.0751130429266
 31
0.0000000000000000
  0
INSERT
  5
99
100
AcDbEntity
  8
MAIN0
  6
BYBLOCK
 62
0
100
AcDbBlockReference
  2
_OPEN
 10
649.0233160053803
 20
510.0751130429266
 30
0.0000000000000000
 41
4.000000000000000
 42
4.000000000000000
 43
4.000000000000000
 50
180.0000000000000
  0
INSERT
  5
9A
100
AcDbEntity
  8
MAIN0
  6
BYBLOCK
 62
0
100
AcDbBlockReference
  2
_OPEN
 10
721.0233160053746
 20
510.0751130429266
 30
0.0000000000000000
 41
4.000000000000000
 42
4.000000000000000
 43
4.000000000000000
 50
0.0000000000000000
  0
LINE
  5
9B
100
AcDbEntity
  8
MAIN0
  6
BYBLOCK
 62
0
100
AcDbLine
 10
721.0233160053746
 20
489.4987604381189
 30
0.0000000000000000
 11
721.0233160053746
 21
514.0751130429266
 31
0.0000000000000000
  0
MTEXT
  5
9C
100
AcDbEntity
  8
MAIN0
  6
BYBLOCK
 62
0
100
AcDbMText
 10
685.0233160053774
 20
513.6751129475591
 30
0.0000000000000000
 40
6.199999809265137
 41
0.0000000000000000
 71
     5
 72
     1
  1
\A1;72
 11
1.000000000000000
 21
0.0000000000000000
 31
0.0000000000000000
  7
STANDARD
  0
ENDBLK
  5
9D
100
AcDbEntity
  8
MAIN0
  6
CONTINUOUS
 62
3
100
AcDbBlockEnd
  0
BLOCK
  5
9F
100
AcDbEntity
  8
MAIN0
  6
CONTINUOUS
 62
3
100
AcDbBlockBegin
  2
*D9
 70
    65
 10
0.0
 20
0.0
 30
0.0
  0
LINE
  5
A0
100
AcDbEntity
  8
MAIN0
  6
BYBLOCK
 62
0
100
AcDbLine
 10
487.6282014718363
 20
214.8987604151580
 30
0.0000000000000000
 11
582.3563029260912
 21
214.8987604151580
 31
0.0000000000000000
  0
LINE
  5
A1
100
AcDbEntity
  8
MAIN0
  6
BYBLOCK
 62
0
100
AcDbLine
 10
578.3563029260912
 20
218.8987604151580
 30
0.0000000000000000
 11
578.3563029260912
 21
253.8987604141852
 31
0.0000000000000000
  0
INSERT
  5
A2
100
AcDbEntity
  8
MAIN0
  6
BYBLOCK
 62
0
100
AcDbBlockReference
  2
_OPEN
 10
578.3563029260912
 20
214.8987604151580
 30
0.0000000000000000
 41
4.000000000000000
 42
4.000000000000000
 43
4.000000000000000
 50
270.0000000000000
  0
INSERT
  5
A3
100
AcDbEntity
  8
MAIN0
  6
BYBLOCK
 62
0
100
AcDbBlockReference
  2
_OPEN
 10
578.3563029260912
 20
257.8987604141852
 30
0.0000000000000000
 41
4.000000000000000
 42
4.000000000000000
 43
4.000000000000000
 50
90.00000000000000
  0
MTEXT
  5
A4
100
AcDbEntity
  8
MAIN0
  6
BYBLOCK
 62
0
100
AcDbMText
 10
574.7563030214586
 20
236.3987604146716
 30
0.0000000000000000
 40
6.199999809265137
 41
0.0000000000000000
 71
     5
 72
     1
  1
\A1;43
 11
6.123233995736766e-017
 21
1.000000000000000
 31
0.0000000000000000
  7
STANDARD
  0
ENDBLK
  5
A5
100
AcDbEntity
  8
MAIN0
  6
CONTINUOUS
 62
3
100
AcDbBlockEnd
  0
BLOCK
  5
B6
100
AcDbEntity
  8
MAIN0
  6
CONTINUOUS
 62
3
100
AcDbBlockBegin
  2
*D10
 70
    65
 10
0.0
 20
0.0
 30
0.0
  0
LINE
  5
B7
100
AcDbEntity
  8
MAIN0
  6
BYBLOCK
 62
0
100
AcDbLine
 10
590.5498980099002
 20
238.9987604381648
 30
0.0000000000000000
 11
590.5498980099002
 21
270.8039422585233
 31
0.0000000000000000
  0
LINE
  5
B8
100
AcDbEntity
  8
MAIN0
  6
BYBLOCK
 62
0
100
AcDbLine
 10
594.5498980099002
 20
266.8039422585233
 30
0.0000000000000000
 11
621.5498980098996
 21
266.8039422585233
 31
0.0000000000000000
  0
INSERT
  5
B9
100
AcDbEntity
  8
MAIN0
  6
BYBLOCK
 62
0
100
AcDbBlockReference
  2
_OPEN
 10
590.5498980099002
 20
266.8039422585233
 30
0.0000000000000000
 41
4.000000000000000
 42
4.000000000000000
 43
4.000000000000000
 50
180.0000000000000
  0
INSERT
  5
BA
100
AcDbEntity
  8
MAIN0
  6
BYBLOCK
 62
0
100
AcDbBlockReference
  2
_OPEN
 10
625.5498980098996
 20
266.8039422585233
 30
0.0000000000000000
 41
4.000000000000000
 42
4.000000000000000
 43
4.000000000000000
 50
0.0000000000000000
  0
LINE
  5
BB
100
AcDbEntity
  8
MAIN0
  6
BYBLOCK
 62
0
100
AcDbLine
 10
625.5498980098996
 20
238.9987604381540
 30
0.0000000000000000
 11
625.5498980098996
 21
270.8039422585233
 31
0.0000000000000000
  0
MTEXT
  5
BC
100
AcDbEntity
  8
MAIN0
  6
BYBLOCK
 62
0
100
AcDbMText
 10
608.0498980098998
 20
270.4039421631559
 30
0.0000000000000000
 40
6.199999809265137
 41
0.0000000000000000
 71
     5
 72
     1
  1
\A1;35
 11
1.000000000000000
 21
0.0000000000000000
 31
0.0000000000000000
  7
STANDARD
  0
ENDBLK
  5
BD
100
AcDbEntity
  8
MAIN0
  6
CONTINUOUS
 62
3
100
AcDbBlockEnd
  0
BLOCK
  5
CB
100
AcDbEntity
  8
MAIN0
  6
CONTINUOUS
 62
3
100
AcDbBlockBegin
  2
*D11
 70
    65
 10
0.0
 20
0.0
 30
0.0
  0
LINE
  5
CC
100
AcDbEntity
  8
MAIN0
  6
BYBLOCK
 62
0
100
AcDbLine
 10
674.3071123253402
 20
152.6396660268628
 30
0.0000000000000000
 11
656.4942777648505
 21
152.6396660268628
 31
0.0000000000000000
  0
LINE
  5
CD
100
AcDbEntity
  8
MAIN0
  6
BYBLOCK
 62
0
100
AcDbLine
 10
660.4942777648505
 20
148.6396660268628
 30
0.0000000000000000
 11
660.4942777648505
 21
134.6396660268628
 31
0.0000000000000000
  0
INSERT
  5
CE
100
AcDbEntity
  8
MAIN0
  6
BYBLOCK
 62
0
100
AcDbBlockReference
  2
_OPEN
 10
660.4942777648505
 20
152.6396660268628
 30
0.0000000000000000
 41
4.000000000000000
 42
4.000000000000000
 43
4.000000000000000
 50
90.00000000000000
  0
INSERT
  5
CF
100
AcDbEntity
  8
MAIN0
  6
BYBLOCK
 62
0
100
AcDbBlockReference
  2
_OPEN
 10
660.4942777648505
 20
130.6396660268628
 30
0.0000000000000000
 41
4.000000000000000
 42
4.000000000000000
 43
4.000000000000000
 50
270.0000000000000
  0
LINE
  5
D0
100
AcDbEntity
  8
MAIN0
  6
BYBLOCK
 62
0
100
AcDbLine
 10
674.3071123253402
 20
130.6396660268628
 30
0.0000000000000000
 11
656.4942777648505
 21
130.6396660268628
 31
0.0000000000000000
  0
MTEXT
  5
D1
100
AcDbEntity
  8
MAIN0
  6
BYBLOCK
 62
0
100
AcDbMText
 10
656.8942778602179
 20
141.6396660268628
 30
0.0000000000000000
 40
6.199999809265137
 41
0.0000000000000000
 71
     5
 72
     1
  1
\A1;22
 11
6.123233995736766e-017
 21
1.000000000000000
 31
0.0000000000000000
  7
STANDARD
  0
ENDBLK
  5
D2
100
AcDbEntity
  8
MAIN0
  6
CONTINUOUS
 62
3
100
AcDbBlockEnd
  0
BLOCK
  5
D4
100
AcDbEntity
  8
MAIN0
  6
CONTINUOUS
 62
3
100
AcDbBlockBegin
  2
*D12
 70
    65
 10
0.0
 20
0.0
 30
0.0
  0
LINE
  5
D5
100
AcDbEntity
  8
MAIN0
  6
BYBLOCK
 62
0
100
AcDbLine
 10
675.9071123491821
 20
129.0396660030210
 30
0.0000000000000000
 11
675.9071123491821
 21
108.2470865662400
 31
0.0000000000000000
  0
LINE
  5
D6
100
AcDbEntity
  8
MAIN0
  6
BYBLOCK
 62
0
100
AcDbLine
 10
679.9071123491821
 20
112.2470865662400
 30
0.0000000000000000
 11
700.4071123491821
 21
112.2470865662400
 31
0.0000000000000000
  0
INSERT
  5
D7
100
AcDbEntity
  8
MAIN0
  6
BYBLOCK
 62
0
100
AcDbBlockReference
  2
_OPEN
 10
675.9071123491821
 20
112.2470865662400
 30
0.0000000000000000
 41
4.000000000000000
 42
4.000000000000000
 43
4.000000000000000
 50
180.0000000000000
  0
INSERT
  5
D8
100
AcDbEntity
  8
MAIN0
  6
BYBLOCK
 62
0
100
AcDbBlockReference
  2
_OPEN
 10
704.4071123491821
 20
112.2470865662400
 30
0.0000000000000000
 41
4.000000000000000
 42
4.000000000000000
 43
4.000000000000000
 50
0.0000000000000000
  0
LINE
  5
D9
100
AcDbEntity
  8
MAIN0
  6
BYBLOCK
 62
0
100
AcDbLine
 10
704.4071123491821
 20
129.0396660030210
 30
0.0000000000000000
 11
704.4071123491821
 21
108.2470865662400
 31
0.0000000000000000
  0
MTEXT
  5
DA
100
AcDbEntity
  8
MAIN0
  6
BYBLOCK
 62
0
100
AcDbMText
 10
690.1571123491821
 20
115.8470864708726
 30
0.0000000000000000
 40
6.199999809265137
 41
0.0000000000000000
 71
     5
 72
     1
  1
\A1;28.5
 11
1.000000000000000
 21
0.0000000000000000
 31
0.0000000000000000
  7
STANDARD
  0
ENDBLK
  5
DB
100
AcDbEntity
  8
MAIN0
  6
CONTINUOUS
 62
3
100
AcDbBlockEnd
  0
BLOCK
  5
DD
100
AcDbEntity
  8
MAIN0
  6
CONTINUOUS
 62
3
100
AcDbBlockBegin
  2
*D13
 70
    65
 10
0.0
 20
0.0
 30
0.0
  0
LINE
  5
DE
100
AcDbEntity
  8
MAIN0
  6
BYBLOCK
 62
0
100
AcDbLine
 10
706.0071123730239
 20
148.5396660268628
 30
0.0000000000000000
 11
730.0468272212206
 21
148.5396660268628
 31
0.0000000000000000
  0
LINE
  5
DF
100
AcDbEntity
  8
MAIN0
  6
BYBLOCK
 62
0
100
AcDbLine
 10
726.0468272212206
 20
148.5396660268628
 30
0.0000000000000000
 11
726.0468272212206
 21
134.7396660268628
 31
0.0000000000000000
  0
INSERT
  5
E0
100
AcDbEntity
  8
MAIN0
  6
BYBLOCK
 62
0
100
AcDbBlockReference
  2
_OPEN
 10
726.0468272212206
 20
148.5396660268628
 30
0.0000000000000000
 41
4.000000000000000
 42
4.000000000000000
 43
4.000000000000000
 50
270.0000000000000
  0
INSERT
  5
E1
100
AcDbEntity
  8
MAIN0
  6
BYBLOCK
 62
0
100
AcDbBlockReference
  2
_OPEN
 10
726.0468272212206
 20
134.7396660268628
 30
0.0000000000000000
 41
4.000000000000000
 42
4.000000000000000
 43
4.000000000000000
 50
90.00000000000000
  0
LINE
  5
E2
100
AcDbEntity
  8
MAIN0
  6
BYBLOCK
 62
0
100
AcDbLine
 10
726.0468272212206
 20
152.5396660268628
 30
0.0000000000000000
 11
726.0468272212206
 21
154.5396660268628
 31
0.0000000000000000
  0
LINE
  5
E3
100
AcDbEntity
  8
MAIN0
  6
BYBLOCK
 62
0
100
AcDbLine
 10
726.0468272212206
 20
130.7396660268628
 30
0.0000000000000000
 11
726.0468272212206
 21
113.3317912298235
 31
0.0000000000000000
  0
LINE
  5
E4
100
AcDbEntity
  8
MAIN0
  6
BYBLOCK
 62
0
100
AcDbLine
 10
706.0071123730239
 20
134.7396660268628
 30
0.0000000000000000
 11
730.0468272212206
 21
134.7396660268628
 31
0.0000000000000000
  0
MTEXT
  5
E5
100
AcDbEntity
  8
MAIN0
  6
BYBLOCK
 62
0
100
AcDbMText
 10
721.9468273165880
 20
120.6317914205584
 30
0.0000000000000000
 40
6.199999809265137
 41
0.0000000000000000
 71
     5
 72
     1
  1
\A1;13.8
 11
6.123233995736766e-017
 21
1.000000000000000
 31
0.0000000000000000
  7
STANDARD
  0
ENDBLK
  5
E6
100
AcDbEntity
  8
MAIN0
  6
CONTINUOUS
 62
3
100
AcDbBlockEnd
  0
BLOCK
  5
E8
100
AcDbEntity
  8
MAIN0
  6
CONTINUOUS
 62
3
100
AcDbBlockBegin
  2
*D14
 70
    65
 10
0.0
 20
0.0
 30
0.0
  0
LINE
  5
E9
100
AcDbEntity
  8
MAIN0
  6
BYBLOCK
 62
0
100
AcDbLine
 10
213.4282014479945
 20
213.6987603913162
 30
0.0000000000000000
 11
213.4282014479945
 21
157.8987604145634
 31
0.0000000000000000
  0
LINE
  5
EA
100
AcDbEntity
  8
MAIN0
  6
BYBLOCK
 62
0
100
AcDbLine
 10
217.4282014479945
 20
161.8987604145634
 30
0.0000000000000000
 11
482.4282014479941
 21
161.8987604145634
 31
0.0000000000000000
  0
INSERT
  5
EB
100
AcDbEntity
  8
MAIN0
  6
BYBLOCK
 62
0
100
AcDbBlockReference
  2
_OPEN
 10
213.4282014479945
 20
161.8987604145634
 30
0.0000000000000000
 41
4.000000000000000
 42
4.000000000000000
 43
4.000000000000000
 50
180.0000000000000
  0
INSERT
  5
EC
100
AcDbEntity
  8
MAIN0
  6
BYBLOCK
 62
0
100
AcDbBlockReference
  2
_OPEN
 10
486.4282014479941
 20
161.8987604145634
 30
0.0000000000000000
 41
4.000000000000000
 42
4.000000000000000
 43
4.000000000000000
 50
0.0000000000000000
  0
LINE
  5
ED
100
AcDbEntity
  8
MAIN0
  6
BYBLOCK
 62
0
100
AcDbLine
 10
486.4282014479941
 20
213.6987603913162
 30
0.0000000000000000
 11
486.4282014479941
 21
157.8987604145634
 31
0.0000000000000000
  0
MTEXT
  5
EE
100
AcDbEntity
  8
MAIN0
  6
BYBLOCK
 62
0
100
AcDbMText
 10
349.9282014479943
 20
165.4987603191960
 30
0.0000000000000000
 40
6.199999809265137
 41
0.0000000000000000
 71
     5
 72
     1
  1
\A1;273
 11
1.000000000000000
 21
0.0000000000000000
 31
0.0000000000000000
  7
STANDARD
  0
ENDBLK
  5
EF
100
AcDbEntity
  8
MAIN0
  6
CONTINUOUS
 62
3
100
AcDbBlockEnd
  0
BLOCK
  5
F1
100
AcDbEntity
  8
MAIN0
  6
CONTINUOUS
 62
3
100
AcDbBlockBegin
  2
*D15
 70
    65
 10
0.0
 20
0.0
 30
0.0
  0
LINE
  5
F2
100
AcDbEntity
  8
MAIN0
  6
BYBLOCK
 62
0
100
AcDbLine
 10
486.4282014479941
 20
213.6987603913162
 30
0.0000000000000000
 11
486.4282014479941
 21
157.8987604145634
 31
0.0000000000000000
  0
LINE
  5
F3
100
AcDbEntity
  8
MAIN0
  6
BYBLOCK
 62
0
100
AcDbLine
 10
490.4282014479941
 20
161.8987604145634
 30
0.0000000000000000
 11
564.4282014479943
 21
161.8987604145634
 31
0.0000000000000000
  0
INSERT
  5
F4
100
AcDbEntity
  8
MAIN0
  6
BYBLOCK
 62
0
100
AcDbBlockReference
  2
_OPEN
 10
486.4282014479941
 20
161.8987604145634
 30
0.0000000000000000
 41
4.000000000000000
 42
4.000000000000000
 43
4.000000000000000
 50
180.0000000000000
  0
INSERT
  5
F5
100
AcDbEntity
  8
MAIN0
  6
BYBLOCK
 62
0
100
AcDbBlockReference
  2
_OPEN
 10
568.4282014479943
 20
161.8987604145634
 30
0.0000000000000000
 41
4.000000000000000
 42
4.000000000000000
 43
4.000000000000000
 50
0.0000000000000000
  0
LINE
  5
F6
100
AcDbEntity
  8
MAIN0
  6
BYBLOCK
 62
0
100
AcDbLine
 10
568.4282014479943
 20
231.2987603903570
 30
0.0000000000000000
 11
568.4282014479943
 21
157.8987604145634
 31
0.0000000000000000
  0
MTEXT
  5
F7
100
AcDbEntity
  8
MAIN0
  6
BYBLOCK
 62
0
100
AcDbMText
 10
527.4282014479942
 20
165.4987603191960
 30
0.0000000000000000
 40
6.199999809265137
 41
0.0000000000000000
 71
     5
 72
     1
  1
\A1;82
 11
1.000000000000000
 21
0.0000000000000000
 31
0.0000000000000000
  7
STANDARD
  0
ENDBLK
  5
F8
100
AcDbEntity
  8
MAIN0
  6
CONTINUOUS
 62
3
100
AcDbBlockEnd
  0
BLOCK
  5
FA
100
AcDbEntity
  8
MAIN0
  6
CONTINUOUS
 62
3
100
AcDbBlockBegin
  2
*D16
 70
    65
 10
0.0
 20
0.0
 30
0.0
  0
LINE
  5
FB
100
AcDbEntity
  8
MAIN0
  6
BYBLOCK
 62
0
100
AcDbLine
 10
212.2282014241528
 20
214.8987604151580
 30
0.0000000000000000
 11
193.4282014479945
 21
214.8987604151580
 31
0.0000000000000000
  0
LINE
  5
FC
100
AcDbEntity
  8
MAIN0
  6
BYBLOCK
 62
0
100
AcDbLine
 10
197.4282014479945
 20
218.8987604151580
 30
0.0000000000000000
 11
197.4282014479945
 21
285.8987604151580
 31
0.0000000000000000
  0
INSERT
  5
FD
100
AcDbEntity
  8
MAIN0
  6
BYBLOCK
 62
0
100
AcDbBlockReference
  2
_OPEN
 10
197.4282014479945
 20
214.8987604151580
 30
0.0000000000000000
 41
4.000000000000000
 42
4.000000000000000
 43
4.000000000000000
 50
270.0000000000000
  0
INSERT
  5
FE
100
AcDbEntity
  8
MAIN0
  6
BYBLOCK
 62
0
100
AcDbBlockReference
  2
_OPEN
 10
197.4282014479945
 20
289.8987604151580
 30
0.0000000000000000
 41
4.000000000000000
 42
4.000000000000000
 43
4.000000000000000
 50
90.00000000000000
  0
LINE
  5
FF
100
AcDbEntity
  8
MAIN0
  6
BYBLOCK
 62
0
100
AcDbLine
 10
212.8282014241527
 20
289.8987604151580
 30
0.0000000000000000
 11
193.4282014479945
 21
289.8987604151580
 31
0.0000000000000000
  0
MTEXT
  5
100
100
AcDbEntity
  8
MAIN0
  6
BYBLOCK
 62
0
100
AcDbMText
 10
193.8282015433620
 20
252.3987604151580
 30
0.0000000000000000
 40
6.199999809265137
 41
0.0000000000000000
 71
     5
 72
     1
  1
\A1;75
 11
6.123233995736766e-017
 21
1.000000000000000
 31
0.0000000000000000
  7
STANDARD
  0
ENDBLK
  5
101
100
AcDbEntity
  8
MAIN0
  6
CONTINUOUS
 62
3
100
AcDbBlockEnd
  0
BLOCK
  5
103
100
AcDbEntity
  8
MAIN0
  6
CONTINUOUS
 62
3
100
AcDbBlockBegin
  2
*D17
 70
    65
 10
0.0
 20
0.0
 30
0.0
  0
LINE
  5
104
100
AcDbEntity
  8
MAIN0
  6
BYBLOCK
 62
0
100
AcDbLine
 10
212.8282014241527
 20
289.8987604151580
 30
0.0000000000000000
 11
193.4282014479945
 21
289.8987604151580
 31
0.0000000000000000
  0
LINE
  5
105
100
AcDbEntity
  8
MAIN0
  6
BYBLOCK
 62
0
100
AcDbLine
 10
197.4282014479945
 20
293.8987604151580
 30
0.0000000000000000
 11
197.4282014479945
 21
325.8987604151575
 31
0.0000000000000000
  0
INSERT
  5
106
100
AcDbEntity
  8
MAIN0
  6
BYBLOCK
 62
0
100
AcDbBlockReference
  2
_OPEN
 10
197.4282014479945
 20
289.8987604151580
 30
0.0000000000000000
 41
4.000000000000000
 42
4.000000000000000
 43
4.000000000000000
 50
270.0000000000000
  0
INSERT
  5
107
100
AcDbEntity
  8
MAIN0
  6
BYBLOCK
 62
0
100
AcDbBlockReference
  2
_OPEN
 10
197.4282014479945
 20
329.8987604151575
 30
0.0000000000000000
 41
4.000000000000000
 42
4.000000000000000
 43
4.000000000000000
 50
90.00000000000000
  0
LINE
  5
108
100
AcDbEntity
  8
MAIN0
  6
BYBLOCK
 62
0
100
AcDbLine
 10
213.0282014241520
 20
329.8987604151575
 30
0.0000000000000000
 11
193.4282014479945
 21
329.8987604151575
 31
0.0000000000000000
  0
MTEXT
  5
109
100
AcDbEntity
  8
MAIN0
  6
BYBLOCK
 62
0
100
AcDbMText
 10
193.8282015433620
 20
309.8987604151578
 30
0.0000000000000000
 40
6.199999809265137
 41
0.0000000000000000
 71
     5
 72
     1
  1
\A1;40
 11
6.123233995736766e-017
 21
1.000000000000000
 31
0.0000000000000000
  7
STANDARD
  0
ENDBLK
  5
10A
100
AcDbEntity
  8
MAIN0
  6
CONTINUOUS
 62
3
100
AcDbBlockEnd
  0
BLOCK
  5
10F
100
AcDbEntity
  8
MAIN0
  6
CONTINUOUS
 62
3
100
AcDbBlockBegin
  2
*D18
 70
    65
 10
0.0
 20
0.0
 30
0.0
  0
LINE
  5
110
100
AcDbEntity
  8
MAIN0
  6
BYBLOCK
 62
0
100
AcDbLine
 10
650.1571123490566
 20
235.7987603904539
 30
0.0000000000000000
 11
650.1571123490566
 21
167.9084246497518
 31
0.0000000000000000
  0
LINE
  5
111
100
AcDbEntity
  8
MAIN0
  6
BYBLOCK
 62
0
100
AcDbLine
 10
654.1571123490566
 20
171.9084246497518
 30
0.0000000000000000
 11
706.1571123491818
 21
171.9084246497518
 31
0.0000000000000000
  0
INSERT
  5
112
100
AcDbEntity
  8
MAIN0
  6
BYBLOCK
 62
0
100
AcDbBlockReference
  2
_OPEN
 10
650.1571123490566
 20
171.9084246497518
 30
0.0000000000000000
 41
4.000000000000000
 42
4.000000000000000
 43
4.000000000000000
 50
180.0000000000000
  0
INSERT
  5
113
100
AcDbEntity
  8
MAIN0
  6
BYBLOCK
 62
0
100
AcDbBlockReference
  2
_OPEN
 10
710.1571123491818
 20
171.9084246497518
 30
0.0000000000000000
 41
4.000000000000000
 42
4.000000000000000
 43
4.000000000000000
 50
0.0000000000000000
  0
LINE
  5
114
100
AcDbEntity
  8
MAIN0
  6
BYBLOCK
 62
0
100
AcDbLine
 10
710.1571123491818
 20
213.2987603904537
 30
0.0000000000000000
 11
710.1571123491818
 21
167.9084246497518
 31
0.0000000000000000
  0
MTEXT
  5
115
100
AcDbEntity
  8
MAIN0
  6
BYBLOCK
 62
0
100
AcDbMText
 10
680.1571123491192
 20
175.5084245543844
 30
0.0000000000000000
 40
6.199999809265137
 41
0.0000000000000000
 71
     5
 72
     1
  1
\A1;60
 11
1.000000000000000
 21
0.0000000000000000
 31
0.0000000000000000
  7
STANDARD
  0
ENDBLK
  5
116
100
AcDbEntity
  8
MAIN0
  6
CONTINUOUS
 62
3
100
AcDbBlockEnd
  0
BLOCK
  5
118
100
AcDbEntity
  8
MAIN0
  6
CONTINUOUS
 62
3
100
AcDbBlockBegin
  2
*D19
 70
    65
 10
0.0
 20
0.0
 30
0.0
  0
LINE
  5
119
100
AcDbEntity
  8
MAIN0
  6
BYBLOCK
 62
0
100
AcDbLine
 10
710.1571123491818
 20
213.2987603904537
 30
0.0000000000000000
 11
710.1571123491818
 21
167.9084246497518
 31
0.0000000000000000
  0
LINE
  5
11A
100
AcDbEntity
  8
MAIN0
  6
BYBLOCK
 62
0
100
AcDbLine
 10
714.1571123491818
 20
171.9084246497518
 30
0.0000000000000000
 11
809.1571123491821
 21
171.9084246497518
 31
0.0000000000000000
  0
INSERT
  5
11B
100
AcDbEntity
  8
MAIN0
  6
BYBLOCK
 62
0
100
AcDbBlockReference
  2
_OPEN
 10
710.1571123491818
 20
171.9084246497518
 30
0.0000000000000000
 41
4.000000000000000
 42
4.000000000000000
 43
4.000000000000000
 50
180.0000000000000
  0
INSERT
  5
11C
100
AcDbEntity
  8
MAIN0
  6
BYBLOCK
 62
0
100
AcDbBlockReference
  2
_OPEN
 10
813.1571123491821
 20
171.9084246497518
 30
0.0000000000000000
 41
4.000000000000000
 42
4.000000000000000
 43
4.000000000000000
 50
0.0000000000000000
  0
LINE
  5
11D
100
AcDbEntity
  8
MAIN0
  6
BYBLOCK
 62
0
100
AcDbLine
 10
813.1571123491821
 20
213.2987603904537
 30
0.0000000000000000
 11
813.1571123491821
 21
167.9084246497518
 31
0.0000000000000000
  0
MTEXT
  5
11E
100
AcDbEntity
  8
MAIN0
  6
BYBLOCK
 62
0
100
AcDbMText
 10
761.6571123491819
 20
175.5084245543844
 30
0.0000000000000000
 40
6.199999809265137
 41
0.0000000000000000
 71
     5
 72
     1
  1
\A1;103
 11
1.000000000000000
 21
0.0000000000000000
 31
0.0000000000000000
  7
STANDARD
  0
ENDBLK
  5
11F
100
AcDbEntity
  8
MAIN0
  6
CONTINUOUS
 62
3
100
AcDbBlockEnd
  0
BLOCK
  5
121
100
AcDbEntity
  8
MAIN0
  6
CONTINUOUS
 62
3
100
AcDbBlockBegin
  2
D20
 70
    64
 10
0.0
 20
0.0
 30
0.0
  0
LINE
  5
122
100
AcDbEntity
  8
MAIN0
  6
BYBLOCK
 62
0
100
AcDbLine
 10
5.749999922073698
 20
-45.94773636729701
 30
0.0000000000000000
 11
-111.5000000001259
 21
-45.94773636729681
 31
0.0000000000000000
  0
LINE
  5
123
100
AcDbEntity
  8
MAIN0
  6
BYBLOCK
 62
0
100
AcDbLine
 10
-107.5000000001259
 20
-47.14773641498054
 30
0.0000000000000000
 11
-111.5000000001259
 21
-45.94773636729681
 31
0.0000000000000000
  0
LINE
  5
124
100
AcDbEntity
  8
MAIN0
  6
BYBLOCK
 62
0
100
AcDbLine
 10
-111.5000000001259
 20
-45.94773636729681
 30
0.0000000000000000
 11
-107.5000000001259
 21
-44.74773631961310
 31
0.0000000000000000
  0
LINE
  5
125
100
AcDbEntity
  8
MAIN0
  6
BYBLOCK
 62
0
100
AcDbLine
 10
-111.5000000001256
 20
30.89520758666731
 30
0.0000000000000000
 11
-111.5000000001259
 21
-49.94773636729681
 31
0.0000000000000000
  0
MTEXT
  5
126
100
AcDbEntity
  8
MAIN0
  6
BYBLOCK
 62
0
100
AcDbMText
 10
-1.136868377216160e-013
 20
-41.84773646266444
 30
0.0000000000000000
 40
6.199999809265137
 41
0.0000000000000000
 71
     5
 72
     1
  1
\A1;（223）
 11
1.000000000000000
 21
0.0000000000000000
 31
0.0000000000000000
  7
KNJYOKO
  0
ENDBLK
  5
127
100
AcDbEntity
  8
MAIN0
  6
CONTINUOUS
 62
3
100
AcDbBlockEnd
  0
BLOCK
  5
167
100
AcDbEntity
  8
MAIN0
  6
CONTINUOUS
 62
3
100
AcDbBlockBegin
  2
*D21
 70
    65
 10
0.0
 20
0.0
 30
0.0
  0
LINE
  5
168
100
AcDbEntity
  8
MAIN0
  6
BYBLOCK
 62
0
100
AcDbLine
 10
217.4282014479945
 20
243.8987604140393
 30
0.0000000000000000
 11
299.4282014479944
 21
243.8987604140393
 31
0.0000000000000000
  0
INSERT
  5
169
100
AcDbEntity
  8
MAIN0
  6
BYBLOCK
 62
0
100
AcDbBlockReference
  2
_OPEN
 10
213.4282014479945
 20
243.8987604140393
 30
0.0000000000000000
 41
4.000000000000000
 42
4.000000000000000
 43
4.000000000000000
 50
180.0000000000000
  0
INSERT
  5
16A
100
AcDbEntity
  8
MAIN0
  6
BYBLOCK
 62
0
100
AcDbBlockReference
  2
_OPEN
 10
303.4282014479944
 20
243.8987604140393
 30
0.0000000000000000
 41
4.000000000000000
 42
4.000000000000000
 43
4.000000000000000
 50
0.0000000000000000
  0
LINE
  5
16B
100
AcDbEntity
  8
MAIN0
  6
BYBLOCK
 62
0
100
AcDbLine
 10
303.4282014479944
 20
267.2987603913161
 30
0.0000000000000000
 11
303.4282014479944
 21
239.8987604140393
 31
0.0000000000000000
  0
MTEXT
  5
16C
100
AcDbEntity
  8
MAIN0
  6
BYBLOCK
 62
0
100
AcDbMText
 10
258.4282014479944
 20
247.4987603186719
 30
0.0000000000000000
 40
6.199999809265137
 41
0.0000000000000000
 71
     5
 72
     1
  1
\A1;90
 11
1.000000000000000
 21
0.0000000000000000
 31
0.0000000000000000
  7
STANDARD
  0
ENDBLK
  5
16D
100
AcDbEntity
  8
MAIN0
  6
CONTINUOUS
 62
3
100
AcDbBlockEnd
  0
BLOCK
  5
16F
100
AcDbEntity
  8
MAIN0
  6
CONTINUOUS
 62
3
100
AcDbBlockBegin
  2
*D22
 70
    65
 10
0.0
 20
0.0
 30
0.0
  0
LINE
  5
170
100
AcDbEntity
  8
MAIN0
  6
BYBLOCK
 62
0
100
AcDbLine
 10
303.4282014479944
 20
267.2987603913161
 30
0.0000000000000000
 11
303.4282014479944
 21
239.8987604140393
 31
0.0000000000000000
  0
LINE
  5
171
100
AcDbEntity
  8
MAIN0
  6
BYBLOCK
 62
0
100
AcDbLine
 10
307.4282014479944
 20
243.8987604140393
 30
0.0000000000000000
 11
404.4282014479944
 21
243.8987604140393
 31
0.0000000000000000
  0
INSERT
  5
172
100
AcDbEntity
  8
MAIN0
  6
BYBLOCK
 62
0
100
AcDbBlockReference
  2
_OPEN
 10
303.4282014479944
 20
243.8987604140393
 30
0.0000000000000000
 41
4.000000000000000
 42
4.000000000000000
 43
4.000000000000000
 50
180.0000000000000
  0
INSERT
  5
173
100
AcDbEntity
  8
MAIN0
  6
BYBLOCK
 62
0
100
AcDbBlockReference
  2
_OPEN
 10
408.4282014479944
 20
243.8987604140393
 30
0.0000000000000000
 41
4.000000000000000
 42
4.000000000000000
 43
4.000000000000000
 50
0.0000000000000000
  0
LINE
  5
174
100
AcDbEntity
  8
MAIN0
  6
BYBLOCK
 62
0
100
AcDbLine
 10
408.4282014479944
 20
267.2987603913161
 30
0.0000000000000000
 11
408.4282014479944
 21
239.8987604140393
 31
0.0000000000000000
  0
MTEXT
  5
175
100
AcDbEntity
  8
MAIN0
  6
BYBLOCK
 62
0
100
AcDbMText
 10
355.9282014479944
 20
247.4987603186719
 30
0.0000000000000000
 40
6.199999809265137
 41
0.0000000000000000
 71
     5
 72
     1
  1
\A1;105
 11
1.000000000000000
 21
0.0000000000000000
 31
0.0000000000000000
  7
STANDARD
  0
ENDBLK
  5
176
100
AcDbEntity
  8
MAIN0
  6
CONTINUOUS
 62
3
100
AcDbBlockEnd
  0
BLOCK
  5
178
100
AcDbEntity
  8
MAIN0
  6
CONTINUOUS
 62
3
100
AcDbBlockBegin
  2
*D23
 70
    65
 10
0.0
 20
0.0
 30
0.0
  0
LINE
  5
179
100
AcDbEntity
  8
MAIN0
  6
BYBLOCK
 62
0
100
AcDbLine
 10
408.4282014479944
 20
267.2987603913161
 30
0.0000000000000000
 11
408.4282014479944
 21
239.8987604140393
 31
0.0000000000000000
  0
LINE
  5
17A
100
AcDbEntity
  8
MAIN0
  6
BYBLOCK
 62
0
100
AcDbLine
 10
412.4282014479944
 20
243.8987604140393
 30
0.0000000000000000
 11
482.4282014479941
 21
243.8987604140393
 31
0.0000000000000000
  0
INSERT
  5
17B
100
AcDbEntity
  8
MAIN0
  6
BYBLOCK
 62
0
100
AcDbBlockReference
  2
_OPEN
 10
408.4282014479944
 20
243.8987604140393
 30
0.0000000000000000
 41
4.000000000000000
 42
4.000000000000000
 43
4.000000000000000
 50
180.0000000000000
  0
INSERT
  5
17C
100
AcDbEntity
  8
MAIN0
  6
BYBLOCK
 62
0
100
AcDbBlockReference
  2
_OPEN
 10
486.4282014479941
 20
243.8987604140393
 30
0.0000000000000000
 41
4.000000000000000
 42
4.000000000000000
 43
4.000000000000000
 50
0.0000000000000000
  0
MTEXT
  5
17D
100
AcDbEntity
  8
MAIN0
  6
BYBLOCK
 62
0
100
AcDbMText
 10
447.4282014479942
 20
247.4987603186719
 30
0.0000000000000000
 40
6.199999809265137
 41
0.0000000000000000
 71
     5
 72
     1
  1
\A1;78
 11
1.000000000000000
 21
0.0000000000000000
 31
0.0000000000000000
  7
STANDARD
  0
ENDBLK
  5
17E
100
AcDbEntity
  8
MAIN0
  6
CONTINUOUS
 62
3
100
AcDbBlockEnd
  0
BLOCK
  5
180
100
AcDbEntity
  8
MAIN0
  6
CONTINUOUS
 62
3
100
AcDbBlockBegin
  2
*D24
 70
    65
 10
0.0
 20
0.0
 30
0.0
  0
LINE
  5
181
100
AcDbEntity
  8
MAIN0
  6
BYBLOCK
 62
0
100
AcDbLine
 10
250.9282014479943
 20
329.4987604389992
 30
0.0000000000000000
 11
250.9282014479943
 21
355.8987604151575
 31
0.0000000000000000
  0
LINE
  5
182
100
AcDbEntity
  8
MAIN0
  6
BYBLOCK
 62
0
100
AcDbLine
 10
254.9282014479943
 20
351.8987604151575
 30
0.0000000000000000
 11
283.4282014479941
 21
351.8987604151575
 31
0.0000000000000000
  0
INSERT
  5
183
100
AcDbEntity
  8
MAIN0
  6
BYBLOCK
 62
0
100
AcDbBlockReference
  2
_OPEN
 10
250.9282014479943
 20
351.8987604151575
 30
0.0000000000000000
 41
4.000000000000000
 42
4.000000000000000
 43
4.000000000000000
 50
180.0000000000000
  0
INSERT
  5
184
100
AcDbEntity
  8
MAIN0
  6
BYBLOCK
 62
0
100
AcDbBlockReference
  2
_OPEN
 10
287.4282014479941
 20
351.8987604151575
 30
0.0000000000000000
 41
4.000000000000000
 42
4.000000000000000
 43
4.000000000000000
 50
0.0000000000000000
  0
LINE
  5
185
100
AcDbEntity
  8
MAIN0
  6
BYBLOCK
 62
0
100
AcDbLine
 10
287.4282014479941
 20
330.9987604389994
 30
0.0000000000000000
 11
287.4282014479941
 21
355.8987604151575
 31
0.0000000000000000
  0
MTEXT
  5
186
100
AcDbEntity
  8
MAIN0
  6
BYBLOCK
 62
0
100
AcDbMText
 10
269.1782014479942
 20
355.4987603197901
 30
0.0000000000000000
 40
6.199999809265137
 41
0.0000000000000000
 71
     5
 72
     1
  1
\A1;36.5
 11
1.000000000000000
 21
0.0000000000000000
 31
0.0000000000000000
  7
STANDARD
  0
ENDBLK
  5
187
100
AcDbEntity
  8
MAIN0
  6
CONTINUOUS
 62
3
100
AcDbBlockEnd
  0
BLOCK
  5
189
100
AcDbEntity
  8
MAIN0
  6
CONTINUOUS
 62
3
100
AcDbBlockBegin
  2
*D25
 70
    65
 10
0.0
 20
0.0
 30
0.0
  0
LINE
  5
18A
100
AcDbEntity
  8
MAIN0
  6
BYBLOCK
 62
0
100
AcDbLine
 10
213.4282014479945
 20
290.4987604389999
 30
0.0000000000000000
 11
213.4282014479945
 21
371.8987604151574
 31
0.0000000000000000
  0
LINE
  5
18B
100
AcDbEntity
  8
MAIN0
  6
BYBLOCK
 62
0
100
AcDbLine
 10
213.4282014479945
 20
367.8987604151574
 30
0.0000000000000000
 11
214.4282014479936
 21
367.8987604151574
 31
0.0000000000000000
  0
INSERT
  5
18C
100
AcDbEntity
  8
MAIN0
  6
BYBLOCK
 62
0
100
AcDbBlockReference
  2
_OPEN
 10
213.4282014479945
 20
367.8987604151574
 30
0.0000000000000000
 41
4.000000000000000
 42
4.000000000000000
 43
4.000000000000000
 50
0.0000000000000000
  0
INSERT
  5
18D
100
AcDbEntity
  8
MAIN0
  6
BYBLOCK
 62
0
100
AcDbBlockReference
  2
_OPEN
 10
214.4282014479936
 20
367.8987604151574
 30
0.0000000000000000
 41
4.000000000000000
 42
4.000000000000000
 43
4.000000000000000
 50
180.0000000000000
  0
LINE
  5
18E
100
AcDbEntity
  8
MAIN0
  6
BYBLOCK
 62
0
100
AcDbLine
 10
209.4282014479945
 20
367.8987604151574
 30
0.0000000000000000
 11
203.7973028571344
 21
367.8987604151574
 31
0.0000000000000000
  0
LINE
  5
18F
100
AcDbEntity
  8
MAIN0
  6
BYBLOCK
 62
0
100
AcDbLine
 10
218.4282014479936
 20
367.8987604151574
 30
0.0000000000000000
 11
220.4282014479936
 21
367.8987604151574
 31
0.0000000000000000
  0
LINE
  5
190
100
AcDbEntity
  8
MAIN0
  6
BYBLOCK
 62
0
100
AcDbLine
 10
214.4282014479936
 20
331.2987604389996
 30
0.0000000000000000
 11
214.4282014479936
 21
371.8987604151574
 31
0.0000000000000000
  0
MTEXT
  5
191
100
AcDbEntity
  8
MAIN0
  6
BYBLOCK
 62
0
100
AcDbMText
 10
205.7973028571344
 20
371.9987603197900
 30
0.0000000000000000
 40
6.199999809265137
 41
0.0000000000000000
 71
     5
 72
     1
  1
\A1;1
 11
1.000000000000000
 21
0.0000000000000000
 31
0.0000000000000000
  7
STANDARD
  0
ENDBLK
  5
192
100
AcDbEntity
  8
MAIN0
  6
CONTINUOUS
 62
3
100
AcDbBlockEnd
  0
BLOCK
  5
194
100
AcDbEntity
  8
MAIN0
  6
CONTINUOUS
 62
3
100
AcDbBlockBegin
  2
*D26
 70
    65
 10
0.0
 20
0.0
 30
0.0
  0
LINE
  5
195
100
AcDbEntity
  8
MAIN0
  6
BYBLOCK
 62
0
100
AcDbLine
 10
214.4282014479936
 20
331.2987604389996
 30
0.0000000000000000
 11
214.4282014479936
 21
371.8987604151574
 31
0.0000000000000000
  0
LINE
  5
196
100
AcDbEntity
  8
MAIN0
  6
BYBLOCK
 62
0
100
AcDbLine
 10
218.4282014479936
 20
367.8987604151574
 30
0.0000000000000000
 11
283.4282014479941
 21
367.8987604151574
 31
0.0000000000000000
  0
INSERT
  5
197
100
AcDbEntity
  8
MAIN0
  6
BYBLOCK
 62
0
100
AcDbBlockReference
  2
_OPEN
 10
214.4282014479936
 20
367.8987604151574
 30
0.0000000000000000
 41
4.000000000000000
 42
4.000000000000000
 43
4.000000000000000
 50
180.0000000000000
  0
INSERT
  5
198
100
AcDbEntity
  8
MAIN0
  6
BYBLOCK
 62
0
100
AcDbBlockReference
  2
_OPEN
 10
287.4282014479941
 20
367.8987604151574
 30
0.0000000000000000
 41
4.000000000000000
 42
4.000000000000000
 43
4.000000000000000
 50
0.0000000000000000
  0
LINE
  5
199
100
AcDbEntity
  8
MAIN0
  6
BYBLOCK
 62
0
100
AcDbLine
 10
287.4282014479941
 20
330.9987604389994
 30
0.0000000000000000
 11
287.4282014479941
 21
371.8987604151574
 31
0.0000000000000000
  0
MTEXT
  5
19A
100
AcDbEntity
  8
MAIN0
  6
BYBLOCK
 62
0
100
AcDbMText
 10
250.9282014479938
 20
371.4987603197900
 30
0.0000000000000000
 40
6.199999809265137
 41
0.0000000000000000
 71
     5
 72
     1
  1
\A1;73
 11
1.000000000000000
 21
0.0000000000000000
 31
0.0000000000000000
  7
STANDARD
  0
ENDBLK
  5
19B
100
AcDbEntity
  8
MAIN0
  6
CONTINUOUS
 62
3
100
AcDbBlockEnd
  0
BLOCK
  5
19D
100
AcDbEntity
  8
MAIN0
  6
CONTINUOUS
 62
3
100
AcDbBlockBegin
  2
*D27
 70
    65
 10
0.0
 20
0.0
 30
0.0
  0
LINE
  5
19E
100
AcDbEntity
  8
MAIN0
  6
BYBLOCK
 62
0
100
AcDbLine
 10
287.4282014479941
 20
330.9987604389994
 30
0.0000000000000000
 11
287.4282014479941
 21
371.8987604151574
 31
0.0000000000000000
  0
LINE
  5
19F
100
AcDbEntity
  8
MAIN0
  6
BYBLOCK
 62
0
100
AcDbLine
 10
291.4282014479941
 20
367.8987604151574
 30
0.0000000000000000
 11
348.4282014479936
 21
367.8987604151574
 31
0.0000000000000000
  0
INSERT
  5
1A0
100
AcDbEntity
  8
MAIN0
  6
BYBLOCK
 62
0
100
AcDbBlockReference
  2
_OPEN
 10
287.4282014479941
 20
367.8987604151574
 30
0.0000000000000000
 41
4.000000000000000
 42
4.000000000000000
 43
4.000000000000000
 50
180.0000000000000
  0
INSERT
  5
1A1
100
AcDbEntity
  8
MAIN0
  6
BYBLOCK
 62
0
100
AcDbBlockReference
  2
_OPEN
 10
352.4282014479936
 20
367.8987604151574
 30
0.0000000000000000
 41
4.000000000000000
 42
4.000000000000000
 43
4.000000000000000
 50
0.0000000000000000
  0
LINE
  5
1A2
100
AcDbEntity
  8
MAIN0
  6
BYBLOCK
 62
0
100
AcDbLine
 10
352.4282014479936
 20
331.2987604389732
 30
0.0000000000000000
 11
352.4282014479936
 21
371.8987604151574
 31
0.0000000000000000
  0
MTEXT
  5
1A3
100
AcDbEntity
  8
MAIN0
  6
BYBLOCK
 62
0
100
AcDbMText
 10
319.9282014479938
 20
371.4987603197900
 30
0.0000000000000000
 40
6.199999809265137
 41
0.0000000000000000
 71
     5
 72
     1
  1
\A1;MAX 128
 11
1.000000000000000
 21
0.0000000000000000
 31
0.0000000000000000
  7
STANDARD
  0
ENDBLK
  5
1A4
100
AcDbEntity
  8
MAIN0
  6
CONTINUOUS
 62
3
100
AcDbBlockEnd
  0
BLOCK
  5
1A6
100
AcDbEntity
  8
MAIN0
  6
CONTINUOUS
 62
1
100
AcDbBlockBegin
  2
*D28
 70
    65
 10
0.0
 20
0.0
 30
0.0
  0
LINE
  5
1A7
100
AcDbEntity
  8
MAIN0
  6
BYBLOCK
 62
0
100
AcDbLine
 10
352.4282014479936
 20
331.2987604389732
 30
0.0000000000000000
 11
352.4282014479936
 21
371.8987604151574
 31
0.0000000000000000
  0
LINE
  5
1A8
100
AcDbEntity
  8
MAIN0
  6
BYBLOCK
 62
0
100
AcDbLine
 10
356.4282014479936
 20
367.8987604151574
 30
0.0000000000000000
 11
412.4282014479941
 21
367.8987604151574
 31
0.0000000000000000
  0
INSERT
  5
1A9
100
AcDbEntity
  8
MAIN0
  6
BYBLOCK
 62
0
100
AcDbBlockReference
  2
_OPEN
 10
352.4282014479936
 20
367.8987604151574
 30
0.0000000000000000
 41
4.000000000000000
 42
4.000000000000000
 43
4.000000000000000
 50
180.0000000000000
  0
INSERT
  5
1AA
100
AcDbEntity
  8
MAIN0
  6
BYBLOCK
 62
0
100
AcDbBlockReference
  2
_OPEN
 10
416.4282014479941
 20
367.8987604151574
 30
0.0000000000000000
 41
4.000000000000000
 42
4.000000000000000
 43
4.000000000000000
 50
0.0000000000000000
  0
LINE
  5
1AB
100
AcDbEntity
  8
MAIN0
  6
BYBLOCK
 62
0
100
AcDbLine
 10
416.4282014479941
 20
330.9987604389739
 30
0.0000000000000000
 11
416.4282014479941
 21
371.8987604151574
 31
0.0000000000000000
  0
MTEXT
  5
1AC
100
AcDbEntity
  8
MAIN0
  6
BYBLOCK
 62
0
100
AcDbMText
 10
384.4282014479938
 20
371.4987603197900
 30
0.0000000000000000
 40
6.199999809265137
 41
0.0000000000000000
 71
     5
 72
     1
  1
\A1;64
 11
1.000000000000000
 21
0.0000000000000000
 31
0.0000000000000000
  7
STANDARD
  0
ENDBLK
  5
1AD
100
AcDbEntity
  8
MAIN0
  6
CONTINUOUS
 62
1
100
AcDbBlockEnd
  0
BLOCK
  5
1B2
100
AcDbEntity
  8
MAIN0
  6
CONTINUOUS
 62
3
100
AcDbBlockBegin
  2
*D29
 70
    65
 10
0.0
 20
0.0
 30
0.0
  0
LINE
  5
1B3
100
AcDbEntity
  8
MAIN0
  6
BYBLOCK
 62
0
100
AcDbLine
 10
353.0156013903567
 20
437.0041123832075
 30
0.0000000000000000
 11
353.0156013903567
 21
400.9157684652744
 31
0.0000000000000000
  0
LINE
  5
1B4
100
AcDbEntity
  8
MAIN0
  6
BYBLOCK
 62
0
100
AcDbLine
 10
357.0156013903567
 20
404.9157684652744
 30
0.0000000000000000
 11
381.0156013908584
 21
404.9157684652744
 31
0.0000000000000000
  0
INSERT
  5
1B5
100
AcDbEntity
  8
MAIN0
  6
BYBLOCK
 62
0
100
AcDbBlockReference
  2
_OPEN
 10
353.0156013903567
 20
404.9157684652744
 30
0.0000000000000000
 41
4.000000000000000
 42
4.000000000000000
 43
4.000000000000000
 50
180.0000000000000
  0
INSERT
  5
1B6
100
AcDbEntity
  8
MAIN0
  6
BYBLOCK
 62
0
100
AcDbBlockReference
  2
_OPEN
 10
385.0156013908584
 20
404.9157684652744
 30
0.0000000000000000
 41
4.000000000000000
 42
4.000000000000000
 43
4.000000000000000
 50
0.0000000000000000
  0
LINE
  5
1B7
100
AcDbEntity
  8
MAIN0
  6
BYBLOCK
 62
0
100
AcDbLine
 10
385.0156013908584
 20
478.5041123832075
 30
0.0000000000000000
 11
385.0156013908584
 21
400.9157684652744
 31
0.0000000000000000
  0
MTEXT
  5
1B8
100
AcDbEntity
  8
MAIN0
  6
BYBLOCK
 62
0
100
AcDbMText
 10
369.0156013906076
 20
408.5157683699070
 30
0.0000000000000000
 40
6.199999809265137
 41
0.0000000000000000
 71
     5
 72
     1
  1
\A1;32
 11
1.000000000000000
 21
0.0000000000000000
 31
0.0000000000000000
  7
STANDARD
  0
ENDBLK
  5
1B9
100
AcDbEntity
  8
MAIN0
  6
CONTINUOUS
 62
3
100
AcDbBlockEnd
  0
BLOCK
  5
1BB
100
AcDbEntity
  8
MAIN0
  6
CONTINUOUS
 62
3
100
AcDbBlockBegin
  2
*D30
 70
    65
 10
0.0
 20
0.0
 30
0.0
  0
LINE
  5
1BC
100
AcDbEntity
  8
MAIN0
  6
BYBLOCK
 62
0
100
AcDbLine
 10
274.9282014479943
 20
329.8987604151575
 30
0.0000000000000000
 11
274.9282014479943
 21
319.8987604151573
 31
0.0000000000000000
  0
INSERT
  5
1BD
100
AcDbEntity
  8
MAIN0
  6
BYBLOCK
 62
0
100
AcDbBlockReference
  2
_OPEN
 10
274.9282014479943
 20
329.8987604151575
 30
0.0000000000000000
 41
4.000000000000000
 42
4.000000000000000
 43
4.000000000000000
 50
270.0000000000000
  0
INSERT
  5
1BE
100
AcDbEntity
  8
MAIN0
  6
BYBLOCK
 62
0
100
AcDbBlockReference
  2
_OPEN
 10
274.9282014479943
 20
319.8987604151573
 30
0.0000000000000000
 41
4.000000000000000
 42
4.000000000000000
 43
4.000000000000000
 50
90.00000000000000
  0
LINE
  5
1BF
100
AcDbEntity
  8
MAIN0
  6
BYBLOCK
 62
0
100
AcDbLine
 10
274.9282014479943
 20
333.8987604151575
 30
0.0000000000000000
 11
274.9282014479943
 21
344.2329676115738
 31
0.0000000000000000
  0
LINE
  5
1C0
100
AcDbEntity
  8
MAIN0
  6
BYBLOCK
 62
0
100
AcDbLine
 10
274.9282014479943
 20
315.8987604151573
 30
0.0000000000000000
 11
274.9282014479943
 21
313.8987604151573
 31
0.0000000000000000
  0
LINE
  5
1C1
100
AcDbEntity
  8
MAIN0
  6
BYBLOCK
 62
0
100
AcDbLine
 10
260.5282014718362
 20
319.8987604151573
 30
0.0000000000000000
 11
278.9282014479943
 21
319.8987604151573
 31
0.0000000000000000
  0
MTEXT
  5
1C2
100
AcDbEntity
  8
MAIN0
  6
BYBLOCK
 62
0
100
AcDbMText
 10
270.8282015433617
 20
340.1329677069413
 30
0.0000000000000000
 40
6.199999809265137
 41
0.0000000000000000
 71
     5
 72
     1
  1
\A1;10
 11
6.123233995736766e-017
 21
1.000000000000000
 31
0.0000000000000000
  7
STANDARD
  0
ENDBLK
  5
1C3
100
AcDbEntity
  8
MAIN0
  6
CONTINUOUS
 62
3
100
AcDbBlockEnd
  0
BLOCK
  5
1C5
100
AcDbEntity
  8
MAIN0
  6
CONTINUOUS
 62
3
100
AcDbBlockBegin
  2
*D31
 70
    65
 10
0.0
 20
0.0
 30
0.0
  0
LINE
  5
1C6
100
AcDbEntity
  8
MAIN0
  6
BYBLOCK
 62
0
100
AcDbLine
 10
260.5282014718362
 20
319.8987604151573
 30
0.0000000000000000
 11
278.9282014479943
 21
319.8987604151573
 31
0.0000000000000000
  0
LINE
  5
1C7
100
AcDbEntity
  8
MAIN0
  6
BYBLOCK
 62
0
100
AcDbLine
 10
274.9282014479943
 20
315.8987604151573
 30
0.0000000000000000
 11
274.9282014479943
 21
303.8987604151574
 31
0.0000000000000000
  0
INSERT
  5
1C8
100
AcDbEntity
  8
MAIN0
  6
BYBLOCK
 62
0
100
AcDbBlockReference
  2
_OPEN
 10
274.9282014479943
 20
319.8987604151573
 30
0.0000000000000000
 41
4.000000000000000
 42
4.000000000000000
 43
4.000000000000000
 50
90.00000000000000
  0
INSERT
  5
1C9
100
AcDbEntity
  8
MAIN0
  6
BYBLOCK
 62
0
100
AcDbBlockReference
  2
_OPEN
 10
274.9282014479943
 20
299.8987604151574
 30
0.0000000000000000
 41
4.000000000000000
 42
4.000000000000000
 43
4.000000000000000
 50
270.0000000000000
  0
LINE
  5
1CA
100
AcDbEntity
  8
MAIN0
  6
BYBLOCK
 62
0
100
AcDbLine
 10
260.5282014718362
 20
299.8987604151574
 30
0.0000000000000000
 11
278.9282014479943
 21
299.8987604151574
 31
0.0000000000000000
  0
MTEXT
  5
1CB
100
AcDbEntity
  8
MAIN0
  6
BYBLOCK
 62
0
100
AcDbMText
 10
271.3282015433617
 20
309.8987604151573
 30
0.0000000000000000
 40
6.199999809265137
 41
0.0000000000000000
 71
     5
 72
     1
  1
\A1;20
 11
6.123233995736766e-017
 21
1.000000000000000
 31
0.0000000000000000
  7
STANDARD
  0
ENDBLK
  5
1CC
100
AcDbEntity
  8
MAIN0
  6
CONTINUOUS
 62
3
100
AcDbBlockEnd
  0
BLOCK
  5
1CE
100
AcDbEntity
  8
MAIN0
  6
CONTINUOUS
 62
3
100
AcDbBlockBegin
  2
*D32
 70
    65
 10
0.0
 20
0.0
 30
0.0
  0
LINE
  5
1CF
100
AcDbEntity
  8
MAIN0
  6
BYBLOCK
 62
0
100
AcDbLine
 10
334.5282014718359
 20
209.8987604151862
 30
0.0000000000000000
 11
354.9282014479952
 21
209.8987604151862
 31
0.0000000000000000
  0
LINE
  5
1D0
100
AcDbEntity
  8
MAIN0
  6
BYBLOCK
 62
0
100
AcDbLine
 10
350.9282014479952
 20
209.8987604151862
 30
0.0000000000000000
 11
350.9282014479952
 21
214.8987604151580
 31
0.0000000000000000
  0
INSERT
  5
1D1
100
AcDbEntity
  8
MAIN0
  6
BYBLOCK
 62
0
100
AcDbBlockReference
  2
_OPEN
 10
350.9282014479952
 20
209.8987604151862
 30
0.0000000000000000
 41
4.000000000000000
 42
4.000000000000000
 43
4.000000000000000
 50
90.00000000000000
  0
INSERT
  5
1D2
100
AcDbEntity
  8
MAIN0
  6
BYBLOCK
 62
0
100
AcDbBlockReference
  2
_OPEN
 10
350.9282014479952
 20
214.8987604151580
 30
0.0000000000000000
 41
4.000000000000000
 42
4.000000000000000
 43
4.000000000000000
 50
270.0000000000000
  0
LINE
  5
1D3
100
AcDbEntity
  8
MAIN0
  6
BYBLOCK
 62
0
100
AcDbLine
 10
350.9282014479952
 20
205.8987604151862
 30
0.0000000000000000
 11
350.9282014479952
 21
201.0821225632575
 31
0.0000000000000000
  0
LINE
  5
1D4
100
AcDbEntity
  8
MAIN0
  6
BYBLOCK
 62
0
100
AcDbLine
 10
350.9282014479952
 20
218.8987604151580
 30
0.0000000000000000
 11
350.9282014479952
 21
220.8987604151580
 31
0.0000000000000000
  0
MTEXT
  5
1D5
100
AcDbEntity
  8
MAIN0
  6
BYBLOCK
 62
0
100
AcDbMText
 10
346.8282015433626
 20
203.0821225632575
 30
0.0000000000000000
 40
6.199999809265137
 41
0.0000000000000000
 71
     5
 72
     1
  1
\A1;5
 11
6.123233995736766e-017
 21
1.000000000000000
 31
0.0000000000000000
  7
STANDARD
  0
ENDBLK
  5
1D6
100
AcDbEntity
  8
MAIN0
  6
CONTINUOUS
 62
3
100
AcDbBlockEnd
  0
BLOCK
  5
270
100
AcDbEntity
  8
MAIN0
  6
CONTINUOUS
 62
3
100
AcDbBlockBegin
  2
*D33
 70
    65
 10
0.0
 20
0.0
 30
0.0
  0
LINE
  5
271
100
AcDbEntity
  8
MAIN0
  6
BYBLOCK
 62
0
100
AcDbLine
 10
707.1571123491823
 20
301.6987604381375
 30
0.0000000000000000
 11
707.1571123491823
 21
365.8987604157408
 31
0.0000000000000000
  0
LINE
  5
272
100
AcDbEntity
  8
MAIN0
  6
BYBLOCK
 62
0
100
AcDbLine
 10
711.1571123491823
 20
361.8987604157408
 30
0.0000000000000000
 11
812.1571123491825
 21
361.8987604157408
 31
0.0000000000000000
  0
INSERT
  5
273
100
AcDbEntity
  8
MAIN0
  6
BYBLOCK
 62
0
100
AcDbBlockReference
  2
_OPEN
 10
707.1571123491823
 20
361.8987604157408
 30
0.0000000000000000
 41
4.000000000000000
 42
4.000000000000000
 43
4.000000000000000
 50
180.0000000000000
  0
INSERT
  5
274
100
AcDbEntity
  8
MAIN0
  6
BYBLOCK
 62
0
100
AcDbBlockReference
  2
_OPEN
 10
816.1571123491825
 20
361.8987604157408
 30
0.0000000000000000
 41
4.000000000000000
 42
4.000000000000000
 43
4.000000000000000
 50
0.0000000000000000
  0
LINE
  5
275
100
AcDbEntity
  8
MAIN0
  6
BYBLOCK
 62
0
100
AcDbLine
 10
816.1571123491825
 20
301.6987604381375
 30
0.0000000000000000
 11
816.1571123491825
 21
365.8987604157408
 31
0.0000000000000000
  0
MTEXT
  5
276
100
AcDbEntity
  8
MAIN0
  6
BYBLOCK
 62
0
100
AcDbMText
 10
761.6571123491824
 20
365.4987603203734
 30
0.0000000000000000
 40
6.199999809265137
 41
0.0000000000000000
 71
     5
 72
     1
  1
\A1;109
 11
1.000000000000000
 21
0.0000000000000000
 31
0.0000000000000000
  7
STANDARD
  0
ENDBLK
  5
277
100
AcDbEntity
  8
MAIN0
  6
CONTINUOUS
 62
3
100
AcDbBlockEnd
  0
BLOCK
  5
279
100
AcDbEntity
  8
MAIN0
  6
CONTINUOUS
 62
3
100
AcDbBlockBegin
  2
*D34
 70
    65
 10
0.0
 20
0.0
 30
0.0
  0
LINE
  5
27A
100
AcDbEntity
  8
MAIN0
  6
BYBLOCK
 62
0
100
AcDbLine
 10
754.6571123491821
 20
263.5402123224642
 30
0.0000000000000000
 11
754.6571123491821
 21
349.8987604157113
 31
0.0000000000000000
  0
LINE
  5
27B
100
AcDbEntity
  8
MAIN0
  6
BYBLOCK
 62
0
100
AcDbLine
 10
754.6571123491821
 20
345.8987604157113
 30
0.0000000000000000
 11
768.6571123491821
 21
345.8987604157113
 31
0.0000000000000000
  0
INSERT
  5
27C
100
AcDbEntity
  8
MAIN0
  6
BYBLOCK
 62
0
100
AcDbBlockReference
  2
_OPEN
 10
754.6571123491821
 20
345.8987604157113
 30
0.0000000000000000
 41
4.000000000000000
 42
4.000000000000000
 43
4.000000000000000
 50
0.0000000000000000
  0
INSERT
  5
27D
100
AcDbEntity
  8
MAIN0
  6
BYBLOCK
 62
0
100
AcDbBlockReference
  2
_OPEN
 10
768.6571123491821
 20
345.8987604157113
 30
0.0000000000000000
 41
4.000000000000000
 42
4.000000000000000
 43
4.000000000000000
 50
180.0000000000000
  0
LINE
  5
27E
100
AcDbEntity
  8
MAIN0
  6
BYBLOCK
 62
0
100
AcDbLine
 10
750.6571123491821
 20
345.8987604157113
 30
0.0000000000000000
 11
748.6571123491821
 21
345.8987604157113
 31
0.0000000000000000
  0
LINE
  5
27F
100
AcDbEntity
  8
MAIN0
  6
BYBLOCK
 62
0
100
AcDbLine
 10
772.6571123491821
 20
345.8987604157113
 30
0.0000000000000000
 11
774.6571123491821
 21
345.8987604157113
 31
0.0000000000000000
  0
LINE
  5
280
100
AcDbEntity
  8
MAIN0
  6
BYBLOCK
 62
0
100
AcDbLine
 10
768.6571123491821
 20
263.5402123224656
 30
0.0000000000000000
 11
768.6571123491821
 21
349.8987604157113
 31
0.0000000000000000
  0
MTEXT
  5
281
100
AcDbEntity
  8
MAIN0
  6
BYBLOCK
 62
0
100
AcDbMText
 10
761.6571123491821
 20
349.4987603203438
 30
0.0000000000000000
 40
6.199999809265137
 41
0.0000000000000000
 71
     5
 72
     1
  1
\A1;14
 11
1.000000000000000
 21
0.0000000000000000
 31
0.0000000000000000
  7
STANDARD
  0
ENDBLK
  5
282
100
AcDbEntity
  8
MAIN0
  6
CONTINUOUS
 62
3
100
AcDbBlockEnd
  0
BLOCK
  5
284
100
AcDbEntity
  8
MAIN0
  6
CONTINUOUS
 62
1
100
AcDbBlockBegin
  2
*D35
 70
    65
 10
0.0
 20
0.0
 30
0.0
  0
LINE
  5
285
100
AcDbEntity
  8
MAIN0
  6
BYBLOCK
 62
0
100
AcDbLine
 10
690.1571123491821
 20
184.8610202531050
 30
0.0000000000000000
 11
710.1571123491818
 21
184.8610202531050
 31
0.0000000000000000
  0
INSERT
  5
286
100
AcDbEntity
  8
MAIN0
  6
BYBLOCK
 62
0
100
AcDbBlockReference
  2
_OPEN
 10
690.1571123491821
 20
184.8610202531050
 30
0.0000000000000000
 41
4.000000000000000
 42
4.000000000000000
 43
4.000000000000000
 50
0.0000000000000000
  0
INSERT
  5
287
100
AcDbEntity
  8
MAIN0
  6
BYBLOCK
 62
0
100
AcDbBlockReference
  2
_OPEN
 10
710.1571123491818
 20
184.8610202531050
 30
0.0000000000000000
 41
4.000000000000000
 42
4.000000000000000
 43
4.000000000000000
 50
180.0000000000000
  0
LINE
  5
288
100
AcDbEntity
  8
MAIN0
  6
BYBLOCK
 62
0
100
AcDbLine
 10
686.1571123491821
 20
184.8610202531050
 30
0.0000000000000000
 11
684.1571123491821
 21
184.8610202531050
 31
0.0000000000000000
  0
LINE
  5
289
100
AcDbEntity
  8
MAIN0
  6
BYBLOCK
 62
0
100
AcDbLine
 10
714.1571123491818
 20
184.8610202531050
 30
0.0000000000000000
 11
737.7968076805995
 21
184.8610202531050
 31
0.0000000000000000
  0
LINE
  5
28A
100
AcDbEntity
  8
MAIN0
  6
BYBLOCK
 62
0
100
AcDbLine
 10
710.1571123491818
 20
213.2987603904537
 30
0.0000000000000000
 11
710.1571123491818
 21
180.8610202531050
 31
0.0000000000000000
  0
MTEXT
  5
28B
100
AcDbEntity
  8
MAIN0
  6
BYBLOCK
 62
0
100
AcDbMText
 10
726.8968080620692
 20
188.9610201577376
 30
0.0000000000000000
 40
6.199999809265137
 41
0.0000000000000000
 71
     5
 72
     1
  1
\A1;14～26
 11
1.000000000000000
 21
0.0000000000000000
 31
0.0000000000000000
  7
KNJYOKO
  0
ENDBLK
  5
28C
100
AcDbEntity
  8
MAIN0
  6
CONTINUOUS
 62
1
100
AcDbBlockEnd
  0
BLOCK
  5
291
100
AcDbEntity
  8
MAIN0
  6
CONTINUOUS
 62
3
100
AcDbBlockBegin
  2
*D36
 70
    65
 10
0.0
 20
0.0
 30
0.0
  0
LINE
  5
292
100
AcDbEntity
  8
MAIN0
  6
BYBLOCK
 62
0
100
AcDbLine
 10
676.5571123253401
 20
242.3987604142958
 30
0.0000000000000000
 11
636.7975892556592
 21
242.3987604142957
 31
0.0000000000000000
  0
LINE
  5
293
100
AcDbEntity
  8
MAIN0
  6
BYBLOCK
 62
0
100
AcDbLine
 10
640.7975892556592
 20
242.3987604142957
 30
0.0000000000000000
 11
640.7975892556592
 21
238.3987604142957
 31
0.0000000000000000
  0
INSERT
  5
294
100
AcDbEntity
  8
MAIN0
  6
BYBLOCK
 62
0
100
AcDbBlockReference
  2
_OPEN
 10
640.7975892556592
 20
242.3987604142957
 30
0.0000000000000000
 41
4.000000000000000
 42
4.000000000000000
 43
4.000000000000000
 50
270.0000000000000
  0
INSERT
  5
295
100
AcDbEntity
  8
MAIN0
  6
BYBLOCK
 62
0
100
AcDbBlockReference
  2
_DOT
 10
640.7975892556592
 20
237.3987604142957
 30
0.0000000000000000
 41
2.000000000000000
 42
2.000000000000000
 43
2.000000000000000
 50
270.0000000000000
  0
LINE
  5
296
100
AcDbEntity
  8
MAIN0
  6
BYBLOCK
 62
0
100
AcDbLine
 10
640.7975892556592
 20
246.3987604142957
 30
0.0000000000000000
 11
640.7975892556592
 21
251.4737131373524
 31
0.0000000000000000
  0
LINE
  5
297
100
AcDbEntity
  8
MAIN0
  6
BYBLOCK
 62
0
100
AcDbLine
 10
648.5571123253401
 20
237.3987604142957
 30
0.0000000000000000
 11
636.7975892556592
 21
237.3987604142957
 31
0.0000000000000000
  0
MTEXT
  5
298
100
AcDbEntity
  8
MAIN0
  6
BYBLOCK
 62
0
100
AcDbMText
 10
636.6975893510266
 20
249.4737131373524
 30
0.0000000000000000
 40
6.199999809265137
 41
0.0000000000000000
 71
     5
 72
     1
  1
\A1;5
 11
6.123233995736766e-017
 21
1.000000000000000
 31
0.0000000000000000
  7
STANDARD
  0
ENDBLK
  5
299
100
AcDbEntity
  8
MAIN0
  6
CONTINUOUS
 62
3
100
AcDbBlockEnd
  0
BLOCK
  5
29B
100
AcDbEntity
  8
MAIN0
  6
CONTINUOUS
 62
3
100
AcDbBlockBegin
  2
*D37
 70
    65
 10
0.0
 20
0.0
 30
0.0
  0
LINE
  5
29C
100
AcDbEntity
  8
MAIN0
  6
BYBLOCK
 62
0
100
AcDbLine
 10
648.5571123253401
 20
237.3987604142957
 30
0.0000000000000000
 11
636.7975892556592
 21
237.3987604142957
 31
0.0000000000000000
  0
LINE
  5
29D
100
AcDbEntity
  8
MAIN0
  6
BYBLOCK
 62
0
100
AcDbLine
 10
640.7975892556592
 20
236.3987604142958
 30
0.0000000000000000
 11
640.7975892556592
 21
214.8987604142956
 31
0.0000000000000000
  0
INSERT
  5
29E
100
AcDbEntity
  8
MAIN0
  6
BYBLOCK
 62
0
100
AcDbBlockReference
  2
_DOT
 10
640.7975892556592
 20
237.3987604142958
 30
0.0000000000000000
 41
2.000000000000000
 42
2.000000000000000
 43
2.000000000000000
 50
90.00000000000000
  0
INSERT
  5
29F
100
AcDbEntity
  8
MAIN0
  6
BYBLOCK
 62
0
100
AcDbBlockReference
  2
_OPEN
 10
640.7975892556592
 20
214.8987604142956
 30
0.0000000000000000
 41
4.000000000000000
 42
4.000000000000000
 43
4.000000000000000
 50
90.00000000000000
  0
LINE
  5
2A0
100
AcDbEntity
  8
MAIN0
  6
BYBLOCK
 62
0
100
AcDbLine
 10
640.7975892556592
 20
210.8987604142956
 30
0.0000000000000000
 11
640.7975892556592
 21
208.8987604142956
 31
0.0000000000000000
  0
LINE
  5
2A1
100
AcDbEntity
  8
MAIN0
  6
BYBLOCK
 62
0
100
AcDbLine
 10
649.9571123252148
 20
214.8987604142956
 30
0.0000000000000000
 11
636.7975892556592
 21
214.8987604142956
 31
0.0000000000000000
  0
MTEXT
  5
2A2
100
AcDbEntity
  8
MAIN0
  6
BYBLOCK
 62
0
100
AcDbMText
 10
637.1975893510266
 20
226.1487604142957
 30
0.0000000000000000
 40
6.199999809265137
 41
0.0000000000000000
 71
     5
 72
     1
  1
\A1;22.5
 11
6.123233995736766e-017
 21
1.000000000000000
 31
0.0000000000000000
  7
STANDARD
  0
ENDBLK
  5
2A3
100
AcDbEntity
  8
MAIN0
  6
CONTINUOUS
 62
3
100
AcDbBlockEnd
  0
BLOCK
  5
2DF
100
AcDbEntity
  8
MAIN0
  6
CONTINUOUS
 62
3
100
AcDbBlockBegin
  2
*D38
 70
    65
 10
0.0
 20
0.0
 30
0.0
  0
LINE
  5
2E0
100
AcDbEntity
  8
MAIN0
  6
BYBLOCK
 62
0
100
AcDbLine
 10
49.27982877142773
 20
331.4987604381376
 30
0.0000000000000000
 11
49.27982877142773
 21
349.8987604133551
 31
0.0000000000000000
  0
LINE
  5
2E1
100
AcDbEntity
  8
MAIN0
  6
BYBLOCK
 62
0
100
AcDbLine
 10
53.27982877142773
 20
345.8987604133551
 30
0.0000000000000000
 11
145.2798287714280
 21
345.8987604133551
 31
0.0000000000000000
  0
INSERT
  5
2E2
100
AcDbEntity
  8
MAIN0
  6
BYBLOCK
 62
0
100
AcDbBlockReference
  2
_OPEN
 10
49.27982877142773
 20
345.8987604133551
 30
0.0000000000000000
 41
4.000000000000000
 42
4.000000000000000
 43
4.000000000000000
 50
180.0000000000000
  0
INSERT
  5
2E3
100
AcDbEntity
  8
MAIN0
  6
BYBLOCK
 62
0
100
AcDbBlockReference
  2
_OPEN
 10
149.2798287714280
 20
345.8987604133551
 30
0.0000000000000000
 41
4.000000000000000
 42
4.000000000000000
 43
4.000000000000000
 50
0.0000000000000000
  0
LINE
  5
2E4
100
AcDbEntity
  8
MAIN0
  6
BYBLOCK
 62
0
100
AcDbLine
 10
149.2798287714280
 20
331.4987604381376
 30
0.0000000000000000
 11
149.2798287714280
 21
349.8987604133551
 31
0.0000000000000000
  0
MTEXT
  5
2E5
100
AcDbEntity
  8
MAIN0
  6
BYBLOCK
 62
0
100
AcDbMText
 10
99.27982877142784
 20
349.4987603179877
 30
0.0000000000000000
 40
6.199999809265137
 41
0.0000000000000000
 71
     5
 72
     1
  1
\A1;100
 11
1.000000000000000
 21
0.0000000000000000
 31
0.0000000000000000
  7
STANDARD
  0
ENDBLK
  5
2E6
100
AcDbEntity
  8
MAIN0
  6
CONTINUOUS
 62
3
100
AcDbBlockEnd
  0
BLOCK
  5
2FF
100
AcDbEntity
  8
MAIN0
  6
CONTINUOUS
 62
3
100
AcDbBlockBegin
  2
*D39
 70
    65
 10
0.0
 20
0.0
 30
0.0
  0
LINE
  5
300
100
AcDbEntity
  8
MAIN0
  6
BYBLOCK
 62
0
100
AcDbLine
 10
152.6798287952700
 20
289.8987604142957
 30
0.0000000000000000
 11
172.1106164352141
 21
289.8987604142957
 31
0.0000000000000000
  0
LINE
  5
301
100
AcDbEntity
  8
MAIN0
  6
BYBLOCK
 62
0
100
AcDbLine
 10
168.1106164352141
 20
285.8987604142957
 30
0.0000000000000000
 11
168.1106164352141
 21
258.8987604142957
 31
0.0000000000000000
  0
INSERT
  5
302
100
AcDbEntity
  8
MAIN0
  6
BYBLOCK
 62
0
100
AcDbBlockReference
  2
_OPEN
 10
168.1106164352141
 20
289.8987604142957
 30
0.0000000000000000
 41
4.000000000000000
 42
4.000000000000000
 43
4.000000000000000
 50
90.00000000000000
  0
INSERT
  5
303
100
AcDbEntity
  8
MAIN0
  6
BYBLOCK
 62
0
100
AcDbBlockReference
  2
_OPEN
 10
168.1106164352141
 20
254.8987604142957
 30
0.0000000000000000
 41
4.000000000000000
 42
4.000000000000000
 43
4.000000000000000
 50
270.0000000000000
  0
LINE
  5
304
100
AcDbEntity
  8
MAIN0
  6
BYBLOCK
 62
0
100
AcDbLine
 10
152.3798287952698
 20
254.8987604142957
 30
0.0000000000000000
 11
172.1106164352141
 21
254.8987604142957
 31
0.0000000000000000
  0
MTEXT
  5
305
100
AcDbEntity
  8
MAIN0
  6
BYBLOCK
 62
0
100
AcDbMText
 10
164.5106165305816
 20
272.3987604142957
 30
0.0000000000000000
 40
6.199999809265137
 41
0.0000000000000000
 71
     5
 72
     1
  1
\A1;35
 11
6.123233995736766e-017
 21
1.000000000000000
 31
0.0000000000000000
  7
STANDARD
  0
ENDBLK
  5
306
100
AcDbEntity
  8
MAIN0
  6
CONTINUOUS
 62
3
100
AcDbBlockEnd
  0
BLOCK
  5
308
100
AcDbEntity
  8
MAIN0
  6
CONTINUOUS
 62
3
100
AcDbBlockBegin
  2
*D40
 70
    65
 10
0.0
 20
0.0
 30
0.0
  0
LINE
  5
309
100
AcDbEntity
  8
MAIN0
  6
BYBLOCK
 62
0
100
AcDbLine
 10
152.3798287952698
 20
254.8987604142957
 30
0.0000000000000000
 11
172.1106164352141
 21
254.8987604142957
 31
0.0000000000000000
  0
LINE
  5
30A
100
AcDbEntity
  8
MAIN0
  6
BYBLOCK
 62
0
100
AcDbLine
 10
168.1106164352141
 20
250.8987604142958
 30
0.0000000000000000
 11
168.1106164352141
 21
233.8987604142957
 31
0.0000000000000000
  0
INSERT
  5
30B
100
AcDbEntity
  8
MAIN0
  6
BYBLOCK
 62
0
100
AcDbBlockReference
  2
_OPEN
 10
168.1106164352141
 20
254.8987604142958
 30
0.0000000000000000
 41
4.000000000000000
 42
4.000000000000000
 43
4.000000000000000
 50
90.00000000000000
  0
INSERT
  5
30C
100
AcDbEntity
  8
MAIN0
  6
BYBLOCK
 62
0
100
AcDbBlockReference
  2
_OPEN
 10
168.1106164352141
 20
229.8987604142957
 30
0.0000000000000000
 41
4.000000000000000
 42
4.000000000000000
 43
4.000000000000000
 50
270.0000000000000
  0
LINE
  5
30D
100
AcDbEntity
  8
MAIN0
  6
BYBLOCK
 62
0
100
AcDbLine
 10
152.3798287952694
 20
229.8987604142957
 30
0.0000000000000000
 11
172.1106164352141
 21
229.8987604142957
 31
0.0000000000000000
  0
MTEXT
  5
30E
100
AcDbEntity
  8
MAIN0
  6
BYBLOCK
 62
0
100
AcDbMText
 10
164.5106165305816
 20
242.3987604142957
 30
0.0000000000000000
 40
6.199999809265137
 41
0.0000000000000000
 71
     5
 72
     1
  1
\A1;25
 11
6.123233995736766e-017
 21
1.000000000000000
 31
0.0000000000000000
  7
STANDARD
  0
ENDBLK
  5
30F
100
AcDbEntity
  8
MAIN0
  6
CONTINUOUS
 62
3
100
AcDbBlockEnd
  0
BLOCK
  5
311
100
AcDbEntity
  8
MAIN0
  6
CONTINUOUS
 62
3
100
AcDbBlockBegin
  2
*D41
 70
    65
 10
0.0
 20
0.0
 30
0.0
  0
LINE
  5
312
100
AcDbEntity
  8
MAIN0
  6
BYBLOCK
 62
0
100
AcDbLine
 10
152.3798287952694
 20
229.8987604142957
 30
0.0000000000000000
 11
172.1106164352141
 21
229.8987604142957
 31
0.0000000000000000
  0
LINE
  5
313
100
AcDbEntity
  8
MAIN0
  6
BYBLOCK
 62
0
100
AcDbLine
 10
168.1106164352141
 20
229.8987604142956
 30
0.0000000000000000
 11
168.1106164352141
 21
214.8987604142956
 31
0.0000000000000000
  0
INSERT
  5
314
100
AcDbEntity
  8
MAIN0
  6
BYBLOCK
 62
0
100
AcDbBlockReference
  2
_OPEN
 10
168.1106164352141
 20
229.8987604142956
 30
0.0000000000000000
 41
4.000000000000000
 42
4.000000000000000
 43
4.000000000000000
 50
270.0000000000000
  0
INSERT
  5
315
100
AcDbEntity
  8
MAIN0
  6
BYBLOCK
 62
0
100
AcDbBlockReference
  2
_OPEN
 10
168.1106164352141
 20
214.8987604142956
 30
0.0000000000000000
 41
4.000000000000000
 42
4.000000000000000
 43
4.000000000000000
 50
90.00000000000000
  0
LINE
  5
316
100
AcDbEntity
  8
MAIN0
  6
BYBLOCK
 62
0
100
AcDbLine
 10
168.1106164352141
 20
233.8987604142956
 30
0.0000000000000000
 11
168.1106164352141
 21
235.8987604142956
 31
0.0000000000000000
  0
LINE
  5
317
100
AcDbEntity
  8
MAIN0
  6
BYBLOCK
 62
0
100
AcDbLine
 10
168.1106164352141
 20
210.8987604142956
 30
0.0000000000000000
 11
168.1106164352141
 21
208.8987604142956
 31
0.0000000000000000
  0
LINE
  5
318
100
AcDbEntity
  8
MAIN0
  6
BYBLOCK
 62
0
100
AcDbLine
 10
152.3798287952697
 20
214.8987604142956
 30
0.0000000000000000
 11
172.1106164352141
 21
214.8987604142956
 31
0.0000000000000000
  0
MTEXT
  5
319
100
AcDbEntity
  8
MAIN0
  6
BYBLOCK
 62
0
100
AcDbMText
 10
164.5106165305816
 20
222.3987604142956
 30
0.0000000000000000
 40
6.199999809265137
 41
0.0000000000000000
 71
     5
 72
     1
  1
\A1;15
 11
6.123233995736766e-017
 21
1.000000000000000
 31
0.0000000000000000
  7
STANDARD
  0
ENDBLK
  5
31A
100
AcDbEntity
  8
MAIN0
  6
CONTINUOUS
 62
3
100
AcDbBlockEnd
  0
BLOCK
  5
31F
100
AcDbEntity
  8
MAIN0
  6
CONTINUOUS
 62
3
100
AcDbBlockBegin
  2
*D42
 70
    65
 10
0.0
 20
0.0
 30
0.0
  0
LINE
  5
320
100
AcDbEntity
  8
MAIN0
  6
BYBLOCK
 62
0
100
AcDbLine
 10
145.7798287714280
 20
241.8987604125667
 30
0.0000000000000000
 11
150.7798287714280
 21
241.8987604125667
 31
0.0000000000000000
  0
INSERT
  5
321
100
AcDbEntity
  8
MAIN0
  6
BYBLOCK
 62
0
100
AcDbBlockReference
  2
_OPEN
 10
145.7798287714280
 20
241.8987604125667
 30
0.0000000000000000
 41
4.000000000000000
 42
4.000000000000000
 43
4.000000000000000
 50
0.0000000000000000
  0
INSERT
  5
322
100
AcDbEntity
  8
MAIN0
  6
BYBLOCK
 62
0
100
AcDbBlockReference
  2
_OPEN
 10
150.7798287714280
 20
241.8987604125667
 30
0.0000000000000000
 41
4.000000000000000
 42
4.000000000000000
 43
4.000000000000000
 50
180.0000000000000
  0
LINE
  5
323
100
AcDbEntity
  8
MAIN0
  6
BYBLOCK
 62
0
100
AcDbLine
 10
141.7798287714280
 20
241.8987604125667
 30
0.0000000000000000
 11
136.3885389968486
 21
241.8987604125667
 31
0.0000000000000000
  0
LINE
  5
324
100
AcDbEntity
  8
MAIN0
  6
BYBLOCK
 62
0
100
AcDbLine
 10
154.7798287714280
 20
241.8987604125667
 30
0.0000000000000000
 11
156.7798287714280
 21
241.8987604125667
 31
0.0000000000000000
  0
LINE
  5
325
100
AcDbEntity
  8
MAIN0
  6
BYBLOCK
 62
0
100
AcDbLine
 10
150.7798287714280
 20
231.4987604381376
 30
0.0000000000000000
 11
150.7798287714280
 21
245.8987604125667
 31
0.0000000000000000
  0
MTEXT
  5
326
100
AcDbEntity
  8
MAIN0
  6
BYBLOCK
 62
0
100
AcDbMText
 10
138.3885389968486
 20
245.9987603171992
 30
0.0000000000000000
 40
6.199999809265137
 41
0.0000000000000000
 71
     5
 72
     1
  1
\A1;5
 11
1.000000000000000
 21
0.0000000000000000
 31
0.0000000000000000
  7
STANDARD
  0
ENDBLK
  5
327
100
AcDbEntity
  8
MAIN0
  6
CONTINUOUS
 62
3
100
AcDbBlockEnd
  0
BLOCK
  5
380
100
AcDbEntity
  8
MAIN0
  6
CONTINUOUS
 62
3
100
AcDbBlockBegin
  2
*D43
 70
    65
 10
0.0
 20
0.0
 30
0.0
  0
LINE
  5
381
100
AcDbEntity
  8
MAIN0
  6
BYBLOCK
 62
0
100
AcDbLine
 10
353.0156013903567
 20
437.0041123832075
 30
0.0000000000000000
 11
353.0156013903567
 21
414.1703881520465
 31
0.0000000000000000
  0
LINE
  5
382
100
AcDbEntity
  8
MAIN0
  6
BYBLOCK
 62
0
100
AcDbLine
 10
353.0156013903567
 20
418.1703881520465
 30
0.0000000000000000
 11
363.0156013902840
 21
418.1703881520465
 31
0.0000000000000000
  0
INSERT
  5
383
100
AcDbEntity
  8
MAIN0
  6
BYBLOCK
 62
0
100
AcDbBlockReference
  2
_OPEN
 10
353.0156013903567
 20
418.1703881520465
 30
0.0000000000000000
 41
4.000000000000000
 42
4.000000000000000
 43
4.000000000000000
 50
0.0000000000000000
  0
INSERT
  5
384
100
AcDbEntity
  8
MAIN0
  6
BYBLOCK
 62
0
100
AcDbBlockReference
  2
_OPEN
 10
363.0156013902840
 20
418.1703881520465
 30
0.0000000000000000
 41
4.000000000000000
 42
4.000000000000000
 43
4.000000000000000
 50
180.0000000000000
  0
LINE
  5
385
100
AcDbEntity
  8
MAIN0
  6
BYBLOCK
 62
0
100
AcDbLine
 10
349.0156013903567
 20
418.1703881520465
 30
0.0000000000000000
 11
347.0156013903567
 21
418.1703881520465
 31
0.0000000000000000
  0
LINE
  5
386
100
AcDbEntity
  8
MAIN0
  6
BYBLOCK
 62
0
100
AcDbLine
 10
367.0156013902840
 20
418.1703881520465
 30
0.0000000000000000
 11
369.0156013902840
 21
418.1703881520465
 31
0.0000000000000000
  0
LINE
  5
387
100
AcDbEntity
  8
MAIN0
  6
BYBLOCK
 62
0
100
AcDbLine
 10
363.0156013902840
 20
442.8065293056838
 30
0.0000000000000000
 11
363.0156013902840
 21
414.1703881520465
 31
0.0000000000000000
  0
MTEXT
  5
388
100
AcDbEntity
  8
MAIN0
  6
BYBLOCK
 62
0
100
AcDbMText
 10
358.0156013903204
 20
421.7703880566791
 30
0.0000000000000000
 40
6.199999809265137
 41
0.0000000000000000
 71
     5
 72
     1
  1
\A1;10
 11
1.000000000000000
 21
0.0000000000000000
 31
0.0000000000000000
  7
STANDARD
  0
ENDBLK
  5
389
100
AcDbEntity
  8
MAIN0
  6
CONTINUOUS
 62
3
100
AcDbBlockEnd
  0
BLOCK
  5
38B
100
AcDbEntity
  8
MAIN0
  6
CONTINUOUS
 62
3
100
AcDbBlockBegin
  2
*D44
 70
    65
 10
0.0
 20
0.0
 30
0.0
  0
LINE
  5
38C
100
AcDbEntity
  8
MAIN0
  6
BYBLOCK
 62
0
100
AcDbLine
 10
363.0156013902840
 20
442.8065293056838
 30
0.0000000000000000
 11
363.0156013902840
 21
414.1703881520465
 31
0.0000000000000000
  0
LINE
  5
38D
100
AcDbEntity
  8
MAIN0
  6
BYBLOCK
 62
0
100
AcDbLine
 10
367.0156013902840
 20
418.1703881520465
 30
0.0000000000000000
 11
399.0156013902840
 21
418.1703881520465
 31
0.0000000000000000
  0
INSERT
  5
38E
100
AcDbEntity
  8
MAIN0
  6
BYBLOCK
 62
0
100
AcDbBlockReference
  2
_OPEN
 10
363.0156013902840
 20
418.1703881520465
 30
0.0000000000000000
 41
4.000000000000000
 42
4.000000000000000
 43
4.000000000000000
 50
180.0000000000000
  0
INSERT
  5
38F
100
AcDbEntity
  8
MAIN0
  6
BYBLOCK
 62
0
100
AcDbBlockReference
  2
_OPEN
 10
403.0156013902840
 20
418.1703881520465
 30
0.0000000000000000
 41
4.000000000000000
 42
4.000000000000000
 43
4.000000000000000
 50
0.0000000000000000
  0
LINE
  5
390
100
AcDbEntity
  8
MAIN0
  6
BYBLOCK
 62
0
100
AcDbLine
 10
403.0156013902840
 20
442.8065293056838
 30
0.0000000000000000
 11
403.0156013902840
 21
414.1703881520465
 31
0.0000000000000000
  0
MTEXT
  5
391
100
AcDbEntity
  8
MAIN0
  6
BYBLOCK
 62
0
100
AcDbMText
 10
379.1589182301161
 20
422.2703880566791
 30
0.0000000000000000
 40
6.199999809265137
 41
0.0000000000000000
 71
     5
 72
     1
  1
\A1;40
 11
1.000000000000000
 21
0.0000000000000000
 31
0.0000000000000000
  7
STANDARD
  0
ENDBLK
  5
392
100
AcDbEntity
  8
MAIN0
  6
CONTINUOUS
 62
3
100
AcDbBlockEnd
  0
BLOCK
  5
394
100
AcDbEntity
  8
MAIN0
  6
CONTINUOUS
 62
3
100
AcDbBlockBegin
  2
*D45
 70
    65
 10
0.0
 20
0.0
 30
0.0
  0
LINE
  5
395
100
AcDbEntity
  8
MAIN0
  6
BYBLOCK
 62
0
100
AcDbLine
 10
228.0156013902973
 20
457.9702432527318
 30
0.0000000000000000
 11
228.0156013902973
 21
414.1703881520465
 31
0.0000000000000000
  0
LINE
  5
396
100
AcDbEntity
  8
MAIN0
  6
BYBLOCK
 62
0
100
AcDbLine
 10
232.0156013902973
 20
418.1703881520465
 30
0.0000000000000000
 11
274.0156013902973
 21
418.1703881520465
 31
0.0000000000000000
  0
INSERT
  5
397
100
AcDbEntity
  8
MAIN0
  6
BYBLOCK
 62
0
100
AcDbBlockReference
  2
_OPEN
 10
228.0156013902973
 20
418.1703881520465
 30
0.0000000000000000
 41
4.000000000000000
 42
4.000000000000000
 43
4.000000000000000
 50
180.0000000000000
  0
INSERT
  5
398
100
AcDbEntity
  8
MAIN0
  6
BYBLOCK
 62
0
100
AcDbBlockReference
  2
_OPEN
 10
278.0156013902973
 20
418.1703881520465
 30
0.0000000000000000
 41
4.000000000000000
 42
4.000000000000000
 43
4.000000000000000
 50
0.0000000000000000
  0
LINE
  5
399
100
AcDbEntity
  8
MAIN0
  6
BYBLOCK
 62
0
100
AcDbLine
 10
278.0156013902973
 20
457.9702432527318
 30
0.0000000000000000
 11
278.0156013902973
 21
414.1703881520465
 31
0.0000000000000000
  0
MTEXT
  5
39A
100
AcDbEntity
  8
MAIN0
  6
BYBLOCK
 62
0
100
AcDbMText
 10
257.3597382357155
 20
422.2703880566791
 30
0.0000000000000000
 40
6.199999809265137
 41
0.0000000000000000
 71
     5
 72
     1
  1
\A1;50
 11
1.000000000000000
 21
0.0000000000000000
 31
0.0000000000000000
  7
STANDARD
  0
ENDBLK
  5
39B
100
AcDbEntity
  8
MAIN0
  6
CONTINUOUS
 62
3
100
AcDbBlockEnd
  0
BLOCK
  5
39D
100
AcDbEntity
  8
MAIN0
  6
CONTINUOUS
 62
3
100
AcDbBlockBegin
  2
*D46
 70
    65
 10
0.0
 20
0.0
 30
0.0
  0
LINE
  5
39E
100
AcDbEntity
  8
MAIN0
  6
BYBLOCK
 62
0
100
AcDbLine
 10
278.0156013902973
 20
457.9702432527318
 30
0.0000000000000000
 11
278.0156013902973
 21
414.1703881520465
 31
0.0000000000000000
  0
LINE
  5
39F
100
AcDbEntity
  8
MAIN0
  6
BYBLOCK
 62
0
100
AcDbLine
 10
278.0156013902973
 20
418.1703881520465
 30
0.0000000000000000
 11
288.0156013903563
 21
418.1703881520465
 31
0.0000000000000000
  0
INSERT
  5
3A0
100
AcDbEntity
  8
MAIN0
  6
BYBLOCK
 62
0
100
AcDbBlockReference
  2
_OPEN
 10
278.0156013902973
 20
418.1703881520465
 30
0.0000000000000000
 41
4.000000000000000
 42
4.000000000000000
 43
4.000000000000000
 50
0.0000000000000000
  0
INSERT
  5
3A1
100
AcDbEntity
  8
MAIN0
  6
BYBLOCK
 62
0
100
AcDbBlockReference
  2
_OPEN
 10
288.0156013903563
 20
418.1703881520465
 30
0.0000000000000000
 41
4.000000000000000
 42
4.000000000000000
 43
4.000000000000000
 50
180.0000000000000
  0
LINE
  5
3A2
100
AcDbEntity
  8
MAIN0
  6
BYBLOCK
 62
0
100
AcDbLine
 10
274.0156013902973
 20
418.1703881520465
 30
0.0000000000000000
 11
272.0156013902973
 21
418.1703881520465
 31
0.0000000000000000
  0
LINE
  5
3A3
100
AcDbEntity
  8
MAIN0
  6
BYBLOCK
 62
0
100
AcDbLine
 10
292.0156013903563
 20
418.1703881520465
 30
0.0000000000000000
 11
294.0156013903563
 21
418.1703881520465
 31
0.0000000000000000
  0
LINE
  5
3A4
100
AcDbEntity
  8
MAIN0
  6
BYBLOCK
 62
0
100
AcDbLine
 10
288.0156013903563
 20
437.0041123833568
 30
0.0000000000000000
 11
288.0156013903563
 21
414.1703881520465
 31
0.0000000000000000
  0
MTEXT
  5
3A5
100
AcDbEntity
  8
MAIN0
  6
BYBLOCK
 62
0
100
AcDbMText
 10
283.0156013903268
 20
421.7703880566791
 30
0.0000000000000000
 40
6.199999809265137
 41
0.0000000000000000
 71
     5
 72
     1
  1
\A1;10
 11
1.000000000000000
 21
0.0000000000000000
 31
0.0000000000000000
  7
STANDARD
  0
ENDBLK
  5
3A6
100
AcDbEntity
  8
MAIN0
  6
CONTINUOUS
 62
3
100
AcDbBlockEnd
  0
BLOCK
  5
3A8
100
AcDbEntity
  8
MAIN0
  6
CONTINUOUS
 62
3
100
AcDbBlockBegin
  2
*D47
 70
    65
 10
0.0
 20
0.0
 30
0.0
  0
LINE
  5
3A9
100
AcDbEntity
  8
MAIN0
  6
BYBLOCK
 62
0
100
AcDbLine
 10
216.6204424961068
 20
468.1041124072477
 30
0.0000000000000000
 11
196.0424758617526
 21
468.1041124072477
 31
0.0000000000000000
  0
LINE
  5
3AA
100
AcDbEntity
  8
MAIN0
  6
BYBLOCK
 62
0
100
AcDbLine
 10
200.0424758617526
 20
472.1041124072477
 30
0.0000000000000000
 11
200.0424758617526
 21
504.1041124071438
 31
0.0000000000000000
  0
INSERT
  5
3AB
100
AcDbEntity
  8
MAIN0
  6
BYBLOCK
 62
0
100
AcDbBlockReference
  2
_OPEN
 10
200.0424758617526
 20
468.1041124072477
 30
0.0000000000000000
 41
4.000000000000000
 42
4.000000000000000
 43
4.000000000000000
 50
270.0000000000000
  0
INSERT
  5
3AC
100
AcDbEntity
  8
MAIN0
  6
BYBLOCK
 62
0
100
AcDbBlockReference
  2
_OPEN
 10
200.0424758617526
 20
508.1041124071438
 30
0.0000000000000000
 41
4.000000000000000
 42
4.000000000000000
 43
4.000000000000000
 50
90.00000000000000
  0
LINE
  5
3AD
100
AcDbEntity
  8
MAIN0
  6
BYBLOCK
 62
0
100
AcDbLine
 10
216.6204424961483
 20
508.1041124071438
 30
0.0000000000000000
 11
196.0424758617526
 21
508.1041124071438
 31
0.0000000000000000
  0
MTEXT
  5
3AE
100
AcDbEntity
  8
MAIN0
  6
BYBLOCK
 62
0
100
AcDbMText
 10
196.4424759571200
 20
488.1041124071958
 30
0.0000000000000000
 40
6.199999809265137
 41
0.0000000000000000
 71
     5
 72
     1
  1
\A1;40
 11
6.123233995736766e-017
 21
1.000000000000000
 31
0.0000000000000000
  7
STANDARD
  0
ENDBLK
  5
3AF
100
AcDbEntity
  8
MAIN0
  6
CONTINUOUS
 62
3
100
AcDbBlockEnd
  0
BLOCK
  5
3B1
100
AcDbEntity
  8
MAIN0
  6
CONTINUOUS
 62
3
100
AcDbBlockBegin
  2
*D48
 70
    65
 10
0.0
 20
0.0
 30
0.0
  0
LINE
  5
3B2
100
AcDbEntity
  8
MAIN0
  6
BYBLOCK
 62
0
100
AcDbLine
 10
413.8657419753654
 20
453.1041124069426
 30
0.0000000000000000
 11
449.0737682599931
 21
453.1041124069426
 31
0.0000000000000000
  0
LINE
  5
3B3
100
AcDbEntity
  8
MAIN0
  6
BYBLOCK
 62
0
100
AcDbLine
 10
445.0737682599931
 20
457.1041124069426
 30
0.0000000000000000
 11
445.0737682599931
 21
519.1041124070463
 31
0.0000000000000000
  0
INSERT
  5
3B4
100
AcDbEntity
  8
MAIN0
  6
BYBLOCK
 62
0
100
AcDbBlockReference
  2
_OPEN
 10
445.0737682599931
 20
453.1041124069426
 30
0.0000000000000000
 41
4.000000000000000
 42
4.000000000000000
 43
4.000000000000000
 50
270.0000000000000
  0
INSERT
  5
3B5
100
AcDbEntity
  8
MAIN0
  6
BYBLOCK
 62
0
100
AcDbBlockReference
  2
_OPEN
 10
445.0737682599931
 20
523.1041124070463
 30
0.0000000000000000
 41
4.000000000000000
 42
4.000000000000000
 43
4.000000000000000
 50
90.00000000000000
  0
LINE
  5
3B6
100
AcDbEntity
  8
MAIN0
  6
BYBLOCK
 62
0
100
AcDbLine
 10
413.8657419754380
 20
523.1041124070463
 30
0.0000000000000000
 11
449.0737682599931
 21
523.1041124070463
 31
0.0000000000000000
  0
MTEXT
  5
3B7
100
AcDbEntity
  8
MAIN0
  6
BYBLOCK
 62
0
100
AcDbMText
 10
441.4737683553606
 20
488.1041124069944
 30
0.0000000000000000
 40
6.199999809265137
 41
0.0000000000000000
 71
     5
 72
     1
  1
\A1;70
 11
6.123233995736766e-017
 21
1.000000000000000
 31
0.0000000000000000
  7
STANDARD
  0
ENDBLK
  5
3B8
100
AcDbEntity
  8
MAIN0
  6
CONTINUOUS
 62
3
100
AcDbBlockEnd
  0
BLOCK
  5
3BE
100
AcDbEntity
  8
MAIN0
  6
CONTINUOUS
 62
3
100
AcDbBlockBegin
  2
*D49
 70
    65
 10
0.0
 20
0.0
 30
0.0
  0
LINE
  5
3BF
100
AcDbEntity
  8
MAIN0
  6
BYBLOCK
 62
0
100
AcDbLine
 10
251.5156013904495
 20
478.5041123833569
 30
0.0000000000000000
 11
251.5156013904495
 21
400.9157684652744
 31
0.0000000000000000
  0
LINE
  5
3C0
100
AcDbEntity
  8
MAIN0
  6
BYBLOCK
 62
0
100
AcDbLine
 10
255.5156013904495
 20
404.9157684652744
 30
0.0000000000000000
 11
284.0156013903563
 21
404.9157684652744
 31
0.0000000000000000
  0
INSERT
  5
3C1
100
AcDbEntity
  8
MAIN0
  6
BYBLOCK
 62
0
100
AcDbBlockReference
  2
_OPEN
 10
251.5156013904495
 20
404.9157684652744
 30
0.0000000000000000
 41
4.000000000000000
 42
4.000000000000000
 43
4.000000000000000
 50
180.0000000000000
  0
INSERT
  5
3C2
100
AcDbEntity
  8
MAIN0
  6
BYBLOCK
 62
0
100
AcDbBlockReference
  2
_OPEN
 10
288.0156013903563
 20
404.9157684652744
 30
0.0000000000000000
 41
4.000000000000000
 42
4.000000000000000
 43
4.000000000000000
 50
0.0000000000000000
  0
LINE
  5
3C3
100
AcDbEntity
  8
MAIN0
  6
BYBLOCK
 62
0
100
AcDbLine
 10
288.0156013903563
 20
437.0041123833568
 30
0.0000000000000000
 11
288.0156013903563
 21
400.9157684652744
 31
0.0000000000000000
  0
MTEXT
  5
3C4
100
AcDbEntity
  8
MAIN0
  6
BYBLOCK
 62
0
100
AcDbMText
 10
269.7656013904029
 20
408.5157683699070
 30
0.0000000000000000
 40
6.199999809265137
 41
0.0000000000000000
 71
     5
 72
     1
  1
\A1;36.5
 11
1.000000000000000
 21
0.0000000000000000
 31
0.0000000000000000
  7
STANDARD
  0
ENDBLK
  5
3C5
100
AcDbEntity
  8
MAIN0
  6
CONTINUOUS
 62
3
100
AcDbBlockEnd
  0
BLOCK
  5
40F
100
AcDbEntity
  8
MAIN0
  6
CONTINUOUS
 62
3
100
AcDbBlockBegin
  2
*D50
 70
    65
 10
0.0
 20
0.0
 30
0.0
  0
LINE
  5
410
100
AcDbEntity
  8
MAIN0
  6
BYBLOCK
 62
0
100
AcDbLine
 10
213.0282014241520
 20
329.8987604151575
 30
0.0000000000000000
 11
177.4282014479945
 21
329.8987604151575
 31
0.0000000000000000
  0
LINE
  5
411
100
AcDbEntity
  8
MAIN0
  6
BYBLOCK
 62
0
100
AcDbLine
 10
181.4282014479945
 20
325.8987604151575
 30
0.0000000000000000
 11
181.4282014479945
 21
218.8987604151580
 31
0.0000000000000000
  0
INSERT
  5
412
100
AcDbEntity
  8
MAIN0
  6
BYBLOCK
 62
0
100
AcDbBlockReference
  2
_OPEN
 10
181.4282014479945
 20
329.8987604151575
 30
0.0000000000000000
 41
4.000000000000000
 42
4.000000000000000
 43
4.000000000000000
 50
90.00000000000000
  0
INSERT
  5
413
100
AcDbEntity
  8
MAIN0
  6
BYBLOCK
 62
0
100
AcDbBlockReference
  2
_OPEN
 10
181.4282014479945
 20
214.8987604151580
 30
0.0000000000000000
 41
4.000000000000000
 42
4.000000000000000
 43
4.000000000000000
 50
270.0000000000000
  0
LINE
  5
414
100
AcDbEntity
  8
MAIN0
  6
BYBLOCK
 62
0
100
AcDbLine
 10
212.2282014241528
 20
214.8987604151580
 30
0.0000000000000000
 11
177.4282014479945
 21
214.8987604151580
 31
0.0000000000000000
  0
MTEXT
  5
415
100
AcDbEntity
  8
MAIN0
  6
BYBLOCK
 62
0
100
AcDbMText
 10
177.8282015433620
 20
272.3987604151578
 30
0.0000000000000000
 40
6.199999809265137
 41
0.0000000000000000
 71
     5
 72
     1
  1
\A1;115
 11
6.123233995736766e-017
 21
1.000000000000000
 31
0.0000000000000000
  7
STANDARD
  0
ENDBLK
  5
416
100
AcDbEntity
  8
MAIN0
  6
CONTINUOUS
 62
3
100
AcDbBlockEnd
  0
BLOCK
  5
418
100
AcDbEntity
  8
MAIN0
  6
CONTINUOUS
 62
3
100
AcDbBlockBegin
  2
*D51
 70
    65
 10
0.0
 20
0.0
 30
0.0
  0
LINE
  5
419
100
AcDbEntity
  8
MAIN0
  6
BYBLOCK
 62
0
100
AcDbLine
 10
318.9282014479941
 20
209.2987603913443
 30
0.0000000000000000
 11
318.9282014479941
 21
187.8987604145634
 31
0.0000000000000000
  0
LINE
  5
41A
100
AcDbEntity
  8
MAIN0
  6
BYBLOCK
 62
0
100
AcDbLine
 10
318.9282014479941
 20
191.8987604145634
 30
0.0000000000000000
 11
332.9282014479941
 21
191.8987604145634
 31
0.0000000000000000
  0
INSERT
  5
41B
100
AcDbEntity
  8
MAIN0
  6
BYBLOCK
 62
0
100
AcDbBlockReference
  2
_OPEN
 10
318.9282014479941
 20
191.8987604145634
 30
0.0000000000000000
 41
4.000000000000000
 42
4.000000000000000
 43
4.000000000000000
 50
0.0000000000000000
  0
INSERT
  5
41C
100
AcDbEntity
  8
MAIN0
  6
BYBLOCK
 62
0
100
AcDbBlockReference
  2
_OPEN
 10
332.9282014479941
 20
191.8987604145634
 30
0.0000000000000000
 41
4.000000000000000
 42
4.000000000000000
 43
4.000000000000000
 50
180.0000000000000
  0
LINE
  5
41D
100
AcDbEntity
  8
MAIN0
  6
BYBLOCK
 62
0
100
AcDbLine
 10
314.9282014479941
 20
191.8987604145634
 30
0.0000000000000000
 11
304.9498453629621
 21
191.8987604145634
 31
0.0000000000000000
  0
LINE
  5
41E
100
AcDbEntity
  8
MAIN0
  6
BYBLOCK
 62
0
100
AcDbLine
 10
336.9282014479941
 20
191.8987604145634
 30
0.0000000000000000
 11
338.9282014479941
 21
191.8987604145634
 31
0.0000000000000000
  0
LINE
  5
41F
100
AcDbEntity
  8
MAIN0
  6
BYBLOCK
 62
0
100
AcDbLine
 10
332.9282014479941
 20
209.2987603913446
 30
0.0000000000000000
 11
332.9282014479941
 21
187.8987604145634
 31
0.0000000000000000
  0
MTEXT
  5
420
100
AcDbEntity
  8
MAIN0
  6
BYBLOCK
 62
0
100
AcDbMText
 10
309.0498452675947
 20
195.9987603191960
 30
0.0000000000000000
 40
6.199999809265137
 41
0.0000000000000000
 71
     5
 72
     1
  1
\A1;14
 11
1.000000000000000
 21
0.0000000000000000
 31
0.0000000000000000
  7
STANDARD
  0
ENDBLK
  5
421
100
AcDbEntity
  8
MAIN0
  6
CONTINUOUS
 62
3
100
AcDbBlockEnd
  0
BLOCK
  5
423
100
AcDbEntity
  8
MAIN0
  6
CONTINUOUS
 62
3
100
AcDbBlockBegin
  2
*D52
 70
    65
 10
0.0
 20
0.0
 30
0.0
  0
LINE
  5
424
100
AcDbEntity
  8
MAIN0
  6
BYBLOCK
 62
0
100
AcDbLine
 10
213.4282014479945
 20
213.6987603913162
 30
0.0000000000000000
 11
213.4282014479945
 21
142.8987604145634
 31
0.0000000000000000
  0
LINE
  5
425
100
AcDbEntity
  8
MAIN0
  6
BYBLOCK
 62
0
100
AcDbLine
 10
217.4282014479945
 20
146.8987604145634
 30
0.0000000000000000
 11
321.9282014479941
 21
146.8987604145634
 31
0.0000000000000000
  0
INSERT
  5
426
100
AcDbEntity
  8
MAIN0
  6
BYBLOCK
 62
0
100
AcDbBlockReference
  2
_OPEN
 10
213.4282014479945
 20
146.8987604145634
 30
0.0000000000000000
 41
4.000000000000000
 42
4.000000000000000
 43
4.000000000000000
 50
180.0000000000000
  0
INSERT
  5
427
100
AcDbEntity
  8
MAIN0
  6
BYBLOCK
 62
0
100
AcDbBlockReference
  2
_OPEN
 10
325.9282014479941
 20
146.8987604145634
 30
0.0000000000000000
 41
4.000000000000000
 42
4.000000000000000
 43
4.000000000000000
 50
0.0000000000000000
  0
LINE
  5
428
100
AcDbEntity
  8
MAIN0
  6
BYBLOCK
 62
0
100
AcDbLine
 10
325.9282014479941
 20
205.2987603913161
 30
0.0000000000000000
 11
325.9282014479941
 21
142.8987604145634
 31
0.0000000000000000
  0
MTEXT
  5
429
100
AcDbEntity
  8
MAIN0
  6
BYBLOCK
 62
0
100
AcDbMText
 10
265.9469778553897
 20
150.7487603191960
 30
0.0000000000000000
 40
6.199999809265137
 41
0.0000000000000000
 71
     5
 72
     1
  1
\A1;112.5
 11
1.000000000000000
 21
0.0000000000000000
 31
0.0000000000000000
  7
STANDARD
  0
ENDBLK
  5
42A
100
AcDbEntity
  8
MAIN0
  6
CONTINUOUS
 62
3
100
AcDbBlockEnd
  0
BLOCK
  5
42C
100
AcDbEntity
  8
MAIN0
  6
CONTINUOUS
 62
3
100
AcDbBlockBegin
  2
*D53
 70
    65
 10
0.0
 20
0.0
 30
0.0
  0
LINE
  5
42D
100
AcDbEntity
  8
MAIN0
  6
BYBLOCK
 62
0
100
AcDbLine
 10
325.9282014479941
 20
205.2987603913161
 30
0.0000000000000000
 11
325.9282014479941
 21
142.8987604145634
 31
0.0000000000000000
  0
LINE
  5
42E
100
AcDbEntity
  8
MAIN0
  6
BYBLOCK
 62
0
100
AcDbLine
 10
329.9282014479938
 20
146.8987604145634
 30
0.0000000000000000
 11
564.4282014479943
 21
146.8987604145634
 31
0.0000000000000000
  0
INSERT
  5
42F
100
AcDbEntity
  8
MAIN0
  6
BYBLOCK
 62
0
100
AcDbBlockReference
  2
_OPEN
 10
325.9282014479938
 20
146.8987604145634
 30
0.0000000000000000
 41
4.000000000000000
 42
4.000000000000000
 43
4.000000000000000
 50
180.0000000000000
  0
INSERT
  5
430
100
AcDbEntity
  8
MAIN0
  6
BYBLOCK
 62
0
100
AcDbBlockReference
  2
_OPEN
 10
568.4282014479943
 20
146.8987604145634
 30
0.0000000000000000
 41
4.000000000000000
 42
4.000000000000000
 43
4.000000000000000
 50
0.0000000000000000
  0
LINE
  5
431
100
AcDbEntity
  8
MAIN0
  6
BYBLOCK
 62
0
100
AcDbLine
 10
568.4282014479943
 20
231.2987603903570
 30
0.0000000000000000
 11
568.4282014479943
 21
142.8987604145634
 31
0.0000000000000000
  0
MTEXT
  5
432
100
AcDbEntity
  8
MAIN0
  6
BYBLOCK
 62
0
100
AcDbMText
 10
429.6705057136962
 20
150.7487603191960
 30
0.0000000000000000
 40
6.199999809265137
 41
0.0000000000000000
 71
     5
 72
     1
  1
\A1;242.5
 11
1.000000000000000
 21
0.0000000000000000
 31
0.0000000000000000
  7
STANDARD
  0
ENDBLK
  5
433
100
AcDbEntity
  8
MAIN0
  6
CONTINUOUS
 62
3
100
AcDbBlockEnd
  0
BLOCK
  5
435
100
AcDbEntity
  8
MAIN0
  6
CONTINUOUS
 62
3
100
AcDbBlockBegin
  2
*D54
 70
    65
 10
0.0
 20
0.0
 30
0.0
  0
LINE
  5
436
100
AcDbEntity
  8
MAIN0
  6
BYBLOCK
 62
0
100
AcDbLine
 10
568.4282014479943
 20
231.2987603903570
 30
0.0000000000000000
 11
568.4282014479945
 21
127.8987604145634
 31
0.0000000000000000
  0
LINE
  5
437
100
AcDbEntity
  8
MAIN0
  6
BYBLOCK
 62
0
100
AcDbLine
 10
564.4282014479945
 20
131.8987604145634
 30
0.0000000000000000
 11
217.4282014479945
 21
131.8987604145634
 31
0.0000000000000000
  0
INSERT
  5
438
100
AcDbEntity
  8
MAIN0
  6
BYBLOCK
 62
0
100
AcDbBlockReference
  2
_OPEN
 10
568.4282014479945
 20
131.8987604145634
 30
0.0000000000000000
 41
4.000000000000000
 42
4.000000000000000
 43
4.000000000000000
 50
360.0000000000000
  0
INSERT
  5
439
100
AcDbEntity
  8
MAIN0
  6
BYBLOCK
 62
0
100
AcDbBlockReference
  2
_OPEN
 10
213.4282014479945
 20
131.8987604145634
 30
0.0000000000000000
 41
4.000000000000000
 42
4.000000000000000
 43
4.000000000000000
 50
180.0000000000000
  0
LINE
  5
43A
100
AcDbEntity
  8
MAIN0
  6
BYBLOCK
 62
0
100
AcDbLine
 10
213.4282014479945
 20
213.6987603913162
 30
0.0000000000000000
 11
213.4282014479945
 21
127.8987604145634
 31
0.0000000000000000
  0
MTEXT
  5
43B
100
AcDbEntity
  8
MAIN0
  6
BYBLOCK
 62
0
100
AcDbMText
 10
400.0961709335509
 20
135.7487603191960
 30
0.0000000000000000
 40
6.199999809265137
 41
0.0000000000000000
 71
     5
 72
     1
  1
\A1;355
 11
1.000000000000000
 21
0.0000000000000000
 31
0.0000000000000000
  7
STANDARD
  0
ENDBLK
  5
43C
100
AcDbEntity
  8
MAIN0
  6
CONTINUOUS
 62
3
100
AcDbBlockEnd
  0
BLOCK
  5
43E
100
AcDbEntity
  8
MAIN0
  6
CONTINUOUS
 62
3
100
AcDbBlockBegin
  2
*D55
 70
    65
 10
0.0
 20
0.0
 30
0.0
  0
LINE
  5
43F
100
AcDbEntity
  8
MAIN0
  6
BYBLOCK
 62
0
100
AcDbLine
 10
633.2640654070572
 20
487.8987604142767
 30
0.0000000000000000
 11
583.6085602647037
 21
487.8987604142767
 31
0.0000000000000000
  0
LINE
  5
440
100
AcDbEntity
  8
MAIN0
  6
BYBLOCK
 62
0
100
AcDbLine
 10
587.6085602647037
 20
483.8987604142767
 30
0.0000000000000000
 11
587.6085602647037
 21
311.8987604142767
 31
0.0000000000000000
  0
INSERT
  5
441
100
AcDbEntity
  8
MAIN0
  6
BYBLOCK
 62
0
100
AcDbBlockReference
  2
_OPEN
 10
587.6085602647037
 20
487.8987604142767
 30
0.0000000000000000
 41
4.000000000000000
 42
4.000000000000000
 43
4.000000000000000
 50
90.00000000000000
  0
INSERT
  5
442
100
AcDbEntity
  8
MAIN0
  6
BYBLOCK
 62
0
100
AcDbBlockReference
  2
_OPEN
 10
587.6085602647037
 20
307.8987604142767
 30
0.0000000000000000
 41
4.000000000000000
 42
4.000000000000000
 43
4.000000000000000
 50
270.0000000000000
  0
LINE
  5
443
100
AcDbEntity
  8
MAIN0
  6
BYBLOCK
 62
0
100
AcDbLine
 10
588.5756408697376
 20
307.8987604142767
 30
0.0000000000000000
 11
583.6085602647037
 21
307.8987604142767
 31
0.0000000000000000
  0
MTEXT
  5
444
100
AcDbEntity
  8
MAIN0
  6
BYBLOCK
 62
0
100
AcDbMText
 10
584.0085603600711
 20
397.8987604142767
 30
0.0000000000000000
 40
6.199999809265137
 41
0.0000000000000000
 71
     5
 72
     1
  1
\A1;180
 11
6.123233995736766e-017
 21
1.000000000000000
 31
0.0000000000000000
  7
STANDARD
  0
ENDBLK
  5
445
100
AcDbEntity
  8
MAIN0
  6
CONTINUOUS
 62
3
100
AcDbBlockEnd
  0
ENDSEC
  0
SECTION
  2
ENTITIES
  0
LINE
  5
46
100
AcDbEntity
  8
MAIN0
  6
PHANTOM
 62
3
100
AcDbLine
 10
708.1571123491808
 20
214.8987604142954
 30
0.0000000000000000
 11
643.6073936888745
 21
214.8987604142954
 31
0.0000000000000000
  0
MTEXT
  5
47
100
AcDbEntity
  8
MAIN0
  6
CONTINUOUS
 62
3
100
AcDbMText
 10
543.8605755559297
 20
124.4881682142888
 30
0.0000000000000000
 40
6.199999809265137
 41
0.0000000000000000
 71
     1
 72
     1
  1
{\H0.94x;{(押さえ金具４セット付属)}}
 11
1.000000000000000
 21
0.0000000000000000
 31
0.0000000000000000
  7
KNJYOKO
  0
MTEXT
  5
48
100
AcDbEntity
  8
MAIN0
  6
CONTINUOUS
 62
3
100
AcDbMText
 10
544.9605293908952
 20
113.3115044682049
 30
0.0000000000000000
 40
6.000000000000000
 41
0.0000000000000000
 71
     1
 72
     1
  1
{\H0.63x;{(CLAMPING PARTS  ACCESSARY 4 PAIR)}}
 11
1.000000000000000
 21
0.0000000000000000
 31
0.0000000000000000
  7
STANDARD
  0
LEADER
  5
49
100
AcDbEntity
  8
MAIN0
  6
CONTINUOUS
 62
3
100
AcDbLeader
  3
MAIN001
 73
     0
 75
     1
 40
6.199999809265137
 41
43.79900002682209
 76
     3
 10
248.9590744629929
 20
491.1805015351202
 30
0.0000000000000000
 10
202.7876574010657
 20
560.0187770945288
 30
0.0000000000000000
 10
199.2146575063871
 20
560.0187770945288
 30
0.0000000000000000
340
4A
213
0.0000000000000000
223
-1.000000000000000
233
0.0000000000000000
1001
ACAD
1000
DSTYLE
1002
{
1070
   147
1040
0.0
1070
    77
1070
     1
1070
   173
1070
     1
1070
     6
1000
_OPEN
1070
     7
1000
_OPEN
1002
}
  0
MTEXT
  5
4A
102
{ACAD_REACTORS
330
49
102
}
100
AcDbEntity
  8
MAIN0
  6
CONTINUOUS
 62
3
100
AcDbMText
 10
155.4156574795650
 20
567.2187769037939
 30
0.0000000000000000
 40
6.199999809265137
 41
0.0000000000000000
 71
     1
 72
     1
  1
{\H0.70x;{（吊りボルト用）\P（EYE BOLT）\P}
 11
1.000000000000000
 21
0.0000000000000000
 31
0.0000000000000000
  7
KNJYOKO
  0
DIMENSION
  5
53
100
AcDbEntity
  8
MAIN0
  6
CONTINUOUS
 62
3
100
AcDbDimension
  2
*D0
 10
287.4282014479941
 20
176.8987604145634
 30
0.0000000000000000
 11
306.6782014479941
 21
177.3987604145634
 31
0.0000000000000000
 70
32
  3
MAIN001
100
AcDbAlignedDimension
 13
325.9282014479941
 23
206.8987604151580
 33
0.0000000000000000
 14
287.4282014479941
 24
290.2987604151576
 34
0.0000000000000000
100
AcDbRotatedDimension
1001
ACAD
1000
DSTYLE
1002
{
1070
   173
1070
     1
1070
     6
1000
_OPEN
1070
     7
1000
_OPEN
1070
    41
1040
4.000000
1002
}
  0
DIMENSION
  5
5C
100
AcDbEntity
  8
MAIN0
  6
CONTINUOUS
 62
3
100
AcDbDimension
  2
*D1
 10
325.9282014479941
 20
176.8987604145634
 30
0.0000000000000000
 11
406.1782014479941
 21
177.3987604145634
 31
0.0000000000000000
 70
32
  3
MAIN001
100
AcDbAlignedDimension
 13
486.4282014479941
 23
215.2987604151581
 33
0.0000000000000000
 14
325.9282014479941
 24
206.8987604151580
 34
0.0000000000000000
100
AcDbRotatedDimension
1001
ACAD
1000
DSTYLE
1002
{
1070
   173
1070
     1
1070
     6
1000
_OPEN
1070
     7
1000
_OPEN
1070
    41
1040
4.000000
1002
}
  0
DIMENSION
  5
66
100
AcDbEntity
  8
MAIN0
  6
CONTINUOUS
 62
3
100
AcDbDimension
  2
*D2
 10
448.1679685138969
 20
301.0987604151578
 30
0.0000000000000000
 11
447.6679685138969
 21
295.4987604151579
 31
0.0000000000000000
 70
32
  3
MAIN001
100
AcDbAlignedDimension
 13
416.4282014479941
 23
289.8987604151580
 33
0.0000000000000000
 14
416.4282014479941
 24
301.0987604151578
 34
0.0000000000000000
 50
90.00000000000000
100
AcDbRotatedDimension
1001
ACAD
1000
DSTYLE
1002
{
1070
   173
1070
     1
1070
     6
1000
_OPEN
1070
     7
1000
_OPEN
1070
    41
1040
4.000000
1070
   287
1070
     0
1002
}
  0
DIMENSION
  5
6E
100
AcDbEntity
  8
MAIN0
  6
CONTINUOUS
 62
3
100
AcDbDimension
  2
*D3
 10
386.5458075857035
 20
214.8987604151580
 30
0.0000000000000000
 11
385.5458075857035
 21
236.9143842076830
 31
0.0000000000000000
 70
160
  3
MAIN001
100
AcDbAlignedDimension
 13
402.4282014479944
 23
274.8987604151580
 33
0.0000000000000000
 14
333.3282014479946
 24
214.8987604151580
 34
0.0000000000000000
 50
90.00000000000000
100
AcDbRotatedDimension
1001
ACAD
1000
DSTYLE
1002
{
1070
   173
1070
     1
1070
     6
1000
_OPEN
1070
     7
1000
_OPEN
1070
    41
1040
4.000000
1002
}
  0
DIMENSION
  5
78
100
AcDbEntity
  8
MAIN0
  6
CONTINUOUS
 62
3
100
AcDbDimension
  2
*D4
 10
386.5458075857035
 20
274.8987604151580
 30
0.0000000000000000
 11
385.5458075857035
 21
300.2391460660064
 31
0.0000000000000000
 70
160
  3
MAIN001
100
AcDbAlignedDimension
 13
416.4282014479941
 23
289.8987604151580
 33
0.0000000000000000
 14
402.4282014479944
 24
274.8987604151580
 34
0.0000000000000000
 50
90.00000000000000
100
AcDbRotatedDimension
1001
ACAD
1000
DSTYLE
1002
{
1070
   173
1070
     1
1070
     6
1000
_OPEN
1070
     7
1000
_OPEN
1070
    41
1040
4.000000
1070
   287
1070
     0
1002
}
  0
DIMENSION
  5
81
100
AcDbEntity
  8
MAIN0
  6
CONTINUOUS
 62
3
100
AcDbDimension
  2
*D5
 10
604.0233160053981
 20
526.1350986196467
 30
0.0000000000000000
 11
662.5233160053863
 21
526.6350986196467
 31
0.0000000000000000
 70
32
  3
MAIN001
100
AcDbAlignedDimension
 13
721.0233160053746
 23
487.8987604142770
 33
0.0000000000000000
 14
604.0233160053981
 24
307.8987604142767
 34
0.0000000000000000
100
AcDbRotatedDimension
1001
ACAD
1000
DSTYLE
1002
{
1070
   173
1070
     1
1070
     6
1000
_OPEN
1070
     7
1000
_OPEN
1070
    41
1040
4.000000
1002
}
  0
DIMENSION
  5
8C
100
AcDbEntity
  8
MAIN0
  6
CONTINUOUS
 62
3
100
AcDbDimension
  2
*D6
 10
604.0233160053990
 20
510.0751130429266
 30
0.0000000000000000
 11
611.5233160053990
 21
510.5751130429266
 31
0.0000000000000000
 70
32
  3
MAIN001
100
AcDbAlignedDimension
 13
619.0233160053992
 23
317.8987604142769
 33
0.0000000000000000
 14
604.0233160053981
 24
307.8987604142767
 34
0.0000000000000000
100
AcDbRotatedDimension
1001
ACAD
1000
DSTYLE
1002
{
1070
   173
1070
     1
1070
     6
1000
_OPEN
1070
     7
1000
_OPEN
1070
    41
1040
4.000000
1070
   287
1070
     0
1002
}
  0
DIMENSION
  5
95
100
AcDbEntity
  8
MAIN0
  6
CONTINUOUS
 62
3
100
AcDbDimension
  2
*D7
 10
619.0233160053982
 20
510.0751130429266
 30
0.0000000000000000
 11
634.0233160053892
 21
510.5751130429266
 31
0.0000000000000000
 70
32
  3
MAIN001
100
AcDbAlignedDimension
 13
649.0233160053803
 23
478.3987604142766
 33
0.0000000000000000
 14
619.0233160053992
 24
317.8987604142769
 34
0.0000000000000000
100
AcDbRotatedDimension
1001
ACAD
1000
DSTYLE
1002
{
1070
   173
1070
     1
1070
     6
1000
_OPEN
1070
     7
1000
_OPEN
1070
    41
1040
4.000000
1002
}
  0
DIMENSION
  5
9E
100
AcDbEntity
  8
MAIN0
  6
CONTINUOUS
 62
3
100
AcDbDimension
  2
*D8
 10
649.0233160053803
 20
510.0751130429266
 30
0.0000000000000000
 11
685.0233160053774
 21
510.5751130429266
 31
0.0000000000000000
 70
32
  3
MAIN001
100
AcDbAlignedDimension
 13
721.0233160053746
 23
487.8987604142770
 33
0.0000000000000000
 14
649.0233160053803
 24
478.3987604142766
 34
0.0000000000000000
100
AcDbRotatedDimension
1001
ACAD
1000
DSTYLE
1002
{
1070
   173
1070
     1
1070
     6
1000
_OPEN
1070
     7
1000
_OPEN
1070
    41
1040
4.000000
1002
}
  0
DIMENSION
  5
A6
100
AcDbEntity
  8
MAIN0
  6
CONTINUOUS
 62
3
100
AcDbDimension
  2
*D9
 10
578.3563029260912
 20
214.8987604151580
 30
0.0000000000000000
 11
577.8563029260912
 21
236.3987604146716
 31
0.0000000000000000
 70
32
  3
MAIN001
100
AcDbAlignedDimension
 13
507.5233160053986
 23
257.8987604141852
 33
0.0000000000000000
 14
486.0282014479944
 24
214.8987604151580
 34
0.0000000000000000
 50
90.00000000000000
100
AcDbRotatedDimension
1001
ACAD
1000
DSTYLE
1002
{
1070
   173
1070
     1
1070
     6
1000
_OPEN
1070
     7
1000
_OPEN
1070
    41
1040
4.000000
1002
}
  0
LINE
  5
A7
100
AcDbEntity
  8
MAIN0
  6
CENTER
 62
3
100
AcDbLine
 10
581.4166832753284
 20
257.8987604143193
 30
0.0000000000000000
 11
581.4166832754852
 21
307.8987604142767
 31
0.0000000000000000
  0
LINE
  5
A8
100
AcDbEntity
  8
MAIN0
  6
CENTER
 62
3
100
AcDbLine
 10
608.0498980099068
 20
259.2916184437685
 30
0.0000000000000000
 11
608.0498980098837
 21
183.5064887675742
 31
0.0000000000000000
  0
LINE
  5
A9
100
AcDbEntity
  8
MAIN0
  6
CONTINUOUS
 62
3
100
AcDbLine
 10
590.5498980099006
 20
237.3987604143230
 30
0.0000000000000000
 11
625.5498980098996
 21
237.3987604143123
 31
0.0000000000000000
  0
LINE
  5
AA
100
AcDbEntity
  8
MAIN0
  6
CONTINUOUS
 62
3
100
AcDbLine
 10
591.9498980098570
 20
214.8987604144417
 30
0.0000000000000000
 11
624.1498980096405
 21
214.8987604144319
 31
0.0000000000000000
  0
LINE
  5
AB
100
AcDbEntity
  8
MAIN0
  6
CONTINUOUS
 62
3
100
AcDbLine
 10
620.0498980099004
 20
242.3987604143177
 30
0.0000000000000000
 11
620.0498980099004
 21
237.3987604143177
 31
0.0000000000000000
  0
LINE
  5
AC
100
AcDbEntity
  8
MAIN0
  6
CONTINUOUS
 62
3
100
AcDbLine
 10
596.0498980099003
 20
242.3987604143177
 30
0.0000000000000000
 11
620.0498980099004
 21
242.3987604143177
 31
0.0000000000000000
  0
LINE
  5
AD
100
AcDbEntity
  8
MAIN0
  6
CONTINUOUS
 62
3
100
AcDbLine
 10
596.0498980099002
 20
242.3987604143177
 30
0.0000000000000000
 11
596.0498980099002
 21
237.3987604143177
 31
0.0000000000000000
  0
LINE
  5
AE
100
AcDbEntity
  8
MAIN0
  6
CONTINUOUS
 62
3
100
AcDbLine
 10
614.9498980098954
 20
210.2428502234536
 30
0.0000000000000000
 11
601.1498980098957
 21
210.2428502234537
 31
0.0000000000000000
  0
LINE
  5
AF
100
AcDbEntity
  8
MAIN0
  6
CONTINUOUS
 62
3
100
AcDbLine
 10
601.1498980098957
 20
203.0428502234537
 30
0.0000000000000000
 11
601.1498980098955
 21
210.2428502234538
 31
0.0000000000000000
  0
LINE
  5
B0
100
AcDbEntity
  8
MAIN0
  6
CONTINUOUS
 62
3
100
AcDbLine
 10
597.0498980098956
 20
203.0428502234536
 30
0.0000000000000000
 11
601.1498980098958
 21
203.0428502234536
 31
0.0000000000000000
  0
LINE
  5
B1
100
AcDbEntity
  8
MAIN0
  6
CONTINUOUS
 62
3
100
AcDbLine
 10
597.0498980098956
 20
194.4428502234536
 30
0.0000000000000000
 11
597.0498980098956
 21
203.0428502234536
 31
0.0000000000000000
  0
LINE
  5
B2
100
AcDbEntity
  8
MAIN0
  6
CONTINUOUS
 62
3
100
AcDbLine
 10
597.0498980098957
 20
194.4428502234537
 30
0.0000000000000000
 11
619.0498980098955
 21
194.4428502234537
 31
0.0000000000000000
  0
LINE
  5
B3
100
AcDbEntity
  8
MAIN0
  6
CONTINUOUS
 62
3
100
AcDbLine
 10
619.0498980098955
 20
194.4428502234537
 30
0.0000000000000000
 11
619.0498980098955
 21
203.0428502234537
 31
0.0000000000000000
  0
LINE
  5
B4
100
AcDbEntity
  8
MAIN0
  6
CONTINUOUS
 62
3
100
AcDbLine
 10
619.0498980098956
 20
203.0428502234537
 30
0.0000000000000000
 11
614.9498980098954
 21
203.0428502234537
 31
0.0000000000000000
  0
LINE
  5
B5
100
AcDbEntity
  8
MAIN0
  6
CONTINUOUS
 62
3
100
AcDbLine
 10
614.9498980098955
 20
203.0428502234537
 30
0.0000000000000000
 11
614.9498980098955
 21
210.2428502234538
 31
0.0000000000000000
  0
DIMENSION
  5
BE
100
AcDbEntity
  8
MAIN0
  6
CONTINUOUS
 62
3
100
AcDbDimension
  2
*D10
 10
590.5498980099002
 20
266.8039422585233
 30
0.0000000000000000
 11
608.0498980098998
 21
267.3039422585233
 31
0.0000000000000000
 70
32
  3
MAIN001
100
AcDbAlignedDimension
 13
625.5498980098996
 23
237.3987604143121
 33
0.0000000000000000
 14
590.5498980099002
 24
237.3987604143229
 34
0.0000000000000000
100
AcDbRotatedDimension
1001
ACAD
1000
DSTYLE
1002
{
1070
   173
1070
     1
1070
     6
1000
_OPEN
1070
     7
1000
_OPEN
1070
    41
1040
4.000000
1002
}
  0
LINE
  5
BF
100
AcDbEntity
  8
MAIN0
  6
CONTINUOUS
 62
3
100
AcDbLine
 10
675.9071123491822
 20
210.2428502234093
 30
0.0000000000000000
 11
704.4071123491822
 21
210.2428502234093
 31
0.0000000000000000
  0
LINE
  5
C0
100
AcDbEntity
  8
MAIN0
  6
CONTINUOUS
 62
3
100
AcDbLine
 10
675.9071123491822
 20
203.0428502234093
 30
0.0000000000000000
 11
704.4071123491822
 21
203.0428502234093
 31
0.0000000000000000
  0
LINE
  5
C1
100
AcDbEntity
  8
MAIN0
  6
CONTINUOUS
 62
3
100
AcDbLine
 10
704.4071123491822
 20
210.2428502234093
 30
0.0000000000000000
 11
704.4071123491822
 21
194.4428502234093
 31
0.0000000000000000
  0
LINE
  5
C2
100
AcDbEntity
  8
MAIN0
  6
CONTINUOUS
 62
3
100
AcDbLine
 10
675.9071123491822
 20
194.4428502234093
 30
0.0000000000000000
 11
704.4071123491822
 21
194.4428502234093
 31
0.0000000000000000
  0
LINE
  5
C3
100
AcDbEntity
  8
MAIN0
  6
CONTINUOUS
 62
3
100
AcDbLine
 10
675.9071123491822
 20
210.2428502234093
 30
0.0000000000000000
 11
675.9071123491822
 21
194.4428502234093
 31
0.0000000000000000
  0
LINE
  5
C4
100
AcDbEntity
  8
MAIN0
  6
CONTINUOUS
 62
3
100
AcDbLine
 10
675.9071123491821
 20
152.6396660268628
 30
0.0000000000000000
 11
704.4071123491821
 21
152.6396660268628
 31
0.0000000000000000
  0
LINE
  5
C5
100
AcDbEntity
  8
MAIN0
  6
CONTINUOUS
 62
3
100
AcDbLine
 10
704.4071123491821
 20
152.6396660268628
 30
0.0000000000000000
 11
704.4071123491821
 21
130.6396660268628
 31
0.0000000000000000
  0
LINE
  5
C6
100
AcDbEntity
  8
MAIN0
  6
CONTINUOUS
 62
3
100
AcDbLine
 10
675.9071123491821
 20
130.6396660268628
 30
0.0000000000000000
 11
704.4071123491821
 21
130.6396660268628
 31
0.0000000000000000
  0
LINE
  5
C7
100
AcDbEntity
  8
MAIN0
  6
HIDDEN
 62
3
100
AcDbLine
 10
675.9071123491821
 20
134.7396660268628
 30
0.0000000000000000
 11
704.4071123491821
 21
134.7396660268628
 31
0.0000000000000000
  0
LINE
  5
C8
100
AcDbEntity
  8
MAIN0
  6
HIDDEN
 62
3
100
AcDbLine
 10
675.9071123491821
 20
148.5396660268628
 30
0.0000000000000000
 11
704.4071123491821
 21
148.5396660268628
 31
0.0000000000000000
  0
LINE
  5
C9
100
AcDbEntity
  8
MAIN0
  6
CONTINUOUS
 62
3
100
AcDbLine
 10
675.9071123491821
 20
152.6396660268628
 30
0.0000000000000000
 11
675.9071123491821
 21
130.6396660268628
 31
0.0000000000000000
  0
LINE
  5
CA
100
AcDbEntity
  8
MAIN0
  6
CENTER
 62
3
100
AcDbLine
 10
670.5399300457646
 20
141.6396660268628
 30
0.0000000000000000
 11
708.7590424124760
 21
141.6396660268628
 31
0.0000000000000000
  0
DIMENSION
  5
D3
100
AcDbEntity
  8
MAIN0
  6
CONTINUOUS
 62
3
100
AcDbDimension
  2
*D11
 10
660.4942777648505
 20
152.6396660268628
 30
0.0000000000000000
 11
659.9942777648505
 21
141.6396660268628
 31
0.0000000000000000
 70
32
  3
MAIN001
100
AcDbAlignedDimension
 13
675.9071123491821
 23
130.6396660268628
 33
0.0000000000000000
 14
675.9071123491821
 24
152.6396660268628
 34
0.0000000000000000
 50
90.00000000000000
100
AcDbRotatedDimension
1001
ACAD
1000
DSTYLE
1002
{
1070
   173
1070
     1
1070
     6
1000
_OPEN
1070
     7
1000
_OPEN
1070
    41
1040
4.000000
1002
}
  0
DIMENSION
  5
DC
100
AcDbEntity
  8
MAIN0
  6
CONTINUOUS
 62
3
100
AcDbDimension
  2
*D12
 10
675.9071123491821
 20
112.2470865662400
 30
0.0000000000000000
 11
690.1571123491821
 21
112.7470865662400
 31
0.0000000000000000
 70
32
  3
MAIN001
100
AcDbAlignedDimension
 13
704.4071123491821
 23
130.6396660268628
 33
0.0000000000000000
 14
675.9071123491821
 24
130.6396660268628
 34
0.0000000000000000
100
AcDbRotatedDimension
1001
ACAD
1000
DSTYLE
1002
{
1070
   173
1070
     1
1070
     6
1000
_OPEN
1070
     7
1000
_OPEN
1070
    41
1040
4.000000
1002
}
  0
DIMENSION
  5
E7
100
AcDbEntity
  8
MAIN0
  6
CONTINUOUS
 62
3
100
AcDbDimension
  2
*D13
 10
726.0468272212206
 20
148.5396660268628
 30
0.0000000000000000
 11
725.0468272212206
 21
120.6317914205584
 31
0.0000000000000000
 70
160
  3
MAIN001
100
AcDbAlignedDimension
 13
704.4071123491821
 23
134.7396660268628
 33
0.0000000000000000
 14
704.4071123491821
 24
148.5396660268628
 34
0.0000000000000000
 50
90.00000000000000
100
AcDbRotatedDimension
1001
ACAD
1000
DSTYLE
1002
{
1070
   173
1070
     1
1070
     6
1000
_OPEN
1070
     7
1000
_OPEN
1070
    41
1040
4.000000
1070
   287
1070
     0
1002
}
  0
DIMENSION
  5
F0
100
AcDbEntity
  8
MAIN0
  6
CONTINUOUS
 62
3
100
AcDbDimension
  2
*D14
 10
213.4282014479945
 20
161.8987604145634
 30
0.0000000000000000
 11
349.9282014479943
 21
162.3987604145634
 31
0.0000000000000000
 70
32
  3
MAIN001
100
AcDbAlignedDimension
 13
486.4282014479941
 23
215.2987604151581
 33
0.0000000000000000
 14
213.4282014479945
 24
215.2987604151581
 34
0.0000000000000000
100
AcDbRotatedDimension
1001
ACAD
1000
DSTYLE
1002
{
1070
   173
1070
     1
1070
     6
1000
_OPEN
1070
     7
1000
_OPEN
1070
    41
1040
4.000000
1002
}
  0
DIMENSION
  5
F9
100
AcDbEntity
  8
MAIN0
  6
CONTINUOUS
 62
3
100
AcDbDimension
  2
*D15
 10
486.4282014479941
 20
161.8987604145634
 30
0.0000000000000000
 11
527.4282014479942
 21
162.3987604145634
 31
0.0000000000000000
 70
32
  3
MAIN001
100
AcDbAlignedDimension
 13
568.4282014479943
 23
232.8987604141989
 33
0.0000000000000000
 14
486.4282014479941
 24
215.2987604151581
 34
0.0000000000000000
100
AcDbRotatedDimension
1001
ACAD
1000
DSTYLE
1002
{
1070
   173
1070
     1
1070
     6
1000
_OPEN
1070
     7
1000
_OPEN
1070
    41
1040
4.000000
1002
}
  0
DIMENSION
  5
102
100
AcDbEntity
  8
MAIN0
  6
CONTINUOUS
 62
3
100
AcDbDimension
  2
*D16
 10
197.4282014479945
 20
214.8987604151580
 30
0.0000000000000000
 11
196.9282014479945
 21
252.3987604151580
 31
0.0000000000000000
 70
32
  3
MAIN001
100
AcDbAlignedDimension
 13
214.4282014479945
 23
289.8987604151580
 33
0.0000000000000000
 14
213.8282014479946
 24
214.8987604151580
 34
0.0000000000000000
 50
90.00000000000000
100
AcDbRotatedDimension
1001
ACAD
1000
DSTYLE
1002
{
1070
   173
1070
     1
1070
     6
1000
_OPEN
1070
     7
1000
_OPEN
1070
    41
1040
4.000000
1002
}
  0
DIMENSION
  5
10B
100
AcDbEntity
  8
MAIN0
  6
CONTINUOUS
 62
3
100
AcDbDimension
  2
*D17
 10
197.4282014479945
 20
289.8987604151580
 30
0.0000000000000000
 11
196.9282014479945
 21
309.8987604151578
 31
0.0000000000000000
 70
32
  3
MAIN001
100
AcDbAlignedDimension
 13
214.6282014479939
 23
329.8987604151575
 33
0.0000000000000000
 14
214.4282014479945
 24
289.8987604151580
 34
0.0000000000000000
 50
90.00000000000000
100
AcDbRotatedDimension
1001
ACAD
1000
DSTYLE
1002
{
1070
   173
1070
     1
1070
     6
1000
_OPEN
1070
     7
1000
_OPEN
1070
    41
1040
4.000000
1002
}
  0
LINE
  5
10C
100
AcDbEntity
  8
MAIN0
  6
CONTINUOUS
 62
3
100
AcDbLine
 10
591.9498980098647
 20
214.8987604143177
 30
0.0000000000000000
 11
590.5498980099001
 21
237.3987604143176
 31
0.0000000000000000
  0
LINE
  5
10D
100
AcDbEntity
  8
MAIN0
  6
CONTINUOUS
 62
3
100
AcDbLine
 10
624.1498980096312
 20
214.8987604142820
 30
0.0000000000000000
 11
625.5498980096457
 21
237.3987604142789
 31
0.0000000000000000
  0
LINE
  5
10E
100
AcDbEntity
  8
MAIN0
  6
CONTINUOUS
 62
3
100
AcDbLine
 10
651.5571123490566
 20
214.8987604142958
 30
0.0000000000000000
 11
650.1571123490566
 21
237.3987604142958
 31
0.0000000000000000
  0
DIMENSION
  5
117
100
AcDbEntity
  8
MAIN0
  6
CONTINUOUS
 62
3
100
AcDbDimension
  2
*D18
 10
650.1571123490566
 20
171.9084246497518
 30
0.0000000000000000
 11
680.1571123491192
 21
172.4084246497518
 31
0.0000000000000000
 70
32
  3
MAIN001
100
AcDbAlignedDimension
 13
710.1571123491818
 23
214.8987604142956
 33
0.0000000000000000
 14
650.1571123490566
 24
237.3987604142958
 34
0.0000000000000000
100
AcDbRotatedDimension
1001
ACAD
1000
DSTYLE
1002
{
1070
   173
1070
     1
1070
     6
1000
_OPEN
1070
     7
1000
_OPEN
1070
    41
1040
4.000000
1002
}
  0
DIMENSION
  5
120
100
AcDbEntity
  8
MAIN0
  6
CONTINUOUS
 62
3
100
AcDbDimension
  2
*D19
 10
710.1571123491818
 20
171.9084246497518
 30
0.0000000000000000
 11
761.6571123491819
 21
172.4084246497518
 31
0.0000000000000000
 70
32
  3
MAIN001
100
AcDbAlignedDimension
 13
813.1571123491821
 23
214.8987604142956
 33
0.0000000000000000
 14
710.1571123491818
 24
214.8987604142956
 34
0.0000000000000000
100
AcDbRotatedDimension
1001
ACAD
1000
DSTYLE
1002
{
1070
   173
1070
     1
1070
     6
1000
_OPEN
1070
     7
1000
_OPEN
1070
    41
1040
4.000000
1002
}
  0
INSERT
  5
128
100
AcDbEntity
  8
MAIN0
  6
CONTINUOUS
 62
3
100
AcDbBlockReference
  2
D20
 10
761.6571123491822
 20
204.9035528037866
 30
0.0000000000000000
 50
0.0000000000000000
  0
LEADER
  5
129
100
AcDbEntity
  8
MAIN0
  6
CONTINUOUS
 62
3
100
AcDbLeader
  3
MAIN001
 73
     0
 74
     0
 75
     1
 40
6.199999809265137
 41
34.10100097751615
 76
     3
 10
410.7397943759419
 20
278.1631957622683
 30
0.0000000000000000
 10
438.5915632557502
 20
322.7229021449928
 30
0.0000000000000000
 10
442.4425631441703
 20
322.7229021449928
 30
0.0000000000000000
340
12A
213
0.0000000000000000
223
-1.000000000000000
233
0.0000000000000000
1001
ACAD
1000
DSTYLE
1002
{
1070
   147
1040
0.0
1070
    77
1070
     1
1070
   173
1070
     1
1070
     6
1000
_OPEN
1070
     7
1000
_OPEN
1002
}
  0
MTEXT
  5
12A
102
{ACAD_REACTORS
330
129
102
}
100
AcDbEntity
  8
MAIN0
  6
CONTINUOUS
 62
3
100
AcDbMText
 10
442.4435631441703
 20
329.9229019542580
 30
0.0000000000000000
 40
6.199999809265137
 41
0.0000000000000000
 71
     1
 72
     1
  1
{\H0.92x;{2×2-M8}}
 11
1.000000000000000
 21
0.0000000000000000
 31
0.0000000000000000
  7
KNJYOKO
  0
LINE
  5
12B
100
AcDbEntity
  8
MAIN0
  6
CONTINUOUS
 62
3
100
AcDbLine
 10
213.4282014479945
 20
254.8987604140393
 30
0.0000000000000000
 11
416.4282014479940
 21
254.8987604141519
 31
0.0000000000000000
  0
LINE
  5
12C
100
AcDbEntity
  8
MAIN0
  6
CONTINUOUS
 62
3
100
AcDbLine
 10
213.4282014479945
 20
229.8987604140393
 30
0.0000000000000000
 11
486.4282014479942
 21
229.8987604141906
 31
0.0000000000000000
  0
LINE
  5
12D
100
AcDbEntity
  8
MAIN0
  6
CENTER
 62
3
100
AcDbLine
 10
303.4282014479944
 20
280.8987604151580
 30
0.0000000000000000
 11
303.4282014479944
 21
268.8987604151580
 31
0.0000000000000000
  0
CIRCLE
  5
12E
100
AcDbEntity
  8
MAIN0
  6
CONTINUOUS
 62
3
100
AcDbCircle
 10
303.4282014479944
 20
274.8987604151580
 30
0.0000000000000000
 40
4.000000000000000
  0
LINE
  5
12F
100
AcDbEntity
  8
MAIN0
  6
CENTER
 62
3
100
AcDbLine
 10
309.4282014479944
 20
274.8987604151580
 30
0.0000000000000000
 11
297.4282014479944
 21
274.8987604151580
 31
0.0000000000000000
  0
CIRCLE
  5
130
100
AcDbEntity
  8
MAIN0
  6
CONTINUOUS
 62
3
100
AcDbCircle
 10
303.4282014479944
 20
274.8987604151580
 30
0.0000000000000000
 40
3.400000000000000
  0
LINE
  5
131
100
AcDbEntity
  8
MAIN0
  6
CONTINUOUS
 62
3
100
AcDbLine
 10
241.9282014479944
 20
283.3987604151580
 30
0.0000000000000000
 11
241.9282014479944
 21
289.8987604151580
 31
0.0000000000000000
  0
LINE
  5
132
100
AcDbEntity
  8
MAIN0
  6
CONTINUOUS
 62
3
100
AcDbLine
 10
241.9282014479944
 20
283.3987604151580
 30
0.0000000000000000
 11
259.9282014479944
 21
283.3987604151580
 31
0.0000000000000000
  0
LINE
  5
133
100
AcDbEntity
  8
MAIN0
  6
CONTINUOUS
 62
3
100
AcDbLine
 10
259.9282014479944
 20
283.3987604151580
 30
0.0000000000000000
 11
259.9282014479944
 21
289.8987604151580
 31
0.0000000000000000
  0
CIRCLE
  5
134
100
AcDbEntity
  8
MAIN0
  6
CONTINUOUS
 62
3
100
AcDbCircle
 10
408.4282014479944
 20
274.8987604151580
 30
0.0000000000000000
 40
4.000000000000000
  0
CIRCLE
  5
135
100
AcDbEntity
  8
MAIN0
  6
CONTINUOUS
 62
3
100
AcDbCircle
 10
408.4282014479944
 20
274.8987604151580
 30
0.0000000000000000
 40
3.400000000000000
  0
LINE
  5
136
100
AcDbEntity
  8
MAIN0
  6
CENTER
 62
3
100
AcDbLine
 10
408.4282014479944
 20
280.8987604151580
 30
0.0000000000000000
 11
408.4282014479944
 21
268.8987604151580
 31
0.0000000000000000
  0
LINE
  5
137
100
AcDbEntity
  8
MAIN0
  6
CENTER
 62
3
100
AcDbLine
 10
414.4282014479944
 20
274.8987604151580
 30
0.0000000000000000
 11
402.4282014479944
 21
274.8987604151580
 31
0.0000000000000000
  0
LINE
  5
138
100
AcDbEntity
  8
MAIN0
  6
CONTINUOUS
 62
3
100
AcDbLine
 10
241.9282014479944
 20
283.8987604151580
 30
0.0000000000000000
 11
259.9282014479944
 21
283.8987604151580
 31
0.0000000000000000
  0
LINE
  5
139
100
AcDbEntity
  8
MAIN0
  6
CONTINUOUS
 62
3
100
AcDbLine
 10
416.4282014479941
 20
252.5987604137833
 30
0.0000000000000000
 11
516.4282014479940
 21
252.5987604139219
 31
0.0000000000000000
  0
LINE
  5
13A
100
AcDbEntity
  8
MAIN0
  6
CONTINUOUS
 62
3
100
AcDbLine
 10
516.4282014479941
 20
252.5987604139219
 30
0.0000000000000000
 11
516.4282014479941
 21
291.0987604151579
 31
0.0000000000000000
  0
LINE
  5
13B
100
AcDbEntity
  8
MAIN0
  6
CONTINUOUS
 62
3
100
AcDbLine
 10
516.4282014479941
 20
254.8987604142073
 30
0.0000000000000000
 11
524.4282014479950
 21
254.8987604142117
 31
0.0000000000000000
  0
LINE
  5
13C
100
AcDbEntity
  8
MAIN0
  6
CONTINUOUS
 62
3
100
AcDbLine
 10
537.4282014479160
 20
289.8987604140492
 30
0.0000000000000000
 11
537.4282014482235
 21
222.8987604142110
 31
0.0000000000000000
  0
LINE
  5
13D
100
AcDbEntity
  8
MAIN0
  6
CONTINUOUS
 62
3
100
AcDbLine
 10
539.4282014479014
 20
289.8987604140490
 30
0.0000000000000000
 11
539.4282014483533
 21
222.8987604142180
 31
0.0000000000000000
  0
CIRCLE
  5
13E
100
AcDbEntity
  8
MAIN0
  6
CONTINUOUS
 62
3
100
AcDbCircle
 10
250.9282014479943
 20
299.8987604151574
 30
0.0000000000000000
 40
3.400000000000000
  0
CIRCLE
  5
13F
100
AcDbEntity
  8
MAIN0
  6
CONTINUOUS
 62
3
100
AcDbCircle
 10
250.9282014479943
 20
299.8987604151574
 30
0.0000000000000000
 40
4.000000000000000
  0
CIRCLE
  5
140
100
AcDbEntity
  8
MAIN0
  6
CONTINUOUS
 62
3
100
AcDbCircle
 10
250.9282014479943
 20
319.8987604151573
 30
0.0000000000000000
 40
3.400000000000000
  0
CIRCLE
  5
141
100
AcDbEntity
  8
MAIN0
  6
CONTINUOUS
 62
3
100
AcDbCircle
 10
250.9282014479943
 20
319.8987604151573
 30
0.0000000000000000
 40
4.000000000000000
  0
LINE
  5
142
100
AcDbEntity
  8
MAIN0
  6
CENTER
 62
3
100
AcDbLine
 10
258.9282014479943
 20
299.8987604151574
 30
0.0000000000000000
 11
242.9282014479943
 21
299.8987604151574
 31
0.0000000000000000
  0
LINE
  5
143
100
AcDbEntity
  8
MAIN0
  6
CENTER
 62
3
100
AcDbLine
 10
258.9282014479943
 20
319.8987604151573
 30
0.0000000000000000
 11
242.9282014479943
 21
319.8987604151573
 31
0.0000000000000000
  0
LINE
  5
144
100
AcDbEntity
  8
MAIN0
  6
CENTER
 62
3
100
AcDbLine
 10
250.9282014479943
 20
291.8987604151574
 30
0.0000000000000000
 11
250.9282014479943
 21
327.8987604151573
 31
0.0000000000000000
  0
LINE
  5
145
100
AcDbEntity
  8
MAIN0
  6
CENTER
 62
3
100
AcDbLine
 10
251.5156013904495
 20
496.1041124071987
 30
0.0000000000000000
 11
251.5156013904495
 21
480.1041124071987
 31
0.0000000000000000
  0
CIRCLE
  5
146
100
AcDbEntity
  8
MAIN0
  6
CONTINUOUS
 62
3
100
AcDbCircle
 10
305.0156013903570
 20
488.1041124071056
 30
0.0000000000000000
 40
2.500000000000000
  0
LINE
  5
147
100
AcDbEntity
  8
MAIN0
  6
CENTER
 62
3
100
AcDbLine
 10
305.0156013903570
 20
494.6041124071056
 30
0.0000000000000000
 11
305.0156013903570
 21
481.6041124071056
 31
0.0000000000000000
  0
LINE
  5
148
100
AcDbEntity
  8
MAIN0
  6
CONTINUOUS
 62
3
100
AcDbLine
 10
417.0156013903567
 20
542.6041124069892
 30
0.0000000000000000
 11
490.4282014483352
 21
542.6041124069129
 31
0.0000000000000000
  0
LINE
  5
149
100
AcDbEntity
  8
MAIN0
  6
CONTINUOUS
 62
3
100
AcDbLine
 10
417.0156013903567
 20
433.6041124069895
 30
0.0000000000000000
 11
490.4282014483352
 21
433.6041124069133
 31
0.0000000000000000
  0
LINE
  5
14A
100
AcDbEntity
  8
MAIN0
  6
CONTINUOUS
 62
3
100
AcDbLine
 10
490.4282014479949
 20
541.1041124069047
 30
0.0000000000000000
 11
516.4282014479948
 21
541.1041124068778
 31
0.0000000000000000
  0
LINE
  5
14B
100
AcDbEntity
  8
MAIN0
  6
CONTINUOUS
 62
3
100
AcDbLine
 10
490.4282014479948
 20
435.1041124069049
 30
0.0000000000000000
 11
516.4282014479949
 21
435.1041124068779
 31
0.0000000000000000
  0
LINE
  5
14C
100
AcDbEntity
  8
MAIN0
  6
CONTINUOUS
 62
3
100
AcDbLine
 10
490.4282014483352
 20
433.6041124069133
 30
0.0000000000000000
 11
490.4282014483352
 21
542.6041124069129
 31
0.0000000000000000
  0
LINE
  5
14D
100
AcDbEntity
  8
MAIN0
  6
CONTINUOUS
 62
3
100
AcDbLine
 10
524.4282014479950
 20
436.6041124068780
 30
0.0000000000000000
 11
524.4282014479950
 21
539.6041124068780
 31
0.0000000000000000
  0
LINE
  5
14E
100
AcDbEntity
  8
MAIN0
  6
CONTINUOUS
 62
3
100
AcDbLine
 10
549.4282014473653
 20
449.7041124069238
 30
0.0000000000000000
 11
549.4282014472740
 21
526.5041124069234
 31
0.0000000000000000
  0
LINE
  5
14F
100
AcDbEntity
  8
MAIN0
  6
CONTINUOUS
 62
3
100
AcDbLine
 10
548.8282014473193
 20
449.1041124068776
 30
0.0000000000000000
 11
539.4282014473197
 21
449.1041124068776
 31
0.0000000000000000
  0
LINE
  5
150
100
AcDbEntity
  8
MAIN0
  6
CONTINUOUS
 62
3
100
AcDbLine
 10
537.4282014473513
 20
451.1041124068781
 30
0.0000000000000000
 11
539.4282014473196
 21
449.1041124068776
 31
0.0000000000000000
  0
LINE
  5
151
100
AcDbEntity
  8
MAIN0
  6
CONTINUOUS
 62
3
100
AcDbLine
 10
548.8282014473195
 20
449.1041124068771
 30
0.0000000000000000
 11
549.4282014473195
 21
449.7041124068772
 31
0.0000000000000000
  0
LINE
  5
152
100
AcDbEntity
  8
MAIN0
  6
CONTINUOUS
 62
3
100
AcDbLine
 10
548.8282014473193
 20
527.1041124068776
 30
0.0000000000000000
 11
539.4282014473197
 21
527.1041124068776
 31
0.0000000000000000
  0
LINE
  5
153
100
AcDbEntity
  8
MAIN0
  6
CONTINUOUS
 62
3
100
AcDbLine
 10
537.4282014473507
 20
525.1041124068765
 30
0.0000000000000000
 11
539.4282014473192
 21
527.1041124068772
 31
0.0000000000000000
  0
LINE
  5
154
100
AcDbEntity
  8
MAIN0
  6
CONTINUOUS
 62
3
100
AcDbLine
 10
548.8282014473193
 20
527.1041124068780
 30
0.0000000000000000
 11
549.4282014473193
 21
526.5041124068779
 31
0.0000000000000000
  0
LINE
  5
155
100
AcDbEntity
  8
MAIN0
  6
CONTINUOUS
 62
3
100
AcDbLine
 10
524.4282014480318
 20
525.1041124068777
 30
0.0000000000000000
 11
537.4282014473513
 21
525.1041124068777
 31
0.0000000000000000
  0
LINE
  5
156
100
AcDbEntity
  8
MAIN0
  6
CONTINUOUS
 62
3
100
AcDbLine
 10
524.4282014479579
 20
451.1041124068776
 30
0.0000000000000000
 11
537.4282014473517
 21
451.1041124068776
 31
0.0000000000000000
  0
LINE
  5
157
100
AcDbEntity
  8
MAIN0
  6
CONTINUOUS
 62
3
100
AcDbLine
 10
568.4282014473197
 20
513.1041124068778
 30
0.0000000000000000
 11
549.4282014473201
 21
513.1041124068778
 31
0.0000000000000000
  0
LINE
  5
158
100
AcDbEntity
  8
MAIN0
  6
CONTINUOUS
 62
3
100
AcDbLine
 10
568.4282014473198
 20
513.1041124068779
 30
0.0000000000000000
 11
568.4282014473198
 21
463.1041124068779
 31
0.0000000000000000
  0
LINE
  5
159
100
AcDbEntity
  8
MAIN0
  6
CONTINUOUS
 62
3
100
AcDbLine
 10
568.4282014473197
 20
463.1041124068777
 30
0.0000000000000000
 11
549.4282014473201
 21
463.1041124068777
 31
0.0000000000000000
  0
LINE
  5
15A
100
AcDbEntity
  8
MAIN0
  6
CONTINUOUS
 62
3
100
AcDbLine
 10
539.4282014474152
 20
449.1041124068775
 30
0.0000000000000000
 11
539.4282014473947
 21
465.8106155978426
 31
0.0000000000000000
  0
LINE
  5
15B
100
AcDbEntity
  8
MAIN0
  6
CONTINUOUS
 62
3
100
AcDbLine
 10
539.4282014473400
 20
510.3976092158820
 30
0.0000000000000000
 11
539.4282014473196
 21
527.1041124068778
 31
0.0000000000000000
  0
LINE
  5
15C
100
AcDbEntity
  8
MAIN0
  6
CONTINUOUS
 62
3
100
AcDbLine
 10
537.4282014474441
 20
451.1041124068775
 30
0.0000000000000000
 11
537.4282014474211
 21
469.5299367860224
 31
0.0000000000000000
  0
LINE
  5
15D
100
AcDbEntity
  8
MAIN0
  6
CONTINUOUS
 62
3
100
AcDbLine
 10
537.4282014473747
 20
506.6782880277063
 30
0.0000000000000000
 11
537.4282014473517
 21
525.1041124068777
 31
0.0000000000000000
  0
LINE
  5
15E
100
AcDbEntity
  8
MAIN0
  6
CONTINUOUS
 62
3
100
AcDbLine
 10
516.4282014480727
 20
435.1041124068779
 30
0.0000000000000000
 11
516.4282014480727
 21
541.1041124068778
 31
0.0000000000000000
  0
LINE
  5
15F
100
AcDbEntity
  8
MAIN0
  6
CONTINUOUS
 62
3
100
AcDbLine
 10
516.4282014480727
 20
539.6041124068863
 30
0.0000000000000000
 11
524.4282014479950
 21
539.6041124068780
 31
0.0000000000000000
  0
LINE
  5
160
100
AcDbEntity
  8
MAIN0
  6
CONTINUOUS
 62
3
100
AcDbLine
 10
516.4282014480727
 20
436.6041124068862
 30
0.0000000000000000
 11
524.4282014479950
 21
436.6041124068779
 31
0.0000000000000000
  0
LINE
  5
161
100
AcDbEntity
  8
MAIN0
  6
CONTINUOUS
 62
3
100
AcDbLine
 10
539.4282014473947
 20
465.8106155978426
 30
0.0000000000000000
 11
549.4282014473461
 21
465.8106155978172
 31
0.0000000000000000
  0
LINE
  5
162
100
AcDbEntity
  8
MAIN0
  6
CONTINUOUS
 62
3
100
AcDbLine
 10
524.4282014479950
 20
469.5299367860421
 30
0.0000000000000000
 11
537.4282014474211
 21
469.5299367860224
 31
0.0000000000000000
  0
LINE
  5
163
100
AcDbEntity
  8
MAIN0
  6
CONTINUOUS
 62
3
100
AcDbLine
 10
537.4282014474211
 20
469.5299367860225
 30
0.0000000000000000
 11
539.4282014473947
 21
465.8106155978427
 31
0.0000000000000000
  0
LINE
  5
164
100
AcDbEntity
  8
MAIN0
  6
CONTINUOUS
 62
3
100
AcDbLine
 10
539.4282014474409
 20
510.3976092158820
 30
0.0000000000000000
 11
549.4282014473922
 21
510.3976092158867
 31
0.0000000000000000
  0
LINE
  5
165
100
AcDbEntity
  8
MAIN0
  6
CONTINUOUS
 62
3
100
AcDbLine
 10
524.4282014480335
 20
506.6782880277137
 30
0.0000000000000000
 11
537.4282014474596
 21
506.6782880277063
 31
0.0000000000000000
  0
LINE
  5
166
100
AcDbEntity
  8
MAIN0
  6
CONTINUOUS
 62
3
100
AcDbLine
 10
537.4282014474596
 20
506.6782880277063
 30
0.0000000000000000
 11
539.4282014474410
 21
510.3976092158821
 31
0.0000000000000000
  0
DIMENSION
  5
16E
100
AcDbEntity
  8
MAIN0
  6
CONTINUOUS
 62
3
100
AcDbDimension
  2
*D21
 10
213.4282014479945
 20
243.8987604140393
 30
0.0000000000000000
 11
258.4282014479944
 21
244.3987604140393
 31
0.0000000000000000
 70
32
  3
MAIN001
100
AcDbAlignedDimension
 13
303.4282014479944
 23
268.8987604151580
 33
0.0000000000000000
 14
213.4282014479945
 24
288.8987604151580
 34
0.0000000000000000
100
AcDbRotatedDimension
1001
ACAD
1000
DSTYLE
1002
{
1070
   173
1070
     1
1070
     6
1000
_OPEN
1070
     7
1000
_OPEN
1070
    41
1040
4.000000
1002
}
  0
DIMENSION
  5
177
100
AcDbEntity
  8
MAIN0
  6
CONTINUOUS
 62
3
100
AcDbDimension
  2
*D22
 10
303.4282014479944
 20
243.8987604140393
 30
0.0000000000000000
 11
355.9282014479944
 21
244.3987604140393
 31
0.0000000000000000
 70
32
  3
MAIN001
100
AcDbAlignedDimension
 13
408.4282014479944
 23
268.8987604151580
 33
0.0000000000000000
 14
303.4282014479944
 24
268.8987604151580
 34
0.0000000000000000
100
AcDbRotatedDimension
1001
ACAD
1000
DSTYLE
1002
{
1070
   173
1070
     1
1070
     6
1000
_OPEN
1070
     7
1000
_OPEN
1070
    41
1040
4.000000
1002
}
  0
DIMENSION
  5
17F
100
AcDbEntity
  8
MAIN0
  6
CONTINUOUS
 62
3
100
AcDbDimension
  2
*D23
 10
408.4282014479944
 20
243.8987604140393
 30
0.0000000000000000
 11
447.4282014479942
 21
244.3987604140393
 31
0.0000000000000000
 70
32
  3
MAIN001
100
AcDbAlignedDimension
 13
486.4282014479941
 23
215.2987604151581
 33
0.0000000000000000
 14
408.4282014479944
 24
268.8987604151580
 34
0.0000000000000000
100
AcDbRotatedDimension
1001
ACAD
1000
DSTYLE
1002
{
1070
   173
1070
     1
1070
     6
1000
_OPEN
1070
     7
1000
_OPEN
1070
    41
1040
4.000000
1002
}
  0
DIMENSION
  5
188
100
AcDbEntity
  8
MAIN0
  6
CONTINUOUS
 62
3
100
AcDbDimension
  2
*D24
 10
250.9282014479943
 20
351.8987604151575
 30
0.0000000000000000
 11
269.1782014479942
 21
352.3987604151575
 31
0.0000000000000000
 70
32
  3
MAIN001
100
AcDbAlignedDimension
 13
287.4282014479941
 23
329.3987604151575
 33
0.0000000000000000
 14
250.9282014479943
 24
327.8987604151573
 34
0.0000000000000000
100
AcDbRotatedDimension
1001
ACAD
1000
DSTYLE
1002
{
1070
   173
1070
     1
1070
     6
1000
_OPEN
1070
     7
1000
_OPEN
1070
    41
1040
4.000000
1002
}
  0
DIMENSION
  5
193
100
AcDbEntity
  8
MAIN0
  6
CONTINUOUS
 62
3
100
AcDbDimension
  2
*D25
 10
213.4282014479945
 20
367.8987604151574
 30
0.0000000000000000
 11
205.7973028571344
 21
368.8987604151574
 31
0.0000000000000000
 70
160
  3
MAIN001
100
AcDbAlignedDimension
 13
214.4282014479936
 23
329.6987604151577
 33
0.0000000000000000
 14
213.4282014479945
 24
288.8987604151580
 34
0.0000000000000000
100
AcDbRotatedDimension
1001
ACAD
1000
DSTYLE
1002
{
1070
   173
1070
     1
1070
     6
1000
_OPEN
1070
     7
1000
_OPEN
1070
    41
1040
4.000000
1070
   287
1070
     0
1002
}
  0
DIMENSION
  5
19C
100
AcDbEntity
  8
MAIN0
  6
CONTINUOUS
 62
3
100
AcDbDimension
  2
*D26
 10
214.4282014479936
 20
367.8987604151574
 30
0.0000000000000000
 11
250.9282014479938
 21
368.3987604151574
 31
0.0000000000000000
 70
32
  3
MAIN001
100
AcDbAlignedDimension
 13
287.4282014479941
 23
329.3987604151575
 33
0.0000000000000000
 14
214.4282014479936
 24
329.6987604151577
 34
0.0000000000000000
100
AcDbRotatedDimension
1001
ACAD
1000
DSTYLE
1002
{
1070
   173
1070
     1
1070
     6
1000
_OPEN
1070
     7
1000
_OPEN
1070
    41
1040
4.000000
1002
}
  0
DIMENSION
  5
1A5
100
AcDbEntity
  8
MAIN0
  6
CONTINUOUS
 62
3
100
AcDbDimension
  2
*D27
 10
287.4282014479941
 20
367.8987604151574
 30
0.0000000000000000
 11
319.9282014479938
 21
368.3987604151574
 31
0.0000000000000000
 70
32
  1
\A1;MAX 128
  3
MAIN001
100
AcDbAlignedDimension
 13
352.4282014479936
 23
329.6987604151314
 33
0.0000000000000000
 14
287.4282014479941
 24
329.3987604151575
 34
0.0000000000000000
100
AcDbRotatedDimension
1001
ACAD
1000
DSTYLE
1002
{
1070
   173
1070
     1
1070
     6
1000
_OPEN
1070
     7
1000
_OPEN
1070
    41
1040
4.000000
1002
}
  0
DIMENSION
  5
1AE
100
AcDbEntity
  8
MAIN0
  6
CONTINUOUS
 62
1
100
AcDbDimension
  2
*D28
 10
352.4282014479936
 20
367.8987604151574
 30
0.0000000000000000
 11
384.4282014479938
 21
368.3987604151574
 31
0.0000000000000000
 70
32
  3
MAIN001
100
AcDbAlignedDimension
 13
416.4282014479941
 23
329.3987604151321
 33
0.0000000000000000
 14
352.4282014479936
 24
329.6987604151314
 34
0.0000000000000000
100
AcDbRotatedDimension
1001
ACAD
1000
DSTYLE
1002
{
1070
   173
1070
     1
1070
     6
1000
_OPEN
1070
     7
1000
_OPEN
1070
    41
1040
4.000000
1002
}
  0
LEADER
  5
1AF
100
AcDbEntity
  8
MAIN0
  6
CONTINUOUS
 62
3
100
AcDbLeader
  3
MAIN001
 73
     0
 75
     1
 40
6.199999809265137
 41
66.19900195503234
 76
     3
 10
249.2495858791208
 20
323.5294972235662
 30
0.0000000000000000
 10
215.0882559597826
 20
383.8987604151575
 30
0.0000000000000000
 10
211.2352560713625
 20
383.8987604151575
 30
0.0000000000000000
340
1B0
213
0.0000000000000000
223
-1.000000000000000
233
0.0000000000000000
1001
ACAD
1000
DSTYLE
1002
{
1070
   147
1040
0.0
1070
    77
1070
     1
1070
   173
1070
     1
1070
     6
1000
_OPEN
1070
     7
1000
_OPEN
1002
}
  0
MTEXT
  5
1B0
102
{ACAD_REACTORS
330
1AF
102
}
100
AcDbEntity
  8
MAIN0
  6
CONTINUOUS
 62
3
100
AcDbMText
 10
145.0362541163301
 20
391.0987602244226
 30
0.0000000000000000
 40
6.199999809265137
 41
0.0000000000000000
 71
     1
 72
     1
  1
{\H0.93x;{2×2-M8 深さ16\P       DEPTH}}
 11
1.000000000000000
 21
0.0000000000000000
 31
0.0000000000000000
  7
KNJYOKO
  0
LINE
  5
1B1
100
AcDbEntity
  8
MAIN0
  6
CENTER
 62
3
100
AcDbLine
 10
385.0156013908584
 20
496.1041124070493
 30
0.0000000000000000
 11
385.0156013908584
 21
480.1041124070493
 31
0.0000000000000000
  0
DIMENSION
  5
1BA
100
AcDbEntity
  8
MAIN0
  6
CONTINUOUS
 62
3
100
AcDbDimension
  2
*D29
 10
353.0156013903567
 20
404.9157684652744
 30
0.0000000000000000
 11
369.0156013906076
 21
405.4157684652744
 31
0.0000000000000000
 70
32
  3
MAIN001
100
AcDbAlignedDimension
 13
385.0156013908584
 23
480.1041124070493
 33
0.0000000000000000
 14
353.0156013903567
 24
438.6041124070493
 34
0.0000000000000000
100
AcDbRotatedDimension
1001
ACAD
1000
DSTYLE
1002
{
1070
   173
1070
     1
1070
     6
1000
_OPEN
1070
     7
1000
_OPEN
1070
    41
1040
4.000000
1002
}
  0
DIMENSION
  5
1C4
100
AcDbEntity
  8
MAIN0
  6
CONTINUOUS
 62
3
100
AcDbDimension
  2
*D30
 10
274.9282014479943
 20
329.8987604151575
 30
0.0000000000000000
 11
273.9282014479943
 21
340.1329677069413
 31
0.0000000000000000
 70
160
  3
MAIN001
100
AcDbAlignedDimension
 13
258.9282014479943
 23
319.8987604151573
 33
0.0000000000000000
 14
214.6282014479939
 24
329.8987604151575
 34
0.0000000000000000
 50
90.00000000000000
100
AcDbRotatedDimension
1001
ACAD
1000
DSTYLE
1002
{
1070
   173
1070
     1
1070
     6
1000
_OPEN
1070
     7
1000
_OPEN
1070
    41
1040
4.000000
1070
   287
1070
     0
1002
}
  0
DIMENSION
  5
1CD
100
AcDbEntity
  8
MAIN0
  6
CONTINUOUS
 62
3
100
AcDbDimension
  2
*D31
 10
274.9282014479943
 20
319.8987604151573
 30
0.0000000000000000
 11
274.4282014479943
 21
309.8987604151573
 31
0.0000000000000000
 70
32
  3
MAIN001
100
AcDbAlignedDimension
 13
258.9282014479943
 23
299.8987604151574
 33
0.0000000000000000
 14
258.9282014479943
 24
319.8987604151573
 34
0.0000000000000000
 50
90.00000000000000
100
AcDbRotatedDimension
1001
ACAD
1000
DSTYLE
1002
{
1070
   173
1070
     1
1070
     6
1000
_OPEN
1070
     7
1000
_OPEN
1070
    41
1040
4.000000
1002
}
  0
DIMENSION
  5
1D7
100
AcDbEntity
  8
MAIN0
  6
CONTINUOUS
 62
3
100
AcDbDimension
  2
*D32
 10
350.9282014479952
 20
209.8987604151862
 30
0.0000000000000000
 11
349.9282014479952
 21
203.0821225632575
 31
0.0000000000000000
 70
160
  3
MAIN001
100
AcDbAlignedDimension
 13
333.3282014479946
 23
214.8987604151580
 33
0.0000000000000000
 14
332.9282014479941
 24
209.8987604151862
 34
0.0000000000000000
 50
90.00000000000000
100
AcDbRotatedDimension
1001
ACAD
1000
DSTYLE
1002
{
1070
   173
1070
     1
1070
     6
1000
_OPEN
1070
     7
1000
_OPEN
1070
    41
1040
4.000000
1070
   287
1070
     0
1002
}
  0
MTEXT
  5
1D8
100
AcDbEntity
  8
MAIN0
  6
CONTINUOUS
 62
3
100
AcDbMText
 10
777.8730258031927
 20
269.8965991618242
 30
0.0000000000000000
 40
5.000000000000000
 41
0.0000000000000000
 71
     1
 72
     1
  1
{\H0.63x;{0}}
 11
0.5000000000000585
 21
-0.8660254037844049
 31
0.0000000000000000
  7
STANDARD
  0
MTEXT
  5
1D9
100
AcDbEntity
  8
MAIN0
  6
CONTINUOUS
 62
3
100
AcDbMText
 10
781.4834233206743
 20
260.2322636930055
 30
0.0000000000000000
 40
5.000000000000000
 41
0.0000000000000000
 71
     1
 72
     1
  1
{\H0.63x;{1}}
 11
-1.836970198721030e-016
 21
-1.000000000000000
 31
0.0000000000000000
  7
STANDARD
  0
MTEXT
  5
1DA
100
AcDbEntity
  8
MAIN0
  6
CONTINUOUS
 62
3
100
AcDbMText
 10
780.2755458358154
 20
250.1103041139083
 30
0.0000000000000000
 40
5.000000000000000
 41
0.0000000000000000
 71
     1
 72
     1
  1
{\H0.63x;{2}}
 11
-0.4999999999999527
 21
-0.8660254037844659
 31
0.0000000000000000
  7
STANDARD
  0
MTEXT
  5
1DB
100
AcDbEntity
  8
MAIN0
  6
CONTINUOUS
 62
3
100
AcDbMText
 10
773.7639837741983
 20
241.8826625493142
 30
0.0000000000000000
 40
5.000000000000000
 41
0.0000000000000000
 71
     1
 72
     1
  1
{\H0.63x;{3}}
 11
-0.8660254037845803
 21
-0.4999999999997548
 31
0.0000000000000000
  7
STANDARD
  0
LINE
  5
1DC
100
AcDbEntity
  8
MAIN0
  6
CONTINUOUS
 62
3
100
AcDbLine
 10
725.3253081000124
 20
221.3987604142956
 30
0.0000000000000000
 11
797.9889165983522
 21
221.3987604142956
 31
0.0000000000000000
  0
LINE
  5
1DD
100
AcDbEntity
  8
MAIN0
  6
CONTINUOUS
 62
3
100
AcDbLine
 10
711.1571123491818
 20
289.8987604142956
 30
0.0000000000000000
 11
812.4571123491822
 21
289.8987604142956
 31
0.0000000000000000
  0
LINE
  5
1DE
100
AcDbEntity
  8
MAIN0
  6
CONTINUOUS
 62
3
100
AcDbLine
 10
711.6571123491818
 20
329.8987604142956
 30
0.0000000000000000
 11
811.6571123491821
 21
329.8987604142956
 31
0.0000000000000000
  0
LINE
  5
1DF
100
AcDbEntity
  8
MAIN0
  6
CONTINUOUS
 62
3
100
AcDbLine
 10
808.1571123491821
 20
254.8987604142956
 30
0.0000000000000000
 11
808.1571123491821
 21
229.8987604142956
 31
0.0000000000000000
  0
LINE
  5
1E0
100
AcDbEntity
  8
MAIN0
  6
CONTINUOUS
 62
3
100
AcDbLine
 10
715.1571123491818
 20
254.8987604142956
 30
0.0000000000000000
 11
715.1571123491818
 21
229.8987604142956
 31
0.0000000000000000
  0
LINE
  5
1E1
100
AcDbEntity
  8
MAIN0
  6
CONTINUOUS
 62
3
100
AcDbLine
 10
813.1571123491821
 20
229.8987604142956
 30
0.0000000000000000
 11
813.1571123491821
 21
214.8987604142956
 31
0.0000000000000000
  0
LINE
  5
1E2
100
AcDbEntity
  8
MAIN0
  6
CONTINUOUS
 62
3
100
AcDbLine
 10
813.1571123491821
 20
273.0978675808840
 30
0.0000000000000000
 11
813.1571123491821
 21
254.8987604142956
 31
0.0000000000000000
  0
LINE
  5
1E3
100
AcDbEntity
  8
MAIN0
  6
CONTINUOUS
 62
3
100
AcDbLine
 10
710.1571123491818
 20
229.8987604142956
 30
0.0000000000000000
 11
710.1571123491818
 21
214.8987604142956
 31
0.0000000000000000
  0
LINE
  5
1E4
100
AcDbEntity
  8
MAIN0
  6
CONTINUOUS
 62
3
100
AcDbLine
 10
710.1571123491818
 20
273.0978675808863
 30
0.0000000000000000
 11
710.1571123491818
 21
254.8987604142956
 31
0.0000000000000000
  0
LINE
  5
1E5
100
AcDbEntity
  8
MAIN0
  6
CONTINUOUS
 62
3
100
AcDbLine
 10
710.1571123491818
 20
254.8987604142956
 30
0.0000000000000000
 11
715.1571123491818
 21
254.8987604142956
 31
0.0000000000000000
  0
LINE
  5
1E6
100
AcDbEntity
  8
MAIN0
  6
CONTINUOUS
 62
3
100
AcDbLine
 10
808.1571123491821
 20
254.8987604142956
 30
0.0000000000000000
 11
813.1571123491821
 21
254.8987604142956
 31
0.0000000000000000
  0
LINE
  5
1E7
100
AcDbEntity
  8
MAIN0
  6
CONTINUOUS
 62
3
100
AcDbLine
 10
715.1571123491818
 20
229.8987604142956
 30
0.0000000000000000
 11
709.1571123491817
 21
229.8987604142956
 31
0.0000000000000000
  0
LINE
  5
1E8
100
AcDbEntity
  8
MAIN0
  6
CONTINUOUS
 62
3
100
AcDbLine
 10
813.1571123491816
 20
229.8987604142955
 30
0.0000000000000000
 11
808.1571123491818
 21
229.8987604142955
 31
0.0000000000000000
  0
LINE
  5
1E9
100
AcDbEntity
  8
MAIN0
  6
CONTINUOUS
 62
3
100
AcDbLine
 10
792.6571123491821
 20
209.8987604142956
 30
0.0000000000000000
 11
792.6571123491821
 21
214.8987604142956
 31
0.0000000000000000
  0
LINE
  5
1EA
100
AcDbEntity
  8
MAIN0
  6
CONTINUOUS
 62
3
100
AcDbLine
 10
730.6571123491825
 20
209.8987604142956
 30
0.0000000000000000
 11
730.6571123491825
 21
214.8987604142956
 31
0.0000000000000000
  0
LINE
  5
1EB
100
AcDbEntity
  8
MAIN0
  6
CONTINUOUS
 62
3
100
AcDbLine
 10
710.6571123491823
 20
209.8987604142956
 30
0.0000000000000000
 11
730.6571123491825
 21
209.8987604142956
 31
0.0000000000000000
  0
LINE
  5
1EC
100
AcDbEntity
  8
MAIN0
  6
CONTINUOUS
 62
3
100
AcDbLine
 10
792.6571123491822
 20
209.8987604142954
 30
0.0000000000000000
 11
812.6571123491822
 21
209.8987604142955
 31
0.0000000000000000
  0
LINE
  5
1ED
100
AcDbEntity
  8
MAIN0
  6
CONTINUOUS
 62
3
100
AcDbLine
 10
812.6571123491821
 20
209.8987604142956
 30
0.0000000000000000
 11
812.6571123491821
 21
214.8987604142956
 31
0.0000000000000000
  0
LINE
  5
1EE
100
AcDbEntity
  8
MAIN0
  6
CONTINUOUS
 62
3
100
AcDbLine
 10
710.6571123491823
 20
214.8987604142956
 30
0.0000000000000000
 11
710.6571123491823
 21
209.8987604142956
 31
0.0000000000000000
  0
LINE
  5
1EF
100
AcDbEntity
  8
MAIN0
  6
CONTINUOUS
 62
3
100
AcDbLine
 10
711.6571123491818
 20
329.8987604142956
 30
0.0000000000000000
 11
711.6571123491818
 21
301.0987604142957
 31
0.0000000000000000
  0
LINE
  5
1F0
100
AcDbEntity
  8
MAIN0
  6
CONTINUOUS
 62
3
100
AcDbLine
 10
811.6571123491821
 20
329.8987604142956
 30
0.0000000000000000
 11
811.6571123491821
 21
301.0987604142957
 31
0.0000000000000000
  0
CIRCLE
  5
1F1
100
AcDbEntity
  8
MAIN0
  6
CONTINUOUS
 62
3
100
AcDbCircle
 10
761.6571123491821
 20
257.8987604142956
 30
0.0000000000000000
 40
21.00000000000000
  0
LINE
  5
1F2
100
AcDbEntity
  8
MAIN0
  6
CONTINUOUS
 62
3
100
AcDbLine
 10
768.6571123491821
 20
253.8573085299684
 30
0.0000000000000000
 11
768.6571123491821
 21
261.9402122986237
 31
0.0000000000000000
  0
LINE
  5
1F3
100
AcDbEntity
  8
MAIN0
  6
CONTINUOUS
 62
3
100
AcDbLine
 10
754.6571123491821
 20
253.8573085299679
 30
0.0000000000000000
 11
754.6571123491821
 21
261.9402122986223
 31
0.0000000000000000
  0
LINE
  5
1F4
100
AcDbEntity
  8
MAIN0
  6
CONTINUOUS
 62
3
100
AcDbLine
 10
754.6571123491819
 20
261.9402122986226
 30
0.0000000000000000
 11
761.6571123491818
 21
265.9816641829506
 31
0.0000000000000000
  0
LINE
  5
1F5
100
AcDbEntity
  8
MAIN0
  6
CONTINUOUS
 62
3
100
AcDbLine
 10
761.6571123491819
 20
249.8158566456403
 30
0.0000000000000000
 11
768.6571123491818
 21
253.8573085299682
 31
0.0000000000000000
  0
LINE
  5
1F6
100
AcDbEntity
  8
MAIN0
  6
CONTINUOUS
 62
3
100
AcDbLine
 10
761.6571123491815
 20
265.9816641829509
 30
0.0000000000000000
 11
768.6571123491815
 21
261.9402122986240
 31
0.0000000000000000
  0
LINE
  5
1F7
100
AcDbEntity
  8
MAIN0
  6
CONTINUOUS
 62
3
100
AcDbLine
 10
754.6571123491818
 20
253.8573085299681
 30
0.0000000000000000
 11
761.6571123491818
 21
249.8158566456409
 31
0.0000000000000000
  0
CIRCLE
  5
1F8
100
AcDbEntity
  8
MAIN0
  6
CONTINUOUS
 62
3
100
AcDbCircle
 10
794.6571123491821
 20
257.8987604142956
 30
0.0000000000000000
 40
4.250000000000000
  0
CIRCLE
  5
1F9
100
AcDbEntity
  8
MAIN0
  6
CONTINUOUS
 62
3
100
AcDbCircle
 10
728.6571123491821
 20
257.8987604142956
 30
0.0000000000000000
 40
4.250000000000000
  0
LINE
  5
1FA
100
AcDbEntity
  8
MAIN0
  6
CONTINUOUS
 62
3
100
AcDbLine
 10
792.3477112724252
 20
257.8987604142949
 30
0.0000000000000000
 11
793.5024118108008
 21
259.8987604142949
 31
0.0000000000000000
  0
LINE
  5
1FB
100
AcDbEntity
  8
MAIN0
  6
CONTINUOUS
 62
3
100
AcDbLine
 10
795.8118128875626
 20
255.8987604142960
 30
0.0000000000000000
 11
796.9665134259383
 21
257.8987604142961
 31
0.0000000000000000
  0
LINE
  5
1FC
100
AcDbEntity
  8
MAIN0
  6
CONTINUOUS
 62
3
100
AcDbLine
 10
795.8118128875569
 20
259.8987604142956
 30
0.0000000000000000
 11
796.9665134259382
 21
257.8987604142956
 31
0.0000000000000000
  0
LINE
  5
1FD
100
AcDbEntity
  8
MAIN0
  6
CONTINUOUS
 62
3
100
AcDbLine
 10
793.5024118108056
 20
255.8987604142957
 30
0.0000000000000000
 11
792.3477112724248
 21
257.8987604142955
 31
0.0000000000000000
  0
LINE
  5
1FE
100
AcDbEntity
  8
MAIN0
  6
CONTINUOUS
 62
3
100
AcDbLine
 10
726.3477112724252
 20
257.8987604142951
 30
0.0000000000000000
 11
727.5024118108009
 21
259.8987604142951
 31
0.0000000000000000
  0
LINE
  5
1FF
100
AcDbEntity
  8
MAIN0
  6
CONTINUOUS
 62
3
100
AcDbLine
 10
729.8118128875630
 20
255.8987604142950
 30
0.0000000000000000
 11
730.9665134259385
 21
257.8987604142949
 31
0.0000000000000000
  0
LINE
  5
200
100
AcDbEntity
  8
MAIN0
  6
CONTINUOUS
 62
3
100
AcDbLine
 10
729.8118128875574
 20
259.8987604142955
 30
0.0000000000000000
 11
730.9665134259383
 21
257.8987604142956
 31
0.0000000000000000
  0
LINE
  5
201
100
AcDbEntity
  8
MAIN0
  6
CONTINUOUS
 62
3
100
AcDbLine
 10
726.3477112724252
 20
257.8987604142953
 30
0.0000000000000000
 11
727.5024118108061
 21
255.8987604142954
 31
0.0000000000000000
  0
LINE
  5
202
100
AcDbEntity
  8
MAIN0
  6
CONTINUOUS
 62
3
100
AcDbLine
 10
727.5024118108007
 20
259.8987604142956
 30
0.0000000000000000
 11
729.8118128875575
 21
259.8987604142956
 31
0.0000000000000000
  0
LINE
  5
203
100
AcDbEntity
  8
MAIN0
  6
CONTINUOUS
 62
3
100
AcDbLine
 10
793.5024118108007
 20
259.8987604142956
 30
0.0000000000000000
 11
795.8118128875570
 21
259.8987604142956
 31
0.0000000000000000
  0
LINE
  5
204
100
AcDbEntity
  8
MAIN0
  6
CONTINUOUS
 62
3
100
AcDbLine
 10
727.5024118108062
 20
255.8987604142956
 30
0.0000000000000000
 11
729.8118128875630
 21
255.8987604142956
 31
0.0000000000000000
  0
LINE
  5
205
100
AcDbEntity
  8
MAIN0
  6
CONTINUOUS
 62
3
100
AcDbLine
 10
793.5024118108057
 20
255.8987604142956
 30
0.0000000000000000
 11
795.8118128875625
 21
255.8987604142956
 31
0.0000000000000000
  0
LINE
  5
206
100
AcDbEntity
  8
MAIN0
  6
CONTINUOUS
 62
3
100
AcDbLine
 10
764.6571123491821
 20
271.5735547454731
 30
0.0000000000000000
 11
764.6571123491821
 21
278.6833701051222
 31
0.0000000000000000
  0
LINE
  5
207
100
AcDbEntity
  8
MAIN0
  6
CONTINUOUS
 62
3
100
AcDbLine
 10
758.6571123491821
 20
271.5735547454731
 30
0.0000000000000000
 11
758.6571123491821
 21
278.6833701051222
 31
0.0000000000000000
  0
LINE
  5
208
100
AcDbEntity
  8
MAIN0
  6
CONTINUOUS
 62
3
100
AcDbLine
 10
763.3571123491819
 20
233.2072132776741
 30
0.0000000000000000
 11
763.3571123491819
 21
236.9676830411643
 31
0.0000000000000000
  0
LINE
  5
209
100
AcDbEntity
  8
MAIN0
  6
CONTINUOUS
 62
3
100
AcDbLine
 10
759.9571123491818
 20
233.2072132776741
 30
0.0000000000000000
 11
759.9571123491818
 21
236.9676830411643
 31
0.0000000000000000
  0
LINE
  5
20A
100
AcDbEntity
  8
MAIN0
  6
CENTER
 62
3
100
AcDbLine
 10
808.6968129110204
 20
257.8987604142956
 30
0.0000000000000000
 11
714.9015057559537
 21
257.8987604142956
 31
0.0000000000000000
  0
LINE
  5
20B
100
AcDbEntity
  8
MAIN0
  6
CENTER
 62
3
100
AcDbLine
 10
761.6571123491824
 20
335.8981517590110
 30
0.0000000000000000
 11
761.6571123491822
 21
204.9035528037866
 31
0.0000000000000000
  0
LINE
  5
20C
100
AcDbEntity
  8
MAIN0
  6
CONTINUOUS
 62
3
100
AcDbLine
 10
650.1571123491819
 20
237.3987604142957
 30
0.0000000000000000
 11
715.1571123491822
 21
237.3987604142958
 31
0.0000000000000000
  0
LINE
  5
20D
100
AcDbEntity
  8
MAIN0
  6
CONTINUOUS
 62
3
100
AcDbLine
 10
669.1571123491819
 20
221.8987604142955
 30
0.0000000000000000
 11
709.1571123491818
 21
221.8987604142955
 31
0.0000000000000000
  0
LINE
  5
20E
100
AcDbEntity
  8
MAIN0
  6
CONTINUOUS
 62
3
100
AcDbLine
 10
665.1571123491821
 20
217.8987604142956
 30
0.0000000000000000
 11
665.1571123491821
 21
214.8987604142956
 31
0.0000000000000000
  0
ARC
  5
20F
100
AcDbEntity
  8
MAIN0
  6
CONTINUOUS
 62
3
100
AcDbCircle
 10
669.1571123491818
 20
217.8987604142956
 30
0.0000000000000000
 40
4.000000000000000
100
AcDbArc
 50
89.99999999942553
 51
179.9999999999964
  0
LINE
  5
210
100
AcDbEntity
  8
MAIN0
  6
CONTINUOUS
 62
3
100
AcDbLine
 10
651.5571123490566
 20
214.8987604142956
 30
0.0000000000000000
 11
665.1571123491821
 21
214.8987604142956
 31
0.0000000000000000
  0
LINE
  5
211
100
AcDbEntity
  8
MAIN0
  6
CENTER
 62
3
100
AcDbLine
 10
690.1571123491821
 20
124.8813237317705
 30
0.0000000000000000
 11
690.1571123491818
 21
259.2916184435150
 31
0.0000000000000000
  0
LINE
  5
212
100
AcDbEntity
  8
MAIN0
  6
CONTINUOUS
 62
3
100
AcDbLine
 10
678.1571123491819
 20
242.3987604142958
 30
0.0000000000000000
 11
702.1571123491822
 21
242.3987604142959
 31
0.0000000000000000
  0
LINE
  5
213
100
AcDbEntity
  8
MAIN0
  6
CONTINUOUS
 62
3
100
AcDbLine
 10
702.1571123491823
 20
242.3987604142956
 30
0.0000000000000000
 11
702.1571123491823
 21
237.3987604142956
 31
0.0000000000000000
  0
LINE
  5
214
100
AcDbEntity
  8
MAIN0
  6
CONTINUOUS
 62
3
100
AcDbLine
 10
678.1571123491818
 20
242.3987604142956
 30
0.0000000000000000
 11
678.1571123491818
 21
237.3987604142956
 31
0.0000000000000000
  0
CIRCLE
  5
215
100
AcDbEntity
  8
MAIN0
  6
CONTINUOUS
 62
3
100
AcDbCircle
 10
761.6571123491821
 20
257.8987604142956
 30
0.0000000000000000
 40
24.75000000000000
  0
LINE
  5
216
100
AcDbEntity
  8
MAIN0
  6
CONTINUOUS
 62
3
100
AcDbLine
 10
778.8617628832675
 20
222.8987604142956
 30
0.0000000000000000
 11
744.4524618150971
 21
222.8987604142956
 31
0.0000000000000000
  0
ARC
  5
217
100
AcDbEntity
  8
MAIN0
  6
CONTINUOUS
 62
3
100
AcDbCircle
 10
761.6571123491821
 20
257.8987604142956
 30
0.0000000000000000
 40
39.00000000000000
100
AcDbArc
 50
124.8638379543035
 51
243.8230478283336
  0
ARC
  5
218
100
AcDbEntity
  8
MAIN0
  6
CONTINUOUS
 62
3
100
AcDbCircle
 10
761.6571123491821
 20
257.8987604142956
 30
0.0000000000000000
 40
39.00000000000000
100
AcDbArc
 50
296.1769521716665
 51
415.1361620456966
  0
CIRCLE
  5
219
100
AcDbEntity
  8
MAIN0
  6
CONTINUOUS
 62
3
100
AcDbCircle
 10
761.6571123491821
 20
257.8987604142956
 30
0.0000000000000000
 40
14.00000000000000
  0
LINE
  5
21A
100
AcDbEntity
  8
MAIN0
  6
CONTINUOUS
 62
3
100
AcDbLine
 10
714.1571123491823
 20
253.7987604142957
 30
0.0000000000000000
 11
714.1571123491823
 21
252.5987604142954
 31
0.0000000000000000
  0
LINE
  5
21B
100
AcDbEntity
  8
MAIN0
  6
CONTINUOUS
 62
3
100
AcDbLine
 10
710.4571123491825
 20
253.7987604142952
 30
0.0000000000000000
 11
714.1571123491827
 21
253.7987604142952
 31
0.0000000000000000
  0
LINE
  5
21C
100
AcDbEntity
  8
MAIN0
  6
CONTINUOUS
 62
3
100
AcDbLine
 10
809.1571123491823
 20
253.7987604142960
 30
0.0000000000000000
 11
812.8571123491821
 21
253.7987604142960
 31
0.0000000000000000
  0
LINE
  5
21D
100
AcDbEntity
  8
MAIN0
  6
CONTINUOUS
 62
3
100
AcDbLine
 10
709.6571123491823
 20
252.5987604142954
 30
0.0000000000000000
 11
714.1571123491823
 21
252.5987604142954
 31
0.0000000000000000
  0
LINE
  5
21E
100
AcDbEntity
  8
MAIN0
  6
CONTINUOUS
 62
3
100
AcDbLine
 10
809.1571123491825
 20
252.5987604142954
 30
0.0000000000000000
 11
813.6571123491825
 21
252.5987604142954
 31
0.0000000000000000
  0
LINE
  5
21F
100
AcDbEntity
  8
MAIN0
  6
CONTINUOUS
 62
3
100
AcDbLine
 10
709.8571123491821
 20
289.8987604142956
 30
0.0000000000000000
 11
813.4571123491822
 21
289.8987604142956
 31
0.0000000000000000
  0
ARC
  5
220
100
AcDbEntity
  8
MAIN0
  6
CONTINUOUS
 62
3
100
AcDbCircle
 10
813.6571123491825
 20
290.0987604142954
 30
0.0000000000000000
 40
1.000000000000000
100
AcDbArc
 50
0.0000000000000000
 51
89.99999999942553
  0
ARC
  5
221
100
AcDbEntity
  8
MAIN0
  6
CONTINUOUS
 62
3
100
AcDbCircle
 10
709.6571123491823
 20
290.0987604142954
 30
0.0000000000000000
 40
1.000000000000000
100
AcDbArc
 50
89.99999999942553
 51
179.9999999999964
  0
LINE
  5
222
100
AcDbEntity
  8
MAIN0
  6
CONTINUOUS
 62
3
100
AcDbLine
 10
814.6571123491825
 20
290.0987604142954
 30
0.0000000000000000
 11
814.6571123491825
 21
253.5987604142954
 31
0.0000000000000000
  0
LINE
  5
223
100
AcDbEntity
  8
MAIN0
  6
CONTINUOUS
 62
3
100
AcDbLine
 10
813.4571123491822
 20
289.8987604142956
 30
0.0000000000000000
 11
813.4571123491822
 21
254.3987604142956
 31
0.0000000000000000
  0
LINE
  5
224
100
AcDbEntity
  8
MAIN0
  6
CONTINUOUS
 62
3
100
AcDbLine
 10
709.8571123491821
 20
289.8987604142956
 30
0.0000000000000000
 11
709.8571123491821
 21
254.3987604142956
 31
0.0000000000000000
  0
LINE
  5
225
100
AcDbEntity
  8
MAIN0
  6
CONTINUOUS
 62
3
100
AcDbLine
 10
708.6571123491823
 20
290.0987604142954
 30
0.0000000000000000
 11
708.6571123491823
 21
253.5987604142954
 31
0.0000000000000000
  0
LINE
  5
226
100
AcDbEntity
  8
MAIN0
  6
CONTINUOUS
 62
3
100
AcDbLine
 10
803.4571123491818
 20
289.8987604142957
 30
0.0000000000000000
 11
813.4571123491819
 21
272.5782523386130
 31
0.0000000000000000
  0
LINE
  5
227
100
AcDbEntity
  8
MAIN0
  6
CONTINUOUS
 62
3
100
AcDbLine
 10
709.8571123491823
 20
272.5782523386164
 30
0.0000000000000000
 11
719.8571123491823
 21
289.8987604142955
 31
0.0000000000000000
  0
ARC
  5
228
100
AcDbEntity
  8
MAIN0
  6
CONTINUOUS
 62
3
100
AcDbCircle
 10
812.8571123491823
 20
254.3987604142956
 30
0.0000000000000000
 40
0.6000000000000000
100
AcDbArc
 50
270.0000000005678
 51
359.9999999999934
  0
ARC
  5
229
100
AcDbEntity
  8
MAIN0
  6
CONTINUOUS
 62
3
100
AcDbCircle
 10
710.4571123491820
 20
254.3987604142956
 30
0.0000000000000000
 40
0.6000000000000000
100
AcDbArc
 50
179.9999999999964
 51
270.0000000005678
  0
ARC
  5
22A
100
AcDbEntity
  8
MAIN0
  6
CONTINUOUS
 62
3
100
AcDbCircle
 10
709.6571123491823
 20
253.5987604142954
 30
0.0000000000000000
 40
1.000000000000000
100
AcDbArc
 50
179.9999999999964
 51
270.0000000005678
  0
ARC
  5
22B
100
AcDbEntity
  8
MAIN0
  6
CONTINUOUS
 62
3
100
AcDbCircle
 10
813.6571123491825
 20
253.5987604142954
 30
0.0000000000000000
 40
1.000000000000000
100
AcDbArc
 50
270.0000000005678
 51
359.9999999999934
  0
LINE
  5
22C
100
AcDbEntity
  8
MAIN0
  6
CONTINUOUS
 62
3
100
AcDbLine
 10
809.1571123491823
 20
253.7987604142955
 30
0.0000000000000000
 11
809.1571123491823
 21
252.5987604142957
 31
0.0000000000000000
  0
LINE
  5
22D
100
AcDbEntity
  8
MAIN0
  6
CENTER
 62
3
100
AcDbLine
 10
794.6571123494290
 20
264.5466062797578
 30
0.0000000000000000
 11
794.6571123494044
 21
250.1170769748356
 31
0.0000000000000000
  0
LINE
  5
22E
100
AcDbEntity
  8
MAIN0
  6
CENTER
 62
3
100
AcDbLine
 10
728.6571123494057
 20
264.5466062798607
 30
0.0000000000000000
 11
728.6571123493835
 21
250.1170769749385
 31
0.0000000000000000
  0
LINE
  5
22F
100
AcDbEntity
  8
MAIN0
  6
CONTINUOUS
 62
3
100
AcDbLine
 10
699.1571123491822
 20
242.3987604142949
 30
0.0000000000000000
 11
699.1571123491832
 21
253.1987604142946
 31
0.0000000000000000
  0
LINE
  5
230
100
AcDbEntity
  8
MAIN0
  6
CONTINUOUS
 62
3
100
AcDbLine
 10
699.1571123491831
 20
253.1987604142945
 30
0.0000000000000000
 11
697.0786513801005
 21
254.3987604142947
 31
0.0000000000000000
  0
LINE
  5
231
100
AcDbEntity
  8
MAIN0
  6
CONTINUOUS
 62
3
100
AcDbLine
 10
697.0786513801003
 20
254.3987604142948
 30
0.0000000000000000
 11
683.2355733182657
 21
254.3987604142961
 31
0.0000000000000000
  0
LINE
  5
232
100
AcDbEntity
  8
MAIN0
  6
CONTINUOUS
 62
3
100
AcDbLine
 10
683.2355733182660
 20
254.3987604142964
 30
0.0000000000000000
 11
681.1571123491829
 21
253.1987604142965
 31
0.0000000000000000
  0
LINE
  5
233
100
AcDbEntity
  8
MAIN0
  6
CONTINUOUS
 62
3
100
AcDbLine
 10
681.1571123491832
 20
253.1987604142963
 30
0.0000000000000000
 11
681.1571123491822
 21
242.3987604142966
 31
0.0000000000000000
  0
LINE
  5
234
100
AcDbEntity
  8
MAIN0
  6
CONTINUOUS
 62
3
100
AcDbLine
 10
699.1571123491832
 20
253.1987604142946
 30
0.0000000000000000
 11
681.1571123491832
 21
253.1987604142963
 31
0.0000000000000000
  0
LINE
  5
235
100
AcDbEntity
  8
MAIN0
  6
CONTINUOUS
 62
3
100
AcDbLine
 10
696.1571123491802
 20
221.8987604142953
 30
0.0000000000000000
 11
696.1571123491791
 21
210.2428502234088
 31
0.0000000000000000
  0
LINE
  5
236
100
AcDbEntity
  8
MAIN0
  6
CONTINUOUS
 62
3
100
AcDbLine
 10
684.1571123491791
 20
210.2428502234090
 30
0.0000000000000000
 11
684.1571123491802
 21
221.8987604142955
 31
0.0000000000000000
  0
LINE
  5
237
100
AcDbEntity
  8
MAIN0
  6
CONTINUOUS
 62
3
100
AcDbLine
 10
695.2098968491799
 20
221.8987604142954
 30
0.0000000000000000
 11
695.2098968491788
 21
210.2428502234093
 31
0.0000000000000000
  0
LINE
  5
238
100
AcDbEntity
  8
MAIN0
  6
CONTINUOUS
 62
3
100
AcDbLine
 10
685.1043278491803
 20
221.8987604142954
 30
0.0000000000000000
 11
685.1043278491792
 21
210.2428502234089
 31
0.0000000000000000
  0
ARC
  5
239
100
AcDbEntity
  8
MAIN0
  6
CONTINUOUS
 62
3
100
AcDbCircle
 10
708.1571123491823
 20
300.0987604142957
 30
0.0000000000000000
 40
1.000000000000000
100
AcDbArc
 50
89.99999999999919
 51
179.9999999999964
  0
LINE
  5
23A
100
AcDbEntity
  8
MAIN0
  6
CONTINUOUS
 62
3
100
AcDbLine
 10
708.1571123491823
 20
301.0987604142957
 30
0.0000000000000000
 11
815.1571123491825
 21
301.0987604142957
 31
0.0000000000000000
  0
ARC
  5
23B
100
AcDbEntity
  8
MAIN0
  6
CONTINUOUS
 62
3
100
AcDbCircle
 10
815.1571123491825
 20
300.0987604142957
 30
0.0000000000000000
 40
1.000000000000000
100
AcDbArc
 50
0.0000000000000000
 51
89.99999999999959
  0
LINE
  5
23C
100
AcDbEntity
  8
MAIN0
  6
CONTINUOUS
 62
3
100
AcDbLine
 10
707.1571123491823
 20
252.5987604142954
 30
0.0000000000000000
 11
708.3571123491821
 21
252.5987604142954
 31
0.0000000000000000
  0
LINE
  5
23D
100
AcDbEntity
  8
MAIN0
  6
CONTINUOUS
 62
3
100
AcDbLine
 10
814.9571123491822
 20
252.5987604142954
 30
0.0000000000000000
 11
816.1571123491825
 21
252.5987604142954
 31
0.0000000000000000
  0
LINE
  5
23E
100
AcDbEntity
  8
MAIN0
  6
CONTINUOUS
 62
3
100
AcDbLine
 10
816.1571123491825
 20
300.0987604142957
 30
0.0000000000000000
 11
816.1571123491825
 21
252.5987604142954
 31
0.0000000000000000
  0
LINE
  5
23F
100
AcDbEntity
  8
MAIN0
  6
CONTINUOUS
 62
3
100
AcDbLine
 10
707.1571123491823
 20
300.0987604142957
 30
0.0000000000000000
 11
707.1571123491823
 21
252.5987604142954
 31
0.0000000000000000
  0
LINE
  5
240
100
AcDbEntity
  8
MAIN0
  6
CONTINUOUS
 62
3
100
AcDbLine
 10
814.9571123491822
 20
291.0987604142957
 30
0.0000000000000000
 11
814.9571123491822
 21
252.5987604142954
 31
0.0000000000000000
  0
LINE
  5
241
100
AcDbEntity
  8
MAIN0
  6
CONTINUOUS
 62
3
100
AcDbLine
 10
708.3571123491821
 20
291.0987604142957
 30
0.0000000000000000
 11
708.3571123491821
 21
252.5987604142954
 31
0.0000000000000000
  0
LINE
  5
242
100
AcDbEntity
  8
MAIN0
  6
CONTINUOUS
 62
3
100
AcDbLine
 10
708.3571123491821
 20
291.0987604142957
 30
0.0000000000000000
 11
814.9571123491822
 21
291.0987604142957
 31
0.0000000000000000
  0
LINE
  5
243
100
AcDbEntity
  8
MAIN0
  6
CONTINUOUS
 62
3
100
AcDbLine
 10
738.6625477740485
 20
289.8987604142956
 30
0.0000000000000000
 11
784.6516769243161
 21
289.8987604142956
 31
0.0000000000000000
  0
LINE
  5
244
100
AcDbEntity
  8
MAIN0
  6
CENTER
 62
3
100
AcDbLine
 10
719.2218675637449
 20
233.3987604142957
 30
0.0000000000000000
 11
738.2744264470026
 21
244.3987604142956
 31
0.0000000000000000
  0
ARC
  5
245
100
AcDbEntity
  8
MAIN0
  6
CENTER
 62
3
100
AcDbCircle
 10
761.6571123491821
 20
257.8987604142956
 30
0.0000000000000000
 40
37.99999999999996
100
AcDbArc
 50
193.3993994053433
 51
226.6006005946568
  0
LINE
  5
246
100
AcDbEntity
  8
MAIN0
  6
CONTINUOUS
 62
3
100
AcDbLine
 10
725.7481470053734
 20
240.6308112218647
 30
0.0000000000000000
 11
725.7481470053734
 21
237.1667096067270
 31
0.0000000000000000
  0
LINE
  5
247
100
AcDbEntity
  8
MAIN0
  6
CONTINUOUS
 62
3
100
AcDbLine
 10
725.7481470053738
 20
237.1667096067270
 30
0.0000000000000000
 11
728.7481470053737
 21
235.4346587991582
 31
0.0000000000000000
  0
LINE
  5
248
100
AcDbEntity
  8
MAIN0
  6
CONTINUOUS
 62
3
100
AcDbLine
 10
725.7481470053730
 20
240.6308112218647
 30
0.0000000000000000
 11
726.4821958682164
 21
241.0546145304257
 31
0.0000000000000000
  0
LINE
  5
249
100
AcDbEntity
  8
MAIN0
  6
CONTINUOUS
 62
3
100
AcDbLine
 10
728.7481470053730
 20
235.4346587991579
 30
0.0000000000000000
 11
729.4821958682164
 21
235.8584621077188
 31
0.0000000000000000
  0
ARC
  5
24A
100
AcDbEntity
  8
MAIN0
  6
CONTINUOUS
 62
3
100
AcDbCircle
 10
728.7481470053734
 20
238.8987604142958
 30
0.0000000000000000
 40
6.500000000000000
100
AcDbArc
 50
124.0337531141074
 51
295.9662468858919
  0
ARC
  5
24B
100
AcDbEntity
  8
MAIN0
  6
CONTINUOUS
 62
3
100
AcDbCircle
 10
728.7481470053734
 20
238.8987604142956
 30
0.0000000000000000
 40
7.000000000000000
100
AcDbArc
 50
123.0169613098168
 51
296.9830386901834
  0
LINE
  5
24C
100
AcDbEntity
  8
MAIN0
  6
CENTER
 62
3
100
AcDbLine
 10
719.2218675637453
 20
282.3987604142942
 30
0.0000000000000000
 11
738.2744264470027
 21
271.3987604142943
 31
0.0000000000000000
  0
ARC
  5
24D
100
AcDbEntity
  8
MAIN0
  6
CENTER
 62
3
100
AcDbCircle
 10
761.6571123491821
 20
257.8987604142942
 30
0.0000000000000000
 40
37.99999999999996
100
AcDbArc
 50
133.3993994053432
 51
166.6006005946568
  0
LINE
  5
24E
100
AcDbEntity
  8
MAIN0
  6
CONTINUOUS
 62
3
100
AcDbLine
 10
725.7481470053734
 20
275.1667096067252
 30
0.0000000000000000
 11
725.7481470053734
 21
278.6308112218629
 31
0.0000000000000000
  0
LINE
  5
24F
100
AcDbEntity
  8
MAIN0
  6
CONTINUOUS
 62
3
100
AcDbLine
 10
725.7481470053735
 20
278.6308112218628
 30
0.0000000000000000
 11
728.7481470053735
 21
280.3628620294316
 31
0.0000000000000000
  0
LINE
  5
250
100
AcDbEntity
  8
MAIN0
  6
CONTINUOUS
 62
3
100
AcDbLine
 10
725.7481470053729
 20
275.1667096067248
 30
0.0000000000000000
 11
726.4821958682162
 21
274.7429062981638
 31
0.0000000000000000
  0
LINE
  5
251
100
AcDbEntity
  8
MAIN0
  6
CONTINUOUS
 62
3
100
AcDbLine
 10
728.7481470053732
 20
280.3628620294318
 30
0.0000000000000000
 11
729.4821958682167
 21
279.9390587208710
 31
0.0000000000000000
  0
ARC
  5
252
100
AcDbEntity
  8
MAIN0
  6
CONTINUOUS
 62
3
100
AcDbCircle
 10
728.7481470053734
 20
276.8987604142940
 30
0.0000000000000000
 40
6.500000000000000
100
AcDbArc
 50
64.03375311410817
 51
235.9662468858925
  0
ARC
  5
253
100
AcDbEntity
  8
MAIN0
  6
CONTINUOUS
 62
3
100
AcDbCircle
 10
728.7481470053734
 20
276.8987604142943
 30
0.0000000000000000
 40
7.000000000000000
100
AcDbArc
 50
63.01696130981657
 51
236.9830386901832
  0
LINE
  5
254
100
AcDbEntity
  8
MAIN0
  6
CENTER
 62
3
100
AcDbLine
 10
804.0923571346187
 20
282.3987604142943
 30
0.0000000000000000
 11
785.0397982513613
 21
271.3987604142945
 31
0.0000000000000000
  0
ARC
  5
255
100
AcDbEntity
  8
MAIN0
  6
CENTER
 62
3
100
AcDbCircle
 10
761.6571123491812
 20
257.8987604142942
 30
0.0000000000000000
 40
37.99999999999996
100
AcDbArc
 50
13.39939940534304
 51
46.60060059465658
  0
LINE
  5
256
100
AcDbEntity
  8
MAIN0
  6
CONTINUOUS
 62
3
100
AcDbLine
 10
797.5660776929898
 20
275.1667096067250
 30
0.0000000000000000
 11
797.5660776929899
 21
278.6308112218627
 31
0.0000000000000000
  0
LINE
  5
257
100
AcDbEntity
  8
MAIN0
  6
CONTINUOUS
 62
3
100
AcDbLine
 10
797.5660776929899
 20
278.6308112218626
 30
0.0000000000000000
 11
794.5660776929899
 21
280.3628620294314
 31
0.0000000000000000
  0
LINE
  5
258
100
AcDbEntity
  8
MAIN0
  6
CONTINUOUS
 62
3
100
AcDbLine
 10
797.5660776929901
 20
275.1667096067249
 30
0.0000000000000000
 11
796.8320288301468
 21
274.7429062981639
 31
0.0000000000000000
  0
LINE
  5
259
100
AcDbEntity
  8
MAIN0
  6
CONTINUOUS
 62
3
100
AcDbLine
 10
794.5660776929905
 20
280.3628620294313
 30
0.0000000000000000
 11
793.8320288301469
 21
279.9390587208706
 31
0.0000000000000000
  0
ARC
  5
25A
100
AcDbEntity
  8
MAIN0
  6
CONTINUOUS
 62
3
100
AcDbCircle
 10
794.5660776929898
 20
276.8987604142938
 30
0.0000000000000000
 40
6.500000000000000
100
AcDbArc
 50
304.0337531141072
 51
475.9662468858917
  0
ARC
  5
25B
100
AcDbEntity
  8
MAIN0
  6
CONTINUOUS
 62
3
100
AcDbCircle
 10
794.5660776929898
 20
276.8987604142940
 30
0.0000000000000000
 40
7.000000000000000
100
AcDbArc
 50
303.0169613098166
 51
476.9830386901832
  0
LINE
  5
25C
100
AcDbEntity
  8
MAIN0
  6
CENTER
 62
3
100
AcDbLine
 10
804.0923571346186
 20
233.3987604142961
 30
0.0000000000000000
 11
785.0397982513609
 21
244.3987604142961
 31
0.0000000000000000
  0
ARC
  5
25D
100
AcDbEntity
  8
MAIN0
  6
CENTER
 62
3
100
AcDbCircle
 10
761.6571123491812
 20
257.8987604142956
 30
0.0000000000000000
 40
37.99999999999996
100
AcDbArc
 50
313.3993994053434
 51
346.6006005946570
  0
LINE
  5
25E
100
AcDbEntity
  8
MAIN0
  6
CONTINUOUS
 62
3
100
AcDbLine
 10
797.5660776929899
 20
240.6308112218647
 30
0.0000000000000000
 11
797.5660776929899
 21
237.1667096067270
 31
0.0000000000000000
  0
LINE
  5
25F
100
AcDbEntity
  8
MAIN0
  6
CONTINUOUS
 62
3
100
AcDbLine
 10
797.5660776929898
 20
237.1667096067275
 30
0.0000000000000000
 11
794.5660776929899
 21
235.4346587991586
 31
0.0000000000000000
  0
LINE
  5
260
100
AcDbEntity
  8
MAIN0
  6
CONTINUOUS
 62
3
100
AcDbLine
 10
797.5660776929899
 20
240.6308112218650
 30
0.0000000000000000
 11
796.8320288301466
 21
241.0546145304261
 31
0.0000000000000000
  0
LINE
  5
261
100
AcDbEntity
  8
MAIN0
  6
CONTINUOUS
 62
3
100
AcDbLine
 10
794.5660776929906
 20
235.4346587991585
 30
0.0000000000000000
 11
793.8320288301470
 21
235.8584621077193
 31
0.0000000000000000
  0
ARC
  5
262
100
AcDbEntity
  8
MAIN0
  6
CONTINUOUS
 62
3
100
AcDbCircle
 10
794.5660776929898
 20
238.8987604142961
 30
0.0000000000000000
 40
6.500000000000000
100
AcDbArc
 50
244.0337531141083
 51
415.9662468858927
  0
ARC
  5
263
100
AcDbEntity
  8
MAIN0
  6
CONTINUOUS
 62
3
100
AcDbCircle
 10
794.5660776929898
 20
238.8987604142958
 30
0.0000000000000000
 40
7.000000000000000
100
AcDbArc
 50
243.0169613098168
 51
416.9830386901834
  0
LINE
  5
264
100
AcDbEntity
  8
MAIN0
  6
CONTINUOUS
 62
3
100
AcDbLine
 10
754.6571123491821
 20
215.2987604142955
 30
0.0000000000000000
 11
754.6571123491821
 21
218.8987604142956
 31
0.0000000000000000
  0
LINE
  5
265
100
AcDbEntity
  8
MAIN0
  6
CONTINUOUS
 62
3
100
AcDbLine
 10
768.6571123491821
 20
218.8987604142954
 30
0.0000000000000000
 11
754.6571123491821
 21
218.8987604142954
 31
0.0000000000000000
  0
LINE
  5
266
100
AcDbEntity
  8
MAIN0
  6
CONTINUOUS
 62
3
100
AcDbLine
 10
768.6571123491821
 20
215.2987604142955
 30
0.0000000000000000
 11
768.6571123491821
 21
218.8987604142957
 31
0.0000000000000000
  0
LINE
  5
267
100
AcDbEntity
  8
MAIN0
  6
CONTINUOUS
 62
3
100
AcDbLine
 10
754.2571123491819
 20
214.8987604142953
 30
0.0000000000000000
 11
754.6571123491817
 21
215.2987604142953
 31
0.0000000000000000
  0
LINE
  5
268
100
AcDbEntity
  8
MAIN0
  6
CONTINUOUS
 62
3
100
AcDbLine
 10
768.6571123491819
 20
215.2987604142961
 30
0.0000000000000000
 11
769.0571123491820
 21
214.8987604142960
 31
0.0000000000000000
  0
LINE
  5
269
100
AcDbEntity
  8
MAIN0
  6
CONTINUOUS
 62
3
100
AcDbLine
 10
710.1571123491819
 20
214.8987604142954
 30
0.0000000000000000
 11
754.2571123491821
 21
214.8987604142954
 31
0.0000000000000000
  0
LINE
  5
26A
100
AcDbEntity
  8
MAIN0
  6
CONTINUOUS
 62
3
100
AcDbLine
 10
769.0571123491820
 20
214.8987604142955
 30
0.0000000000000000
 11
813.1571123491819
 21
214.8987604142955
 31
0.0000000000000000
  0
ARC
  5
26B
100
AcDbEntity
  8
MAIN0
  6
CONTINUOUS
 62
3
100
AcDbCircle
 10
761.6571123491821
 20
257.8987604142956
 30
0.0000000000000000
 40
51.50000000000000
100
AcDbArc
 50
314.8676829494731
 51
334.5435993487961
  0
ARC
  5
26C
100
AcDbEntity
  8
MAIN0
  6
CONTINUOUS
 62
3
100
AcDbCircle
 10
761.6571123491821
 20
257.8987604142956
 30
0.0000000000000000
 40
51.50000000000000
100
AcDbArc
 50
356.6604912725324
 51
398.4154602395249
  0
ARC
  5
26D
100
AcDbEntity
  8
MAIN0
  6
CONTINUOUS
 62
3
100
AcDbCircle
 10
761.6571123491821
 20
257.8987604142956
 30
0.0000000000000000
 40
51.50000000000000
100
AcDbArc
 50
141.5845397604751
 51
183.3395087274676
  0
ARC
  5
26E
100
AcDbEntity
  8
MAIN0
  6
CONTINUOUS
 62
3
100
AcDbCircle
 10
761.6571123491821
 20
257.8987604142956
 30
0.0000000000000000
 40
51.50000000000000
100
AcDbArc
 50
205.4564006512027
 51
225.1323170505269
  0
LINE
  5
26F
100
AcDbEntity
  8
MAIN0
  6
CONTINUOUS
 62
3
100
AcDbLine
 10
709.1571123491818
 20
229.8987604142956
 30
0.0000000000000000
 11
709.1571123491818
 21
221.8987604142955
 31
0.0000000000000000
  0
DIMENSION
  5
278
100
AcDbEntity
  8
MAIN0
  6
CONTINUOUS
 62
3
100
AcDbDimension
  2
*D33
 10
707.1571123491823
 20
361.8987604157408
 30
0.0000000000000000
 11
761.6571123491824
 21
362.3987604157408
 31
0.0000000000000000
 70
32
  3
MAIN001
100
AcDbAlignedDimension
 13
816.1571123491825
 23
300.0987604142957
 33
0.0000000000000000
 14
707.1571123491823
 24
300.0987604142957
 34
0.0000000000000000
100
AcDbRotatedDimension
1001
ACAD
1000
DSTYLE
1002
{
1070
   173
1070
     1
1070
     6
1000
_OPEN
1070
     7
1000
_OPEN
1070
    41
1040
4.000000
1002
}
  0
DIMENSION
  5
283
100
AcDbEntity
  8
MAIN0
  6
CONTINUOUS
 62
3
100
AcDbDimension
  2
*D34
 10
754.6571123491821
 20
345.8987604157113
 30
0.0000000000000000
 11
761.6571123491821
 21
346.3987604157113
 31
0.0000000000000000
 70
32
  3
MAIN001
100
AcDbAlignedDimension
 13
768.6571123491821
 23
261.9402122986237
 33
0.0000000000000000
 14
754.6571123491821
 24
261.9402122986223
 34
0.0000000000000000
100
AcDbRotatedDimension
1001
ACAD
1000
DSTYLE
1002
{
1070
   173
1070
     1
1070
     6
1000
_OPEN
1070
     7
1000
_OPEN
1070
    41
1040
4.000000
1070
   287
1070
     0
1002
}
  0
DIMENSION
  5
28D
100
AcDbEntity
  8
MAIN0
  6
CONTINUOUS
 62
1
100
AcDbDimension
  2
*D35
 10
690.1571123491821
 20
184.8610202531050
 30
0.0000000000000000
 11
726.8968080620692
 21
185.8610202531050
 31
0.0000000000000000
 70
160
  1
\A1;14～26
  3
MAIN001
100
AcDbAlignedDimension
 13
710.1571123491818
 23
214.8987604142956
 33
0.0000000000000000
 14
690.1571123491821
 24
124.8813237317693
 34
0.0000000000000000
100
AcDbRotatedDimension
1001
ACAD
1000
DSTYLE
1002
{
1070
   173
1070
     1
1070
     6
1000
_OPEN
1070
     7
1000
_OPEN
1070
    41
1040
4.000000
1070
   287
1070
     0
1070
   340
1005
28E
1002
}
  0
LEADER
  5
28F
100
AcDbEntity
  8
MAIN0
  6
CONTINUOUS
 62
3
100
AcDbLeader
  3
MAIN001
 73
     0
 75
     1
 40
6.000000000000000
 41
52.19899861717227
 76
     3
 10
684.7412422299137
 20
247.7365342910478
 30
0.0000000000000000
 10
639.9491040439925
 20
158.6993703813250
 30
0.0000000000000000
 10
636.5881040439925
 20
158.6993703813251
 30
0.0000000000000000
340
290
213
0.0000000000000000
223
-1.000000000000000
233
0.0000000000000000
1001
ACAD
1000
DSTYLE
1002
{
1070
   147
1040
0.0
1070
    77
1070
     1
1070
   173
1070
     1
1070
     6
1000
_DOT
1070
     7
1000
_DOT
1002
}
  0
MTEXT
  5
290
102
{ACAD_REACTORS
330
28F
102
}
100
AcDbEntity
  8
MAIN0
  6
CONTINUOUS
 62
3
100
AcDbMText
 10
584.3891054268203
 20
165.6993703813251
 30
0.0000000000000000
 40
6.000000000000000
 41
0.0000000000000000
 71
     1
 72
     1
  1
{\H0.61x;{六角穴付ボルト\PM12×45\PHEX,SOCKET HEAD\PCAP SCREW}}
 11
1.000000000000000
 21
0.0000000000000000
 31
0.0000000000000000
  7
KNJYOKO
  0
DIMENSION
  5
29A
100
AcDbEntity
  8
MAIN0
  6
CONTINUOUS
 62
3
100
AcDbDimension
  2
*D36
 10
640.7975892556592
 20
242.3987604142957
 30
0.0000000000000000
 11
639.7975892556592
 21
249.4737131373524
 31
0.0000000000000000
 70
160
  3
MAIN001
100
AcDbAlignedDimension
 13
650.1571123491819
 23
237.3987604142957
 33
0.0000000000000000
 14
678.1571123491819
 24
242.3987604142958
 34
0.0000000000000000
 50
90.00000000000000
100
AcDbRotatedDimension
1001
ACAD
1000
DSTYLE
1002
{
1070
   173
1070
     1
1070
     6
1000
_DOT
1070
     7
1000
_OPEN
1070
    41
1040
4.000000
1070
   287
1070
     0
1002
}
  0
DIMENSION
  5
2A4
100
AcDbEntity
  8
MAIN0
  6
CONTINUOUS
 62
3
100
AcDbDimension
  2
*D37
 10
640.7975892556592
 20
237.3987604142958
 30
0.0000000000000000
 11
640.2975892556592
 21
226.1487604142957
 31
0.0000000000000000
 70
32
  3
MAIN001
100
AcDbAlignedDimension
 13
651.5571123490566
 23
214.8987604142956
 33
0.0000000000000000
 14
650.1571123491819
 24
237.3987604142957
 34
0.0000000000000000
 50
90.00000000000000
100
AcDbRotatedDimension
1001
ACAD
1000
DSTYLE
1002
{
1070
   173
1070
     1
1070
     6
1000
_OPEN
1070
     7
1000
_DOT
1070
    41
1040
4.000000
1070
   287
1070
     0
1002
}
  0
LINE
  5
2A5
100
AcDbEntity
  8
MAIN0
  6
CONTINUOUS
 62
3
100
AcDbLine
 10
48.77982877142773
 20
289.8987604142957
 30
0.0000000000000000
 11
150.0798287714281
 21
289.8987604142957
 31
0.0000000000000000
  0
LINE
  5
2A6
100
AcDbEntity
  8
MAIN0
  6
CONTINUOUS
 62
3
100
AcDbLine
 10
49.27982877142773
 20
329.8987604142957
 30
0.0000000000000000
 11
149.2798287714280
 21
329.8987604142957
 31
0.0000000000000000
  0
LINE
  5
2A7
100
AcDbEntity
  8
MAIN0
  6
CONTINUOUS
 62
3
100
AcDbLine
 10
145.7798287714280
 20
254.8987604142957
 30
0.0000000000000000
 11
145.7798287714280
 21
229.8987604142957
 31
0.0000000000000000
  0
LINE
  5
2A8
100
AcDbEntity
  8
MAIN0
  6
CONTINUOUS
 62
3
100
AcDbLine
 10
52.77982877142773
 20
254.8987604142957
 30
0.0000000000000000
 11
52.77982877142773
 21
229.8987604142957
 31
0.0000000000000000
  0
LINE
  5
2A9
100
AcDbEntity
  8
MAIN0
  6
CONTINUOUS
 62
3
100
AcDbLine
 10
150.7798287714280
 20
229.8987604142957
 30
0.0000000000000000
 11
150.7798287714280
 21
214.8987604142957
 31
0.0000000000000000
  0
LINE
  5
2AA
100
AcDbEntity
  8
MAIN0
  6
CONTINUOUS
 62
3
100
AcDbLine
 10
150.7798287714280
 20
288.3987604142957
 30
0.0000000000000000
 11
150.7798287714280
 21
254.8987604142957
 31
0.0000000000000000
  0
LINE
  5
2AB
100
AcDbEntity
  8
MAIN0
  6
CONTINUOUS
 62
3
100
AcDbLine
 10
47.77982877142773
 20
229.8987604142957
 30
0.0000000000000000
 11
47.77982877142773
 21
214.8987604142957
 31
0.0000000000000000
  0
LINE
  5
2AC
100
AcDbEntity
  8
MAIN0
  6
CONTINUOUS
 62
3
100
AcDbLine
 10
47.77982877142773
 20
288.3987604142957
 30
0.0000000000000000
 11
47.77982877142773
 21
254.8987604142957
 31
0.0000000000000000
  0
LINE
  5
2AD
100
AcDbEntity
  8
MAIN0
  6
CONTINUOUS
 62
3
100
AcDbLine
 10
47.77982877142773
 20
254.8987604142957
 30
0.0000000000000000
 11
52.77982877142773
 21
254.8987604142957
 31
0.0000000000000000
  0
LINE
  5
2AE
100
AcDbEntity
  8
MAIN0
  6
CONTINUOUS
 62
3
100
AcDbLine
 10
145.7798287714280
 20
254.8987604142957
 30
0.0000000000000000
 11
150.7798287714280
 21
254.8987604142957
 31
0.0000000000000000
  0
LINE
  5
2AF
100
AcDbEntity
  8
MAIN0
  6
CONTINUOUS
 62
3
100
AcDbLine
 10
52.77982877142773
 20
229.8987604142957
 30
0.0000000000000000
 11
47.77982877142773
 21
229.8987604142957
 31
0.0000000000000000
  0
LINE
  5
2B0
100
AcDbEntity
  8
MAIN0
  6
CONTINUOUS
 62
3
100
AcDbLine
 10
150.7798287714275
 20
229.8987604142957
 30
0.0000000000000000
 11
145.7798287714277
 21
229.8987604142956
 31
0.0000000000000000
  0
LINE
  5
2B1
100
AcDbEntity
  8
MAIN0
  6
CONTINUOUS
 62
3
100
AcDbLine
 10
130.2798287714280
 20
209.8987604142957
 30
0.0000000000000000
 11
130.2798287714280
 21
214.8987604142957
 31
0.0000000000000000
  0
LINE
  5
2B2
100
AcDbEntity
  8
MAIN0
  6
CONTINUOUS
 62
3
100
AcDbLine
 10
68.27982877142841
 20
209.8987604142957
 30
0.0000000000000000
 11
68.27982877142841
 21
214.8987604142957
 31
0.0000000000000000
  0
LINE
  5
2B3
100
AcDbEntity
  8
MAIN0
  6
CONTINUOUS
 62
3
100
AcDbLine
 10
48.27982877142819
 20
209.8987604142957
 30
0.0000000000000000
 11
68.27982877142841
 21
209.8987604142957
 31
0.0000000000000000
  0
LINE
  5
2B4
100
AcDbEntity
  8
MAIN0
  6
CONTINUOUS
 62
3
100
AcDbLine
 10
130.2798287714281
 20
209.8987604142956
 30
0.0000000000000000
 11
150.2798287714281
 21
209.8987604142956
 31
0.0000000000000000
  0
LINE
  5
2B5
100
AcDbEntity
  8
MAIN0
  6
CONTINUOUS
 62
3
100
AcDbLine
 10
150.2798287714280
 20
209.8987604142957
 30
0.0000000000000000
 11
150.2798287714280
 21
214.8987604142957
 31
0.0000000000000000
  0
LINE
  5
2B6
100
AcDbEntity
  8
MAIN0
  6
CONTINUOUS
 62
3
100
AcDbLine
 10
48.27982877142819
 20
214.8987604142957
 30
0.0000000000000000
 11
48.27982877142819
 21
209.8987604142957
 31
0.0000000000000000
  0
LINE
  5
2B7
100
AcDbEntity
  8
MAIN0
  6
CONTINUOUS
 62
3
100
AcDbLine
 10
49.27982877142773
 20
329.8987604142957
 30
0.0000000000000000
 11
49.27982877142773
 21
289.8987604142957
 31
0.0000000000000000
  0
LINE
  5
2B8
100
AcDbEntity
  8
MAIN0
  6
CONTINUOUS
 62
3
100
AcDbLine
 10
149.2798287714280
 20
329.8987604142957
 30
0.0000000000000000
 11
149.2798287714280
 21
289.8987604142957
 31
0.0000000000000000
  0
LINE
  5
2B9
100
AcDbEntity
  8
MAIN0
  6
CENTER
 62
3
100
AcDbLine
 10
99.27982877142830
 20
335.8981517590111
 30
0.0000000000000000
 11
99.27982877142807
 21
204.9035528037868
 31
0.0000000000000000
  0
LINE
  5
2BA
100
AcDbEntity
  8
MAIN0
  6
CONTINUOUS
 62
3
100
AcDbLine
 10
51.77982877142819
 20
253.7987604142958
 30
0.0000000000000000
 11
51.77982877142819
 21
252.5987604142955
 31
0.0000000000000000
  0
LINE
  5
2BB
100
AcDbEntity
  8
MAIN0
  6
CONTINUOUS
 62
3
100
AcDbLine
 10
48.07982877142838
 20
253.7987604142953
 30
0.0000000000000000
 11
51.77982877142865
 21
253.7987604142953
 31
0.0000000000000000
  0
LINE
  5
2BC
100
AcDbEntity
  8
MAIN0
  6
CONTINUOUS
 62
3
100
AcDbLine
 10
146.7798287714282
 20
253.7987604142961
 30
0.0000000000000000
 11
150.4798287714280
 21
253.7987604142961
 31
0.0000000000000000
  0
LINE
  5
2BD
100
AcDbEntity
  8
MAIN0
  6
CONTINUOUS
 62
3
100
AcDbLine
 10
47.27982877142819
 20
252.5987604142955
 30
0.0000000000000000
 11
51.77982877142819
 21
252.5987604142955
 31
0.0000000000000000
  0
LINE
  5
2BE
100
AcDbEntity
  8
MAIN0
  6
CONTINUOUS
 62
3
100
AcDbLine
 10
146.7798287714284
 20
252.5987604142955
 30
0.0000000000000000
 11
151.2798287714284
 21
252.5987604142955
 31
0.0000000000000000
  0
LINE
  5
2BF
100
AcDbEntity
  8
MAIN0
  6
CONTINUOUS
 62
3
100
AcDbLine
 10
47.47982877142800
 20
289.8987604142957
 30
0.0000000000000000
 11
151.0798287714281
 21
289.8987604142957
 31
0.0000000000000000
  0
ARC
  5
2C0
100
AcDbEntity
  8
MAIN0
  6
CONTINUOUS
 62
3
100
AcDbCircle
 10
151.2798287714284
 20
290.0987604142956
 30
0.0000000000000000
 40
1.000000000000000
100
AcDbArc
 50
0.0000000000000000
 51
89.99999999942553
  0
ARC
  5
2C1
100
AcDbEntity
  8
MAIN0
  6
CONTINUOUS
 62
3
100
AcDbCircle
 10
47.27982877142819
 20
290.0987604142956
 30
0.0000000000000000
 40
1.000000000000000
100
AcDbArc
 50
89.99999999942553
 51
179.9999999999964
  0
LINE
  5
2C2
100
AcDbEntity
  8
MAIN0
  6
CONTINUOUS
 62
3
100
AcDbLine
 10
152.2798287714284
 20
290.0987604142956
 30
0.0000000000000000
 11
152.2798287714284
 21
253.5987604142955
 31
0.0000000000000000
  0
LINE
  5
2C3
100
AcDbEntity
  8
MAIN0
  6
CONTINUOUS
 62
3
100
AcDbLine
 10
151.0798287714281
 20
289.8987604142957
 30
0.0000000000000000
 11
151.0798287714281
 21
254.3987604142957
 31
0.0000000000000000
  0
LINE
  5
2C4
100
AcDbEntity
  8
MAIN0
  6
CONTINUOUS
 62
3
100
AcDbLine
 10
47.47982877142800
 20
289.8987604142957
 30
0.0000000000000000
 11
47.47982877142800
 21
254.3987604142957
 31
0.0000000000000000
  0
LINE
  5
2C5
100
AcDbEntity
  8
MAIN0
  6
CONTINUOUS
 62
3
100
AcDbLine
 10
46.27982877142819
 20
290.0987604142956
 30
0.0000000000000000
 11
46.27982877142819
 21
253.5987604142955
 31
0.0000000000000000
  0
ARC
  5
2C6
100
AcDbEntity
  8
MAIN0
  6
CONTINUOUS
 62
3
100
AcDbCircle
 10
150.4798287714282
 20
254.3987604142957
 30
0.0000000000000000
 40
0.6000000000000000
100
AcDbArc
 50
270.0000000005678
 51
359.9999999999934
  0
ARC
  5
2C7
100
AcDbEntity
  8
MAIN0
  6
CONTINUOUS
 62
3
100
AcDbCircle
 10
48.07982877142791
 20
254.3987604142957
 30
0.0000000000000000
 40
0.6000000000000000
100
AcDbArc
 50
179.9999999999964
 51
270.0000000005678
  0
ARC
  5
2C8
100
AcDbEntity
  8
MAIN0
  6
CONTINUOUS
 62
3
100
AcDbCircle
 10
47.27982877142819
 20
253.5987604142955
 30
0.0000000000000000
 40
1.000000000000000
100
AcDbArc
 50
179.9999999999964
 51
270.0000000005678
  0
ARC
  5
2C9
100
AcDbEntity
  8
MAIN0
  6
CONTINUOUS
 62
3
100
AcDbCircle
 10
151.2798287714284
 20
253.5987604142955
 30
0.0000000000000000
 40
1.000000000000000
100
AcDbArc
 50
270.0000000005678
 51
359.9999999999934
  0
LINE
  5
2CA
100
AcDbEntity
  8
MAIN0
  6
CONTINUOUS
 62
3
100
AcDbLine
 10
146.7798287714280
 20
253.7987604142956
 30
0.0000000000000000
 11
146.7798287714280
 21
252.5987604142958
 31
0.0000000000000000
  0
ARC
  5
2CB
100
AcDbEntity
  8
MAIN0
  6
CONTINUOUS
 62
3
100
AcDbCircle
 10
45.77982877142819
 20
300.0987604142958
 30
0.0000000000000000
 40
1.000000000000000
100
AcDbArc
 50
89.99999999999919
 51
179.9999999999964
  0
ARC
  5
2CC
100
AcDbEntity
  8
MAIN0
  6
CONTINUOUS
 62
3
100
AcDbCircle
 10
152.7798287714284
 20
300.0987604142958
 30
0.0000000000000000
 40
1.000000000000000
100
AcDbArc
 50
0.0000000000000000
 51
89.99999999999959
  0
LINE
  5
2CD
100
AcDbEntity
  8
MAIN0
  6
CONTINUOUS
 62
3
100
AcDbLine
 10
44.77982877142819
 20
252.5987604142955
 30
0.0000000000000000
 11
45.97982877142800
 21
252.5987604142955
 31
0.0000000000000000
  0
LINE
  5
2CE
100
AcDbEntity
  8
MAIN0
  6
CONTINUOUS
 62
3
100
AcDbLine
 10
152.5798287714281
 20
252.5987604142955
 30
0.0000000000000000
 11
153.7798287714284
 21
252.5987604142955
 31
0.0000000000000000
  0
LINE
  5
2CF
100
AcDbEntity
  8
MAIN0
  6
CONTINUOUS
 62
3
100
AcDbLine
 10
153.7798287714284
 20
300.0987604142958
 30
0.0000000000000000
 11
153.7798287714284
 21
252.5987604142955
 31
0.0000000000000000
  0
LINE
  5
2D0
100
AcDbEntity
  8
MAIN0
  6
CONTINUOUS
 62
3
100
AcDbLine
 10
44.77982877142819
 20
300.0987604142958
 30
0.0000000000000000
 11
44.77982877142819
 21
252.5987604142955
 31
0.0000000000000000
  0
LINE
  5
2D1
100
AcDbEntity
  8
MAIN0
  6
CONTINUOUS
 62
3
100
AcDbLine
 10
152.5798287714281
 20
291.0987604142958
 30
0.0000000000000000
 11
152.5798287714281
 21
252.5987604142955
 31
0.0000000000000000
  0
LINE
  5
2D2
100
AcDbEntity
  8
MAIN0
  6
CONTINUOUS
 62
3
100
AcDbLine
 10
45.97982877142800
 20
291.0987604142958
 30
0.0000000000000000
 11
45.97982877142800
 21
252.5987604142955
 31
0.0000000000000000
  0
LINE
  5
2D3
100
AcDbEntity
  8
MAIN0
  6
CONTINUOUS
 62
3
100
AcDbLine
 10
76.28526419629435
 20
289.8987604142957
 30
0.0000000000000000
 11
122.2743933465620
 21
289.8987604142957
 31
0.0000000000000000
  0
LINE
  5
2D4
100
AcDbEntity
  8
MAIN0
  6
CONTINUOUS
 62
3
100
AcDbLine
 10
92.27982877142796
 20
215.2987604142956
 30
0.0000000000000000
 11
92.27982877142796
 21
218.8987604142957
 31
0.0000000000000000
  0
LINE
  5
2D5
100
AcDbEntity
  8
MAIN0
  6
CONTINUOUS
 62
3
100
AcDbLine
 10
106.2798287714280
 20
218.8987604142955
 30
0.0000000000000000
 11
92.27982877142796
 21
218.8987604142955
 31
0.0000000000000000
  0
LINE
  5
2D6
100
AcDbEntity
  8
MAIN0
  6
CONTINUOUS
 62
3
100
AcDbLine
 10
106.2798287714280
 20
215.2987604142956
 30
0.0000000000000000
 11
106.2798287714280
 21
218.8987604142958
 31
0.0000000000000000
  0
LINE
  5
2D7
100
AcDbEntity
  8
MAIN0
  6
CONTINUOUS
 62
3
100
AcDbLine
 10
91.87982877142800
 20
214.8987604142954
 30
0.0000000000000000
 11
92.27982877142794
 21
215.2987604142953
 31
0.0000000000000000
  0
LINE
  5
2D8
100
AcDbEntity
  8
MAIN0
  6
CONTINUOUS
 62
3
100
AcDbLine
 10
106.2798287714280
 20
215.2987604142961
 30
0.0000000000000000
 11
106.6798287714281
 21
214.8987604142961
 31
0.0000000000000000
  0
LINE
  5
2D9
100
AcDbEntity
  8
MAIN0
  6
CONTINUOUS
 62
3
100
AcDbLine
 10
47.77982877142786
 20
214.8987604142955
 30
0.0000000000000000
 11
91.87982877142800
 21
214.8987604142955
 31
0.0000000000000000
  0
LINE
  5
2DA
100
AcDbEntity
  8
MAIN0
  6
CONTINUOUS
 62
3
100
AcDbLine
 10
106.6798287714279
 20
214.8987604142956
 30
0.0000000000000000
 11
150.7798287714278
 21
214.8987604142956
 31
0.0000000000000000
  0
LINE
  5
2DB
100
AcDbEntity
  8
MAIN0
  6
CONTINUOUS
 62
3
100
AcDbLine
 10
45.77982877142819
 20
301.0987604142958
 30
0.0000000000000000
 11
49.27982877142750
 21
301.0987604142958
 31
0.0000000000000000
  0
LINE
  5
2DC
100
AcDbEntity
  8
MAIN0
  6
CONTINUOUS
 62
3
100
AcDbLine
 10
149.2798287714282
 20
301.0987604142958
 30
0.0000000000000000
 11
152.7798287714284
 21
301.0987604142958
 31
0.0000000000000000
  0
LINE
  5
2DD
100
AcDbEntity
  8
MAIN0
  6
CONTINUOUS
 62
3
100
AcDbLine
 10
45.97982877142800
 20
291.0987604142958
 30
0.0000000000000000
 11
49.27982877142773
 21
291.0987604142958
 31
0.0000000000000000
  0
LINE
  5
2DE
100
AcDbEntity
  8
MAIN0
  6
CONTINUOUS
 62
3
100
AcDbLine
 10
149.2798287714280
 20
291.0987604142958
 30
0.0000000000000000
 11
152.5798287714281
 21
291.0987604142958
 31
0.0000000000000000
  0
DIMENSION
  5
2E7
100
AcDbEntity
  8
MAIN0
  6
CONTINUOUS
 62
3
100
AcDbDimension
  2
*D38
 10
49.27982877142773
 20
345.8987604133551
 30
0.0000000000000000
 11
99.27982877142784
 21
346.3987604133551
 31
0.0000000000000000
 70
32
  3
MAIN001
100
AcDbAlignedDimension
 13
149.2798287714280
 23
329.8987604142957
 33
0.0000000000000000
 14
49.27982877142773
 24
329.8987604142957
 34
0.0000000000000000
100
AcDbRotatedDimension
1001
ACAD
1000
DSTYLE
1002
{
1070
   173
1070
     1
1070
     6
1000
_OPEN
1070
     7
1000
_OPEN
1070
    41
1040
4.000000
1002
}
  0
LINE
  5
2E8
100
AcDbEntity
  8
MAIN0
  6
CONTINUOUS
 62
3
100
AcDbLine
 10
72.27982877128527
 20
289.2987604142714
 30
0.0000000000000000
 11
126.2798287712850
 21
289.2987604143710
 31
0.0000000000000000
  0
LINE
  5
2E9
100
AcDbEntity
  8
MAIN0
  6
CONTINUOUS
 62
3
100
AcDbLine
 10
72.27982877128419
 20
289.8987604142957
 30
0.0000000000000000
 11
72.27982877129121
 21
286.0987604142715
 31
0.0000000000000000
  0
LINE
  5
2EA
100
AcDbEntity
  8
MAIN0
  6
CONTINUOUS
 62
3
100
AcDbLine
 10
72.27982877129118
 20
286.0987604142715
 30
0.0000000000000000
 11
126.2798287712910
 21
286.0987604143710
 31
0.0000000000000000
  0
LINE
  5
2EB
100
AcDbEntity
  8
MAIN0
  6
CONTINUOUS
 62
3
100
AcDbLine
 10
126.2798287712842
 20
289.8987604143711
 30
0.0000000000000000
 11
126.2798287712912
 21
286.0987604143711
 31
0.0000000000000000
  0
LINE
  5
2EC
100
AcDbEntity
  8
MAIN0
  6
CONTINUOUS
 62
3
100
AcDbLine
 10
47.77982877142760
 20
288.3987604142957
 30
0.0000000000000000
 11
49.27982877142760
 21
289.8987604142957
 31
0.0000000000000000
  0
LINE
  5
2ED
100
AcDbEntity
  8
MAIN0
  6
CONTINUOUS
 62
3
100
AcDbLine
 10
149.2798287714280
 20
289.8987604142959
 30
0.0000000000000000
 11
150.7798287714280
 21
288.3987604142959
 31
0.0000000000000000
  0
LINE
  5
2EE
100
AcDbEntity
  8
MAIN0
  6
CONTINUOUS
 62
3
100
AcDbLine
 10
73.27982877129679
 20
286.0987604142729
 30
0.0000000000000000
 11
73.27982877132590
 21
270.2987604142246
 31
0.0000000000000000
  0
LINE
  5
2EF
100
AcDbEntity
  8
MAIN0
  6
CONTINUOUS
 62
3
100
AcDbLine
 10
72.87982877132653
 20
269.8987604142248
 30
0.0000000000000000
 11
73.27982877132580
 21
270.2987604142248
 31
0.0000000000000000
  0
LINE
  5
2F0
100
AcDbEntity
  8
MAIN0
  6
CONTINUOUS
 62
3
100
AcDbLine
 10
72.87982877132673
 20
269.8987604142246
 30
0.0000000000000000
 11
68.27982877132659
 21
269.8987604142251
 31
0.0000000000000000
  0
LINE
  5
2F1
100
AcDbEntity
  8
MAIN0
  6
CONTINUOUS
 62
3
100
AcDbLine
 10
68.27982877132624
 20
269.8987604142251
 30
0.0000000000000000
 11
68.27982877134835
 21
257.8987604142251
 31
0.0000000000000000
  0
LINE
  5
2F2
100
AcDbEntity
  8
MAIN0
  6
CONTINUOUS
 62
3
100
AcDbLine
 10
73.87982877134837
 20
257.8987604142246
 30
0.0000000000000000
 11
68.27982877134915
 21
257.8987604142253
 31
0.0000000000000000
  0
LINE
  5
2F3
100
AcDbEntity
  8
MAIN0
  6
CONTINUOUS
 62
3
100
AcDbLine
 10
74.27982877134916
 20
257.4987604142246
 30
0.0000000000000000
 11
74.27982877138520
 21
237.8987604141756
 31
0.0000000000000000
  0
LINE
  5
2F4
100
AcDbEntity
  8
MAIN0
  6
CONTINUOUS
 62
3
100
AcDbLine
 10
73.87982877134829
 20
257.8987604142246
 30
0.0000000000000000
 11
74.27982877134903
 21
257.4987604142245
 31
0.0000000000000000
  0
ARC
  5
2F5
100
AcDbEntity
  8
MAIN0
  6
CONTINUOUS
 62
3
100
AcDbCircle
 10
80.27982877138521
 20
237.8987604141867
 30
0.0000000000000000
 40
6.000000000000000
100
AcDbArc
 50
180.0000000000000
 51
270.0000000000000
  0
LINE
  5
2F6
100
AcDbEntity
  8
MAIN0
  6
CONTINUOUS
 62
3
100
AcDbLine
 10
80.27982877139633
 20
231.8987604141867
 30
0.0000000000000000
 11
118.2798287713963
 21
231.8987604142573
 31
0.0000000000000000
  0
ARC
  5
2F7
100
AcDbEntity
  8
MAIN0
  6
CONTINUOUS
 62
3
100
AcDbCircle
 10
118.2798287713852
 20
237.8987604142573
 30
0.0000000000000000
 40
6.000000000000000
100
AcDbArc
 50
270.0000000000000
 51
360.0000000000000
  0
LINE
  5
2F8
100
AcDbEntity
  8
MAIN0
  6
CONTINUOUS
 62
3
100
AcDbLine
 10
124.2798287713492
 20
257.4987604143166
 30
0.0000000000000000
 11
124.2798287713852
 21
237.8987604142684
 31
0.0000000000000000
  0
LINE
  5
2F9
100
AcDbEntity
  8
MAIN0
  6
CONTINUOUS
 62
3
100
AcDbLine
 10
124.6798287713485
 20
257.8987604143180
 30
0.0000000000000000
 11
124.2798287713492
 21
257.4987604143164
 31
0.0000000000000000
  0
LINE
  5
2FA
100
AcDbEntity
  8
MAIN0
  6
CONTINUOUS
 62
3
100
AcDbLine
 10
124.6798287713482
 20
257.8987604143181
 30
0.0000000000000000
 11
130.2798287713486
 21
257.8987604143395
 31
0.0000000000000000
  0
LINE
  5
2FB
100
AcDbEntity
  8
MAIN0
  6
CONTINUOUS
 62
3
100
AcDbLine
 10
130.2798287713262
 20
269.8987604143397
 30
0.0000000000000000
 11
130.2798287713484
 21
257.8987604143397
 31
0.0000000000000000
  0
LINE
  5
2FC
100
AcDbEntity
  8
MAIN0
  6
CONTINUOUS
 62
3
100
AcDbLine
 10
125.6798287713263
 20
269.8987604143221
 30
0.0000000000000000
 11
130.2798287713264
 21
269.8987604143397
 31
0.0000000000000000
  0
LINE
  5
2FD
100
AcDbEntity
  8
MAIN0
  6
CONTINUOUS
 62
3
100
AcDbLine
 10
125.2798287713255
 20
270.2987604143207
 30
0.0000000000000000
 11
125.6798287713263
 21
269.8987604143222
 31
0.0000000000000000
  0
LINE
  5
2FE
100
AcDbEntity
  8
MAIN0
  6
CONTINUOUS
 62
3
100
AcDbLine
 10
125.2798287712965
 20
286.0987604143689
 30
0.0000000000000000
 11
125.2798287713256
 21
270.2987604143206
 31
0.0000000000000000
  0
DIMENSION
  5
307
100
AcDbEntity
  8
MAIN0
  6
CONTINUOUS
 62
3
100
AcDbDimension
  2
*D39
 10
168.1106164352141
 20
289.8987604142957
 30
0.0000000000000000
 11
167.6106164352141
 21
272.3987604142957
 31
0.0000000000000000
 70
32
  3
MAIN001
100
AcDbAlignedDimension
 13
150.7798287714280
 23
254.8987604142957
 33
0.0000000000000000
 14
151.0798287714281
 24
289.8987604142957
 34
0.0000000000000000
 50
90.00000000000000
100
AcDbRotatedDimension
1001
ACAD
1000
DSTYLE
1002
{
1070
   173
1070
     1
1070
     6
1000
_OPEN
1070
     7
1000
_OPEN
1070
    41
1040
4.000000
1002
}
  0
DIMENSION
  5
310
100
AcDbEntity
  8
MAIN0
  6
CONTINUOUS
 62
3
100
AcDbDimension
  2
*D40
 10
168.1106164352141
 20
254.8987604142958
 30
0.0000000000000000
 11
167.6106164352141
 21
242.3987604142957
 31
0.0000000000000000
 70
32
  3
MAIN001
100
AcDbAlignedDimension
 13
150.7798287714275
 23
229.8987604142957
 33
0.0000000000000000
 14
150.7798287714280
 24
254.8987604142957
 34
0.0000000000000000
 50
90.00000000000000
100
AcDbRotatedDimension
1001
ACAD
1000
DSTYLE
1002
{
1070
   173
1070
     1
1070
     6
1000
_OPEN
1070
     7
1000
_OPEN
1070
    41
1040
4.000000
1002
}
  0
DIMENSION
  5
31B
100
AcDbEntity
  8
MAIN0
  6
CONTINUOUS
 62
3
100
AcDbDimension
  2
*D41
 10
168.1106164352141
 20
229.8987604142956
 30
0.0000000000000000
 11
167.6106164352141
 21
222.3987604142956
 31
0.0000000000000000
 70
32
  3
MAIN001
100
AcDbAlignedDimension
 13
150.7798287714278
 23
214.8987604142956
 33
0.0000000000000000
 14
150.7798287714275
 24
229.8987604142957
 34
0.0000000000000000
 50
90.00000000000000
100
AcDbRotatedDimension
1001
ACAD
1000
DSTYLE
1002
{
1070
   173
1070
     1
1070
     6
1000
_OPEN
1070
     7
1000
_OPEN
1070
    41
1040
4.000000
1070
   287
1070
     0
1002
}
  0
LINE
  5
31C
100
AcDbEntity
  8
MAIN0
  6
CONTINUOUS
 62
3
100
AcDbLine
 10
524.4282014479950
 20
447.7525325122469
 30
0.0000000000000000
 11
516.4282014480727
 21
447.7525325122469
 31
0.0000000000000000
  0
LINE
  5
31D
100
AcDbEntity
  8
MAIN0
  6
CONTINUOUS
 62
3
100
AcDbLine
 10
524.4282014479949
 20
528.4556923008704
 30
0.0000000000000000
 11
516.4282014480726
 21
528.4556923008704
 31
0.0000000000000000
  0
LINE
  5
31E
100
AcDbEntity
  8
MAIN0
  6
CONTINUOUS
 62
3
100
AcDbLine
 10
486.4282014479941
 20
235.7628167929344
 30
0.0000000000000000
 11
524.4282014479950
 21
235.7628167929660
 31
0.0000000000000000
  0
DIMENSION
  5
328
100
AcDbEntity
  8
MAIN0
  6
CONTINUOUS
 62
3
100
AcDbDimension
  2
*D42
 10
145.7798287714280
 20
241.8987604125667
 30
0.0000000000000000
 11
138.3885389968486
 21
242.8987604125667
 31
0.0000000000000000
 70
160
  3
MAIN001
100
AcDbAlignedDimension
 13
150.7798287714280
 23
229.8987604142957
 33
0.0000000000000000
 14
145.7798287714280
 24
229.8987604142957
 34
0.0000000000000000
100
AcDbRotatedDimension
1001
ACAD
1000
DSTYLE
1002
{
1070
   173
1070
     1
1070
     6
1000
_OPEN
1070
     7
1000
_OPEN
1070
    41
1040
4.000000
1070
   287
1070
     0
1002
}
  0
LINE
  5
329
100
AcDbEntity
  8
MAIN0
  6
CENTER
 62
3
100
AcDbLine
 10
278.0156013903565
 20
499.4065293297072
 30
0.0000000000000000
 11
278.0156013903566
 21
516.6379815377977
 31
0.0000000000000000
  0
LINE
  5
32A
100
AcDbEntity
  8
MAIN0
  6
CENTER
 62
3
100
AcDbLine
 10
268.2204425199902
 20
508.1041124071439
 30
0.0000000000000000
 11
287.2657419515960
 21
508.1041124071241
 31
0.0000000000000000
  0
LINE
  5
32B
100
AcDbEntity
  8
MAIN0
  6
CENTER
 62
3
100
AcDbLine
 10
228.0156013903565
 20
499.4065293297072
 30
0.0000000000000000
 11
228.0156013903566
 21
516.6379815377976
 31
0.0000000000000000
  0
LINE
  5
32C
100
AcDbEntity
  8
MAIN0
  6
CENTER
 62
3
100
AcDbLine
 10
218.2204425199902
 20
508.1041124071439
 30
0.0000000000000000
 11
237.2657419515960
 21
508.1041124071241
 31
0.0000000000000000
  0
LINE
  5
32D
100
AcDbEntity
  8
MAIN0
  6
CENTER
 62
3
100
AcDbLine
 10
228.0156013903331
 20
476.8016954846641
 30
0.0000000000000000
 11
228.0156013902973
 21
459.5702432765736
 31
0.0000000000000000
  0
LINE
  5
32E
100
AcDbEntity
  8
MAIN0
  6
CENTER
 62
3
100
AcDbLine
 10
218.2204425199487
 20
468.1041124072477
 30
0.0000000000000000
 11
237.2657419515545
 21
468.1041124072280
 31
0.0000000000000000
  0
LINE
  5
32F
100
AcDbEntity
  8
MAIN0
  6
CENTER
 62
3
100
AcDbLine
 10
278.0156013903330
 20
476.8016954846641
 30
0.0000000000000000
 11
278.0156013902973
 21
459.5702432765736
 31
0.0000000000000000
  0
LINE
  5
330
100
AcDbEntity
  8
MAIN0
  6
CENTER
 62
3
100
AcDbLine
 10
268.2204425199487
 20
468.1041124072477
 30
0.0000000000000000
 11
287.2657419515546
 21
468.1041124072279
 31
0.0000000000000000
  0
LINE
  5
331
100
AcDbEntity
  8
MAIN0
  6
CONTINUOUS
 62
3
100
AcDbLine
 10
230.0156013903566
 20
506.9494118687545
 30
0.0000000000000000
 11
230.0156013903566
 21
509.2588129455129
 31
0.0000000000000000
  0
LINE
  5
332
100
AcDbEntity
  8
MAIN0
  6
CONTINUOUS
 62
3
100
AcDbLine
 10
230.0156013903565
 20
509.2588129455129
 30
0.0000000000000000
 11
228.0156013903565
 21
510.4135134838921
 31
0.0000000000000000
  0
LINE
  5
333
100
AcDbEntity
  8
MAIN0
  6
CONTINUOUS
 62
3
100
AcDbLine
 10
228.0156013903566
 20
510.4135134838922
 30
0.0000000000000000
 11
226.0156013903565
 21
509.2588129455129
 31
0.0000000000000000
  0
LINE
  5
334
100
AcDbEntity
  8
MAIN0
  6
CONTINUOUS
 62
3
100
AcDbLine
 10
226.0156013903566
 20
509.2588129455129
 30
0.0000000000000000
 11
226.0156013903566
 21
506.9494118687545
 31
0.0000000000000000
  0
LINE
  5
335
100
AcDbEntity
  8
MAIN0
  6
CONTINUOUS
 62
3
100
AcDbLine
 10
226.0156013903566
 20
506.9494118687545
 30
0.0000000000000000
 11
228.0156013903566
 21
505.7947113303752
 31
0.0000000000000000
  0
LINE
  5
336
100
AcDbEntity
  8
MAIN0
  6
CONTINUOUS
 62
3
100
AcDbLine
 10
228.0156013903566
 20
505.7947113303752
 30
0.0000000000000000
 11
230.0156013903566
 21
506.9494118687545
 31
0.0000000000000000
  0
LINE
  5
337
100
AcDbEntity
  8
MAIN0
  6
CENTER
 62
3
100
AcDbLine
 10
218.2204425199902
 20
508.1041124071439
 30
0.0000000000000000
 11
237.2657419515960
 21
508.1041124071241
 31
0.0000000000000000
  0
CIRCLE
  5
338
100
AcDbEntity
  8
MAIN0
  6
CONTINUOUS
 62
3
100
AcDbCircle
 10
228.0156013903566
 20
508.1041124071337
 30
0.0000000000000000
 40
3.323417500000000
  0
CIRCLE
  5
339
100
AcDbEntity
  8
MAIN0
  6
CONTINUOUS
 62
3
100
AcDbCircle
 10
228.0156013903566
 20
508.1041124071337
 30
0.0000000000000000
 40
4.000000000000000
  0
LINE
  5
33A
100
AcDbEntity
  8
MAIN0
  6
CONTINUOUS
 62
3
100
AcDbLine
 10
230.0156013903151
 20
466.9494118688583
 30
0.0000000000000000
 11
230.0156013903151
 21
469.2588129456168
 31
0.0000000000000000
  0
LINE
  5
33B
100
AcDbEntity
  8
MAIN0
  6
CONTINUOUS
 62
3
100
AcDbLine
 10
230.0156013903151
 20
469.2588129456169
 30
0.0000000000000000
 11
228.0156013903151
 21
470.4135134839961
 31
0.0000000000000000
  0
LINE
  5
33C
100
AcDbEntity
  8
MAIN0
  6
CONTINUOUS
 62
3
100
AcDbLine
 10
228.0156013903152
 20
470.4135134839961
 30
0.0000000000000000
 11
226.0156013903151
 21
469.2588129456168
 31
0.0000000000000000
  0
LINE
  5
33D
100
AcDbEntity
  8
MAIN0
  6
CONTINUOUS
 62
3
100
AcDbLine
 10
226.0156013903151
 20
469.2588129456168
 30
0.0000000000000000
 11
226.0156013903151
 21
466.9494118688583
 31
0.0000000000000000
  0
LINE
  5
33E
100
AcDbEntity
  8
MAIN0
  6
CONTINUOUS
 62
3
100
AcDbLine
 10
226.0156013903151
 20
466.9494118688583
 30
0.0000000000000000
 11
228.0156013903151
 21
465.7947113304791
 31
0.0000000000000000
  0
LINE
  5
33F
100
AcDbEntity
  8
MAIN0
  6
CONTINUOUS
 62
3
100
AcDbLine
 10
228.0156013903151
 20
465.7947113304791
 30
0.0000000000000000
 11
230.0156013903151
 21
466.9494118688584
 31
0.0000000000000000
  0
LINE
  5
340
100
AcDbEntity
  8
MAIN0
  6
CENTER
 62
3
100
AcDbLine
 10
218.2204425199487
 20
468.1041124072477
 30
0.0000000000000000
 11
237.2657419515546
 21
468.1041124072279
 31
0.0000000000000000
  0
CIRCLE
  5
341
100
AcDbEntity
  8
MAIN0
  6
CONTINUOUS
 62
3
100
AcDbCircle
 10
228.0156013903151
 20
468.1041124072376
 30
0.0000000000000000
 40
3.323417500000000
  0
CIRCLE
  5
342
100
AcDbEntity
  8
MAIN0
  6
CONTINUOUS
 62
3
100
AcDbCircle
 10
228.0156013903151
 20
468.1041124072376
 30
0.0000000000000000
 40
4.000000000000000
  0
LINE
  5
343
100
AcDbEntity
  8
MAIN0
  6
CONTINUOUS
 62
3
100
AcDbLine
 10
280.0156013903151
 20
466.9494118688583
 30
0.0000000000000000
 11
280.0156013903151
 21
469.2588129456168
 31
0.0000000000000000
  0
LINE
  5
344
100
AcDbEntity
  8
MAIN0
  6
CONTINUOUS
 62
3
100
AcDbLine
 10
280.0156013903151
 20
469.2588129456169
 30
0.0000000000000000
 11
278.0156013903151
 21
470.4135134839960
 31
0.0000000000000000
  0
LINE
  5
345
100
AcDbEntity
  8
MAIN0
  6
CONTINUOUS
 62
3
100
AcDbLine
 10
278.0156013903152
 20
470.4135134839961
 30
0.0000000000000000
 11
276.0156013903151
 21
469.2588129456168
 31
0.0000000000000000
  0
LINE
  5
346
100
AcDbEntity
  8
MAIN0
  6
CONTINUOUS
 62
3
100
AcDbLine
 10
276.0156013903151
 20
469.2588129456168
 30
0.0000000000000000
 11
276.0156013903151
 21
466.9494118688583
 31
0.0000000000000000
  0
LINE
  5
347
100
AcDbEntity
  8
MAIN0
  6
CONTINUOUS
 62
3
100
AcDbLine
 10
276.0156013903151
 20
466.9494118688583
 30
0.0000000000000000
 11
278.0156013903151
 21
465.7947113304790
 31
0.0000000000000000
  0
LINE
  5
348
100
AcDbEntity
  8
MAIN0
  6
CONTINUOUS
 62
3
100
AcDbLine
 10
278.0156013903152
 20
465.7947113304791
 30
0.0000000000000000
 11
280.0156013903152
 21
466.9494118688584
 31
0.0000000000000000
  0
LINE
  5
349
100
AcDbEntity
  8
MAIN0
  6
CENTER
 62
3
100
AcDbLine
 10
268.2204425199487
 20
468.1041124072477
 30
0.0000000000000000
 11
287.2657419515545
 21
468.1041124072279
 31
0.0000000000000000
  0
CIRCLE
  5
34A
100
AcDbEntity
  8
MAIN0
  6
CONTINUOUS
 62
3
100
AcDbCircle
 10
278.0156013903151
 20
468.1041124072376
 30
0.0000000000000000
 40
3.323417500000000
  0
CIRCLE
  5
34B
100
AcDbEntity
  8
MAIN0
  6
CONTINUOUS
 62
3
100
AcDbCircle
 10
278.0156013903151
 20
468.1041124072376
 30
0.0000000000000000
 40
4.000000000000000
  0
LINE
  5
34C
100
AcDbEntity
  8
MAIN0
  6
CENTER
 62
3
100
AcDbLine
 10
363.0156013903747
 20
531.8016954844824
 30
0.0000000000000000
 11
363.0156013903390
 21
514.5702432763919
 31
0.0000000000000000
  0
LINE
  5
34D
100
AcDbEntity
  8
MAIN0
  6
CENTER
 62
3
100
AcDbLine
 10
353.2204425199903
 20
523.1041124070659
 30
0.0000000000000000
 11
372.2657419515962
 21
523.1041124070463
 31
0.0000000000000000
  0
LINE
  5
34E
100
AcDbEntity
  8
MAIN0
  6
CONTINUOUS
 62
3
100
AcDbLine
 10
365.0156013903567
 20
521.9494118686766
 30
0.0000000000000000
 11
365.0156013903567
 21
524.2588129454350
 31
0.0000000000000000
  0
LINE
  5
34F
100
AcDbEntity
  8
MAIN0
  6
CONTINUOUS
 62
3
100
AcDbLine
 10
365.0156013903567
 20
524.2588129454351
 30
0.0000000000000000
 11
363.0156013903568
 21
525.4135134838143
 31
0.0000000000000000
  0
LINE
  5
350
100
AcDbEntity
  8
MAIN0
  6
CONTINUOUS
 62
3
100
AcDbLine
 10
363.0156013903569
 20
525.4135134838143
 30
0.0000000000000000
 11
361.0156013903568
 21
524.2588129454350
 31
0.0000000000000000
  0
LINE
  5
351
100
AcDbEntity
  8
MAIN0
  6
CONTINUOUS
 62
3
100
AcDbLine
 10
361.0156013903567
 20
524.2588129454350
 30
0.0000000000000000
 11
361.0156013903567
 21
521.9494118686766
 31
0.0000000000000000
  0
LINE
  5
352
100
AcDbEntity
  8
MAIN0
  6
CONTINUOUS
 62
3
100
AcDbLine
 10
361.0156013903568
 20
521.9494118686765
 30
0.0000000000000000
 11
363.0156013903568
 21
520.7947113302973
 31
0.0000000000000000
  0
LINE
  5
353
100
AcDbEntity
  8
MAIN0
  6
CONTINUOUS
 62
3
100
AcDbLine
 10
363.0156013903568
 20
520.7947113302975
 30
0.0000000000000000
 11
365.0156013903568
 21
521.9494118686766
 31
0.0000000000000000
  0
LINE
  5
354
100
AcDbEntity
  8
MAIN0
  6
CENTER
 62
3
100
AcDbLine
 10
353.2204425199903
 20
523.1041124070661
 30
0.0000000000000000
 11
372.2657419515962
 21
523.1041124070463
 31
0.0000000000000000
  0
CIRCLE
  5
355
100
AcDbEntity
  8
MAIN0
  6
CONTINUOUS
 62
3
100
AcDbCircle
 10
363.0156013903567
 20
523.1041124070558
 30
0.0000000000000000
 40
3.323417500000000
  0
CIRCLE
  5
356
100
AcDbEntity
  8
MAIN0
  6
CONTINUOUS
 62
3
100
AcDbCircle
 10
363.0156013903567
 20
523.1041124070558
 30
0.0000000000000000
 40
4.000000000000000
  0
LINE
  5
357
100
AcDbEntity
  8
MAIN0
  6
CENTER
 62
3
100
AcDbLine
 10
403.0156013903747
 20
531.8016954844824
 30
0.0000000000000000
 11
403.0156013903390
 21
514.5702432763918
 31
0.0000000000000000
  0
LINE
  5
358
100
AcDbEntity
  8
MAIN0
  6
CENTER
 62
3
100
AcDbLine
 10
393.2204425199903
 20
523.1041124070659
 30
0.0000000000000000
 11
412.2657419515962
 21
523.1041124070463
 31
0.0000000000000000
  0
LINE
  5
359
100
AcDbEntity
  8
MAIN0
  6
CONTINUOUS
 62
3
100
AcDbLine
 10
405.0156013903567
 20
521.9494118686766
 30
0.0000000000000000
 11
405.0156013903567
 21
524.2588129454350
 31
0.0000000000000000
  0
LINE
  5
35A
100
AcDbEntity
  8
MAIN0
  6
CONTINUOUS
 62
3
100
AcDbLine
 10
405.0156013903567
 20
524.2588129454350
 30
0.0000000000000000
 11
403.0156013903567
 21
525.4135134838142
 31
0.0000000000000000
  0
LINE
  5
35B
100
AcDbEntity
  8
MAIN0
  6
CONTINUOUS
 62
3
100
AcDbLine
 10
403.0156013903569
 20
525.4135134838143
 30
0.0000000000000000
 11
401.0156013903568
 21
524.2588129454350
 31
0.0000000000000000
  0
LINE
  5
35C
100
AcDbEntity
  8
MAIN0
  6
CONTINUOUS
 62
3
100
AcDbLine
 10
401.0156013903567
 20
524.2588129454350
 30
0.0000000000000000
 11
401.0156013903567
 21
521.9494118686766
 31
0.0000000000000000
  0
LINE
  5
35D
100
AcDbEntity
  8
MAIN0
  6
CONTINUOUS
 62
3
100
AcDbLine
 10
401.0156013903567
 20
521.9494118686765
 30
0.0000000000000000
 11
403.0156013903567
 21
520.7947113302973
 31
0.0000000000000000
  0
LINE
  5
35E
100
AcDbEntity
  8
MAIN0
  6
CONTINUOUS
 62
3
100
AcDbLine
 10
403.0156013903569
 20
520.7947113302975
 30
0.0000000000000000
 11
405.0156013903569
 21
521.9494118686766
 31
0.0000000000000000
  0
LINE
  5
35F
100
AcDbEntity
  8
MAIN0
  6
CENTER
 62
3
100
AcDbLine
 10
393.2204425199903
 20
523.1041124070659
 30
0.0000000000000000
 11
412.2657419515962
 21
523.1041124070462
 31
0.0000000000000000
  0
CIRCLE
  5
360
100
AcDbEntity
  8
MAIN0
  6
CONTINUOUS
 62
3
100
AcDbCircle
 10
403.0156013903567
 20
523.1041124070558
 30
0.0000000000000000
 40
3.323417500000000
  0
CIRCLE
  5
361
100
AcDbEntity
  8
MAIN0
  6
CONTINUOUS
 62
3
100
AcDbCircle
 10
403.0156013903567
 20
523.1041124070558
 30
0.0000000000000000
 40
4.000000000000000
  0
LINE
  5
362
100
AcDbEntity
  8
MAIN0
  6
CENTER
 62
3
100
AcDbLine
 10
403.0156013902840
 20
444.4065293295257
 30
0.0000000000000000
 11
403.0156013902841
 21
461.6379815376162
 31
0.0000000000000000
  0
LINE
  5
363
100
AcDbEntity
  8
MAIN0
  6
CENTER
 62
3
100
AcDbLine
 10
393.2204425199176
 20
453.1041124069623
 30
0.0000000000000000
 11
412.2657419515235
 21
453.1041124069425
 31
0.0000000000000000
  0
LINE
  5
364
100
AcDbEntity
  8
MAIN0
  6
CONTINUOUS
 62
3
100
AcDbLine
 10
405.0156013902865
 20
454.2588129453272
 30
0.0000000000000000
 11
405.0156013902817
 21
451.9494118685688
 31
0.0000000000000000
  0
LINE
  5
365
100
AcDbEntity
  8
MAIN0
  6
CONTINUOUS
 62
3
100
AcDbLine
 10
405.0156013902817
 20
451.9494118685689
 30
0.0000000000000000
 11
403.0156013902792
 21
450.7947113301937
 31
0.0000000000000000
  0
LINE
  5
366
100
AcDbEntity
  8
MAIN0
  6
CONTINUOUS
 62
3
100
AcDbLine
 10
403.0156013902795
 20
450.7947113301939
 30
0.0000000000000000
 11
401.0156013902817
 21
451.9494118685773
 31
0.0000000000000000
  0
LINE
  5
367
100
AcDbEntity
  8
MAIN0
  6
CONTINUOUS
 62
3
100
AcDbLine
 10
401.0156013902817
 20
451.9494118685771
 30
0.0000000000000000
 11
401.0156013902865
 21
454.2588129453355
 31
0.0000000000000000
  0
LINE
  5
368
100
AcDbEntity
  8
MAIN0
  6
CONTINUOUS
 62
3
100
AcDbLine
 10
401.0156013902865
 20
454.2588129453356
 30
0.0000000000000000
 11
403.0156013902890
 21
455.4135134837107
 31
0.0000000000000000
  0
LINE
  5
369
100
AcDbEntity
  8
MAIN0
  6
CONTINUOUS
 62
3
100
AcDbLine
 10
403.0156013902891
 20
455.4135134837109
 30
0.0000000000000000
 11
405.0156013902867
 21
454.2588129453275
 31
0.0000000000000000
  0
LINE
  5
36A
100
AcDbEntity
  8
MAIN0
  6
CENTER
 62
3
100
AcDbLine
 10
393.2204425199178
 20
453.1041124069623
 30
0.0000000000000000
 11
412.2657419515236
 21
453.1041124069425
 31
0.0000000000000000
  0
CIRCLE
  5
36B
100
AcDbEntity
  8
MAIN0
  6
CONTINUOUS
 62
3
100
AcDbCircle
 10
403.0156013902841
 20
453.1041124069521
 30
0.0000000000000000
 40
3.323417500000000
  0
CIRCLE
  5
36C
100
AcDbEntity
  8
MAIN0
  6
CONTINUOUS
 62
3
100
AcDbCircle
 10
403.0156013902841
 20
453.1041124069521
 30
0.0000000000000000
 40
4.000000000000000
  0
LINE
  5
36D
100
AcDbEntity
  8
MAIN0
  6
CENTER
 62
3
100
AcDbLine
 10
363.0156013902840
 20
444.4065293295257
 30
0.0000000000000000
 11
363.0156013902841
 21
461.6379815376162
 31
0.0000000000000000
  0
LINE
  5
36E
100
AcDbEntity
  8
MAIN0
  6
CENTER
 62
3
100
AcDbLine
 10
353.2204425199176
 20
453.1041124069623
 30
0.0000000000000000
 11
372.2657419515235
 21
453.1041124069425
 31
0.0000000000000000
  0
LINE
  5
36F
100
AcDbEntity
  8
MAIN0
  6
CONTINUOUS
 62
3
100
AcDbLine
 10
365.0156013902865
 20
454.2588129453272
 30
0.0000000000000000
 11
365.0156013902817
 21
451.9494118685688
 31
0.0000000000000000
  0
LINE
  5
370
100
AcDbEntity
  8
MAIN0
  6
CONTINUOUS
 62
3
100
AcDbLine
 10
365.0156013902818
 20
451.9494118685688
 30
0.0000000000000000
 11
363.0156013902793
 21
450.7947113301937
 31
0.0000000000000000
  0
LINE
  5
371
100
AcDbEntity
  8
MAIN0
  6
CONTINUOUS
 62
3
100
AcDbLine
 10
363.0156013902795
 20
450.7947113301938
 30
0.0000000000000000
 11
361.0156013902818
 21
451.9494118685772
 31
0.0000000000000000
  0
LINE
  5
372
100
AcDbEntity
  8
MAIN0
  6
CONTINUOUS
 62
3
100
AcDbLine
 10
361.0156013902817
 20
451.9494118685771
 30
0.0000000000000000
 11
361.0156013902865
 21
454.2588129453355
 31
0.0000000000000000
  0
LINE
  5
373
100
AcDbEntity
  8
MAIN0
  6
CONTINUOUS
 62
3
100
AcDbLine
 10
361.0156013902865
 20
454.2588129453355
 30
0.0000000000000000
 11
363.0156013902890
 21
455.4135134837107
 31
0.0000000000000000
  0
LINE
  5
374
100
AcDbEntity
  8
MAIN0
  6
CONTINUOUS
 62
3
100
AcDbLine
 10
363.0156013902891
 20
455.4135134837108
 30
0.0000000000000000
 11
365.0156013902867
 21
454.2588129453274
 31
0.0000000000000000
  0
LINE
  5
375
100
AcDbEntity
  8
MAIN0
  6
CENTER
 62
3
100
AcDbLine
 10
353.2204425199178
 20
453.1041124069623
 30
0.0000000000000000
 11
372.2657419515236
 21
453.1041124069425
 31
0.0000000000000000
  0
CIRCLE
  5
376
100
AcDbEntity
  8
MAIN0
  6
CONTINUOUS
 62
3
100
AcDbCircle
 10
363.0156013902841
 20
453.1041124069521
 30
0.0000000000000000
 40
3.323417500000000
  0
CIRCLE
  5
377
100
AcDbEntity
  8
MAIN0
  6
CONTINUOUS
 62
3
100
AcDbCircle
 10
363.0156013902841
 20
453.1041124069521
 30
0.0000000000000000
 40
4.000000000000000
  0
CIRCLE
  5
378
100
AcDbEntity
  8
MAIN0
  6
CONTINUOUS
 62
3
100
AcDbCircle
 10
402.5156013903369
 20
469.6041124067608
 30
0.0000000000000000
 40
8.750000000000000
  0
CIRCLE
  5
379
100
AcDbEntity
  8
MAIN0
  6
CONTINUOUS
 62
3
100
AcDbCircle
 10
367.5156013903119
 20
469.6041124067733
 30
0.0000000000000000
 40
8.750000000000000
  0
CIRCLE
  5
37A
100
AcDbEntity
  8
MAIN0
  6
CONTINUOUS
 62
3
100
AcDbCircle
 10
367.5156013902878
 20
506.6041124068819
 30
0.0000000000000000
 40
8.750000000000000
  0
CIRCLE
  5
37B
100
AcDbEntity
  8
MAIN0
  6
CONTINUOUS
 62
3
100
AcDbCircle
 10
402.5156013903369
 20
506.6041124068582
 30
0.0000000000000000
 40
8.750000000000000
  0
CIRCLE
  5
37C
100
AcDbEntity
  8
MAIN0
  6
CONTINUOUS
 62
3
100
AcDbCircle
 10
273.5156013903377
 20
526.1041124074407
 30
0.0000000000000000
 40
8.750000000000000
  0
CIRCLE
  5
37D
100
AcDbEntity
  8
MAIN0
  6
CONTINUOUS
 62
3
100
AcDbCircle
 10
229.5156013903049
 20
526.1041124074043
 30
0.0000000000000000
 40
8.750000000000000
  0
CIRCLE
  5
37E
100
AcDbEntity
  8
MAIN0
  6
CONTINUOUS
 62
3
100
AcDbCircle
 10
229.5156013903289
 20
450.1041124074737
 30
0.0000000000000000
 40
8.750000000000000
  0
CIRCLE
  5
37F
100
AcDbEntity
  8
MAIN0
  6
CONTINUOUS
 62
3
100
AcDbCircle
 10
273.5156013903463
 20
450.1041124075226
 30
0.0000000000000000
 40
8.750000000000000
  0
DIMENSION
  5
38A
100
AcDbEntity
  8
MAIN0
  6
CONTINUOUS
 62
3
100
AcDbDimension
  2
*D43
 10
353.0156013903567
 20
418.1703881520465
 30
0.0000000000000000
 11
358.0156013903204
 21
418.6703881520465
 31
0.0000000000000000
 70
32
  3
MAIN001
100
AcDbAlignedDimension
 13
363.0156013902840
 23
444.4065293295257
 33
0.0000000000000000
 14
353.0156013903567
 24
438.6041124070493
 34
0.0000000000000000
100
AcDbRotatedDimension
1001
ACAD
1000
DSTYLE
1002
{
1070
   173
1070
     1
1070
     6
1000
_OPEN
1070
     7
1000
_OPEN
1070
    41
1040
4.000000
1070
   287
1070
     0
1002
}
  0
DIMENSION
  5
393
100
AcDbEntity
  8
MAIN0
  6
CONTINUOUS
 62
3
100
AcDbDimension
  2
*D44
 10
363.0156013902840
 20
418.1703881520465
 30
0.0000000000000000
 11
379.1589182301161
 21
419.1703881520465
 31
0.0000000000000000
 70
160
  3
MAIN001
100
AcDbAlignedDimension
 13
403.0156013902840
 23
444.4065293295257
 33
0.0000000000000000
 14
363.0156013902840
 24
444.4065293295257
 34
0.0000000000000000
100
AcDbRotatedDimension
1001
ACAD
1000
DSTYLE
1002
{
1070
   173
1070
     1
1070
     6
1000
_OPEN
1070
     7
1000
_OPEN
1070
    41
1040
4.000000
1002
}
  0
DIMENSION
  5
39C
100
AcDbEntity
  8
MAIN0
  6
CONTINUOUS
 62
3
100
AcDbDimension
  2
*D45
 10
228.0156013902973
 20
418.1703881520465
 30
0.0000000000000000
 11
257.3597382357155
 21
419.1703881520465
 31
0.0000000000000000
 70
160
  3
MAIN001
100
AcDbAlignedDimension
 13
278.0156013902973
 23
459.5702432765737
 33
0.0000000000000000
 14
228.0156013902973
 24
459.5702432765737
 34
0.0000000000000000
100
AcDbRotatedDimension
1001
ACAD
1000
DSTYLE
1002
{
1070
   173
1070
     1
1070
     6
1000
_OPEN
1070
     7
1000
_OPEN
1070
    41
1040
4.000000
1002
}
  0
DIMENSION
  5
3A7
100
AcDbEntity
  8
MAIN0
  6
CONTINUOUS
 62
3
100
AcDbDimension
  2
*D46
 10
278.0156013902973
 20
418.1703881520465
 30
0.0000000000000000
 11
283.0156013903268
 21
418.6703881520465
 31
0.0000000000000000
 70
32
  3
MAIN001
100
AcDbAlignedDimension
 13
288.0156013903563
 23
438.6041124071986
 33
0.0000000000000000
 14
278.0156013902973
 24
459.5702432765737
 34
0.0000000000000000
100
AcDbRotatedDimension
1001
ACAD
1000
DSTYLE
1002
{
1070
   173
1070
     1
1070
     6
1000
_OPEN
1070
     7
1000
_OPEN
1070
    41
1040
4.000000
1070
   287
1070
     0
1002
}
  0
DIMENSION
  5
3B0
100
AcDbEntity
  8
MAIN0
  6
CONTINUOUS
 62
3
100
AcDbDimension
  2
*D47
 10
200.0424758617526
 20
468.1041124072477
 30
0.0000000000000000
 11
199.5424758617526
 21
488.1041124071958
 31
0.0000000000000000
 70
32
  3
MAIN001
100
AcDbAlignedDimension
 13
218.2204425199902
 23
508.1041124071438
 33
0.0000000000000000
 14
218.2204425199487
 24
468.1041124072477
 34
0.0000000000000000
 50
90.00000000000000
100
AcDbRotatedDimension
1001
ACAD
1000
DSTYLE
1002
{
1070
   173
1070
     1
1070
     6
1000
_OPEN
1070
     7
1000
_OPEN
1070
    41
1040
4.000000
1002
}
  0
DIMENSION
  5
3B9
100
AcDbEntity
  8
MAIN0
  6
CONTINUOUS
 62
3
100
AcDbDimension
  2
*D48
 10
445.0737682599931
 20
453.1041124069426
 30
0.0000000000000000
 11
444.5737682599931
 21
488.1041124069944
 31
0.0000000000000000
 70
32
  3
MAIN001
100
AcDbAlignedDimension
 13
412.2657419515962
 23
523.1041124070463
 33
0.0000000000000000
 14
412.2657419515235
 24
453.1041124069426
 34
0.0000000000000000
 50
90.00000000000000
100
AcDbRotatedDimension
1001
ACAD
1000
DSTYLE
1002
{
1070
   173
1070
     1
1070
     6
1000
_OPEN
1070
     7
1000
_OPEN
1070
    41
1040
4.000000
1002
}
  0
LINE
  5
3BA
100
AcDbEntity
  8
MAIN0
  6
CENTER
 62
3
100
AcDbLine
 10
203.4282014479945
 20
488.1041124072111
 30
0.0000000000000000
 11
434.8737684507279
 21
488.1041124069709
 31
0.0000000000000000
  0
LINE
  5
3BB
100
AcDbEntity
  8
MAIN0
  6
CENTER
 62
3
100
AcDbLine
 10
447.0737682599931
 20
488.1041124069582
 30
0.0000000000000000
 11
575.1750784980004
 21
488.1041124068253
 31
0.0000000000000000
  0
LEADER
  5
3BC
100
AcDbEntity
  8
MAIN0
  6
CONTINUOUS
 62
3
100
AcDbLeader
  3
MAIN001
 73
     0
 75
     1
 40
6.199999809265137
 41
66.19900195503234
 76
     3
 10
224.8897553208178
 20
465.0314689446905
 30
0.0000000000000000
 10
194.0729390512405
 20
425.6594133359093
 30
0.0000000000000000
 10
190.2199391628204
 20
425.6594133359093
 30
0.0000000000000000
340
3BD
213
0.0000000000000000
223
-1.000000000000000
233
0.0000000000000000
1001
ACAD
1000
DSTYLE
1002
{
1070
   147
1040
0.0
1070
    77
1070
     1
1070
   173
1070
     1
1070
     6
1000
_OPEN
1070
     7
1000
_OPEN
1002
}
  0
MTEXT
  5
3BD
102
{ACAD_REACTORS
330
3BC
102
}
100
AcDbEntity
  8
MAIN0
  6
CONTINUOUS
 62
3
100
AcDbMText
 10
124.0209372077881
 20
432.8594131451745
 30
0.0000000000000000
 40
6.199999809265137
 41
0.0000000000000000
 71
     1
 72
     1
  1
{\H0.93x;{2×2-M8 深さ16\P       DEPTH}}
 11
1.000000000000000
 21
0.0000000000000000
 31
0.0000000000000000
  7
KNJYOKO
  0
DIMENSION
  5
3C6
100
AcDbEntity
  8
MAIN0
  6
CONTINUOUS
 62
3
100
AcDbDimension
  2
*D49
 10
251.5156013904495
 20
404.9157684652744
 30
0.0000000000000000
 11
269.7656013904029
 21
405.4157684652744
 31
0.0000000000000000
 70
32
  3
MAIN001
100
AcDbAlignedDimension
 13
288.0156013903563
 23
438.6041124071986
 33
0.0000000000000000
 14
251.5156013904495
 24
480.1041124071987
 34
0.0000000000000000
100
AcDbRotatedDimension
1001
ACAD
1000
DSTYLE
1002
{
1070
   173
1070
     1
1070
     6
1000
_OPEN
1070
     7
1000
_OPEN
1070
    41
1040
4.000000
1002
}
  0
ELLIPSE
  5
3C7
100
AcDbEntity
  8
MAIN0
  6
CONTINUOUS
 62
3
100
AcDbEllipse
 10
612.0233160053939
 20
311.3987604142826
 30
0.0000000000000000
 11
-2.050000000000000
 21
0.0000000000000000
 31
0.0000000000000000
210
0.0000000000000000
220
0.0000000000000000
230
1.000000000000000
 40
0.8536585365853660
 41
0.0000000000000000
 42
6.283185307179586
  0
LINE
  5
3C8
100
AcDbEntity
  8
MAIN0
  6
CONTINUOUS
 62
3
100
AcDbLine
 10
641.0233160053788
 20
492.3987604142766
 30
0.0000000000000000
 11
641.0233160053964
 21
325.9860618437582
 31
0.0000000000000000
  0
LINE
  5
3C9
100
AcDbEntity
  8
MAIN0
  6
CONTINUOUS
 62
3
100
AcDbLine
 10
649.0233160053803
 20
478.3987604142766
 30
0.0000000000000000
 11
649.0233160053995
 21
296.3987604142770
 31
0.0000000000000000
  0
LINE
  5
3CA
100
AcDbEntity
  8
MAIN0
  6
CONTINUOUS
 62
3
100
AcDbLine
 10
655.0233160053789
 20
492.3987604142770
 30
0.0000000000000000
 11
655.0233160053798
 21
483.3987604142770
 31
0.0000000000000000
  0
LINE
  5
3CB
100
AcDbEntity
  8
MAIN0
  6
CONTINUOUS
 62
3
100
AcDbLine
 10
652.5233160053787
 20
494.8987604142769
 30
0.0000000000000000
 11
643.5233160053787
 21
494.8987604142769
 31
0.0000000000000000
  0
LINE
  5
3CC
100
AcDbEntity
  8
MAIN0
  6
CONTINUOUS
 62
3
100
AcDbLine
 10
652.5233160053796
 20
480.8987604142769
 30
0.0000000000000000
 11
651.5233160053803
 21
480.8987604142769
 31
0.0000000000000000
  0
LINE
  5
3CD
100
AcDbEntity
  8
MAIN0
  6
CONTINUOUS
 62
3
100
AcDbLine
 10
619.0233160053989
 20
300.8987604142768
 30
0.0000000000000000
 11
604.6233160053988
 21
300.8987604142768
 31
0.0000000000000000
  0
LINE
  5
3CE
100
AcDbEntity
  8
MAIN0
  6
CONTINUOUS
 62
3
100
AcDbLine
 10
628.0233160053991
 20
297.8987604142768
 30
0.0000000000000000
 11
619.0233160053991
 21
297.8987604142768
 31
0.0000000000000000
  0
LINE
  5
3CF
100
AcDbEntity
  8
MAIN0
  6
CONTINUOUS
 62
3
100
AcDbLine
 10
619.0233160053980
 20
307.8987604142768
 30
0.0000000000000000
 11
619.0233160053991
 21
297.8987604142768
 31
0.0000000000000000
  0
LINE
  5
3D0
100
AcDbEntity
  8
MAIN0
  6
CONTINUOUS
 62
3
100
AcDbLine
 10
604.0233160053981
 20
307.8987604142769
 30
0.0000000000000000
 11
604.0233160053988
 21
301.4987604142770
 31
0.0000000000000000
  0
LINE
  5
3D1
100
AcDbEntity
  8
MAIN0
  6
CONTINUOUS
 62
3
100
AcDbLine
 10
646.5233160053994
 20
293.8987604142769
 30
0.0000000000000000
 11
642.9515192356672
 21
293.8987604142769
 31
0.0000000000000000
  0
LINE
  5
3D2
100
AcDbEntity
  8
MAIN0
  6
CONTINUOUS
 62
3
100
AcDbLine
 10
628.0233160053980
 20
307.8987604142766
 30
0.0000000000000000
 11
628.0233160053991
 21
297.8987604142766
 31
0.0000000000000000
  0
LINE
  5
3D3
100
AcDbEntity
  8
MAIN0
  6
CONTINUOUS
 62
3
100
AcDbLine
 10
604.0233160053989
 20
301.4987604142771
 30
0.0000000000000000
 11
604.6233160053990
 21
300.8987604142770
 31
0.0000000000000000
  0
LINE
  5
3D4
100
AcDbEntity
  8
MAIN0
  6
CONTINUOUS
 62
3
100
AcDbLine
 10
628.0233160053992
 20
297.8987604142729
 30
0.0000000000000000
 11
642.6336028668798
 21
293.9839458485541
 31
0.0000000000000000
  0
LINE
  5
3D5
100
AcDbEntity
  8
MAIN0
  6
CONTINUOUS
 62
3
100
AcDbLine
 10
604.0233160053981
 20
307.8987604142767
 30
0.0000000000000000
 11
619.0233160053981
 21
307.8987604142768
 31
0.0000000000000000
  0
LINE
  5
3D6
100
AcDbEntity
  8
MAIN0
  6
CONTINUOUS
 62
3
100
AcDbLine
 10
619.0233160053989
 20
314.8987604142768
 30
0.0000000000000000
 11
604.6233160053988
 21
314.8987604142768
 31
0.0000000000000000
  0
LINE
  5
3D7
100
AcDbEntity
  8
MAIN0
  6
CONTINUOUS
 62
3
100
AcDbLine
 10
628.0233160053991
 20
317.8987604142768
 30
0.0000000000000000
 11
619.0233160053991
 21
317.8987604142768
 31
0.0000000000000000
  0
LINE
  5
3D8
100
AcDbEntity
  8
MAIN0
  6
CONTINUOUS
 62
3
100
AcDbLine
 10
619.0233160053981
 20
307.8987604142769
 30
0.0000000000000000
 11
619.0233160053991
 21
317.8987604142769
 31
0.0000000000000000
  0
LINE
  5
3D9
100
AcDbEntity
  8
MAIN0
  6
CONTINUOUS
 62
3
100
AcDbLine
 10
604.0233160053981
 20
307.8987604142769
 30
0.0000000000000000
 11
604.0233160053988
 21
314.2987604142770
 31
0.0000000000000000
  0
LINE
  5
3DA
100
AcDbEntity
  8
MAIN0
  6
CONTINUOUS
 62
3
100
AcDbLine
 10
628.0233160053981
 20
307.8987604142769
 30
0.0000000000000000
 11
628.0233160053991
 21
317.8987604142769
 31
0.0000000000000000
  0
LINE
  5
3DB
100
AcDbEntity
  8
MAIN0
  6
CONTINUOUS
 62
3
100
AcDbLine
 10
604.0233160053990
 20
314.2987604142766
 30
0.0000000000000000
 11
604.6233160053990
 21
314.8987604142766
 31
0.0000000000000000
  0
LINE
  5
3DC
100
AcDbEntity
  8
MAIN0
  6
CONTINUOUS
 62
3
100
AcDbLine
 10
628.0233160053995
 20
317.8987604142811
 30
0.0000000000000000
 11
636.5762302760110
 21
320.1905068860229
 31
0.0000000000000000
  0
ARC
  5
3DD
100
AcDbEntity
  8
MAIN0
  6
CONTINUOUS
 62
3
100
AcDbCircle
 10
635.0233160053963
 20
325.9860618437572
 30
0.0000000000000000
 40
6.000000000000000
100
AcDbArc
 50
284.9999999999930
 51
360.0000000000001
  0
ARC
  5
3DE
100
AcDbEntity
  8
MAIN0
  6
CONTINUOUS
 62
3
100
AcDbCircle
 10
646.5233160053995
 20
296.3987604142769
 30
0.0000000000000000
 40
2.500000000000000
100
AcDbArc
 50
270.0000000000001
 51
360.0000000000001
  0
ARC
  5
3DF
100
AcDbEntity
  8
MAIN0
  6
CONTINUOUS
 62
3
100
AcDbCircle
 10
643.2806504796356
 20
296.3987604142769
 30
0.0000000000000000
 40
2.500000000000000
100
AcDbArc
 50
255.0000000000070
 51
270.0000000000001
  0
ARC
  5
3E0
100
AcDbEntity
  8
MAIN0
  6
CONTINUOUS
 62
3
100
AcDbCircle
 10
643.5233160053788
 20
492.3987604142769
 30
0.0000000000000000
 40
2.500000000000000
100
AcDbArc
 50
90.00000000000007
 51
180.0000000000001
  0
ARC
  5
3E1
100
AcDbEntity
  8
MAIN0
  6
CONTINUOUS
 62
3
100
AcDbCircle
 10
651.5233160053801
 20
478.3987604142769
 30
0.0000000000000000
 40
2.500000000000000
100
AcDbArc
 50
90.00000000000007
 51
180.0000000000001
  0
ARC
  5
3E2
100
AcDbEntity
  8
MAIN0
  6
CONTINUOUS
 62
3
100
AcDbCircle
 10
643.5233160053788
 20
492.3987604142769
 30
0.0000000000000000
 40
2.500000000000000
100
AcDbArc
 50
90.00000000000007
 51
180.0000000000001
  0
ARC
  5
3E3
100
AcDbEntity
  8
MAIN0
  6
CONTINUOUS
 62
3
100
AcDbCircle
 10
651.5233160053804
 20
478.3987604142769
 30
0.0000000000000000
 40
2.500000000000000
100
AcDbArc
 50
90.00000000000007
 51
180.0000000000001
  0
ARC
  5
3E4
100
AcDbEntity
  8
MAIN0
  6
CONTINUOUS
 62
3
100
AcDbCircle
 10
652.5233160053788
 20
492.3987604142769
 30
0.0000000000000000
 40
2.500000000000000
100
AcDbArc
 50
7.633331235512440e-014
 51
90.00000000000007
  0
ARC
  5
3E5
100
AcDbEntity
  8
MAIN0
  6
CONTINUOUS
 62
3
100
AcDbCircle
 10
652.5233160053797
 20
483.3987604142769
 30
0.0000000000000000
 40
2.500000000000000
100
AcDbArc
 50
270.0000000000001
 51
360.0000000000001
  0
LINE
  5
3E6
100
AcDbEntity
  8
MAIN1
  6
CONTINUOUS
 62
7
100
AcDbLine
 10
655.5233160053793
 20
480.8987604142769
 30
0.0000000000000000
 11
655.5233160053793
 21
482.9997809287106
 31
0.0000000000000000
  0
LINE
  5
3E7
100
AcDbEntity
  8
MAIN1
  6
CONTINUOUS
 62
7
100
AcDbLine
 10
655.0233160053793
 20
481.3987604142769
 30
0.0000000000000000
 11
655.0233160053793
 21
494.3987604142769
 31
0.0000000000000000
  0
LINE
  5
3E8
100
AcDbEntity
  8
MAIN1
  6
CONTINUOUS
 62
7
100
AcDbLine
 10
655.5233160053793
 20
480.8987604142769
 30
0.0000000000000000
 11
662.5233160053793
 21
480.8987604142769
 31
0.0000000000000000
  0
LINE
  5
3E9
100
AcDbEntity
  8
MAIN1
  6
CONTINUOUS
 62
7
100
AcDbLine
 10
655.5233160053792
 20
494.8987604142770
 30
0.0000000000000000
 11
662.5233160053792
 21
494.8987604142771
 31
0.0000000000000000
  0
LINE
  5
3EA
100
AcDbEntity
  8
MAIN1
  6
CONTINUOUS
 62
7
100
AcDbLine
 10
655.0233160053793
 20
481.3987604142769
 30
0.0000000000000000
 11
655.5233160053793
 21
480.8987604142770
 31
0.0000000000000000
  0
LINE
  5
3EB
100
AcDbEntity
  8
MAIN1
  6
CONTINUOUS
 62
7
100
AcDbLine
 10
662.5233160053796
 20
480.8987604142772
 30
0.0000000000000000
 11
663.0233160053796
 21
481.3987604142769
 31
0.0000000000000000
  0
LINE
  5
3EC
100
AcDbEntity
  8
MAIN1
  6
CONTINUOUS
 62
7
100
AcDbLine
 10
662.5233160053792
 20
494.8987604142771
 30
0.0000000000000000
 11
663.0233160053792
 21
494.3987604142772
 31
0.0000000000000000
  0
LINE
  5
3ED
100
AcDbEntity
  8
MAIN1
  6
CONTINUOUS
 62
7
100
AcDbLine
 10
655.5233160053793
 20
494.8987604142770
 30
0.0000000000000000
 11
655.0233160053792
 21
494.3987604142769
 31
0.0000000000000000
  0
LINE
  5
3EE
100
AcDbEntity
  8
MAIN1
  6
CONTINUOUS
 62
7
100
AcDbLine
 10
655.0233160053793
 20
492.7977398998432
 30
0.0000000000000000
 11
661.0233160053793
 21
492.7977398998432
 31
0.0000000000000000
  0
LINE
  5
3EF
100
AcDbEntity
  8
MAIN1
  6
CONTINUOUS
 62
7
100
AcDbLine
 10
655.0233160053793
 20
482.9997809287106
 30
0.0000000000000000
 11
661.0233160053793
 21
482.9997809287106
 31
0.0000000000000000
  0
LINE
  5
3F0
100
AcDbEntity
  8
MAIN1
  6
CONTINUOUS
 62
7
100
AcDbLine
 10
655.5233160053793
 20
492.7977398998432
 30
0.0000000000000000
 11
655.5233160053793
 21
494.8987604142769
 31
0.0000000000000000
  0
LINE
  5
3F1
100
AcDbEntity
  8
MAIN1
  6
CONTINUOUS
 62
7
100
AcDbLine
 10
662.5233160053793
 20
480.8987604142769
 30
0.0000000000000000
 11
662.5233160053793
 21
494.8987604142769
 31
0.0000000000000000
  0
LINE
  5
3F2
100
AcDbEntity
  8
MAIN1
  6
CONTINUOUS
 62
7
100
AcDbLine
 10
663.0233160053793
 20
494.3851820696262
 30
0.0000000000000000
 11
663.0233160053793
 21
481.4123387589275
 31
0.0000000000000000
  0
LINE
  5
3F3
100
AcDbEntity
  8
MAIN1
  6
CONTINUOUS
 62
7
100
AcDbLine
 10
717.3482091675560
 20
478.8987604142767
 30
0.0000000000000000
 11
681.0233160053793
 21
478.8987604142767
 31
0.0000000000000000
  0
LINE
  5
3F4
100
AcDbEntity
  8
MAIN1
  6
CONTINUOUS
 62
7
100
AcDbLine
 10
717.3482091675560
 20
496.8987604142770
 30
0.0000000000000000
 11
681.0233160053793
 21
496.8987604142770
 31
0.0000000000000000
  0
LINE
  5
3F5
100
AcDbEntity
  8
MAIN1
  6
CONTINUOUS
 62
7
100
AcDbLine
 10
664.5345639739833
 20
479.8148021937990
 30
0.0000000000000000
 11
681.0233160053792
 21
478.8987604142769
 31
0.0000000000000000
  0
LINE
  5
3F6
100
AcDbEntity
  8
MAIN1
  6
CONTINUOUS
 62
7
100
AcDbLine
 10
681.0233160053795
 20
496.8987604142769
 30
0.0000000000000000
 11
664.5345639739835
 21
495.9827186347546
 31
0.0000000000000000
  0
ARC
  5
3F7
100
AcDbEntity
  8
MAIN1
  6
CONTINUOUS
 62
7
100
AcDbCircle
 10
691.0233160053793
 20
487.8987604142769
 30
0.0000000000000000
 40
30.00000000000000
100
AcDbArc
 50
347.1604115930955
 51
372.8395884069045
  0
ARC
  5
3F8
100
AcDbEntity
  8
MAIN1
  6
CONTINUOUS
 62
7
100
AcDbCircle
 10
717.3482091675560
 20
481.8987604142767
 30
0.0000000000000000
 40
3.000000000000000
100
AcDbArc
 50
270.0000000000000
 51
347.1604115930957
  0
ARC
  5
3F9
100
AcDbEntity
  8
MAIN1
  6
CONTINUOUS
 62
7
100
AcDbCircle
 10
717.3482091675560
 20
493.8987604142770
 30
0.0000000000000000
 40
3.000000000000000
100
AcDbArc
 50
12.83958840690469
 51
89.99999999999946
  0
ARC
  5
3FA
100
AcDbEntity
  8
MAIN1
  6
CONTINUOUS
 62
7
100
AcDbCircle
 10
664.6233160053794
 20
481.4123387589275
 30
0.0000000000000000
 40
1.600000000000000
100
AcDbArc
 50
180.0000000000000
 51
266.8201698801350
  0
ARC
  5
3FB
100
AcDbEntity
  8
MAIN1
  6
CONTINUOUS
 62
7
100
AcDbCircle
 10
664.6233160053794
 20
494.3851820696262
 30
0.0000000000000000
 40
1.600000000000000
100
AcDbArc
 50
93.17983011986493
 51
179.9999999999999
  0
LINE
  5
3FC
100
AcDbEntity
  8
MAIN1
  6
CONTINUOUS
 62
7
100
AcDbLine
 10
661.0233160053793
 20
482.9997809287106
 30
0.0000000000000000
 11
661.0233160053793
 21
492.7977398998432
 31
0.0000000000000000
  0
LINE
  5
3FD
100
AcDbEntity
  8
MAIN3
  6
CONTINUOUS
 62
3
100
AcDbLine
 10
655.0233160053795
 20
482.9997809287108
 30
0.0000000000000000
 11
661.0233160053795
 21
492.7977398998436
 31
0.0000000000000000
  0
LINE
  5
3FE
100
AcDbEntity
  8
MAIN3
  6
CONTINUOUS
 62
3
100
AcDbLine
 10
655.0233160053796
 20
492.7977398998435
 30
0.0000000000000000
 11
661.0233160053796
 21
482.9997809287107
 31
0.0000000000000000
  0
LINE
  5
3FF
100
AcDbEntity
  8
MAIN1
  6
CONTINUOUS
 62
7
100
AcDbLine
 10
681.0233160053793
 20
496.8987604142770
 30
0.0000000000000000
 11
681.0233160053793
 21
478.8987604142767
 31
0.0000000000000000
  0
LINE
  5
400
100
AcDbEntity
  8
MAIN0
  6
CONTINUOUS
 62
3
100
AcDbLine
 10
617.0498980099018
 20
242.3987604143241
 30
0.0000000000000000
 11
617.0498980099028
 21
253.1987604143241
 31
0.0000000000000000
  0
LINE
  5
401
100
AcDbEntity
  8
MAIN0
  6
CONTINUOUS
 62
3
100
AcDbLine
 10
617.0498980099028
 20
253.1987604143241
 30
0.0000000000000000
 11
599.0498980099028
 21
253.1987604143258
 31
0.0000000000000000
  0
LINE
  5
402
100
AcDbEntity
  8
MAIN0
  6
CONTINUOUS
 62
3
100
AcDbLine
 10
614.9714370408200
 20
254.3987604143242
 30
0.0000000000000000
 11
601.1283589789854
 21
254.3987604143256
 31
0.0000000000000000
  0
LINE
  5
403
100
AcDbEntity
  8
MAIN0
  6
CONTINUOUS
 62
3
100
AcDbLine
 10
617.0498980099030
 20
253.1987604143241
 30
0.0000000000000000
 11
614.9714370408203
 21
254.3987604143243
 31
0.0000000000000000
  0
LINE
  5
404
100
AcDbEntity
  8
MAIN0
  6
CONTINUOUS
 62
3
100
AcDbLine
 10
601.1283589789856
 20
254.3987604143255
 30
0.0000000000000000
 11
599.0498980099027
 21
253.1987604143257
 31
0.0000000000000000
  0
LINE
  5
405
100
AcDbEntity
  8
MAIN0
  6
CONTINUOUS
 62
3
100
AcDbLine
 10
599.0498980099028
 20
253.1987604143258
 30
0.0000000000000000
 11
599.0498980099018
 21
242.3987604143258
 31
0.0000000000000000
  0
LINE
  5
406
100
AcDbEntity
  8
MAIN0
  6
CONTINUOUS
 62
3
100
AcDbLine
 10
614.0498980098917
 20
214.8987604144369
 30
0.0000000000000000
 11
614.0498980098912
 21
210.2428502234537
 31
0.0000000000000000
  0
LINE
  5
407
100
AcDbEntity
  8
MAIN0
  6
CONTINUOUS
 62
3
100
AcDbLine
 10
613.1026825098916
 20
214.8987604144368
 30
0.0000000000000000
 11
613.1026825098911
 21
210.2428502234537
 31
0.0000000000000000
  0
LINE
  5
408
100
AcDbEntity
  8
MAIN0
  6
CONTINUOUS
 62
3
100
AcDbLine
 10
602.9971135098916
 20
214.8987604144368
 30
0.0000000000000000
 11
602.9971135098912
 21
210.2428502234537
 31
0.0000000000000000
  0
LINE
  5
409
100
AcDbEntity
  8
MAIN0
  6
CONTINUOUS
 62
3
100
AcDbLine
 10
602.0498980098912
 20
210.2428502234537
 30
0.0000000000000000
 11
602.0498980098917
 21
214.8987604144368
 31
0.0000000000000000
  0
CIRCLE
  5
40A
100
AcDbEntity
  8
MAIN0
  6
CONTINUOUS
 62
3
100
AcDbCircle
 10
690.1571123491821
 20
141.6396660268628
 30
0.0000000000000000
 40
5.100000000000000
  0
CIRCLE
  5
40B
100
AcDbEntity
  8
MAIN0
  6
CONTINUOUS
 62
3
100
AcDbCircle
 10
690.1571123491821
 20
141.6396660268628
 30
0.0000000000000000
 40
6.000000000000000
  0
LINE
  5
40C
100
AcDbEntity
  8
MAIN0
  6
CENTER
 62
3
100
AcDbLine
 10
507.5233160053986
 20
257.8987604141852
 30
0.0000000000000000
 11
581.4166832753283
 21
257.8987604143193
 31
0.0000000000000000
  0
LINE
  5
40D
100
AcDbEntity
  8
MAIN0
  6
CENTER
 62
3
100
AcDbLine
 10
581.4166832754851
 20
307.8987604142767
 30
0.0000000000000000
 11
653.8352146202851
 21
307.8987604142767
 31
0.0000000000000000
  0
LINE
  5
40E
100
AcDbEntity
  8
MAIN0
  6
CENTER
 62
3
100
AcDbLine
 10
634.8640654308990
 20
487.8987604142767
 30
0.0000000000000000
 11
737.1737716621229
 21
487.8987604142767
 31
0.0000000000000000
  0
DIMENSION
  5
417
100
AcDbEntity
  8
MAIN0
  6
CONTINUOUS
 62
3
100
AcDbDimension
  2
*D50
 10
181.4282014479945
 20
329.8987604151575
 30
0.0000000000000000
 11
180.9282014479945
 21
272.3987604151578
 31
0.0000000000000000
 70
32
  3
MAIN001
100
AcDbAlignedDimension
 13
213.8282014479946
 23
214.8987604151580
 33
0.0000000000000000
 14
214.6282014479939
 24
329.8987604151575
 34
0.0000000000000000
 50
90.00000000000000
100
AcDbRotatedDimension
1001
ACAD
1000
DSTYLE
1002
{
1070
   173
1070
     1
1070
     6
1000
_OPEN
1070
     7
1000
_OPEN
1070
    41
1040
4.000000
1002
}
  0
DIMENSION
  5
422
100
AcDbEntity
  8
MAIN0
  6
CONTINUOUS
 62
3
100
AcDbDimension
  2
*D51
 10
318.9282014479941
 20
191.8987604145634
 30
0.0000000000000000
 11
309.0498452675947
 21
192.8987604145634
 31
0.0000000000000000
 70
160
  3
MAIN001
100
AcDbAlignedDimension
 13
332.9282014479941
 23
210.8987604151864
 33
0.0000000000000000
 14
318.9282014479941
 24
210.8987604151862
 34
0.0000000000000000
100
AcDbRotatedDimension
1001
ACAD
1000
DSTYLE
1002
{
1070
   173
1070
     1
1070
     6
1000
_OPEN
1070
     7
1000
_OPEN
1070
    41
1040
4.000000
1070
   287
1070
     0
1002
}
  0
DIMENSION
  5
42B
100
AcDbEntity
  8
MAIN0
  6
CONTINUOUS
 62
3
100
AcDbDimension
  2
*D52
 10
213.4282014479945
 20
146.8987604145634
 30
0.0000000000000000
 11
265.9469778553897
 21
147.6487604145634
 31
0.0000000000000000
 70
160
  3
MAIN001
100
AcDbAlignedDimension
 13
325.9282014479941
 23
206.8987604151580
 33
0.0000000000000000
 14
213.4282014479945
 24
215.2987604151581
 34
0.0000000000000000
100
AcDbRotatedDimension
1001
ACAD
1000
DSTYLE
1002
{
1070
   173
1070
     1
1070
     6
1000
_OPEN
1070
     7
1000
_OPEN
1070
    41
1040
4.000000
1002
}
  0
DIMENSION
  5
434
100
AcDbEntity
  8
MAIN0
  6
CONTINUOUS
 62
3
100
AcDbDimension
  2
*D53
 10
325.9282014479938
 20
146.8987604145634
 30
0.0000000000000000
 11
429.6705057136962
 21
147.6487604145634
 31
0.0000000000000000
 70
160
  3
MAIN001
100
AcDbAlignedDimension
 13
568.4282014479943
 23
232.8987604141989
 33
0.0000000000000000
 14
325.9282014479941
 24
206.8987604151580
 34
0.0000000000000000
100
AcDbRotatedDimension
1001
ACAD
1000
DSTYLE
1002
{
1070
   173
1070
     1
1070
     6
1000
_OPEN
1070
     7
1000
_OPEN
1070
    41
1040
4.000000
1002
}
  0
DIMENSION
  5
43D
100
AcDbEntity
  8
MAIN0
  6
CONTINUOUS
 62
3
100
AcDbDimension
  2
*D54
 10
568.4282014479945
 20
131.8987604145634
 30
0.0000000000000000
 11
400.0961709335509
 21
132.6487604145634
 31
0.0000000000000000
 70
160
  3
MAIN001
100
AcDbAlignedDimension
 13
213.4282014479945
 23
215.2987604151581
 33
0.0000000000000000
 14
568.4282014479943
 24
232.8987604141989
 34
0.0000000000000000
100
AcDbRotatedDimension
1001
ACAD
1000
DSTYLE
1002
{
1070
   173
1070
     1
1070
     6
1000
_OPEN
1070
     7
1000
_OPEN
1070
    41
1040
4.000000
1002
}
  0
DIMENSION
  5
446
100
AcDbEntity
  8
MAIN0
  6
CONTINUOUS
 62
3
100
AcDbDimension
  2
*D55
 10
587.6085602647037
 20
487.8987604142767
 30
0.0000000000000000
 11
587.1085602647037
 21
397.8987604142767
 31
0.0000000000000000
 70
32
  3
MAIN001
100
AcDbAlignedDimension
 13
590.1756408935795
 23
307.8987604142767
 33
0.0000000000000000
 14
634.8640654308990
 24
487.8987604142767
 34
0.0000000000000000
 50
90.00000000000000
100
AcDbRotatedDimension
1001
ACAD
1000
DSTYLE
1002
{
1070
   173
1070
     1
1070
     6
1000
_OPEN
1070
     7
1000
_OPEN
1070
    41
1040
4.000000
1002
}
  0
LINE
  5
447
100
AcDbEntity
  8
MAIN0
  6
CENTER
 62
3
100
AcDbLine
 10
263.0156013903377
 20
526.1041124074407
 30
0.0000000000000000
 11
284.0156013903377
 21
526.1041124074405
 31
0.0000000000000000
  0
LINE
  5
448
100
AcDbEntity
  8
MAIN0
  6
CENTER
 62
3
100
AcDbLine
 10
273.5156013903376
 20
515.6041124074405
 30
0.0000000000000000
 11
273.5156013903377
 21
536.6041124074405
 31
0.0000000000000000
  0
LINE
  5
449
100
AcDbEntity
  8
MAIN0
  6
CENTER
 62
3
100
AcDbLine
 10
219.0156013903050
 20
526.1041124074043
 30
0.0000000000000000
 11
240.0156013903050
 21
526.1041124074042
 31
0.0000000000000000
  0
LINE
  5
44A
100
AcDbEntity
  8
MAIN0
  6
CENTER
 62
3
100
AcDbLine
 10
229.5156013903049
 20
515.6041124074043
 30
0.0000000000000000
 11
229.5156013903050
 21
536.6041124074042
 31
0.0000000000000000
  0
LINE
  5
44B
100
AcDbEntity
  8
MAIN0
  6
CENTER
 62
3
100
AcDbLine
 10
263.0156013903463
 20
450.1041124075226
 30
0.0000000000000000
 11
284.0156013903463
 21
450.1041124075226
 31
0.0000000000000000
  0
LINE
  5
44C
100
AcDbEntity
  8
MAIN0
  6
CENTER
 62
3
100
AcDbLine
 10
273.5156013903463
 20
439.6041124075226
 30
0.0000000000000000
 11
273.5156013903464
 21
460.6041124075226
 31
0.0000000000000000
  0
LINE
  5
44D
100
AcDbEntity
  8
MAIN0
  6
CENTER
 62
3
100
AcDbLine
 10
219.0156013903288
 20
450.1041124074737
 30
0.0000000000000000
 11
240.0156013903288
 21
450.1041124074737
 31
0.0000000000000000
  0
LINE
  5
44E
100
AcDbEntity
  8
MAIN0
  6
CENTER
 62
3
100
AcDbLine
 10
229.5156013903288
 20
439.6041124074737
 30
0.0000000000000000
 11
229.5156013903289
 21
460.6041124074737
 31
0.0000000000000000
  0
LINE
  5
44F
100
AcDbEntity
  8
MAIN0
  6
CONTINUOUS
 62
3
100
AcDbLine
 10
287.5156013903562
 20
438.1041124071988
 30
0.0000000000000000
 11
215.6156013903563
 21
438.1041124071990
 31
0.0000000000000000
  0
LINE
  5
450
100
AcDbEntity
  8
MAIN0
  6
CONTINUOUS
 62
3
100
AcDbLine
 10
287.5156013903564
 20
538.1041124071987
 30
0.0000000000000000
 11
215.6156013903566
 21
538.1041124071990
 31
0.0000000000000000
  0
LINE
  5
451
100
AcDbEntity
  8
MAIN0
  6
CONTINUOUS
 62
3
100
AcDbLine
 10
287.5156013903562
 20
438.1041124071985
 30
0.0000000000000000
 11
288.0156013903562
 21
438.6041124071985
 31
0.0000000000000000
  0
LINE
  5
452
100
AcDbEntity
  8
MAIN0
  6
CONTINUOUS
 62
3
100
AcDbLine
 10
288.0156013903566
 20
537.6041124071986
 30
0.0000000000000000
 11
287.5156013903566
 21
538.1041124071986
 31
0.0000000000000000
  0
LINE
  5
453
100
AcDbEntity
  8
MAIN0
  6
CONTINUOUS
 62
3
100
AcDbLine
 10
215.6156013903566
 20
538.1041124071990
 30
0.0000000000000000
 11
215.0156013903567
 21
537.5041124071991
 31
0.0000000000000000
  0
LINE
  5
454
100
AcDbEntity
  8
MAIN0
  6
CONTINUOUS
 62
3
100
AcDbLine
 10
215.6156013903564
 20
438.1041124071988
 30
0.0000000000000000
 11
215.0156013903564
 21
438.7041124071989
 31
0.0000000000000000
  0
LINE
  5
455
100
AcDbEntity
  8
MAIN0
  6
CONTINUOUS
 62
3
100
AcDbLine
 10
215.0156013903562
 20
438.7041124071989
 30
0.0000000000000000
 11
215.0156013903566
 21
537.5041124071989
 31
0.0000000000000000
  0
LINE
  5
456
100
AcDbEntity
  8
MAIN0
  6
CONTINUOUS
 62
3
100
AcDbLine
 10
288.0156013903563
 20
438.6041124071987
 30
0.0000000000000000
 11
288.0156013903566
 21
537.6041124071987
 31
0.0000000000000000
  0
CIRCLE
  5
457
100
AcDbEntity
  8
MAIN0
  6
CONTINUOUS
 62
3
100
AcDbCircle
 10
251.5156013904495
 20
488.1041124071987
 30
0.0000000000000000
 40
4.000000000000000
  0
CIRCLE
  5
458
100
AcDbEntity
  8
MAIN0
  6
CONTINUOUS
 62
3
100
AcDbCircle
 10
251.5156013904495
 20
488.1041124071987
 30
0.0000000000000000
 40
3.400000000000000
  0
CIRCLE
  5
459
100
AcDbEntity
  8
MAIN0
  6
CONTINUOUS
 62
3
100
AcDbCircle
 10
385.0156013908584
 20
488.1041124070493
 30
0.0000000000000000
 40
4.000000000000000
  0
CIRCLE
  5
45A
100
AcDbEntity
  8
MAIN0
  6
CONTINUOUS
 62
3
100
AcDbCircle
 10
385.0156013908584
 20
488.1041124070493
 30
0.0000000000000000
 40
3.400000000000000
  0
LINE
  5
45B
100
AcDbEntity
  8
MAIN0
  6
CONTINUOUS
 62
3
100
AcDbLine
 10
73.27982877130104
 20
283.8987604142729
 30
0.0000000000000000
 11
73.27982877132682
 21
269.8987604142245
 31
0.0000000000000000
  0
LINE
  5
45C
100
AcDbEntity
  8
MAIN0
  6
CONTINUOUS
 62
3
100
AcDbLine
 10
68.27982877132655
 20
269.8987604142251
 30
0.0000000000000000
 11
68.27982877134861
 21
257.8987604142253
 31
0.0000000000000000
  0
LINE
  5
45D
100
AcDbEntity
  8
MAIN0
  6
CONTINUOUS
 62
3
100
AcDbLine
 10
73.27982877132675
 20
269.8987604142245
 30
0.0000000000000000
 11
68.27982877132675
 21
269.8987604142251
 31
0.0000000000000000
  0
LINE
  5
45E
100
AcDbEntity
  8
MAIN0
  6
CONTINUOUS
 62
3
100
AcDbLine
 10
125.2798287713007
 20
283.8987604143689
 30
0.0000000000000000
 11
125.2798287713266
 21
269.8987604143206
 31
0.0000000000000000
  0
LINE
  5
45F
100
AcDbEntity
  8
MAIN0
  6
CONTINUOUS
 62
3
100
AcDbLine
 10
130.2798287713266
 20
269.8987604143396
 30
0.0000000000000000
 11
130.2798287713486
 21
257.8987604143395
 31
0.0000000000000000
  0
LINE
  5
460
100
AcDbEntity
  8
MAIN0
  6
CONTINUOUS
 62
3
100
AcDbLine
 10
125.2798287713264
 20
269.8987604143205
 30
0.0000000000000000
 11
130.2798287713266
 21
269.8987604143396
 31
0.0000000000000000
  0
LINE
  5
461
100
AcDbEntity
  8
MAIN0
  6
CONTINUOUS
 62
3
100
AcDbLine
 10
73.27982877130096
 20
283.8987604142728
 30
0.0000000000000000
 11
125.2798287713007
 21
283.8987604143689
 31
0.0000000000000000
  0
LINE
  5
462
100
AcDbEntity
  8
MAIN0
  6
CONTINUOUS
 62
3
100
AcDbLine
 10
74.27982877137613
 20
238.8987604141934
 30
0.0000000000000000
 11
74.27982877134947
 21
257.3987604142243
 31
0.0000000000000000
  0
LINE
  5
463
100
AcDbEntity
  8
MAIN0
  6
CONTINUOUS
 62
3
100
AcDbLine
 10
124.2798287713761
 20
238.8987604142820
 30
0.0000000000000000
 11
124.2798287713495
 21
257.3987604143128
 31
0.0000000000000000
  0
LINE
  5
464
100
AcDbEntity
  8
MAIN0
  6
CONTINUOUS
 62
3
100
AcDbLine
 10
74.27982877137903
 20
236.8987604142026
 30
0.0000000000000000
 11
124.2798287713790
 21
236.8987604142034
 31
0.0000000000000000
  0
CIRCLE
  5
465
100
AcDbEntity
  8
MAIN0
  6
CONTINUOUS
 62
3
100
AcDbCircle
 10
278.0156013903566
 20
508.1041124071337
 30
0.0000000000000000
 40
4.000000000000000
  0
CIRCLE
  5
466
100
AcDbEntity
  8
MAIN0
  6
CONTINUOUS
 62
3
100
AcDbCircle
 10
278.0156013903566
 20
508.1041124071337
 30
0.0000000000000000
 40
3.323417500000000
  0
LINE
  5
467
100
AcDbEntity
  8
MAIN0
  6
CONTINUOUS
 62
3
100
AcDbLine
 10
278.0156013903567
 20
510.4135134838922
 30
0.0000000000000000
 11
276.0156013903566
 21
509.2588129455129
 31
0.0000000000000000
  0
LINE
  5
468
100
AcDbEntity
  8
MAIN0
  6
CONTINUOUS
 62
3
100
AcDbLine
 10
276.0156013903566
 20
509.2588129455129
 30
0.0000000000000000
 11
276.0156013903566
 21
506.9494118687545
 31
0.0000000000000000
  0
LINE
  5
469
100
AcDbEntity
  8
MAIN0
  6
CONTINUOUS
 62
3
100
AcDbLine
 10
276.0156013903566
 20
506.9494118687544
 30
0.0000000000000000
 11
278.0156013903566
 21
505.7947113303752
 31
0.0000000000000000
  0
LINE
  5
46A
100
AcDbEntity
  8
MAIN0
  6
CONTINUOUS
 62
3
100
AcDbLine
 10
278.0156013903566
 20
505.7947113303752
 30
0.0000000000000000
 11
280.0156013903566
 21
506.9494118687545
 31
0.0000000000000000
  0
LINE
  5
46B
100
AcDbEntity
  8
MAIN0
  6
CONTINUOUS
 62
3
100
AcDbLine
 10
280.0156013903566
 20
506.9494118687545
 30
0.0000000000000000
 11
280.0156013903566
 21
509.2588129455129
 31
0.0000000000000000
  0
LINE
  5
46C
100
AcDbEntity
  8
MAIN0
  6
CONTINUOUS
 62
3
100
AcDbLine
 10
280.0156013903566
 20
509.2588129455129
 30
0.0000000000000000
 11
278.0156013903566
 21
510.4135134838921
 31
0.0000000000000000
  0
LINE
  5
46D
100
AcDbEntity
  8
MAIN0
  6
CONTINUOUS
 62
3
100
AcDbLine
 10
523.4282014479950
 20
221.3987604141982
 30
0.0000000000000000
 11
524.4282014479952
 21
222.3987604141984
 31
0.0000000000000000
  0
LINE
  5
46E
100
AcDbEntity
  8
MAIN0
  6
CONTINUOUS
 62
3
100
AcDbLine
 10
523.4282014479950
 20
289.8987604141983
 30
0.0000000000000000
 11
524.4282014479950
 21
288.8987604141983
 31
0.0000000000000000
  0
LINE
  5
46F
100
AcDbEntity
  8
MAIN0
  6
CONTINUOUS
 62
3
100
AcDbLine
 10
516.4282014479941
 20
289.8987604141985
 30
0.0000000000000000
 11
523.4282014479950
 21
289.8987604141985
 31
0.0000000000000000
  0
LINE
  5
470
100
AcDbEntity
  8
MAIN0
  6
CONTINUOUS
 62
3
100
AcDbLine
 10
486.4282014479941
 20
221.3987604141985
 30
0.0000000000000000
 11
523.4282014479941
 21
221.3987604141985
 31
0.0000000000000000
  0
LINE
  5
471
100
AcDbEntity
  8
MAIN0
  6
CONTINUOUS
 62
3
100
AcDbLine
 10
486.4282014479941
 20
221.3987604141985
 30
0.0000000000000000
 11
486.4282014479941
 21
237.8987604140816
 31
0.0000000000000000
  0
LINE
  5
472
100
AcDbEntity
  8
MAIN0
  6
CONTINUOUS
 62
3
100
AcDbLine
 10
524.4282014479950
 20
285.8987604141987
 30
0.0000000000000000
 11
524.4282014479950
 21
289.4987604141998
 31
0.0000000000000000
  0
LINE
  5
473
100
AcDbEntity
  8
MAIN0
  6
CONTINUOUS
 62
3
100
AcDbLine
 10
486.4282014479941
 20
215.2987604151581
 30
0.0000000000000000
 11
486.4282014479941
 21
252.5987604138803
 31
0.0000000000000000
  0
LINE
  5
474
100
AcDbEntity
  8
MAIN0
  6
CONTINUOUS
 62
3
100
AcDbLine
 10
524.4282014479950
 20
222.3987604141989
 30
0.0000000000000000
 11
524.4282014479950
 21
288.9987604141993
 31
0.0000000000000000
  0
LINE
  5
475
100
AcDbEntity
  8
MAIN0
  6
CONTINUOUS
 62
3
100
AcDbLine
 10
332.9282014479941
 20
218.8987604151580
 30
0.0000000000000000
 11
318.9282014479941
 21
218.8987604151580
 31
0.0000000000000000
  0
LINE
  5
476
100
AcDbEntity
  8
MAIN0
  6
CONTINUOUS
 62
3
100
AcDbLine
 10
333.3282014479946
 20
214.8987604151580
 30
0.0000000000000000
 11
486.0282014479944
 21
214.8987604151580
 31
0.0000000000000000
  0
LINE
  5
477
100
AcDbEntity
  8
MAIN0
  6
CONTINUOUS
 62
3
100
AcDbLine
 10
213.8282014479946
 20
214.8987604151580
 30
0.0000000000000000
 11
318.5282014479944
 21
214.8987604151580
 31
0.0000000000000000
  0
LINE
  5
478
100
AcDbEntity
  8
MAIN0
  6
CONTINUOUS
 62
3
100
AcDbLine
 10
213.4282014479945
 20
288.8987604151580
 30
0.0000000000000000
 11
213.4282014479945
 21
215.2987604151581
 31
0.0000000000000000
  0
LINE
  5
479
100
AcDbEntity
  8
MAIN0
  6
CONTINUOUS
 62
3
100
AcDbLine
 10
213.4282014479949
 20
288.8987604151581
 30
0.0000000000000000
 11
214.4282014479951
 21
289.8987604151582
 31
0.0000000000000000
  0
LINE
  5
47A
100
AcDbEntity
  8
MAIN0
  6
CONTINUOUS
 62
3
100
AcDbLine
 10
213.4282014479947
 20
215.2987604151579
 30
0.0000000000000000
 11
213.8282014479947
 21
214.8987604151579
 31
0.0000000000000000
  0
LINE
  5
47B
100
AcDbEntity
  8
MAIN0
  6
CONTINUOUS
 62
3
100
AcDbLine
 10
318.5282014479945
 20
214.8987604151585
 30
0.0000000000000000
 11
318.9282014479944
 21
215.2987604151585
 31
0.0000000000000000
  0
LINE
  5
47C
100
AcDbEntity
  8
MAIN0
  6
CONTINUOUS
 62
3
100
AcDbLine
 10
332.9282014479947
 20
215.2987604151577
 30
0.0000000000000000
 11
333.3282014479946
 21
214.8987604151578
 31
0.0000000000000000
  0
LINE
  5
47D
100
AcDbEntity
  8
MAIN0
  6
CONTINUOUS
 62
3
100
AcDbLine
 10
486.0282014479949
 20
214.8987604151587
 30
0.0000000000000000
 11
486.4282014479942
 21
215.2987604151579
 31
0.0000000000000000
  0
LINE
  5
47E
100
AcDbEntity
  8
MAIN0
  6
CENTER
 62
3
100
AcDbLine
 10
325.9282014479941
 20
224.9477943383576
 30
0.0000000000000000
 11
325.9282014479941
 21
206.8987604151580
 31
0.0000000000000000
  0
LINE
  5
47F
100
AcDbEntity
  8
MAIN0
  6
CONTINUOUS
 62
3
100
AcDbLine
 10
332.9282014479941
 20
209.8987604151862
 30
0.0000000000000000
 11
318.9282014479941
 21
209.8987604151862
 31
0.0000000000000000
  0
LINE
  5
480
100
AcDbEntity
  8
MAIN0
  6
CONTINUOUS
 62
3
100
AcDbLine
 10
318.9282014479941
 20
209.8987604151862
 30
0.0000000000000000
 11
318.9282014479941
 21
218.8987604151582
 31
0.0000000000000000
  0
LINE
  5
481
100
AcDbEntity
  8
MAIN0
  6
CONTINUOUS
 62
3
100
AcDbLine
 10
332.9282014479941
 20
209.8987604151862
 30
0.0000000000000000
 11
332.9282014479941
 21
218.8987604151582
 31
0.0000000000000000
  0
LINE
  5
482
100
AcDbEntity
  8
MAIN0
  6
CONTINUOUS
 62
3
100
AcDbLine
 10
524.4282014479957
 20
289.4987604141997
 30
0.0000000000000000
 11
524.8282014479950
 21
289.8987604141990
 31
0.0000000000000000
  0
LINE
  5
483
100
AcDbEntity
  8
MAIN0
  6
CONTINUOUS
 62
3
100
AcDbLine
 10
548.8282014479948
 20
289.8987604141993
 30
0.0000000000000000
 11
549.4282014479948
 21
289.2987604141994
 31
0.0000000000000000
  0
LINE
  5
484
100
AcDbEntity
  8
MAIN0
  6
CONTINUOUS
 62
3
100
AcDbLine
 10
524.8282014479946
 20
289.8987604141994
 30
0.0000000000000000
 11
548.8282014479946
 21
289.8987604141994
 31
0.0000000000000000
  0
LINE
  5
485
100
AcDbEntity
  8
MAIN0
  6
CONTINUOUS
 62
3
100
AcDbLine
 10
524.4282014479950
 20
222.8987604141987
 30
0.0000000000000000
 11
548.8282014479947
 21
222.8987604141987
 31
0.0000000000000000
  0
LINE
  5
486
100
AcDbEntity
  8
MAIN0
  6
CONTINUOUS
 62
3
100
AcDbLine
 10
548.8282014479948
 20
222.8987604141992
 30
0.0000000000000000
 11
549.4282014479944
 21
223.4987604141988
 31
0.0000000000000000
  0
LINE
  5
487
100
AcDbEntity
  8
MAIN0
  6
CONTINUOUS
 62
3
100
AcDbLine
 10
549.4282014479950
 20
223.4987604141995
 30
0.0000000000000000
 11
549.4282014479950
 21
289.2987604141988
 31
0.0000000000000000
  0
LINE
  5
488
100
AcDbEntity
  8
MAIN0
  6
CONTINUOUS
 62
3
100
AcDbLine
 10
568.4282014479941
 20
282.8987604141987
 30
0.0000000000000000
 11
549.4282014479950
 21
282.8987604141987
 31
0.0000000000000000
  0
LINE
  5
489
100
AcDbEntity
  8
MAIN0
  6
CONTINUOUS
 62
3
100
AcDbLine
 10
568.4282014479941
 20
232.8987604141983
 30
0.0000000000000000
 11
549.4282014479950
 21
232.8987604141983
 31
0.0000000000000000
  0
LINE
  5
48A
100
AcDbEntity
  8
MAIN0
  6
CONTINUOUS
 62
3
100
AcDbLine
 10
568.4282014479944
 20
282.8987604141989
 30
0.0000000000000000
 11
568.4282014479943
 21
232.8987604141989
 31
0.0000000000000000
  0
LINE
  5
48B
100
AcDbEntity
  8
MAIN0
  6
CONTINUOUS
 62
3
100
AcDbLine
 10
214.4282014479936
 20
329.6987604151577
 30
0.0000000000000000
 11
214.4282014479936
 21
290.2987604151576
 31
0.0000000000000000
  0
LINE
  5
48C
100
AcDbEntity
  8
MAIN0
  6
CONTINUOUS
 62
3
100
AcDbLine
 10
214.6282014479939
 20
329.8987604151575
 30
0.0000000000000000
 11
286.9282014479941
 21
329.8987604151575
 31
0.0000000000000000
  0
LINE
  5
48D
100
AcDbEntity
  8
MAIN0
  6
CONTINUOUS
 62
3
100
AcDbLine
 10
214.6282014479932
 20
329.8987604151567
 30
0.0000000000000000
 11
214.4282014479936
 21
329.6987604151570
 31
0.0000000000000000
  0
LINE
  5
48E
100
AcDbEntity
  8
MAIN0
  6
CONTINUOUS
 62
3
100
AcDbLine
 10
286.9282014479940
 20
329.8987604151578
 30
0.0000000000000000
 11
287.4282014479937
 21
329.3987604151580
 31
0.0000000000000000
  0
LINE
  5
48F
100
AcDbEntity
  8
MAIN0
  6
CONTINUOUS
 62
3
100
AcDbLine
 10
214.4282014479936
 20
290.2987604151577
 30
0.0000000000000000
 11
214.8282014479936
 21
289.8987604151578
 31
0.0000000000000000
  0
LINE
  5
490
100
AcDbEntity
  8
MAIN0
  6
CONTINUOUS
 62
3
100
AcDbLine
 10
287.0282014479935
 20
289.8987604151573
 30
0.0000000000000000
 11
287.4282014479934
 21
290.2987604151573
 31
0.0000000000000000
  0
LINE
  5
491
100
AcDbEntity
  8
MAIN0
  6
CONTINUOUS
 62
3
100
AcDbLine
 10
287.8282014479937
 20
289.8987604151581
 30
0.0000000000000000
 11
292.4564211518127
 21
289.8987604151581
 31
0.0000000000000000
  0
LINE
  5
492
100
AcDbEntity
  8
MAIN0
  6
CONTINUOUS
 62
3
100
AcDbLine
 10
287.4282014479942
 20
290.2987604151579
 30
0.0000000000000000
 11
287.8282014479942
 21
289.8987604151579
 31
0.0000000000000000
  0
LINE
  5
493
100
AcDbEntity
  8
MAIN0
  6
CONTINUOUS
 62
3
100
AcDbLine
 10
352.4282014479936
 20
329.6987604151314
 30
0.0000000000000000
 11
352.4282014479936
 21
289.8987604138960
 31
0.0000000000000000
  0
LINE
  5
494
100
AcDbEntity
  8
MAIN0
  6
CONTINUOUS
 62
3
100
AcDbLine
 10
352.6282014479939
 20
329.8987604151321
 30
0.0000000000000000
 11
415.9282014479941
 21
329.8987604151321
 31
0.0000000000000000
  0
LINE
  5
495
100
AcDbEntity
  8
MAIN0
  6
CONTINUOUS
 62
3
100
AcDbLine
 10
416.4282014479941
 20
329.3987604151321
 30
0.0000000000000000
 11
416.4282014479941
 21
252.5987604137833
 31
0.0000000000000000
  0
LINE
  5
496
100
AcDbEntity
  8
MAIN0
  6
CONTINUOUS
 62
3
100
AcDbLine
 10
352.4282014479938
 20
329.6987604151318
 30
0.0000000000000000
 11
352.6282014479941
 21
329.8987604151321
 31
0.0000000000000000
  0
LINE
  5
497
100
AcDbEntity
  8
MAIN0
  6
CONTINUOUS
 62
3
100
AcDbLine
 10
415.9282014479945
 20
329.8987604151317
 30
0.0000000000000000
 11
416.4282014479945
 21
329.3987604151316
 31
0.0000000000000000
  0
LINE
  5
498
100
AcDbEntity
  8
MAIN0
  6
CONTINUOUS
 62
3
100
AcDbLine
 10
287.4282014479941
 20
290.2987604151576
 30
0.0000000000000000
 11
287.4282014479941
 21
329.3987604151575
 31
0.0000000000000000
  0
LINE
  5
499
100
AcDbEntity
  8
MAIN0
  6
CONTINUOUS
 62
3
100
AcDbLine
 10
214.4282014479945
 20
289.8987604151580
 30
0.0000000000000000
 11
241.9282014479944
 21
289.8987604151580
 31
0.0000000000000000
  0
LINE
  5
49A
100
AcDbEntity
  8
MAIN0
  6
CONTINUOUS
 62
3
100
AcDbLine
 10
259.9282014479944
 20
289.8987604151580
 30
0.0000000000000000
 11
416.4282014479941
 21
289.8987604151580
 31
0.0000000000000000
  0
LINE
  5
49B
100
AcDbEntity
  8
MAIN0
  6
CONTINUOUS
 62
3
100
AcDbLine
 10
416.4282014479941
 20
301.0987604151578
 30
0.0000000000000000
 11
489.4282014483351
 21
301.0987604151578
 31
0.0000000000000000
  0
LINE
  5
49C
100
AcDbEntity
  8
MAIN0
  6
CONTINUOUS
 62
3
100
AcDbLine
 10
490.4282014483351
 20
291.0987604151578
 30
0.0000000000000000
 11
516.4282014479941
 21
291.0987604151578
 31
0.0000000000000000
  0
ARC
  5
49D
100
AcDbEntity
  8
MAIN0
  6
CONTINUOUS
 62
3
100
AcDbCircle
 10
489.4282014483351
 20
300.0987604151578
 30
0.0000000000000000
 40
1.000000000000000
100
AcDbArc
 50
0.0000000000000000
 51
89.99999999999838
  0
LINE
  5
49E
100
AcDbEntity
  8
MAIN0
  6
CONTINUOUS
 62
3
100
AcDbLine
 10
490.4282014483351
 20
300.0987604151578
 30
0.0000000000000000
 11
490.4282014483351
 21
252.5987604138859
 31
0.0000000000000000
  0
LINE
  5
49F
100
AcDbEntity
  8
MAIN0
  6
CONTINUOUS
 62
3
100
AcDbLine
 10
213.4282014479946
 20
437.6041124076921
 30
0.0000000000000000
 11
213.4282014479946
 21
538.6041124076925
 31
0.0000000000000000
  0
LINE
  5
4A0
100
AcDbEntity
  8
MAIN0
  6
CONTINUOUS
 62
3
100
AcDbLine
 10
214.4282014479945
 20
436.6041124076933
 30
0.0000000000000000
 11
417.0156013903568
 21
436.6041124079015
 31
0.0000000000000000
  0
LINE
  5
4A1
100
AcDbEntity
  8
MAIN0
  6
CONTINUOUS
 62
3
100
AcDbLine
 10
214.4282014479946
 20
539.6041124076934
 30
0.0000000000000000
 11
417.0156013903567
 21
539.6041124079017
 31
0.0000000000000000
  0
LINE
  5
4A2
100
AcDbEntity
  8
MAIN0
  6
CONTINUOUS
 62
3
100
AcDbLine
 10
213.4282014479945
 20
437.6041124076921
 30
0.0000000000000000
 11
214.4282014479945
 21
436.6041124076932
 31
0.0000000000000000
  0
LINE
  5
4A3
100
AcDbEntity
  8
MAIN0
  6
CONTINUOUS
 62
3
100
AcDbLine
 10
213.4282014479947
 20
538.6041124076925
 30
0.0000000000000000
 11
214.4282014479947
 21
539.6041124076935
 31
0.0000000000000000
  0
LINE
  5
4A4
100
AcDbEntity
  8
MAIN0
  6
CONTINUOUS
 62
3
100
AcDbLine
 10
288.0156013903564
 20
461.1041124064779
 30
0.0000000000000000
 11
353.0156013903567
 21
461.1041124062762
 31
0.0000000000000000
  0
LINE
  5
4A5
100
AcDbEntity
  8
MAIN0
  6
CONTINUOUS
 62
3
100
AcDbLine
 10
288.0156013903566
 20
515.1041124077689
 30
0.0000000000000000
 11
353.0156013903568
 21
515.1041124078357
 31
0.0000000000000000
  0
CIRCLE
  5
4A6
100
AcDbEntity
  8
MAIN0
  6
HIDDEN
 62
3
100
AcDbCircle
 10
273.5156013903377
 20
526.1041124074407
 30
0.0000000000000000
 40
8.000000000000000
  0
LINE
  5
4A7
100
AcDbEntity
  8
MAIN0
  6
HIDDEN
 62
3
100
AcDbLine
 10
268.8967992368206
 20
526.1041124074405
 30
0.0000000000000000
 11
271.2062003135791
 21
522.1041124074407
 31
0.0000000000000000
  0
LINE
  5
4A8
100
AcDbEntity
  8
MAIN0
  6
HIDDEN
 62
3
100
AcDbLine
 10
271.2062003135793
 20
522.1041124074405
 30
0.0000000000000000
 11
275.8250024670963
 21
522.1041124074405
 31
0.0000000000000000
  0
LINE
  5
4A9
100
AcDbEntity
  8
MAIN0
  6
HIDDEN
 62
3
100
AcDbLine
 10
275.8250024670962
 20
522.1041124074407
 30
0.0000000000000000
 11
278.1344035438547
 21
526.1041124074407
 31
0.0000000000000000
  0
LINE
  5
4AA
100
AcDbEntity
  8
MAIN0
  6
HIDDEN
 62
3
100
AcDbLine
 10
278.1344035438547
 20
526.1041124074407
 30
0.0000000000000000
 11
275.8250024670962
 21
530.1041124074405
 31
0.0000000000000000
  0
LINE
  5
4AB
100
AcDbEntity
  8
MAIN0
  6
HIDDEN
 62
3
100
AcDbLine
 10
275.8250024670963
 20
530.1041124074407
 30
0.0000000000000000
 11
271.2062003135793
 21
530.1041124074407
 31
0.0000000000000000
  0
LINE
  5
4AC
100
AcDbEntity
  8
MAIN0
  6
HIDDEN
 62
3
100
AcDbLine
 10
271.2062003135793
 20
530.1041124074408
 30
0.0000000000000000
 11
268.8967992368206
 21
526.1041124074405
 31
0.0000000000000000
  0
CIRCLE
  5
4AD
100
AcDbEntity
  8
MAIN0
  6
HIDDEN
 62
3
100
AcDbCircle
 10
229.5156013903049
 20
526.1041124074042
 30
0.0000000000000000
 40
8.000000000000000
  0
LINE
  5
4AE
100
AcDbEntity
  8
MAIN0
  6
HIDDEN
 62
3
100
AcDbLine
 10
224.8967992367878
 20
526.1041124074042
 30
0.0000000000000000
 11
227.2062003135463
 21
522.1041124074042
 31
0.0000000000000000
  0
LINE
  5
4AF
100
AcDbEntity
  8
MAIN0
  6
HIDDEN
 62
3
100
AcDbLine
 10
227.2062003135464
 20
522.1041124074042
 30
0.0000000000000000
 11
231.8250024670634
 21
522.1041124074042
 31
0.0000000000000000
  0
LINE
  5
4B0
100
AcDbEntity
  8
MAIN0
  6
HIDDEN
 62
3
100
AcDbLine
 10
231.8250024670634
 20
522.1041124074042
 30
0.0000000000000000
 11
234.1344035438219
 21
526.1041124074042
 31
0.0000000000000000
  0
LINE
  5
4B1
100
AcDbEntity
  8
MAIN0
  6
HIDDEN
 62
3
100
AcDbLine
 10
234.1344035438219
 20
526.1041124074041
 30
0.0000000000000000
 11
231.8250024670634
 21
530.1041124074041
 31
0.0000000000000000
  0
LINE
  5
4B2
100
AcDbEntity
  8
MAIN0
  6
HIDDEN
 62
3
100
AcDbLine
 10
231.8250024670634
 20
530.1041124074042
 30
0.0000000000000000
 11
227.2062003135464
 21
530.1041124074042
 31
0.0000000000000000
  0
LINE
  5
4B3
100
AcDbEntity
  8
MAIN0
  6
HIDDEN
 62
3
100
AcDbLine
 10
227.2062003135465
 20
530.1041124074042
 30
0.0000000000000000
 11
224.8967992367880
 21
526.1041124074042
 31
0.0000000000000000
  0
CIRCLE
  5
4B4
100
AcDbEntity
  8
MAIN0
  6
HIDDEN
 62
3
100
AcDbCircle
 10
229.5156013903288
 20
450.1041124074736
 30
0.0000000000000000
 40
8.000000000000000
  0
LINE
  5
4B5
100
AcDbEntity
  8
MAIN0
  6
HIDDEN
 62
3
100
AcDbLine
 10
224.8967992368117
 20
450.1041124074736
 30
0.0000000000000000
 11
227.2062003135702
 21
446.1041124074737
 31
0.0000000000000000
  0
LINE
  5
4B6
100
AcDbEntity
  8
MAIN0
  6
HIDDEN
 62
3
100
AcDbLine
 10
227.2062003135703
 20
446.1041124074736
 30
0.0000000000000000
 11
231.8250024670873
 21
446.1041124074736
 31
0.0000000000000000
  0
LINE
  5
4B7
100
AcDbEntity
  8
MAIN0
  6
HIDDEN
 62
3
100
AcDbLine
 10
231.8250024670873
 20
446.1041124074736
 30
0.0000000000000000
 11
234.1344035438459
 21
450.1041124074737
 31
0.0000000000000000
  0
LINE
  5
4B8
100
AcDbEntity
  8
MAIN0
  6
HIDDEN
 62
3
100
AcDbLine
 10
234.1344035438457
 20
450.1041124074735
 30
0.0000000000000000
 11
231.8250024670872
 21
454.1041124074735
 31
0.0000000000000000
  0
LINE
  5
4B9
100
AcDbEntity
  8
MAIN0
  6
HIDDEN
 62
3
100
AcDbLine
 10
231.8250024670873
 20
454.1041124074736
 30
0.0000000000000000
 11
227.2062003135703
 21
454.1041124074736
 31
0.0000000000000000
  0
LINE
  5
4BA
100
AcDbEntity
  8
MAIN0
  6
HIDDEN
 62
3
100
AcDbLine
 10
227.2062003135704
 20
454.1041124074737
 30
0.0000000000000000
 11
224.8967992368118
 21
450.1041124074735
 31
0.0000000000000000
  0
CIRCLE
  5
4BB
100
AcDbEntity
  8
MAIN0
  6
HIDDEN
 62
3
100
AcDbCircle
 10
273.5156013903464
 20
450.1041124075225
 30
0.0000000000000000
 40
8.000000000000000
  0
LINE
  5
4BC
100
AcDbEntity
  8
MAIN0
  6
HIDDEN
 62
3
100
AcDbLine
 10
268.8967992368293
 20
450.1041124075225
 30
0.0000000000000000
 11
271.2062003135878
 21
446.1041124075225
 31
0.0000000000000000
  0
LINE
  5
4BD
100
AcDbEntity
  8
MAIN0
  6
HIDDEN
 62
3
100
AcDbLine
 10
271.2062003135878
 20
446.1041124075225
 30
0.0000000000000000
 11
275.8250024671048
 21
446.1041124075225
 31
0.0000000000000000
  0
LINE
  5
4BE
100
AcDbEntity
  8
MAIN0
  6
HIDDEN
 62
3
100
AcDbLine
 10
275.8250024671049
 20
446.1041124075225
 30
0.0000000000000000
 11
278.1344035438634
 21
450.1041124075225
 31
0.0000000000000000
  0
LINE
  5
4BF
100
AcDbEntity
  8
MAIN0
  6
HIDDEN
 62
3
100
AcDbLine
 10
278.1344035438633
 20
450.1041124075224
 30
0.0000000000000000
 11
275.8250024671048
 21
454.1041124075224
 31
0.0000000000000000
  0
LINE
  5
4C0
100
AcDbEntity
  8
MAIN0
  6
HIDDEN
 62
3
100
AcDbLine
 10
275.8250024671048
 20
454.1041124075225
 30
0.0000000000000000
 11
271.2062003135878
 21
454.1041124075225
 31
0.0000000000000000
  0
LINE
  5
4C1
100
AcDbEntity
  8
MAIN0
  6
HIDDEN
 62
3
100
AcDbLine
 10
271.2062003135878
 20
454.1041124075226
 30
0.0000000000000000
 11
268.8967992368293
 21
450.1041124075226
 31
0.0000000000000000
  0
LINE
  5
4C2
100
AcDbEntity
  8
MAIN0
  6
CENTER
 62
3
100
AcDbLine
 10
378.0156013903119
 20
469.6041124067733
 30
0.0000000000000000
 11
357.0156013903119
 21
469.6041124067733
 31
0.0000000000000000
  0
LINE
  5
4C3
100
AcDbEntity
  8
MAIN0
  6
CENTER
 62
3
100
AcDbLine
 10
367.5156013903119
 20
480.1041124067733
 30
0.0000000000000000
 11
367.5156013903119
 21
459.1041124067733
 31
0.0000000000000000
  0
LINE
  5
4C4
100
AcDbEntity
  8
MAIN0
  6
CENTER
 62
3
100
AcDbLine
 10
413.0156013903369
 20
469.6041124067608
 30
0.0000000000000000
 11
392.0156013903369
 21
469.6041124067608
 31
0.0000000000000000
  0
LINE
  5
4C5
100
AcDbEntity
  8
MAIN0
  6
CENTER
 62
3
100
AcDbLine
 10
402.5156013903369
 20
480.1041124067608
 30
0.0000000000000000
 11
402.5156013903369
 21
459.1041124067608
 31
0.0000000000000000
  0
LINE
  5
4C6
100
AcDbEntity
  8
MAIN0
  6
CENTER
 62
3
100
AcDbLine
 10
378.0156013902878
 20
506.6041124068819
 30
0.0000000000000000
 11
357.0156013902878
 21
506.6041124068819
 31
0.0000000000000000
  0
LINE
  5
4C7
100
AcDbEntity
  8
MAIN0
  6
CENTER
 62
3
100
AcDbLine
 10
367.5156013902878
 20
517.1041124068818
 30
0.0000000000000000
 11
367.5156013902878
 21
496.1041124068818
 31
0.0000000000000000
  0
LINE
  5
4C8
100
AcDbEntity
  8
MAIN0
  6
CENTER
 62
3
100
AcDbLine
 10
413.0156013903370
 20
506.6041124068582
 30
0.0000000000000000
 11
392.0156013903370
 21
506.6041124068582
 31
0.0000000000000000
  0
LINE
  5
4C9
100
AcDbEntity
  8
MAIN0
  6
CENTER
 62
3
100
AcDbLine
 10
402.5156013903369
 20
517.1041124068581
 30
0.0000000000000000
 11
402.5156013903369
 21
496.1041124068581
 31
0.0000000000000000
  0
CIRCLE
  5
4CA
100
AcDbEntity
  8
MAIN0
  6
HIDDEN
 62
3
100
AcDbCircle
 10
402.5156013903371
 20
506.6041124068581
 30
0.0000000000000000
 40
8.000000000000000
  0
LINE
  5
4CB
100
AcDbEntity
  8
MAIN0
  6
HIDDEN
 62
3
100
AcDbLine
 10
407.1344035438541
 20
506.6041124068582
 30
0.0000000000000000
 11
404.8250024670956
 21
510.6041124068582
 31
0.0000000000000000
  0
LINE
  5
4CC
100
AcDbEntity
  8
MAIN0
  6
HIDDEN
 62
3
100
AcDbLine
 10
404.8250024670955
 20
510.6041124068581
 30
0.0000000000000000
 11
400.2062003135785
 21
510.6041124068581
 31
0.0000000000000000
  0
LINE
  5
4CD
100
AcDbEntity
  8
MAIN0
  6
HIDDEN
 62
3
100
AcDbLine
 10
400.2062003135789
 20
510.6041124068581
 30
0.0000000000000000
 11
397.8967992368203
 21
506.6041124068580
 31
0.0000000000000000
  0
LINE
  5
4CE
100
AcDbEntity
  8
MAIN0
  6
HIDDEN
 62
3
100
AcDbLine
 10
397.8967992368201
 20
506.6041124068583
 30
0.0000000000000000
 11
400.2062003135787
 21
502.6041124068582
 31
0.0000000000000000
  0
LINE
  5
4CF
100
AcDbEntity
  8
MAIN0
  6
HIDDEN
 62
3
100
AcDbLine
 10
400.2062003135786
 20
502.6041124068581
 30
0.0000000000000000
 11
404.8250024670955
 21
502.6041124068581
 31
0.0000000000000000
  0
LINE
  5
4D0
100
AcDbEntity
  8
MAIN0
  6
HIDDEN
 62
3
100
AcDbLine
 10
404.8250024670956
 20
502.6041124068581
 30
0.0000000000000000
 11
407.1344035438541
 21
506.6041124068581
 31
0.0000000000000000
  0
CIRCLE
  5
4D1
100
AcDbEntity
  8
MAIN0
  6
HIDDEN
 62
3
100
AcDbCircle
 10
402.5156013903369
 20
469.6041124067608
 30
0.0000000000000000
 40
8.000000000000000
  0
LINE
  5
4D2
100
AcDbEntity
  8
MAIN0
  6
HIDDEN
 62
3
100
AcDbLine
 10
407.1344035438539
 20
469.6041124067609
 30
0.0000000000000000
 11
404.8250024670954
 21
473.6041124067609
 31
0.0000000000000000
  0
LINE
  5
4D3
100
AcDbEntity
  8
MAIN0
  6
HIDDEN
 62
3
100
AcDbLine
 10
404.8250024670953
 20
473.6041124067609
 30
0.0000000000000000
 11
400.2062003135783
 21
473.6041124067609
 31
0.0000000000000000
  0
LINE
  5
4D4
100
AcDbEntity
  8
MAIN0
  6
HIDDEN
 62
3
100
AcDbLine
 10
400.2062003135787
 20
473.6041124067608
 30
0.0000000000000000
 11
397.8967992368201
 21
469.6041124067606
 31
0.0000000000000000
  0
LINE
  5
4D5
100
AcDbEntity
  8
MAIN0
  6
HIDDEN
 62
3
100
AcDbLine
 10
397.8967992368200
 20
469.6041124067609
 30
0.0000000000000000
 11
400.2062003135785
 21
465.6041124067609
 31
0.0000000000000000
  0
LINE
  5
4D6
100
AcDbEntity
  8
MAIN0
  6
HIDDEN
 62
3
100
AcDbLine
 10
400.2062003135784
 20
465.6041124067609
 30
0.0000000000000000
 11
404.8250024670954
 21
465.6041124067609
 31
0.0000000000000000
  0
LINE
  5
4D7
100
AcDbEntity
  8
MAIN0
  6
HIDDEN
 62
3
100
AcDbLine
 10
404.8250024670955
 20
465.6041124067607
 30
0.0000000000000000
 11
407.1344035438539
 21
469.6041124067607
 31
0.0000000000000000
  0
CIRCLE
  5
4D8
100
AcDbEntity
  8
MAIN0
  6
HIDDEN
 62
3
100
AcDbCircle
 10
367.5156013903119
 20
469.6041124067733
 30
0.0000000000000000
 40
8.000000000000000
  0
LINE
  5
4D9
100
AcDbEntity
  8
MAIN0
  6
HIDDEN
 62
3
100
AcDbLine
 10
372.1344035438291
 20
469.6041124067735
 30
0.0000000000000000
 11
369.8250024670706
 21
473.6041124067734
 31
0.0000000000000000
  0
LINE
  5
4DA
100
AcDbEntity
  8
MAIN0
  6
HIDDEN
 62
3
100
AcDbLine
 10
369.8250024670704
 20
473.6041124067733
 30
0.0000000000000000
 11
365.2062003135534
 21
473.6041124067733
 31
0.0000000000000000
  0
LINE
  5
4DB
100
AcDbEntity
  8
MAIN0
  6
HIDDEN
 62
3
100
AcDbLine
 10
365.2062003135537
 20
473.6041124067734
 30
0.0000000000000000
 11
362.8967992367951
 21
469.6041124067733
 31
0.0000000000000000
  0
LINE
  5
4DC
100
AcDbEntity
  8
MAIN0
  6
HIDDEN
 62
3
100
AcDbLine
 10
362.8967992367951
 20
469.6041124067735
 30
0.0000000000000000
 11
365.2062003135537
 21
465.6041124067734
 31
0.0000000000000000
  0
LINE
  5
4DD
100
AcDbEntity
  8
MAIN0
  6
HIDDEN
 62
3
100
AcDbLine
 10
365.2062003135535
 20
465.6041124067733
 30
0.0000000000000000
 11
369.8250024670705
 21
465.6041124067733
 31
0.0000000000000000
  0
LINE
  5
4DE
100
AcDbEntity
  8
MAIN0
  6
HIDDEN
 62
3
100
AcDbLine
 10
369.8250024670707
 20
465.6041124067734
 30
0.0000000000000000
 11
372.1344035438291
 21
469.6041124067734
 31
0.0000000000000000
  0
CIRCLE
  5
4DF
100
AcDbEntity
  8
MAIN0
  6
HIDDEN
 62
3
100
AcDbCircle
 10
367.5156013902878
 20
506.6041124068818
 30
0.0000000000000000
 40
8.000000000000000
  0
LINE
  5
4E0
100
AcDbEntity
  8
MAIN0
  6
HIDDEN
 62
3
100
AcDbLine
 10
372.1344035438049
 20
506.6041124068820
 30
0.0000000000000000
 11
369.8250024670464
 21
510.6041124068820
 31
0.0000000000000000
  0
LINE
  5
4E1
100
AcDbEntity
  8
MAIN0
  6
HIDDEN
 62
3
100
AcDbLine
 10
369.8250024670463
 20
510.6041124068818
 30
0.0000000000000000
 11
365.2062003135293
 21
510.6041124068818
 31
0.0000000000000000
  0
LINE
  5
4E2
100
AcDbEntity
  8
MAIN0
  6
HIDDEN
 62
3
100
AcDbLine
 10
365.2062003135296
 20
510.6041124068819
 30
0.0000000000000000
 11
362.8967992367710
 21
506.6041124068818
 31
0.0000000000000000
  0
LINE
  5
4E3
100
AcDbEntity
  8
MAIN0
  6
HIDDEN
 62
3
100
AcDbLine
 10
362.8967992367710
 20
506.6041124068820
 30
0.0000000000000000
 11
365.2062003135296
 21
502.6041124068819
 31
0.0000000000000000
  0
LINE
  5
4E4
100
AcDbEntity
  8
MAIN0
  6
HIDDEN
 62
3
100
AcDbLine
 10
365.2062003135293
 20
502.6041124068818
 30
0.0000000000000000
 11
369.8250024670463
 21
502.6041124068818
 31
0.0000000000000000
  0
LINE
  5
4E5
100
AcDbEntity
  8
MAIN0
  6
HIDDEN
 62
3
100
AcDbLine
 10
369.8250024670465
 20
502.6041124068819
 30
0.0000000000000000
 11
372.1344035438050
 21
506.6041124068818
 31
0.0000000000000000
  0
LINE
  5
4E6
100
AcDbEntity
  8
MAIN0
  6
CONTINUOUS
 62
3
100
AcDbLine
 10
353.5156013903565
 20
538.1041124070493
 30
0.0000000000000000
 11
416.4156013903566
 21
538.1041124070493
 31
0.0000000000000000
  0
LINE
  5
4E7
100
AcDbEntity
  8
MAIN0
  6
CONTINUOUS
 62
3
100
AcDbLine
 10
353.5156013903567
 20
438.1041124070492
 30
0.0000000000000000
 11
416.4156013903566
 21
438.1041124070492
 31
0.0000000000000000
  0
LINE
  5
4E8
100
AcDbEntity
  8
MAIN0
  6
CONTINUOUS
 62
3
100
AcDbLine
 10
353.5156013903568
 20
538.1041124070493
 30
0.0000000000000000
 11
353.0156013903569
 21
537.6041124070493
 31
0.0000000000000000
  0
LINE
  5
4E9
100
AcDbEntity
  8
MAIN0
  6
CONTINUOUS
 62
3
100
AcDbLine
 10
353.0156013903564
 20
438.6041124070493
 30
0.0000000000000000
 11
353.5156013903565
 21
438.1041124070492
 31
0.0000000000000000
  0
LINE
  5
4EA
100
AcDbEntity
  8
MAIN0
  6
CONTINUOUS
 62
3
100
AcDbLine
 10
416.4156013903568
 20
538.1041124070493
 30
0.0000000000000000
 11
417.0156013903568
 21
537.5041124070493
 31
0.0000000000000000
  0
LINE
  5
4EB
100
AcDbEntity
  8
MAIN0
  6
CONTINUOUS
 62
3
100
AcDbLine
 10
417.0156013903563
 20
438.7041124070490
 30
0.0000000000000000
 11
416.4156013903564
 21
438.1041124070491
 31
0.0000000000000000
  0
LINE
  5
4EC
100
AcDbEntity
  8
MAIN0
  6
CONTINUOUS
 62
3
100
AcDbLine
 10
353.0156013903567
 20
537.6041124070493
 30
0.0000000000000000
 11
353.0156013903567
 21
438.6041124070493
 31
0.0000000000000000
  0
LINE
  5
4ED
100
AcDbEntity
  8
MAIN0
  6
CONTINUOUS
 62
3
100
AcDbLine
 10
417.0156013903567
 20
542.6041124069893
 30
0.0000000000000000
 11
417.0156013903567
 21
433.6041124069895
 31
0.0000000000000000
  0
LINE
  5
4EE
100
AcDbEntity
  8
WAKU0
  6
CONTINUOUS
 62
3
100
AcDbLine
 10
240.0000000000000
 20
51.00000000000000
 30
0.0000000000000000
 11
410.0000000000000
 21
51.00000000000000
 31
0.0000000000000000
  0
LINE
  5
4EF
100
AcDbEntity
  8
WAKU0
  6
CONTINUOUS
 62
3
100
AcDbLine
 10
240.0000000000000
 20
51.00000000000000
 30
0.0000000000000000
 11
240.0000000000000
 21
12.00000000000000
 31
0.0000000000000000
  0
LINE
  5
4F0
100
AcDbEntity
  8
WAKU0
  6
CONTINUOUS
 62
3
100
AcDbLine
 10
312.0000000000000
 20
51.00000000000000
 30
0.0000000000000000
 11
312.0000000000000
 21
12.00000000000000
 31
0.0000000000000000
  0
LINE
  5
4F1
100
AcDbEntity
  8
WAKU0
  6
CONTINUOUS
 62
3
100
AcDbLine
 10
332.0000000000000
 20
51.00000000000000
 30
0.0000000000000000
 11
332.0000000000000
 21
12.00000000000000
 31
0.0000000000000000
  0
LINE
  5
4F2
100
AcDbEntity
  8
WAKU0
  6
CONTINUOUS
 62
3
100
AcDbLine
 10
344.0000000000000
 20
51.00000000000000
 30
0.0000000000000000
 11
344.0000000000000
 21
12.00000000000000
 31
0.0000000000000000
  0
LINE
  5
4F3
100
AcDbEntity
  8
WAKU0
  6
CONTINUOUS
 62
3
100
AcDbLine
 10
344.0000000000000
 20
37.00000000000000
 30
0.0000000000000000
 11
410.0000000000000
 21
37.00000000000000
 31
0.0000000000000000
  0
LINE
  5
4F4
100
AcDbEntity
  8
WAKU0
  6
CONTINUOUS
 62
3
100
AcDbLine
 10
332.0000000000000
 20
23.00000000000000
 30
0.0000000000000000
 11
410.0000000000000
 21
23.00000000000000
 31
0.0000000000000000
  0
LINE
  5
4F5
100
AcDbEntity
  8
WAKU0
  6
CONTINUOUS
 62
3
100
AcDbLine
 10
375.0000000000000
 20
51.00000000000000
 30
0.0000000000000000
 11
375.0000000000000
 21
44.00000000000000
 31
0.0000000000000000
  0
LINE
  5
4F6
100
AcDbEntity
  8
WAKU0
  6
CONTINUOUS
 62
3
100
AcDbLine
 10
387.0000000000000
 20
51.00000000000000
 30
0.0000000000000000
 11
387.0000000000000
 21
44.00000000000000
 31
0.0000000000000000
  0
LINE
  5
4F7
100
AcDbEntity
  8
WAKU0
  6
CONTINUOUS
 62
3
100
AcDbLine
 10
312.0000000000000
 20
31.50000000000000
 30
0.0000000000000000
 11
332.0000000000000
 21
31.50000000000000
 31
0.0000000000000000
  0
LINE
  5
4F8
100
AcDbEntity
  8
WAKU0
  6
CONTINUOUS
 62
3
100
AcDbLine
 10
332.0000000000000
 20
44.00000000000000
 30
0.0000000000000000
 11
410.0000000000000
 21
44.00000000000000
 31
0.0000000000000000
  0
LINE
  5
4F9
100
AcDbEntity
  8
WAKU0
  6
CONTINUOUS
 62
3
100
AcDbLine
 10
240.0000000000000
 20
37.00000000000000
 30
0.0000000000000000
 11
312.0000000000000
 21
37.00000000000000
 31
0.0000000000000000
  0
LINE
  5
4FA
100
AcDbEntity
  8
WAKU0
  6
CONTINUOUS
 62
3
100
AcDbLine
 10
240.0000000000000
 20
23.00000000000000
 30
0.0000000000000000
 11
312.0000000000000
 21
23.00000000000000
 31
0.0000000000000000
  0
LINE
  5
4FB
100
AcDbEntity
  8
WAKU0
  6
CONTINUOUS
 62
3
100
AcDbLine
 10
288.0000000000000
 20
37.00000000000000
 30
0.0000000000000000
 11
288.0000000000000
 21
12.00000000000000
 31
0.0000000000000000
  0
LINE
  5
4FC
100
AcDbEntity
  8
WAKU0
  6
CONTINUOUS
 62
3
100
AcDbLine
 10
264.0000000000000
 20
37.00000000000000
 30
0.0000000000000000
 11
264.0000000000000
 21
23.00000000000000
 31
0.0000000000000000
  0
LINE
  5
4FD
100
AcDbEntity
  8
WAKU0
  6
CONTINUOUS
 62
3
100
AcDbLine
 10
300.0000000000000
 20
26.00000000000000
 30
0.0000000000000000
 11
300.0000000000000
 21
23.00000000000000
 31
0.0000000000000000
  0
LINE
  5
4FE
100
AcDbEntity
  8
WAKU0
  6
CONTINUOUS
 62
3
100
AcDbLine
 10
276.0000000000000
 20
26.00000000000000
 30
0.0000000000000000
 11
276.0000000000000
 21
23.00000000000000
 31
0.0000000000000000
  0
LINE
  5
4FF
100
AcDbEntity
  8
WAKU0
  6
CONTINUOUS
 62
3
100
AcDbLine
 10
252.0000000000000
 20
26.00000000000000
 30
0.0000000000000000
 11
252.0000000000000
 21
23.00000000000000
 31
0.0000000000000000
  0
LINE
  5
500
100
AcDbEntity
  8
WAKU0
  6
CONTINUOUS
 62
3
100
AcDbLine
 10
258.0000000000000
 20
51.00000000000000
 30
0.0000000000000000
 11
258.0000000000000
 21
37.00000000000000
 31
0.0000000000000000
  0
LINE
  5
501
100
AcDbEntity
  8
WAKU0
  6
CONTINUOUS
 62
3
100
AcDbLine
 10
240.0000000000000
 20
45.00000000000000
 30
0.0000000000000000
 11
312.0000000000000
 21
45.00000000000000
 31
0.0000000000000000
  0
LINE
  5
502
100
AcDbEntity
  8
WAKU0
  6
HIDDEN
 62
3
100
AcDbLine
 10
360.5000000000000
 20
23.00000000000000
 30
0.0000000000000000
 11
360.5000000000000
 21
12.00000000000000
 31
0.0000000000000000
  0
LINE
  5
503
100
AcDbEntity
  8
WAKU0
  6
HIDDEN
 62
3
100
AcDbLine
 10
372.9000000000000
 20
23.00000000000000
 30
0.0000000000000000
 11
372.9000000000000
 21
12.00000000000000
 31
0.0000000000000000
  0
MTEXT
  5
504
100
AcDbEntity
  8
WAKU0
  6
CONTINUOUS
 62
3
100
AcDbMText
 10
344.4820000243485
 20
49.04999995231628
 30
0.0000000000000000
 40
3.099999904632568
 41
0.0000000000000000
 71
     1
 72
     1
  1
{\H0.92x;{VE100N}}
 11
1.000000000000000
 21
0.0000000000000000
 31
0.0000000000000000
  7
STANDARD
  0
MTEXT
  5
505
100
AcDbEntity
  8
WAKU0
  6
CONTINUOUS
 62
3
100
AcDbMText
 10
360.3350002765656
 20
43.50000000000000
 30
0.0000000000000000
 40
3.000000000000000
 41
0.0000000000000000
 71
     1
 72
     1
  1
{\H0.94x;{パワーバイス\PＰＯＷＥＲ　ＶＩＳＥ}}
 11
1.000000000000000
 21
0.0000000000000000
 31
0.0000000000000000
  7
KNJYOKO
  0
MTEXT
  5
506
100
AcDbEntity
  8
WAKU0
  6
CONTINUOUS
 62
3
100
AcDbMText
 10
350.3999990373850
 20
34.83333333333333
 30
0.0000000000000000
 40
4.000000000000000
 41
0.0000000000000000
 71
     1
 72
     1
  1
{\H0.59x;{ＶＥ１００Ｎ　ガイケイ\PＶＥ１００Ｎ　ＯＵＴＳＩＤＥ　ＶＩＥＷ}}
 11
1.000000000000000
 21
0.0000000000000000
 31
0.0000000000000000
  7
KNJYOKO
  0
MTEXT
  5
507
100
AcDbEntity
  8
WAKU0
  6
CONTINUOUS
 62
3
100
AcDbMText
 10
318.0049998760223
 20
39.29999995231628
 30
0.0000000000000000
 40
3.099999904632568
 41
0.0000000000000000
 71
     1
 72
     1
  1
{\H0.90x;{1:2}}
 11
1.000000000000000
 21
0.0000000000000000
 31
0.0000000000000000
  7
STANDARD
  0
MTEXT
  5
508
100
AcDbEntity
  8
WAKU0
  6
CONTINUOUS
 62
3
100
AcDbMText
 10
374.4000001549721
 20
20.15000009536743
 30
0.0000000000000000
 40
5.300000190734863
 41
0.0000000000000000
 71
     1
 72
     1
  1
{\H0.90x;{6947}}
 11
1.000000000000000
 21
0.0000000000000000
 31
0.0000000000000000
  7
STANDARD
  0
MTEXT
  5
509
100
AcDbEntity
  8
WAKU0
  6
CONTINUOUS
 62
3
100
AcDbMText
 10
362.3000000834465
 20
20.15000009536743
 30
0.0000000000000000
 40
5.300000190734863
 41
0.0000000000000000
 71
     1
 72
     1
  1
{\H0.87x;{39}}
 11
1.000000000000000
 21
0.0000000000000000
 31
0.0000000000000000
  7
STANDARD
  0
MTEXT
  5
50A
100
AcDbEntity
  8
WAKU0
  6
CONTINUOUS
 62
3
100
AcDbMText
 10
345.5000001192093
 20
20.15000009536743
 30
0.0000000000000000
 40
5.300000190734863
 41
0.0000000000000000
 71
     1
 72
     1
  1
{\H0.89x;{61M}}
 11
1.000000000000000
 21
0.0000000000000000
 31
0.0000000000000000
  7
STANDARD
  0
MTEXT
  5
50B
100
AcDbEntity
  8
WAKU0
  6
CONTINUOUS
 62
3
100
AcDbMText
 10
400.0000000476837
 20
20.15000009536743
 30
0.0000000000000000
 40
5.300000190734863
 41
0.0000000000000000
 71
     1
 72
     1
  1
{\H0.81x;{0}}
 11
1.000000000000000
 21
0.0000000000000000
 31
0.0000000000000000
  7
STANDARD
  0
MTEXT
  5
50C
100
AcDbEntity
  8
WAKU0
  6
CONTINUOUS
 62
3
100
AcDbMText
 10
400.0000000819564
 20
44.84999990463257
 30
0.0000000000000000
 40
5.300000190734863
 41
0.0000000000000000
 71
     7
 72
     1
  1
{\H0.81x;{ }}
 11
1.000000000000000
 21
0.0000000000000000
 31
0.0000000000000000
  7
STANDARD
  0
MTEXT
  5
50D
100
AcDbEntity
  8
WAKU0
  6
CONTINUOUS
 62
3
100
AcDbMText
 10
289.3850002884865
 20
33.00000000000000
 30
0.0000000000000000
 40
3.000000000000000
 41
0.0000000000000000
 71
     7
 72
     1
  1
{\H0.93x;{DRAWN BY}}
 11
1.000000000000000
 21
0.0000000000000000
 31
0.0000000000000000
  7
STANDARD
  0
MTEXT
  5
50E
100
AcDbEntity
  8
WAKU0
  6
CONTINUOUS
 62
3
100
AcDbMText
 10
269.2149997949600
 20
32.95000004768372
 30
0.0000000000000000
 40
3.099999904632568
 41
0.0000000000000000
 71
     7
 72
     1
  1
{\H0.92x;{CHIEF}}
 11
1.000000000000000
 21
0.0000000000000000
 31
0.0000000000000000
  7
STANDARD
  0
MTEXT
  5
50F
100
AcDbEntity
  8
WAKU0
  6
CONTINUOUS
 62
3
100
AcDbMText
 10
242.4249997138977
 20
32.95000004768372
 30
0.0000000000000000
 40
3.099999904632568
 41
0.0000000000000000
 71
     7
 72
     1
  1
{\H0.92x;{MANAGER}}
 11
1.000000000000000
 21
0.0000000000000000
 31
0.0000000000000000
  7
STANDARD
  0
MTEXT
  5
510
100
AcDbEntity
  8
WAKU0
  6
CONTINUOUS
 62
3
100
AcDbMText
 10
244.6599994301796
 20
18.13333336512248
 30
0.0000000000000000
 40
3.099999904632568
 41
0.0000000000000000
 71
     7
 72
     1
  1
{\H0.93x;{KITAGAWA IRON\PWORKS CO.,LTD.}}
 11
1.000000000000000
 21
0.0000000000000000
 31
0.0000000000000000
  7
STANDARD
  0
MTEXT
  5
511
100
AcDbEntity
  8
WAKU0
  6
CONTINUOUS
 62
3
100
AcDbMText
 10
241.0850002169609
 20
46.50000000000000
 30
0.0000000000000000
 40
3.000000000000000
 41
0.0000000000000000
 71
     7
 72
     1
  1
{\H0.92x;{CAREER}}
 11
1.000000000000000
 21
0.0000000000000000
 31
0.0000000000000000
  7
STANDARD
  0
MTEXT
  5
512
100
AcDbEntity
  8
WAKU0
  6
CONTINUOUS
 62
3
100
AcDbMText
 10
294.6099998354912
 20
18.95000004768372
 30
0.0000000000000000
 40
3.099999904632568
 41
0.0000000000000000
 71
     7
 72
     1
  1
{\H0.91x;{DATE}}
 11
1.000000000000000
 21
0.0000000000000000
 31
0.0000000000000000
  7
STANDARD
  0
MTEXT
  5
513
100
AcDbEntity
  8
WAKU0
  6
CONTINUOUS
 62
3
100
AcDbMText
 10
313.9000002145767
 20
26.50000000000000
 30
0.0000000000000000
 40
3.000000000000000
 41
0.0000000000000000
 71
     7
 72
     1
  1
{\H0.63x;{3RD ANGLE}}
 11
1.000000000000000
 21
0.0000000000000000
 31
0.0000000000000000
  7
STANDARD
  0
MTEXT
  5
514
100
AcDbEntity
  8
WAKU0
  6
CONTINUOUS
 62
3
100
AcDbMText
 10
315.2149997949600
 20
45.95000004768372
 30
0.0000000000000000
 40
3.099999904632568
 41
0.0000000000000000
 71
     7
 72
     1
  1
{\H0.92x;{SCALE}}
 11
1.000000000000000
 21
0.0000000000000000
 31
0.0000000000000000
  7
STANDARD
  0
MTEXT
  5
515
100
AcDbEntity
  8
WAKU0
  6
CONTINUOUS
 62
3
100
AcDbMText
 10
405.7000000476837
 20
46.00000000000000
 30
0.0000000000000000
 40
3.000000000000000
 41
0.0000000000000000
 71
     7
 72
     1
  1
{\H0.63x;{kg}}
 11
1.000000000000000
 21
0.0000000000000000
 31
0.0000000000000000
  7
STANDARD
  0
MTEXT
  5
516
100
AcDbEntity
  8
WAKU0
  6
CONTINUOUS
 62
3
100
AcDbMText
 10
375.6000001430512
 20
46.00000000000000
 30
0.0000000000000000
 40
3.000000000000000
 41
0.0000000000000000
 71
     7
 72
     1
  1
{\H0.63x;{WEIGHT}}
 11
1.000000000000000
 21
0.0000000000000000
 31
0.0000000000000000
  7
STANDARD
  0
MTEXT
  5
517
100
AcDbEntity
  8
WAKU0
  6
CONTINUOUS
 62
3
100
AcDbMText
 10
334.0049998760223
 20
18.13333336512248
 30
0.0000000000000000
 40
3.099999904632568
 41
0.0000000000000000
 71
     7
 72
     1
  1
{\H0.90x;{DRW\PNO.}}
 11
1.000000000000000
 21
0.0000000000000000
 31
0.0000000000000000
  7
STANDARD
  0
MTEXT
  5
518
100
AcDbEntity
  8
WAKU0
  6
CONTINUOUS
 62
3
100
AcDbMText
 10
332.6099998354912
 20
31.95000004768372
 30
0.0000000000000000
 40
3.099999904632568
 41
0.0000000000000000
 71
     7
 72
     1
  1
{\H0.91x;{NAME}}
 11
1.000000000000000
 21
0.0000000000000000
 31
0.0000000000000000
  7
STANDARD
  0
MTEXT
  5
519
100
AcDbEntity
  8
WAKU0
  6
CONTINUOUS
 62
3
100
AcDbMText
 10
332.6099998354912
 20
45.95000004768372
 30
0.0000000000000000
 40
3.099999904632568
 41
0.0000000000000000
 71
     7
 72
     1
  1
{\H0.91x;{TYPE}}
 11
1.000000000000000
 21
0.0000000000000000
 31
0.0000000000000000
  7
STANDARD
  0
LINE
  5
51A
100
AcDbEntity
  8
WAKU0
  6
HIDDEN
 62
3
100
AcDbLine
 10
407.1599564743885
 20
13.84999990463257
 30
0.0000000000000000
 11
396.9400436209789
 21
13.84999990463257
 31
0.0000000000000000
  0
LINE
  5
51B
100
AcDbEntity
  8
WAKU0
  6
HIDDEN
 62
3
100
AcDbLine
 10
407.1599564743885
 20
13.84999990463250
 30
0.0000000000000000
 11
402.0500000476852
 21
22.70070406014901
 31
0.0000000000000000
  0
LINE
  5
51C
100
AcDbEntity
  8
WAKU0
  6
HIDDEN
 62
3
100
AcDbLine
 10
402.0500000476852
 20
22.70070406014902
 30
0.0000000000000000
 11
396.9400436209789
 21
13.84999990463248
 31
0.0000000000000000
  0
LINE
  5
51D
100
AcDbEntity
  8
WAKU0
  6
CONTINUOUS
 62
3
100
AcDbLine
 10
330.4713877753800
 20
15.78041421262812
 30
0.0000000000000000
 11
330.4713877753800
 21
21.78041421262815
 31
0.0000000000000000
  0
LINE
  5
51E
100
AcDbEntity
  8
WAKU0
  6
CONTINUOUS
 62
3
100
AcDbLine
 10
323.9336941228225
 20
17.28041421262811
 30
0.0000000000000000
 11
323.9336941228225
 21
20.28041421262824
 31
0.0000000000000000
  0
LINE
  5
51F
100
AcDbEntity
  8
WAKU0
  6
CENTER
 62
12
100
AcDbLine
 10
313.4321805514995
 20
18.78041421262813
 30
0.0000000000000000
 11
331.2765788964694
 21
18.78041421262813
 31
0.0000000000000000
  0
LINE
  5
520
100
AcDbEntity
  8
WAKU0
  6
CENTER
 62
12
100
AcDbLine
 10
317.4474565857986
 20
14.55921662918448
 30
0.0000000000000000
 11
317.4474565857986
 21
22.89865102149943
 31
0.0000000000000000
  0
LINE
  5
521
100
AcDbEntity
  8
WAKU0
  6
CONTINUOUS
 62
3
100
AcDbLine
 10
323.9336941228225
 20
20.28041421262797
 30
0.0000000000000000
 11
330.4713877753800
 21
21.78041421262795
 31
0.0000000000000000
  0
LINE
  5
522
100
AcDbEntity
  8
WAKU0
  6
CONTINUOUS
 62
3
100
AcDbLine
 10
323.9336941228225
 20
17.28041421262811
 30
0.0000000000000000
 11
330.4713877753799
 21
15.78041421262812
 31
0.0000000000000000
  0
CIRCLE
  5
523
100
AcDbEntity
  8
WAKU0
  6
CONTINUOUS
 62
3
100
AcDbCircle
 10
317.4474565857986
 20
18.78041421262813
 30
0.0000000000000000
 40
1.499999999999972
  0
CIRCLE
  5
524
100
AcDbEntity
  8
WAKU0
  6
CONTINUOUS
 62
3
100
AcDbCircle
 10
317.4474565857986
 20
18.78041421262813
 30
0.0000000000000000
 40
2.999999999999979
  0
LINE
  5
525
100
AcDbEntity
  8
A0
  6
CONTINUOUS
 62
3
100
AcDbLine
 10
197.7033744588948
 20
180.1663581775729
 30
0.0000000000000000
 11
197.7033744588948
 21
65.66636044254483
 31
0.0000000000000000
  0
LINE
  5
526
100
AcDbEntity
  8
A0
  6
CONTINUOUS
 62
3
100
AcDbLine
 10
64.70337493568485
 20
167.4163584163063
 30
0.0000000000000000
 11
197.7033744588949
 21
167.4163584163654
 31
0.0000000000000000
  0
LINE
  5
527
100
AcDbEntity
  8
A0
  6
CONTINUOUS
 62
3
100
AcDbLine
 10
64.70337493568383
 20
180.1663581774550
 30
0.0000000000000000
 11
197.7033744588949
 21
180.1663581775730
 31
0.0000000000000000
  0
MTEXT
  5
528
100
AcDbEntity
  8
A0
  6
CONTINUOUS
 62
3
100
AcDbMText
 10
81.57837374361553
 20
177.6663581779175
 30
0.0000000000000000
 40
7.749999761581421
 41
0.0000000000000000
 71
     1
 72
     1
  1
{\H0.71x;{仕様　　SPECIFICATIONS}}
 11
1.000000000000000
 21
0.0000000000000000
 31
0.0000000000000000
  7
KNJYOKO
  0
MTEXT
  5
529
100
AcDbEntity
  8
A0
  6
CONTINUOUS
 62
3
100
AcDbMText
 10
153.7033735051895
 20
161.0413585352534
 30
0.0000000000000000
 40
7.749999761581421
 41
0.0000000000000000
 71
     1
 72
     1
  1
{\H0.70x;{０～１２８mm}}
 11
1.000000000000000
 21
0.0000000000000000
 31
0.0000000000000000
  7
KNJYOKO
  0
MTEXT
  5
52A
100
AcDbEntity
  8
A0
  6
CONTINUOUS
 62
3
100
AcDbMText
 10
65.95337493570095
 20
155.9163586544627
 30
0.0000000000000000
 40
7.749999761581421
 41
0.0000000000000000
 71
     1
 72
     1
  1
{\H0.71x;{CLAMPING RANGE}}
 11
1.000000000000000
 21
0.0000000000000000
 31
0.0000000000000000
  7
STANDARD
  0
LINE
  5
52B
100
AcDbEntity
  8
A0
  6
CONTINUOUS
 62
3
100
AcDbLine
 10
64.70337493568638
 20
146.9163588927106
 30
0.0000000000000000
 11
197.7033744588949
 21
146.9163588928285
 31
0.0000000000000000
  0
LINE
  5
52C
100
AcDbEntity
  8
A0
  6
CONTINUOUS
 62
3
100
AcDbLine
 10
152.4533735051872
 20
167.4163584163432
 30
0.0000000000000000
 11
152.4533735051872
 21
146.9163588927839
 31
0.0000000000000000
  0
MTEXT
  5
52D
100
AcDbEntity
  8
A0
  6
CONTINUOUS
 62
3
100
AcDbMText
 10
65.95337493570095
 20
135.4163591312998
 30
0.0000000000000000
 40
7.749999761581421
 41
0.0000000000000000
 71
     1
 72
     1
  1
{\H0.71x;{TIGHTENING TORQUE}}
 11
1.000000000000000
 21
0.0000000000000000
 31
0.0000000000000000
  7
STANDARD
  0
LINE
  5
52E
100
AcDbEntity
  8
A0
  6
CONTINUOUS
 62
3
100
AcDbLine
 10
197.7033744588948
 20
126.4163593700397
 30
0.0000000000000000
 11
64.70337493568802
 21
126.4163593699806
 31
0.0000000000000000
  0
LINE
  5
52F
100
AcDbEntity
  8
A0
  6
CONTINUOUS
 62
3
100
AcDbLine
 10
152.4533735051872
 20
126.4163593700175
 30
0.0000000000000000
 11
152.4533735051872
 21
65.66636044250481
 31
0.0000000000000000
  0
LINE
  5
530
100
AcDbEntity
  8
A0
  6
CONTINUOUS
 62
3
100
AcDbLine
 10
152.4533735051872
 20
105.9163598468548
 30
0.0000000000000000
 11
197.7033744588949
 21
105.9163598468748
 31
0.0000000000000000
  0
MTEXT
  5
531
100
AcDbEntity
  8
A0
  6
CONTINUOUS
 62
3
100
AcDbMText
 10
158.7033739820267
 20
104.6663598461773
 30
0.0000000000000000
 40
7.749999761581421
 41
0.0000000000000000
 71
     1
 72
     1
  1
{\H0.67x;{2}}
 11
1.000000000000000
 21
0.0000000000000000
 31
0.0000000000000000
  7
STANDARD
  0
LINE
  5
532
100
AcDbEntity
  8
A0
  6
CONTINUOUS
 62
3
100
AcDbLine
 10
197.7033744588948
 20
85.41636008529542
 30
0.0000000000000000
 11
64.70337493569043
 21
85.41636008523631
 31
0.0000000000000000
  0
MTEXT
  5
533
100
AcDbEntity
  8
A0
  6
CONTINUOUS
 62
3
100
AcDbMText
 10
158.7033739820266
 20
94.41635984655557
 30
0.0000000000000000
 40
7.749999761581421
 41
0.0000000000000000
 71
     1
 72
     1
  1
{\H0.67x;{3}}
 11
1.000000000000000
 21
0.0000000000000000
 31
0.0000000000000000
  7
STANDARD
  0
LINE
  5
534
100
AcDbEntity
  8
A0
  6
CONTINUOUS
 62
3
100
AcDbLine
 10
152.4533735051872
 20
116.1663596080399
 30
0.0000000000000000
 11
197.7033744588949
 21
116.1663596080800
 31
0.0000000000000000
  0
LINE
  5
535
100
AcDbEntity
  8
A0
  6
CONTINUOUS
 62
3
100
AcDbLine
 10
169.6021683750687
 20
126.4163593700251
 30
0.0000000000000000
 11
169.6021683750687
 21
85.41636008528315
 31
0.0000000000000000
  0
MTEXT
  5
536
100
AcDbEntity
  8
A0
  6
CONTINUOUS
 62
3
100
AcDbMText
 10
173.4244276271894
 20
114.9163596077578
 30
0.0000000000000000
 40
7.749999761581421
 41
0.0000000000000000
 71
     1
 72
     1
  1
{\H0.70x;{ 9KN}}
 11
1.000000000000000
 21
0.0000000000000000
 31
0.0000000000000000
  7
STANDARD
  0
MTEXT
  5
537
100
AcDbEntity
  8
A0
  6
CONTINUOUS
 62
3
100
AcDbMText
 10
173.4244276271894
 20
104.6663598461764
 30
0.0000000000000000
 40
7.749999761581421
 41
0.0000000000000000
 71
     1
 72
     1
  1
{\H0.70x;{17KN}}
 11
1.000000000000000
 21
0.0000000000000000
 31
0.0000000000000000
  7
STANDARD
  0
MTEXT
  5
538
100
AcDbEntity
  8
A0
  6
CONTINUOUS
 62
3
100
AcDbMText
 10
173.4244276271893
 20
94.41635984655466
 30
0.0000000000000000
 40
7.749999761581421
 41
0.0000000000000000
 71
     1
 72
     1
  1
{\H0.70x;{25KN}}
 11
1.000000000000000
 21
0.0000000000000000
 31
0.0000000000000000
  7
STANDARD
  0
MTEXT
  5
539
100
AcDbEntity
  8
A0
  6
CONTINUOUS
 62
3
100
AcDbMText
 10
158.7033739820267
 20
114.9163596077588
 30
0.0000000000000000
 40
7.749999761581421
 41
0.0000000000000000
 71
     1
 72
     1
  1
{\H0.67x;{1}}
 11
1.000000000000000
 21
0.0000000000000000
 31
0.0000000000000000
  7
STANDARD
  0
MTEXT
  5
53A
100
AcDbEntity
  8
A0
  6
CONTINUOUS
 62
3
100
AcDbMText
 10
164.0821871523609
 20
79.04136020417320
 30
0.0000000000000000
 40
7.749999761581421
 41
0.0000000000000000
 71
     1
 72
     1
  1
{\H0.70x;{19kg}}
 11
1.000000000000000
 21
0.0000000000000000
 31
0.0000000000000000
  7
STANDARD
  0
MTEXT
  5
53B
100
AcDbEntity
  8
A0
  6
CONTINUOUS
 62
3
100
AcDbMText
 10
65.95337493570095
 20
73.91636032339272
 30
0.0000000000000000
 40
6.999999880790710
 41
0.0000000000000000
 71
     1
 72
     1
  1
{\H0.67x;{MASS OF POWER VISE}}
 11
1.000000000000000
 21
0.0000000000000000
 31
0.0000000000000000
  7
STANDARD
  0
MTEXT
  5
53C
100
AcDbEntity
  8
A0
  6
CONTINUOUS
 62
3
100
AcDbMText
 10
65.95337493570095
 20
84.16636008497414
 30
0.0000000000000000
 40
7.749999761581421
 41
0.0000000000000000
 71
     1
 72
     1
  1
{\H0.70x;{製品質量}}
 11
1.000000000000000
 21
0.0000000000000000
 31
0.0000000000000000
  7
KNJYOKO
  0
MTEXT
  5
53D
100
AcDbEntity
  8
A0
  6
CONTINUOUS
 62
3
100
AcDbMText
 10
65.95337493570095
 20
114.9163596081370
 30
0.0000000000000000
 40
7.749999761581421
 41
0.0000000000000000
 71
     1
 72
     1
  1
{\H0.71x;{CLAMP RANGE}}
 11
1.000000000000000
 21
0.0000000000000000
 31
0.0000000000000000
  7
STANDARD
  0
MTEXT
  5
53E
100
AcDbEntity
  8
A0
  6
CONTINUOUS
 62
3
100
AcDbMText
 10
65.95337493570095
 20
125.1663593697184
 30
0.0000000000000000
 40
7.749999761581421
 41
0.0000000000000000
 71
     1
 72
     1
  1
{\H0.70x;{締付けレンジ}}
 11
1.000000000000000
 21
0.0000000000000000
 31
0.0000000000000000
  7
KNJYOKO
  0
LINE
  5
53F
100
AcDbEntity
  8
A0
  6
CONTINUOUS
 62
3
100
AcDbLine
 10
64.70337493568381
 20
180.1663581774546
 30
0.0000000000000000
 11
64.70337493569198
 21
65.66636044243120
 31
0.0000000000000000
  0
LINE
  5
540
100
AcDbEntity
  8
A0
  6
CONTINUOUS
 62
3
100
AcDbLine
 10
197.7033744588949
 20
65.66636044254949
 30
0.0000000000000000
 11
64.70337493569200
 21
65.66636044243154
 31
0.0000000000000000
  0
MTEXT
  5
541
100
AcDbEntity
  8
A0
  6
CONTINUOUS
 62
3
100
AcDbMText
 10
65.95337493570095
 20
145.6663588928813
 30
0.0000000000000000
 40
7.749999761581421
 41
0.0000000000000000
 71
     1
 72
     1
  1
{\H0.70x;{締付トルク}}
 11
1.000000000000000
 21
0.0000000000000000
 31
0.0000000000000000
  7
KNJYOKO
  0
MTEXT
  5
542
100
AcDbEntity
  8
A0
  6
CONTINUOUS
 62
3
100
AcDbMText
 10
65.95337493570095
 20
166.1663584160441
 30
0.0000000000000000
 40
7.749999761581421
 41
0.0000000000000000
 71
     1
 72
     1
  1
{\H0.70x;{口金の開き}}
 11
1.000000000000000
 21
0.0000000000000000
 31
0.0000000000000000
  7
KNJYOKO
  0
LINE
  5
543
100
AcDbEntity
  8
A0
  6
CONTINUOUS
 62
3
100
AcDbLine
 10
152.4533735051872
 20
95.66635984685482
 30
0.0000000000000000
 11
197.7033744588949
 21
95.66635984687483
 31
0.0000000000000000
  0
MTEXT
  5
544
100
AcDbEntity
  8
A0
  6
CONTINUOUS
 62
3
100
AcDbMText
 10
173.4244276271893
 20
125.1663593697175
 30
0.0000000000000000
 40
7.749999761581421
 41
0.0000000000000000
 71
     1
 72
     1
  1
{\H0.70x;{ 8KN}}
 11
1.000000000000000
 21
0.0000000000000000
 31
0.0000000000000000
  7
STANDARD
  0
MTEXT
  5
545
100
AcDbEntity
  8
A0
  6
CONTINUOUS
 62
3
100
AcDbMText
 10
158.7033739820266
 20
125.1663593697184
 30
0.0000000000000000
 40
7.749999761581421
 41
0.0000000000000000
 71
     1
 72
     1
  1
{\H0.67x;{0}}
 11
1.000000000000000
 21
0.0000000000000000
 31
0.0000000000000000
  7
STANDARD
  0
ENDSEC
  0
SECTION
  2
OBJECTS
  0
DICTIONARY
  5
5A6
100
AcDbDictionary
  3
ACAD_GROUP
350
5A7
  3
ACAD_MLINESTYLE
350
5A8
  3
DWGPROPS
350
5A9
  0
DICTIONARY
  5
5A7
102
{ACAD_REACTORS
330
5A6
102
}
100
AcDbDictionary
  0
DICTIONARY
  5
5A8
102
{ACAD_REACTORS
330
5A6
102
}
100
AcDbDictionary
  3
STANDARD
350
5AA
  0
MLINESTYLE
  5
5AA
102
{ACAD_REACTORS
330
5A8
102
}
100
AcDbMlineStyle
  2
STANDARD
 70
     0
  3

 62
   256
 51
90.00
 52
90.00
 71
     2
 49
0.50
 62
   256
  6
BYLAYER
 49
-0.50
 62
   256
  6
BYLAYER
  0
XRECORD
  5
5A9
102
{ACAD_REACTORS
330
5A6
102
}
100
AcDbXrecord
280
     1
  1
DWGPROPS COOKIE
  2
ＶＥ１００　ガイケイ
  3

  4

  6
パワーバイス
  7

  8

  9

300
=
301
=
302
=
303
=
304
=
305
=
306
=
307
=
308
=
309
=
 40
0.000000
 41
0.000000
 42
0.000000
  1

 90
        0
  0
ENDSEC
  0
EOF
