  0
SECTION
  2
HEADER
  9
$ACADVER
  1
AC1014
  9
$DWGCODEPAGE
  3
ANSI_932
  9
$LTSCALE
 40
20.0
  9
$FILLMODE
 70
     1
  9
$CLAYER
  8
0
  9
$PDMODE
 70
     0
  9
$SPLFRAME
 70
     0
  9
$SPLINETYPE
 70
     6
  9
$SPLINESEGS
 70
     8
  9
$DIMASZ
 40
2.000000
  9
$DIMEXE
 40
2.000000
  9
$DIMEXO
 40
0.800000
  9
$DIMTAD
 70
     1
  9
$DIMTIH
 70
     0
  9
$DIMTOH
 70
     0
  9
$DIMTVP
 40
0.500000
  9
$DIMTXT
 40
3.100000
  9
$EXTMIN
 10
0.000000
 20
0.000000
 30
0.000000
  9
$EXTMAX
 10
297.000000
 20
420.000000
 30
0.000000
  9
$MEASUREMENT
 70
  1
  9
$LIMMIN
 10
0.000000
 20
0.000000
  9
$LIMMAX
 10
297.000000
 20
420.000000
  9
$HANDLING
 70
     1
  9
$HANDSEED
  5
65D
  9
$DIMBLK
  1
_OPEN
  9
$DIMDEC
 70
     3
  9
$DIMAUNIT
 70
     1
  9
$DIMZIN
 70
     8
  9
$DIMTOFL
 70
     1
  0
ENDSEC
  0
SECTION
  2
CLASSES
  0
ENDSEC
  0
SECTION
  2
TABLES
  0
TABLE
  2
VPORT
  5
5F7
100
AcDbSymbolTable
 70
     1
  0
VPORT
  5
5F8
100
AcDbSymbolTableRecord
100
AcDbViewportTableRecord
  2
*ACTIVE
 70
     0
 12
801.364305
 22
538.249915
 40
1076.499831
 41
1.488833
  0
ENDTAB
  0
TABLE
  2
LTYPE
  5
5F9
100
AcDbSymbolTable
 70
     4
  0
LTYPE
  5
5FA
100
AcDbSymbolTableRecord
100
AcDbLinetypeTableRecord
  2
BYBLOCK
 70
     0
  3

 72
    65
 73
     0
 40
0.0
  0
LTYPE
  5
5FB
100
AcDbSymbolTableRecord
100
AcDbLinetypeTableRecord
  2
BYLAYER
 70
     0
  3

 72
    65
 73
     0
 40
0.0
  0
LTYPE
  5
5FC
100
AcDbSymbolTableRecord
100
AcDbLinetypeTableRecord
  2
CONTINUOUS
 70
     0
  3
Solid line (NEC CAE2D for Win R12.1 : 2016.08.08)
 72
    65
 73
     0
 40
0.0
  0
LTYPE
  5
5FD
100
AcDbSymbolTableRecord
100
AcDbLinetypeTableRecord
  2
HIDDEN
 70
     0
  3
__ __ __ __ __ __ __ __ __ __ __ __ __ __
 72
    65
 73
     2
 40
0.375
 49
0.25
 74
     0
 49
-0.125
 74
     0
  0
LTYPE
  5
5FE
100
AcDbSymbolTableRecord
100
AcDbLinetypeTableRecord
  2
CENTER
 70
     0
  3
____ _ ____ _ ____ _ ____ _ ____ _ ____
 72
    65
 73
     4
 40
2.0
 49
1.25
 74
     0
 49
-0.25
 74
     0
 49
0.25
 74
     0
 49
-0.25
 74
     0
  0
LTYPE
  5
5FF
100
AcDbSymbolTableRecord
100
AcDbLinetypeTableRecord
  2
PHANTOM
 70
     0
  3
______  __  __  ______  __  __  ______ 
 72
    65
 73
     6
 40
2.5
 49
1.25
 74
     0
 49
-0.25
 74
     0
 49
0.25
 74
     0
 49
-0.25
 74
     0
 49
0.25
 74
     0
 49
-0.25
 74
     0
  0
ENDTAB
  0
TABLE
  2
LAYER
  5
600
100
AcDbSymbolTable
 70
    11
  0
LAYER
  5
601
100
AcDbSymbolTableRecord
100
AcDbLayerTableRecord
  2
0
 70
     0
 62
     7
  6
CONTINUOUS
  0
LAYER
  5
602
100
AcDbSymbolTableRecord
100
AcDbLayerTableRecord
  2
MAIN0
 70
     0
 62
     7
  6
CONTINUOUS
  0
LAYER
  5
603
100
AcDbSymbolTableRecord
100
AcDbLayerTableRecord
  2
MAIN1
 70
     0
 62
     7
  6
CONTINUOUS
  0
LAYER
  5
604
100
AcDbSymbolTableRecord
100
AcDbLayerTableRecord
  2
MAIN3
 70
     0
 62
     7
  6
CONTINUOUS
  0
LAYER
  5
605
100
AcDbSymbolTableRecord
100
AcDbLayerTableRecord
  2
MAIN10
 70
     0
 62
     7
  6
CONTINUOUS
  0
LAYER
  5
606
100
AcDbSymbolTableRecord
100
AcDbLayerTableRecord
  2
MAIN1023
 70
     0
 62
    16
  6
CONTINUOUS
  0
LAYER
  5
607
100
AcDbSymbolTableRecord
100
AcDbLayerTableRecord
  2
WAKU0
 70
     0
 62
     7
  6
CONTINUOUS
  0
LAYER
  5
608
100
AcDbSymbolTableRecord
100
AcDbLayerTableRecord
  2
WAKU1023
 70
     0
 62
    16
  6
CONTINUOUS
  0
LAYER
  5
609
100
AcDbSymbolTableRecord
100
AcDbLayerTableRecord
  2
A0
 70
     0
 62
     7
  6
CONTINUOUS
  0
LAYER
  5
60A
100
AcDbSymbolTableRecord
100
AcDbLayerTableRecord
  2
A1
 70
     0
 62
     7
  6
CONTINUOUS
  0
LAYER
  5
60B
100
AcDbSymbolTableRecord
100
AcDbLayerTableRecord
  2
A1023
 70
     0
 62
    16
  6
CONTINUOUS
  0
ENDTAB
  0
TABLE
  2
STYLE
  5
60C
100
AcDbSymbolTable
 70
     4
  0
STYLE
  5
60D
100
AcDbSymbolTableRecord
100
AcDbTextStyleTableRecord
  2
STANDARD
 70
    64
 40
0.0
 41
1.0
 50
0.0
 71
     0
 42
7.749999761581421
  3
TXT
  4

  0
STYLE
  5
60E
100
AcDbSymbolTableRecord
100
AcDbTextStyleTableRecord
  2
ANKTATE
 70
    68
 40
0.0
 41
1.0
 50
0.0
 71
     0
 42
7.749999761581421
  3
TXT
  4

  0
STYLE
  5
42D
100
AcDbSymbolTableRecord
100
AcDbTextStyleTableRecord
  2
KNJYOKO
 70
    64
 40
0.0
 41
1.0
 50
0.0
 71
     0
 42
7.749999761581421
  3
TXT
  4
BIGFONT
  0
STYLE
  5
60F
100
AcDbSymbolTableRecord
100
AcDbTextStyleTableRecord
  2
KNJTATE
 70
    68
 40
0.0
 41
1.0
 50
0.0
 71
     0
 42
7.749999761581421
  3
TXT
  4
BIGFONT
  0
ENDTAB
  0
TABLE
  2
VIEW
  5
610
100
AcDbSymbolTable
 70
     0
  0
ENDTAB
  0
TABLE
  2
UCS
  5
611
100
AcDbSymbolTable
 70
     0
  0
ENDTAB
  0
TABLE
  2
APPID
  5
612
100
AcDbSymbolTable
 70
     1
  0
APPID
  5
613
100
AcDbSymbolTableRecord
100
AcDbRegAppTableRecord
  2
ACAD
 70
     0
  0
ENDTAB
  0
TABLE
  2
DIMSTYLE
  5
614
100
AcDbSymbolTable
 70
     1
  0
DIMSTYLE
105
615
100
AcDbSymbolTableRecord
100
AcDbDimStyleTableRecord
  2
STANDARD
 70
     0
 41
2.000000
 44
2.000000
 42
0.800000
145
0.661290
140
3.100000
144
1.000000
146
0.903226
340
60D
  0
DIMSTYLE
105
616
100
AcDbSymbolTableRecord
100
AcDbDimStyleTableRecord
  2
MAIN001
 70
     0
 41
8.000000
 44
8.000000
 42
3.200000
145
0.540323
140
12.400000
144
1.000000
146
0.903226
 77
     1
 73
     0
 74
     0
271
     3
275
     1
 78
     8
172
     1
340
60D
  0
DIMSTYLE
105
617
100
AcDbSymbolTableRecord
100
AcDbDimStyleTableRecord
  2
WAKU002
 70
     0
 41
2.000000
 44
2.000000
 42
0.800000
145
0.661290
140
3.100000
144
1.000000
146
0.903226
 77
     1
 73
     0
 74
     0
271
     3
275
     1
 78
     8
172
     1
340
60D
  0
DIMSTYLE
105
618
100
AcDbSymbolTableRecord
100
AcDbDimStyleTableRecord
  2
A003
 70
     0
 41
5.000000
 44
5.000000
 42
2.000000
145
0.564516
140
7.750000
144
1.000000
146
0.903226
 77
     1
 73
     0
 74
     0
271
     3
275
     1
 78
     8
172
     1
340
60D
  0
ENDTAB
  0
TABLE
  2
BLOCK_RECORD
  5
619
100
AcDbSymbolTable
 70
    68
  0
BLOCK_RECORD
  5
61A
100
AcDbSymbolTableRecord
100
AcDbBlockTableRecord
  2
*MODEL_SPACE
  0
BLOCK_RECORD
  5
61B
100
AcDbSymbolTableRecord
100
AcDbBlockTableRecord
  2
*PAPER_SPACE
  0
BLOCK_RECORD
  5
1
100
AcDbSymbolTableRecord
100
AcDbBlockTableRecord
  2
_NONE
  0
BLOCK_RECORD
  5
4
100
AcDbSymbolTableRecord
100
AcDbBlockTableRecord
  2
_CLOSED
  0
BLOCK_RECORD
  5
B
100
AcDbSymbolTableRecord
100
AcDbBlockTableRecord
  2
_DOT
  0
BLOCK_RECORD
  5
13
100
AcDbSymbolTableRecord
100
AcDbBlockTableRecord
  2
_OPEN
  0
BLOCK_RECORD
  5
19
100
AcDbSymbolTableRecord
100
AcDbBlockTableRecord
  2
_ORIGIN
  0
BLOCK_RECORD
  5
1E
100
AcDbSymbolTableRecord
100
AcDbBlockTableRecord
  2
_OPEN30
  0
BLOCK_RECORD
  5
24
100
AcDbSymbolTableRecord
100
AcDbBlockTableRecord
  2
_BOXFILLED
  0
BLOCK_RECORD
  5
29
100
AcDbSymbolTableRecord
100
AcDbBlockTableRecord
  2
_BOXBLANK
  0
BLOCK_RECORD
  5
31
100
AcDbSymbolTableRecord
100
AcDbBlockTableRecord
  2
_OBLIQUE
  0
BLOCK_RECORD
  5
35
100
AcDbSymbolTableRecord
100
AcDbBlockTableRecord
  2
_OPEN90
  0
BLOCK_RECORD
  5
3B
100
AcDbSymbolTableRecord
100
AcDbBlockTableRecord
  2
_CLOSEDBLANK
  0
BLOCK_RECORD
  5
41
100
AcDbSymbolTableRecord
100
AcDbBlockTableRecord
  2
_DOTBLANK
  0
BLOCK_RECORD
  5
61C
100
AcDbSymbolTableRecord
100
AcDbBlockTableRecord
  2
*D0
  0
BLOCK_RECORD
  5
61D
100
AcDbSymbolTableRecord
100
AcDbBlockTableRecord
  2
*D1
  0
BLOCK_RECORD
  5
61E
100
AcDbSymbolTableRecord
100
AcDbBlockTableRecord
  2
*D2
  0
BLOCK_RECORD
  5
61F
100
AcDbSymbolTableRecord
100
AcDbBlockTableRecord
  2
*D3
  0
BLOCK_RECORD
  5
620
100
AcDbSymbolTableRecord
100
AcDbBlockTableRecord
  2
D4
  0
BLOCK_RECORD
  5
621
100
AcDbSymbolTableRecord
100
AcDbBlockTableRecord
  2
*D5
  0
BLOCK_RECORD
  5
622
100
AcDbSymbolTableRecord
100
AcDbBlockTableRecord
  2
*D6
  0
BLOCK_RECORD
  5
623
100
AcDbSymbolTableRecord
100
AcDbBlockTableRecord
  2
*D7
  0
BLOCK_RECORD
  5
624
100
AcDbSymbolTableRecord
100
AcDbBlockTableRecord
  2
*D8
  0
BLOCK_RECORD
  5
625
100
AcDbSymbolTableRecord
100
AcDbBlockTableRecord
  2
*D9
  0
BLOCK_RECORD
  5
626
100
AcDbSymbolTableRecord
100
AcDbBlockTableRecord
  2
*D10
  0
BLOCK_RECORD
  5
627
100
AcDbSymbolTableRecord
100
AcDbBlockTableRecord
  2
*D11
  0
BLOCK_RECORD
  5
628
100
AcDbSymbolTableRecord
100
AcDbBlockTableRecord
  2
*D12
  0
BLOCK_RECORD
  5
629
100
AcDbSymbolTableRecord
100
AcDbBlockTableRecord
  2
*D13
  0
BLOCK_RECORD
  5
62A
100
AcDbSymbolTableRecord
100
AcDbBlockTableRecord
  2
*D14
  0
BLOCK_RECORD
  5
62B
100
AcDbSymbolTableRecord
100
AcDbBlockTableRecord
  2
*D15
  0
BLOCK_RECORD
  5
62C
100
AcDbSymbolTableRecord
100
AcDbBlockTableRecord
  2
*D16
  0
BLOCK_RECORD
  5
62D
100
AcDbSymbolTableRecord
100
AcDbBlockTableRecord
  2
*D17
  0
BLOCK_RECORD
  5
62E
100
AcDbSymbolTableRecord
100
AcDbBlockTableRecord
  2
*D18
  0
BLOCK_RECORD
  5
62F
100
AcDbSymbolTableRecord
100
AcDbBlockTableRecord
  2
*D19
  0
BLOCK_RECORD
  5
630
100
AcDbSymbolTableRecord
100
AcDbBlockTableRecord
  2
*D20
  0
BLOCK_RECORD
  5
631
100
AcDbSymbolTableRecord
100
AcDbBlockTableRecord
  2
*D21
  0
BLOCK_RECORD
  5
632
100
AcDbSymbolTableRecord
100
AcDbBlockTableRecord
  2
*D22
  0
BLOCK_RECORD
  5
633
100
AcDbSymbolTableRecord
100
AcDbBlockTableRecord
  2
*D23
  0
BLOCK_RECORD
  5
634
100
AcDbSymbolTableRecord
100
AcDbBlockTableRecord
  2
*D24
  0
BLOCK_RECORD
  5
635
100
AcDbSymbolTableRecord
100
AcDbBlockTableRecord
  2
*D25
  0
BLOCK_RECORD
  5
636
100
AcDbSymbolTableRecord
100
AcDbBlockTableRecord
  2
*D26
  0
BLOCK_RECORD
  5
637
100
AcDbSymbolTableRecord
100
AcDbBlockTableRecord
  2
*D27
  0
BLOCK_RECORD
  5
638
100
AcDbSymbolTableRecord
100
AcDbBlockTableRecord
  2
*D28
  0
BLOCK_RECORD
  5
639
100
AcDbSymbolTableRecord
100
AcDbBlockTableRecord
  2
*D29
  0
BLOCK_RECORD
  5
63A
100
AcDbSymbolTableRecord
100
AcDbBlockTableRecord
  2
*D30
  0
BLOCK_RECORD
  5
63B
100
AcDbSymbolTableRecord
100
AcDbBlockTableRecord
  2
*D31
  0
BLOCK_RECORD
  5
63C
100
AcDbSymbolTableRecord
100
AcDbBlockTableRecord
  2
*D32
  0
BLOCK_RECORD
  5
63D
100
AcDbSymbolTableRecord
100
AcDbBlockTableRecord
  2
*D33
  0
BLOCK_RECORD
  5
63E
100
AcDbSymbolTableRecord
100
AcDbBlockTableRecord
  2
*D34
  0
BLOCK_RECORD
  5
63F
100
AcDbSymbolTableRecord
100
AcDbBlockTableRecord
  2
*D35
  0
BLOCK_RECORD
  5
640
100
AcDbSymbolTableRecord
100
AcDbBlockTableRecord
  2
*D36
  0
BLOCK_RECORD
  5
641
100
AcDbSymbolTableRecord
100
AcDbBlockTableRecord
  2
*D37
  0
BLOCK_RECORD
  5
642
100
AcDbSymbolTableRecord
100
AcDbBlockTableRecord
  2
*D38
  0
BLOCK_RECORD
  5
643
100
AcDbSymbolTableRecord
100
AcDbBlockTableRecord
  2
*D39
  0
BLOCK_RECORD
  5
644
100
AcDbSymbolTableRecord
100
AcDbBlockTableRecord
  2
*D40
  0
BLOCK_RECORD
  5
645
100
AcDbSymbolTableRecord
100
AcDbBlockTableRecord
  2
*D41
  0
BLOCK_RECORD
  5
646
100
AcDbSymbolTableRecord
100
AcDbBlockTableRecord
  2
*D42
  0
BLOCK_RECORD
  5
647
100
AcDbSymbolTableRecord
100
AcDbBlockTableRecord
  2
*D43
  0
BLOCK_RECORD
  5
648
100
AcDbSymbolTableRecord
100
AcDbBlockTableRecord
  2
*D44
  0
BLOCK_RECORD
  5
649
100
AcDbSymbolTableRecord
100
AcDbBlockTableRecord
  2
*D45
  0
BLOCK_RECORD
  5
64A
100
AcDbSymbolTableRecord
100
AcDbBlockTableRecord
  2
*D46
  0
BLOCK_RECORD
  5
64B
100
AcDbSymbolTableRecord
100
AcDbBlockTableRecord
  2
*D47
  0
BLOCK_RECORD
  5
64C
100
AcDbSymbolTableRecord
100
AcDbBlockTableRecord
  2
*D48
  0
BLOCK_RECORD
  5
64D
100
AcDbSymbolTableRecord
100
AcDbBlockTableRecord
  2
*D49
  0
BLOCK_RECORD
  5
64E
100
AcDbSymbolTableRecord
100
AcDbBlockTableRecord
  2
*D50
  0
BLOCK_RECORD
  5
64F
100
AcDbSymbolTableRecord
100
AcDbBlockTableRecord
  2
*D51
  0
BLOCK_RECORD
  5
650
100
AcDbSymbolTableRecord
100
AcDbBlockTableRecord
  2
*D52
  0
BLOCK_RECORD
  5
651
100
AcDbSymbolTableRecord
100
AcDbBlockTableRecord
  2
*D53
  0
BLOCK_RECORD
  5
652
100
AcDbSymbolTableRecord
100
AcDbBlockTableRecord
  2
*D54
  0
BLOCK_RECORD
  5
653
100
AcDbSymbolTableRecord
100
AcDbBlockTableRecord
  2
*D55
  0
ENDTAB
  0
ENDSEC
  0
SECTION
  2
BLOCKS
  0
BLOCK
  5
654
100
AcDbEntity
  8
0
100
AcDbBlockBegin
  2
*MODEL_SPACE
 70
     0
 10
0.0
 20
0.0
 30
0.0
  3
*MODEL_SPACE
  1

  0
ENDBLK
  5
655
100
AcDbEntity
  8
0
100
AcDbBlockEnd
  0
BLOCK
  5
656
100
AcDbEntity
  8
0
100
AcDbBlockBegin
  2
*PAPER_SPACE
 70
     0
 10
0.0
 20
0.0
 30
0.0
  3
*PAPER_SPACE
  1

  0
ENDBLK
  5
657
100
AcDbEntity
  8
0
100
AcDbBlockEnd
  0
BLOCK
  5
2
100
AcDbEntity
  8
0
100
AcDbBlockBegin
  2
_NONE
 70
     0
 10
0.0
 20
0.0
 30
0.0
  3
_NONE
  1

  0
ENDBLK
  5
3
100
AcDbEntity
  8
0
100
AcDbBlockEnd
  0
BLOCK
  5
5
100
AcDbEntity
  8
0
100
AcDbBlockBegin
  2
_CLOSED
 70
     0
 10
0.0
 20
0.0
 30
0.0
  3
_CLOSED
  1

  0
LINE
  5
6
100
AcDbEntity
  8
0
  6
BYBLOCK
 62
     0
100
AcDbLine
 10
-1.0
 20
0.166667
 30
0.0
 11
0.0
 21
0.0
 31
0.0
  0
LINE
  5
7
100
AcDbEntity
  8
0
  6
BYBLOCK
 62
     0
100
AcDbLine
 10
0.0
 20
0.0
 30
0.0
 11
-1.0
 21
-0.166667
 31
0.0
  0
LINE
  5
8
100
AcDbEntity
  8
0
  6
BYBLOCK
 62
     0
100
AcDbLine
 10
-1.0
 20
0.166667
 30
0.0
 11
-1.0
 21
-0.166667
 31
0.0
  0
LINE
  5
9
100
AcDbEntity
  8
0
  6
BYBLOCK
 62
     0
100
AcDbLine
 10
0.0
 20
0.0
 30
0.0
 11
-1.0
 21
0.0
 31
0.0
  0
ENDBLK
  5
A
100
AcDbEntity
  8
0
100
AcDbBlockEnd
  0
BLOCK
  5
C
100
AcDbEntity
  8
0
100
AcDbBlockBegin
  2
_DOT
 70
     0
 10
0.0
 20
0.0
 30
0.0
  3
_DOT
  1

  0
POLYLINE
  5
D
100
AcDbEntity
  8
0
  6
BYBLOCK
 62
     0
100
AcDb2dPolyline
 66
     1
 10
0.0
 20
0.0
 30
0.0
 70
     1
 40
0.5
 41
0.5
  0
VERTEX
  5
E
100
AcDbEntity
  8
0
  6
BYBLOCK
 62
     0
100
AcDbVertex
100
AcDb2dVertex
 10
-0.25
 20
0.0
 30
0.0
 42
1.0
  0
VERTEX
  5
F
100
AcDbEntity
  8
0
  6
BYBLOCK
 62
     0
100
AcDbVertex
100
AcDb2dVertex
 10
0.25
 20
0.0
 30
0.0
 42
1.0
  0
SEQEND
  5
10
100
AcDbEntity
  8
0
  6
BYBLOCK
 62
     0
  0
LINE
  5
11
100
AcDbEntity
  8
0
  6
BYBLOCK
 62
     0
100
AcDbLine
 10
-0.5
 20
0.0
 30
0.0
 11
-1.0
 21
0.0
 31
0.0
  0
ENDBLK
  5
12
100
AcDbEntity
  8
0
100
AcDbBlockEnd
  0
BLOCK
  5
14
100
AcDbEntity
  8
0
100
AcDbBlockBegin
  2
_OPEN
 70
     0
 10
0.0
 20
0.0
 30
0.0
  3
_OPEN
  1

  0
LINE
  5
15
100
AcDbEntity
  8
0
  6
BYBLOCK
 62
     0
100
AcDbLine
 10
-1.0
 20
0.166667
 30
0.0
 11
0.0
 21
0.0
 31
0.0
  0
LINE
  5
16
100
AcDbEntity
  8
0
  6
BYBLOCK
 62
     0
100
AcDbLine
 10
0.0
 20
0.0
 30
0.0
 11
-1.0
 21
-0.166667
 31
0.0
  0
LINE
  5
17
100
AcDbEntity
  8
0
  6
BYBLOCK
 62
     0
100
AcDbLine
 10
0.0
 20
0.0
 30
0.0
 11
-1.0
 21
0.0
 31
0.0
  0
ENDBLK
  5
18
100
AcDbEntity
  8
0
100
AcDbBlockEnd
  0
BLOCK
  5
1A
100
AcDbEntity
  8
0
100
AcDbBlockBegin
  2
_ORIGIN
 70
     0
 10
0.0
 20
0.0
 30
0.0
  3
_ORIGIN
  1

  0
CIRCLE
  5
1B
100
AcDbEntity
  8
0
  6
BYBLOCK
 62
     0
100
AcDbCircle
 10
0.0
 20
0.0
 30
0.0
 40
0.5
  0
LINE
  5
1C
100
AcDbEntity
  8
0
  6
BYBLOCK
 62
     0
100
AcDbLine
 10
0.0
 20
0.0
 30
0.0
 11
-1.0
 21
0.0
 31
0.0
  0
ENDBLK
  5
1D
100
AcDbEntity
  8
0
100
AcDbBlockEnd
  0
BLOCK
  5
1F
100
AcDbEntity
  8
0
100
AcDbBlockBegin
  2
_OPEN30
 70
     0
 10
0.0
 20
0.0
 30
0.0
  3
_OPEN30
  1

  0
LINE
  5
20
100
AcDbEntity
  8
0
  6
BYBLOCK
 62
     0
100
AcDbLine
 10
-1.0
 20
0.267949
 30
0.0
 11
0.0
 21
0.0
 31
0.0
  0
LINE
  5
21
100
AcDbEntity
  8
0
  6
BYBLOCK
 62
     0
100
AcDbLine
 10
0.0
 20
0.0
 30
0.0
 11
-1.0
 21
-0.267949
 31
0.0
  0
LINE
  5
22
100
AcDbEntity
  8
0
  6
BYBLOCK
 62
     0
100
AcDbLine
 10
0.0
 20
0.0
 30
0.0
 11
-1.0
 21
0.0
 31
0.0
  0
ENDBLK
  5
23
100
AcDbEntity
  8
0
100
AcDbBlockEnd
  0
BLOCK
  5
25
100
AcDbEntity
  8
0
100
AcDbBlockBegin
  2
_BOXFILLED
 70
     0
 10
0.0
 20
0.0
 30
0.0
  3
_BOXFILLED
  1

  0
SOLID
  5
26
100
AcDbEntity
  8
0
  6
BYBLOCK
 62
     0
100
AcDbTrace
 10
-0.5
 20
0.5
 30
0.0
 11
0.5
 21
0.5
 31
0.0
 12
-0.5
 22
-0.5
 32
0.0
 13
0.5
 23
-0.5
 33
0.0
  0
LINE
  5
27
100
AcDbEntity
  8
0
  6
BYBLOCK
 62
     0
100
AcDbLine
 10
-0.5
 20
0.0
 30
0.0
 11
-1.0
 21
0.0
 31
0.0
  0
ENDBLK
  5
28
100
AcDbEntity
  8
0
100
AcDbBlockEnd
  0
BLOCK
  5
2A
100
AcDbEntity
  8
0
100
AcDbBlockBegin
  2
_BOXBLANK
 70
     0
 10
0.0
 20
0.0
 30
0.0
  3
_BOXBLANK
  1

  0
LINE
  5
2B
100
AcDbEntity
  8
0
  6
BYBLOCK
 62
     0
100
AcDbLine
 10
-0.5
 20
-0.5
 30
0.0
 11
0.5
 21
-0.5
 31
0.0
  0
LINE
  5
2C
100
AcDbEntity
  8
0
  6
BYBLOCK
 62
     0
100
AcDbLine
 10
0.5
 20
-0.5
 30
0.0
 11
0.5
 21
0.5
 31
0.0
  0
LINE
  5
2D
100
AcDbEntity
  8
0
  6
BYBLOCK
 62
     0
100
AcDbLine
 10
0.5
 20
0.5
 30
0.0
 11
-0.5
 21
0.5
 31
0.0
  0
LINE
  5
2E
100
AcDbEntity
  8
0
  6
BYBLOCK
 62
     0
100
AcDbLine
 10
-0.5
 20
0.5
 30
0.0
 11
-0.5
 21
-0.5
 31
0.0
  0
LINE
  5
2F
100
AcDbEntity
  8
0
  6
BYBLOCK
 62
     0
100
AcDbLine
 10
-0.5
 20
0.0
 30
0.0
 11
-1.0
 21
0.0
 31
0.0
  0
ENDBLK
  5
30
100
AcDbEntity
  8
0
100
AcDbBlockEnd
  0
BLOCK
  5
32
100
AcDbEntity
  8
0
100
AcDbBlockBegin
  2
_OBLIQUE
 70
     0
 10
0.0
 20
0.0
 30
0.0
  3
_OBLIQUE
  1

  0
LINE
  5
33
100
AcDbEntity
  8
0
  6
BYBLOCK
 62
     0
100
AcDbLine
 10
-0.5
 20
-0.5
 30
0.0
 11
0.5
 21
0.5
 31
0.0
  0
ENDBLK
  5
34
100
AcDbEntity
  8
0
100
AcDbBlockEnd
  0
BLOCK
  5
36
100
AcDbEntity
  8
0
100
AcDbBlockBegin
  2
_OPEN90
 70
     0
 10
0.0
 20
0.0
 30
0.0
  3
_OPEN90
  1

  0
LINE
  5
37
100
AcDbEntity
  8
0
  6
BYBLOCK
 62
     0
100
AcDbLine
 10
-0.5
 20
0.5
 30
0.0
 11
0.0
 21
0.0
 31
0.0
  0
LINE
  5
38
100
AcDbEntity
  8
0
  6
BYBLOCK
 62
     0
100
AcDbLine
 10
0.0
 20
0.0
 30
0.0
 11
-0.5
 21
-0.5
 31
0.0
  0
LINE
  5
39
100
AcDbEntity
  8
0
  6
BYBLOCK
 62
     0
100
AcDbLine
 10
0.0
 20
0.0
 30
0.0
 11
-1.0
 21
0.0
 31
0.0
  0
ENDBLK
  5
3A
100
AcDbEntity
  8
0
100
AcDbBlockEnd
  0
BLOCK
  5
3C
100
AcDbEntity
  8
0
100
AcDbBlockBegin
  2
_CLOSEDBLANK
 70
     0
 10
0.0
 20
0.0
 30
0.0
  3
_CLOSEDBLANK
  1

  0
LINE
  5
3D
100
AcDbEntity
  8
0
  6
BYBLOCK
 62
     0
100
AcDbLine
 10
-1.0
 20
0.1666666666666666
 30
0.0
 11
0.0
 21
0.0
 31
0.0
  0
LINE
  5
3E
100
AcDbEntity
  8
0
  6
BYBLOCK
 62
     0
100
AcDbLine
 10
0.0
 20
0.0
 30
0.0
 11
-1.0
 21
-0.1666666666666666
 31
0.0
  0
LINE
  5
3F
100
AcDbEntity
  8
0
  6
BYBLOCK
 62
     0
100
AcDbLine
 10
-1.0
 20
0.1666666666666666
 30
0.0
 11
-1.0
 21
-0.1666666666666666
 31
0.0
  0
ENDBLK
  5
40
100
AcDbEntity
  8
0
100
AcDbBlockEnd
  0
BLOCK
  5
42
100
AcDbEntity
  8
0
100
AcDbBlockBegin
  2
_DOTBLANK
 70
     0
 10
0.0
 20
0.0
 30
0.0
  3
_DOTBLANK
  1

  0
CIRCLE
  5
43
100
AcDbEntity
  8
0
  6
BYBLOCK
 62
     0
100
AcDbCircle
 10
0.0
 20
0.0
 30
0.0
 40
0.5
  0
LINE
  5
44
100
AcDbEntity
  8
0
  6
BYBLOCK
 62
     0
100
AcDbLine
 10
-0.5
 20
0.0
 30
0.0
 11
-1.0
 21
0.0
 31
0.0
  0
ENDBLK
  5
45
100
AcDbEntity
  8
0
100
AcDbBlockEnd
  0
BLOCK
  5
97
100
AcDbEntity
  8
MAIN0
  6
CONTINUOUS
 62
3
100
AcDbBlockBegin
  2
*D0
 70
    65
 10
0.0
 20
0.0
 30
0.0
  0
LINE
  5
98
100
AcDbEntity
  8
MAIN0
  6
BYBLOCK
 62
0
100
AcDbLine
 10
1358.468494113184
 20
485.2317039699824
 30
0.0000000000000000
 11
1331.219426392597
 21
485.2317039699824
 31
0.0000000000000000
  0
LINE
  5
99
100
AcDbEntity
  8
MAIN0
  6
BYBLOCK
 62
0
100
AcDbLine
 10
1339.219426392597
 20
485.2317039699824
 30
0.0000000000000000
 11
1339.219426392597
 21
514.2317039699808
 31
0.0000000000000000
  0
INSERT
  5
9A
100
AcDbEntity
  8
MAIN0
  6
BYBLOCK
 62
0
100
AcDbBlockReference
  2
_OPEN
 10
1339.219426392597
 20
485.2317039699824
 30
0.0000000000000000
 41
8.000000000000000
 42
8.000000000000000
 43
8.000000000000000
 50
90.00000000000000
  0
INSERT
  5
9B
100
AcDbEntity
  8
MAIN0
  6
BYBLOCK
 62
0
100
AcDbBlockReference
  2
_DOT
 10
1339.219426392597
 20
515.2317039699808
 30
0.0000000000000000
 41
4.000000000000000
 42
4.000000000000000
 43
4.000000000000000
 50
90.00000000000000
  0
LINE
  5
9C
100
AcDbEntity
  8
MAIN0
  6
BYBLOCK
 62
0
100
AcDbLine
 10
1339.219426392597
 20
477.2317039699824
 30
0.0000000000000000
 11
1339.219426392597
 21
473.2317039699824
 31
0.0000000000000000
  0
LINE
  5
9D
100
AcDbEntity
  8
MAIN0
  6
BYBLOCK
 62
0
100
AcDbLine
 10
1393.528610390763
 20
515.2317039699808
 30
0.0000000000000000
 11
1331.219426392597
 21
515.2317039699808
 31
0.0000000000000000
  0
MTEXT
  5
9E
100
AcDbEntity
  8
MAIN0
  6
BYBLOCK
 62
0
100
AcDbMText
 10
1332.519426583332
 20
500.2317039699816
 30
0.0000000000000000
 40
12.39999961853027
 41
0.0000000000000000
 71
     5
 72
     1
  1
\A1;30
 11
6.123233995736766e-017
 21
1.000000000000000
 31
0.0000000000000000
  7
STANDARD
  0
ENDBLK
  5
9F
100
AcDbEntity
  8
MAIN0
  6
CONTINUOUS
 62
3
100
AcDbBlockEnd
  0
BLOCK
  5
A1
100
AcDbEntity
  8
MAIN0
  6
CONTINUOUS
 62
3
100
AcDbBlockBegin
  2
*D1
 70
    65
 10
0.0
 20
0.0
 30
0.0
  0
LINE
  5
A2
100
AcDbEntity
  8
MAIN0
  6
BYBLOCK
 62
0
100
AcDbLine
 10
1393.528610390763
 20
515.2317039699808
 30
0.0000000000000000
 11
1331.219426392597
 21
515.2317039699808
 31
0.0000000000000000
  0
LINE
  5
A3
100
AcDbEntity
  8
MAIN0
  6
BYBLOCK
 62
0
100
AcDbLine
 10
1339.219426392597
 20
516.2317039699808
 30
0.0000000000000000
 11
1339.219426392597
 21
520.2317039699808
 31
0.0000000000000000
  0
INSERT
  5
A4
100
AcDbEntity
  8
MAIN0
  6
BYBLOCK
 62
0
100
AcDbBlockReference
  2
_DOT
 10
1339.219426392597
 20
515.2317039699808
 30
0.0000000000000000
 41
4.000000000000000
 42
4.000000000000000
 43
4.000000000000000
 50
270.0000000000000
  0
INSERT
  5
A5
100
AcDbEntity
  8
MAIN0
  6
BYBLOCK
 62
0
100
AcDbBlockReference
  2
_OPEN
 10
1339.219426392597
 20
520.2317039699808
 30
0.0000000000000000
 41
8.000000000000000
 42
8.000000000000000
 43
8.000000000000000
 50
270.0000000000000
  0
LINE
  5
A6
100
AcDbEntity
  8
MAIN0
  6
BYBLOCK
 62
0
100
AcDbLine
 10
1339.219426392597
 20
528.2317039699808
 30
0.0000000000000000
 11
1339.219426392597
 21
540.8159360334178
 31
0.0000000000000000
  0
LINE
  5
A7
100
AcDbEntity
  8
MAIN0
  6
BYBLOCK
 62
0
100
AcDbLine
 10
1424.028610390763
 20
520.2317039699808
 30
0.0000000000000000
 11
1331.219426392597
 21
520.2317039699808
 31
0.0000000000000000
  0
MTEXT
  5
A8
100
AcDbEntity
  8
MAIN0
  6
BYBLOCK
 62
0
100
AcDbMText
 10
1331.019426583332
 20
536.8159360334178
 30
0.0000000000000000
 40
12.39999961853027
 41
0.0000000000000000
 71
     5
 72
     1
  1
\A1;5
 11
6.123233995736766e-017
 21
1.000000000000000
 31
0.0000000000000000
  7
STANDARD
  0
ENDBLK
  5
A9
100
AcDbEntity
  8
MAIN0
  6
CONTINUOUS
 62
3
100
AcDbBlockEnd
  0
BLOCK
  5
AB
100
AcDbEntity
  8
MAIN0
  6
CONTINUOUS
 62
3
100
AcDbBlockBegin
  2
*D2
 70
    65
 10
0.0
 20
0.0
 30
0.0
  0
LINE
  5
AC
100
AcDbEntity
  8
MAIN0
  6
BYBLOCK
 62
0
100
AcDbLine
 10
1396.728610438446
 20
512.0317039222971
 30
0.0000000000000000
 11
1396.728610438446
 21
382.2317039694673
 31
0.0000000000000000
  0
LINE
  5
AD
100
AcDbEntity
  8
MAIN0
  6
BYBLOCK
 62
0
100
AcDbLine
 10
1404.728610438446
 20
390.2317039694673
 30
0.0000000000000000
 11
1459.728610438446
 21
390.2317039694673
 31
0.0000000000000000
  0
INSERT
  5
AE
100
AcDbEntity
  8
MAIN0
  6
BYBLOCK
 62
0
100
AcDbBlockReference
  2
_OPEN
 10
1396.728610438446
 20
390.2317039694673
 30
0.0000000000000000
 41
8.000000000000000
 42
8.000000000000000
 43
8.000000000000000
 50
180.0000000000000
  0
INSERT
  5
AF
100
AcDbEntity
  8
MAIN0
  6
BYBLOCK
 62
0
100
AcDbBlockReference
  2
_OPEN
 10
1467.728610438446
 20
390.2317039694673
 30
0.0000000000000000
 41
8.000000000000000
 42
8.000000000000000
 43
8.000000000000000
 50
0.0000000000000000
  0
LINE
  5
B0
100
AcDbEntity
  8
MAIN0
  6
BYBLOCK
 62
0
100
AcDbLine
 10
1467.728610438446
 20
482.4317039222980
 30
0.0000000000000000
 11
1467.728610438446
 21
382.2317039694673
 31
0.0000000000000000
  0
MTEXT
  5
B1
100
AcDbEntity
  8
MAIN0
  6
BYBLOCK
 62
0
100
AcDbMText
 10
1432.228610438446
 20
396.9317037787324
 30
0.0000000000000000
 40
12.39999961853027
 41
0.0000000000000000
 71
     5
 72
     1
  1
\A1;71
 11
1.000000000000000
 21
0.0000000000000000
 31
0.0000000000000000
  7
STANDARD
  0
ENDBLK
  5
B2
100
AcDbEntity
  8
MAIN0
  6
CONTINUOUS
 62
3
100
AcDbBlockEnd
  0
BLOCK
  5
B4
100
AcDbEntity
  8
MAIN0
  6
CONTINUOUS
 62
3
100
AcDbBlockBegin
  2
*D3
 70
    65
 10
0.0
 20
0.0
 30
0.0
  0
LINE
  5
B5
100
AcDbEntity
  8
MAIN0
  6
BYBLOCK
 62
0
100
AcDbLine
 10
1467.728610438446
 20
482.4317039222980
 30
0.0000000000000000
 11
1467.728610438446
 21
382.2317039694673
 31
0.0000000000000000
  0
LINE
  5
B6
100
AcDbEntity
  8
MAIN0
  6
BYBLOCK
 62
0
100
AcDbLine
 10
1475.728610438446
 20
390.2317039694673
 30
0.0000000000000000
 11
1585.728610438447
 21
390.2317039694673
 31
0.0000000000000000
  0
INSERT
  5
B7
100
AcDbEntity
  8
MAIN0
  6
BYBLOCK
 62
0
100
AcDbBlockReference
  2
_OPEN
 10
1467.728610438446
 20
390.2317039694673
 30
0.0000000000000000
 41
8.000000000000000
 42
8.000000000000000
 43
8.000000000000000
 50
180.0000000000000
  0
INSERT
  5
B8
100
AcDbEntity
  8
MAIN0
  6
BYBLOCK
 62
0
100
AcDbBlockReference
  2
_OPEN
 10
1593.728610438447
 20
390.2317039694673
 30
0.0000000000000000
 41
8.000000000000000
 42
8.000000000000000
 43
8.000000000000000
 50
0.0000000000000000
  0
LINE
  5
B9
100
AcDbEntity
  8
MAIN0
  6
BYBLOCK
 62
0
100
AcDbLine
 10
1593.728610438447
 20
482.4317039222971
 30
0.0000000000000000
 11
1593.728610438447
 21
382.2317039694673
 31
0.0000000000000000
  0
MTEXT
  5
BA
100
AcDbEntity
  8
MAIN0
  6
BYBLOCK
 62
0
100
AcDbMText
 10
1530.728610438447
 20
396.9317037787324
 30
0.0000000000000000
 40
12.39999961853027
 41
0.0000000000000000
 71
     5
 72
     1
  1
\A1;126
 11
1.000000000000000
 21
0.0000000000000000
 31
0.0000000000000000
  7
STANDARD
  0
ENDBLK
  5
BB
100
AcDbEntity
  8
MAIN0
  6
CONTINUOUS
 62
3
100
AcDbBlockEnd
  0
BLOCK
  5
BD
100
AcDbEntity
  8
MAIN0
  6
CONTINUOUS
 62
3
100
AcDbBlockBegin
  2
D4
 70
    64
 10
0.0
 20
0.0
 30
0.0
  0
LINE
  5
BE
100
AcDbEntity
  8
MAIN0
  6
BYBLOCK
 62
0
100
AcDbLine
 10
-4.397783908625570
 20
-115.0000000005148
 30
0.0000000000000000
 11
-134.0000000000007
 21
-115.0000000005145
 31
0.0000000000000000
  0
LINE
  5
BF
100
AcDbEntity
  8
MAIN0
  6
BYBLOCK
 62
0
100
AcDbLine
 10
-126.0000000000007
 20
-117.4000000958820
 30
0.0000000000000000
 11
-134.0000000000007
 21
-115.0000000005145
 31
0.0000000000000000
  0
LINE
  5
C0
100
AcDbEntity
  8
MAIN0
  6
BYBLOCK
 62
0
100
AcDbLine
 10
-134.0000000000007
 20
-115.0000000005145
 30
0.0000000000000000
 11
-126.0000000000007
 21
-112.5999999051471
 31
0.0000000000000000
  0
LINE
  5
C1
100
AcDbEntity
  8
MAIN0
  6
BYBLOCK
 62
0
100
AcDbLine
 10
-134.0000000000005
 20
36.79999995231589
 30
0.0000000000000000
 11
-134.0000000000007
 21
-123.0000000005145
 31
0.0000000000000000
  0
MTEXT
  5
C2
100
AcDbEntity
  8
MAIN0
  6
BYBLOCK
 62
0
100
AcDbMText
 10
-10.14778441068779
 20
-106.8000001912496
 30
0.0000000000000000
 40
12.39999961853027
 41
0.0000000000000000
 71
     5
 72
     1
  1
\A1;（268）
 11
1.000000000000000
 21
0.0000000000000000
 31
0.0000000000000000
  7
KNJYOKO
  0
ENDBLK
  5
C3
100
AcDbEntity
  8
MAIN0
  6
CONTINUOUS
 62
3
100
AcDbBlockEnd
  0
BLOCK
  5
C5
100
AcDbEntity
  8
MAIN0
  6
CONTINUOUS
 62
3
100
AcDbBlockBegin
  2
*D5
 70
    65
 10
0.0
 20
0.0
 30
0.0
  0
LINE
  5
C6
100
AcDbEntity
  8
MAIN0
  6
BYBLOCK
 62
0
100
AcDbLine
 10
1602.728610438403
 20
613.6317040146055
 30
0.0000000000000000
 11
1602.728610438403
 21
674.8883949900476
 31
0.0000000000000000
  0
LINE
  5
C7
100
AcDbEntity
  8
MAIN0
  6
BYBLOCK
 62
0
100
AcDbLine
 10
1594.728610438403
 20
666.8883949900476
 30
0.0000000000000000
 11
1466.728610438402
 21
666.8883949900476
 31
0.0000000000000000
  0
INSERT
  5
C8
100
AcDbEntity
  8
MAIN0
  6
BYBLOCK
 62
0
100
AcDbBlockReference
  2
_OPEN
 10
1602.728610438403
 20
666.8883949900476
 30
0.0000000000000000
 41
8.000000000000000
 42
8.000000000000000
 43
8.000000000000000
 50
360.0000000000000
  0
INSERT
  5
C9
100
AcDbEntity
  8
MAIN0
  6
BYBLOCK
 62
0
100
AcDbBlockReference
  2
_OPEN
 10
1458.728610438402
 20
666.8883949900476
 30
0.0000000000000000
 41
8.000000000000000
 42
8.000000000000000
 43
8.000000000000000
 50
180.0000000000000
  0
LINE
  5
CA
100
AcDbEntity
  8
MAIN0
  6
BYBLOCK
 62
0
100
AcDbLine
 10
1458.728610438402
 20
613.6317040146055
 30
0.0000000000000000
 11
1458.728610438402
 21
674.8883949900476
 31
0.0000000000000000
  0
MTEXT
  5
CB
100
AcDbEntity
  8
MAIN0
  6
BYBLOCK
 62
0
100
AcDbMText
 10
1530.728610438403
 20
673.5883947993127
 30
0.0000000000000000
 40
12.39999961853027
 41
0.0000000000000000
 71
     5
 72
     1
  1
\A1;144
 11
1.000000000000000
 21
0.0000000000000000
 31
0.0000000000000000
  7
STANDARD
  0
ENDBLK
  5
CC
100
AcDbEntity
  8
MAIN0
  6
CONTINUOUS
 62
3
100
AcDbBlockEnd
  0
BLOCK
  5
CE
100
AcDbEntity
  8
MAIN0
  6
CONTINUOUS
 62
3
100
AcDbBlockBegin
  2
*D6
 70
    65
 10
0.0
 20
0.0
 30
0.0
  0
LINE
  5
CF
100
AcDbEntity
  8
MAIN0
  6
BYBLOCK
 62
0
100
AcDbLine
 10
246.6689942822407
 20
485.2317039696246
 30
0.0000000000000000
 11
300.3801964320845
 21
485.2317039696246
 31
0.0000000000000000
  0
LINE
  5
D0
100
AcDbEntity
  8
MAIN0
  6
BYBLOCK
 62
0
100
AcDbLine
 10
292.3801964320845
 20
485.2317039696247
 30
0.0000000000000000
 11
292.3801964320845
 21
506.2317039696245
 31
0.0000000000000000
  0
INSERT
  5
D1
100
AcDbEntity
  8
MAIN0
  6
BYBLOCK
 62
0
100
AcDbBlockReference
  2
_OPEN
 10
292.3801964320845
 20
485.2317039696247
 30
0.0000000000000000
 41
8.000000000000000
 42
8.000000000000000
 43
8.000000000000000
 50
90.00000000000000
  0
INSERT
  5
D2
100
AcDbEntity
  8
MAIN0
  6
BYBLOCK
 62
0
100
AcDbBlockReference
  2
_OPEN
 10
292.3801964320845
 20
506.2317039696245
 30
0.0000000000000000
 41
8.000000000000000
 42
8.000000000000000
 43
8.000000000000000
 50
270.0000000000000
  0
LINE
  5
D3
100
AcDbEntity
  8
MAIN0
  6
BYBLOCK
 62
0
100
AcDbLine
 10
292.3801964320845
 20
477.2317039696247
 30
0.0000000000000000
 11
292.3801964320845
 21
473.2317039696247
 31
0.0000000000000000
  0
LINE
  5
D4
100
AcDbEntity
  8
MAIN0
  6
BYBLOCK
 62
0
100
AcDbLine
 10
292.3801964320845
 20
514.2317039696245
 30
0.0000000000000000
 11
292.3801964320845
 21
518.2317039696245
 31
0.0000000000000000
  0
LINE
  5
D5
100
AcDbEntity
  8
MAIN0
  6
BYBLOCK
 62
0
100
AcDbLine
 10
246.0689942822406
 20
506.2317039696245
 30
0.0000000000000000
 11
300.3801964320845
 21
506.2317039696245
 31
0.0000000000000000
  0
MTEXT
  5
D6
100
AcDbEntity
  8
MAIN0
  6
BYBLOCK
 62
0
100
AcDbMText
 10
285.6801966228193
 20
495.7317039696246
 30
0.0000000000000000
 40
12.39999961853027
 41
0.0000000000000000
 71
     5
 72
     1
  1
\A1;21
 11
6.123233995736766e-017
 21
1.000000000000000
 31
0.0000000000000000
  7
STANDARD
  0
ENDBLK
  5
D7
100
AcDbEntity
  8
MAIN0
  6
CONTINUOUS
 62
3
100
AcDbBlockEnd
  0
BLOCK
  5
D9
100
AcDbEntity
  8
MAIN0
  6
CONTINUOUS
 62
3
100
AcDbBlockBegin
  2
*D7
 70
    65
 10
0.0
 20
0.0
 30
0.0
  0
LINE
  5
DA
100
AcDbEntity
  8
MAIN0
  6
BYBLOCK
 62
0
100
AcDbLine
 10
246.0689942822406
 20
506.2317039696245
 30
0.0000000000000000
 11
300.3801964320845
 21
506.2317039696245
 31
0.0000000000000000
  0
LINE
  5
DB
100
AcDbEntity
  8
MAIN0
  6
BYBLOCK
 62
0
100
AcDbLine
 10
292.3801964320845
 20
514.2317039696245
 30
0.0000000000000000
 11
292.3801964320845
 21
538.2317039696246
 31
0.0000000000000000
  0
INSERT
  5
DC
100
AcDbEntity
  8
MAIN0
  6
BYBLOCK
 62
0
100
AcDbBlockReference
  2
_OPEN
 10
292.3801964320845
 20
506.2317039696245
 30
0.0000000000000000
 41
8.000000000000000
 42
8.000000000000000
 43
8.000000000000000
 50
270.0000000000000
  0
INSERT
  5
DD
100
AcDbEntity
  8
MAIN0
  6
BYBLOCK
 62
0
100
AcDbBlockReference
  2
_OPEN
 10
292.3801964320845
 20
546.2317039696246
 30
0.0000000000000000
 41
8.000000000000000
 42
8.000000000000000
 43
8.000000000000000
 50
90.00000000000000
  0
LINE
  5
DE
100
AcDbEntity
  8
MAIN0
  6
BYBLOCK
 62
0
100
AcDbLine
 10
246.0689942822410
 20
546.2317039696246
 30
0.0000000000000000
 11
300.3801964320845
 21
546.2317039696246
 31
0.0000000000000000
  0
MTEXT
  5
DF
100
AcDbEntity
  8
MAIN0
  6
BYBLOCK
 62
0
100
AcDbMText
 10
285.6801966228193
 20
526.2317039696245
 30
0.0000000000000000
 40
12.39999961853027
 41
0.0000000000000000
 71
     5
 72
     1
  1
\A1;40
 11
6.123233995736766e-017
 21
1.000000000000000
 31
0.0000000000000000
  7
STANDARD
  0
ENDBLK
  5
E0
100
AcDbEntity
  8
MAIN0
  6
CONTINUOUS
 62
3
100
AcDbBlockEnd
  0
BLOCK
  5
E2
100
AcDbEntity
  8
MAIN0
  6
CONTINUOUS
 62
3
100
AcDbBlockBegin
  2
*D8
 70
    65
 10
0.0
 20
0.0
 30
0.0
  0
LINE
  5
E3
100
AcDbEntity
  8
MAIN0
  6
BYBLOCK
 62
0
100
AcDbLine
 10
246.0689942822410
 20
546.2317039696246
 30
0.0000000000000000
 11
300.3801964320845
 21
546.2317039696246
 31
0.0000000000000000
  0
LINE
  5
E4
100
AcDbEntity
  8
MAIN0
  6
BYBLOCK
 62
0
100
AcDbLine
 10
292.3801964320845
 20
546.2317039696246
 30
0.0000000000000000
 11
292.3801964320845
 21
570.2317039696250
 31
0.0000000000000000
  0
INSERT
  5
E5
100
AcDbEntity
  8
MAIN0
  6
BYBLOCK
 62
0
100
AcDbBlockReference
  2
_OPEN
 10
292.3801964320845
 20
546.2317039696246
 30
0.0000000000000000
 41
8.000000000000000
 42
8.000000000000000
 43
8.000000000000000
 50
90.00000000000000
  0
INSERT
  5
E6
100
AcDbEntity
  8
MAIN0
  6
BYBLOCK
 62
0
100
AcDbBlockReference
  2
_OPEN
 10
292.3801964320845
 20
570.2317039696250
 30
0.0000000000000000
 41
8.000000000000000
 42
8.000000000000000
 43
8.000000000000000
 50
270.0000000000000
  0
LINE
  5
E7
100
AcDbEntity
  8
MAIN0
  6
BYBLOCK
 62
0
100
AcDbLine
 10
292.3801964320845
 20
538.2317039696246
 30
0.0000000000000000
 11
292.3801964320845
 21
534.2317039696246
 31
0.0000000000000000
  0
LINE
  5
E8
100
AcDbEntity
  8
MAIN0
  6
BYBLOCK
 62
0
100
AcDbLine
 10
292.3801964320845
 20
578.2317039696250
 30
0.0000000000000000
 11
292.3801964320845
 21
582.2317039696250
 31
0.0000000000000000
  0
LINE
  5
E9
100
AcDbEntity
  8
MAIN0
  6
BYBLOCK
 62
0
100
AcDbLine
 10
245.5689942822408
 20
570.2317039696250
 30
0.0000000000000000
 11
300.3801964320845
 21
570.2317039696250
 31
0.0000000000000000
  0
MTEXT
  5
EA
100
AcDbEntity
  8
MAIN0
  6
BYBLOCK
 62
0
100
AcDbMText
 10
285.6801966228193
 20
558.2317039696247
 30
0.0000000000000000
 40
12.39999961853027
 41
0.0000000000000000
 71
     5
 72
     1
  1
\A1;24
 11
6.123233995736766e-017
 21
1.000000000000000
 31
0.0000000000000000
  7
STANDARD
  0
ENDBLK
  5
EB
100
AcDbEntity
  8
MAIN0
  6
CONTINUOUS
 62
3
100
AcDbBlockEnd
  0
BLOCK
  5
ED
100
AcDbEntity
  8
MAIN0
  6
CONTINUOUS
 62
3
100
AcDbBlockBegin
  2
*D9
 70
    65
 10
0.0
 20
0.0
 30
0.0
  0
LINE
  5
EE
100
AcDbEntity
  8
MAIN0
  6
BYBLOCK
 62
0
100
AcDbLine
 10
237.8689942345571
 20
518.6777080936813
 30
0.0000000000000000
 11
243.8689942345565
 21
518.6777080936813
 31
0.0000000000000000
  0
INSERT
  5
EF
100
AcDbEntity
  8
MAIN0
  6
BYBLOCK
 62
0
100
AcDbBlockReference
  2
_OPEN
 10
237.8689942345571
 20
518.6777080936813
 30
0.0000000000000000
 41
8.000000000000000
 42
8.000000000000000
 43
8.000000000000000
 50
0.0000000000000000
  0
INSERT
  5
F0
100
AcDbEntity
  8
MAIN0
  6
BYBLOCK
 62
0
100
AcDbBlockReference
  2
_OPEN
 10
243.8689942345565
 20
518.6777080936813
 30
0.0000000000000000
 41
8.000000000000000
 42
8.000000000000000
 43
8.000000000000000
 50
180.0000000000000
  0
LINE
  5
F1
100
AcDbEntity
  8
MAIN0
  6
BYBLOCK
 62
0
100
AcDbLine
 10
229.8689942345571
 20
518.6777080936813
 30
0.0000000000000000
 11
225.8689942345571
 21
518.6777080936813
 31
0.0000000000000000
  0
LINE
  5
F2
100
AcDbEntity
  8
MAIN0
  6
BYBLOCK
 62
0
100
AcDbLine
 10
251.8689942345565
 20
518.6777080936813
 30
0.0000000000000000
 11
263.8696835942873
 21
518.6777080936813
 31
0.0000000000000000
  0
LINE
  5
F3
100
AcDbEntity
  8
MAIN0
  6
BYBLOCK
 62
0
100
AcDbLine
 10
243.8689942345565
 20
508.4317040173080
 30
0.0000000000000000
 11
243.8689942345565
 21
526.6777080936813
 31
0.0000000000000000
  0
MTEXT
  5
F4
100
AcDbEntity
  8
MAIN0
  6
BYBLOCK
 62
0
100
AcDbMText
 10
259.8696835942873
 20
526.8777079029464
 30
0.0000000000000000
 40
12.39999961853027
 41
0.0000000000000000
 71
     5
 72
     1
  1
\A1;6
 11
1.000000000000000
 21
0.0000000000000000
 31
0.0000000000000000
  7
STANDARD
  0
ENDBLK
  5
F5
100
AcDbEntity
  8
MAIN0
  6
CONTINUOUS
 62
3
100
AcDbBlockEnd
  0
BLOCK
  5
FB
100
AcDbEntity
  8
MAIN0
  6
CONTINUOUS
 62
3
100
AcDbBlockBegin
  2
*D10
 70
    65
 10
0.0
 20
0.0
 30
0.0
  0
LINE
  5
FC
100
AcDbEntity
  8
MAIN0
  6
BYBLOCK
 62
0
100
AcDbLine
 10
1146.124738257235
 20
544.8316824359952
 30
0.0000000000000000
 11
1146.124738257235
 21
796.6833151136104
 31
0.0000000000000000
  0
LINE
  5
FD
100
AcDbEntity
  8
MAIN0
  6
BYBLOCK
 62
0
100
AcDbLine
 10
1154.124738257235
 20
788.6833151136104
 30
0.0000000000000000
 11
1255.124738257211
 21
788.6833151136104
 31
0.0000000000000000
  0
INSERT
  5
FE
100
AcDbEntity
  8
MAIN0
  6
BYBLOCK
 62
0
100
AcDbBlockReference
  2
_OPEN
 10
1146.124738257235
 20
788.6833151136104
 30
0.0000000000000000
 41
8.000000000000000
 42
8.000000000000000
 43
8.000000000000000
 50
180.0000000000000
  0
INSERT
  5
FF
100
AcDbEntity
  8
MAIN0
  6
BYBLOCK
 62
0
100
AcDbBlockReference
  2
_OPEN
 10
1263.124738257211
 20
788.6833151136104
 30
0.0000000000000000
 41
8.000000000000000
 42
8.000000000000000
 43
8.000000000000000
 50
0.0000000000000000
  0
LINE
  5
100
100
AcDbEntity
  8
MAIN0
  6
BYBLOCK
 62
0
100
AcDbLine
 10
1263.124738257211
 20
718.4316824359952
 30
0.0000000000000000
 11
1263.124738257211
 21
796.6833151136104
 31
0.0000000000000000
  0
MTEXT
  5
101
100
AcDbEntity
  8
MAIN0
  6
BYBLOCK
 62
0
100
AcDbMText
 10
1204.624738257223
 20
795.3833149228756
 30
0.0000000000000000
 40
12.39999961853027
 41
0.0000000000000000
 71
     5
 72
     1
  1
\A1;117
 11
1.000000000000000
 21
0.0000000000000000
 31
0.0000000000000000
  7
STANDARD
  0
ENDBLK
  5
102
100
AcDbEntity
  8
MAIN0
  6
CONTINUOUS
 62
3
100
AcDbBlockEnd
  0
BLOCK
  5
104
100
AcDbEntity
  8
MAIN0
  6
CONTINUOUS
 62
3
100
AcDbBlockBegin
  2
*D11
 70
    65
 10
0.0
 20
0.0
 30
0.0
  0
LINE
  5
105
100
AcDbEntity
  8
MAIN0
  6
BYBLOCK
 62
0
100
AcDbLine
 10
1146.124738257235
 20
544.8316824359952
 30
0.0000000000000000
 11
1146.124738257235
 21
767.8722075917048
 31
0.0000000000000000
  0
LINE
  5
106
100
AcDbEntity
  8
MAIN0
  6
BYBLOCK
 62
0
100
AcDbLine
 10
1146.124738257235
 20
759.8722075917049
 30
0.0000000000000000
 11
1160.124738257236
 21
759.8722075917049
 31
0.0000000000000000
  0
INSERT
  5
107
100
AcDbEntity
  8
MAIN0
  6
BYBLOCK
 62
0
100
AcDbBlockReference
  2
_OPEN
 10
1146.124738257235
 20
759.8722075917049
 30
0.0000000000000000
 41
8.000000000000000
 42
8.000000000000000
 43
8.000000000000000
 50
0.0000000000000000
  0
INSERT
  5
108
100
AcDbEntity
  8
MAIN0
  6
BYBLOCK
 62
0
100
AcDbBlockReference
  2
_DOT
 10
1161.124738257236
 20
759.8722075917049
 30
0.0000000000000000
 41
4.000000000000000
 42
4.000000000000000
 43
4.000000000000000
 50
0.0000000000000000
  0
LINE
  5
109
100
AcDbEntity
  8
MAIN0
  6
BYBLOCK
 62
0
100
AcDbLine
 10
1138.124738257235
 20
759.8722075917049
 30
0.0000000000000000
 11
1117.433346277393
 21
759.8722075917049
 31
0.0000000000000000
  0
LINE
  5
10A
100
AcDbEntity
  8
MAIN0
  6
BYBLOCK
 62
0
100
AcDbLine
 10
1161.124738257236
 20
548.4316824359951
 30
0.0000000000000000
 11
1161.124738257236
 21
767.8722075917048
 31
0.0000000000000000
  0
MTEXT
  5
10B
100
AcDbEntity
  8
MAIN0
  6
BYBLOCK
 62
0
100
AcDbMText
 10
1125.633346086658
 20
768.0722074009700
 30
0.0000000000000000
 40
12.39999961853027
 41
0.0000000000000000
 71
     5
 72
     1
  1
\A1;15
 11
1.000000000000000
 21
0.0000000000000000
 31
0.0000000000000000
  7
STANDARD
  0
ENDBLK
  5
10C
100
AcDbEntity
  8
MAIN0
  6
CONTINUOUS
 62
3
100
AcDbBlockEnd
  0
BLOCK
  5
10E
100
AcDbEntity
  8
MAIN0
  6
CONTINUOUS
 62
3
100
AcDbBlockBegin
  2
*D12
 70
    65
 10
0.0
 20
0.0
 30
0.0
  0
LINE
  5
10F
100
AcDbEntity
  8
MAIN0
  6
BYBLOCK
 62
0
100
AcDbLine
 10
1161.124738257236
 20
548.4316824359951
 30
0.0000000000000000
 11
1161.124738257236
 21
767.8722075917048
 31
0.0000000000000000
  0
LINE
  5
110
100
AcDbEntity
  8
MAIN0
  6
BYBLOCK
 62
0
100
AcDbLine
 10
1162.124738257235
 20
759.8722075917049
 30
0.0000000000000000
 11
1191.124738257217
 21
759.8722075917049
 31
0.0000000000000000
  0
INSERT
  5
111
100
AcDbEntity
  8
MAIN0
  6
BYBLOCK
 62
0
100
AcDbBlockReference
  2
_DOT
 10
1161.124738257235
 20
759.8722075917049
 30
0.0000000000000000
 41
4.000000000000000
 42
4.000000000000000
 43
4.000000000000000
 50
180.0000000000000
  0
INSERT
  5
112
100
AcDbEntity
  8
MAIN0
  6
BYBLOCK
 62
0
100
AcDbBlockReference
  2
_OPEN
 10
1191.124738257217
 20
759.8722075917049
 30
0.0000000000000000
 41
8.000000000000000
 42
8.000000000000000
 43
8.000000000000000
 50
180.0000000000000
  0
LINE
  5
113
100
AcDbEntity
  8
MAIN0
  6
BYBLOCK
 62
0
100
AcDbLine
 10
1199.124738257217
 20
759.8722075917049
 30
0.0000000000000000
 11
1203.124738257217
 21
759.8722075917049
 31
0.0000000000000000
  0
LINE
  5
114
100
AcDbEntity
  8
MAIN0
  6
BYBLOCK
 62
0
100
AcDbLine
 10
1191.124738257217
 20
708.9316824359948
 30
0.0000000000000000
 11
1191.124738257217
 21
767.8722075917049
 31
0.0000000000000000
  0
MTEXT
  5
115
100
AcDbEntity
  8
MAIN0
  6
BYBLOCK
 62
0
100
AcDbMText
 10
1176.124738257226
 20
766.5722074009700
 30
0.0000000000000000
 40
12.39999961853027
 41
0.0000000000000000
 71
     5
 72
     1
  1
\A1;30
 11
1.000000000000000
 21
0.0000000000000000
 31
0.0000000000000000
  7
STANDARD
  0
ENDBLK
  5
116
100
AcDbEntity
  8
MAIN0
  6
CONTINUOUS
 62
3
100
AcDbBlockEnd
  0
BLOCK
  5
118
100
AcDbEntity
  8
MAIN0
  6
CONTINUOUS
 62
3
100
AcDbBlockBegin
  2
*D13
 70
    65
 10
0.0
 20
0.0
 30
0.0
  0
LINE
  5
119
100
AcDbEntity
  8
MAIN0
  6
BYBLOCK
 62
0
100
AcDbLine
 10
1191.124738257217
 20
708.9316824359948
 30
0.0000000000000000
 11
1191.124738257217
 21
767.8722075917049
 31
0.0000000000000000
  0
LINE
  5
11A
100
AcDbEntity
  8
MAIN0
  6
BYBLOCK
 62
0
100
AcDbLine
 10
1199.124738257217
 20
759.8722075917049
 30
0.0000000000000000
 11
1255.124738257211
 21
759.8722075917049
 31
0.0000000000000000
  0
INSERT
  5
11B
100
AcDbEntity
  8
MAIN0
  6
BYBLOCK
 62
0
100
AcDbBlockReference
  2
_OPEN
 10
1191.124738257217
 20
759.8722075917049
 30
0.0000000000000000
 41
8.000000000000000
 42
8.000000000000000
 43
8.000000000000000
 50
180.0000000000000
  0
INSERT
  5
11C
100
AcDbEntity
  8
MAIN0
  6
BYBLOCK
 62
0
100
AcDbBlockReference
  2
_OPEN
 10
1263.124738257211
 20
759.8722075917049
 30
0.0000000000000000
 41
8.000000000000000
 42
8.000000000000000
 43
8.000000000000000
 50
0.0000000000000000
  0
LINE
  5
11D
100
AcDbEntity
  8
MAIN0
  6
BYBLOCK
 62
0
100
AcDbLine
 10
1263.124738257211
 20
718.4316824359952
 30
0.0000000000000000
 11
1263.124738257211
 21
767.8722075917049
 31
0.0000000000000000
  0
MTEXT
  5
11E
100
AcDbEntity
  8
MAIN0
  6
BYBLOCK
 62
0
100
AcDbMText
 10
1227.124738257214
 20
766.5722074009700
 30
0.0000000000000000
 40
12.39999961853027
 41
0.0000000000000000
 71
     5
 72
     1
  1
\A1;72
 11
1.000000000000000
 21
0.0000000000000000
 31
0.0000000000000000
  7
STANDARD
  0
ENDBLK
  5
11F
100
AcDbEntity
  8
MAIN0
  6
CONTINUOUS
 62
3
100
AcDbBlockEnd
  0
BLOCK
  5
121
100
AcDbEntity
  8
MAIN0
  6
CONTINUOUS
 62
3
100
AcDbBlockBegin
  2
*D14
 70
    65
 10
0.0
 20
0.0
 30
0.0
  0
LINE
  5
122
100
AcDbEntity
  8
MAIN0
  6
BYBLOCK
 62
0
100
AcDbLine
 10
1175.924738209542
 20
715.2316823883111
 30
0.0000000000000000
 11
1108.878548823926
 21
715.2316823883111
 31
0.0000000000000000
  0
LINE
  5
123
100
AcDbEntity
  8
MAIN0
  6
BYBLOCK
 62
0
100
AcDbLine
 10
1116.878548823926
 20
707.2316823883111
 30
0.0000000000000000
 11
1116.878548823926
 21
543.2316823883112
 31
0.0000000000000000
  0
INSERT
  5
124
100
AcDbEntity
  8
MAIN0
  6
BYBLOCK
 62
0
100
AcDbBlockReference
  2
_OPEN
 10
1116.878548823926
 20
715.2316823883111
 30
0.0000000000000000
 41
8.000000000000000
 42
8.000000000000000
 43
8.000000000000000
 50
90.00000000000000
  0
INSERT
  5
125
100
AcDbEntity
  8
MAIN0
  6
BYBLOCK
 62
0
100
AcDbBlockReference
  2
_OPEN
 10
1116.878548823926
 20
535.2316823883112
 30
0.0000000000000000
 41
8.000000000000000
 42
8.000000000000000
 43
8.000000000000000
 50
270.0000000000000
  0
LINE
  5
126
100
AcDbEntity
  8
MAIN0
  6
BYBLOCK
 62
0
100
AcDbLine
 10
1137.924738209550
 20
535.2316823883112
 30
0.0000000000000000
 11
1108.878548823926
 21
535.2316823883112
 31
0.0000000000000000
  0
MTEXT
  5
127
100
AcDbEntity
  8
MAIN0
  6
BYBLOCK
 62
0
100
AcDbMText
 10
1110.178549014660
 20
625.2316823883111
 30
0.0000000000000000
 40
12.39999961853027
 41
0.0000000000000000
 71
     5
 72
     1
  1
\A1;180
 11
6.123233995736766e-017
 21
1.000000000000000
 31
0.0000000000000000
  7
STANDARD
  0
ENDBLK
  5
128
100
AcDbEntity
  8
MAIN0
  6
CONTINUOUS
 62
3
100
AcDbBlockEnd
  0
BLOCK
  5
12A
100
AcDbEntity
  8
MAIN0
  6
CONTINUOUS
 62
3
100
AcDbBlockBegin
  2
*D15
 70
    65
 10
0.0
 20
0.0
 30
0.0
  0
LINE
  5
12B
100
AcDbEntity
  8
MAIN0
  6
BYBLOCK
 62
0
100
AcDbLine
 10
1137.924738209550
 20
535.2316823883112
 30
0.0000000000000000
 11
1108.878548823926
 21
535.2316823883112
 31
0.0000000000000000
  0
LINE
  5
12C
100
AcDbEntity
  8
MAIN0
  6
BYBLOCK
 62
0
100
AcDbLine
 10
1116.878548823926
 20
527.2316823883112
 30
0.0000000000000000
 11
1116.878548823926
 21
493.2317039700538
 31
0.0000000000000000
  0
INSERT
  5
12D
100
AcDbEntity
  8
MAIN0
  6
BYBLOCK
 62
0
100
AcDbBlockReference
  2
_OPEN
 10
1116.878548823926
 20
535.2316823883112
 30
0.0000000000000000
 41
8.000000000000000
 42
8.000000000000000
 43
8.000000000000000
 50
90.00000000000000
  0
INSERT
  5
12E
100
AcDbEntity
  8
MAIN0
  6
BYBLOCK
 62
0
100
AcDbBlockReference
  2
_OPEN
 10
1116.878548823926
 20
485.2317039700538
 30
0.0000000000000000
 41
8.000000000000000
 42
8.000000000000000
 43
8.000000000000000
 50
270.0000000000000
  0
LINE
  5
12F
100
AcDbEntity
  8
MAIN0
  6
BYBLOCK
 62
0
100
AcDbLine
 10
998.6405185131027
 20
485.2317039700538
 30
0.0000000000000000
 11
1124.878548823926
 21
485.2317039700538
 31
0.0000000000000000
  0
MTEXT
  5
130
100
AcDbEntity
  8
MAIN0
  6
BYBLOCK
 62
0
100
AcDbMText
 10
1110.178549014660
 20
510.2316931791825
 30
0.0000000000000000
 40
12.39999961853027
 41
0.0000000000000000
 71
     5
 72
     1
  1
\A1;50
 11
6.123233995736766e-017
 21
1.000000000000000
 31
0.0000000000000000
  7
STANDARD
  0
ENDBLK
  5
131
100
AcDbEntity
  8
MAIN0
  6
CONTINUOUS
 62
3
100
AcDbBlockEnd
  0
BLOCK
  5
151
100
AcDbEntity
  8
MAIN0
  6
CONTINUOUS
 62
3
100
AcDbBlockBegin
  2
*D16
 70
    65
 10
0.0
 20
0.0
 30
0.0
  0
LINE
  5
152
100
AcDbEntity
  8
MAIN0
  6
BYBLOCK
 62
0
100
AcDbLine
 10
400.8405184652395
 20
482.4317039218611
 30
0.0000000000000000
 11
400.8405184652395
 21
292.2317039694673
 31
0.0000000000000000
  0
LINE
  5
153
100
AcDbEntity
  8
MAIN0
  6
BYBLOCK
 62
0
100
AcDbLine
 10
408.8405184652395
 20
300.2317039694673
 30
0.0000000000000000
 11
1072.840518465625
 21
300.2317039694673
 31
0.0000000000000000
  0
INSERT
  5
154
100
AcDbEntity
  8
MAIN0
  6
BYBLOCK
 62
0
100
AcDbBlockReference
  2
_OPEN
 10
400.8405184652395
 20
300.2317039694673
 30
0.0000000000000000
 41
8.000000000000000
 42
8.000000000000000
 43
8.000000000000000
 50
180.0000000000000
  0
INSERT
  5
155
100
AcDbEntity
  8
MAIN0
  6
BYBLOCK
 62
0
100
AcDbBlockReference
  2
_OPEN
 10
1080.840518465625
 20
300.2317039694673
 30
0.0000000000000000
 41
8.000000000000000
 42
8.000000000000000
 43
8.000000000000000
 50
0.0000000000000000
  0
LINE
  5
156
100
AcDbEntity
  8
MAIN0
  6
BYBLOCK
 62
0
100
AcDbLine
 10
1080.840518465625
 20
507.2817039204241
 30
0.0000000000000000
 11
1080.840518465625
 21
292.2317039694673
 31
0.0000000000000000
  0
MTEXT
  5
157
100
AcDbEntity
  8
MAIN0
  6
BYBLOCK
 62
0
100
AcDbMText
 10
802.0437823036868
 20
308.4317037787324
 30
0.0000000000000000
 40
12.39999961853027
 41
0.0000000000000000
 71
     5
 72
     1
  1
\A1;680
 11
1.000000000000000
 21
0.0000000000000000
 31
0.0000000000000000
  7
STANDARD
  0
ENDBLK
  5
158
100
AcDbEntity
  8
MAIN0
  6
CONTINUOUS
 62
3
100
AcDbBlockEnd
  0
BLOCK
  5
15A
100
AcDbEntity
  8
MAIN0
  6
CONTINUOUS
 62
3
100
AcDbBlockBegin
  2
*D17
 70
    65
 10
0.0
 20
0.0
 30
0.0
  0
LINE
  5
15B
100
AcDbEntity
  8
MAIN0
  6
BYBLOCK
 62
0
100
AcDbLine
 10
400.8405184652395
 20
482.4317039218611
 30
0.0000000000000000
 11
400.8405184652395
 21
322.2317039694673
 31
0.0000000000000000
  0
LINE
  5
15C
100
AcDbEntity
  8
MAIN0
  6
BYBLOCK
 62
0
100
AcDbLine
 10
408.8405184652395
 20
330.2317039694673
 30
0.0000000000000000
 11
672.8405184653049
 21
330.2317039694673
 31
0.0000000000000000
  0
INSERT
  5
15D
100
AcDbEntity
  8
MAIN0
  6
BYBLOCK
 62
0
100
AcDbBlockReference
  2
_OPEN
 10
400.8405184652395
 20
330.2317039694673
 30
0.0000000000000000
 41
8.000000000000000
 42
8.000000000000000
 43
8.000000000000000
 50
180.0000000000000
  0
INSERT
  5
15E
100
AcDbEntity
  8
MAIN0
  6
BYBLOCK
 62
0
100
AcDbBlockReference
  2
_OPEN
 10
680.8405184653049
 20
330.2317039694673
 30
0.0000000000000000
 41
8.000000000000000
 42
8.000000000000000
 43
8.000000000000000
 50
0.0000000000000000
  0
LINE
  5
15F
100
AcDbEntity
  8
MAIN0
  6
BYBLOCK
 62
0
100
AcDbLine
 10
680.8405184653049
 20
470.0317039220651
 30
0.0000000000000000
 11
680.8405184653049
 21
322.2317039694673
 31
0.0000000000000000
  0
MTEXT
  5
160
100
AcDbEntity
  8
MAIN0
  6
BYBLOCK
 62
0
100
AcDbMText
 10
540.8405184652722
 20
336.9317037787324
 30
0.0000000000000000
 40
12.39999961853027
 41
0.0000000000000000
 71
     5
 72
     1
  1
\A1;280
 11
1.000000000000000
 21
0.0000000000000000
 31
0.0000000000000000
  7
STANDARD
  0
ENDBLK
  5
161
100
AcDbEntity
  8
MAIN0
  6
CONTINUOUS
 62
3
100
AcDbBlockEnd
  0
BLOCK
  5
163
100
AcDbEntity
  8
MAIN0
  6
CONTINUOUS
 62
3
100
AcDbBlockBegin
  2
*D18
 70
    65
 10
0.0
 20
0.0
 30
0.0
  0
LINE
  5
164
100
AcDbEntity
  8
MAIN0
  6
BYBLOCK
 62
0
100
AcDbLine
 10
680.8405184653049
 20
470.0317039220651
 30
0.0000000000000000
 11
680.8405184653049
 21
322.2317039694673
 31
0.0000000000000000
  0
LINE
  5
165
100
AcDbEntity
  8
MAIN0
  6
BYBLOCK
 62
0
100
AcDbLine
 10
688.8405184653049
 20
330.2317039694673
 30
0.0000000000000000
 11
1072.840518465625
 21
330.2317039694673
 31
0.0000000000000000
  0
INSERT
  5
166
100
AcDbEntity
  8
MAIN0
  6
BYBLOCK
 62
0
100
AcDbBlockReference
  2
_OPEN
 10
680.8405184653049
 20
330.2317039694673
 30
0.0000000000000000
 41
8.000000000000000
 42
8.000000000000000
 43
8.000000000000000
 50
180.0000000000000
  0
INSERT
  5
167
100
AcDbEntity
  8
MAIN0
  6
BYBLOCK
 62
0
100
AcDbBlockReference
  2
_OPEN
 10
1080.840518465625
 20
330.2317039694673
 30
0.0000000000000000
 41
8.000000000000000
 42
8.000000000000000
 43
8.000000000000000
 50
0.0000000000000000
  0
LINE
  5
168
100
AcDbEntity
  8
MAIN0
  6
BYBLOCK
 62
0
100
AcDbLine
 10
1080.840518465625
 20
507.2817039204241
 30
0.0000000000000000
 11
1080.840518465625
 21
322.2317039694673
 31
0.0000000000000000
  0
MTEXT
  5
169
100
AcDbEntity
  8
MAIN0
  6
BYBLOCK
 62
0
100
AcDbMText
 10
880.8405184654648
 20
336.9317037787324
 30
0.0000000000000000
 40
12.39999961853027
 41
0.0000000000000000
 71
     5
 72
     1
  1
\A1;400
 11
1.000000000000000
 21
0.0000000000000000
 31
0.0000000000000000
  7
STANDARD
  0
ENDBLK
  5
16A
100
AcDbEntity
  8
MAIN0
  6
CONTINUOUS
 62
3
100
AcDbBlockEnd
  0
BLOCK
  5
16C
100
AcDbEntity
  8
MAIN0
  6
CONTINUOUS
 62
3
100
AcDbBlockBegin
  2
*D19
 70
    65
 10
0.0
 20
0.0
 30
0.0
  0
LINE
  5
16D
100
AcDbEntity
  8
MAIN0
  6
BYBLOCK
 62
0
100
AcDbLine
 10
400.8405184652395
 20
482.4317039218611
 30
0.0000000000000000
 11
400.8405184652395
 21
352.2317039694673
 31
0.0000000000000000
  0
LINE
  5
16E
100
AcDbEntity
  8
MAIN0
  6
BYBLOCK
 62
0
100
AcDbLine
 10
408.8405184652395
 20
360.2317039694673
 30
0.0000000000000000
 11
987.8405184654207
 21
360.2317039694673
 31
0.0000000000000000
  0
INSERT
  5
16F
100
AcDbEntity
  8
MAIN0
  6
BYBLOCK
 62
0
100
AcDbBlockReference
  2
_OPEN
 10
400.8405184652395
 20
360.2317039694673
 30
0.0000000000000000
 41
8.000000000000000
 42
8.000000000000000
 43
8.000000000000000
 50
180.0000000000000
  0
INSERT
  5
170
100
AcDbEntity
  8
MAIN0
  6
BYBLOCK
 62
0
100
AcDbBlockReference
  2
_OPEN
 10
995.8405184654207
 20
360.2317039694673
 30
0.0000000000000000
 41
8.000000000000000
 42
8.000000000000000
 43
8.000000000000000
 50
0.0000000000000000
  0
LINE
  5
171
100
AcDbEntity
  8
MAIN0
  6
BYBLOCK
 62
0
100
AcDbLine
 10
995.8405184654207
 20
482.4317039223712
 30
0.0000000000000000
 11
995.8405184654207
 21
352.2317039694673
 31
0.0000000000000000
  0
MTEXT
  5
172
100
AcDbEntity
  8
MAIN0
  6
BYBLOCK
 62
0
100
AcDbMText
 10
705.4327068560860
 20
368.4317037787324
 30
0.0000000000000000
 40
12.39999961853027
 41
0.0000000000000000
 71
     5
 72
     1
  1
\A1;595
 11
1.000000000000000
 21
0.0000000000000000
 31
0.0000000000000000
  7
STANDARD
  0
ENDBLK
  5
173
100
AcDbEntity
  8
MAIN0
  6
CONTINUOUS
 62
3
100
AcDbBlockEnd
  0
BLOCK
  5
175
100
AcDbEntity
  8
MAIN0
  6
CONTINUOUS
 62
3
100
AcDbBlockBegin
  2
*D20
 70
    65
 10
0.0
 20
0.0
 30
0.0
  0
LINE
  5
176
100
AcDbEntity
  8
MAIN0
  6
BYBLOCK
 62
0
100
AcDbLine
 10
995.8405184654207
 20
482.4317039223712
 30
0.0000000000000000
 11
995.8405184654207
 21
352.2317039694673
 31
0.0000000000000000
  0
LINE
  5
177
100
AcDbEntity
  8
MAIN0
  6
BYBLOCK
 62
0
100
AcDbLine
 10
1003.840518465421
 20
360.2317039694673
 30
0.0000000000000000
 11
1072.840518465625
 21
360.2317039694673
 31
0.0000000000000000
  0
INSERT
  5
178
100
AcDbEntity
  8
MAIN0
  6
BYBLOCK
 62
0
100
AcDbBlockReference
  2
_OPEN
 10
995.8405184654207
 20
360.2317039694673
 30
0.0000000000000000
 41
8.000000000000000
 42
8.000000000000000
 43
8.000000000000000
 50
180.0000000000000
  0
INSERT
  5
179
100
AcDbEntity
  8
MAIN0
  6
BYBLOCK
 62
0
100
AcDbBlockReference
  2
_OPEN
 10
1080.840518465625
 20
360.2317039694673
 30
0.0000000000000000
 41
8.000000000000000
 42
8.000000000000000
 43
8.000000000000000
 50
0.0000000000000000
  0
LINE
  5
17A
100
AcDbEntity
  8
MAIN0
  6
BYBLOCK
 62
0
100
AcDbLine
 10
1080.840518465625
 20
507.2817039204241
 30
0.0000000000000000
 11
1080.840518465625
 21
352.2317039694673
 31
0.0000000000000000
  0
MTEXT
  5
17B
100
AcDbEntity
  8
MAIN0
  6
BYBLOCK
 62
0
100
AcDbMText
 10
1038.340518465523
 20
366.9317037787324
 30
0.0000000000000000
 40
12.39999961853027
 41
0.0000000000000000
 71
     5
 72
     1
  1
\A1;85
 11
1.000000000000000
 21
0.0000000000000000
 31
0.0000000000000000
  7
STANDARD
  0
ENDBLK
  5
17C
100
AcDbEntity
  8
MAIN0
  6
CONTINUOUS
 62
3
100
AcDbBlockEnd
  0
BLOCK
  5
17E
100
AcDbEntity
  8
MAIN0
  6
CONTINUOUS
 62
3
100
AcDbBlockBegin
  2
*D21
 70
    65
 10
0.0
 20
0.0
 30
0.0
  0
LINE
  5
17F
100
AcDbEntity
  8
MAIN0
  6
BYBLOCK
 62
0
100
AcDbLine
 10
485.8405184653357
 20
567.4317039219078
 30
0.0000000000000000
 11
485.8405184653357
 21
382.2317039694673
 31
0.0000000000000000
  0
LINE
  5
180
100
AcDbEntity
  8
MAIN0
  6
BYBLOCK
 62
0
100
AcDbLine
 10
493.8405184653357
 20
390.2317039694673
 30
0.0000000000000000
 11
672.8405184653049
 21
390.2317039694673
 31
0.0000000000000000
  0
INSERT
  5
181
100
AcDbEntity
  8
MAIN0
  6
BYBLOCK
 62
0
100
AcDbBlockReference
  2
_OPEN
 10
485.8405184653357
 20
390.2317039694673
 30
0.0000000000000000
 41
8.000000000000000
 42
8.000000000000000
 43
8.000000000000000
 50
180.0000000000000
  0
INSERT
  5
182
100
AcDbEntity
  8
MAIN0
  6
BYBLOCK
 62
0
100
AcDbBlockReference
  2
_OPEN
 10
680.8405184653049
 20
390.2317039694673
 30
0.0000000000000000
 41
8.000000000000000
 42
8.000000000000000
 43
8.000000000000000
 50
0.0000000000000000
  0
LINE
  5
183
100
AcDbEntity
  8
MAIN0
  6
BYBLOCK
 62
0
100
AcDbLine
 10
680.8405184653049
 20
470.0317039220651
 30
0.0000000000000000
 11
680.8405184653049
 21
382.2317039694673
 31
0.0000000000000000
  0
MTEXT
  5
184
100
AcDbEntity
  8
MAIN0
  6
BYBLOCK
 62
0
100
AcDbMText
 10
583.3405184653202
 20
396.9317037787324
 30
0.0000000000000000
 40
12.39999961853027
 41
0.0000000000000000
 71
     5
 72
     1
  1
\A1;195
 11
1.000000000000000
 21
0.0000000000000000
 31
0.0000000000000000
  7
STANDARD
  0
ENDBLK
  5
185
100
AcDbEntity
  8
MAIN0
  6
CONTINUOUS
 62
3
100
AcDbBlockEnd
  0
BLOCK
  5
187
100
AcDbEntity
  8
MAIN0
  6
CONTINUOUS
 62
3
100
AcDbBlockBegin
  2
*D22
 70
    65
 10
0.0
 20
0.0
 30
0.0
  0
LINE
  5
188
100
AcDbEntity
  8
MAIN0
  6
BYBLOCK
 62
0
100
AcDbLine
 10
680.8405184653049
 20
470.0317039220651
 30
0.0000000000000000
 11
680.8405184653049
 21
382.2317039694673
 31
0.0000000000000000
  0
LINE
  5
189
100
AcDbEntity
  8
MAIN0
  6
BYBLOCK
 62
0
100
AcDbLine
 10
688.8405184653049
 20
390.2317039694673
 30
0.0000000000000000
 11
987.8405184654207
 21
390.2317039694673
 31
0.0000000000000000
  0
INSERT
  5
18A
100
AcDbEntity
  8
MAIN0
  6
BYBLOCK
 62
0
100
AcDbBlockReference
  2
_OPEN
 10
680.8405184653049
 20
390.2317039694673
 30
0.0000000000000000
 41
8.000000000000000
 42
8.000000000000000
 43
8.000000000000000
 50
180.0000000000000
  0
INSERT
  5
18B
100
AcDbEntity
  8
MAIN0
  6
BYBLOCK
 62
0
100
AcDbBlockReference
  2
_OPEN
 10
995.8405184654207
 20
390.2317039694673
 30
0.0000000000000000
 41
8.000000000000000
 42
8.000000000000000
 43
8.000000000000000
 50
0.0000000000000000
  0
LINE
  5
18C
100
AcDbEntity
  8
MAIN0
  6
BYBLOCK
 62
0
100
AcDbLine
 10
995.8405184654207
 20
482.4317039223712
 30
0.0000000000000000
 11
995.8405184654207
 21
382.2317039694673
 31
0.0000000000000000
  0
MTEXT
  5
18D
100
AcDbEntity
  8
MAIN0
  6
BYBLOCK
 62
0
100
AcDbMText
 10
838.3405184653627
 20
396.9317037787324
 30
0.0000000000000000
 40
12.39999961853027
 41
0.0000000000000000
 71
     5
 72
     1
  1
\A1;315
 11
1.000000000000000
 21
0.0000000000000000
 31
0.0000000000000000
  7
STANDARD
  0
ENDBLK
  5
18E
100
AcDbEntity
  8
MAIN0
  6
CONTINUOUS
 62
3
100
AcDbBlockEnd
  0
BLOCK
  5
190
100
AcDbEntity
  8
MAIN0
  6
CONTINUOUS
 62
3
100
AcDbBlockBegin
  2
*D23
 70
    65
 10
0.0
 20
0.0
 30
0.0
  0
LINE
  5
191
100
AcDbEntity
  8
MAIN0
  6
BYBLOCK
 62
0
100
AcDbLine
 10
780.8405184667395
 20
996.8387967571213
 30
0.0000000000000000
 11
780.8405184667395
 21
1060.968386937943
 31
0.0000000000000000
  0
LINE
  5
192
100
AcDbEntity
  8
MAIN0
  6
BYBLOCK
 62
0
100
AcDbLine
 10
788.8405184667395
 20
1052.968386937943
 30
0.0000000000000000
 11
810.8405184666875
 21
1052.968386937943
 31
0.0000000000000000
  0
INSERT
  5
193
100
AcDbEntity
  8
MAIN0
  6
BYBLOCK
 62
0
100
AcDbBlockReference
  2
_OPEN
 10
780.8405184667395
 20
1052.968386937943
 30
0.0000000000000000
 41
8.000000000000000
 42
8.000000000000000
 43
8.000000000000000
 50
180.0000000000000
  0
INSERT
  5
194
100
AcDbEntity
  8
MAIN0
  6
BYBLOCK
 62
0
100
AcDbBlockReference
  2
_OPEN
 10
818.8405184666875
 20
1052.968386937943
 30
0.0000000000000000
 41
8.000000000000000
 42
8.000000000000000
 43
8.000000000000000
 50
0.0000000000000000
  0
LINE
  5
195
100
AcDbEntity
  8
MAIN0
  6
BYBLOCK
 62
0
100
AcDbLine
 10
818.8405184666875
 20
942.9387967569894
 30
0.0000000000000000
 11
818.8405184666875
 21
1060.968386937943
 31
0.0000000000000000
  0
MTEXT
  5
196
100
AcDbEntity
  8
MAIN0
  6
BYBLOCK
 62
0
100
AcDbMText
 10
799.8405184667136
 20
1059.668386747208
 30
0.0000000000000000
 40
12.39999961853027
 41
0.0000000000000000
 71
     5
 72
     1
  1
\A1;38
 11
1.000000000000000
 21
0.0000000000000000
 31
0.0000000000000000
  7
STANDARD
  0
ENDBLK
  5
197
100
AcDbEntity
  8
MAIN0
  6
CONTINUOUS
 62
3
100
AcDbBlockEnd
  0
BLOCK
  5
199
100
AcDbEntity
  8
MAIN0
  6
CONTINUOUS
 62
3
100
AcDbBlockBegin
  2
*D24
 70
    65
 10
0.0
 20
0.0
 30
0.0
  0
LINE
  5
19A
100
AcDbEntity
  8
MAIN0
  6
BYBLOCK
 62
0
100
AcDbLine
 10
485.8405184655837
 20
996.9387967577533
 30
0.0000000000000000
 11
485.8405184655837
 21
1060.968386937943
 31
0.0000000000000000
  0
LINE
  5
19B
100
AcDbEntity
  8
MAIN0
  6
BYBLOCK
 62
0
100
AcDbLine
 10
477.8405184655837
 20
1052.968386937943
 30
0.0000000000000000
 11
451.8405184645340
 21
1052.968386937943
 31
0.0000000000000000
  0
INSERT
  5
19C
100
AcDbEntity
  8
MAIN0
  6
BYBLOCK
 62
0
100
AcDbBlockReference
  2
_OPEN
 10
485.8405184655837
 20
1052.968386937943
 30
0.0000000000000000
 41
8.000000000000000
 42
8.000000000000000
 43
8.000000000000000
 50
360.0000000000000
  0
INSERT
  5
19D
100
AcDbEntity
  8
MAIN0
  6
BYBLOCK
 62
0
100
AcDbBlockReference
  2
_OPEN
 10
443.8405184645340
 20
1052.968386937943
 30
0.0000000000000000
 41
8.000000000000000
 42
8.000000000000000
 43
8.000000000000000
 50
180.0000000000000
  0
LINE
  5
19E
100
AcDbEntity
  8
MAIN0
  6
BYBLOCK
 62
0
100
AcDbLine
 10
443.8405184645340
 20
942.9387967577529
 30
0.0000000000000000
 11
443.8405184645340
 21
1060.968386937943
 31
0.0000000000000000
  0
MTEXT
  5
19F
100
AcDbEntity
  8
MAIN0
  6
BYBLOCK
 62
0
100
AcDbMText
 10
464.8405184650588
 20
1059.668386747208
 30
0.0000000000000000
 40
12.39999961853027
 41
0.0000000000000000
 71
     5
 72
     1
  1
\A1;42
 11
1.000000000000000
 21
0.0000000000000000
 31
0.0000000000000000
  7
STANDARD
  0
ENDBLK
  5
1A0
100
AcDbEntity
  8
MAIN0
  6
CONTINUOUS
 62
3
100
AcDbBlockEnd
  0
BLOCK
  5
1A2
100
AcDbEntity
  8
MAIN0
  6
CONTINUOUS
 62
3
100
AcDbBlockBegin
  2
*D25
 70
    65
 10
0.0
 20
0.0
 30
0.0
  0
LINE
  5
1A3
100
AcDbEntity
  8
MAIN0
  6
BYBLOCK
 62
0
100
AcDbLine
 10
407.5466598247352
 20
906.7387967097280
 30
0.0000000000000000
 11
349.8935521001516
 21
906.7387967097280
 31
0.0000000000000000
  0
LINE
  5
1A4
100
AcDbEntity
  8
MAIN0
  6
BYBLOCK
 62
0
100
AcDbLine
 10
357.8935521001516
 20
914.7387967097280
 30
0.0000000000000000
 11
357.8935521001516
 21
948.7387967097279
 31
0.0000000000000000
  0
INSERT
  5
1A5
100
AcDbEntity
  8
MAIN0
  6
BYBLOCK
 62
0
100
AcDbBlockReference
  2
_OPEN
 10
357.8935521001516
 20
906.7387967097280
 30
0.0000000000000000
 41
8.000000000000000
 42
8.000000000000000
 43
8.000000000000000
 50
270.0000000000000
  0
INSERT
  5
1A6
100
AcDbEntity
  8
MAIN0
  6
BYBLOCK
 62
0
100
AcDbBlockReference
  2
_OPEN
 10
357.8935521001516
 20
956.7387967097279
 30
0.0000000000000000
 41
8.000000000000000
 42
8.000000000000000
 43
8.000000000000000
 50
90.00000000000000
  0
LINE
  5
1A7
100
AcDbEntity
  8
MAIN0
  6
BYBLOCK
 62
0
100
AcDbLine
 10
407.5466598248025
 20
956.7387967097279
 30
0.0000000000000000
 11
349.8935521001516
 21
956.7387967097279
 31
0.0000000000000000
  0
MTEXT
  5
1A8
100
AcDbEntity
  8
MAIN0
  6
BYBLOCK
 62
0
100
AcDbMText
 10
351.1935522908864
 20
931.7387967097279
 30
0.0000000000000000
 40
12.39999961853027
 41
0.0000000000000000
 71
     5
 72
     1
  1
\A1;50
 11
6.123233995736766e-017
 21
1.000000000000000
 31
0.0000000000000000
  7
STANDARD
  0
ENDBLK
  5
1A9
100
AcDbEntity
  8
MAIN0
  6
CONTINUOUS
 62
3
100
AcDbBlockEnd
  0
BLOCK
  5
1AB
100
AcDbEntity
  8
MAIN0
  6
CONTINUOUS
 62
3
100
AcDbBlockBegin
  2
*D26
 70
    65
 10
0.0
 20
0.0
 30
0.0
  0
LINE
  5
1AC
100
AcDbEntity
  8
MAIN0
  6
BYBLOCK
 62
0
100
AcDbLine
 10
853.5657687306316
 20
891.7387967091983
 30
0.0000000000000000
 11
904.0455570679217
 21
891.7387967092278
 31
0.0000000000000000
  0
LINE
  5
1AD
100
AcDbEntity
  8
MAIN0
  6
BYBLOCK
 62
0
100
AcDbLine
 10
896.0455570679217
 20
899.7387967092232
 30
0.0000000000000000
 11
896.0455570679217
 21
963.7387967092229
 31
0.0000000000000000
  0
INSERT
  5
1AE
100
AcDbEntity
  8
MAIN0
  6
BYBLOCK
 62
0
100
AcDbBlockReference
  2
_OPEN
 10
896.0455570679217
 20
891.7387967092232
 30
0.0000000000000000
 41
8.000000000000000
 42
8.000000000000000
 43
8.000000000000000
 50
270.0000000000000
  0
INSERT
  5
1AF
100
AcDbEntity
  8
MAIN0
  6
BYBLOCK
 62
0
100
AcDbBlockReference
  2
_OPEN
 10
896.0455570679217
 20
971.7387967092229
 30
0.0000000000000000
 41
8.000000000000000
 42
8.000000000000000
 43
8.000000000000000
 50
90.00000000000000
  0
LINE
  5
1B0
100
AcDbEntity
  8
MAIN0
  6
BYBLOCK
 62
0
100
AcDbLine
 10
853.5657687307394
 20
971.7387967091983
 30
0.0000000000000000
 11
904.0455570679217
 21
971.7387967092277
 31
0.0000000000000000
  0
MTEXT
  5
1B1
100
AcDbEntity
  8
MAIN0
  6
BYBLOCK
 62
0
100
AcDbMText
 10
889.3455572586565
 20
931.7387967092230
 30
0.0000000000000000
 40
12.39999961853027
 41
0.0000000000000000
 71
     5
 72
     1
  1
\A1;80
 11
6.123233995736766e-017
 21
1.000000000000000
 31
0.0000000000000000
  7
STANDARD
  0
ENDBLK
  5
1B2
100
AcDbEntity
  8
MAIN0
  6
CONTINUOUS
 62
3
100
AcDbBlockEnd
  0
BLOCK
  5
1B4
100
AcDbEntity
  8
MAIN0
  6
CONTINUOUS
 62
3
100
AcDbBlockBegin
  2
*D27
 70
    65
 10
0.0
 20
0.0
 30
0.0
  0
LINE
  5
1B5
100
AcDbEntity
  8
MAIN0
  6
BYBLOCK
 62
0
100
AcDbLine
 10
780.8405184666364
 20
866.6387966617946
 30
0.0000000000000000
 11
780.8405184666364
 21
817.6644003861744
 31
0.0000000000000000
  0
LINE
  5
1B6
100
AcDbEntity
  8
MAIN0
  6
BYBLOCK
 62
0
100
AcDbLine
 10
780.8405184666364
 20
825.6644003861744
 30
0.0000000000000000
 11
790.8405184666466
 21
825.6644003861744
 31
0.0000000000000000
  0
INSERT
  5
1B7
100
AcDbEntity
  8
MAIN0
  6
BYBLOCK
 62
0
100
AcDbBlockReference
  2
_OPEN
 10
780.8405184666364
 20
825.6644003861744
 30
0.0000000000000000
 41
8.000000000000000
 42
8.000000000000000
 43
8.000000000000000
 50
0.0000000000000000
  0
INSERT
  5
1B8
100
AcDbEntity
  8
MAIN0
  6
BYBLOCK
 62
0
100
AcDbBlockReference
  2
_OPEN
 10
790.8405184666466
 20
825.6644003861744
 30
0.0000000000000000
 41
8.000000000000000
 42
8.000000000000000
 43
8.000000000000000
 50
180.0000000000000
  0
LINE
  5
1B9
100
AcDbEntity
  8
MAIN0
  6
BYBLOCK
 62
0
100
AcDbLine
 10
772.8405184666364
 20
825.6644003861744
 30
0.0000000000000000
 11
750.9582547511986
 21
825.6644003861744
 31
0.0000000000000000
  0
LINE
  5
1BA
100
AcDbEntity
  8
MAIN0
  6
BYBLOCK
 62
0
100
AcDbLine
 10
798.8405184666466
 20
825.6644003861744
 30
0.0000000000000000
 11
802.8405184666466
 21
825.6644003861744
 31
0.0000000000000000
  0
LINE
  5
1BB
100
AcDbEntity
  8
MAIN0
  6
BYBLOCK
 62
0
100
AcDbLine
 10
790.8405184666466
 20
879.1117541572651
 30
0.0000000000000000
 11
790.8405184666466
 21
817.6644003861744
 31
0.0000000000000000
  0
MTEXT
  5
1BC
100
AcDbEntity
  8
MAIN0
  6
BYBLOCK
 62
0
100
AcDbMText
 10
759.1582545604638
 20
833.8644001954395
 30
0.0000000000000000
 40
12.39999961853027
 41
0.0000000000000000
 71
     5
 72
     1
  1
\A1;10
 11
1.000000000000000
 21
0.0000000000000000
 31
0.0000000000000000
  7
STANDARD
  0
ENDBLK
  5
1BD
100
AcDbEntity
  8
MAIN0
  6
CONTINUOUS
 62
3
100
AcDbBlockEnd
  0
BLOCK
  5
1BF
100
AcDbEntity
  8
MAIN0
  6
CONTINUOUS
 62
3
100
AcDbBlockBegin
  2
*D28
 70
    65
 10
0.0
 20
0.0
 30
0.0
  0
LINE
  5
1C0
100
AcDbEntity
  8
MAIN0
  6
BYBLOCK
 62
0
100
AcDbLine
 10
790.8405184666466
 20
879.1117541572651
 30
0.0000000000000000
 11
790.8405184666466
 21
817.6644003861744
 31
0.0000000000000000
  0
LINE
  5
1C1
100
AcDbEntity
  8
MAIN0
  6
BYBLOCK
 62
0
100
AcDbLine
 10
798.8405184666466
 20
825.6644003861744
 30
0.0000000000000000
 11
832.8405184666467
 21
825.6644003861744
 31
0.0000000000000000
  0
INSERT
  5
1C2
100
AcDbEntity
  8
MAIN0
  6
BYBLOCK
 62
0
100
AcDbBlockReference
  2
_OPEN
 10
790.8405184666466
 20
825.6644003861744
 30
0.0000000000000000
 41
8.000000000000000
 42
8.000000000000000
 43
8.000000000000000
 50
180.0000000000000
  0
INSERT
  5
1C3
100
AcDbEntity
  8
MAIN0
  6
BYBLOCK
 62
0
100
AcDbBlockReference
  2
_OPEN
 10
840.8405184666467
 20
825.6644003861744
 30
0.0000000000000000
 41
8.000000000000000
 42
8.000000000000000
 43
8.000000000000000
 50
0.0000000000000000
  0
LINE
  5
1C4
100
AcDbEntity
  8
MAIN0
  6
BYBLOCK
 62
0
100
AcDbLine
 10
840.8405184666467
 20
879.1117541572233
 30
0.0000000000000000
 11
840.8405184666467
 21
817.6644003861744
 31
0.0000000000000000
  0
MTEXT
  5
1C5
100
AcDbEntity
  8
MAIN0
  6
BYBLOCK
 62
0
100
AcDbMText
 10
815.8405184666467
 20
832.3644001954395
 30
0.0000000000000000
 40
12.39999961853027
 41
0.0000000000000000
 71
     5
 72
     1
  1
\A1;50
 11
1.000000000000000
 21
0.0000000000000000
 31
0.0000000000000000
  7
STANDARD
  0
ENDBLK
  5
1C6
100
AcDbEntity
  8
MAIN0
  6
CONTINUOUS
 62
3
100
AcDbBlockEnd
  0
BLOCK
  5
1C8
100
AcDbEntity
  8
MAIN0
  6
CONTINUOUS
 62
3
100
AcDbBlockBegin
  2
*D29
 70
    65
 10
0.0
 20
0.0
 30
0.0
  0
LINE
  5
1C9
100
AcDbEntity
  8
MAIN0
  6
BYBLOCK
 62
0
100
AcDbLine
 10
485.8405184655837
 20
866.5387966623858
 30
0.0000000000000000
 11
485.8405184655837
 21
817.6644003861744
 31
0.0000000000000000
  0
LINE
  5
1CA
100
AcDbEntity
  8
MAIN0
  6
BYBLOCK
 62
0
100
AcDbLine
 10
485.8405184655837
 20
825.6644003861744
 30
0.0000000000000000
 11
475.8405184644795
 21
825.6644003861744
 31
0.0000000000000000
  0
INSERT
  5
1CB
100
AcDbEntity
  8
MAIN0
  6
BYBLOCK
 62
0
100
AcDbBlockReference
  2
_OPEN
 10
485.8405184655837
 20
825.6644003861744
 30
0.0000000000000000
 41
8.000000000000000
 42
8.000000000000000
 43
8.000000000000000
 50
180.0000000000000
  0
INSERT
  5
1CC
100
AcDbEntity
  8
MAIN0
  6
BYBLOCK
 62
0
100
AcDbBlockReference
  2
_OPEN
 10
475.8405184644795
 20
825.6644003861744
 30
0.0000000000000000
 41
8.000000000000000
 42
8.000000000000000
 43
8.000000000000000
 50
360.0000000000000
  0
LINE
  5
1CD
100
AcDbEntity
  8
MAIN0
  6
BYBLOCK
 62
0
100
AcDbLine
 10
493.8405184655837
 20
825.6644003861744
 30
0.0000000000000000
 11
514.0055131214797
 21
825.6644003861744
 31
0.0000000000000000
  0
LINE
  5
1CE
100
AcDbEntity
  8
MAIN0
  6
BYBLOCK
 62
0
100
AcDbLine
 10
467.8405184644795
 20
825.6644003861744
 30
0.0000000000000000
 11
463.8405184644795
 21
825.6644003861744
 31
0.0000000000000000
  0
LINE
  5
1CF
100
AcDbEntity
  8
MAIN0
  6
BYBLOCK
 62
0
100
AcDbLine
 10
475.8405184644795
 20
895.0569448224064
 30
0.0000000000000000
 11
475.8405184644795
 21
817.6644003861744
 31
0.0000000000000000
  0
MTEXT
  5
1D0
100
AcDbEntity
  8
MAIN0
  6
BYBLOCK
 62
0
100
AcDbMText
 10
505.8055133122145
 20
833.8644001954395
 30
0.0000000000000000
 40
12.39999961853027
 41
0.0000000000000000
 71
     5
 72
     1
  1
\A1;10
 11
1.000000000000000
 21
0.0000000000000000
 31
0.0000000000000000
  7
STANDARD
  0
ENDBLK
  5
1D1
100
AcDbEntity
  8
MAIN0
  6
CONTINUOUS
 62
3
100
AcDbBlockEnd
  0
BLOCK
  5
1D3
100
AcDbEntity
  8
MAIN0
  6
CONTINUOUS
 62
3
100
AcDbBlockBegin
  2
*D30
 70
    65
 10
0.0
 20
0.0
 30
0.0
  0
LINE
  5
1D4
100
AcDbEntity
  8
MAIN0
  6
BYBLOCK
 62
0
100
AcDbLine
 10
475.8405184644795
 20
895.0569448224064
 30
0.0000000000000000
 11
475.8405184644795
 21
817.6644003861744
 31
0.0000000000000000
  0
LINE
  5
1D5
100
AcDbEntity
  8
MAIN0
  6
BYBLOCK
 62
0
100
AcDbLine
 10
467.8405184644795
 20
825.6644003861744
 30
0.0000000000000000
 11
428.8405184644796
 21
825.6644003861744
 31
0.0000000000000000
  0
INSERT
  5
1D6
100
AcDbEntity
  8
MAIN0
  6
BYBLOCK
 62
0
100
AcDbBlockReference
  2
_OPEN
 10
475.8405184644795
 20
825.6644003861744
 30
0.0000000000000000
 41
8.000000000000000
 42
8.000000000000000
 43
8.000000000000000
 50
360.0000000000000
  0
INSERT
  5
1D7
100
AcDbEntity
  8
MAIN0
  6
BYBLOCK
 62
0
100
AcDbBlockReference
  2
_OPEN
 10
420.8405184644796
 20
825.6644003861744
 30
0.0000000000000000
 41
8.000000000000000
 42
8.000000000000000
 43
8.000000000000000
 50
180.0000000000000
  0
LINE
  5
1D8
100
AcDbEntity
  8
MAIN0
  6
BYBLOCK
 62
0
100
AcDbLine
 10
420.8405184644796
 20
895.0569448224065
 30
0.0000000000000000
 11
420.8405184644796
 21
817.6644003861744
 31
0.0000000000000000
  0
MTEXT
  5
1D9
100
AcDbEntity
  8
MAIN0
  6
BYBLOCK
 62
0
100
AcDbMText
 10
448.3405184644795
 20
832.3644001954395
 30
0.0000000000000000
 40
12.39999961853027
 41
0.0000000000000000
 71
     5
 72
     1
  1
\A1;55
 11
1.000000000000000
 21
0.0000000000000000
 31
0.0000000000000000
  7
STANDARD
  0
ENDBLK
  5
1DA
100
AcDbEntity
  8
MAIN0
  6
CONTINUOUS
 62
3
100
AcDbBlockEnd
  0
BLOCK
  5
1DC
100
AcDbEntity
  8
MAIN0
  6
CONTINUOUS
 62
3
100
AcDbBlockBegin
  2
*D31
 70
    65
 10
0.0
 20
0.0
 30
0.0
  0
LINE
  5
1DD
100
AcDbEntity
  8
MAIN0
  6
BYBLOCK
 62
0
100
AcDbLine
 10
400.8405184652395
 20
482.4317039218611
 30
0.0000000000000000
 11
400.8405184652395
 21
412.2317039694673
 31
0.0000000000000000
  0
LINE
  5
1DE
100
AcDbEntity
  8
MAIN0
  6
BYBLOCK
 62
0
100
AcDbLine
 10
408.8405184652395
 20
420.2317039694673
 30
0.0000000000000000
 11
467.8405184652283
 21
420.2317039694673
 31
0.0000000000000000
  0
INSERT
  5
1DF
100
AcDbEntity
  8
MAIN0
  6
BYBLOCK
 62
0
100
AcDbBlockReference
  2
_OPEN
 10
400.8405184652395
 20
420.2317039694673
 30
0.0000000000000000
 41
8.000000000000000
 42
8.000000000000000
 43
8.000000000000000
 50
180.0000000000000
  0
INSERT
  5
1E0
100
AcDbEntity
  8
MAIN0
  6
BYBLOCK
 62
0
100
AcDbBlockReference
  2
_OPEN
 10
475.8405184652283
 20
420.2317039694673
 30
0.0000000000000000
 41
8.000000000000000
 42
8.000000000000000
 43
8.000000000000000
 50
0.0000000000000000
  0
LINE
  5
1E1
100
AcDbEntity
  8
MAIN0
  6
BYBLOCK
 62
0
100
AcDbLine
 10
475.8405184652283
 20
515.0317039223824
 30
0.0000000000000000
 11
475.8405184652283
 21
412.2317039694673
 31
0.0000000000000000
  0
MTEXT
  5
1E2
100
AcDbEntity
  8
MAIN0
  6
BYBLOCK
 62
0
100
AcDbMText
 10
438.3405184652339
 20
426.9317037787324
 30
0.0000000000000000
 40
12.39999961853027
 41
0.0000000000000000
 71
     5
 72
     1
  1
\A1;75
 11
1.000000000000000
 21
0.0000000000000000
 31
0.0000000000000000
  7
STANDARD
  0
ENDBLK
  5
1E3
100
AcDbEntity
  8
MAIN0
  6
CONTINUOUS
 62
3
100
AcDbBlockEnd
  0
BLOCK
  5
1E5
100
AcDbEntity
  8
MAIN0
  6
CONTINUOUS
 62
3
100
AcDbBlockBegin
  2
*D32
 70
    65
 10
0.0
 20
0.0
 30
0.0
  0
LINE
  5
1E6
100
AcDbEntity
  8
MAIN0
  6
BYBLOCK
 62
0
100
AcDbLine
 10
475.8405184652283
 20
515.0317039223824
 30
0.0000000000000000
 11
475.8405184652283
 21
412.2317039694673
 31
0.0000000000000000
  0
LINE
  5
1E7
100
AcDbEntity
  8
MAIN0
  6
BYBLOCK
 62
0
100
AcDbLine
 10
483.8405184652283
 20
420.2317039694673
 30
0.0000000000000000
 11
912.8405184656270
 21
420.2317039694673
 31
0.0000000000000000
  0
INSERT
  5
1E8
100
AcDbEntity
  8
MAIN0
  6
BYBLOCK
 62
0
100
AcDbBlockReference
  2
_OPEN
 10
475.8405184652283
 20
420.2317039694673
 30
0.0000000000000000
 41
8.000000000000000
 42
8.000000000000000
 43
8.000000000000000
 50
180.0000000000000
  0
INSERT
  5
1E9
100
AcDbEntity
  8
MAIN0
  6
BYBLOCK
 62
0
100
AcDbBlockReference
  2
_OPEN
 10
920.8405184656270
 20
420.2317039694673
 30
0.0000000000000000
 41
8.000000000000000
 42
8.000000000000000
 43
8.000000000000000
 50
0.0000000000000000
  0
LINE
  5
1EA
100
AcDbEntity
  8
MAIN0
  6
BYBLOCK
 62
0
100
AcDbLine
 10
920.8405184656270
 20
515.0317039224397
 30
0.0000000000000000
 11
920.8405184656270
 21
412.2317039694673
 31
0.0000000000000000
  0
MTEXT
  5
1EB
100
AcDbEntity
  8
MAIN0
  6
BYBLOCK
 62
0
100
AcDbMText
 10
633.8538237312364
 20
428.4317037787324
 30
0.0000000000000000
 40
12.39999961853027
 41
0.0000000000000000
 71
     5
 72
     1
  1
\A1;445
 11
1.000000000000000
 21
0.0000000000000000
 31
0.0000000000000000
  7
STANDARD
  0
ENDBLK
  5
1EC
100
AcDbEntity
  8
MAIN0
  6
CONTINUOUS
 62
3
100
AcDbBlockEnd
  0
BLOCK
  5
1EE
100
AcDbEntity
  8
MAIN0
  6
CONTINUOUS
 62
3
100
AcDbBlockBegin
  2
*D33
 70
    65
 10
0.0
 20
0.0
 30
0.0
  0
LINE
  5
1EF
100
AcDbEntity
  8
MAIN0
  6
BYBLOCK
 62
0
100
AcDbLine
 10
920.8405184656270
 20
515.0317039224397
 30
0.0000000000000000
 11
920.8405184656270
 21
412.2317039694673
 31
0.0000000000000000
  0
LINE
  5
1F0
100
AcDbEntity
  8
MAIN0
  6
BYBLOCK
 62
0
100
AcDbLine
 10
928.8405184656270
 20
420.2317039694673
 30
0.0000000000000000
 11
987.8405184656599
 21
420.2317039694673
 31
0.0000000000000000
  0
INSERT
  5
1F1
100
AcDbEntity
  8
MAIN0
  6
BYBLOCK
 62
0
100
AcDbBlockReference
  2
_OPEN
 10
920.8405184656270
 20
420.2317039694673
 30
0.0000000000000000
 41
8.000000000000000
 42
8.000000000000000
 43
8.000000000000000
 50
180.0000000000000
  0
INSERT
  5
1F2
100
AcDbEntity
  8
MAIN0
  6
BYBLOCK
 62
0
100
AcDbBlockReference
  2
_OPEN
 10
995.8405184656599
 20
420.2317039694673
 30
0.0000000000000000
 41
8.000000000000000
 42
8.000000000000000
 43
8.000000000000000
 50
0.0000000000000000
  0
LINE
  5
1F3
100
AcDbEntity
  8
MAIN0
  6
BYBLOCK
 62
0
100
AcDbLine
 10
995.8405184654325
 20
482.4317039223711
 30
0.0000000000000000
 11
995.8405184656893
 21
412.2317039694672
 31
0.0000000000000000
  0
MTEXT
  5
1F4
100
AcDbEntity
  8
MAIN0
  6
BYBLOCK
 62
0
100
AcDbMText
 10
958.3405184656435
 20
426.9317037787324
 30
0.0000000000000000
 40
12.39999961853027
 41
0.0000000000000000
 71
     5
 72
     1
  1
\A1;75
 11
1.000000000000000
 21
0.0000000000000000
 31
0.0000000000000000
  7
STANDARD
  0
ENDBLK
  5
1F5
100
AcDbEntity
  8
MAIN0
  6
CONTINUOUS
 62
3
100
AcDbBlockEnd
  0
BLOCK
  5
1F7
100
AcDbEntity
  8
MAIN0
  6
CONTINUOUS
 62
3
100
AcDbBlockBegin
  2
*D34
 70
    65
 10
0.0
 20
0.0
 30
0.0
  0
LINE
  5
1F8
100
AcDbEntity
  8
MAIN0
  6
BYBLOCK
 62
0
100
AcDbLine
 10
860.0405185130188
 20
570.2317039698635
 30
0.0000000000000000
 11
894.8877734766011
 21
570.2317039698635
 31
0.0000000000000000
  0
LINE
  5
1F9
100
AcDbEntity
  8
MAIN0
  6
BYBLOCK
 62
0
100
AcDbLine
 10
886.8877734766011
 20
562.2317039698635
 30
0.0000000000000000
 11
886.8877734766011
 21
534.2317039701234
 31
0.0000000000000000
  0
INSERT
  5
1FA
100
AcDbEntity
  8
MAIN0
  6
BYBLOCK
 62
0
100
AcDbBlockReference
  2
_OPEN
 10
886.8877734766011
 20
570.2317039698635
 30
0.0000000000000000
 41
8.000000000000000
 42
8.000000000000000
 43
8.000000000000000
 50
90.00000000000000
  0
INSERT
  5
1FB
100
AcDbEntity
  8
MAIN0
  6
BYBLOCK
 62
0
100
AcDbBlockReference
  2
_OPEN
 10
886.8877734766011
 20
526.2317039701234
 30
0.0000000000000000
 41
8.000000000000000
 42
8.000000000000000
 43
8.000000000000000
 50
270.0000000000000
  0
LINE
  5
1FC
100
AcDbEntity
  8
MAIN0
  6
BYBLOCK
 62
0
100
AcDbLine
 10
909.6405184179433
 20
526.2317039701234
 30
0.0000000000000000
 11
878.8877734766011
 21
526.2317039701234
 31
0.0000000000000000
  0
MTEXT
  5
1FD
100
AcDbEntity
  8
MAIN0
  6
BYBLOCK
 62
0
100
AcDbMText
 10
878.6877736673359
 20
553.1100167554561
 30
0.0000000000000000
 40
12.39999961853027
 41
0.0000000000000000
 71
     5
 72
     1
  1
\A1;44
 11
6.123233995736766e-017
 21
1.000000000000000
 31
0.0000000000000000
  7
STANDARD
  0
ENDBLK
  5
1FE
100
AcDbEntity
  8
MAIN0
  6
CONTINUOUS
 62
3
100
AcDbBlockEnd
  0
BLOCK
  5
200
100
AcDbEntity
  8
MAIN0
  6
CONTINUOUS
 62
3
100
AcDbBlockBegin
  2
*D35
 70
    65
 10
0.0
 20
0.0
 30
0.0
  0
LINE
  5
201
100
AcDbEntity
  8
MAIN0
  6
BYBLOCK
 62
0
100
AcDbLine
 10
909.6405184179433
 20
526.2317039701234
 30
0.0000000000000000
 11
878.8877734766011
 21
526.2317039701234
 31
0.0000000000000000
  0
LINE
  5
202
100
AcDbEntity
  8
MAIN0
  6
BYBLOCK
 62
0
100
AcDbLine
 10
886.8877734766011
 20
518.2317039698314
 30
0.0000000000000000
 11
886.8877734766011
 21
493.2317039697619
 31
0.0000000000000000
  0
INSERT
  5
203
100
AcDbEntity
  8
MAIN0
  6
BYBLOCK
 62
0
100
AcDbBlockReference
  2
_OPEN
 10
886.8877734766011
 20
526.2317039698314
 30
0.0000000000000000
 41
8.000000000000000
 42
8.000000000000000
 43
8.000000000000000
 50
90.00000000000000
  0
INSERT
  5
204
100
AcDbEntity
  8
MAIN0
  6
BYBLOCK
 62
0
100
AcDbBlockReference
  2
_OPEN
 10
886.8877734766011
 20
485.2317039697619
 30
0.0000000000000000
 41
8.000000000000000
 42
8.000000000000000
 43
8.000000000000000
 50
270.0000000000000
  0
MTEXT
  5
205
100
AcDbEntity
  8
MAIN0
  6
BYBLOCK
 62
0
100
AcDbMText
 10
880.1877736673359
 20
505.7317039697967
 30
0.0000000000000000
 40
12.39999961853027
 41
0.0000000000000000
 71
     5
 72
     1
  1
\A1;41
 11
6.123233995736766e-017
 21
1.000000000000000
 31
0.0000000000000000
  7
STANDARD
  0
ENDBLK
  5
206
100
AcDbEntity
  8
MAIN0
  6
CONTINUOUS
 62
3
100
AcDbBlockEnd
  0
BLOCK
  5
208
100
AcDbEntity
  8
MAIN0
  6
CONTINUOUS
 62
3
100
AcDbBlockBegin
  2
*D36
 70
    65
 10
0.0
 20
0.0
 30
0.0
  0
LINE
  5
209
100
AcDbEntity
  8
MAIN0
  6
BYBLOCK
 62
0
100
AcDbLine
 10
827.1246119440300
 20
578.2317039698635
 30
0.0000000000000000
 11
827.1246119440300
 21
603.4317039684478
 31
0.0000000000000000
  0
INSERT
  5
20A
100
AcDbEntity
  8
MAIN0
  6
BYBLOCK
 62
0
100
AcDbBlockReference
  2
_OPEN
 10
827.1246119440300
 20
570.2317039698635
 30
0.0000000000000000
 41
8.000000000000000
 42
8.000000000000000
 43
8.000000000000000
 50
270.0000000000000
  0
INSERT
  5
20B
100
AcDbEntity
  8
MAIN0
  6
BYBLOCK
 62
0
100
AcDbBlockReference
  2
_OPEN
 10
827.1246119440300
 20
611.4317039684478
 30
0.0000000000000000
 41
8.000000000000000
 42
8.000000000000000
 43
8.000000000000000
 50
90.00000000000000
  0
LINE
  5
20C
100
AcDbEntity
  8
MAIN0
  6
BYBLOCK
 62
0
100
AcDbLine
 10
855.6405184176545
 20
611.4317039684478
 30
0.0000000000000000
 11
819.1246119440300
 21
611.4317039684478
 31
0.0000000000000000
  0
MTEXT
  5
20D
100
AcDbEntity
  8
MAIN0
  6
BYBLOCK
 62
0
100
AcDbMText
 10
820.4246121347649
 20
590.8317039691556
 30
0.0000000000000000
 40
12.39999961853027
 41
0.0000000000000000
 71
     5
 72
     1
  1
\A1;41
 11
6.123233995736766e-017
 21
1.000000000000000
 31
0.0000000000000000
  7
STANDARD
  0
ENDBLK
  5
20E
100
AcDbEntity
  8
MAIN0
  6
CONTINUOUS
 62
3
100
AcDbBlockEnd
  0
BLOCK
  5
215
100
AcDbEntity
  8
MAIN0
  6
CONTINUOUS
 62
3
100
AcDbBlockBegin
  2
*D37
 70
    65
 10
0.0
 20
0.0
 30
0.0
  0
LINE
  5
216
100
AcDbEntity
  8
MAIN0
  6
BYBLOCK
 62
0
100
AcDbLine
 10
1252.536868063216
 20
518.4317040177133
 30
0.0000000000000000
 11
1252.536868063216
 21
557.0046982690702
 31
0.0000000000000000
  0
LINE
  5
217
100
AcDbEntity
  8
MAIN0
  6
BYBLOCK
 62
0
100
AcDbLine
 10
1260.536868063216
 20
549.0046982690702
 30
0.0000000000000000
 11
1289.536868063216
 21
549.0046982690702
 31
0.0000000000000000
  0
INSERT
  5
218
100
AcDbEntity
  8
MAIN0
  6
BYBLOCK
 62
0
100
AcDbBlockReference
  2
_OPEN
 10
1252.536868063216
 20
549.0046982690702
 30
0.0000000000000000
 41
8.000000000000000
 42
8.000000000000000
 43
8.000000000000000
 50
180.0000000000000
  0
INSERT
  5
219
100
AcDbEntity
  8
MAIN0
  6
BYBLOCK
 62
0
100
AcDbBlockReference
  2
_OPEN
 10
1297.536868063216
 20
549.0046982690702
 30
0.0000000000000000
 41
8.000000000000000
 42
8.000000000000000
 43
8.000000000000000
 50
0.0000000000000000
  0
LINE
  5
21A
100
AcDbEntity
  8
MAIN0
  6
BYBLOCK
 62
0
100
AcDbLine
 10
1297.536868063216
 20
518.4317040176994
 30
0.0000000000000000
 11
1297.536868063216
 21
557.0046982690702
 31
0.0000000000000000
  0
MTEXT
  5
21B
100
AcDbEntity
  8
MAIN0
  6
BYBLOCK
 62
0
100
AcDbMText
 10
1275.036868063216
 20
555.7046980783354
 30
0.0000000000000000
 40
12.39999961853027
 41
0.0000000000000000
 71
     5
 72
     1
  1
\A1;45
 11
1.000000000000000
 21
0.0000000000000000
 31
0.0000000000000000
  7
STANDARD
  0
ENDBLK
  5
21C
100
AcDbEntity
  8
MAIN0
  6
CONTINUOUS
 62
3
100
AcDbBlockEnd
  0
BLOCK
  5
21E
100
AcDbEntity
  8
MAIN0
  6
CONTINUOUS
 62
3
100
AcDbBlockBegin
  2
*D38
 70
    65
 10
0.0
 20
0.0
 30
0.0
  0
LINE
  5
21F
100
AcDbEntity
  8
MAIN0
  6
BYBLOCK
 62
0
100
AcDbLine
 10
1426.528610390689
 20
333.7329293859792
 30
0.0000000000000000
 11
1395.175676086645
 21
333.7329293859792
 31
0.0000000000000000
  0
LINE
  5
220
100
AcDbEntity
  8
MAIN0
  6
BYBLOCK
 62
0
100
AcDbLine
 10
1403.175676086645
 20
333.7329293859792
 30
0.0000000000000000
 11
1403.175676086645
 21
305.2329293859794
 31
0.0000000000000000
  0
INSERT
  5
221
100
AcDbEntity
  8
MAIN0
  6
BYBLOCK
 62
0
100
AcDbBlockReference
  2
_OPEN
 10
1403.175676086645
 20
333.7329293859792
 30
0.0000000000000000
 41
8.000000000000000
 42
8.000000000000000
 43
8.000000000000000
 50
270.0000000000000
  0
INSERT
  5
222
100
AcDbEntity
  8
MAIN0
  6
BYBLOCK
 62
0
100
AcDbBlockReference
  2
_OPEN
 10
1403.175676086645
 20
305.2329293859794
 30
0.0000000000000000
 41
8.000000000000000
 42
8.000000000000000
 43
8.000000000000000
 50
90.00000000000000
  0
LINE
  5
223
100
AcDbEntity
  8
MAIN0
  6
BYBLOCK
 62
0
100
AcDbLine
 10
1403.175676086645
 20
341.7329293859792
 30
0.0000000000000000
 11
1403.175676086645
 21
345.7329293859792
 31
0.0000000000000000
  0
LINE
  5
224
100
AcDbEntity
  8
MAIN0
  6
BYBLOCK
 62
0
100
AcDbLine
 10
1403.175676086645
 20
297.2329293859794
 30
0.0000000000000000
 11
1403.175676086645
 21
293.2329293859794
 31
0.0000000000000000
  0
LINE
  5
225
100
AcDbEntity
  8
MAIN0
  6
BYBLOCK
 62
0
100
AcDbLine
 10
1426.528610390709
 20
305.2329293859794
 30
0.0000000000000000
 11
1395.175676086645
 21
305.2329293859794
 31
0.0000000000000000
  0
MTEXT
  5
226
100
AcDbEntity
  8
MAIN0
  6
BYBLOCK
 62
0
100
AcDbMText
 10
1396.475676277380
 20
319.4829293859793
 30
0.0000000000000000
 40
12.39999961853027
 41
0.0000000000000000
 71
     5
 72
     1
  1
\A1;28.5
 11
6.123233995736766e-017
 21
1.000000000000000
 31
0.0000000000000000
  7
STANDARD
  0
ENDBLK
  5
227
100
AcDbEntity
  8
MAIN0
  6
CONTINUOUS
 62
3
100
AcDbBlockEnd
  0
BLOCK
  5
229
100
AcDbEntity
  8
MAIN0
  6
CONTINUOUS
 62
3
100
AcDbBlockBegin
  2
*D39
 70
    65
 10
0.0
 20
0.0
 30
0.0
  0
LINE
  5
22A
100
AcDbEntity
  8
MAIN0
  6
BYBLOCK
 62
0
100
AcDbLine
 10
1462.928610486061
 20
328.2329293859718
 30
0.0000000000000000
 11
1500.604009482530
 21
328.2329293859813
 31
0.0000000000000000
  0
LINE
  5
22B
100
AcDbEntity
  8
MAIN0
  6
BYBLOCK
 62
0
100
AcDbLine
 10
1492.604009482530
 20
328.2329293859793
 30
0.0000000000000000
 11
1492.604009482530
 21
310.7329293859794
 31
0.0000000000000000
  0
INSERT
  5
22C
100
AcDbEntity
  8
MAIN0
  6
BYBLOCK
 62
0
100
AcDbBlockReference
  2
_OPEN
 10
1492.604009482530
 20
328.2329293859793
 30
0.0000000000000000
 41
8.000000000000000
 42
8.000000000000000
 43
8.000000000000000
 50
270.0000000000000
  0
INSERT
  5
22D
100
AcDbEntity
  8
MAIN0
  6
BYBLOCK
 62
0
100
AcDbBlockReference
  2
_OPEN
 10
1492.604009482530
 20
310.7329293859794
 30
0.0000000000000000
 41
8.000000000000000
 42
8.000000000000000
 43
8.000000000000000
 50
90.00000000000000
  0
LINE
  5
22E
100
AcDbEntity
  8
MAIN0
  6
BYBLOCK
 62
0
100
AcDbLine
 10
1492.604009482530
 20
336.2329293859793
 30
0.0000000000000000
 11
1492.604009482530
 21
340.2329293859793
 31
0.0000000000000000
  0
LINE
  5
22F
100
AcDbEntity
  8
MAIN0
  6
BYBLOCK
 62
0
100
AcDbLine
 10
1492.604009482530
 20
302.7329293859794
 30
0.0000000000000000
 11
1492.604009482530
 21
271.6650482422438
 31
0.0000000000000000
  0
LINE
  5
230
100
AcDbEntity
  8
MAIN0
  6
BYBLOCK
 62
0
100
AcDbLine
 10
1462.928610486073
 20
310.7329293859719
 30
0.0000000000000000
 11
1500.604009482530
 21
310.7329293859814
 31
0.0000000000000000
  0
MTEXT
  5
231
100
AcDbEntity
  8
MAIN0
  6
BYBLOCK
 62
0
100
AcDbMText
 10
1484.404009673265
 20
286.2650486237135
 30
0.0000000000000000
 40
12.39999961853027
 41
0.0000000000000000
 71
     5
 72
     1
  1
\A1;17.5
 11
6.123233995736766e-017
 21
1.000000000000000
 31
0.0000000000000000
  7
STANDARD
  0
ENDBLK
  5
232
100
AcDbEntity
  8
MAIN0
  6
CONTINUOUS
 62
3
100
AcDbBlockEnd
  0
BLOCK
  5
234
100
AcDbEntity
  8
MAIN0
  6
CONTINUOUS
 62
3
100
AcDbBlockBegin
  2
*D40
 70
    65
 10
0.0
 20
0.0
 30
0.0
  0
LINE
  5
235
100
AcDbEntity
  8
MAIN0
  6
BYBLOCK
 62
0
100
AcDbLine
 10
1429.728610438393
 20
302.0329293382957
 30
0.0000000000000000
 11
1429.728610438393
 21
265.3350347743200
 31
0.0000000000000000
  0
LINE
  5
236
100
AcDbEntity
  8
MAIN0
  6
BYBLOCK
 62
0
100
AcDbLine
 10
1429.728610438393
 20
273.3350347743200
 30
0.0000000000000000
 11
1459.728610438393
 21
273.3350347743200
 31
0.0000000000000000
  0
INSERT
  5
237
100
AcDbEntity
  8
MAIN0
  6
BYBLOCK
 62
0
100
AcDbBlockReference
  2
_OPEN
 10
1429.728610438393
 20
273.3350347743200
 30
0.0000000000000000
 41
8.000000000000000
 42
8.000000000000000
 43
8.000000000000000
 50
0.0000000000000000
  0
INSERT
  5
238
100
AcDbEntity
  8
MAIN0
  6
BYBLOCK
 62
0
100
AcDbBlockReference
  2
_OPEN
 10
1459.728610438393
 20
273.3350347743200
 30
0.0000000000000000
 41
8.000000000000000
 42
8.000000000000000
 43
8.000000000000000
 50
180.0000000000000
  0
LINE
  5
239
100
AcDbEntity
  8
MAIN0
  6
BYBLOCK
 62
0
100
AcDbLine
 10
1421.728610438393
 20
273.3350347743200
 30
0.0000000000000000
 11
1417.728610438393
 21
273.3350347743200
 31
0.0000000000000000
  0
LINE
  5
23A
100
AcDbEntity
  8
MAIN0
  6
BYBLOCK
 62
0
100
AcDbLine
 10
1467.728610438393
 20
273.3350347743200
 30
0.0000000000000000
 11
1471.728610438393
 21
273.3350347743200
 31
0.0000000000000000
  0
LINE
  5
23B
100
AcDbEntity
  8
MAIN0
  6
BYBLOCK
 62
0
100
AcDbLine
 10
1459.728610438393
 20
302.0329293382874
 30
0.0000000000000000
 11
1459.728610438393
 21
265.3350347743200
 31
0.0000000000000000
  0
MTEXT
  5
23C
100
AcDbEntity
  8
MAIN0
  6
BYBLOCK
 62
0
100
AcDbMText
 10
1444.728610438393
 20
280.0350345835852
 30
0.0000000000000000
 40
12.39999961853027
 41
0.0000000000000000
 71
     5
 72
     1
  1
\A1;30
 11
1.000000000000000
 21
0.0000000000000000
 31
0.0000000000000000
  7
STANDARD
  0
ENDBLK
  5
23D
100
AcDbEntity
  8
MAIN0
  6
CONTINUOUS
 62
3
100
AcDbBlockEnd
  0
BLOCK
  5
2C4
100
AcDbEntity
  8
MAIN0
  6
CONTINUOUS
 62
3
100
AcDbBlockBegin
  2
*D41
 70
    65
 10
0.0
 20
0.0
 30
0.0
  0
LINE
  5
2C5
100
AcDbEntity
  8
MAIN0
  6
BYBLOCK
 62
0
100
AcDbLine
 10
722.6293121392317
 20
485.2317039697618
 30
0.0000000000000000
 11
722.6293121392317
 21
480.2317039697486
 31
0.0000000000000000
  0
INSERT
  5
2C6
100
AcDbEntity
  8
MAIN0
  6
BYBLOCK
 62
0
100
AcDbBlockReference
  2
_OPEN
 10
722.6293121392317
 20
485.2317039697618
 30
0.0000000000000000
 41
8.000000000000000
 42
8.000000000000000
 43
8.000000000000000
 50
270.0000000000000
  0
INSERT
  5
2C7
100
AcDbEntity
  8
MAIN0
  6
BYBLOCK
 62
0
100
AcDbBlockReference
  2
_OPEN
 10
722.6293121392317
 20
480.2317039697486
 30
0.0000000000000000
 41
8.000000000000000
 42
8.000000000000000
 43
8.000000000000000
 50
90.00000000000000
  0
LINE
  5
2C8
100
AcDbEntity
  8
MAIN0
  6
BYBLOCK
 62
0
100
AcDbLine
 10
722.6293121392317
 20
493.2317039697618
 30
0.0000000000000000
 11
722.6293121392317
 21
497.2317039697618
 31
0.0000000000000000
  0
LINE
  5
2C9
100
AcDbEntity
  8
MAIN0
  6
BYBLOCK
 62
0
100
AcDbLine
 10
722.6293121392317
 20
472.2317039697486
 30
0.0000000000000000
 11
722.6293121392317
 21
461.9224448740325
 31
0.0000000000000000
  0
LINE
  5
2CA
100
AcDbEntity
  8
MAIN0
  6
BYBLOCK
 62
0
100
AcDbLine
 10
693.0405185129886
 20
480.2317039697486
 30
0.0000000000000000
 11
730.6293121392317
 21
480.2317039697486
 31
0.0000000000000000
  0
MTEXT
  5
2CB
100
AcDbEntity
  8
MAIN0
  6
BYBLOCK
 62
0
100
AcDbMText
 10
714.4293123299666
 20
465.9224448740325
 30
0.0000000000000000
 40
12.39999961853027
 41
0.0000000000000000
 71
     5
 72
     1
  1
\A1;5
 11
6.123233995736766e-017
 21
1.000000000000000
 31
0.0000000000000000
  7
STANDARD
  0
ENDBLK
  5
2CC
100
AcDbEntity
  8
MAIN0
  6
CONTINUOUS
 62
3
100
AcDbBlockEnd
  0
BLOCK
  5
2CE
100
AcDbEntity
  8
MAIN0
  6
CONTINUOUS
 62
3
100
AcDbBlockBegin
  2
*D42
 70
    65
 10
0.0
 20
0.0
 30
0.0
  0
LINE
  5
2CF
100
AcDbEntity
  8
MAIN0
  6
BYBLOCK
 62
0
100
AcDbLine
 10
454.0405185130034
 20
590.2317039695918
 30
0.0000000000000000
 11
478.9780435539553
 21
590.2317039695918
 31
0.0000000000000000
  0
LINE
  5
2D0
100
AcDbEntity
  8
MAIN0
  6
BYBLOCK
 62
0
100
AcDbLine
 10
470.9780435539553
 20
590.2317039695918
 30
0.0000000000000000
 11
470.9780435539553
 21
609.2317039695918
 31
0.0000000000000000
  0
INSERT
  5
2D1
100
AcDbEntity
  8
MAIN0
  6
BYBLOCK
 62
0
100
AcDbBlockReference
  2
_OPEN
 10
470.9780435539553
 20
590.2317039695918
 30
0.0000000000000000
 41
8.000000000000000
 42
8.000000000000000
 43
8.000000000000000
 50
90.00000000000000
  0
INSERT
  5
2D2
100
AcDbEntity
  8
MAIN0
  6
BYBLOCK
 62
0
100
AcDbBlockReference
  2
_DOT
 10
470.9780435539553
 20
610.2317039695918
 30
0.0000000000000000
 41
4.000000000000000
 42
4.000000000000000
 43
4.000000000000000
 50
90.00000000000000
  0
LINE
  5
2D3
100
AcDbEntity
  8
MAIN0
  6
BYBLOCK
 62
0
100
AcDbLine
 10
470.9780435539553
 20
582.2317039695918
 30
0.0000000000000000
 11
470.9780435539553
 21
578.2317039695918
 31
0.0000000000000000
  0
LINE
  5
2D4
100
AcDbEntity
  8
MAIN0
  6
BYBLOCK
 62
0
100
AcDbLine
 10
454.0405185129884
 20
610.2317039695918
 30
0.0000000000000000
 11
478.9780435539553
 21
610.2317039695918
 31
0.0000000000000000
  0
MTEXT
  5
2D5
100
AcDbEntity
  8
MAIN0
  6
BYBLOCK
 62
0
100
AcDbMText
 10
464.2780437446901
 20
600.2317039695918
 30
0.0000000000000000
 40
12.39999961853027
 41
0.0000000000000000
 71
     5
 72
     1
  1
\A1;20
 11
6.123233995736766e-017
 21
1.000000000000000
 31
0.0000000000000000
  7
STANDARD
  0
ENDBLK
  5
2D6
100
AcDbEntity
  8
MAIN0
  6
CONTINUOUS
 62
3
100
AcDbBlockEnd
  0
BLOCK
  5
2D8
100
AcDbEntity
  8
MAIN0
  6
CONTINUOUS
 62
3
100
AcDbBlockBegin
  2
*D43
 70
    65
 10
0.0
 20
0.0
 30
0.0
  0
LINE
  5
2D9
100
AcDbEntity
  8
MAIN0
  6
BYBLOCK
 62
0
100
AcDbLine
 10
454.0405185129884
 20
610.2317039695918
 30
0.0000000000000000
 11
478.9780435539553
 21
610.2317039695918
 31
0.0000000000000000
  0
LINE
  5
2DA
100
AcDbEntity
  8
MAIN0
  6
BYBLOCK
 62
0
100
AcDbLine
 10
470.9780435539553
 20
611.2317039695918
 30
0.0000000000000000
 11
470.9780435539553
 21
620.2317039695918
 31
0.0000000000000000
  0
INSERT
  5
2DB
100
AcDbEntity
  8
MAIN0
  6
BYBLOCK
 62
0
100
AcDbBlockReference
  2
_DOT
 10
470.9780435539553
 20
610.2317039695918
 30
0.0000000000000000
 41
4.000000000000000
 42
4.000000000000000
 43
4.000000000000000
 50
270.0000000000000
  0
INSERT
  5
2DC
100
AcDbEntity
  8
MAIN0
  6
BYBLOCK
 62
0
100
AcDbBlockReference
  2
_OPEN
 10
470.9780435539553
 20
620.2317039695918
 30
0.0000000000000000
 41
8.000000000000000
 42
8.000000000000000
 43
8.000000000000000
 50
270.0000000000000
  0
LINE
  5
2DD
100
AcDbEntity
  8
MAIN0
  6
BYBLOCK
 62
0
100
AcDbLine
 10
470.9780435539553
 20
628.2317039695918
 30
0.0000000000000000
 11
470.9780435539553
 21
640.7207742264345
 31
0.0000000000000000
  0
MTEXT
  5
2DE
100
AcDbEntity
  8
MAIN0
  6
BYBLOCK
 62
0
100
AcDbMText
 10
463.2780437446901
 20
632.5207744171694
 30
0.0000000000000000
 40
12.39999961853027
 41
0.0000000000000000
 71
     5
 72
     1
  1
\A1;10
 11
6.123233995736766e-017
 21
1.000000000000000
 31
0.0000000000000000
  7
STANDARD
  0
ENDBLK
  5
2DF
100
AcDbEntity
  8
MAIN0
  6
CONTINUOUS
 62
3
100
AcDbBlockEnd
  0
BLOCK
  5
2E1
100
AcDbEntity
  8
MAIN0
  6
CONTINUOUS
 62
3
100
AcDbBlockBegin
  2
*D44
 70
    65
 10
0.0
 20
0.0
 30
0.0
  0
LINE
  5
2E2
100
AcDbEntity
  8
MAIN0
  6
BYBLOCK
 62
0
100
AcDbLine
 10
485.8405184653355
 20
622.9317040172757
 30
0.0000000000000000
 11
485.8405184653355
 21
654.8883949900476
 31
0.0000000000000000
  0
LINE
  5
2E3
100
AcDbEntity
  8
MAIN0
  6
BYBLOCK
 62
0
100
AcDbLine
 10
477.8405184653355
 20
646.8883949900476
 30
0.0000000000000000
 11
451.8405184653058
 21
646.8883949900476
 31
0.0000000000000000
  0
INSERT
  5
2E4
100
AcDbEntity
  8
MAIN0
  6
BYBLOCK
 62
0
100
AcDbBlockReference
  2
_OPEN
 10
485.8405184653355
 20
646.8883949900476
 30
0.0000000000000000
 41
8.000000000000000
 42
8.000000000000000
 43
8.000000000000000
 50
360.0000000000000
  0
INSERT
  5
2E5
100
AcDbEntity
  8
MAIN0
  6
BYBLOCK
 62
0
100
AcDbBlockReference
  2
_OPEN
 10
443.8405184653058
 20
646.8883949900476
 30
0.0000000000000000
 41
8.000000000000000
 42
8.000000000000000
 43
8.000000000000000
 50
180.0000000000000
  0
LINE
  5
2E6
100
AcDbEntity
  8
MAIN0
  6
BYBLOCK
 62
0
100
AcDbLine
 10
443.8405184653058
 20
620.4317040172755
 30
0.0000000000000000
 11
443.8405184653058
 21
654.8883949900476
 31
0.0000000000000000
  0
MTEXT
  5
2E7
100
AcDbEntity
  8
MAIN0
  6
BYBLOCK
 62
0
100
AcDbMText
 10
464.8405184653207
 20
653.5883947993127
 30
0.0000000000000000
 40
12.39999961853027
 41
0.0000000000000000
 71
     5
 72
     1
  1
\A1;42
 11
1.000000000000000
 21
0.0000000000000000
 31
0.0000000000000000
  7
STANDARD
  0
ENDBLK
  5
2E8
100
AcDbEntity
  8
MAIN0
  6
CONTINUOUS
 62
3
100
AcDbBlockEnd
  0
BLOCK
  5
2EA
100
AcDbEntity
  8
MAIN0
  6
CONTINUOUS
 62
3
100
AcDbBlockBegin
  2
*D45
 70
    65
 10
0.0
 20
0.0
 30
0.0
  0
LINE
  5
2EB
100
AcDbEntity
  8
MAIN0
  6
BYBLOCK
 62
0
100
AcDbLine
 10
400.8405184652210
 20
572.4317040172280
 30
0.0000000000000000
 11
400.8405184652210
 21
674.8883949900476
 31
0.0000000000000000
  0
LINE
  5
2EC
100
AcDbEntity
  8
MAIN0
  6
BYBLOCK
 62
0
100
AcDbLine
 10
400.8405184652210
 20
666.8883949900476
 30
0.0000000000000000
 11
401.8405184653357
 21
666.8883949900476
 31
0.0000000000000000
  0
INSERT
  5
2ED
100
AcDbEntity
  8
MAIN0
  6
BYBLOCK
 62
0
100
AcDbBlockReference
  2
_OPEN
 10
400.8405184652210
 20
666.8883949900476
 30
0.0000000000000000
 41
8.000000000000000
 42
8.000000000000000
 43
8.000000000000000
 50
0.0000000000000000
  0
INSERT
  5
2EE
100
AcDbEntity
  8
MAIN0
  6
BYBLOCK
 62
0
100
AcDbBlockReference
  2
_OPEN
 10
401.8405184653357
 20
666.8883949900476
 30
0.0000000000000000
 41
8.000000000000000
 42
8.000000000000000
 43
8.000000000000000
 50
180.0000000000000
  0
LINE
  5
2EF
100
AcDbEntity
  8
MAIN0
  6
BYBLOCK
 62
0
100
AcDbLine
 10
392.8405184652210
 20
666.8883949900476
 30
0.0000000000000000
 11
377.0853168438178
 21
666.8883949900476
 31
0.0000000000000000
  0
LINE
  5
2F0
100
AcDbEntity
  8
MAIN0
  6
BYBLOCK
 62
0
100
AcDbLine
 10
409.8405184653357
 20
666.8883949900476
 30
0.0000000000000000
 11
413.8405184653357
 21
666.8883949900476
 31
0.0000000000000000
  0
LINE
  5
2F1
100
AcDbEntity
  8
MAIN0
  6
BYBLOCK
 62
0
100
AcDbLine
 10
401.8405184653357
 20
623.2317040172751
 30
0.0000000000000000
 11
401.8405184653357
 21
674.8883949900476
 31
0.0000000000000000
  0
MTEXT
  5
2F2
100
AcDbEntity
  8
MAIN0
  6
BYBLOCK
 62
0
100
AcDbMText
 10
381.0853168438178
 20
675.0883947993127
 30
0.0000000000000000
 40
12.39999961853027
 41
0.0000000000000000
 71
     5
 72
     1
  1
\A1;1
 11
1.000000000000000
 21
0.0000000000000000
 31
0.0000000000000000
  7
STANDARD
  0
ENDBLK
  5
2F3
100
AcDbEntity
  8
MAIN0
  6
CONTINUOUS
 62
3
100
AcDbBlockEnd
  0
BLOCK
  5
2F5
100
AcDbEntity
  8
MAIN0
  6
CONTINUOUS
 62
3
100
AcDbBlockBegin
  2
*D46
 70
    65
 10
0.0
 20
0.0
 30
0.0
  0
LINE
  5
2F6
100
AcDbEntity
  8
MAIN0
  6
BYBLOCK
 62
0
100
AcDbLine
 10
401.8405184653357
 20
623.2317040172751
 30
0.0000000000000000
 11
401.8405184653357
 21
674.8883949900476
 31
0.0000000000000000
  0
LINE
  5
2F7
100
AcDbEntity
  8
MAIN0
  6
BYBLOCK
 62
0
100
AcDbLine
 10
409.8405184653357
 20
666.8883949900476
 30
0.0000000000000000
 11
477.8405184653356
 21
666.8883949900476
 31
0.0000000000000000
  0
INSERT
  5
2F8
100
AcDbEntity
  8
MAIN0
  6
BYBLOCK
 62
0
100
AcDbBlockReference
  2
_OPEN
 10
401.8405184653357
 20
666.8883949900476
 30
0.0000000000000000
 41
8.000000000000000
 42
8.000000000000000
 43
8.000000000000000
 50
180.0000000000000
  0
INSERT
  5
2F9
100
AcDbEntity
  8
MAIN0
  6
BYBLOCK
 62
0
100
AcDbBlockReference
  2
_OPEN
 10
485.8405184653356
 20
666.8883949900476
 30
0.0000000000000000
 41
8.000000000000000
 42
8.000000000000000
 43
8.000000000000000
 50
0.0000000000000000
  0
LINE
  5
2FA
100
AcDbEntity
  8
MAIN0
  6
BYBLOCK
 62
0
100
AcDbLine
 10
485.8405184653356
 20
622.9317040172756
 30
0.0000000000000000
 11
485.8405184653356
 21
674.8883949900476
 31
0.0000000000000000
  0
MTEXT
  5
2FB
100
AcDbEntity
  8
MAIN0
  6
BYBLOCK
 62
0
100
AcDbMText
 10
443.8405184653356
 20
673.5883947993127
 30
0.0000000000000000
 40
12.39999961853027
 41
0.0000000000000000
 71
     5
 72
     1
  1
\A1;84
 11
1.000000000000000
 21
0.0000000000000000
 31
0.0000000000000000
  7
STANDARD
  0
ENDBLK
  5
2FC
100
AcDbEntity
  8
MAIN0
  6
CONTINUOUS
 62
3
100
AcDbBlockEnd
  0
BLOCK
  5
2FE
100
AcDbEntity
  8
MAIN0
  6
CONTINUOUS
 62
3
100
AcDbBlockBegin
  2
*D47
 70
    65
 10
0.0
 20
0.0
 30
0.0
  0
LINE
  5
2FF
100
AcDbEntity
  8
MAIN0
  6
BYBLOCK
 62
0
100
AcDbLine
 10
485.8405184653356
 20
622.9317040172756
 30
0.0000000000000000
 11
485.8405184653356
 21
674.8883949900476
 31
0.0000000000000000
  0
LINE
  5
300
100
AcDbEntity
  8
MAIN0
  6
BYBLOCK
 62
0
100
AcDbLine
 10
493.8405184653356
 20
666.8883949900476
 30
0.0000000000000000
 11
772.8405184653357
 21
666.8883949900476
 31
0.0000000000000000
  0
INSERT
  5
301
100
AcDbEntity
  8
MAIN0
  6
BYBLOCK
 62
0
100
AcDbBlockReference
  2
_OPEN
 10
485.8405184653356
 20
666.8883949900476
 30
0.0000000000000000
 41
8.000000000000000
 42
8.000000000000000
 43
8.000000000000000
 50
180.0000000000000
  0
INSERT
  5
302
100
AcDbEntity
  8
MAIN0
  6
BYBLOCK
 62
0
100
AcDbBlockReference
  2
_OPEN
 10
780.8405184653357
 20
666.8883949900476
 30
0.0000000000000000
 41
8.000000000000000
 42
8.000000000000000
 43
8.000000000000000
 50
0.0000000000000000
  0
LINE
  5
303
100
AcDbEntity
  8
MAIN0
  6
BYBLOCK
 62
0
100
AcDbLine
 10
780.8405184653357
 20
623.2317040173456
 30
0.0000000000000000
 11
780.8405184653357
 21
674.8883949900476
 31
0.0000000000000000
  0
MTEXT
  5
304
100
AcDbEntity
  8
MAIN0
  6
BYBLOCK
 62
0
100
AcDbMText
 10
633.3405184653357
 20
673.5883947993127
 30
0.0000000000000000
 40
12.39999961853027
 41
0.0000000000000000
 71
     5
 72
     1
  1
\A1;MAX 405
 11
1.000000000000000
 21
0.0000000000000000
 31
0.0000000000000000
  7
STANDARD
  0
ENDBLK
  5
305
100
AcDbEntity
  8
MAIN0
  6
CONTINUOUS
 62
3
100
AcDbBlockEnd
  0
BLOCK
  5
307
100
AcDbEntity
  8
MAIN0
  6
CONTINUOUS
 62
3
100
AcDbBlockBegin
  2
*D48
 70
    65
 10
0.0
 20
0.0
 30
0.0
  0
LINE
  5
308
100
AcDbEntity
  8
MAIN0
  6
BYBLOCK
 62
0
100
AcDbLine
 10
780.8405184653357
 20
623.2317040173456
 30
0.0000000000000000
 11
780.8405184653357
 21
674.8883949900476
 31
0.0000000000000000
  0
LINE
  5
309
100
AcDbEntity
  8
MAIN0
  6
BYBLOCK
 62
0
100
AcDbLine
 10
788.8405184653357
 20
666.8883949900476
 30
0.0000000000000000
 11
848.8405184653354
 21
666.8883949900476
 31
0.0000000000000000
  0
INSERT
  5
30A
100
AcDbEntity
  8
MAIN0
  6
BYBLOCK
 62
0
100
AcDbBlockReference
  2
_OPEN
 10
780.8405184653357
 20
666.8883949900476
 30
0.0000000000000000
 41
8.000000000000000
 42
8.000000000000000
 43
8.000000000000000
 50
180.0000000000000
  0
INSERT
  5
30B
100
AcDbEntity
  8
MAIN0
  6
BYBLOCK
 62
0
100
AcDbBlockReference
  2
_OPEN
 10
856.8405184653354
 20
666.8883949900476
 30
0.0000000000000000
 41
8.000000000000000
 42
8.000000000000000
 43
8.000000000000000
 50
0.0000000000000000
  0
LINE
  5
30C
100
AcDbEntity
  8
MAIN0
  6
BYBLOCK
 62
0
100
AcDbLine
 10
856.8405184653354
 20
622.9317040173456
 30
0.0000000000000000
 11
856.8405184653354
 21
674.8883949900476
 31
0.0000000000000000
  0
MTEXT
  5
30D
100
AcDbEntity
  8
MAIN0
  6
BYBLOCK
 62
0
100
AcDbMText
 10
818.8405184653356
 20
673.5883947993127
 30
0.0000000000000000
 40
12.39999961853027
 41
0.0000000000000000
 71
     5
 72
     1
  1
\A1;76
 11
1.000000000000000
 21
0.0000000000000000
 31
0.0000000000000000
  7
STANDARD
  0
ENDBLK
  5
30E
100
AcDbEntity
  8
MAIN0
  6
CONTINUOUS
 62
3
100
AcDbBlockEnd
  0
BLOCK
  5
310
100
AcDbEntity
  8
MAIN0
  6
CONTINUOUS
 62
3
100
AcDbBlockBegin
  2
*D49
 70
    65
 10
0.0
 20
0.0
 30
0.0
  0
LINE
  5
311
100
AcDbEntity
  8
MAIN0
  6
BYBLOCK
 62
0
100
AcDbLine
 10
398.8405184176519
 20
620.2317039695918
 30
0.0000000000000000
 11
362.8405184652396
 21
620.2317039695918
 31
0.0000000000000000
  0
LINE
  5
312
100
AcDbEntity
  8
MAIN0
  6
BYBLOCK
 62
0
100
AcDbLine
 10
370.8405184652396
 20
612.2317039695918
 30
0.0000000000000000
 11
370.8405184652396
 21
578.2317039695918
 31
0.0000000000000000
  0
INSERT
  5
313
100
AcDbEntity
  8
MAIN0
  6
BYBLOCK
 62
0
100
AcDbBlockReference
  2
_OPEN
 10
370.8405184652396
 20
620.2317039695918
 30
0.0000000000000000
 41
8.000000000000000
 42
8.000000000000000
 43
8.000000000000000
 50
90.00000000000000
  0
INSERT
  5
314
100
AcDbEntity
  8
MAIN0
  6
BYBLOCK
 62
0
100
AcDbBlockReference
  2
_OPEN
 10
370.8405184652396
 20
570.2317039695918
 30
0.0000000000000000
 41
8.000000000000000
 42
8.000000000000000
 43
8.000000000000000
 50
270.0000000000000
  0
LINE
  5
315
100
AcDbEntity
  8
MAIN0
  6
BYBLOCK
 62
0
100
AcDbLine
 10
398.6405184175824
 20
570.2317039695918
 30
0.0000000000000000
 11
362.8405184652396
 21
570.2317039695918
 31
0.0000000000000000
  0
MTEXT
  5
316
100
AcDbEntity
  8
MAIN0
  6
BYBLOCK
 62
0
100
AcDbMText
 10
364.1405186559745
 20
595.2317039695918
 30
0.0000000000000000
 40
12.39999961853027
 41
0.0000000000000000
 71
     5
 72
     1
  1
\A1;50
 11
6.123233995736766e-017
 21
1.000000000000000
 31
0.0000000000000000
  7
STANDARD
  0
ENDBLK
  5
317
100
AcDbEntity
  8
MAIN0
  6
CONTINUOUS
 62
3
100
AcDbBlockEnd
  0
BLOCK
  5
319
100
AcDbEntity
  8
MAIN0
  6
CONTINUOUS
 62
3
100
AcDbBlockBegin
  2
*D50
 70
    65
 10
0.0
 20
0.0
 30
0.0
  0
LINE
  5
31A
100
AcDbEntity
  8
MAIN0
  6
BYBLOCK
 62
0
100
AcDbLine
 10
398.6405184175824
 20
570.2317039695918
 30
0.0000000000000000
 11
362.8405184652396
 21
570.2317039695918
 31
0.0000000000000000
  0
LINE
  5
31B
100
AcDbEntity
  8
MAIN0
  6
BYBLOCK
 62
0
100
AcDbLine
 10
370.8405184652396
 20
562.2317039695918
 30
0.0000000000000000
 11
370.8405184652396
 21
493.2317039694677
 31
0.0000000000000000
  0
INSERT
  5
31C
100
AcDbEntity
  8
MAIN0
  6
BYBLOCK
 62
0
100
AcDbBlockReference
  2
_OPEN
 10
370.8405184652396
 20
570.2317039695918
 30
0.0000000000000000
 41
8.000000000000000
 42
8.000000000000000
 43
8.000000000000000
 50
90.00000000000000
  0
INSERT
  5
31D
100
AcDbEntity
  8
MAIN0
  6
BYBLOCK
 62
0
100
AcDbBlockReference
  2
_OPEN
 10
370.8405184652396
 20
485.2317039694677
 30
0.0000000000000000
 41
8.000000000000000
 42
8.000000000000000
 43
8.000000000000000
 50
270.0000000000000
  0
LINE
  5
31E
100
AcDbEntity
  8
MAIN0
  6
BYBLOCK
 62
0
100
AcDbLine
 10
398.0405184176336
 20
485.2317039694677
 30
0.0000000000000000
 11
362.8405184652396
 21
485.2317039694677
 31
0.0000000000000000
  0
MTEXT
  5
31F
100
AcDbEntity
  8
MAIN0
  6
BYBLOCK
 62
0
100
AcDbMText
 10
364.1405186559745
 20
527.7317039695297
 30
0.0000000000000000
 40
12.39999961853027
 41
0.0000000000000000
 71
     5
 72
     1
  1
\A1;85
 11
6.123233995736766e-017
 21
1.000000000000000
 31
0.0000000000000000
  7
STANDARD
  0
ENDBLK
  5
320
100
AcDbEntity
  8
MAIN0
  6
CONTINUOUS
 62
3
100
AcDbBlockEnd
  0
BLOCK
  5
322
100
AcDbEntity
  8
MAIN0
  6
CONTINUOUS
 62
3
100
AcDbBlockBegin
  2
*D51
 70
    65
 10
0.0
 20
0.0
 30
0.0
  0
LINE
  5
323
100
AcDbEntity
  8
MAIN0
  6
BYBLOCK
 62
0
100
AcDbLine
 10
398.8405184176519
 20
620.2317039695918
 30
0.0000000000000000
 11
332.8405184652396
 21
620.2317039695918
 31
0.0000000000000000
  0
LINE
  5
324
100
AcDbEntity
  8
MAIN0
  6
BYBLOCK
 62
0
100
AcDbLine
 10
340.8405184652396
 20
612.2317039695918
 30
0.0000000000000000
 11
340.8405184652396
 21
493.2317039694677
 31
0.0000000000000000
  0
INSERT
  5
325
100
AcDbEntity
  8
MAIN0
  6
BYBLOCK
 62
0
100
AcDbBlockReference
  2
_OPEN
 10
340.8405184652396
 20
620.2317039695918
 30
0.0000000000000000
 41
8.000000000000000
 42
8.000000000000000
 43
8.000000000000000
 50
90.00000000000000
  0
INSERT
  5
326
100
AcDbEntity
  8
MAIN0
  6
BYBLOCK
 62
0
100
AcDbBlockReference
  2
_OPEN
 10
340.8405184652396
 20
485.2317039694677
 30
0.0000000000000000
 41
8.000000000000000
 42
8.000000000000000
 43
8.000000000000000
 50
270.0000000000000
  0
LINE
  5
327
100
AcDbEntity
  8
MAIN0
  6
BYBLOCK
 62
0
100
AcDbLine
 10
398.0405184176336
 20
485.2317039694677
 30
0.0000000000000000
 11
332.8405184652396
 21
485.2317039694677
 31
0.0000000000000000
  0
MTEXT
  5
328
100
AcDbEntity
  8
MAIN0
  6
BYBLOCK
 62
0
100
AcDbMText
 10
334.1405186559745
 20
552.7317039695297
 30
0.0000000000000000
 40
12.39999961853027
 41
0.0000000000000000
 71
     5
 72
     1
  1
\A1;135
 11
6.123233995736766e-017
 21
1.000000000000000
 31
0.0000000000000000
  7
STANDARD
  0
ENDBLK
  5
329
100
AcDbEntity
  8
MAIN0
  6
CONTINUOUS
 62
3
100
AcDbBlockEnd
  0
BLOCK
  5
37C
100
AcDbEntity
  8
MAIN0
  6
CONTINUOUS
 62
3
100
AcDbBlockBegin
  2
*D52
 70
    65
 10
0.0
 20
0.0
 30
0.0
  0
LINE
  5
37D
100
AcDbEntity
  8
MAIN0
  6
BYBLOCK
 62
0
100
AcDbLine
 10
118.3689942345573
 20
623.4317040166272
 30
0.0000000000000000
 11
118.3689942345573
 21
674.8883949900476
 31
0.0000000000000000
  0
LINE
  5
37E
100
AcDbEntity
  8
MAIN0
  6
BYBLOCK
 62
0
100
AcDbLine
 10
126.3689942345573
 20
666.8883949900476
 30
0.0000000000000000
 11
235.3689942345573
 21
666.8883949900476
 31
0.0000000000000000
  0
INSERT
  5
37F
100
AcDbEntity
  8
MAIN0
  6
BYBLOCK
 62
0
100
AcDbBlockReference
  2
_OPEN
 10
118.3689942345573
 20
666.8883949900476
 30
0.0000000000000000
 41
8.000000000000000
 42
8.000000000000000
 43
8.000000000000000
 50
180.0000000000000
  0
INSERT
  5
380
100
AcDbEntity
  8
MAIN0
  6
BYBLOCK
 62
0
100
AcDbBlockReference
  2
_OPEN
 10
243.3689942345573
 20
666.8883949900476
 30
0.0000000000000000
 41
8.000000000000000
 42
8.000000000000000
 43
8.000000000000000
 50
0.0000000000000000
  0
LINE
  5
381
100
AcDbEntity
  8
MAIN0
  6
BYBLOCK
 62
0
100
AcDbLine
 10
243.3689942345573
 20
623.4317040166272
 30
0.0000000000000000
 11
243.3689942345573
 21
674.8883949900476
 31
0.0000000000000000
  0
MTEXT
  5
382
100
AcDbEntity
  8
MAIN0
  6
BYBLOCK
 62
0
100
AcDbMText
 10
180.8689942345573
 20
673.5883947993127
 30
0.0000000000000000
 40
12.39999961853027
 41
0.0000000000000000
 71
     5
 72
     1
  1
\A1;125
 11
1.000000000000000
 21
0.0000000000000000
 31
0.0000000000000000
  7
STANDARD
  0
ENDBLK
  5
383
100
AcDbEntity
  8
MAIN0
  6
CONTINUOUS
 62
3
100
AcDbBlockEnd
  0
BLOCK
  5
418
100
AcDbEntity
  8
MAIN0
  6
CONTINUOUS
 62
3
100
AcDbBlockBegin
  2
*D53
 70
    65
 10
0.0
 20
0.0
 30
0.0
  0
LINE
  5
419
100
AcDbEntity
  8
MAIN0
  6
BYBLOCK
 62
0
100
AcDbLine
 10
1537.728610438446
 20
542.4731559002054
 30
0.0000000000000000
 11
1537.728610438446
 21
647.4299657281619
 31
0.0000000000000000
  0
LINE
  5
41A
100
AcDbEntity
  8
MAIN0
  6
BYBLOCK
 62
0
100
AcDbLine
 10
1537.728610438446
 20
639.4299657281619
 30
0.0000000000000000
 11
1523.728610438446
 21
639.4299657281619
 31
0.0000000000000000
  0
INSERT
  5
41B
100
AcDbEntity
  8
MAIN0
  6
BYBLOCK
 62
0
100
AcDbBlockReference
  2
_OPEN
 10
1537.728610438446
 20
639.4299657281619
 30
0.0000000000000000
 41
8.000000000000000
 42
8.000000000000000
 43
8.000000000000000
 50
180.0000000000000
  0
INSERT
  5
41C
100
AcDbEntity
  8
MAIN0
  6
BYBLOCK
 62
0
100
AcDbBlockReference
  2
_OPEN
 10
1523.728610438446
 20
639.4299657281619
 30
0.0000000000000000
 41
8.000000000000000
 42
8.000000000000000
 43
8.000000000000000
 50
360.0000000000000
  0
LINE
  5
41D
100
AcDbEntity
  8
MAIN0
  6
BYBLOCK
 62
0
100
AcDbLine
 10
1545.728610438446
 20
639.4299657281619
 30
0.0000000000000000
 11
1567.639511705199
 21
639.4299657281619
 31
0.0000000000000000
  0
LINE
  5
41E
100
AcDbEntity
  8
MAIN0
  6
BYBLOCK
 62
0
100
AcDbLine
 10
1515.728610438446
 20
639.4299657281619
 30
0.0000000000000000
 11
1511.728610438446
 21
639.4299657281619
 31
0.0000000000000000
  0
LINE
  5
41F
100
AcDbEntity
  8
MAIN0
  6
BYBLOCK
 62
0
100
AcDbLine
 10
1523.728610438446
 20
542.4731559002055
 30
0.0000000000000000
 11
1523.728610438446
 21
647.4299657281619
 31
0.0000000000000000
  0
MTEXT
  5
420
100
AcDbEntity
  8
MAIN0
  6
BYBLOCK
 62
0
100
AcDbMText
 10
1559.439511895934
 20
647.6299655374270
 30
0.0000000000000000
 40
12.39999961853027
 41
0.0000000000000000
 71
     5
 72
     1
  1
\A1;14
 11
1.000000000000000
 21
0.0000000000000000
 31
0.0000000000000000
  7
STANDARD
  0
ENDBLK
  5
421
100
AcDbEntity
  8
MAIN0
  6
CONTINUOUS
 62
3
100
AcDbBlockEnd
  0
BLOCK
  5
423
100
AcDbEntity
  8
MAIN0
  6
CONTINUOUS
 62
3
100
AcDbBlockBegin
  2
*D54
 70
    65
 10
0.0
 20
0.0
 30
0.0
  0
LINE
  5
424
100
AcDbEntity
  8
MAIN0
  6
BYBLOCK
 62
0
100
AcDbLine
 10
1467.728610438446
 20
482.4317039222980
 30
0.0000000000000000
 11
1467.728610438446
 21
412.2317039694673
 31
0.0000000000000000
  0
LINE
  5
425
100
AcDbEntity
  8
MAIN0
  6
BYBLOCK
 62
0
100
AcDbLine
 10
1467.728610438446
 20
420.2317039694673
 30
0.0000000000000000
 11
1444.728610438446
 21
420.2317039694673
 31
0.0000000000000000
  0
INSERT
  5
426
100
AcDbEntity
  8
MAIN0
  6
BYBLOCK
 62
0
100
AcDbBlockReference
  2
_OPEN
 10
1467.728610438446
 20
420.2317039694673
 30
0.0000000000000000
 41
8.000000000000000
 42
8.000000000000000
 43
8.000000000000000
 50
180.0000000000000
  0
INSERT
  5
427
100
AcDbEntity
  8
MAIN0
  6
BYBLOCK
 62
0
100
AcDbBlockReference
  2
_OPEN
 10
1444.728610438446
 20
420.2317039694673
 30
0.0000000000000000
 41
8.000000000000000
 42
8.000000000000000
 43
8.000000000000000
 50
360.0000000000000
  0
LINE
  5
428
100
AcDbEntity
  8
MAIN0
  6
BYBLOCK
 62
0
100
AcDbLine
 10
1475.728610438446
 20
420.2317039694673
 30
0.0000000000000000
 11
1522.588163578905
 21
420.2317039694673
 31
0.0000000000000000
  0
LINE
  5
429
100
AcDbEntity
  8
MAIN0
  6
BYBLOCK
 62
0
100
AcDbLine
 10
1436.728610438446
 20
420.2317039694673
 30
0.0000000000000000
 11
1432.728610438446
 21
420.2317039694673
 31
0.0000000000000000
  0
MTEXT
  5
42A
100
AcDbEntity
  8
MAIN0
  6
BYBLOCK
 62
0
100
AcDbMText
 10
1500.788164341844
 20
428.4317037787324
 30
0.0000000000000000
 40
12.39999961853027
 41
0.0000000000000000
 71
     5
 72
     1
  1
\A1;22～31
 11
1.000000000000000
 21
0.0000000000000000
 31
0.0000000000000000
  7
KNJYOKO
  0
ENDBLK
  5
42B
100
AcDbEntity
  8
MAIN0
  6
CONTINUOUS
 62
3
100
AcDbBlockEnd
  0
BLOCK
  5
430
100
AcDbEntity
  8
MAIN0
  6
CONTINUOUS
 62
3
100
AcDbBlockBegin
  2
*D55
 70
    65
 10
0.0
 20
0.0
 30
0.0
  0
LINE
  5
431
100
AcDbEntity
  8
MAIN0
  6
BYBLOCK
 62
0
100
AcDbLine
 10
689.8405184653050
 20
477.0317039220649
 30
0.0000000000000000
 11
689.8405184653050
 21
442.2317039694673
 31
0.0000000000000000
  0
LINE
  5
432
100
AcDbEntity
  8
MAIN0
  6
BYBLOCK
 62
0
100
AcDbLine
 10
689.8405184653049
 20
450.2317039694673
 30
0.0000000000000000
 11
671.8405184653049
 21
450.2317039694673
 31
0.0000000000000000
  0
INSERT
  5
433
100
AcDbEntity
  8
MAIN0
  6
BYBLOCK
 62
0
100
AcDbBlockReference
  2
_OPEN
 10
689.8405184653049
 20
450.2317039694673
 30
0.0000000000000000
 41
8.000000000000000
 42
8.000000000000000
 43
8.000000000000000
 50
180.0000000000000
  0
INSERT
  5
434
100
AcDbEntity
  8
MAIN0
  6
BYBLOCK
 62
0
100
AcDbBlockReference
  2
_OPEN
 10
671.8405184653049
 20
450.2317039694673
 30
0.0000000000000000
 41
8.000000000000000
 42
8.000000000000000
 43
8.000000000000000
 50
360.0000000000000
  0
LINE
  5
435
100
AcDbEntity
  8
MAIN0
  6
BYBLOCK
 62
0
100
AcDbLine
 10
697.8405184653049
 20
450.2317039694673
 30
0.0000000000000000
 11
701.8405184653049
 21
450.2317039694673
 31
0.0000000000000000
  0
LINE
  5
436
100
AcDbEntity
  8
MAIN0
  6
BYBLOCK
 62
0
100
AcDbLine
 10
663.8405184653049
 20
450.2317039694673
 30
0.0000000000000000
 11
644.1582245235412
 21
450.2317039694673
 31
0.0000000000000000
  0
LINE
  5
437
100
AcDbEntity
  8
MAIN0
  6
BYBLOCK
 62
0
100
AcDbLine
 10
671.8405184653050
 20
477.0317039220649
 30
0.0000000000000000
 11
671.8405184653050
 21
442.2317039694673
 31
0.0000000000000000
  0
MTEXT
  5
438
100
AcDbEntity
  8
MAIN0
  6
BYBLOCK
 62
0
100
AcDbMText
 10
652.3582243328063
 20
458.4317037787324
 30
0.0000000000000000
 40
12.39999961853027
 41
0.0000000000000000
 71
     5
 72
     1
  1
\A1;18
 11
1.000000000000000
 21
0.0000000000000000
 31
0.0000000000000000
  7
STANDARD
  0
ENDBLK
  5
439
100
AcDbEntity
  8
MAIN0
  6
CONTINUOUS
 62
3
100
AcDbBlockEnd
  0
ENDSEC
  0
SECTION
  2
ENTITIES
  0
LINE
  5
46
100
AcDbEntity
  8
MAIN0
  6
CENTER
 62
3
100
AcDbLine
 10
453.8405184639119
 20
977.7387967104876
 30
0.0000000000000000
 11
481.8405184639119
 21
977.7387967104876
 31
0.0000000000000000
  0
LINE
  5
47
100
AcDbEntity
  8
MAIN0
  6
CENTER
 62
3
100
AcDbLine
 10
467.8405184639120
 20
963.7387967104876
 30
0.0000000000000000
 11
467.8405184639120
 21
991.7387967104876
 31
0.0000000000000000
  0
LINE
  5
48
100
AcDbEntity
  8
MAIN0
  6
CENTER
 62
3
100
AcDbLine
 10
405.8405184638637
 20
977.7387967104876
 30
0.0000000000000000
 11
433.8405184638637
 21
977.7387967104876
 31
0.0000000000000000
  0
LINE
  5
49
100
AcDbEntity
  8
MAIN0
  6
CENTER
 62
3
100
AcDbLine
 10
419.8405184638639
 20
963.7387967104876
 30
0.0000000000000000
 11
419.8405184638639
 21
991.7387967104876
 31
0.0000000000000000
  0
LINE
  5
4A
100
AcDbEntity
  8
MAIN0
  6
CENTER
 62
3
100
AcDbLine
 10
453.8405184639117
 20
885.7387967096508
 30
0.0000000000000000
 11
481.8405184639117
 21
885.7387967096508
 31
0.0000000000000000
  0
LINE
  5
4B
100
AcDbEntity
  8
MAIN0
  6
CENTER
 62
3
100
AcDbLine
 10
467.8405184639116
 20
871.7387967096507
 30
0.0000000000000000
 11
467.8405184639117
 21
899.7387967096507
 31
0.0000000000000000
  0
LINE
  5
4C
100
AcDbEntity
  8
MAIN0
  6
CENTER
 62
3
100
AcDbLine
 10
405.8405184638635
 20
885.7387967096508
 30
0.0000000000000000
 11
433.8405184638635
 21
885.7387967096508
 31
0.0000000000000000
  0
LINE
  5
4D
100
AcDbEntity
  8
MAIN0
  6
CENTER
 62
3
100
AcDbLine
 10
419.8405184638635
 20
871.7387967096511
 30
0.0000000000000000
 11
419.8405184638636
 21
899.7387967096511
 31
0.0000000000000000
  0
CIRCLE
  5
4E
100
AcDbEntity
  8
MAIN0
  6
HIDDEN
 62
3
100
AcDbCircle
 10
467.8405184639117
 20
885.7387967096508
 30
0.0000000000000000
 40
10.50000000000000
  0
LINE
  5
4F
100
AcDbEntity
  8
MAIN0
  6
HIDDEN
 62
3
100
AcDbLine
 10
460.9123152336363
 20
885.7387967096506
 30
0.0000000000000000
 11
464.3764168487739
 21
879.7387967096506
 31
0.0000000000000000
  0
LINE
  5
50
100
AcDbEntity
  8
MAIN0
  6
HIDDEN
 62
3
100
AcDbLine
 10
464.3764168487739
 20
879.7387967096510
 30
0.0000000000000000
 11
471.3046200790495
 21
879.7387967096510
 31
0.0000000000000000
  0
LINE
  5
51
100
AcDbEntity
  8
MAIN0
  6
HIDDEN
 62
3
100
AcDbLine
 10
471.3046200790494
 20
879.7387967096506
 30
0.0000000000000000
 11
474.7687216941870
 21
885.7387967096505
 31
0.0000000000000000
  0
LINE
  5
52
100
AcDbEntity
  8
MAIN0
  6
HIDDEN
 62
3
100
AcDbLine
 10
474.7687216941874
 20
885.7387967096508
 30
0.0000000000000000
 11
471.3046200790495
 21
891.7387967096511
 31
0.0000000000000000
  0
LINE
  5
53
100
AcDbEntity
  8
MAIN0
  6
HIDDEN
 62
3
100
AcDbLine
 10
471.3046200790495
 20
891.7387967096510
 30
0.0000000000000000
 11
464.3764168487739
 21
891.7387967096510
 31
0.0000000000000000
  0
LINE
  5
54
100
AcDbEntity
  8
MAIN0
  6
HIDDEN
 62
3
100
AcDbLine
 10
464.3764168487737
 20
891.7387967096504
 30
0.0000000000000000
 11
460.9123152336360
 21
885.7387967096505
 31
0.0000000000000000
  0
LINE
  5
55
100
AcDbEntity
  8
MAIN0
  6
CENTER
 62
3
100
AcDbLine
 10
410.7466598724862
 20
956.7387967097279
 30
0.0000000000000000
 11
432.4901417154619
 21
956.7387967096986
 31
0.0000000000000000
  0
LINE
  5
56
100
AcDbEntity
  8
MAIN0
  6
CENTER
 62
3
100
AcDbLine
 10
464.3805597370746
 20
956.7387967096556
 30
0.0000000000000000
 11
484.6744871313550
 21
956.7387967096283
 31
0.0000000000000000
  0
LINE
  5
57
100
AcDbEntity
  8
MAIN0
  6
CENTER
 62
3
100
AcDbLine
 10
410.7466598724189
 20
906.7387967097282
 30
0.0000000000000000
 11
432.4901417153946
 21
906.7387967096989
 31
0.0000000000000000
  0
LINE
  5
58
100
AcDbEntity
  8
MAIN0
  6
CENTER
 62
3
100
AcDbLine
 10
464.3805597370072
 20
906.7387967096555
 30
0.0000000000000000
 11
484.6744871312876
 21
906.7387967096281
 31
0.0000000000000000
  0
LINE
  5
59
100
AcDbEntity
  8
MAIN0
  6
CENTER
 62
3
100
AcDbLine
 10
420.8405184644796
 20
898.2569448700903
 30
0.0000000000000000
 11
420.8405184644797
 21
917.5844720556614
 31
0.0000000000000000
  0
LINE
  5
5A
100
AcDbEntity
  8
MAIN0
  6
CENTER
 62
3
100
AcDbLine
 10
420.8405184644795
 20
946.5757811797897
 30
0.0000000000000000
 11
420.8405184644795
 21
966.8696902283707
 31
0.0000000000000000
  0
LINE
  5
5B
100
AcDbEntity
  8
MAIN0
  6
CENTER
 62
3
100
AcDbLine
 10
475.8405184644795
 20
898.2569448700901
 30
0.0000000000000000
 11
475.8405184644795
 21
917.5844720556613
 31
0.0000000000000000
  0
LINE
  5
5C
100
AcDbEntity
  8
MAIN0
  6
CENTER
 62
3
100
AcDbLine
 10
475.8405184644795
 20
946.5757811797895
 30
0.0000000000000000
 11
475.8405184644795
 21
966.8696902283707
 31
0.0000000000000000
  0
CIRCLE
  5
5D
100
AcDbEntity
  8
MAIN0
  6
CONTINUOUS
 62
3
100
AcDbCircle
 10
467.8405184639117
 20
885.7387967096508
 30
0.0000000000000000
 40
11.50000000000000
  0
CIRCLE
  5
5E
100
AcDbEntity
  8
MAIN0
  6
CONTINUOUS
 62
3
100
AcDbCircle
 10
419.8405184638635
 20
885.7387967096508
 30
0.0000000000000000
 40
11.50000000000000
  0
LINE
  5
5F
100
AcDbEntity
  8
MAIN0
  6
CENTER
 62
3
100
AcDbLine
 10
443.8405184645340
 20
939.7387967100692
 30
0.0000000000000000
 11
443.8405184645340
 21
920.3589578643737
 31
0.0000000000000000
  0
CIRCLE
  5
60
100
AcDbEntity
  8
MAIN0
  6
CONTINUOUS
 62
3
100
AcDbCircle
 10
467.8405184639120
 20
977.7387967104876
 30
0.0000000000000000
 40
11.50000000000000
  0
CIRCLE
  5
61
100
AcDbEntity
  8
MAIN0
  6
CONTINUOUS
 62
3
100
AcDbCircle
 10
419.8405184638638
 20
977.7387967104876
 30
0.0000000000000000
 40
11.50000000000000
  0
LINE
  5
62
100
AcDbEntity
  8
MAIN0
  6
CENTER
 62
3
100
AcDbLine
 10
443.8405184645340
 20
882.5214360495668
 30
0.0000000000000000
 11
443.8405184645340
 21
864.4145943450167
 31
0.0000000000000000
  0
LINE
  5
63
100
AcDbEntity
  8
MAIN0
  6
CENTER
 62
3
100
AcDbLine
 10
443.8405184646667
 20
980.9561573698003
 30
0.0000000000000000
 11
443.8405184647156
 21
999.0629990743502
 31
0.0000000000000000
  0
LINE
  5
64
100
AcDbEntity
  8
MAIN0
  6
CENTER
 62
3
100
AcDbLine
 10
840.8405184666721
 20
925.2387967093034
 30
0.0000000000000000
 11
840.8405184666721
 21
900.2387967093034
 31
0.0000000000000000
  0
LINE
  5
65
100
AcDbEntity
  8
MAIN0
  6
CENTER
 62
3
100
AcDbLine
 10
828.3405184666718
 20
912.7387967093039
 30
0.0000000000000000
 11
853.3405184666718
 21
912.7387967093039
 31
0.0000000000000000
  0
LINE
  5
66
100
AcDbEntity
  8
MAIN0
  6
CENTER
 62
3
100
AcDbLine
 10
840.8405184667035
 20
963.2387967093029
 30
0.0000000000000000
 11
840.8405184667034
 21
938.2387967093029
 31
0.0000000000000000
  0
LINE
  5
67
100
AcDbEntity
  8
MAIN0
  6
CENTER
 62
3
100
AcDbLine
 10
828.3405184667034
 20
950.7387967093034
 30
0.0000000000000000
 11
853.3405184667034
 21
950.7387967093034
 31
0.0000000000000000
  0
LINE
  5
68
100
AcDbEntity
  8
MAIN0
  6
CENTER
 62
3
100
AcDbLine
 10
796.8405184667034
 20
963.2387967093081
 30
0.0000000000000000
 11
796.8405184667033
 21
938.2387967093081
 31
0.0000000000000000
  0
LINE
  5
69
100
AcDbEntity
  8
MAIN0
  6
CENTER
 62
3
100
AcDbLine
 10
784.3405184667034
 20
950.7387967093080
 30
0.0000000000000000
 11
809.3405184667034
 21
950.7387967093080
 31
0.0000000000000000
  0
LINE
  5
6A
100
AcDbEntity
  8
MAIN0
  6
CENTER
 62
3
100
AcDbLine
 10
796.8405184666716
 20
925.2387967093080
 30
0.0000000000000000
 11
796.8405184666716
 21
900.2387967093080
 31
0.0000000000000000
  0
LINE
  5
6B
100
AcDbEntity
  8
MAIN0
  6
CENTER
 62
3
100
AcDbLine
 10
784.3405184666716
 20
912.7387967093084
 30
0.0000000000000000
 11
809.3405184666716
 21
912.7387967093084
 31
0.0000000000000000
  0
CIRCLE
  5
6C
100
AcDbEntity
  8
MAIN0
  6
HIDDEN
 62
3
100
AcDbCircle
 10
840.8405184666718
 20
912.7387967093034
 30
0.0000000000000000
 40
9.000000000000000
  0
LINE
  5
6D
100
AcDbEntity
  8
MAIN0
  6
HIDDEN
 62
3
100
AcDbLine
 10
835.0670157747760
 20
912.7387967093036
 30
0.0000000000000000
 11
837.9537671207241
 21
907.7387967093034
 31
0.0000000000000000
  0
LINE
  5
6E
100
AcDbEntity
  8
MAIN0
  6
HIDDEN
 62
3
100
AcDbLine
 10
837.9537671207239
 20
907.7387967093036
 30
0.0000000000000000
 11
843.7272698126202
 21
907.7387967093036
 31
0.0000000000000000
  0
LINE
  5
6F
100
AcDbEntity
  8
MAIN0
  6
HIDDEN
 62
3
100
AcDbLine
 10
843.7272698126196
 20
907.7387967093033
 30
0.0000000000000000
 11
846.6140211585678
 21
912.7387967093033
 31
0.0000000000000000
  0
LINE
  5
70
100
AcDbEntity
  8
MAIN0
  6
HIDDEN
 62
3
100
AcDbLine
 10
846.6140211585686
 20
912.7387967093035
 30
0.0000000000000000
 11
843.7272698126204
 21
917.7387967093036
 31
0.0000000000000000
  0
LINE
  5
71
100
AcDbEntity
  8
MAIN0
  6
HIDDEN
 62
3
100
AcDbLine
 10
843.7272698126202
 20
917.7387967093036
 30
0.0000000000000000
 11
837.9537671207239
 21
917.7387967093036
 31
0.0000000000000000
  0
LINE
  5
72
100
AcDbEntity
  8
MAIN0
  6
HIDDEN
 62
3
100
AcDbLine
 10
837.9537671207235
 20
917.7387967093033
 30
0.0000000000000000
 11
835.0670157747753
 21
912.7387967093033
 31
0.0000000000000000
  0
LINE
  5
73
100
AcDbEntity
  8
MAIN0
  6
CENTER
 62
3
100
AcDbLine
 10
818.8405184666875
 20
939.7387967093057
 30
0.0000000000000000
 11
818.8405184666875
 21
923.7387967093057
 31
0.0000000000000000
  0
LINE
  5
74
100
AcDbEntity
  8
MAIN0
  6
CENTER
 62
3
100
AcDbLine
 10
781.2698323934840
 20
971.7387967092893
 30
0.0000000000000000
 11
801.5637414418548
 21
971.7387967092619
 31
0.0000000000000000
  0
LINE
  5
75
100
AcDbEntity
  8
MAIN0
  6
CENTER
 62
3
100
AcDbLine
 10
830.5550505659816
 20
971.7387967092229
 30
0.0000000000000000
 11
850.3657686830558
 21
971.7387967091963
 31
0.0000000000000000
  0
LINE
  5
76
100
AcDbEntity
  8
MAIN0
  6
CENTER
 62
3
100
AcDbLine
 10
781.2698323933761
 20
891.7387967092891
 30
0.0000000000000000
 11
801.5637414417469
 21
891.7387967092617
 31
0.0000000000000000
  0
LINE
  5
77
100
AcDbEntity
  8
MAIN0
  6
CENTER
 62
3
100
AcDbLine
 10
830.5550505658738
 20
891.7387967092233
 30
0.0000000000000000
 11
850.3657686829480
 21
891.7387967091966
 31
0.0000000000000000
  0
LINE
  5
78
100
AcDbEntity
  8
MAIN0
  6
CENTER
 62
3
100
AcDbLine
 10
840.8405184666466
 20
882.3117542049071
 30
0.0000000000000000
 11
840.8405184666635
 21
902.6056632534891
 31
0.0000000000000000
  0
LINE
  5
79
100
AcDbEntity
  8
MAIN0
  6
CENTER
 62
3
100
AcDbLine
 10
840.8405184667128
 20
961.5546266732129
 30
0.0000000000000000
 11
840.8405184667292
 21
981.3653447902889
 31
0.0000000000000000
  0
LINE
  5
7A
100
AcDbEntity
  8
MAIN0
  6
CENTER
 62
3
100
AcDbLine
 10
790.8405184666467
 20
882.3117542049489
 30
0.0000000000000000
 11
790.8405184666636
 21
902.6056632535309
 31
0.0000000000000000
  0
LINE
  5
7B
100
AcDbEntity
  8
MAIN0
  6
CENTER
 62
3
100
AcDbLine
 10
790.8405184667128
 20
961.5546266732545
 30
0.0000000000000000
 11
790.8405184667292
 21
981.3653447903305
 31
0.0000000000000000
  0
CIRCLE
  5
7C
100
AcDbEntity
  8
MAIN0
  6
CONTINUOUS
 62
3
100
AcDbCircle
 10
840.8405184666718
 20
912.7387967093034
 30
0.0000000000000000
 40
10.00000000000000
  0
CIRCLE
  5
7D
100
AcDbEntity
  8
MAIN0
  6
CONTINUOUS
 62
3
100
AcDbCircle
 10
840.8405184667034
 20
950.7387967093034
 30
0.0000000000000000
 40
10.00000000000000
  0
CIRCLE
  5
7E
100
AcDbEntity
  8
MAIN0
  6
CONTINUOUS
 62
3
100
AcDbCircle
 10
796.8405184667034
 20
950.7387967093080
 30
0.0000000000000000
 40
10.00000000000000
  0
CIRCLE
  5
7F
100
AcDbEntity
  8
MAIN0
  6
CONTINUOUS
 62
3
100
AcDbCircle
 10
796.8405184666716
 20
912.7387967093084
 30
0.0000000000000000
 40
10.00000000000000
  0
LEADER
  5
80
100
AcDbEntity
  8
MAIN0
  6
CONTINUOUS
 62
3
100
AcDbLeader
  3
MAIN001
 73
     0
 75
     1
 40
12.39999961853027
 41
108.7990000715255
 76
     3
 10
416.9105068143679
 20
903.6476790429168
 30
0.0000000000000000
 10
341.1994664062893
 20
844.0977958840755
 30
0.0000000000000000
 10
334.0544666169321
 20
844.0977958840756
 30
0.0000000000000000
340
81
213
0.0000000000000000
223
-2.000000000000000
233
0.0000000000000000
1001
ACAD
1000
DSTYLE
1002
{
1070
   147
1040
0.0
1070
    77
1070
     1
1070
   173
1070
     1
1070
     6
1000
_OPEN
1070
     7
1000
_OPEN
1002
}
  0
MTEXT
  5
81
102
{ACAD_REACTORS
330
80
102
}
100
AcDbEntity
  8
MAIN0
  6
CONTINUOUS
 62
3
100
AcDbMText
 10
225.2554665454066
 20
858.4977955026059
 30
0.0000000000000000
 40
12.39999961853027
 41
0.0000000000000000
 71
     1
 72
     1
  1
{\H0.71x;{2x5-M10 深さ20\P        DEPTH}}
 11
1.000000000000000
 21
0.0000000000000000
 31
0.0000000000000000
  7
KNJYOKO
  0
CIRCLE
  5
82
100
AcDbEntity
  8
MAIN0
  6
CONTINUOUS
 62
3
100
AcDbCircle
 10
443.8405184653084
 20
610.2317039695918
 30
0.0000000000000000
 40
4.250000000000000
  0
CIRCLE
  5
83
100
AcDbEntity
  8
MAIN0
  6
CONTINUOUS
 62
3
100
AcDbCircle
 10
443.8405184653084
 20
610.2317039695918
 30
0.0000000000000000
 40
5.000000000000000
  0
CIRCLE
  5
84
100
AcDbEntity
  8
MAIN0
  6
CONTINUOUS
 62
3
100
AcDbCircle
 10
443.8405184653159
 20
590.2317039695918
 30
0.0000000000000000
 40
4.250000000000000
  0
CIRCLE
  5
85
100
AcDbEntity
  8
MAIN0
  6
CONTINUOUS
 62
3
100
AcDbCircle
 10
443.8405184653159
 20
590.2317039695918
 30
0.0000000000000000
 40
5.000000000000000
  0
LEADER
  5
86
100
AcDbEntity
  8
MAIN0
  6
CONTINUOUS
 62
3
100
AcDbLeader
  3
MAIN001
 73
     0
 75
     1
 40
12.39999961853027
 41
108.7990000715255
 76
     3
 10
441.8380662454786
 20
614.8132086468020
 30
0.0000000000000000
 10
390.4711504527545
 20
732.3379928227892
 30
0.0000000000000000
 10
383.3261506633973
 20
732.3379928227892
 30
0.0000000000000000
340
87
213
0.0000000000000000
223
-2.000000000000000
233
0.0000000000000000
1001
ACAD
1000
DSTYLE
1002
{
1070
   147
1040
0.0
1070
    77
1070
     1
1070
   173
1070
     1
1070
     6
1000
_OPEN
1070
     7
1000
_OPEN
1002
}
  0
MTEXT
  5
87
102
{ACAD_REACTORS
330
86
102
}
100
AcDbEntity
  8
MAIN0
  6
CONTINUOUS
 62
3
100
AcDbMText
 10
274.5271505918718
 20
746.7379924413194
 30
0.0000000000000000
 40
12.39999961853027
 41
0.0000000000000000
 71
     1
 72
     1
  1
{\H0.71x;{2x2-M10 深さ20\P        DEPTH\P}
 11
1.000000000000000
 21
0.0000000000000000
 31
0.0000000000000000
  7
KNJYOKO
  0
LINE
  5
88
100
AcDbEntity
  8
MAIN0
  6
PHANTOM
 62
3
100
AcDbLine
 10
1464.983298773920
 20
485.2317039699812
 30
0.0000000000000000
 11
1361.668494160868
 21
485.2317039699824
 31
0.0000000000000000
  0
MTEXT
  5
89
100
AcDbEntity
  8
MAIN0
  6
CONTINUOUS
 62
3
100
AcDbMText
 10
1127.072167364525
 20
327.0314062581047
 30
0.0000000000000000
 40
12.39999961853027
 41
0.0000000000000000
 71
     1
 72
     1
  1
{\H0.94x;{(押さえ金具６セット付属)}}
 11
1.000000000000000
 21
0.0000000000000000
 31
0.0000000000000000
  7
KNJYOKO
  0
MTEXT
  5
8A
100
AcDbEntity
  8
MAIN0
  6
CONTINUOUS
 62
3
100
AcDbMText
 10
1128.538772477813
 20
309.3291880571493
 30
0.0000000000000000
 40
12.00000000000000
 41
0.0000000000000000
 71
     1
 72
     1
  1
{\H0.63x;{(CLAMPING PARTS  ACCESSARY 6 PAIR)}}
 11
1.000000000000000
 21
0.0000000000000000
 31
0.0000000000000000
  7
STANDARD
  0
LEADER
  5
8B
100
AcDbEntity
  8
MAIN0
  6
CONTINUOUS
 62
3
100
AcDbLeader
  3
MAIN001
 73
     0
 75
     1
 40
12.00000000000000
 41
104.3989972343445
 76
     3
 10
1438.864593718832
 20
526.6378579838470
 30
0.0000000000000000
 10
1291.345767160348
 20
397.3187966912512
 30
0.0000000000000000
 10
1284.624767160348
 20
397.3187966912512
 30
0.0000000000000000
340
8C
213
0.0000000000000000
223
-2.000000000000000
233
0.0000000000000000
1001
ACAD
1000
DSTYLE
1002
{
1070
   147
1040
0.0
1070
    77
1070
     1
1070
   173
1070
     1
1070
     6
1000
_DOT
1070
     7
1000
_DOT
1002
}
  0
MTEXT
  5
8C
102
{ACAD_REACTORS
330
8B
102
}
100
AcDbEntity
  8
MAIN0
  6
CONTINUOUS
 62
3
100
AcDbMText
 10
1180.225769926003
 20
411.3187966912512
 30
0.0000000000000000
 40
12.00000000000000
 41
0.0000000000000000
 71
     1
 72
     1
  1
{\H0.61x;{六角穴付ボルト\PM16×65\PHEX,SOCKET HEAD\PCAP SCREW}}
 11
1.000000000000000
 21
0.0000000000000000
 31
0.0000000000000000
  7
KNJYOKO
  0
LEADER
  5
8D
100
AcDbEntity
  8
MAIN0
  6
CONTINUOUS
 62
3
100
AcDbLeader
  3
MAIN001
 73
     0
 75
     1
 40
12.39999961853027
 41
83.59900005364415
 76
     3
 10
441.7757816301666
 20
936.2925711666376
 30
0.0000000000000000
 10
384.7332368020140
 20
1062.099831091693
 30
0.0000000000000000
 10
377.5882370126568
 20
1062.099831091692
 30
0.0000000000000000
340
8E
213
0.0000000000000000
223
-2.000000000000000
233
0.0000000000000000
1001
ACAD
1000
DSTYLE
1002
{
1070
   147
1040
0.0
1070
    77
1070
     1
1070
   173
1070
     1
1070
     6
1000
_OPEN
1070
     7
1000
_OPEN
1002
}
  0
MTEXT
  5
8E
102
{ACAD_REACTORS
330
8D
102
}
100
AcDbEntity
  8
MAIN0
  6
CONTINUOUS
 62
3
100
AcDbMText
 10
293.9892369590127
 20
1076.499830710223
 30
0.0000000000000000
 40
12.39999961853027
 41
0.0000000000000000
 71
     1
 72
     1
  1
{\H0.71x;{(吊りボルト用)\P(EYE BOLT)}}
 11
1.000000000000000
 21
0.0000000000000000
 31
0.0000000000000000
  7
KNJYOKO
  0
MTEXT
  5
8F
100
AcDbEntity
  8
MAIN0
  6
CONTINUOUS
 62
3
100
AcDbMText
 10
1519.111644569686
 20
550.8787197247616
 30
0.0000000000000000
 40
5.599999904632568
 41
0.0000000000000000
 71
     1
 72
     1
  1
{\H0.82x;{0}}
 11
0.8660254037844389
 21
0.4999999999999996
 31
0.0000000000000000
  7
STANDARD
  0
MTEXT
  5
90
100
AcDbEntity
  8
MAIN0
  6
CONTINUOUS
 62
3
100
AcDbMText
 10
1528.491530759474
 20
554.5909000411806
 30
0.0000000000000000
 40
5.599999904632568
 41
0.0000000000000000
 71
     1
 72
     1
  1
{\H0.82x;{1}}
 11
1.000000000000000
 21
0.0000000000000000
 31
0.0000000000000000
  7
STANDARD
  0
MTEXT
  5
91
100
AcDbEntity
  8
MAIN0
  6
CONTINUOUS
 62
3
100
AcDbMText
 10
1538.470840642647
 20
553.1157994037339
 30
0.0000000000000000
 40
5.599999904632568
 41
0.0000000000000000
 71
     1
 72
     1
  1
{\H0.82x;{2}}
 11
0.8660254037844388
 21
-0.4999999999999997
 31
0.0000000000000000
  7
STANDARD
  0
MTEXT
  5
92
100
AcDbEntity
  8
MAIN0
  6
CONTINUOUS
 62
3
100
AcDbMText
 10
1546.375626194988
 20
546.8486698369806
 30
0.0000000000000000
 40
5.599999904632568
 41
0.0000000000000000
 71
     1
 72
     1
  1
{\H0.82x;{3}}
 11
0.5000000000000009
 21
-0.8660254037844382
 31
0.0000000000000000
  7
STANDARD
  0
CIRCLE
  5
93
100
AcDbEntity
  8
MAIN0
  6
CONTINUOUS
 62
3
100
AcDbCircle
 10
1530.728610438447
 20
535.2317039682198
 30
0.0000000000000000
 40
12.00000000000000
  0
CIRCLE
  5
94
100
AcDbEntity
  8
MAIN0
  6
CONTINUOUS
 62
3
100
AcDbCircle
 10
1530.728610438447
 20
535.2317039682198
 30
0.0000000000000000
 40
21.00000000000000
  0
CIRCLE
  5
95
100
AcDbEntity
  8
MAIN0
  6
CONTINUOUS
 62
3
100
AcDbCircle
 10
1530.728610438447
 20
535.2317039682198
 30
0.0000000000000000
 40
24.75000000000000
  0
CIRCLE
  5
96
100
AcDbEntity
  8
MAIN0
  6
CONTINUOUS
 62
3
100
AcDbCircle
 10
1530.728610438446
 20
535.2317039682198
 30
0.0000000000000000
 40
9.078460969103361
  0
DIMENSION
  5
A0
100
AcDbEntity
  8
MAIN0
  6
CONTINUOUS
 62
3
100
AcDbDimension
  2
*D0
 10
1339.219426392597
 20
485.2317039699824
 30
0.0000000000000000
 11
1338.719426392597
 21
500.2317039699816
 31
0.0000000000000000
 70
32
  3
MAIN001
100
AcDbAlignedDimension
 13
1396.728610438446
 23
515.2317039699808
 33
0.0000000000000000
 14
1361.668494160868
 24
485.2317039699824
 34
0.0000000000000000
 50
90.00000000000000
100
AcDbRotatedDimension
1001
ACAD
1000
DSTYLE
1002
{
1070
   173
1070
     1
1070
     6
1000
_DOT
1070
     7
1000
_OPEN
1070
    41
1040
8.000000
1070
   287
1070
     0
1002
}
  0
DIMENSION
  5
AA
100
AcDbEntity
  8
MAIN0
  6
CONTINUOUS
 62
3
100
AcDbDimension
  2
*D1
 10
1339.219426392597
 20
515.2317039699808
 30
0.0000000000000000
 11
1337.219426392597
 21
536.8159360334178
 31
0.0000000000000000
 70
160
  3
MAIN001
100
AcDbAlignedDimension
 13
1427.228610438446
 23
520.2317039699808
 33
0.0000000000000000
 14
1396.728610438446
 24
515.2317039699808
 34
0.0000000000000000
 50
90.00000000000000
100
AcDbRotatedDimension
1001
ACAD
1000
DSTYLE
1002
{
1070
   173
1070
     1
1070
     6
1000
_OPEN
1070
     7
1000
_DOT
1070
    41
1040
8.000000
1070
   287
1070
     0
1002
}
  0
DIMENSION
  5
B3
100
AcDbEntity
  8
MAIN0
  6
CONTINUOUS
 62
3
100
AcDbDimension
  2
*D2
 10
1396.728610438446
 20
390.2317039694673
 30
0.0000000000000000
 11
1432.228610438446
 21
390.7317039694673
 31
0.0000000000000000
 70
32
  3
MAIN001
100
AcDbAlignedDimension
 13
1467.728610438446
 23
485.6317039699817
 33
0.0000000000000000
 14
1396.728610438446
 24
515.2317039699808
 34
0.0000000000000000
100
AcDbRotatedDimension
1001
ACAD
1000
DSTYLE
1002
{
1070
   173
1070
     1
1070
     6
1000
_OPEN
1070
     7
1000
_OPEN
1070
    41
1040
8.000000
1002
}
  0
DIMENSION
  5
BC
100
AcDbEntity
  8
MAIN0
  6
CONTINUOUS
 62
3
100
AcDbDimension
  2
*D3
 10
1467.728610438446
 20
390.2317039694673
 30
0.0000000000000000
 11
1530.728610438447
 21
390.7317039694673
 31
0.0000000000000000
 70
32
  3
MAIN001
100
AcDbAlignedDimension
 13
1593.728610438447
 23
485.6317039699808
 33
0.0000000000000000
 14
1467.728610438446
 24
485.6317039699817
 34
0.0000000000000000
100
AcDbRotatedDimension
1001
ACAD
1000
DSTYLE
1002
{
1070
   173
1070
     1
1070
     6
1000
_OPEN
1070
     7
1000
_OPEN
1070
    41
1040
8.000000
1002
}
  0
INSERT
  5
C4
100
AcDbEntity
  8
MAIN0
  6
CONTINUOUS
 62
3
100
AcDbBlockReference
  2
D4
 10
1530.728610438447
 20
475.2317039699813
 30
0.0000000000000000
 50
0.0000000000000000
  0
DIMENSION
  5
CD
100
AcDbEntity
  8
MAIN0
  6
CONTINUOUS
 62
3
100
AcDbDimension
  2
*D5
 10
1602.728610438403
 20
666.8883949900476
 30
0.0000000000000000
 11
1530.728610438403
 21
667.3883949900476
 31
0.0000000000000000
 70
32
  3
MAIN001
100
AcDbAlignedDimension
 13
1458.728610438402
 23
610.4317039669218
 33
0.0000000000000000
 14
1602.728610438403
 24
610.4317039669218
 34
0.0000000000000000
100
AcDbRotatedDimension
1001
ACAD
1000
DSTYLE
1002
{
1070
   173
1070
     1
1070
     6
1000
_OPEN
1070
     7
1000
_OPEN
1070
    41
1040
8.000000
1002
}
  0
DIMENSION
  5
D8
100
AcDbEntity
  8
MAIN0
  6
CONTINUOUS
 62
3
100
AcDbDimension
  2
*D6
 10
292.3801964320845
 20
485.2317039696247
 30
0.0000000000000000
 11
291.8801964320845
 21
495.7317039696246
 31
0.0000000000000000
 70
32
  3
MAIN001
100
AcDbAlignedDimension
 13
242.8689942345569
 23
506.2317039696245
 33
0.0000000000000000
 14
243.4689942345569
 24
485.2317039696246
 34
0.0000000000000000
 50
90.00000000000000
100
AcDbRotatedDimension
1001
ACAD
1000
DSTYLE
1002
{
1070
   173
1070
     1
1070
     6
1000
_OPEN
1070
     7
1000
_OPEN
1070
    41
1040
8.000000
1070
   287
1070
     0
1002
}
  0
DIMENSION
  5
E1
100
AcDbEntity
  8
MAIN0
  6
CONTINUOUS
 62
3
100
AcDbDimension
  2
*D7
 10
292.3801964320845
 20
506.2317039696245
 30
0.0000000000000000
 11
291.8801964320845
 21
526.2317039696245
 31
0.0000000000000000
 70
32
  3
MAIN001
100
AcDbAlignedDimension
 13
242.8689942345573
 23
546.2317039696246
 33
0.0000000000000000
 14
242.8689942345569
 24
506.2317039696245
 34
0.0000000000000000
 50
90.00000000000000
100
AcDbRotatedDimension
1001
ACAD
1000
DSTYLE
1002
{
1070
   173
1070
     1
1070
     6
1000
_OPEN
1070
     7
1000
_OPEN
1070
    41
1040
8.000000
1002
}
  0
DIMENSION
  5
EC
100
AcDbEntity
  8
MAIN0
  6
CONTINUOUS
 62
3
100
AcDbDimension
  2
*D8
 10
292.3801964320845
 20
546.2317039696246
 30
0.0000000000000000
 11
291.8801964320845
 21
558.2317039696247
 31
0.0000000000000000
 70
32
  3
MAIN001
100
AcDbAlignedDimension
 13
242.3689942345571
 23
570.2317039696250
 33
0.0000000000000000
 14
242.8689942345573
 24
546.2317039696246
 34
0.0000000000000000
 50
90.00000000000000
100
AcDbRotatedDimension
1001
ACAD
1000
DSTYLE
1002
{
1070
   173
1070
     1
1070
     6
1000
_OPEN
1070
     7
1000
_OPEN
1070
    41
1040
8.000000
1070
   287
1070
     0
1002
}
  0
DIMENSION
  5
F6
100
AcDbEntity
  8
MAIN0
  6
CONTINUOUS
 62
3
100
AcDbDimension
  2
*D9
 10
237.8689942345571
 20
518.6777080936813
 30
0.0000000000000000
 11
259.8696835942873
 21
520.6777080936813
 31
0.0000000000000000
 70
160
  3
MAIN001
100
AcDbAlignedDimension
 13
243.8689942345565
 23
505.2317039696243
 33
0.0000000000000000
 14
237.8689942345571
 24
506.2317039696247
 34
0.0000000000000000
100
AcDbRotatedDimension
1001
ACAD
1000
DSTYLE
1002
{
1070
   173
1070
     1
1070
     6
1000
_OPEN
1070
     7
1000
_OPEN
1070
    41
1040
8.000000
1070
   287
1070
     0
1002
}
  0
LINE
  5
F7
100
AcDbEntity
  8
MAIN0
  6
CONTINUOUS
 62
3
100
AcDbLine
 10
1033.497372713261
 20
500.2317039651896
 30
0.0000000000000000
 11
1035.840518465443
 21
500.2317039651711
 31
0.0000000000000000
  0
LINE
  5
F8
100
AcDbEntity
  8
MAIN0
  6
CONTINUOUS
 62
3
100
AcDbLine
 10
1035.840518465443
 20
500.2317039651707
 30
0.0000000000000000
 11
1036.840518465446
 21
501.2317039651629
 31
0.0000000000000000
  0
ARC
  5
F9
100
AcDbEntity
  8
MAIN0
  6
CONTINUOUS
 62
3
100
AcDbCircle
 10
1033.497372713237
 20
497.2317039651896
 30
0.0000000000000000
 40
3.000000000000000
100
AcDbArc
 50
90.00000000000000
 51
160.5287793198392
  0
ARC
  5
FA
100
AcDbEntity
  8
MAIN0
  6
CONTINUOUS
 62
3
100
AcDbCircle
 10
1027.840518465339
 20
499.2317039696986
 30
0.0000000000000000
 40
3.000000000000000
100
AcDbArc
 50
270.0000000000000
 51
340.5287793198402
  0
DIMENSION
  5
103
100
AcDbEntity
  8
MAIN0
  6
CONTINUOUS
 62
3
100
AcDbDimension
  2
*D10
 10
1146.124738257235
 20
788.6833151136104
 30
0.0000000000000000
 11
1204.624738257223
 21
789.1833151136104
 31
0.0000000000000000
 70
32
  3
MAIN001
100
AcDbAlignedDimension
 13
1263.124738257211
 23
715.2316823883115
 33
0.0000000000000000
 14
1146.124738257235
 24
541.6316823883115
 34
0.0000000000000000
100
AcDbRotatedDimension
1001
ACAD
1000
DSTYLE
1002
{
1070
   173
1070
     1
1070
     6
1000
_OPEN
1070
     7
1000
_OPEN
1070
    41
1040
8.000000
1002
}
  0
DIMENSION
  5
10D
100
AcDbEntity
  8
MAIN0
  6
CONTINUOUS
 62
3
100
AcDbDimension
  2
*D11
 10
1146.124738257235
 20
759.8722075917049
 30
0.0000000000000000
 11
1125.633346086658
 21
761.8722075917049
 31
0.0000000000000000
 70
160
  3
MAIN001
100
AcDbAlignedDimension
 13
1161.124738257236
 23
545.2316823883114
 33
0.0000000000000000
 14
1146.124738257235
 24
541.6316823883115
 34
0.0000000000000000
100
AcDbRotatedDimension
1001
ACAD
1000
DSTYLE
1002
{
1070
   173
1070
     1
1070
     6
1000
_DOT
1070
     7
1000
_OPEN
1070
    41
1040
8.000000
1070
   287
1070
     0
1002
}
  0
DIMENSION
  5
117
100
AcDbEntity
  8
MAIN0
  6
CONTINUOUS
 62
3
100
AcDbDimension
  2
*D12
 10
1161.124738257235
 20
759.8722075917049
 30
0.0000000000000000
 11
1176.124738257226
 21
760.3722075917049
 31
0.0000000000000000
 70
32
  3
MAIN001
100
AcDbAlignedDimension
 13
1191.124738257217
 23
705.7316823883111
 33
0.0000000000000000
 14
1161.124738257236
 24
545.2316823883114
 34
0.0000000000000000
100
AcDbRotatedDimension
1001
ACAD
1000
DSTYLE
1002
{
1070
   173
1070
     1
1070
     6
1000
_OPEN
1070
     7
1000
_DOT
1070
    41
1040
8.000000
1070
   287
1070
     0
1002
}
  0
DIMENSION
  5
120
100
AcDbEntity
  8
MAIN0
  6
CONTINUOUS
 62
3
100
AcDbDimension
  2
*D13
 10
1191.124738257217
 20
759.8722075917049
 30
0.0000000000000000
 11
1227.124738257214
 21
760.3722075917049
 31
0.0000000000000000
 70
32
  3
MAIN001
100
AcDbAlignedDimension
 13
1263.124738257211
 23
715.2316823883115
 33
0.0000000000000000
 14
1191.124738257217
 24
705.7316823883111
 34
0.0000000000000000
100
AcDbRotatedDimension
1001
ACAD
1000
DSTYLE
1002
{
1070
   173
1070
     1
1070
     6
1000
_OPEN
1070
     7
1000
_OPEN
1070
    41
1040
8.000000
1002
}
  0
DIMENSION
  5
129
100
AcDbEntity
  8
MAIN0
  6
CONTINUOUS
 62
3
100
AcDbDimension
  2
*D14
 10
1116.878548823926
 20
715.2316823883111
 30
0.0000000000000000
 11
1116.378548823926
 21
625.2316823883111
 31
0.0000000000000000
 70
32
  3
MAIN001
100
AcDbAlignedDimension
 13
1141.124738257234
 23
535.2316823883112
 33
0.0000000000000000
 14
1179.124738257226
 24
715.2316823883111
 34
0.0000000000000000
 50
90.00000000000000
100
AcDbRotatedDimension
1001
ACAD
1000
DSTYLE
1002
{
1070
   173
1070
     1
1070
     6
1000
_OPEN
1070
     7
1000
_OPEN
1070
    41
1040
8.000000
1002
}
  0
DIMENSION
  5
132
100
AcDbEntity
  8
MAIN0
  6
CONTINUOUS
 62
3
100
AcDbDimension
  2
*D15
 10
1116.878548823926
 20
535.2316823883112
 30
0.0000000000000000
 11
1116.378548823926
 21
510.2316931791825
 31
0.0000000000000000
 70
32
  3
MAIN001
100
AcDbAlignedDimension
 13
995.4405184654190
 23
485.2317039700538
 33
0.0000000000000000
 14
1141.124738257234
 24
535.2316823883112
 34
0.0000000000000000
 50
90.00000000000000
100
AcDbRotatedDimension
1001
ACAD
1000
DSTYLE
1002
{
1070
   173
1070
     1
1070
     6
1000
_OPEN
1070
     7
1000
_OPEN
1070
    41
1040
8.000000
1002
}
  0
LINE
  5
133
100
AcDbEntity
  8
MAIN0
  6
CONTINUOUS
 62
3
100
AcDbLine
 10
1004.340518465702
 20
554.2317039685116
 30
0.0000000000000000
 11
1030.840518465704
 21
554.2317039685235
 31
0.0000000000000000
  0
LINE
  5
134
100
AcDbEntity
  8
MAIN0
  6
CONTINUOUS
 62
3
100
AcDbLine
 10
1004.340518465669
 20
546.2317039703743
 30
0.0000000000000000
 11
1030.840518465671
 21
546.2317039703861
 31
0.0000000000000000
  0
LINE
  5
135
100
AcDbEntity
  8
MAIN0
  6
CONTINUOUS
 62
3
100
AcDbLine
 10
1004.340518465768
 20
570.2317039700716
 30
0.0000000000000000
 11
1036.840518465498
 21
570.2317039704475
 31
0.0000000000000000
  0
LINE
  5
136
100
AcDbEntity
  8
MAIN0
  6
CONTINUOUS
 62
3
100
AcDbLine
 10
1036.840518465498
 20
570.2317039682245
 30
0.0000000000000000
 11
1061.240518465484
 21
570.2317039683130
 31
0.0000000000000000
  0
LINE
  5
137
100
AcDbEntity
  8
MAIN0
  6
CONTINUOUS
 62
3
100
AcDbLine
 10
1061.240518465498
 20
570.2317039682994
 30
0.0000000000000000
 11
1061.840518465499
 21
569.6317039683020
 31
0.0000000000000000
  0
LINE
  5
138
100
AcDbEntity
  8
MAIN0
  6
CONTINUOUS
 62
3
100
AcDbLine
 10
973.8405184655225
 20
864.2387967092836
 30
0.0000000000000000
 11
973.8405184658212
 21
999.2387967092836
 31
0.0000000000000000
  0
LINE
  5
139
100
AcDbEntity
  8
MAIN0
  6
CONTINUOUS
 62
3
100
AcDbLine
 10
960.8405184657621
 20
999.2387967092355
 30
0.0000000000000000
 11
973.8405184658213
 21
999.2387967092268
 31
0.0000000000000000
  0
LINE
  5
13A
100
AcDbEntity
  8
MAIN0
  6
CONTINUOUS
 62
3
100
AcDbLine
 10
960.8405184654697
 20
864.2387967092357
 30
0.0000000000000000
 11
973.8405184655226
 21
864.2387967092269
 31
0.0000000000000000
  0
LINE
  5
13B
100
AcDbEntity
  8
MAIN0
  6
CONTINUOUS
 62
3
100
AcDbLine
 10
960.8405184654664
 20
862.7387967092424
 30
0.0000000000000000
 11
960.8405184657653
 21
1000.738796709242
 31
0.0000000000000000
  0
LINE
  5
13C
100
AcDbEntity
  8
MAIN0
  6
CONTINUOUS
 62
3
100
AcDbLine
 10
945.8405184658213
 20
1000.738796709246
 30
0.0000000000000000
 11
960.8405184657653
 21
1000.738796709236
 31
0.0000000000000000
  0
LINE
  5
13D
100
AcDbEntity
  8
MAIN0
  6
CONTINUOUS
 62
3
100
AcDbLine
 10
945.8405184655223
 20
862.7387967092459
 30
0.0000000000000000
 11
960.8405184654664
 21
862.7387967092357
 31
0.0000000000000000
  0
LINE
  5
13E
100
AcDbEntity
  8
MAIN0
  6
CONTINUOUS
 62
3
100
AcDbLine
 10
1004.340518465660
 20
543.9317039700717
 30
0.0000000000000000
 11
1004.340518465773
 21
571.4317039700718
 31
0.0000000000000000
  0
LINE
  5
13F
100
AcDbEntity
  8
MAIN0
  6
CONTINUOUS
 62
3
100
AcDbLine
 10
983.8405184662577
 20
571.4317039698345
 30
0.0000000000000000
 11
1004.340518465773
 21
571.4317039700716
 31
0.0000000000000000
  0
LINE
  5
140
100
AcDbEntity
  8
MAIN0
  6
CONTINUOUS
 62
3
100
AcDbLine
 10
983.8405184663039
 20
541.9317039698345
 30
0.0000000000000000
 11
983.8405184662486
 21
577.2317039698348
 31
0.0000000000000000
  0
LINE
  5
141
100
AcDbEntity
  8
MAIN0
  6
CONTINUOUS
 62
3
100
AcDbLine
 10
983.8405184665755
 20
543.9317039698345
 30
0.0000000000000000
 11
1004.340518466091
 21
543.9317039700716
 31
0.0000000000000000
  0
LINE
  5
142
100
AcDbEntity
  8
MAIN0
  6
CONTINUOUS
 62
3
100
AcDbLine
 10
973.8405184652395
 20
541.9317039697189
 30
0.0000000000000000
 11
983.8405184663038
 21
541.9317039698345
 31
0.0000000000000000
  0
LINE
  5
143
100
AcDbEntity
  8
MAIN0
  6
CONTINUOUS
 62
3
100
AcDbLine
 10
973.8405184652396
 20
579.4317039697190
 30
0.0000000000000000
 11
981.6405184662673
 21
579.4317039698092
 31
0.0000000000000000
  0
ARC
  5
144
100
AcDbEntity
  8
MAIN0
  6
CONTINUOUS
 62
3
100
AcDbCircle
 10
981.6405184662451
 20
577.2317039698348
 30
0.0000000000000000
 40
2.200000000000000
100
AcDbArc
 50
0.0000000000000000
 51
89.99999999942553
  0
LINE
  5
145
100
AcDbEntity
  8
MAIN0
  6
CONTINUOUS
 62
3
100
AcDbLine
 10
960.8405184652396
 20
539.9317039695687
 30
0.0000000000000000
 11
973.8405184652395
 21
539.9317039697190
 31
0.0000000000000000
  0
LINE
  5
146
100
AcDbEntity
  8
MAIN0
  6
CONTINUOUS
 62
3
100
AcDbLine
 10
960.8405184652397
 20
587.4317039695687
 30
0.0000000000000000
 11
971.6405184652365
 21
587.4317039696936
 31
0.0000000000000000
  0
ARC
  5
147
100
AcDbEntity
  8
MAIN0
  6
CONTINUOUS
 62
3
100
AcDbCircle
 10
971.6405184652144
 20
585.2317039697192
 30
0.0000000000000000
 40
2.200000000000000
100
AcDbArc
 50
0.0000000000000000
 51
89.99999999942553
  0
LINE
  5
148
100
AcDbEntity
  8
MAIN0
  6
CONTINUOUS
 62
3
100
AcDbLine
 10
973.8405184652888
 20
539.9317039697190
 30
0.0000000000000000
 11
973.8405184652178
 21
585.2317039697193
 31
0.0000000000000000
  0
LINE
  5
149
100
AcDbEntity
  8
MAIN0
  6
CONTINUOUS
 62
3
100
AcDbLine
 10
945.8405184654868
 20
537.9317039693952
 30
0.0000000000000000
 11
960.8405184652396
 21
537.9317039695686
 31
0.0000000000000000
  0
LINE
  5
14A
100
AcDbEntity
  8
MAIN0
  6
CONTINUOUS
 62
3
100
AcDbLine
 10
945.8405184653966
 20
595.4317039693952
 30
0.0000000000000000
 11
958.6405184652365
 21
595.4317039695433
 31
0.0000000000000000
  0
ARC
  5
14B
100
AcDbEntity
  8
MAIN0
  6
CONTINUOUS
 62
3
100
AcDbCircle
 10
958.6405184652144
 20
593.2317039695688
 30
0.0000000000000000
 40
2.200000000000000
100
AcDbArc
 50
0.0000000000000000
 51
89.99999999942553
  0
LINE
  5
14C
100
AcDbEntity
  8
MAIN0
  6
CONTINUOUS
 62
3
100
AcDbLine
 10
960.8405184653045
 20
537.9317039695686
 30
0.0000000000000000
 11
960.8405184652178
 21
593.2317039695689
 31
0.0000000000000000
  0
LINE
  5
14D
100
AcDbEntity
  8
MAIN0
  6
CONTINUOUS
 62
3
100
AcDbLine
 10
927.8405184653382
 20
603.4317039691871
 30
0.0000000000000000
 11
943.6405184654063
 21
603.4317039693698
 31
0.0000000000000000
  0
ARC
  5
14E
100
AcDbEntity
  8
MAIN0
  6
CONTINUOUS
 62
3
100
AcDbCircle
 10
943.6405184653843
 20
601.2317039693954
 30
0.0000000000000000
 40
2.200000000000000
100
AcDbArc
 50
0.0000000000000000
 51
89.99999999942553
  0
LINE
  5
14F
100
AcDbEntity
  8
MAIN0
  6
CONTINUOUS
 62
3
100
AcDbLine
 10
945.8405184654901
 20
535.9317039693952
 30
0.0000000000000000
 11
945.8405184653876
 21
601.2317039693954
 31
0.0000000000000000
  0
LINE
  5
150
100
AcDbEntity
  8
MAIN0
  6
CONTINUOUS
 62
3
100
AcDbLine
 10
925.8405184653385
 20
535.9317039691639
 30
0.0000000000000000
 11
945.8405184654899
 21
535.9317039693951
 31
0.0000000000000000
  0
DIMENSION
  5
159
100
AcDbEntity
  8
MAIN0
  6
CONTINUOUS
 62
3
100
AcDbDimension
  2
*D16
 10
400.8405184652395
 20
300.2317039694673
 30
0.0000000000000000
 11
802.0437823036868
 21
302.2317039694673
 31
0.0000000000000000
 70
160
  3
MAIN001
100
AcDbAlignedDimension
 13
1080.840518465625
 23
510.4817039681078
 33
0.0000000000000000
 14
400.8405184652395
 24
485.6317039695448
 34
0.0000000000000000
100
AcDbRotatedDimension
1001
ACAD
1000
DSTYLE
1002
{
1070
   173
1070
     1
1070
     6
1000
_OPEN
1070
     7
1000
_OPEN
1070
    41
1040
8.000000
1002
}
  0
DIMENSION
  5
162
100
AcDbEntity
  8
MAIN0
  6
CONTINUOUS
 62
3
100
AcDbDimension
  2
*D17
 10
400.8405184652395
 20
330.2317039694673
 30
0.0000000000000000
 11
540.8405184652722
 21
330.7317039694673
 31
0.0000000000000000
 70
32
  3
MAIN001
100
AcDbAlignedDimension
 13
680.8405184653049
 23
473.2317039697488
 33
0.0000000000000000
 14
400.8405184652395
 24
485.6317039695448
 34
0.0000000000000000
100
AcDbRotatedDimension
1001
ACAD
1000
DSTYLE
1002
{
1070
   173
1070
     1
1070
     6
1000
_OPEN
1070
     7
1000
_OPEN
1070
    41
1040
8.000000
1002
}
  0
DIMENSION
  5
16B
100
AcDbEntity
  8
MAIN0
  6
CONTINUOUS
 62
3
100
AcDbDimension
  2
*D18
 10
680.8405184653049
 20
330.2317039694673
 30
0.0000000000000000
 11
880.8405184654648
 21
330.7317039694673
 31
0.0000000000000000
 70
32
  3
MAIN001
100
AcDbAlignedDimension
 13
1080.840518465625
 23
510.4817039681078
 33
0.0000000000000000
 14
680.8405184653049
 24
473.2317039697488
 34
0.0000000000000000
100
AcDbRotatedDimension
1001
ACAD
1000
DSTYLE
1002
{
1070
   173
1070
     1
1070
     6
1000
_OPEN
1070
     7
1000
_OPEN
1070
    41
1040
8.000000
1002
}
  0
DIMENSION
  5
174
100
AcDbEntity
  8
MAIN0
  6
CONTINUOUS
 62
3
100
AcDbDimension
  2
*D19
 10
400.8405184652395
 20
360.2317039694673
 30
0.0000000000000000
 11
705.4327068560860
 21
362.2317039694673
 31
0.0000000000000000
 70
160
  3
MAIN001
100
AcDbAlignedDimension
 13
995.8405184654207
 23
485.6317039700549
 33
0.0000000000000000
 14
400.8405184652395
 24
485.6317039695448
 34
0.0000000000000000
100
AcDbRotatedDimension
1001
ACAD
1000
DSTYLE
1002
{
1070
   173
1070
     1
1070
     6
1000
_OPEN
1070
     7
1000
_OPEN
1070
    41
1040
8.000000
1002
}
  0
DIMENSION
  5
17D
100
AcDbEntity
  8
MAIN0
  6
CONTINUOUS
 62
3
100
AcDbDimension
  2
*D20
 10
995.8405184654207
 20
360.2317039694673
 30
0.0000000000000000
 11
1038.340518465523
 21
360.7317039694673
 31
0.0000000000000000
 70
32
  3
MAIN001
100
AcDbAlignedDimension
 13
1080.840518465625
 23
510.4817039681078
 33
0.0000000000000000
 14
995.8405184654207
 24
485.6317039700549
 34
0.0000000000000000
100
AcDbRotatedDimension
1001
ACAD
1000
DSTYLE
1002
{
1070
   173
1070
     1
1070
     6
1000
_OPEN
1070
     7
1000
_OPEN
1070
    41
1040
8.000000
1002
}
  0
DIMENSION
  5
186
100
AcDbEntity
  8
MAIN0
  6
CONTINUOUS
 62
3
100
AcDbDimension
  2
*D21
 10
485.8405184653357
 20
390.2317039694673
 30
0.0000000000000000
 11
583.3405184653202
 21
390.7317039694673
 31
0.0000000000000000
 70
32
  3
MAIN001
100
AcDbAlignedDimension
 13
680.8405184653049
 23
473.2317039697488
 33
0.0000000000000000
 14
485.8405184653357
 24
570.6317039695915
 34
0.0000000000000000
100
AcDbRotatedDimension
1001
ACAD
1000
DSTYLE
1002
{
1070
   173
1070
     1
1070
     6
1000
_OPEN
1070
     7
1000
_OPEN
1070
    41
1040
8.000000
1002
}
  0
DIMENSION
  5
18F
100
AcDbEntity
  8
MAIN0
  6
CONTINUOUS
 62
3
100
AcDbDimension
  2
*D22
 10
680.8405184653049
 20
390.2317039694673
 30
0.0000000000000000
 11
838.3405184653627
 21
390.7317039694673
 31
0.0000000000000000
 70
32
  3
MAIN001
100
AcDbAlignedDimension
 13
995.8405184654207
 23
485.6317039700549
 33
0.0000000000000000
 14
680.8405184653049
 24
473.2317039697488
 34
0.0000000000000000
100
AcDbRotatedDimension
1001
ACAD
1000
DSTYLE
1002
{
1070
   173
1070
     1
1070
     6
1000
_OPEN
1070
     7
1000
_OPEN
1070
    41
1040
8.000000
1002
}
  0
DIMENSION
  5
198
100
AcDbEntity
  8
MAIN0
  6
CONTINUOUS
 62
3
100
AcDbDimension
  2
*D23
 10
780.8405184667395
 20
1052.968386937943
 30
0.0000000000000000
 11
799.8405184667136
 21
1053.468386937943
 31
0.0000000000000000
 70
32
  3
MAIN001
100
AcDbAlignedDimension
 13
818.8405184666875
 23
939.7387967093057
 33
0.0000000000000000
 14
780.8405184667395
 24
993.6387967094375
 34
0.0000000000000000
100
AcDbRotatedDimension
1001
ACAD
1000
DSTYLE
1002
{
1070
   173
1070
     1
1070
     6
1000
_OPEN
1070
     7
1000
_OPEN
1070
    41
1040
8.000000
1002
}
  0
DIMENSION
  5
1A1
100
AcDbEntity
  8
MAIN0
  6
CONTINUOUS
 62
3
100
AcDbDimension
  2
*D24
 10
485.8405184655837
 20
1052.968386937943
 30
0.0000000000000000
 11
464.8405184650588
 21
1053.468386937943
 31
0.0000000000000000
 70
32
  3
MAIN001
100
AcDbAlignedDimension
 13
443.8405184645340
 23
939.7387967100692
 33
0.0000000000000000
 14
485.8405184655837
 24
993.7387967100696
 34
0.0000000000000000
100
AcDbRotatedDimension
1001
ACAD
1000
DSTYLE
1002
{
1070
   173
1070
     1
1070
     6
1000
_OPEN
1070
     7
1000
_OPEN
1070
    41
1040
8.000000
1002
}
  0
DIMENSION
  5
1AA
100
AcDbEntity
  8
MAIN0
  6
CONTINUOUS
 62
3
100
AcDbDimension
  2
*D25
 10
357.8935521001516
 20
906.7387967097280
 30
0.0000000000000000
 11
357.3935521001516
 21
931.7387967097279
 31
0.0000000000000000
 70
32
  3
MAIN001
100
AcDbAlignedDimension
 13
410.7466598724862
 23
956.7387967097279
 33
0.0000000000000000
 14
410.7466598724189
 24
906.7387967097280
 34
0.0000000000000000
 50
90.00000000000000
100
AcDbRotatedDimension
1001
ACAD
1000
DSTYLE
1002
{
1070
   173
1070
     1
1070
     6
1000
_OPEN
1070
     7
1000
_OPEN
1070
    41
1040
8.000000
1002
}
  0
DIMENSION
  5
1B3
100
AcDbEntity
  8
MAIN0
  6
CONTINUOUS
 62
3
100
AcDbDimension
  2
*D26
 10
896.0455570679217
 20
891.7387967092232
 30
0.0000000000000000
 11
895.5455570679217
 21
931.7387967092230
 31
0.0000000000000000
 70
32
  3
MAIN001
100
AcDbAlignedDimension
 13
850.3657686830557
 23
971.7387967091963
 33
0.0000000000000000
 14
850.3657686829479
 24
891.7387967091963
 34
0.0000000000000000
 50
90.00000000000000
100
AcDbRotatedDimension
1001
ACAD
1000
DSTYLE
1002
{
1070
   173
1070
     1
1070
     6
1000
_OPEN
1070
     7
1000
_OPEN
1070
    41
1040
8.000000
1002
}
  0
DIMENSION
  5
1BE
100
AcDbEntity
  8
MAIN0
  6
CONTINUOUS
 62
3
100
AcDbDimension
  2
*D27
 10
780.8405184666364
 20
825.6644003861744
 30
0.0000000000000000
 11
759.1582545604638
 21
827.6644003861744
 31
0.0000000000000000
 70
160
  3
MAIN001
100
AcDbAlignedDimension
 13
790.8405184666466
 23
882.3117542049488
 33
0.0000000000000000
 14
780.8405184666364
 24
869.8387967094783
 34
0.0000000000000000
100
AcDbRotatedDimension
1001
ACAD
1000
DSTYLE
1002
{
1070
   173
1070
     1
1070
     6
1000
_OPEN
1070
     7
1000
_OPEN
1070
    41
1040
8.000000
1070
   287
1070
     0
1002
}
  0
DIMENSION
  5
1C7
100
AcDbEntity
  8
MAIN0
  6
CONTINUOUS
 62
3
100
AcDbDimension
  2
*D28
 10
790.8405184666466
 20
825.6644003861744
 30
0.0000000000000000
 11
815.8405184666467
 21
826.1644003861744
 31
0.0000000000000000
 70
32
  3
MAIN001
100
AcDbAlignedDimension
 13
840.8405184666467
 23
882.3117542049071
 33
0.0000000000000000
 14
790.8405184666466
 24
882.3117542049488
 34
0.0000000000000000
100
AcDbRotatedDimension
1001
ACAD
1000
DSTYLE
1002
{
1070
   173
1070
     1
1070
     6
1000
_OPEN
1070
     7
1000
_OPEN
1070
    41
1040
8.000000
1002
}
  0
DIMENSION
  5
1D2
100
AcDbEntity
  8
MAIN0
  6
CONTINUOUS
 62
3
100
AcDbDimension
  2
*D29
 10
485.8405184655837
 20
825.6644003861744
 30
0.0000000000000000
 11
505.8055133122145
 21
827.6644003861744
 31
0.0000000000000000
 70
160
  3
MAIN001
100
AcDbAlignedDimension
 13
475.8405184644795
 23
898.2569448700901
 33
0.0000000000000000
 14
485.8405184655837
 24
869.7387967100696
 34
0.0000000000000000
100
AcDbRotatedDimension
1001
ACAD
1000
DSTYLE
1002
{
1070
   173
1070
     1
1070
     6
1000
_OPEN
1070
     7
1000
_OPEN
1070
    41
1040
8.000000
1070
   287
1070
     0
1002
}
  0
DIMENSION
  5
1DB
100
AcDbEntity
  8
MAIN0
  6
CONTINUOUS
 62
3
100
AcDbDimension
  2
*D30
 10
475.8405184644795
 20
825.6644003861744
 30
0.0000000000000000
 11
448.3405184644795
 21
826.1644003861744
 31
0.0000000000000000
 70
32
  3
MAIN001
100
AcDbAlignedDimension
 13
420.8405184644796
 23
898.2569448700903
 33
0.0000000000000000
 14
475.8405184644795
 24
898.2569448700901
 34
0.0000000000000000
100
AcDbRotatedDimension
1001
ACAD
1000
DSTYLE
1002
{
1070
   173
1070
     1
1070
     6
1000
_OPEN
1070
     7
1000
_OPEN
1070
    41
1040
8.000000
1002
}
  0
DIMENSION
  5
1E4
100
AcDbEntity
  8
MAIN0
  6
CONTINUOUS
 62
3
100
AcDbDimension
  2
*D31
 10
400.8405184652395
 20
420.2317039694673
 30
0.0000000000000000
 11
438.3405184652339
 21
420.7317039694673
 31
0.0000000000000000
 70
32
  3
MAIN001
100
AcDbAlignedDimension
 13
475.8405184652283
 23
518.2317039700661
 33
0.0000000000000000
 14
400.8405184652395
 24
485.6317039695448
 34
0.0000000000000000
100
AcDbRotatedDimension
1001
ACAD
1000
DSTYLE
1002
{
1070
   173
1070
     1
1070
     6
1000
_OPEN
1070
     7
1000
_OPEN
1070
    41
1040
8.000000
1002
}
  0
DIMENSION
  5
1ED
100
AcDbEntity
  8
MAIN0
  6
CONTINUOUS
 62
3
100
AcDbDimension
  2
*D32
 10
475.8405184652283
 20
420.2317039694673
 30
0.0000000000000000
 11
633.8538237312364
 21
422.2317039694673
 31
0.0000000000000000
 70
160
  3
MAIN001
100
AcDbAlignedDimension
 13
920.8405184656270
 23
518.2317039701234
 33
0.0000000000000000
 14
475.8405184652283
 24
518.2317039700661
 34
0.0000000000000000
100
AcDbRotatedDimension
1001
ACAD
1000
DSTYLE
1002
{
1070
   173
1070
     1
1070
     6
1000
_OPEN
1070
     7
1000
_OPEN
1070
    41
1040
8.000000
1002
}
  0
DIMENSION
  5
1F6
100
AcDbEntity
  8
MAIN0
  6
CONTINUOUS
 62
3
100
AcDbDimension
  2
*D33
 10
920.8405184656270
 20
420.2317039694673
 30
0.0000000000000000
 11
958.3405184656435
 21
420.7317039694673
 31
0.0000000000000000
 70
32
  3
MAIN001
100
AcDbAlignedDimension
 13
995.8405184654208
 23
485.6317039700548
 33
0.0000000000000000
 14
920.8405184656270
 24
518.2317039701234
 34
0.0000000000000000
100
AcDbRotatedDimension
1001
ACAD
1000
DSTYLE
1002
{
1070
   173
1070
     1
1070
     6
1000
_OPEN
1070
     7
1000
_OPEN
1070
    41
1040
8.000000
1002
}
  0
DIMENSION
  5
1FF
100
AcDbEntity
  8
MAIN0
  6
CONTINUOUS
 62
3
100
AcDbDimension
  2
*D34
 10
886.8877734766011
 20
570.2317039698635
 30
0.0000000000000000
 11
884.8877734766011
 21
553.1100167554561
 31
0.0000000000000000
 70
160
  3
MAIN001
100
AcDbAlignedDimension
 13
912.8405184656270
 23
526.2317039701234
 33
0.0000000000000000
 14
856.8405184653351
 24
570.2317039698635
 34
0.0000000000000000
 50
90.00000000000000
100
AcDbRotatedDimension
1001
ACAD
1000
DSTYLE
1002
{
1070
   173
1070
     1
1070
     6
1000
_OPEN
1070
     7
1000
_OPEN
1070
    41
1040
8.000000
1002
}
  0
DIMENSION
  5
207
100
AcDbEntity
  8
MAIN0
  6
CONTINUOUS
 62
3
100
AcDbDimension
  2
*D35
 10
886.8877734766011
 20
526.2317039698314
 30
0.0000000000000000
 11
886.3877734766011
 21
505.7317039697967
 31
0.0000000000000000
 70
32
  3
MAIN001
100
AcDbAlignedDimension
 13
690.4405184652920
 23
485.2317039697619
 33
0.0000000000000000
 14
912.8405184656270
 24
526.2317039701234
 34
0.0000000000000000
 50
90.00000000000000
100
AcDbRotatedDimension
1001
ACAD
1000
DSTYLE
1002
{
1070
   173
1070
     1
1070
     6
1000
_OPEN
1070
     7
1000
_OPEN
1070
    41
1040
8.000000
1002
}
  0
DIMENSION
  5
20F
100
AcDbEntity
  8
MAIN0
  6
CONTINUOUS
 62
3
100
AcDbDimension
  2
*D36
 10
827.1246119440300
 20
570.2317039698635
 30
0.0000000000000000
 11
826.6246119440300
 21
590.8317039691556
 31
0.0000000000000000
 70
32
  3
MAIN001
100
AcDbAlignedDimension
 13
858.8405184653382
 23
611.4317039684478
 33
0.0000000000000000
 14
856.8405184653351
 24
570.2317039698635
 34
0.0000000000000000
 50
90.00000000000000
100
AcDbRotatedDimension
1001
ACAD
1000
DSTYLE
1002
{
1070
   173
1070
     1
1070
     6
1000
_OPEN
1070
     7
1000
_OPEN
1070
    41
1040
8.000000
1002
}
  0
LINE
  5
210
100
AcDbEntity
  8
MAIN0
  6
CENTER
 62
3
100
AcDbLine
 10
1275.036868063224
 20
541.1819655035533
 30
0.0000000000000000
 11
1275.036868063196
 21
448.2208871228729
 31
0.0000000000000000
  0
LINE
  5
211
100
AcDbEntity
  8
MAIN0
  6
CONTINUOUS
 62
3
100
AcDbLine
 10
1252.536868063217
 20
515.2317039700297
 30
0.0000000000000000
 11
1254.208999210749
 21
485.2317039701484
 31
0.0000000000000000
  0
LINE
  5
212
100
AcDbEntity
  8
MAIN0
  6
CONTINUOUS
 62
3
100
AcDbLine
 10
1297.536868063215
 20
515.2317039700160
 30
0.0000000000000000
 11
1295.864736915665
 21
485.2317039701357
 31
0.0000000000000000
  0
LINE
  5
213
100
AcDbEntity
  8
MAIN0
  6
CONTINUOUS
 62
3
100
AcDbLine
 10
1252.536868063216
 20
515.2317039700297
 30
0.0000000000000000
 11
1297.536868063216
 21
515.2317039700159
 31
0.0000000000000000
  0
LINE
  5
214
100
AcDbEntity
  8
MAIN0
  6
CONTINUOUS
 62
3
100
AcDbLine
 10
1254.208999210748
 20
485.2317039701483
 30
0.0000000000000000
 11
1295.864736915665
 21
485.2317039701356
 31
0.0000000000000000
  0
DIMENSION
  5
21D
100
AcDbEntity
  8
MAIN0
  6
CONTINUOUS
 62
3
100
AcDbDimension
  2
*D37
 10
1252.536868063216
 20
549.0046982690702
 30
0.0000000000000000
 11
1275.036868063216
 21
549.5046982690702
 31
0.0000000000000000
 70
32
  3
MAIN001
100
AcDbAlignedDimension
 13
1297.536868063216
 23
515.2317039700157
 33
0.0000000000000000
 14
1252.536868063216
 24
515.2317039700296
 34
0.0000000000000000
100
AcDbRotatedDimension
1001
ACAD
1000
DSTYLE
1002
{
1070
   173
1070
     1
1070
     6
1000
_OPEN
1070
     7
1000
_OPEN
1070
    41
1040
8.000000
1002
}
  0
DIMENSION
  5
228
100
AcDbEntity
  8
MAIN0
  6
CONTINUOUS
 62
3
100
AcDbDimension
  2
*D38
 10
1403.175676086645
 20
333.7329293859792
 30
0.0000000000000000
 11
1402.675676086645
 21
319.4829293859793
 31
0.0000000000000000
 70
32
  3
MAIN001
100
AcDbAlignedDimension
 13
1429.728610438393
 23
305.2329293859794
 33
0.0000000000000000
 14
1429.728610438373
 24
333.7329293859792
 34
0.0000000000000000
 50
90.00000000000000
100
AcDbRotatedDimension
1001
ACAD
1000
DSTYLE
1002
{
1070
   173
1070
     1
1070
     6
1000
_OPEN
1070
     7
1000
_OPEN
1070
    41
1040
8.000000
1070
   287
1070
     0
1002
}
  0
DIMENSION
  5
233
100
AcDbEntity
  8
MAIN0
  6
CONTINUOUS
 62
3
100
AcDbDimension
  2
*D39
 10
1492.604009482530
 20
328.2329293859793
 30
0.0000000000000000
 11
1490.604009482530
 21
286.2650486237135
 31
0.0000000000000000
 70
160
  3
MAIN001
100
AcDbAlignedDimension
 13
1459.728610438389
 23
310.7329293859712
 33
0.0000000000000000
 14
1459.728610438377
 24
328.2329293859710
 34
0.0000000000000000
 50
90.00000000000000
100
AcDbRotatedDimension
1001
ACAD
1000
DSTYLE
1002
{
1070
   173
1070
     1
1070
     6
1000
_OPEN
1070
     7
1000
_OPEN
1070
    41
1040
8.000000
1070
   287
1070
     0
1002
}
  0
DIMENSION
  5
23E
100
AcDbEntity
  8
MAIN0
  6
CONTINUOUS
 62
3
100
AcDbDimension
  2
*D40
 10
1429.728610438393
 20
273.3350347743200
 30
0.0000000000000000
 11
1444.728610438393
 21
273.8350347743200
 31
0.0000000000000000
 70
32
  3
MAIN001
100
AcDbAlignedDimension
 13
1459.728610438393
 23
305.2329293859711
 33
0.0000000000000000
 14
1429.728610438393
 24
305.2329293859794
 34
0.0000000000000000
100
AcDbRotatedDimension
1001
ACAD
1000
DSTYLE
1002
{
1070
   173
1070
     1
1070
     6
1000
_OPEN
1070
     7
1000
_OPEN
1070
    41
1040
8.000000
1070
   287
1070
     0
1002
}
  0
LINE
  5
23F
100
AcDbEntity
  8
MAIN0
  6
CONTINUOUS
 62
3
100
AcDbLine
 10
400.8405184652395
 20
485.6317039695448
 30
0.0000000000000000
 11
400.8405184652210
 21
569.2317039695444
 31
0.0000000000000000
  0
LINE
  5
240
100
AcDbEntity
  8
MAIN0
  6
CONTINUOUS
 62
3
100
AcDbLine
 10
995.4405184654189
 20
485.2317039700536
 30
0.0000000000000000
 11
995.8405184654207
 21
485.6317039700542
 31
0.0000000000000000
  0
LINE
  5
241
100
AcDbEntity
  8
MAIN0
  6
CONTINUOUS
 62
3
100
AcDbLine
 10
400.8405184652211
 20
569.2317039695453
 30
0.0000000000000000
 11
401.8405184652208
 21
570.2317039695466
 31
0.0000000000000000
  0
LINE
  5
242
100
AcDbEntity
  8
MAIN0
  6
CONTINUOUS
 62
3
100
AcDbLine
 10
400.8405184652397
 20
485.6317039695446
 30
0.0000000000000000
 11
401.2405184652396
 21
485.2317039695453
 31
0.0000000000000000
  0
LINE
  5
243
100
AcDbEntity
  8
MAIN0
  6
CONTINUOUS
 62
3
100
AcDbLine
 10
689.8405184653049
 20
490.2317039697486
 30
0.0000000000000000
 11
671.8405184653049
 21
490.2317039697486
 31
0.0000000000000000
  0
LINE
  5
244
100
AcDbEntity
  8
MAIN0
  6
CONTINUOUS
 62
3
100
AcDbLine
 10
689.8405184653049
 20
480.2317039697486
 30
0.0000000000000000
 11
671.8405184653049
 21
480.2317039697486
 31
0.0000000000000000
  0
LINE
  5
245
100
AcDbEntity
  8
MAIN0
  6
CONTINUOUS
 62
3
100
AcDbLine
 10
671.8405184653045
 20
485.8317039697483
 30
0.0000000000000000
 11
671.2405184653048
 21
485.2317039697488
 31
0.0000000000000000
  0
LINE
  5
246
100
AcDbEntity
  8
MAIN0
  6
CONTINUOUS
 62
3
100
AcDbLine
 10
689.8405184653045
 20
485.8317039697489
 30
0.0000000000000000
 11
690.4405184653048
 21
485.2317039697488
 31
0.0000000000000000
  0
LINE
  5
247
100
AcDbEntity
  8
MAIN0
  6
CENTER
 62
3
100
AcDbLine
 10
680.8405184653049
 20
497.2317039697486
 30
0.0000000000000000
 11
680.8405184653049
 21
473.2317039697488
 31
0.0000000000000000
  0
LINE
  5
248
100
AcDbEntity
  8
MAIN0
  6
CONTINUOUS
 62
3
100
AcDbLine
 10
401.2405184653173
 20
485.2317039694677
 30
0.0000000000000000
 11
671.2405184652915
 21
485.2317039697352
 31
0.0000000000000000
  0
LINE
  5
249
100
AcDbEntity
  8
MAIN0
  6
CONTINUOUS
 62
3
100
AcDbLine
 10
690.4405184652920
 20
485.2317039697619
 30
0.0000000000000000
 11
995.4405184654190
 21
485.2317039700539
 31
0.0000000000000000
  0
LINE
  5
24A
100
AcDbEntity
  8
MAIN0
  6
CONTINUOUS
 62
3
100
AcDbLine
 10
995.8405184654811
 20
496.2317039700541
 30
0.0000000000000000
 11
1027.840518465481
 21
496.2317039700976
 31
0.0000000000000000
  0
LINE
  5
24B
100
AcDbEntity
  8
MAIN0
  6
CONTINUOUS
 62
3
100
AcDbLine
 10
485.8405184653359
 20
570.6317039696617
 30
0.0000000000000000
 11
486.2405184653358
 21
570.2317039696618
 31
0.0000000000000000
  0
LINE
  5
24C
100
AcDbEntity
  8
MAIN0
  6
CONTINUOUS
 62
3
100
AcDbLine
 10
780.8405184653358
 20
570.2317039696594
 30
0.0000000000000000
 11
780.8405184653357
 21
620.0317039696619
 31
0.0000000000000000
  0
LINE
  5
24D
100
AcDbEntity
  8
MAIN0
  6
CONTINUOUS
 62
3
100
AcDbLine
 10
856.3405184653358
 20
620.2317039696618
 30
0.0000000000000000
 11
781.0405184653358
 21
620.2317039696618
 31
0.0000000000000000
  0
LINE
  5
24E
100
AcDbEntity
  8
MAIN0
  6
CONTINUOUS
 62
3
100
AcDbLine
 10
856.8405184653356
 20
570.2317039698634
 30
0.0000000000000000
 11
856.8405184653354
 21
619.7317039696619
 31
0.0000000000000000
  0
LINE
  5
24F
100
AcDbEntity
  8
MAIN0
  6
CONTINUOUS
 62
3
100
AcDbLine
 10
780.8405184653358
 20
620.0317039696619
 30
0.0000000000000000
 11
781.0405184653357
 21
620.2317039696619
 31
0.0000000000000000
  0
LINE
  5
250
100
AcDbEntity
  8
MAIN0
  6
CONTINUOUS
 62
3
100
AcDbLine
 10
856.3405184653353
 20
620.2317039696617
 30
0.0000000000000000
 11
856.8405184653354
 21
619.7317039696616
 31
0.0000000000000000
  0
LINE
  5
251
100
AcDbEntity
  8
MAIN0
  6
CONTINUOUS
 62
3
100
AcDbLine
 10
1080.840518465624
 20
559.9817039681079
 30
0.0000000000000000
 11
1061.840518465534
 21
559.9817039681079
 31
0.0000000000000000
  0
LINE
  5
252
100
AcDbEntity
  8
MAIN0
  6
CONTINUOUS
 62
3
100
AcDbLine
 10
1080.840518465624
 20
510.4817039681079
 30
0.0000000000000000
 11
1061.840518465716
 21
510.4817039681079
 31
0.0000000000000000
  0
LINE
  5
253
100
AcDbEntity
  8
MAIN0
  6
CONTINUOUS
 62
3
100
AcDbLine
 10
1080.840518465625
 20
559.9817039681078
 30
0.0000000000000000
 11
1080.840518465625
 21
510.4817039681078
 31
0.0000000000000000
  0
LINE
  5
254
100
AcDbEntity
  8
MAIN0
  6
CONTINUOUS
 62
3
100
AcDbLine
 10
1036.840518465740
 20
503.6317039682231
 30
0.0000000000000000
 11
1036.840518465727
 21
507.2317039682243
 31
0.0000000000000000
  0
LINE
  5
255
100
AcDbEntity
  8
MAIN0
  6
CONTINUOUS
 62
3
100
AcDbLine
 10
1036.840518465740
 20
503.6317039682230
 30
0.0000000000000000
 11
1037.240518465741
 21
503.2317039682251
 31
0.0000000000000000
  0
LINE
  5
256
100
AcDbEntity
  8
MAIN0
  6
CONTINUOUS
 62
3
100
AcDbLine
 10
1061.240518465741
 20
503.2317039682992
 30
0.0000000000000000
 11
1061.840518465739
 21
503.8317039683015
 31
0.0000000000000000
  0
LINE
  5
257
100
AcDbEntity
  8
MAIN0
  6
CONTINUOUS
 62
3
100
AcDbLine
 10
1037.240518465741
 20
503.2317039682249
 30
0.0000000000000000
 11
1061.240518465753
 21
503.2317039683121
 31
0.0000000000000000
  0
LINE
  5
258
100
AcDbEntity
  8
MAIN0
  6
CONTINUOUS
 62
3
100
AcDbLine
 10
401.8405184653361
 20
570.6317039695916
 30
0.0000000000000000
 11
402.2405184653360
 21
570.2317039695918
 31
0.0000000000000000
  0
LINE
  5
259
100
AcDbEntity
  8
MAIN0
  6
CONTINUOUS
 62
3
100
AcDbLine
 10
401.8405184653358
 20
570.6317039695917
 30
0.0000000000000000
 11
401.8405184653357
 21
620.0317039695914
 31
0.0000000000000000
  0
LINE
  5
25A
100
AcDbEntity
  8
MAIN0
  6
CONTINUOUS
 62
3
100
AcDbLine
 10
485.8405184653355
 20
619.7317039695919
 30
0.0000000000000000
 11
485.8405184653356
 21
570.6317039695915
 31
0.0000000000000000
  0
LINE
  5
25B
100
AcDbEntity
  8
MAIN0
  6
CONTINUOUS
 62
3
100
AcDbLine
 10
485.3405184653356
 20
620.2317039695918
 30
0.0000000000000000
 11
402.0405184653357
 21
620.2317039695918
 31
0.0000000000000000
  0
LINE
  5
25C
100
AcDbEntity
  8
MAIN0
  6
CONTINUOUS
 62
3
100
AcDbLine
 10
401.8405184653360
 20
570.6317039695919
 30
0.0000000000000000
 11
402.2405184653363
 21
570.2317039695917
 31
0.0000000000000000
  0
LINE
  5
25D
100
AcDbEntity
  8
MAIN0
  6
CONTINUOUS
 62
3
100
AcDbLine
 10
485.4405184653361
 20
570.2317039695918
 30
0.0000000000000000
 11
485.8405184653361
 21
570.6317039695917
 31
0.0000000000000000
  0
LINE
  5
25E
100
AcDbEntity
  8
MAIN0
  6
CONTINUOUS
 62
3
100
AcDbLine
 10
401.8405184653356
 20
620.0317039695919
 30
0.0000000000000000
 11
402.0405184653356
 21
620.2317039695921
 31
0.0000000000000000
  0
LINE
  5
25F
100
AcDbEntity
  8
MAIN0
  6
CONTINUOUS
 62
3
100
AcDbLine
 10
485.3405184653354
 20
620.2317039695913
 30
0.0000000000000000
 11
485.8405184653355
 21
619.7317039695913
 31
0.0000000000000000
  0
LINE
  5
260
100
AcDbEntity
  8
MAIN0
  6
CONTINUOUS
 62
3
100
AcDbLine
 10
401.8405184652661
 20
570.2317039695918
 30
0.0000000000000000
 11
434.8405184653338
 21
570.2317039695918
 31
0.0000000000000000
  0
LINE
  5
261
100
AcDbEntity
  8
MAIN0
  6
CONTINUOUS
 62
3
100
AcDbLine
 10
856.8405184653358
 20
546.2317039699476
 30
0.0000000000000000
 11
856.8405184653358
 21
601.9317039697498
 31
0.0000000000000000
  0
LINE
  5
262
100
AcDbEntity
  8
MAIN0
  6
CONTINUOUS
 62
3
100
AcDbLine
 10
995.8405184654207
 20
485.6317039700550
 30
0.0000000000000000
 11
995.8405184656599
 21
543.9317039699733
 31
0.0000000000000000
  0
LINE
  5
263
100
AcDbEntity
  8
MAIN0
  6
CONTINUOUS
 62
3
100
AcDbLine
 10
1061.840518465739
 20
503.8317039683027
 30
0.0000000000000000
 11
1061.840518465500
 21
569.6317039683015
 31
0.0000000000000000
  0
LINE
  5
264
100
AcDbEntity
  8
MAIN0
  6
CONTINUOUS
 62
3
100
AcDbLine
 10
1036.840518465921
 20
501.2317039651630
 30
0.0000000000000000
 11
1036.840518465478
 21
570.2317039682245
 31
0.0000000000000000
  0
LINE
  5
265
100
AcDbEntity
  8
MAIN0
  6
CENTER
 62
3
100
AcDbLine
 10
1090.840518465625
 20
535.2317039681084
 30
0.0000000000000000
 11
1010.840518465625
 21
535.2317039681084
 31
0.0000000000000000
  0
LINE
  5
266
100
AcDbEntity
  8
MAIN0
  6
CONTINUOUS
 62
3
100
AcDbLine
 10
1049.840518465662
 20
503.2317039682704
 30
0.0000000000000000
 11
1049.840518465726
 21
570.2317039682716
 31
0.0000000000000000
  0
LINE
  5
267
100
AcDbEntity
  8
MAIN0
  6
CONTINUOUS
 62
3
100
AcDbLine
 10
1051.840518465647
 20
503.2317039682779
 30
0.0000000000000000
 11
1051.840518465856
 21
570.2317039682788
 31
0.0000000000000000
  0
LINE
  5
268
100
AcDbEntity
  8
MAIN0
  6
CONTINUOUS
 62
3
100
AcDbLine
 10
1030.840518465477
 20
499.2317039700851
 30
0.0000000000000000
 11
1030.840518465769
 21
570.2317039682026
 31
0.0000000000000000
  0
LINE
  5
269
100
AcDbEntity
  8
MAIN0
  6
CONTINUOUS
 62
3
100
AcDbLine
 10
434.8405184653392
 20
563.2317039695920
 30
0.0000000000000000
 11
434.8405184653338
 21
570.2317039695920
 31
0.0000000000000000
  0
LINE
  5
26A
100
AcDbEntity
  8
MAIN0
  6
CONTINUOUS
 62
3
100
AcDbLine
 10
452.8405184653407
 20
563.2317039696168
 30
0.0000000000000000
 11
452.8405184653354
 21
570.2317039696177
 31
0.0000000000000000
  0
LINE
  5
26B
100
AcDbEntity
  8
MAIN0
  6
CONTINUOUS
 62
3
100
AcDbLine
 10
434.8405184653391
 20
563.2317039695922
 30
0.0000000000000000
 11
452.8405184653407
 21
563.2317039696170
 31
0.0000000000000000
  0
LINE
  5
26C
100
AcDbEntity
  8
MAIN0
  6
CONTINUOUS
 62
3
100
AcDbLine
 10
434.8405184653385
 20
564.2317039695922
 30
0.0000000000000000
 11
452.8405184653400
 21
564.2317039696170
 31
0.0000000000000000
  0
LINE
  5
26D
100
AcDbEntity
  8
MAIN0
  6
CONTINUOUS
 62
3
100
AcDbLine
 10
452.8405184653354
 20
570.2317039695427
 30
0.0000000000000000
 11
856.8405184653351
 21
570.2317039698635
 31
0.0000000000000000
  0
CIRCLE
  5
26E
100
AcDbEntity
  8
MAIN0
  6
CONTINUOUS
 62
3
100
AcDbCircle
 10
920.8405184656270
 20
526.2317039701234
 30
0.0000000000000000
 40
5.000000000000000
  0
CIRCLE
  5
26F
100
AcDbEntity
  8
MAIN0
  6
CONTINUOUS
 62
3
100
AcDbCircle
 10
920.8405184656270
 20
526.2317039701234
 30
0.0000000000000000
 40
4.250000000000000
  0
LINE
  5
270
100
AcDbEntity
  8
MAIN0
  6
CENTER
 62
3
100
AcDbLine
 10
920.8405184656270
 20
534.2317039701234
 30
0.0000000000000000
 11
920.8405184656270
 21
518.2317039701234
 31
0.0000000000000000
  0
LINE
  5
271
100
AcDbEntity
  8
MAIN0
  6
CENTER
 62
3
100
AcDbLine
 10
928.8405184656270
 20
526.2317039701234
 30
0.0000000000000000
 11
912.8405184656270
 21
526.2317039701234
 31
0.0000000000000000
  0
CIRCLE
  5
272
100
AcDbEntity
  8
MAIN0
  6
CONTINUOUS
 62
3
100
AcDbCircle
 10
475.8405184652283
 20
526.2317039700661
 30
0.0000000000000000
 40
5.000000000000000
  0
CIRCLE
  5
273
100
AcDbEntity
  8
MAIN0
  6
CONTINUOUS
 62
3
100
AcDbCircle
 10
475.8405184652283
 20
526.2317039700661
 30
0.0000000000000000
 40
4.250000000000000
  0
LINE
  5
274
100
AcDbEntity
  8
MAIN0
  6
CENTER
 62
3
100
AcDbLine
 10
475.8405184652283
 20
534.2317039700661
 30
0.0000000000000000
 11
475.8405184652283
 21
518.2317039700661
 31
0.0000000000000000
  0
LINE
  5
275
100
AcDbEntity
  8
MAIN0
  6
CENTER
 62
3
100
AcDbLine
 10
483.8405184652283
 20
526.2317039700661
 30
0.0000000000000000
 11
467.8405184652283
 21
526.2317039700661
 31
0.0000000000000000
  0
LINE
  5
276
100
AcDbEntity
  8
MAIN0
  6
CENTER
 62
3
100
AcDbLine
 10
450.8405184653197
 20
590.2317039695918
 30
0.0000000000000000
 11
436.8405184653197
 21
590.2317039695918
 31
0.0000000000000000
  0
LINE
  5
277
100
AcDbEntity
  8
MAIN0
  6
CENTER
 62
3
100
AcDbLine
 10
450.8405184653047
 20
610.2317039695918
 30
0.0000000000000000
 11
436.8405184653047
 21
610.2317039695918
 31
0.0000000000000000
  0
LINE
  5
278
100
AcDbEntity
  8
MAIN0
  6
CENTER
 62
3
100
AcDbLine
 10
443.8405184653186
 20
583.2317039695918
 30
0.0000000000000000
 11
443.8405184653058
 21
617.2317039695918
 31
0.0000000000000000
  0
LINE
  5
279
100
AcDbEntity
  8
MAIN0
  6
CONTINUOUS
 62
3
100
AcDbLine
 10
997.3405184655262
 20
511.2525463516342
 30
0.0000000000000000
 11
1029.340518465526
 21
511.2525463516697
 31
0.0000000000000000
  0
LINE
  5
27A
100
AcDbEntity
  8
MAIN0
  6
CONTINUOUS
 62
3
100
AcDbLine
 10
400.8405184652953
 20
993.7387967097410
 30
0.0000000000000000
 11
400.8405184647426
 21
869.7387967097410
 31
0.0000000000000000
  0
LINE
  5
27B
100
AcDbEntity
  8
MAIN0
  6
CONTINUOUS
 62
3
100
AcDbLine
 10
485.8405184655838
 20
962.7387967096263
 30
0.0000000000000000
 11
780.8405184667140
 21
962.7387967094578
 31
0.0000000000000000
  0
LINE
  5
27C
100
AcDbEntity
  8
MAIN0
  6
CONTINUOUS
 62
3
100
AcDbLine
 10
401.8405184647384
 20
868.7387967097396
 30
0.0000000000000000
 11
400.8405184647427
 21
869.7387967097411
 31
0.0000000000000000
  0
LINE
  5
27D
100
AcDbEntity
  8
MAIN0
  6
CONTINUOUS
 62
3
100
AcDbLine
 10
400.8405184652956
 20
993.7387967097420
 30
0.0000000000000000
 11
401.8405184653004
 21
994.7387967097409
 31
0.0000000000000000
  0
LINE
  5
27E
100
AcDbEntity
  8
MAIN0
  6
CONTINUOUS
 62
3
100
AcDbLine
 10
485.8405184655838
 20
900.7387967096270
 30
0.0000000000000000
 11
780.8405184666621
 21
900.7387967094580
 31
0.0000000000000000
  0
LINE
  5
27F
100
AcDbEntity
  8
MAIN0
  6
CONTINUOUS
 62
3
100
AcDbLine
 10
485.3405184655837
 20
994.2387967100693
 30
0.0000000000000000
 11
402.4405184655836
 21
994.2387967100696
 31
0.0000000000000000
  0
LINE
  5
280
100
AcDbEntity
  8
MAIN0
  6
CONTINUOUS
 62
3
100
AcDbLine
 10
485.3405184655834
 20
869.2387967100693
 30
0.0000000000000000
 11
402.4405184655834
 21
869.2387967100696
 31
0.0000000000000000
  0
LINE
  5
281
100
AcDbEntity
  8
MAIN0
  6
CONTINUOUS
 62
3
100
AcDbLine
 10
485.8405184655837
 20
869.7387967100696
 30
0.0000000000000000
 11
485.8405184655838
 21
993.7387967100696
 31
0.0000000000000000
  0
LINE
  5
282
100
AcDbEntity
  8
MAIN0
  6
CONTINUOUS
 62
3
100
AcDbLine
 10
401.8405184655835
 20
869.8387967100699
 30
0.0000000000000000
 11
401.8405184655836
 21
993.6387967100696
 31
0.0000000000000000
  0
LINE
  5
283
100
AcDbEntity
  8
MAIN0
  6
CONTINUOUS
 62
3
100
AcDbLine
 10
485.3405184655836
 20
869.2387967100692
 30
0.0000000000000000
 11
485.8405184655837
 21
869.7387967100693
 31
0.0000000000000000
  0
LINE
  5
284
100
AcDbEntity
  8
MAIN0
  6
CONTINUOUS
 62
3
100
AcDbLine
 10
485.8405184655834
 20
993.7387967100690
 30
0.0000000000000000
 11
485.3405184655834
 21
994.2387967100690
 31
0.0000000000000000
  0
LINE
  5
285
100
AcDbEntity
  8
MAIN0
  6
CONTINUOUS
 62
3
100
AcDbLine
 10
402.4405184655835
 20
869.2387967100699
 30
0.0000000000000000
 11
401.8405184655834
 21
869.8387967100699
 31
0.0000000000000000
  0
LINE
  5
286
100
AcDbEntity
  8
MAIN0
  6
CONTINUOUS
 62
3
100
AcDbLine
 10
401.8405184655838
 20
993.6387967100704
 30
0.0000000000000000
 11
402.4405184655837
 21
994.2387967100704
 31
0.0000000000000000
  0
CIRCLE
  5
287
100
AcDbEntity
  8
MAIN0
  6
CONTINUOUS
 62
3
100
AcDbCircle
 10
722.8405184666881
 20
931.7387967093628
 30
0.0000000000000000
 40
3.000000000000000
  0
LINE
  5
288
100
AcDbEntity
  8
MAIN0
  6
CENTER
 62
3
100
AcDbLine
 10
722.8405184666881
 20
937.7387967093628
 30
0.0000000000000000
 11
722.8405184666881
 21
925.7387967093628
 31
0.0000000000000000
  0
LINE
  5
289
100
AcDbEntity
  8
MAIN0
  6
CONTINUOUS
 62
3
100
AcDbLine
 10
856.8405184666279
 20
859.7387967093558
 30
0.0000000000000000
 11
856.8405184667478
 21
1003.738796709356
 31
0.0000000000000000
  0
LINE
  5
28A
100
AcDbEntity
  8
MAIN0
  6
CONTINUOUS
 62
3
100
AcDbLine
 10
780.8405184666364
 20
869.8387967094783
 30
0.0000000000000000
 11
780.8405184667395
 21
993.6387967094375
 31
0.0000000000000000
  0
LINE
  5
28B
100
AcDbEntity
  8
MAIN0
  6
CONTINUOUS
 62
3
100
AcDbLine
 10
781.4405184667394
 20
994.2387967094381
 30
0.0000000000000000
 11
856.3405184667396
 21
994.2387967094572
 31
0.0000000000000000
  0
LINE
  5
28C
100
AcDbEntity
  8
MAIN0
  6
CONTINUOUS
 62
3
100
AcDbLine
 10
781.4405184666350
 20
869.2387967094782
 30
0.0000000000000000
 11
856.3405184666356
 21
869.2387967094702
 31
0.0000000000000000
  0
LINE
  5
28D
100
AcDbEntity
  8
MAIN0
  6
CONTINUOUS
 62
3
100
AcDbLine
 10
856.8405184667389
 20
993.7387967094572
 30
0.0000000000000000
 11
856.3405184667395
 21
994.2387967094569
 31
0.0000000000000000
  0
LINE
  5
28E
100
AcDbEntity
  8
MAIN0
  6
CONTINUOUS
 62
3
100
AcDbLine
 10
856.8405184666360
 20
869.7387967094700
 30
0.0000000000000000
 11
856.3405184666353
 21
869.2387967094697
 31
0.0000000000000000
  0
LINE
  5
28F
100
AcDbEntity
  8
MAIN0
  6
CONTINUOUS
 62
3
100
AcDbLine
 10
781.4405184666354
 20
869.2387967094779
 30
0.0000000000000000
 11
780.8405184666358
 21
869.8387967094780
 31
0.0000000000000000
  0
LINE
  5
290
100
AcDbEntity
  8
MAIN0
  6
CONTINUOUS
 62
3
100
AcDbLine
 10
781.4405184667400
 20
994.2387967094381
 30
0.0000000000000000
 11
780.8405184667395
 21
993.6387967094381
 31
0.0000000000000000
  0
LINE
  5
291
100
AcDbEntity
  8
MAIN0
  6
CONTINUOUS
 62
3
100
AcDbLine
 10
927.8405184656717
 20
1002.238796709260
 30
0.0000000000000000
 11
945.8405184658244
 21
1002.238796709245
 31
0.0000000000000000
  0
LINE
  5
292
100
AcDbEntity
  8
MAIN0
  6
CONTINUOUS
 62
3
100
AcDbLine
 10
927.8405184656717
 20
861.2387967092598
 30
0.0000000000000000
 11
945.8405184655190
 21
861.2387967092446
 31
0.0000000000000000
  0
LINE
  5
293
100
AcDbEntity
  8
MAIN0
  6
CONTINUOUS
 62
3
100
AcDbLine
 10
401.8405184652998
 20
994.7387967097401
 30
0.0000000000000000
 11
856.8405184667399
 21
994.7387967093558
 31
0.0000000000000000
  0
LINE
  5
294
100
AcDbEntity
  8
MAIN0
  6
CONTINUOUS
 62
3
100
AcDbLine
 10
401.8405184647384
 20
868.7387967097400
 30
0.0000000000000000
 11
856.8405184666352
 21
868.7387967093557
 31
0.0000000000000000
  0
LINE
  5
295
100
AcDbEntity
  8
MAIN0
  6
CONTINUOUS
 62
3
100
AcDbLine
 10
983.8405184656424
 20
865.7387967092939
 30
0.0000000000000000
 11
983.8405184657009
 21
997.7387967092939
 31
0.0000000000000000
  0
LINE
  5
296
100
AcDbEntity
  8
MAIN0
  6
CONTINUOUS
 62
3
100
AcDbLine
 10
973.8405184658178
 20
997.7387967092255
 30
0.0000000000000000
 11
983.8405184657011
 21
997.7387967092171
 31
0.0000000000000000
  0
LINE
  5
297
100
AcDbEntity
  8
MAIN0
  6
CONTINUOUS
 62
3
100
AcDbLine
 10
973.8405184655259
 20
865.7387967092257
 30
0.0000000000000000
 11
983.8405184656427
 21
865.7387967092172
 31
0.0000000000000000
  0
LINE
  5
298
100
AcDbEntity
  8
MAIN0
  6
CONTINUOUS
 62
3
100
AcDbLine
 10
945.8405184655190
 20
861.2387967092445
 30
0.0000000000000000
 11
945.8405184658244
 21
1002.238796709245
 31
0.0000000000000000
  0
LINE
  5
299
100
AcDbEntity
  8
MAIN0
  6
CONTINUOUS
 62
3
100
AcDbLine
 10
1004.340518466145
 20
867.2387967091568
 30
0.0000000000000000
 11
1004.340518466048
 21
996.2387967091567
 31
0.0000000000000000
  0
LINE
  5
29A
100
AcDbEntity
  8
MAIN0
  6
CONTINUOUS
 62
3
100
AcDbLine
 10
983.8405184657004
 20
996.2387967092252
 30
0.0000000000000000
 11
1004.340518466048
 21
996.2387967091419
 31
0.0000000000000000
  0
LINE
  5
29B
100
AcDbEntity
  8
MAIN0
  6
CONTINUOUS
 62
3
100
AcDbLine
 10
983.8405184656432
 20
867.2387967092254
 30
0.0000000000000000
 11
1004.340518466145
 21
867.2387967091421
 31
0.0000000000000000
  0
LINE
  5
29C
100
AcDbEntity
  8
MAIN0
  6
CONTINUOUS
 62
3
100
AcDbLine
 10
1004.340518466050
 20
994.7387967091570
 30
0.0000000000000000
 11
1030.840518467679
 21
994.7387967091213
 31
0.0000000000000000
  0
LINE
  5
29D
100
AcDbEntity
  8
MAIN0
  6
CONTINUOUS
 62
3
100
AcDbLine
 10
1004.340518466144
 20
868.7387967091569
 30
0.0000000000000000
 11
1030.840518467443
 21
868.7387967091212
 31
0.0000000000000000
  0
LINE
  5
29E
100
AcDbEntity
  8
MAIN0
  6
CONTINUOUS
 62
3
100
AcDbLine
 10
1033.840518467633
 20
969.2387967091177
 30
0.0000000000000000
 11
1036.840518466597
 21
969.2387967091136
 31
0.0000000000000000
  0
LINE
  5
29F
100
AcDbEntity
  8
MAIN0
  6
CONTINUOUS
 62
3
100
AcDbLine
 10
1033.840518467489
 20
894.2387967091174
 30
0.0000000000000000
 11
1036.840518466662
 21
894.2387967091134
 31
0.0000000000000000
  0
LINE
  5
2A0
100
AcDbEntity
  8
MAIN0
  6
CONTINUOUS
 62
3
100
AcDbLine
 10
1036.840518466662
 20
894.2387967091132
 30
0.0000000000000000
 11
1036.840518466597
 21
969.2387967091131
 31
0.0000000000000000
  0
LINE
  5
2A1
100
AcDbEntity
  8
MAIN0
  6
CONTINUOUS
 62
3
100
AcDbLine
 10
1030.840518467443
 20
868.7387967091213
 30
0.0000000000000000
 11
1030.840518467530
 21
915.2758846886095
 31
0.0000000000000000
  0
LINE
  5
2A2
100
AcDbEntity
  8
MAIN0
  6
CONTINUOUS
 62
3
100
AcDbLine
 10
1030.840518467592
 20
948.2017087261680
 30
0.0000000000000000
 11
1030.840518467679
 21
994.7387967091214
 31
0.0000000000000000
  0
LINE
  5
2A3
100
AcDbEntity
  8
MAIN0
  6
CONTINUOUS
 62
3
100
AcDbLine
 10
1061.840518465999
 20
893.3387967091593
 30
0.0000000000000000
 11
1061.840518465908
 21
970.1387967091584
 31
0.0000000000000000
  0
LINE
  5
2A4
100
AcDbEntity
  8
MAIN0
  6
CONTINUOUS
 62
3
100
AcDbLine
 10
1061.240518465954
 20
892.7387967091127
 30
0.0000000000000000
 11
1051.840518465954
 21
892.7387967091127
 31
0.0000000000000000
  0
LINE
  5
2A5
100
AcDbEntity
  8
MAIN0
  6
CONTINUOUS
 62
3
100
AcDbLine
 10
1049.840518465985
 20
894.7387967091136
 30
0.0000000000000000
 11
1051.840518465954
 21
892.7387967091131
 31
0.0000000000000000
  0
LINE
  5
2A6
100
AcDbEntity
  8
MAIN0
  6
CONTINUOUS
 62
3
100
AcDbLine
 10
1061.240518465954
 20
892.7387967091127
 30
0.0000000000000000
 11
1061.840518465954
 21
893.3387967091130
 31
0.0000000000000000
  0
LINE
  5
2A7
100
AcDbEntity
  8
MAIN0
  6
CONTINUOUS
 62
3
100
AcDbLine
 10
1061.240518465953
 20
970.7387967091129
 30
0.0000000000000000
 11
1051.840518465953
 21
970.7387967091129
 31
0.0000000000000000
  0
LINE
  5
2A8
100
AcDbEntity
  8
MAIN0
  6
CONTINUOUS
 62
3
100
AcDbLine
 10
1049.840518465985
 20
968.7387967091122
 30
0.0000000000000000
 11
1051.840518465953
 21
970.7387967091129
 31
0.0000000000000000
  0
LINE
  5
2A9
100
AcDbEntity
  8
MAIN0
  6
CONTINUOUS
 62
3
100
AcDbLine
 10
1061.240518465953
 20
970.7387967091133
 30
0.0000000000000000
 11
1061.840518465953
 21
970.1387967091133
 31
0.0000000000000000
  0
LINE
  5
2AA
100
AcDbEntity
  8
MAIN0
  6
CONTINUOUS
 62
3
100
AcDbLine
 10
1036.840518466666
 20
968.7387967091127
 30
0.0000000000000000
 11
1049.840518465985
 21
968.7387967091127
 31
0.0000000000000000
  0
LINE
  5
2AB
100
AcDbEntity
  8
MAIN0
  6
CONTINUOUS
 62
3
100
AcDbLine
 10
1036.840518466592
 20
894.7387967091127
 30
0.0000000000000000
 11
1049.840518465986
 21
894.7387967091127
 31
0.0000000000000000
  0
LINE
  5
2AC
100
AcDbEntity
  8
MAIN0
  6
CONTINUOUS
 62
3
100
AcDbLine
 10
1080.840518465954
 20
956.4887967091131
 30
0.0000000000000000
 11
1061.840518465954
 21
956.4887967091131
 31
0.0000000000000000
  0
LINE
  5
2AD
100
AcDbEntity
  8
MAIN0
  6
CONTINUOUS
 62
3
100
AcDbLine
 10
1080.840518465954
 20
956.4887967091133
 30
0.0000000000000000
 11
1080.840518465954
 21
906.9887967091129
 31
0.0000000000000000
  0
LINE
  5
2AE
100
AcDbEntity
  8
MAIN0
  6
CONTINUOUS
 62
3
100
AcDbLine
 10
1080.840518465954
 20
906.9887967091127
 30
0.0000000000000000
 11
1061.840518465954
 21
906.9887967091127
 31
0.0000000000000000
  0
LINE
  5
2AF
100
AcDbEntity
  8
MAIN0
  6
CONTINUOUS
 62
3
100
AcDbLine
 10
1061.840518465973
 20
914.5341461721098
 30
0.0000000000000000
 11
1051.840518466023
 21
914.5341461721521
 31
0.0000000000000000
  0
LINE
  5
2B0
100
AcDbEntity
  8
MAIN0
  6
CONTINUOUS
 62
3
100
AcDbLine
 10
1049.840518466047
 20
919.7387967051923
 30
0.0000000000000000
 11
1036.840518466616
 21
919.7387967052148
 31
0.0000000000000000
  0
LINE
  5
2B1
100
AcDbEntity
  8
MAIN0
  6
CONTINUOUS
 62
3
100
AcDbLine
 10
1049.840518466017
 20
943.7387967133088
 30
0.0000000000000000
 11
1036.840518466641
 21
943.7387967132701
 31
0.0000000000000000
  0
LINE
  5
2B2
100
AcDbEntity
  8
MAIN0
  6
CONTINUOUS
 62
3
100
AcDbLine
 10
1061.840518465933
 20
948.9434472461106
 30
0.0000000000000000
 11
1051.840518465981
 21
948.9434472461005
 31
0.0000000000000000
  0
LINE
  5
2B3
100
AcDbEntity
  8
MAIN0
  6
CONTINUOUS
 62
3
100
AcDbLine
 10
1049.840518466016
 20
943.7387967133080
 30
0.0000000000000000
 11
1051.840518465980
 21
948.9434472460999
 31
0.0000000000000000
  0
LINE
  5
2B4
100
AcDbEntity
  8
MAIN0
  6
CONTINUOUS
 62
3
100
AcDbLine
 10
1049.840518466046
 20
919.7387967051918
 30
0.0000000000000000
 11
1051.840518466022
 21
914.5341461721523
 31
0.0000000000000000
  0
LINE
  5
2B5
100
AcDbEntity
  8
MAIN0
  6
CONTINUOUS
 62
3
100
AcDbLine
 10
1051.840518466049
 20
892.7387967091127
 30
0.0000000000000000
 11
1051.840518466023
 21
914.5341461721523
 31
0.0000000000000000
  0
LINE
  5
2B6
100
AcDbEntity
  8
MAIN0
  6
CONTINUOUS
 62
3
100
AcDbLine
 10
1051.840518465981
 20
948.9434472461003
 30
0.0000000000000000
 11
1051.840518465954
 21
970.7387967091131
 31
0.0000000000000000
  0
LINE
  5
2B7
100
AcDbEntity
  8
MAIN0
  6
CONTINUOUS
 62
3
100
AcDbLine
 10
1049.840518466078
 20
894.7387967091131
 30
0.0000000000000000
 11
1049.840518466047
 21
919.7387967051923
 31
0.0000000000000000
  0
LINE
  5
2B8
100
AcDbEntity
  8
MAIN0
  6
CONTINUOUS
 62
3
100
AcDbLine
 10
1049.840518466017
 20
943.7387967133091
 30
0.0000000000000000
 11
1049.840518465986
 21
968.7387967091131
 31
0.0000000000000000
  0
LINE
  5
2B9
100
AcDbEntity
  8
MAIN0
  6
CONTINUOUS
 62
3
100
AcDbLine
 10
1036.840518466640
 20
918.2758846886159
 30
0.0000000000000000
 11
1033.840518467518
 21
918.2758846886042
 31
0.0000000000000000
  0
LINE
  5
2BA
100
AcDbEntity
  8
MAIN0
  6
CONTINUOUS
 62
3
100
AcDbLine
 10
1036.840518466617
 20
945.2017087261695
 30
0.0000000000000000
 11
1033.840518467599
 21
945.2017087261621
 31
0.0000000000000000
  0
LINE
  5
2BB
100
AcDbEntity
  8
MAIN0
  6
CONTINUOUS
 62
3
100
AcDbLine
 10
1030.840518467473
 20
884.7387967075151
 30
0.0000000000000000
 11
1004.340518466132
 21
884.7387967075151
 31
0.0000000000000000
  0
LINE
  5
2BC
100
AcDbEntity
  8
MAIN0
  6
CONTINUOUS
 62
3
100
AcDbLine
 10
1030.840518467649
 20
978.7387967075152
 30
0.0000000000000000
 11
1004.340518466061
 21
978.7387967075154
 31
0.0000000000000000
  0
ARC
  5
2BD
100
AcDbEntity
  8
MAIN0
  6
CONTINUOUS
 62
3
100
AcDbCircle
 10
1033.840518467485
 20
891.2387967091172
 30
0.0000000000000000
 40
3.000000000000000
100
AcDbArc
 50
90.00000000000000
 51
180.0000000000000
  0
ARC
  5
2BE
100
AcDbEntity
  8
MAIN0
  6
CONTINUOUS
 62
3
100
AcDbCircle
 10
1033.840518467637
 20
972.2387967091172
 30
0.0000000000000000
 40
3.000000000000000
100
AcDbArc
 50
180.0000000000000
 51
270.0000000000000
  0
ARC
  5
2BF
100
AcDbEntity
  8
MAIN0
  6
CONTINUOUS
 62
3
100
AcDbCircle
 10
1033.840518467530
 20
915.2758846886036
 30
0.0000000000000000
 40
3.000000000000000
100
AcDbArc
 50
90.00000000000000
 51
180.0000000000000
  0
ARC
  5
2C0
100
AcDbEntity
  8
MAIN0
  6
CONTINUOUS
 62
3
100
AcDbCircle
 10
1033.840518467592
 20
948.2017087261620
 30
0.0000000000000000
 40
3.000000000000000
100
AcDbArc
 50
180.0000000000000
 51
270.0000000000000
  0
LINE
  5
2C1
100
AcDbEntity
  8
MAIN0
  6
CONTINUOUS
 62
3
100
AcDbLine
 10
927.8405184656718
 20
859.7387967092598
 30
0.0000000000000000
 11
927.8405184656718
 21
1003.738796709260
 31
0.0000000000000000
  0
LINE
  5
2C2
100
AcDbEntity
  8
MAIN0
  6
CONTINUOUS
 62
3
100
AcDbLine
 10
856.8405184666301
 20
859.7387967093557
 30
0.0000000000000000
 11
927.8405184656717
 21
859.7387967092598
 31
0.0000000000000000
  0
LINE
  5
2C3
100
AcDbEntity
  8
MAIN0
  6
CONTINUOUS
 62
3
100
AcDbLine
 10
856.8405184667446
 20
1003.738796709356
 30
0.0000000000000000
 11
927.8405184656718
 21
1003.738796709260
 31
0.0000000000000000
  0
DIMENSION
  5
2CD
100
AcDbEntity
  8
MAIN0
  6
CONTINUOUS
 62
3
100
AcDbDimension
  2
*D41
 10
722.6293121392317
 20
485.2317039697618
 30
0.0000000000000000
 11
720.6293121392317
 21
465.9224448740325
 31
0.0000000000000000
 70
160
  3
MAIN001
100
AcDbAlignedDimension
 13
689.8405184653049
 23
480.2317039697486
 33
0.0000000000000000
 14
690.4405184652920
 24
485.2317039697618
 34
0.0000000000000000
 50
90.00000000000000
100
AcDbRotatedDimension
1001
ACAD
1000
DSTYLE
1002
{
1070
   173
1070
     1
1070
     6
1000
_OPEN
1070
     7
1000
_OPEN
1070
    41
1040
8.000000
1070
   287
1070
     0
1002
}
  0
DIMENSION
  5
2D7
100
AcDbEntity
  8
MAIN0
  6
CONTINUOUS
 62
3
100
AcDbDimension
  2
*D42
 10
470.9780435539553
 20
590.2317039695918
 30
0.0000000000000000
 11
470.4780435539553
 21
600.2317039695918
 31
0.0000000000000000
 70
32
  3
MAIN001
100
AcDbAlignedDimension
 13
450.8405184653047
 23
610.2317039695918
 33
0.0000000000000000
 14
450.8405184653197
 24
590.2317039695918
 34
0.0000000000000000
 50
90.00000000000000
100
AcDbRotatedDimension
1001
ACAD
1000
DSTYLE
1002
{
1070
   173
1070
     1
1070
     6
1000
_DOT
1070
     7
1000
_OPEN
1070
    41
1040
8.000000
1070
   287
1070
     0
1002
}
  0
DIMENSION
  5
2E0
100
AcDbEntity
  8
MAIN0
  6
CONTINUOUS
 62
3
100
AcDbDimension
  2
*D43
 10
470.9780435539553
 20
610.2317039695918
 30
0.0000000000000000
 11
469.4780435539553
 21
632.5207744171694
 31
0.0000000000000000
 70
160
  3
MAIN001
100
AcDbAlignedDimension
 13
485.3405184653356
 23
620.2317039695918
 33
0.0000000000000000
 14
450.8405184653047
 24
610.2317039695918
 34
0.0000000000000000
 50
90.00000000000000
100
AcDbRotatedDimension
1001
ACAD
1000
DSTYLE
1002
{
1070
   173
1070
     1
1070
     6
1000
_OPEN
1070
     7
1000
_DOT
1070
    41
1040
8.000000
1070
   287
1070
     0
1002
}
  0
DIMENSION
  5
2E9
100
AcDbEntity
  8
MAIN0
  6
CONTINUOUS
 62
3
100
AcDbDimension
  2
*D44
 10
485.8405184653355
 20
646.8883949900476
 30
0.0000000000000000
 11
464.8405184653207
 21
647.3883949900476
 31
0.0000000000000000
 70
32
  3
MAIN001
100
AcDbAlignedDimension
 13
443.8405184653058
 23
617.2317039695918
 33
0.0000000000000000
 14
485.8405184653355
 24
619.7317039695920
 34
0.0000000000000000
100
AcDbRotatedDimension
1001
ACAD
1000
DSTYLE
1002
{
1070
   173
1070
     1
1070
     6
1000
_OPEN
1070
     7
1000
_OPEN
1070
    41
1040
8.000000
1002
}
  0
DIMENSION
  5
2F4
100
AcDbEntity
  8
MAIN0
  6
CONTINUOUS
 62
3
100
AcDbDimension
  2
*D45
 10
400.8405184652210
 20
666.8883949900476
 30
0.0000000000000000
 11
381.0853168438178
 21
668.8883949900476
 31
0.0000000000000000
 70
160
  3
MAIN001
100
AcDbAlignedDimension
 13
401.8405184653357
 23
620.0317039695914
 33
0.0000000000000000
 14
400.8405184652210
 24
569.2317039695442
 34
0.0000000000000000
100
AcDbRotatedDimension
1001
ACAD
1000
DSTYLE
1002
{
1070
   173
1070
     1
1070
     6
1000
_OPEN
1070
     7
1000
_OPEN
1070
    41
1040
8.000000
1070
   287
1070
     0
1002
}
  0
DIMENSION
  5
2FD
100
AcDbEntity
  8
MAIN0
  6
CONTINUOUS
 62
3
100
AcDbDimension
  2
*D46
 10
401.8405184653357
 20
666.8883949900476
 30
0.0000000000000000
 11
443.8405184653356
 21
667.3883949900476
 31
0.0000000000000000
 70
32
  3
MAIN001
100
AcDbAlignedDimension
 13
485.8405184653356
 23
619.7317039695919
 33
0.0000000000000000
 14
401.8405184653357
 24
620.0317039695914
 34
0.0000000000000000
100
AcDbRotatedDimension
1001
ACAD
1000
DSTYLE
1002
{
1070
   173
1070
     1
1070
     6
1000
_OPEN
1070
     7
1000
_OPEN
1070
    41
1040
8.000000
1002
}
  0
DIMENSION
  5
306
100
AcDbEntity
  8
MAIN0
  6
CONTINUOUS
 62
3
100
AcDbDimension
  2
*D47
 10
485.8405184653356
 20
666.8883949900476
 30
0.0000000000000000
 11
633.3405184653357
 21
667.3883949900476
 31
0.0000000000000000
 70
32
  1
\A1;MAX 405
  3
MAIN001
100
AcDbAlignedDimension
 13
780.8405184653357
 23
620.0317039696619
 33
0.0000000000000000
 14
485.8405184653356
 24
619.7317039695919
 34
0.0000000000000000
100
AcDbRotatedDimension
1001
ACAD
1000
DSTYLE
1002
{
1070
   173
1070
     1
1070
     6
1000
_OPEN
1070
     7
1000
_OPEN
1070
    41
1040
8.000000
1002
}
  0
DIMENSION
  5
30F
100
AcDbEntity
  8
MAIN0
  6
CONTINUOUS
 62
3
100
AcDbDimension
  2
*D48
 10
780.8405184653357
 20
666.8883949900476
 30
0.0000000000000000
 11
818.8405184653356
 21
667.3883949900476
 31
0.0000000000000000
 70
32
  3
MAIN001
100
AcDbAlignedDimension
 13
856.8405184653354
 23
619.7317039696619
 33
0.0000000000000000
 14
780.8405184653357
 24
620.0317039696619
 34
0.0000000000000000
100
AcDbRotatedDimension
1001
ACAD
1000
DSTYLE
1002
{
1070
   173
1070
     1
1070
     6
1000
_OPEN
1070
     7
1000
_OPEN
1070
    41
1040
8.000000
1002
}
  0
DIMENSION
  5
318
100
AcDbEntity
  8
MAIN0
  6
CONTINUOUS
 62
3
100
AcDbDimension
  2
*D49
 10
370.8405184652396
 20
620.2317039695918
 30
0.0000000000000000
 11
370.3405184652396
 21
595.2317039695918
 31
0.0000000000000000
 70
32
  3
MAIN001
100
AcDbAlignedDimension
 13
401.8405184652661
 23
570.2317039695918
 33
0.0000000000000000
 14
402.0405184653357
 24
620.2317039695918
 34
0.0000000000000000
 50
90.00000000000000
100
AcDbRotatedDimension
1001
ACAD
1000
DSTYLE
1002
{
1070
   173
1070
     1
1070
     6
1000
_OPEN
1070
     7
1000
_OPEN
1070
    41
1040
8.000000
1002
}
  0
DIMENSION
  5
321
100
AcDbEntity
  8
MAIN0
  6
CONTINUOUS
 62
3
100
AcDbDimension
  2
*D50
 10
370.8405184652396
 20
570.2317039695918
 30
0.0000000000000000
 11
370.3405184652396
 21
527.7317039695297
 31
0.0000000000000000
 70
32
  3
MAIN001
100
AcDbAlignedDimension
 13
401.2405184653173
 23
485.2317039694677
 33
0.0000000000000000
 14
401.8405184652661
 24
570.2317039695918
 34
0.0000000000000000
 50
90.00000000000000
100
AcDbRotatedDimension
1001
ACAD
1000
DSTYLE
1002
{
1070
   173
1070
     1
1070
     6
1000
_OPEN
1070
     7
1000
_OPEN
1070
    41
1040
8.000000
1002
}
  0
DIMENSION
  5
32A
100
AcDbEntity
  8
MAIN0
  6
CONTINUOUS
 62
3
100
AcDbDimension
  2
*D51
 10
340.8405184652396
 20
620.2317039695918
 30
0.0000000000000000
 11
340.3405184652396
 21
552.7317039695297
 31
0.0000000000000000
 70
32
  3
MAIN001
100
AcDbAlignedDimension
 13
401.2405184653173
 23
485.2317039694677
 33
0.0000000000000000
 14
402.0405184653357
 24
620.2317039695918
 34
0.0000000000000000
 50
90.00000000000000
100
AcDbRotatedDimension
1001
ACAD
1000
DSTYLE
1002
{
1070
   173
1070
     1
1070
     6
1000
_OPEN
1070
     7
1000
_OPEN
1070
    41
1040
8.000000
1002
}
  0
LEADER
  5
32B
100
AcDbEntity
  8
MAIN0
  6
CONTINUOUS
 62
3
100
AcDbLeader
  3
MAIN001
 73
     0
 74
     0
 75
     1
 40
12.39999961853027
 41
60.40100003576288
 76
     3
 10
922.5621512828775
 20
530.9259536910656
 30
0.0000000000000000
 10
962.9597792416549
 20
641.0751979852581
 30
0.0000000000000000
 10
970.1027790310121
 20
641.0751979852582
 30
0.0000000000000000
340
32C
213
-0.001000000000090040
223
-2.000000000000000
233
0.0000000000000000
1001
ACAD
1000
DSTYLE
1002
{
1070
   147
1040
0.0
1070
    77
1070
     1
1070
   173
1070
     1
1070
     6
1000
_OPEN
1070
     7
1000
_OPEN
1002
}
  0
MTEXT
  5
32C
102
{ACAD_REACTORS
330
32B
102
}
100
AcDbEntity
  8
MAIN0
  6
CONTINUOUS
 62
3
100
AcDbMText
 10
970.1037790310122
 20
655.4751976037885
 30
0.0000000000000000
 40
12.39999961853027
 41
0.0000000000000000
 71
     1
 72
     1
  1
{\H0.70x;{2×2-M10}}
 11
1.000000000000000
 21
0.0000000000000000
 31
0.0000000000000000
  7
KNJYOKO
  0
LINE
  5
32D
100
AcDbEntity
  8
MAIN0
  6
CONTINUOUS
 62
3
100
AcDbLine
 10
123.8689942345566
 20
506.2317039696247
 30
0.0000000000000000
 11
123.8689942345566
 21
546.2317039696252
 31
0.0000000000000000
  0
LINE
  5
32E
100
AcDbEntity
  8
MAIN0
  6
CONTINUOUS
 62
3
100
AcDbLine
 10
117.8689942345570
 20
485.6317039696251
 30
0.0000000000000000
 11
117.8689942345570
 21
505.2317039696246
 31
0.0000000000000000
  0
LINE
  5
32F
100
AcDbEntity
  8
MAIN0
  6
CONTINUOUS
 62
3
100
AcDbLine
 10
123.8689942345566
 20
506.2317039696247
 30
0.0000000000000000
 11
118.8689942345570
 21
506.2317039696247
 31
0.0000000000000000
  0
LINE
  5
330
100
AcDbEntity
  8
MAIN0
  6
CENTER
 62
3
100
AcDbLine
 10
180.8689942345565
 20
475.2317039696248
 30
0.0000000000000000
 11
180.8689942345569
 21
630.2317039689439
 31
0.0000000000000000
  0
LINE
  5
331
100
AcDbEntity
  8
MAIN0
  6
CONTINUOUS
 62
3
100
AcDbLine
 10
119.3689942345566
 20
570.2317039696250
 30
0.0000000000000000
 11
149.2689942345553
 21
570.2317039696250
 31
0.0000000000000000
  0
LINE
  5
332
100
AcDbEntity
  8
MAIN0
  6
CONTINUOUS
 62
3
100
AcDbLine
 10
212.4689942345569
 20
570.2317039696250
 30
0.0000000000000000
 11
242.3689942345571
 21
570.2317039696250
 31
0.0000000000000000
  0
LINE
  5
333
100
AcDbEntity
  8
MAIN0
  6
CONTINUOUS
 62
3
100
AcDbLine
 10
118.8689942345568
 20
546.2317039696250
 30
0.0000000000000000
 11
123.8689942345566
 21
546.2317039696250
 31
0.0000000000000000
  0
LINE
  5
334
100
AcDbEntity
  8
MAIN0
  6
CONTINUOUS
 62
3
100
AcDbLine
 10
117.8689942345569
 20
547.2317039696253
 30
0.0000000000000000
 11
118.8689942345571
 21
546.2317039696251
 31
0.0000000000000000
  0
LINE
  5
335
100
AcDbEntity
  8
MAIN0
  6
CONTINUOUS
 62
3
100
AcDbLine
 10
118.8689942345570
 20
506.2317039696250
 30
0.0000000000000000
 11
117.8689942345568
 21
505.2317039696249
 31
0.0000000000000000
  0
LINE
  5
336
100
AcDbEntity
  8
MAIN0
  6
CONTINUOUS
 62
3
100
AcDbLine
 10
117.8689942345571
 20
485.6317039696248
 30
0.0000000000000000
 11
118.2689942345570
 21
485.2317039696249
 31
0.0000000000000000
  0
LINE
  5
337
100
AcDbEntity
  8
MAIN0
  6
CONTINUOUS
 62
3
100
AcDbLine
 10
237.8689942345571
 20
506.2317039696247
 30
0.0000000000000000
 11
237.8689942345571
 21
546.2317039696247
 31
0.0000000000000000
  0
LINE
  5
338
100
AcDbEntity
  8
MAIN0
  6
CONTINUOUS
 62
3
100
AcDbLine
 10
243.8689942345565
 20
485.6317039696244
 30
0.0000000000000000
 11
243.8689942345565
 21
505.2317039696243
 31
0.0000000000000000
  0
LINE
  5
339
100
AcDbEntity
  8
MAIN0
  6
CONTINUOUS
 62
3
100
AcDbLine
 10
237.8689942345567
 20
506.2317039696245
 30
0.0000000000000000
 11
242.8689942345569
 21
506.2317039696245
 31
0.0000000000000000
  0
LINE
  5
33A
100
AcDbEntity
  8
MAIN0
  6
CONTINUOUS
 62
3
100
AcDbLine
 10
242.8689942345573
 20
546.2317039696246
 30
0.0000000000000000
 11
237.8689942345573
 21
546.2317039696246
 31
0.0000000000000000
  0
LINE
  5
33B
100
AcDbEntity
  8
MAIN0
  6
CONTINUOUS
 62
3
100
AcDbLine
 10
243.8689942345570
 20
547.2317039696245
 30
0.0000000000000000
 11
242.8689942345568
 21
546.2317039696243
 31
0.0000000000000000
  0
LINE
  5
33C
100
AcDbEntity
  8
MAIN0
  6
CONTINUOUS
 62
3
100
AcDbLine
 10
242.8689942345569
 20
506.2317039696245
 30
0.0000000000000000
 11
243.8689942345567
 21
505.2317039696247
 31
0.0000000000000000
  0
LINE
  5
33D
100
AcDbEntity
  8
MAIN0
  6
CONTINUOUS
 62
3
100
AcDbLine
 10
243.8689942345569
 20
485.6317039696244
 30
0.0000000000000000
 11
243.4689942345569
 21
485.2317039696245
 31
0.0000000000000000
  0
LINE
  5
33E
100
AcDbEntity
  8
MAIN0
  6
CONTINUOUS
 62
3
100
AcDbLine
 10
118.3689942345571
 20
570.2317039678450
 30
0.0000000000000000
 11
118.3689942345573
 21
620.2317039689434
 31
0.0000000000000000
  0
LINE
  5
33F
100
AcDbEntity
  8
MAIN0
  6
CONTINUOUS
 62
3
100
AcDbLine
 10
243.3689942345571
 20
570.2317039676040
 30
0.0000000000000000
 11
243.3689942345573
 21
620.2317039689434
 31
0.0000000000000000
  0
LINE
  5
340
100
AcDbEntity
  8
MAIN0
  6
CONTINUOUS
 62
3
100
AcDbLine
 10
118.3689942345570
 20
620.2317039689435
 30
0.0000000000000000
 11
243.3689942345571
 21
620.2317039689435
 31
0.0000000000000000
  0
LINE
  5
341
100
AcDbEntity
  8
MAIN0
  6
CONTINUOUS
 62
3
100
AcDbLine
 10
117.9689942345566
 20
570.2317039676038
 30
0.0000000000000000
 11
243.7689936146623
 21
570.2317039676040
 31
0.0000000000000000
  0
LINE
  5
342
100
AcDbEntity
  8
MAIN0
  6
CONTINUOUS
 62
3
100
AcDbLine
 10
124.8689942345573
 20
570.2317039678451
 30
0.0000000000000000
 11
236.8689942345566
 21
570.2317039678451
 31
0.0000000000000000
  0
LINE
  5
343
100
AcDbEntity
  8
MAIN0
  6
CONTINUOUS
 62
3
100
AcDbLine
 10
198.0736447686532
 20
570.2317039678391
 30
0.0000000000000000
 11
163.6643437004859
 21
570.2317039678516
 31
0.0000000000000000
  0
LINE
  5
344
100
AcDbEntity
  8
MAIN0
  6
CONTINUOUS
 62
3
100
AcDbLine
 10
123.8689942345566
 20
506.2317039696247
 30
0.0000000000000000
 11
123.8689942345566
 21
515.2317039696247
 31
0.0000000000000000
  0
LINE
  5
345
100
AcDbEntity
  8
MAIN0
  6
CONTINUOUS
 62
3
100
AcDbLine
 10
118.8689942345565
 20
506.2317039696247
 30
0.0000000000000000
 11
123.8689942345566
 21
506.2317039696247
 31
0.0000000000000000
  0
LINE
  5
346
100
AcDbEntity
  8
MAIN0
  6
CONTINUOUS
 62
3
100
AcDbLine
 10
118.3689942345562
 20
485.2317039696246
 30
0.0000000000000000
 11
118.3689942345562
 21
480.2317039696230
 31
0.0000000000000000
  0
LINE
  5
347
100
AcDbEntity
  8
MAIN0
  6
CONTINUOUS
 62
3
100
AcDbLine
 10
143.3689942345561
 20
480.2317039696247
 30
0.0000000000000000
 11
118.3689942345561
 21
480.2317039696247
 31
0.0000000000000000
  0
LINE
  5
348
100
AcDbEntity
  8
MAIN0
  6
CONTINUOUS
 62
3
100
AcDbLine
 10
143.3689942345562
 20
485.2317039696247
 30
0.0000000000000000
 11
143.3689942345562
 21
480.2317039696247
 31
0.0000000000000000
  0
LINE
  5
349
100
AcDbEntity
  8
MAIN0
  6
CONTINUOUS
 62
3
100
AcDbLine
 10
218.3689942345602
 20
485.2317039696247
 30
0.0000000000000000
 11
218.3689942345602
 21
480.2317039696247
 31
0.0000000000000000
  0
LINE
  5
34A
100
AcDbEntity
  8
MAIN0
  6
CONTINUOUS
 62
3
100
AcDbLine
 10
243.3689942345606
 20
480.2317039696246
 30
0.0000000000000000
 11
218.3689942345605
 21
480.2317039696246
 31
0.0000000000000000
  0
LINE
  5
34B
100
AcDbEntity
  8
MAIN0
  6
CONTINUOUS
 62
3
100
AcDbLine
 10
243.3689942345606
 20
485.2317039696248
 30
0.0000000000000000
 11
243.3689942345606
 21
480.2317039696284
 31
0.0000000000000000
  0
LINE
  5
34C
100
AcDbEntity
  8
MAIN0
  6
CONTINUOUS
 62
3
100
AcDbLine
 10
171.8689942345568
 20
485.8317039696248
 30
0.0000000000000000
 11
171.8689942345568
 21
490.2317039696247
 31
0.0000000000000000
  0
LINE
  5
34D
100
AcDbEntity
  8
MAIN0
  6
CONTINUOUS
 62
3
100
AcDbLine
 10
171.8689942345568
 20
490.2317039696247
 30
0.0000000000000000
 11
189.8689942345568
 21
490.2317039696247
 31
0.0000000000000000
  0
LINE
  5
34E
100
AcDbEntity
  8
MAIN0
  6
CONTINUOUS
 62
3
100
AcDbLine
 10
171.8689942345572
 20
485.8317039696248
 30
0.0000000000000000
 11
171.2689942345569
 21
485.2317039696245
 31
0.0000000000000000
  0
LINE
  5
34F
100
AcDbEntity
  8
MAIN0
  6
CONTINUOUS
 62
3
100
AcDbLine
 10
189.8689942345568
 20
485.8317039696248
 30
0.0000000000000000
 11
189.8689942345568
 21
490.2317039696247
 31
0.0000000000000000
  0
LINE
  5
350
100
AcDbEntity
  8
MAIN0
  6
CONTINUOUS
 62
3
100
AcDbLine
 10
189.8689942345569
 20
485.8317039696250
 30
0.0000000000000000
 11
190.4689942345570
 21
485.2317039696250
 31
0.0000000000000000
  0
LINE
  5
351
100
AcDbEntity
  8
MAIN0
  6
CONTINUOUS
 62
3
100
AcDbLine
 10
118.2689942345571
 20
485.2317039696247
 30
0.0000000000000000
 11
171.2689942345569
 21
485.2317039696247
 31
0.0000000000000000
  0
LINE
  5
352
100
AcDbEntity
  8
MAIN0
  6
CONTINUOUS
 62
3
100
AcDbLine
 10
190.4689942345569
 20
485.2317039696247
 30
0.0000000000000000
 11
243.4689942345570
 21
485.2317039696247
 31
0.0000000000000000
  0
LINE
  5
353
100
AcDbEntity
  8
MAIN0
  6
CONTINUOUS
 62
3
100
AcDbLine
 10
117.8689942345567
 20
547.2317039696250
 30
0.0000000000000000
 11
117.8689942345564
 21
568.7317039676038
 31
0.0000000000000000
  0
LINE
  5
354
100
AcDbEntity
  8
MAIN0
  6
CONTINUOUS
 62
3
100
AcDbLine
 10
243.8689942345571
 20
547.2317039696250
 30
0.0000000000000000
 11
243.8689942345565
 21
568.7317039676041
 31
0.0000000000000000
  0
LINE
  5
355
100
AcDbEntity
  8
MAIN0
  6
CONTINUOUS
 62
3
100
AcDbLine
 10
149.8689942345553
 20
570.2317039676041
 30
0.0000000000000000
 11
149.8689942345553
 21
566.4317039693835
 31
0.0000000000000000
  0
LINE
  5
356
100
AcDbEntity
  8
MAIN0
  6
CONTINUOUS
 62
3
100
AcDbLine
 10
149.8689942345553
 20
566.4317039693835
 30
0.0000000000000000
 11
211.8689942345566
 21
566.4317039693835
 31
0.0000000000000000
  0
LINE
  5
357
100
AcDbEntity
  8
MAIN0
  6
CONTINUOUS
 62
3
100
AcDbLine
 10
149.8689942345553
 20
569.6317039693838
 30
0.0000000000000000
 11
211.8689942345566
 21
569.6317039693838
 31
0.0000000000000000
  0
LINE
  5
358
100
AcDbEntity
  8
MAIN0
  6
CONTINUOUS
 62
3
100
AcDbLine
 10
211.8689942345566
 20
570.2317039693839
 30
0.0000000000000000
 11
211.8689942345566
 21
566.4317039693835
 31
0.0000000000000000
  0
LINE
  5
359
100
AcDbEntity
  8
MAIN0
  6
CONTINUOUS
 62
3
100
AcDbLine
 10
150.8689942345566
 20
566.4317039676041
 30
0.0000000000000000
 11
150.8689942345566
 21
551.2317039676047
 31
0.0000000000000000
  0
LINE
  5
35A
100
AcDbEntity
  8
MAIN0
  6
CONTINUOUS
 62
3
100
AcDbLine
 10
149.8689942345568
 20
550.2317039676047
 30
0.0000000000000000
 11
150.8689942345568
 21
551.2317039676047
 31
0.0000000000000000
  0
LINE
  5
35B
100
AcDbEntity
  8
MAIN0
  6
CONTINUOUS
 62
3
100
AcDbLine
 10
145.3689942345568
 20
550.2317039676045
 30
0.0000000000000000
 11
149.8689942345565
 21
550.2317039676045
 31
0.0000000000000000
  0
LINE
  5
35C
100
AcDbEntity
  8
MAIN0
  6
CONTINUOUS
 62
3
100
AcDbLine
 10
145.3689942345566
 20
550.2317039676041
 30
0.0000000000000000
 11
145.3689942345566
 21
535.2317039676041
 31
0.0000000000000000
  0
LINE
  5
35D
100
AcDbEntity
  8
MAIN0
  6
CONTINUOUS
 62
3
100
AcDbLine
 10
150.7689942345567
 20
535.2317039676041
 30
0.0000000000000000
 11
145.3689942345566
 21
535.2317039676041
 31
0.0000000000000000
  0
LINE
  5
35E
100
AcDbEntity
  8
MAIN0
  6
CONTINUOUS
 62
3
100
AcDbLine
 10
150.7689942345565
 20
535.2317039676042
 30
0.0000000000000000
 11
151.3689942345566
 21
534.6317039676042
 31
0.0000000000000000
  0
LINE
  5
35F
100
AcDbEntity
  8
MAIN0
  6
CONTINUOUS
 62
3
100
AcDbLine
 10
151.3689942345566
 20
534.6317039676039
 30
0.0000000000000000
 11
151.3689942345566
 21
521.2317039655443
 31
0.0000000000000000
  0
ARC
  5
360
100
AcDbEntity
  8
MAIN0
  6
CONTINUOUS
 62
3
100
AcDbCircle
 10
157.3689942345566
 20
521.2317039655443
 30
0.0000000000000000
 40
6.000000000000000
100
AcDbArc
 50
180.0000000000000
 51
243.9431670700172
  0
ARC
  5
361
100
AcDbEntity
  8
MAIN0
  6
CONTINUOUS
 62
3
100
AcDbCircle
 10
164.7957319995901
 20
515.2317039676041
 30
0.0000000000000000
 40
10.00000000000000
100
AcDbArc
 50
182.0000000000008
 51
270.0000000000000
  0
LINE
  5
362
100
AcDbEntity
  8
MAIN0
  6
CONTINUOUS
 62
3
100
AcDbLine
 10
154.7689417082080
 20
515.8243268878632
 30
0.0000000000000000
 11
154.8018237293992
 21
514.8827090005790
 31
0.0000000000000000
  0
LINE
  5
363
100
AcDbEntity
  8
MAIN0
  6
CONTINUOUS
 62
3
100
AcDbLine
 10
164.7957319995901
 20
505.2317039676040
 30
0.0000000000000000
 11
196.9422564695230
 21
505.2317039676040
 31
0.0000000000000000
  0
ARC
  5
364
100
AcDbEntity
  8
MAIN0
  6
CONTINUOUS
 62
3
100
AcDbCircle
 10
196.9422564695230
 20
515.2317039676041
 30
0.0000000000000000
 40
10.00000000000000
100
AcDbArc
 50
270.0000000000000
 51
358.0000000000002
  0
LINE
  5
365
100
AcDbEntity
  8
MAIN0
  6
CONTINUOUS
 62
3
100
AcDbLine
 10
206.9690467609052
 20
515.8243268878641
 30
0.0000000000000000
 11
206.9361647397140
 21
514.8827090005789
 31
0.0000000000000000
  0
ARC
  5
366
100
AcDbEntity
  8
MAIN0
  6
CONTINUOUS
 62
3
100
AcDbCircle
 10
204.3689942345548
 20
521.2317039655443
 30
0.0000000000000000
 40
6.000000000000000
100
AcDbArc
 50
296.0568329316739
 51
359.9999999999997
  0
LINE
  5
367
100
AcDbEntity
  8
MAIN0
  6
CONTINUOUS
 62
3
100
AcDbLine
 10
210.3689942345550
 20
534.6317039676040
 30
0.0000000000000000
 11
210.3689942345549
 21
521.2317039655439
 31
0.0000000000000000
  0
LINE
  5
368
100
AcDbEntity
  8
MAIN0
  6
CONTINUOUS
 62
3
100
AcDbLine
 10
210.3689942345550
 20
534.6317039676039
 30
0.0000000000000000
 11
210.9689942345551
 21
535.2317039676040
 31
0.0000000000000000
  0
LINE
  5
369
100
AcDbEntity
  8
MAIN0
  6
CONTINUOUS
 62
3
100
AcDbLine
 10
210.9689942345550
 20
535.2317039676041
 30
0.0000000000000000
 11
216.3689942345549
 21
535.2317039676041
 31
0.0000000000000000
  0
LINE
  5
36A
100
AcDbEntity
  8
MAIN0
  6
CONTINUOUS
 62
3
100
AcDbLine
 10
216.3689942345565
 20
535.2317039676042
 30
0.0000000000000000
 11
216.3689942345565
 21
550.2317039676042
 31
0.0000000000000000
  0
LINE
  5
36B
100
AcDbEntity
  8
MAIN0
  6
CONTINUOUS
 62
3
100
AcDbLine
 10
211.8689942345566
 20
550.2317039676041
 30
0.0000000000000000
 11
216.3689942345566
 21
550.2317039676041
 31
0.0000000000000000
  0
LINE
  5
36C
100
AcDbEntity
  8
MAIN0
  6
CONTINUOUS
 62
3
100
AcDbLine
 10
211.8689942345565
 20
550.2317039676040
 30
0.0000000000000000
 11
210.8689942345565
 21
551.2317039676040
 31
0.0000000000000000
  0
LINE
  5
36D
100
AcDbEntity
  8
MAIN0
  6
CONTINUOUS
 62
3
100
AcDbLine
 10
210.8689942345566
 20
566.4317039676041
 30
0.0000000000000000
 11
210.8689942345566
 21
551.2317039676041
 31
0.0000000000000000
  0
LINE
  5
36E
100
AcDbEntity
  8
MAIN0
  6
CONTINUOUS
 62
3
100
AcDbLine
 10
150.8689942345566
 20
564.2317039676038
 30
0.0000000000000000
 11
210.8689942345566
 21
564.2317039676038
 31
0.0000000000000000
  0
LINE
  5
36F
100
AcDbEntity
  8
MAIN0
  6
CONTINUOUS
 62
3
100
AcDbLine
 10
163.3689942345893
 20
510.2317039676040
 30
0.0000000000000000
 11
151.3689942345568
 21
522.2317039677675
 31
0.0000000000000000
  0
LINE
  5
370
100
AcDbEntity
  8
MAIN0
  6
CONTINUOUS
 62
3
100
AcDbLine
 10
163.3689942345892
 20
510.2317039676038
 30
0.0000000000000000
 11
198.3689942345243
 21
510.2317039676038
 31
0.0000000000000000
  0
LINE
  5
371
100
AcDbEntity
  8
MAIN0
  6
CONTINUOUS
 62
3
100
AcDbLine
 10
151.3689942345567
 20
534.6317039676039
 30
0.0000000000000000
 11
151.3689942345567
 21
522.2317039677675
 31
0.0000000000000000
  0
LINE
  5
372
100
AcDbEntity
  8
MAIN0
  6
CONTINUOUS
 62
3
100
AcDbLine
 10
210.3689942345570
 20
534.6317039676060
 30
0.0000000000000000
 11
210.3689942345569
 21
522.2317039677675
 31
0.0000000000000000
  0
LINE
  5
373
100
AcDbEntity
  8
MAIN0
  6
CONTINUOUS
 62
3
100
AcDbLine
 10
198.3689942345244
 20
510.2317039676042
 30
0.0000000000000000
 11
210.3689942345570
 21
522.2317039677677
 31
0.0000000000000000
  0
LINE
  5
374
100
AcDbEntity
  8
MAIN0
  6
CONTINUOUS
 62
3
100
AcDbLine
 10
150.8689942345566
 20
564.2317039676038
 30
0.0000000000000000
 11
150.8689942345566
 21
550.2317039676045
 31
0.0000000000000000
  0
LINE
  5
375
100
AcDbEntity
  8
MAIN0
  6
CONTINUOUS
 62
3
100
AcDbLine
 10
145.3689942345566
 20
550.2317039676038
 30
0.0000000000000000
 11
145.3689942345566
 21
535.2317039676041
 31
0.0000000000000000
  0
LINE
  5
376
100
AcDbEntity
  8
MAIN0
  6
CONTINUOUS
 62
3
100
AcDbLine
 10
145.3689942345567
 20
550.2317039676047
 30
0.0000000000000000
 11
150.8689942345566
 21
550.2317039676046
 31
0.0000000000000000
  0
LINE
  5
377
100
AcDbEntity
  8
MAIN0
  6
CONTINUOUS
 62
3
100
AcDbLine
 10
210.8689942345566
 20
550.2317039676038
 30
0.0000000000000000
 11
216.3689942345566
 21
550.2317039676038
 31
0.0000000000000000
  0
LINE
  5
378
100
AcDbEntity
  8
MAIN0
  6
CONTINUOUS
 62
3
100
AcDbLine
 10
210.8689942345566
 20
564.2317039676038
 30
0.0000000000000000
 11
210.8689942345566
 21
550.2317039676038
 31
0.0000000000000000
  0
LINE
  5
379
100
AcDbEntity
  8
MAIN0
  6
CONTINUOUS
 62
3
100
AcDbLine
 10
216.3689942345566
 20
535.2317039676038
 30
0.0000000000000000
 11
216.3689942345566
 21
550.2317039676041
 31
0.0000000000000000
  0
LINE
  5
37A
100
AcDbEntity
  8
MAIN0
  6
CONTINUOUS
 62
3
100
AcDbLine
 10
117.8689942345566
 20
568.7317039676038
 30
0.0000000000000000
 11
119.3689942345565
 21
570.2317039676038
 31
0.0000000000000000
  0
LINE
  5
37B
100
AcDbEntity
  8
MAIN0
  6
CONTINUOUS
 62
3
100
AcDbLine
 10
242.3689942345565
 20
570.2317039676038
 30
0.0000000000000000
 11
243.8689942345565
 21
568.7317039676038
 31
0.0000000000000000
  0
DIMENSION
  5
384
100
AcDbEntity
  8
MAIN0
  6
CONTINUOUS
 62
3
100
AcDbDimension
  2
*D52
 10
118.3689942345573
 20
666.8883949900476
 30
0.0000000000000000
 11
180.8689942345573
 21
667.3883949900476
 31
0.0000000000000000
 70
32
  3
MAIN001
100
AcDbAlignedDimension
 13
243.3689942345573
 23
620.2317039689435
 33
0.0000000000000000
 14
118.3689942345573
 24
620.2317039689435
 34
0.0000000000000000
100
AcDbRotatedDimension
1001
ACAD
1000
DSTYLE
1002
{
1070
   173
1070
     1
1070
     6
1000
_OPEN
1070
     7
1000
_OPEN
1070
    41
1040
8.000000
1002
}
  0
LINE
  5
385
100
AcDbEntity
  8
MAIN0
  6
CONTINUOUS
 62
3
100
AcDbLine
 10
1473.728610438446
 20
506.2317039699811
 30
0.0000000000000000
 11
1473.728610438446
 21
546.2317039699816
 31
0.0000000000000000
  0
LINE
  5
386
100
AcDbEntity
  8
MAIN0
  6
CONTINUOUS
 62
3
100
AcDbLine
 10
1467.728610438446
 20
485.6317039699817
 30
0.0000000000000000
 11
1467.728610438446
 21
505.2317039699812
 31
0.0000000000000000
  0
LINE
  5
387
100
AcDbEntity
  8
MAIN0
  6
CONTINUOUS
 62
3
100
AcDbLine
 10
1473.728610438446
 20
506.2317039699811
 30
0.0000000000000000
 11
1468.728610438447
 21
506.2317039699811
 31
0.0000000000000000
  0
LINE
  5
388
100
AcDbEntity
  8
MAIN0
  6
CENTER
 62
3
100
AcDbLine
 10
1530.728610438447
 20
475.2317039699813
 30
0.0000000000000000
 11
1530.728610438447
 21
630.2317039693000
 31
0.0000000000000000
  0
LINE
  5
389
100
AcDbEntity
  8
MAIN0
  6
CONTINUOUS
 62
3
100
AcDbLine
 10
1469.228610438446
 20
570.2317039699811
 30
0.0000000000000000
 11
1499.128610438445
 21
570.2317039699811
 31
0.0000000000000000
  0
LINE
  5
38A
100
AcDbEntity
  8
MAIN0
  6
CONTINUOUS
 62
3
100
AcDbLine
 10
1562.328610438447
 20
570.2317039699811
 30
0.0000000000000000
 11
1592.228610438447
 21
570.2317039699811
 31
0.0000000000000000
  0
LINE
  5
38B
100
AcDbEntity
  8
MAIN0
  6
CONTINUOUS
 62
3
100
AcDbLine
 10
1468.728610438447
 20
546.2317039699815
 30
0.0000000000000000
 11
1473.728610438447
 21
546.2317039699815
 31
0.0000000000000000
  0
LINE
  5
38C
100
AcDbEntity
  8
MAIN0
  6
CONTINUOUS
 62
3
100
AcDbLine
 10
1467.728610438447
 20
547.2317039699822
 30
0.0000000000000000
 11
1468.728610438447
 21
546.2317039699819
 31
0.0000000000000000
  0
LINE
  5
38D
100
AcDbEntity
  8
MAIN0
  6
CONTINUOUS
 62
3
100
AcDbLine
 10
1468.728610438447
 20
506.2317039699813
 30
0.0000000000000000
 11
1467.728610438446
 21
505.2317039699811
 31
0.0000000000000000
  0
LINE
  5
38E
100
AcDbEntity
  8
MAIN0
  6
CONTINUOUS
 62
3
100
AcDbLine
 10
1467.728610438447
 20
485.6317039699816
 30
0.0000000000000000
 11
1468.128610438447
 21
485.2317039699817
 31
0.0000000000000000
  0
LINE
  5
38F
100
AcDbEntity
  8
MAIN0
  6
CONTINUOUS
 62
3
100
AcDbLine
 10
1587.728610438447
 20
506.2317039699811
 30
0.0000000000000000
 11
1587.728610438447
 21
546.2317039699811
 31
0.0000000000000000
  0
LINE
  5
390
100
AcDbEntity
  8
MAIN0
  6
CONTINUOUS
 62
3
100
AcDbLine
 10
1593.728610438447
 20
485.6317039699808
 30
0.0000000000000000
 11
1593.728610438447
 21
505.2317039699807
 31
0.0000000000000000
  0
LINE
  5
391
100
AcDbEntity
  8
MAIN0
  6
CONTINUOUS
 62
3
100
AcDbLine
 10
1587.728610438447
 20
506.2317039699811
 30
0.0000000000000000
 11
1592.728610438447
 21
506.2317039699811
 31
0.0000000000000000
  0
LINE
  5
392
100
AcDbEntity
  8
MAIN0
  6
CONTINUOUS
 62
3
100
AcDbLine
 10
1592.728610438447
 20
546.2317039699811
 30
0.0000000000000000
 11
1587.728610438447
 21
546.2317039699811
 31
0.0000000000000000
  0
LINE
  5
393
100
AcDbEntity
  8
MAIN0
  6
CONTINUOUS
 62
3
100
AcDbLine
 10
1593.728610438447
 20
547.2317039699811
 30
0.0000000000000000
 11
1592.728610438446
 21
546.2317039699809
 31
0.0000000000000000
  0
LINE
  5
394
100
AcDbEntity
  8
MAIN0
  6
CONTINUOUS
 62
3
100
AcDbLine
 10
1592.728610438447
 20
506.2317039699816
 30
0.0000000000000000
 11
1593.728610438447
 21
505.2317039699818
 31
0.0000000000000000
  0
LINE
  5
395
100
AcDbEntity
  8
MAIN0
  6
CONTINUOUS
 62
3
100
AcDbLine
 10
1593.728610438446
 20
485.6317039699803
 30
0.0000000000000000
 11
1593.328610438446
 21
485.2317039699803
 31
0.0000000000000000
  0
LINE
  5
396
100
AcDbEntity
  8
MAIN0
  6
CONTINUOUS
 62
3
100
AcDbLine
 10
1468.228610438447
 20
611.4317039669219
 30
0.0000000000000000
 11
1468.228610438447
 21
620.2317039693002
 31
0.0000000000000000
  0
LINE
  5
397
100
AcDbEntity
  8
MAIN0
  6
CONTINUOUS
 62
3
100
AcDbLine
 10
1593.228610438447
 20
611.4317039669218
 30
0.0000000000000000
 11
1593.228610438447
 21
620.2317039693003
 31
0.0000000000000000
  0
LINE
  5
398
100
AcDbEntity
  8
MAIN0
  6
CONTINUOUS
 62
3
100
AcDbLine
 10
1468.228610438447
 20
620.2317039692999
 30
0.0000000000000000
 11
1593.228610438447
 21
620.2317039692999
 31
0.0000000000000000
  0
LINE
  5
399
100
AcDbEntity
  8
MAIN0
  6
CONTINUOUS
 62
3
100
AcDbLine
 10
1467.428610438350
 20
570.2317039679605
 30
0.0000000000000000
 11
1594.028610438350
 21
570.2317039679605
 31
0.0000000000000000
  0
LINE
  5
39A
100
AcDbEntity
  8
MAIN0
  6
CONTINUOUS
 62
3
100
AcDbLine
 10
1577.728610438448
 20
570.2317039682018
 30
0.0000000000000000
 11
1593.728610438448
 21
554.2317039682017
 31
0.0000000000000000
  0
LINE
  5
39B
100
AcDbEntity
  8
MAIN0
  6
CONTINUOUS
 62
3
100
AcDbLine
 10
1474.728610438447
 20
570.2317039682013
 30
0.0000000000000000
 11
1586.728610438446
 21
570.2317039682013
 31
0.0000000000000000
  0
LINE
  5
39C
100
AcDbEntity
  8
MAIN0
  6
CONTINUOUS
 62
3
100
AcDbLine
 10
1483.728610438447
 20
570.2317039682012
 30
0.0000000000000000
 11
1467.728610438447
 21
554.2317039682014
 31
0.0000000000000000
  0
LINE
  5
39D
100
AcDbEntity
  8
MAIN0
  6
CONTINUOUS
 62
3
100
AcDbLine
 10
1489.997786728428
 20
496.2317039698679
 30
0.0000000000000000
 11
1571.459434148466
 21
496.2317039698679
 31
0.0000000000000000
  0
LINE
  5
39E
100
AcDbEntity
  8
MAIN0
  6
CENTER
 62
3
100
AcDbLine
 10
1501.528610438447
 20
511.7317039682013
 30
0.0000000000000000
 11
1478.528610438447
 21
511.7317039682013
 31
0.0000000000000000
  0
LINE
  5
39F
100
AcDbEntity
  8
MAIN0
  6
CENTER
 62
3
100
AcDbLine
 10
1490.028610438447
 20
523.2317039682013
 30
0.0000000000000000
 11
1490.028610438447
 21
500.2317039682013
 31
0.0000000000000000
  0
LINE
  5
3A0
100
AcDbEntity
  8
MAIN0
  6
CENTER
 62
3
100
AcDbLine
 10
1501.528610438447
 20
558.7317039682013
 30
0.0000000000000000
 11
1478.528610438447
 21
558.7317039682013
 31
0.0000000000000000
  0
LINE
  5
3A1
100
AcDbEntity
  8
MAIN0
  6
CENTER
 62
3
100
AcDbLine
 10
1490.028610438447
 20
570.2317039682013
 30
0.0000000000000000
 11
1490.028610438447
 21
547.2317039682013
 31
0.0000000000000000
  0
LINE
  5
3A2
100
AcDbEntity
  8
MAIN0
  6
CENTER
 62
3
100
AcDbLine
 10
1582.928610438447
 20
558.7317039682013
 30
0.0000000000000000
 11
1559.928610438447
 21
558.7317039682013
 31
0.0000000000000000
  0
LINE
  5
3A3
100
AcDbEntity
  8
MAIN0
  6
CENTER
 62
3
100
AcDbLine
 10
1571.428610438447
 20
570.2317039682013
 30
0.0000000000000000
 11
1571.428610438447
 21
547.2317039682013
 31
0.0000000000000000
  0
LINE
  5
3A4
100
AcDbEntity
  8
MAIN0
  6
CENTER
 62
3
100
AcDbLine
 10
1582.928610438447
 20
511.7317039682013
 30
0.0000000000000000
 11
1559.928610438447
 21
511.7317039682013
 31
0.0000000000000000
  0
LINE
  5
3A5
100
AcDbEntity
  8
MAIN0
  6
CENTER
 62
3
100
AcDbLine
 10
1571.428610438447
 20
523.2317039682013
 30
0.0000000000000000
 11
1571.428610438447
 21
500.2317039682013
 31
0.0000000000000000
  0
ARC
  5
3A6
100
AcDbEntity
  8
MAIN0
  6
CONTINUOUS
 62
3
100
AcDbCircle
 10
1530.728610438447
 20
535.2317039682013
 30
0.0000000000000000
 40
37.50000000000000
100
AcDbArc
 50
238.5760935141543
 51
301.4239064858458
  0
ARC
  5
3A7
100
AcDbEntity
  8
MAIN0
  6
CONTINUOUS
 62
3
100
AcDbCircle
 10
1490.028610438447
 20
511.7317039682013
 30
0.0000000000000000
 40
8.500000000000000
100
AcDbArc
 50
47.96929745604307
 51
372.0345964210294
  0
ARC
  5
3A8
100
AcDbEntity
  8
MAIN0
  6
CONTINUOUS
 62
3
100
AcDbCircle
 10
1571.428610438447
 20
511.7317039682013
 30
0.0000000000000000
 40
8.500000000000000
100
AcDbArc
 50
167.9654035789671
 51
492.0307025439610
  0
ARC
  5
3A9
100
AcDbEntity
  8
MAIN0
  6
CONTINUOUS
 62
3
100
AcDbCircle
 10
1571.428610438447
 20
558.7317039682013
 30
0.0000000000000000
 40
8.500000000000000
100
AcDbArc
 50
227.9692974560390
 51
552.0345964210328
  0
ARC
  5
3AA
100
AcDbEntity
  8
MAIN0
  6
CONTINUOUS
 62
3
100
AcDbCircle
 10
1490.028610438447
 20
558.7317039682013
 30
0.0000000000000000
 40
8.500000000000000
100
AcDbArc
 50
347.9654035789706
 51
672.0307025439569
  0
LINE
  5
3AB
100
AcDbEntity
  8
MAIN0
  6
CENTER
 62
3
100
AcDbLine
 10
1463.728610438447
 20
535.2317039682347
 30
0.0000000000000000
 11
1597.728610438447
 21
535.2317039682049
 31
0.0000000000000000
  0
CIRCLE
  5
3AC
100
AcDbEntity
  8
MAIN0
  6
CONTINUOUS
 62
3
100
AcDbCircle
 10
1490.028416460613
 20
511.7317039679602
 30
0.0000000000000000
 40
8.000000000000000
  0
LINE
  5
3AD
100
AcDbEntity
  8
MAIN0
  6
CONTINUOUS
 62
3
100
AcDbLine
 10
1490.028416460614
 20
516.3505061214771
 30
0.0000000000000000
 11
1486.028416460614
 21
514.0411050447185
 31
0.0000000000000000
  0
LINE
  5
3AE
100
AcDbEntity
  8
MAIN0
  6
CONTINUOUS
 62
3
100
AcDbLine
 10
1486.028416460613
 20
514.0411050447189
 30
0.0000000000000000
 11
1486.028416460613
 21
509.4223028912016
 31
0.0000000000000000
  0
LINE
  5
3AF
100
AcDbEntity
  8
MAIN0
  6
CONTINUOUS
 62
3
100
AcDbLine
 10
1486.028416460613
 20
509.4223028912018
 30
0.0000000000000000
 11
1490.028416460613
 21
507.1129018144434
 31
0.0000000000000000
  0
LINE
  5
3B0
100
AcDbEntity
  8
MAIN0
  6
CONTINUOUS
 62
3
100
AcDbLine
 10
1490.028416460614
 20
507.1129018144429
 30
0.0000000000000000
 11
1494.028416460614
 21
509.4223028912015
 31
0.0000000000000000
  0
LINE
  5
3B1
100
AcDbEntity
  8
MAIN0
  6
CONTINUOUS
 62
3
100
AcDbLine
 10
1494.028416460613
 20
509.4223028912016
 30
0.0000000000000000
 11
1494.028416460613
 21
514.0411050447189
 31
0.0000000000000000
  0
LINE
  5
3B2
100
AcDbEntity
  8
MAIN0
  6
CONTINUOUS
 62
3
100
AcDbLine
 10
1494.028416460613
 20
514.0411050447190
 30
0.0000000000000000
 11
1490.028416460613
 21
516.3505061214773
 31
0.0000000000000000
  0
CIRCLE
  5
3B3
100
AcDbEntity
  8
MAIN0
  6
CONTINUOUS
 62
3
100
AcDbCircle
 10
1490.028416460613
 20
558.7317039679602
 30
0.0000000000000000
 40
8.000000000000000
  0
LINE
  5
3B4
100
AcDbEntity
  8
MAIN0
  6
CONTINUOUS
 62
3
100
AcDbLine
 10
1490.028416460614
 20
563.3505061214775
 30
0.0000000000000000
 11
1486.028416460614
 21
561.0411050447191
 31
0.0000000000000000
  0
LINE
  5
3B5
100
AcDbEntity
  8
MAIN0
  6
CONTINUOUS
 62
3
100
AcDbLine
 10
1486.028416460613
 20
561.0411050447189
 30
0.0000000000000000
 11
1486.028416460613
 21
556.4223028912016
 31
0.0000000000000000
  0
LINE
  5
3B6
100
AcDbEntity
  8
MAIN0
  6
CONTINUOUS
 62
3
100
AcDbLine
 10
1486.028416460614
 20
556.4223028912013
 30
0.0000000000000000
 11
1490.028416460613
 21
554.1129018144429
 31
0.0000000000000000
  0
LINE
  5
3B7
100
AcDbEntity
  8
MAIN0
  6
CONTINUOUS
 62
3
100
AcDbLine
 10
1490.028416460613
 20
554.1129018144434
 30
0.0000000000000000
 11
1494.028416460614
 21
556.4223028912020
 31
0.0000000000000000
  0
LINE
  5
3B8
100
AcDbEntity
  8
MAIN0
  6
CONTINUOUS
 62
3
100
AcDbLine
 10
1494.028416460613
 20
556.4223028912016
 30
0.0000000000000000
 11
1494.028416460613
 21
561.0411050447189
 31
0.0000000000000000
  0
LINE
  5
3B9
100
AcDbEntity
  8
MAIN0
  6
CONTINUOUS
 62
3
100
AcDbLine
 10
1494.028416460613
 20
561.0411050447185
 30
0.0000000000000000
 11
1490.028416460614
 21
563.3505061214769
 31
0.0000000000000000
  0
CIRCLE
  5
3BA
100
AcDbEntity
  8
MAIN0
  6
CONTINUOUS
 62
3
100
AcDbCircle
 10
1571.428804416280
 20
558.7317039679602
 30
0.0000000000000000
 40
8.000000000000000
  0
LINE
  5
3BB
100
AcDbEntity
  8
MAIN0
  6
CONTINUOUS
 62
3
100
AcDbLine
 10
1571.428804416280
 20
563.3505061214773
 30
0.0000000000000000
 11
1567.428804416280
 21
561.0411050447190
 31
0.0000000000000000
  0
LINE
  5
3BC
100
AcDbEntity
  8
MAIN0
  6
CONTINUOUS
 62
3
100
AcDbLine
 10
1567.428804416280
 20
561.0411050447189
 30
0.0000000000000000
 11
1567.428804416280
 21
556.4223028912016
 31
0.0000000000000000
  0
LINE
  5
3BD
100
AcDbEntity
  8
MAIN0
  6
CONTINUOUS
 62
3
100
AcDbLine
 10
1567.428804416281
 20
556.4223028912013
 30
0.0000000000000000
 11
1571.428804416281
 21
554.1129018144429
 31
0.0000000000000000
  0
LINE
  5
3BE
100
AcDbEntity
  8
MAIN0
  6
CONTINUOUS
 62
3
100
AcDbLine
 10
1571.428804416280
 20
554.1129018144434
 30
0.0000000000000000
 11
1575.428804416281
 21
556.4223028912020
 31
0.0000000000000000
  0
LINE
  5
3BF
100
AcDbEntity
  8
MAIN0
  6
CONTINUOUS
 62
3
100
AcDbLine
 10
1575.428804416280
 20
556.4223028912016
 30
0.0000000000000000
 11
1575.428804416280
 21
561.0411050447189
 31
0.0000000000000000
  0
LINE
  5
3C0
100
AcDbEntity
  8
MAIN0
  6
CONTINUOUS
 62
3
100
AcDbLine
 10
1575.428804416281
 20
561.0411050447183
 30
0.0000000000000000
 11
1571.428804416280
 21
563.3505061214769
 31
0.0000000000000000
  0
CIRCLE
  5
3C1
100
AcDbEntity
  8
MAIN0
  6
CONTINUOUS
 62
3
100
AcDbCircle
 10
1571.428804416280
 20
511.7317039679602
 30
0.0000000000000000
 40
8.000000000000000
  0
LINE
  5
3C2
100
AcDbEntity
  8
MAIN0
  6
CONTINUOUS
 62
3
100
AcDbLine
 10
1571.428804416280
 20
516.3505061214769
 30
0.0000000000000000
 11
1567.428804416281
 21
514.0411050447185
 31
0.0000000000000000
  0
LINE
  5
3C3
100
AcDbEntity
  8
MAIN0
  6
CONTINUOUS
 62
3
100
AcDbLine
 10
1567.428804416280
 20
514.0411050447189
 30
0.0000000000000000
 11
1567.428804416280
 21
509.4223028912016
 31
0.0000000000000000
  0
LINE
  5
3C4
100
AcDbEntity
  8
MAIN0
  6
CONTINUOUS
 62
3
100
AcDbLine
 10
1567.428804416280
 20
509.4223028912021
 30
0.0000000000000000
 11
1571.428804416280
 21
507.1129018144435
 31
0.0000000000000000
  0
LINE
  5
3C5
100
AcDbEntity
  8
MAIN0
  6
CONTINUOUS
 62
3
100
AcDbLine
 10
1571.428804416281
 20
507.1129018144430
 30
0.0000000000000000
 11
1575.428804416280
 21
509.4223028912014
 31
0.0000000000000000
  0
LINE
  5
3C6
100
AcDbEntity
  8
MAIN0
  6
CONTINUOUS
 62
3
100
AcDbLine
 10
1575.428804416280
 20
509.4223028912016
 30
0.0000000000000000
 11
1575.428804416280
 21
514.0411050447189
 31
0.0000000000000000
  0
LINE
  5
3C7
100
AcDbEntity
  8
MAIN0
  6
CONTINUOUS
 62
3
100
AcDbLine
 10
1575.428804416280
 20
514.0411050447191
 30
0.0000000000000000
 11
1571.428804416280
 21
516.3505061214777
 31
0.0000000000000000
  0
LINE
  5
3C8
100
AcDbEntity
  8
MAIN0
  6
CONTINUOUS
 62
3
100
AcDbLine
 10
1547.933260972544
 20
570.2317039681957
 30
0.0000000000000000
 11
1513.523959904376
 21
570.2317039682082
 31
0.0000000000000000
  0
LINE
  5
3C9
100
AcDbEntity
  8
MAIN0
  6
CENTER
 62
3
100
AcDbLine
 10
1497.728610438442
 20
541.9817039681917
 30
0.0000000000000000
 11
1497.728610438442
 21
528.4817039681917
 31
0.0000000000000000
  0
LINE
  5
3CA
100
AcDbEntity
  8
MAIN0
  6
CENTER
 62
3
100
AcDbLine
 10
1563.728610438451
 20
541.9817039681917
 30
0.0000000000000000
 11
1563.728610438451
 21
528.4817039681917
 31
0.0000000000000000
  0
LINE
  5
3CB
100
AcDbEntity
  8
MAIN0
  6
CONTINUOUS
 62
3
100
AcDbLine
 10
1508.435113628839
 20
503.2317039682013
 30
0.0000000000000000
 11
1553.022107248055
 21
503.2317039682013
 31
0.0000000000000000
  0
ARC
  5
3CC
100
AcDbEntity
  8
MAIN0
  6
CONTINUOUS
 62
3
100
AcDbCircle
 10
1530.728610438447
 20
535.2317039682013
 30
0.0000000000000000
 40
39.00000000000000
100
AcDbArc
 50
304.8638379543034
 51
423.8230478283153
  0
ARC
  5
3CD
100
AcDbEntity
  8
MAIN0
  6
CONTINUOUS
 62
3
100
AcDbCircle
 10
1530.728610438447
 20
535.2317039682013
 30
0.0000000000000000
 40
39.00000000000000
100
AcDbArc
 50
116.1769521716430
 51
235.1361620456966
  0
CIRCLE
  5
3CE
100
AcDbEntity
  8
MAIN0
  6
CONTINUOUS
 62
3
100
AcDbCircle
 10
1497.728610438442
 20
535.2317039681917
 30
0.0000000000000000
 40
4.750000000000000
  0
CIRCLE
  5
3CF
100
AcDbEntity
  8
MAIN0
  6
CONTINUOUS
 62
3
100
AcDbCircle
 10
1563.728610438451
 20
535.2317039681917
 30
0.0000000000000000
 40
4.750000000000000
  0
CIRCLE
  5
3D0
100
AcDbEntity
  8
MAIN0
  6
CONTINUOUS
 62
3
100
AcDbCircle
 10
1497.728610438442
 20
535.2317039681917
 30
0.0000000000000000
 40
4.250000000000000
  0
LINE
  5
3D1
100
AcDbEntity
  8
MAIN0
  6
CONTINUOUS
 62
3
100
AcDbLine
 10
1497.728610438442
 20
537.5411050449504
 30
0.0000000000000000
 11
1495.728610438442
 21
536.3864045065711
 31
0.0000000000000000
  0
LINE
  5
3D2
100
AcDbEntity
  8
MAIN0
  6
CONTINUOUS
 62
3
100
AcDbLine
 10
1495.728610438442
 20
536.3864045065708
 30
0.0000000000000000
 11
1495.728610438442
 21
534.0770034298122
 31
0.0000000000000000
  0
LINE
  5
3D3
100
AcDbEntity
  8
MAIN0
  6
CONTINUOUS
 62
3
100
AcDbLine
 10
1495.728610438442
 20
534.0770034298121
 30
0.0000000000000000
 11
1497.728610438442
 21
532.9223028914328
 31
0.0000000000000000
  0
LINE
  5
3D4
100
AcDbEntity
  8
MAIN0
  6
CONTINUOUS
 62
3
100
AcDbLine
 10
1497.728610438442
 20
532.9223028914333
 30
0.0000000000000000
 11
1499.728610438442
 21
534.0770034298126
 31
0.0000000000000000
  0
LINE
  5
3D5
100
AcDbEntity
  8
MAIN0
  6
CONTINUOUS
 62
3
100
AcDbLine
 10
1499.728610438442
 20
534.0770034298122
 30
0.0000000000000000
 11
1499.728610438442
 21
536.3864045065708
 31
0.0000000000000000
  0
LINE
  5
3D6
100
AcDbEntity
  8
MAIN0
  6
CONTINUOUS
 62
3
100
AcDbLine
 10
1499.728610438442
 20
536.3864045065704
 30
0.0000000000000000
 11
1497.728610438442
 21
537.5411050449498
 31
0.0000000000000000
  0
CIRCLE
  5
3D7
100
AcDbEntity
  8
MAIN0
  6
CONTINUOUS
 62
3
100
AcDbCircle
 10
1563.728610438451
 20
535.2317039681917
 30
0.0000000000000000
 40
4.250000000000000
  0
LINE
  5
3D8
100
AcDbEntity
  8
MAIN0
  6
CONTINUOUS
 62
3
100
AcDbLine
 10
1563.728610438452
 20
537.5411050449503
 30
0.0000000000000000
 11
1561.728610438452
 21
536.3864045065710
 31
0.0000000000000000
  0
LINE
  5
3D9
100
AcDbEntity
  8
MAIN0
  6
CONTINUOUS
 62
3
100
AcDbLine
 10
1561.728610438451
 20
536.3864045065708
 30
0.0000000000000000
 11
1561.728610438451
 21
534.0770034298122
 31
0.0000000000000000
  0
LINE
  5
3DA
100
AcDbEntity
  8
MAIN0
  6
CONTINUOUS
 62
3
100
AcDbLine
 10
1561.728610438452
 20
534.0770034298118
 30
0.0000000000000000
 11
1563.728610438452
 21
532.9223028914325
 31
0.0000000000000000
  0
LINE
  5
3DB
100
AcDbEntity
  8
MAIN0
  6
CONTINUOUS
 62
3
100
AcDbLine
 10
1563.728610438452
 20
532.9223028914332
 30
0.0000000000000000
 11
1565.728610438452
 21
534.0770034298125
 31
0.0000000000000000
  0
LINE
  5
3DC
100
AcDbEntity
  8
MAIN0
  6
CONTINUOUS
 62
3
100
AcDbLine
 10
1565.728610438451
 20
534.0770034298122
 30
0.0000000000000000
 11
1565.728610438451
 21
536.3864045065708
 31
0.0000000000000000
  0
LINE
  5
3DD
100
AcDbEntity
  8
MAIN0
  6
CONTINUOUS
 62
3
100
AcDbLine
 10
1565.728610438452
 20
536.3864045065707
 30
0.0000000000000000
 11
1563.728610438452
 21
537.5411050449498
 31
0.0000000000000000
  0
LINE
  5
3DE
100
AcDbEntity
  8
MAIN0
  6
CONTINUOUS
 62
3
100
AcDbLine
 10
1533.728610438446
 20
523.6127539295974
 30
0.0000000000000000
 11
1533.728610438446
 21
514.4470942773932
 31
0.0000000000000000
  0
LINE
  5
3DF
100
AcDbEntity
  8
MAIN0
  6
CONTINUOUS
 62
3
100
AcDbLine
 10
1527.728610438446
 20
523.6127539295975
 30
0.0000000000000000
 11
1527.728610438446
 21
514.4470942773932
 31
0.0000000000000000
  0
LINE
  5
3E0
100
AcDbEntity
  8
MAIN0
  6
CONTINUOUS
 62
3
100
AcDbLine
 10
1523.728610438446
 20
539.2731558525218
 30
0.0000000000000000
 11
1530.728610438446
 21
543.3146077368631
 31
0.0000000000000000
  0
LINE
  5
3E1
100
AcDbEntity
  8
MAIN0
  6
CONTINUOUS
 62
3
100
AcDbLine
 10
1523.728610438446
 20
531.1902520838601
 30
0.0000000000000000
 11
1523.728610438446
 21
539.2731558525218
 31
0.0000000000000000
  0
LINE
  5
3E2
100
AcDbEntity
  8
MAIN0
  6
CONTINUOUS
 62
3
100
AcDbLine
 10
1523.728610438446
 20
531.1902520838603
 30
0.0000000000000000
 11
1530.728610438446
 21
527.1488001995398
 31
0.0000000000000000
  0
LINE
  5
3E3
100
AcDbEntity
  8
MAIN0
  6
CONTINUOUS
 62
3
100
AcDbLine
 10
1537.728610438447
 20
531.1902520838607
 30
0.0000000000000000
 11
1530.728610438447
 21
527.1488001995401
 31
0.0000000000000000
  0
LINE
  5
3E4
100
AcDbEntity
  8
MAIN0
  6
CONTINUOUS
 62
3
100
AcDbLine
 10
1537.728610438446
 20
531.1902520838600
 30
0.0000000000000000
 11
1537.728610438446
 21
539.2731558525217
 31
0.0000000000000000
  0
LINE
  5
3E5
100
AcDbEntity
  8
MAIN0
  6
CONTINUOUS
 62
3
100
AcDbLine
 10
1537.728610438448
 20
539.2731558525218
 30
0.0000000000000000
 11
1530.728610438447
 21
543.3146077368632
 31
0.0000000000000000
  0
LINE
  5
3E6
100
AcDbEntity
  8
MAIN0
  6
CONTINUOUS
 62
3
100
AcDbLine
 10
1529.028610438447
 20
559.9232511048411
 30
0.0000000000000000
 11
1529.028610438447
 21
556.1627813413508
 31
0.0000000000000000
  0
LINE
  5
3E7
100
AcDbEntity
  8
MAIN0
  6
CONTINUOUS
 62
3
100
AcDbLine
 10
1532.428610438447
 20
559.9232511048411
 30
0.0000000000000000
 11
1532.428610438447
 21
556.1627813413508
 31
0.0000000000000000
  0
LINE
  5
3E8
100
AcDbEntity
  8
MAIN0
  6
CONTINUOUS
 62
3
100
AcDbLine
 10
1473.728610438446
 20
506.2317039699809
 30
0.0000000000000000
 11
1473.728610438446
 21
515.2317039699808
 31
0.0000000000000000
  0
LINE
  5
3E9
100
AcDbEntity
  8
MAIN0
  6
CONTINUOUS
 62
3
100
AcDbLine
 10
1467.728610438446
 20
506.2317039699809
 30
0.0000000000000000
 11
1473.728610438446
 21
506.2317039699809
 31
0.0000000000000000
  0
LINE
  5
3EA
100
AcDbEntity
  8
MAIN0
  6
CONTINUOUS
 62
3
100
AcDbLine
 10
1467.728610438446
 20
495.2317039699809
 30
0.0000000000000000
 11
1467.728610438446
 21
506.2317039699809
 31
0.0000000000000000
  0
LINE
  5
3EB
100
AcDbEntity
  8
MAIN0
  6
CONTINUOUS
 62
3
100
AcDbLine
 10
1473.728610438446
 20
515.2317039699808
 30
0.0000000000000000
 11
1396.728610438446
 21
515.2317039699808
 31
0.0000000000000000
  0
LINE
  5
3EC
100
AcDbEntity
  8
MAIN0
  6
CONTINUOUS
 62
3
100
AcDbLine
 10
1467.728610438446
 20
495.2317039699809
 30
0.0000000000000000
 11
1420.226478022976
 21
495.2317039699809
 31
0.0000000000000000
  0
LINE
  5
3ED
100
AcDbEntity
  8
MAIN0
  6
CONTINUOUS
 62
3
100
AcDbLine
 10
1396.728610438447
 20
515.2317039699808
 30
0.0000000000000000
 11
1398.428610438447
 21
485.2317039699810
 31
0.0000000000000000
  0
LINE
  5
3EE
100
AcDbEntity
  8
MAIN0
  6
CONTINUOUS
 62
3
100
AcDbLine
 10
1413.428610428809
 20
485.2317039699803
 30
0.0000000000000000
 11
1414.317631504906
 21
490.2735930360033
 31
0.0000000000000000
  0
ARC
  5
3EF
100
AcDbEntity
  8
MAIN0
  6
CONTINUOUS
 62
3
100
AcDbCircle
 10
1420.226478022976
 20
489.2317039699809
 30
0.0000000000000000
 40
6.000000000000000
100
AcDbArc
 50
90.00000000000000
 51
169.9999999997949
  0
LINE
  5
3F0
100
AcDbEntity
  8
MAIN0
  6
CONTINUOUS
 62
3
100
AcDbLine
 10
1413.428610428809
 20
485.2317039699809
 30
0.0000000000000000
 11
1398.428610438447
 21
485.2317039699809
 31
0.0000000000000000
  0
LINE
  5
3F1
100
AcDbEntity
  8
MAIN0
  6
CENTER
 62
3
100
AcDbLine
 10
1444.728610438446
 20
297.4237039835243
 30
0.0000000000000000
 11
1444.728610438447
 21
541.2317039699810
 31
0.0000000000000000
  0
LINE
  5
3F2
100
AcDbEntity
  8
MAIN0
  6
CONTINUOUS
 62
3
100
AcDbLine
 10
1462.228610438446
 20
520.2317039699808
 30
0.0000000000000000
 11
1427.228610438446
 21
520.2317039699808
 31
0.0000000000000000
  0
LINE
  5
3F3
100
AcDbEntity
  8
MAIN0
  6
CONTINUOUS
 62
3
100
AcDbLine
 10
1462.228610438446
 20
515.2317039699808
 30
0.0000000000000000
 11
1462.228610438446
 21
520.2317039699808
 31
0.0000000000000000
  0
LINE
  5
3F4
100
AcDbEntity
  8
MAIN0
  6
CONTINUOUS
 62
3
100
AcDbLine
 10
1427.228610438446
 20
515.2317039699808
 30
0.0000000000000000
 11
1427.228610438446
 21
520.2317039699808
 31
0.0000000000000000
  0
LINE
  5
3F5
100
AcDbEntity
  8
MAIN0
  6
CONTINUOUS
 62
3
100
AcDbLine
 10
1456.728610438446
 20
520.2317039699808
 30
0.0000000000000000
 11
1456.728610438446
 21
534.6317039699806
 31
0.0000000000000000
  0
LINE
  5
3F6
100
AcDbEntity
  8
MAIN0
  6
CONTINUOUS
 62
3
100
AcDbLine
 10
1456.728610438446
 20
534.6317039699801
 30
0.0000000000000000
 11
1453.957329146336
 21
536.2317039699802
 31
0.0000000000000000
  0
LINE
  5
3F7
100
AcDbEntity
  8
MAIN0
  6
CONTINUOUS
 62
3
100
AcDbLine
 10
1453.957329146336
 20
536.2317039699809
 30
0.0000000000000000
 11
1435.499891730557
 21
536.2317039699809
 31
0.0000000000000000
  0
LINE
  5
3F8
100
AcDbEntity
  8
MAIN0
  6
CONTINUOUS
 62
3
100
AcDbLine
 10
1435.499891730557
 20
536.2317039699808
 30
0.0000000000000000
 11
1432.728610438447
 21
534.6317039699809
 31
0.0000000000000000
  0
LINE
  5
3F9
100
AcDbEntity
  8
MAIN0
  6
CONTINUOUS
 62
3
100
AcDbLine
 10
1432.728610438446
 20
534.6317039699806
 30
0.0000000000000000
 11
1432.728610438446
 21
520.2317039699808
 31
0.0000000000000000
  0
LINE
  5
3FA
100
AcDbEntity
  8
MAIN0
  6
CONTINUOUS
 62
3
100
AcDbLine
 10
1456.728610438446
 20
534.6317039699806
 30
0.0000000000000000
 11
1432.728610438446
 21
534.6317039699806
 31
0.0000000000000000
  0
LINE
  5
3FB
100
AcDbEntity
  8
MAIN0
  6
CONTINUOUS
 62
3
100
AcDbLine
 10
1452.728610438446
 20
495.2317039699809
 30
0.0000000000000000
 11
1452.728610438446
 21
474.2317039699809
 31
0.0000000000000000
  0
LINE
  5
3FC
100
AcDbEntity
  8
MAIN0
  6
CONTINUOUS
 62
3
100
AcDbLine
 10
1436.728610438446
 20
474.2317039699809
 30
0.0000000000000000
 11
1436.728610438446
 21
495.2317039699809
 31
0.0000000000000000
  0
LINE
  5
3FD
100
AcDbEntity
  8
MAIN0
  6
CONTINUOUS
 62
3
100
AcDbLine
 10
1451.646078438447
 20
495.2317039699809
 30
0.0000000000000000
 11
1451.646078438447
 21
474.2317039699809
 31
0.0000000000000000
  0
LINE
  5
3FE
100
AcDbEntity
  8
MAIN0
  6
CONTINUOUS
 62
3
100
AcDbLine
 10
1437.811142438446
 20
495.2317039699809
 30
0.0000000000000000
 11
1437.811142438446
 21
474.2317039699809
 31
0.0000000000000000
  0
LINE
  5
3FF
100
AcDbEntity
  8
MAIN0
  6
CONTINUOUS
 62
3
100
AcDbLine
 10
1468.228610438447
 20
485.2317039699813
 30
0.0000000000000000
 11
1468.228610438447
 21
480.2317039699795
 31
0.0000000000000000
  0
LINE
  5
400
100
AcDbEntity
  8
MAIN0
  6
CONTINUOUS
 62
3
100
AcDbLine
 10
1493.228610438446
 20
480.2317039699811
 30
0.0000000000000000
 11
1468.228610438446
 21
480.2317039699811
 31
0.0000000000000000
  0
LINE
  5
401
100
AcDbEntity
  8
MAIN0
  6
CONTINUOUS
 62
3
100
AcDbLine
 10
1493.228610438447
 20
485.2317039699811
 30
0.0000000000000000
 11
1493.228610438447
 21
480.2317039699811
 31
0.0000000000000000
  0
LINE
  5
402
100
AcDbEntity
  8
MAIN0
  6
CONTINUOUS
 62
3
100
AcDbLine
 10
1568.228610438450
 20
485.2317039699811
 30
0.0000000000000000
 11
1568.228610438450
 21
480.2317039699811
 31
0.0000000000000000
  0
LINE
  5
403
100
AcDbEntity
  8
MAIN0
  6
CONTINUOUS
 62
3
100
AcDbLine
 10
1593.228610438451
 20
480.2317039699810
 30
0.0000000000000000
 11
1568.228610438451
 21
480.2317039699810
 31
0.0000000000000000
  0
LINE
  5
404
100
AcDbEntity
  8
MAIN0
  6
CONTINUOUS
 62
3
100
AcDbLine
 10
1593.228610438451
 20
485.2317039699813
 30
0.0000000000000000
 11
1593.228610438451
 21
480.2317039699850
 31
0.0000000000000000
  0
LINE
  5
405
100
AcDbEntity
  8
MAIN0
  6
CONTINUOUS
 62
3
100
AcDbLine
 10
1521.728610438447
 20
485.8317039699811
 30
0.0000000000000000
 11
1521.728610438447
 21
490.2317039699811
 31
0.0000000000000000
  0
LINE
  5
406
100
AcDbEntity
  8
MAIN0
  6
CONTINUOUS
 62
3
100
AcDbLine
 10
1521.728610438447
 20
490.2317039699811
 30
0.0000000000000000
 11
1539.728610438447
 21
490.2317039699811
 31
0.0000000000000000
  0
LINE
  5
407
100
AcDbEntity
  8
MAIN0
  6
CONTINUOUS
 62
3
100
AcDbLine
 10
1521.728610438447
 20
485.8317039699811
 30
0.0000000000000000
 11
1521.128610438447
 21
485.2317039699808
 31
0.0000000000000000
  0
LINE
  5
408
100
AcDbEntity
  8
MAIN0
  6
CONTINUOUS
 62
3
100
AcDbLine
 10
1539.728610438447
 20
485.8317039699811
 30
0.0000000000000000
 11
1539.728610438447
 21
490.2317039699811
 31
0.0000000000000000
  0
LINE
  5
409
100
AcDbEntity
  8
MAIN0
  6
CONTINUOUS
 62
3
100
AcDbLine
 10
1539.728610438447
 20
485.8317039699816
 30
0.0000000000000000
 11
1540.328610438447
 21
485.2317039699816
 31
0.0000000000000000
  0
LINE
  5
40A
100
AcDbEntity
  8
MAIN0
  6
CONTINUOUS
 62
3
100
AcDbLine
 10
1468.128610438447
 20
485.2317039699811
 30
0.0000000000000000
 11
1521.128610438447
 21
485.2317039699811
 31
0.0000000000000000
  0
LINE
  5
40B
100
AcDbEntity
  8
MAIN0
  6
CONTINUOUS
 62
3
100
AcDbLine
 10
1540.328610438447
 20
485.2317039699811
 30
0.0000000000000000
 11
1593.328610438447
 21
485.2317039699811
 31
0.0000000000000000
  0
LINE
  5
40C
100
AcDbEntity
  8
MAIN0
  6
CONTINUOUS
 62
3
100
AcDbLine
 10
1467.728610438447
 20
547.2317039699817
 30
0.0000000000000000
 11
1467.728610438447
 21
562.2317039702573
 31
0.0000000000000000
  0
LINE
  5
40D
100
AcDbEntity
  8
MAIN0
  6
CONTINUOUS
 62
3
100
AcDbLine
 10
1593.728610438447
 20
547.2317039699811
 30
0.0000000000000000
 11
1593.728610438446
 21
562.2317039702416
 31
0.0000000000000000
  0
ARC
  5
40E
100
AcDbEntity
  8
MAIN0
  6
CONTINUOUS
 62
3
100
AcDbCircle
 10
1472.728610438446
 20
540.4032768434551
 30
0.0000000000000000
 40
3.000000000000000
100
AcDbArc
 50
0.0000000000000000
 51
70.52877936551049
  0
ARC
  5
40F
100
AcDbEntity
  8
MAIN0
  6
CONTINUOUS
 62
3
100
AcDbCircle
 10
1530.728610438447
 20
535.2317039682013
 30
0.0000000000000000
 40
60.00000000000000
100
AcDbArc
 50
205.8419327631667
 51
215.4505426368312
  0
ARC
  5
410
100
AcDbEntity
  8
MAIN0
  6
CONTINUOUS
 62
3
100
AcDbCircle
 10
1485.728610438446
 20
513.4372092504983
 30
0.0000000000000000
 40
10.00000000000000
100
AcDbArc
 50
180.0000000000000
 51
205.8419327631667
  0
ARC
  5
411
100
AcDbEntity
  8
MAIN0
  6
CONTINUOUS
 62
3
100
AcDbCircle
 10
1489.997786728428
 20
506.2317039698679
 30
0.0000000000000000
 40
10.00000000000000
100
AcDbArc
 50
215.4505426368312
 51
270.0000000000000
  0
LINE
  5
412
100
AcDbEntity
  8
MAIN0
  6
CONTINUOUS
 62
3
100
AcDbLine
 10
1475.728610438446
 20
513.4372092504983
 30
0.0000000000000000
 11
1475.728610438446
 21
540.4032768434555
 31
0.0000000000000000
  0
ARC
  5
413
100
AcDbEntity
  8
MAIN0
  6
CONTINUOUS
 62
3
100
AcDbCircle
 10
1588.728610438447
 20
540.4032768434551
 30
0.0000000000000000
 40
3.000000000000000
100
AcDbArc
 50
109.4712206344893
 51
179.9999999999997
  0
LINE
  5
414
100
AcDbEntity
  8
MAIN0
  6
CONTINUOUS
 62
3
100
AcDbLine
 10
1585.728610438447
 20
513.4372092504981
 30
0.0000000000000000
 11
1585.728610438447
 21
540.4032768434548
 31
0.0000000000000000
  0
ARC
  5
415
100
AcDbEntity
  8
MAIN0
  6
CONTINUOUS
 62
3
100
AcDbCircle
 10
1575.728610438447
 20
513.4372092504979
 30
0.0000000000000000
 40
10.00000000000000
100
AcDbArc
 50
334.1580672368331
 51
359.9999999999997
  0
ARC
  5
416
100
AcDbEntity
  8
MAIN0
  6
CONTINUOUS
 62
3
100
AcDbCircle
 10
1530.728610438447
 20
535.2317039682013
 30
0.0000000000000000
 40
60.00000000000000
100
AcDbArc
 50
324.5494573631685
 51
334.1580672368331
  0
ARC
  5
417
100
AcDbEntity
  8
MAIN0
  6
CONTINUOUS
 62
3
100
AcDbCircle
 10
1571.459434148466
 20
506.2317039698675
 30
0.0000000000000000
 40
10.00000000000000
100
AcDbArc
 50
269.9999999999997
 51
324.5494573631685
  0
DIMENSION
  5
422
100
AcDbEntity
  8
MAIN0
  6
CONTINUOUS
 62
3
100
AcDbDimension
  2
*D53
 10
1537.728610438446
 20
639.4299657281619
 30
0.0000000000000000
 11
1559.439511895934
 21
641.4299657281619
 31
0.0000000000000000
 70
160
  3
MAIN001
100
AcDbAlignedDimension
 13
1523.728610438446
 23
539.2731558525218
 33
0.0000000000000000
 14
1537.728610438446
 24
539.2731558525217
 34
0.0000000000000000
100
AcDbRotatedDimension
1001
ACAD
1000
DSTYLE
1002
{
1070
   173
1070
     1
1070
     6
1000
_OPEN
1070
     7
1000
_OPEN
1070
    41
1040
8.000000
1070
   287
1070
     0
1002
}
  0
DIMENSION
  5
42C
100
AcDbEntity
  8
MAIN0
  6
CONTINUOUS
 62
3
100
AcDbDimension
  2
*D54
 10
1467.728610438446
 20
420.2317039694673
 30
0.0000000000000000
 11
1500.788164341844
 21
422.2317039694673
 31
0.0000000000000000
 70
160
  1
\A1;22～31
  3
MAIN001
100
AcDbAlignedDimension
 13
1444.728610438446
 23
297.4237039835243
 33
0.0000000000000000
 14
1467.728610438446
 24
485.6317039699817
 34
0.0000000000000000
100
AcDbRotatedDimension
1001
ACAD
1000
DSTYLE
1002
{
1070
   173
1070
     1
1070
     6
1000
_OPEN
1070
     7
1000
_OPEN
1070
    41
1040
8.000000
1070
   287
1070
     0
1070
   340
1005
42D
1002
}
  0
LINE
  5
42E
100
AcDbEntity
  8
MAIN0
  6
CONTINUOUS
 62
3
100
AcDbLine
 10
689.8405184653049
 20
480.2317039697486
 30
0.0000000000000000
 11
689.8405184653049
 21
490.2317039697486
 31
0.0000000000000000
  0
LINE
  5
42F
100
AcDbEntity
  8
MAIN0
  6
CONTINUOUS
 62
3
100
AcDbLine
 10
671.8405184653049
 20
480.2317039697486
 30
0.0000000000000000
 11
671.8405184653049
 21
490.2317039697485
 31
0.0000000000000000
  0
DIMENSION
  5
43A
100
AcDbEntity
  8
MAIN0
  6
CONTINUOUS
 62
3
100
AcDbDimension
  2
*D55
 10
689.8405184653049
 20
450.2317039694673
 30
0.0000000000000000
 11
652.3582243328063
 21
452.2317039694673
 31
0.0000000000000000
 70
160
  3
MAIN001
100
AcDbAlignedDimension
 13
671.8405184653050
 23
480.2317039697486
 33
0.0000000000000000
 14
689.8405184653050
 24
480.2317039697486
 34
0.0000000000000000
100
AcDbRotatedDimension
1001
ACAD
1000
DSTYLE
1002
{
1070
   173
1070
     1
1070
     6
1000
_OPEN
1070
     7
1000
_OPEN
1070
    41
1040
8.000000
1070
   287
1070
     0
1002
}
  0
LINE
  5
43B
100
AcDbEntity
  8
MAIN0
  6
CENTER
 62
3
100
AcDbLine
 10
390.8405184650188
 20
931.7387967097551
 30
0.0000000000000000
 11
874.3446751253968
 21
931.7387967093315
 31
0.0000000000000000
  0
LINE
  5
43C
100
AcDbEntity
  8
MAIN0
  6
CENTER
 62
3
100
AcDbLine
 10
900.8006285155290
 20
931.7387967092969
 30
0.0000000000000000
 11
1090.840518465953
 21
931.7387967090408
 31
0.0000000000000000
  0
LINE
  5
43D
100
AcDbEntity
  8
MAIN0
  6
CONTINUOUS
 62
3
100
AcDbLine
 10
400.8405184652261
 20
546.2317039695249
 30
0.0000000000000000
 11
856.8405184653358
 21
546.2317039699476
 31
0.0000000000000000
  0
LINE
  5
43E
100
AcDbEntity
  8
MAIN0
  6
CONTINUOUS
 62
3
100
AcDbLine
 10
400.8405184652349
 20
506.2317039707636
 30
0.0000000000000000
 11
866.4877738580707
 21
506.2317039705179
 31
0.0000000000000000
  0
LINE
  5
43F
100
AcDbEntity
  8
MAIN0
  6
CONTINUOUS
 62
3
100
AcDbLine
 10
890.8877734766011
 20
506.2317039705050
 30
0.0000000000000000
 11
995.8405184655060
 21
506.2317039704496
 31
0.0000000000000000
  0
CIRCLE
  5
440
100
AcDbEntity
  8
MAIN0
  6
CONTINUOUS
 62
3
100
AcDbCircle
 10
840.8405184667212
 20
971.7387967092091
 30
0.0000000000000000
 40
5.000000000000000
  0
CIRCLE
  5
441
100
AcDbEntity
  8
MAIN0
  6
CONTINUOUS
 62
3
100
AcDbCircle
 10
840.8405184667212
 20
971.7387967092091
 30
0.0000000000000000
 40
4.188101000000000
  0
LINE
  5
442
100
AcDbEntity
  8
MAIN0
  6
CONTINUOUS
 62
3
100
AcDbLine
 10
840.8405184667213
 20
974.6255480551572
 30
0.0000000000000000
 11
838.3405184667213
 21
973.1821723821831
 31
0.0000000000000000
  0
LINE
  5
443
100
AcDbEntity
  8
MAIN0
  6
CONTINUOUS
 62
3
100
AcDbLine
 10
838.3405184667212
 20
973.1821723821831
 30
0.0000000000000000
 11
838.3405184667212
 21
970.2954210362350
 31
0.0000000000000000
  0
LINE
  5
444
100
AcDbEntity
  8
MAIN0
  6
CONTINUOUS
 62
3
100
AcDbLine
 10
838.3405184667213
 20
970.2954210362352
 30
0.0000000000000000
 11
840.8405184667212
 21
968.8520453632611
 31
0.0000000000000000
  0
LINE
  5
445
100
AcDbEntity
  8
MAIN0
  6
CONTINUOUS
 62
3
100
AcDbLine
 10
840.8405184667212
 20
968.8520453632611
 30
0.0000000000000000
 11
843.3405184667212
 21
970.2954210362350
 31
0.0000000000000000
  0
LINE
  5
446
100
AcDbEntity
  8
MAIN0
  6
CONTINUOUS
 62
3
100
AcDbLine
 10
843.3405184667212
 20
970.2954210362350
 30
0.0000000000000000
 11
843.3405184667212
 21
973.1821723821831
 31
0.0000000000000000
  0
LINE
  5
447
100
AcDbEntity
  8
MAIN0
  6
CONTINUOUS
 62
3
100
AcDbLine
 10
843.3405184667211
 20
973.1821723821829
 30
0.0000000000000000
 11
840.8405184667211
 21
974.6255480551570
 31
0.0000000000000000
  0
CIRCLE
  5
448
100
AcDbEntity
  8
MAIN0
  6
CONTINUOUS
 62
3
100
AcDbCircle
 10
790.8405184667212
 20
971.7387967092764
 30
0.0000000000000000
 40
5.000000000000000
  0
CIRCLE
  5
449
100
AcDbEntity
  8
MAIN0
  6
CONTINUOUS
 62
3
100
AcDbCircle
 10
790.8405184667212
 20
971.7387967092764
 30
0.0000000000000000
 40
4.188101000000000
  0
LINE
  5
44A
100
AcDbEntity
  8
MAIN0
  6
CONTINUOUS
 62
3
100
AcDbLine
 10
790.8405184667215
 20
974.6255480552247
 30
0.0000000000000000
 11
788.3405184667211
 21
973.1821723822505
 31
0.0000000000000000
  0
LINE
  5
44B
100
AcDbEntity
  8
MAIN0
  6
CONTINUOUS
 62
3
100
AcDbLine
 10
788.3405184667212
 20
973.1821723822504
 30
0.0000000000000000
 11
788.3405184667212
 21
970.2954210363023
 31
0.0000000000000000
  0
LINE
  5
44C
100
AcDbEntity
  8
MAIN0
  6
CONTINUOUS
 62
3
100
AcDbLine
 10
788.3405184667211
 20
970.2954210363023
 30
0.0000000000000000
 11
790.8405184667211
 21
968.8520453633281
 31
0.0000000000000000
  0
LINE
  5
44D
100
AcDbEntity
  8
MAIN0
  6
CONTINUOUS
 62
3
100
AcDbLine
 10
790.8405184667212
 20
968.8520453633283
 30
0.0000000000000000
 11
793.3405184667212
 21
970.2954210363024
 31
0.0000000000000000
  0
LINE
  5
44E
100
AcDbEntity
  8
MAIN0
  6
CONTINUOUS
 62
3
100
AcDbLine
 10
793.3405184667212
 20
970.2954210363023
 30
0.0000000000000000
 11
793.3405184667212
 21
973.1821723822504
 31
0.0000000000000000
  0
LINE
  5
44F
100
AcDbEntity
  8
MAIN0
  6
CONTINUOUS
 62
3
100
AcDbLine
 10
793.3405184667213
 20
973.1821723822505
 30
0.0000000000000000
 11
790.8405184667213
 21
974.6255480552246
 31
0.0000000000000000
  0
CIRCLE
  5
450
100
AcDbEntity
  8
MAIN0
  6
CONTINUOUS
 62
3
100
AcDbCircle
 10
790.8405184666545
 20
891.7387967092766
 30
0.0000000000000000
 40
5.000000000000000
  0
CIRCLE
  5
451
100
AcDbEntity
  8
MAIN0
  6
CONTINUOUS
 62
3
100
AcDbCircle
 10
790.8405184666545
 20
891.7387967092766
 30
0.0000000000000000
 40
4.188101000000000
  0
LINE
  5
452
100
AcDbEntity
  8
MAIN0
  6
CONTINUOUS
 62
3
100
AcDbLine
 10
790.8405184666549
 20
894.6255480552248
 30
0.0000000000000000
 11
788.3405184666547
 21
893.1821723822507
 31
0.0000000000000000
  0
LINE
  5
453
100
AcDbEntity
  8
MAIN0
  6
CONTINUOUS
 62
3
100
AcDbLine
 10
788.3405184666545
 20
893.1821723822507
 30
0.0000000000000000
 11
788.3405184666545
 21
890.2954210363025
 31
0.0000000000000000
  0
LINE
  5
454
100
AcDbEntity
  8
MAIN0
  6
CONTINUOUS
 62
3
100
AcDbLine
 10
788.3405184666544
 20
890.2954210363023
 30
0.0000000000000000
 11
790.8405184666544
 21
888.8520453633282
 31
0.0000000000000000
  0
LINE
  5
455
100
AcDbEntity
  8
MAIN0
  6
CONTINUOUS
 62
3
100
AcDbLine
 10
790.8405184666547
 20
888.8520453633287
 30
0.0000000000000000
 11
793.3405184666547
 21
890.2954210363025
 31
0.0000000000000000
  0
LINE
  5
456
100
AcDbEntity
  8
MAIN0
  6
CONTINUOUS
 62
3
100
AcDbLine
 10
793.3405184666545
 20
890.2954210363025
 30
0.0000000000000000
 11
793.3405184666545
 21
893.1821723822507
 31
0.0000000000000000
  0
LINE
  5
457
100
AcDbEntity
  8
MAIN0
  6
CONTINUOUS
 62
3
100
AcDbLine
 10
793.3405184666544
 20
893.1821723822504
 30
0.0000000000000000
 11
790.8405184666544
 21
894.6255480552245
 31
0.0000000000000000
  0
CIRCLE
  5
458
100
AcDbEntity
  8
MAIN0
  6
CONTINUOUS
 62
3
100
AcDbCircle
 10
840.8405184666545
 20
891.7387967092091
 30
0.0000000000000000
 40
5.000000000000000
  0
CIRCLE
  5
459
100
AcDbEntity
  8
MAIN0
  6
CONTINUOUS
 62
3
100
AcDbCircle
 10
840.8405184666545
 20
891.7387967092091
 30
0.0000000000000000
 40
4.188101000000000
  0
LINE
  5
45A
100
AcDbEntity
  8
MAIN0
  6
CONTINUOUS
 62
3
100
AcDbLine
 10
840.8405184666542
 20
894.6255480551572
 30
0.0000000000000000
 11
838.3405184666542
 21
893.1821723821831
 31
0.0000000000000000
  0
LINE
  5
45B
100
AcDbEntity
  8
MAIN0
  6
CONTINUOUS
 62
3
100
AcDbLine
 10
838.3405184666545
 20
893.1821723821831
 30
0.0000000000000000
 11
838.3405184666545
 21
890.2954210362350
 31
0.0000000000000000
  0
LINE
  5
45C
100
AcDbEntity
  8
MAIN0
  6
CONTINUOUS
 62
3
100
AcDbLine
 10
838.3405184666547
 20
890.2954210362350
 30
0.0000000000000000
 11
840.8405184666545
 21
888.8520453632609
 31
0.0000000000000000
  0
LINE
  5
45D
100
AcDbEntity
  8
MAIN0
  6
CONTINUOUS
 62
3
100
AcDbLine
 10
840.8405184666540
 20
888.8520453632607
 30
0.0000000000000000
 11
843.3405184666540
 21
890.2954210362348
 31
0.0000000000000000
  0
LINE
  5
45E
100
AcDbEntity
  8
MAIN0
  6
CONTINUOUS
 62
3
100
AcDbLine
 10
843.3405184666545
 20
890.2954210362350
 30
0.0000000000000000
 11
843.3405184666545
 21
893.1821723821831
 31
0.0000000000000000
  0
LINE
  5
45F
100
AcDbEntity
  8
MAIN0
  6
CONTINUOUS
 62
3
100
AcDbLine
 10
843.3405184666549
 20
893.1821723821832
 30
0.0000000000000000
 11
840.8405184666547
 21
894.6255480551573
 31
0.0000000000000000
  0
CIRCLE
  5
460
100
AcDbEntity
  8
MAIN0
  6
CONTINUOUS
 62
3
100
AcDbCircle
 10
420.8405184644795
 20
956.7387967097143
 30
0.0000000000000000
 40
5.000000000000000
  0
CIRCLE
  5
461
100
AcDbEntity
  8
MAIN0
  6
CONTINUOUS
 62
3
100
AcDbCircle
 10
420.8405184644795
 20
956.7387967097143
 30
0.0000000000000000
 40
4.188101000000000
  0
LINE
  5
462
100
AcDbEntity
  8
MAIN0
  6
CONTINUOUS
 62
3
100
AcDbLine
 10
420.8405184644798
 20
959.6255480556627
 30
0.0000000000000000
 11
418.3405184644795
 21
958.1821723826886
 31
0.0000000000000000
  0
LINE
  5
463
100
AcDbEntity
  8
MAIN0
  6
CONTINUOUS
 62
3
100
AcDbLine
 10
418.3405184644795
 20
958.1821723826884
 30
0.0000000000000000
 11
418.3405184644795
 21
955.2954210367402
 31
0.0000000000000000
  0
LINE
  5
464
100
AcDbEntity
  8
MAIN0
  6
CONTINUOUS
 62
3
100
AcDbLine
 10
418.3405184644794
 20
955.2954210367400
 30
0.0000000000000000
 11
420.8405184644793
 21
953.8520453637659
 31
0.0000000000000000
  0
LINE
  5
465
100
AcDbEntity
  8
MAIN0
  6
CONTINUOUS
 62
3
100
AcDbLine
 10
420.8405184644793
 20
953.8520453637663
 30
0.0000000000000000
 11
423.3405184644794
 21
955.2954210367403
 31
0.0000000000000000
  0
LINE
  5
466
100
AcDbEntity
  8
MAIN0
  6
CONTINUOUS
 62
3
100
AcDbLine
 10
423.3405184644795
 20
955.2954210367402
 30
0.0000000000000000
 11
423.3405184644795
 21
958.1821723826884
 31
0.0000000000000000
  0
LINE
  5
467
100
AcDbEntity
  8
MAIN0
  6
CONTINUOUS
 62
3
100
AcDbLine
 10
423.3405184644796
 20
958.1821723826884
 30
0.0000000000000000
 11
420.8405184644796
 21
959.6255480556625
 31
0.0000000000000000
  0
CIRCLE
  5
468
100
AcDbEntity
  8
MAIN0
  6
CONTINUOUS
 62
3
100
AcDbCircle
 10
475.8405184644795
 20
956.7387967096402
 30
0.0000000000000000
 40
5.000000000000000
  0
CIRCLE
  5
469
100
AcDbEntity
  8
MAIN0
  6
CONTINUOUS
 62
3
100
AcDbCircle
 10
475.8405184644795
 20
956.7387967096402
 30
0.0000000000000000
 40
4.188101000000000
  0
LINE
  5
46A
100
AcDbEntity
  8
MAIN0
  6
CONTINUOUS
 62
3
100
AcDbLine
 10
475.8405184644797
 20
959.6255480555883
 30
0.0000000000000000
 11
473.3405184644797
 21
958.1821723826143
 31
0.0000000000000000
  0
LINE
  5
46B
100
AcDbEntity
  8
MAIN0
  6
CONTINUOUS
 62
3
100
AcDbLine
 10
473.3405184644795
 20
958.1821723826142
 30
0.0000000000000000
 11
473.3405184644795
 21
955.2954210366661
 31
0.0000000000000000
  0
LINE
  5
46C
100
AcDbEntity
  8
MAIN0
  6
CONTINUOUS
 62
3
100
AcDbLine
 10
473.3405184644795
 20
955.2954210366660
 30
0.0000000000000000
 11
475.8405184644794
 21
953.8520453636919
 31
0.0000000000000000
  0
LINE
  5
46D
100
AcDbEntity
  8
MAIN0
  6
CONTINUOUS
 62
3
100
AcDbLine
 10
475.8405184644795
 20
953.8520453636921
 30
0.0000000000000000
 11
478.3405184644795
 21
955.2954210366662
 31
0.0000000000000000
  0
LINE
  5
46E
100
AcDbEntity
  8
MAIN0
  6
CONTINUOUS
 62
3
100
AcDbLine
 10
478.3405184644795
 20
955.2954210366661
 30
0.0000000000000000
 11
478.3405184644795
 21
958.1821723826142
 31
0.0000000000000000
  0
LINE
  5
46F
100
AcDbEntity
  8
MAIN0
  6
CONTINUOUS
 62
3
100
AcDbLine
 10
478.3405184644794
 20
958.1821723826141
 30
0.0000000000000000
 11
475.8405184644794
 21
959.6255480555882
 31
0.0000000000000000
  0
CIRCLE
  5
470
100
AcDbEntity
  8
MAIN0
  6
CONTINUOUS
 62
3
100
AcDbCircle
 10
475.8405184644795
 20
906.7387967096402
 30
0.0000000000000000
 40
5.000000000000000
  0
CIRCLE
  5
471
100
AcDbEntity
  8
MAIN0
  6
CONTINUOUS
 62
3
100
AcDbCircle
 10
475.8405184644795
 20
906.7387967096402
 30
0.0000000000000000
 40
4.188101000000000
  0
LINE
  5
472
100
AcDbEntity
  8
MAIN0
  6
CONTINUOUS
 62
3
100
AcDbLine
 10
475.8405184644796
 20
909.6255480555884
 30
0.0000000000000000
 11
473.3405184644796
 21
908.1821723826145
 31
0.0000000000000000
  0
LINE
  5
473
100
AcDbEntity
  8
MAIN0
  6
CONTINUOUS
 62
3
100
AcDbLine
 10
473.3405184644795
 20
908.1821723826142
 30
0.0000000000000000
 11
473.3405184644795
 21
905.2954210366661
 31
0.0000000000000000
  0
LINE
  5
474
100
AcDbEntity
  8
MAIN0
  6
CONTINUOUS
 62
3
100
AcDbLine
 10
473.3405184644794
 20
905.2954210366656
 30
0.0000000000000000
 11
475.8405184644793
 21
903.8520453636916
 31
0.0000000000000000
  0
LINE
  5
475
100
AcDbEntity
  8
MAIN0
  6
CONTINUOUS
 62
3
100
AcDbLine
 10
475.8405184644796
 20
903.8520453636920
 30
0.0000000000000000
 11
478.3405184644796
 21
905.2954210366661
 31
0.0000000000000000
  0
LINE
  5
476
100
AcDbEntity
  8
MAIN0
  6
CONTINUOUS
 62
3
100
AcDbLine
 10
478.3405184644795
 20
905.2954210366661
 30
0.0000000000000000
 11
478.3405184644795
 21
908.1821723826142
 31
0.0000000000000000
  0
LINE
  5
477
100
AcDbEntity
  8
MAIN0
  6
CONTINUOUS
 62
3
100
AcDbLine
 10
478.3405184644796
 20
908.1821723826142
 30
0.0000000000000000
 11
475.8405184644795
 21
909.6255480555883
 31
0.0000000000000000
  0
CIRCLE
  5
478
100
AcDbEntity
  8
MAIN0
  6
CONTINUOUS
 62
3
100
AcDbCircle
 10
420.8405184644795
 20
906.7387967097143
 30
0.0000000000000000
 40
5.000000000000000
  0
CIRCLE
  5
479
100
AcDbEntity
  8
MAIN0
  6
CONTINUOUS
 62
3
100
AcDbCircle
 10
420.8405184644795
 20
906.7387967097143
 30
0.0000000000000000
 40
4.188101000000000
  0
LINE
  5
47A
100
AcDbEntity
  8
MAIN0
  6
CONTINUOUS
 62
3
100
AcDbLine
 10
420.8405184644797
 20
909.6255480556629
 30
0.0000000000000000
 11
418.3405184644795
 21
908.1821723826888
 31
0.0000000000000000
  0
LINE
  5
47B
100
AcDbEntity
  8
MAIN0
  6
CONTINUOUS
 62
3
100
AcDbLine
 10
418.3405184644795
 20
908.1821723826884
 30
0.0000000000000000
 11
418.3405184644795
 21
905.2954210367402
 31
0.0000000000000000
  0
LINE
  5
47C
100
AcDbEntity
  8
MAIN0
  6
CONTINUOUS
 62
3
100
AcDbLine
 10
418.3405184644795
 20
905.2954210367406
 30
0.0000000000000000
 11
420.8405184644795
 21
903.8520453637665
 31
0.0000000000000000
  0
LINE
  5
47D
100
AcDbEntity
  8
MAIN0
  6
CONTINUOUS
 62
3
100
AcDbLine
 10
420.8405184644794
 20
903.8520453637664
 30
0.0000000000000000
 11
423.3405184644795
 21
905.2954210367403
 31
0.0000000000000000
  0
LINE
  5
47E
100
AcDbEntity
  8
MAIN0
  6
CONTINUOUS
 62
3
100
AcDbLine
 10
423.3405184644795
 20
905.2954210367402
 30
0.0000000000000000
 11
423.3405184644795
 21
908.1821723826884
 31
0.0000000000000000
  0
LINE
  5
47F
100
AcDbEntity
  8
MAIN0
  6
CONTINUOUS
 62
3
100
AcDbLine
 10
423.3405184644794
 20
908.1821723826882
 30
0.0000000000000000
 11
420.8405184644794
 21
909.6255480556623
 31
0.0000000000000000
  0
CIRCLE
  5
480
100
AcDbEntity
  8
MAIN0
  6
CONTINUOUS
 62
3
100
AcDbCircle
 10
443.8405184645340
 20
931.7387967096836
 30
0.0000000000000000
 40
5.000000000000000
  0
CIRCLE
  5
481
100
AcDbEntity
  8
MAIN0
  6
CONTINUOUS
 62
3
100
AcDbCircle
 10
443.8405184645340
 20
931.7387967096836
 30
0.0000000000000000
 40
4.250000000000000
  0
CIRCLE
  5
482
100
AcDbEntity
  8
MAIN0
  6
CONTINUOUS
 62
3
100
AcDbCircle
 10
818.8405184666875
 20
931.7387967094073
 30
0.0000000000000000
 40
5.000000000000000
  0
CIRCLE
  5
483
100
AcDbEntity
  8
MAIN0
  6
CONTINUOUS
 62
3
100
AcDbCircle
 10
818.8405184666875
 20
931.7387967094073
 30
0.0000000000000000
 40
4.250000000000000
  0
ELLIPSE
  5
484
100
AcDbEntity
  8
MAIN0
  6
CONTINUOUS
 62
3
100
AcDbEllipse
 10
1154.124738257230
 20
538.7316823883170
 30
0.0000000000000000
 11
-2.050000000000000
 21
0.0000000000000000
 31
0.0000000000000000
210
0.0000000000000000
220
0.0000000000000000
230
1.000000000000000
 40
0.8536585365853660
 41
0.0000000000000000
 42
6.283185307179586
  0
LINE
  5
485
100
AcDbEntity
  8
MAIN0
  6
CONTINUOUS
 62
3
100
AcDbLine
 10
1183.124738257215
 20
719.7316823883111
 30
0.0000000000000000
 11
1183.124738257233
 21
553.3189838177927
 31
0.0000000000000000
  0
LINE
  5
486
100
AcDbEntity
  8
MAIN0
  6
CONTINUOUS
 62
3
100
AcDbLine
 10
1191.124738257217
 20
705.7316823883111
 30
0.0000000000000000
 11
1191.124738257236
 21
523.7316823883116
 31
0.0000000000000000
  0
LINE
  5
487
100
AcDbEntity
  8
MAIN0
  6
CONTINUOUS
 62
3
100
AcDbLine
 10
1197.124738257215
 20
719.7316823883117
 30
0.0000000000000000
 11
1197.124738257216
 21
710.7316823883117
 31
0.0000000000000000
  0
LINE
  5
488
100
AcDbEntity
  8
MAIN0
  6
CONTINUOUS
 62
3
100
AcDbLine
 10
1194.624738257215
 20
722.2316823883115
 30
0.0000000000000000
 11
1185.624738257215
 21
722.2316823883114
 31
0.0000000000000000
  0
LINE
  5
489
100
AcDbEntity
  8
MAIN0
  6
CONTINUOUS
 62
3
100
AcDbLine
 10
1194.624738257216
 20
708.2316823883114
 30
0.0000000000000000
 11
1193.624738257217
 21
708.2316823883114
 31
0.0000000000000000
  0
LINE
  5
48A
100
AcDbEntity
  8
MAIN0
  6
CONTINUOUS
 62
3
100
AcDbLine
 10
1161.124738257235
 20
528.2316823883114
 30
0.0000000000000000
 11
1146.724738257235
 21
528.2316823883114
 31
0.0000000000000000
  0
LINE
  5
48B
100
AcDbEntity
  8
MAIN0
  6
CONTINUOUS
 62
3
100
AcDbLine
 10
1170.124738257235
 20
525.2316823883114
 30
0.0000000000000000
 11
1161.124738257235
 21
525.2316823883114
 31
0.0000000000000000
  0
LINE
  5
48C
100
AcDbEntity
  8
MAIN0
  6
CONTINUOUS
 62
3
100
AcDbLine
 10
1188.624738257236
 20
521.2316823883114
 30
0.0000000000000000
 11
1185.052941487504
 21
521.2316823883114
 31
0.0000000000000000
  0
LINE
  5
48D
100
AcDbEntity
  8
MAIN0
  6
CONTINUOUS
 62
3
100
AcDbLine
 10
1146.124738257235
 20
528.8316823883116
 30
0.0000000000000000
 11
1146.724738257236
 21
528.2316823883114
 31
0.0000000000000000
  0
LINE
  5
48E
100
AcDbEntity
  8
MAIN0
  6
CONTINUOUS
 62
3
100
AcDbLine
 10
1170.124738257236
 20
525.2316823883076
 30
0.0000000000000000
 11
1184.735025118716
 21
521.3168678225889
 31
0.0000000000000000
  0
LINE
  5
48F
100
AcDbEntity
  8
MAIN0
  6
CONTINUOUS
 62
3
100
AcDbLine
 10
1146.124738257235
 20
535.2316823883112
 30
0.0000000000000000
 11
1161.124738257235
 21
535.2316823883112
 31
0.0000000000000000
  0
LINE
  5
490
100
AcDbEntity
  8
MAIN0
  6
CONTINUOUS
 62
3
100
AcDbLine
 10
1161.124738257235
 20
542.2316823883114
 30
0.0000000000000000
 11
1146.724738257235
 21
542.2316823883114
 31
0.0000000000000000
  0
LINE
  5
491
100
AcDbEntity
  8
MAIN0
  6
CONTINUOUS
 62
3
100
AcDbLine
 10
1170.124738257235
 20
545.2316823883114
 30
0.0000000000000000
 11
1161.124738257235
 21
545.2316823883114
 31
0.0000000000000000
  0
LINE
  5
492
100
AcDbEntity
  8
MAIN0
  6
CONTINUOUS
 62
3
100
AcDbLine
 10
1146.124738257235
 20
541.6316823883112
 30
0.0000000000000000
 11
1146.724738257235
 21
542.2316823883111
 31
0.0000000000000000
  0
LINE
  5
493
100
AcDbEntity
  8
MAIN0
  6
CONTINUOUS
 62
3
100
AcDbLine
 10
1170.124738257235
 20
545.2316823883152
 30
0.0000000000000000
 11
1178.677652527846
 21
547.5234288600572
 31
0.0000000000000000
  0
ARC
  5
494
100
AcDbEntity
  8
MAIN0
  6
CONTINUOUS
 62
3
100
AcDbCircle
 10
1177.124738257233
 20
553.3189838177917
 30
0.0000000000000000
 40
6.000000000000000
100
AcDbArc
 50
284.9999999999930
 51
360.0000000000001
  0
ARC
  5
495
100
AcDbEntity
  8
MAIN0
  6
CONTINUOUS
 62
3
100
AcDbCircle
 10
1188.624738257236
 20
523.7316823883115
 30
0.0000000000000000
 40
2.500000000000000
100
AcDbArc
 50
270.0000000000001
 51
360.0000000000001
  0
ARC
  5
496
100
AcDbEntity
  8
MAIN0
  6
CONTINUOUS
 62
3
100
AcDbCircle
 10
1185.382072731472
 20
523.7316823883115
 30
0.0000000000000000
 40
2.500000000000000
100
AcDbArc
 50
255.0000000000070
 51
270.0000000000001
  0
ARC
  5
497
100
AcDbEntity
  8
MAIN0
  6
CONTINUOUS
 62
3
100
AcDbCircle
 10
1185.624738257215
 20
719.7316823883114
 30
0.0000000000000000
 40
2.500000000000000
100
AcDbArc
 50
90.00000000000007
 51
180.0000000000001
  0
ARC
  5
498
100
AcDbEntity
  8
MAIN0
  6
CONTINUOUS
 62
3
100
AcDbCircle
 10
1193.624738257217
 20
705.7316823883115
 30
0.0000000000000000
 40
2.500000000000000
100
AcDbArc
 50
90.00000000000007
 51
180.0000000000001
  0
ARC
  5
499
100
AcDbEntity
  8
MAIN0
  6
CONTINUOUS
 62
3
100
AcDbCircle
 10
1185.624738257215
 20
719.7316823883115
 30
0.0000000000000000
 40
2.500000000000000
100
AcDbArc
 50
90.00000000000007
 51
180.0000000000001
  0
ARC
  5
49A
100
AcDbEntity
  8
MAIN0
  6
CONTINUOUS
 62
3
100
AcDbCircle
 10
1193.624738257217
 20
705.7316823883115
 30
0.0000000000000000
 40
2.500000000000000
100
AcDbArc
 50
90.00000000000007
 51
180.0000000000001
  0
ARC
  5
49B
100
AcDbEntity
  8
MAIN0
  6
CONTINUOUS
 62
3
100
AcDbCircle
 10
1194.624738257215
 20
719.7316823883115
 30
0.0000000000000000
 40
2.500000000000000
100
AcDbArc
 50
7.633331235512440e-014
 51
90.00000000000007
  0
ARC
  5
49C
100
AcDbEntity
  8
MAIN0
  6
CONTINUOUS
 62
3
100
AcDbCircle
 10
1194.624738257216
 20
710.7316823883115
 30
0.0000000000000000
 40
2.500000000000000
100
AcDbArc
 50
270.0000000000001
 51
360.0000000000001
  0
LINE
  5
49D
100
AcDbEntity
  8
MAIN1
  6
CONTINUOUS
 62
7
100
AcDbLine
 10
1197.624738257216
 20
708.2316823883115
 30
0.0000000000000000
 11
1197.624738257216
 21
710.3327029027450
 31
0.0000000000000000
  0
LINE
  5
49E
100
AcDbEntity
  8
MAIN1
  6
CONTINUOUS
 62
7
100
AcDbLine
 10
1197.124738257216
 20
708.7316823883114
 30
0.0000000000000000
 11
1197.124738257216
 21
721.7316823883114
 31
0.0000000000000000
  0
LINE
  5
49F
100
AcDbEntity
  8
MAIN1
  6
CONTINUOUS
 62
7
100
AcDbLine
 10
1197.624738257216
 20
708.2316823883115
 30
0.0000000000000000
 11
1204.624738257216
 21
708.2316823883115
 31
0.0000000000000000
  0
LINE
  5
4A0
100
AcDbEntity
  8
MAIN1
  6
CONTINUOUS
 62
7
100
AcDbLine
 10
1197.624738257216
 20
722.2316823883114
 30
0.0000000000000000
 11
1204.624738257216
 21
722.2316823883115
 31
0.0000000000000000
  0
LINE
  5
4A1
100
AcDbEntity
  8
MAIN1
  6
CONTINUOUS
 62
7
100
AcDbLine
 10
1197.124738257216
 20
708.7316823883114
 30
0.0000000000000000
 11
1197.624738257216
 21
708.2316823883117
 31
0.0000000000000000
  0
LINE
  5
4A2
100
AcDbEntity
  8
MAIN1
  6
CONTINUOUS
 62
7
100
AcDbLine
 10
1204.624738257216
 20
708.2316823883118
 30
0.0000000000000000
 11
1205.124738257216
 21
708.7316823883114
 31
0.0000000000000000
  0
LINE
  5
4A3
100
AcDbEntity
  8
MAIN1
  6
CONTINUOUS
 62
7
100
AcDbLine
 10
1204.624738257216
 20
722.2316823883117
 30
0.0000000000000000
 11
1205.124738257216
 21
721.7316823883118
 31
0.0000000000000000
  0
LINE
  5
4A4
100
AcDbEntity
  8
MAIN1
  6
CONTINUOUS
 62
7
100
AcDbLine
 10
1197.624738257216
 20
722.2316823883114
 30
0.0000000000000000
 11
1197.124738257216
 21
721.7316823883114
 31
0.0000000000000000
  0
LINE
  5
4A5
100
AcDbEntity
  8
MAIN1
  6
CONTINUOUS
 62
7
100
AcDbLine
 10
1197.124738257216
 20
720.1306618738777
 30
0.0000000000000000
 11
1203.124738257216
 21
720.1306618738777
 31
0.0000000000000000
  0
LINE
  5
4A6
100
AcDbEntity
  8
MAIN1
  6
CONTINUOUS
 62
7
100
AcDbLine
 10
1197.124738257216
 20
710.3327029027450
 30
0.0000000000000000
 11
1203.124738257216
 21
710.3327029027450
 31
0.0000000000000000
  0
LINE
  5
4A7
100
AcDbEntity
  8
MAIN1
  6
CONTINUOUS
 62
7
100
AcDbLine
 10
1197.624738257216
 20
720.1306618738777
 30
0.0000000000000000
 11
1197.624738257216
 21
722.2316823883114
 31
0.0000000000000000
  0
LINE
  5
4A8
100
AcDbEntity
  8
MAIN1
  6
CONTINUOUS
 62
7
100
AcDbLine
 10
1204.624738257216
 20
708.2316823883115
 30
0.0000000000000000
 11
1204.624738257216
 21
722.2316823883114
 31
0.0000000000000000
  0
LINE
  5
4A9
100
AcDbEntity
  8
MAIN1
  6
CONTINUOUS
 62
7
100
AcDbLine
 10
1205.124738257216
 20
721.7181040436608
 30
0.0000000000000000
 11
1205.124738257216
 21
708.7452607329620
 31
0.0000000000000000
  0
LINE
  5
4AA
100
AcDbEntity
  8
MAIN1
  6
CONTINUOUS
 62
7
100
AcDbLine
 10
1259.449631419392
 20
706.2316823883112
 30
0.0000000000000000
 11
1223.124738257216
 21
706.2316823883112
 31
0.0000000000000000
  0
LINE
  5
4AB
100
AcDbEntity
  8
MAIN1
  6
CONTINUOUS
 62
7
100
AcDbLine
 10
1259.449631419392
 20
724.2316823883116
 30
0.0000000000000000
 11
1223.124738257216
 21
724.2316823883116
 31
0.0000000000000000
  0
LINE
  5
4AC
100
AcDbEntity
  8
MAIN1
  6
CONTINUOUS
 62
7
100
AcDbLine
 10
1206.635986225820
 20
707.1477241678333
 30
0.0000000000000000
 11
1223.124738257216
 21
706.2316823883110
 31
0.0000000000000000
  0
LINE
  5
4AD
100
AcDbEntity
  8
MAIN1
  6
CONTINUOUS
 62
7
100
AcDbLine
 10
1223.124738257216
 20
724.2316823883115
 30
0.0000000000000000
 11
1206.635986225820
 21
723.3156406087893
 31
0.0000000000000000
  0
ARC
  5
4AE
100
AcDbEntity
  8
MAIN1
  6
CONTINUOUS
 62
7
100
AcDbCircle
 10
1233.124738257216
 20
715.2316823883114
 30
0.0000000000000000
 40
30.00000000000000
100
AcDbArc
 50
347.1604115930955
 51
372.8395884069045
  0
ARC
  5
4AF
100
AcDbEntity
  8
MAIN1
  6
CONTINUOUS
 62
7
100
AcDbCircle
 10
1259.449631419392
 20
709.2316823883112
 30
0.0000000000000000
 40
3.000000000000000
100
AcDbArc
 50
270.0000000000000
 51
347.1604115930957
  0
ARC
  5
4B0
100
AcDbEntity
  8
MAIN1
  6
CONTINUOUS
 62
7
100
AcDbCircle
 10
1259.449631419392
 20
721.2316823883116
 30
0.0000000000000000
 40
3.000000000000000
100
AcDbArc
 50
12.83958840690469
 51
89.99999999999946
  0
ARC
  5
4B1
100
AcDbEntity
  8
MAIN1
  6
CONTINUOUS
 62
7
100
AcDbCircle
 10
1206.724738257216
 20
708.7452607329620
 30
0.0000000000000000
 40
1.600000000000000
100
AcDbArc
 50
180.0000000000000
 51
266.8201698801350
  0
ARC
  5
4B2
100
AcDbEntity
  8
MAIN1
  6
CONTINUOUS
 62
7
100
AcDbCircle
 10
1206.724738257216
 20
721.7181040436608
 30
0.0000000000000000
 40
1.600000000000000
100
AcDbArc
 50
93.17983011986493
 51
179.9999999999999
  0
LINE
  5
4B3
100
AcDbEntity
  8
MAIN1
  6
CONTINUOUS
 62
7
100
AcDbLine
 10
1203.124738257216
 20
710.3327029027450
 30
0.0000000000000000
 11
1203.124738257216
 21
720.1306618738777
 31
0.0000000000000000
  0
LINE
  5
4B4
100
AcDbEntity
  8
MAIN3
  6
CONTINUOUS
 62
3
100
AcDbLine
 10
1197.124738257216
 20
710.3327029027450
 30
0.0000000000000000
 11
1203.124738257216
 21
720.1306618738777
 31
0.0000000000000000
  0
LINE
  5
4B5
100
AcDbEntity
  8
MAIN3
  6
CONTINUOUS
 62
3
100
AcDbLine
 10
1197.124738257216
 20
720.1306618738780
 30
0.0000000000000000
 11
1203.124738257216
 21
710.3327029027453
 31
0.0000000000000000
  0
LINE
  5
4B6
100
AcDbEntity
  8
MAIN1
  6
CONTINUOUS
 62
7
100
AcDbLine
 10
1223.124738257216
 20
724.2316823883116
 30
0.0000000000000000
 11
1223.124738257216
 21
706.2316823883112
 31
0.0000000000000000
  0
LINE
  5
4B7
100
AcDbEntity
  8
MAIN0
  6
CONTINUOUS
 62
3
100
AcDbLine
 10
1146.124738257235
 20
528.8316823883115
 30
0.0000000000000000
 11
1146.124738257236
 21
541.6316823883113
 31
0.0000000000000000
  0
LINE
  5
4B8
100
AcDbEntity
  8
MAIN0
  6
CONTINUOUS
 62
3
100
AcDbLine
 10
1170.124738257236
 20
525.2316823883111
 30
0.0000000000000000
 11
1170.124738257236
 21
545.2316823883115
 31
0.0000000000000000
  0
LINE
  5
4B9
100
AcDbEntity
  8
MAIN0
  6
CONTINUOUS
 62
3
100
AcDbLine
 10
1161.124738257236
 20
525.2316823883114
 30
0.0000000000000000
 11
1161.124738257236
 21
545.2316823883114
 31
0.0000000000000000
  0
LINE
  5
4BA
100
AcDbEntity
  8
MAIN0
  6
CONTINUOUS
 62
3
100
AcDbLine
 10
1468.028610438350
 20
545.1317039702358
 30
0.0000000000000000
 11
1470.728610438350
 21
545.1317039702358
 31
0.0000000000000000
  0
LINE
  5
4BB
100
AcDbEntity
  8
MAIN0
  6
CONTINUOUS
 62
3
100
AcDbLine
 10
1590.728610438350
 20
545.1317039702358
 30
0.0000000000000000
 11
1593.428610438351
 21
545.1317039702358
 31
0.0000000000000000
  0
LINE
  5
4BC
100
AcDbEntity
  8
MAIN0
  6
CONTINUOUS
 62
3
100
AcDbLine
 10
1590.728610438350
 20
543.9317039702360
 30
0.0000000000000000
 11
1594.228610438350
 21
543.9317039702360
 31
0.0000000000000000
  0
LINE
  5
4BD
100
AcDbEntity
  8
MAIN0
  6
CONTINUOUS
 62
3
100
AcDbLine
 10
1470.728610438350
 20
545.1317039702358
 30
0.0000000000000000
 11
1470.728610438350
 21
543.9317039702360
 31
0.0000000000000000
  0
LINE
  5
4BE
100
AcDbEntity
  8
MAIN0
  6
CONTINUOUS
 62
3
100
AcDbLine
 10
1590.728610438350
 20
545.1317039702358
 30
0.0000000000000000
 11
1590.728610438350
 21
543.9317039702360
 31
0.0000000000000000
  0
ARC
  5
4BF
100
AcDbEntity
  8
MAIN0
  6
CONTINUOUS
 62
3
100
AcDbCircle
 10
1594.228610438350
 20
544.9317039702360
 30
0.0000000000000000
 40
1.000000000000000
100
AcDbArc
 50
270.0000000005678
 51
359.9999999999934
  0
ARC
  5
4C0
100
AcDbEntity
  8
MAIN0
  6
CONTINUOUS
 62
3
100
AcDbCircle
 10
1467.228610438350
 20
544.9317039702360
 30
0.0000000000000000
 40
1.000000000000000
100
AcDbArc
 50
179.9999999999964
 51
269.9999999999942
  0
ARC
  5
4C1
100
AcDbEntity
  8
MAIN0
  6
CONTINUOUS
 62
3
100
AcDbCircle
 10
1468.028610438350
 20
545.7317039702352
 30
0.0000000000000000
 40
0.6000000000000000
100
AcDbArc
 50
179.9999999999964
 51
270.0000000005678
  0
ARC
  5
4C2
100
AcDbEntity
  8
MAIN0
  6
CONTINUOUS
 62
3
100
AcDbCircle
 10
1593.428610438351
 20
545.7317039702352
 30
0.0000000000000000
 40
0.6000000000000000
100
AcDbArc
 50
270.0000000005678
 51
359.9999999999934
  0
ARC
  5
4C3
100
AcDbEntity
  8
MAIN0
  6
CONTINUOUS
 62
3
100
AcDbCircle
 10
1594.228610438350
 20
570.4317039702360
 30
0.0000000000000000
 40
1.000000000000000
100
AcDbArc
 50
0.0000000000000000
 51
89.99999999942553
  0
ARC
  5
4C4
100
AcDbEntity
  8
MAIN0
  6
CONTINUOUS
 62
3
100
AcDbCircle
 10
1467.228610438350
 20
570.4317039702360
 30
0.0000000000000000
 40
1.000000000000000
100
AcDbArc
 50
89.99999999999919
 51
179.9999999999964
  0
LINE
  5
4C5
100
AcDbEntity
  8
MAIN0
  6
CONTINUOUS
 62
3
100
AcDbLine
 10
1467.228610438350
 20
543.9317039702360
 30
0.0000000000000000
 11
1470.728610438350
 21
543.9317039702360
 31
0.0000000000000000
  0
LINE
  5
4C6
100
AcDbEntity
  8
MAIN0
  6
CONTINUOUS
 62
3
100
AcDbLine
 10
1466.228610438350
 20
544.9317039702360
 30
0.0000000000000000
 11
1466.228610438350
 21
570.4317039702360
 31
0.0000000000000000
  0
LINE
  5
4C7
100
AcDbEntity
  8
MAIN0
  6
CONTINUOUS
 62
3
100
AcDbLine
 10
1595.228610438350
 20
544.9317039702351
 30
0.0000000000000000
 11
1595.228610438350
 21
570.4317039702360
 31
0.0000000000000000
  0
LINE
  5
4C8
100
AcDbEntity
  8
MAIN0
  6
CONTINUOUS
 62
3
100
AcDbLine
 10
1590.028610438342
 20
562.2317039702416
 30
0.0000000000000000
 11
1594.028610438350
 21
562.2317039702416
 31
0.0000000000000000
  0
LINE
  5
4C9
100
AcDbEntity
  8
MAIN0
  6
CONTINUOUS
 62
3
100
AcDbLine
 10
1582.028610438350
 20
570.2317039702411
 30
0.0000000000000000
 11
1590.028610438342
 21
562.2317039702414
 31
0.0000000000000000
  0
LINE
  5
4CA
100
AcDbEntity
  8
MAIN0
  6
CONTINUOUS
 62
3
100
AcDbLine
 10
1479.428610438351
 20
570.2317039702557
 30
0.0000000000000000
 11
1471.428610438358
 21
562.2317039702573
 31
0.0000000000000000
  0
LINE
  5
4CB
100
AcDbEntity
  8
MAIN0
  6
CONTINUOUS
 62
3
100
AcDbLine
 10
1471.428610438359
 20
562.2317039702565
 30
0.0000000000000000
 11
1467.428610438351
 21
562.2317039702572
 31
0.0000000000000000
  0
LINE
  5
4CC
100
AcDbEntity
  8
MAIN0
  6
CONTINUOUS
 62
3
100
AcDbLine
 10
1464.728610438345
 20
571.4317039702414
 30
0.0000000000000000
 11
1596.728610438345
 21
571.4317039702414
 31
0.0000000000000000
  0
LINE
  5
4CD
100
AcDbEntity
  8
MAIN0
  6
CONTINUOUS
 62
3
100
AcDbLine
 10
1594.028610438350
 20
545.7317039702352
 30
0.0000000000000000
 11
1594.028610438350
 21
570.2317039702416
 31
0.0000000000000000
  0
LINE
  5
4CE
100
AcDbEntity
  8
MAIN0
  6
CONTINUOUS
 62
3
100
AcDbLine
 10
1467.428610438350
 20
545.7317039702352
 30
0.0000000000000000
 11
1467.428610438350
 21
570.2317039702416
 31
0.0000000000000000
  0
LINE
  5
4CF
100
AcDbEntity
  8
MAIN0
  6
CONTINUOUS
 62
3
100
AcDbLine
 10
1590.728610438345
 20
543.1317039715555
 30
0.0000000000000000
 11
1594.928610337684
 21
543.1317039715555
 31
0.0000000000000000
  0
LINE
  5
4D0
100
AcDbEntity
  8
MAIN0
  6
CONTINUOUS
 62
3
100
AcDbLine
 10
1466.528610396947
 20
543.1317039715555
 30
0.0000000000000000
 11
1470.728610438345
 21
543.1317039715555
 31
0.0000000000000000
  0
LINE
  5
4D1
100
AcDbEntity
  8
MAIN0
  6
CONTINUOUS
 62
3
100
AcDbLine
 10
1595.728610644762
 20
541.9317039715547
 30
0.0000000000000000
 11
1590.728610438345
 21
541.9317039715547
 31
0.0000000000000000
  0
LINE
  5
4D2
100
AcDbEntity
  8
MAIN0
  6
CONTINUOUS
 62
3
100
AcDbLine
 10
1470.728610438345
 20
541.9317039715547
 30
0.0000000000000000
 11
1465.728610814706
 21
541.9317039715547
 31
0.0000000000000000
  0
ARC
  5
4D3
100
AcDbEntity
  8
MAIN0
  6
CONTINUOUS
 62
3
100
AcDbCircle
 10
1594.928610438345
 20
543.7317039715549
 30
0.0000000000000000
 40
0.6000000000000000
100
AcDbArc
 50
270.0000000000053
 51
360.0000000000036
  0
ARC
  5
4D4
100
AcDbEntity
  8
MAIN0
  6
CONTINUOUS
 62
3
100
AcDbCircle
 10
1466.528610438345
 20
543.7317039715549
 30
0.0000000000000000
 40
0.6000000000000000
100
AcDbArc
 50
180.0000000000067
 51
270.0000000000053
  0
ARC
  5
4D5
100
AcDbEntity
  8
MAIN0
  6
CONTINUOUS
 62
3
100
AcDbCircle
 10
1465.728610438345
 20
542.9317039715547
 30
0.0000000000000000
 40
1.000000000000000
100
AcDbArc
 50
180.0000000000067
 51
269.9999999994322
  0
ARC
  5
4D6
100
AcDbEntity
  8
MAIN0
  6
CONTINUOUS
 62
3
100
AcDbCircle
 10
1595.728610438345
 20
542.9317039715547
 30
0.0000000000000000
 40
1.000000000000000
100
AcDbArc
 50
270.0000000000059
 51
360.0000000000036
  0
LINE
  5
4D7
100
AcDbEntity
  8
MAIN0
  6
CONTINUOUS
 62
3
100
AcDbLine
 10
1470.728610438345
 20
543.1317039715555
 30
0.0000000000000000
 11
1470.728610438345
 21
541.9317039715547
 31
0.0000000000000000
  0
LINE
  5
4D8
100
AcDbEntity
  8
MAIN0
  6
CONTINUOUS
 62
3
100
AcDbLine
 10
1590.728610438345
 20
543.1317039715555
 30
0.0000000000000000
 11
1590.728610438345
 21
541.9317039715547
 31
0.0000000000000000
  0
ARC
  5
4D9
100
AcDbEntity
  8
MAIN0
  6
CONTINUOUS
 62
3
100
AcDbCircle
 10
1595.328610438345
 20
578.0317039715551
 30
0.0000000000000000
 40
1.400000000000000
100
AcDbArc
 50
3.613110118142555e-012
 51
81.78678929826474
  0
ARC
  5
4DA
100
AcDbEntity
  8
MAIN0
  6
CONTINUOUS
 62
3
100
AcDbCircle
 10
1466.128610438345
 20
578.0317039715551
 30
0.0000000000000000
 40
1.400000000000000
100
AcDbArc
 50
98.21321070173772
 51
180.0000000000000
  0
LINE
  5
4DB
100
AcDbEntity
  8
MAIN0
  6
CONTINUOUS
 62
3
100
AcDbLine
 10
1596.728610438345
 20
542.9317041638337
 30
0.0000000000000000
 11
1596.728610438345
 21
578.0317039715551
 31
0.0000000000000000
  0
LINE
  5
4DC
100
AcDbEntity
  8
MAIN0
  6
CONTINUOUS
 62
3
100
AcDbLine
 10
1464.728610438345
 20
542.9317039715547
 30
0.0000000000000000
 11
1464.728610438345
 21
578.0317039715551
 31
0.0000000000000000
  0
LINE
  5
4DD
100
AcDbEntity
  8
MAIN0
  6
CONTINUOUS
 62
3
100
AcDbLine
 10
1598.228610438350
 20
579.4317039715547
 30
0.0000000000000000
 11
1463.228610438350
 21
579.4317039715547
 31
0.0000000000000000
  0
LINE
  5
4DE
100
AcDbEntity
  8
MAIN0
  6
CONTINUOUS
 62
3
100
AcDbLine
 10
1595.528610438345
 20
543.7317038885426
 30
0.0000000000000000
 11
1595.528610438345
 21
571.4317039702419
 31
0.0000000000000000
  0
LINE
  5
4DF
100
AcDbEntity
  8
MAIN0
  6
CONTINUOUS
 62
3
100
AcDbLine
 10
1465.928610438345
 20
543.7317038146853
 30
0.0000000000000000
 11
1465.928610438345
 21
571.4317039702414
 31
0.0000000000000000
  0
LINE
  5
4E0
100
AcDbEntity
  8
MAIN0
  6
CONTINUOUS
 62
3
100
AcDbLine
 10
1590.728610438350
 20
539.9317039693838
 30
0.0000000000000000
 11
1596.228610438350
 21
539.9317039693838
 31
0.0000000000000000
  0
LINE
  5
4E1
100
AcDbEntity
  8
MAIN0
  6
CONTINUOUS
 62
3
100
AcDbLine
 10
1596.028610438350
 20
541.1317039693840
 30
0.0000000000000000
 11
1590.728610438350
 21
541.1317039693840
 31
0.0000000000000000
  0
LINE
  5
4E2
100
AcDbEntity
  8
MAIN0
  6
CONTINUOUS
 62
3
100
AcDbLine
 10
1590.728610438350
 20
541.1317039693900
 30
0.0000000000000000
 11
1590.728610438350
 21
539.9317039693901
 31
0.0000000000000000
  0
LINE
  5
4E3
100
AcDbEntity
  8
MAIN0
  6
CONTINUOUS
 62
3
100
AcDbLine
 10
1470.728610438350
 20
541.1317039693840
 30
0.0000000000000000
 11
1465.428610438350
 21
541.1317039693840
 31
0.0000000000000000
  0
LINE
  5
4E4
100
AcDbEntity
  8
MAIN0
  6
CONTINUOUS
 62
3
100
AcDbLine
 10
1465.228610438350
 20
539.9317039693838
 30
0.0000000000000000
 11
1470.728610438351
 21
539.9317039693838
 31
0.0000000000000000
  0
LINE
  5
4E5
100
AcDbEntity
  8
MAIN0
  6
CONTINUOUS
 62
3
100
AcDbLine
 10
1470.728610438350
 20
541.1317039693840
 30
0.0000000000000000
 11
1470.728610438350
 21
539.9317039693838
 31
0.0000000000000000
  0
ARC
  5
4E6
100
AcDbEntity
  8
MAIN0
  6
CONTINUOUS
 62
3
100
AcDbCircle
 10
1464.628610438350
 20
586.0317039693837
 30
0.0000000000000000
 40
1.400000000000000
100
AcDbArc
 50
90.00000000000000
 51
179.9999999999964
  0
ARC
  5
4E7
100
AcDbEntity
  8
MAIN0
  6
CONTINUOUS
 62
3
100
AcDbCircle
 10
1465.428610438350
 20
542.1317039693840
 30
0.0000000000000000
 40
1.000000000000000
100
AcDbArc
 50
179.9999999999964
 51
270.0000000005678
  0
ARC
  5
4E8
100
AcDbEntity
  8
MAIN0
  6
CONTINUOUS
 62
3
100
AcDbCircle
 10
1465.228610438350
 20
541.9317039693838
 30
0.0000000000000000
 40
2.000000000000000
100
AcDbArc
 50
179.9999999999964
 51
270.0000000005678
  0
ARC
  5
4E9
100
AcDbEntity
  8
MAIN0
  6
CONTINUOUS
 62
3
100
AcDbCircle
 10
1596.828610438350
 20
586.0317039693837
 30
0.0000000000000000
 40
1.400000000000000
100
AcDbArc
 50
0.0000000000000000
 51
90.00000000000000
  0
ARC
  5
4EA
100
AcDbEntity
  8
MAIN0
  6
CONTINUOUS
 62
3
100
AcDbCircle
 10
1596.228610438350
 20
541.9317039693838
 30
0.0000000000000000
 40
2.000000000000000
100
AcDbArc
 50
270.0000000005678
 51
359.9999999999934
  0
ARC
  5
4EB
100
AcDbEntity
  8
MAIN0
  6
CONTINUOUS
 62
3
100
AcDbCircle
 10
1596.028610438350
 20
542.1317039693840
 30
0.0000000000000000
 40
1.000000000000000
100
AcDbArc
 50
270.0000000005678
 51
359.9999999999934
  0
LINE
  5
4EC
100
AcDbEntity
  8
MAIN0
  6
CONTINUOUS
 62
3
100
AcDbLine
 10
1461.728610438350
 20
587.4317039693838
 30
0.0000000000000000
 11
1599.728610438350
 21
587.4317039693838
 31
0.0000000000000000
  0
LINE
  5
4ED
100
AcDbEntity
  8
MAIN0
  6
CONTINUOUS
 62
3
100
AcDbLine
 10
1598.228610438350
 20
541.9317039693838
 30
0.0000000000000000
 11
1598.228610438350
 21
586.0317039693837
 31
0.0000000000000000
  0
LINE
  5
4EE
100
AcDbEntity
  8
MAIN0
  6
CONTINUOUS
 62
3
100
AcDbLine
 10
1463.228610438350
 20
541.9317039693838
 30
0.0000000000000000
 11
1463.228610438350
 21
586.0317039693837
 31
0.0000000000000000
  0
LINE
  5
4EF
100
AcDbEntity
  8
MAIN0
  6
CONTINUOUS
 62
3
100
AcDbLine
 10
1597.028610438350
 20
542.1317039693840
 30
0.0000000000000000
 11
1597.028610438350
 21
579.4317039715547
 31
0.0000000000000000
  0
LINE
  5
4F0
100
AcDbEntity
  8
MAIN0
  6
CONTINUOUS
 62
3
100
AcDbLine
 10
1464.428610438350
 20
542.1317039693840
 30
0.0000000000000000
 11
1464.428610438350
 21
579.4317039715552
 31
0.0000000000000000
  0
LINE
  5
4F1
100
AcDbEntity
  8
MAIN0
  6
CONTINUOUS
 62
3
100
AcDbLine
 10
1590.728610438350
 20
537.9317039692787
 30
0.0000000000000000
 11
1597.728610438350
 21
537.9317039692787
 31
0.0000000000000000
  0
LINE
  5
4F2
100
AcDbEntity
  8
MAIN0
  6
CONTINUOUS
 62
3
100
AcDbLine
 10
1597.528610438350
 20
539.1317039692790
 30
0.0000000000000000
 11
1590.728610438350
 21
539.1317039692790
 31
0.0000000000000000
  0
LINE
  5
4F3
100
AcDbEntity
  8
MAIN0
  6
CONTINUOUS
 62
3
100
AcDbLine
 10
1590.728610438350
 20
539.1317039692849
 30
0.0000000000000000
 11
1590.728610438350
 21
537.9317039692851
 31
0.0000000000000000
  0
LINE
  5
4F4
100
AcDbEntity
  8
MAIN0
  6
CONTINUOUS
 62
3
100
AcDbLine
 10
1470.728610438350
 20
539.1317039692790
 30
0.0000000000000000
 11
1463.928610438350
 21
539.1317039692790
 31
0.0000000000000000
  0
LINE
  5
4F5
100
AcDbEntity
  8
MAIN0
  6
CONTINUOUS
 62
3
100
AcDbLine
 10
1463.728610438350
 20
537.9317039692787
 30
0.0000000000000000
 11
1470.728610438350
 21
537.9317039692787
 31
0.0000000000000000
  0
LINE
  5
4F6
100
AcDbEntity
  8
MAIN0
  6
CONTINUOUS
 62
3
100
AcDbLine
 10
1470.728610438350
 20
539.1317039692790
 30
0.0000000000000000
 11
1470.728610438350
 21
537.9317039692787
 31
0.0000000000000000
  0
ARC
  5
4F7
100
AcDbEntity
  8
MAIN0
  6
CONTINUOUS
 62
3
100
AcDbCircle
 10
1463.128610438350
 20
594.0317039692786
 30
0.0000000000000000
 40
1.400000000000000
100
AcDbArc
 50
98.21321070173528
 51
179.9999999999964
  0
ARC
  5
4F8
100
AcDbEntity
  8
MAIN0
  6
CONTINUOUS
 62
3
100
AcDbCircle
 10
1463.928610438350
 20
540.1317039692785
 30
0.0000000000000000
 40
1.000000000000000
100
AcDbArc
 50
179.9999999999964
 51
270.0000000005678
  0
ARC
  5
4F9
100
AcDbEntity
  8
MAIN0
  6
CONTINUOUS
 62
3
100
AcDbCircle
 10
1463.728610438350
 20
539.9317039692787
 30
0.0000000000000000
 40
2.000000000000000
100
AcDbArc
 50
179.9999999999964
 51
270.0000000005678
  0
ARC
  5
4FA
100
AcDbEntity
  8
MAIN0
  6
CONTINUOUS
 62
3
100
AcDbCircle
 10
1598.328610438350
 20
594.0317039692786
 30
0.0000000000000000
 40
1.400000000000000
100
AcDbArc
 50
0.0000000000000000
 51
81.78678929826229
  0
ARC
  5
4FB
100
AcDbEntity
  8
MAIN0
  6
CONTINUOUS
 62
3
100
AcDbCircle
 10
1597.728610438350
 20
539.9317039692787
 30
0.0000000000000000
 40
2.000000000000000
100
AcDbArc
 50
270.0000000005678
 51
359.9999999999934
  0
ARC
  5
4FC
100
AcDbEntity
  8
MAIN0
  6
CONTINUOUS
 62
3
100
AcDbCircle
 10
1597.528610438350
 20
540.1317039692785
 30
0.0000000000000000
 40
1.000000000000000
100
AcDbArc
 50
270.0000000005678
 51
359.9999999999934
  0
LINE
  5
4FD
100
AcDbEntity
  8
MAIN0
  6
CONTINUOUS
 62
3
100
AcDbLine
 10
1460.228610438314
 20
595.4317039692787
 30
0.0000000000000000
 11
1601.228610438314
 21
595.4317039692787
 31
0.0000000000000000
  0
LINE
  5
4FE
100
AcDbEntity
  8
MAIN0
  6
CONTINUOUS
 62
3
100
AcDbLine
 10
1599.728610438350
 20
539.9317039692787
 30
0.0000000000000000
 11
1599.728610438350
 21
594.0317039692786
 31
0.0000000000000000
  0
LINE
  5
4FF
100
AcDbEntity
  8
MAIN0
  6
CONTINUOUS
 62
3
100
AcDbLine
 10
1461.728610438350
 20
539.9317039692787
 30
0.0000000000000000
 11
1461.728610438350
 21
594.0317039692786
 31
0.0000000000000000
  0
LINE
  5
500
100
AcDbEntity
  8
MAIN0
  6
CONTINUOUS
 62
3
100
AcDbLine
 10
1462.928610438350
 20
540.1317039692785
 30
0.0000000000000000
 11
1462.928610438350
 21
587.4317039693838
 31
0.0000000000000000
  0
LINE
  5
501
100
AcDbEntity
  8
MAIN0
  6
CONTINUOUS
 62
3
100
AcDbLine
 10
1598.528610438350
 20
540.1317039692785
 30
0.0000000000000000
 11
1598.528610438350
 21
587.4317039693833
 31
0.0000000000000000
  0
LINE
  5
502
100
AcDbEntity
  8
MAIN0
  6
CONTINUOUS
 62
3
100
AcDbLine
 10
1459.728610438402
 20
611.4317039669218
 30
0.0000000000000000
 11
1601.728610438403
 21
611.4317039669218
 31
0.0000000000000000
  0
LINE
  5
503
100
AcDbEntity
  8
MAIN0
  6
CONTINUOUS
 62
3
100
AcDbLine
 10
1601.528610438402
 20
603.4317039693497
 30
0.0000000000000000
 11
1601.528610438402
 21
535.9317039669218
 31
0.0000000000000000
  0
LINE
  5
504
100
AcDbEntity
  8
MAIN0
  6
CONTINUOUS
 62
3
100
AcDbLine
 10
1602.728610438403
 20
610.4317039669218
 30
0.0000000000000000
 11
1602.728610438403
 21
535.9317039669218
 31
0.0000000000000000
  0
ARC
  5
505
100
AcDbEntity
  8
MAIN0
  6
CONTINUOUS
 62
3
100
AcDbCircle
 10
1601.728610438403
 20
610.4317039669218
 30
0.0000000000000000
 40
1.000000000000000
100
AcDbArc
 50
0.0000000000000000
 51
90.00000000000000
  0
LINE
  5
506
100
AcDbEntity
  8
MAIN0
  6
CONTINUOUS
 62
3
100
AcDbLine
 10
1459.928610438403
 20
603.4317039693497
 30
0.0000000000000000
 11
1459.928610438403
 21
535.9317039669209
 31
0.0000000000000000
  0
LINE
  5
507
100
AcDbEntity
  8
MAIN0
  6
CONTINUOUS
 62
3
100
AcDbLine
 10
1458.728610438402
 20
610.4317039669218
 30
0.0000000000000000
 11
1458.728610438402
 21
535.9317039669209
 31
0.0000000000000000
  0
ARC
  5
508
100
AcDbEntity
  8
MAIN0
  6
CONTINUOUS
 62
3
100
AcDbCircle
 10
1459.728610438402
 20
610.4317039669218
 30
0.0000000000000000
 40
1.000000000000000
100
AcDbArc
 50
90.00000000000000
 51
180.0000000000000
  0
LINE
  5
509
100
AcDbEntity
  8
MAIN0
  6
CONTINUOUS
 62
3
100
AcDbLine
 10
1458.728610438403
 20
535.9317039669218
 30
0.0000000000000000
 11
1459.928610438403
 21
535.9317039669218
 31
0.0000000000000000
  0
LINE
  5
50A
100
AcDbEntity
  8
MAIN0
  6
CONTINUOUS
 62
3
100
AcDbLine
 10
1601.528610438402
 20
535.9317039669218
 30
0.0000000000000000
 11
1602.728610438403
 21
535.9317039669218
 31
0.0000000000000000
  0
LINE
  5
50B
100
AcDbEntity
  8
MAIN0
  6
CONTINUOUS
 62
3
100
AcDbLine
 10
1590.728610438314
 20
535.9317039693497
 30
0.0000000000000000
 11
1599.228610438314
 21
535.9317039693497
 31
0.0000000000000000
  0
LINE
  5
50C
100
AcDbEntity
  8
MAIN0
  6
CONTINUOUS
 62
3
100
AcDbLine
 10
1599.028610438314
 20
537.1317039693499
 30
0.0000000000000000
 11
1590.728610438314
 21
537.1317039693499
 31
0.0000000000000000
  0
LINE
  5
50D
100
AcDbEntity
  8
MAIN0
  6
CONTINUOUS
 62
3
100
AcDbLine
 10
1590.728610438314
 20
537.1317039693558
 30
0.0000000000000000
 11
1590.728610438314
 21
535.9317039693560
 31
0.0000000000000000
  0
LINE
  5
50E
100
AcDbEntity
  8
MAIN0
  6
CONTINUOUS
 62
3
100
AcDbLine
 10
1470.728610438314
 20
537.1317039693499
 30
0.0000000000000000
 11
1462.428610438314
 21
537.1317039693499
 31
0.0000000000000000
  0
LINE
  5
50F
100
AcDbEntity
  8
MAIN0
  6
CONTINUOUS
 62
3
100
AcDbLine
 10
1462.228610438314
 20
535.9317039693497
 30
0.0000000000000000
 11
1470.728610438314
 21
535.9317039693497
 31
0.0000000000000000
  0
LINE
  5
510
100
AcDbEntity
  8
MAIN0
  6
CONTINUOUS
 62
3
100
AcDbLine
 10
1470.728610438314
 20
537.1317039693499
 30
0.0000000000000000
 11
1470.728610438314
 21
535.9317039693497
 31
0.0000000000000000
  0
ARC
  5
511
100
AcDbEntity
  8
MAIN0
  6
CONTINUOUS
 62
3
100
AcDbCircle
 10
1461.628610438314
 20
602.0317039693496
 30
0.0000000000000000
 40
1.400000000000000
100
AcDbArc
 50
98.21321070173528
 51
179.9999999999964
  0
ARC
  5
512
100
AcDbEntity
  8
MAIN0
  6
CONTINUOUS
 62
3
100
AcDbCircle
 10
1462.428610438314
 20
538.1317039693495
 30
0.0000000000000000
 40
1.000000000000000
100
AcDbArc
 50
179.9999999999964
 51
270.0000000005678
  0
ARC
  5
513
100
AcDbEntity
  8
MAIN0
  6
CONTINUOUS
 62
3
100
AcDbCircle
 10
1462.228610438314
 20
537.9317039693497
 30
0.0000000000000000
 40
2.000000000000000
100
AcDbArc
 50
179.9999999999964
 51
270.0000000005678
  0
ARC
  5
514
100
AcDbEntity
  8
MAIN0
  6
CONTINUOUS
 62
3
100
AcDbCircle
 10
1599.828610438314
 20
602.0317039693496
 30
0.0000000000000000
 40
1.400000000000000
100
AcDbArc
 50
0.0000000000000000
 51
81.78678929826229
  0
ARC
  5
515
100
AcDbEntity
  8
MAIN0
  6
CONTINUOUS
 62
3
100
AcDbCircle
 10
1599.228610438314
 20
537.9317039693497
 30
0.0000000000000000
 40
2.000000000000000
100
AcDbArc
 50
270.0000000005678
 51
359.9999999999934
  0
ARC
  5
516
100
AcDbEntity
  8
MAIN0
  6
CONTINUOUS
 62
3
100
AcDbCircle
 10
1599.028610438314
 20
538.1317039693495
 30
0.0000000000000000
 40
1.000000000000000
100
AcDbArc
 50
270.0000000005678
 51
359.9999999999934
  0
LINE
  5
517
100
AcDbEntity
  8
MAIN0
  6
CONTINUOUS
 62
3
100
AcDbLine
 10
1458.728610438402
 20
603.4317039693497
 30
0.0000000000000000
 11
1602.728610438403
 21
603.4317039693497
 31
0.0000000000000000
  0
LINE
  5
518
100
AcDbEntity
  8
MAIN0
  6
CONTINUOUS
 62
3
100
AcDbLine
 10
1601.228610438314
 20
537.9317039693497
 30
0.0000000000000000
 11
1601.228610438314
 21
602.0317039693496
 31
0.0000000000000000
  0
LINE
  5
519
100
AcDbEntity
  8
MAIN0
  6
CONTINUOUS
 62
3
100
AcDbLine
 10
1460.228610438314
 20
537.9317039693497
 30
0.0000000000000000
 11
1460.228610438314
 21
602.0317039693496
 31
0.0000000000000000
  0
LINE
  5
51A
100
AcDbEntity
  8
MAIN0
  6
CONTINUOUS
 62
3
100
AcDbLine
 10
1461.428610438314
 20
538.1317039693495
 30
0.0000000000000000
 11
1461.428610438314
 21
595.4317039692787
 31
0.0000000000000000
  0
LINE
  5
51B
100
AcDbEntity
  8
MAIN0
  6
CONTINUOUS
 62
3
100
AcDbLine
 10
1600.028610438314
 20
538.1317039693495
 30
0.0000000000000000
 11
1600.028610438314
 21
595.4317039692787
 31
0.0000000000000000
  0
LINE
  5
51C
100
AcDbEntity
  8
MAIN0
  6
CONTINUOUS
 62
3
100
AcDbLine
 10
243.5689942346531
 20
545.1317039700630
 30
0.0000000000000000
 11
240.8689942346528
 21
545.1317039700630
 31
0.0000000000000000
  0
LINE
  5
51D
100
AcDbEntity
  8
MAIN0
  6
CONTINUOUS
 62
3
100
AcDbLine
 10
120.8689942346533
 20
545.1317039700624
 30
0.0000000000000000
 11
118.1689942346525
 21
545.1317039700624
 31
0.0000000000000000
  0
LINE
  5
51E
100
AcDbEntity
  8
MAIN0
  6
CONTINUOUS
 62
3
100
AcDbLine
 10
120.8689942346533
 20
543.9317039700626
 30
0.0000000000000000
 11
117.3689942346533
 21
543.9317039700626
 31
0.0000000000000000
  0
LINE
  5
51F
100
AcDbEntity
  8
MAIN0
  6
CONTINUOUS
 62
3
100
AcDbLine
 10
240.8689942346533
 20
545.1317039700629
 30
0.0000000000000000
 11
240.8689942346533
 21
543.9317039700630
 31
0.0000000000000000
  0
LINE
  5
520
100
AcDbEntity
  8
MAIN0
  6
CONTINUOUS
 62
3
100
AcDbLine
 10
120.8689942346532
 20
545.1317039700623
 30
0.0000000000000000
 11
120.8689942346532
 21
543.9317039700625
 31
0.0000000000000000
  0
ARC
  5
521
100
AcDbEntity
  8
MAIN0
  6
CONTINUOUS
 62
3
100
AcDbCircle
 10
117.3689942346533
 20
544.9317039700626
 30
0.0000000000000000
 40
1.000000000000000
100
AcDbArc
 50
180.0000000000070
 51
269.9999999994325
  0
ARC
  5
522
100
AcDbEntity
  8
MAIN0
  6
CONTINUOUS
 62
3
100
AcDbCircle
 10
244.3689942346533
 20
544.9317039700632
 30
0.0000000000000000
 40
1.000000000000000
100
AcDbArc
 50
270.0000000000061
 51
360.0000000000039
  0
ARC
  5
523
100
AcDbEntity
  8
MAIN0
  6
CONTINUOUS
 62
3
100
AcDbCircle
 10
243.5689942346531
 20
545.7317039700624
 30
0.0000000000000000
 40
0.6000000000000000
100
AcDbArc
 50
269.9999999994325
 51
360.0000000000039
  0
ARC
  5
524
100
AcDbEntity
  8
MAIN0
  6
CONTINUOUS
 62
3
100
AcDbCircle
 10
118.1689942346526
 20
545.7317039700619
 30
0.0000000000000000
 40
0.6000000000000000
100
AcDbArc
 50
180.0000000000070
 51
269.9999999994325
  0
ARC
  5
525
100
AcDbEntity
  8
MAIN0
  6
CONTINUOUS
 62
3
100
AcDbCircle
 10
117.3689942346531
 20
570.4317039700626
 30
0.0000000000000000
 40
1.000000000000000
100
AcDbArc
 50
90.00000000057477
 51
180.0000000000003
  0
ARC
  5
526
100
AcDbEntity
  8
MAIN0
  6
CONTINUOUS
 62
3
100
AcDbCircle
 10
244.3689942346532
 20
570.4317039700632
 30
0.0000000000000000
 40
1.000000000000000
100
AcDbArc
 50
3.892998930111344e-012
 51
90.00000000000109
  0
LINE
  5
527
100
AcDbEntity
  8
MAIN0
  6
CONTINUOUS
 62
3
100
AcDbLine
 10
244.3689942346533
 20
543.9317039700632
 30
0.0000000000000000
 11
240.8689942346533
 21
543.9317039700632
 31
0.0000000000000000
  0
LINE
  5
528
100
AcDbEntity
  8
MAIN0
  6
CONTINUOUS
 62
3
100
AcDbLine
 10
245.3689942346533
 20
544.9317039700630
 30
0.0000000000000000
 11
245.3689942346531
 21
570.4317039700632
 31
0.0000000000000000
  0
LINE
  5
529
100
AcDbEntity
  8
MAIN0
  6
CONTINUOUS
 62
3
100
AcDbLine
 10
116.3689942346532
 20
544.9317039700616
 30
0.0000000000000000
 11
116.3689942346531
 21
570.4317039700626
 31
0.0000000000000000
  0
LINE
  5
52A
100
AcDbEntity
  8
MAIN0
  6
CONTINUOUS
 62
3
100
AcDbLine
 10
117.5689942346531
 20
545.7317039700617
 30
0.0000000000000000
 11
117.5689942346530
 21
570.2317039700682
 31
0.0000000000000000
  0
LINE
  5
52B
100
AcDbEntity
  8
MAIN0
  6
CONTINUOUS
 62
3
100
AcDbLine
 10
244.1689942346530
 20
545.7317039700623
 30
0.0000000000000000
 11
244.1689942346529
 21
570.2317039700688
 31
0.0000000000000000
  0
LINE
  5
52C
100
AcDbEntity
  8
MAIN0
  6
CONTINUOUS
 62
3
100
AcDbLine
 10
120.8689942346585
 20
543.1317039713821
 30
0.0000000000000000
 11
116.6689943353197
 21
543.1317039713821
 31
0.0000000000000000
  0
LINE
  5
52D
100
AcDbEntity
  8
MAIN0
  6
CONTINUOUS
 62
3
100
AcDbLine
 10
245.0689942760558
 20
543.1317039713827
 30
0.0000000000000000
 11
240.8689942346585
 21
543.1317039713827
 31
0.0000000000000000
  0
LINE
  5
52E
100
AcDbEntity
  8
MAIN0
  6
CONTINUOUS
 62
3
100
AcDbLine
 10
115.8689940282414
 20
541.9317039713814
 30
0.0000000000000000
 11
120.8689942346585
 21
541.9317039713814
 31
0.0000000000000000
  0
LINE
  5
52F
100
AcDbEntity
  8
MAIN0
  6
CONTINUOUS
 62
3
100
AcDbLine
 10
240.8689942346585
 20
541.9317039713819
 30
0.0000000000000000
 11
245.8689938582969
 21
541.9317039713819
 31
0.0000000000000000
  0
ARC
  5
530
100
AcDbEntity
  8
MAIN0
  6
CONTINUOUS
 62
3
100
AcDbCircle
 10
116.6689942346587
 20
543.7317039713815
 30
0.0000000000000000
 40
0.6000000000000000
100
AcDbArc
 50
179.9999999999967
 51
269.9999999999951
  0
ARC
  5
531
100
AcDbEntity
  8
MAIN0
  6
CONTINUOUS
 62
3
100
AcDbCircle
 10
245.0689942346588
 20
543.7317039713821
 30
0.0000000000000000
 40
0.6000000000000000
100
AcDbArc
 50
269.9999999999951
 51
359.9999999999936
  0
ARC
  5
532
100
AcDbEntity
  8
MAIN0
  6
CONTINUOUS
 62
3
100
AcDbCircle
 10
245.8689942346585
 20
542.9317039713819
 30
0.0000000000000000
 40
1.000000000000000
100
AcDbArc
 50
270.0000000005682
 51
359.9999999999936
  0
ARC
  5
533
100
AcDbEntity
  8
MAIN0
  6
CONTINUOUS
 62
3
100
AcDbCircle
 10
115.8689942346585
 20
542.9317039713814
 30
0.0000000000000000
 40
1.000000000000000
100
AcDbArc
 50
179.9999999999967
 51
269.9999999999944
  0
LINE
  5
534
100
AcDbEntity
  8
MAIN0
  6
CONTINUOUS
 62
3
100
AcDbLine
 10
240.8689942346585
 20
543.1317039713825
 30
0.0000000000000000
 11
240.8689942346585
 21
541.9317039713818
 31
0.0000000000000000
  0
LINE
  5
535
100
AcDbEntity
  8
MAIN0
  6
CONTINUOUS
 62
3
100
AcDbLine
 10
120.8689942346585
 20
543.1317039713820
 30
0.0000000000000000
 11
120.8689942346585
 21
541.9317039713812
 31
0.0000000000000000
  0
LINE
  5
536
100
AcDbEntity
  8
MAIN0
  6
CONTINUOUS
 62
3
100
AcDbLine
 10
114.8689942346585
 20
542.9317041636602
 30
0.0000000000000000
 11
114.8689942346584
 21
571.4317039700679
 31
0.0000000000000000
  0
LINE
  5
537
100
AcDbEntity
  8
MAIN0
  6
CONTINUOUS
 62
3
100
AcDbLine
 10
246.8689942346585
 20
542.9317039713819
 30
0.0000000000000000
 11
246.8689942346584
 21
571.4317039700686
 31
0.0000000000000000
  0
LINE
  5
538
100
AcDbEntity
  8
MAIN0
  6
CONTINUOUS
 62
3
100
AcDbLine
 10
116.0689942346588
 20
543.7317038883691
 30
0.0000000000000000
 11
116.0689942346586
 21
571.4317039700685
 31
0.0000000000000000
  0
LINE
  5
539
100
AcDbEntity
  8
MAIN0
  6
CONTINUOUS
 62
3
100
AcDbLine
 10
245.6689942346587
 20
543.7317038145123
 30
0.0000000000000000
 11
245.6689942346586
 21
571.4317039700686
 31
0.0000000000000000
  0
LINE
  5
53A
100
AcDbEntity
  8
MAIN0
  6
CONTINUOUS
 62
3
100
AcDbLine
 10
120.8689942346535
 20
539.9317039692104
 30
0.0000000000000000
 11
115.3689942346531
 21
539.9317039692104
 31
0.0000000000000000
  0
LINE
  5
53B
100
AcDbEntity
  8
MAIN0
  6
CONTINUOUS
 62
3
100
AcDbLine
 10
115.5689942346529
 20
541.1317039692107
 30
0.0000000000000000
 11
120.8689942346535
 21
541.1317039692107
 31
0.0000000000000000
  0
LINE
  5
53C
100
AcDbEntity
  8
MAIN0
  6
CONTINUOUS
 62
3
100
AcDbLine
 10
120.8689942346535
 20
541.1317039692165
 30
0.0000000000000000
 11
120.8689942346535
 21
539.9317039692166
 31
0.0000000000000000
  0
LINE
  5
53D
100
AcDbEntity
  8
MAIN0
  6
CONTINUOUS
 62
3
100
AcDbLine
 10
240.8689942346535
 20
541.1317039692112
 30
0.0000000000000000
 11
246.1689942346535
 21
541.1317039692112
 31
0.0000000000000000
  0
LINE
  5
53E
100
AcDbEntity
  8
MAIN0
  6
CONTINUOUS
 62
3
100
AcDbLine
 10
246.3689942346533
 20
539.9317039692110
 30
0.0000000000000000
 11
240.8689942346526
 21
539.9317039692110
 31
0.0000000000000000
  0
LINE
  5
53F
100
AcDbEntity
  8
MAIN0
  6
CONTINUOUS
 62
3
100
AcDbLine
 10
240.8689942346535
 20
541.1317039692111
 30
0.0000000000000000
 11
240.8689942346535
 21
539.9317039692108
 31
0.0000000000000000
  0
ARC
  5
540
100
AcDbEntity
  8
MAIN0
  6
CONTINUOUS
 62
3
100
AcDbCircle
 10
246.1689942346535
 20
542.1317039692112
 30
0.0000000000000000
 40
1.000000000000000
100
AcDbArc
 50
269.9999999994325
 51
360.0000000000039
  0
ARC
  5
541
100
AcDbEntity
  8
MAIN0
  6
CONTINUOUS
 62
3
100
AcDbCircle
 10
246.3689942346533
 20
541.9317039692110
 30
0.0000000000000000
 40
2.000000000000000
100
AcDbArc
 50
269.9999999994325
 51
360.0000000000039
  0
ARC
  5
542
100
AcDbEntity
  8
MAIN0
  6
CONTINUOUS
 62
3
100
AcDbCircle
 10
115.3689942346531
 20
541.9317039692104
 30
0.0000000000000000
 40
2.000000000000000
100
AcDbArc
 50
180.0000000000070
 51
269.9999999994325
  0
ARC
  5
543
100
AcDbEntity
  8
MAIN0
  6
CONTINUOUS
 62
3
100
AcDbCircle
 10
115.5689942346529
 20
542.1317039692107
 30
0.0000000000000000
 40
1.000000000000000
100
AcDbArc
 50
180.0000000000070
 51
269.9999999994325
  0
LINE
  5
544
100
AcDbEntity
  8
MAIN0
  6
CONTINUOUS
 62
3
100
AcDbLine
 10
113.3689942346530
 20
541.9317039692104
 30
0.0000000000000000
 11
113.3689942346529
 21
571.4317039700680
 31
0.0000000000000000
  0
LINE
  5
545
100
AcDbEntity
  8
MAIN0
  6
CONTINUOUS
 62
3
100
AcDbLine
 10
248.3689942346533
 20
541.9317039692110
 30
0.0000000000000000
 11
248.3689942346531
 21
571.4317039700686
 31
0.0000000000000000
  0
LINE
  5
546
100
AcDbEntity
  8
MAIN0
  6
CONTINUOUS
 62
3
100
AcDbLine
 10
114.5689942346533
 20
542.1317039692107
 30
0.0000000000000000
 11
114.5689942346532
 21
571.4317039700679
 31
0.0000000000000000
  0
LINE
  5
547
100
AcDbEntity
  8
MAIN0
  6
CONTINUOUS
 62
3
100
AcDbLine
 10
247.1689942346530
 20
542.1317039692112
 30
0.0000000000000000
 11
247.1689942346528
 21
571.4317039700686
 31
0.0000000000000000
  0
LINE
  5
548
100
AcDbEntity
  8
MAIN0
  6
CONTINUOUS
 62
3
100
AcDbLine
 10
120.8689942346535
 20
537.9317039691053
 30
0.0000000000000000
 11
113.8689942346531
 21
537.9317039691053
 31
0.0000000000000000
  0
LINE
  5
549
100
AcDbEntity
  8
MAIN0
  6
CONTINUOUS
 62
3
100
AcDbLine
 10
114.0689942346529
 20
539.1317039691056
 30
0.0000000000000000
 11
120.8689942346535
 21
539.1317039691056
 31
0.0000000000000000
  0
LINE
  5
54A
100
AcDbEntity
  8
MAIN0
  6
CONTINUOUS
 62
3
100
AcDbLine
 10
120.8689942346535
 20
539.1317039691114
 30
0.0000000000000000
 11
120.8689942346535
 21
537.9317039691116
 31
0.0000000000000000
  0
LINE
  5
54B
100
AcDbEntity
  8
MAIN0
  6
CONTINUOUS
 62
3
100
AcDbLine
 10
240.8689942346533
 20
539.1317039691062
 30
0.0000000000000000
 11
247.6689942346535
 21
539.1317039691062
 31
0.0000000000000000
  0
LINE
  5
54C
100
AcDbEntity
  8
MAIN0
  6
CONTINUOUS
 62
3
100
AcDbLine
 10
247.8689942346533
 20
537.9317039691059
 30
0.0000000000000000
 11
240.8689942346533
 21
537.9317039691059
 31
0.0000000000000000
  0
LINE
  5
54D
100
AcDbEntity
  8
MAIN0
  6
CONTINUOUS
 62
3
100
AcDbLine
 10
240.8689942346533
 20
539.1317039691061
 30
0.0000000000000000
 11
240.8689942346533
 21
537.9317039691058
 31
0.0000000000000000
  0
ARC
  5
54E
100
AcDbEntity
  8
MAIN0
  6
CONTINUOUS
 62
3
100
AcDbCircle
 10
247.6689942346535
 20
540.1317039691057
 30
0.0000000000000000
 40
1.000000000000000
100
AcDbArc
 50
269.9999999994325
 51
360.0000000000039
  0
ARC
  5
54F
100
AcDbEntity
  8
MAIN0
  6
CONTINUOUS
 62
3
100
AcDbCircle
 10
247.8689942346533
 20
539.9317039691059
 30
0.0000000000000000
 40
2.000000000000000
100
AcDbArc
 50
269.9999999994325
 51
360.0000000000039
  0
ARC
  5
550
100
AcDbEntity
  8
MAIN0
  6
CONTINUOUS
 62
3
100
AcDbCircle
 10
113.8689942346531
 20
539.9317039691053
 30
0.0000000000000000
 40
2.000000000000000
100
AcDbArc
 50
180.0000000000070
 51
269.9999999994325
  0
ARC
  5
551
100
AcDbEntity
  8
MAIN0
  6
CONTINUOUS
 62
3
100
AcDbCircle
 10
114.0689942346529
 20
540.1317039691052
 30
0.0000000000000000
 40
1.000000000000000
100
AcDbArc
 50
180.0000000000070
 51
269.9999999994325
  0
LINE
  5
552
100
AcDbEntity
  8
MAIN0
  6
CONTINUOUS
 62
3
100
AcDbLine
 10
111.8689942346531
 20
539.9317039691053
 30
0.0000000000000000
 11
111.8689942346529
 21
571.4317039700680
 31
0.0000000000000000
  0
LINE
  5
553
100
AcDbEntity
  8
MAIN0
  6
CONTINUOUS
 62
3
100
AcDbLine
 10
249.8689942346533
 20
539.9317039691059
 30
0.0000000000000000
 11
249.8689942346531
 21
571.4317039700686
 31
0.0000000000000000
  0
LINE
  5
554
100
AcDbEntity
  8
MAIN0
  6
CONTINUOUS
 62
3
100
AcDbLine
 10
248.6689942346530
 20
540.1317039691057
 30
0.0000000000000000
 11
248.6689942346529
 21
571.4317039700686
 31
0.0000000000000000
  0
LINE
  5
555
100
AcDbEntity
  8
MAIN0
  6
CONTINUOUS
 62
3
100
AcDbLine
 10
113.0689942346534
 20
539.9317039691053
 30
0.0000000000000000
 11
113.0689942346532
 21
571.4317039700680
 31
0.0000000000000000
  0
LINE
  5
556
100
AcDbEntity
  8
MAIN0
  6
CONTINUOUS
 62
3
100
AcDbLine
 10
110.0689942346007
 20
571.4317039700679
 30
0.0000000000000000
 11
110.0689942346008
 21
535.9317039667483
 31
0.0000000000000000
  0
LINE
  5
557
100
AcDbEntity
  8
MAIN0
  6
CONTINUOUS
 62
3
100
AcDbLine
 10
108.8689942346002
 20
610.4317039667484
 30
0.0000000000000000
 11
108.8689942346005
 21
535.9317039667483
 31
0.0000000000000000
  0
ARC
  5
558
100
AcDbEntity
  8
MAIN0
  6
CONTINUOUS
 62
3
100
AcDbCircle
 10
109.8689942346001
 20
610.4317039667483
 30
0.0000000000000000
 40
1.000000000000000
100
AcDbArc
 50
90.00000000000027
 51
180.0000000000003
  0
LINE
  5
559
100
AcDbEntity
  8
MAIN0
  6
CONTINUOUS
 62
3
100
AcDbLine
 10
251.6689942346006
 20
571.4317039700686
 30
0.0000000000000000
 11
251.6689942346008
 21
535.9317039667481
 31
0.0000000000000000
  0
LINE
  5
55A
100
AcDbEntity
  8
MAIN0
  6
CONTINUOUS
 62
3
100
AcDbLine
 10
252.8689942346007
 20
610.4317039667491
 30
0.0000000000000000
 11
252.8689942346010
 21
535.9317039667481
 31
0.0000000000000000
  0
ARC
  5
55B
100
AcDbEntity
  8
MAIN0
  6
CONTINUOUS
 62
3
100
AcDbCircle
 10
251.8689942346007
 20
610.4317039667490
 30
0.0000000000000000
 40
1.000000000000000
100
AcDbArc
 50
2.798888119687895e-013
 51
90.00000000000027
  0
LINE
  5
55C
100
AcDbEntity
  8
MAIN0
  6
CONTINUOUS
 62
3
100
AcDbLine
 10
252.8689942346008
 20
535.9317039667491
 30
0.0000000000000000
 11
251.6689942346005
 21
535.9317039667490
 31
0.0000000000000000
  0
LINE
  5
55D
100
AcDbEntity
  8
MAIN0
  6
CONTINUOUS
 62
3
100
AcDbLine
 10
110.0689942346008
 20
535.9317039667484
 30
0.0000000000000000
 11
108.8689942346006
 21
535.9317039667484
 31
0.0000000000000000
  0
LINE
  5
55E
100
AcDbEntity
  8
MAIN0
  6
CONTINUOUS
 62
3
100
AcDbLine
 10
120.8689942346895
 20
535.9317039691763
 30
0.0000000000000000
 11
112.3689942346890
 21
535.9317039691763
 31
0.0000000000000000
  0
LINE
  5
55F
100
AcDbEntity
  8
MAIN0
  6
CONTINUOUS
 62
3
100
AcDbLine
 10
112.5689942346888
 20
537.1317039691766
 30
0.0000000000000000
 11
120.8689942346895
 21
537.1317039691766
 31
0.0000000000000000
  0
LINE
  5
560
100
AcDbEntity
  8
MAIN0
  6
CONTINUOUS
 62
3
100
AcDbLine
 10
120.8689942346894
 20
537.1317039691824
 30
0.0000000000000000
 11
120.8689942346894
 21
535.9317039691825
 31
0.0000000000000000
  0
LINE
  5
561
100
AcDbEntity
  8
MAIN0
  6
CONTINUOUS
 62
3
100
AcDbLine
 10
240.8689942346892
 20
537.1317039691771
 30
0.0000000000000000
 11
249.1689942346894
 21
537.1317039691771
 31
0.0000000000000000
  0
LINE
  5
562
100
AcDbEntity
  8
MAIN0
  6
CONTINUOUS
 62
3
100
AcDbLine
 10
249.3689942346892
 20
535.9317039691769
 30
0.0000000000000000
 11
240.8689942346892
 21
535.9317039691769
 31
0.0000000000000000
  0
LINE
  5
563
100
AcDbEntity
  8
MAIN0
  6
CONTINUOUS
 62
3
100
AcDbLine
 10
240.8689942346892
 20
537.1317039691770
 30
0.0000000000000000
 11
240.8689942346892
 21
535.9317039691767
 31
0.0000000000000000
  0
ARC
  5
564
100
AcDbEntity
  8
MAIN0
  6
CONTINUOUS
 62
3
100
AcDbCircle
 10
249.1689942346894
 20
538.1317039691767
 30
0.0000000000000000
 40
1.000000000000000
100
AcDbArc
 50
269.9999999994325
 51
360.0000000000039
  0
ARC
  5
565
100
AcDbEntity
  8
MAIN0
  6
CONTINUOUS
 62
3
100
AcDbCircle
 10
249.3689942346892
 20
537.9317039691769
 30
0.0000000000000000
 40
2.000000000000000
100
AcDbArc
 50
269.9999999994325
 51
360.0000000000039
  0
ARC
  5
566
100
AcDbEntity
  8
MAIN0
  6
CONTINUOUS
 62
3
100
AcDbCircle
 10
112.3689942346890
 20
537.9317039691763
 30
0.0000000000000000
 40
2.000000000000000
100
AcDbArc
 50
180.0000000000070
 51
269.9999999994325
  0
ARC
  5
567
100
AcDbEntity
  8
MAIN0
  6
CONTINUOUS
 62
3
100
AcDbCircle
 10
112.5689942346888
 20
538.1317039691761
 30
0.0000000000000000
 40
1.000000000000000
100
AcDbArc
 50
180.0000000000070
 51
269.9999999994325
  0
LINE
  5
568
100
AcDbEntity
  8
MAIN0
  6
CONTINUOUS
 62
3
100
AcDbLine
 10
110.3689942346890
 20
537.9317039691762
 30
0.0000000000000000
 11
110.3689942346888
 21
571.4317039700679
 31
0.0000000000000000
  0
LINE
  5
569
100
AcDbEntity
  8
MAIN0
  6
CONTINUOUS
 62
3
100
AcDbLine
 10
251.3689942346893
 20
537.9317039691770
 30
0.0000000000000000
 11
251.3689942346891
 21
571.4317039700687
 31
0.0000000000000000
  0
LINE
  5
56A
100
AcDbEntity
  8
MAIN0
  6
CONTINUOUS
 62
3
100
AcDbLine
 10
250.1689942346890
 20
538.1317039691768
 30
0.0000000000000000
 11
250.1689942346889
 21
571.4317039700687
 31
0.0000000000000000
  0
LINE
  5
56B
100
AcDbEntity
  8
MAIN0
  6
CONTINUOUS
 62
3
100
AcDbLine
 10
111.5689942346893
 20
537.9317039691762
 30
0.0000000000000000
 11
111.5689942346891
 21
571.4317039700679
 31
0.0000000000000000
  0
LINE
  5
56C
100
AcDbEntity
  8
MAIN0
  6
CONTINUOUS
 62
3
100
AcDbLine
 10
118.3689942345567
 20
571.4317039700680
 30
0.0000000000000000
 11
110.0689942346008
 21
571.4317039700679
 31
0.0000000000000000
  0
LINE
  5
56D
100
AcDbEntity
  8
MAIN0
  6
CONTINUOUS
 62
3
100
AcDbLine
 10
251.6689942346006
 20
571.4317039700687
 30
0.0000000000000000
 11
243.3689942345568
 21
571.4317039700686
 31
0.0000000000000000
  0
LINE
  5
56E
100
AcDbEntity
  8
MAIN0
  6
CONTINUOUS
 62
3
100
AcDbLine
 10
118.3689942345572
 20
611.4317039667484
 30
0.0000000000000000
 11
109.8689942346002
 21
611.4317039667483
 31
0.0000000000000000
  0
LINE
  5
56F
100
AcDbEntity
  8
MAIN0
  6
CONTINUOUS
 62
3
100
AcDbLine
 10
251.8689942346007
 20
611.4317039667490
 30
0.0000000000000000
 11
243.3689942345573
 21
611.4317039667490
 31
0.0000000000000000
  0
LINE
  5
570
100
AcDbEntity
  8
MAIN0
  6
CONTINUOUS
 62
3
100
AcDbLine
 10
858.8405184653382
 20
611.4317039684478
 30
0.0000000000000000
 11
925.8405184653582
 21
611.4317039684478
 31
0.0000000000000000
  0
LINE
  5
571
100
AcDbEntity
  8
MAIN0
  6
CONTINUOUS
 62
3
100
AcDbLine
 10
858.8405184653311
 20
535.9317039684235
 30
0.0000000000000000
 11
925.8405184653384
 21
535.9317039685076
 31
0.0000000000000000
  0
ARC
  5
572
100
AcDbEntity
  8
MAIN0
  6
CONTINUOUS
 62
3
100
AcDbCircle
 10
858.8405184653382
 20
609.4317039684478
 30
0.0000000000000000
 40
2.000000000000000
100
AcDbArc
 50
89.99999999942553
 51
179.9999999999964
  0
ARC
  5
573
100
AcDbEntity
  8
MAIN0
  6
CONTINUOUS
 62
3
100
AcDbCircle
 10
925.8405184653382
 20
609.4317039684478
 30
0.0000000000000000
 40
2.000000000000000
100
AcDbArc
 50
0.0000000000000000
 51
89.99999999942553
  0
LINE
  5
574
100
AcDbEntity
  8
MAIN0
  6
CONTINUOUS
 62
3
100
AcDbLine
 10
925.8405184653360
 20
535.9317039685047
 30
0.0000000000000000
 11
927.8405184653366
 21
537.9317039685077
 31
0.0000000000000000
  0
LINE
  5
575
100
AcDbEntity
  8
MAIN0
  6
CONTINUOUS
 62
3
100
AcDbLine
 10
856.8405184653304
 20
537.9317039684216
 30
0.0000000000000000
 11
858.8405184653306
 21
535.9317039684240
 31
0.0000000000000000
  0
LINE
  5
576
100
AcDbEntity
  8
MAIN0
  6
CONTINUOUS
 62
3
100
AcDbLine
 10
927.8405184653382
 20
537.9317039685078
 30
0.0000000000000000
 11
927.8405184653382
 21
603.4317039684477
 31
0.0000000000000000
  0
LINE
  5
577
100
AcDbEntity
  8
MAIN0
  6
CONTINUOUS
 62
3
100
AcDbLine
 10
927.8405184653382
 20
603.4317039684477
 30
0.0000000000000000
 11
927.8405184653382
 21
609.4317039684478
 31
0.0000000000000000
  0
LINE
  5
578
100
AcDbEntity
  8
MAIN0
  6
CONTINUOUS
 62
3
100
AcDbLine
 10
856.8405184653318
 20
537.9317039684207
 30
0.0000000000000000
 11
856.8405184653354
 21
570.2317039698231
 31
0.0000000000000000
  0
LINE
  5
579
100
AcDbEntity
  8
MAIN0
  6
CONTINUOUS
 62
3
100
AcDbLine
 10
856.8405184653352
 20
570.2317039698235
 30
0.0000000000000000
 11
856.8405184653389
 21
609.4317039684482
 31
0.0000000000000000
  0
LINE
  5
57A
100
AcDbEntity
  8
MAIN0
  6
CONTINUOUS
 62
3
100
AcDbLine
 10
1287.036868063215
 20
520.2317039700300
 30
0.0000000000000000
 11
1287.036868063215
 21
534.6317039700301
 31
0.0000000000000000
  0
LINE
  5
57B
100
AcDbEntity
  8
MAIN0
  6
CONTINUOUS
 62
3
100
AcDbLine
 10
1287.036868063215
 20
534.6317039700305
 30
0.0000000000000000
 11
1284.265586771105
 21
536.2317039700304
 31
0.0000000000000000
  0
LINE
  5
57C
100
AcDbEntity
  8
MAIN0
  6
CONTINUOUS
 62
3
100
AcDbLine
 10
1284.265586771105
 20
536.2317039700300
 30
0.0000000000000000
 11
1265.808149355325
 21
536.2317039700300
 31
0.0000000000000000
  0
LINE
  5
57D
100
AcDbEntity
  8
MAIN0
  6
CONTINUOUS
 62
3
100
AcDbLine
 10
1265.808149355325
 20
536.2317039700304
 30
0.0000000000000000
 11
1263.036868063215
 21
534.6317039700300
 31
0.0000000000000000
  0
LINE
  5
57E
100
AcDbEntity
  8
MAIN0
  6
CONTINUOUS
 62
3
100
AcDbLine
 10
1263.036868063215
 20
534.6317039700301
 30
0.0000000000000000
 11
1263.036868063215
 21
520.2317039700300
 31
0.0000000000000000
  0
LINE
  5
57F
100
AcDbEntity
  8
MAIN0
  6
CONTINUOUS
 62
3
100
AcDbLine
 10
1287.036868063215
 20
534.6317039700301
 30
0.0000000000000000
 11
1263.036868063215
 21
534.6317039700301
 31
0.0000000000000000
  0
LINE
  5
580
100
AcDbEntity
  8
MAIN0
  6
CONTINUOUS
 62
3
100
AcDbLine
 10
1292.536868063215
 20
520.2317039700300
 30
0.0000000000000000
 11
1257.536868063215
 21
520.2317039700300
 31
0.0000000000000000
  0
LINE
  5
581
100
AcDbEntity
  8
MAIN0
  6
CONTINUOUS
 62
3
100
AcDbLine
 10
1292.536868063215
 20
515.2317039700300
 30
0.0000000000000000
 11
1292.536868063215
 21
520.2317039700300
 31
0.0000000000000000
  0
LINE
  5
582
100
AcDbEntity
  8
MAIN0
  6
CONTINUOUS
 62
3
100
AcDbLine
 10
1257.536868063215
 20
515.2317039700300
 30
0.0000000000000000
 11
1257.536868063215
 21
520.2317039700300
 31
0.0000000000000000
  0
LINE
  5
583
100
AcDbEntity
  8
MAIN0
  6
CONTINUOUS
 62
3
100
AcDbLine
 10
1260.786868063197
 20
455.2317039701450
 30
0.0000000000000000
 11
1260.786868063190
 21
466.2317039701450
 31
0.0000000000000000
  0
LINE
  5
584
100
AcDbEntity
  8
MAIN0
  6
CONTINUOUS
 62
3
100
AcDbLine
 10
1289.286868063197
 20
455.2317039701570
 30
0.0000000000000000
 11
1289.286868063190
 21
466.2317039701570
 31
0.0000000000000000
  0
LINE
  5
585
100
AcDbEntity
  8
MAIN0
  6
CONTINUOUS
 62
3
100
AcDbLine
 10
1260.786868063198
 20
455.2317039701451
 30
0.0000000000000000
 11
1289.286868063198
 21
455.2317039701570
 31
0.0000000000000000
  0
LINE
  5
586
100
AcDbEntity
  8
MAIN0
  6
CONTINUOUS
 62
3
100
AcDbLine
 10
1266.286868063185
 20
474.2317039701474
 30
0.0000000000000000
 11
1283.786868063185
 21
474.2317039701546
 31
0.0000000000000000
  0
LINE
  5
587
100
AcDbEntity
  8
MAIN0
  6
CONTINUOUS
 62
3
100
AcDbLine
 10
1260.786868063190
 20
466.2317039701451
 30
0.0000000000000000
 11
1266.286868063190
 21
466.2317039701474
 31
0.0000000000000000
  0
LINE
  5
588
100
AcDbEntity
  8
MAIN0
  6
CONTINUOUS
 62
3
100
AcDbLine
 10
1283.786868063190
 20
466.2317039701547
 30
0.0000000000000000
 11
1289.286868063190
 21
466.2317039701570
 31
0.0000000000000000
  0
LINE
  5
589
100
AcDbEntity
  8
MAIN0
  6
CONTINUOUS
 62
3
100
AcDbLine
 10
1266.286868063190
 20
466.2317039701472
 30
0.0000000000000000
 11
1266.286868063184
 21
474.2317039701472
 31
0.0000000000000000
  0
LINE
  5
58A
100
AcDbEntity
  8
MAIN0
  6
CONTINUOUS
 62
3
100
AcDbLine
 10
1283.786868063190
 20
466.2317039701546
 30
0.0000000000000000
 11
1283.786868063184
 21
474.2317039701546
 31
0.0000000000000000
  0
LINE
  5
58B
100
AcDbEntity
  8
MAIN0
  6
CONTINUOUS
 62
3
100
AcDbLine
 10
1268.119400063198
 20
485.2317039701541
 30
0.0000000000000000
 11
1268.119400063198
 21
474.2317039701571
 31
0.0000000000000000
  0
LINE
  5
58C
100
AcDbEntity
  8
MAIN0
  6
CONTINUOUS
 62
3
100
AcDbLine
 10
1267.036868063198
 20
474.2317039701571
 30
0.0000000000000000
 11
1267.036868063198
 21
485.2317039701537
 31
0.0000000000000000
  0
LINE
  5
58D
100
AcDbEntity
  8
MAIN0
  6
CONTINUOUS
 62
3
100
AcDbLine
 10
1281.954336063198
 20
485.2317039701599
 30
0.0000000000000000
 11
1281.954336063198
 21
474.2317039701571
 31
0.0000000000000000
  0
LINE
  5
58E
100
AcDbEntity
  8
MAIN0
  6
CONTINUOUS
 62
3
100
AcDbLine
 10
1283.036868063198
 20
485.2317039701604
 30
0.0000000000000000
 11
1283.036868063198
 21
474.2317039701571
 31
0.0000000000000000
  0
LINE
  5
58F
100
AcDbEntity
  8
MAIN0
  6
CONTINUOUS
 62
3
100
AcDbLine
 10
1429.728610438434
 20
474.2317039699746
 30
0.0000000000000000
 11
1459.728610438434
 21
474.2317039699871
 31
0.0000000000000000
  0
LINE
  5
590
100
AcDbEntity
  8
MAIN0
  6
CONTINUOUS
 62
3
100
AcDbLine
 10
1429.728610438440
 20
466.2317039699747
 30
0.0000000000000000
 11
1459.728610438440
 21
466.2317039699872
 31
0.0000000000000000
  0
LINE
  5
591
100
AcDbEntity
  8
MAIN0
  6
CONTINUOUS
 62
3
100
AcDbLine
 10
1459.728610438447
 20
455.2317039699871
 30
0.0000000000000000
 11
1459.728610438434
 21
474.2317039699871
 31
0.0000000000000000
  0
LINE
  5
592
100
AcDbEntity
  8
MAIN0
  6
CONTINUOUS
 62
3
100
AcDbLine
 10
1429.728610438447
 20
455.2317039699747
 30
0.0000000000000000
 11
1429.728610438434
 21
474.2317039699747
 31
0.0000000000000000
  0
LINE
  5
593
100
AcDbEntity
  8
MAIN0
  6
CONTINUOUS
 62
3
100
AcDbLine
 10
1429.728610438447
 20
455.2317039699746
 30
0.0000000000000000
 11
1459.728610438447
 21
455.2317039699871
 31
0.0000000000000000
  0
LINE
  5
594
100
AcDbEntity
  8
MAIN0
  6
CONTINUOUS
 62
3
100
AcDbLine
 10
1429.728610438373
 20
333.7329293859792
 30
0.0000000000000000
 11
1459.728610438373
 21
333.7329293859709
 31
0.0000000000000000
  0
LINE
  5
595
100
AcDbEntity
  8
MAIN0
  6
CONTINUOUS
 62
3
100
AcDbLine
 10
1429.728610438393
 20
305.2329293859794
 30
0.0000000000000000
 11
1429.728610438373
 21
333.7329293859794
 31
0.0000000000000000
  0
LINE
  5
596
100
AcDbEntity
  8
MAIN0
  6
HIDDEN
 62
3
100
AcDbLine
 10
1429.728610438377
 20
328.2329293859793
 30
0.0000000000000000
 11
1459.728610438377
 21
328.2329293859710
 31
0.0000000000000000
  0
LINE
  5
597
100
AcDbEntity
  8
MAIN0
  6
CENTER
 62
3
100
AcDbLine
 10
1426.465992416094
 20
319.4829293859802
 30
0.0000000000000000
 11
1463.284089779732
 21
319.4829293859700
 31
0.0000000000000000
  0
LINE
  5
598
100
AcDbEntity
  8
MAIN0
  6
HIDDEN
 62
3
100
AcDbLine
 10
1429.728610438390
 20
310.7329293859794
 30
0.0000000000000000
 11
1459.728610438389
 21
310.7329293859711
 31
0.0000000000000000
  0
LINE
  5
599
100
AcDbEntity
  8
MAIN0
  6
CONTINUOUS
 62
3
100
AcDbLine
 10
1429.728610438393
 20
305.2329293859794
 30
0.0000000000000000
 11
1459.728610438393
 21
305.2329293859711
 31
0.0000000000000000
  0
LINE
  5
59A
100
AcDbEntity
  8
MAIN0
  6
CONTINUOUS
 62
3
100
AcDbLine
 10
1459.728610438393
 20
305.2329293859711
 30
0.0000000000000000
 11
1459.728610438373
 21
333.7329293859711
 31
0.0000000000000000
  0
LINE
  5
59B
100
AcDbEntity
  8
MAIN0
  6
CENTER
 62
3
100
AcDbLine
 10
1270.054738257226
 20
715.2316823883111
 30
0.0000000000000000
 11
1179.124738257226
 21
715.2316823883111
 31
0.0000000000000000
  0
LINE
  5
59C
100
AcDbEntity
  8
MAIN0
  6
CENTER
 62
3
100
AcDbLine
 10
1197.124738257234
 20
535.2316823883112
 30
0.0000000000000000
 11
1141.124738257234
 21
535.2316823883112
 31
0.0000000000000000
  0
CIRCLE
  5
59D
100
AcDbEntity
  8
MAIN0
  6
CONTINUOUS
 62
3
100
AcDbCircle
 10
1444.728610438383
 20
319.4829293859752
 30
0.0000000000000000
 40
8.000000000000000
  0
CIRCLE
  5
59E
100
AcDbEntity
  8
MAIN0
  6
CONTINUOUS
 62
3
100
AcDbCircle
 10
1444.728610438383
 20
319.4829293859752
 30
0.0000000000000000
 40
7.000000000000000
  0
LINE
  5
59F
100
AcDbEntity
  8
WAKU0
  6
CONTINUOUS
 62
3
100
AcDbLine
 10
240.0000000000000
 20
51.00000000000000
 30
0.0000000000000000
 11
410.0000000000000
 21
51.00000000000000
 31
0.0000000000000000
  0
LINE
  5
5A0
100
AcDbEntity
  8
WAKU0
  6
CONTINUOUS
 62
3
100
AcDbLine
 10
240.0000000000000
 20
51.00000000000000
 30
0.0000000000000000
 11
240.0000000000000
 21
12.00000000000000
 31
0.0000000000000000
  0
LINE
  5
5A1
100
AcDbEntity
  8
WAKU0
  6
CONTINUOUS
 62
3
100
AcDbLine
 10
312.0000000000000
 20
51.00000000000000
 30
0.0000000000000000
 11
312.0000000000000
 21
12.00000000000000
 31
0.0000000000000000
  0
LINE
  5
5A2
100
AcDbEntity
  8
WAKU0
  6
CONTINUOUS
 62
3
100
AcDbLine
 10
332.0000000000000
 20
51.00000000000000
 30
0.0000000000000000
 11
332.0000000000000
 21
12.00000000000000
 31
0.0000000000000000
  0
LINE
  5
5A3
100
AcDbEntity
  8
WAKU0
  6
CONTINUOUS
 62
3
100
AcDbLine
 10
344.0000000000000
 20
51.00000000000000
 30
0.0000000000000000
 11
344.0000000000000
 21
12.00000000000000
 31
0.0000000000000000
  0
LINE
  5
5A4
100
AcDbEntity
  8
WAKU0
  6
CONTINUOUS
 62
3
100
AcDbLine
 10
344.0000000000000
 20
37.00000000000000
 30
0.0000000000000000
 11
410.0000000000000
 21
37.00000000000000
 31
0.0000000000000000
  0
LINE
  5
5A5
100
AcDbEntity
  8
WAKU0
  6
CONTINUOUS
 62
3
100
AcDbLine
 10
332.0000000000000
 20
23.00000000000000
 30
0.0000000000000000
 11
410.0000000000000
 21
23.00000000000000
 31
0.0000000000000000
  0
LINE
  5
5A6
100
AcDbEntity
  8
WAKU0
  6
CONTINUOUS
 62
3
100
AcDbLine
 10
375.0000000000000
 20
51.00000000000000
 30
0.0000000000000000
 11
375.0000000000000
 21
44.00000000000000
 31
0.0000000000000000
  0
LINE
  5
5A7
100
AcDbEntity
  8
WAKU0
  6
CONTINUOUS
 62
3
100
AcDbLine
 10
387.0000000000000
 20
51.00000000000000
 30
0.0000000000000000
 11
387.0000000000000
 21
44.00000000000000
 31
0.0000000000000000
  0
LINE
  5
5A8
100
AcDbEntity
  8
WAKU0
  6
CONTINUOUS
 62
3
100
AcDbLine
 10
312.0000000000000
 20
31.50000000000000
 30
0.0000000000000000
 11
332.0000000000000
 21
31.50000000000000
 31
0.0000000000000000
  0
LINE
  5
5A9
100
AcDbEntity
  8
WAKU0
  6
CONTINUOUS
 62
3
100
AcDbLine
 10
332.0000000000000
 20
44.00000000000000
 30
0.0000000000000000
 11
410.0000000000000
 21
44.00000000000000
 31
0.0000000000000000
  0
LINE
  5
5AA
100
AcDbEntity
  8
WAKU0
  6
CONTINUOUS
 62
3
100
AcDbLine
 10
240.0000000000000
 20
37.00000000000000
 30
0.0000000000000000
 11
312.0000000000000
 21
37.00000000000000
 31
0.0000000000000000
  0
LINE
  5
5AB
100
AcDbEntity
  8
WAKU0
  6
CONTINUOUS
 62
3
100
AcDbLine
 10
240.0000000000000
 20
23.00000000000000
 30
0.0000000000000000
 11
312.0000000000000
 21
23.00000000000000
 31
0.0000000000000000
  0
LINE
  5
5AC
100
AcDbEntity
  8
WAKU0
  6
CONTINUOUS
 62
3
100
AcDbLine
 10
288.0000000000000
 20
37.00000000000000
 30
0.0000000000000000
 11
288.0000000000000
 21
12.00000000000000
 31
0.0000000000000000
  0
LINE
  5
5AD
100
AcDbEntity
  8
WAKU0
  6
CONTINUOUS
 62
3
100
AcDbLine
 10
264.0000000000000
 20
37.00000000000000
 30
0.0000000000000000
 11
264.0000000000000
 21
23.00000000000000
 31
0.0000000000000000
  0
LINE
  5
5AE
100
AcDbEntity
  8
WAKU0
  6
CONTINUOUS
 62
3
100
AcDbLine
 10
300.0000000000000
 20
26.00000000000000
 30
0.0000000000000000
 11
300.0000000000000
 21
23.00000000000000
 31
0.0000000000000000
  0
LINE
  5
5AF
100
AcDbEntity
  8
WAKU0
  6
CONTINUOUS
 62
3
100
AcDbLine
 10
276.0000000000000
 20
26.00000000000000
 30
0.0000000000000000
 11
276.0000000000000
 21
23.00000000000000
 31
0.0000000000000000
  0
LINE
  5
5B0
100
AcDbEntity
  8
WAKU0
  6
CONTINUOUS
 62
3
100
AcDbLine
 10
252.0000000000000
 20
26.00000000000000
 30
0.0000000000000000
 11
252.0000000000000
 21
23.00000000000000
 31
0.0000000000000000
  0
LINE
  5
5B1
100
AcDbEntity
  8
WAKU0
  6
CONTINUOUS
 62
3
100
AcDbLine
 10
258.0000000000000
 20
51.00000000000000
 30
0.0000000000000000
 11
258.0000000000000
 21
37.00000000000000
 31
0.0000000000000000
  0
LINE
  5
5B2
100
AcDbEntity
  8
WAKU0
  6
CONTINUOUS
 62
3
100
AcDbLine
 10
240.0000000000000
 20
45.00000000000000
 30
0.0000000000000000
 11
312.0000000000000
 21
45.00000000000000
 31
0.0000000000000000
  0
LINE
  5
5B3
100
AcDbEntity
  8
WAKU0
  6
HIDDEN
 62
3
100
AcDbLine
 10
360.5000000000000
 20
23.00000000000000
 30
0.0000000000000000
 11
360.5000000000000
 21
12.00000000000000
 31
0.0000000000000000
  0
LINE
  5
5B4
100
AcDbEntity
  8
WAKU0
  6
HIDDEN
 62
3
100
AcDbLine
 10
372.9000000000000
 20
23.00000000000000
 30
0.0000000000000000
 11
372.9000000000000
 21
12.00000000000000
 31
0.0000000000000000
  0
MTEXT
  5
5B5
100
AcDbEntity
  8
WAKU0
  6
CONTINUOUS
 62
3
100
AcDbMText
 10
344.4820000243485
 20
49.04999995231628
 30
0.0000000000000000
 40
3.099999904632568
 41
0.0000000000000000
 71
     1
 72
     1
  1
{\H0.93x;{VE125LWN}}
 11
1.000000000000000
 21
0.0000000000000000
 31
0.0000000000000000
  7
STANDARD
  0
MTEXT
  5
5B6
100
AcDbEntity
  8
WAKU0
  6
CONTINUOUS
 62
3
100
AcDbMText
 10
347.6099993288517
 20
42.04999995231628
 30
0.0000000000000000
 40
3.099999904632568
 41
0.0000000000000000
 71
     1
 72
     1
  1
{\H0.94x;{パワーバイス　ＰＯＷＥＲ　ＶＩＳＥ}}
 11
1.000000000000000
 21
0.0000000000000000
 31
0.0000000000000000
  7
KNJYOKO
  0
MTEXT
  5
5B7
100
AcDbEntity
  8
WAKU0
  6
CONTINUOUS
 62
3
100
AcDbMText
 10
349.7499999850988
 20
34.23333326975504
 30
0.0000000000000000
 40
3.099999904632568
 41
0.0000000000000000
 71
     1
 72
     1
  1
{\H0.70x;{ＶＥ１２５ＬＷＮ　ガイケイ\PＶＥ１２５ＬＷＮ　ＯＵＴＳＩＤＥ　ＶＩＥＷ}}
 11
1.000000000000000
 21
0.0000000000000000
 31
0.0000000000000000
  7
KNJYOKO
  0
MTEXT
  5
5B8
100
AcDbEntity
  8
WAKU0
  6
CONTINUOUS
 62
3
100
AcDbMText
 10
318.0049998760223
 20
39.29999995231628
 30
0.0000000000000000
 40
3.099999904632568
 41
0.0000000000000000
 71
     1
 72
     1
  1
{\H0.90x;{1:4}}
 11
1.000000000000000
 21
0.0000000000000000
 31
0.0000000000000000
  7
STANDARD
  0
MTEXT
  5
5B9
100
AcDbEntity
  8
WAKU0
  6
CONTINUOUS
 62
3
100
AcDbMText
 10
374.4000001549721
 20
20.15000009536743
 30
0.0000000000000000
 40
5.300000190734863
 41
0.0000000000000000
 71
     1
 72
     1
  1
{\H0.90x;{3636}}
 11
1.000000000000000
 21
0.0000000000000000
 31
0.0000000000000000
  7
STANDARD
  0
MTEXT
  5
5BA
100
AcDbEntity
  8
WAKU0
  6
CONTINUOUS
 62
3
100
AcDbMText
 10
362.3000000834465
 20
20.15000009536743
 30
0.0000000000000000
 40
5.300000190734863
 41
0.0000000000000000
 71
     1
 72
     1
  1
{\H0.87x;{80}}
 11
1.000000000000000
 21
0.0000000000000000
 31
0.0000000000000000
  7
STANDARD
  0
MTEXT
  5
5BB
100
AcDbEntity
  8
WAKU0
  6
CONTINUOUS
 62
3
100
AcDbMText
 10
345.5000001192093
 20
20.15000009536743
 30
0.0000000000000000
 40
5.300000190734863
 41
0.0000000000000000
 71
     1
 72
     1
  1
{\H0.89x;{61M}}
 11
1.000000000000000
 21
0.0000000000000000
 31
0.0000000000000000
  7
STANDARD
  0
MTEXT
  5
5BC
100
AcDbEntity
  8
WAKU0
  6
CONTINUOUS
 62
3
100
AcDbMText
 10
400.0000000476837
 20
20.15000009536743
 30
0.0000000000000000
 40
5.300000190734863
 41
0.0000000000000000
 71
     1
 72
     1
  1
{\H0.81x;{1}}
 11
1.000000000000000
 21
0.0000000000000000
 31
0.0000000000000000
  7
STANDARD
  0
MTEXT
  5
5BD
100
AcDbEntity
  8
WAKU0
  6
CONTINUOUS
 62
3
100
AcDbMText
 10
400.0000000819564
 20
44.84999990463257
 30
0.0000000000000000
 40
5.300000190734863
 41
0.0000000000000000
 71
     7
 72
     1
  1
{\H0.81x;{ }}
 11
1.000000000000000
 21
0.0000000000000000
 31
0.0000000000000000
  7
STANDARD
  0
MTEXT
  5
5BE
100
AcDbEntity
  8
WAKU0
  6
CONTINUOUS
 62
3
100
AcDbMText
 10
289.3850002884865
 20
33.00000000000000
 30
0.0000000000000000
 40
3.000000000000000
 41
0.0000000000000000
 71
     7
 72
     1
  1
{\H0.93x;{DRAWN BY}}
 11
1.000000000000000
 21
0.0000000000000000
 31
0.0000000000000000
  7
STANDARD
  0
MTEXT
  5
5BF
100
AcDbEntity
  8
WAKU0
  6
CONTINUOUS
 62
3
100
AcDbMText
 10
269.2149997949600
 20
32.95000004768372
 30
0.0000000000000000
 40
3.099999904632568
 41
0.0000000000000000
 71
     7
 72
     1
  1
{\H0.92x;{CHIEF}}
 11
1.000000000000000
 21
0.0000000000000000
 31
0.0000000000000000
  7
STANDARD
  0
MTEXT
  5
5C0
100
AcDbEntity
  8
WAKU0
  6
CONTINUOUS
 62
3
100
AcDbMText
 10
242.4249997138977
 20
32.95000004768372
 30
0.0000000000000000
 40
3.099999904632568
 41
0.0000000000000000
 71
     7
 72
     1
  1
{\H0.92x;{MANAGER}}
 11
1.000000000000000
 21
0.0000000000000000
 31
0.0000000000000000
  7
STANDARD
  0
MTEXT
  5
5C1
100
AcDbEntity
  8
WAKU0
  6
CONTINUOUS
 62
3
100
AcDbMText
 10
244.6599994301796
 20
18.13333336512248
 30
0.0000000000000000
 40
3.099999904632568
 41
0.0000000000000000
 71
     7
 72
     1
  1
{\H0.93x;{KITAGAWA IRON\PWORKS CO.,LTD.}}
 11
1.000000000000000
 21
0.0000000000000000
 31
0.0000000000000000
  7
STANDARD
  0
MTEXT
  5
5C2
100
AcDbEntity
  8
WAKU0
  6
CONTINUOUS
 62
3
100
AcDbMText
 10
241.0850002169609
 20
46.50000000000000
 30
0.0000000000000000
 40
3.000000000000000
 41
0.0000000000000000
 71
     7
 72
     1
  1
{\H0.92x;{CAREER}}
 11
1.000000000000000
 21
0.0000000000000000
 31
0.0000000000000000
  7
STANDARD
  0
MTEXT
  5
5C3
100
AcDbEntity
  8
WAKU0
  6
CONTINUOUS
 62
3
100
AcDbMText
 10
294.6099998354912
 20
18.95000004768372
 30
0.0000000000000000
 40
3.099999904632568
 41
0.0000000000000000
 71
     7
 72
     1
  1
{\H0.91x;{DATE}}
 11
1.000000000000000
 21
0.0000000000000000
 31
0.0000000000000000
  7
STANDARD
  0
MTEXT
  5
5C4
100
AcDbEntity
  8
WAKU0
  6
CONTINUOUS
 62
3
100
AcDbMText
 10
313.9000002145767
 20
26.50000000000000
 30
0.0000000000000000
 40
3.000000000000000
 41
0.0000000000000000
 71
     7
 72
     1
  1
{\H0.63x;{3RD ANGLE}}
 11
1.000000000000000
 21
0.0000000000000000
 31
0.0000000000000000
  7
STANDARD
  0
MTEXT
  5
5C5
100
AcDbEntity
  8
WAKU0
  6
CONTINUOUS
 62
3
100
AcDbMText
 10
315.2149997949600
 20
45.95000004768372
 30
0.0000000000000000
 40
3.099999904632568
 41
0.0000000000000000
 71
     7
 72
     1
  1
{\H0.92x;{SCALE}}
 11
1.000000000000000
 21
0.0000000000000000
 31
0.0000000000000000
  7
STANDARD
  0
MTEXT
  5
5C6
100
AcDbEntity
  8
WAKU0
  6
CONTINUOUS
 62
3
100
AcDbMText
 10
405.7000000476837
 20
46.00000000000000
 30
0.0000000000000000
 40
3.000000000000000
 41
0.0000000000000000
 71
     7
 72
     1
  1
{\H0.63x;{kg}}
 11
1.000000000000000
 21
0.0000000000000000
 31
0.0000000000000000
  7
STANDARD
  0
MTEXT
  5
5C7
100
AcDbEntity
  8
WAKU0
  6
CONTINUOUS
 62
3
100
AcDbMText
 10
375.6000001430512
 20
46.00000000000000
 30
0.0000000000000000
 40
3.000000000000000
 41
0.0000000000000000
 71
     7
 72
     1
  1
{\H0.63x;{WEIGHT}}
 11
1.000000000000000
 21
0.0000000000000000
 31
0.0000000000000000
  7
STANDARD
  0
MTEXT
  5
5C8
100
AcDbEntity
  8
WAKU0
  6
CONTINUOUS
 62
3
100
AcDbMText
 10
334.0049998760223
 20
18.13333336512248
 30
0.0000000000000000
 40
3.099999904632568
 41
0.0000000000000000
 71
     7
 72
     1
  1
{\H0.90x;{DRW\PNO.}}
 11
1.000000000000000
 21
0.0000000000000000
 31
0.0000000000000000
  7
STANDARD
  0
MTEXT
  5
5C9
100
AcDbEntity
  8
WAKU0
  6
CONTINUOUS
 62
3
100
AcDbMText
 10
332.6099998354912
 20
31.95000004768372
 30
0.0000000000000000
 40
3.099999904632568
 41
0.0000000000000000
 71
     7
 72
     1
  1
{\H0.91x;{NAME}}
 11
1.000000000000000
 21
0.0000000000000000
 31
0.0000000000000000
  7
STANDARD
  0
MTEXT
  5
5CA
100
AcDbEntity
  8
WAKU0
  6
CONTINUOUS
 62
3
100
AcDbMText
 10
332.6099998354912
 20
45.95000004768372
 30
0.0000000000000000
 40
3.099999904632568
 41
0.0000000000000000
 71
     7
 72
     1
  1
{\H0.91x;{TYPE}}
 11
1.000000000000000
 21
0.0000000000000000
 31
0.0000000000000000
  7
STANDARD
  0
LINE
  5
5CB
100
AcDbEntity
  8
WAKU0
  6
HIDDEN
 62
3
100
AcDbLine
 10
407.1599564743885
 20
13.84999990463257
 30
0.0000000000000000
 11
396.9400436209789
 21
13.84999990463257
 31
0.0000000000000000
  0
LINE
  5
5CC
100
AcDbEntity
  8
WAKU0
  6
HIDDEN
 62
3
100
AcDbLine
 10
407.1599564743885
 20
13.84999990463250
 30
0.0000000000000000
 11
402.0500000476852
 21
22.70070406014901
 31
0.0000000000000000
  0
LINE
  5
5CD
100
AcDbEntity
  8
WAKU0
  6
HIDDEN
 62
3
100
AcDbLine
 10
402.0500000476852
 20
22.70070406014902
 30
0.0000000000000000
 11
396.9400436209789
 21
13.84999990463248
 31
0.0000000000000000
  0
LINE
  5
5CE
100
AcDbEntity
  8
WAKU0
  6
CONTINUOUS
 62
3
100
AcDbLine
 10
330.4713877753800
 20
15.78041421262812
 30
0.0000000000000000
 11
330.4713877753800
 21
21.78041421262815
 31
0.0000000000000000
  0
LINE
  5
5CF
100
AcDbEntity
  8
WAKU0
  6
CONTINUOUS
 62
3
100
AcDbLine
 10
323.9336941228225
 20
17.28041421262811
 30
0.0000000000000000
 11
323.9336941228225
 21
20.28041421262824
 31
0.0000000000000000
  0
LINE
  5
5D0
100
AcDbEntity
  8
WAKU0
  6
CENTER
 62
12
100
AcDbLine
 10
313.4321805514995
 20
18.78041421262813
 30
0.0000000000000000
 11
331.2765788964694
 21
18.78041421262813
 31
0.0000000000000000
  0
LINE
  5
5D1
100
AcDbEntity
  8
WAKU0
  6
CENTER
 62
12
100
AcDbLine
 10
317.4474565857986
 20
14.55921662918448
 30
0.0000000000000000
 11
317.4474565857986
 21
22.89865102149943
 31
0.0000000000000000
  0
LINE
  5
5D2
100
AcDbEntity
  8
WAKU0
  6
CONTINUOUS
 62
3
100
AcDbLine
 10
323.9336941228225
 20
20.28041421262797
 30
0.0000000000000000
 11
330.4713877753800
 21
21.78041421262795
 31
0.0000000000000000
  0
LINE
  5
5D3
100
AcDbEntity
  8
WAKU0
  6
CONTINUOUS
 62
3
100
AcDbLine
 10
323.9336941228225
 20
17.28041421262811
 30
0.0000000000000000
 11
330.4713877753799
 21
15.78041421262812
 31
0.0000000000000000
  0
CIRCLE
  5
5D4
100
AcDbEntity
  8
WAKU0
  6
CONTINUOUS
 62
3
100
AcDbCircle
 10
317.4474565857986
 20
18.78041421262813
 30
0.0000000000000000
 40
1.499999999999972
  0
CIRCLE
  5
5D5
100
AcDbEntity
  8
WAKU0
  6
CONTINUOUS
 62
3
100
AcDbCircle
 10
317.4474565857986
 20
18.78041421262813
 30
0.0000000000000000
 40
2.999999999999979
  0
LINE
  5
5D6
100
AcDbEntity
  8
A0
  6
CONTINUOUS
 62
3
100
AcDbLine
 10
165.4999995232029
 20
146.9999977351414
 30
0.0000000000000000
 11
165.4999995232029
 21
32.50000000011329
 31
0.0000000000000000
  0
LINE
  5
5D7
100
AcDbEntity
  8
A0
  6
CONTINUOUS
 62
3
100
AcDbLine
 10
32.49999999999297
 20
134.2499979738748
 30
0.0000000000000000
 11
165.4999995232030
 21
134.2499979739339
 31
0.0000000000000000
  0
LINE
  5
5D8
100
AcDbEntity
  8
A0
  6
CONTINUOUS
 62
3
100
AcDbLine
 10
32.49999999999182
 20
146.9999977350235
 30
0.0000000000000000
 11
165.4999995232029
 21
146.9999977351415
 31
0.0000000000000000
  0
MTEXT
  5
5D9
100
AcDbEntity
  8
A0
  6
CONTINUOUS
 62
3
100
AcDbMText
 10
49.37499880792359
 20
144.4999977354859
 30
0.0000000000000000
 40
7.749999761581421
 41
0.0000000000000000
 71
     1
 72
     1
  1
{\H0.71x;{仕様　　SPECIFICATIONS}}
 11
1.000000000000000
 21
0.0000000000000000
 31
0.0000000000000000
  7
KNJYOKO
  0
MTEXT
  5
5DA
100
AcDbEntity
  8
A0
  6
CONTINUOUS
 62
3
100
AcDbMText
 10
121.4999985694975
 20
127.8749980928218
 30
0.0000000000000000
 40
7.749999761581421
 41
0.0000000000000000
 71
     1
 72
     1
  1
{\H0.70x;{０～405mm}}
 11
1.000000000000000
 21
0.0000000000000000
 31
0.0000000000000000
  7
KNJYOKO
  0
MTEXT
  5
5DB
100
AcDbEntity
  8
A0
  6
CONTINUOUS
 62
3
100
AcDbMText
 10
33.75000000000898
 20
122.7499982120311
 30
0.0000000000000000
 40
7.749999761581421
 41
0.0000000000000000
 71
     1
 72
     1
  1
{\H0.71x;{CLAMPING RANGE}}
 11
1.000000000000000
 21
0.0000000000000000
 31
0.0000000000000000
  7
STANDARD
  0
LINE
  5
5DC
100
AcDbEntity
  8
A0
  6
CONTINUOUS
 62
3
100
AcDbLine
 10
32.49999999999442
 20
113.7499984502791
 30
0.0000000000000000
 11
165.4999995232030
 21
113.7499984503970
 31
0.0000000000000000
  0
LINE
  5
5DD
100
AcDbEntity
  8
A0
  6
CONTINUOUS
 62
3
100
AcDbLine
 10
120.2499985694952
 20
134.2499979739117
 30
0.0000000000000000
 11
120.2499985694952
 21
113.7499984503523
 31
0.0000000000000000
  0
MTEXT
  5
5DE
100
AcDbEntity
  8
A0
  6
CONTINUOUS
 62
3
100
AcDbMText
 10
33.75000000000898
 20
102.2499986888682
 30
0.0000000000000000
 40
7.749999761581421
 41
0.0000000000000000
 71
     1
 72
     1
  1
{\H0.71x;{TIGHTENING TORQUE}}
 11
1.000000000000000
 21
0.0000000000000000
 31
0.0000000000000000
  7
STANDARD
  0
LINE
  5
5DF
100
AcDbEntity
  8
A0
  6
CONTINUOUS
 62
3
100
AcDbLine
 10
165.4999995232029
 20
93.24999892760820
 30
0.0000000000000000
 11
32.49999999999608
 21
93.24999892754909
 31
0.0000000000000000
  0
LINE
  5
5E0
100
AcDbEntity
  8
A0
  6
CONTINUOUS
 62
3
100
AcDbLine
 10
120.2499985694952
 20
93.24999892758603
 30
0.0000000000000000
 11
120.2499985694952
 21
32.50000000007327
 31
0.0000000000000000
  0
LINE
  5
5E1
100
AcDbEntity
  8
A0
  6
CONTINUOUS
 62
3
100
AcDbLine
 10
120.2499985694951
 20
72.74999940442334
 30
0.0000000000000000
 11
165.4999995232028
 21
72.74999940444334
 31
0.0000000000000000
  0
MTEXT
  5
5E2
100
AcDbEntity
  8
A0
  6
CONTINUOUS
 62
3
100
AcDbMText
 10
126.4999990463347
 20
71.49999940374585
 30
0.0000000000000000
 40
7.749999761581421
 41
0.0000000000000000
 71
     1
 72
     1
  1
{\H0.67x;{2}}
 11
1.000000000000000
 21
0.0000000000000000
 31
0.0000000000000000
  7
STANDARD
  0
LINE
  5
5E3
100
AcDbEntity
  8
A0
  6
CONTINUOUS
 62
3
100
AcDbLine
 10
165.4999995232029
 20
52.24999964286394
 30
0.0000000000000000
 11
32.49999999999850
 21
52.24999964280482
 31
0.0000000000000000
  0
MTEXT
  5
5E4
100
AcDbEntity
  8
A0
  6
CONTINUOUS
 62
3
100
AcDbMText
 10
126.4999990463347
 20
61.24999940412397
 30
0.0000000000000000
 40
7.749999761581421
 41
0.0000000000000000
 71
     1
 72
     1
  1
{\H0.67x;{3}}
 11
1.000000000000000
 21
0.0000000000000000
 31
0.0000000000000000
  7
STANDARD
  0
LINE
  5
5E5
100
AcDbEntity
  8
A0
  6
CONTINUOUS
 62
3
100
AcDbLine
 10
120.2499985694953
 20
82.99999916560847
 30
0.0000000000000000
 11
165.4999995232029
 21
82.99999916564860
 31
0.0000000000000000
  0
LINE
  5
5E6
100
AcDbEntity
  8
A0
  6
CONTINUOUS
 62
3
100
AcDbLine
 10
137.3987934393767
 20
93.24999892759354
 30
0.0000000000000000
 11
137.3987934393767
 21
52.24999964285155
 31
0.0000000000000000
  0
MTEXT
  5
5E7
100
AcDbEntity
  8
A0
  6
CONTINUOUS
 62
3
100
AcDbMText
 10
141.2210526914973
 20
81.74999916532636
 30
0.0000000000000000
 40
7.749999761581421
 41
0.0000000000000000
 71
     1
 72
     1
  1
{\H0.70x;{12KN}}
 11
1.000000000000000
 21
0.0000000000000000
 31
0.0000000000000000
  7
STANDARD
  0
MTEXT
  5
5E8
100
AcDbEntity
  8
A0
  6
CONTINUOUS
 62
3
100
AcDbMText
 10
141.2210526914973
 20
71.49999940374494
 30
0.0000000000000000
 40
7.749999761581421
 41
0.0000000000000000
 71
     1
 72
     1
  1
{\H0.70x;{21KN}}
 11
1.000000000000000
 21
0.0000000000000000
 31
0.0000000000000000
  7
STANDARD
  0
MTEXT
  5
5E9
100
AcDbEntity
  8
A0
  6
CONTINUOUS
 62
3
100
AcDbMText
 10
141.2210526914973
 20
61.24999940412306
 30
0.0000000000000000
 40
7.749999761581421
 41
0.0000000000000000
 71
     1
 72
     1
  1
{\H0.70x;{30KN}}
 11
1.000000000000000
 21
0.0000000000000000
 31
0.0000000000000000
  7
STANDARD
  0
MTEXT
  5
5EA
100
AcDbEntity
  8
A0
  6
CONTINUOUS
 62
3
100
AcDbMText
 10
126.4999990463347
 20
81.74999916532727
 30
0.0000000000000000
 40
7.749999761581421
 41
0.0000000000000000
 71
     1
 72
     1
  1
{\H0.67x;{1}}
 11
1.000000000000000
 21
0.0000000000000000
 31
0.0000000000000000
  7
STANDARD
  0
MTEXT
  5
5EB
100
AcDbEntity
  8
A0
  6
CONTINUOUS
 62
3
100
AcDbMText
 10
131.8788122166690
 20
45.87499976174166
 30
0.0000000000000000
 40
7.749999761581421
 41
0.0000000000000000
 71
     1
 72
     1
  1
{\H0.70x;{48kg}}
 11
1.000000000000000
 21
0.0000000000000000
 31
0.0000000000000000
  7
STANDARD
  0
MTEXT
  5
5EC
100
AcDbEntity
  8
A0
  6
CONTINUOUS
 62
3
100
AcDbMText
 10
33.75000000000898
 20
40.74999988096118
 30
0.0000000000000000
 40
6.999999880790710
 41
0.0000000000000000
 71
     1
 72
     1
  1
{\H0.67x;{MASS OF POWER VISE}}
 11
1.000000000000000
 21
0.0000000000000000
 31
0.0000000000000000
  7
STANDARD
  0
MTEXT
  5
5ED
100
AcDbEntity
  8
A0
  6
CONTINUOUS
 62
3
100
AcDbMText
 10
33.75000000000898
 20
50.99999964254255
 30
0.0000000000000000
 40
7.749999761581421
 41
0.0000000000000000
 71
     1
 72
     1
  1
{\H0.70x;{製品質量}}
 11
1.000000000000000
 21
0.0000000000000000
 31
0.0000000000000000
  7
KNJYOKO
  0
MTEXT
  5
5EE
100
AcDbEntity
  8
A0
  6
CONTINUOUS
 62
3
100
AcDbMText
 10
33.75000000000898
 20
81.74999916570539
 30
0.0000000000000000
 40
7.749999761581421
 41
0.0000000000000000
 71
     1
 72
     1
  1
{\H0.71x;{CLAMP RANGE}}
 11
1.000000000000000
 21
0.0000000000000000
 31
0.0000000000000000
  7
STANDARD
  0
MTEXT
  5
5EF
100
AcDbEntity
  8
A0
  6
CONTINUOUS
 62
3
100
AcDbMText
 10
33.75000000000898
 20
91.99999892728681
 30
0.0000000000000000
 40
7.749999761581421
 41
0.0000000000000000
 71
     1
 72
     1
  1
{\H0.70x;{締付けレンジ}}
 11
1.000000000000000
 21
0.0000000000000000
 31
0.0000000000000000
  7
KNJYOKO
  0
LINE
  5
5F0
100
AcDbEntity
  8
A0
  6
CONTINUOUS
 62
3
100
AcDbLine
 10
32.49999999999184
 20
146.9999977350230
 30
0.0000000000000000
 11
32.50000000000001
 21
32.49999999999966
 31
0.0000000000000000
  0
LINE
  5
5F1
100
AcDbEntity
  8
A0
  6
CONTINUOUS
 62
3
100
AcDbLine
 10
165.4999995232029
 20
32.50000000011795
 30
0.0000000000000000
 11
32.49999999999994
 21
32.50000000000000
 31
0.0000000000000000
  0
MTEXT
  5
5F2
100
AcDbEntity
  8
A0
  6
CONTINUOUS
 62
3
100
AcDbMText
 10
33.75000000000898
 20
112.4999984504497
 30
0.0000000000000000
 40
7.749999761581421
 41
0.0000000000000000
 71
     1
 72
     1
  1
{\H0.70x;{締付トルク}}
 11
1.000000000000000
 21
0.0000000000000000
 31
0.0000000000000000
  7
KNJYOKO
  0
MTEXT
  5
5F3
100
AcDbEntity
  8
A0
  6
CONTINUOUS
 62
3
100
AcDbMText
 10
33.75000000000898
 20
132.9999979736125
 30
0.0000000000000000
 40
7.749999761581421
 41
0.0000000000000000
 71
     1
 72
     1
  1
{\H0.70x;{口金の開き}}
 11
1.000000000000000
 21
0.0000000000000000
 31
0.0000000000000000
  7
KNJYOKO
  0
LINE
  5
5F4
100
AcDbEntity
  8
A0
  6
CONTINUOUS
 62
3
100
AcDbLine
 10
120.2499985694951
 20
62.49999940442334
 30
0.0000000000000000
 11
165.4999995232028
 21
62.49999940444335
 31
0.0000000000000000
  0
MTEXT
  5
5F5
100
AcDbEntity
  8
A0
  6
CONTINUOUS
 62
3
100
AcDbMText
 10
141.2210526914973
 20
91.99999892728590
 30
0.0000000000000000
 40
7.749999761581421
 41
0.0000000000000000
 71
     1
 72
     1
  1
{\H0.70x;{ 8KN}}
 11
1.000000000000000
 21
0.0000000000000000
 31
0.0000000000000000
  7
STANDARD
  0
MTEXT
  5
5F6
100
AcDbEntity
  8
A0
  6
CONTINUOUS
 62
3
100
AcDbMText
 10
126.4999990463347
 20
91.99999892728681
 30
0.0000000000000000
 40
7.749999761581421
 41
0.0000000000000000
 71
     1
 72
     1
  1
{\H0.67x;{0}}
 11
1.000000000000000
 21
0.0000000000000000
 31
0.0000000000000000
  7
STANDARD
  0
ENDSEC
  0
SECTION
  2
OBJECTS
  0
DICTIONARY
  5
658
100
AcDbDictionary
  3
ACAD_GROUP
350
659
  3
ACAD_MLINESTYLE
350
65A
  3
DWGPROPS
350
65B
  0
DICTIONARY
  5
659
102
{ACAD_REACTORS
330
658
102
}
100
AcDbDictionary
  0
DICTIONARY
  5
65A
102
{ACAD_REACTORS
330
658
102
}
100
AcDbDictionary
  3
STANDARD
350
65C
  0
MLINESTYLE
  5
65C
102
{ACAD_REACTORS
330
65A
102
}
100
AcDbMlineStyle
  2
STANDARD
 70
     0
  3

 62
   256
 51
90.00
 52
90.00
 71
     2
 49
0.50
 62
   256
  6
BYLAYER
 49
-0.50
 62
   256
  6
BYLAYER
  0
XRECORD
  5
65B
102
{ACAD_REACTORS
330
658
102
}
100
AcDbXrecord
280
     1
  1
DWGPROPS COOKIE
  2
ＶＥ１２５　ガイケイ
  3

  4

  6
パワーバイス
  7

  8

  9

300
=
301
=
302
=
303
=
304
=
305
=
306
=
307
=
308
=
309
=
 40
0.000000
 41
0.000000
 42
0.000000
  1

 90
        0
  0
ENDSEC
  0
EOF
