  0
SECTION
  2
HEADER
  9
$ACADVER
  1
AC1014
  9
$DWGCODEPAGE
  3
ANSI_932
  9
$LTSCALE
 40
20.0
  9
$FILLMODE
 70
     1
  9
$CLAYER
  8
0
  9
$PDMODE
 70
     0
  9
$SPLFRAME
 70
     0
  9
$SPLINETYPE
 70
     6
  9
$SPLINESEGS
 70
     8
  9
$DIMASZ
 40
2.000000
  9
$DIMEXE
 40
2.000000
  9
$DIMEXO
 40
0.800000
  9
$DIMTAD
 70
     1
  9
$DIMTIH
 70
     0
  9
$DIMTOH
 70
     0
  9
$DIMTVP
 40
0.500000
  9
$DIMTXT
 40
3.100000
  9
$EXTMIN
 10
0.000000
 20
0.000000
 30
0.000000
  9
$EXTMAX
 10
297.000000
 20
420.000000
 30
0.000000
  9
$MEASUREMENT
 70
  1
  9
$LIMMIN
 10
0.000000
 20
0.000000
  9
$LIMMAX
 10
297.000000
 20
420.000000
  9
$HANDLING
 70
     1
  9
$HANDSEED
  5
647
  9
$DIMBLK
  1
_OPEN
  9
$DIMDEC
 70
     3
  9
$DIMAUNIT
 70
     1
  9
$DIMZIN
 70
     8
  9
$DIMTOFL
 70
     1
  0
ENDSEC
  0
SECTION
  2
CLASSES
  0
ENDSEC
  0
SECTION
  2
TABLES
  0
TABLE
  2
VPORT
  5
5DF
100
AcDbSymbolTable
 70
     1
  0
VPORT
  5
5E0
100
AcDbSymbolTableRecord
100
AcDbViewportTableRecord
  2
*ACTIVE
 70
     0
 12
1028.387773
 22
630.688256
 40
1237.376512
 41
1.559931
  0
ENDTAB
  0
TABLE
  2
LTYPE
  5
5E1
100
AcDbSymbolTable
 70
     3
  0
LTYPE
  5
5E2
100
AcDbSymbolTableRecord
100
AcDbLinetypeTableRecord
  2
BYBLOCK
 70
     0
  3

 72
    65
 73
     0
 40
0.0
  0
LTYPE
  5
5E3
100
AcDbSymbolTableRecord
100
AcDbLinetypeTableRecord
  2
BYLAYER
 70
     0
  3

 72
    65
 73
     0
 40
0.0
  0
LTYPE
  5
5E4
100
AcDbSymbolTableRecord
100
AcDbLinetypeTableRecord
  2
CONTINUOUS
 70
     0
  3
Solid line (NEC CAE2D for Win R12.1 : 2017.03.24)
 72
    65
 73
     0
 40
0.0
  0
LTYPE
  5
5E5
100
AcDbSymbolTableRecord
100
AcDbLinetypeTableRecord
  2
HIDDEN
 70
     0
  3
__ __ __ __ __ __ __ __ __ __ __ __ __ __
 72
    65
 73
     2
 40
0.375
 49
0.25
 74
     0
 49
-0.125
 74
     0
  0
LTYPE
  5
5E6
100
AcDbSymbolTableRecord
100
AcDbLinetypeTableRecord
  2
CENTER
 70
     0
  3
____ _ ____ _ ____ _ ____ _ ____ _ ____
 72
    65
 73
     4
 40
2.0
 49
1.25
 74
     0
 49
-0.25
 74
     0
 49
0.25
 74
     0
 49
-0.25
 74
     0
  0
ENDTAB
  0
TABLE
  2
LAYER
  5
5E7
100
AcDbSymbolTable
 70
    14
  0
LAYER
  5
5E8
100
AcDbSymbolTableRecord
100
AcDbLayerTableRecord
  2
0
 70
     0
 62
     7
  6
CONTINUOUS
  0
LAYER
  5
5E9
100
AcDbSymbolTableRecord
100
AcDbLayerTableRecord
  2
MAIN0
 70
     0
 62
     7
  6
CONTINUOUS
  0
LAYER
  5
5EA
100
AcDbSymbolTableRecord
100
AcDbLayerTableRecord
  2
MAIN1
 70
     0
 62
     7
  6
CONTINUOUS
  0
LAYER
  5
5EB
100
AcDbSymbolTableRecord
100
AcDbLayerTableRecord
  2
MAIN2
 70
     0
 62
     7
  6
CONTINUOUS
  0
LAYER
  5
5EC
100
AcDbSymbolTableRecord
100
AcDbLayerTableRecord
  2
MAIN3
 70
     0
 62
     7
  6
CONTINUOUS
  0
LAYER
  5
5ED
100
AcDbSymbolTableRecord
100
AcDbLayerTableRecord
  2
MAIN4
 70
     0
 62
     7
  6
CONTINUOUS
  0
LAYER
  5
5EE
100
AcDbSymbolTableRecord
100
AcDbLayerTableRecord
  2
MAIN5
 70
     0
 62
     7
  6
CONTINUOUS
  0
LAYER
  5
5EF
100
AcDbSymbolTableRecord
100
AcDbLayerTableRecord
  2
MAIN6
 70
     0
 62
     7
  6
CONTINUOUS
  0
LAYER
  5
5F0
100
AcDbSymbolTableRecord
100
AcDbLayerTableRecord
  2
MAIN10
 70
     0
 62
     7
  6
CONTINUOUS
  0
LAYER
  5
5F1
100
AcDbSymbolTableRecord
100
AcDbLayerTableRecord
  2
MAIN1023
 70
     0
 62
    16
  6
CONTINUOUS
  0
LAYER
  5
5F2
100
AcDbSymbolTableRecord
100
AcDbLayerTableRecord
  2
WAKU0
 70
     0
 62
     7
  6
CONTINUOUS
  0
LAYER
  5
5F3
100
AcDbSymbolTableRecord
100
AcDbLayerTableRecord
  2
WAKU1023
 70
     0
 62
    16
  6
CONTINUOUS
  0
LAYER
  5
5F4
100
AcDbSymbolTableRecord
100
AcDbLayerTableRecord
  2
A0
 70
     0
 62
     7
  6
CONTINUOUS
  0
LAYER
  5
5F5
100
AcDbSymbolTableRecord
100
AcDbLayerTableRecord
  2
A1023
 70
     0
 62
    16
  6
CONTINUOUS
  0
ENDTAB
  0
TABLE
  2
STYLE
  5
5F6
100
AcDbSymbolTable
 70
     4
  0
STYLE
  5
5F7
100
AcDbSymbolTableRecord
100
AcDbTextStyleTableRecord
  2
STANDARD
 70
    64
 40
0.0
 41
1.0
 50
0.0
 71
     0
 42
7.749999761581421
  3
TXT
  4

  0
STYLE
  5
5F8
100
AcDbSymbolTableRecord
100
AcDbTextStyleTableRecord
  2
ANKTATE
 70
    68
 40
0.0
 41
1.0
 50
0.0
 71
     0
 42
7.749999761581421
  3
TXT
  4

  0
STYLE
  5
285
100
AcDbSymbolTableRecord
100
AcDbTextStyleTableRecord
  2
KNJYOKO
 70
    64
 40
0.0
 41
1.0
 50
0.0
 71
     0
 42
7.749999761581421
  3
TXT
  4
BIGFONT
  0
STYLE
  5
5F9
100
AcDbSymbolTableRecord
100
AcDbTextStyleTableRecord
  2
KNJTATE
 70
    68
 40
0.0
 41
1.0
 50
0.0
 71
     0
 42
7.749999761581421
  3
TXT
  4
BIGFONT
  0
ENDTAB
  0
TABLE
  2
VIEW
  5
5FA
100
AcDbSymbolTable
 70
     0
  0
ENDTAB
  0
TABLE
  2
UCS
  5
5FB
100
AcDbSymbolTable
 70
     0
  0
ENDTAB
  0
TABLE
  2
APPID
  5
5FC
100
AcDbSymbolTable
 70
     1
  0
APPID
  5
5FD
100
AcDbSymbolTableRecord
100
AcDbRegAppTableRecord
  2
ACAD
 70
     0
  0
ENDTAB
  0
TABLE
  2
DIMSTYLE
  5
5FE
100
AcDbSymbolTable
 70
     1
  0
DIMSTYLE
105
5FF
100
AcDbSymbolTableRecord
100
AcDbDimStyleTableRecord
  2
STANDARD
 70
     0
 41
2.000000
 44
2.000000
 42
0.800000
145
0.661290
140
3.100000
144
1.000000
146
0.903226
340
5F7
  0
DIMSTYLE
105
600
100
AcDbSymbolTableRecord
100
AcDbDimStyleTableRecord
  2
MAIN001
 70
     0
 41
10.000000
 44
10.000000
 42
4.000000
145
0.532258
140
15.500000
144
1.000000
146
0.903226
 77
     1
 73
     0
 74
     0
271
     3
275
     1
 78
     8
172
     1
340
5F7
  0
DIMSTYLE
105
601
100
AcDbSymbolTableRecord
100
AcDbDimStyleTableRecord
  2
WAKU002
 70
     0
 41
2.000000
 44
2.000000
 42
0.800000
145
0.661290
140
3.100000
144
1.000000
146
0.903226
 77
     1
 73
     0
 74
     0
271
     3
275
     1
 78
     8
172
     1
340
5F7
  0
DIMSTYLE
105
602
100
AcDbSymbolTableRecord
100
AcDbDimStyleTableRecord
  2
A003
 70
     0
 41
5.000000
 44
5.000000
 42
2.000000
145
0.564516
140
7.750000
144
1.000000
146
0.903226
 77
     1
 73
     0
 74
     0
271
     3
275
     1
 78
     8
172
     1
340
5F7
  0
ENDTAB
  0
TABLE
  2
BLOCK_RECORD
  5
603
100
AcDbSymbolTable
 70
    68
  0
BLOCK_RECORD
  5
604
100
AcDbSymbolTableRecord
100
AcDbBlockTableRecord
  2
*MODEL_SPACE
  0
BLOCK_RECORD
  5
605
100
AcDbSymbolTableRecord
100
AcDbBlockTableRecord
  2
*PAPER_SPACE
  0
BLOCK_RECORD
  5
1
100
AcDbSymbolTableRecord
100
AcDbBlockTableRecord
  2
_NONE
  0
BLOCK_RECORD
  5
4
100
AcDbSymbolTableRecord
100
AcDbBlockTableRecord
  2
_CLOSED
  0
BLOCK_RECORD
  5
B
100
AcDbSymbolTableRecord
100
AcDbBlockTableRecord
  2
_DOT
  0
BLOCK_RECORD
  5
13
100
AcDbSymbolTableRecord
100
AcDbBlockTableRecord
  2
_OPEN
  0
BLOCK_RECORD
  5
19
100
AcDbSymbolTableRecord
100
AcDbBlockTableRecord
  2
_ORIGIN
  0
BLOCK_RECORD
  5
1E
100
AcDbSymbolTableRecord
100
AcDbBlockTableRecord
  2
_OPEN30
  0
BLOCK_RECORD
  5
24
100
AcDbSymbolTableRecord
100
AcDbBlockTableRecord
  2
_BOXFILLED
  0
BLOCK_RECORD
  5
29
100
AcDbSymbolTableRecord
100
AcDbBlockTableRecord
  2
_BOXBLANK
  0
BLOCK_RECORD
  5
31
100
AcDbSymbolTableRecord
100
AcDbBlockTableRecord
  2
_OBLIQUE
  0
BLOCK_RECORD
  5
35
100
AcDbSymbolTableRecord
100
AcDbBlockTableRecord
  2
_OPEN90
  0
BLOCK_RECORD
  5
3B
100
AcDbSymbolTableRecord
100
AcDbBlockTableRecord
  2
_CLOSEDBLANK
  0
BLOCK_RECORD
  5
41
100
AcDbSymbolTableRecord
100
AcDbBlockTableRecord
  2
_DOTBLANK
  0
BLOCK_RECORD
  5
606
100
AcDbSymbolTableRecord
100
AcDbBlockTableRecord
  2
*D0
  0
BLOCK_RECORD
  5
607
100
AcDbSymbolTableRecord
100
AcDbBlockTableRecord
  2
*D1
  0
BLOCK_RECORD
  5
608
100
AcDbSymbolTableRecord
100
AcDbBlockTableRecord
  2
*D2
  0
BLOCK_RECORD
  5
609
100
AcDbSymbolTableRecord
100
AcDbBlockTableRecord
  2
*D3
  0
BLOCK_RECORD
  5
60A
100
AcDbSymbolTableRecord
100
AcDbBlockTableRecord
  2
*D4
  0
BLOCK_RECORD
  5
60B
100
AcDbSymbolTableRecord
100
AcDbBlockTableRecord
  2
*D5
  0
BLOCK_RECORD
  5
60C
100
AcDbSymbolTableRecord
100
AcDbBlockTableRecord
  2
*D6
  0
BLOCK_RECORD
  5
60D
100
AcDbSymbolTableRecord
100
AcDbBlockTableRecord
  2
*D7
  0
BLOCK_RECORD
  5
60E
100
AcDbSymbolTableRecord
100
AcDbBlockTableRecord
  2
*D8
  0
BLOCK_RECORD
  5
60F
100
AcDbSymbolTableRecord
100
AcDbBlockTableRecord
  2
*D9
  0
BLOCK_RECORD
  5
610
100
AcDbSymbolTableRecord
100
AcDbBlockTableRecord
  2
*D10
  0
BLOCK_RECORD
  5
611
100
AcDbSymbolTableRecord
100
AcDbBlockTableRecord
  2
*D11
  0
BLOCK_RECORD
  5
612
100
AcDbSymbolTableRecord
100
AcDbBlockTableRecord
  2
*D12
  0
BLOCK_RECORD
  5
613
100
AcDbSymbolTableRecord
100
AcDbBlockTableRecord
  2
*D13
  0
BLOCK_RECORD
  5
614
100
AcDbSymbolTableRecord
100
AcDbBlockTableRecord
  2
*D14
  0
BLOCK_RECORD
  5
615
100
AcDbSymbolTableRecord
100
AcDbBlockTableRecord
  2
*D15
  0
BLOCK_RECORD
  5
616
100
AcDbSymbolTableRecord
100
AcDbBlockTableRecord
  2
*D16
  0
BLOCK_RECORD
  5
617
100
AcDbSymbolTableRecord
100
AcDbBlockTableRecord
  2
*D17
  0
BLOCK_RECORD
  5
618
100
AcDbSymbolTableRecord
100
AcDbBlockTableRecord
  2
*D18
  0
BLOCK_RECORD
  5
619
100
AcDbSymbolTableRecord
100
AcDbBlockTableRecord
  2
*D19
  0
BLOCK_RECORD
  5
61A
100
AcDbSymbolTableRecord
100
AcDbBlockTableRecord
  2
*D20
  0
BLOCK_RECORD
  5
61B
100
AcDbSymbolTableRecord
100
AcDbBlockTableRecord
  2
*D21
  0
BLOCK_RECORD
  5
61C
100
AcDbSymbolTableRecord
100
AcDbBlockTableRecord
  2
*D22
  0
BLOCK_RECORD
  5
61D
100
AcDbSymbolTableRecord
100
AcDbBlockTableRecord
  2
*D23
  0
BLOCK_RECORD
  5
61E
100
AcDbSymbolTableRecord
100
AcDbBlockTableRecord
  2
*D24
  0
BLOCK_RECORD
  5
61F
100
AcDbSymbolTableRecord
100
AcDbBlockTableRecord
  2
*D25
  0
BLOCK_RECORD
  5
620
100
AcDbSymbolTableRecord
100
AcDbBlockTableRecord
  2
*D26
  0
BLOCK_RECORD
  5
621
100
AcDbSymbolTableRecord
100
AcDbBlockTableRecord
  2
*D27
  0
BLOCK_RECORD
  5
622
100
AcDbSymbolTableRecord
100
AcDbBlockTableRecord
  2
*D28
  0
BLOCK_RECORD
  5
623
100
AcDbSymbolTableRecord
100
AcDbBlockTableRecord
  2
*D29
  0
BLOCK_RECORD
  5
624
100
AcDbSymbolTableRecord
100
AcDbBlockTableRecord
  2
*D30
  0
BLOCK_RECORD
  5
625
100
AcDbSymbolTableRecord
100
AcDbBlockTableRecord
  2
*D31
  0
BLOCK_RECORD
  5
626
100
AcDbSymbolTableRecord
100
AcDbBlockTableRecord
  2
*D32
  0
BLOCK_RECORD
  5
627
100
AcDbSymbolTableRecord
100
AcDbBlockTableRecord
  2
*D33
  0
BLOCK_RECORD
  5
628
100
AcDbSymbolTableRecord
100
AcDbBlockTableRecord
  2
*D34
  0
BLOCK_RECORD
  5
629
100
AcDbSymbolTableRecord
100
AcDbBlockTableRecord
  2
*D35
  0
BLOCK_RECORD
  5
62A
100
AcDbSymbolTableRecord
100
AcDbBlockTableRecord
  2
*D36
  0
BLOCK_RECORD
  5
62B
100
AcDbSymbolTableRecord
100
AcDbBlockTableRecord
  2
*D37
  0
BLOCK_RECORD
  5
62C
100
AcDbSymbolTableRecord
100
AcDbBlockTableRecord
  2
*D38
  0
BLOCK_RECORD
  5
62D
100
AcDbSymbolTableRecord
100
AcDbBlockTableRecord
  2
*D39
  0
BLOCK_RECORD
  5
62E
100
AcDbSymbolTableRecord
100
AcDbBlockTableRecord
  2
*D40
  0
BLOCK_RECORD
  5
62F
100
AcDbSymbolTableRecord
100
AcDbBlockTableRecord
  2
*D41
  0
BLOCK_RECORD
  5
630
100
AcDbSymbolTableRecord
100
AcDbBlockTableRecord
  2
D42
  0
BLOCK_RECORD
  5
631
100
AcDbSymbolTableRecord
100
AcDbBlockTableRecord
  2
*D43
  0
BLOCK_RECORD
  5
632
100
AcDbSymbolTableRecord
100
AcDbBlockTableRecord
  2
*D44
  0
BLOCK_RECORD
  5
633
100
AcDbSymbolTableRecord
100
AcDbBlockTableRecord
  2
*D45
  0
BLOCK_RECORD
  5
634
100
AcDbSymbolTableRecord
100
AcDbBlockTableRecord
  2
*D46
  0
BLOCK_RECORD
  5
635
100
AcDbSymbolTableRecord
100
AcDbBlockTableRecord
  2
*D47
  0
BLOCK_RECORD
  5
636
100
AcDbSymbolTableRecord
100
AcDbBlockTableRecord
  2
*D48
  0
BLOCK_RECORD
  5
637
100
AcDbSymbolTableRecord
100
AcDbBlockTableRecord
  2
*D49
  0
BLOCK_RECORD
  5
638
100
AcDbSymbolTableRecord
100
AcDbBlockTableRecord
  2
*D50
  0
BLOCK_RECORD
  5
639
100
AcDbSymbolTableRecord
100
AcDbBlockTableRecord
  2
*D51
  0
BLOCK_RECORD
  5
63A
100
AcDbSymbolTableRecord
100
AcDbBlockTableRecord
  2
*D52
  0
BLOCK_RECORD
  5
63B
100
AcDbSymbolTableRecord
100
AcDbBlockTableRecord
  2
*D53
  0
BLOCK_RECORD
  5
63C
100
AcDbSymbolTableRecord
100
AcDbBlockTableRecord
  2
*D54
  0
BLOCK_RECORD
  5
63D
100
AcDbSymbolTableRecord
100
AcDbBlockTableRecord
  2
*D55
  0
ENDTAB
  0
ENDSEC
  0
SECTION
  2
BLOCKS
  0
BLOCK
  5
63E
100
AcDbEntity
  8
0
100
AcDbBlockBegin
  2
*MODEL_SPACE
 70
     0
 10
0.0
 20
0.0
 30
0.0
  3
*MODEL_SPACE
  1

  0
ENDBLK
  5
63F
100
AcDbEntity
  8
0
100
AcDbBlockEnd
  0
BLOCK
  5
640
100
AcDbEntity
  8
0
100
AcDbBlockBegin
  2
*PAPER_SPACE
 70
     0
 10
0.0
 20
0.0
 30
0.0
  3
*PAPER_SPACE
  1

  0
ENDBLK
  5
641
100
AcDbEntity
  8
0
100
AcDbBlockEnd
  0
BLOCK
  5
2
100
AcDbEntity
  8
0
100
AcDbBlockBegin
  2
_NONE
 70
     0
 10
0.0
 20
0.0
 30
0.0
  3
_NONE
  1

  0
ENDBLK
  5
3
100
AcDbEntity
  8
0
100
AcDbBlockEnd
  0
BLOCK
  5
5
100
AcDbEntity
  8
0
100
AcDbBlockBegin
  2
_CLOSED
 70
     0
 10
0.0
 20
0.0
 30
0.0
  3
_CLOSED
  1

  0
LINE
  5
6
100
AcDbEntity
  8
0
  6
BYBLOCK
 62
     0
100
AcDbLine
 10
-1.0
 20
0.166667
 30
0.0
 11
0.0
 21
0.0
 31
0.0
  0
LINE
  5
7
100
AcDbEntity
  8
0
  6
BYBLOCK
 62
     0
100
AcDbLine
 10
0.0
 20
0.0
 30
0.0
 11
-1.0
 21
-0.166667
 31
0.0
  0
LINE
  5
8
100
AcDbEntity
  8
0
  6
BYBLOCK
 62
     0
100
AcDbLine
 10
-1.0
 20
0.166667
 30
0.0
 11
-1.0
 21
-0.166667
 31
0.0
  0
LINE
  5
9
100
AcDbEntity
  8
0
  6
BYBLOCK
 62
     0
100
AcDbLine
 10
0.0
 20
0.0
 30
0.0
 11
-1.0
 21
0.0
 31
0.0
  0
ENDBLK
  5
A
100
AcDbEntity
  8
0
100
AcDbBlockEnd
  0
BLOCK
  5
C
100
AcDbEntity
  8
0
100
AcDbBlockBegin
  2
_DOT
 70
     0
 10
0.0
 20
0.0
 30
0.0
  3
_DOT
  1

  0
POLYLINE
  5
D
100
AcDbEntity
  8
0
  6
BYBLOCK
 62
     0
100
AcDb2dPolyline
 66
     1
 10
0.0
 20
0.0
 30
0.0
 70
     1
 40
0.5
 41
0.5
  0
VERTEX
  5
E
100
AcDbEntity
  8
0
  6
BYBLOCK
 62
     0
100
AcDbVertex
100
AcDb2dVertex
 10
-0.25
 20
0.0
 30
0.0
 42
1.0
  0
VERTEX
  5
F
100
AcDbEntity
  8
0
  6
BYBLOCK
 62
     0
100
AcDbVertex
100
AcDb2dVertex
 10
0.25
 20
0.0
 30
0.0
 42
1.0
  0
SEQEND
  5
10
100
AcDbEntity
  8
0
  6
BYBLOCK
 62
     0
  0
LINE
  5
11
100
AcDbEntity
  8
0
  6
BYBLOCK
 62
     0
100
AcDbLine
 10
-0.5
 20
0.0
 30
0.0
 11
-1.0
 21
0.0
 31
0.0
  0
ENDBLK
  5
12
100
AcDbEntity
  8
0
100
AcDbBlockEnd
  0
BLOCK
  5
14
100
AcDbEntity
  8
0
100
AcDbBlockBegin
  2
_OPEN
 70
     0
 10
0.0
 20
0.0
 30
0.0
  3
_OPEN
  1

  0
LINE
  5
15
100
AcDbEntity
  8
0
  6
BYBLOCK
 62
     0
100
AcDbLine
 10
-1.0
 20
0.166667
 30
0.0
 11
0.0
 21
0.0
 31
0.0
  0
LINE
  5
16
100
AcDbEntity
  8
0
  6
BYBLOCK
 62
     0
100
AcDbLine
 10
0.0
 20
0.0
 30
0.0
 11
-1.0
 21
-0.166667
 31
0.0
  0
LINE
  5
17
100
AcDbEntity
  8
0
  6
BYBLOCK
 62
     0
100
AcDbLine
 10
0.0
 20
0.0
 30
0.0
 11
-1.0
 21
0.0
 31
0.0
  0
ENDBLK
  5
18
100
AcDbEntity
  8
0
100
AcDbBlockEnd
  0
BLOCK
  5
1A
100
AcDbEntity
  8
0
100
AcDbBlockBegin
  2
_ORIGIN
 70
     0
 10
0.0
 20
0.0
 30
0.0
  3
_ORIGIN
  1

  0
CIRCLE
  5
1B
100
AcDbEntity
  8
0
  6
BYBLOCK
 62
     0
100
AcDbCircle
 10
0.0
 20
0.0
 30
0.0
 40
0.5
  0
LINE
  5
1C
100
AcDbEntity
  8
0
  6
BYBLOCK
 62
     0
100
AcDbLine
 10
0.0
 20
0.0
 30
0.0
 11
-1.0
 21
0.0
 31
0.0
  0
ENDBLK
  5
1D
100
AcDbEntity
  8
0
100
AcDbBlockEnd
  0
BLOCK
  5
1F
100
AcDbEntity
  8
0
100
AcDbBlockBegin
  2
_OPEN30
 70
     0
 10
0.0
 20
0.0
 30
0.0
  3
_OPEN30
  1

  0
LINE
  5
20
100
AcDbEntity
  8
0
  6
BYBLOCK
 62
     0
100
AcDbLine
 10
-1.0
 20
0.267949
 30
0.0
 11
0.0
 21
0.0
 31
0.0
  0
LINE
  5
21
100
AcDbEntity
  8
0
  6
BYBLOCK
 62
     0
100
AcDbLine
 10
0.0
 20
0.0
 30
0.0
 11
-1.0
 21
-0.267949
 31
0.0
  0
LINE
  5
22
100
AcDbEntity
  8
0
  6
BYBLOCK
 62
     0
100
AcDbLine
 10
0.0
 20
0.0
 30
0.0
 11
-1.0
 21
0.0
 31
0.0
  0
ENDBLK
  5
23
100
AcDbEntity
  8
0
100
AcDbBlockEnd
  0
BLOCK
  5
25
100
AcDbEntity
  8
0
100
AcDbBlockBegin
  2
_BOXFILLED
 70
     0
 10
0.0
 20
0.0
 30
0.0
  3
_BOXFILLED
  1

  0
SOLID
  5
26
100
AcDbEntity
  8
0
  6
BYBLOCK
 62
     0
100
AcDbTrace
 10
-0.5
 20
0.5
 30
0.0
 11
0.5
 21
0.5
 31
0.0
 12
-0.5
 22
-0.5
 32
0.0
 13
0.5
 23
-0.5
 33
0.0
  0
LINE
  5
27
100
AcDbEntity
  8
0
  6
BYBLOCK
 62
     0
100
AcDbLine
 10
-0.5
 20
0.0
 30
0.0
 11
-1.0
 21
0.0
 31
0.0
  0
ENDBLK
  5
28
100
AcDbEntity
  8
0
100
AcDbBlockEnd
  0
BLOCK
  5
2A
100
AcDbEntity
  8
0
100
AcDbBlockBegin
  2
_BOXBLANK
 70
     0
 10
0.0
 20
0.0
 30
0.0
  3
_BOXBLANK
  1

  0
LINE
  5
2B
100
AcDbEntity
  8
0
  6
BYBLOCK
 62
     0
100
AcDbLine
 10
-0.5
 20
-0.5
 30
0.0
 11
0.5
 21
-0.5
 31
0.0
  0
LINE
  5
2C
100
AcDbEntity
  8
0
  6
BYBLOCK
 62
     0
100
AcDbLine
 10
0.5
 20
-0.5
 30
0.0
 11
0.5
 21
0.5
 31
0.0
  0
LINE
  5
2D
100
AcDbEntity
  8
0
  6
BYBLOCK
 62
     0
100
AcDbLine
 10
0.5
 20
0.5
 30
0.0
 11
-0.5
 21
0.5
 31
0.0
  0
LINE
  5
2E
100
AcDbEntity
  8
0
  6
BYBLOCK
 62
     0
100
AcDbLine
 10
-0.5
 20
0.5
 30
0.0
 11
-0.5
 21
-0.5
 31
0.0
  0
LINE
  5
2F
100
AcDbEntity
  8
0
  6
BYBLOCK
 62
     0
100
AcDbLine
 10
-0.5
 20
0.0
 30
0.0
 11
-1.0
 21
0.0
 31
0.0
  0
ENDBLK
  5
30
100
AcDbEntity
  8
0
100
AcDbBlockEnd
  0
BLOCK
  5
32
100
AcDbEntity
  8
0
100
AcDbBlockBegin
  2
_OBLIQUE
 70
     0
 10
0.0
 20
0.0
 30
0.0
  3
_OBLIQUE
  1

  0
LINE
  5
33
100
AcDbEntity
  8
0
  6
BYBLOCK
 62
     0
100
AcDbLine
 10
-0.5
 20
-0.5
 30
0.0
 11
0.5
 21
0.5
 31
0.0
  0
ENDBLK
  5
34
100
AcDbEntity
  8
0
100
AcDbBlockEnd
  0
BLOCK
  5
36
100
AcDbEntity
  8
0
100
AcDbBlockBegin
  2
_OPEN90
 70
     0
 10
0.0
 20
0.0
 30
0.0
  3
_OPEN90
  1

  0
LINE
  5
37
100
AcDbEntity
  8
0
  6
BYBLOCK
 62
     0
100
AcDbLine
 10
-0.5
 20
0.5
 30
0.0
 11
0.0
 21
0.0
 31
0.0
  0
LINE
  5
38
100
AcDbEntity
  8
0
  6
BYBLOCK
 62
     0
100
AcDbLine
 10
0.0
 20
0.0
 30
0.0
 11
-0.5
 21
-0.5
 31
0.0
  0
LINE
  5
39
100
AcDbEntity
  8
0
  6
BYBLOCK
 62
     0
100
AcDbLine
 10
0.0
 20
0.0
 30
0.0
 11
-1.0
 21
0.0
 31
0.0
  0
ENDBLK
  5
3A
100
AcDbEntity
  8
0
100
AcDbBlockEnd
  0
BLOCK
  5
3C
100
AcDbEntity
  8
0
100
AcDbBlockBegin
  2
_CLOSEDBLANK
 70
     0
 10
0.0
 20
0.0
 30
0.0
  3
_CLOSEDBLANK
  1

  0
LINE
  5
3D
100
AcDbEntity
  8
0
  6
BYBLOCK
 62
     0
100
AcDbLine
 10
-1.0
 20
0.1666666666666666
 30
0.0
 11
0.0
 21
0.0
 31
0.0
  0
LINE
  5
3E
100
AcDbEntity
  8
0
  6
BYBLOCK
 62
     0
100
AcDbLine
 10
0.0
 20
0.0
 30
0.0
 11
-1.0
 21
-0.1666666666666666
 31
0.0
  0
LINE
  5
3F
100
AcDbEntity
  8
0
  6
BYBLOCK
 62
     0
100
AcDbLine
 10
-1.0
 20
0.1666666666666666
 30
0.0
 11
-1.0
 21
-0.1666666666666666
 31
0.0
  0
ENDBLK
  5
40
100
AcDbEntity
  8
0
100
AcDbBlockEnd
  0
BLOCK
  5
42
100
AcDbEntity
  8
0
100
AcDbBlockBegin
  2
_DOTBLANK
 70
     0
 10
0.0
 20
0.0
 30
0.0
  3
_DOTBLANK
  1

  0
CIRCLE
  5
43
100
AcDbEntity
  8
0
  6
BYBLOCK
 62
     0
100
AcDbCircle
 10
0.0
 20
0.0
 30
0.0
 40
0.5
  0
LINE
  5
44
100
AcDbEntity
  8
0
  6
BYBLOCK
 62
     0
100
AcDbLine
 10
-0.5
 20
0.0
 30
0.0
 11
-1.0
 21
0.0
 31
0.0
  0
ENDBLK
  5
45
100
AcDbEntity
  8
0
100
AcDbBlockEnd
  0
BLOCK
  5
4A
100
AcDbEntity
  8
MAIN0
  6
CONTINUOUS
 62
3
100
AcDbBlockBegin
  2
*D0
 70
    65
 10
0.0
 20
0.0
 30
0.0
  0
LINE
  5
4B
100
AcDbEntity
  8
MAIN0
  6
BYBLOCK
 62
0
100
AcDbLine
 10
541.0648369343370
 20
704.0681558856534
 30
0.0000000000000000
 11
504.1675257035912
 21
704.0681558856535
 31
0.0000000000000000
  0
LINE
  5
4C
100
AcDbEntity
  8
MAIN0
  6
BYBLOCK
 62
0
100
AcDbLine
 10
514.1675257035912
 20
694.0681558856534
 30
0.0000000000000000
 11
514.1675257035912
 21
644.0681558856527
 31
0.0000000000000000
  0
INSERT
  5
4D
100
AcDbEntity
  8
MAIN0
  6
BYBLOCK
 62
0
100
AcDbBlockReference
  2
_OPEN
 10
514.1675257035912
 20
704.0681558856534
 30
0.0000000000000000
 41
10.00000000000000
 42
10.00000000000000
 43
10.00000000000000
 50
90.00000000000000
  0
INSERT
  5
4E
100
AcDbEntity
  8
MAIN0
  6
BYBLOCK
 62
0
100
AcDbBlockReference
  2
_OPEN
 10
514.1675257035912
 20
634.0681558856527
 30
0.0000000000000000
 41
10.00000000000000
 42
10.00000000000000
 43
10.00000000000000
 50
270.0000000000000
  0
LINE
  5
4F
100
AcDbEntity
  8
MAIN0
  6
BYBLOCK
 62
0
100
AcDbLine
 10
541.2648369343372
 20
634.0681558856527
 30
0.0000000000000000
 11
504.1675257035912
 21
634.0681558856527
 31
0.0000000000000000
  0
MTEXT
  5
50
100
AcDbEntity
  8
MAIN0
  6
BYBLOCK
 62
0
100
AcDbMText
 10
505.9175259420098
 20
669.0681558856531
 30
0.0000000000000000
 40
15.49999952316284
 41
0.0000000000000000
 71
     5
 72
     1
  1
\A1;70
 11
6.123233995736766e-017
 21
1.000000000000000
 31
0.0000000000000000
  7
STANDARD
  0
ENDBLK
  5
51
100
AcDbEntity
  8
MAIN0
  6
CONTINUOUS
 62
3
100
AcDbBlockEnd
  0
BLOCK
  5
53
100
AcDbEntity
  8
MAIN0
  6
CONTINUOUS
 62
3
100
AcDbBlockBegin
  2
*D1
 70
    65
 10
0.0
 20
0.0
 30
0.0
  0
LINE
  5
54
100
AcDbEntity
  8
MAIN0
  6
BYBLOCK
 62
0
100
AcDbLine
 10
541.2648369343372
 20
634.0681558856527
 30
0.0000000000000000
 11
504.1675257035912
 21
634.0681558856527
 31
0.0000000000000000
  0
LINE
  5
55
100
AcDbEntity
  8
MAIN0
  6
BYBLOCK
 62
0
100
AcDbLine
 10
514.1675257035912
 20
624.0681558856527
 30
0.0000000000000000
 11
514.1675257035912
 21
534.0681558911527
 31
0.0000000000000000
  0
INSERT
  5
56
100
AcDbEntity
  8
MAIN0
  6
BYBLOCK
 62
0
100
AcDbBlockReference
  2
_OPEN
 10
514.1675257035912
 20
634.0681558856527
 30
0.0000000000000000
 41
10.00000000000000
 42
10.00000000000000
 43
10.00000000000000
 50
90.00000000000000
  0
INSERT
  5
57
100
AcDbEntity
  8
MAIN0
  6
BYBLOCK
 62
0
100
AcDbBlockReference
  2
_OPEN
 10
514.1675257035912
 20
524.0681558911527
 30
0.0000000000000000
 41
10.00000000000000
 42
10.00000000000000
 43
10.00000000000000
 50
270.0000000000000
  0
LINE
  5
58
100
AcDbEntity
  8
MAIN0
  6
BYBLOCK
 62
0
100
AcDbLine
 10
540.2648369341052
 20
524.0681558911527
 30
0.0000000000000000
 11
504.1675257035912
 21
524.0681558911527
 31
0.0000000000000000
  0
MTEXT
  5
59
100
AcDbEntity
  8
MAIN0
  6
BYBLOCK
 62
0
100
AcDbMText
 10
505.9175259420098
 20
579.0681558884028
 30
0.0000000000000000
 40
15.49999952316284
 41
0.0000000000000000
 71
     5
 72
     1
  1
\A1;110
 11
6.123233995736766e-017
 21
1.000000000000000
 31
0.0000000000000000
  7
STANDARD
  0
ENDBLK
  5
5A
100
AcDbEntity
  8
MAIN0
  6
CONTINUOUS
 62
3
100
AcDbBlockEnd
  0
BLOCK
  5
5C
100
AcDbEntity
  8
MAIN0
  6
CONTINUOUS
 62
3
100
AcDbBlockBegin
  2
*D2
 70
    65
 10
0.0
 20
0.0
 30
0.0
  0
LINE
  5
5D
100
AcDbEntity
  8
MAIN0
  6
BYBLOCK
 62
0
100
AcDbLine
 10
541.0648369343370
 20
704.0681558856534
 30
0.0000000000000000
 11
477.1020503451706
 21
704.0681558856534
 31
0.0000000000000000
  0
LINE
  5
5E
100
AcDbEntity
  8
MAIN0
  6
BYBLOCK
 62
0
100
AcDbLine
 10
487.1020503451706
 20
694.0681558856534
 30
0.0000000000000000
 11
487.1020503451706
 21
534.0681558911527
 31
0.0000000000000000
  0
INSERT
  5
5F
100
AcDbEntity
  8
MAIN0
  6
BYBLOCK
 62
0
100
AcDbBlockReference
  2
_OPEN
 10
487.1020503451706
 20
704.0681558856534
 30
0.0000000000000000
 41
10.00000000000000
 42
10.00000000000000
 43
10.00000000000000
 50
90.00000000000000
  0
INSERT
  5
60
100
AcDbEntity
  8
MAIN0
  6
BYBLOCK
 62
0
100
AcDbBlockReference
  2
_OPEN
 10
487.1020503451706
 20
524.0681558911527
 30
0.0000000000000000
 41
10.00000000000000
 42
10.00000000000000
 43
10.00000000000000
 50
270.0000000000000
  0
LINE
  5
61
100
AcDbEntity
  8
MAIN0
  6
BYBLOCK
 62
0
100
AcDbLine
 10
540.2648369341052
 20
524.0681558911527
 30
0.0000000000000000
 11
477.1020503451706
 21
524.0681558911527
 31
0.0000000000000000
  0
MTEXT
  5
62
100
AcDbEntity
  8
MAIN0
  6
BYBLOCK
 62
0
100
AcDbMText
 10
478.8520505835892
 20
614.0681558884031
 30
0.0000000000000000
 40
15.49999952316284
 41
0.0000000000000000
 71
     5
 72
     1
  1
\A1;180
 11
6.123233995736766e-017
 21
1.000000000000000
 31
0.0000000000000000
  7
STANDARD
  0
ENDBLK
  5
63
100
AcDbEntity
  8
MAIN0
  6
CONTINUOUS
 62
3
100
AcDbBlockEnd
  0
BLOCK
  5
65
100
AcDbEntity
  8
MAIN0
  6
CONTINUOUS
 62
3
100
AcDbBlockBegin
  2
*D3
 70
    65
 10
0.0
 20
0.0
 30
0.0
  0
LINE
  5
66
100
AcDbEntity
  8
MAIN0
  6
BYBLOCK
 62
0
100
AcDbLine
 10
543.8648369937105
 20
520.4681558315477
 30
0.0000000000000000
 11
543.8648369937105
 21
376.6616567034807
 31
0.0000000000000000
  0
LINE
  5
67
100
AcDbEntity
  8
MAIN0
  6
BYBLOCK
 62
0
100
AcDbLine
 10
553.8648369937105
 20
386.6616567034807
 30
0.0000000000000000
 11
771.8648369937088
 21
386.6616567034807
 31
0.0000000000000000
  0
INSERT
  5
68
100
AcDbEntity
  8
MAIN0
  6
BYBLOCK
 62
0
100
AcDbBlockReference
  2
_OPEN
 10
543.8648369937105
 20
386.6616567034807
 30
0.0000000000000000
 41
10.00000000000000
 42
10.00000000000000
 43
10.00000000000000
 50
180.0000000000000
  0
INSERT
  5
69
100
AcDbEntity
  8
MAIN0
  6
BYBLOCK
 62
0
100
AcDbBlockReference
  2
_OPEN
 10
781.8648369937088
 20
386.6616567034807
 30
0.0000000000000000
 41
10.00000000000000
 42
10.00000000000000
 43
10.00000000000000
 50
0.0000000000000000
  0
LINE
  5
6A
100
AcDbEntity
  8
MAIN0
  6
BYBLOCK
 62
0
100
AcDbLine
 10
781.8648369937088
 20
506.0784385709691
 30
0.0000000000000000
 11
781.8648369937088
 21
376.6616567034807
 31
0.0000000000000000
  0
MTEXT
  5
6B
100
AcDbEntity
  8
MAIN0
  6
BYBLOCK
 62
0
100
AcDbMText
 10
662.8648369937096
 20
394.9116564650622
 30
0.0000000000000000
 40
15.49999952316284
 41
0.0000000000000000
 71
     5
 72
     1
  1
\A1;238
 11
1.000000000000000
 21
0.0000000000000000
 31
0.0000000000000000
  7
STANDARD
  0
ENDBLK
  5
6C
100
AcDbEntity
  8
MAIN0
  6
CONTINUOUS
 62
3
100
AcDbBlockEnd
  0
BLOCK
  5
6E
100
AcDbEntity
  8
MAIN0
  6
CONTINUOUS
 62
3
100
AcDbBlockBegin
  2
*D4
 70
    65
 10
0.0
 20
0.0
 30
0.0
  0
LINE
  5
6F
100
AcDbEntity
  8
MAIN0
  6
BYBLOCK
 62
0
100
AcDbLine
 10
781.8648369937088
 20
506.0784385709691
 30
0.0000000000000000
 11
781.8648369937088
 21
376.6616567034807
 31
0.0000000000000000
  0
LINE
  5
70
100
AcDbEntity
  8
MAIN0
  6
BYBLOCK
 62
0
100
AcDbLine
 10
791.8648369937088
 20
386.6616567034807
 30
0.0000000000000000
 11
1446.864836994031
 21
386.6616567034807
 31
0.0000000000000000
  0
INSERT
  5
71
100
AcDbEntity
  8
MAIN0
  6
BYBLOCK
 62
0
100
AcDbBlockReference
  2
_OPEN
 10
781.8648369937088
 20
386.6616567034807
 30
0.0000000000000000
 41
10.00000000000000
 42
10.00000000000000
 43
10.00000000000000
 50
180.0000000000000
  0
INSERT
  5
72
100
AcDbEntity
  8
MAIN0
  6
BYBLOCK
 62
0
100
AcDbBlockReference
  2
_OPEN
 10
1456.864836994031
 20
386.6616567034807
 30
0.0000000000000000
 41
10.00000000000000
 42
10.00000000000000
 43
10.00000000000000
 50
0.0000000000000000
  0
LINE
  5
73
100
AcDbEntity
  8
MAIN0
  6
BYBLOCK
 62
0
100
AcDbLine
 10
1456.864836994031
 20
570.0681558289602
 30
0.0000000000000000
 11
1456.864836994031
 21
376.6616567034807
 31
0.0000000000000000
  0
MTEXT
  5
74
100
AcDbEntity
  8
MAIN0
  6
BYBLOCK
 62
0
100
AcDbMText
 10
1180.272991663916
 20
396.4116564650622
 30
0.0000000000000000
 40
15.49999952316284
 41
0.0000000000000000
 71
     5
 72
     1
  1
\A1;675
 11
1.000000000000000
 21
0.0000000000000000
 31
0.0000000000000000
  7
STANDARD
  0
ENDBLK
  5
75
100
AcDbEntity
  8
MAIN0
  6
CONTINUOUS
 62
3
100
AcDbBlockEnd
  0
BLOCK
  5
77
100
AcDbEntity
  8
MAIN0
  6
CONTINUOUS
 62
3
100
AcDbBlockBegin
  2
*D5
 70
    65
 10
0.0
 20
0.0
 30
0.0
  0
LINE
  5
78
100
AcDbEntity
  8
MAIN0
  6
BYBLOCK
 62
0
100
AcDbLine
 10
1456.864836994031
 20
570.0681558289602
 30
0.0000000000000000
 11
1456.864836994031
 21
342.8297880026349
 31
0.0000000000000000
  0
LINE
  5
79
100
AcDbEntity
  8
MAIN0
  6
BYBLOCK
 62
0
100
AcDbLine
 10
1446.864836994031
 20
352.8297880026349
 30
0.0000000000000000
 11
553.8648369937105
 21
352.8297880026349
 31
0.0000000000000000
  0
INSERT
  5
7A
100
AcDbEntity
  8
MAIN0
  6
BYBLOCK
 62
0
100
AcDbBlockReference
  2
_OPEN
 10
1456.864836994031
 20
352.8297880026349
 30
0.0000000000000000
 41
10.00000000000000
 42
10.00000000000000
 43
10.00000000000000
 50
360.0000000000000
  0
INSERT
  5
7B
100
AcDbEntity
  8
MAIN0
  6
BYBLOCK
 62
0
100
AcDbBlockReference
  2
_OPEN
 10
543.8648369937105
 20
352.8297880026349
 30
0.0000000000000000
 41
10.00000000000000
 42
10.00000000000000
 43
10.00000000000000
 50
180.0000000000000
  0
LINE
  5
7C
100
AcDbEntity
  8
MAIN0
  6
BYBLOCK
 62
0
100
AcDbLine
 10
543.8648369937105
 20
520.4681558315477
 30
0.0000000000000000
 11
543.8648369937105
 21
342.8297880026349
 31
0.0000000000000000
  0
MTEXT
  5
7D
100
AcDbEntity
  8
MAIN0
  6
BYBLOCK
 62
0
100
AcDbMText
 10
1000.364836993871
 20
361.0797877642163
 30
0.0000000000000000
 40
15.49999952316284
 41
0.0000000000000000
 71
     5
 72
     1
  1
\A1;913
 11
1.000000000000000
 21
0.0000000000000000
 31
0.0000000000000000
  7
STANDARD
  0
ENDBLK
  5
7E
100
AcDbEntity
  8
MAIN0
  6
CONTINUOUS
 62
3
100
AcDbBlockEnd
  0
BLOCK
  5
80
100
AcDbEntity
  8
MAIN0
  6
CONTINUOUS
 62
3
100
AcDbBlockBegin
  2
*D6
 70
    65
 10
0.0
 20
0.0
 30
0.0
  0
LINE
  5
81
100
AcDbEntity
  8
MAIN0
  6
BYBLOCK
 62
0
100
AcDbLine
 10
1534.626824961532
 20
824.0681558885652
 30
0.0000000000000000
 11
1475.315494478388
 21
824.0681558885652
 31
0.0000000000000000
  0
LINE
  5
82
100
AcDbEntity
  8
MAIN0
  6
BYBLOCK
 62
0
100
AcDbLine
 10
1485.315494478388
 20
814.0681558885652
 30
0.0000000000000000
 11
1485.315494478388
 21
609.0681558885652
 31
0.0000000000000000
  0
INSERT
  5
83
100
AcDbEntity
  8
MAIN0
  6
BYBLOCK
 62
0
100
AcDbBlockReference
  2
_OPEN
 10
1485.315494478388
 20
824.0681558885652
 30
0.0000000000000000
 41
10.00000000000000
 42
10.00000000000000
 43
10.00000000000000
 50
90.00000000000000
  0
INSERT
  5
84
100
AcDbEntity
  8
MAIN0
  6
BYBLOCK
 62
0
100
AcDbBlockReference
  2
_OPEN
 10
1485.315494478388
 20
599.0681558885652
 30
0.0000000000000000
 41
10.00000000000000
 42
10.00000000000000
 43
10.00000000000000
 50
270.0000000000000
  0
LINE
  5
85
100
AcDbEntity
  8
MAIN0
  6
BYBLOCK
 62
0
100
AcDbLine
 10
1491.363408029651
 20
599.0681558885652
 30
0.0000000000000000
 11
1475.315494478388
 21
599.0681558885652
 31
0.0000000000000000
  0
MTEXT
  5
86
100
AcDbEntity
  8
MAIN0
  6
BYBLOCK
 62
0
100
AcDbMText
 10
1477.065494716806
 20
711.5681558885652
 30
0.0000000000000000
 40
15.49999952316284
 41
0.0000000000000000
 71
     5
 72
     1
  1
\A1;225
 11
6.123233995736766e-017
 21
1.000000000000000
 31
0.0000000000000000
  7
STANDARD
  0
ENDBLK
  5
87
100
AcDbEntity
  8
MAIN0
  6
CONTINUOUS
 62
3
100
AcDbBlockEnd
  0
BLOCK
  5
89
100
AcDbEntity
  8
MAIN0
  6
CONTINUOUS
 62
3
100
AcDbBlockBegin
  2
*D7
 70
    65
 10
0.0
 20
0.0
 30
0.0
  0
LINE
  5
8A
100
AcDbEntity
  8
MAIN0
  6
BYBLOCK
 62
0
100
AcDbLine
 10
543.8648369941770
 20
637.0681559451319
 30
0.0000000000000000
 11
543.8648369941769
 21
792.7964791573173
 31
0.0000000000000000
  0
LINE
  5
8B
100
AcDbEntity
  8
MAIN0
  6
BYBLOCK
 62
0
100
AcDbLine
 10
543.8648369941770
 20
782.7964791573173
 30
0.0000000000000000
 11
544.8648369939418
 21
782.7964791573173
 31
0.0000000000000000
  0
INSERT
  5
8C
100
AcDbEntity
  8
MAIN0
  6
BYBLOCK
 62
0
100
AcDbBlockReference
  2
_OPEN
 10
543.8648369941770
 20
782.7964791573173
 30
0.0000000000000000
 41
10.00000000000000
 42
10.00000000000000
 43
10.00000000000000
 50
0.0000000000000000
  0
INSERT
  5
8D
100
AcDbEntity
  8
MAIN0
  6
BYBLOCK
 62
0
100
AcDbBlockReference
  2
_OPEN
 10
544.8648369939418
 20
782.7964791573173
 30
0.0000000000000000
 41
10.00000000000000
 42
10.00000000000000
 43
10.00000000000000
 50
180.0000000000000
  0
LINE
  5
8E
100
AcDbEntity
  8
MAIN0
  6
BYBLOCK
 62
0
100
AcDbLine
 10
533.8648369941770
 20
782.7964791573173
 30
0.0000000000000000
 11
513.3072893321341
 21
782.7964791573173
 31
0.0000000000000000
  0
LINE
  5
8F
100
AcDbEntity
  8
MAIN0
  6
BYBLOCK
 62
0
100
AcDbLine
 10
554.8648369939418
 20
782.7964791573173
 30
0.0000000000000000
 11
559.8648369939418
 21
782.7964791573173
 31
0.0000000000000000
  0
LINE
  5
90
100
AcDbEntity
  8
MAIN0
  6
BYBLOCK
 62
0
100
AcDbLine
 10
544.8648369939418
 20
707.8681559452575
 30
0.0000000000000000
 11
544.8648369939418
 21
792.7964791573173
 31
0.0000000000000000
  0
MTEXT
  5
91
100
AcDbEntity
  8
MAIN0
  6
BYBLOCK
 62
0
100
AcDbMText
 10
518.3072893321341
 20
792.5464789188987
 30
0.0000000000000000
 40
15.49999952316284
 41
0.0000000000000000
 71
     5
 72
     1
  1
\A1;1
 11
1.000000000000000
 21
0.0000000000000000
 31
0.0000000000000000
  7
STANDARD
  0
ENDBLK
  5
92
100
AcDbEntity
  8
MAIN0
  6
CONTINUOUS
 62
3
100
AcDbBlockEnd
  0
BLOCK
  5
94
100
AcDbEntity
  8
MAIN0
  6
CONTINUOUS
 62
3
100
AcDbBlockBegin
  2
*D8
 70
    65
 10
0.0
 20
0.0
 30
0.0
  0
LINE
  5
95
100
AcDbEntity
  8
MAIN0
  6
BYBLOCK
 62
0
100
AcDbLine
 10
544.8648369939418
 20
707.8681559452575
 30
0.0000000000000000
 11
544.8648369939418
 21
792.7964791573173
 31
0.0000000000000000
  0
LINE
  5
96
100
AcDbEntity
  8
MAIN0
  6
BYBLOCK
 62
0
100
AcDbLine
 10
554.8648369939418
 20
782.7964791573173
 30
0.0000000000000000
 11
636.8648369939418
 21
782.7964791573173
 31
0.0000000000000000
  0
INSERT
  5
97
100
AcDbEntity
  8
MAIN0
  6
BYBLOCK
 62
0
100
AcDbBlockReference
  2
_OPEN
 10
544.8648369939418
 20
782.7964791573173
 30
0.0000000000000000
 41
10.00000000000000
 42
10.00000000000000
 43
10.00000000000000
 50
180.0000000000000
  0
INSERT
  5
98
100
AcDbEntity
  8
MAIN0
  6
BYBLOCK
 62
0
100
AcDbBlockReference
  2
_OPEN
 10
646.8648369939418
 20
782.7964791573173
 30
0.0000000000000000
 41
10.00000000000000
 42
10.00000000000000
 43
10.00000000000000
 50
0.0000000000000000
  0
LINE
  5
99
100
AcDbEntity
  8
MAIN0
  6
BYBLOCK
 62
0
100
AcDbLine
 10
646.8648369939418
 20
707.5681559452576
 30
0.0000000000000000
 11
646.8648369939418
 21
792.7964791573173
 31
0.0000000000000000
  0
MTEXT
  5
9A
100
AcDbEntity
  8
MAIN0
  6
BYBLOCK
 62
0
100
AcDbMText
 10
595.8648369939418
 20
791.0464789188987
 30
0.0000000000000000
 40
15.49999952316284
 41
0.0000000000000000
 71
     5
 72
     1
  1
\A1;102
 11
1.000000000000000
 21
0.0000000000000000
 31
0.0000000000000000
  7
STANDARD
  0
ENDBLK
  5
9B
100
AcDbEntity
  8
MAIN0
  6
CONTINUOUS
 62
3
100
AcDbBlockEnd
  0
BLOCK
  5
9D
100
AcDbEntity
  8
MAIN0
  6
CONTINUOUS
 62
3
100
AcDbBlockBegin
  2
*D9
 70
    65
 10
0.0
 20
0.0
 30
0.0
  0
LINE
  5
9E
100
AcDbEntity
  8
MAIN0
  6
BYBLOCK
 62
0
100
AcDbLine
 10
646.8648369939418
 20
707.5681559452576
 30
0.0000000000000000
 11
646.8648369939418
 21
792.7964791573173
 31
0.0000000000000000
  0
LINE
  5
9F
100
AcDbEntity
  8
MAIN0
  6
BYBLOCK
 62
0
100
AcDbLine
 10
656.8648369939418
 20
782.7964791573173
 30
0.0000000000000000
 11
951.8648369939418
 21
782.7964791573173
 31
0.0000000000000000
  0
INSERT
  5
A0
100
AcDbEntity
  8
MAIN0
  6
BYBLOCK
 62
0
100
AcDbBlockReference
  2
_OPEN
 10
646.8648369939418
 20
782.7964791573173
 30
0.0000000000000000
 41
10.00000000000000
 42
10.00000000000000
 43
10.00000000000000
 50
180.0000000000000
  0
INSERT
  5
A1
100
AcDbEntity
  8
MAIN0
  6
BYBLOCK
 62
0
100
AcDbBlockReference
  2
_OPEN
 10
961.8648369939418
 20
782.7964791573173
 30
0.0000000000000000
 41
10.00000000000000
 42
10.00000000000000
 43
10.00000000000000
 50
0.0000000000000000
  0
LINE
  5
A2
100
AcDbEntity
  8
MAIN0
  6
BYBLOCK
 62
0
100
AcDbLine
 10
961.8648369939418
 20
708.0681559454182
 30
0.0000000000000000
 11
961.8648369939418
 21
792.7964791573173
 31
0.0000000000000000
  0
MTEXT
  5
A3
100
AcDbEntity
  8
MAIN0
  6
BYBLOCK
 62
0
100
AcDbMText
 10
804.3648369939418
 20
791.0464789188987
 30
0.0000000000000000
 40
15.49999952316284
 41
0.0000000000000000
 71
     5
 72
     1
  1
\A1;MAX. 605
 11
1.000000000000000
 21
0.0000000000000000
 31
0.0000000000000000
  7
STANDARD
  0
ENDBLK
  5
A4
100
AcDbEntity
  8
MAIN0
  6
CONTINUOUS
 62
3
100
AcDbBlockEnd
  0
BLOCK
  5
A6
100
AcDbEntity
  8
MAIN0
  6
CONTINUOUS
 62
1
100
AcDbBlockBegin
  2
*D10
 70
    65
 10
0.0
 20
0.0
 30
0.0
  0
LINE
  5
A7
100
AcDbEntity
  8
MAIN0
  6
BYBLOCK
 62
0
100
AcDbLine
 10
961.8648369939418
 20
708.0681559454182
 30
0.0000000000000000
 11
961.8648369939418
 21
792.7964791573173
 31
0.0000000000000000
  0
LINE
  5
A8
100
AcDbEntity
  8
MAIN0
  6
BYBLOCK
 62
0
100
AcDbLine
 10
971.8648369939418
 20
782.7964791573173
 30
0.0000000000000000
 11
1049.864836993942
 21
782.7964791573173
 31
0.0000000000000000
  0
INSERT
  5
A9
100
AcDbEntity
  8
MAIN0
  6
BYBLOCK
 62
0
100
AcDbBlockReference
  2
_OPEN
 10
961.8648369939418
 20
782.7964791573173
 30
0.0000000000000000
 41
10.00000000000000
 42
10.00000000000000
 43
10.00000000000000
 50
180.0000000000000
  0
INSERT
  5
AA
100
AcDbEntity
  8
MAIN0
  6
BYBLOCK
 62
0
100
AcDbBlockReference
  2
_OPEN
 10
1059.864836993942
 20
782.7964791573173
 30
0.0000000000000000
 41
10.00000000000000
 42
10.00000000000000
 43
10.00000000000000
 50
0.0000000000000000
  0
LINE
  5
AB
100
AcDbEntity
  8
MAIN0
  6
BYBLOCK
 62
0
100
AcDbLine
 10
1059.864836993942
 20
707.5681559454179
 30
0.0000000000000000
 11
1059.864836993942
 21
792.7964791573173
 31
0.0000000000000000
  0
MTEXT
  5
AC
100
AcDbEntity
  8
MAIN0
  6
BYBLOCK
 62
0
100
AcDbMText
 10
1010.864836993942
 20
791.0464789188987
 30
0.0000000000000000
 40
15.49999952316284
 41
0.0000000000000000
 71
     5
 72
     1
  1
\A1;98
 11
1.000000000000000
 21
0.0000000000000000
 31
0.0000000000000000
  7
STANDARD
  0
ENDBLK
  5
AD
100
AcDbEntity
  8
MAIN0
  6
CONTINUOUS
 62
1
100
AcDbBlockEnd
  0
BLOCK
  5
AF
100
AcDbEntity
  8
MAIN0
  6
CONTINUOUS
 62
3
100
AcDbBlockBegin
  2
*D11
 70
    65
 10
0.0
 20
0.0
 30
0.0
  0
LINE
  5
B0
100
AcDbEntity
  8
MAIN0
  6
BYBLOCK
 62
0
100
AcDbLine
 10
794.8648370533134
 20
519.0681558908002
 30
0.0000000000000000
 11
853.2843662977299
 21
519.0681558908002
 31
0.0000000000000000
  0
LINE
  5
B1
100
AcDbEntity
  8
MAIN0
  6
BYBLOCK
 62
0
100
AcDbLine
 10
843.2843662977299
 20
519.0681558908002
 30
0.0000000000000000
 11
843.2843662977299
 21
524.0681558907490
 31
0.0000000000000000
  0
INSERT
  5
B2
100
AcDbEntity
  8
MAIN0
  6
BYBLOCK
 62
0
100
AcDbBlockReference
  2
_OPEN
 10
843.2843662977299
 20
519.0681558908002
 30
0.0000000000000000
 41
10.00000000000000
 42
10.00000000000000
 43
10.00000000000000
 50
90.00000000000000
  0
INSERT
  5
B3
100
AcDbEntity
  8
MAIN0
  6
BYBLOCK
 62
0
100
AcDbBlockReference
  2
_OPEN
 10
843.2843662977299
 20
524.0681558907490
 30
0.0000000000000000
 41
10.00000000000000
 42
10.00000000000000
 43
10.00000000000000
 50
270.0000000000000
  0
LINE
  5
B4
100
AcDbEntity
  8
MAIN0
  6
BYBLOCK
 62
0
100
AcDbLine
 10
843.2843662977299
 20
509.0681558908001
 30
0.0000000000000000
 11
843.2843662977299
 21
492.7543623635294
 31
0.0000000000000000
  0
LINE
  5
B5
100
AcDbEntity
  8
MAIN0
  6
BYBLOCK
 62
0
100
AcDbLine
 10
843.2843662977299
 20
534.0681558907490
 30
0.0000000000000000
 11
843.2843662977299
 21
539.0681558907490
 31
0.0000000000000000
  0
MTEXT
  5
B6
100
AcDbEntity
  8
MAIN0
  6
BYBLOCK
 62
0
100
AcDbMText
 10
833.0343665361485
 20
497.7543623635294
 30
0.0000000000000000
 40
15.49999952316284
 41
0.0000000000000000
 71
     5
 72
     1
  1
\A1;5
 11
6.123233995736766e-017
 21
1.000000000000000
 31
0.0000000000000000
  7
STANDARD
  0
ENDBLK
  5
B7
100
AcDbEntity
  8
MAIN0
  6
CONTINUOUS
 62
3
100
AcDbBlockEnd
  0
BLOCK
  5
B9
100
AcDbEntity
  8
MAIN0
  6
CONTINUOUS
 62
3
100
AcDbBlockBegin
  2
*D12
 70
    65
 10
0.0
 20
0.0
 30
0.0
  0
LINE
  5
BA
100
AcDbEntity
  8
MAIN0
  6
BYBLOCK
 62
0
100
AcDbLine
 10
595.8648369928427
 20
708.0681559452573
 30
0.0000000000000000
 11
595.8648369928427
 21
758.5816413088112
 31
0.0000000000000000
  0
LINE
  5
BB
100
AcDbEntity
  8
MAIN0
  6
BYBLOCK
 62
0
100
AcDbLine
 10
605.8648369928427
 20
748.5816413088112
 30
0.0000000000000000
 11
636.8648369939418
 21
748.5816413088112
 31
0.0000000000000000
  0
INSERT
  5
BC
100
AcDbEntity
  8
MAIN0
  6
BYBLOCK
 62
0
100
AcDbBlockReference
  2
_OPEN
 10
595.8648369928427
 20
748.5816413088112
 30
0.0000000000000000
 41
10.00000000000000
 42
10.00000000000000
 43
10.00000000000000
 50
180.0000000000000
  0
INSERT
  5
BD
100
AcDbEntity
  8
MAIN0
  6
BYBLOCK
 62
0
100
AcDbBlockReference
  2
_OPEN
 10
646.8648369939418
 20
748.5816413088112
 30
0.0000000000000000
 41
10.00000000000000
 42
10.00000000000000
 43
10.00000000000000
 50
0.0000000000000000
  0
LINE
  5
BE
100
AcDbEntity
  8
MAIN0
  6
BYBLOCK
 62
0
100
AcDbLine
 10
646.8648369939418
 20
707.5681559452576
 30
0.0000000000000000
 11
646.8648369939418
 21
758.5816413088112
 31
0.0000000000000000
  0
MTEXT
  5
BF
100
AcDbEntity
  8
MAIN0
  6
BYBLOCK
 62
0
100
AcDbMText
 10
621.3648369933923
 20
756.8316410703926
 30
0.0000000000000000
 40
15.49999952316284
 41
0.0000000000000000
 71
     5
 72
     1
  1
\A1;51
 11
1.000000000000000
 21
0.0000000000000000
 31
0.0000000000000000
  7
STANDARD
  0
ENDBLK
  5
C0
100
AcDbEntity
  8
MAIN0
  6
CONTINUOUS
 62
3
100
AcDbBlockEnd
  0
BLOCK
  5
C2
100
AcDbEntity
  8
MAIN0
  6
CONTINUOUS
 62
3
100
AcDbBlockBegin
  2
*D13
 70
    65
 10
0.0
 20
0.0
 30
0.0
  0
LINE
  5
C3
100
AcDbEntity
  8
MAIN0
  6
BYBLOCK
 62
0
100
AcDbLine
 10
650.3648370535461
 20
704.0681558856530
 30
0.0000000000000000
 11
690.3762494960338
 21
704.0681558856531
 31
0.0000000000000000
  0
LINE
  5
C4
100
AcDbEntity
  8
MAIN0
  6
BYBLOCK
 62
0
100
AcDbLine
 10
680.3762494960338
 20
704.0681558856531
 30
0.0000000000000000
 11
680.3762494960338
 21
695.0681558856527
 31
0.0000000000000000
  0
INSERT
  5
C5
100
AcDbEntity
  8
MAIN0
  6
BYBLOCK
 62
0
100
AcDbBlockReference
  2
_OPEN
 10
680.3762494960338
 20
704.0681558856531
 30
0.0000000000000000
 41
10.00000000000000
 42
10.00000000000000
 43
10.00000000000000
 50
270.0000000000000
  0
INSERT
  5
C6
100
AcDbEntity
  8
MAIN0
  6
BYBLOCK
 62
0
100
AcDbBlockReference
  2
_DOT
 10
680.3762494960338
 20
694.0681558856527
 30
0.0000000000000000
 41
5.000000000000000
 42
5.000000000000000
 43
5.000000000000000
 50
270.0000000000000
  0
LINE
  5
C7
100
AcDbEntity
  8
MAIN0
  6
BYBLOCK
 62
0
100
AcDbLine
 10
680.3762494960338
 20
714.0681558856531
 30
0.0000000000000000
 11
680.3762494960338
 21
739.2658155819662
 31
0.0000000000000000
  0
LINE
  5
C8
100
AcDbEntity
  8
MAIN0
  6
BYBLOCK
 62
0
100
AcDbLine
 10
609.8648370524473
 20
694.0681558856527
 30
0.0000000000000000
 11
690.3762494960338
 21
694.0681558856527
 31
0.0000000000000000
  0
MTEXT
  5
C9
100
AcDbEntity
  8
MAIN0
  6
BYBLOCK
 62
0
100
AcDbMText
 10
670.1262497344524
 20
729.0158158203848
 30
0.0000000000000000
 40
15.49999952316284
 41
0.0000000000000000
 71
     5
 72
     1
  1
\A1;10
 11
6.123233995736766e-017
 21
1.000000000000000
 31
0.0000000000000000
  7
STANDARD
  0
ENDBLK
  5
CA
100
AcDbEntity
  8
MAIN0
  6
CONTINUOUS
 62
3
100
AcDbBlockEnd
  0
BLOCK
  5
CC
100
AcDbEntity
  8
MAIN0
  6
CONTINUOUS
 62
3
100
AcDbBlockBegin
  2
*D14
 70
    65
 10
0.0
 20
0.0
 30
0.0
  0
LINE
  5
CD
100
AcDbEntity
  8
MAIN0
  6
BYBLOCK
 62
0
100
AcDbLine
 10
609.8648370524473
 20
694.0681558856527
 30
0.0000000000000000
 11
690.3762494960338
 21
694.0681558856527
 31
0.0000000000000000
  0
LINE
  5
CE
100
AcDbEntity
  8
MAIN0
  6
BYBLOCK
 62
0
100
AcDbLine
 10
680.3762494960338
 20
693.0681558856527
 30
0.0000000000000000
 11
680.3762494960338
 21
674.0681558856527
 31
0.0000000000000000
  0
INSERT
  5
CF
100
AcDbEntity
  8
MAIN0
  6
BYBLOCK
 62
0
100
AcDbBlockReference
  2
_DOT
 10
680.3762494960338
 20
694.0681558856527
 30
0.0000000000000000
 41
5.000000000000000
 42
5.000000000000000
 43
5.000000000000000
 50
90.00000000000000
  0
INSERT
  5
D0
100
AcDbEntity
  8
MAIN0
  6
BYBLOCK
 62
0
100
AcDbBlockReference
  2
_OPEN
 10
680.3762494960338
 20
674.0681558856527
 30
0.0000000000000000
 41
10.00000000000000
 42
10.00000000000000
 43
10.00000000000000
 50
90.00000000000000
  0
LINE
  5
D1
100
AcDbEntity
  8
MAIN0
  6
BYBLOCK
 62
0
100
AcDbLine
 10
680.3762494960338
 20
664.0681558856527
 30
0.0000000000000000
 11
680.3762494960338
 21
642.2127131446125
 31
0.0000000000000000
  0
LINE
  5
D2
100
AcDbEntity
  8
MAIN0
  6
BYBLOCK
 62
0
100
AcDbLine
 10
609.8648370524473
 20
674.0681558856527
 30
0.0000000000000000
 11
690.3762494960338
 21
674.0681558856527
 31
0.0000000000000000
  0
MTEXT
  5
D3
100
AcDbEntity
  8
MAIN0
  6
BYBLOCK
 62
0
100
AcDbMText
 10
670.1262497344524
 20
652.4627129061939
 30
0.0000000000000000
 40
15.49999952316284
 41
0.0000000000000000
 71
     5
 72
     1
  1
\A1;20
 11
6.123233995736766e-017
 21
1.000000000000000
 31
0.0000000000000000
  7
STANDARD
  0
ENDBLK
  5
D4
100
AcDbEntity
  8
MAIN0
  6
CONTINUOUS
 62
3
100
AcDbBlockEnd
  0
BLOCK
  5
D6
100
AcDbEntity
  8
MAIN0
  6
CONTINUOUS
 62
3
100
AcDbBlockBegin
  2
*D15
 70
    65
 10
0.0
 20
0.0
 30
0.0
  0
LINE
  5
D7
100
AcDbEntity
  8
MAIN0
  6
BYBLOCK
 62
0
100
AcDbLine
 10
553.8648369937105
 20
559.0681558882416
 30
0.0000000000000000
 11
648.8648369939750
 21
559.0681558882416
 31
0.0000000000000000
  0
INSERT
  5
D8
100
AcDbEntity
  8
MAIN0
  6
BYBLOCK
 62
0
100
AcDbBlockReference
  2
_OPEN
 10
543.8648369937105
 20
559.0681558882416
 30
0.0000000000000000
 41
10.00000000000000
 42
10.00000000000000
 43
10.00000000000000
 50
180.0000000000000
  0
INSERT
  5
D9
100
AcDbEntity
  8
MAIN0
  6
BYBLOCK
 62
0
100
AcDbBlockReference
  2
_OPEN
 10
658.8648369939750
 20
559.0681558882416
 30
0.0000000000000000
 41
10.00000000000000
 42
10.00000000000000
 43
10.00000000000000
 50
0.0000000000000000
  0
LINE
  5
DA
100
AcDbEntity
  8
MAIN0
  6
BYBLOCK
 62
0
100
AcDbLine
 10
658.8648369939750
 20
563.5681558318250
 30
0.0000000000000000
 11
658.8648369939750
 21
549.0681558882416
 31
0.0000000000000000
  0
MTEXT
  5
DB
100
AcDbEntity
  8
MAIN0
  6
BYBLOCK
 62
0
100
AcDbMText
 10
601.3648369938427
 20
567.3181556498230
 30
0.0000000000000000
 40
15.49999952316284
 41
0.0000000000000000
 71
     5
 72
     1
  1
\A1;115
 11
1.000000000000000
 21
0.0000000000000000
 31
0.0000000000000000
  7
STANDARD
  0
ENDBLK
  5
DC
100
AcDbEntity
  8
MAIN0
  6
CONTINUOUS
 62
3
100
AcDbBlockEnd
  0
BLOCK
  5
DE
100
AcDbEntity
  8
MAIN0
  6
CONTINUOUS
 62
3
100
AcDbBlockBegin
  2
*D16
 70
    65
 10
0.0
 20
0.0
 30
0.0
  0
LINE
  5
DF
100
AcDbEntity
  8
MAIN0
  6
BYBLOCK
 62
0
100
AcDbLine
 10
658.8648369939750
 20
563.5681558318250
 30
0.0000000000000000
 11
658.8648369939750
 21
549.0681558882416
 31
0.0000000000000000
  0
LINE
  5
E0
100
AcDbEntity
  8
MAIN0
  6
BYBLOCK
 62
0
100
AcDbLine
 10
668.8648369939750
 20
559.0681558882416
 30
0.0000000000000000
 11
1236.864836993975
 21
559.0681558882416
 31
0.0000000000000000
  0
INSERT
  5
E1
100
AcDbEntity
  8
MAIN0
  6
BYBLOCK
 62
0
100
AcDbBlockReference
  2
_OPEN
 10
658.8648369939750
 20
559.0681558882416
 30
0.0000000000000000
 41
10.00000000000000
 42
10.00000000000000
 43
10.00000000000000
 50
180.0000000000000
  0
INSERT
  5
E2
100
AcDbEntity
  8
MAIN0
  6
BYBLOCK
 62
0
100
AcDbBlockReference
  2
_OPEN
 10
1246.864836993975
 20
559.0681558882416
 30
0.0000000000000000
 41
10.00000000000000
 42
10.00000000000000
 43
10.00000000000000
 50
0.0000000000000000
  0
LINE
  5
E3
100
AcDbEntity
  8
MAIN0
  6
BYBLOCK
 62
0
100
AcDbLine
 10
1246.864836993975
 20
563.5681558313494
 30
0.0000000000000000
 11
1246.864836993975
 21
549.0681558882416
 31
0.0000000000000000
  0
MTEXT
  5
E4
100
AcDbEntity
  8
MAIN0
  6
BYBLOCK
 62
0
100
AcDbMText
 10
952.8648369939749
 20
567.3181556498230
 30
0.0000000000000000
 40
15.49999952316284
 41
0.0000000000000000
 71
     5
 72
     1
  1
\A1;588
 11
1.000000000000000
 21
0.0000000000000000
 31
0.0000000000000000
  7
STANDARD
  0
ENDBLK
  5
E5
100
AcDbEntity
  8
MAIN0
  6
CONTINUOUS
 62
3
100
AcDbBlockEnd
  0
BLOCK
  5
E7
100
AcDbEntity
  8
MAIN0
  6
CONTINUOUS
 62
3
100
AcDbBlockBegin
  2
*D17
 70
    65
 10
0.0
 20
0.0
 30
0.0
  0
LINE
  5
E8
100
AcDbEntity
  8
MAIN0
  6
BYBLOCK
 62
0
100
AcDbLine
 10
1246.864836993975
 20
563.5681558313494
 30
0.0000000000000000
 11
1246.864836993975
 21
549.0681558882416
 31
0.0000000000000000
  0
LINE
  5
E9
100
AcDbEntity
  8
MAIN0
  6
BYBLOCK
 62
0
100
AcDbLine
 10
1256.864836993975
 20
559.0681558882416
 30
0.0000000000000000
 11
1351.864836993710
 21
559.0681558882416
 31
0.0000000000000000
  0
INSERT
  5
EA
100
AcDbEntity
  8
MAIN0
  6
BYBLOCK
 62
0
100
AcDbBlockReference
  2
_OPEN
 10
1246.864836993975
 20
559.0681558882416
 30
0.0000000000000000
 41
10.00000000000000
 42
10.00000000000000
 43
10.00000000000000
 50
180.0000000000000
  0
INSERT
  5
EB
100
AcDbEntity
  8
MAIN0
  6
BYBLOCK
 62
0
100
AcDbBlockReference
  2
_OPEN
 10
1361.864836993710
 20
559.0681558882416
 30
0.0000000000000000
 41
10.00000000000000
 42
10.00000000000000
 43
10.00000000000000
 50
0.0000000000000000
  0
MTEXT
  5
EC
100
AcDbEntity
  8
MAIN0
  6
BYBLOCK
 62
0
100
AcDbMText
 10
1304.364836993842
 20
567.3181556498230
 30
0.0000000000000000
 40
15.49999952316284
 41
0.0000000000000000
 71
     5
 72
     1
  1
\A1;115
 11
1.000000000000000
 21
0.0000000000000000
 31
0.0000000000000000
  7
STANDARD
  0
ENDBLK
  5
ED
100
AcDbEntity
  8
MAIN0
  6
CONTINUOUS
 62
3
100
AcDbBlockEnd
  0
BLOCK
  5
F3
100
AcDbEntity
  8
MAIN0
  6
CONTINUOUS
 62
3
100
AcDbBlockBegin
  2
*D18
 70
    65
 10
0.0
 20
0.0
 30
0.0
  0
LINE
  5
F4
100
AcDbEntity
  8
MAIN0
  6
BYBLOCK
 62
0
100
AcDbLine
 10
1877.998711489394
 20
607.1096078324703
 30
0.0000000000000000
 11
1877.998711489394
 21
748.2016840690806
 31
0.0000000000000000
  0
LINE
  5
F5
100
AcDbEntity
  8
MAIN0
  6
BYBLOCK
 62
0
100
AcDbLine
 10
1877.998711489394
 20
738.2016840690806
 30
0.0000000000000000
 11
1891.998711489394
 21
738.2016840690806
 31
0.0000000000000000
  0
INSERT
  5
F6
100
AcDbEntity
  8
MAIN0
  6
BYBLOCK
 62
0
100
AcDbBlockReference
  2
_OPEN
 10
1877.998711489394
 20
738.2016840690806
 30
0.0000000000000000
 41
10.00000000000000
 42
10.00000000000000
 43
10.00000000000000
 50
0.0000000000000000
  0
INSERT
  5
F7
100
AcDbEntity
  8
MAIN0
  6
BYBLOCK
 62
0
100
AcDbBlockReference
  2
_OPEN
 10
1891.998711489394
 20
738.2016840690806
 30
0.0000000000000000
 41
10.00000000000000
 42
10.00000000000000
 43
10.00000000000000
 50
180.0000000000000
  0
LINE
  5
F8
100
AcDbEntity
  8
MAIN0
  6
BYBLOCK
 62
0
100
AcDbLine
 10
1867.998711489394
 20
738.2016840690806
 30
0.0000000000000000
 11
1862.998711489394
 21
738.2016840690806
 31
0.0000000000000000
  0
LINE
  5
F9
100
AcDbEntity
  8
MAIN0
  6
BYBLOCK
 62
0
100
AcDbLine
 10
1901.998711489394
 20
738.2016840690806
 30
0.0000000000000000
 11
1925.220044751436
 21
738.2016840690806
 31
0.0000000000000000
  0
LINE
  5
FA
100
AcDbEntity
  8
MAIN0
  6
BYBLOCK
 62
0
100
AcDbLine
 10
1891.998711489394
 20
607.1096078324714
 30
0.0000000000000000
 11
1891.998711489394
 21
748.2016840690806
 31
0.0000000000000000
  0
MTEXT
  5
FB
100
AcDbEntity
  8
MAIN0
  6
BYBLOCK
 62
0
100
AcDbMText
 10
1914.970044989854
 20
748.4516838306620
 30
0.0000000000000000
 40
15.49999952316284
 41
0.0000000000000000
 71
     5
 72
     1
  1
\A1;14
 11
1.000000000000000
 21
0.0000000000000000
 31
0.0000000000000000
  7
STANDARD
  0
ENDBLK
  5
FC
100
AcDbEntity
  8
MAIN0
  6
CONTINUOUS
 62
3
100
AcDbBlockEnd
  0
BLOCK
  5
14E
100
AcDbEntity
  8
MAIN0
  6
CONTINUOUS
 62
3
100
AcDbBlockBegin
  2
*D19
 70
    65
 10
0.0
 20
0.0
 30
0.0
  0
LINE
  5
14F
100
AcDbEntity
  8
MAIN0
  6
BYBLOCK
 62
0
100
AcDbLine
 10
342.4493072992203
 20
708.0681559482086
 30
0.0000000000000000
 11
342.4493072992203
 21
748.2016840691458
 31
0.0000000000000000
  0
LINE
  5
150
100
AcDbEntity
  8
MAIN0
  6
BYBLOCK
 62
0
100
AcDbLine
 10
332.4493072992203
 20
738.2016840691458
 30
0.0000000000000000
 11
152.4493072992203
 21
738.2016840691458
 31
0.0000000000000000
  0
INSERT
  5
151
100
AcDbEntity
  8
MAIN0
  6
BYBLOCK
 62
0
100
AcDbBlockReference
  2
_OPEN
 10
342.4493072992203
 20
738.2016840691458
 30
0.0000000000000000
 41
10.00000000000000
 42
10.00000000000000
 43
10.00000000000000
 50
360.0000000000000
  0
INSERT
  5
152
100
AcDbEntity
  8
MAIN0
  6
BYBLOCK
 62
0
100
AcDbBlockReference
  2
_OPEN
 10
142.4493072992203
 20
738.2016840691458
 30
0.0000000000000000
 41
10.00000000000000
 42
10.00000000000000
 43
10.00000000000000
 50
180.0000000000000
  0
LINE
  5
153
100
AcDbEntity
  8
MAIN0
  6
BYBLOCK
 62
0
100
AcDbLine
 10
142.4493072992203
 20
708.0681559482086
 30
0.0000000000000000
 11
142.4493072992203
 21
748.2016840691458
 31
0.0000000000000000
  0
MTEXT
  5
154
100
AcDbEntity
  8
MAIN0
  6
BYBLOCK
 62
0
100
AcDbMText
 10
242.4493072992203
 20
746.4516838307272
 30
0.0000000000000000
 40
15.49999952316284
 41
0.0000000000000000
 71
     5
 72
     1
  1
\A1;200
 11
1.000000000000000
 21
0.0000000000000000
 31
0.0000000000000000
  7
STANDARD
  0
ENDBLK
  5
155
100
AcDbEntity
  8
MAIN0
  6
CONTINUOUS
 62
3
100
AcDbBlockEnd
  0
BLOCK
  5
165
100
AcDbEntity
  8
MAIN0
  6
CONTINUOUS
 62
3
100
AcDbBlockBegin
  2
*D20
 70
    65
 10
0.0
 20
0.0
 30
0.0
  0
LINE
  5
166
100
AcDbEntity
  8
MAIN0
  6
BYBLOCK
 62
0
100
AcDbLine
 10
345.9493073585855
 20
634.0681558884980
 30
0.0000000000000000
 11
410.0982600206754
 21
634.0681558885499
 31
0.0000000000000000
  0
LINE
  5
167
100
AcDbEntity
  8
MAIN0
  6
BYBLOCK
 62
0
100
AcDbLine
 10
400.0982600206754
 20
634.0681558885417
 30
0.0000000000000000
 11
400.0982600206754
 21
608.0681558881720
 31
0.0000000000000000
  0
INSERT
  5
168
100
AcDbEntity
  8
MAIN0
  6
BYBLOCK
 62
0
100
AcDbBlockReference
  2
_OPEN
 10
400.0982600206754
 20
634.0681558885417
 30
0.0000000000000000
 41
10.00000000000000
 42
10.00000000000000
 43
10.00000000000000
 50
270.0000000000000
  0
INSERT
  5
169
100
AcDbEntity
  8
MAIN0
  6
BYBLOCK
 62
0
100
AcDbBlockReference
  2
_OPEN
 10
400.0982600206754
 20
608.0681558881720
 30
0.0000000000000000
 41
10.00000000000000
 42
10.00000000000000
 43
10.00000000000000
 50
90.00000000000000
  0
LINE
  5
16A
100
AcDbEntity
  8
MAIN0
  6
BYBLOCK
 62
0
100
AcDbLine
 10
400.0982600206754
 20
644.0681558885417
 30
0.0000000000000000
 11
400.0982600206754
 21
649.0681558885417
 31
0.0000000000000000
  0
LINE
  5
16B
100
AcDbEntity
  8
MAIN0
  6
BYBLOCK
 62
0
100
AcDbLine
 10
400.0982600206754
 20
598.0681558881720
 30
0.0000000000000000
 11
400.0982600206754
 21
593.0681558881720
 31
0.0000000000000000
  0
LINE
  5
16C
100
AcDbEntity
  8
MAIN0
  6
BYBLOCK
 62
0
100
AcDbLine
 10
346.4493073585499
 20
608.0681558881720
 30
0.0000000000000000
 11
410.0982600206754
 21
608.0681558881720
 31
0.0000000000000000
  0
MTEXT
  5
16D
100
AcDbEntity
  8
MAIN0
  6
BYBLOCK
 62
0
100
AcDbMText
 10
391.8482602590940
 20
621.0681558883568
 30
0.0000000000000000
 40
15.49999952316284
 41
0.0000000000000000
 71
     5
 72
     1
  1
\A1;26
 11
6.123233995736766e-017
 21
1.000000000000000
 31
0.0000000000000000
  7
STANDARD
  0
ENDBLK
  5
16E
100
AcDbEntity
  8
MAIN0
  6
CONTINUOUS
 62
3
100
AcDbBlockEnd
  0
BLOCK
  5
170
100
AcDbEntity
  8
MAIN0
  6
CONTINUOUS
 62
3
100
AcDbBlockBegin
  2
*D21
 70
    65
 10
0.0
 20
0.0
 30
0.0
  0
LINE
  5
171
100
AcDbEntity
  8
MAIN0
  6
BYBLOCK
 62
0
100
AcDbLine
 10
346.4493073585499
 20
608.0681558881720
 30
0.0000000000000000
 11
410.0982600206754
 21
608.0681558881720
 31
0.0000000000000000
  0
LINE
  5
172
100
AcDbEntity
  8
MAIN0
  6
BYBLOCK
 62
0
100
AcDbLine
 10
400.0982600206754
 20
598.0681558881770
 30
0.0000000000000000
 11
400.0982600206754
 21
555.0681558879206
 31
0.0000000000000000
  0
INSERT
  5
173
100
AcDbEntity
  8
MAIN0
  6
BYBLOCK
 62
0
100
AcDbBlockReference
  2
_OPEN
 10
400.0982600206754
 20
608.0681558881770
 30
0.0000000000000000
 41
10.00000000000000
 42
10.00000000000000
 43
10.00000000000000
 50
90.00000000000000
  0
INSERT
  5
174
100
AcDbEntity
  8
MAIN0
  6
BYBLOCK
 62
0
100
AcDbBlockReference
  2
_OPEN
 10
400.0982600206754
 20
545.0681558879206
 30
0.0000000000000000
 41
10.00000000000000
 42
10.00000000000000
 43
10.00000000000000
 50
270.0000000000000
  0
LINE
  5
175
100
AcDbEntity
  8
MAIN0
  6
BYBLOCK
 62
0
100
AcDbLine
 10
346.4493073585535
 20
545.0681558879205
 30
0.0000000000000000
 11
410.0982600206754
 21
545.0681558879206
 31
0.0000000000000000
  0
MTEXT
  5
176
100
AcDbEntity
  8
MAIN0
  6
BYBLOCK
 62
0
100
AcDbMText
 10
391.8482602590940
 20
576.5681558880489
 30
0.0000000000000000
 40
15.49999952316284
 41
0.0000000000000000
 71
     5
 72
     1
  1
\A1;63
 11
6.123233995736766e-017
 21
1.000000000000000
 31
0.0000000000000000
  7
STANDARD
  0
ENDBLK
  5
177
100
AcDbEntity
  8
MAIN0
  6
CONTINUOUS
 62
3
100
AcDbBlockEnd
  0
BLOCK
  5
179
100
AcDbEntity
  8
MAIN0
  6
CONTINUOUS
 62
3
100
AcDbBlockBegin
  2
*D22
 70
    65
 10
0.0
 20
0.0
 30
0.0
  0
LINE
  5
17A
100
AcDbEntity
  8
MAIN0
  6
BYBLOCK
 62
0
100
AcDbLine
 10
346.4493073585535
 20
545.0681558879205
 30
0.0000000000000000
 11
410.0982600206754
 21
545.0681558879206
 31
0.0000000000000000
  0
LINE
  5
17B
100
AcDbEntity
  8
MAIN0
  6
BYBLOCK
 62
0
100
AcDbLine
 10
400.0982600206754
 20
545.0681558879206
 30
0.0000000000000000
 11
400.0982600206754
 21
524.0681558878141
 31
0.0000000000000000
  0
INSERT
  5
17C
100
AcDbEntity
  8
MAIN0
  6
BYBLOCK
 62
0
100
AcDbBlockReference
  2
_OPEN
 10
400.0982600206754
 20
545.0681558879206
 30
0.0000000000000000
 41
10.00000000000000
 42
10.00000000000000
 43
10.00000000000000
 50
270.0000000000000
  0
INSERT
  5
17D
100
AcDbEntity
  8
MAIN0
  6
BYBLOCK
 62
0
100
AcDbBlockReference
  2
_OPEN
 10
400.0982600206754
 20
524.0681558878141
 30
0.0000000000000000
 41
10.00000000000000
 42
10.00000000000000
 43
10.00000000000000
 50
90.00000000000000
  0
LINE
  5
17E
100
AcDbEntity
  8
MAIN0
  6
BYBLOCK
 62
0
100
AcDbLine
 10
400.0982600206754
 20
555.0681558879206
 30
0.0000000000000000
 11
400.0982600206754
 21
560.0681558879206
 31
0.0000000000000000
  0
LINE
  5
17F
100
AcDbEntity
  8
MAIN0
  6
BYBLOCK
 62
0
100
AcDbLine
 10
400.0982600206754
 20
514.0681558878141
 30
0.0000000000000000
 11
400.0982600206754
 21
509.0681558878142
 31
0.0000000000000000
  0
LINE
  5
180
100
AcDbEntity
  8
MAIN0
  6
BYBLOCK
 62
0
100
AcDbLine
 10
347.0493073585292
 20
524.0681558878141
 30
0.0000000000000000
 11
410.0982600206754
 21
524.0681558878141
 31
0.0000000000000000
  0
MTEXT
  5
181
100
AcDbEntity
  8
MAIN0
  6
BYBLOCK
 62
0
100
AcDbMText
 10
391.8482602590940
 20
534.5681558878674
 30
0.0000000000000000
 40
15.49999952316284
 41
0.0000000000000000
 71
     5
 72
     1
  1
\A1;21
 11
6.123233995736766e-017
 21
1.000000000000000
 31
0.0000000000000000
  7
STANDARD
  0
ENDBLK
  5
182
100
AcDbEntity
  8
MAIN0
  6
CONTINUOUS
 62
3
100
AcDbBlockEnd
  0
BLOCK
  5
184
100
AcDbEntity
  8
MAIN0
  6
CONTINUOUS
 62
3
100
AcDbBlockBegin
  2
*D23
 70
    65
 10
0.0
 20
0.0
 30
0.0
  0
LINE
  5
185
100
AcDbEntity
  8
MAIN0
  6
BYBLOCK
 62
0
100
AcDbLine
 10
336.4493072989463
 20
569.0681558879259
 30
0.0000000000000000
 11
343.4493072989330
 21
569.0681558879259
 31
0.0000000000000000
  0
INSERT
  5
186
100
AcDbEntity
  8
MAIN0
  6
BYBLOCK
 62
0
100
AcDbBlockReference
  2
_OPEN
 10
336.4493072989463
 20
569.0681558879259
 30
0.0000000000000000
 41
10.00000000000000
 42
10.00000000000000
 43
10.00000000000000
 50
0.0000000000000000
  0
INSERT
  5
187
100
AcDbEntity
  8
MAIN0
  6
BYBLOCK
 62
0
100
AcDbBlockReference
  2
_OPEN
 10
343.4493072989330
 20
569.0681558879259
 30
0.0000000000000000
 41
10.00000000000000
 42
10.00000000000000
 43
10.00000000000000
 50
180.0000000000000
  0
LINE
  5
188
100
AcDbEntity
  8
MAIN0
  6
BYBLOCK
 62
0
100
AcDbLine
 10
326.4493072989463
 20
569.0681558879259
 30
0.0000000000000000
 11
317.5191138612149
 21
569.0681558879259
 31
0.0000000000000000
  0
LINE
  5
189
100
AcDbEntity
  8
MAIN0
  6
BYBLOCK
 62
0
100
AcDbLine
 10
353.4493072989330
 20
569.0681558879259
 30
0.0000000000000000
 11
358.4493072989330
 21
569.0681558879259
 31
0.0000000000000000
  0
LINE
  5
18A
100
AcDbEntity
  8
MAIN0
  6
BYBLOCK
 62
0
100
AcDbLine
 10
343.4493072989330
 20
548.0681559475236
 30
0.0000000000000000
 11
343.4493072989330
 21
579.0681558879259
 31
0.0000000000000000
  0
MTEXT
  5
18B
100
AcDbEntity
  8
MAIN0
  6
BYBLOCK
 62
0
100
AcDbMText
 10
322.5191138612149
 20
578.4848223161739
 30
0.0000000000000000
 40
15.49999952316284
 41
0.0000000000000000
 71
     5
 72
     1
  1
\A1;7
 11
1.000000000000000
 21
0.0000000000000000
 31
0.0000000000000000
  7
STANDARD
  0
ENDBLK
  5
18C
100
AcDbEntity
  8
MAIN0
  6
CONTINUOUS
 62
3
100
AcDbBlockEnd
  0
BLOCK
  5
18F
100
AcDbEntity
  8
MAIN0
  6
CONTINUOUS
 62
3
100
AcDbBlockBegin
  2
*D24
 70
    65
 10
0.0
 20
0.0
 30
0.0
  0
LINE
  5
190
100
AcDbEntity
  8
MAIN0
  6
BYBLOCK
 62
0
100
AcDbLine
 10
1456.864836994031
 20
570.0681558289602
 30
0.0000000000000000
 11
1456.864836994031
 21
409.2168226281029
 31
0.0000000000000000
  0
LINE
  5
191
100
AcDbEntity
  8
MAIN0
  6
BYBLOCK
 62
0
100
AcDbLine
 10
1446.864836994031
 20
419.2168226281029
 30
0.0000000000000000
 11
1371.864836993710
 21
419.2168226281029
 31
0.0000000000000000
  0
INSERT
  5
192
100
AcDbEntity
  8
MAIN0
  6
BYBLOCK
 62
0
100
AcDbBlockReference
  2
_OPEN
 10
1456.864836994031
 20
419.2168226281029
 30
0.0000000000000000
 41
10.00000000000000
 42
10.00000000000000
 43
10.00000000000000
 50
360.0000000000000
  0
INSERT
  5
193
100
AcDbEntity
  8
MAIN0
  6
BYBLOCK
 62
0
100
AcDbBlockReference
  2
_OPEN
 10
1361.864836993710
 20
419.2168226281029
 30
0.0000000000000000
 41
10.00000000000000
 42
10.00000000000000
 43
10.00000000000000
 50
180.0000000000000
  0
LINE
  5
194
100
AcDbEntity
  8
MAIN0
  6
BYBLOCK
 62
0
100
AcDbLine
 10
1361.864836993710
 20
520.4681558299136
 30
0.0000000000000000
 11
1361.864836993710
 21
409.2168226281029
 31
0.0000000000000000
  0
MTEXT
  5
195
100
AcDbEntity
  8
MAIN0
  6
BYBLOCK
 62
0
100
AcDbMText
 10
1409.364836993870
 20
427.4668223896843
 30
0.0000000000000000
 40
15.49999952316284
 41
0.0000000000000000
 71
     5
 72
     1
  1
\A1;95
 11
1.000000000000000
 21
0.0000000000000000
 31
0.0000000000000000
  7
STANDARD
  0
ENDBLK
  5
196
100
AcDbEntity
  8
MAIN0
  6
CONTINUOUS
 62
3
100
AcDbBlockEnd
  0
BLOCK
  5
198
100
AcDbEntity
  8
MAIN0
  6
CONTINUOUS
 62
3
100
AcDbBlockBegin
  2
*D25
 70
    65
 10
0.0
 20
0.0
 30
0.0
  0
LINE
  5
199
100
AcDbEntity
  8
MAIN0
  6
BYBLOCK
 62
0
100
AcDbLine
 10
1361.864836993710
 20
520.4681558299136
 30
0.0000000000000000
 11
1361.864836993710
 21
409.2168226281029
 31
0.0000000000000000
  0
LINE
  5
19A
100
AcDbEntity
  8
MAIN0
  6
BYBLOCK
 62
0
100
AcDbLine
 10
1351.864836993710
 20
419.2168226281029
 30
0.0000000000000000
 11
553.8648369937105
 21
419.2168226281029
 31
0.0000000000000000
  0
INSERT
  5
19B
100
AcDbEntity
  8
MAIN0
  6
BYBLOCK
 62
0
100
AcDbBlockReference
  2
_OPEN
 10
1361.864836993710
 20
419.2168226281029
 30
0.0000000000000000
 41
10.00000000000000
 42
10.00000000000000
 43
10.00000000000000
 50
360.0000000000000
  0
INSERT
  5
19C
100
AcDbEntity
  8
MAIN0
  6
BYBLOCK
 62
0
100
AcDbBlockReference
  2
_OPEN
 10
543.8648369937105
 20
419.2168226281029
 30
0.0000000000000000
 41
10.00000000000000
 42
10.00000000000000
 43
10.00000000000000
 50
180.0000000000000
  0
LINE
  5
19D
100
AcDbEntity
  8
MAIN0
  6
BYBLOCK
 62
0
100
AcDbLine
 10
543.8648369937105
 20
520.4681558315477
 30
0.0000000000000000
 11
543.8648369937105
 21
409.2168226281029
 31
0.0000000000000000
  0
MTEXT
  5
19E
100
AcDbEntity
  8
MAIN0
  6
BYBLOCK
 62
0
100
AcDbMText
 10
952.8648369937101
 20
427.4668223896843
 30
0.0000000000000000
 40
15.49999952316284
 41
0.0000000000000000
 71
     5
 72
     1
  1
\A1;818
 11
1.000000000000000
 21
0.0000000000000000
 31
0.0000000000000000
  7
STANDARD
  0
ENDBLK
  5
19F
100
AcDbEntity
  8
MAIN0
  6
CONTINUOUS
 62
3
100
AcDbBlockEnd
  0
BLOCK
  5
1CD
100
AcDbEntity
  8
MAIN0
  6
CONTINUOUS
 62
3
100
AcDbBlockBegin
  2
*D26
 70
    65
 10
0.0
 20
0.0
 30
0.0
  0
LINE
  5
1CE
100
AcDbEntity
  8
MAIN0
  6
BYBLOCK
 62
0
100
AcDbLine
 10
1055.864836934326
 20
667.2681558853556
 30
0.0000000000000000
 11
1027.779567931453
 21
667.2681558853556
 31
0.0000000000000000
  0
LINE
  5
1CF
100
AcDbEntity
  8
MAIN0
  6
BYBLOCK
 62
0
100
AcDbLine
 10
1037.779567931453
 20
667.2681558853556
 30
0.0000000000000000
 11
1037.779567931453
 21
634.0681558864973
 31
0.0000000000000000
  0
INSERT
  5
1D0
100
AcDbEntity
  8
MAIN0
  6
BYBLOCK
 62
0
100
AcDbBlockReference
  2
_OPEN
 10
1037.779567931453
 20
667.2681558853556
 30
0.0000000000000000
 41
10.00000000000000
 42
10.00000000000000
 43
10.00000000000000
 50
270.0000000000000
  0
INSERT
  5
1D1
100
AcDbEntity
  8
MAIN0
  6
BYBLOCK
 62
0
100
AcDbBlockReference
  2
_OPEN
 10
1037.779567931453
 20
634.0681558864973
 30
0.0000000000000000
 41
10.00000000000000
 42
10.00000000000000
 43
10.00000000000000
 50
90.00000000000000
  0
LINE
  5
1D2
100
AcDbEntity
  8
MAIN0
  6
BYBLOCK
 62
0
100
AcDbLine
 10
1037.779567931453
 20
677.2681558853556
 30
0.0000000000000000
 11
1037.779567931453
 21
682.2681558853556
 31
0.0000000000000000
  0
LINE
  5
1D3
100
AcDbEntity
  8
MAIN0
  6
BYBLOCK
 62
0
100
AcDbLine
 10
1037.779567931453
 20
624.0681558864973
 30
0.0000000000000000
 11
1037.779567931453
 21
619.0681558864973
 31
0.0000000000000000
  0
MTEXT
  5
1D4
100
AcDbEntity
  8
MAIN0
  6
BYBLOCK
 62
0
100
AcDbMText
 10
1029.529568169872
 20
650.6681558859264
 30
0.0000000000000000
 40
15.49999952316284
 41
0.0000000000000000
 71
     5
 72
     1
  1
\A1;33
 11
6.123233995736766e-017
 21
1.000000000000000
 31
0.0000000000000000
  7
STANDARD
  0
ENDBLK
  5
1D5
100
AcDbEntity
  8
MAIN0
  6
CONTINUOUS
 62
3
100
AcDbBlockEnd
  0
BLOCK
  5
1D7
100
AcDbEntity
  8
MAIN0
  6
CONTINUOUS
 62
3
100
AcDbBlockBegin
  2
*D27
 70
    65
 10
0.0
 20
0.0
 30
0.0
  0
LINE
  5
1D8
100
AcDbEntity
  8
MAIN0
  6
BYBLOCK
 62
0
100
AcDbLine
 10
1993.498711489168
 20
670.2681559481434
 30
0.0000000000000000
 11
1993.498711489168
 21
778.7922378715876
 31
0.0000000000000000
  0
LINE
  5
1D9
100
AcDbEntity
  8
MAIN0
  6
BYBLOCK
 62
0
100
AcDbLine
 10
1983.498711489168
 20
768.7922378715876
 30
0.0000000000000000
 11
1786.498711489166
 21
768.7922378715876
 31
0.0000000000000000
  0
INSERT
  5
1DA
100
AcDbEntity
  8
MAIN0
  6
BYBLOCK
 62
0
100
AcDbBlockReference
  2
_OPEN
 10
1993.498711489168
 20
768.7922378715876
 30
0.0000000000000000
 41
10.00000000000000
 42
10.00000000000000
 43
10.00000000000000
 50
360.0000000000000
  0
INSERT
  5
1DB
100
AcDbEntity
  8
MAIN0
  6
BYBLOCK
 62
0
100
AcDbBlockReference
  2
_OPEN
 10
1776.498711489166
 20
768.7922378715876
 30
0.0000000000000000
 41
10.00000000000000
 42
10.00000000000000
 43
10.00000000000000
 50
180.0000000000000
  0
LINE
  5
1DC
100
AcDbEntity
  8
MAIN0
  6
BYBLOCK
 62
0
100
AcDbLine
 10
1776.498711489166
 20
670.2681559481434
 30
0.0000000000000000
 11
1776.498711489166
 21
778.7922378715876
 31
0.0000000000000000
  0
MTEXT
  5
1DD
100
AcDbEntity
  8
MAIN0
  6
BYBLOCK
 62
0
100
AcDbMText
 10
1884.998711489167
 20
777.0422376331691
 30
0.0000000000000000
 40
15.49999952316284
 41
0.0000000000000000
 71
     5
 72
     1
  1
\A1;217
 11
1.000000000000000
 21
0.0000000000000000
 31
0.0000000000000000
  7
STANDARD
  0
ENDBLK
  5
1DE
100
AcDbEntity
  8
MAIN0
  6
CONTINUOUS
 62
3
100
AcDbBlockEnd
  0
BLOCK
  5
20D
100
AcDbEntity
  8
MAIN0
  6
CONTINUOUS
 62
3
100
AcDbBlockBegin
  2
*D28
 70
    65
 10
0.0
 20
0.0
 30
0.0
  0
LINE
  5
20E
100
AcDbEntity
  8
MAIN0
  6
BYBLOCK
 62
0
100
AcDbLine
 10
646.8648369939418
 20
630.4681558260483
 30
0.0000000000000000
 11
646.8648369939418
 21
444.9237770015941
 31
0.0000000000000000
  0
LINE
  5
20F
100
AcDbEntity
  8
MAIN0
  6
BYBLOCK
 62
0
100
AcDbLine
 10
656.8648369939418
 20
454.9237770015941
 30
0.0000000000000000
 11
771.8648369937088
 21
454.9237770015941
 31
0.0000000000000000
  0
INSERT
  5
210
100
AcDbEntity
  8
MAIN0
  6
BYBLOCK
 62
0
100
AcDbBlockReference
  2
_OPEN
 10
646.8648369939418
 20
454.9237770015941
 30
0.0000000000000000
 41
10.00000000000000
 42
10.00000000000000
 43
10.00000000000000
 50
180.0000000000000
  0
INSERT
  5
211
100
AcDbEntity
  8
MAIN0
  6
BYBLOCK
 62
0
100
AcDbBlockReference
  2
_OPEN
 10
781.8648369937088
 20
454.9237770015941
 30
0.0000000000000000
 41
10.00000000000000
 42
10.00000000000000
 43
10.00000000000000
 50
0.0000000000000000
  0
LINE
  5
212
100
AcDbEntity
  8
MAIN0
  6
BYBLOCK
 62
0
100
AcDbLine
 10
781.8648369937088
 20
506.0784385709691
 30
0.0000000000000000
 11
781.8648369937088
 21
444.9237770015941
 31
0.0000000000000000
  0
MTEXT
  5
213
100
AcDbEntity
  8
MAIN0
  6
BYBLOCK
 62
0
100
AcDbMText
 10
714.3648369938253
 20
463.1737767631755
 30
0.0000000000000000
 40
15.49999952316284
 41
0.0000000000000000
 71
     5
 72
     1
  1
\A1;135
 11
1.000000000000000
 21
0.0000000000000000
 31
0.0000000000000000
  7
STANDARD
  0
ENDBLK
  5
214
100
AcDbEntity
  8
MAIN0
  6
CONTINUOUS
 62
3
100
AcDbBlockEnd
  0
BLOCK
  5
216
100
AcDbEntity
  8
MAIN0
  6
CONTINUOUS
 62
3
100
AcDbBlockBegin
  2
*D29
 70
    65
 10
0.0
 20
0.0
 30
0.0
  0
LINE
  5
217
100
AcDbEntity
  8
MAIN0
  6
BYBLOCK
 62
0
100
AcDbLine
 10
781.8648369937088
 20
506.0784385709691
 30
0.0000000000000000
 11
781.8648369937088
 21
444.9237770015941
 31
0.0000000000000000
  0
LINE
  5
218
100
AcDbEntity
  8
MAIN0
  6
BYBLOCK
 62
0
100
AcDbLine
 10
791.8648369937088
 20
454.9237770015941
 30
0.0000000000000000
 11
1351.864836993710
 21
454.9237770015941
 31
0.0000000000000000
  0
INSERT
  5
219
100
AcDbEntity
  8
MAIN0
  6
BYBLOCK
 62
0
100
AcDbBlockReference
  2
_OPEN
 10
781.8648369937088
 20
454.9237770015941
 30
0.0000000000000000
 41
10.00000000000000
 42
10.00000000000000
 43
10.00000000000000
 50
180.0000000000000
  0
INSERT
  5
21A
100
AcDbEntity
  8
MAIN0
  6
BYBLOCK
 62
0
100
AcDbBlockReference
  2
_OPEN
 10
1361.864836993710
 20
454.9237770015941
 30
0.0000000000000000
 41
10.00000000000000
 42
10.00000000000000
 43
10.00000000000000
 50
0.0000000000000000
  0
LINE
  5
21B
100
AcDbEntity
  8
MAIN0
  6
BYBLOCK
 62
0
100
AcDbLine
 10
1361.864836993710
 20
520.4681558299136
 30
0.0000000000000000
 11
1361.864836993710
 21
444.9237770015941
 31
0.0000000000000000
  0
MTEXT
  5
21C
100
AcDbEntity
  8
MAIN0
  6
BYBLOCK
 62
0
100
AcDbMText
 10
1071.864836993709
 20
463.1737767631755
 30
0.0000000000000000
 40
15.49999952316284
 41
0.0000000000000000
 71
     5
 72
     1
  1
\A1;580
 11
1.000000000000000
 21
0.0000000000000000
 31
0.0000000000000000
  7
STANDARD
  0
ENDBLK
  5
21D
100
AcDbEntity
  8
MAIN0
  6
CONTINUOUS
 62
3
100
AcDbBlockEnd
  0
BLOCK
  5
21F
100
AcDbEntity
  8
MAIN0
  6
CONTINUOUS
 62
3
100
AcDbBlockBegin
  2
*D30
 70
    65
 10
0.0
 20
0.0
 30
0.0
  0
LINE
  5
220
100
AcDbEntity
  8
MAIN0
  6
BYBLOCK
 62
0
100
AcDbLine
 10
1219.547199477651
 20
534.0681558907490
 30
0.0000000000000000
 11
1219.547199477651
 21
566.5681558909540
 31
0.0000000000000000
  0
INSERT
  5
221
100
AcDbEntity
  8
MAIN0
  6
BYBLOCK
 62
0
100
AcDbBlockReference
  2
_OPEN
 10
1219.547199477651
 20
524.0681558907490
 30
0.0000000000000000
 41
10.00000000000000
 42
10.00000000000000
 43
10.00000000000000
 50
270.0000000000000
  0
INSERT
  5
222
100
AcDbEntity
  8
MAIN0
  6
BYBLOCK
 62
0
100
AcDbBlockReference
  2
_OPEN
 10
1219.547199477651
 20
576.5681558909540
 30
0.0000000000000000
 41
10.00000000000000
 42
10.00000000000000
 43
10.00000000000000
 50
90.00000000000000
  0
LINE
  5
223
100
AcDbEntity
  8
MAIN0
  6
BYBLOCK
 62
0
100
AcDbLine
 10
1219.547199477651
 20
524.0681558907490
 30
0.0000000000000000
 11
1219.547199477651
 21
476.4173636426004
 31
0.0000000000000000
  0
LINE
  5
224
100
AcDbEntity
  8
MAIN0
  6
BYBLOCK
 62
0
100
AcDbLine
 10
1233.864836934370
 20
576.5681558909540
 30
0.0000000000000000
 11
1209.547199477651
 21
576.5681558909540
 31
0.0000000000000000
  0
MTEXT
  5
225
100
AcDbEntity
  8
MAIN0
  6
BYBLOCK
 62
0
100
AcDbMText
 10
1209.297199716070
 20
494.6673641194376
 30
0.0000000000000000
 40
15.49999952316284
 41
0.0000000000000000
 71
     5
 72
     1
  1
\A1;52.5
 11
6.123233995736766e-017
 21
1.000000000000000
 31
0.0000000000000000
  7
STANDARD
  0
ENDBLK
  5
226
100
AcDbEntity
  8
MAIN0
  6
CONTINUOUS
 62
3
100
AcDbBlockEnd
  0
BLOCK
  5
228
100
AcDbEntity
  8
MAIN0
  6
CONTINUOUS
 62
3
100
AcDbBlockBegin
  2
*D31
 70
    65
 10
0.0
 20
0.0
 30
0.0
  0
LINE
  5
229
100
AcDbEntity
  8
MAIN0
  6
BYBLOCK
 62
0
100
AcDbLine
 10
1233.864836934370
 20
576.5681558909540
 30
0.0000000000000000
 11
1209.547199477651
 21
576.5681558909540
 31
0.0000000000000000
  0
LINE
  5
22A
100
AcDbEntity
  8
MAIN0
  6
BYBLOCK
 62
0
100
AcDbLine
 10
1219.547199477651
 20
586.5681558909540
 30
0.0000000000000000
 11
1219.547199477651
 21
624.0681558864816
 31
0.0000000000000000
  0
INSERT
  5
22B
100
AcDbEntity
  8
MAIN0
  6
BYBLOCK
 62
0
100
AcDbBlockReference
  2
_OPEN
 10
1219.547199477651
 20
576.5681558909540
 30
0.0000000000000000
 41
10.00000000000000
 42
10.00000000000000
 43
10.00000000000000
 50
270.0000000000000
  0
INSERT
  5
22C
100
AcDbEntity
  8
MAIN0
  6
BYBLOCK
 62
0
100
AcDbBlockReference
  2
_OPEN
 10
1219.547199477651
 20
634.0681558864816
 30
0.0000000000000000
 41
10.00000000000000
 42
10.00000000000000
 43
10.00000000000000
 50
90.00000000000000
  0
LINE
  5
22D
100
AcDbEntity
  8
MAIN0
  6
BYBLOCK
 62
0
100
AcDbLine
 10
1063.864837053524
 20
634.0681558864816
 30
0.0000000000000000
 11
1229.547199477651
 21
634.0681558864816
 31
0.0000000000000000
  0
MTEXT
  5
22E
100
AcDbEntity
  8
MAIN0
  6
BYBLOCK
 62
0
100
AcDbMText
 10
1211.297199716070
 20
605.3181558887178
 30
0.0000000000000000
 40
15.49999952316284
 41
0.0000000000000000
 71
     5
 72
     1
  1
\A1;57.5
 11
6.123233995736766e-017
 21
1.000000000000000
 31
0.0000000000000000
  7
STANDARD
  0
ENDBLK
  5
22F
100
AcDbEntity
  8
MAIN0
  6
CONTINUOUS
 62
3
100
AcDbBlockEnd
  0
BLOCK
  5
231
100
AcDbEntity
  8
MAIN0
  6
CONTINUOUS
 62
3
100
AcDbBlockBegin
  2
*D32
 70
    65
 10
0.0
 20
0.0
 30
0.0
  0
LINE
  5
232
100
AcDbEntity
  8
MAIN0
  6
BYBLOCK
 62
0
100
AcDbLine
 10
1507.097987093754
 20
603.0681559481699
 30
0.0000000000000000
 11
1507.097987093747
 21
881.3947736964865
 31
0.0000000000000000
  0
LINE
  5
233
100
AcDbEntity
  8
MAIN0
  6
BYBLOCK
 62
0
100
AcDbLine
 10
1507.097987093747
 20
871.3947736964865
 30
0.0000000000000000
 11
1522.097987093747
 21
871.3947736964865
 31
0.0000000000000000
  0
INSERT
  5
234
100
AcDbEntity
  8
MAIN0
  6
BYBLOCK
 62
0
100
AcDbBlockReference
  2
_OPEN
 10
1507.097987093747
 20
871.3947736964865
 30
0.0000000000000000
 41
10.00000000000000
 42
10.00000000000000
 43
10.00000000000000
 50
0.0000000000000000
  0
INSERT
  5
235
100
AcDbEntity
  8
MAIN0
  6
BYBLOCK
 62
0
100
AcDbBlockReference
  2
_OPEN
 10
1522.097987093747
 20
871.3947736964865
 30
0.0000000000000000
 41
10.00000000000000
 42
10.00000000000000
 43
10.00000000000000
 50
180.0000000000000
  0
LINE
  5
236
100
AcDbEntity
  8
MAIN0
  6
BYBLOCK
 62
0
100
AcDbLine
 10
1497.097987093747
 20
871.3947736964865
 30
0.0000000000000000
 11
1469.040304357912
 21
871.3947736964865
 31
0.0000000000000000
  0
LINE
  5
237
100
AcDbEntity
  8
MAIN0
  6
BYBLOCK
 62
0
100
AcDbLine
 10
1532.097987093747
 20
871.3947736964865
 30
0.0000000000000000
 11
1537.097987093747
 21
871.3947736964865
 31
0.0000000000000000
  0
LINE
  5
238
100
AcDbEntity
  8
MAIN0
  6
BYBLOCK
 62
0
100
AcDbLine
 10
1522.097987093747
 20
612.6681559481698
 30
0.0000000000000000
 11
1522.097987093747
 21
881.3947736964865
 31
0.0000000000000000
  0
MTEXT
  5
239
100
AcDbEntity
  8
MAIN0
  6
BYBLOCK
 62
0
100
AcDbMText
 10
1479.290304119494
 20
881.6447734580679
 30
0.0000000000000000
 40
15.49999952316284
 41
0.0000000000000000
 71
     5
 72
     1
  1
\A1;15
 11
1.000000000000000
 21
0.0000000000000000
 31
0.0000000000000000
  7
STANDARD
  0
ENDBLK
  5
23A
100
AcDbEntity
  8
MAIN0
  6
CONTINUOUS
 62
3
100
AcDbBlockEnd
  0
BLOCK
  5
23C
100
AcDbEntity
  8
MAIN0
  6
CONTINUOUS
 62
3
100
AcDbBlockBegin
  2
*D33
 70
    65
 10
0.0
 20
0.0
 30
0.0
  0
LINE
  5
23D
100
AcDbEntity
  8
MAIN0
  6
BYBLOCK
 62
0
100
AcDbLine
 10
1522.097987093747
 20
612.6681559481698
 30
0.0000000000000000
 11
1522.097987093747
 21
881.3947736964865
 31
0.0000000000000000
  0
LINE
  5
23E
100
AcDbEntity
  8
MAIN0
  6
BYBLOCK
 62
0
100
AcDbLine
 10
1532.097987093754
 20
871.3947736964865
 30
0.0000000000000000
 11
1549.097987093920
 21
871.3947736964865
 31
0.0000000000000000
  0
INSERT
  5
23F
100
AcDbEntity
  8
MAIN0
  6
BYBLOCK
 62
0
100
AcDbBlockReference
  2
_OPEN
 10
1522.097987093754
 20
871.3947736964865
 30
0.0000000000000000
 41
10.00000000000000
 42
10.00000000000000
 43
10.00000000000000
 50
180.0000000000000
  0
INSERT
  5
240
100
AcDbEntity
  8
MAIN0
  6
BYBLOCK
 62
0
100
AcDbBlockReference
  2
_OPEN
 10
1559.097987093920
 20
871.3947736964865
 30
0.0000000000000000
 41
10.00000000000000
 42
10.00000000000000
 43
10.00000000000000
 50
0.0000000000000000
  0
LINE
  5
241
100
AcDbEntity
  8
MAIN0
  6
BYBLOCK
 62
0
100
AcDbLine
 10
1559.097987093920
 20
816.0681559481722
 30
0.0000000000000000
 11
1559.097987093920
 21
881.3947736964865
 31
0.0000000000000000
  0
MTEXT
  5
242
100
AcDbEntity
  8
MAIN0
  6
BYBLOCK
 62
0
100
AcDbMText
 10
1540.597987093837
 20
879.6447734580679
 30
0.0000000000000000
 40
15.49999952316284
 41
0.0000000000000000
 71
     5
 72
     1
  1
\A1;37
 11
1.000000000000000
 21
0.0000000000000000
 31
0.0000000000000000
  7
STANDARD
  0
ENDBLK
  5
243
100
AcDbEntity
  8
MAIN0
  6
CONTINUOUS
 62
3
100
AcDbBlockEnd
  0
BLOCK
  5
245
100
AcDbEntity
  8
MAIN0
  6
CONTINUOUS
 62
3
100
AcDbBlockBegin
  2
*D34
 70
    65
 10
0.0
 20
0.0
 30
0.0
  0
LINE
  5
246
100
AcDbEntity
  8
MAIN0
  6
BYBLOCK
 62
0
100
AcDbLine
 10
1559.097987093920
 20
816.0681559481722
 30
0.0000000000000000
 11
1559.097987093920
 21
881.3947736964865
 31
0.0000000000000000
  0
LINE
  5
247
100
AcDbEntity
  8
MAIN0
  6
BYBLOCK
 62
0
100
AcDbLine
 10
1569.097987093920
 20
871.3947736964865
 30
0.0000000000000000
 11
1644.097987093931
 21
871.3947736964865
 31
0.0000000000000000
  0
INSERT
  5
248
100
AcDbEntity
  8
MAIN0
  6
BYBLOCK
 62
0
100
AcDbBlockReference
  2
_OPEN
 10
1559.097987093920
 20
871.3947736964865
 30
0.0000000000000000
 41
10.00000000000000
 42
10.00000000000000
 43
10.00000000000000
 50
180.0000000000000
  0
INSERT
  5
249
100
AcDbEntity
  8
MAIN0
  6
BYBLOCK
 62
0
100
AcDbBlockReference
  2
_OPEN
 10
1654.097987093931
 20
871.3947736964865
 30
0.0000000000000000
 41
10.00000000000000
 42
10.00000000000000
 43
10.00000000000000
 50
0.0000000000000000
  0
LINE
  5
24A
100
AcDbEntity
  8
MAIN0
  6
BYBLOCK
 62
0
100
AcDbLine
 10
1654.097987093931
 20
828.0681559481699
 30
0.0000000000000000
 11
1654.097987093931
 21
881.3947736964865
 31
0.0000000000000000
  0
MTEXT
  5
24B
100
AcDbEntity
  8
MAIN0
  6
BYBLOCK
 62
0
100
AcDbMText
 10
1606.597987093925
 20
879.6447734580679
 30
0.0000000000000000
 40
15.49999952316284
 41
0.0000000000000000
 71
     5
 72
     1
  1
\A1;95
 11
1.000000000000000
 21
0.0000000000000000
 31
0.0000000000000000
  7
STANDARD
  0
ENDBLK
  5
24C
100
AcDbEntity
  8
MAIN0
  6
CONTINUOUS
 62
3
100
AcDbBlockEnd
  0
BLOCK
  5
24E
100
AcDbEntity
  8
MAIN0
  6
CONTINUOUS
 62
3
100
AcDbBlockBegin
  2
*D35
 70
    65
 10
0.0
 20
0.0
 30
0.0
  0
LINE
  5
24F
100
AcDbEntity
  8
MAIN0
  6
BYBLOCK
 62
0
100
AcDbLine
 10
1507.097987093754
 20
603.0681559481699
 30
0.0000000000000000
 11
1507.097987093754
 21
917.6788606143324
 31
0.0000000000000000
  0
LINE
  5
250
100
AcDbEntity
  8
MAIN0
  6
BYBLOCK
 62
0
100
AcDbLine
 10
1517.097987093754
 20
907.6788606143324
 30
0.0000000000000000
 11
1644.097987093931
 21
907.6788606143324
 31
0.0000000000000000
  0
INSERT
  5
251
100
AcDbEntity
  8
MAIN0
  6
BYBLOCK
 62
0
100
AcDbBlockReference
  2
_OPEN
 10
1507.097987093754
 20
907.6788606143324
 30
0.0000000000000000
 41
10.00000000000000
 42
10.00000000000000
 43
10.00000000000000
 50
180.0000000000000
  0
INSERT
  5
252
100
AcDbEntity
  8
MAIN0
  6
BYBLOCK
 62
0
100
AcDbBlockReference
  2
_OPEN
 10
1654.097987093931
 20
907.6788606143324
 30
0.0000000000000000
 41
10.00000000000000
 42
10.00000000000000
 43
10.00000000000000
 50
0.0000000000000000
  0
LINE
  5
253
100
AcDbEntity
  8
MAIN0
  6
BYBLOCK
 62
0
100
AcDbLine
 10
1654.097987093931
 20
828.0681559481699
 30
0.0000000000000000
 11
1654.097987093931
 21
917.6788606143324
 31
0.0000000000000000
  0
MTEXT
  5
254
100
AcDbEntity
  8
MAIN0
  6
BYBLOCK
 62
0
100
AcDbMText
 10
1580.597987093843
 20
915.9288603759138
 30
0.0000000000000000
 40
15.49999952316284
 41
0.0000000000000000
 71
     5
 72
     1
  1
\A1;147
 11
1.000000000000000
 21
0.0000000000000000
 31
0.0000000000000000
  7
STANDARD
  0
ENDBLK
  5
255
100
AcDbEntity
  8
MAIN0
  6
CONTINUOUS
 62
3
100
AcDbBlockEnd
  0
BLOCK
  5
257
100
AcDbEntity
  8
MAIN0
  6
CONTINUOUS
 62
3
100
AcDbBlockBegin
  2
*D36
 70
    65
 10
0.0
 20
0.0
 30
0.0
  0
LINE
  5
258
100
AcDbEntity
  8
MAIN0
  6
BYBLOCK
 62
0
100
AcDbLine
 10
595.8648369944307
 20
1107.152187982981
 30
0.0000000000000000
 11
595.8648369944307
 21
1241.376512278346
 31
0.0000000000000000
  0
LINE
  5
259
100
AcDbEntity
  8
MAIN0
  6
BYBLOCK
 62
0
100
AcDbLine
 10
605.8648369944307
 20
1231.376512278346
 30
0.0000000000000000
 11
636.8648369939422
 21
1231.376512278346
 31
0.0000000000000000
  0
INSERT
  5
25A
100
AcDbEntity
  8
MAIN0
  6
BYBLOCK
 62
0
100
AcDbBlockReference
  2
_OPEN
 10
595.8648369944307
 20
1231.376512278346
 30
0.0000000000000000
 41
10.00000000000000
 42
10.00000000000000
 43
10.00000000000000
 50
180.0000000000000
  0
INSERT
  5
25B
100
AcDbEntity
  8
MAIN0
  6
BYBLOCK
 62
0
100
AcDbBlockReference
  2
_OPEN
 10
646.8648369939422
 20
1231.376512278346
 30
0.0000000000000000
 41
10.00000000000000
 42
10.00000000000000
 43
10.00000000000000
 50
0.0000000000000000
  0
LINE
  5
25C
100
AcDbEntity
  8
MAIN0
  6
BYBLOCK
 62
0
100
AcDbLine
 10
646.8648369939422
 20
1195.652187982982
 30
0.0000000000000000
 11
646.8648369939422
 21
1241.376512278346
 31
0.0000000000000000
  0
MTEXT
  5
25D
100
AcDbEntity
  8
MAIN0
  6
BYBLOCK
 62
0
100
AcDbMText
 10
621.3648369941865
 20
1239.626512039928
 30
0.0000000000000000
 40
15.49999952316284
 41
0.0000000000000000
 71
     5
 72
     1
  1
\A1;51
 11
1.000000000000000
 21
0.0000000000000000
 31
0.0000000000000000
  7
STANDARD
  0
ENDBLK
  5
25E
100
AcDbEntity
  8
MAIN0
  6
CONTINUOUS
 62
3
100
AcDbBlockEnd
  0
BLOCK
  5
260
100
AcDbEntity
  8
MAIN0
  6
CONTINUOUS
 62
3
100
AcDbBlockBegin
  2
*D37
 70
    65
 10
0.0
 20
0.0
 30
0.0
  0
LINE
  5
261
100
AcDbEntity
  8
MAIN0
  6
BYBLOCK
 62
0
100
AcDbLine
 10
1491.363408029651
 20
599.0681558885652
 30
0.0000000000000000
 11
1475.315494478388
 21
599.0681558885652
 31
0.0000000000000000
  0
LINE
  5
262
100
AcDbEntity
  8
MAIN0
  6
BYBLOCK
 62
0
100
AcDbLine
 10
1485.315494478388
 20
589.0681558885652
 30
0.0000000000000000
 11
1485.315494478388
 21
534.0681558891890
 31
0.0000000000000000
  0
INSERT
  5
263
100
AcDbEntity
  8
MAIN0
  6
BYBLOCK
 62
0
100
AcDbBlockReference
  2
_OPEN
 10
1485.315494478388
 20
599.0681558885652
 30
0.0000000000000000
 41
10.00000000000000
 42
10.00000000000000
 43
10.00000000000000
 50
90.00000000000000
  0
INSERT
  5
264
100
AcDbEntity
  8
MAIN0
  6
BYBLOCK
 62
0
100
AcDbBlockReference
  2
_OPEN
 10
1485.315494478388
 20
524.0681558891890
 30
0.0000000000000000
 41
10.00000000000000
 42
10.00000000000000
 43
10.00000000000000
 50
270.0000000000000
  0
LINE
  5
265
100
AcDbEntity
  8
MAIN0
  6
BYBLOCK
 62
0
100
AcDbLine
 10
1365.864837053313
 20
524.0681558891890
 30
0.0000000000000000
 11
1495.315494478388
 21
524.0681558891890
 31
0.0000000000000000
  0
MTEXT
  5
266
100
AcDbEntity
  8
MAIN0
  6
BYBLOCK
 62
0
100
AcDbMText
 10
1477.065494716806
 20
561.5681558888772
 30
0.0000000000000000
 40
15.49999952316284
 41
0.0000000000000000
 71
     5
 72
     1
  1
\A1;75
 11
6.123233995736766e-017
 21
1.000000000000000
 31
0.0000000000000000
  7
STANDARD
  0
ENDBLK
  5
267
100
AcDbEntity
  8
MAIN0
  6
CONTINUOUS
 62
3
100
AcDbBlockEnd
  0
BLOCK
  5
269
100
AcDbEntity
  8
MAIN0
  6
CONTINUOUS
 62
3
100
AcDbBlockBegin
  2
*D38
 70
    65
 10
0.0
 20
0.0
 30
0.0
  0
LINE
  5
26A
100
AcDbEntity
  8
MAIN0
  6
BYBLOCK
 62
0
100
AcDbLine
 10
790.8648369937088
 20
515.0681558311956
 30
0.0000000000000000
 11
790.8648369937088
 21
478.9152418581637
 31
0.0000000000000000
  0
LINE
  5
26B
100
AcDbEntity
  8
MAIN0
  6
BYBLOCK
 62
0
100
AcDbLine
 10
790.8648369937088
 20
488.9152418581637
 30
0.0000000000000000
 11
772.8648369937088
 21
488.9152418581637
 31
0.0000000000000000
  0
INSERT
  5
26C
100
AcDbEntity
  8
MAIN0
  6
BYBLOCK
 62
0
100
AcDbBlockReference
  2
_OPEN
 10
790.8648369937088
 20
488.9152418581637
 30
0.0000000000000000
 41
10.00000000000000
 42
10.00000000000000
 43
10.00000000000000
 50
180.0000000000000
  0
INSERT
  5
26D
100
AcDbEntity
  8
MAIN0
  6
BYBLOCK
 62
0
100
AcDbBlockReference
  2
_OPEN
 10
772.8648369937088
 20
488.9152418581637
 30
0.0000000000000000
 41
10.00000000000000
 42
10.00000000000000
 43
10.00000000000000
 50
360.0000000000000
  0
LINE
  5
26E
100
AcDbEntity
  8
MAIN0
  6
BYBLOCK
 62
0
100
AcDbLine
 10
800.8648369937088
 20
488.9152418581637
 30
0.0000000000000000
 11
805.8648369937088
 21
488.9152418581637
 31
0.0000000000000000
  0
LINE
  5
26F
100
AcDbEntity
  8
MAIN0
  6
BYBLOCK
 62
0
100
AcDbLine
 10
762.8648369937088
 20
488.9152418581637
 30
0.0000000000000000
 11
738.3140013414857
 21
488.9152418581637
 31
0.0000000000000000
  0
LINE
  5
270
100
AcDbEntity
  8
MAIN0
  6
BYBLOCK
 62
0
100
AcDbLine
 10
772.8648369937088
 20
515.0681558311956
 30
0.0000000000000000
 11
772.8648369937088
 21
478.9152418581637
 31
0.0000000000000000
  0
MTEXT
  5
271
100
AcDbEntity
  8
MAIN0
  6
BYBLOCK
 62
0
100
AcDbMText
 10
748.5640011030671
 20
499.1652416197451
 30
0.0000000000000000
 40
15.49999952316284
 41
0.0000000000000000
 71
     5
 72
     1
  1
\A1;18
 11
1.000000000000000
 21
0.0000000000000000
 31
0.0000000000000000
  7
STANDARD
  0
ENDBLK
  5
272
100
AcDbEntity
  8
MAIN0
  6
CONTINUOUS
 62
3
100
AcDbBlockEnd
  0
BLOCK
  5
27B
100
AcDbEntity
  8
MAIN0
  6
CONTINUOUS
 62
1
100
AcDbBlockBegin
  2
*D39
 70
    65
 10
0.0
 20
0.0
 30
0.0
  0
LINE
  5
27C
100
AcDbEntity
  8
MAIN0
  6
BYBLOCK
 62
0
100
AcDbLine
 10
1783.998711489113
 20
520.4681558282284
 30
0.0000000000000000
 11
1783.998711489121
 21
444.9237770015941
 31
0.0000000000000000
  0
LINE
  5
27D
100
AcDbEntity
  8
MAIN0
  6
BYBLOCK
 62
0
100
AcDbLine
 10
1783.998711489120
 20
454.9237770015941
 30
0.0000000000000000
 11
1760.998711489120
 21
454.9237770015941
 31
0.0000000000000000
  0
INSERT
  5
27E
100
AcDbEntity
  8
MAIN0
  6
BYBLOCK
 62
0
100
AcDbBlockReference
  2
_OPEN
 10
1783.998711489120
 20
454.9237770015941
 30
0.0000000000000000
 41
10.00000000000000
 42
10.00000000000000
 43
10.00000000000000
 50
180.0000000000000
  0
INSERT
  5
27F
100
AcDbEntity
  8
MAIN0
  6
BYBLOCK
 62
0
100
AcDbBlockReference
  2
_OPEN
 10
1760.998711489120
 20
454.9237770015941
 30
0.0000000000000000
 41
10.00000000000000
 42
10.00000000000000
 43
10.00000000000000
 50
360.0000000000000
  0
LINE
  5
280
100
AcDbEntity
  8
MAIN0
  6
BYBLOCK
 62
0
100
AcDbLine
 10
1793.998711489120
 20
454.9237770015941
 30
0.0000000000000000
 11
1846.802543861987
 21
454.9237770015941
 31
0.0000000000000000
  0
LINE
  5
281
100
AcDbEntity
  8
MAIN0
  6
BYBLOCK
 62
0
100
AcDbLine
 10
1750.998711489120
 20
454.9237770015941
 30
0.0000000000000000
 11
1745.998711489120
 21
454.9237770015941
 31
0.0000000000000000
  0
MTEXT
  5
282
100
AcDbEntity
  8
MAIN0
  6
BYBLOCK
 62
0
100
AcDbMText
 10
1819.552544815661
 20
465.1737767631755
 30
0.0000000000000000
 40
15.49999952316284
 41
0.0000000000000000
 71
     5
 72
     1
  1
\A1;15～31
 11
1.000000000000000
 21
0.0000000000000000
 31
0.0000000000000000
  7
KNJYOKO
  0
ENDBLK
  5
283
100
AcDbEntity
  8
MAIN0
  6
CONTINUOUS
 62
1
100
AcDbBlockEnd
  0
BLOCK
  5
286
100
AcDbEntity
  8
MAIN0
  6
CONTINUOUS
 62
3
100
AcDbBlockBegin
  2
*D40
 70
    65
 10
0.0
 20
0.0
 30
0.0
  0
LINE
  5
287
100
AcDbEntity
  8
MAIN0
  6
BYBLOCK
 62
0
100
AcDbLine
 10
1985.998711489113
 20
520.4681558281435
 30
0.0000000000000000
 11
1985.998711489113
 21
409.2168226281029
 31
0.0000000000000000
  0
LINE
  5
288
100
AcDbEntity
  8
MAIN0
  6
BYBLOCK
 62
0
100
AcDbLine
 10
1975.998711489113
 20
419.2168226281029
 30
0.0000000000000000
 11
1793.998711489112
 21
419.2168226281029
 31
0.0000000000000000
  0
INSERT
  5
289
100
AcDbEntity
  8
MAIN0
  6
BYBLOCK
 62
0
100
AcDbBlockReference
  2
_OPEN
 10
1985.998711489113
 20
419.2168226281029
 30
0.0000000000000000
 41
10.00000000000000
 42
10.00000000000000
 43
10.00000000000000
 50
360.0000000000000
  0
INSERT
  5
28A
100
AcDbEntity
  8
MAIN0
  6
BYBLOCK
 62
0
100
AcDbBlockReference
  2
_OPEN
 10
1783.998711489112
 20
419.2168226281029
 30
0.0000000000000000
 41
10.00000000000000
 42
10.00000000000000
 43
10.00000000000000
 50
180.0000000000000
  0
LINE
  5
28B
100
AcDbEntity
  8
MAIN0
  6
BYBLOCK
 62
0
100
AcDbLine
 10
1783.998711489112
 20
520.4681558282284
 30
0.0000000000000000
 11
1783.998711489112
 21
409.2168226281029
 31
0.0000000000000000
  0
MTEXT
  5
28C
100
AcDbEntity
  8
MAIN0
  6
BYBLOCK
 62
0
100
AcDbMText
 10
1884.998711489113
 20
427.4668223896843
 30
0.0000000000000000
 40
15.49999952316284
 41
0.0000000000000000
 71
     5
 72
     1
  1
\A1;202
 11
1.000000000000000
 21
0.0000000000000000
 31
0.0000000000000000
  7
STANDARD
  0
ENDBLK
  5
28D
100
AcDbEntity
  8
MAIN0
  6
CONTINUOUS
 62
3
100
AcDbBlockEnd
  0
BLOCK
  5
28F
100
AcDbEntity
  8
MAIN0
  6
CONTINUOUS
 62
3
100
AcDbBlockBegin
  2
*D41
 70
    65
 10
0.0
 20
0.0
 30
0.0
  0
LINE
  5
290
100
AcDbEntity
  8
MAIN0
  6
BYBLOCK
 62
0
100
AcDbLine
 10
1783.998711489112
 20
520.4681558282284
 30
0.0000000000000000
 11
1783.998711489112
 21
409.2168226281029
 31
0.0000000000000000
  0
LINE
  5
291
100
AcDbEntity
  8
MAIN0
  6
BYBLOCK
 62
0
100
AcDbLine
 10
1773.998711489112
 20
419.2168226281029
 30
0.0000000000000000
 11
1722.998711489121
 21
419.2168226281029
 31
0.0000000000000000
  0
INSERT
  5
292
100
AcDbEntity
  8
MAIN0
  6
BYBLOCK
 62
0
100
AcDbBlockReference
  2
_OPEN
 10
1783.998711489112
 20
419.2168226281029
 30
0.0000000000000000
 41
10.00000000000000
 42
10.00000000000000
 43
10.00000000000000
 50
360.0000000000000
  0
INSERT
  5
293
100
AcDbEntity
  8
MAIN0
  6
BYBLOCK
 62
0
100
AcDbBlockReference
  2
_OPEN
 10
1712.998711489121
 20
419.2168226281029
 30
0.0000000000000000
 41
10.00000000000000
 42
10.00000000000000
 43
10.00000000000000
 50
180.0000000000000
  0
LINE
  5
294
100
AcDbEntity
  8
MAIN0
  6
BYBLOCK
 62
0
100
AcDbLine
 10
1712.998711489121
 20
550.0681558283342
 30
0.0000000000000000
 11
1712.998711489121
 21
409.2168226281029
 31
0.0000000000000000
  0
MTEXT
  5
295
100
AcDbEntity
  8
MAIN0
  6
BYBLOCK
 62
0
100
AcDbMText
 10
1744.982150218970
 20
429.4668223896843
 30
0.0000000000000000
 40
15.49999952316284
 41
0.0000000000000000
 71
     5
 72
     1
  1
\A1;71
 11
1.000000000000000
 21
0.0000000000000000
 31
0.0000000000000000
  7
STANDARD
  0
ENDBLK
  5
296
100
AcDbEntity
  8
MAIN0
  6
CONTINUOUS
 62
3
100
AcDbBlockEnd
  0
BLOCK
  5
298
100
AcDbEntity
  8
MAIN0
  6
CONTINUOUS
 62
3
100
AcDbBlockBegin
  2
D42
 70
    64
 10
0.0
 20
0.0
 30
0.0
  0
LINE
  5
299
100
AcDbEntity
  8
MAIN0
  6
BYBLOCK
 62
0
100
AcDbLine
 10
5.750000394522431
 20
-127.1592889844787
 30
0.0000000000000000
 11
-172.0000000000648
 21
-127.1592889844040
 31
0.0000000000000000
  0
LINE
  5
29A
100
AcDbEntity
  8
MAIN0
  6
BYBLOCK
 62
0
100
AcDbLine
 10
-162.0000000000661
 20
-130.1592891036175
 30
0.0000000000000000
 11
-172.0000000000648
 21
-127.1592889844040
 31
0.0000000000000000
  0
LINE
  5
29B
100
AcDbEntity
  8
MAIN0
  6
BYBLOCK
 62
0
100
AcDbLine
 10
-172.0000000000648
 20
-127.1592889844040
 30
0.0000000000000000
 11
-162.0000000000636
 21
-124.1592888651989
 31
0.0000000000000000
  0
LINE
  5
29C
100
AcDbEntity
  8
MAIN0
  6
BYBLOCK
 62
0
100
AcDbLine
 10
-171.9999999999961
 20
36.24721014057602
 30
0.0000000000000000
 11
-172.0000000000689
 21
-137.1592889844040
 31
0.0000000000000000
  0
MTEXT
  5
29D
100
AcDbEntity
  8
MAIN0
  6
BYBLOCK
 62
0
100
AcDbMText
 10
-5.252331902738661e-011
 20
-116.9092892228949
 30
0.0000000000000000
 40
15.49999952316284
 41
0.0000000000000000
 71
     5
 72
     1
  1
\A1;（344）
 11
1.000000000000000
 21
0.0000000000000000
 31
0.0000000000000000
  7
KNJYOKO
  0
ENDBLK
  5
29E
100
AcDbEntity
  8
MAIN0
  6
CONTINUOUS
 62
3
100
AcDbBlockEnd
  0
BLOCK
  5
2A0
100
AcDbEntity
  8
MAIN0
  6
CONTINUOUS
 62
3
100
AcDbBlockBegin
  2
*D43
 70
    65
 10
0.0
 20
0.0
 30
0.0
  0
LINE
  5
2A1
100
AcDbEntity
  8
MAIN0
  6
BYBLOCK
 62
0
100
AcDbLine
 10
1779.998711548679
 20
340.0291378143348
 30
0.0000000000000000
 11
1823.704000415595
 21
340.0291378143445
 31
0.0000000000000000
  0
LINE
  5
2A2
100
AcDbEntity
  8
MAIN0
  6
BYBLOCK
 62
0
100
AcDbLine
 10
1813.704000415595
 20
340.0291378143423
 30
0.0000000000000000
 11
1813.704000415595
 21
357.5291378143422
 31
0.0000000000000000
  0
INSERT
  5
2A3
100
AcDbEntity
  8
MAIN0
  6
BYBLOCK
 62
0
100
AcDbBlockReference
  2
_OPEN
 10
1813.704000415595
 20
340.0291378143423
 30
0.0000000000000000
 41
10.00000000000000
 42
10.00000000000000
 43
10.00000000000000
 50
90.00000000000000
  0
INSERT
  5
2A4
100
AcDbEntity
  8
MAIN0
  6
BYBLOCK
 62
0
100
AcDbBlockReference
  2
_OPEN
 10
1813.704000415595
 20
357.5291378143422
 30
0.0000000000000000
 41
10.00000000000000
 42
10.00000000000000
 43
10.00000000000000
 50
270.0000000000000
  0
LINE
  5
2A5
100
AcDbEntity
  8
MAIN0
  6
BYBLOCK
 62
0
100
AcDbLine
 10
1813.704000415595
 20
330.0291378143423
 30
0.0000000000000000
 11
1813.704000415595
 21
289.5727468815181
 31
0.0000000000000000
  0
LINE
  5
2A6
100
AcDbEntity
  8
MAIN0
  6
BYBLOCK
 62
0
100
AcDbLine
 10
1813.704000415595
 20
367.5291378143422
 30
0.0000000000000000
 11
1813.704000415595
 21
372.5291378143422
 31
0.0000000000000000
  0
LINE
  5
2A7
100
AcDbEntity
  8
MAIN0
  6
BYBLOCK
 62
0
100
AcDbLine
 10
1779.998711548667
 20
357.5291378143348
 30
0.0000000000000000
 11
1823.704000415595
 21
357.5291378143444
 31
0.0000000000000000
  0
MTEXT
  5
2A8
100
AcDbEntity
  8
MAIN0
  6
BYBLOCK
 62
0
100
AcDbMText
 10
1803.454000654013
 20
307.8227473583552
 30
0.0000000000000000
 40
15.49999952316284
 41
0.0000000000000000
 71
     5
 72
     1
  1
\A1;17.5
 11
6.123233995736766e-017
 21
1.000000000000000
 31
0.0000000000000000
  7
STANDARD
  0
ENDBLK
  5
2A9
100
AcDbEntity
  8
MAIN0
  6
CONTINUOUS
 62
3
100
AcDbBlockEnd
  0
BLOCK
  5
2AB
100
AcDbEntity
  8
MAIN0
  6
CONTINUOUS
 62
3
100
AcDbBlockBegin
  2
*D44
 70
    65
 10
0.0
 20
0.0
 30
0.0
  0
LINE
  5
2AC
100
AcDbEntity
  8
MAIN0
  6
BYBLOCK
 62
0
100
AcDbLine
 10
1745.998711489078
 20
330.5291377547376
 30
0.0000000000000000
 11
1745.998711489078
 21
277.8935253422768
 31
0.0000000000000000
  0
LINE
  5
2AD
100
AcDbEntity
  8
MAIN0
  6
BYBLOCK
 62
0
100
AcDbLine
 10
1745.998711489078
 20
287.8935253422768
 30
0.0000000000000000
 11
1775.998711489078
 21
287.8935253422768
 31
0.0000000000000000
  0
INSERT
  5
2AE
100
AcDbEntity
  8
MAIN0
  6
BYBLOCK
 62
0
100
AcDbBlockReference
  2
_OPEN
 10
1745.998711489078
 20
287.8935253422768
 30
0.0000000000000000
 41
10.00000000000000
 42
10.00000000000000
 43
10.00000000000000
 50
0.0000000000000000
  0
INSERT
  5
2AF
100
AcDbEntity
  8
MAIN0
  6
BYBLOCK
 62
0
100
AcDbBlockReference
  2
_OPEN
 10
1775.998711489078
 20
287.8935253422768
 30
0.0000000000000000
 41
10.00000000000000
 42
10.00000000000000
 43
10.00000000000000
 50
180.0000000000000
  0
LINE
  5
2B0
100
AcDbEntity
  8
MAIN0
  6
BYBLOCK
 62
0
100
AcDbLine
 10
1735.998711489078
 20
287.8935253422768
 30
0.0000000000000000
 11
1730.998711489078
 21
287.8935253422768
 31
0.0000000000000000
  0
LINE
  5
2B1
100
AcDbEntity
  8
MAIN0
  6
BYBLOCK
 62
0
100
AcDbLine
 10
1785.998711489078
 20
287.8935253422768
 30
0.0000000000000000
 11
1790.998711489078
 21
287.8935253422768
 31
0.0000000000000000
  0
LINE
  5
2B2
100
AcDbEntity
  8
MAIN0
  6
BYBLOCK
 62
0
100
AcDbLine
 10
1775.998711489078
 20
330.5291377547293
 30
0.0000000000000000
 11
1775.998711489078
 21
277.8935253422768
 31
0.0000000000000000
  0
MTEXT
  5
2B3
100
AcDbEntity
  8
MAIN0
  6
BYBLOCK
 62
0
100
AcDbMText
 10
1760.998711489078
 20
296.1435251038582
 30
0.0000000000000000
 40
15.49999952316284
 41
0.0000000000000000
 71
     5
 72
     1
  1
\A1;30
 11
1.000000000000000
 21
0.0000000000000000
 31
0.0000000000000000
  7
STANDARD
  0
ENDBLK
  5
2B4
100
AcDbEntity
  8
MAIN0
  6
CONTINUOUS
 62
3
100
AcDbBlockEnd
  0
BLOCK
  5
2B6
100
AcDbEntity
  8
MAIN0
  6
CONTINUOUS
 62
3
100
AcDbBlockBegin
  2
*D45
 70
    65
 10
0.0
 20
0.0
 30
0.0
  0
LINE
  5
2B7
100
AcDbEntity
  8
MAIN0
  6
BYBLOCK
 62
0
100
AcDbLine
 10
1741.998711429473
 20
334.5291378143423
 30
0.0000000000000000
 11
1718.726235443728
 21
334.5291378143423
 31
0.0000000000000000
  0
LINE
  5
2B8
100
AcDbEntity
  8
MAIN0
  6
BYBLOCK
 62
0
100
AcDbLine
 10
1728.726235443728
 20
334.5291378143423
 30
0.0000000000000000
 11
1728.726235443728
 21
363.0291378143421
 31
0.0000000000000000
  0
INSERT
  5
2B9
100
AcDbEntity
  8
MAIN0
  6
BYBLOCK
 62
0
100
AcDbBlockReference
  2
_OPEN
 10
1728.726235443728
 20
334.5291378143423
 30
0.0000000000000000
 41
10.00000000000000
 42
10.00000000000000
 43
10.00000000000000
 50
90.00000000000000
  0
INSERT
  5
2BA
100
AcDbEntity
  8
MAIN0
  6
BYBLOCK
 62
0
100
AcDbBlockReference
  2
_OPEN
 10
1728.726235443728
 20
363.0291378143421
 30
0.0000000000000000
 41
10.00000000000000
 42
10.00000000000000
 43
10.00000000000000
 50
270.0000000000000
  0
LINE
  5
2BB
100
AcDbEntity
  8
MAIN0
  6
BYBLOCK
 62
0
100
AcDbLine
 10
1728.726235443728
 20
324.5291378143423
 30
0.0000000000000000
 11
1728.726235443728
 21
285.7528851670430
 31
0.0000000000000000
  0
LINE
  5
2BC
100
AcDbEntity
  8
MAIN0
  6
BYBLOCK
 62
0
100
AcDbLine
 10
1728.726235443728
 20
373.0291378143421
 30
0.0000000000000000
 11
1728.726235443728
 21
378.0291378143421
 31
0.0000000000000000
  0
LINE
  5
2BD
100
AcDbEntity
  8
MAIN0
  6
BYBLOCK
 62
0
100
AcDbLine
 10
1741.998711429453
 20
363.0291378143421
 30
0.0000000000000000
 11
1718.726235443728
 21
363.0291378143421
 31
0.0000000000000000
  0
MTEXT
  5
2BE
100
AcDbEntity
  8
MAIN0
  6
BYBLOCK
 62
0
100
AcDbMText
 10
1718.476235682147
 20
304.0028856438801
 30
0.0000000000000000
 40
15.49999952316284
 41
0.0000000000000000
 71
     5
 72
     1
  1
\A1;28.5
 11
6.123233995736766e-017
 21
1.000000000000000
 31
0.0000000000000000
  7
STANDARD
  0
ENDBLK
  5
2BF
100
AcDbEntity
  8
MAIN0
  6
CONTINUOUS
 62
3
100
AcDbBlockEnd
  0
BLOCK
  5
3C4
100
AcDbEntity
  8
MAIN0
  6
CONTINUOUS
 62
3
100
AcDbBlockBegin
  2
*D46
 70
    65
 10
0.0
 20
0.0
 30
0.0
  0
LINE
  5
3C5
100
AcDbEntity
  8
MAIN0
  6
BYBLOCK
 62
0
100
AcDbLine
 10
550.1981702676704
 20
1042.152187923395
 30
0.0000000000000000
 11
477.1020503451706
 21
1042.152187923395
 31
0.0000000000000000
  0
LINE
  5
3C6
100
AcDbEntity
  8
MAIN0
  6
BYBLOCK
 62
0
100
AcDbLine
 10
487.1020503451706
 20
1052.152187923395
 30
0.0000000000000000
 11
487.1020503451706
 21
1132.152187923279
 31
0.0000000000000000
  0
INSERT
  5
3C7
100
AcDbEntity
  8
MAIN0
  6
BYBLOCK
 62
0
100
AcDbBlockReference
  2
_OPEN
 10
487.1020503451706
 20
1042.152187923395
 30
0.0000000000000000
 41
10.00000000000000
 42
10.00000000000000
 43
10.00000000000000
 50
270.0000000000000
  0
INSERT
  5
3C8
100
AcDbEntity
  8
MAIN0
  6
BYBLOCK
 62
0
100
AcDbBlockReference
  2
_OPEN
 10
487.1020503451706
 20
1142.152187923279
 30
0.0000000000000000
 41
10.00000000000000
 42
10.00000000000000
 43
10.00000000000000
 50
90.00000000000000
  0
LINE
  5
3C9
100
AcDbEntity
  8
MAIN0
  6
BYBLOCK
 62
0
100
AcDbLine
 10
550.1981702676706
 20
1142.152187923279
 30
0.0000000000000000
 11
477.1020503451706
 21
1142.152187923279
 31
0.0000000000000000
  0
MTEXT
  5
3CA
100
AcDbEntity
  8
MAIN0
  6
BYBLOCK
 62
0
100
AcDbMText
 10
478.8520505835892
 20
1092.152187923337
 30
0.0000000000000000
 40
15.49999952316284
 41
0.0000000000000000
 71
     5
 72
     1
  1
\A1;100
 11
6.123233995736766e-017
 21
1.000000000000000
 31
0.0000000000000000
  7
STANDARD
  0
ENDBLK
  5
3CB
100
AcDbEntity
  8
MAIN0
  6
CONTINUOUS
 62
3
100
AcDbBlockEnd
  0
BLOCK
  5
3CD
100
AcDbEntity
  8
MAIN0
  6
CONTINUOUS
 62
3
100
AcDbBlockBegin
  2
*D47
 70
    65
 10
0.0
 20
0.0
 30
0.0
  0
LINE
  5
3CE
100
AcDbEntity
  8
MAIN0
  6
BYBLOCK
 62
0
100
AcDbLine
 10
561.8648369939418
 20
1030.485521197124
 30
0.0000000000000000
 11
561.8648369939419
 21
929.7064185512329
 31
0.0000000000000000
  0
LINE
  5
3CF
100
AcDbEntity
  8
MAIN0
  6
BYBLOCK
 62
0
100
AcDbLine
 10
571.8648369939419
 20
939.7064185512329
 30
0.0000000000000000
 11
621.8648369939418
 21
939.7064185512329
 31
0.0000000000000000
  0
INSERT
  5
3D0
100
AcDbEntity
  8
MAIN0
  6
BYBLOCK
 62
0
100
AcDbBlockReference
  2
_OPEN
 10
561.8648369939419
 20
939.7064185512329
 30
0.0000000000000000
 41
10.00000000000000
 42
10.00000000000000
 43
10.00000000000000
 50
180.0000000000000
  0
INSERT
  5
3D1
100
AcDbEntity
  8
MAIN0
  6
BYBLOCK
 62
0
100
AcDbBlockReference
  2
_OPEN
 10
631.8648369939418
 20
939.7064185512329
 30
0.0000000000000000
 41
10.00000000000000
 42
10.00000000000000
 43
10.00000000000000
 50
0.0000000000000000
  0
LINE
  5
3D2
100
AcDbEntity
  8
MAIN0
  6
BYBLOCK
 62
0
100
AcDbLine
 10
631.8648369939419
 20
1030.485521197124
 30
0.0000000000000000
 11
631.8648369939418
 21
929.7064185512329
 31
0.0000000000000000
  0
MTEXT
  5
3D3
100
AcDbEntity
  8
MAIN0
  6
BYBLOCK
 62
0
100
AcDbMText
 10
596.8648369939418
 20
947.9564183128143
 30
0.0000000000000000
 40
15.49999952316284
 41
0.0000000000000000
 71
     5
 72
     1
  1
\A1;70
 11
1.000000000000000
 21
0.0000000000000000
 31
0.0000000000000000
  7
STANDARD
  0
ENDBLK
  5
3D4
100
AcDbEntity
  8
MAIN0
  6
CONTINUOUS
 62
3
100
AcDbBlockEnd
  0
BLOCK
  5
3D6
100
AcDbEntity
  8
MAIN0
  6
CONTINUOUS
 62
3
100
AcDbBlockBegin
  2
*D48
 70
    65
 10
0.0
 20
0.0
 30
0.0
  0
LINE
  5
3D7
100
AcDbEntity
  8
MAIN0
  6
BYBLOCK
 62
0
100
AcDbLine
 10
631.8648369939419
 20
1030.485521197124
 30
0.0000000000000000
 11
631.8648369939418
 21
929.7064185512329
 31
0.0000000000000000
  0
LINE
  5
3D8
100
AcDbEntity
  8
MAIN0
  6
BYBLOCK
 62
0
100
AcDbLine
 10
631.8648369939418
 20
939.7064185512329
 30
0.0000000000000000
 11
646.8648369939421
 21
939.7064185512329
 31
0.0000000000000000
  0
INSERT
  5
3D9
100
AcDbEntity
  8
MAIN0
  6
BYBLOCK
 62
0
100
AcDbBlockReference
  2
_OPEN
 10
631.8648369939418
 20
939.7064185512329
 30
0.0000000000000000
 41
10.00000000000000
 42
10.00000000000000
 43
10.00000000000000
 50
0.0000000000000000
  0
INSERT
  5
3DA
100
AcDbEntity
  8
MAIN0
  6
BYBLOCK
 62
0
100
AcDbBlockReference
  2
_OPEN
 10
646.8648369939421
 20
939.7064185512329
 30
0.0000000000000000
 41
10.00000000000000
 42
10.00000000000000
 43
10.00000000000000
 50
180.0000000000000
  0
LINE
  5
3DB
100
AcDbEntity
  8
MAIN0
  6
BYBLOCK
 62
0
100
AcDbLine
 10
621.8648369939418
 20
939.7064185512329
 30
0.0000000000000000
 11
616.8648369939418
 21
939.7064185512329
 31
0.0000000000000000
  0
LINE
  5
3DC
100
AcDbEntity
  8
MAIN0
  6
BYBLOCK
 62
0
100
AcDbLine
 10
656.8648369939421
 20
939.7064185512329
 30
0.0000000000000000
 11
677.9513506475610
 21
939.7064185512329
 31
0.0000000000000000
  0
LINE
  5
3DD
100
AcDbEntity
  8
MAIN0
  6
BYBLOCK
 62
0
100
AcDbLine
 10
646.8648369939421
 20
988.6521878637725
 30
0.0000000000000000
 11
646.8648369939421
 21
929.7064185512329
 31
0.0000000000000000
  0
MTEXT
  5
3DE
100
AcDbEntity
  8
MAIN0
  6
BYBLOCK
 62
0
100
AcDbMText
 10
667.7013508859795
 20
949.9564183128143
 30
0.0000000000000000
 40
15.49999952316284
 41
0.0000000000000000
 71
     5
 72
     1
  1
\A1;15
 11
1.000000000000000
 21
0.0000000000000000
 31
0.0000000000000000
  7
STANDARD
  0
ENDBLK
  5
3DF
100
AcDbEntity
  8
MAIN0
  6
CONTINUOUS
 62
3
100
AcDbBlockEnd
  0
BLOCK
  5
3F3
100
AcDbEntity
  8
MAIN0
  6
CONTINUOUS
 62
3
100
AcDbBlockBegin
  2
*D49
 70
    65
 10
0.0
 20
0.0
 30
0.0
  0
LINE
  5
3F4
100
AcDbEntity
  8
MAIN0
  6
BYBLOCK
 62
0
100
AcDbLine
 10
961.8648369939413
 20
1195.552187982945
 30
0.0000000000000000
 11
961.8648369939413
 21
1241.376512278310
 31
0.0000000000000000
  0
LINE
  5
3F5
100
AcDbEntity
  8
MAIN0
  6
BYBLOCK
 62
0
100
AcDbLine
 10
971.8648369939413
 20
1231.376512278310
 30
0.0000000000000000
 11
1000.864836994170
 21
1231.376512278310
 31
0.0000000000000000
  0
INSERT
  5
3F6
100
AcDbEntity
  8
MAIN0
  6
BYBLOCK
 62
0
100
AcDbBlockReference
  2
_OPEN
 10
961.8648369939413
 20
1231.376512278310
 30
0.0000000000000000
 41
10.00000000000000
 42
10.00000000000000
 43
10.00000000000000
 50
180.0000000000000
  0
INSERT
  5
3F7
100
AcDbEntity
  8
MAIN0
  6
BYBLOCK
 62
0
100
AcDbBlockReference
  2
_OPEN
 10
1010.864836994170
 20
1231.376512278310
 30
0.0000000000000000
 41
10.00000000000000
 42
10.00000000000000
 43
10.00000000000000
 50
0.0000000000000000
  0
LINE
  5
3F8
100
AcDbEntity
  8
MAIN0
  6
BYBLOCK
 62
0
100
AcDbLine
 10
1010.864836994170
 20
1107.818854649612
 30
0.0000000000000000
 11
1010.864836994170
 21
1241.376512278310
 31
0.0000000000000000
  0
MTEXT
  5
3F9
100
AcDbEntity
  8
MAIN0
  6
BYBLOCK
 62
0
100
AcDbMText
 10
986.3648369940559
 20
1239.626512039891
 30
0.0000000000000000
 40
15.49999952316284
 41
0.0000000000000000
 71
     5
 72
     1
  1
\A1;49
 11
1.000000000000000
 21
0.0000000000000000
 31
0.0000000000000000
  7
STANDARD
  0
ENDBLK
  5
3FA
100
AcDbEntity
  8
MAIN0
  6
CONTINUOUS
 62
3
100
AcDbBlockEnd
  0
BLOCK
  5
3FC
100
AcDbEntity
  8
MAIN0
  6
CONTINUOUS
 62
3
100
AcDbBlockBegin
  2
*D50
 70
    65
 10
0.0
 20
0.0
 30
0.0
  0
LINE
  5
3FD
100
AcDbEntity
  8
MAIN0
  6
BYBLOCK
 62
0
100
AcDbLine
 10
1048.531503720671
 20
1017.152187923340
 30
0.0000000000000000
 11
1108.392003661494
 21
1017.152187923340
 31
0.0000000000000000
  0
LINE
  5
3FE
100
AcDbEntity
  8
MAIN0
  6
BYBLOCK
 62
0
100
AcDbLine
 10
1098.392003661494
 20
1027.152187923340
 30
0.0000000000000000
 11
1098.392003661494
 21
1157.152187923340
 31
0.0000000000000000
  0
INSERT
  5
3FF
100
AcDbEntity
  8
MAIN0
  6
BYBLOCK
 62
0
100
AcDbBlockReference
  2
_OPEN
 10
1098.392003661494
 20
1017.152187923340
 30
0.0000000000000000
 41
10.00000000000000
 42
10.00000000000000
 43
10.00000000000000
 50
270.0000000000000
  0
INSERT
  5
400
100
AcDbEntity
  8
MAIN0
  6
BYBLOCK
 62
0
100
AcDbBlockReference
  2
_OPEN
 10
1098.392003661494
 20
1167.152187923340
 30
0.0000000000000000
 41
10.00000000000000
 42
10.00000000000000
 43
10.00000000000000
 50
90.00000000000000
  0
LINE
  5
401
100
AcDbEntity
  8
MAIN0
  6
BYBLOCK
 62
0
100
AcDbLine
 10
1048.531503720671
 20
1167.152187923340
 30
0.0000000000000000
 11
1108.392003661494
 21
1167.152187923340
 31
0.0000000000000000
  0
MTEXT
  5
402
100
AcDbEntity
  8
MAIN0
  6
BYBLOCK
 62
0
100
AcDbMText
 10
1090.142003899912
 20
1092.152187923340
 30
0.0000000000000000
 40
15.49999952316284
 41
0.0000000000000000
 71
     5
 72
     1
  1
\A1;150
 11
6.123233995736766e-017
 21
1.000000000000000
 31
0.0000000000000000
  7
STANDARD
  0
ENDBLK
  5
403
100
AcDbEntity
  8
MAIN0
  6
CONTINUOUS
 62
3
100
AcDbBlockEnd
  0
BLOCK
  5
405
100
AcDbEntity
  8
MAIN0
  6
CONTINUOUS
 62
3
100
AcDbBlockBegin
  2
*D51
 70
    65
 10
0.0
 20
0.0
 30
0.0
  0
LINE
  5
406
100
AcDbEntity
  8
MAIN0
  6
BYBLOCK
 62
0
100
AcDbLine
 10
961.8648369939411
 20
988.7521878637358
 30
0.0000000000000000
 11
961.8648369939411
 21
929.7064185512329
 31
0.0000000000000000
  0
LINE
  5
407
100
AcDbEntity
  8
MAIN0
  6
BYBLOCK
 62
0
100
AcDbLine
 10
961.8648369939411
 20
939.7064185512329
 30
0.0000000000000000
 11
976.8648369944001
 21
939.7064185512329
 31
0.0000000000000000
  0
INSERT
  5
408
100
AcDbEntity
  8
MAIN0
  6
BYBLOCK
 62
0
100
AcDbBlockReference
  2
_OPEN
 10
961.8648369939411
 20
939.7064185512329
 30
0.0000000000000000
 41
10.00000000000000
 42
10.00000000000000
 43
10.00000000000000
 50
0.0000000000000000
  0
INSERT
  5
409
100
AcDbEntity
  8
MAIN0
  6
BYBLOCK
 62
0
100
AcDbBlockReference
  2
_OPEN
 10
976.8648369944001
 20
939.7064185512329
 30
0.0000000000000000
 41
10.00000000000000
 42
10.00000000000000
 43
10.00000000000000
 50
180.0000000000000
  0
LINE
  5
40A
100
AcDbEntity
  8
MAIN0
  6
BYBLOCK
 62
0
100
AcDbLine
 10
951.8648369939411
 20
939.7064185512329
 30
0.0000000000000000
 11
930.1175866704472
 21
939.7064185512329
 31
0.0000000000000000
  0
LINE
  5
40B
100
AcDbEntity
  8
MAIN0
  6
BYBLOCK
 62
0
100
AcDbLine
 10
986.8648369944001
 20
939.7064185512329
 30
0.0000000000000000
 11
991.8648369944001
 21
939.7064185512329
 31
0.0000000000000000
  0
LINE
  5
40C
100
AcDbEntity
  8
MAIN0
  6
BYBLOCK
 62
0
100
AcDbLine
 10
976.8648369944001
 20
1005.485521197069
 30
0.0000000000000000
 11
976.8648369944001
 21
929.7064185512329
 31
0.0000000000000000
  0
MTEXT
  5
40D
100
AcDbEntity
  8
MAIN0
  6
BYBLOCK
 62
0
100
AcDbMText
 10
940.3675864320286
 20
949.9564183128143
 30
0.0000000000000000
 40
15.49999952316284
 41
0.0000000000000000
 71
     5
 72
     1
  1
\A1;15
 11
1.000000000000000
 21
0.0000000000000000
 31
0.0000000000000000
  7
STANDARD
  0
ENDBLK
  5
40E
100
AcDbEntity
  8
MAIN0
  6
CONTINUOUS
 62
3
100
AcDbBlockEnd
  0
BLOCK
  5
410
100
AcDbEntity
  8
MAIN0
  6
CONTINUOUS
 62
3
100
AcDbBlockBegin
  2
*D52
 70
    65
 10
0.0
 20
0.0
 30
0.0
  0
LINE
  5
411
100
AcDbEntity
  8
MAIN0
  6
BYBLOCK
 62
0
100
AcDbLine
 10
976.8648369944001
 20
1005.485521197069
 30
0.0000000000000000
 11
976.8648369944001
 21
929.7064185512329
 31
0.0000000000000000
  0
LINE
  5
412
100
AcDbEntity
  8
MAIN0
  6
BYBLOCK
 62
0
100
AcDbLine
 10
986.8648369944001
 20
939.7064185512329
 30
0.0000000000000000
 11
1026.864836994400
 21
939.7064185512329
 31
0.0000000000000000
  0
INSERT
  5
413
100
AcDbEntity
  8
MAIN0
  6
BYBLOCK
 62
0
100
AcDbBlockReference
  2
_OPEN
 10
976.8648369944001
 20
939.7064185512329
 30
0.0000000000000000
 41
10.00000000000000
 42
10.00000000000000
 43
10.00000000000000
 50
180.0000000000000
  0
INSERT
  5
414
100
AcDbEntity
  8
MAIN0
  6
BYBLOCK
 62
0
100
AcDbBlockReference
  2
_OPEN
 10
1036.864836994400
 20
939.7064185512329
 30
0.0000000000000000
 41
10.00000000000000
 42
10.00000000000000
 43
10.00000000000000
 50
0.0000000000000000
  0
LINE
  5
415
100
AcDbEntity
  8
MAIN0
  6
BYBLOCK
 62
0
100
AcDbLine
 10
1036.864836994400
 20
1005.485521197069
 30
0.0000000000000000
 11
1036.864836994400
 21
929.7064185512329
 31
0.0000000000000000
  0
MTEXT
  5
416
100
AcDbEntity
  8
MAIN0
  6
BYBLOCK
 62
0
100
AcDbMText
 10
1006.864836994400
 20
947.9564183128143
 30
0.0000000000000000
 40
15.49999952316284
 41
0.0000000000000000
 71
     5
 72
     1
  1
\A1;60
 11
1.000000000000000
 21
0.0000000000000000
 31
0.0000000000000000
  7
STANDARD
  0
ENDBLK
  5
417
100
AcDbEntity
  8
MAIN0
  6
CONTINUOUS
 62
3
100
AcDbBlockEnd
  0
BLOCK
  5
47A
100
AcDbEntity
  8
MAIN0
  6
CONTINUOUS
 62
3
100
AcDbBlockBegin
  2
*D53
 70
    65
 10
0.0
 20
0.0
 30
0.0
  0
LINE
  5
47B
100
AcDbEntity
  8
MAIN0
  6
BYBLOCK
 62
0
100
AcDbLine
 10
1739.498711429517
 20
559.0681558879388
 30
0.0000000000000000
 11
1682.998711488342
 21
559.0681558879388
 31
0.0000000000000000
  0
LINE
  5
47C
100
AcDbEntity
  8
MAIN0
  6
BYBLOCK
 62
0
100
AcDbLine
 10
1692.998711488342
 20
559.0681558879388
 30
0.0000000000000000
 11
1692.998711488342
 21
554.0681558879388
 31
0.0000000000000000
  0
INSERT
  5
47D
100
AcDbEntity
  8
MAIN0
  6
BYBLOCK
 62
0
100
AcDbBlockReference
  2
_OPEN
 10
1692.998711488342
 20
559.0681558879388
 30
0.0000000000000000
 41
10.00000000000000
 42
10.00000000000000
 43
10.00000000000000
 50
270.0000000000000
  0
INSERT
  5
47E
100
AcDbEntity
  8
MAIN0
  6
BYBLOCK
 62
0
100
AcDbBlockReference
  2
_OPEN
 10
1692.998711488342
 20
554.0681558879388
 30
0.0000000000000000
 41
10.00000000000000
 42
10.00000000000000
 43
10.00000000000000
 50
90.00000000000000
  0
LINE
  5
47F
100
AcDbEntity
  8
MAIN0
  6
BYBLOCK
 62
0
100
AcDbLine
 10
1692.998711488342
 20
569.0681558879388
 30
0.0000000000000000
 11
1692.998711488342
 21
588.8367458423542
 31
0.0000000000000000
  0
LINE
  5
480
100
AcDbEntity
  8
MAIN0
  6
BYBLOCK
 62
0
100
AcDbLine
 10
1692.998711488342
 20
544.0681558879388
 30
0.0000000000000000
 11
1692.998711488342
 21
539.0681558879388
 31
0.0000000000000000
  0
LINE
  5
481
100
AcDbEntity
  8
MAIN0
  6
BYBLOCK
 62
0
100
AcDbLine
 10
1708.998711429517
 20
554.0681558879388
 30
0.0000000000000000
 11
1682.998711488342
 21
554.0681558879388
 31
0.0000000000000000
  0
MTEXT
  5
482
100
AcDbEntity
  8
MAIN0
  6
BYBLOCK
 62
0
100
AcDbMText
 10
1682.748711726761
 20
583.8367458423543
 30
0.0000000000000000
 40
15.49999952316284
 41
0.0000000000000000
 71
     5
 72
     1
  1
\A1;5
 11
6.123233995736766e-017
 21
1.000000000000000
 31
0.0000000000000000
  7
STANDARD
  0
ENDBLK
  5
483
100
AcDbEntity
  8
MAIN0
  6
CONTINUOUS
 62
3
100
AcDbBlockEnd
  0
BLOCK
  5
485
100
AcDbEntity
  8
MAIN0
  6
CONTINUOUS
 62
3
100
AcDbBlockBegin
  2
*D54
 70
    65
 10
0.0
 20
0.0
 30
0.0
  0
LINE
  5
486
100
AcDbEntity
  8
MAIN0
  6
BYBLOCK
 62
0
100
AcDbLine
 10
1708.998711429517
 20
554.0681558879388
 30
0.0000000000000000
 11
1682.998711488342
 21
554.0681558879388
 31
0.0000000000000000
  0
LINE
  5
487
100
AcDbEntity
  8
MAIN0
  6
BYBLOCK
 62
0
100
AcDbLine
 10
1692.998711488342
 20
544.0681558879388
 30
0.0000000000000000
 11
1692.998711488342
 21
534.0681558879388
 31
0.0000000000000000
  0
INSERT
  5
488
100
AcDbEntity
  8
MAIN0
  6
BYBLOCK
 62
0
100
AcDbBlockReference
  2
_OPEN
 10
1692.998711488342
 20
554.0681558879388
 30
0.0000000000000000
 41
10.00000000000000
 42
10.00000000000000
 43
10.00000000000000
 50
90.00000000000000
  0
INSERT
  5
489
100
AcDbEntity
  8
MAIN0
  6
BYBLOCK
 62
0
100
AcDbBlockReference
  2
_OPEN
 10
1692.998711488342
 20
524.0681558879388
 30
0.0000000000000000
 41
10.00000000000000
 42
10.00000000000000
 43
10.00000000000000
 50
270.0000000000000
  0
LINE
  5
48A
100
AcDbEntity
  8
MAIN0
  6
BYBLOCK
 62
0
100
AcDbLine
 10
1692.998711488342
 20
524.0681558879388
 30
0.0000000000000000
 11
1692.998711488342
 21
499.1708101733622
 31
0.0000000000000000
  0
LINE
  5
48B
100
AcDbEntity
  8
MAIN0
  6
BYBLOCK
 62
0
100
AcDbLine
 10
1710.698711429517
 20
524.0681558879388
 30
0.0000000000000000
 11
1682.998711488342
 21
524.0681558879388
 31
0.0000000000000000
  0
MTEXT
  5
48C
100
AcDbEntity
  8
MAIN0
  6
BYBLOCK
 62
0
100
AcDbMText
 10
1682.748711726761
 20
509.4208099349435
 30
0.0000000000000000
 40
15.49999952316284
 41
0.0000000000000000
 71
     5
 72
     1
  1
\A1;30
 11
6.123233995736766e-017
 21
1.000000000000000
 31
0.0000000000000000
  7
STANDARD
  0
ENDBLK
  5
48D
100
AcDbEntity
  8
MAIN0
  6
CONTINUOUS
 62
3
100
AcDbBlockEnd
  0
BLOCK
  5
49B
100
AcDbEntity
  8
MAIN0
  6
CONTINUOUS
 62
3
100
AcDbBlockBegin
  2
*D55
 70
    65
 10
0.0
 20
0.0
 30
0.0
  0
LINE
  5
49C
100
AcDbEntity
  8
MAIN0
  6
BYBLOCK
 62
0
100
AcDbLine
 10
1612.917532644746
 20
558.0681559474569
 30
0.0000000000000000
 11
1612.917532644746
 21
605.4813900169047
 31
0.0000000000000000
  0
LINE
  5
49D
100
AcDbEntity
  8
MAIN0
  6
BYBLOCK
 62
0
100
AcDbLine
 10
1622.917532644746
 20
595.4813900169047
 30
0.0000000000000000
 11
1647.917532644746
 21
595.4813900169047
 31
0.0000000000000000
  0
INSERT
  5
49E
100
AcDbEntity
  8
MAIN0
  6
BYBLOCK
 62
0
100
AcDbBlockReference
  2
_OPEN
 10
1612.917532644746
 20
595.4813900169047
 30
0.0000000000000000
 41
10.00000000000000
 42
10.00000000000000
 43
10.00000000000000
 50
180.0000000000000
  0
INSERT
  5
49F
100
AcDbEntity
  8
MAIN0
  6
BYBLOCK
 62
0
100
AcDbBlockReference
  2
_OPEN
 10
1657.917532644746
 20
595.4813900169047
 30
0.0000000000000000
 41
10.00000000000000
 42
10.00000000000000
 43
10.00000000000000
 50
0.0000000000000000
  0
LINE
  5
4A0
100
AcDbEntity
  8
MAIN0
  6
BYBLOCK
 62
0
100
AcDbLine
 10
1657.917532644746
 20
558.0681559474431
 30
0.0000000000000000
 11
1657.917532644746
 21
605.4813900169047
 31
0.0000000000000000
  0
MTEXT
  5
4A1
100
AcDbEntity
  8
MAIN0
  6
BYBLOCK
 62
0
100
AcDbMText
 10
1635.417532644746
 20
603.7313897784861
 30
0.0000000000000000
 40
15.49999952316284
 41
0.0000000000000000
 71
     5
 72
     1
  1
\A1;45
 11
1.000000000000000
 21
0.0000000000000000
 31
0.0000000000000000
  7
STANDARD
  0
ENDBLK
  5
4A2
100
AcDbEntity
  8
MAIN0
  6
CONTINUOUS
 62
3
100
AcDbBlockEnd
  0
ENDSEC
  0
SECTION
  2
ENTITIES
  0
LEADER
  5
46
100
AcDbEntity
  8
MAIN0
  6
CONTINUOUS
 62
3
100
AcDbLeader
  3
MAIN001
 73
     0
 75
     1
 40
15.49999952316284
 41
179.4490052928925
 76
     3
 10
593.4082190195369
 20
699.0193874515037
 30
0.0000000000000000
 10
532.5754707335475
 20
843.4414023160703
 30
0.0000000000000000
 10
522.9444710124973
 20
843.4414023160704
 30
0.0000000000000000
340
47
213
0.0000000000000000
223
-2.500000000000000
233
0.0000000000000000
1001
ACAD
1000
DSTYLE
1002
{
1070
   147
1040
0.0
1070
    77
1070
     1
1070
   173
1070
     1
1070
     6
1000
_OPEN
1070
     7
1000
_OPEN
1002
}
  0
MTEXT
  5
47
102
{ACAD_REACTORS
330
46
102
}
100
AcDbEntity
  8
MAIN0
  6
CONTINUOUS
 62
3
100
AcDbMText
 10
343.4954657196047
 20
861.4414018392332
 30
0.0000000000000000
 40
15.49999952316284
 41
0.0000000000000000
 71
     1
 72
     1
  1
{\H0.93x;{2×2-M10 深さ20\P        DEPTH}}
 11
1.000000000000000
 21
0.0000000000000000
 31
0.0000000000000000
  7
KNJYOKO
  0
LEADER
  5
48
100
AcDbEntity
  8
MAIN0
  6
CONTINUOUS
 62
3
100
AcDbLeader
  3
MAIN001
 73
     0
 74
     0
 75
     1
 40
15.49999952316284
 41
99.20100284910200
 76
     3
 10
1248.093715354255
 20
581.4147895655405
 30
0.0000000000000000
 10
1282.579133516213
 20
716.1948390448650
 30
0.0000000000000000
 10
1292.208133237263
 20
716.1948390448650
 30
0.0000000000000000
340
49
213
0.0000000000000000
223
-2.500000000000000
233
0.0000000000000000
1001
ACAD
1000
DSTYLE
1002
{
1070
   147
1040
0.0
1070
    77
1070
     1
1070
   173
1070
     1
1070
     6
1000
_OPEN
1070
     7
1000
_OPEN
1002
}
  0
MTEXT
  5
49
102
{ACAD_REACTORS
330
48
102
}
100
AcDbEntity
  8
MAIN0
  6
CONTINUOUS
 62
3
100
AcDbMText
 10
1292.209133237263
 20
734.1948385680279
 30
0.0000000000000000
 40
15.49999952316284
 41
0.0000000000000000
 71
     1
 72
     1
  1
{\H0.93x;{2×2-M10}}
 11
1.000000000000000
 21
0.0000000000000000
 31
0.0000000000000000
  7
KNJYOKO
  0
DIMENSION
  5
52
100
AcDbEntity
  8
MAIN0
  6
CONTINUOUS
 62
3
100
AcDbDimension
  2
*D0
 10
514.1675257035912
 20
704.0681558856534
 30
0.0000000000000000
 11
513.6675257035912
 21
669.0681558856531
 31
0.0000000000000000
 70
32
  3
MAIN001
100
AcDbAlignedDimension
 13
545.2648369939418
 23
634.0681558856527
 33
0.0000000000000000
 14
545.0648369939416
 24
704.0681558856534
 34
0.0000000000000000
 50
90.00000000000000
100
AcDbRotatedDimension
1001
ACAD
1000
DSTYLE
1002
{
1070
   173
1070
     1
1070
     6
1000
_OPEN
1070
     7
1000
_OPEN
1070
    41
1040
10.000000
1002
}
  0
DIMENSION
  5
5B
100
AcDbEntity
  8
MAIN0
  6
CONTINUOUS
 62
3
100
AcDbDimension
  2
*D1
 10
514.1675257035912
 20
634.0681558856527
 30
0.0000000000000000
 11
513.6675257035912
 21
579.0681558884028
 31
0.0000000000000000
 70
32
  3
MAIN001
100
AcDbAlignedDimension
 13
544.2648369937099
 23
524.0681558911527
 33
0.0000000000000000
 14
545.2648369939418
 24
634.0681558856527
 34
0.0000000000000000
 50
90.00000000000000
100
AcDbRotatedDimension
1001
ACAD
1000
DSTYLE
1002
{
1070
   173
1070
     1
1070
     6
1000
_OPEN
1070
     7
1000
_OPEN
1070
    41
1040
10.000000
1002
}
  0
DIMENSION
  5
64
100
AcDbEntity
  8
MAIN0
  6
CONTINUOUS
 62
3
100
AcDbDimension
  2
*D2
 10
487.1020503451706
 20
704.0681558856534
 30
0.0000000000000000
 11
486.6020503451706
 21
614.0681558884031
 31
0.0000000000000000
 70
32
  3
MAIN001
100
AcDbAlignedDimension
 13
544.2648369937099
 23
524.0681558911527
 33
0.0000000000000000
 14
545.0648369939416
 24
704.0681558856534
 34
0.0000000000000000
 50
90.00000000000000
100
AcDbRotatedDimension
1001
ACAD
1000
DSTYLE
1002
{
1070
   173
1070
     1
1070
     6
1000
_OPEN
1070
     7
1000
_OPEN
1070
    41
1040
10.000000
1002
}
  0
DIMENSION
  5
6D
100
AcDbEntity
  8
MAIN0
  6
CONTINUOUS
 62
3
100
AcDbDimension
  2
*D3
 10
543.8648369937105
 20
386.6616567034807
 30
0.0000000000000000
 11
662.8648369937096
 21
387.1616567034807
 31
0.0000000000000000
 70
32
  3
MAIN001
100
AcDbAlignedDimension
 13
781.8648369937088
 23
510.0784386305738
 33
0.0000000000000000
 14
543.8648369937105
 24
524.4681558911524
 34
0.0000000000000000
100
AcDbRotatedDimension
1001
ACAD
1000
DSTYLE
1002
{
1070
   173
1070
     1
1070
     6
1000
_OPEN
1070
     7
1000
_OPEN
1070
    41
1040
10.000000
1002
}
  0
DIMENSION
  5
76
100
AcDbEntity
  8
MAIN0
  6
CONTINUOUS
 62
3
100
AcDbDimension
  2
*D4
 10
781.8648369937088
 20
386.6616567034807
 30
0.0000000000000000
 11
1180.272991663916
 21
388.6616567034807
 31
0.0000000000000000
 70
160
  3
MAIN001
100
AcDbAlignedDimension
 13
1456.864836994031
 23
574.0681558885649
 33
0.0000000000000000
 14
781.8648369937088
 24
510.0784386305738
 34
0.0000000000000000
100
AcDbRotatedDimension
1001
ACAD
1000
DSTYLE
1002
{
1070
   173
1070
     1
1070
     6
1000
_OPEN
1070
     7
1000
_OPEN
1070
    41
1040
10.000000
1002
}
  0
DIMENSION
  5
7F
100
AcDbEntity
  8
MAIN0
  6
CONTINUOUS
 62
3
100
AcDbDimension
  2
*D5
 10
1456.864836994031
 20
352.8297880026349
 30
0.0000000000000000
 11
1000.364836993871
 21
353.3297880026349
 31
0.0000000000000000
 70
32
  3
MAIN001
100
AcDbAlignedDimension
 13
543.8648369937105
 23
524.4681558911524
 33
0.0000000000000000
 14
1456.864836994031
 24
574.0681558885649
 34
0.0000000000000000
100
AcDbRotatedDimension
1001
ACAD
1000
DSTYLE
1002
{
1070
   173
1070
     1
1070
     6
1000
_OPEN
1070
     7
1000
_OPEN
1070
    41
1040
10.000000
1002
}
  0
DIMENSION
  5
88
100
AcDbEntity
  8
MAIN0
  6
CONTINUOUS
 62
3
100
AcDbDimension
  2
*D6
 10
1485.315494478388
 20
824.0681558885652
 30
0.0000000000000000
 11
1484.815494478388
 21
711.5681558885652
 31
0.0000000000000000
 70
32
  3
MAIN001
100
AcDbAlignedDimension
 13
1495.363408089255
 23
599.0681558885652
 33
0.0000000000000000
 14
1538.626825021137
 24
824.0681558885652
 34
0.0000000000000000
 50
90.00000000000000
100
AcDbRotatedDimension
1001
ACAD
1000
DSTYLE
1002
{
1070
   173
1070
     1
1070
     6
1000
_OPEN
1070
     7
1000
_OPEN
1070
    41
1040
10.000000
1002
}
  0
DIMENSION
  5
93
100
AcDbEntity
  8
MAIN0
  6
CONTINUOUS
 62
3
100
AcDbDimension
  2
*D7
 10
543.8648369941770
 20
782.7964791573173
 30
0.0000000000000000
 11
518.3072893321341
 21
784.7964791573173
 31
0.0000000000000000
 70
160
  3
MAIN001
100
AcDbAlignedDimension
 13
544.8648369939418
 23
703.8681558856529
 33
0.0000000000000000
 14
543.8648369941770
 24
633.0681558855273
 34
0.0000000000000000
100
AcDbRotatedDimension
1001
ACAD
1000
DSTYLE
1002
{
1070
   173
1070
     1
1070
     6
1000
_OPEN
1070
     7
1000
_OPEN
1070
    41
1040
10.000000
1070
   287
1070
     0
1002
}
  0
DIMENSION
  5
9C
100
AcDbEntity
  8
MAIN0
  6
CONTINUOUS
 62
3
100
AcDbDimension
  2
*D8
 10
544.8648369939418
 20
782.7964791573173
 30
0.0000000000000000
 11
595.8648369939418
 21
783.2964791573173
 31
0.0000000000000000
 70
32
  3
MAIN001
100
AcDbAlignedDimension
 13
646.8648369939418
 23
703.5681558856529
 33
0.0000000000000000
 14
544.8648369939418
 24
703.8681558856529
 34
0.0000000000000000
100
AcDbRotatedDimension
1001
ACAD
1000
DSTYLE
1002
{
1070
   173
1070
     1
1070
     6
1000
_OPEN
1070
     7
1000
_OPEN
1070
    41
1040
10.000000
1002
}
  0
DIMENSION
  5
A5
100
AcDbEntity
  8
MAIN0
  6
CONTINUOUS
 62
3
100
AcDbDimension
  2
*D9
 10
646.8648369939418
 20
782.7964791573173
 30
0.0000000000000000
 11
804.3648369939418
 21
783.2964791573173
 31
0.0000000000000000
 70
32
  1
\A1;MAX. 605
  3
MAIN001
100
AcDbAlignedDimension
 13
961.8648369939418
 23
704.0681558858136
 33
0.0000000000000000
 14
646.8648369939418
 24
703.5681558856529
 34
0.0000000000000000
100
AcDbRotatedDimension
1001
ACAD
1000
DSTYLE
1002
{
1070
   173
1070
     1
1070
     6
1000
_OPEN
1070
     7
1000
_OPEN
1070
    41
1040
10.000000
1002
}
  0
DIMENSION
  5
AE
100
AcDbEntity
  8
MAIN0
  6
CONTINUOUS
 62
1
100
AcDbDimension
  2
*D10
 10
961.8648369939418
 20
782.7964791573173
 30
0.0000000000000000
 11
1010.864836993942
 21
783.2964791573173
 31
0.0000000000000000
 70
32
  3
MAIN001
100
AcDbAlignedDimension
 13
1059.864836993942
 23
703.5681558858132
 33
0.0000000000000000
 14
961.8648369939418
 24
704.0681558858136
 34
0.0000000000000000
100
AcDbRotatedDimension
1001
ACAD
1000
DSTYLE
1002
{
1070
   173
1070
     1
1070
     6
1000
_OPEN
1070
     7
1000
_OPEN
1070
    41
1040
10.000000
1002
}
  0
DIMENSION
  5
B8
100
AcDbEntity
  8
MAIN0
  6
CONTINUOUS
 62
3
100
AcDbDimension
  2
*D11
 10
843.2843662977299
 20
519.0681558908002
 30
0.0000000000000000
 11
840.7843662977299
 21
497.7543623635294
 31
0.0000000000000000
 70
160
  3
MAIN001
100
AcDbAlignedDimension
 13
790.8648369937089
 23
524.0681558907490
 33
0.0000000000000000
 14
790.8648369937088
 24
519.0681558908002
 34
0.0000000000000000
 50
90.00000000000000
100
AcDbRotatedDimension
1001
ACAD
1000
DSTYLE
1002
{
1070
   173
1070
     1
1070
     6
1000
_OPEN
1070
     7
1000
_OPEN
1070
    41
1040
10.000000
1070
   287
1070
     0
1002
}
  0
DIMENSION
  5
C1
100
AcDbEntity
  8
MAIN0
  6
CONTINUOUS
 62
3
100
AcDbDimension
  2
*D12
 10
595.8648369928427
 20
748.5816413088112
 30
0.0000000000000000
 11
621.3648369933923
 21
749.0816413088112
 31
0.0000000000000000
 70
32
  3
MAIN001
100
AcDbAlignedDimension
 13
646.8648369939418
 23
703.5681558856529
 33
0.0000000000000000
 14
595.8648369928427
 24
704.0681558856527
 34
0.0000000000000000
100
AcDbRotatedDimension
1001
ACAD
1000
DSTYLE
1002
{
1070
   173
1070
     1
1070
     6
1000
_OPEN
1070
     7
1000
_OPEN
1070
    41
1040
10.000000
1002
}
  0
DIMENSION
  5
CB
100
AcDbEntity
  8
MAIN0
  6
CONTINUOUS
 62
3
100
AcDbDimension
  2
*D13
 10
680.3762494960338
 20
704.0681558856531
 30
0.0000000000000000
 11
677.8762494960338
 21
729.0158158203848
 31
0.0000000000000000
 70
160
  3
MAIN001
100
AcDbAlignedDimension
 13
605.8648369928427
 23
694.0681558856527
 33
0.0000000000000000
 14
646.3648369939415
 24
704.0681558856530
 34
0.0000000000000000
 50
90.00000000000000
100
AcDbRotatedDimension
1001
ACAD
1000
DSTYLE
1002
{
1070
   173
1070
     1
1070
     6
1000
_DOT
1070
     7
1000
_OPEN
1070
    41
1040
10.000000
1070
   287
1070
     0
1002
}
  0
DIMENSION
  5
D5
100
AcDbEntity
  8
MAIN0
  6
CONTINUOUS
 62
3
100
AcDbDimension
  2
*D14
 10
680.3762494960338
 20
694.0681558856527
 30
0.0000000000000000
 11
677.8762494960338
 21
652.4627129061939
 31
0.0000000000000000
 70
160
  3
MAIN001
100
AcDbAlignedDimension
 13
605.8648369928427
 23
674.0681558856527
 33
0.0000000000000000
 14
605.8648369928427
 24
694.0681558856527
 34
0.0000000000000000
 50
90.00000000000000
100
AcDbRotatedDimension
1001
ACAD
1000
DSTYLE
1002
{
1070
   173
1070
     1
1070
     6
1000
_OPEN
1070
     7
1000
_DOT
1070
    41
1040
10.000000
1070
   287
1070
     0
1002
}
  0
DIMENSION
  5
DD
100
AcDbEntity
  8
MAIN0
  6
CONTINUOUS
 62
3
100
AcDbDimension
  2
*D15
 10
543.8648369937105
 20
559.0681558882416
 30
0.0000000000000000
 11
601.3648369938427
 21
559.5681558882416
 31
0.0000000000000000
 70
32
  3
MAIN001
100
AcDbAlignedDimension
 13
658.8648369939750
 23
567.5681558914297
 33
0.0000000000000000
 14
543.8648369937105
 24
524.4681558911524
 34
0.0000000000000000
100
AcDbRotatedDimension
1001
ACAD
1000
DSTYLE
1002
{
1070
   173
1070
     1
1070
     6
1000
_OPEN
1070
     7
1000
_OPEN
1070
    41
1040
10.000000
1002
}
  0
DIMENSION
  5
E6
100
AcDbEntity
  8
MAIN0
  6
CONTINUOUS
 62
3
100
AcDbDimension
  2
*D16
 10
658.8648369939750
 20
559.0681558882416
 30
0.0000000000000000
 11
952.8648369939749
 21
559.5681558882416
 31
0.0000000000000000
 70
32
  3
MAIN001
100
AcDbAlignedDimension
 13
1246.864836993975
 23
567.5681558909540
 33
0.0000000000000000
 14
658.8648369939750
 24
567.5681558914297
 34
0.0000000000000000
100
AcDbRotatedDimension
1001
ACAD
1000
DSTYLE
1002
{
1070
   173
1070
     1
1070
     6
1000
_OPEN
1070
     7
1000
_OPEN
1070
    41
1040
10.000000
1002
}
  0
DIMENSION
  5
EE
100
AcDbEntity
  8
MAIN0
  6
CONTINUOUS
 62
3
100
AcDbDimension
  2
*D17
 10
1246.864836993975
 20
559.0681558882416
 30
0.0000000000000000
 11
1304.364836993842
 21
559.5681558882416
 31
0.0000000000000000
 70
32
  3
MAIN001
100
AcDbAlignedDimension
 13
1361.864836993710
 23
524.4681558895182
 33
0.0000000000000000
 14
1246.864836993975
 24
567.5681558909540
 34
0.0000000000000000
100
AcDbRotatedDimension
1001
ACAD
1000
DSTYLE
1002
{
1070
   173
1070
     1
1070
     6
1000
_OPEN
1070
     7
1000
_OPEN
1070
    41
1040
10.000000
1002
}
  0
MTEXT
  5
EF
100
AcDbEntity
  8
MAIN0
  6
CONTINUOUS
 62
3
100
AcDbMText
 10
1871.181745572708
 20
618.5256835043168
 30
0.0000000000000000
 40
10.00000000000000
 41
0.0000000000000000
 71
     1
 72
     1
  1
{\H0.63x;{0}}
 11
0.8660254037844389
 21
0.4999999999999996
 31
0.0000000000000000
  7
STANDARD
  0
MTEXT
  5
F0
100
AcDbEntity
  8
MAIN0
  6
CONTINUOUS
 62
3
100
AcDbMText
 10
1882.761631810179
 20
622.8273520568611
 30
0.0000000000000000
 40
10.00000000000000
 41
0.0000000000000000
 71
     1
 72
     1
  1
{\H0.63x;{1}}
 11
1.000000000000000
 21
0.0000000000000000
 31
0.0000000000000000
  7
STANDARD
  0
MTEXT
  5
F1
100
AcDbEntity
  8
MAIN0
  6
CONTINUOUS
 62
3
100
AcDbMText
 10
1894.940941741036
 20
620.7627631832892
 30
0.0000000000000000
 40
10.00000000000000
 41
0.0000000000000000
 71
     1
 72
     1
  1
{\H0.63x;{2}}
 11
0.8660254037844388
 21
-0.4999999999999997
 31
0.0000000000000000
  7
STANDARD
  0
MTEXT
  5
F2
100
AcDbEntity
  8
MAIN0
  6
CONTINUOUS
 62
3
100
AcDbMText
 10
1904.456239104936
 20
612.8851218049771
 30
0.0000000000000000
 40
10.00000000000000
 41
0.0000000000000000
 71
     1
 72
     1
  1
{\H0.63x;{3}}
 11
0.5000000000000009
 21
-0.8660254037844382
 31
0.0000000000000000
  7
STANDARD
  0
DIMENSION
  5
FD
100
AcDbEntity
  8
MAIN0
  6
CONTINUOUS
 62
3
100
AcDbDimension
  2
*D18
 10
1877.998711489394
 20
738.2016840690806
 30
0.0000000000000000
 11
1914.970044989854
 21
740.7016840690806
 31
0.0000000000000000
 70
160
  3
MAIN001
100
AcDbAlignedDimension
 13
1891.998711489394
 23
603.1096077728668
 33
0.0000000000000000
 14
1877.998711489394
 24
603.1096077728656
 34
0.0000000000000000
100
AcDbRotatedDimension
1001
ACAD
1000
DSTYLE
1002
{
1070
   173
1070
     1
1070
     6
1000
_OPEN
1070
     7
1000
_OPEN
1070
    41
1040
10.000000
1070
   287
1070
     0
1002
}
  0
LINE
  5
FE
100
AcDbEntity
  8
MAIN0
  6
CONTINUOUS
 62
3
100
AcDbLine
 10
166.9493072991743
 20
519.0681558878564
 30
0.0000000000000000
 11
141.9493072991742
 21
519.0681558878564
 31
0.0000000000000000
  0
LINE
  5
FF
100
AcDbEntity
  8
MAIN0
  6
CONTINUOUS
 62
3
100
AcDbLine
 10
166.9493072991739
 20
519.0681558878561
 30
0.0000000000000000
 11
166.9493072991739
 21
524.0681558878561
 31
0.0000000000000000
  0
LINE
  5
100
100
AcDbEntity
  8
MAIN0
  6
CONTINUOUS
 62
3
100
AcDbLine
 10
141.9493072991742
 20
524.0681558878566
 30
0.0000000000000000
 11
141.9493072991742
 21
519.0681558878566
 31
0.0000000000000000
  0
LINE
  5
101
100
AcDbEntity
  8
MAIN0
  6
CONTINUOUS
 62
3
100
AcDbLine
 10
317.9493072986853
 20
519.0681558877926
 30
0.0000000000000000
 11
342.9493072986853
 21
519.0681558877717
 31
0.0000000000000000
  0
LINE
  5
102
100
AcDbEntity
  8
MAIN0
  6
CONTINUOUS
 62
3
100
AcDbLine
 10
317.9493072986854
 20
519.0681558877924
 30
0.0000000000000000
 11
317.9493072986896
 21
524.0681558877924
 31
0.0000000000000000
  0
LINE
  5
103
100
AcDbEntity
  8
MAIN0
  6
CONTINUOUS
 62
3
100
AcDbLine
 10
342.9493072986894
 20
524.0681558877716
 30
0.0000000000000000
 11
342.9493072986852
 21
519.0681558877716
 31
0.0000000000000000
  0
LINE
  5
104
100
AcDbEntity
  8
MAIN0
  6
CONTINUOUS
 62
3
100
AcDbLine
 10
342.4493072989452
 20
608.0681558881720
 30
0.0000000000000000
 11
336.4493072989643
 21
608.0681558881770
 31
0.0000000000000000
  0
LINE
  5
105
100
AcDbEntity
  8
MAIN0
  6
CONTINUOUS
 62
3
100
AcDbLine
 10
342.4493072989440
 20
608.0681558881717
 30
0.0000000000000000
 11
343.4493072989448
 21
609.0681558881713
 31
0.0000000000000000
  0
LINE
  5
106
100
AcDbEntity
  8
MAIN0
  6
CONTINUOUS
 62
3
100
AcDbLine
 10
142.4493072989506
 20
608.0681558882549
 30
0.0000000000000000
 11
141.4493072989507
 21
609.0681558882552
 31
0.0000000000000000
  0
LINE
  5
107
100
AcDbEntity
  8
MAIN0
  6
CONTINUOUS
 62
3
100
AcDbLine
 10
142.4493072989490
 20
608.0681558882558
 30
0.0000000000000000
 11
148.4493072989697
 21
608.0681558882558
 31
0.0000000000000000
  0
LINE
  5
108
100
AcDbEntity
  8
MAIN0
  6
CONTINUOUS
 62
3
100
AcDbLine
 10
336.4493072989379
 20
545.0681558879247
 30
0.0000000000000000
 11
336.4493072989641
 21
608.0681558881773
 31
0.0000000000000000
  0
LINE
  5
109
100
AcDbEntity
  8
MAIN0
  6
CONTINUOUS
 62
3
100
AcDbLine
 10
141.7493072989788
 20
606.9681558885981
 30
0.0000000000000000
 11
145.4493072989788
 21
606.9681558885981
 31
0.0000000000000000
  0
LINE
  5
10A
100
AcDbEntity
  8
MAIN0
  6
CONTINUOUS
 62
3
100
AcDbLine
 10
145.4493072989783
 20
606.9681558885981
 30
0.0000000000000000
 11
145.4493072989783
 21
605.7681558885982
 31
0.0000000000000000
  0
ARC
  5
10B
100
AcDbEntity
  8
MAIN0
  6
CONTINUOUS
 62
3
100
AcDbCircle
 10
140.9493072989786
 20
606.7681558885982
 30
0.0000000000000000
 40
1.000000000000000
100
AcDbArc
 50
179.9999999999964
 51
269.9999999999942
  0
ARC
  5
10C
100
AcDbEntity
  8
MAIN0
  6
CONTINUOUS
 62
3
100
AcDbCircle
 10
141.7493072989788
 20
607.5681558885980
 30
0.0000000000000000
 40
0.6000000000000000
100
AcDbArc
 50
179.9999999999964
 51
270.0000000005678
  0
LINE
  5
10D
100
AcDbEntity
  8
MAIN0
  6
CONTINUOUS
 62
3
100
AcDbLine
 10
140.9493072989786
 20
605.7681558885982
 30
0.0000000000000000
 11
145.4493072989783
 21
605.7681558885982
 31
0.0000000000000000
  0
LINE
  5
10E
100
AcDbEntity
  8
MAIN0
  6
CONTINUOUS
 62
3
100
AcDbLine
 10
145.4493072989783
 20
602.9681558886040
 30
0.0000000000000000
 11
138.7493073996398
 21
602.9681558886040
 31
0.0000000000000000
  0
LINE
  5
10F
100
AcDbEntity
  8
MAIN0
  6
CONTINUOUS
 62
3
100
AcDbLine
 10
137.9493070925615
 20
601.7681558886037
 30
0.0000000000000000
 11
145.4493072989788
 21
601.7681558886037
 31
0.0000000000000000
  0
ARC
  5
110
100
AcDbEntity
  8
MAIN0
  6
CONTINUOUS
 62
3
100
AcDbCircle
 10
137.9493072989786
 20
602.7681558886037
 30
0.0000000000000000
 40
1.000000000000000
100
AcDbArc
 50
179.9999999999964
 51
269.9999999999942
  0
ARC
  5
111
100
AcDbEntity
  8
MAIN0
  6
CONTINUOUS
 62
3
100
AcDbCircle
 10
138.7493072989788
 20
603.5681558886039
 30
0.0000000000000000
 40
0.6000000000000000
100
AcDbArc
 50
179.9999999999964
 51
269.9999999999947
  0
LINE
  5
112
100
AcDbEntity
  8
MAIN0
  6
CONTINUOUS
 62
3
100
AcDbLine
 10
145.4493072989783
 20
602.9681558886040
 30
0.0000000000000000
 11
145.4493072989783
 21
601.7681558886037
 31
0.0000000000000000
  0
LINE
  5
113
100
AcDbEntity
  8
MAIN0
  6
CONTINUOUS
 62
3
100
AcDbLine
 10
145.4493072989783
 20
604.9681558886040
 30
0.0000000000000000
 11
140.2493073996398
 21
604.9681558886040
 31
0.0000000000000000
  0
LINE
  5
114
100
AcDbEntity
  8
MAIN0
  6
CONTINUOUS
 62
3
100
AcDbLine
 10
139.4493070925615
 20
603.7681558886037
 30
0.0000000000000000
 11
145.4493072989783
 21
603.7681558886037
 31
0.0000000000000000
  0
ARC
  5
115
100
AcDbEntity
  8
MAIN0
  6
CONTINUOUS
 62
3
100
AcDbCircle
 10
140.2493072989788
 20
605.5681558886039
 30
0.0000000000000000
 40
0.6000000000000000
100
AcDbArc
 50
179.9999999999964
 51
269.9999999999947
  0
ARC
  5
116
100
AcDbEntity
  8
MAIN0
  6
CONTINUOUS
 62
3
100
AcDbCircle
 10
139.4493072989786
 20
604.7681558886037
 30
0.0000000000000000
 40
1.000000000000000
100
AcDbArc
 50
179.9999999999964
 51
269.9999999999942
  0
LINE
  5
117
100
AcDbEntity
  8
MAIN0
  6
CONTINUOUS
 62
3
100
AcDbLine
 10
145.4493072989783
 20
604.9681558886040
 30
0.0000000000000000
 11
145.4493072989783
 21
603.7681558886037
 31
0.0000000000000000
  0
LINE
  5
118
100
AcDbEntity
  8
MAIN0
  6
CONTINUOUS
 62
3
100
AcDbLine
 10
343.1493072989554
 20
606.9681558885136
 30
0.0000000000000000
 11
339.4493072989551
 21
606.9681558885167
 31
0.0000000000000000
  0
LINE
  5
119
100
AcDbEntity
  8
MAIN0
  6
CONTINUOUS
 62
3
100
AcDbLine
 10
339.4493072989557
 20
606.9681558885167
 30
0.0000000000000000
 11
339.4493072989546
 21
605.7681558885168
 31
0.0000000000000000
  0
ARC
  5
11A
100
AcDbEntity
  8
MAIN0
  6
CONTINUOUS
 62
3
100
AcDbCircle
 10
343.9493072989554
 20
606.7681558885130
 30
0.0000000000000000
 40
1.000000000000000
100
AcDbArc
 50
269.9999999999578
 51
359.9999999999555
  0
ARC
  5
11B
100
AcDbEntity
  8
MAIN0
  6
CONTINUOUS
 62
3
100
AcDbCircle
 10
343.1493072989559
 20
607.5681558885134
 30
0.0000000000000000
 40
0.6000000000000000
100
AcDbArc
 50
269.9999999993840
 51
359.9999999999555
  0
LINE
  5
11C
100
AcDbEntity
  8
MAIN0
  6
CONTINUOUS
 62
3
100
AcDbLine
 10
343.9493072989545
 20
605.7681558885131
 30
0.0000000000000000
 11
339.4493072989545
 21
605.7681558885168
 31
0.0000000000000000
  0
LINE
  5
11D
100
AcDbEntity
  8
MAIN0
  6
CONTINUOUS
 62
3
100
AcDbLine
 10
339.4493072989522
 20
602.9681558885226
 30
0.0000000000000000
 11
346.1493071982910
 21
602.9681558885170
 31
0.0000000000000000
  0
LINE
  5
11E
100
AcDbEntity
  8
MAIN0
  6
CONTINUOUS
 62
3
100
AcDbLine
 10
346.9493075053683
 20
601.7681558885161
 30
0.0000000000000000
 11
339.4493072989507
 21
601.7681558885223
 31
0.0000000000000000
  0
ARC
  5
11F
100
AcDbEntity
  8
MAIN0
  6
CONTINUOUS
 62
3
100
AcDbCircle
 10
346.9493072989520
 20
602.7681558885159
 30
0.0000000000000000
 40
1.000000000000000
100
AcDbArc
 50
269.9999999999578
 51
359.9999999999555
  0
ARC
  5
120
100
AcDbEntity
  8
MAIN0
  6
CONTINUOUS
 62
3
100
AcDbCircle
 10
346.1493072989525
 20
603.5681558885168
 30
0.0000000000000000
 40
0.6000000000000000
100
AcDbArc
 50
269.9999999999571
 51
359.9999999999555
  0
LINE
  5
121
100
AcDbEntity
  8
MAIN0
  6
CONTINUOUS
 62
3
100
AcDbLine
 10
339.4493072989523
 20
602.9681558885226
 30
0.0000000000000000
 11
339.4493072989513
 21
601.7681558885223
 31
0.0000000000000000
  0
LINE
  5
122
100
AcDbEntity
  8
MAIN0
  6
CONTINUOUS
 62
3
100
AcDbLine
 10
339.4493072989538
 20
604.9681558885226
 30
0.0000000000000000
 11
344.6493071982926
 21
604.9681558885183
 31
0.0000000000000000
  0
LINE
  5
123
100
AcDbEntity
  8
MAIN0
  6
CONTINUOUS
 62
3
100
AcDbLine
 10
345.4493075053699
 20
603.7681558885173
 30
0.0000000000000000
 11
339.4493072989528
 21
603.7681558885223
 31
0.0000000000000000
  0
ARC
  5
124
100
AcDbEntity
  8
MAIN0
  6
CONTINUOUS
 62
3
100
AcDbCircle
 10
344.6493072989541
 20
605.5681558885179
 30
0.0000000000000000
 40
0.6000000000000000
100
AcDbArc
 50
269.9999999999571
 51
359.9999999999555
  0
ARC
  5
125
100
AcDbEntity
  8
MAIN0
  6
CONTINUOUS
 62
3
100
AcDbCircle
 10
345.4493072989538
 20
604.7681558885171
 30
0.0000000000000000
 40
1.000000000000000
100
AcDbArc
 50
269.9999999999578
 51
359.9999999999555
  0
LINE
  5
126
100
AcDbEntity
  8
MAIN0
  6
CONTINUOUS
 62
3
100
AcDbLine
 10
339.4493072989540
 20
604.9681558885226
 30
0.0000000000000000
 11
339.4493072989529
 21
603.7681558885223
 31
0.0000000000000000
  0
LINE
  5
127
100
AcDbEntity
  8
MAIN0
  6
CONTINUOUS
 62
3
100
AcDbLine
 10
142.9493072989810
 20
634.0681558885779
 30
0.0000000000000000
 11
192.8493072989815
 21
634.0681558885883
 31
0.0000000000000000
  0
LINE
  5
128
100
AcDbEntity
  8
MAIN0
  6
CONTINUOUS
 62
3
100
AcDbLine
 10
142.4493072989332
 20
545.0681558880037
 30
0.0000000000000000
 11
148.4493072989334
 21
545.0681558880040
 31
0.0000000000000000
  0
LINE
  5
129
100
AcDbEntity
  8
MAIN0
  6
CONTINUOUS
 62
3
100
AcDbLine
 10
141.4493072989326
 20
544.0681558880034
 30
0.0000000000000000
 11
141.4493072989244
 21
524.4681558878980
 31
0.0000000000000000
  0
LINE
  5
12A
100
AcDbEntity
  8
MAIN0
  6
CONTINUOUS
 62
3
100
AcDbLine
 10
142.4493072989334
 20
545.0681558880037
 30
0.0000000000000000
 11
141.4493072989330
 21
544.0681558880037
 31
0.0000000000000000
  0
LINE
  5
12B
100
AcDbEntity
  8
MAIN0
  6
CONTINUOUS
 62
3
100
AcDbLine
 10
343.4493072989329
 20
544.0681558879189
 30
0.0000000000000000
 11
343.4493072989247
 21
524.4681558878131
 31
0.0000000000000000
  0
LINE
  5
12C
100
AcDbEntity
  8
MAIN0
  6
CONTINUOUS
 62
3
100
AcDbLine
 10
341.9493072989809
 20
634.0681558884947
 30
0.0000000000000000
 11
292.0493072989749
 21
634.0681558885468
 31
0.0000000000000000
  0
LINE
  5
12D
100
AcDbEntity
  8
MAIN0
  6
CONTINUOUS
 62
3
100
AcDbLine
 10
343.4493072989247
 20
524.4681558878132
 30
0.0000000000000000
 11
343.0493072989245
 21
524.0681558878134
 31
0.0000000000000000
  0
LINE
  5
12E
100
AcDbEntity
  8
MAIN0
  6
CONTINUOUS
 62
3
100
AcDbLine
 10
141.4493072989245
 20
524.4681558878981
 30
0.0000000000000000
 11
141.8493072989244
 21
524.0681558878980
 31
0.0000000000000000
  0
LINE
  5
12F
100
AcDbEntity
  8
MAIN0
  6
CONTINUOUS
 62
3
100
AcDbLine
 10
342.4493072989488
 20
545.0681558879205
 30
0.0000000000000000
 11
336.4493072989486
 21
545.0681558879257
 31
0.0000000000000000
  0
LINE
  5
130
100
AcDbEntity
  8
MAIN0
  6
CONTINUOUS
 62
3
100
AcDbLine
 10
342.4493072989486
 20
545.0681558879202
 30
0.0000000000000000
 11
343.4493072989484
 21
544.0681558879190
 31
0.0000000000000000
  0
LINE
  5
131
100
AcDbEntity
  8
MAIN0
  6
CONTINUOUS
 62
3
100
AcDbLine
 10
233.4493072990447
 20
524.0681558878599
 30
0.0000000000000000
 11
233.4493072990447
 21
529.0681558876535
 31
0.0000000000000000
  0
LINE
  5
132
100
AcDbEntity
  8
MAIN0
  6
CONTINUOUS
 62
3
100
AcDbLine
 10
251.4493072990446
 20
529.0681558876532
 30
0.0000000000000000
 11
233.4493072990446
 21
529.0681558876532
 31
0.0000000000000000
  0
LINE
  5
133
100
AcDbEntity
  8
MAIN0
  6
CONTINUOUS
 62
3
100
AcDbLine
 10
251.4493072990447
 20
524.0681558878526
 30
0.0000000000000000
 11
251.4493072990447
 21
529.0681558876535
 31
0.0000000000000000
  0
LINE
  5
134
100
AcDbEntity
  8
MAIN0
  6
CONTINUOUS
 62
3
100
AcDbLine
 10
148.4493072989440
 20
545.0681558880037
 30
0.0000000000000000
 11
148.4493072989700
 21
608.0681558882558
 31
0.0000000000000000
  0
LINE
  5
135
100
AcDbEntity
  8
MAIN0
  6
CONTINUOUS
 62
3
100
AcDbLine
 10
141.8493072989244
 20
524.0681558878987
 30
0.0000000000000000
 11
233.4493072990447
 21
524.0681558878603
 31
0.0000000000000000
  0
LINE
  5
136
100
AcDbEntity
  8
MAIN0
  6
CONTINUOUS
 62
3
100
AcDbLine
 10
251.4493072990447
 20
524.0681558878526
 30
0.0000000000000000
 11
343.0493072989246
 21
524.0681558878141
 31
0.0000000000000000
  0
LINE
  5
137
100
AcDbEntity
  8
MAIN0
  6
CONTINUOUS
 62
3
100
AcDbLine
 10
148.4493072989693
 20
634.0681558886039
 30
0.0000000000000000
 11
336.4493072989579
 21
634.0681558886039
 31
0.0000000000000000
  0
LINE
  5
138
100
AcDbEntity
  8
MAIN0
  6
CENTER
 62
3
100
AcDbLine
 10
242.4493072989279
 20
513.8209456878232
 30
0.0000000000000000
 11
242.4493072990105
 21
710.6334821832705
 31
0.0000000000000000
  0
LINE
  5
139
100
AcDbEntity
  8
MAIN0
  6
CONTINUOUS
 62
3
100
AcDbLine
 10
141.4493072989703
 20
609.0681558882353
 30
0.0000000000000000
 11
141.4493072989804
 21
632.5681558885776
 31
0.0000000000000000
  0
LINE
  5
13A
100
AcDbEntity
  8
MAIN0
  6
CONTINUOUS
 62
3
100
AcDbLine
 10
343.4493072989687
 20
609.0681558881948
 30
0.0000000000000000
 11
343.4493072989804
 21
632.5681558884932
 31
0.0000000000000000
  0
LINE
  5
13B
100
AcDbEntity
  8
MAIN0
  6
CONTINUOUS
 62
3
100
AcDbLine
 10
135.1493072989782
 20
634.0681558886039
 30
0.0000000000000000
 11
349.7493072989792
 21
634.0681558886039
 31
0.0000000000000000
  0
LINE
  5
13C
100
AcDbEntity
  8
MAIN0
  6
CONTINUOUS
 62
3
100
AcDbLine
 10
142.4493072992203
 20
704.0681558886040
 30
0.0000000000000000
 11
342.4493072992203
 21
704.0681558886040
 31
0.0000000000000000
  0
LINE
  5
13D
100
AcDbEntity
  8
MAIN0
  6
CONTINUOUS
 62
3
100
AcDbLine
 10
139.9493072989783
 20
634.0681558886039
 30
0.0000000000000000
 11
139.9493072989783
 21
606.7681558885982
 31
0.0000000000000000
  0
LINE
  5
13E
100
AcDbEntity
  8
MAIN0
  6
CONTINUOUS
 62
3
100
AcDbLine
 10
141.1493072989786
 20
634.0681558885980
 30
0.0000000000000000
 11
141.1493072989786
 21
607.5681558885980
 31
0.0000000000000000
  0
LINE
  5
13F
100
AcDbEntity
  8
MAIN0
  6
CONTINUOUS
 62
3
100
AcDbLine
 10
342.4493072992203
 20
634.0681558886039
 30
0.0000000000000000
 11
342.4493072992203
 21
704.0681558886040
 31
0.0000000000000000
  0
LINE
  5
140
100
AcDbEntity
  8
MAIN0
  6
CONTINUOUS
 62
3
100
AcDbLine
 10
142.4493072992203
 20
634.0681558885777
 30
0.0000000000000000
 11
142.4493072992203
 21
704.0681558886040
 31
0.0000000000000000
  0
LINE
  5
141
100
AcDbEntity
  8
MAIN0
  6
CONTINUOUS
 62
3
100
AcDbLine
 10
348.2493072989785
 20
634.0681558886039
 30
0.0000000000000000
 11
348.2493072989785
 21
601.5681558885159
 31
0.0000000000000000
  0
LINE
  5
142
100
AcDbEntity
  8
MAIN0
  6
CONTINUOUS
 62
3
100
AcDbLine
 10
349.4493072989788
 20
634.0681558886039
 30
0.0000000000000000
 11
349.4493072989788
 21
600.7681558885153
 31
0.0000000000000000
  0
LINE
  5
143
100
AcDbEntity
  8
MAIN0
  6
CONTINUOUS
 62
3
100
AcDbLine
 10
136.6493072989786
 20
634.0681558886039
 30
0.0000000000000000
 11
136.6493072989786
 21
601.5681558886046
 31
0.0000000000000000
  0
LINE
  5
144
100
AcDbEntity
  8
MAIN0
  6
CONTINUOUS
 62
3
100
AcDbLine
 10
135.4493072989783
 20
634.0681558886039
 30
0.0000000000000000
 11
135.4493072989783
 21
600.7681558886046
 31
0.0000000000000000
  0
LINE
  5
145
100
AcDbEntity
  8
MAIN0
  6
CONTINUOUS
 62
3
100
AcDbLine
 10
138.4493072989783
 20
604.7681558886037
 30
0.0000000000000000
 11
138.4493072989783
 21
634.0681558886039
 31
0.0000000000000000
  0
LINE
  5
146
100
AcDbEntity
  8
MAIN0
  6
CONTINUOUS
 62
3
100
AcDbLine
 10
139.6493072989786
 20
605.5681558886039
 30
0.0000000000000000
 11
139.6493072989786
 21
634.0681558886039
 31
0.0000000000000000
  0
LINE
  5
147
100
AcDbEntity
  8
MAIN0
  6
CONTINUOUS
 62
3
100
AcDbLine
 10
346.4493072989783
 20
604.7681558885171
 30
0.0000000000000000
 11
346.4493072989783
 21
634.0681558886039
 31
0.0000000000000000
  0
LINE
  5
148
100
AcDbEntity
  8
MAIN0
  6
CONTINUOUS
 62
3
100
AcDbLine
 10
345.2493072989785
 20
605.5681558885179
 30
0.0000000000000000
 11
345.2493072989785
 21
634.0681558886039
 31
0.0000000000000000
  0
LINE
  5
149
100
AcDbEntity
  8
MAIN0
  6
CONTINUOUS
 62
3
100
AcDbLine
 10
347.9493072989788
 20
634.0681558886039
 30
0.0000000000000000
 11
347.9493072989788
 21
602.7681558885159
 31
0.0000000000000000
  0
LINE
  5
14A
100
AcDbEntity
  8
MAIN0
  6
CONTINUOUS
 62
3
100
AcDbLine
 10
346.7493072989785
 20
634.0681558886039
 30
0.0000000000000000
 11
346.7493072989785
 21
603.5681558885168
 31
0.0000000000000000
  0
LINE
  5
14B
100
AcDbEntity
  8
MAIN0
  6
CONTINUOUS
 62
3
100
AcDbLine
 10
136.9493072989783
 20
634.0681558886039
 30
0.0000000000000000
 11
136.9493072989783
 21
602.7681558886037
 31
0.0000000000000000
  0
LINE
  5
14C
100
AcDbEntity
  8
MAIN0
  6
CONTINUOUS
 62
3
100
AcDbLine
 10
138.1493072989786
 20
634.0681558886039
 30
0.0000000000000000
 11
138.1493072989786
 21
603.5681558886039
 31
0.0000000000000000
  0
LINE
  5
14D
100
AcDbEntity
  8
MAIN0
  6
CONTINUOUS
 62
3
100
AcDbLine
 10
343.7493072989785
 20
607.5681558885134
 30
0.0000000000000000
 11
343.7493072989785
 21
634.0681558886039
 31
0.0000000000000000
  0
DIMENSION
  5
156
100
AcDbEntity
  8
MAIN0
  6
CONTINUOUS
 62
3
100
AcDbDimension
  2
*D19
 10
342.4493072992203
 20
738.2016840691458
 30
0.0000000000000000
 11
242.4493072992203
 21
738.7016840691458
 31
0.0000000000000000
 70
32
  3
MAIN001
100
AcDbAlignedDimension
 13
142.4493072992203
 23
704.0681558886040
 33
0.0000000000000000
 14
342.4493072992203
 24
704.0681558886040
 34
0.0000000000000000
100
AcDbRotatedDimension
1001
ACAD
1000
DSTYLE
1002
{
1070
   173
1070
     1
1070
     6
1000
_OPEN
1070
     7
1000
_OPEN
1070
    41
1040
10.000000
1002
}
  0
LINE
  5
157
100
AcDbEntity
  8
MAIN0
  6
CONTINUOUS
 62
3
100
AcDbLine
 10
141.4493072989804
 20
632.5681558885776
 30
0.0000000000000000
 11
142.9493072989811
 21
634.0681558885780
 31
0.0000000000000000
  0
LINE
  5
158
100
AcDbEntity
  8
MAIN0
  6
CONTINUOUS
 62
3
100
AcDbLine
 10
341.9493072989810
 20
634.0681558884949
 30
0.0000000000000000
 11
343.4493072989802
 21
632.5681558884933
 31
0.0000000000000000
  0
LINE
  5
159
100
AcDbEntity
  8
MAIN0
  6
CONTINUOUS
 62
3
100
AcDbLine
 10
194.4493072989795
 20
630.2681558885940
 30
0.0000000000000000
 11
194.4493072989732
 21
615.0681558885938
 31
0.0000000000000000
  0
LINE
  5
15A
100
AcDbEntity
  8
MAIN0
  6
CONTINUOUS
 62
3
100
AcDbLine
 10
193.4493072989700
 20
614.0681558885935
 30
0.0000000000000000
 11
194.4493072989703
 21
615.0681558885935
 31
0.0000000000000000
  0
LINE
  5
15B
100
AcDbEntity
  8
MAIN0
  6
CONTINUOUS
 62
3
100
AcDbLine
 10
185.9493072989697
 20
614.0681558885917
 30
0.0000000000000000
 11
193.4493072989697
 21
614.0681558885935
 31
0.0000000000000000
  0
LINE
  5
15C
100
AcDbEntity
  8
MAIN0
  6
CONTINUOUS
 62
3
100
AcDbLine
 10
185.9493072989696
 20
614.0681558885924
 30
0.0000000000000000
 11
185.9493072989612
 21
594.0681558885924
 31
0.0000000000000000
  0
LINE
  5
15D
100
AcDbEntity
  8
MAIN0
  6
CONTINUOUS
 62
3
100
AcDbLine
 10
298.9493072989696
 20
614.0681558885444
 30
0.0000000000000000
 11
298.9493072989612
 21
594.0681558885444
 31
0.0000000000000000
  0
LINE
  5
15E
100
AcDbEntity
  8
MAIN0
  6
CONTINUOUS
 62
3
100
AcDbLine
 10
298.9493072989697
 20
614.0681558885448
 30
0.0000000000000000
 11
291.4493072989697
 21
614.0681558885524
 31
0.0000000000000000
  0
LINE
  5
15F
100
AcDbEntity
  8
MAIN0
  6
CONTINUOUS
 62
3
100
AcDbLine
 10
291.4493072989699
 20
614.0681558885525
 30
0.0000000000000000
 11
290.4493072989700
 21
615.0681558885538
 31
0.0000000000000000
  0
LINE
  5
160
100
AcDbEntity
  8
MAIN0
  6
CONTINUOUS
 62
3
100
AcDbLine
 10
290.4493072989797
 20
630.2681558885535
 30
0.0000000000000000
 11
290.4493072989731
 21
615.0681558885507
 31
0.0000000000000000
  0
LINE
  5
161
100
AcDbEntity
  8
MAIN0
  6
CONTINUOUS
 62
3
100
AcDbLine
 10
193.4493072989810
 20
634.0681558886040
 30
0.0000000000000000
 11
193.4493072989667
 21
630.2681558885887
 31
0.0000000000000000
  0
LINE
  5
162
100
AcDbEntity
  8
MAIN0
  6
CONTINUOUS
 62
3
100
AcDbLine
 10
193.4493072989693
 20
633.4681558885885
 30
0.0000000000000000
 11
291.4493072989862
 21
633.4681558885477
 31
0.0000000000000000
  0
LINE
  5
163
100
AcDbEntity
  8
MAIN0
  6
CONTINUOUS
 62
3
100
AcDbLine
 10
193.4493072989679
 20
630.2681558885887
 30
0.0000000000000000
 11
291.4493072989848
 21
630.2681558885479
 31
0.0000000000000000
  0
LINE
  5
164
100
AcDbEntity
  8
MAIN0
  6
CONTINUOUS
 62
3
100
AcDbLine
 10
291.4493072989744
 20
634.0681558886037
 30
0.0000000000000000
 11
291.4493072989858
 21
630.2681558885472
 31
0.0000000000000000
  0
DIMENSION
  5
16F
100
AcDbEntity
  8
MAIN0
  6
CONTINUOUS
 62
3
100
AcDbDimension
  2
*D20
 10
400.0982600206754
 20
634.0681558885417
 30
0.0000000000000000
 11
399.5982600206754
 21
621.0681558883568
 31
0.0000000000000000
 70
32
  3
MAIN001
100
AcDbAlignedDimension
 13
342.4493072989452
 23
608.0681558881720
 33
0.0000000000000000
 14
341.9493072989809
 24
634.0681558884947
 34
0.0000000000000000
 50
90.00000000000000
100
AcDbRotatedDimension
1001
ACAD
1000
DSTYLE
1002
{
1070
   173
1070
     1
1070
     6
1000
_OPEN
1070
     7
1000
_OPEN
1070
    41
1040
10.000000
1070
   287
1070
     0
1002
}
  0
DIMENSION
  5
178
100
AcDbEntity
  8
MAIN0
  6
CONTINUOUS
 62
3
100
AcDbDimension
  2
*D21
 10
400.0982600206754
 20
608.0681558881770
 30
0.0000000000000000
 11
399.5982600206754
 21
576.5681558880489
 31
0.0000000000000000
 70
32
  3
MAIN001
100
AcDbAlignedDimension
 13
342.4493072989488
 23
545.0681558879205
 33
0.0000000000000000
 14
342.4493072989452
 24
608.0681558881720
 34
0.0000000000000000
 50
90.00000000000000
100
AcDbRotatedDimension
1001
ACAD
1000
DSTYLE
1002
{
1070
   173
1070
     1
1070
     6
1000
_OPEN
1070
     7
1000
_OPEN
1070
    41
1040
10.000000
1002
}
  0
DIMENSION
  5
183
100
AcDbEntity
  8
MAIN0
  6
CONTINUOUS
 62
3
100
AcDbDimension
  2
*D22
 10
400.0982600206754
 20
545.0681558879206
 30
0.0000000000000000
 11
399.5982600206754
 21
534.5681558878674
 31
0.0000000000000000
 70
32
  3
MAIN001
100
AcDbAlignedDimension
 13
343.0493072989246
 23
524.0681558878141
 33
0.0000000000000000
 14
342.4493072989488
 24
545.0681558879205
 34
0.0000000000000000
 50
90.00000000000000
100
AcDbRotatedDimension
1001
ACAD
1000
DSTYLE
1002
{
1070
   173
1070
     1
1070
     6
1000
_OPEN
1070
     7
1000
_OPEN
1070
    41
1040
10.000000
1070
   287
1070
     0
1002
}
  0
DIMENSION
  5
18D
100
AcDbEntity
  8
MAIN0
  6
CONTINUOUS
 62
3
100
AcDbDimension
  2
*D23
 10
336.4493072989463
 20
569.0681558879259
 30
0.0000000000000000
 11
322.5191138612149
 21
570.7348225545925
 31
0.0000000000000000
 70
160
  3
MAIN001
100
AcDbAlignedDimension
 13
343.4493072989330
 23
544.0681558879189
 33
0.0000000000000000
 14
336.4493072989380
 24
545.0681558879246
 34
0.0000000000000000
100
AcDbRotatedDimension
1001
ACAD
1000
DSTYLE
1002
{
1070
   173
1070
     1
1070
     6
1000
_OPEN
1070
     7
1000
_OPEN
1070
    41
1040
10.000000
1070
   287
1070
     0
1002
}
  0
LINE
  5
18E
100
AcDbEntity
  8
MAIN0
  6
CONTINUOUS
 62
3
100
AcDbLine
 10
1139.864836993914
 20
667.2681558853556
 30
0.0000000000000000
 11
1139.864836993892
 21
599.7681558884228
 31
0.0000000000000000
  0
DIMENSION
  5
197
100
AcDbEntity
  8
MAIN0
  6
CONTINUOUS
 62
3
100
AcDbDimension
  2
*D24
 10
1456.864836994031
 20
419.2168226281029
 30
0.0000000000000000
 11
1409.364836993870
 21
419.7168226281029
 31
0.0000000000000000
 70
32
  3
MAIN001
100
AcDbAlignedDimension
 13
1361.864836993710
 23
524.4681558895182
 33
0.0000000000000000
 14
1456.864836994031
 24
574.0681558885649
 34
0.0000000000000000
100
AcDbRotatedDimension
1001
ACAD
1000
DSTYLE
1002
{
1070
   173
1070
     1
1070
     6
1000
_OPEN
1070
     7
1000
_OPEN
1070
    41
1040
10.000000
1002
}
  0
DIMENSION
  5
1A0
100
AcDbEntity
  8
MAIN0
  6
CONTINUOUS
 62
3
100
AcDbDimension
  2
*D25
 10
1361.864836993710
 20
419.2168226281029
 30
0.0000000000000000
 11
952.8648369937101
 21
419.7168226281029
 31
0.0000000000000000
 70
32
  3
MAIN001
100
AcDbAlignedDimension
 13
543.8648369937105
 23
524.4681558911524
 33
0.0000000000000000
 14
1361.864836993710
 24
524.4681558895182
 34
0.0000000000000000
100
AcDbRotatedDimension
1001
ACAD
1000
DSTYLE
1002
{
1070
   173
1070
     1
1070
     6
1000
_OPEN
1070
     7
1000
_OPEN
1070
    41
1040
10.000000
1002
}
  0
LINE
  5
1A1
100
AcDbEntity
  8
MAIN0
  6
CONTINUOUS
 62
3
100
AcDbLine
 10
1139.864836993914
 20
667.2681558853556
 30
0.0000000000000000
 11
1059.864836993930
 21
667.2681558853556
 31
0.0000000000000000
  0
LINE
  5
1A2
100
AcDbEntity
  8
MAIN0
  6
CONTINUOUS
 62
3
100
AcDbLine
 10
1181.864836993776
 20
599.7681558884694
 30
0.0000000000000000
 11
1059.864836993908
 21
599.7681558883342
 31
0.0000000000000000
  0
LINE
  5
1A3
100
AcDbEntity
  8
MAIN0
  6
CONTINUOUS
 62
3
100
AcDbLine
 10
1291.864836993912
 20
643.2681558853554
 30
0.0000000000000000
 11
1291.864836993788
 21
603.7681558885088
 31
0.0000000000000000
  0
LINE
  5
1A4
100
AcDbEntity
  8
MAIN0
  6
CONTINUOUS
 62
3
100
AcDbLine
 10
1231.864836993937
 20
651.2681558853554
 30
0.0000000000000000
 11
1231.864836993782
 21
601.7681558885178
 31
0.0000000000000000
  0
LINE
  5
1A5
100
AcDbEntity
  8
MAIN0
  6
CONTINUOUS
 62
3
100
AcDbLine
 10
1181.864836993962
 20
659.2681558853553
 30
0.0000000000000000
 11
1181.864836993776
 21
599.7681558884693
 31
0.0000000000000000
  0
LINE
  5
1A6
100
AcDbEntity
  8
MAIN0
  6
CONTINUOUS
 62
3
100
AcDbLine
 10
1778.998711489166
 20
599.7681558885395
 30
0.0000000000000000
 11
1787.998711489167
 21
599.7681558885395
 31
0.0000000000000000
  0
LINE
  5
1A7
100
AcDbEntity
  8
MAIN0
  6
CONTINUOUS
 62
3
100
AcDbLine
 10
1787.998711489167
 20
600.9681558885395
 30
0.0000000000000000
 11
1779.798711489166
 21
600.9681558885395
 31
0.0000000000000000
  0
LINE
  5
1A8
100
AcDbEntity
  8
MAIN0
  6
CONTINUOUS
 62
3
100
AcDbLine
 10
1776.498711489166
 20
599.7681558881679
 30
0.0000000000000000
 11
1776.498711489166
 21
666.2681558885388
 31
0.0000000000000000
  0
LINE
  5
1A9
100
AcDbEntity
  8
MAIN0
  6
CONTINUOUS
 62
3
100
AcDbLine
 10
1777.698711489166
 20
599.7681558881686
 30
0.0000000000000000
 11
1777.698711489166
 21
659.2681558885387
 31
0.0000000000000000
  0
LINE
  5
1AA
100
AcDbEntity
  8
MAIN0
  6
CONTINUOUS
 62
3
100
AcDbLine
 10
1787.998711489167
 20
599.7681558885395
 30
0.0000000000000000
 11
1787.998711489167
 21
600.9681558885395
 31
0.0000000000000000
  0
ARC
  5
1AB
100
AcDbEntity
  8
MAIN0
  6
CONTINUOUS
 62
3
100
AcDbCircle
 10
1779.798711489166
 20
601.5681558885395
 30
0.0000000000000000
 40
0.6000000000000001
100
AcDbArc
 50
180.0000000000000
 51
270.0000000000000
  0
ARC
  5
1AC
100
AcDbEntity
  8
MAIN0
  6
CONTINUOUS
 62
3
100
AcDbCircle
 10
1778.998711489166
 20
600.7681558885395
 30
0.0000000000000000
 40
1.000000000000000
100
AcDbArc
 50
180.0000000000000
 51
270.0000000000000
  0
LINE
  5
1AD
100
AcDbEntity
  8
MAIN0
  6
CONTINUOUS
 62
3
100
AcDbLine
 10
1776.498711489166
 20
599.7681558881679
 30
0.0000000000000000
 11
1777.698711489166
 21
599.7681558881686
 31
0.0000000000000000
  0
LINE
  5
1AE
100
AcDbEntity
  8
MAIN0
  6
CONTINUOUS
 62
3
100
AcDbLine
 10
1777.498711489166
 20
667.2681558885388
 30
0.0000000000000000
 11
1992.498711489168
 21
667.2681558885388
 31
0.0000000000000000
  0
ARC
  5
1AF
100
AcDbEntity
  8
MAIN0
  6
CONTINUOUS
 62
3
100
AcDbCircle
 10
1777.498711489166
 20
666.2681558885388
 30
0.0000000000000000
 40
1.000000000000000
100
AcDbArc
 50
90.00000000000000
 51
180.0000000000000
  0
LINE
  5
1B0
100
AcDbEntity
  8
MAIN0
  6
CONTINUOUS
 62
3
100
AcDbLine
 10
1990.998711489166
 20
599.7681558884499
 30
0.0000000000000000
 11
1981.998711490107
 21
599.7681558884574
 31
0.0000000000000000
  0
LINE
  5
1B1
100
AcDbEntity
  8
MAIN0
  6
CONTINUOUS
 62
3
100
AcDbLine
 10
1990.198711489166
 20
600.9681558884504
 30
0.0000000000000000
 11
1981.998711490106
 21
600.9681558884573
 31
0.0000000000000000
  0
LINE
  5
1B2
100
AcDbEntity
  8
MAIN0
  6
CONTINUOUS
 62
3
100
AcDbLine
 10
1981.998711490107
 20
599.7681558884574
 30
0.0000000000000000
 11
1981.998711490107
 21
600.9681558884572
 31
0.0000000000000000
  0
LINE
  5
1B3
100
AcDbEntity
  8
MAIN0
  6
CONTINUOUS
 62
3
100
AcDbLine
 10
1993.498711489168
 20
599.7681558882883
 30
0.0000000000000000
 11
1993.498711489168
 21
666.2681558885388
 31
0.0000000000000000
  0
LINE
  5
1B4
100
AcDbEntity
  8
MAIN0
  6
CONTINUOUS
 62
3
100
AcDbLine
 10
1992.298711489168
 20
599.7681558882877
 30
0.0000000000000000
 11
1992.298711489168
 21
659.2681558885387
 31
0.0000000000000000
  0
ARC
  5
1B5
100
AcDbEntity
  8
MAIN0
  6
CONTINUOUS
 62
3
100
AcDbCircle
 10
1990.998711489167
 20
600.7681558884499
 30
0.0000000000000000
 40
1.000000000000000
100
AcDbArc
 50
270.0000000000000
 51
360.0000000000000
  0
ARC
  5
1B6
100
AcDbEntity
  8
MAIN0
  6
CONTINUOUS
 62
3
100
AcDbCircle
 10
1990.198711489167
 20
601.5681558884505
 30
0.0000000000000000
 40
0.6000000000000001
100
AcDbArc
 50
270.0000000000000
 51
360.0000000000000
  0
LINE
  5
1B7
100
AcDbEntity
  8
MAIN0
  6
CONTINUOUS
 62
3
100
AcDbLine
 10
1992.298711489168
 20
599.7681558882877
 30
0.0000000000000000
 11
1993.498711489168
 21
599.7681558882883
 31
0.0000000000000000
  0
ARC
  5
1B8
100
AcDbEntity
  8
MAIN0
  6
CONTINUOUS
 62
3
100
AcDbCircle
 10
1992.498711489168
 20
666.2681558885388
 30
0.0000000000000000
 40
1.000000000000000
100
AcDbArc
 50
0.0000000000000000
 51
90.00000000000000
  0
LINE
  5
1B9
100
AcDbEntity
  8
MAIN0
  6
CONTINUOUS
 62
3
100
AcDbLine
 10
136.4493072989783
 20
599.7681558886046
 30
0.0000000000000000
 11
145.4493072989788
 21
599.7681558886046
 31
0.0000000000000000
  0
LINE
  5
1BA
100
AcDbEntity
  8
MAIN0
  6
CONTINUOUS
 62
3
100
AcDbLine
 10
137.2493072989785
 20
600.9681558886047
 30
0.0000000000000000
 11
145.4493072989788
 21
600.9681558886047
 31
0.0000000000000000
  0
LINE
  5
1BB
100
AcDbEntity
  8
MAIN0
  6
CONTINUOUS
 62
3
100
AcDbLine
 10
133.9493072989782
 20
599.7681558888480
 30
0.0000000000000000
 11
133.9493072989782
 21
666.2681558886059
 31
0.0000000000000000
  0
LINE
  5
1BC
100
AcDbEntity
  8
MAIN0
  6
CONTINUOUS
 62
3
100
AcDbLine
 10
135.1493072989782
 20
599.7681558888500
 30
0.0000000000000000
 11
135.1493072989782
 21
634.0681558886039
 31
0.0000000000000000
  0
LINE
  5
1BD
100
AcDbEntity
  8
MAIN0
  6
CONTINUOUS
 62
3
100
AcDbLine
 10
145.4493072989788
 20
599.7681558886046
 30
0.0000000000000000
 11
145.4493072989788
 21
600.9681558886047
 31
0.0000000000000000
  0
ARC
  5
1BE
100
AcDbEntity
  8
MAIN0
  6
CONTINUOUS
 62
3
100
AcDbCircle
 10
136.4493072989783
 20
600.7681558886046
 30
0.0000000000000000
 40
1.000000000000000
100
AcDbArc
 50
180.0000000000000
 51
270.0000000000000
  0
ARC
  5
1BF
100
AcDbEntity
  8
MAIN0
  6
CONTINUOUS
 62
3
100
AcDbCircle
 10
137.2493072989785
 20
601.5681558886046
 30
0.0000000000000000
 40
0.6000000000000001
100
AcDbArc
 50
180.0000000000000
 51
270.0000000000000
  0
LINE
  5
1C0
100
AcDbEntity
  8
MAIN0
  6
CONTINUOUS
 62
3
100
AcDbLine
 10
133.9493072989782
 20
599.7681558888482
 30
0.0000000000000000
 11
135.1493072989782
 21
599.7681558888501
 31
0.0000000000000000
  0
ARC
  5
1C1
100
AcDbEntity
  8
MAIN0
  6
CONTINUOUS
 62
3
100
AcDbCircle
 10
134.9493072989782
 20
666.2681558886059
 30
0.0000000000000000
 40
1.000000000000000
100
AcDbArc
 50
90.00000000000000
 51
180.0000000000000
  0
LINE
  5
1C2
100
AcDbEntity
  8
MAIN0
  6
CONTINUOUS
 62
3
100
AcDbLine
 10
339.4493072989507
 20
600.9681558885227
 30
0.0000000000000000
 11
347.6493072989780
 21
600.9681558885159
 31
0.0000000000000000
  0
LINE
  5
1C3
100
AcDbEntity
  8
MAIN0
  6
CONTINUOUS
 62
3
100
AcDbLine
 10
350.9493072989791
 20
599.7681558885132
 30
0.0000000000000000
 11
350.9493072989791
 21
666.2681558886077
 31
0.0000000000000000
  0
LINE
  5
1C4
100
AcDbEntity
  8
MAIN0
  6
CONTINUOUS
 62
3
100
AcDbLine
 10
349.7493072989792
 20
599.7681558885141
 30
0.0000000000000000
 11
349.7493072989792
 21
634.0681558886039
 31
0.0000000000000000
  0
LINE
  5
1C5
100
AcDbEntity
  8
MAIN0
  6
CONTINUOUS
 62
3
100
AcDbLine
 10
339.4493072989507
 20
599.7681558885226
 30
0.0000000000000000
 11
339.4493072989507
 21
600.9681558885226
 31
0.0000000000000000
  0
ARC
  5
1C6
100
AcDbEntity
  8
MAIN0
  6
CONTINUOUS
 62
3
100
AcDbCircle
 10
348.4493072989788
 20
600.7681558885153
 30
0.0000000000000000
 40
1.000000000000000
100
AcDbArc
 50
270.0000000000000
 51
360.0000000000000
  0
ARC
  5
1C7
100
AcDbEntity
  8
MAIN0
  6
CONTINUOUS
 62
3
100
AcDbCircle
 10
347.6493072989786
 20
601.5681558885159
 30
0.0000000000000000
 40
0.6000000000000001
100
AcDbArc
 50
270.0000000000000
 51
360.0000000000000
  0
LINE
  5
1C8
100
AcDbEntity
  8
MAIN0
  6
CONTINUOUS
 62
3
100
AcDbLine
 10
339.4493072989507
 20
599.7681558885226
 30
0.0000000000000000
 11
348.4493072989780
 21
599.7681558885151
 31
0.0000000000000000
  0
LINE
  5
1C9
100
AcDbEntity
  8
MAIN0
  6
CONTINUOUS
 62
3
100
AcDbLine
 10
349.7493072989792
 20
599.7681558885141
 30
0.0000000000000000
 11
350.9493072989792
 21
599.7681558885132
 31
0.0000000000000000
  0
ARC
  5
1CA
100
AcDbEntity
  8
MAIN0
  6
CONTINUOUS
 62
3
100
AcDbCircle
 10
349.9493072989791
 20
666.2681558886077
 30
0.0000000000000000
 40
1.000000000000000
100
AcDbArc
 50
0.0000000000000000
 51
90.00000000000000
  0
LINE
  5
1CB
100
AcDbEntity
  8
MAIN0
  6
CONTINUOUS
 62
3
100
AcDbLine
 10
134.9493072989782
 20
667.2681558886058
 30
0.0000000000000000
 11
142.4493072992202
 21
667.2681558886059
 31
0.0000000000000000
  0
LINE
  5
1CC
100
AcDbEntity
  8
MAIN0
  6
CONTINUOUS
 62
3
100
AcDbLine
 10
342.4493072992204
 20
667.2681558886076
 30
0.0000000000000000
 11
349.9493072989791
 21
667.2681558886077
 31
0.0000000000000000
  0
DIMENSION
  5
1D6
100
AcDbEntity
  8
MAIN0
  6
CONTINUOUS
 62
3
100
AcDbDimension
  2
*D26
 10
1037.779567931453
 20
667.2681558853556
 30
0.0000000000000000
 11
1037.279567931453
 21
650.6681558859264
 31
0.0000000000000000
 70
32
  3
MAIN001
100
AcDbAlignedDimension
 13
1064.864836993919
 23
634.0681558864973
 33
0.0000000000000000
 14
1059.864836993930
 24
667.2681558853556
 34
0.0000000000000000
 50
90.00000000000000
100
AcDbRotatedDimension
1001
ACAD
1000
DSTYLE
1002
{
1070
   173
1070
     1
1070
     6
1000
_OPEN
1070
     7
1000
_OPEN
1070
    41
1040
10.000000
1070
   287
1070
     0
1002
}
  0
DIMENSION
  5
1DF
100
AcDbEntity
  8
MAIN0
  6
CONTINUOUS
 62
3
100
AcDbDimension
  2
*D27
 10
1993.498711489168
 20
768.7922378715876
 30
0.0000000000000000
 11
1884.998711489167
 21
769.2922378715876
 31
0.0000000000000000
 70
32
  3
MAIN001
100
AcDbAlignedDimension
 13
1776.498711489166
 23
666.2681558885388
 33
0.0000000000000000
 14
1993.498711489168
 24
666.2681558885388
 34
0.0000000000000000
100
AcDbRotatedDimension
1001
ACAD
1000
DSTYLE
1002
{
1070
   173
1070
     1
1070
     6
1000
_OPEN
1070
     7
1000
_OPEN
1070
    41
1040
10.000000
1002
}
  0
LINE
  5
1E0
100
AcDbEntity
  8
MAIN0
  6
CENTER
 62
3
100
AcDbLine
 10
260.4493072989638
 20
599.0681558885980
 30
0.0000000000000000
 11
224.4493072989638
 21
599.0681558885980
 31
0.0000000000000000
  0
LINE
  5
1E1
100
AcDbEntity
  8
MAIN0
  6
CONTINUOUS
 62
3
100
AcDbLine
 10
634.3648369939419
 20
1143.595563596252
 30
0.0000000000000000
 11
631.8648369939419
 21
1145.038939269226
 31
0.0000000000000000
  0
LINE
  5
1E2
100
AcDbEntity
  8
MAIN0
  6
CONTINUOUS
 62
3
100
AcDbLine
 10
631.8648369939419
 20
1145.038939269226
 30
0.0000000000000000
 11
629.3648369939419
 21
1143.595563596252
 31
0.0000000000000000
  0
LINE
  5
1E3
100
AcDbEntity
  8
MAIN0
  6
CONTINUOUS
 62
3
100
AcDbLine
 10
629.3648369939419
 20
1143.595563596252
 30
0.0000000000000000
 11
629.3648369939419
 21
1140.708812250304
 31
0.0000000000000000
  0
LINE
  5
1E4
100
AcDbEntity
  8
MAIN0
  6
CONTINUOUS
 62
3
100
AcDbLine
 10
629.3648369939419
 20
1140.708812250304
 30
0.0000000000000000
 11
631.8648369939419
 21
1139.265436577330
 31
0.0000000000000000
  0
LINE
  5
1E5
100
AcDbEntity
  8
MAIN0
  6
CONTINUOUS
 62
3
100
AcDbLine
 10
631.8648369939418
 20
1139.265436577330
 30
0.0000000000000000
 11
634.3648369939418
 21
1140.708812250304
 31
0.0000000000000000
  0
LINE
  5
1E6
100
AcDbEntity
  8
MAIN0
  6
CONTINUOUS
 62
3
100
AcDbLine
 10
634.3648369939419
 20
1140.708812250304
 30
0.0000000000000000
 11
634.3648369939419
 21
1143.595563596252
 31
0.0000000000000000
  0
LINE
  5
1E7
100
AcDbEntity
  8
MAIN0
  6
CONTINUOUS
 62
3
100
AcDbLine
 10
979.3648369944001
 20
1168.595563596314
 30
0.0000000000000000
 11
976.8648369944001
 21
1170.038939269288
 31
0.0000000000000000
  0
LINE
  5
1E8
100
AcDbEntity
  8
MAIN0
  6
CONTINUOUS
 62
3
100
AcDbLine
 10
976.8648369944001
 20
1170.038939269288
 30
0.0000000000000000
 11
974.3648369944001
 21
1168.595563596314
 31
0.0000000000000000
  0
LINE
  5
1E9
100
AcDbEntity
  8
MAIN0
  6
CONTINUOUS
 62
3
100
AcDbLine
 10
974.3648369944001
 20
1168.595563596314
 30
0.0000000000000000
 11
974.3648369944001
 21
1165.708812250366
 31
0.0000000000000000
  0
LINE
  5
1EA
100
AcDbEntity
  8
MAIN0
  6
CONTINUOUS
 62
3
100
AcDbLine
 10
974.3648369944001
 20
1165.708812250366
 30
0.0000000000000000
 11
976.8648369944001
 21
1164.265436577392
 31
0.0000000000000000
  0
LINE
  5
1EB
100
AcDbEntity
  8
MAIN0
  6
CONTINUOUS
 62
3
100
AcDbLine
 10
976.8648369944001
 20
1164.265436577392
 30
0.0000000000000000
 11
979.3648369944001
 21
1165.708812250366
 31
0.0000000000000000
  0
LINE
  5
1EC
100
AcDbEntity
  8
MAIN0
  6
CONTINUOUS
 62
3
100
AcDbLine
 10
979.3648369944001
 20
1165.708812250366
 30
0.0000000000000000
 11
979.3648369944001
 21
1168.595563596314
 31
0.0000000000000000
  0
LINE
  5
1ED
100
AcDbEntity
  8
MAIN0
  6
CONTINUOUS
 62
3
100
AcDbLine
 10
1039.364836994400
 20
1168.595563596314
 30
0.0000000000000000
 11
1036.864836994400
 21
1170.038939269288
 31
0.0000000000000000
  0
LINE
  5
1EE
100
AcDbEntity
  8
MAIN0
  6
CONTINUOUS
 62
3
100
AcDbLine
 10
1036.864836994400
 20
1170.038939269288
 30
0.0000000000000000
 11
1034.364836994400
 21
1168.595563596314
 31
0.0000000000000000
  0
LINE
  5
1EF
100
AcDbEntity
  8
MAIN0
  6
CONTINUOUS
 62
3
100
AcDbLine
 10
1034.364836994400
 20
1168.595563596314
 30
0.0000000000000000
 11
1034.364836994400
 21
1165.708812250366
 31
0.0000000000000000
  0
LINE
  5
1F0
100
AcDbEntity
  8
MAIN0
  6
CONTINUOUS
 62
3
100
AcDbLine
 10
1034.364836994400
 20
1165.708812250366
 30
0.0000000000000000
 11
1036.864836994400
 21
1164.265436577392
 31
0.0000000000000000
  0
LINE
  5
1F1
100
AcDbEntity
  8
MAIN0
  6
CONTINUOUS
 62
3
100
AcDbLine
 10
1036.864836994400
 20
1164.265436577391
 30
0.0000000000000000
 11
1039.364836994400
 21
1165.708812250365
 31
0.0000000000000000
  0
LINE
  5
1F2
100
AcDbEntity
  8
MAIN0
  6
CONTINUOUS
 62
3
100
AcDbLine
 10
1039.364836994400
 20
1165.708812250366
 30
0.0000000000000000
 11
1039.364836994400
 21
1168.595563596314
 31
0.0000000000000000
  0
LINE
  5
1F3
100
AcDbEntity
  8
MAIN0
  6
CONTINUOUS
 62
3
100
AcDbLine
 10
1039.364836994400
 20
1018.595563596314
 30
0.0000000000000000
 11
1036.864836994400
 21
1020.038939269288
 31
0.0000000000000000
  0
LINE
  5
1F4
100
AcDbEntity
  8
MAIN0
  6
CONTINUOUS
 62
3
100
AcDbLine
 10
1036.864836994400
 20
1020.038939269288
 30
0.0000000000000000
 11
1034.364836994400
 21
1018.595563596314
 31
0.0000000000000000
  0
LINE
  5
1F5
100
AcDbEntity
  8
MAIN0
  6
CONTINUOUS
 62
3
100
AcDbLine
 10
1034.364836994400
 20
1018.595563596314
 30
0.0000000000000000
 11
1034.364836994400
 21
1015.708812250366
 31
0.0000000000000000
  0
LINE
  5
1F6
100
AcDbEntity
  8
MAIN0
  6
CONTINUOUS
 62
3
100
AcDbLine
 10
1034.364836994400
 20
1015.708812250366
 30
0.0000000000000000
 11
1036.864836994400
 21
1014.265436577392
 31
0.0000000000000000
  0
LINE
  5
1F7
100
AcDbEntity
  8
MAIN0
  6
CONTINUOUS
 62
3
100
AcDbLine
 10
1036.864836994400
 20
1014.265436577392
 30
0.0000000000000000
 11
1039.364836994400
 21
1015.708812250366
 31
0.0000000000000000
  0
LINE
  5
1F8
100
AcDbEntity
  8
MAIN0
  6
CONTINUOUS
 62
3
100
AcDbLine
 10
1039.364836994400
 20
1015.708812250366
 30
0.0000000000000000
 11
1039.364836994400
 21
1018.595563596314
 31
0.0000000000000000
  0
LINE
  5
1F9
100
AcDbEntity
  8
MAIN0
  6
CONTINUOUS
 62
3
100
AcDbLine
 10
979.3648369944001
 20
1018.595563596314
 30
0.0000000000000000
 11
976.8648369944001
 21
1020.038939269288
 31
0.0000000000000000
  0
LINE
  5
1FA
100
AcDbEntity
  8
MAIN0
  6
CONTINUOUS
 62
3
100
AcDbLine
 10
976.8648369944000
 20
1020.038939269288
 30
0.0000000000000000
 11
974.3648369944000
 21
1018.595563596314
 31
0.0000000000000000
  0
LINE
  5
1FB
100
AcDbEntity
  8
MAIN0
  6
CONTINUOUS
 62
3
100
AcDbLine
 10
974.3648369944001
 20
1018.595563596314
 30
0.0000000000000000
 11
974.3648369944001
 21
1015.708812250366
 31
0.0000000000000000
  0
LINE
  5
1FC
100
AcDbEntity
  8
MAIN0
  6
CONTINUOUS
 62
3
100
AcDbLine
 10
974.3648369944001
 20
1015.708812250366
 30
0.0000000000000000
 11
976.8648369944001
 21
1014.265436577392
 31
0.0000000000000000
  0
LINE
  5
1FD
100
AcDbEntity
  8
MAIN0
  6
CONTINUOUS
 62
3
100
AcDbLine
 10
976.8648369944000
 20
1014.265436577392
 30
0.0000000000000000
 11
979.3648369944000
 21
1015.708812250366
 31
0.0000000000000000
  0
LINE
  5
1FE
100
AcDbEntity
  8
MAIN0
  6
CONTINUOUS
 62
3
100
AcDbLine
 10
979.3648369944001
 20
1015.708812250366
 30
0.0000000000000000
 11
979.3648369944001
 21
1018.595563596314
 31
0.0000000000000000
  0
LINE
  5
1FF
100
AcDbEntity
  8
MAIN0
  6
CONTINUOUS
 62
3
100
AcDbLine
 10
634.3648369939418
 20
1043.595563596369
 30
0.0000000000000000
 11
631.8648369939417
 21
1045.038939269343
 31
0.0000000000000000
  0
LINE
  5
200
100
AcDbEntity
  8
MAIN0
  6
CONTINUOUS
 62
3
100
AcDbLine
 10
631.8648369939417
 20
1045.038939269343
 30
0.0000000000000000
 11
629.3648369939417
 21
1043.595563596369
 31
0.0000000000000000
  0
LINE
  5
201
100
AcDbEntity
  8
MAIN0
  6
CONTINUOUS
 62
3
100
AcDbLine
 10
629.3648369939418
 20
1043.595563596369
 30
0.0000000000000000
 11
629.3648369939418
 21
1040.708812250421
 31
0.0000000000000000
  0
LINE
  5
202
100
AcDbEntity
  8
MAIN0
  6
CONTINUOUS
 62
3
100
AcDbLine
 10
629.3648369939419
 20
1040.708812250421
 30
0.0000000000000000
 11
631.8648369939418
 21
1039.265436577447
 31
0.0000000000000000
  0
LINE
  5
203
100
AcDbEntity
  8
MAIN0
  6
CONTINUOUS
 62
3
100
AcDbLine
 10
631.8648369939417
 20
1039.265436577446
 30
0.0000000000000000
 11
634.3648369939417
 21
1040.708812250420
 31
0.0000000000000000
  0
LINE
  5
204
100
AcDbEntity
  8
MAIN0
  6
CONTINUOUS
 62
3
100
AcDbLine
 10
634.3648369939418
 20
1040.708812250421
 30
0.0000000000000000
 11
634.3648369939418
 21
1043.595563596369
 31
0.0000000000000000
  0
LINE
  5
205
100
AcDbEntity
  8
MAIN0
  6
CONTINUOUS
 62
3
100
AcDbLine
 10
564.3648369939419
 20
1043.595563596369
 30
0.0000000000000000
 11
561.8648369939417
 21
1045.038939269343
 31
0.0000000000000000
  0
LINE
  5
206
100
AcDbEntity
  8
MAIN0
  6
CONTINUOUS
 62
3
100
AcDbLine
 10
561.8648369939418
 20
1045.038939269343
 30
0.0000000000000000
 11
559.3648369939417
 21
1043.595563596369
 31
0.0000000000000000
  0
LINE
  5
207
100
AcDbEntity
  8
MAIN0
  6
CONTINUOUS
 62
3
100
AcDbLine
 10
559.3648369939418
 20
1043.595563596369
 30
0.0000000000000000
 11
559.3648369939418
 21
1040.708812250421
 31
0.0000000000000000
  0
LINE
  5
208
100
AcDbEntity
  8
MAIN0
  6
CONTINUOUS
 62
3
100
AcDbLine
 10
559.3648369939419
 20
1040.708812250421
 30
0.0000000000000000
 11
561.8648369939419
 21
1039.265436577447
 31
0.0000000000000000
  0
LINE
  5
209
100
AcDbEntity
  8
MAIN0
  6
CONTINUOUS
 62
3
100
AcDbLine
 10
561.8648369939417
 20
1039.265436577447
 30
0.0000000000000000
 11
564.3648369939418
 21
1040.708812250421
 31
0.0000000000000000
  0
LINE
  5
20A
100
AcDbEntity
  8
MAIN0
  6
CONTINUOUS
 62
3
100
AcDbLine
 10
564.3648369939418
 20
1040.708812250421
 30
0.0000000000000000
 11
564.3648369939418
 21
1043.595563596369
 31
0.0000000000000000
  0
LEADER
  5
20B
100
AcDbEntity
  8
MAIN0
  6
CONTINUOUS
 62
3
100
AcDbLeader
  3
MAIN001
 73
     0
 75
     1
 40
15.49999952316284
 41
109.4990000670552
 76
     3
 10
591.0615566314979
 20
1090.763484299465
 30
0.0000000000000000
 10
442.4027278379394
 20
1047.783887300449
 30
0.0000000000000000
 10
433.4717281012430
 20
1047.783887300449
 30
0.0000000000000000
340
20C
213
0.0000000000000000
223
-2.500000000000000
233
0.0000000000000000
1001
ACAD
1000
DSTYLE
1002
{
1070
   147
1040
0.0
1070
    77
1070
     1
1070
   173
1070
     1
1070
     6
1000
_OPEN
1070
     7
1000
_OPEN
1002
}
  0
MTEXT
  5
20C
102
{ACAD_REACTORS
330
20B
102
}
100
AcDbEntity
  8
MAIN0
  6
CONTINUOUS
 62
3
100
AcDbMText
 10
323.9727280341878
 20
1065.783886823612
 30
0.0000000000000000
 40
15.49999952316284
 41
0.0000000000000000
 71
     1
 72
     1
  1
{\H0.70x;{（吊りボルト用）\P（EYE BOLT）\P}
 11
1.000000000000000
 21
0.0000000000000000
 31
0.0000000000000000
  7
KNJYOKO
  0
DIMENSION
  5
215
100
AcDbEntity
  8
MAIN0
  6
CONTINUOUS
 62
3
100
AcDbDimension
  2
*D28
 10
646.8648369939418
 20
454.9237770015941
 30
0.0000000000000000
 11
714.3648369938253
 21
455.4237770015941
 31
0.0000000000000000
 70
32
  3
MAIN001
100
AcDbAlignedDimension
 13
781.8648369937088
 23
510.0784386305738
 33
0.0000000000000000
 14
646.8648369939418
 24
634.4681558856529
 34
0.0000000000000000
100
AcDbRotatedDimension
1001
ACAD
1000
DSTYLE
1002
{
1070
   173
1070
     1
1070
     6
1000
_OPEN
1070
     7
1000
_OPEN
1070
    41
1040
10.000000
1002
}
  0
DIMENSION
  5
21E
100
AcDbEntity
  8
MAIN0
  6
CONTINUOUS
 62
3
100
AcDbDimension
  2
*D29
 10
781.8648369937088
 20
454.9237770015941
 30
0.0000000000000000
 11
1071.864836993709
 21
455.4237770015941
 31
0.0000000000000000
 70
32
  3
MAIN001
100
AcDbAlignedDimension
 13
1361.864836993710
 23
524.4681558895182
 33
0.0000000000000000
 14
781.8648369937088
 24
510.0784386305738
 34
0.0000000000000000
100
AcDbRotatedDimension
1001
ACAD
1000
DSTYLE
1002
{
1070
   173
1070
     1
1070
     6
1000
_OPEN
1070
     7
1000
_OPEN
1070
    41
1040
10.000000
1002
}
  0
DIMENSION
  5
227
100
AcDbEntity
  8
MAIN0
  6
CONTINUOUS
 62
3
100
AcDbDimension
  2
*D30
 10
1219.547199477651
 20
524.0681558907490
 30
0.0000000000000000
 11
1217.047199477651
 21
494.6673641194376
 31
0.0000000000000000
 70
160
  3
MAIN001
100
AcDbAlignedDimension
 13
1237.864836993975
 23
576.5681558909540
 33
0.0000000000000000
 14
790.8648369937089
 24
524.0681558907490
 34
0.0000000000000000
 50
90.00000000000000
100
AcDbRotatedDimension
1001
ACAD
1000
DSTYLE
1002
{
1070
   173
1070
     1
1070
     6
1000
_OPEN
1070
     7
1000
_OPEN
1070
    41
1040
10.000000
1002
}
  0
DIMENSION
  5
230
100
AcDbEntity
  8
MAIN0
  6
CONTINUOUS
 62
3
100
AcDbDimension
  2
*D31
 10
1219.547199477651
 20
576.5681558909540
 30
0.0000000000000000
 11
1219.047199477651
 21
605.3181558887178
 31
0.0000000000000000
 70
32
  3
MAIN001
100
AcDbAlignedDimension
 13
1059.864836993919
 23
634.0681558864816
 33
0.0000000000000000
 14
1237.864836993975
 24
576.5681558909540
 34
0.0000000000000000
 50
90.00000000000000
100
AcDbRotatedDimension
1001
ACAD
1000
DSTYLE
1002
{
1070
   173
1070
     1
1070
     6
1000
_OPEN
1070
     7
1000
_OPEN
1070
    41
1040
10.000000
1002
}
  0
DIMENSION
  5
23B
100
AcDbEntity
  8
MAIN0
  6
CONTINUOUS
 62
3
100
AcDbDimension
  2
*D32
 10
1507.097987093747
 20
871.3947736964865
 30
0.0000000000000000
 11
1479.290304119494
 21
873.8947736964865
 31
0.0000000000000000
 70
160
  3
MAIN001
100
AcDbAlignedDimension
 13
1522.097987093747
 23
608.6681558885651
 33
0.0000000000000000
 14
1507.097987093754
 24
599.0681558885652
 34
0.0000000000000000
100
AcDbRotatedDimension
1001
ACAD
1000
DSTYLE
1002
{
1070
   173
1070
     1
1070
     6
1000
_OPEN
1070
     7
1000
_OPEN
1070
    41
1040
10.000000
1070
   287
1070
     0
1002
}
  0
DIMENSION
  5
244
100
AcDbEntity
  8
MAIN0
  6
CONTINUOUS
 62
3
100
AcDbDimension
  2
*D33
 10
1522.097987093754
 20
871.3947736964865
 30
0.0000000000000000
 11
1540.597987093837
 21
871.8947736964865
 31
0.0000000000000000
 70
32
  3
MAIN001
100
AcDbAlignedDimension
 13
1559.097987093920
 23
812.0681558885675
 33
0.0000000000000000
 14
1522.097987093747
 24
608.6681558885651
 34
0.0000000000000000
100
AcDbRotatedDimension
1001
ACAD
1000
DSTYLE
1002
{
1070
   173
1070
     1
1070
     6
1000
_OPEN
1070
     7
1000
_OPEN
1070
    41
1040
10.000000
1002
}
  0
DIMENSION
  5
24D
100
AcDbEntity
  8
MAIN0
  6
CONTINUOUS
 62
3
100
AcDbDimension
  2
*D34
 10
1559.097987093920
 20
871.3947736964865
 30
0.0000000000000000
 11
1606.597987093925
 21
871.8947736964865
 31
0.0000000000000000
 70
32
  3
MAIN001
100
AcDbAlignedDimension
 13
1654.097987093931
 23
824.0681558885652
 33
0.0000000000000000
 14
1559.097987093920
 24
812.0681558885675
 34
0.0000000000000000
100
AcDbRotatedDimension
1001
ACAD
1000
DSTYLE
1002
{
1070
   173
1070
     1
1070
     6
1000
_OPEN
1070
     7
1000
_OPEN
1070
    41
1040
10.000000
1002
}
  0
DIMENSION
  5
256
100
AcDbEntity
  8
MAIN0
  6
CONTINUOUS
 62
3
100
AcDbDimension
  2
*D35
 10
1507.097987093754
 20
907.6788606143324
 30
0.0000000000000000
 11
1580.597987093843
 21
908.1788606143324
 31
0.0000000000000000
 70
32
  3
MAIN001
100
AcDbAlignedDimension
 13
1654.097987093931
 23
824.0681558885652
 33
0.0000000000000000
 14
1507.097987093754
 24
599.0681558885652
 34
0.0000000000000000
100
AcDbRotatedDimension
1001
ACAD
1000
DSTYLE
1002
{
1070
   173
1070
     1
1070
     6
1000
_OPEN
1070
     7
1000
_OPEN
1070
    41
1040
10.000000
1002
}
  0
DIMENSION
  5
25F
100
AcDbEntity
  8
MAIN0
  6
CONTINUOUS
 62
3
100
AcDbDimension
  2
*D36
 10
595.8648369944307
 20
1231.376512278346
 30
0.0000000000000000
 11
621.3648369941865
 21
1231.876512278346
 31
0.0000000000000000
 70
32
  3
MAIN001
100
AcDbAlignedDimension
 13
646.8648369939422
 23
1191.652187923377
 33
0.0000000000000000
 14
595.8648369944307
 24
1103.152187923377
 34
0.0000000000000000
100
AcDbRotatedDimension
1001
ACAD
1000
DSTYLE
1002
{
1070
   173
1070
     1
1070
     6
1000
_OPEN
1070
     7
1000
_OPEN
1070
    41
1040
10.000000
1002
}
  0
DIMENSION
  5
268
100
AcDbEntity
  8
MAIN0
  6
CONTINUOUS
 62
3
100
AcDbDimension
  2
*D37
 10
1485.315494478388
 20
599.0681558885652
 30
0.0000000000000000
 11
1484.815494478388
 21
561.5681558888772
 31
0.0000000000000000
 70
32
  3
MAIN001
100
AcDbAlignedDimension
 13
1361.864836993709
 23
524.0681558891890
 33
0.0000000000000000
 14
1495.363408089255
 24
599.0681558885652
 34
0.0000000000000000
 50
90.00000000000000
100
AcDbRotatedDimension
1001
ACAD
1000
DSTYLE
1002
{
1070
   173
1070
     1
1070
     6
1000
_OPEN
1070
     7
1000
_OPEN
1070
    41
1040
10.000000
1002
}
  0
DIMENSION
  5
273
100
AcDbEntity
  8
MAIN0
  6
CONTINUOUS
 62
3
100
AcDbDimension
  2
*D38
 10
790.8648369937088
 20
488.9152418581637
 30
0.0000000000000000
 11
748.5640011030671
 21
491.4152418581637
 31
0.0000000000000000
 70
160
  3
MAIN001
100
AcDbAlignedDimension
 13
772.8648369937088
 23
519.0681558908002
 33
0.0000000000000000
 14
790.8648369937088
 24
519.0681558908002
 34
0.0000000000000000
100
AcDbRotatedDimension
1001
ACAD
1000
DSTYLE
1002
{
1070
   173
1070
     1
1070
     6
1000
_OPEN
1070
     7
1000
_OPEN
1070
    41
1040
10.000000
1070
   287
1070
     0
1002
}
  0
MTEXT
  5
274
100
AcDbEntity
  8
MAIN0
  6
CONTINUOUS
 62
3
100
AcDbMText
 10
764.5097704694121
 20
778.9749687220493
 30
0.0000000000000000
 40
15.49999952316284
 41
0.0000000000000000
 71
     1
 72
     1
  1
{\H0.66x;{MIN. 195}}
 11
1.000000000000000
 21
0.0000000000000000
 31
0.0000000000000000
  7
STANDARD
  0
LINE
  5
275
100
AcDbEntity
  8
MAIN0
  6
CONTINUOUS
 62
3
100
AcDbLine
 10
281.6095613361684
 20
569.0681558878569
 30
0.0000000000000000
 11
203.2890532583385
 21
569.0681558879372
 31
0.0000000000000000
  0
LINE
  5
276
100
AcDbEntity
  8
MAIN0
  6
CONTINUOUS
 62
3
100
AcDbLine
 10
298.9493072989490
 20
594.0681558885448
 30
0.0000000000000000
 11
282.9493072983449
 21
594.0681558885611
 31
0.0000000000000000
  0
LINE
  5
277
100
AcDbEntity
  8
MAIN0
  6
CONTINUOUS
 62
3
100
AcDbLine
 10
185.9493072989742
 20
594.0681558885922
 30
0.0000000000000000
 11
201.9493072962864
 21
594.0681558885951
 31
0.0000000000000000
  0
ARC
  5
278
100
AcDbEntity
  8
MAIN5
  6
CONTINUOUS
 62
3
100
AcDbCircle
 10
262.7760374191587
 20
577.0681558816737
 30
0.0000000000000000
 40
10.00000000000000
100
AcDbArc
 50
270.0000000000000
 51
306.8698977050147
  0
LINE
  5
279
100
AcDbEntity
  8
MAIN0
  6
CONTINUOUS
 62
3
100
AcDbLine
 10
222.1225771787348
 20
567.0681558816727
 30
0.0000000000000000
 11
262.7760374191583
 21
567.0681558816557
 31
0.0000000000000000
  0
ARC
  5
27A
100
AcDbEntity
  8
MAIN5
  6
CONTINUOUS
 62
3
100
AcDbCircle
 10
222.1225771787392
 20
577.0681558816737
 30
0.0000000000000000
 40
10.00000000000000
100
AcDbArc
 50
233.1301022944692
 51
270.0000000000000
  0
DIMENSION
  5
284
100
AcDbEntity
  8
MAIN0
  6
CONTINUOUS
 62
1
100
AcDbDimension
  2
*D39
 10
1783.998711489120
 20
454.9237770015941
 30
0.0000000000000000
 11
1819.552544815661
 21
457.4237770015941
 31
0.0000000000000000
 70
160
  1
\A1;15～31
  3
MAIN001
100
AcDbAlignedDimension
 13
1760.998711489120
 23
580.0184174214662
 33
0.0000000000000000
 14
1783.998711489112
 24
524.4681558878331
 34
0.0000000000000000
100
AcDbRotatedDimension
1001
ACAD
1000
DSTYLE
1002
{
1070
   173
1070
     1
1070
     6
1000
_OPEN
1070
     7
1000
_OPEN
1070
    41
1040
10.000000
1070
   287
1070
     0
1070
   340
1005
285
1002
}
  0
DIMENSION
  5
28E
100
AcDbEntity
  8
MAIN0
  6
CONTINUOUS
 62
3
100
AcDbDimension
  2
*D40
 10
1985.998711489113
 20
419.2168226281029
 30
0.0000000000000000
 11
1884.998711489113
 21
419.7168226281029
 31
0.0000000000000000
 70
32
  3
MAIN001
100
AcDbAlignedDimension
 13
1783.998711489112
 23
524.4681558878331
 33
0.0000000000000000
 14
1985.998711489113
 24
524.4681558877481
 34
0.0000000000000000
100
AcDbRotatedDimension
1001
ACAD
1000
DSTYLE
1002
{
1070
   173
1070
     1
1070
     6
1000
_OPEN
1070
     7
1000
_OPEN
1070
    41
1040
10.000000
1002
}
  0
DIMENSION
  5
297
100
AcDbEntity
  8
MAIN0
  6
CONTINUOUS
 62
3
100
AcDbDimension
  2
*D41
 10
1783.998711489112
 20
419.2168226281029
 30
0.0000000000000000
 11
1744.982150218970
 21
421.7168226281029
 31
0.0000000000000000
 70
160
  3
MAIN001
100
AcDbAlignedDimension
 13
1712.998711489121
 23
554.0681558879388
 33
0.0000000000000000
 14
1783.998711489112
 24
524.4681558878331
 34
0.0000000000000000
100
AcDbRotatedDimension
1001
ACAD
1000
DSTYLE
1002
{
1070
   173
1070
     1
1070
     6
1000
_OPEN
1070
     7
1000
_OPEN
1070
    41
1040
10.000000
1002
}
  0
INSERT
  5
29F
100
AcDbEntity
  8
MAIN0
  6
CONTINUOUS
 62
3
100
AcDbBlockReference
  2
D42
 10
1884.998711489116
 20
513.8209456877581
 30
0.0000000000000000
 50
0.0000000000000000
  0
DIMENSION
  5
2AA
100
AcDbEntity
  8
MAIN0
  6
CONTINUOUS
 62
3
100
AcDbDimension
  2
*D43
 10
1813.704000415595
 20
340.0291378143423
 30
0.0000000000000000
 11
1811.204000415595
 21
307.8227473583552
 31
0.0000000000000000
 70
160
  3
MAIN001
100
AcDbAlignedDimension
 13
1775.998711489062
 23
357.5291378143339
 33
0.0000000000000000
 14
1775.998711489074
 24
340.0291378143340
 34
0.0000000000000000
 50
90.00000000000000
100
AcDbRotatedDimension
1001
ACAD
1000
DSTYLE
1002
{
1070
   173
1070
     1
1070
     6
1000
_OPEN
1070
     7
1000
_OPEN
1070
    41
1040
10.000000
1070
   287
1070
     0
1002
}
  0
DIMENSION
  5
2B5
100
AcDbEntity
  8
MAIN0
  6
CONTINUOUS
 62
3
100
AcDbDimension
  2
*D44
 10
1745.998711489078
 20
287.8935253422768
 30
0.0000000000000000
 11
1760.998711489078
 21
288.3935253422768
 31
0.0000000000000000
 70
32
  3
MAIN001
100
AcDbAlignedDimension
 13
1775.998711489078
 23
334.5291378143340
 33
0.0000000000000000
 14
1745.998711489078
 24
334.5291378143423
 34
0.0000000000000000
100
AcDbRotatedDimension
1001
ACAD
1000
DSTYLE
1002
{
1070
   173
1070
     1
1070
     6
1000
_OPEN
1070
     7
1000
_OPEN
1070
    41
1040
10.000000
1070
   287
1070
     0
1002
}
  0
DIMENSION
  5
2C0
100
AcDbEntity
  8
MAIN0
  6
CONTINUOUS
 62
3
100
AcDbDimension
  2
*D45
 10
1728.726235443728
 20
334.5291378143423
 30
0.0000000000000000
 11
1726.226235443728
 21
304.0028856438801
 31
0.0000000000000000
 70
160
  3
MAIN001
100
AcDbAlignedDimension
 13
1745.998711489058
 23
363.0291378143421
 33
0.0000000000000000
 14
1745.998711489078
 24
334.5291378143423
 34
0.0000000000000000
 50
90.00000000000000
100
AcDbRotatedDimension
1001
ACAD
1000
DSTYLE
1002
{
1070
   173
1070
     1
1070
     6
1000
_OPEN
1070
     7
1000
_OPEN
1070
    41
1040
10.000000
1070
   287
1070
     0
1002
}
  0
MTEXT
  5
2C1
100
AcDbEntity
  8
MAIN0
  6
CONTINUOUS
 62
3
100
AcDbMText
 10
1378.626512127637
 20
296.9980610634553
 30
0.0000000000000000
 40
15.00000000000000
 41
0.0000000000000000
 71
     1
 72
     1
  1
{\H0.63x;{(CLAMPING PARTS  ACCESSARY 6 PAIR)}}
 11
1.000000000000000
 21
0.0000000000000000
 31
0.0000000000000000
  7
STANDARD
  0
MTEXT
  5
2C2
100
AcDbEntity
  8
MAIN0
  6
CONTINUOUS
 62
3
100
AcDbMText
 10
1377.251569833931
 20
317.4688905076417
 30
0.0000000000000000
 40
15.49999952316284
 41
0.0000000000000000
 71
     1
 72
     1
  1
{\H0.94x;{(押さえ金具６セット付属)}}
 11
1.000000000000000
 21
0.0000000000000000
 31
0.0000000000000000
  7
KNJYOKO
  0
LEADER
  5
2C3
100
AcDbEntity
  8
MAIN0
  6
CONTINUOUS
 62
3
100
AcDbLeader
  3
MAIN001
 73
     0
 75
     1
 40
15.49999952316284
 41
201.3240058889387
 76
     3
 10
1752.998711489121
 20
529.8042679855171
 30
0.0000000000000000
 10
1702.215352824421
 20
459.0145811061530
 30
0.0000000000000000
 10
1692.584353103370
 20
459.0145811061530
 30
0.0000000000000000
340
2C4
213
0.0000000000000000
223
-2.500000000000000
233
0.0000000000000000
1001
ACAD
1000
DSTYLE
1002
{
1070
   147
1040
0.0
1070
    77
1070
     1
1070
   173
1070
     1
1070
     6
1000
_OPEN
1070
     7
1000
_OPEN
1002
}
  0
MTEXT
  5
2C4
102
{ACAD_REACTORS
330
2C3
102
}
100
AcDbEntity
  8
MAIN0
  6
CONTINUOUS
 62
3
100
AcDbMText
 10
1491.260347214432
 20
477.0145806293158
 30
0.0000000000000000
 40
15.49999952316284
 41
0.0000000000000000
 71
     1
 72
     1
  1
{\H0.91x;{六角穴付ボルト\PM16×65\PHEX,SOCKET HEAD\PCAP SCREW}}
 11
1.000000000000000
 21
0.0000000000000000
 31
0.0000000000000000
  7
KNJYOKO
  0
LINE
  5
2C5
100
AcDbEntity
  8
MAIN0
  6
CENTER
 62
3
100
AcDbLine
 10
1572.006839235305
 20
599.0681558885652
 30
0.0000000000000000
 11
1495.363408089255
 21
599.0681558885652
 31
0.0000000000000000
  0
LINE
  5
2C6
100
AcDbEntity
  8
MAIN0
  6
CONTINUOUS
 62
3
100
AcDbLine
 10
194.4493072989786
 20
629.0681558885935
 30
0.0000000000000000
 11
290.4493072989787
 21
629.0681558886154
 31
0.0000000000000000
  0
LINE
  5
2C7
100
AcDbEntity
  8
MAIN0
  6
CONTINUOUS
 62
3
100
AcDbLine
 10
583.8648369928234
 20
625.0681558856526
 30
0.0000000000000000
 11
583.8648369928234
 21
634.0681558856526
 31
0.0000000000000000
  0
LINE
  5
2C8
100
AcDbEntity
  8
MAIN0
  6
CONTINUOUS
 62
3
100
AcDbLine
 10
607.8648369928234
 20
625.0681558857278
 30
0.0000000000000000
 11
607.8648369928234
 21
634.0681558857280
 31
0.0000000000000000
  0
LINE
  5
2C9
100
AcDbEntity
  8
MAIN0
  6
CONTINUOUS
 62
3
100
AcDbLine
 10
543.8648369940868
 20
608.0681558886768
 30
0.0000000000000000
 11
1059.864836993911
 21
608.0681558886021
 31
0.0000000000000000
  0
LINE
  5
2CA
100
AcDbEntity
  8
MAIN0
  6
CONTINUOUS
 62
3
100
AcDbLine
 10
583.8648369928234
 20
625.0681558856526
 30
0.0000000000000000
 11
607.8648369928229
 21
625.0681558857278
 31
0.0000000000000000
  0
LINE
  5
2CB
100
AcDbEntity
  8
MAIN0
  6
CONTINUOUS
 62
3
100
AcDbLine
 10
1231.864836993788
 20
603.7681558884982
 30
0.0000000000000000
 11
1291.864836993788
 21
603.7681558885088
 31
0.0000000000000000
  0
LINE
  5
2CC
100
AcDbEntity
  8
MAIN0
  6
CONTINUOUS
 62
3
100
AcDbLine
 10
1291.864836993794
 20
605.7681558885042
 30
0.0000000000000000
 11
1364.864836993461
 21
605.7681558885165
 31
0.0000000000000000
  0
LINE
  5
2CD
100
AcDbEntity
  8
MAIN0
  6
CONTINUOUS
 62
3
100
AcDbLine
 10
583.8648369928203
 20
626.0681558856526
 30
0.0000000000000000
 11
607.8648369928199
 21
626.0681558857278
 31
0.0000000000000000
  0
LINE
  5
2CE
100
AcDbEntity
  8
MAIN0
  6
CONTINUOUS
 62
3
100
AcDbLine
 10
1425.864836995605
 20
567.0681558885651
 30
0.0000000000000000
 11
1425.864836995324
 21
634.0681558885658
 31
0.0000000000000000
  0
LINE
  5
2CF
100
AcDbEntity
  8
MAIN0
  6
CONTINUOUS
 62
3
100
AcDbLine
 10
1427.864836992823
 20
567.0681558885652
 30
0.0000000000000000
 11
1427.864836992823
 21
634.0681558885657
 31
0.0000000000000000
  0
CIRCLE
  5
2D0
100
AcDbEntity
  8
MAIN0
  6
CONTINUOUS
 62
3
100
AcDbCircle
 10
658.8648369939750
 20
576.5681558914297
 30
0.0000000000000000
 40
5.000000000000000
  0
CIRCLE
  5
2D1
100
AcDbEntity
  8
MAIN0
  6
CONTINUOUS
 62
3
100
AcDbCircle
 10
658.8648369939750
 20
576.5681558914297
 30
0.0000000000000000
 40
4.250000000000000
  0
CIRCLE
  5
2D2
100
AcDbEntity
  8
MAIN0
  6
CONTINUOUS
 62
3
100
AcDbCircle
 10
1246.864836993975
 20
576.5681558909540
 30
0.0000000000000000
 40
5.000000000000000
  0
CIRCLE
  5
2D3
100
AcDbEntity
  8
MAIN0
  6
CONTINUOUS
 62
3
100
AcDbCircle
 10
1246.864836993975
 20
576.5681558909540
 30
0.0000000000000000
 40
4.250000000000000
  0
LINE
  5
2D4
100
AcDbEntity
  8
MAIN0
  6
CENTER
 62
3
100
AcDbLine
 10
667.8648369939750
 20
576.5681558914297
 30
0.0000000000000000
 11
649.8648369939750
 21
576.5681558914297
 31
0.0000000000000000
  0
LINE
  5
2D5
100
AcDbEntity
  8
MAIN0
  6
CENTER
 62
3
100
AcDbLine
 10
658.8648369939750
 20
585.5681558914297
 30
0.0000000000000000
 11
658.8648369939750
 21
567.5681558914297
 31
0.0000000000000000
  0
LINE
  5
2D6
100
AcDbEntity
  8
MAIN0
  6
CENTER
 62
3
100
AcDbLine
 10
1255.864836993975
 20
576.5681558909540
 30
0.0000000000000000
 11
1237.864836993975
 21
576.5681558909540
 31
0.0000000000000000
  0
LINE
  5
2D7
100
AcDbEntity
  8
MAIN0
  6
CENTER
 62
3
100
AcDbLine
 10
1246.864836993975
 20
585.5681558909540
 30
0.0000000000000000
 11
1246.864836993975
 21
567.5681558909540
 31
0.0000000000000000
  0
LINE
  5
2D8
100
AcDbEntity
  8
MAIN0
  6
CENTER
 62
3
100
AcDbLine
 10
605.8648369928427
 20
674.0681558856527
 30
0.0000000000000000
 11
585.8648369928427
 21
674.0681558856527
 31
0.0000000000000000
  0
LINE
  5
2D9
100
AcDbEntity
  8
MAIN0
  6
CENTER
 62
3
100
AcDbLine
 10
605.8648369928427
 20
694.0681558856527
 30
0.0000000000000000
 11
585.8648369928427
 21
694.0681558856527
 31
0.0000000000000000
  0
LINE
  5
2DA
100
AcDbEntity
  8
MAIN0
  6
CENTER
 62
3
100
AcDbLine
 10
595.8648369928427
 20
664.0681558856527
 30
0.0000000000000000
 11
595.8648369928427
 21
704.0681558856527
 31
0.0000000000000000
  0
LINE
  5
2DB
100
AcDbEntity
  8
MAIN0
  6
CONTINUOUS
 62
3
100
AcDbLine
 10
1406.864836993999
 20
618.0681558884177
 30
0.0000000000000000
 11
1364.864836993460
 21
618.0681558885555
 31
0.0000000000000000
  0
LINE
  5
2DC
100
AcDbEntity
  8
MAIN0
  6
CONTINUOUS
 62
3
100
AcDbLine
 10
1406.864836993937
 20
580.3181558883608
 30
0.0000000000000000
 11
1406.864836994025
 21
634.0681558884079
 31
0.0000000000000000
  0
LINE
  5
2DD
100
AcDbEntity
  8
MAIN0
  6
CONTINUOUS
 62
3
100
AcDbLine
 10
1406.864836993977
 20
604.5681558883608
 30
0.0000000000000000
 11
1361.864836993953
 21
604.5681558885084
 31
0.0000000000000000
  0
LINE
  5
2DE
100
AcDbEntity
  8
MAIN0
  6
CONTINUOUS
 62
3
100
AcDbLine
 10
1406.864836993959
 20
608.0681558884177
 30
0.0000000000000000
 11
1364.864836993457
 21
608.0681558885555
 31
0.0000000000000000
  0
LINE
  5
2DF
100
AcDbEntity
  8
MAIN0
  6
CONTINUOUS
 62
3
100
AcDbLine
 10
1384.864836993927
 20
573.9285457085001
 30
0.0000000000000000
 11
1361.864836993927
 21
573.9285457085756
 31
0.0000000000000000
  0
LINE
  5
2E0
100
AcDbEntity
  8
MAIN0
  6
CONTINUOUS
 62
3
100
AcDbLine
 10
1386.864836993902
 20
559.0681558884915
 30
0.0000000000000000
 11
1386.864836993969
 21
599.5681558884180
 31
0.0000000000000000
  0
LINE
  5
2E1
100
AcDbEntity
  8
MAIN0
  6
CONTINUOUS
 62
3
100
AcDbLine
 10
1384.864836993960
 20
594.5681558884329
 30
0.0000000000000000
 11
1361.864836993960
 21
594.5681558885084
 31
0.0000000000000000
  0
ARC
  5
2E2
100
AcDbEntity
  8
MAIN0
  6
CONTINUOUS
 62
3
100
AcDbCircle
 10
1391.864836993898
 20
556.5681558884669
 30
0.0000000000000000
 40
5.000000000000000
100
AcDbArc
 50
89.99999999981210
 51
165.5224878138822
  0
ARC
  5
2E3
100
AcDbEntity
  8
MAIN0
  6
CONTINUOUS
 62
3
100
AcDbCircle
 10
1381.864836993902
 20
559.0681558884998
 30
0.0000000000000000
 40
5.000000000000000
100
AcDbArc
 50
269.9999999998121
 51
359.9999999998121
  0
ARC
  5
2E4
100
AcDbEntity
  8
MAIN0
  6
CONTINUOUS
 62
3
100
AcDbCircle
 10
1382.182378628388
 20
559.0681558884986
 30
0.0000000000000000
 40
5.000000000000000
100
AcDbArc
 50
269.9999999998121
 51
345.5224878138821
  0
LINE
  5
2E5
100
AcDbEntity
  8
MAIN0
  6
CONTINUOUS
 62
3
100
AcDbLine
 10
1412.864836993908
 20
561.5681558883980
 30
0.0000000000000000
 11
1391.864836993914
 21
561.5681558884669
 31
0.0000000000000000
  0
ARC
  5
2E6
100
AcDbEntity
  8
MAIN0
  6
CONTINUOUS
 62
3
100
AcDbCircle
 10
1391.864836993968
 20
599.5681558884098
 30
0.0000000000000000
 40
5.000000000000000
100
AcDbArc
 50
90.00000000000000
 51
180.0000000000000
  0
LINE
  5
2E7
100
AcDbEntity
  8
MAIN0
  6
CONTINUOUS
 62
3
100
AcDbLine
 10
1181.864836993781
 20
601.7681558885090
 30
0.0000000000000000
 11
1199.147199859121
 21
601.7681558885121
 31
0.0000000000000000
  0
LINE
  5
2E8
100
AcDbEntity
  8
MAIN0
  6
CONTINUOUS
 62
3
100
AcDbLine
 10
1223.547199477652
 20
601.7681558885164
 30
0.0000000000000000
 11
1231.864836993782
 21
601.7681558885179
 31
0.0000000000000000
  0
LINE
  5
2E9
100
AcDbEntity
  8
MAIN0
  6
CONTINUOUS
 62
3
100
AcDbLine
 10
543.8648369937991
 20
545.0681558882781
 30
0.0000000000000000
 11
1361.864836993781
 21
545.0681558880666
 31
0.0000000000000000
  0
LINE
  5
2EA
100
AcDbEntity
  8
MAIN0
  6
CONTINUOUS
 62
3
100
AcDbLine
 10
1809.498711489362
 20
519.0681558877914
 30
0.0000000000000000
 11
1784.498711489362
 21
519.0681558877914
 31
0.0000000000000000
  0
LINE
  5
2EB
100
AcDbEntity
  8
MAIN0
  6
CONTINUOUS
 62
3
100
AcDbLine
 10
1809.498711489362
 20
519.0681558877910
 30
0.0000000000000000
 11
1809.498711489362
 21
524.0681558877910
 31
0.0000000000000000
  0
LINE
  5
2EC
100
AcDbEntity
  8
MAIN0
  6
CONTINUOUS
 62
3
100
AcDbLine
 10
1784.498711489362
 20
524.0681558877916
 30
0.0000000000000000
 11
1784.498711489362
 21
519.0681558877916
 31
0.0000000000000000
  0
LINE
  5
2ED
100
AcDbEntity
  8
MAIN0
  6
CONTINUOUS
 62
3
100
AcDbLine
 10
1960.498711488873
 20
519.0681558877278
 30
0.0000000000000000
 11
1985.498711488873
 21
519.0681558877068
 31
0.0000000000000000
  0
LINE
  5
2EE
100
AcDbEntity
  8
MAIN0
  6
CONTINUOUS
 62
3
100
AcDbLine
 10
1960.498711488873
 20
519.0681558877275
 30
0.0000000000000000
 11
1960.498711488878
 21
524.0681558877275
 31
0.0000000000000000
  0
LINE
  5
2EF
100
AcDbEntity
  8
MAIN0
  6
CONTINUOUS
 62
3
100
AcDbLine
 10
1985.498711488877
 20
524.0681558877067
 30
0.0000000000000000
 11
1985.498711488873
 21
519.0681558877067
 31
0.0000000000000000
  0
CIRCLE
  5
2F0
100
AcDbEntity
  8
MAIN0
  6
CONTINUOUS
 62
3
100
AcDbCircle
 10
1884.998711489394
 20
599.0681558885389
 30
0.0000000000000000
 40
25.00000000000000
  0
CIRCLE
  5
2F1
100
AcDbEntity
  8
MAIN0
  6
CONTINUOUS
 62
3
100
AcDbCircle
 10
1884.998711489394
 20
599.0681558885389
 30
0.0000000000000000
 40
21.00000000000000
  0
CIRCLE
  5
2F2
100
AcDbEntity
  8
MAIN0
  6
CONTINUOUS
 62
3
100
AcDbCircle
 10
1884.998711489394
 20
599.0681558885389
 30
0.0000000000000000
 40
12.00000000000000
  0
LINE
  5
2F3
100
AcDbEntity
  8
MAIN0
  6
CONTINUOUS
 62
3
100
AcDbLine
 10
1881.998711488909
 20
587.4492058499050
 30
0.0000000000000000
 11
1881.998711488909
 21
578.2835461977006
 31
0.0000000000000000
  0
LINE
  5
2F4
100
AcDbEntity
  8
MAIN0
  6
CONTINUOUS
 62
3
100
AcDbLine
 10
1887.998711488909
 20
587.4492058499050
 30
0.0000000000000000
 11
1887.998711488909
 21
578.2835461977006
 31
0.0000000000000000
  0
LINE
  5
2F5
100
AcDbEntity
  8
MAIN0
  6
CONTINUOUS
 62
3
100
AcDbLine
 10
1891.998711489394
 20
595.0267040042114
 30
0.0000000000000000
 11
1891.998711489394
 21
603.1096077728668
 31
0.0000000000000000
  0
LINE
  5
2F6
100
AcDbEntity
  8
MAIN0
  6
CONTINUOUS
 62
3
100
AcDbLine
 10
1877.998711489394
 20
595.0267040042107
 30
0.0000000000000000
 11
1877.998711489394
 21
603.1096077728656
 31
0.0000000000000000
  0
LINE
  5
2F7
100
AcDbEntity
  8
MAIN0
  6
CONTINUOUS
 62
3
100
AcDbLine
 10
1884.998711489393
 20
590.9852521198831
 30
0.0000000000000000
 11
1891.998711489394
 21
595.0267040042115
 31
0.0000000000000000
  0
LINE
  5
2F8
100
AcDbEntity
  8
MAIN0
  6
CONTINUOUS
 62
3
100
AcDbLine
 10
1877.998711489394
 20
603.1096077728656
 30
0.0000000000000000
 11
1884.998711489394
 21
607.1510596571936
 31
0.0000000000000000
  0
LINE
  5
2F9
100
AcDbEntity
  8
MAIN0
  6
CONTINUOUS
 62
3
100
AcDbLine
 10
1884.998711489394
 20
590.9852521198840
 30
0.0000000000000000
 11
1877.998711489394
 21
595.0267040042108
 31
0.0000000000000000
  0
LINE
  5
2FA
100
AcDbEntity
  8
MAIN0
  6
CONTINUOUS
 62
3
100
AcDbLine
 10
1891.998711489394
 20
603.1096077728665
 30
0.0000000000000000
 11
1884.998711489394
 21
607.1510596571935
 31
0.0000000000000000
  0
LINE
  5
2FB
100
AcDbEntity
  8
MAIN0
  6
CENTER
 62
3
100
AcDbLine
 10
1917.998711490123
 20
606.7343447588888
 30
0.0000000000000000
 11
1917.998711490121
 21
589.9050979139444
 31
0.0000000000000000
  0
LINE
  5
2FC
100
AcDbEntity
  8
MAIN0
  6
CENTER
 62
3
100
AcDbLine
 10
1851.998711490048
 20
606.7343447588983
 30
0.0000000000000000
 11
1851.998711490046
 21
589.9050979139543
 31
0.0000000000000000
  0
CIRCLE
  5
2FD
100
AcDbEntity
  8
MAIN0
  6
CONTINUOUS
 62
3
100
AcDbCircle
 10
1917.998711489394
 20
599.0681558885389
 30
0.0000000000000000
 40
4.250000000000000
  0
LINE
  5
2FE
100
AcDbEntity
  8
MAIN0
  6
CONTINUOUS
 62
3
100
AcDbLine
 10
1917.998711489393
 20
601.3775569652980
 30
0.0000000000000000
 11
1915.998711489393
 21
600.2228564269187
 31
0.0000000000000000
  0
LINE
  5
2FF
100
AcDbEntity
  8
MAIN0
  6
CONTINUOUS
 62
3
100
AcDbLine
 10
1915.998711489394
 20
600.2228564269179
 30
0.0000000000000000
 11
1915.998711489394
 21
597.9134553501598
 31
0.0000000000000000
  0
LINE
  5
300
100
AcDbEntity
  8
MAIN0
  6
CONTINUOUS
 62
3
100
AcDbLine
 10
1915.998711489393
 20
597.9134553501598
 30
0.0000000000000000
 11
1917.998711489393
 21
596.7587548117806
 31
0.0000000000000000
  0
LINE
  5
301
100
AcDbEntity
  8
MAIN0
  6
CONTINUOUS
 62
3
100
AcDbLine
 10
1917.998711489393
 20
596.7587548117811
 30
0.0000000000000000
 11
1919.998711489393
 21
597.9134553501604
 31
0.0000000000000000
  0
LINE
  5
302
100
AcDbEntity
  8
MAIN0
  6
CONTINUOUS
 62
3
100
AcDbLine
 10
1919.998711489394
 20
597.9134553501598
 30
0.0000000000000000
 11
1919.998711489394
 21
600.2228564269179
 31
0.0000000000000000
  0
LINE
  5
303
100
AcDbEntity
  8
MAIN0
  6
CONTINUOUS
 62
3
100
AcDbLine
 10
1919.998711489393
 20
600.2228564269183
 30
0.0000000000000000
 11
1917.998711489393
 21
601.3775569652975
 31
0.0000000000000000
  0
CIRCLE
  5
304
100
AcDbEntity
  8
MAIN0
  6
CONTINUOUS
 62
3
100
AcDbCircle
 10
1851.998711489394
 20
599.0681558885389
 30
0.0000000000000000
 40
4.250000000000000
  0
LINE
  5
305
100
AcDbEntity
  8
MAIN0
  6
CONTINUOUS
 62
3
100
AcDbLine
 10
1851.998711489393
 20
601.3775569652976
 30
0.0000000000000000
 11
1849.998711489393
 21
600.2228564269183
 31
0.0000000000000000
  0
LINE
  5
306
100
AcDbEntity
  8
MAIN0
  6
CONTINUOUS
 62
3
100
AcDbLine
 10
1849.998711489394
 20
600.2228564269179
 30
0.0000000000000000
 11
1849.998711489394
 21
597.9134553501598
 31
0.0000000000000000
  0
LINE
  5
307
100
AcDbEntity
  8
MAIN0
  6
CONTINUOUS
 62
3
100
AcDbLine
 10
1849.998711489393
 20
597.9134553501598
 30
0.0000000000000000
 11
1851.998711489393
 21
596.7587548117805
 31
0.0000000000000000
  0
LINE
  5
308
100
AcDbEntity
  8
MAIN0
  6
CONTINUOUS
 62
3
100
AcDbLine
 10
1851.998711489393
 20
596.7587548117806
 30
0.0000000000000000
 11
1853.998711489393
 21
597.9134553501599
 31
0.0000000000000000
  0
LINE
  5
309
100
AcDbEntity
  8
MAIN0
  6
CONTINUOUS
 62
3
100
AcDbLine
 10
1853.998711489394
 20
597.9134553501598
 30
0.0000000000000000
 11
1853.998711489394
 21
600.2228564269179
 31
0.0000000000000000
  0
LINE
  5
30A
100
AcDbEntity
  8
MAIN0
  6
CONTINUOUS
 62
3
100
AcDbLine
 10
1853.998711489393
 20
600.2228564269182
 30
0.0000000000000000
 11
1851.998711489393
 21
601.3775569652975
 31
0.0000000000000000
  0
CIRCLE
  5
30B
100
AcDbEntity
  8
MAIN0
  6
CONTINUOUS
 62
3
100
AcDbCircle
 10
1917.998711488259
 20
599.0681558885052
 30
0.0000000000000000
 40
4.750000000000000
  0
LINE
  5
30C
100
AcDbEntity
  8
MAIN0
  6
CONTINUOUS
 62
3
100
AcDbLine
 10
1984.998711489134
 20
608.0681558881071
 30
0.0000000000000000
 11
1978.998711489153
 21
608.0681558881121
 31
0.0000000000000000
  0
LINE
  5
30D
100
AcDbEntity
  8
MAIN0
  6
CONTINUOUS
 62
3
100
AcDbLine
 10
1984.998711489132
 20
608.0681558881064
 30
0.0000000000000000
 11
1985.998711489133
 21
609.0681558881059
 31
0.0000000000000000
  0
LINE
  5
30E
100
AcDbEntity
  8
MAIN0
  6
CONTINUOUS
 62
3
100
AcDbLine
 10
1784.998711489139
 20
608.0681558881898
 30
0.0000000000000000
 11
1783.998711489139
 21
609.0681558881903
 31
0.0000000000000000
  0
LINE
  5
30F
100
AcDbEntity
  8
MAIN0
  6
CONTINUOUS
 62
3
100
AcDbLine
 10
1784.998711489137
 20
608.0681558881907
 30
0.0000000000000000
 11
1790.998711489158
 21
608.0681558881907
 31
0.0000000000000000
  0
LINE
  5
310
100
AcDbEntity
  8
MAIN0
  6
CONTINUOUS
 62
3
100
AcDbLine
 10
1978.998711489126
 20
545.0681558878598
 30
0.0000000000000000
 11
1978.998711489152
 21
608.0681558881124
 31
0.0000000000000000
  0
LINE
  5
311
100
AcDbEntity
  8
MAIN0
  6
CONTINUOUS
 62
3
100
AcDbLine
 10
1784.298711489167
 20
606.9681558885330
 30
0.0000000000000000
 11
1787.998711489167
 21
606.9681558885330
 31
0.0000000000000000
  0
LINE
  5
312
100
AcDbEntity
  8
MAIN0
  6
CONTINUOUS
 62
3
100
AcDbLine
 10
1787.998711489167
 20
606.9681558885330
 30
0.0000000000000000
 11
1787.998711489167
 21
605.7681558885332
 31
0.0000000000000000
  0
ARC
  5
313
100
AcDbEntity
  8
MAIN0
  6
CONTINUOUS
 62
3
100
AcDbCircle
 10
1783.498711489167
 20
606.7681558885332
 30
0.0000000000000000
 40
1.000000000000000
100
AcDbArc
 50
179.9999999999964
 51
269.9999999999942
  0
ARC
  5
314
100
AcDbEntity
  8
MAIN0
  6
CONTINUOUS
 62
3
100
AcDbCircle
 10
1784.298711489167
 20
607.5681558885329
 30
0.0000000000000000
 40
0.6000000000000000
100
AcDbArc
 50
179.9999999999964
 51
270.0000000005678
  0
LINE
  5
315
100
AcDbEntity
  8
MAIN0
  6
CONTINUOUS
 62
3
100
AcDbLine
 10
1783.498711489167
 20
605.7681558885332
 30
0.0000000000000000
 11
1787.998711489167
 21
605.7681558885332
 31
0.0000000000000000
  0
LINE
  5
316
100
AcDbEntity
  8
MAIN0
  6
CONTINUOUS
 62
3
100
AcDbLine
 10
1787.998711489167
 20
602.9681558885389
 30
0.0000000000000000
 11
1781.298711589828
 21
602.9681558885389
 31
0.0000000000000000
  0
LINE
  5
317
100
AcDbEntity
  8
MAIN0
  6
CONTINUOUS
 62
3
100
AcDbLine
 10
1780.498711282749
 20
601.7681558885387
 30
0.0000000000000000
 11
1787.998711489167
 21
601.7681558885387
 31
0.0000000000000000
  0
ARC
  5
318
100
AcDbEntity
  8
MAIN0
  6
CONTINUOUS
 62
3
100
AcDbCircle
 10
1780.498711489167
 20
602.7681558885387
 30
0.0000000000000000
 40
1.000000000000000
100
AcDbArc
 50
179.9999999999964
 51
269.9999999999942
  0
ARC
  5
319
100
AcDbEntity
  8
MAIN0
  6
CONTINUOUS
 62
3
100
AcDbCircle
 10
1781.298711489167
 20
603.5681558885389
 30
0.0000000000000000
 40
0.6000000000000000
100
AcDbArc
 50
179.9999999999964
 51
269.9999999999947
  0
LINE
  5
31A
100
AcDbEntity
  8
MAIN0
  6
CONTINUOUS
 62
3
100
AcDbLine
 10
1787.998711489167
 20
602.9681558885389
 30
0.0000000000000000
 11
1787.998711489167
 21
601.7681558885387
 31
0.0000000000000000
  0
LINE
  5
31B
100
AcDbEntity
  8
MAIN0
  6
CONTINUOUS
 62
3
100
AcDbLine
 10
1787.998711489167
 20
604.9681558885389
 30
0.0000000000000000
 11
1782.798711589828
 21
604.9681558885389
 31
0.0000000000000000
  0
LINE
  5
31C
100
AcDbEntity
  8
MAIN0
  6
CONTINUOUS
 62
3
100
AcDbLine
 10
1781.998711282749
 20
603.7681558885387
 30
0.0000000000000000
 11
1787.998711489167
 21
603.7681558885387
 31
0.0000000000000000
  0
ARC
  5
31D
100
AcDbEntity
  8
MAIN0
  6
CONTINUOUS
 62
3
100
AcDbCircle
 10
1782.798711489167
 20
605.5681558885389
 30
0.0000000000000000
 40
0.6000000000000000
100
AcDbArc
 50
179.9999999999964
 51
269.9999999999947
  0
ARC
  5
31E
100
AcDbEntity
  8
MAIN0
  6
CONTINUOUS
 62
3
100
AcDbCircle
 10
1781.998711489167
 20
604.7681558885387
 30
0.0000000000000000
 40
1.000000000000000
100
AcDbArc
 50
179.9999999999964
 51
269.9999999999942
  0
LINE
  5
31F
100
AcDbEntity
  8
MAIN0
  6
CONTINUOUS
 62
3
100
AcDbLine
 10
1787.998711489167
 20
604.9681558885389
 30
0.0000000000000000
 11
1787.998711489167
 21
603.7681558885387
 31
0.0000000000000000
  0
LINE
  5
320
100
AcDbEntity
  8
MAIN0
  6
CONTINUOUS
 62
3
100
AcDbLine
 10
1985.698711489143
 20
606.9681558884485
 30
0.0000000000000000
 11
1981.998711489143
 21
606.9681558884515
 31
0.0000000000000000
  0
LINE
  5
321
100
AcDbEntity
  8
MAIN0
  6
CONTINUOUS
 62
3
100
AcDbLine
 10
1981.998711489143
 20
606.9681558884515
 30
0.0000000000000000
 11
1981.998711489142
 21
605.7681558884517
 31
0.0000000000000000
  0
ARC
  5
322
100
AcDbEntity
  8
MAIN0
  6
CONTINUOUS
 62
3
100
AcDbCircle
 10
1986.498711489144
 20
606.7681558884480
 30
0.0000000000000000
 40
1.000000000000000
100
AcDbArc
 50
269.9999999999578
 51
359.9999999999555
  0
ARC
  5
323
100
AcDbEntity
  8
MAIN0
  6
CONTINUOUS
 62
3
100
AcDbCircle
 10
1985.698711489144
 20
607.5681558884484
 30
0.0000000000000000
 40
0.6000000000000000
100
AcDbArc
 50
269.9999999993840
 51
359.9999999999555
  0
LINE
  5
324
100
AcDbEntity
  8
MAIN0
  6
CONTINUOUS
 62
3
100
AcDbLine
 10
1986.498711489142
 20
605.7681558884480
 30
0.0000000000000000
 11
1981.998711489142
 21
605.7681558884517
 31
0.0000000000000000
  0
LINE
  5
325
100
AcDbEntity
  8
MAIN0
  6
CONTINUOUS
 62
3
100
AcDbLine
 10
1981.998711489140
 20
602.9681558884574
 30
0.0000000000000000
 11
1988.698711388479
 21
602.9681558884519
 31
0.0000000000000000
  0
LINE
  5
326
100
AcDbEntity
  8
MAIN0
  6
CONTINUOUS
 62
3
100
AcDbLine
 10
1989.498711695556
 20
601.7681558884509
 30
0.0000000000000000
 11
1981.998711489139
 21
601.7681558884572
 31
0.0000000000000000
  0
ARC
  5
327
100
AcDbEntity
  8
MAIN0
  6
CONTINUOUS
 62
3
100
AcDbCircle
 10
1989.498711489140
 20
602.7681558884509
 30
0.0000000000000000
 40
1.000000000000000
100
AcDbArc
 50
269.9999999999578
 51
359.9999999999555
  0
ARC
  5
328
100
AcDbEntity
  8
MAIN0
  6
CONTINUOUS
 62
3
100
AcDbCircle
 10
1988.698711489141
 20
603.5681558884518
 30
0.0000000000000000
 40
0.6000000000000000
100
AcDbArc
 50
269.9999999999571
 51
359.9999999999555
  0
LINE
  5
329
100
AcDbEntity
  8
MAIN0
  6
CONTINUOUS
 62
3
100
AcDbLine
 10
1981.998711489140
 20
602.9681558884574
 30
0.0000000000000000
 11
1981.998711489139
 21
601.7681558884572
 31
0.0000000000000000
  0
LINE
  5
32A
100
AcDbEntity
  8
MAIN0
  6
CONTINUOUS
 62
3
100
AcDbLine
 10
1981.998711489142
 20
604.9681558884574
 30
0.0000000000000000
 11
1987.198711388480
 21
604.9681558884531
 31
0.0000000000000000
  0
LINE
  5
32B
100
AcDbEntity
  8
MAIN0
  6
CONTINUOUS
 62
3
100
AcDbLine
 10
1987.998711695558
 20
603.7681558884522
 30
0.0000000000000000
 11
1981.998711489141
 21
603.7681558884572
 31
0.0000000000000000
  0
ARC
  5
32C
100
AcDbEntity
  8
MAIN0
  6
CONTINUOUS
 62
3
100
AcDbCircle
 10
1987.198711489142
 20
605.5681558884529
 30
0.0000000000000000
 40
0.6000000000000000
100
AcDbArc
 50
269.9999999999571
 51
359.9999999999555
  0
ARC
  5
32D
100
AcDbEntity
  8
MAIN0
  6
CONTINUOUS
 62
3
100
AcDbCircle
 10
1987.998711489142
 20
604.7681558884520
 30
0.0000000000000000
 40
1.000000000000000
100
AcDbArc
 50
269.9999999999578
 51
359.9999999999555
  0
LINE
  5
32E
100
AcDbEntity
  8
MAIN0
  6
CONTINUOUS
 62
3
100
AcDbLine
 10
1981.998711489142
 20
604.9681558884574
 30
0.0000000000000000
 11
1981.998711489141
 21
603.7681558884572
 31
0.0000000000000000
  0
LINE
  5
32F
100
AcDbEntity
  8
MAIN0
  6
CONTINUOUS
 62
3
100
AcDbLine
 10
1799.998711489151
 20
634.0681558885325
 30
0.0000000000000000
 11
1783.998711489154
 21
618.0681558886639
 31
0.0000000000000000
  0
LINE
  5
330
100
AcDbEntity
  8
MAIN0
  6
CONTINUOUS
 62
3
100
AcDbLine
 10
1797.698711489163
 20
634.0681558885333
 30
0.0000000000000000
 11
1783.698711489167
 21
620.0681558885277
 31
0.0000000000000000
  0
LINE
  5
331
100
AcDbEntity
  8
MAIN0
  6
CONTINUOUS
 62
3
100
AcDbLine
 10
1969.998711489182
 20
634.0681558884613
 30
0.0000000000000000
 11
1985.998711489165
 21
618.0681558885793
 31
0.0000000000000000
  0
LINE
  5
332
100
AcDbEntity
  8
MAIN0
  6
CONTINUOUS
 62
3
100
AcDbLine
 10
1972.298711489171
 20
634.0681558884609
 30
0.0000000000000000
 11
1986.298711489167
 21
620.0681558884326
 31
0.0000000000000000
  0
LINE
  5
333
100
AcDbEntity
  8
MAIN0
  6
CONTINUOUS
 62
3
100
AcDbLine
 10
1826.397659165730
 20
605.5681558885384
 30
0.0000000000000000
 11
1790.998711489157
 21
605.5681558885387
 31
0.0000000000000000
  0
ARC
  5
334
100
AcDbEntity
  8
MAIN0
  6
CONTINUOUS
 62
3
100
AcDbCircle
 10
1797.998711489152
 20
595.5681558885389
 30
0.0000000000000000
 40
10.00000000000000
100
AcDbArc
 50
359.9999999999998
 51
449.9999999999998
  0
ARC
  5
335
100
AcDbEntity
  8
MAIN0
  6
CONTINUOUS
 62
3
100
AcDbCircle
 10
1884.998711489152
 20
599.0681558885329
 30
0.0000000000000000
 40
81.00000000000000
100
AcDbArc
 50
199.3240781601049
 51
209.5351717610631
  0
ARC
  5
336
100
AcDbEntity
  8
MAIN0
  6
CONTINUOUS
 62
3
100
AcDbCircle
 10
1817.998711489152
 20
575.5734756395910
 30
0.0000000000000000
 40
10.00000000000000
100
AcDbArc
 50
180.0000000000000
 51
199.3240781601049
  0
ARC
  5
337
100
AcDbEntity
  8
MAIN0
  6
CONTINUOUS
 62
3
100
AcDbCircle
 10
1823.224930643230
 20
564.0681558885329
 30
0.0000000000000000
 40
10.00000000000000
100
AcDbArc
 50
209.5351717610631
 51
270.0000000000000
  0
ARC
  5
338
100
AcDbEntity
  8
MAIN0
  6
CONTINUOUS
 62
3
100
AcDbCircle
 10
1884.998711489152
 20
599.0681558885329
 30
0.0000000000000000
 40
37.49999999999955
100
AcDbArc
 50
238.5760935141553
 51
301.4239064858446
  0
ARC
  5
339
100
AcDbEntity
  8
MAIN0
  6
CONTINUOUS
 62
3
100
AcDbCircle
 10
1971.998711489151
 20
595.5681558885389
 30
0.0000000000000000
 40
10.00000000000000
100
AcDbArc
 50
90.00000000000020
 51
180.0000000000002
  0
ARC
  5
33A
100
AcDbEntity
  8
MAIN0
  6
CONTINUOUS
 62
3
100
AcDbCircle
 10
1884.998711489152
 20
599.0681558885329
 30
0.0000000000000000
 40
81.00000000000000
100
AcDbArc
 50
330.4648282389370
 51
340.6759218398951
  0
ARC
  5
33B
100
AcDbEntity
  8
MAIN0
  6
CONTINUOUS
 62
3
100
AcDbCircle
 10
1951.998711489151
 20
575.5734756395910
 30
0.0000000000000000
 40
10.00000000000000
100
AcDbArc
 50
340.6759218398951
 51
360.0000000000000
  0
ARC
  5
33C
100
AcDbEntity
  8
MAIN0
  6
CONTINUOUS
 62
3
100
AcDbCircle
 10
1946.772492335074
 20
564.0681558885329
 30
0.0000000000000000
 40
10.00000000000000
100
AcDbArc
 50
270.0000000000000
 51
330.4648282389370
  0
LINE
  5
33D
100
AcDbEntity
  8
MAIN0
  6
CONTINUOUS
 62
3
100
AcDbLine
 10
1943.599763812579
 20
605.5681558884894
 30
0.0000000000000000
 11
1978.998711489151
 21
605.5681558884598
 31
0.0000000000000000
  0
LINE
  5
33E
100
AcDbEntity
  8
MAIN0
  6
CONTINUOUS
 62
3
100
AcDbLine
 10
1862.705214679544
 20
567.0681558885329
 30
0.0000000000000000
 11
1907.292208298760
 21
567.0681558885329
 31
0.0000000000000000
  0
ARC
  5
33F
100
AcDbEntity
  8
MAIN0
  6
CONTINUOUS
 62
3
100
AcDbCircle
 10
1884.998711489152
 20
599.0681558885329
 30
0.0000000000000000
 40
39.00000000000000
100
AcDbArc
 50
116.1769521716469
 51
235.1361620456966
  0
ARC
  5
340
100
AcDbEntity
  8
MAIN0
  6
CONTINUOUS
 62
3
100
AcDbCircle
 10
1884.998711489152
 20
599.0681558885329
 30
0.0000000000000000
 40
39.00000000000000
100
AcDbArc
 50
304.8638379543035
 51
423.8230478283530
  0
LINE
  5
341
100
AcDbEntity
  8
MAIN0
  6
CONTINUOUS
 62
3
100
AcDbLine
 10
1784.998711489121
 20
545.0681558879388
 30
0.0000000000000000
 11
1790.998711489121
 21
545.0681558879390
 31
0.0000000000000000
  0
LINE
  5
342
100
AcDbEntity
  8
MAIN0
  6
CONTINUOUS
 62
3
100
AcDbLine
 10
1783.998711489120
 20
544.0681558879385
 30
0.0000000000000000
 11
1783.998711489112
 21
524.4681558878331
 31
0.0000000000000000
  0
LINE
  5
343
100
AcDbEntity
  8
MAIN0
  6
CONTINUOUS
 62
3
100
AcDbLine
 10
1784.998711489122
 20
545.0681558879390
 30
0.0000000000000000
 11
1783.998711489121
 21
544.0681558879390
 31
0.0000000000000000
  0
LINE
  5
344
100
AcDbEntity
  8
MAIN0
  6
CONTINUOUS
 62
3
100
AcDbLine
 10
1985.998711489121
 20
544.0681558878540
 30
0.0000000000000000
 11
1985.998711489113
 21
524.4681558877481
 31
0.0000000000000000
  0
LINE
  5
345
100
AcDbEntity
  8
MAIN0
  6
CONTINUOUS
 62
3
100
AcDbLine
 10
1984.498711489169
 20
634.0681558884298
 30
0.0000000000000000
 11
1934.598711489163
 21
634.0681558884819
 31
0.0000000000000000
  0
LINE
  5
346
100
AcDbEntity
  8
MAIN0
  6
CONTINUOUS
 62
3
100
AcDbLine
 10
1985.998711489113
 20
524.4681558877478
 30
0.0000000000000000
 11
1985.598711489113
 21
524.0681558877482
 31
0.0000000000000000
  0
LINE
  5
347
100
AcDbEntity
  8
MAIN0
  6
CONTINUOUS
 62
3
100
AcDbLine
 10
1783.998711489113
 20
524.4681558878332
 30
0.0000000000000000
 11
1784.398711489113
 21
524.0681558878331
 31
0.0000000000000000
  0
LINE
  5
348
100
AcDbEntity
  8
MAIN0
  6
CONTINUOUS
 62
3
100
AcDbLine
 10
1984.998711489137
 20
545.0681558878554
 30
0.0000000000000000
 11
1978.998711489137
 21
545.0681558878606
 31
0.0000000000000000
  0
LINE
  5
349
100
AcDbEntity
  8
MAIN0
  6
CONTINUOUS
 62
3
100
AcDbLine
 10
1984.998711489137
 20
545.0681558878555
 30
0.0000000000000000
 11
1985.998711489137
 21
544.0681558878544
 31
0.0000000000000000
  0
LINE
  5
34A
100
AcDbEntity
  8
MAIN0
  6
CONTINUOUS
 62
3
100
AcDbLine
 10
1875.998711489233
 20
524.0681558877949
 30
0.0000000000000000
 11
1875.998711489233
 21
529.0681558875884
 31
0.0000000000000000
  0
LINE
  5
34B
100
AcDbEntity
  8
MAIN0
  6
CONTINUOUS
 62
3
100
AcDbLine
 10
1893.998711489232
 20
529.0681558875883
 30
0.0000000000000000
 11
1875.998711489232
 21
529.0681558875883
 31
0.0000000000000000
  0
LINE
  5
34C
100
AcDbEntity
  8
MAIN0
  6
CONTINUOUS
 62
3
100
AcDbLine
 10
1893.998711489233
 20
524.0681558877876
 30
0.0000000000000000
 11
1893.998711489233
 21
529.0681558875884
 31
0.0000000000000000
  0
LINE
  5
34D
100
AcDbEntity
  8
MAIN0
  6
CENTER
 62
3
100
AcDbLine
 10
1935.498711488909
 20
576.0681558885270
 30
0.0000000000000000
 11
1958.498711488909
 21
576.0681558885270
 31
0.0000000000000000
  0
LINE
  5
34E
100
AcDbEntity
  8
MAIN0
  6
CONTINUOUS
 62
3
100
AcDbLine
 10
1790.998711489132
 20
545.0681558879387
 30
0.0000000000000000
 11
1790.998711489158
 21
608.0681558881909
 31
0.0000000000000000
  0
LINE
  5
34F
100
AcDbEntity
  8
MAIN0
  6
CONTINUOUS
 62
3
100
AcDbLine
 10
1784.398711489112
 20
524.0681558878338
 30
0.0000000000000000
 11
1875.998711489233
 21
524.0681558877952
 31
0.0000000000000000
  0
LINE
  5
350
100
AcDbEntity
  8
MAIN0
  6
CONTINUOUS
 62
3
100
AcDbLine
 10
1893.998711489233
 20
524.0681558877877
 30
0.0000000000000000
 11
1985.598711489113
 21
524.0681558877492
 31
0.0000000000000000
  0
LINE
  5
351
100
AcDbEntity
  8
MAIN0
  6
CONTINUOUS
 62
3
100
AcDbLine
 10
1790.998711489157
 20
634.0681558885389
 30
0.0000000000000000
 11
1978.998711489146
 21
634.0681558885389
 31
0.0000000000000000
  0
LINE
  5
352
100
AcDbEntity
  8
MAIN0
  6
CONTINUOUS
 62
3
100
AcDbLine
 10
1961.998711489152
 20
595.5681558885389
 30
0.0000000000000000
 11
1961.998711489152
 21
575.5734756395910
 31
0.0000000000000000
  0
LINE
  5
353
100
AcDbEntity
  8
MAIN0
  6
CONTINUOUS
 62
3
100
AcDbLine
 10
1807.998711489152
 20
595.5681558885387
 30
0.0000000000000000
 11
1807.998711489152
 21
575.5734756395912
 31
0.0000000000000000
  0
LINE
  5
354
100
AcDbEntity
  8
MAIN0
  6
CONTINUOUS
 62
3
100
AcDbLine
 10
1946.772492335073
 20
554.0681558885324
 30
0.0000000000000000
 11
1823.224930643230
 21
554.0681558885326
 31
0.0000000000000000
  0
CIRCLE
  5
355
100
AcDbEntity
  8
MAIN0
  6
CONTINUOUS
 62
3
100
AcDbCircle
 10
1822.998711489393
 20
576.0681558885270
 30
0.0000000000000000
 40
9.500000000000000
  0
CIRCLE
  5
356
100
AcDbEntity
  8
MAIN0
  6
CONTINUOUS
 62
3
100
AcDbCircle
 10
1946.998711488909
 20
576.0681558885270
 30
0.0000000000000000
 40
9.500000000000000
  0
CIRCLE
  5
357
100
AcDbEntity
  8
MAIN0
  6
CONTINUOUS
 62
3
100
AcDbCircle
 10
1822.998711489393
 20
622.0681558885389
 30
0.0000000000000000
 40
9.500000000000000
  0
CIRCLE
  5
358
100
AcDbEntity
  8
MAIN0
  6
CONTINUOUS
 62
3
100
AcDbCircle
 10
1946.998711489393
 20
622.0681558885389
 30
0.0000000000000000
 40
9.500000000000000
  0
LINE
  5
359
100
AcDbEntity
  8
MAIN0
  6
CENTER
 62
3
100
AcDbLine
 10
1822.998711489393
 20
633.5681558885389
 30
0.0000000000000000
 11
1822.998711489393
 21
610.5681558885389
 31
0.0000000000000000
  0
LINE
  5
35A
100
AcDbEntity
  8
MAIN0
  6
CENTER
 62
3
100
AcDbLine
 10
1833.953200429245
 20
599.0681558885329
 30
0.0000000000000000
 11
1934.981913037253
 21
599.0681558885329
 31
0.0000000000000000
  0
LINE
  5
35B
100
AcDbEntity
  8
MAIN0
  6
CENTER
 62
3
100
AcDbLine
 10
1884.998711489116
 20
513.8209456877581
 30
0.0000000000000000
 11
1884.998711489199
 21
710.6334821832054
 31
0.0000000000000000
  0
LINE
  5
35C
100
AcDbEntity
  8
MAIN0
  6
CENTER
 62
3
100
AcDbLine
 10
1811.498711489393
 20
576.0681558885270
 30
0.0000000000000000
 11
1834.498711489393
 21
576.0681558885270
 31
0.0000000000000000
  0
LINE
  5
35D
100
AcDbEntity
  8
MAIN0
  6
CENTER
 62
3
100
AcDbLine
 10
1822.998711489393
 20
564.5681558885270
 30
0.0000000000000000
 11
1822.998711489393
 21
587.5681558885270
 31
0.0000000000000000
  0
LINE
  5
35E
100
AcDbEntity
  8
MAIN0
  6
CENTER
 62
3
100
AcDbLine
 10
1811.498711489393
 20
622.0681558885389
 30
0.0000000000000000
 11
1834.498711489393
 21
622.0681558885389
 31
0.0000000000000000
  0
LINE
  5
35F
100
AcDbEntity
  8
MAIN0
  6
CENTER
 62
3
100
AcDbLine
 10
1946.998711489393
 20
610.5681558885389
 30
0.0000000000000000
 11
1946.998711489393
 21
633.5681558885389
 31
0.0000000000000000
  0
LINE
  5
360
100
AcDbEntity
  8
MAIN0
  6
CENTER
 62
3
100
AcDbLine
 10
1935.498711489393
 20
622.0681558885389
 30
0.0000000000000000
 11
1958.498711489393
 21
622.0681558885389
 31
0.0000000000000000
  0
LINE
  5
361
100
AcDbEntity
  8
MAIN0
  6
CENTER
 62
3
100
AcDbLine
 10
1946.998711488909
 20
564.5681558885270
 30
0.0000000000000000
 11
1946.998711488909
 21
587.5681558885270
 31
0.0000000000000000
  0
LINE
  5
362
100
AcDbEntity
  8
MAIN0
  6
CONTINUOUS
 62
3
100
AcDbLine
 10
1783.998711489158
 20
609.0681558881703
 30
0.0000000000000000
 11
1783.998711489163
 21
620.3681558885249
 31
0.0000000000000000
  0
LINE
  5
363
100
AcDbEntity
  8
MAIN0
  6
CONTINUOUS
 62
3
100
AcDbLine
 10
1985.998711489157
 20
609.0681558881298
 30
0.0000000000000000
 11
1985.998711489163
 21
620.3681558884379
 31
0.0000000000000000
  0
CIRCLE
  5
364
100
AcDbEntity
  8
MAIN0
  6
CONTINUOUS
 62
3
100
AcDbCircle
 10
1822.998711489393
 20
622.0681558885389
 30
0.0000000000000000
 40
9.000000000000000
  0
LINE
  5
365
100
AcDbEntity
  8
MAIN0
  6
CONTINUOUS
 62
3
100
AcDbLine
 10
1822.998711489393
 20
627.8416585804357
 30
0.0000000000000000
 11
1817.998711489393
 21
624.9549072344876
 31
0.0000000000000000
  0
LINE
  5
366
100
AcDbEntity
  8
MAIN0
  6
CONTINUOUS
 62
3
100
AcDbLine
 10
1817.998711489393
 20
624.9549072344870
 30
0.0000000000000000
 11
1817.998711489393
 21
619.1814045425907
 31
0.0000000000000000
  0
LINE
  5
367
100
AcDbEntity
  8
MAIN0
  6
CONTINUOUS
 62
3
100
AcDbLine
 10
1817.998711489393
 20
619.1814045425898
 30
0.0000000000000000
 11
1822.998711489393
 21
616.2946531966417
 31
0.0000000000000000
  0
LINE
  5
368
100
AcDbEntity
  8
MAIN0
  6
CONTINUOUS
 62
3
100
AcDbLine
 10
1822.998711489393
 20
616.2946531966431
 30
0.0000000000000000
 11
1827.998711489393
 21
619.1814045425911
 31
0.0000000000000000
  0
LINE
  5
369
100
AcDbEntity
  8
MAIN0
  6
CONTINUOUS
 62
3
100
AcDbLine
 10
1827.998711489393
 20
619.1814045425907
 30
0.0000000000000000
 11
1827.998711489393
 21
624.9549072344870
 31
0.0000000000000000
  0
LINE
  5
36A
100
AcDbEntity
  8
MAIN0
  6
CONTINUOUS
 62
3
100
AcDbLine
 10
1827.998711489393
 20
624.9549072344861
 30
0.0000000000000000
 11
1822.998711489393
 21
627.8416585804342
 31
0.0000000000000000
  0
CIRCLE
  5
36B
100
AcDbEntity
  8
MAIN0
  6
CONTINUOUS
 62
3
100
AcDbCircle
 10
1822.998711489393
 20
576.0681558885270
 30
0.0000000000000000
 40
9.000000000000000
  0
LINE
  5
36C
100
AcDbEntity
  8
MAIN0
  6
CONTINUOUS
 62
3
100
AcDbLine
 10
1822.998711489393
 20
581.8416585804237
 30
0.0000000000000000
 11
1817.998711489393
 21
578.9549072344755
 31
0.0000000000000000
  0
LINE
  5
36D
100
AcDbEntity
  8
MAIN0
  6
CONTINUOUS
 62
3
100
AcDbLine
 10
1817.998711489393
 20
578.9549072344752
 30
0.0000000000000000
 11
1817.998711489393
 21
573.1814045425789
 31
0.0000000000000000
  0
LINE
  5
36E
100
AcDbEntity
  8
MAIN0
  6
CONTINUOUS
 62
3
100
AcDbLine
 10
1817.998711489393
 20
573.1814045425779
 30
0.0000000000000000
 11
1822.998711489393
 21
570.2946531966297
 31
0.0000000000000000
  0
LINE
  5
36F
100
AcDbEntity
  8
MAIN0
  6
CONTINUOUS
 62
3
100
AcDbLine
 10
1822.998711489393
 20
570.2946531966309
 30
0.0000000000000000
 11
1827.998711489393
 21
573.1814045425790
 31
0.0000000000000000
  0
LINE
  5
370
100
AcDbEntity
  8
MAIN0
  6
CONTINUOUS
 62
3
100
AcDbLine
 10
1827.998711489393
 20
573.1814045425789
 30
0.0000000000000000
 11
1827.998711489393
 21
578.9549072344752
 31
0.0000000000000000
  0
LINE
  5
371
100
AcDbEntity
  8
MAIN0
  6
CONTINUOUS
 62
3
100
AcDbLine
 10
1827.998711489393
 20
578.9549072344742
 30
0.0000000000000000
 11
1822.998711489393
 21
581.8416585804223
 31
0.0000000000000000
  0
CIRCLE
  5
372
100
AcDbEntity
  8
MAIN0
  6
CONTINUOUS
 62
3
100
AcDbCircle
 10
1946.998711488890
 20
576.0681558884750
 30
0.0000000000000000
 40
9.000000000000000
  0
LINE
  5
373
100
AcDbEntity
  8
MAIN0
  6
CONTINUOUS
 62
3
100
AcDbLine
 10
1946.998711488890
 20
581.8416585803717
 30
0.0000000000000000
 11
1941.998711488890
 21
578.9549072344236
 31
0.0000000000000000
  0
LINE
  5
374
100
AcDbEntity
  8
MAIN0
  6
CONTINUOUS
 62
3
100
AcDbLine
 10
1941.998711488890
 20
578.9549072344231
 30
0.0000000000000000
 11
1941.998711488890
 21
573.1814045425268
 31
0.0000000000000000
  0
LINE
  5
375
100
AcDbEntity
  8
MAIN0
  6
CONTINUOUS
 62
3
100
AcDbLine
 10
1941.998711488890
 20
573.1814045425258
 30
0.0000000000000000
 11
1946.998711488890
 21
570.2946531965777
 31
0.0000000000000000
  0
LINE
  5
376
100
AcDbEntity
  8
MAIN0
  6
CONTINUOUS
 62
3
100
AcDbLine
 10
1946.998711488890
 20
570.2946531965793
 30
0.0000000000000000
 11
1951.998711488890
 21
573.1814045425274
 31
0.0000000000000000
  0
LINE
  5
377
100
AcDbEntity
  8
MAIN0
  6
CONTINUOUS
 62
3
100
AcDbLine
 10
1951.998711488890
 20
573.1814045425268
 30
0.0000000000000000
 11
1951.998711488890
 21
578.9549072344231
 31
0.0000000000000000
  0
LINE
  5
378
100
AcDbEntity
  8
MAIN0
  6
CONTINUOUS
 62
3
100
AcDbLine
 10
1951.998711488890
 20
578.9549072344225
 30
0.0000000000000000
 11
1946.998711488890
 21
581.8416585803707
 31
0.0000000000000000
  0
CIRCLE
  5
379
100
AcDbEntity
  8
MAIN0
  6
CONTINUOUS
 62
3
100
AcDbCircle
 10
1946.998711488929
 20
622.0681558884868
 30
0.0000000000000000
 40
9.000000000000000
  0
LINE
  5
37A
100
AcDbEntity
  8
MAIN0
  6
CONTINUOUS
 62
3
100
AcDbLine
 10
1946.998711488928
 20
627.8416585803832
 30
0.0000000000000000
 11
1941.998711488929
 21
624.9549072344353
 31
0.0000000000000000
  0
LINE
  5
37B
100
AcDbEntity
  8
MAIN0
  6
CONTINUOUS
 62
3
100
AcDbLine
 10
1941.998711488929
 20
624.9549072344349
 30
0.0000000000000000
 11
1941.998711488929
 21
619.1814045425386
 31
0.0000000000000000
  0
LINE
  5
37C
100
AcDbEntity
  8
MAIN0
  6
CONTINUOUS
 62
3
100
AcDbLine
 10
1941.998711488929
 20
619.1814045425379
 30
0.0000000000000000
 11
1946.998711488929
 21
616.2946531965897
 31
0.0000000000000000
  0
LINE
  5
37D
100
AcDbEntity
  8
MAIN0
  6
CONTINUOUS
 62
3
100
AcDbLine
 10
1946.998711488928
 20
616.2946531965907
 30
0.0000000000000000
 11
1951.998711488928
 21
619.1814045425389
 31
0.0000000000000000
  0
LINE
  5
37E
100
AcDbEntity
  8
MAIN0
  6
CONTINUOUS
 62
3
100
AcDbLine
 10
1951.998711488929
 20
619.1814045425386
 30
0.0000000000000000
 11
1951.998711488929
 21
624.9549072344349
 31
0.0000000000000000
  0
LINE
  5
37F
100
AcDbEntity
  8
MAIN0
  6
CONTINUOUS
 62
3
100
AcDbLine
 10
1951.998711488928
 20
624.9549072344338
 30
0.0000000000000000
 11
1946.998711488928
 21
627.8416585803819
 31
0.0000000000000000
  0
CIRCLE
  5
380
100
AcDbEntity
  8
MAIN0
  6
CONTINUOUS
 62
3
100
AcDbCircle
 10
1851.998711490047
 20
599.0681558885329
 30
0.0000000000000000
 40
4.750000000000000
  0
LINE
  5
381
100
AcDbEntity
  8
MAIN0
  6
CONTINUOUS
 62
3
100
AcDbLine
 10
1784.998711489408
 20
704.0681558885389
 30
0.0000000000000000
 11
1984.998711489408
 21
704.0681558885389
 31
0.0000000000000000
  0
LINE
  5
382
100
AcDbEntity
  8
MAIN0
  6
CONTINUOUS
 62
3
100
AcDbLine
 10
1987.498711489166
 20
634.2681558885332
 30
0.0000000000000000
 11
1987.498711489166
 21
606.7681558884480
 31
0.0000000000000000
  0
LINE
  5
383
100
AcDbEntity
  8
MAIN0
  6
CONTINUOUS
 62
3
100
AcDbLine
 10
1782.498711489166
 20
634.2681558885332
 30
0.0000000000000000
 11
1782.498711489166
 21
606.7681558885332
 31
0.0000000000000000
  0
LINE
  5
384
100
AcDbEntity
  8
MAIN0
  6
CONTINUOUS
 62
3
100
AcDbLine
 10
1783.698711489166
 20
634.0681558885329
 30
0.0000000000000000
 11
1783.698711489166
 21
607.5681558885329
 31
0.0000000000000000
  0
ARC
  5
385
100
AcDbEntity
  8
MAIN0
  6
CONTINUOUS
 62
3
100
AcDbCircle
 10
1986.498711489166
 20
634.2681558885332
 30
0.0000000000000000
 40
1.000000000000000
100
AcDbArc
 50
0.0000000000000000
 51
89.99999999942553
  0
ARC
  5
386
100
AcDbEntity
  8
MAIN0
  6
CONTINUOUS
 62
3
100
AcDbCircle
 10
1783.498711489166
 20
634.2681558885332
 30
0.0000000000000000
 40
1.000000000000000
100
AcDbArc
 50
89.99999999999919
 51
179.9999999999964
  0
LINE
  5
387
100
AcDbEntity
  8
MAIN0
  6
CONTINUOUS
 62
3
100
AcDbLine
 10
1984.998711489408
 20
667.2681558885388
 30
0.0000000000000000
 11
1984.998711489408
 21
704.0681558885389
 31
0.0000000000000000
  0
LINE
  5
388
100
AcDbEntity
  8
MAIN0
  6
CONTINUOUS
 62
3
100
AcDbLine
 10
1784.998711489408
 20
667.2681558885388
 30
0.0000000000000000
 11
1784.998711489408
 21
704.0681558885389
 31
0.0000000000000000
  0
LINE
  5
389
100
AcDbEntity
  8
MAIN0
  6
CONTINUOUS
 62
3
100
AcDbLine
 10
1780.698711489166
 20
643.2681558885387
 30
0.0000000000000000
 11
1989.298711489166
 21
643.2681558885387
 31
0.0000000000000000
  0
LINE
  5
38A
100
AcDbEntity
  8
MAIN0
  6
CONTINUOUS
 62
3
100
AcDbLine
 10
1777.698711489166
 20
659.2681558885387
 30
0.0000000000000000
 11
1992.298711489168
 21
659.2681558885387
 31
0.0000000000000000
  0
LINE
  5
38B
100
AcDbEntity
  8
MAIN0
  6
CONTINUOUS
 62
3
100
AcDbLine
 10
1990.798711489166
 20
651.2681558885387
 30
0.0000000000000000
 11
1990.798711489166
 21
601.5681558884505
 31
0.0000000000000000
  0
LINE
  5
38C
100
AcDbEntity
  8
MAIN0
  6
CONTINUOUS
 62
3
100
AcDbLine
 10
1991.998711489167
 20
658.2681558885387
 30
0.0000000000000000
 11
1991.998711489167
 21
600.7681558884499
 31
0.0000000000000000
  0
ARC
  5
38D
100
AcDbEntity
  8
MAIN0
  6
CONTINUOUS
 62
3
100
AcDbCircle
 10
1990.998711489167
 20
658.2681558885387
 30
0.0000000000000000
 40
1.000000000000000
100
AcDbArc
 50
0.0000000000000000
 51
90.00000000000000
  0
LINE
  5
38E
100
AcDbEntity
  8
MAIN0
  6
CONTINUOUS
 62
3
100
AcDbLine
 10
1779.198711489166
 20
651.2681558885387
 30
0.0000000000000000
 11
1779.198711489166
 21
601.5681558885395
 31
0.0000000000000000
  0
LINE
  5
38F
100
AcDbEntity
  8
MAIN0
  6
CONTINUOUS
 62
3
100
AcDbLine
 10
1777.998711489166
 20
658.2681558885387
 30
0.0000000000000000
 11
1777.998711489166
 21
600.7681558885395
 31
0.0000000000000000
  0
ARC
  5
390
100
AcDbEntity
  8
MAIN0
  6
CONTINUOUS
 62
3
100
AcDbCircle
 10
1778.998711489166
 20
658.2681558885387
 30
0.0000000000000000
 40
1.000000000000000
100
AcDbArc
 50
90.00000000000000
 51
180.0000000000000
  0
LINE
  5
391
100
AcDbEntity
  8
MAIN0
  6
CONTINUOUS
 62
3
100
AcDbLine
 10
1780.998711489166
 20
604.7681558885387
 30
0.0000000000000000
 11
1780.998711489166
 21
642.2681558885387
 31
0.0000000000000000
  0
LINE
  5
392
100
AcDbEntity
  8
MAIN0
  6
CONTINUOUS
 62
3
100
AcDbLine
 10
1782.198711489166
 20
605.5681558885389
 30
0.0000000000000000
 11
1782.198711489166
 21
635.2681558885387
 31
0.0000000000000000
  0
LINE
  5
393
100
AcDbEntity
  8
MAIN0
  6
CONTINUOUS
 62
3
100
AcDbLine
 10
1988.998711489166
 20
604.7681558884520
 30
0.0000000000000000
 11
1988.998711489166
 21
642.2681558885387
 31
0.0000000000000000
  0
LINE
  5
394
100
AcDbEntity
  8
MAIN0
  6
CONTINUOUS
 62
3
100
AcDbLine
 10
1987.798711489166
 20
605.5681558884529
 30
0.0000000000000000
 11
1987.798711489166
 21
635.2681558885387
 31
0.0000000000000000
  0
LINE
  5
395
100
AcDbEntity
  8
MAIN0
  6
CONTINUOUS
 62
3
100
AcDbLine
 10
1779.198711489166
 20
651.2681558885387
 30
0.0000000000000000
 11
1990.798711489166
 21
651.2681558885387
 31
0.0000000000000000
  0
LINE
  5
396
100
AcDbEntity
  8
MAIN0
  6
CONTINUOUS
 62
3
100
AcDbLine
 10
1990.498711489167
 20
650.2681558885387
 30
0.0000000000000000
 11
1990.498711489167
 21
602.7681558884509
 31
0.0000000000000000
  0
LINE
  5
397
100
AcDbEntity
  8
MAIN0
  6
CONTINUOUS
 62
3
100
AcDbLine
 10
1989.298711489166
 20
643.2681558885387
 30
0.0000000000000000
 11
1989.298711489166
 21
603.5681558884518
 31
0.0000000000000000
  0
LINE
  5
398
100
AcDbEntity
  8
MAIN0
  6
CONTINUOUS
 62
3
100
AcDbLine
 10
1779.498711489166
 20
650.2681558885387
 30
0.0000000000000000
 11
1779.498711489166
 21
602.7681558885387
 31
0.0000000000000000
  0
LINE
  5
399
100
AcDbEntity
  8
MAIN0
  6
CONTINUOUS
 62
3
100
AcDbLine
 10
1780.698711489166
 20
643.2681558885387
 30
0.0000000000000000
 11
1780.698711489166
 21
603.5681558885389
 31
0.0000000000000000
  0
ARC
  5
39A
100
AcDbEntity
  8
MAIN0
  6
CONTINUOUS
 62
3
100
AcDbCircle
 10
1989.498711489166
 20
650.2681558885387
 30
0.0000000000000000
 40
1.000000000000000
100
AcDbArc
 50
0.0000000000000000
 51
89.99999999999838
  0
ARC
  5
39B
100
AcDbEntity
  8
MAIN0
  6
CONTINUOUS
 62
3
100
AcDbCircle
 10
1780.498711489166
 20
650.2681558885387
 30
0.0000000000000000
 40
1.000000000000000
100
AcDbArc
 50
89.99999999999720
 51
179.9999999999964
  0
LINE
  5
39C
100
AcDbEntity
  8
MAIN0
  6
CONTINUOUS
 62
3
100
AcDbLine
 10
1931.998711489166
 20
635.2681558885387
 30
0.0000000000000000
 11
1987.798711489166
 21
635.2681558885387
 31
0.0000000000000000
  0
LINE
  5
39D
100
AcDbEntity
  8
MAIN0
  6
CONTINUOUS
 62
3
100
AcDbLine
 10
1782.198711489166
 20
635.2681558885387
 30
0.0000000000000000
 11
1987.798711489166
 21
635.2681558885387
 31
0.0000000000000000
  0
LINE
  5
39E
100
AcDbEntity
  8
MAIN0
  6
CONTINUOUS
 62
3
100
AcDbLine
 10
1986.298711489166
 20
607.5681558884484
 30
0.0000000000000000
 11
1986.298711489166
 21
634.0681558885389
 31
0.0000000000000000
  0
LINE
  5
39F
100
AcDbEntity
  8
MAIN0
  6
CONTINUOUS
 62
3
100
AcDbLine
 10
1783.698711489166
 20
634.0681558885389
 30
0.0000000000000000
 11
1986.298711489166
 21
634.0681558885389
 31
0.0000000000000000
  0
LINE
  5
3A0
100
AcDbEntity
  8
MAIN0
  6
CONTINUOUS
 62
3
100
AcDbLine
 10
1922.830735451991
 20
589.5951435441475
 30
0.0000000000000000
 11
1926.279255736878
 21
595.5681558884978
 31
0.0000000000000000
  0
ARC
  5
3A1
100
AcDbEntity
  8
MAIN0
  6
CONTINUOUS
 62
3
100
AcDbCircle
 10
1943.599763812563
 20
585.5681558884895
 30
0.0000000000000000
 40
20.00000000000000
100
AcDbArc
 50
90.00000000000000
 51
149.9999999999739
  0
ARC
  5
3A2
100
AcDbEntity
  8
MAIN0
  6
CONTINUOUS
 62
3
100
AcDbCircle
 10
1826.397659165730
 20
585.5681558885386
 30
0.0000000000000000
 40
20.00000000000000
100
AcDbArc
 50
29.99999999997811
 51
89.99999999995197
  0
LINE
  5
3A3
100
AcDbEntity
  8
MAIN0
  6
CONTINUOUS
 62
3
100
AcDbLine
 10
1847.166687526305
 20
589.5951435441791
 30
0.0000000000000000
 11
1843.718167241423
 21
595.5681558885324
 31
0.0000000000000000
  0
ARC
  5
3A4
100
AcDbEntity
  8
MAIN0
  6
CONTINUOUS
 62
3
100
AcDbCircle
 10
1781.998711489166
 20
642.2681558885387
 30
0.0000000000000000
 40
1.000000000000000
100
AcDbArc
 50
90.00000000000000
 51
180.0000000000000
  0
ARC
  5
3A5
100
AcDbEntity
  8
MAIN0
  6
CONTINUOUS
 62
3
100
AcDbCircle
 10
1987.998711489166
 20
642.2681558885387
 30
0.0000000000000000
 40
1.000000000000000
100
AcDbArc
 50
0.0000000000000000
 51
90.00000000000000
  0
CIRCLE
  5
3A6
100
AcDbEntity
  8
MAIN0
  6
CONTINUOUS
 62
3
100
AcDbCircle
 10
595.8648369928427
 20
674.0681558856527
 30
0.0000000000000000
 40
5.000000000000000
  0
CIRCLE
  5
3A7
100
AcDbEntity
  8
MAIN0
  6
CONTINUOUS
 62
3
100
AcDbCircle
 10
595.8648369928427
 20
674.0681558856527
 30
0.0000000000000000
 40
4.250000000000000
  0
CIRCLE
  5
3A8
100
AcDbEntity
  8
MAIN0
  6
CONTINUOUS
 62
3
100
AcDbCircle
 10
595.8648369928427
 20
694.0681558856527
 30
0.0000000000000000
 40
5.000000000000000
  0
CIRCLE
  5
3A9
100
AcDbEntity
  8
MAIN0
  6
CONTINUOUS
 62
3
100
AcDbCircle
 10
595.8648369928427
 20
694.0681558856527
 30
0.0000000000000000
 40
4.250000000000000
  0
LINE
  5
3AA
100
AcDbEntity
  8
MAIN0
  6
CONTINUOUS
 62
3
100
AcDbLine
 10
1139.864836994138
 20
983.6521879233396
 30
0.0000000000000000
 11
1139.864836994138
 21
1200.652187923341
 31
0.0000000000000000
  0
LINE
  5
3AB
100
AcDbEntity
  8
MAIN0
  6
CONTINUOUS
 62
3
100
AcDbLine
 10
1181.864836994138
 20
985.1521879233401
 30
0.0000000000000000
 11
1181.864836994138
 21
1199.152187923340
 31
0.0000000000000000
  0
LINE
  5
3AC
100
AcDbEntity
  8
MAIN0
  6
CONTINUOUS
 62
3
100
AcDbLine
 10
1231.864836994138
 20
986.6521879233401
 30
0.0000000000000000
 11
1231.864836994138
 21
1197.652187923340
 31
0.0000000000000000
  0
LINE
  5
3AD
100
AcDbEntity
  8
MAIN0
  6
CONTINUOUS
 62
3
100
AcDbLine
 10
1291.864836992869
 20
988.1521879233401
 30
0.0000000000000000
 11
1291.864836992543
 21
1196.152187923340
 31
0.0000000000000000
  0
LINE
  5
3AE
100
AcDbEntity
  8
MAIN0
  6
CONTINUOUS
 62
3
100
AcDbLine
 10
1139.864836994138
 20
1200.652187923341
 30
0.0000000000000000
 11
1059.864836993940
 21
1200.652187923341
 31
0.0000000000000000
  0
LINE
  5
3AF
100
AcDbEntity
  8
MAIN0
  6
CONTINUOUS
 62
3
100
AcDbLine
 10
1059.864836993940
 20
983.6521879233395
 30
0.0000000000000000
 11
1139.864836994138
 21
983.6521879233397
 31
0.0000000000000000
  0
LINE
  5
3B0
100
AcDbEntity
  8
MAIN0
  6
CENTER
 62
3
100
AcDbLine
 10
631.8648369939419
 20
1049.818854590061
 30
0.0000000000000000
 11
631.8648369939419
 21
1034.485521256728
 31
0.0000000000000000
  0
LINE
  5
3B1
100
AcDbEntity
  8
MAIN0
  6
CENTER
 62
3
100
AcDbLine
 10
624.1981703272750
 20
1042.152187923395
 30
0.0000000000000000
 11
639.5315036606085
 21
1042.152187923395
 31
0.0000000000000000
  0
LINE
  5
3B2
100
AcDbEntity
  8
MAIN0
  6
CENTER
 62
3
100
AcDbLine
 10
561.8648369939419
 20
1049.818854590061
 30
0.0000000000000000
 11
561.8648369939418
 21
1034.485521256728
 31
0.0000000000000000
  0
LINE
  5
3B3
100
AcDbEntity
  8
MAIN0
  6
CENTER
 62
3
100
AcDbLine
 10
554.1981703272751
 20
1042.152187923395
 30
0.0000000000000000
 11
569.5315036606086
 21
1042.152187923395
 31
0.0000000000000000
  0
LINE
  5
3B4
100
AcDbEntity
  8
MAIN0
  6
CENTER
 62
3
100
AcDbLine
 10
561.8648369939418
 20
1149.818854589945
 30
0.0000000000000000
 11
561.8648369939418
 21
1134.485521256612
 31
0.0000000000000000
  0
LINE
  5
3B5
100
AcDbEntity
  8
MAIN0
  6
CENTER
 62
3
100
AcDbLine
 10
554.1981703272752
 20
1142.152187923279
 30
0.0000000000000000
 11
569.5315036606085
 21
1142.152187923279
 31
0.0000000000000000
  0
LINE
  5
3B6
100
AcDbEntity
  8
MAIN0
  6
CENTER
 62
3
100
AcDbLine
 10
631.8648369939421
 20
1149.818854589945
 30
0.0000000000000000
 11
631.8648369939421
 21
1134.485521256612
 31
0.0000000000000000
  0
LINE
  5
3B7
100
AcDbEntity
  8
MAIN0
  6
CENTER
 62
3
100
AcDbLine
 10
624.1981703272752
 20
1142.152187923278
 30
0.0000000000000000
 11
639.5315036606085
 21
1142.152187923278
 31
0.0000000000000000
  0
CIRCLE
  5
3B8
100
AcDbEntity
  8
MAIN0
  6
CONTINUOUS
 62
3
100
AcDbCircle
 10
595.8648369944305
 20
1092.152187923377
 30
0.0000000000000000
 40
5.000000000000000
  0
CIRCLE
  5
3B9
100
AcDbEntity
  8
MAIN0
  6
CONTINUOUS
 62
3
100
AcDbCircle
 10
595.8648369944305
 20
1092.152187923377
 30
0.0000000000000000
 40
4.250000000000000
  0
CIRCLE
  5
3BA
100
AcDbEntity
  8
MAIN0
  6
CONTINUOUS
 62
3
100
AcDbCircle
 10
631.8648369939419
 20
1142.152187923278
 30
0.0000000000000000
 40
5.000000000000000
  0
CIRCLE
  5
3BB
100
AcDbEntity
  8
MAIN0
  6
CONTINUOUS
 62
3
100
AcDbCircle
 10
631.8648369939419
 20
1142.152187923278
 30
0.0000000000000000
 40
4.250000000000000
  0
CIRCLE
  5
3BC
100
AcDbEntity
  8
MAIN0
  6
CONTINUOUS
 62
3
100
AcDbCircle
 10
561.8648369939418
 20
1042.152187923395
 30
0.0000000000000000
 40
5.000000000000000
  0
CIRCLE
  5
3BD
100
AcDbEntity
  8
MAIN0
  6
CONTINUOUS
 62
3
100
AcDbCircle
 10
561.8648369939418
 20
1042.152187923395
 30
0.0000000000000000
 40
4.250000000000000
  0
CIRCLE
  5
3BE
100
AcDbEntity
  8
MAIN0
  6
CONTINUOUS
 62
3
100
AcDbCircle
 10
631.8648369939418
 20
1042.152187923395
 30
0.0000000000000000
 40
5.000000000000000
  0
CIRCLE
  5
3BF
100
AcDbEntity
  8
MAIN0
  6
CONTINUOUS
 62
3
100
AcDbCircle
 10
631.8648369939418
 20
1042.152187923395
 30
0.0000000000000000
 40
4.250000000000000
  0
CIRCLE
  5
3C0
100
AcDbEntity
  8
MAIN0
  6
CONTINUOUS
 62
3
100
AcDbCircle
 10
625.8648369939423
 20
1167.152187923377
 30
0.0000000000000000
 40
15.90000000000000
  0
CIRCLE
  5
3C1
100
AcDbEntity
  8
MAIN0
  6
CONTINUOUS
 62
3
100
AcDbCircle
 10
565.8648369939421
 20
1167.152187923377
 30
0.0000000000000000
 40
15.90000000000000
  0
CIRCLE
  5
3C2
100
AcDbEntity
  8
MAIN0
  6
CONTINUOUS
 62
3
100
AcDbCircle
 10
565.8648369939418
 20
1017.152187923377
 30
0.0000000000000000
 40
15.90000000000000
  0
CIRCLE
  5
3C3
100
AcDbEntity
  8
MAIN0
  6
CONTINUOUS
 62
3
100
AcDbCircle
 10
625.8648369939421
 20
1017.152187923377
 30
0.0000000000000000
 40
15.90000000000000
  0
DIMENSION
  5
3CC
100
AcDbEntity
  8
MAIN0
  6
CONTINUOUS
 62
3
100
AcDbDimension
  2
*D46
 10
487.1020503451706
 20
1042.152187923395
 30
0.0000000000000000
 11
486.6020503451706
 21
1092.152187923337
 31
0.0000000000000000
 70
32
  3
MAIN001
100
AcDbAlignedDimension
 13
554.1981703272752
 23
1142.152187923279
 33
0.0000000000000000
 14
554.1981703272751
 24
1042.152187923395
 34
0.0000000000000000
 50
90.00000000000000
100
AcDbRotatedDimension
1001
ACAD
1000
DSTYLE
1002
{
1070
   173
1070
     1
1070
     6
1000
_OPEN
1070
     7
1000
_OPEN
1070
    41
1040
10.000000
1002
}
  0
DIMENSION
  5
3D5
100
AcDbEntity
  8
MAIN0
  6
CONTINUOUS
 62
3
100
AcDbDimension
  2
*D47
 10
561.8648369939419
 20
939.7064185512329
 30
0.0000000000000000
 11
596.8648369939418
 21
940.2064185512329
 31
0.0000000000000000
 70
32
  3
MAIN001
100
AcDbAlignedDimension
 13
631.8648369939419
 23
1034.485521256728
 33
0.0000000000000000
 14
561.8648369939418
 24
1034.485521256728
 34
0.0000000000000000
100
AcDbRotatedDimension
1001
ACAD
1000
DSTYLE
1002
{
1070
   173
1070
     1
1070
     6
1000
_OPEN
1070
     7
1000
_OPEN
1070
    41
1040
10.000000
1002
}
  0
DIMENSION
  5
3E0
100
AcDbEntity
  8
MAIN0
  6
CONTINUOUS
 62
3
100
AcDbDimension
  2
*D48
 10
631.8648369939418
 20
939.7064185512329
 30
0.0000000000000000
 11
667.7013508859795
 21
942.2064185512329
 31
0.0000000000000000
 70
160
  3
MAIN001
100
AcDbAlignedDimension
 13
646.8648369939421
 23
992.6521879233771
 33
0.0000000000000000
 14
631.8648369939419
 24
1034.485521256728
 34
0.0000000000000000
100
AcDbRotatedDimension
1001
ACAD
1000
DSTYLE
1002
{
1070
   173
1070
     1
1070
     6
1000
_OPEN
1070
     7
1000
_OPEN
1070
    41
1040
10.000000
1070
   287
1070
     0
1002
}
  0
CIRCLE
  5
3E1
100
AcDbEntity
  8
MAIN0
  6
CONTINUOUS
 62
3
100
AcDbCircle
 10
1010.864836994170
 20
1092.152187923340
 30
0.0000000000000000
 40
4.250000000000000
  0
CIRCLE
  5
3E2
100
AcDbEntity
  8
MAIN0
  6
CONTINUOUS
 62
3
100
AcDbCircle
 10
1010.864836994170
 20
1092.152187923340
 30
0.0000000000000000
 40
5.000000000000000
  0
LINE
  5
3E3
100
AcDbEntity
  8
MAIN0
  6
CENTER
 62
3
100
AcDbLine
 10
976.8648369944001
 20
1009.485521256674
 30
0.0000000000000000
 11
976.8648369944001
 21
1024.818854590007
 31
0.0000000000000000
  0
LINE
  5
3E4
100
AcDbEntity
  8
MAIN0
  6
CENTER
 62
3
100
AcDbLine
 10
984.5315036610666
 20
1017.152187923340
 30
0.0000000000000000
 11
969.1981703277334
 21
1017.152187923340
 31
0.0000000000000000
  0
CIRCLE
  5
3E5
100
AcDbEntity
  8
MAIN0
  6
CONTINUOUS
 62
3
100
AcDbCircle
 10
976.8648369944001
 20
1017.152187923340
 30
0.0000000000000000
 40
4.250000000000000
  0
CIRCLE
  5
3E6
100
AcDbEntity
  8
MAIN0
  6
CONTINUOUS
 62
3
100
AcDbCircle
 10
976.8648369944001
 20
1017.152187923340
 30
0.0000000000000000
 40
5.000000000000000
  0
LINE
  5
3E7
100
AcDbEntity
  8
MAIN0
  6
CENTER
 62
3
100
AcDbLine
 10
1036.864836994400
 20
1009.485521256674
 30
0.0000000000000000
 11
1036.864836994400
 21
1024.818854590007
 31
0.0000000000000000
  0
LINE
  5
3E8
100
AcDbEntity
  8
MAIN0
  6
CENTER
 62
3
100
AcDbLine
 10
1044.531503661067
 20
1017.152187923340
 30
0.0000000000000000
 11
1029.198170327733
 21
1017.152187923340
 31
0.0000000000000000
  0
CIRCLE
  5
3E9
100
AcDbEntity
  8
MAIN0
  6
CONTINUOUS
 62
3
100
AcDbCircle
 10
1036.864836994400
 20
1017.152187923340
 30
0.0000000000000000
 40
4.250000000000000
  0
CIRCLE
  5
3EA
100
AcDbEntity
  8
MAIN0
  6
CONTINUOUS
 62
3
100
AcDbCircle
 10
1036.864836994400
 20
1017.152187923340
 30
0.0000000000000000
 40
5.000000000000000
  0
LINE
  5
3EB
100
AcDbEntity
  8
MAIN0
  6
CENTER
 62
3
100
AcDbLine
 10
976.8648369944001
 20
1174.818854590006
 30
0.0000000000000000
 11
976.8648369944001
 21
1159.485521256673
 31
0.0000000000000000
  0
LINE
  5
3EC
100
AcDbEntity
  8
MAIN0
  6
CENTER
 62
3
100
AcDbLine
 10
984.5315036610666
 20
1167.152187923340
 30
0.0000000000000000
 11
969.1981703277334
 21
1167.152187923340
 31
0.0000000000000000
  0
CIRCLE
  5
3ED
100
AcDbEntity
  8
MAIN0
  6
CONTINUOUS
 62
3
100
AcDbCircle
 10
976.8648369944001
 20
1167.152187923340
 30
0.0000000000000000
 40
4.250000000000000
  0
CIRCLE
  5
3EE
100
AcDbEntity
  8
MAIN0
  6
CONTINUOUS
 62
3
100
AcDbCircle
 10
976.8648369944001
 20
1167.152187923340
 30
0.0000000000000000
 40
5.000000000000000
  0
LINE
  5
3EF
100
AcDbEntity
  8
MAIN0
  6
CENTER
 62
3
100
AcDbLine
 10
1036.864836994400
 20
1174.818854590006
 30
0.0000000000000000
 11
1036.864836994400
 21
1159.485521256673
 31
0.0000000000000000
  0
LINE
  5
3F0
100
AcDbEntity
  8
MAIN0
  6
CENTER
 62
3
100
AcDbLine
 10
1044.531503661067
 20
1167.152187923340
 30
0.0000000000000000
 11
1029.198170327733
 21
1167.152187923340
 31
0.0000000000000000
  0
CIRCLE
  5
3F1
100
AcDbEntity
  8
MAIN0
  6
CONTINUOUS
 62
3
100
AcDbCircle
 10
1036.864836994400
 20
1167.152187923340
 30
0.0000000000000000
 40
4.250000000000000
  0
CIRCLE
  5
3F2
100
AcDbEntity
  8
MAIN0
  6
CONTINUOUS
 62
3
100
AcDbCircle
 10
1036.864836994400
 20
1167.152187923340
 30
0.0000000000000000
 40
5.000000000000000
  0
DIMENSION
  5
3FB
100
AcDbEntity
  8
MAIN0
  6
CONTINUOUS
 62
3
100
AcDbDimension
  2
*D49
 10
961.8648369939413
 20
1231.376512278310
 30
0.0000000000000000
 11
986.3648369940559
 21
1231.876512278310
 31
0.0000000000000000
 70
32
  3
MAIN001
100
AcDbAlignedDimension
 13
1010.864836994170
 23
1103.818854590007
 33
0.0000000000000000
 14
961.8648369939413
 24
1191.552187923340
 34
0.0000000000000000
100
AcDbRotatedDimension
1001
ACAD
1000
DSTYLE
1002
{
1070
   173
1070
     1
1070
     6
1000
_OPEN
1070
     7
1000
_OPEN
1070
    41
1040
10.000000
1002
}
  0
DIMENSION
  5
404
100
AcDbEntity
  8
MAIN0
  6
CONTINUOUS
 62
3
100
AcDbDimension
  2
*D50
 10
1098.392003661494
 20
1017.152187923340
 30
0.0000000000000000
 11
1097.892003661494
 21
1092.152187923340
 31
0.0000000000000000
 70
32
  3
MAIN001
100
AcDbAlignedDimension
 13
1044.531503661067
 23
1167.152187923340
 33
0.0000000000000000
 14
1044.531503661067
 24
1017.152187923340
 34
0.0000000000000000
 50
90.00000000000000
100
AcDbRotatedDimension
1001
ACAD
1000
DSTYLE
1002
{
1070
   173
1070
     1
1070
     6
1000
_OPEN
1070
     7
1000
_OPEN
1070
    41
1040
10.000000
1002
}
  0
DIMENSION
  5
40F
100
AcDbEntity
  8
MAIN0
  6
CONTINUOUS
 62
3
100
AcDbDimension
  2
*D51
 10
961.8648369939411
 20
939.7064185512329
 30
0.0000000000000000
 11
940.3675864320286
 21
942.2064185512329
 31
0.0000000000000000
 70
160
  3
MAIN001
100
AcDbAlignedDimension
 13
976.8648369944001
 23
1009.485521256674
 33
0.0000000000000000
 14
961.8648369939411
 24
992.7521879233404
 34
0.0000000000000000
100
AcDbRotatedDimension
1001
ACAD
1000
DSTYLE
1002
{
1070
   173
1070
     1
1070
     6
1000
_OPEN
1070
     7
1000
_OPEN
1070
    41
1040
10.000000
1070
   287
1070
     0
1002
}
  0
DIMENSION
  5
418
100
AcDbEntity
  8
MAIN0
  6
CONTINUOUS
 62
3
100
AcDbDimension
  2
*D52
 10
976.8648369944001
 20
939.7064185512329
 30
0.0000000000000000
 11
1006.864836994400
 21
940.2064185512329
 31
0.0000000000000000
 70
32
  3
MAIN001
100
AcDbAlignedDimension
 13
1036.864836994400
 23
1009.485521256674
 33
0.0000000000000000
 14
976.8648369944001
 24
1009.485521256674
 34
0.0000000000000000
100
AcDbRotatedDimension
1001
ACAD
1000
DSTYLE
1002
{
1070
   173
1070
     1
1070
     6
1000
_OPEN
1070
     7
1000
_OPEN
1070
    41
1040
10.000000
1002
}
  0
LEADER
  5
419
100
AcDbEntity
  8
MAIN0
  6
CONTINUOUS
 62
3
100
AcDbLeader
  3
MAIN001
 73
     0
 75
     1
 40
15.49999952316284
 41
186.1990048160553
 76
     3
 10
558.7327677251703
 20
1038.254734640081
 30
0.0000000000000000
 10
479.5374240291345
 20
939.7064185511474
 30
0.0000000000000000
 10
469.9064243080842
 20
939.7064185511474
 30
0.0000000000000000
340
41A
213
0.0000000000000000
223
-2.500000000000000
233
0.0000000000000000
1001
ACAD
1000
DSTYLE
1002
{
1070
   147
1040
0.0
1070
    77
1070
     1
1070
   173
1070
     1
1070
     6
1000
_OPEN
1070
     7
1000
_OPEN
1002
}
  0
MTEXT
  5
41A
102
{ACAD_REACTORS
330
419
102
}
100
AcDbEntity
  8
MAIN0
  6
CONTINUOUS
 62
3
100
AcDbMText
 10
283.7074194920289
 20
957.7064180743103
 30
0.0000000000000000
 40
15.49999952316284
 41
0.0000000000000000
 71
     1
 72
     1
  1
{\H0.94x;{2×5-M10 深さ20\P　　 　　　　DEPTH}}
 11
1.000000000000000
 21
0.0000000000000000
 31
0.0000000000000000
  7
KNJYOKO
  0
CIRCLE
  5
41B
100
AcDbEntity
  8
MAIN0
  6
CONTINUOUS
 62
3
100
AcDbCircle
 10
1040.864836993941
 20
1124.652187923340
 30
0.0000000000000000
 40
13.00000000000000
  0
CIRCLE
  5
41C
100
AcDbEntity
  8
MAIN0
  6
CONTINUOUS
 62
3
100
AcDbCircle
 10
980.8648369939408
 20
1124.652187923340
 30
0.0000000000000000
 40
13.00000000000000
  0
CIRCLE
  5
41D
100
AcDbEntity
  8
MAIN0
  6
CONTINUOUS
 62
3
100
AcDbCircle
 10
980.8648369939406
 20
1059.652187923340
 30
0.0000000000000000
 40
13.00000000000000
  0
CIRCLE
  5
41E
100
AcDbEntity
  8
MAIN0
  6
CONTINUOUS
 62
3
100
AcDbCircle
 10
1040.864836993941
 20
1059.652187923340
 30
0.0000000000000000
 40
13.00000000000000
  0
CIRCLE
  5
41F
100
AcDbEntity
  8
MAIN0
  6
CONTINUOUS
 62
3
100
AcDbCircle
 10
561.8648369939417
 20
1142.152187923279
 30
0.0000000000000000
 40
5.000000000000000
  0
CIRCLE
  5
420
100
AcDbEntity
  8
MAIN0
  6
CONTINUOUS
 62
3
100
AcDbCircle
 10
561.8648369939417
 20
1142.152187923279
 30
0.0000000000000000
 40
4.188101000000000
  0
LINE
  5
421
100
AcDbEntity
  8
MAIN0
  6
CONTINUOUS
 62
3
100
AcDbLine
 10
561.8648369939418
 20
1145.038939269226
 30
0.0000000000000000
 11
559.3648369939417
 21
1143.595563596252
 31
0.0000000000000000
  0
LINE
  5
422
100
AcDbEntity
  8
MAIN0
  6
CONTINUOUS
 62
3
100
AcDbLine
 10
559.3648369939417
 20
1143.595563596253
 30
0.0000000000000000
 11
559.3648369939417
 21
1140.708812250304
 31
0.0000000000000000
  0
LINE
  5
423
100
AcDbEntity
  8
MAIN0
  6
CONTINUOUS
 62
3
100
AcDbLine
 10
559.3648369939417
 20
1140.708812250304
 30
0.0000000000000000
 11
561.8648369939417
 21
1139.265436577330
 31
0.0000000000000000
  0
LINE
  5
424
100
AcDbEntity
  8
MAIN0
  6
CONTINUOUS
 62
3
100
AcDbLine
 10
561.8648369939417
 20
1139.265436577330
 30
0.0000000000000000
 11
564.3648369939417
 21
1140.708812250304
 31
0.0000000000000000
  0
LINE
  5
425
100
AcDbEntity
  8
MAIN0
  6
CONTINUOUS
 62
3
100
AcDbLine
 10
564.3648369939417
 20
1140.708812250304
 30
0.0000000000000000
 11
564.3648369939417
 21
1143.595563596253
 31
0.0000000000000000
  0
LINE
  5
426
100
AcDbEntity
  8
MAIN0
  6
CONTINUOUS
 62
3
100
AcDbLine
 10
564.3648369939416
 20
1143.595563596252
 30
0.0000000000000000
 11
561.8648369939415
 21
1145.038939269226
 31
0.0000000000000000
  0
LINE
  5
427
100
AcDbEntity
  8
MAIN0
  6
CONTINUOUS
 62
3
100
AcDbLine
 10
1549.097987093933
 20
830.0681558885674
 30
0.0000000000000000
 11
1549.097987093769
 21
618.4952032801879
 31
0.0000000000000000
  0
LINE
  5
428
100
AcDbEntity
  8
MAIN0
  6
CONTINUOUS
 62
3
100
AcDbLine
 10
1566.097987093933
 20
833.0681558885652
 30
0.0000000000000000
 11
1552.097987093933
 21
833.0681558885651
 31
0.0000000000000000
  0
LINE
  5
429
100
AcDbEntity
  8
MAIN0
  6
CONTINUOUS
 62
3
100
AcDbLine
 10
1569.097987093933
 20
830.0681558885628
 30
0.0000000000000000
 11
1569.097987093924
 21
818.0681558885628
 31
0.0000000000000000
  0
LINE
  5
42A
100
AcDbEntity
  8
MAIN0
  6
CONTINUOUS
 62
3
100
AcDbLine
 10
1507.097987093754
 20
599.0681558885651
 30
0.0000000000000000
 11
1507.097987093749
 21
592.6681558885653
 31
0.0000000000000000
  0
LINE
  5
42B
100
AcDbEntity
  8
MAIN0
  6
CONTINUOUS
 62
3
100
AcDbLine
 10
1522.097987093749
 20
592.0681558885652
 30
0.0000000000000000
 11
1507.697987093749
 21
592.0681558885652
 31
0.0000000000000000
  0
LINE
  5
42C
100
AcDbEntity
  8
MAIN0
  6
CONTINUOUS
 62
3
100
AcDbLine
 10
1522.097987093754
 20
599.0681558885652
 30
0.0000000000000000
 11
1522.097987093747
 21
589.4681558885653
 31
0.0000000000000000
  0
LINE
  5
42D
100
AcDbEntity
  8
MAIN0
  6
CONTINUOUS
 62
3
100
AcDbLine
 10
1507.097987093754
 20
599.0681558885651
 30
0.0000000000000000
 11
1507.097987093749
 21
605.4681558885652
 31
0.0000000000000000
  0
LINE
  5
42E
100
AcDbEntity
  8
MAIN0
  6
CONTINUOUS
 62
3
100
AcDbLine
 10
1522.097987093749
 20
606.0681558885652
 30
0.0000000000000000
 11
1507.697987093749
 21
606.0681558885652
 31
0.0000000000000000
  0
LINE
  5
42F
100
AcDbEntity
  8
MAIN0
  6
CONTINUOUS
 62
3
100
AcDbLine
 10
1522.097987093754
 20
599.0681558885652
 30
0.0000000000000000
 11
1522.097987093747
 21
608.6681558885651
 31
0.0000000000000000
  0
LINE
  5
430
100
AcDbEntity
  8
MAIN0
  6
CONTINUOUS
 62
3
100
AcDbLine
 10
1566.097987093924
 20
815.0681558885652
 30
0.0000000000000000
 11
1562.097987093919
 21
815.0681558885652
 31
0.0000000000000000
  0
ARC
  5
431
100
AcDbEntity
  8
MAIN0
  6
CONTINUOUS
 62
3
100
AcDbCircle
 10
1552.097987093933
 20
830.0681558885652
 30
0.0000000000000000
 40
3.000000000000000
100
AcDbArc
 50
90.00000000000007
 51
180.0000000000001
  0
LINE
  5
432
100
AcDbEntity
  8
MAIN0
  6
CONTINUOUS
 62
3
100
AcDbLine
 10
1522.097987093754
 20
599.0681558885652
 30
0.0000000000000000
 11
1507.097987093754
 21
599.0681558885652
 31
0.0000000000000000
  0
LINE
  5
433
100
AcDbEntity
  8
MAIN0
  6
CONTINUOUS
 62
3
100
AcDbLine
 10
1507.097987093749
 20
592.6681558885651
 30
0.0000000000000000
 11
1507.697987093749
 21
592.0681558885651
 31
0.0000000000000000
  0
LINE
  5
434
100
AcDbEntity
  8
MAIN0
  6
CONTINUOUS
 62
3
100
AcDbLine
 10
1507.697987093749
 20
606.0681558885653
 30
0.0000000000000000
 11
1507.097987093749
 21
605.4681558885652
 31
0.0000000000000000
  0
ELLIPSE
  5
435
100
AcDbEntity
  8
MAIN0
  6
CONTINUOUS
 62
3
100
AcDbEllipse
 10
1515.097987093751
 20
602.5681558885709
 30
0.0000000000000000
 11
-2.050000000000000
 21
0.0000000000000000
 31
0.0000000000000000
210
0.0000000000000000
220
0.0000000000000000
230
1.000000000000000
 40
0.8536585365853660
 41
0.0000000000000000
 42
6.283185307179586
  0
LINE
  5
436
100
AcDbEntity
  8
MAIN0
  6
CONTINUOUS
 62
3
100
AcDbLine
 10
1531.097987093746
 20
589.0681558885652
 30
0.0000000000000000
 11
1522.497987093746
 21
589.0681558885652
 31
0.0000000000000000
  0
LINE
  5
437
100
AcDbEntity
  8
MAIN0
  6
CONTINUOUS
 62
3
100
AcDbLine
 10
1531.097987093762
 20
609.0681558885652
 30
0.0000000000000000
 11
1522.497987093746
 21
609.0681558885652
 31
0.0000000000000000
  0
LINE
  5
438
100
AcDbEntity
  8
MAIN0
  6
CONTINUOUS
 62
3
100
AcDbLine
 10
1531.097987093762
 20
609.0681558885652
 30
0.0000000000000000
 11
1531.097987093746
 21
589.0681558885652
 31
0.0000000000000000
  0
LINE
  5
439
100
AcDbEntity
  8
MAIN0
  6
CONTINUOUS
 62
3
100
AcDbLine
 10
1559.097987093920
 20
812.0681558885675
 30
0.0000000000000000
 11
1559.097987093745
 21
587.0681558885630
 31
0.0000000000000000
  0
LINE
  5
43A
100
AcDbEntity
  8
MAIN0
  6
CONTINUOUS
 62
3
100
AcDbLine
 10
1556.097987093745
 20
584.0681558885652
 30
0.0000000000000000
 11
1549.758241131582
 21
584.0681558885652
 31
0.0000000000000000
  0
LINE
  5
43B
100
AcDbEntity
  8
MAIN0
  6
CONTINUOUS
 62
3
100
AcDbLine
 10
1531.097987093747
 20
589.0681558885626
 30
0.0000000000000000
 11
1549.758241131581
 21
584.0681558885653
 31
0.0000000000000000
  0
LINE
  5
43C
100
AcDbEntity
  8
MAIN0
  6
CONTINUOUS
 62
3
100
AcDbLine
 10
1531.097987093793
 20
609.0681558885652
 30
0.0000000000000000
 11
1544.650901364384
 21
612.6996483224582
 31
0.0000000000000000
  0
ARC
  5
43D
100
AcDbEntity
  8
MAIN0
  6
CONTINUOUS
 62
3
100
AcDbCircle
 10
1556.097987093745
 20
587.0681558885652
 30
0.0000000000000000
 40
3.000000000000000
100
AcDbArc
 50
270.0000000000001
 51
360.0000000000001
  0
ARC
  5
43E
100
AcDbEntity
  8
MAIN0
  6
CONTINUOUS
 62
3
100
AcDbCircle
 10
1566.097987093933
 20
830.0681558885652
 30
0.0000000000000000
 40
3.000000000000000
100
AcDbArc
 50
7.633331235512440e-014
 51
90.00000000000007
  0
ARC
  5
43F
100
AcDbEntity
  8
MAIN0
  6
CONTINUOUS
 62
3
100
AcDbCircle
 10
1566.097987093924
 20
818.0681558885652
 30
0.0000000000000000
 40
3.000000000000000
100
AcDbArc
 50
270.0000000000001
 51
360.0000000000001
  0
LINE
  5
440
100
AcDbEntity
  8
MAIN0
  6
CONTINUOUS
 62
3
100
AcDbLine
 10
1522.097987093747
 20
589.4681558885654
 30
0.0000000000000000
 11
1522.497987093747
 21
589.0681558885653
 31
0.0000000000000000
  0
LINE
  5
441
100
AcDbEntity
  8
MAIN0
  6
CONTINUOUS
 62
3
100
AcDbLine
 10
1522.097987093747
 20
608.6681558885653
 30
0.0000000000000000
 11
1522.497987093746
 21
609.0681558885651
 31
0.0000000000000000
  0
ARC
  5
442
100
AcDbEntity
  8
MAIN0
  6
CONTINUOUS
 62
3
100
AcDbCircle
 10
1543.097987093770
 20
618.4952032801925
 30
0.0000000000000000
 40
6.000000000000000
100
AcDbArc
 50
284.9999999999988
 51
360.0000000000001
  0
ARC
  5
443
100
AcDbEntity
  8
MAIN0
  6
CONTINUOUS
 62
3
100
AcDbCircle
 10
1562.097987093920
 20
812.0681558885652
 30
0.0000000000000000
 40
3.000000000000000
100
AcDbArc
 50
90.00000000000007
 51
180.0000000000001
  0
ARC
  5
444
100
AcDbEntity
  8
MAIN1
  6
CONTINUOUS
 62
7
100
AcDbCircle
 10
1649.410874259950
 20
831.0681558885652
 30
0.0000000000000000
 40
4.000000000000000
100
AcDbArc
 50
11.21227141764971
 51
90.00000000000000
  0
ARC
  5
445
100
AcDbEntity
  8
MAIN1
  6
CONTINUOUS
 62
7
100
AcDbCircle
 10
1649.410874259950
 20
817.0681558885652
 30
0.0000000000000000
 40
4.000000000000000
100
AcDbArc
 50
270.0000000000000
 51
348.7877285823506
  0
LINE
  5
446
100
AcDbEntity
  8
MAIN1
  6
CONTINUOUS
 62
7
100
AcDbLine
 10
1603.097987093931
 20
835.0681558885651
 30
0.0000000000000000
 11
1581.014726004507
 21
834.1480200098391
 31
0.0000000000000000
  0
LINE
  5
447
100
AcDbEntity
  8
MAIN1
  6
CONTINUOUS
 62
7
100
AcDbLine
 10
1581.014726004507
 20
813.9882917672912
 30
0.0000000000000000
 11
1603.097987093931
 21
813.0681558885651
 31
0.0000000000000000
  0
ARC
  5
448
100
AcDbEntity
  8
MAIN1
  6
CONTINUOUS
 62
7
100
AcDbCircle
 10
1614.097987093931
 20
824.0681558885652
 30
0.0000000000000000
 40
40.00000000000002
100
AcDbArc
 50
348.7877285823503
 51
371.2122714176497
  0
LINE
  5
449
100
AcDbEntity
  8
MAIN1
  6
CONTINUOUS
 62
7
100
AcDbLine
 10
1578.597987093932
 20
832.5681558885652
 30
0.0000000000000000
 11
1578.597987093932
 21
815.5681558885652
 31
0.0000000000000000
  0
LINE
  5
44A
100
AcDbEntity
  8
MAIN1
  6
CONTINUOUS
 62
7
100
AcDbLine
 10
1569.597987093931
 20
832.5681558885652
 30
0.0000000000000000
 11
1569.597987093931
 21
829.5453814636169
 31
0.0000000000000000
  0
LINE
  5
44B
100
AcDbEntity
  8
MAIN1
  6
CONTINUOUS
 62
7
100
AcDbLine
 10
1569.097987093931
 20
829.5453814636169
 30
0.0000000000000000
 11
1576.597987093932
 21
829.5453814636169
 31
0.0000000000000000
  0
LINE
  5
44C
100
AcDbEntity
  8
MAIN1
  6
CONTINUOUS
 62
7
100
AcDbLine
 10
1569.097987093931
 20
818.5909303135136
 30
0.0000000000000000
 11
1576.597987093932
 21
818.5909303135136
 31
0.0000000000000000
  0
LINE
  5
44D
100
AcDbEntity
  8
MAIN1
  6
CONTINUOUS
 62
7
100
AcDbLine
 10
1649.410874259950
 20
835.0681558885652
 30
0.0000000000000000
 11
1603.097987093931
 21
835.0681558885652
 31
0.0000000000000000
  0
LINE
  5
44E
100
AcDbEntity
  8
MAIN1
  6
CONTINUOUS
 62
7
100
AcDbLine
 10
1649.410874259950
 20
813.0681558885652
 30
0.0000000000000000
 11
1603.097987093932
 21
813.0681558885652
 31
0.0000000000000000
  0
LINE
  5
44F
100
AcDbEntity
  8
MAIN1
  6
CONTINUOUS
 62
7
100
AcDbLine
 10
1569.597987093931
 20
832.5681558885653
 30
0.0000000000000000
 11
1569.097987093931
 21
832.0681558885653
 31
0.0000000000000000
  0
LINE
  5
450
100
AcDbEntity
  8
MAIN1
  6
CONTINUOUS
 62
7
100
AcDbLine
 10
1578.597987093931
 20
832.5681558885655
 30
0.0000000000000000
 11
1579.097987093931
 21
832.0681558885653
 31
0.0000000000000000
  0
LINE
  5
451
100
AcDbEntity
  8
MAIN1
  6
CONTINUOUS
 62
7
100
AcDbLine
 10
1578.597987093931
 20
815.5681558885653
 30
0.0000000000000000
 11
1579.097987093931
 21
816.0681558885656
 31
0.0000000000000000
  0
LINE
  5
452
100
AcDbEntity
  8
MAIN1
  6
CONTINUOUS
 62
7
100
AcDbLine
 10
1569.097987093931
 20
816.0681558885652
 30
0.0000000000000000
 11
1569.597987093931
 21
815.5681558885653
 31
0.0000000000000000
  0
LINE
  5
453
100
AcDbEntity
  8
MAIN1
  6
CONTINUOUS
 62
7
100
AcDbLine
 10
1569.597987093931
 20
832.5681558885652
 30
0.0000000000000000
 11
1578.597987093932
 21
832.5681558885652
 31
0.0000000000000000
  0
LINE
  5
454
100
AcDbEntity
  8
MAIN1
  6
CONTINUOUS
 62
7
100
AcDbLine
 10
1569.597987093931
 20
815.5681558885652
 30
0.0000000000000000
 11
1578.597987093932
 21
815.5681558885652
 31
0.0000000000000000
  0
LINE
  5
455
100
AcDbEntity
  8
MAIN1
  6
CONTINUOUS
 62
7
100
AcDbLine
 10
1569.097987093931
 20
816.0681558885652
 30
0.0000000000000000
 11
1569.097987093931
 21
832.0681558885652
 31
0.0000000000000000
  0
LINE
  5
456
100
AcDbEntity
  8
MAIN1
  6
CONTINUOUS
 62
7
100
AcDbLine
 10
1569.597987093931
 20
815.5681558885652
 30
0.0000000000000000
 11
1569.597987093931
 21
818.5909303135136
 31
0.0000000000000000
  0
LINE
  5
457
100
AcDbEntity
  8
MAIN1
  6
CONTINUOUS
 62
7
100
AcDbLine
 10
1579.097987093932
 20
815.9865579134761
 30
0.0000000000000000
 11
1579.097987093932
 21
832.1497538636545
 31
0.0000000000000000
  0
ARC
  5
458
100
AcDbEntity
  8
MAIN1
  6
CONTINUOUS
 62
7
100
AcDbCircle
 10
1581.097987093932
 20
832.1497538636545
 30
0.0000000000000000
 40
2.000000000000000
100
AcDbArc
 50
92.38594403038889
 51
179.9999999999999
  0
ARC
  5
459
100
AcDbEntity
  8
MAIN1
  6
CONTINUOUS
 62
7
100
AcDbCircle
 10
1581.097987093932
 20
815.9865579134761
 30
0.0000000000000000
 40
2.000000000000000
100
AcDbArc
 50
180.0000000000000
 51
267.6140559696109
  0
LINE
  5
45A
100
AcDbEntity
  8
MAIN1
  6
CONTINUOUS
 62
7
100
AcDbLine
 10
1576.597987093932
 20
818.5909303135136
 30
0.0000000000000000
 11
1576.597987093932
 21
829.5453814636169
 31
0.0000000000000000
  0
LINE
  5
45B
100
AcDbEntity
  8
MAIN3
  6
CONTINUOUS
 62
3
100
AcDbLine
 10
1576.597987093932
 20
818.5909303135138
 30
0.0000000000000000
 11
1569.097987093932
 21
829.5453814636171
 31
0.0000000000000000
  0
LINE
  5
45C
100
AcDbEntity
  8
MAIN3
  6
CONTINUOUS
 62
3
100
AcDbLine
 10
1576.597987093932
 20
829.5453814636169
 30
0.0000000000000000
 11
1569.097987093932
 21
818.5909303135136
 31
0.0000000000000000
  0
LINE
  5
45D
100
AcDbEntity
  8
MAIN1
  6
CONTINUOUS
 62
7
100
AcDbLine
 10
1603.097987093931
 20
835.0681558885652
 30
0.0000000000000000
 11
1603.097987093931
 21
813.0681558885652
 31
0.0000000000000000
  0
LINE
  5
45E
100
AcDbEntity
  8
MAIN0
  6
CONTINUOUS
 62
3
100
AcDbLine
 10
211.9493072962654
 20
564.0681558879039
 30
0.0000000000000000
 11
272.9493072982649
 21
564.0681558878789
 31
0.0000000000000000
  0
ARC
  5
45F
100
AcDbEntity
  8
MAIN0
  6
CONTINUOUS
 62
3
100
AcDbCircle
 10
211.9493072962696
 20
574.0681558877872
 30
0.0000000000000000
 40
10.00000000000000
100
AcDbArc
 50
179.9999999999519
 51
269.9999999999520
  0
LINE
  5
460
100
AcDbEntity
  8
MAIN0
  6
CONTINUOUS
 62
3
100
AcDbLine
 10
201.9493072962696
 20
574.0681558877955
 30
0.0000000000000000
 11
201.9493072962864
 21
594.0681558885951
 31
0.0000000000000000
  0
ARC
  5
461
100
AcDbEntity
  8
MAIN0
  6
CONTINUOUS
 62
3
100
AcDbCircle
 10
272.9493072982689
 20
574.0681558877612
 30
0.0000000000000000
 40
10.00000000000000
100
AcDbArc
 50
269.9999999999520
 51
359.9999999999520
  0
LINE
  5
462
100
AcDbEntity
  8
MAIN0
  6
CONTINUOUS
 62
3
100
AcDbLine
 10
282.9493072982690
 20
574.0681558877233
 30
0.0000000000000000
 11
282.9493072983449
 21
594.0681558885611
 31
0.0000000000000000
  0
LINE
  5
463
100
AcDbEntity
  8
MAIN0
  6
CONTINUOUS
 62
3
100
AcDbLine
 10
1789.998711489121
 20
545.0681558879388
 30
0.0000000000000000
 11
1783.998711489121
 21
545.0681558879388
 31
0.0000000000000000
  0
LINE
  5
464
100
AcDbEntity
  8
MAIN0
  6
CONTINUOUS
 62
3
100
AcDbLine
 10
1789.998711489121
 20
554.0681558879388
 30
0.0000000000000000
 11
1712.998711489121
 21
554.0681558879388
 31
0.0000000000000000
  0
LINE
  5
465
100
AcDbEntity
  8
MAIN0
  6
CONTINUOUS
 62
3
100
AcDbLine
 10
1783.998711489121
 20
534.0681558879388
 30
0.0000000000000000
 11
1736.496579073651
 21
534.0681558879388
 31
0.0000000000000000
  0
LINE
  5
466
100
AcDbEntity
  8
MAIN0
  6
CONTINUOUS
 62
3
100
AcDbLine
 10
1712.998711489121
 20
554.0681558879383
 30
0.0000000000000000
 11
1714.698711489121
 21
524.0681558879383
 31
0.0000000000000000
  0
LINE
  5
467
100
AcDbEntity
  8
MAIN0
  6
CONTINUOUS
 62
3
100
AcDbLine
 10
1729.698711479483
 20
524.0681558879390
 30
0.0000000000000000
 11
1730.587732555580
 21
529.1100449539617
 31
0.0000000000000000
  0
ARC
  5
468
100
AcDbEntity
  8
MAIN0
  6
CONTINUOUS
 62
3
100
AcDbCircle
 10
1736.496579073651
 20
528.0681558879388
 30
0.0000000000000000
 40
6.000000000000000
100
AcDbArc
 50
90.00000000000000
 51
169.9999999997949
  0
LINE
  5
469
100
AcDbEntity
  8
MAIN0
  6
CONTINUOUS
 62
3
100
AcDbLine
 10
1729.698711479484
 20
524.0681558879388
 30
0.0000000000000000
 11
1714.698711489122
 21
524.0681558879388
 31
0.0000000000000000
  0
LINE
  5
46A
100
AcDbEntity
  8
MAIN0
  6
CENTER
 62
3
100
AcDbLine
 10
1760.998711489120
 20
328.7759524875698
 30
0.0000000000000000
 11
1760.998711489121
 21
580.0184174214597
 31
0.0000000000000000
  0
LINE
  5
46B
100
AcDbEntity
  8
MAIN0
  6
CONTINUOUS
 62
3
100
AcDbLine
 10
1778.498711489121
 20
559.0681558879388
 30
0.0000000000000000
 11
1743.498711489121
 21
559.0681558879388
 31
0.0000000000000000
  0
LINE
  5
46C
100
AcDbEntity
  8
MAIN0
  6
CONTINUOUS
 62
3
100
AcDbLine
 10
1778.498711489121
 20
554.0681558879388
 30
0.0000000000000000
 11
1778.498711489121
 21
559.0681558879388
 31
0.0000000000000000
  0
LINE
  5
46D
100
AcDbEntity
  8
MAIN0
  6
CONTINUOUS
 62
3
100
AcDbLine
 10
1743.498711489121
 20
554.0681558879388
 30
0.0000000000000000
 11
1743.498711489121
 21
559.0681558879388
 31
0.0000000000000000
  0
LINE
  5
46E
100
AcDbEntity
  8
MAIN0
  6
CONTINUOUS
 62
3
100
AcDbLine
 10
1789.998711489121
 20
545.0681558879388
 30
0.0000000000000000
 11
1789.998711489121
 21
554.0681558879388
 31
0.0000000000000000
  0
LINE
  5
46F
100
AcDbEntity
  8
MAIN0
  6
CONTINUOUS
 62
3
100
AcDbLine
 10
1772.998711489121
 20
559.0681558879388
 30
0.0000000000000000
 11
1772.998711489121
 21
573.4681558879389
 31
0.0000000000000000
  0
LINE
  5
470
100
AcDbEntity
  8
MAIN0
  6
CONTINUOUS
 62
3
100
AcDbLine
 10
1772.998711489121
 20
573.4681558879389
 30
0.0000000000000000
 11
1770.227430197010
 21
575.0681558879388
 31
0.0000000000000000
  0
LINE
  5
471
100
AcDbEntity
  8
MAIN0
  6
CONTINUOUS
 62
3
100
AcDbLine
 10
1770.227430197011
 20
575.0681558879388
 30
0.0000000000000000
 11
1751.769992781232
 21
575.0681558879388
 31
0.0000000000000000
  0
LINE
  5
472
100
AcDbEntity
  8
MAIN0
  6
CONTINUOUS
 62
3
100
AcDbLine
 10
1751.769992781231
 20
575.0681558879392
 30
0.0000000000000000
 11
1748.998711489120
 21
573.4681558879390
 31
0.0000000000000000
  0
LINE
  5
473
100
AcDbEntity
  8
MAIN0
  6
CONTINUOUS
 62
3
100
AcDbLine
 10
1748.998711489121
 20
573.4681558879389
 30
0.0000000000000000
 11
1748.998711489121
 21
559.0681558879388
 31
0.0000000000000000
  0
LINE
  5
474
100
AcDbEntity
  8
MAIN0
  6
CONTINUOUS
 62
3
100
AcDbLine
 10
1772.998711489121
 20
573.4681558879389
 30
0.0000000000000000
 11
1748.998711489121
 21
573.4681558879389
 31
0.0000000000000000
  0
LINE
  5
475
100
AcDbEntity
  8
MAIN0
  6
CONTINUOUS
 62
3
100
AcDbLine
 10
1768.998711489121
 20
534.0681558879388
 30
0.0000000000000000
 11
1768.998711489121
 21
513.0681558879388
 31
0.0000000000000000
  0
LINE
  5
476
100
AcDbEntity
  8
MAIN0
  6
CONTINUOUS
 62
3
100
AcDbLine
 10
1752.998711489121
 20
513.0681558879388
 30
0.0000000000000000
 11
1752.998711489121
 21
534.0681558879388
 31
0.0000000000000000
  0
LINE
  5
477
100
AcDbEntity
  8
MAIN0
  6
CONTINUOUS
 62
3
100
AcDbLine
 10
1767.916179489122
 20
534.0681558879388
 30
0.0000000000000000
 11
1767.916179489122
 21
513.0681558879388
 31
0.0000000000000000
  0
LINE
  5
478
100
AcDbEntity
  8
MAIN0
  6
CONTINUOUS
 62
3
100
AcDbLine
 10
1754.081243489122
 20
534.0681558879388
 30
0.0000000000000000
 11
1754.081243489122
 21
513.0681558879388
 31
0.0000000000000000
  0
LINE
  5
479
100
AcDbEntity
  8
MAIN0
  6
CONTINUOUS
 62
3
100
AcDbLine
 10
1783.998711489121
 20
534.0681558879388
 30
0.0000000000000000
 11
1783.998711489121
 21
545.0681558879388
 31
0.0000000000000000
  0
DIMENSION
  5
484
100
AcDbEntity
  8
MAIN0
  6
CONTINUOUS
 62
3
100
AcDbDimension
  2
*D53
 10
1692.998711488342
 20
559.0681558879388
 30
0.0000000000000000
 11
1690.498711488342
 21
583.8367458423543
 31
0.0000000000000000
 70
160
  3
MAIN001
100
AcDbAlignedDimension
 13
1712.998711489121
 23
554.0681558879388
 33
0.0000000000000000
 14
1743.498711489121
 24
559.0681558879388
 34
0.0000000000000000
 50
90.00000000000000
100
AcDbRotatedDimension
1001
ACAD
1000
DSTYLE
1002
{
1070
   173
1070
     1
1070
     6
1000
_OPEN
1070
     7
1000
_OPEN
1070
    41
1040
10.000000
1070
   287
1070
     0
1002
}
  0
DIMENSION
  5
48E
100
AcDbEntity
  8
MAIN0
  6
CONTINUOUS
 62
3
100
AcDbDimension
  2
*D54
 10
1692.998711488342
 20
554.0681558879388
 30
0.0000000000000000
 11
1690.498711488342
 21
509.4208099349435
 31
0.0000000000000000
 70
160
  3
MAIN001
100
AcDbAlignedDimension
 13
1714.698711489122
 23
524.0681558879388
 33
0.0000000000000000
 14
1712.998711489121
 24
554.0681558879388
 34
0.0000000000000000
 50
90.00000000000000
100
AcDbRotatedDimension
1001
ACAD
1000
DSTYLE
1002
{
1070
   173
1070
     1
1070
     6
1000
_OPEN
1070
     7
1000
_OPEN
1070
    41
1040
10.000000
1002
}
  0
LINE
  5
48F
100
AcDbEntity
  8
MAIN0
  6
CONTINUOUS
 62
3
100
AcDbLine
 10
1745.998711489078
 20
334.5291378143423
 30
0.0000000000000000
 11
1745.998711489059
 21
363.0291378143423
 31
0.0000000000000000
  0
LINE
  5
490
100
AcDbEntity
  8
MAIN0
  6
CONTINUOUS
 62
3
100
AcDbLine
 10
1745.998711489058
 20
363.0291378143421
 30
0.0000000000000000
 11
1775.998711489058
 21
363.0291378143338
 31
0.0000000000000000
  0
LINE
  5
491
100
AcDbEntity
  8
MAIN0
  6
HIDDEN
 62
3
100
AcDbLine
 10
1745.998711489062
 20
357.5291378143422
 30
0.0000000000000000
 11
1775.998711489062
 21
357.5291378143339
 31
0.0000000000000000
  0
LINE
  5
492
100
AcDbEntity
  8
MAIN0
  6
CENTER
 62
3
100
AcDbLine
 10
1742.736093466779
 20
348.7791378143431
 30
0.0000000000000000
 11
1779.554190830417
 21
348.7791378143329
 31
0.0000000000000000
  0
LINE
  5
493
100
AcDbEntity
  8
MAIN0
  6
HIDDEN
 62
3
100
AcDbLine
 10
1745.998711489075
 20
340.0291378143423
 30
0.0000000000000000
 11
1775.998711489074
 21
340.0291378143340
 31
0.0000000000000000
  0
LINE
  5
494
100
AcDbEntity
  8
MAIN0
  6
CONTINUOUS
 62
3
100
AcDbLine
 10
1745.998711489078
 20
334.5291378143423
 30
0.0000000000000000
 11
1775.998711489078
 21
334.5291378143340
 31
0.0000000000000000
  0
LINE
  5
495
100
AcDbEntity
  8
MAIN0
  6
CONTINUOUS
 62
3
100
AcDbLine
 10
1775.998711489078
 20
334.5291378143340
 30
0.0000000000000000
 11
1775.998711489058
 21
363.0291378143340
 31
0.0000000000000000
  0
LINE
  5
496
100
AcDbEntity
  8
MAIN0
  6
CENTER
 62
3
100
AcDbLine
 10
1635.417532644755
 20
580.0184174213761
 30
0.0000000000000000
 11
1635.417532644726
 21
487.0573390406956
 31
0.0000000000000000
  0
LINE
  5
497
100
AcDbEntity
  8
MAIN0
  6
CONTINUOUS
 62
3
100
AcDbLine
 10
1612.917532644748
 20
554.0681558878523
 30
0.0000000000000000
 11
1614.589663792280
 21
524.0681558879710
 31
0.0000000000000000
  0
LINE
  5
498
100
AcDbEntity
  8
MAIN0
  6
CONTINUOUS
 62
3
100
AcDbLine
 10
1657.917532644746
 20
554.0681558878388
 30
0.0000000000000000
 11
1656.245401497196
 21
524.0681558879585
 31
0.0000000000000000
  0
LINE
  5
499
100
AcDbEntity
  8
MAIN0
  6
CONTINUOUS
 62
3
100
AcDbLine
 10
1612.917532644746
 20
554.0681558878525
 30
0.0000000000000000
 11
1657.917532644746
 21
554.0681558878387
 31
0.0000000000000000
  0
LINE
  5
49A
100
AcDbEntity
  8
MAIN0
  6
CONTINUOUS
 62
3
100
AcDbLine
 10
1614.589663792279
 20
524.0681558879711
 30
0.0000000000000000
 11
1656.245401497196
 21
524.0681558879584
 31
0.0000000000000000
  0
DIMENSION
  5
4A3
100
AcDbEntity
  8
MAIN0
  6
CONTINUOUS
 62
3
100
AcDbDimension
  2
*D55
 10
1612.917532644746
 20
595.4813900169047
 30
0.0000000000000000
 11
1635.417532644746
 21
595.9813900169047
 31
0.0000000000000000
 70
32
  3
MAIN001
100
AcDbAlignedDimension
 13
1657.917532644746
 23
554.0681558878384
 33
0.0000000000000000
 14
1612.917532644746
 24
554.0681558878523
 34
0.0000000000000000
100
AcDbRotatedDimension
1001
ACAD
1000
DSTYLE
1002
{
1070
   173
1070
     1
1070
     6
1000
_OPEN
1070
     7
1000
_OPEN
1070
    41
1040
10.000000
1002
}
  0
LINE
  5
4A4
100
AcDbEntity
  8
MAIN0
  6
CENTER
 62
3
100
AcDbLine
 10
1669.563162871323
 20
824.0681558885652
 30
0.0000000000000000
 11
1538.626825021137
 21
824.0681558885652
 31
0.0000000000000000
  0
LINE
  5
4A5
100
AcDbEntity
  8
MAIN0
  6
CENTER
 62
3
100
AcDbLine
 10
1390.254332078848
 20
599.0681558885652
 30
0.0000000000000000
 11
1468.864836994030
 21
599.0681558885652
 31
0.0000000000000000
  0
LINE
  5
4A6
100
AcDbEntity
  8
MAIN0
  6
CONTINUOUS
 62
3
100
AcDbLine
 10
1139.864836993911
 20
659.2681558853554
 30
0.0000000000000000
 11
1181.864836993962
 21
659.2681558853554
 31
0.0000000000000000
  0
LINE
  5
4A7
100
AcDbEntity
  8
MAIN0
  6
CONTINUOUS
 62
3
100
AcDbLine
 10
1181.864836993937
 20
651.2681558853554
 30
0.0000000000000000
 11
1231.864836993937
 21
651.2681558853554
 31
0.0000000000000000
  0
LINE
  5
4A8
100
AcDbEntity
  8
MAIN0
  6
CONTINUOUS
 62
3
100
AcDbLine
 10
1231.864836993912
 20
643.2681558853554
 30
0.0000000000000000
 11
1291.864836993912
 21
643.2681558853554
 31
0.0000000000000000
  0
LINE
  5
4A9
100
AcDbEntity
  8
MAIN0
  6
CONTINUOUS
 62
3
100
AcDbLine
 10
1291.864836993887
 20
635.2681558853554
 30
0.0000000000000000
 11
1364.864836993466
 21
635.2681558853554
 31
0.0000000000000000
  0
LINE
  5
4AA
100
AcDbEntity
  8
MAIN0
  6
CONTINUOUS
 62
3
100
AcDbLine
 10
1364.864836993467
 20
635.2681558853558
 30
0.0000000000000000
 11
1364.864836993456
 21
605.7681558885166
 31
0.0000000000000000
  0
LINE
  5
4AB
100
AcDbEntity
  8
MAIN0
  6
CONTINUOUS
 62
3
100
AcDbLine
 10
543.8648369952979
 20
992.1521879233767
 30
0.0000000000000000
 11
543.8648369953521
 21
1192.152187917373
 31
0.0000000000000000
  0
LINE
  5
4AC
100
AcDbEntity
  8
MAIN0
  6
CONTINUOUS
 62
3
100
AcDbLine
 10
544.8648369953523
 20
1193.152187917380
 30
0.0000000000000000
 11
543.8648369953520
 21
1192.152187917373
 31
0.0000000000000000
  0
LINE
  5
4AD
100
AcDbEntity
  8
MAIN0
  6
CONTINUOUS
 62
3
100
AcDbLine
 10
543.8648369952977
 20
992.1521879233767
 30
0.0000000000000000
 11
544.8648369952973
 21
991.1521879233767
 31
0.0000000000000000
  0
LINE
  5
4AE
100
AcDbEntity
  8
MAIN0
  6
CONTINUOUS
 62
3
100
AcDbLine
 10
646.8648369939418
 20
1043.152187918019
 30
0.0000000000000000
 11
961.8648369939413
 21
1043.152187918704
 31
0.0000000000000000
  0
LINE
  5
4AF
100
AcDbEntity
  8
MAIN0
  6
CONTINUOUS
 62
3
100
AcDbLine
 10
646.8648369939419
 20
1141.152187928734
 30
0.0000000000000000
 11
961.8648369939411
 21
1141.152187927976
 31
0.0000000000000000
  0
LINE
  5
4B0
100
AcDbEntity
  8
MAIN0
  6
CENTER
 62
3
100
AcDbLine
 10
595.8648369944307
 20
1103.152187923377
 30
0.0000000000000000
 11
595.8648369944307
 21
1081.152187923377
 31
0.0000000000000000
  0
CIRCLE
  5
4B1
100
AcDbEntity
  8
MAIN0
  6
CONTINUOUS
 62
3
100
AcDbCircle
 10
881.8648369939409
 20
1092.152187923340
 30
0.0000000000000000
 40
3.000000000000000
  0
LINE
  5
4B2
100
AcDbEntity
  8
MAIN0
  6
CENTER
 62
3
100
AcDbLine
 10
881.8648369939409
 20
1101.152187923340
 30
0.0000000000000000
 11
881.8648369939409
 21
1083.152187923340
 31
0.0000000000000000
  0
LINE
  5
4B3
100
AcDbEntity
  8
MAIN0
  6
CONTINUOUS
 62
3
100
AcDbLine
 10
1364.864836992823
 20
989.6521879233400
 30
0.0000000000000000
 11
1364.864836992823
 21
1194.652187923340
 31
0.0000000000000000
  0
LINE
  5
4B4
100
AcDbEntity
  8
MAIN0
  6
CONTINUOUS
 62
3
100
AcDbLine
 10
544.8648369953522
 20
1193.152187917380
 30
0.0000000000000000
 11
1059.864836993940
 21
1193.152187919319
 31
0.0000000000000000
  0
LINE
  5
4B5
100
AcDbEntity
  8
MAIN0
  6
CONTINUOUS
 62
3
100
AcDbLine
 10
544.8648369952974
 20
991.1521879233767
 30
0.0000000000000000
 11
1059.864836993940
 21
991.1521879233401
 31
0.0000000000000000
  0
LINE
  5
4B6
100
AcDbEntity
  8
MAIN0
  6
CONTINUOUS
 62
3
100
AcDbLine
 10
1139.864836994138
 20
1199.152187923340
 30
0.0000000000000000
 11
1181.864836994138
 21
1199.152187923340
 31
0.0000000000000000
  0
LINE
  5
4B7
100
AcDbEntity
  8
MAIN0
  6
CONTINUOUS
 62
3
100
AcDbLine
 10
1139.864836994138
 20
985.1521879233401
 30
0.0000000000000000
 11
1181.864836994138
 21
985.1521879233401
 31
0.0000000000000000
  0
LINE
  5
4B8
100
AcDbEntity
  8
MAIN0
  6
CONTINUOUS
 62
3
100
AcDbLine
 10
1181.864836994138
 20
1197.652187923340
 30
0.0000000000000000
 11
1231.864836994138
 21
1197.652187923340
 31
0.0000000000000000
  0
LINE
  5
4B9
100
AcDbEntity
  8
MAIN0
  6
CONTINUOUS
 62
3
100
AcDbLine
 10
1181.864836994138
 20
986.6521879233401
 30
0.0000000000000000
 11
1231.864836994138
 21
986.6521879233401
 31
0.0000000000000000
  0
LINE
  5
4BA
100
AcDbEntity
  8
MAIN0
  6
CONTINUOUS
 62
3
100
AcDbLine
 10
1269.464836994313
 20
1196.152187923340
 30
0.0000000000000000
 11
1291.864836992543
 21
1196.152187923340
 31
0.0000000000000000
  0
LINE
  5
4BB
100
AcDbEntity
  8
MAIN0
  6
CONTINUOUS
 62
3
100
AcDbLine
 10
1231.864836994138
 20
1196.152187923340
 30
0.0000000000000000
 11
1291.864836992543
 21
1196.152187923340
 31
0.0000000000000000
  0
LINE
  5
4BC
100
AcDbEntity
  8
MAIN0
  6
CONTINUOUS
 62
3
100
AcDbLine
 10
1231.864836994138
 20
988.1521879233401
 30
0.0000000000000000
 11
1291.864836992869
 21
988.1521879233401
 31
0.0000000000000000
  0
LINE
  5
4BD
100
AcDbEntity
  8
MAIN0
  6
CONTINUOUS
 62
3
100
AcDbLine
 10
1291.864836992545
 20
1194.652187923340
 30
0.0000000000000000
 11
1364.864836992823
 21
1194.652187923340
 31
0.0000000000000000
  0
LINE
  5
4BE
100
AcDbEntity
  8
MAIN0
  6
CONTINUOUS
 62
3
100
AcDbLine
 10
1291.864836992867
 20
989.6521879233401
 30
0.0000000000000000
 11
1364.864836992823
 21
989.6521879233401
 31
0.0000000000000000
  0
LINE
  5
4BF
100
AcDbEntity
  8
MAIN0
  6
CONTINUOUS
 62
3
100
AcDbLine
 10
1364.864836992823
 20
991.1521879233401
 30
0.0000000000000000
 11
1406.864836997558
 21
991.1521879233401
 31
0.0000000000000000
  0
LINE
  5
4C0
100
AcDbEntity
  8
MAIN0
  6
CONTINUOUS
 62
3
100
AcDbLine
 10
1364.864836992823
 20
1193.152187923340
 30
0.0000000000000000
 11
1406.864836997558
 21
1193.152187923340
 31
0.0000000000000000
  0
LINE
  5
4C1
100
AcDbEntity
  8
MAIN0
  6
CONTINUOUS
 62
3
100
AcDbLine
 10
1412.864836998178
 20
1078.689275905003
 30
0.0000000000000000
 11
1409.864836998100
 21
1078.689275905016
 31
0.0000000000000000
  0
LINE
  5
4C2
100
AcDbEntity
  8
MAIN0
  6
CONTINUOUS
 62
3
100
AcDbLine
 10
1412.864836998204
 20
1105.615099939962
 30
0.0000000000000000
 11
1409.864836998282
 21
1105.615099939975
 31
0.0000000000000000
  0
LINE
  5
4C3
100
AcDbEntity
  8
MAIN0
  6
CONTINUOUS
 62
3
100
AcDbLine
 10
1412.864836998154
 20
1054.652187923205
 30
0.0000000000000000
 11
1409.864836997937
 21
1054.652187923205
 31
0.0000000000000000
  0
LINE
  5
4C4
100
AcDbEntity
  8
MAIN0
  6
CONTINUOUS
 62
3
100
AcDbLine
 10
1412.864836998228
 20
1129.652187923205
 30
0.0000000000000000
 11
1409.864836998445
 21
1129.652187923205
 31
0.0000000000000000
  0
LINE
  5
4C5
100
AcDbEntity
  8
MAIN0
  6
CONTINUOUS
 62
3
100
AcDbLine
 10
1412.864836998153
 20
1054.652187923205
 30
0.0000000000000000
 11
1412.864836998228
 21
1129.652187923205
 31
0.0000000000000000
  0
LINE
  5
4C6
100
AcDbEntity
  8
MAIN0
  6
CONTINUOUS
 62
3
100
AcDbLine
 10
1437.864836997562
 20
1053.752187923386
 30
0.0000000000000000
 11
1437.864836997471
 21
1130.552187923386
 31
0.0000000000000000
  0
LINE
  5
4C7
100
AcDbEntity
  8
MAIN0
  6
CONTINUOUS
 62
3
100
AcDbLine
 10
1437.264836997515
 20
1053.152187923340
 30
0.0000000000000000
 11
1427.864836997516
 21
1053.152187923340
 31
0.0000000000000000
  0
LINE
  5
4C8
100
AcDbEntity
  8
MAIN0
  6
CONTINUOUS
 62
3
100
AcDbLine
 10
1425.864836997548
 20
1055.152187923341
 30
0.0000000000000000
 11
1427.864836997516
 21
1053.152187923340
 31
0.0000000000000000
  0
LINE
  5
4C9
100
AcDbEntity
  8
MAIN0
  6
CONTINUOUS
 62
3
100
AcDbLine
 10
1437.264836997516
 20
1053.152187923339
 30
0.0000000000000000
 11
1437.864836997516
 21
1053.752187923340
 31
0.0000000000000000
  0
LINE
  5
4CA
100
AcDbEntity
  8
MAIN0
  6
CONTINUOUS
 62
3
100
AcDbLine
 10
1437.264836997515
 20
1131.152187923340
 30
0.0000000000000000
 11
1427.864836997515
 21
1131.152187923340
 31
0.0000000000000000
  0
LINE
  5
4CB
100
AcDbEntity
  8
MAIN0
  6
CONTINUOUS
 62
3
100
AcDbLine
 10
1425.864836997547
 20
1129.152187923339
 30
0.0000000000000000
 11
1427.864836997515
 21
1131.152187923339
 31
0.0000000000000000
  0
LINE
  5
4CC
100
AcDbEntity
  8
MAIN0
  6
CONTINUOUS
 62
3
100
AcDbLine
 10
1437.264836997515
 20
1131.152187923340
 30
0.0000000000000000
 11
1437.864836997515
 21
1130.552187923340
 31
0.0000000000000000
  0
LINE
  5
4CD
100
AcDbEntity
  8
MAIN0
  6
CONTINUOUS
 62
3
100
AcDbLine
 10
1412.864836998228
 20
1129.152187923340
 30
0.0000000000000000
 11
1425.864836997547
 21
1129.152187923340
 31
0.0000000000000000
  0
LINE
  5
4CE
100
AcDbEntity
  8
MAIN0
  6
CONTINUOUS
 62
3
100
AcDbLine
 10
1412.864836998154
 20
1055.152187923340
 30
0.0000000000000000
 11
1425.864836997548
 21
1055.152187923340
 31
0.0000000000000000
  0
LINE
  5
4CF
100
AcDbEntity
  8
MAIN0
  6
CONTINUOUS
 62
3
100
AcDbLine
 10
1456.864836997516
 20
1117.152187923340
 30
0.0000000000000000
 11
1437.864836997516
 21
1117.152187923340
 31
0.0000000000000000
  0
LINE
  5
4D0
100
AcDbEntity
  8
MAIN0
  6
CONTINUOUS
 62
3
100
AcDbLine
 10
1456.864836997516
 20
1117.152187923341
 30
0.0000000000000000
 11
1456.864836997516
 21
1067.152187923340
 31
0.0000000000000000
  0
LINE
  5
4D1
100
AcDbEntity
  8
MAIN0
  6
CONTINUOUS
 62
3
100
AcDbLine
 10
1456.864836997516
 20
1067.152187923340
 30
0.0000000000000000
 11
1437.864836997516
 21
1067.152187923340
 31
0.0000000000000000
  0
LINE
  5
4D2
100
AcDbEntity
  8
MAIN0
  6
CONTINUOUS
 62
3
100
AcDbLine
 10
1437.864836997536
 20
1074.947537386337
 30
0.0000000000000000
 11
1427.864836997584
 21
1074.947537386379
 31
0.0000000000000000
  0
LINE
  5
4D3
100
AcDbEntity
  8
MAIN0
  6
CONTINUOUS
 62
3
100
AcDbLine
 10
1425.864836997609
 20
1080.152187919418
 30
0.0000000000000000
 11
1412.864836998178
 21
1080.152187919441
 31
0.0000000000000000
  0
LINE
  5
4D4
100
AcDbEntity
  8
MAIN0
  6
CONTINUOUS
 62
3
100
AcDbLine
 10
1425.864836997579
 20
1104.152187927536
 30
0.0000000000000000
 11
1412.864836998203
 21
1104.152187927497
 31
0.0000000000000000
  0
LINE
  5
4D5
100
AcDbEntity
  8
MAIN0
  6
CONTINUOUS
 62
3
100
AcDbLine
 10
1437.864836997496
 20
1109.356838460338
 30
0.0000000000000000
 11
1427.864836997543
 21
1109.356838460328
 31
0.0000000000000000
  0
LINE
  5
4D6
100
AcDbEntity
  8
MAIN0
  6
CONTINUOUS
 62
3
100
AcDbLine
 10
1425.864836997579
 20
1104.152187927535
 30
0.0000000000000000
 11
1427.864836997542
 21
1109.356838460327
 31
0.0000000000000000
  0
LINE
  5
4D7
100
AcDbEntity
  8
MAIN0
  6
CONTINUOUS
 62
3
100
AcDbLine
 10
1425.864836997609
 20
1080.152187919419
 30
0.0000000000000000
 11
1427.864836997585
 21
1074.947537386379
 31
0.0000000000000000
  0
LINE
  5
4D8
100
AcDbEntity
  8
MAIN0
  6
CONTINUOUS
 62
3
100
AcDbLine
 10
1427.864836997611
 20
1053.152187923340
 30
0.0000000000000000
 11
1427.864836997585
 21
1074.947537386379
 31
0.0000000000000000
  0
LINE
  5
4D9
100
AcDbEntity
  8
MAIN0
  6
CONTINUOUS
 62
3
100
AcDbLine
 10
1427.864836997543
 20
1109.356838460327
 30
0.0000000000000000
 11
1427.864836997516
 21
1131.152187923340
 31
0.0000000000000000
  0
LINE
  5
4DA
100
AcDbEntity
  8
MAIN0
  6
CONTINUOUS
 62
3
100
AcDbLine
 10
1425.864836997640
 20
1055.152187923340
 30
0.0000000000000000
 11
1425.864836997609
 21
1080.152187919419
 31
0.0000000000000000
  0
LINE
  5
4DB
100
AcDbEntity
  8
MAIN0
  6
CONTINUOUS
 62
3
100
AcDbLine
 10
1425.864836997579
 20
1104.152187927536
 30
0.0000000000000000
 11
1425.864836997548
 21
1129.152187923340
 31
0.0000000000000000
  0
LINE
  5
4DC
100
AcDbEntity
  8
MAIN0
  6
CONTINUOUS
 62
3
100
AcDbLine
 10
1406.864836997558
 20
991.1521879233397
 30
0.0000000000000000
 11
1406.864836998088
 21
1075.689275905035
 31
0.0000000000000000
  0
LINE
  5
4DD
100
AcDbEntity
  8
MAIN0
  6
CONTINUOUS
 62
3
100
AcDbLine
 10
1406.864836998294
 20
1108.615099939993
 30
0.0000000000000000
 11
1406.864836998825
 21
1193.152187923339
 31
0.0000000000000000
  0
LINE
  5
4DE
100
AcDbEntity
  8
MAIN0
  6
CENTER
 62
3
100
AcDbLine
 10
1010.864836994170
 20
1103.818854590007
 30
0.0000000000000000
 11
1010.864836994170
 21
1080.485521256674
 31
0.0000000000000000
  0
LINE
  5
4DF
100
AcDbEntity
  8
MAIN0
  6
CONTINUOUS
 62
3
100
AcDbLine
 10
1406.864836997658
 20
1007.152187922022
 30
0.0000000000000000
 11
1364.864836992823
 21
1007.152187921943
 31
0.0000000000000000
  0
LINE
  5
4E0
100
AcDbEntity
  8
MAIN0
  6
CONTINUOUS
 62
3
100
AcDbLine
 10
1406.864836998724
 20
1177.152187922178
 30
0.0000000000000000
 11
1364.864836992823
 21
1177.152187922178
 31
0.0000000000000000
  0
ARC
  5
4E1
100
AcDbEntity
  8
MAIN0
  6
CONTINUOUS
 62
3
100
AcDbCircle
 10
1409.864836998445
 20
1132.652187923205
 30
0.0000000000000000
 40
3.000000000000000
100
AcDbArc
 50
180.0000000000000
 51
270.0000000000000
  0
ARC
  5
4E2
100
AcDbEntity
  8
MAIN0
  6
CONTINUOUS
 62
3
100
AcDbCircle
 10
1409.864836998294
 20
1108.615099939975
 30
0.0000000000000000
 40
3.000000000000000
100
AcDbArc
 50
180.0000000000000
 51
270.0000000000000
  0
ARC
  5
4E3
100
AcDbEntity
  8
MAIN0
  6
CONTINUOUS
 62
3
100
AcDbCircle
 10
1409.864836997937
 20
1051.652187923205
 30
0.0000000000000000
 40
3.000000000000000
100
AcDbArc
 50
90.00000000000000
 51
180.0000000000000
  0
ARC
  5
4E4
100
AcDbEntity
  8
MAIN0
  6
CONTINUOUS
 62
3
100
AcDbCircle
 10
1409.864836998088
 20
1075.689275905016
 30
0.0000000000000000
 40
3.000000000000000
100
AcDbArc
 50
90.00000000000000
 51
180.0000000000000
  0
LINE
  5
4E5
100
AcDbEntity
  8
MAIN0
  6
CENTER
 62
3
100
AcDbLine
 10
529.7452338939039
 20
1092.152187923377
 30
0.0000000000000000
 11
1077.992004042963
 21
1092.152187923340
 31
0.0000000000000000
  0
LINE
  5
4E6
100
AcDbEntity
  8
MAIN0
  6
CENTER
 62
3
100
AcDbLine
 10
1102.392003661494
 20
1092.152187923340
 30
0.0000000000000000
 11
1471.864836994030
 21
1092.152187923340
 31
0.0000000000000000
  0
LINE
  5
4E7
100
AcDbEntity
  8
MAIN0
  6
CONTINUOUS
 62
3
100
AcDbLine
 10
1745.998711489109
 20
513.0681558879326
 30
0.0000000000000000
 11
1775.998711489109
 21
513.0681558879451
 31
0.0000000000000000
  0
LINE
  5
4E8
100
AcDbEntity
  8
MAIN0
  6
CONTINUOUS
 62
3
100
AcDbLine
 10
1745.998711489114
 20
505.0681558879327
 30
0.0000000000000000
 11
1775.998711489114
 21
505.0681558879452
 31
0.0000000000000000
  0
LINE
  5
4E9
100
AcDbEntity
  8
MAIN0
  6
CONTINUOUS
 62
3
100
AcDbLine
 10
1775.998711489121
 20
494.0681558879451
 30
0.0000000000000000
 11
1775.998711489108
 21
513.0681558879451
 31
0.0000000000000000
  0
LINE
  5
4EA
100
AcDbEntity
  8
MAIN0
  6
CONTINUOUS
 62
3
100
AcDbLine
 10
1745.998711489121
 20
494.0681558879326
 30
0.0000000000000000
 11
1775.998711489121
 21
494.0681558879451
 31
0.0000000000000000
  0
LINE
  5
4EB
100
AcDbEntity
  8
MAIN0
  6
CONTINUOUS
 62
3
100
AcDbLine
 10
1745.998711489121
 20
494.0681558879327
 30
0.0000000000000000
 11
1745.998711489108
 21
513.0681558879328
 31
0.0000000000000000
  0
CIRCLE
  5
4EC
100
AcDbEntity
  8
MAIN0
  6
CONTINUOUS
 62
3
100
AcDbCircle
 10
1760.998711489068
 20
348.7791378143382
 30
0.0000000000000000
 40
8.000000000000000
  0
CIRCLE
  5
4ED
100
AcDbEntity
  8
MAIN0
  6
CONTINUOUS
 62
3
100
AcDbCircle
 10
1760.998711489068
 20
348.7791378143382
 30
0.0000000000000000
 40
7.000000000000000
  0
LINE
  5
4EE
100
AcDbEntity
  8
MAIN0
  6
CONTINUOUS
 62
3
100
AcDbLine
 10
1647.417532644746
 20
559.0681558878528
 30
0.0000000000000000
 11
1647.417532644746
 21
573.4681558878528
 31
0.0000000000000000
  0
LINE
  5
4EF
100
AcDbEntity
  8
MAIN0
  6
CONTINUOUS
 62
3
100
AcDbLine
 10
1647.417532644746
 20
573.4681558878531
 30
0.0000000000000000
 11
1644.646251352636
 21
575.0681558878530
 31
0.0000000000000000
  0
LINE
  5
4F0
100
AcDbEntity
  8
MAIN0
  6
CONTINUOUS
 62
3
100
AcDbLine
 10
1644.646251352636
 20
575.0681558878528
 30
0.0000000000000000
 11
1626.188813936856
 21
575.0681558878528
 31
0.0000000000000000
  0
LINE
  5
4F1
100
AcDbEntity
  8
MAIN0
  6
CONTINUOUS
 62
3
100
AcDbLine
 10
1626.188813936857
 20
575.0681558878530
 30
0.0000000000000000
 11
1623.417532644746
 21
573.4681558878528
 31
0.0000000000000000
  0
LINE
  5
4F2
100
AcDbEntity
  8
MAIN0
  6
CONTINUOUS
 62
3
100
AcDbLine
 10
1623.417532644746
 20
573.4681558878528
 30
0.0000000000000000
 11
1623.417532644746
 21
559.0681558878528
 31
0.0000000000000000
  0
LINE
  5
4F3
100
AcDbEntity
  8
MAIN0
  6
CONTINUOUS
 62
3
100
AcDbLine
 10
1647.417532644746
 20
573.4681558878528
 30
0.0000000000000000
 11
1623.417532644746
 21
573.4681558878528
 31
0.0000000000000000
  0
LINE
  5
4F4
100
AcDbEntity
  8
MAIN0
  6
CONTINUOUS
 62
3
100
AcDbLine
 10
1652.917532644746
 20
559.0681558878528
 30
0.0000000000000000
 11
1617.917532644746
 21
559.0681558878528
 31
0.0000000000000000
  0
LINE
  5
4F5
100
AcDbEntity
  8
MAIN0
  6
CONTINUOUS
 62
3
100
AcDbLine
 10
1652.917532644746
 20
554.0681558878528
 30
0.0000000000000000
 11
1652.917532644746
 21
559.0681558878528
 31
0.0000000000000000
  0
LINE
  5
4F6
100
AcDbEntity
  8
MAIN0
  6
CONTINUOUS
 62
3
100
AcDbLine
 10
1617.917532644746
 20
554.0681558878528
 30
0.0000000000000000
 11
1617.917532644746
 21
559.0681558878528
 31
0.0000000000000000
  0
LINE
  5
4F7
100
AcDbEntity
  8
MAIN0
  6
CONTINUOUS
 62
3
100
AcDbLine
 10
1621.167532644729
 20
494.0681558879678
 30
0.0000000000000000
 11
1621.167532644721
 21
505.0681558879678
 31
0.0000000000000000
  0
LINE
  5
4F8
100
AcDbEntity
  8
MAIN0
  6
CONTINUOUS
 62
3
100
AcDbLine
 10
1649.667532644729
 20
494.0681558879797
 30
0.0000000000000000
 11
1649.667532644721
 21
505.0681558879797
 31
0.0000000000000000
  0
LINE
  5
4F9
100
AcDbEntity
  8
MAIN0
  6
CONTINUOUS
 62
3
100
AcDbLine
 10
1621.167532644729
 20
494.0681558879679
 30
0.0000000000000000
 11
1649.667532644729
 21
494.0681558879797
 31
0.0000000000000000
  0
LINE
  5
4FA
100
AcDbEntity
  8
MAIN0
  6
CONTINUOUS
 62
3
100
AcDbLine
 10
1626.667532644715
 20
513.0681558879701
 30
0.0000000000000000
 11
1644.167532644715
 21
513.0681558879774
 31
0.0000000000000000
  0
LINE
  5
4FB
100
AcDbEntity
  8
MAIN0
  6
CONTINUOUS
 62
3
100
AcDbLine
 10
1621.167532644721
 20
505.0681558879679
 30
0.0000000000000000
 11
1626.667532644721
 21
505.0681558879701
 31
0.0000000000000000
  0
LINE
  5
4FC
100
AcDbEntity
  8
MAIN0
  6
CONTINUOUS
 62
3
100
AcDbLine
 10
1644.167532644721
 20
505.0681558879774
 30
0.0000000000000000
 11
1649.667532644721
 21
505.0681558879797
 31
0.0000000000000000
  0
LINE
  5
4FD
100
AcDbEntity
  8
MAIN0
  6
CONTINUOUS
 62
3
100
AcDbLine
 10
1626.667532644721
 20
505.0681558879700
 30
0.0000000000000000
 11
1626.667532644716
 21
513.0681558879700
 31
0.0000000000000000
  0
LINE
  5
4FE
100
AcDbEntity
  8
MAIN0
  6
CONTINUOUS
 62
3
100
AcDbLine
 10
1644.167532644721
 20
505.0681558879774
 30
0.0000000000000000
 11
1644.167532644716
 21
513.0681558879774
 31
0.0000000000000000
  0
LINE
  5
4FF
100
AcDbEntity
  8
MAIN0
  6
CONTINUOUS
 62
3
100
AcDbLine
 10
1628.500064644728
 20
524.0681558879769
 30
0.0000000000000000
 11
1628.500064644728
 21
513.0681558879799
 31
0.0000000000000000
  0
LINE
  5
500
100
AcDbEntity
  8
MAIN0
  6
CONTINUOUS
 62
3
100
AcDbLine
 10
1627.417532644729
 20
513.0681558879799
 30
0.0000000000000000
 11
1627.417532644729
 21
524.0681558879765
 31
0.0000000000000000
  0
LINE
  5
501
100
AcDbEntity
  8
MAIN0
  6
CONTINUOUS
 62
3
100
AcDbLine
 10
1642.335000644729
 20
524.0681558879826
 30
0.0000000000000000
 11
1642.335000644729
 21
513.0681558879799
 31
0.0000000000000000
  0
LINE
  5
502
100
AcDbEntity
  8
MAIN0
  6
CONTINUOUS
 62
3
100
AcDbLine
 10
1643.417532644729
 20
524.0681558879830
 30
0.0000000000000000
 11
1643.417532644729
 21
513.0681558879799
 31
0.0000000000000000
  0
LINE
  5
503
100
AcDbEntity
  8
MAIN0
  6
CONTINUOUS
 62
3
100
AcDbLine
 10
543.8648369937105
 20
524.4681558911524
 30
0.0000000000000000
 11
543.8648369941770
 21
633.0681558855273
 31
0.0000000000000000
  0
LINE
  5
504
100
AcDbEntity
  8
MAIN0
  6
CONTINUOUS
 62
3
100
AcDbLine
 10
790.8648369937088
 20
529.0681558908057
 30
0.0000000000000000
 11
772.8648369937088
 21
529.0681558908057
 31
0.0000000000000000
  0
LINE
  5
505
100
AcDbEntity
  8
MAIN0
  6
CONTINUOUS
 62
3
100
AcDbLine
 10
790.8648369937088
 20
519.0681558908002
 30
0.0000000000000000
 11
772.8648369937088
 21
519.0681558908002
 31
0.0000000000000000
  0
LINE
  5
506
100
AcDbEntity
  8
MAIN0
  6
CENTER
 62
3
100
AcDbLine
 10
781.8648369937088
 20
537.6117493772955
 30
0.0000000000000000
 11
781.8648369937088
 21
510.0784386305738
 31
0.0000000000000000
  0
LINE
  5
507
100
AcDbEntity
  8
MAIN0
  6
CONTINUOUS
 62
3
100
AcDbLine
 10
544.2648369937099
 20
524.0681558911527
 30
0.0000000000000000
 11
772.8648369937089
 21
524.0681558908057
 31
0.0000000000000000
  0
LINE
  5
508
100
AcDbEntity
  8
MAIN0
  6
CONTINUOUS
 62
3
100
AcDbLine
 10
790.8648369937089
 20
524.0681558907490
 30
0.0000000000000000
 11
1361.864836993709
 21
524.0681558891890
 31
0.0000000000000000
  0
LINE
  5
509
100
AcDbEntity
  8
MAIN0
  6
CONTINUOUS
 62
3
100
AcDbLine
 10
1361.464836993709
 20
524.0681558895199
 30
0.0000000000000000
 11
1361.864836993711
 21
524.4681558895186
 31
0.0000000000000000
  0
LINE
  5
50A
100
AcDbEntity
  8
MAIN0
  6
CONTINUOUS
 62
3
100
AcDbLine
 10
543.8648369937083
 20
524.4681558911547
 30
0.0000000000000000
 11
544.2648369937085
 21
524.0681558911543
 31
0.0000000000000000
  0
LINE
  5
50B
100
AcDbEntity
  8
MAIN0
  6
CONTINUOUS
 62
3
100
AcDbLine
 10
544.8648369941814
 20
634.0681558855305
 30
0.0000000000000000
 11
543.8648369941770
 21
633.0681558855274
 31
0.0000000000000000
  0
LINE
  5
50C
100
AcDbEntity
  8
MAIN0
  6
CONTINUOUS
 62
3
100
AcDbLine
 10
772.8648369937088
 20
524.0681558908057
 30
0.0000000000000000
 11
772.8648369937088
 21
529.0681558908057
 31
0.0000000000000000
  0
LINE
  5
50D
100
AcDbEntity
  8
MAIN0
  6
CONTINUOUS
 62
3
100
AcDbLine
 10
790.8648369937088
 20
524.0681558907490
 30
0.0000000000000000
 11
790.8648369937088
 21
529.0681558908052
 31
0.0000000000000000
  0
LINE
  5
50E
100
AcDbEntity
  8
MAIN0
  6
CONTINUOUS
 62
3
100
AcDbLine
 10
544.8648369941814
 20
634.0681558855301
 30
0.0000000000000000
 11
583.8648369928233
 21
634.0681558856525
 31
0.0000000000000000
  0
LINE
  5
50F
100
AcDbEntity
  8
MAIN0
  6
CONTINUOUS
 62
3
100
AcDbLine
 10
607.8648369928231
 20
634.0681558857280
 30
0.0000000000000000
 11
1059.864836993919
 21
634.0681558864816
 31
0.0000000000000000
  0
LINE
  5
510
100
AcDbEntity
  8
MAIN0
  6
CONTINUOUS
 62
3
100
AcDbLine
 10
790.8648369937088
 20
519.0681558908002
 30
0.0000000000000000
 11
790.8648369937088
 21
524.0681558907380
 31
0.0000000000000000
  0
LINE
  5
511
100
AcDbEntity
  8
MAIN0
  6
CONTINUOUS
 62
3
100
AcDbLine
 10
772.8648369937088
 20
519.0681558908002
 30
0.0000000000000000
 11
772.8648369937088
 21
524.0681558908033
 31
0.0000000000000000
  0
LINE
  5
512
100
AcDbEntity
  8
MAIN0
  6
CONTINUOUS
 62
3
100
AcDbLine
 10
1059.364836993942
 20
704.0681558858133
 30
0.0000000000000000
 11
1059.864836993942
 21
703.5681558858134
 31
0.0000000000000000
  0
LINE
  5
513
100
AcDbEntity
  8
MAIN0
  6
CONTINUOUS
 62
3
100
AcDbLine
 10
907.8648369938953
 20
634.0681558858022
 30
0.0000000000000000
 11
944.4648369939416
 21
634.0681558857955
 31
0.0000000000000000
  0
LINE
  5
514
100
AcDbEntity
  8
MAIN0
  6
CONTINUOUS
 62
3
100
AcDbLine
 10
646.8648369939418
 20
703.8681558858505
 30
0.0000000000000000
 11
646.8648369939418
 21
634.4681558858503
 31
0.0000000000000000
  0
LINE
  5
515
100
AcDbEntity
  8
MAIN0
  6
CONTINUOUS
 62
3
100
AcDbLine
 10
962.0648369939420
 20
704.0681558858134
 30
0.0000000000000000
 11
1059.364836993942
 21
704.0681558858132
 31
0.0000000000000000
  0
LINE
  5
516
100
AcDbEntity
  8
MAIN0
  6
CONTINUOUS
 62
3
100
AcDbLine
 10
961.8648369939415
 20
703.8681558858132
 30
0.0000000000000000
 11
962.0648369939414
 21
704.0681558858132
 31
0.0000000000000000
  0
LINE
  5
517
100
AcDbEntity
  8
MAIN0
  6
CONTINUOUS
 62
3
100
AcDbLine
 10
961.8648369939418
 20
634.0681558861899
 30
0.0000000000000000
 11
961.8648369939418
 21
704.0681558858136
 31
0.0000000000000000
  0
LINE
  5
518
100
AcDbEntity
  8
MAIN0
  6
CONTINUOUS
 62
3
100
AcDbLine
 10
647.2648369939418
 20
634.0681558858504
 30
0.0000000000000000
 11
683.8648369938948
 21
634.0681558858437
 31
0.0000000000000000
  0
LINE
  5
519
100
AcDbEntity
  8
MAIN0
  6
CONTINUOUS
 62
3
100
AcDbLine
 10
1412.864836994088
 20
634.0681558883975
 30
0.0000000000000000
 11
1364.864836993466
 21
634.0681558885552
 31
0.0000000000000000
  0
LINE
  5
51A
100
AcDbEntity
  8
MAIN0
  6
CONTINUOUS
 62
3
100
AcDbLine
 10
1382.182378628371
 20
554.0681558884983
 30
0.0000000000000000
 11
1361.864836993957
 21
554.0681558885650
 31
0.0000000000000000
  0
LINE
  5
51B
100
AcDbEntity
  8
MAIN0
  6
CONTINUOUS
 62
3
100
AcDbLine
 10
1361.864836993957
 20
554.0681558885653
 30
0.0000000000000000
 11
1361.864836993996
 21
577.8181558885658
 31
0.0000000000000000
  0
LINE
  5
51C
100
AcDbEntity
  8
MAIN0
  6
CONTINUOUS
 62
3
100
AcDbLine
 10
1412.864836994077
 20
627.0681558883975
 30
0.0000000000000000
 11
1412.864836994088
 21
634.0681558883977
 31
0.0000000000000000
  0
LINE
  5
51D
100
AcDbEntity
  8
MAIN0
  6
CONTINUOUS
 62
3
100
AcDbLine
 10
1361.864836993710
 20
524.4681558895182
 30
0.0000000000000000
 11
1361.864836993990
 21
605.7681558885159
 31
0.0000000000000000
  0
LINE
  5
51E
100
AcDbEntity
  8
MAIN0
  6
CONTINUOUS
 62
3
100
AcDbLine
 10
549.9284901982064
 20
634.0681558856528
 30
0.0000000000000000
 11
545.2648369939418
 21
634.0681558856527
 31
0.0000000000000000
  0
LINE
  5
51F
100
AcDbEntity
  8
MAIN0
  6
CONTINUOUS
 62
3
100
AcDbLine
 10
544.8648369939419
 20
634.4681558856529
 30
0.0000000000000000
 11
544.8648369939418
 21
703.8681558856529
 31
0.0000000000000000
  0
LINE
  5
520
100
AcDbEntity
  8
MAIN0
  6
CONTINUOUS
 62
3
100
AcDbLine
 10
646.8648369939418
 20
703.5681558856529
 30
0.0000000000000000
 11
646.8648369939418
 21
634.4681558856529
 31
0.0000000000000000
  0
LINE
  5
521
100
AcDbEntity
  8
MAIN0
  6
CONTINUOUS
 62
3
100
AcDbLine
 10
646.8648369939418
 20
703.5681558856529
 30
0.0000000000000000
 11
646.8648369939418
 21
634.4681558856529
 31
0.0000000000000000
  0
LINE
  5
522
100
AcDbEntity
  8
MAIN0
  6
CONTINUOUS
 62
3
100
AcDbLine
 10
545.0648369939416
 20
704.0681558856534
 30
0.0000000000000000
 11
646.3648369939415
 21
704.0681558856530
 31
0.0000000000000000
  0
LINE
  5
523
100
AcDbEntity
  8
MAIN0
  6
CONTINUOUS
 62
3
100
AcDbLine
 10
544.8648369939416
 20
703.8681558856528
 30
0.0000000000000000
 11
545.0648369939418
 21
704.0681558856529
 31
0.0000000000000000
  0
LINE
  5
524
100
AcDbEntity
  8
MAIN0
  6
CONTINUOUS
 62
3
100
AcDbLine
 10
544.8648369939421
 20
634.4681558856532
 30
0.0000000000000000
 11
545.2648369939420
 21
634.0681558856533
 31
0.0000000000000000
  0
LINE
  5
525
100
AcDbEntity
  8
MAIN0
  6
CONTINUOUS
 62
3
100
AcDbLine
 10
646.3648369939421
 20
704.0681558856527
 30
0.0000000000000000
 11
646.8648369939419
 21
703.5681558856528
 31
0.0000000000000000
  0
LINE
  5
526
100
AcDbEntity
  8
MAIN0
  6
CONTINUOUS
 62
3
100
AcDbLine
 10
1059.864836993908
 20
599.7681558883342
 30
0.0000000000000000
 11
1059.864836993942
 21
703.5681558858132
 31
0.0000000000000000
  0
LINE
  5
527
100
AcDbEntity
  8
MAIN0
  6
CONTINUOUS
 62
3
100
AcDbLine
 10
646.3648369939419
 20
1192.152187923377
 30
0.0000000000000000
 11
545.4648369939417
 21
1192.152187923377
 31
0.0000000000000000
  0
LINE
  5
528
100
AcDbEntity
  8
MAIN0
  6
CONTINUOUS
 62
3
100
AcDbLine
 10
646.3648369939421
 20
992.1521879233765
 30
0.0000000000000000
 11
545.4648369939424
 21
992.1521879233768
 31
0.0000000000000000
  0
LINE
  5
529
100
AcDbEntity
  8
MAIN0
  6
CONTINUOUS
 62
3
100
AcDbLine
 10
646.8648369939421
 20
992.6521879233771
 30
0.0000000000000000
 11
646.8648369939422
 21
1191.652187923377
 31
0.0000000000000000
  0
LINE
  5
52A
100
AcDbEntity
  8
MAIN0
  6
CONTINUOUS
 62
3
100
AcDbLine
 10
544.8648369939419
 20
992.7521879233771
 30
0.0000000000000000
 11
544.8648369939422
 21
1191.552187923377
 31
0.0000000000000000
  0
LINE
  5
52B
100
AcDbEntity
  8
MAIN0
  6
CENTER
 62
3
100
AcDbLine
 10
604.5496866221449
 20
1017.152187923377
 30
0.0000000000000000
 11
646.8648369939426
 21
1017.152187923377
 31
0.0000000000000000
  0
LINE
  5
52C
100
AcDbEntity
  8
MAIN0
  6
CENTER
 62
3
100
AcDbLine
 10
625.8648369939421
 20
1036.647138566126
 30
0.0000000000000000
 11
625.8648369939419
 21
996.2588703475511
 31
0.0000000000000000
  0
LINE
  5
52D
100
AcDbEntity
  8
MAIN0
  6
CENTER
 62
3
100
AcDbLine
 10
547.7131627700721
 20
1017.152187923377
 30
0.0000000000000000
 11
586.7700667865958
 21
1017.152187923377
 31
0.0000000000000000
  0
LINE
  5
52E
100
AcDbEntity
  8
MAIN0
  6
CENTER
 62
3
100
AcDbLine
 10
565.8648369939419
 20
1036.647138566126
 30
0.0000000000000000
 11
565.8648369939418
 21
996.8418218059886
 31
0.0000000000000000
  0
LINE
  5
52F
100
AcDbEntity
  8
MAIN0
  6
CONTINUOUS
 62
3
100
AcDbLine
 10
646.3648369939416
 20
992.1521879233766
 30
0.0000000000000000
 11
646.8648369939414
 21
992.6521879233764
 31
0.0000000000000000
  0
LINE
  5
530
100
AcDbEntity
  8
MAIN0
  6
CONTINUOUS
 62
3
100
AcDbLine
 10
646.8648369939418
 20
1191.652187923377
 30
0.0000000000000000
 11
646.3648369939417
 21
1192.152187923377
 31
0.0000000000000000
  0
LINE
  5
531
100
AcDbEntity
  8
MAIN0
  6
CONTINUOUS
 62
3
100
AcDbLine
 10
545.4648369939417
 20
1192.152187923377
 30
0.0000000000000000
 11
544.8648369939415
 21
1191.552187923377
 31
0.0000000000000000
  0
LINE
  5
532
100
AcDbEntity
  8
MAIN0
  6
CONTINUOUS
 62
3
100
AcDbLine
 10
544.8648369939419
 20
992.7521879233773
 30
0.0000000000000000
 11
545.4648369939418
 21
992.1521879233774
 31
0.0000000000000000
  0
CIRCLE
  5
533
100
AcDbEntity
  8
MAIN0
  6
HIDDEN
 62
3
100
AcDbCircle
 10
565.8648369939414
 20
1017.152187923377
 30
0.0000000000000000
 40
13.50000000000000
  0
LINE
  5
534
100
AcDbEntity
  8
MAIN0
  6
HIDDEN
 62
3
100
AcDbLine
 10
565.8648369939415
 20
1025.235091692032
 30
0.0000000000000000
 11
558.8648369939414
 21
1021.193639807704
 31
0.0000000000000000
  0
LINE
  5
535
100
AcDbEntity
  8
MAIN0
  6
HIDDEN
 62
3
100
AcDbLine
 10
558.8648369939414
 20
1021.193639807705
 30
0.0000000000000000
 11
558.8648369939414
 21
1013.110736039050
 31
0.0000000000000000
  0
LINE
  5
536
100
AcDbEntity
  8
MAIN0
  6
HIDDEN
 62
3
100
AcDbLine
 10
558.8648369939413
 20
1013.110736039050
 30
0.0000000000000000
 11
565.8648369939409
 21
1009.069284154722
 31
0.0000000000000000
  0
LINE
  5
537
100
AcDbEntity
  8
MAIN0
  6
HIDDEN
 62
3
100
AcDbLine
 10
565.8648369939415
 20
1009.069284154722
 30
0.0000000000000000
 11
572.8648369939416
 21
1013.110736039050
 31
0.0000000000000000
  0
LINE
  5
538
100
AcDbEntity
  8
MAIN0
  6
HIDDEN
 62
3
100
AcDbLine
 10
572.8648369939414
 20
1013.110736039050
 30
0.0000000000000000
 11
572.8648369939414
 21
1021.193639807705
 31
0.0000000000000000
  0
LINE
  5
539
100
AcDbEntity
  8
MAIN0
  6
HIDDEN
 62
3
100
AcDbLine
 10
572.8648369939408
 20
1021.193639807704
 30
0.0000000000000000
 11
565.8648369939408
 21
1025.235091692032
 31
0.0000000000000000
  0
CIRCLE
  5
53A
100
AcDbEntity
  8
MAIN0
  6
HIDDEN
 62
3
100
AcDbCircle
 10
625.8648369939418
 20
1017.152187923377
 30
0.0000000000000000
 40
13.50000000000000
  0
LINE
  5
53B
100
AcDbEntity
  8
MAIN0
  6
HIDDEN
 62
3
100
AcDbLine
 10
625.8648369939422
 20
1025.235091692032
 30
0.0000000000000000
 11
618.8648369939419
 21
1021.193639807704
 31
0.0000000000000000
  0
LINE
  5
53C
100
AcDbEntity
  8
MAIN0
  6
HIDDEN
 62
3
100
AcDbLine
 10
618.8648369939418
 20
1021.193639807704
 30
0.0000000000000000
 11
618.8648369939418
 21
1013.110736039050
 31
0.0000000000000000
  0
LINE
  5
53D
100
AcDbEntity
  8
MAIN0
  6
HIDDEN
 62
3
100
AcDbLine
 10
618.8648369939415
 20
1013.110736039050
 30
0.0000000000000000
 11
625.8648369939413
 21
1009.069284154722
 31
0.0000000000000000
  0
LINE
  5
53E
100
AcDbEntity
  8
MAIN0
  6
HIDDEN
 62
3
100
AcDbLine
 10
625.8648369939422
 20
1009.069284154722
 30
0.0000000000000000
 11
632.8648369939422
 21
1013.110736039050
 31
0.0000000000000000
  0
LINE
  5
53F
100
AcDbEntity
  8
MAIN0
  6
HIDDEN
 62
3
100
AcDbLine
 10
632.8648369939418
 20
1013.110736039050
 30
0.0000000000000000
 11
632.8648369939418
 21
1021.193639807704
 31
0.0000000000000000
  0
LINE
  5
540
100
AcDbEntity
  8
MAIN0
  6
HIDDEN
 62
3
100
AcDbLine
 10
632.8648369939413
 20
1021.193639807704
 30
0.0000000000000000
 11
625.8648369939411
 21
1025.235091692032
 31
0.0000000000000000
  0
CIRCLE
  5
541
100
AcDbEntity
  8
MAIN0
  6
HIDDEN
 62
3
100
AcDbCircle
 10
625.8648369939423
 20
1167.152187923377
 30
0.0000000000000000
 40
13.50000000000000
  0
LINE
  5
542
100
AcDbEntity
  8
MAIN0
  6
HIDDEN
 62
3
100
AcDbLine
 10
625.8648369939428
 20
1175.235091692032
 30
0.0000000000000000
 11
618.8648369939426
 21
1171.193639807704
 31
0.0000000000000000
  0
LINE
  5
543
100
AcDbEntity
  8
MAIN0
  6
HIDDEN
 62
3
100
AcDbLine
 10
618.8648369939423
 20
1171.193639807704
 30
0.0000000000000000
 11
618.8648369939423
 21
1163.110736039049
 31
0.0000000000000000
  0
LINE
  5
544
100
AcDbEntity
  8
MAIN0
  6
HIDDEN
 62
3
100
AcDbLine
 10
618.8648369939419
 20
1163.110736039049
 30
0.0000000000000000
 11
625.8648369939416
 21
1159.069284154722
 31
0.0000000000000000
  0
LINE
  5
545
100
AcDbEntity
  8
MAIN0
  6
HIDDEN
 62
3
100
AcDbLine
 10
625.8648369939426
 20
1159.069284154722
 30
0.0000000000000000
 11
632.8648369939431
 21
1163.110736039050
 31
0.0000000000000000
  0
LINE
  5
546
100
AcDbEntity
  8
MAIN0
  6
HIDDEN
 62
3
100
AcDbLine
 10
632.8648369939423
 20
1163.110736039049
 30
0.0000000000000000
 11
632.8648369939423
 21
1171.193639807704
 31
0.0000000000000000
  0
LINE
  5
547
100
AcDbEntity
  8
MAIN0
  6
HIDDEN
 62
3
100
AcDbLine
 10
632.8648369939417
 20
1171.193639807704
 30
0.0000000000000000
 11
625.8648369939417
 21
1175.235091692032
 31
0.0000000000000000
  0
CIRCLE
  5
548
100
AcDbEntity
  8
MAIN0
  6
HIDDEN
 62
3
100
AcDbCircle
 10
565.8648369939418
 20
1167.152187923377
 30
0.0000000000000000
 40
13.50000000000000
  0
LINE
  5
549
100
AcDbEntity
  8
MAIN0
  6
HIDDEN
 62
3
100
AcDbLine
 10
565.8648369939419
 20
1175.235091692032
 30
0.0000000000000000
 11
558.8648369939418
 21
1171.193639807704
 31
0.0000000000000000
  0
LINE
  5
54A
100
AcDbEntity
  8
MAIN0
  6
HIDDEN
 62
3
100
AcDbLine
 10
558.8648369939418
 20
1171.193639807704
 30
0.0000000000000000
 11
558.8648369939418
 21
1163.110736039050
 31
0.0000000000000000
  0
LINE
  5
54B
100
AcDbEntity
  8
MAIN0
  6
HIDDEN
 62
3
100
AcDbLine
 10
558.8648369939415
 20
1163.110736039050
 30
0.0000000000000000
 11
565.8648369939411
 21
1159.069284154722
 31
0.0000000000000000
  0
LINE
  5
54C
100
AcDbEntity
  8
MAIN0
  6
HIDDEN
 62
3
100
AcDbLine
 10
565.8648369939421
 20
1159.069284154722
 30
0.0000000000000000
 11
572.8648369939422
 21
1163.110736039050
 31
0.0000000000000000
  0
LINE
  5
54D
100
AcDbEntity
  8
MAIN0
  6
HIDDEN
 62
3
100
AcDbLine
 10
572.8648369939418
 20
1163.110736039050
 30
0.0000000000000000
 11
572.8648369939418
 21
1171.193639807704
 31
0.0000000000000000
  0
LINE
  5
54E
100
AcDbEntity
  8
MAIN0
  6
HIDDEN
 62
3
100
AcDbLine
 10
572.8648369939413
 20
1171.193639807704
 30
0.0000000000000000
 11
565.8648369939413
 21
1175.235091692032
 31
0.0000000000000000
  0
LINE
  5
54F
100
AcDbEntity
  8
MAIN0
  6
CONTINUOUS
 62
3
100
AcDbLine
 10
1059.364836993941
 20
1192.152187923340
 30
0.0000000000000000
 11
962.4648369939409
 21
1192.152187923340
 31
0.0000000000000000
  0
LINE
  5
550
100
AcDbEntity
  8
MAIN0
  6
CONTINUOUS
 62
3
100
AcDbLine
 10
1059.364836993941
 20
992.1521879233399
 30
0.0000000000000000
 11
962.4648369939409
 21
992.1521879233401
 31
0.0000000000000000
  0
LINE
  5
551
100
AcDbEntity
  8
MAIN0
  6
CONTINUOUS
 62
3
100
AcDbLine
 10
1059.864836993940
 20
983.6521879233395
 30
0.0000000000000000
 11
1059.864836993940
 21
1200.652187923341
 31
0.0000000000000000
  0
LINE
  5
552
100
AcDbEntity
  8
MAIN0
  6
CONTINUOUS
 62
3
100
AcDbLine
 10
961.8648369939411
 20
992.7521879233404
 30
0.0000000000000000
 11
961.8648369939413
 21
1191.552187923340
 31
0.0000000000000000
  0
LINE
  5
553
100
AcDbEntity
  8
MAIN0
  6
CENTER
 62
3
100
AcDbLine
 10
1025.698170327275
 20
1124.652187923340
 30
0.0000000000000000
 11
1056.031503660608
 21
1124.652187923340
 31
0.0000000000000000
  0
LINE
  5
554
100
AcDbEntity
  8
MAIN0
  6
CENTER
 62
3
100
AcDbLine
 10
1040.864836993941
 20
1109.485521256673
 30
0.0000000000000000
 11
1040.864836993941
 21
1139.818854590006
 31
0.0000000000000000
  0
LINE
  5
555
100
AcDbEntity
  8
MAIN0
  6
CENTER
 62
3
100
AcDbLine
 10
965.6981703272743
 20
1124.652187923340
 30
0.0000000000000000
 11
996.0315036606078
 21
1124.652187923340
 31
0.0000000000000000
  0
LINE
  5
556
100
AcDbEntity
  8
MAIN0
  6
CENTER
 62
3
100
AcDbLine
 10
980.8648369939408
 20
1109.485521256674
 30
0.0000000000000000
 11
980.8648369939408
 21
1139.818854590007
 31
0.0000000000000000
  0
LINE
  5
557
100
AcDbEntity
  8
MAIN0
  6
CENTER
 62
3
100
AcDbLine
 10
1025.698170327274
 20
1059.652187923340
 30
0.0000000000000000
 11
1056.031503660608
 21
1059.652187923340
 31
0.0000000000000000
  0
LINE
  5
558
100
AcDbEntity
  8
MAIN0
  6
CENTER
 62
3
100
AcDbLine
 10
1040.864836993941
 20
1044.485521256673
 30
0.0000000000000000
 11
1040.864836993941
 21
1074.818854590007
 31
0.0000000000000000
  0
LINE
  5
559
100
AcDbEntity
  8
MAIN0
  6
CENTER
 62
3
100
AcDbLine
 10
965.6981703272741
 20
1059.652187923340
 30
0.0000000000000000
 11
996.0315036606075
 21
1059.652187923340
 31
0.0000000000000000
  0
LINE
  5
55A
100
AcDbEntity
  8
MAIN0
  6
CENTER
 62
3
100
AcDbLine
 10
980.8648369939406
 20
1044.485521256674
 30
0.0000000000000000
 11
980.8648369939407
 21
1074.818854590007
 31
0.0000000000000000
  0
LINE
  5
55B
100
AcDbEntity
  8
MAIN0
  6
CONTINUOUS
 62
3
100
AcDbLine
 10
962.4648369939412
 20
992.1521879233402
 30
0.0000000000000000
 11
961.8648369939410
 21
992.7521879233404
 31
0.0000000000000000
  0
LINE
  5
55C
100
AcDbEntity
  8
MAIN0
  6
CONTINUOUS
 62
3
100
AcDbLine
 10
961.8648369939415
 20
1191.552187923340
 30
0.0000000000000000
 11
962.4648369939414
 21
1192.152187923340
 31
0.0000000000000000
  0
LINE
  5
55D
100
AcDbEntity
  8
MAIN0
  6
CONTINUOUS
 62
3
100
AcDbLine
 10
1059.364836993941
 20
992.1521879233401
 30
0.0000000000000000
 11
1059.864836993941
 21
992.6521879233401
 31
0.0000000000000000
  0
LINE
  5
55E
100
AcDbEntity
  8
MAIN0
  6
CONTINUOUS
 62
3
100
AcDbLine
 10
1059.864836993941
 20
1191.652187923340
 30
0.0000000000000000
 11
1059.364836993941
 21
1192.152187923340
 31
0.0000000000000000
  0
CIRCLE
  5
55F
100
AcDbEntity
  8
MAIN0
  6
HIDDEN
 62
3
100
AcDbCircle
 10
1040.864836993941
 20
1059.652187923340
 30
0.0000000000000000
 40
12.00000000000000
  0
LINE
  5
560
100
AcDbEntity
  8
MAIN0
  6
HIDDEN
 62
3
100
AcDbLine
 10
1032.781933225286
 20
1059.652187923340
 30
0.0000000000000000
 11
1036.823385109614
 21
1052.652187923339
 31
0.0000000000000000
  0
LINE
  5
561
100
AcDbEntity
  8
MAIN0
  6
HIDDEN
 62
3
100
AcDbLine
 10
1036.823385109613
 20
1052.652187923340
 30
0.0000000000000000
 11
1044.906288878268
 21
1052.652187923340
 31
0.0000000000000000
  0
LINE
  5
562
100
AcDbEntity
  8
MAIN0
  6
HIDDEN
 62
3
100
AcDbLine
 10
1044.906288878269
 20
1052.652187923340
 30
0.0000000000000000
 11
1048.947740762596
 21
1059.652187923340
 31
0.0000000000000000
  0
LINE
  5
563
100
AcDbEntity
  8
MAIN0
  6
HIDDEN
 62
3
100
AcDbLine
 10
1048.947740762596
 20
1059.652187923340
 30
0.0000000000000000
 11
1044.906288878268
 21
1066.652187923340
 31
0.0000000000000000
  0
LINE
  5
564
100
AcDbEntity
  8
MAIN0
  6
HIDDEN
 62
3
100
AcDbLine
 10
1044.906288878268
 20
1066.652187923340
 30
0.0000000000000000
 11
1036.823385109613
 21
1066.652187923340
 31
0.0000000000000000
  0
LINE
  5
565
100
AcDbEntity
  8
MAIN0
  6
HIDDEN
 62
3
100
AcDbLine
 10
1036.823385109614
 20
1066.652187923340
 30
0.0000000000000000
 11
1032.781933225287
 21
1059.652187923340
 31
0.0000000000000000
  0
CIRCLE
  5
566
100
AcDbEntity
  8
MAIN0
  6
HIDDEN
 62
3
100
AcDbCircle
 10
1040.864836993941
 20
1124.652187923340
 30
0.0000000000000000
 40
12.00000000000000
  0
LINE
  5
567
100
AcDbEntity
  8
MAIN0
  6
HIDDEN
 62
3
100
AcDbLine
 10
1032.781933225286
 20
1124.652187923340
 30
0.0000000000000000
 11
1036.823385109614
 21
1117.652187923339
 31
0.0000000000000000
  0
LINE
  5
568
100
AcDbEntity
  8
MAIN0
  6
HIDDEN
 62
3
100
AcDbLine
 10
1036.823385109613
 20
1117.652187923340
 30
0.0000000000000000
 11
1044.906288878268
 21
1117.652187923340
 31
0.0000000000000000
  0
LINE
  5
569
100
AcDbEntity
  8
MAIN0
  6
HIDDEN
 62
3
100
AcDbLine
 10
1044.906288878269
 20
1117.652187923340
 30
0.0000000000000000
 11
1048.947740762596
 21
1124.652187923340
 31
0.0000000000000000
  0
LINE
  5
56A
100
AcDbEntity
  8
MAIN0
  6
HIDDEN
 62
3
100
AcDbLine
 10
1048.947740762596
 20
1124.652187923340
 30
0.0000000000000000
 11
1044.906288878268
 21
1131.652187923340
 31
0.0000000000000000
  0
LINE
  5
56B
100
AcDbEntity
  8
MAIN0
  6
HIDDEN
 62
3
100
AcDbLine
 10
1044.906288878268
 20
1131.652187923340
 30
0.0000000000000000
 11
1036.823385109613
 21
1131.652187923340
 31
0.0000000000000000
  0
LINE
  5
56C
100
AcDbEntity
  8
MAIN0
  6
HIDDEN
 62
3
100
AcDbLine
 10
1036.823385109614
 20
1131.652187923340
 30
0.0000000000000000
 11
1032.781933225287
 21
1124.652187923340
 31
0.0000000000000000
  0
CIRCLE
  5
56D
100
AcDbEntity
  8
MAIN0
  6
HIDDEN
 62
3
100
AcDbCircle
 10
980.8648369939407
 20
1124.652187923339
 30
0.0000000000000000
 40
12.00000000000000
  0
LINE
  5
56E
100
AcDbEntity
  8
MAIN0
  6
HIDDEN
 62
3
100
AcDbLine
 10
972.7819332252856
 20
1124.652187923339
 30
0.0000000000000000
 11
976.8233851096131
 21
1117.652187923339
 31
0.0000000000000000
  0
LINE
  5
56F
100
AcDbEntity
  8
MAIN0
  6
HIDDEN
 62
3
100
AcDbLine
 10
976.8233851096135
 20
1117.652187923340
 30
0.0000000000000000
 11
984.9062888782679
 21
1117.652187923340
 31
0.0000000000000000
  0
LINE
  5
570
100
AcDbEntity
  8
MAIN0
  6
HIDDEN
 62
3
100
AcDbLine
 10
984.9062888782686
 20
1117.652187923339
 30
0.0000000000000000
 11
988.9477407625960
 21
1124.652187923339
 31
0.0000000000000000
  0
LINE
  5
571
100
AcDbEntity
  8
MAIN0
  6
HIDDEN
 62
3
100
AcDbLine
 10
988.9477407625956
 20
1124.652187923339
 30
0.0000000000000000
 11
984.9062888782682
 21
1131.652187923339
 31
0.0000000000000000
  0
LINE
  5
572
100
AcDbEntity
  8
MAIN0
  6
HIDDEN
 62
3
100
AcDbLine
 10
984.9062888782679
 20
1131.652187923340
 30
0.0000000000000000
 11
976.8233851096135
 21
1131.652187923340
 31
0.0000000000000000
  0
LINE
  5
573
100
AcDbEntity
  8
MAIN0
  6
HIDDEN
 62
3
100
AcDbLine
 10
976.8233851096138
 20
1131.652187923339
 30
0.0000000000000000
 11
972.7819332252866
 21
1124.652187923340
 31
0.0000000000000000
  0
CIRCLE
  5
574
100
AcDbEntity
  8
MAIN0
  6
HIDDEN
 62
3
100
AcDbCircle
 10
980.8648369939407
 20
1059.652187923339
 30
0.0000000000000000
 40
12.00000000000000
  0
LINE
  5
575
100
AcDbEntity
  8
MAIN0
  6
HIDDEN
 62
3
100
AcDbLine
 10
972.7819332252855
 20
1059.652187923339
 30
0.0000000000000000
 11
976.8233851096131
 21
1052.652187923339
 31
0.0000000000000000
  0
LINE
  5
576
100
AcDbEntity
  8
MAIN0
  6
HIDDEN
 62
3
100
AcDbLine
 10
976.8233851096134
 20
1052.652187923340
 30
0.0000000000000000
 11
984.9062888782678
 21
1052.652187923340
 31
0.0000000000000000
  0
LINE
  5
577
100
AcDbEntity
  8
MAIN0
  6
HIDDEN
 62
3
100
AcDbLine
 10
984.9062888782680
 20
1052.652187923339
 30
0.0000000000000000
 11
988.9477407625955
 21
1059.652187923339
 31
0.0000000000000000
  0
LINE
  5
578
100
AcDbEntity
  8
MAIN0
  6
HIDDEN
 62
3
100
AcDbLine
 10
988.9477407625952
 20
1059.652187923339
 30
0.0000000000000000
 11
984.9062888782678
 21
1066.652187923339
 31
0.0000000000000000
  0
LINE
  5
579
100
AcDbEntity
  8
MAIN0
  6
HIDDEN
 62
3
100
AcDbLine
 10
984.9062888782678
 20
1066.652187923340
 30
0.0000000000000000
 11
976.8233851096134
 21
1066.652187923340
 31
0.0000000000000000
  0
LINE
  5
57A
100
AcDbEntity
  8
MAIN0
  6
HIDDEN
 62
3
100
AcDbLine
 10
976.8233851096134
 20
1066.652187923339
 30
0.0000000000000000
 11
972.7819332252861
 21
1059.652187923339
 31
0.0000000000000000
  0
LINE
  5
57B
100
AcDbEntity
  8
MAIN0
  6
CONTINUOUS
 62
3
100
AcDbLine
 10
1437.864836994031
 20
567.0681558885652
 30
0.0000000000000000
 11
1412.864836994031
 21
567.0681558885652
 31
0.0000000000000000
  0
LINE
  5
57C
100
AcDbEntity
  8
MAIN0
  6
CENTER
 62
3
100
AcDbLine
 10
604.5496866221449
 20
1167.152187923377
 30
0.0000000000000000
 11
646.8648369939422
 21
1167.152187923377
 31
0.0000000000000000
  0
LINE
  5
57D
100
AcDbEntity
  8
MAIN0
  6
CENTER
 62
3
100
AcDbLine
 10
625.8648369939423
 20
1147.657237280627
 30
0.0000000000000000
 11
625.8648369939424
 21
1188.045505499202
 31
0.0000000000000000
  0
LINE
  5
57E
100
AcDbEntity
  8
MAIN0
  6
CENTER
 62
3
100
AcDbLine
 10
547.7131627700722
 20
1167.152187923377
 30
0.0000000000000000
 11
586.7700667865959
 21
1167.152187923377
 31
0.0000000000000000
  0
LINE
  5
57F
100
AcDbEntity
  8
MAIN0
  6
CENTER
 62
3
100
AcDbLine
 10
565.8648369939421
 20
1147.657237280627
 30
0.0000000000000000
 11
565.8648369939422
 21
1187.462554040765
 31
0.0000000000000000
  0
LINE
  5
580
100
AcDbEntity
  8
MAIN0
  6
CONTINUOUS
 62
3
100
AcDbLine
 10
1412.864836994031
 20
634.0681558885657
 30
0.0000000000000000
 11
1437.864836994031
 21
634.0681558885657
 31
0.0000000000000000
  0
LINE
  5
581
100
AcDbEntity
  8
MAIN0
  6
CONTINUOUS
 62
3
100
AcDbLine
 10
1456.864836994030
 20
624.0681558885652
 30
0.0000000000000000
 11
1437.864836994031
 21
624.0681558885652
 31
0.0000000000000000
  0
LINE
  5
582
100
AcDbEntity
  8
MAIN0
  6
CONTINUOUS
 62
3
100
AcDbLine
 10
1456.864836994030
 20
574.0681558885649
 30
0.0000000000000000
 11
1437.864836994031
 21
574.0681558885649
 31
0.0000000000000000
  0
LINE
  5
583
100
AcDbEntity
  8
MAIN0
  6
CONTINUOUS
 62
3
100
AcDbLine
 10
1456.864836994031
 20
624.0681558885649
 30
0.0000000000000000
 11
1456.864836994031
 21
574.0681558885649
 31
0.0000000000000000
  0
LINE
  5
584
100
AcDbEntity
  8
MAIN0
  6
CONTINUOUS
 62
3
100
AcDbLine
 10
1412.864836994031
 20
571.0681558885655
 30
0.0000000000000000
 11
1412.864836994031
 21
561.5681558883975
 31
0.0000000000000000
  0
LINE
  5
585
100
AcDbEntity
  8
MAIN0
  6
CONTINUOUS
 62
3
100
AcDbLine
 10
1437.864836994031
 20
567.0681558885652
 30
0.0000000000000000
 11
1437.864836994031
 21
634.0681558885652
 31
0.0000000000000000
  0
LINE
  5
586
100
AcDbEntity
  8
MAIN0
  6
CONTINUOUS
 62
3
100
AcDbLine
 10
1412.864836993969
 20
561.5681558883974
 30
0.0000000000000000
 11
1412.864836994031
 21
634.0681558885651
 31
0.0000000000000000
  0
LINE
  5
587
100
AcDbEntity
  8
WAKU0
  6
CONTINUOUS
 62
3
100
AcDbLine
 10
240.0000000000000
 20
51.00000000000000
 30
0.0000000000000000
 11
410.0000000000000
 21
51.00000000000000
 31
0.0000000000000000
  0
LINE
  5
588
100
AcDbEntity
  8
WAKU0
  6
CONTINUOUS
 62
3
100
AcDbLine
 10
240.0000000000000
 20
51.00000000000000
 30
0.0000000000000000
 11
240.0000000000000
 21
12.00000000000000
 31
0.0000000000000000
  0
LINE
  5
589
100
AcDbEntity
  8
WAKU0
  6
CONTINUOUS
 62
3
100
AcDbLine
 10
312.0000000000000
 20
51.00000000000000
 30
0.0000000000000000
 11
312.0000000000000
 21
12.00000000000000
 31
0.0000000000000000
  0
LINE
  5
58A
100
AcDbEntity
  8
WAKU0
  6
CONTINUOUS
 62
3
100
AcDbLine
 10
332.0000000000000
 20
51.00000000000000
 30
0.0000000000000000
 11
332.0000000000000
 21
12.00000000000000
 31
0.0000000000000000
  0
LINE
  5
58B
100
AcDbEntity
  8
WAKU0
  6
CONTINUOUS
 62
3
100
AcDbLine
 10
344.0000000000000
 20
51.00000000000000
 30
0.0000000000000000
 11
344.0000000000000
 21
12.00000000000000
 31
0.0000000000000000
  0
LINE
  5
58C
100
AcDbEntity
  8
WAKU0
  6
CONTINUOUS
 62
3
100
AcDbLine
 10
344.0000000000000
 20
37.00000000000000
 30
0.0000000000000000
 11
410.0000000000000
 21
37.00000000000000
 31
0.0000000000000000
  0
LINE
  5
58D
100
AcDbEntity
  8
WAKU0
  6
CONTINUOUS
 62
3
100
AcDbLine
 10
332.0000000000000
 20
23.00000000000000
 30
0.0000000000000000
 11
410.0000000000000
 21
23.00000000000000
 31
0.0000000000000000
  0
LINE
  5
58E
100
AcDbEntity
  8
WAKU0
  6
CONTINUOUS
 62
3
100
AcDbLine
 10
375.0000000000000
 20
51.00000000000000
 30
0.0000000000000000
 11
375.0000000000000
 21
44.00000000000000
 31
0.0000000000000000
  0
LINE
  5
58F
100
AcDbEntity
  8
WAKU0
  6
CONTINUOUS
 62
3
100
AcDbLine
 10
387.0000000000000
 20
51.00000000000000
 30
0.0000000000000000
 11
387.0000000000000
 21
44.00000000000000
 31
0.0000000000000000
  0
LINE
  5
590
100
AcDbEntity
  8
WAKU0
  6
CONTINUOUS
 62
3
100
AcDbLine
 10
312.0000000000000
 20
31.50000000000000
 30
0.0000000000000000
 11
332.0000000000000
 21
31.50000000000000
 31
0.0000000000000000
  0
LINE
  5
591
100
AcDbEntity
  8
WAKU0
  6
CONTINUOUS
 62
3
100
AcDbLine
 10
332.0000000000000
 20
44.00000000000000
 30
0.0000000000000000
 11
410.0000000000000
 21
44.00000000000000
 31
0.0000000000000000
  0
LINE
  5
592
100
AcDbEntity
  8
WAKU0
  6
CONTINUOUS
 62
3
100
AcDbLine
 10
240.0000000000000
 20
37.00000000000000
 30
0.0000000000000000
 11
312.0000000000000
 21
37.00000000000000
 31
0.0000000000000000
  0
LINE
  5
593
100
AcDbEntity
  8
WAKU0
  6
CONTINUOUS
 62
3
100
AcDbLine
 10
240.0000000000000
 20
23.00000000000000
 30
0.0000000000000000
 11
312.0000000000000
 21
23.00000000000000
 31
0.0000000000000000
  0
LINE
  5
594
100
AcDbEntity
  8
WAKU0
  6
CONTINUOUS
 62
3
100
AcDbLine
 10
288.0000000000000
 20
37.00000000000000
 30
0.0000000000000000
 11
288.0000000000000
 21
12.00000000000000
 31
0.0000000000000000
  0
LINE
  5
595
100
AcDbEntity
  8
WAKU0
  6
CONTINUOUS
 62
3
100
AcDbLine
 10
264.0000000000000
 20
37.00000000000000
 30
0.0000000000000000
 11
264.0000000000000
 21
23.00000000000000
 31
0.0000000000000000
  0
LINE
  5
596
100
AcDbEntity
  8
WAKU0
  6
CONTINUOUS
 62
3
100
AcDbLine
 10
300.0000000000000
 20
26.00000000000000
 30
0.0000000000000000
 11
300.0000000000000
 21
23.00000000000000
 31
0.0000000000000000
  0
LINE
  5
597
100
AcDbEntity
  8
WAKU0
  6
CONTINUOUS
 62
3
100
AcDbLine
 10
276.0000000000000
 20
26.00000000000000
 30
0.0000000000000000
 11
276.0000000000000
 21
23.00000000000000
 31
0.0000000000000000
  0
LINE
  5
598
100
AcDbEntity
  8
WAKU0
  6
CONTINUOUS
 62
3
100
AcDbLine
 10
252.0000000000000
 20
26.00000000000000
 30
0.0000000000000000
 11
252.0000000000000
 21
23.00000000000000
 31
0.0000000000000000
  0
LINE
  5
599
100
AcDbEntity
  8
WAKU0
  6
CONTINUOUS
 62
3
100
AcDbLine
 10
258.0000000000000
 20
51.00000000000000
 30
0.0000000000000000
 11
258.0000000000000
 21
37.00000000000000
 31
0.0000000000000000
  0
LINE
  5
59A
100
AcDbEntity
  8
WAKU0
  6
CONTINUOUS
 62
3
100
AcDbLine
 10
240.0000000000000
 20
45.00000000000000
 30
0.0000000000000000
 11
312.0000000000000
 21
45.00000000000000
 31
0.0000000000000000
  0
LINE
  5
59B
100
AcDbEntity
  8
WAKU0
  6
HIDDEN
 62
3
100
AcDbLine
 10
360.5000000000000
 20
23.00000000000000
 30
0.0000000000000000
 11
360.5000000000000
 21
12.00000000000000
 31
0.0000000000000000
  0
LINE
  5
59C
100
AcDbEntity
  8
WAKU0
  6
HIDDEN
 62
3
100
AcDbLine
 10
372.9000000000000
 20
23.00000000000000
 30
0.0000000000000000
 11
372.9000000000000
 21
12.00000000000000
 31
0.0000000000000000
  0
MTEXT
  5
59D
100
AcDbEntity
  8
WAKU0
  6
CONTINUOUS
 62
3
100
AcDbMText
 10
374.4000001549721
 20
20.15000009536743
 30
0.0000000000000000
 40
5.300000190734863
 41
0.0000000000000000
 71
     1
 72
     1
  1
{\H0.90x;{8287}}
 11
1.000000000000000
 21
0.0000000000000000
 31
0.0000000000000000
  7
STANDARD
  0
MTEXT
  5
59E
100
AcDbEntity
  8
WAKU0
  6
CONTINUOUS
 62
3
100
AcDbMText
 10
362.3000000834465
 20
20.15000009536743
 30
0.0000000000000000
 40
5.300000190734863
 41
0.0000000000000000
 71
     1
 72
     1
  1
{\H0.87x;{83}}
 11
1.000000000000000
 21
0.0000000000000000
 31
0.0000000000000000
  7
STANDARD
  0
MTEXT
  5
59F
100
AcDbEntity
  8
WAKU0
  6
CONTINUOUS
 62
3
100
AcDbMText
 10
345.5000001192093
 20
20.15000009536743
 30
0.0000000000000000
 40
5.300000190734863
 41
0.0000000000000000
 71
     1
 72
     1
  1
{\H0.89x;{61M}}
 11
1.000000000000000
 21
0.0000000000000000
 31
0.0000000000000000
  7
STANDARD
  0
MTEXT
  5
5A0
100
AcDbEntity
  8
WAKU0
  6
CONTINUOUS
 62
3
100
AcDbMText
 10
400.0000000476837
 20
20.15000009536743
 30
0.0000000000000000
 40
5.300000190734863
 41
0.0000000000000000
 71
     1
 72
     1
  1
{\H0.81x;{0}}
 11
1.000000000000000
 21
0.0000000000000000
 31
0.0000000000000000
  7
STANDARD
  0
MTEXT
  5
5A1
100
AcDbEntity
  8
WAKU0
  6
CONTINUOUS
 62
3
100
AcDbMText
 10
344.4820000243485
 20
49.04999995231628
 30
0.0000000000000000
 40
3.099999904632568
 41
0.0000000000000000
 71
     1
 72
     1
  1
{\H0.93x;{VE200LWN}}
 11
1.000000000000000
 21
0.0000000000000000
 31
0.0000000000000000
  7
STANDARD
  0
MTEXT
  5
5A2
100
AcDbEntity
  8
WAKU0
  6
CONTINUOUS
 62
3
100
AcDbMText
 10
347.6099993288517
 20
42.04999995231628
 30
0.0000000000000000
 40
3.099999904632568
 41
0.0000000000000000
 71
     1
 72
     1
  1
{\H0.94x;{パワーバイス　ＰＯＷＥＲ　ＶＩＳＥ}}
 11
1.000000000000000
 21
0.0000000000000000
 31
0.0000000000000000
  7
KNJYOKO
  0
MTEXT
  5
5A3
100
AcDbEntity
  8
WAKU0
  6
CONTINUOUS
 62
3
100
AcDbMText
 10
349.7499999850988
 20
34.23333326975504
 30
0.0000000000000000
 40
3.099999904632568
 41
0.0000000000000000
 71
     1
 72
     1
  1
{\H0.70x;{ＶＥ２００ＬＷＮ　ガイケイ\PＶＥ２００ＬＷＮ　ＯＵＴＳＩＤＥ　ＶＩＥＷ}}
 11
1.000000000000000
 21
0.0000000000000000
 31
0.0000000000000000
  7
KNJYOKO
  0
MTEXT
  5
5A4
100
AcDbEntity
  8
WAKU0
  6
CONTINUOUS
 62
3
100
AcDbMText
 10
318.0049998760223
 20
39.29999995231628
 30
0.0000000000000000
 40
3.099999904632568
 41
0.0000000000000000
 71
     1
 72
     1
  1
{\H0.90x;{1:5}}
 11
1.000000000000000
 21
0.0000000000000000
 31
0.0000000000000000
  7
STANDARD
  0
MTEXT
  5
5A5
100
AcDbEntity
  8
WAKU0
  6
CONTINUOUS
 62
3
100
AcDbMText
 10
400.0000000819564
 20
44.84999990463257
 30
0.0000000000000000
 40
5.300000190734863
 41
0.0000000000000000
 71
     7
 72
     1
  1
{\H0.81x;{ }}
 11
1.000000000000000
 21
0.0000000000000000
 31
0.0000000000000000
  7
STANDARD
  0
MTEXT
  5
5A6
100
AcDbEntity
  8
WAKU0
  6
CONTINUOUS
 62
3
100
AcDbMText
 10
289.3850002884865
 20
33.00000000000000
 30
0.0000000000000000
 40
3.000000000000000
 41
0.0000000000000000
 71
     7
 72
     1
  1
{\H0.93x;{DRAWN BY}}
 11
1.000000000000000
 21
0.0000000000000000
 31
0.0000000000000000
  7
STANDARD
  0
MTEXT
  5
5A7
100
AcDbEntity
  8
WAKU0
  6
CONTINUOUS
 62
3
100
AcDbMText
 10
269.2149997949600
 20
32.95000004768372
 30
0.0000000000000000
 40
3.099999904632568
 41
0.0000000000000000
 71
     7
 72
     1
  1
{\H0.92x;{CHIEF}}
 11
1.000000000000000
 21
0.0000000000000000
 31
0.0000000000000000
  7
STANDARD
  0
MTEXT
  5
5A8
100
AcDbEntity
  8
WAKU0
  6
CONTINUOUS
 62
3
100
AcDbMText
 10
242.4249997138977
 20
32.95000004768372
 30
0.0000000000000000
 40
3.099999904632568
 41
0.0000000000000000
 71
     7
 72
     1
  1
{\H0.92x;{MANAGER}}
 11
1.000000000000000
 21
0.0000000000000000
 31
0.0000000000000000
  7
STANDARD
  0
MTEXT
  5
5A9
100
AcDbEntity
  8
WAKU0
  6
CONTINUOUS
 62
3
100
AcDbMText
 10
244.6599994301796
 20
18.13333336512248
 30
0.0000000000000000
 40
3.099999904632568
 41
0.0000000000000000
 71
     7
 72
     1
  1
{\H0.93x;{KITAGAWA IRON\PWORKS CO.,LTD.}}
 11
1.000000000000000
 21
0.0000000000000000
 31
0.0000000000000000
  7
STANDARD
  0
MTEXT
  5
5AA
100
AcDbEntity
  8
WAKU0
  6
CONTINUOUS
 62
3
100
AcDbMText
 10
241.0850002169609
 20
46.50000000000000
 30
0.0000000000000000
 40
3.000000000000000
 41
0.0000000000000000
 71
     7
 72
     1
  1
{\H0.92x;{CAREER}}
 11
1.000000000000000
 21
0.0000000000000000
 31
0.0000000000000000
  7
STANDARD
  0
MTEXT
  5
5AB
100
AcDbEntity
  8
WAKU0
  6
CONTINUOUS
 62
3
100
AcDbMText
 10
294.6099998354912
 20
18.95000004768372
 30
0.0000000000000000
 40
3.099999904632568
 41
0.0000000000000000
 71
     7
 72
     1
  1
{\H0.91x;{DATE}}
 11
1.000000000000000
 21
0.0000000000000000
 31
0.0000000000000000
  7
STANDARD
  0
MTEXT
  5
5AC
100
AcDbEntity
  8
WAKU0
  6
CONTINUOUS
 62
3
100
AcDbMText
 10
313.9000002145767
 20
26.50000000000000
 30
0.0000000000000000
 40
3.000000000000000
 41
0.0000000000000000
 71
     7
 72
     1
  1
{\H0.63x;{3RD ANGLE}}
 11
1.000000000000000
 21
0.0000000000000000
 31
0.0000000000000000
  7
STANDARD
  0
MTEXT
  5
5AD
100
AcDbEntity
  8
WAKU0
  6
CONTINUOUS
 62
3
100
AcDbMText
 10
315.2149997949600
 20
45.95000004768372
 30
0.0000000000000000
 40
3.099999904632568
 41
0.0000000000000000
 71
     7
 72
     1
  1
{\H0.92x;{SCALE}}
 11
1.000000000000000
 21
0.0000000000000000
 31
0.0000000000000000
  7
STANDARD
  0
MTEXT
  5
5AE
100
AcDbEntity
  8
WAKU0
  6
CONTINUOUS
 62
3
100
AcDbMText
 10
405.7000000476837
 20
46.00000000000000
 30
0.0000000000000000
 40
3.000000000000000
 41
0.0000000000000000
 71
     7
 72
     1
  1
{\H0.63x;{kg}}
 11
1.000000000000000
 21
0.0000000000000000
 31
0.0000000000000000
  7
STANDARD
  0
MTEXT
  5
5AF
100
AcDbEntity
  8
WAKU0
  6
CONTINUOUS
 62
3
100
AcDbMText
 10
375.6000001430512
 20
46.00000000000000
 30
0.0000000000000000
 40
3.000000000000000
 41
0.0000000000000000
 71
     7
 72
     1
  1
{\H0.63x;{WEIGHT}}
 11
1.000000000000000
 21
0.0000000000000000
 31
0.0000000000000000
  7
STANDARD
  0
MTEXT
  5
5B0
100
AcDbEntity
  8
WAKU0
  6
CONTINUOUS
 62
3
100
AcDbMText
 10
334.0049998760223
 20
18.13333336512248
 30
0.0000000000000000
 40
3.099999904632568
 41
0.0000000000000000
 71
     7
 72
     1
  1
{\H0.90x;{DRW\PNO.}}
 11
1.000000000000000
 21
0.0000000000000000
 31
0.0000000000000000
  7
STANDARD
  0
MTEXT
  5
5B1
100
AcDbEntity
  8
WAKU0
  6
CONTINUOUS
 62
3
100
AcDbMText
 10
332.6099998354912
 20
31.95000004768372
 30
0.0000000000000000
 40
3.099999904632568
 41
0.0000000000000000
 71
     7
 72
     1
  1
{\H0.91x;{NAME}}
 11
1.000000000000000
 21
0.0000000000000000
 31
0.0000000000000000
  7
STANDARD
  0
MTEXT
  5
5B2
100
AcDbEntity
  8
WAKU0
  6
CONTINUOUS
 62
3
100
AcDbMText
 10
332.6099998354912
 20
45.95000004768372
 30
0.0000000000000000
 40
3.099999904632568
 41
0.0000000000000000
 71
     7
 72
     1
  1
{\H0.91x;{TYPE}}
 11
1.000000000000000
 21
0.0000000000000000
 31
0.0000000000000000
  7
STANDARD
  0
LINE
  5
5B3
100
AcDbEntity
  8
WAKU0
  6
HIDDEN
 62
3
100
AcDbLine
 10
407.1599564743885
 20
13.84999990463257
 30
0.0000000000000000
 11
396.9400436209789
 21
13.84999990463257
 31
0.0000000000000000
  0
LINE
  5
5B4
100
AcDbEntity
  8
WAKU0
  6
HIDDEN
 62
3
100
AcDbLine
 10
407.1599564743885
 20
13.84999990463250
 30
0.0000000000000000
 11
402.0500000476852
 21
22.70070406014901
 31
0.0000000000000000
  0
LINE
  5
5B5
100
AcDbEntity
  8
WAKU0
  6
HIDDEN
 62
3
100
AcDbLine
 10
402.0500000476852
 20
22.70070406014902
 30
0.0000000000000000
 11
396.9400436209789
 21
13.84999990463248
 31
0.0000000000000000
  0
LINE
  5
5B6
100
AcDbEntity
  8
WAKU0
  6
CONTINUOUS
 62
3
100
AcDbLine
 10
330.4713877753800
 20
15.78041421262812
 30
0.0000000000000000
 11
330.4713877753800
 21
21.78041421262815
 31
0.0000000000000000
  0
LINE
  5
5B7
100
AcDbEntity
  8
WAKU0
  6
CONTINUOUS
 62
3
100
AcDbLine
 10
323.9336941228225
 20
17.28041421262811
 30
0.0000000000000000
 11
323.9336941228225
 21
20.28041421262824
 31
0.0000000000000000
  0
LINE
  5
5B8
100
AcDbEntity
  8
WAKU0
  6
CENTER
 62
12
100
AcDbLine
 10
313.4321805514995
 20
18.78041421262813
 30
0.0000000000000000
 11
331.2765788964694
 21
18.78041421262813
 31
0.0000000000000000
  0
LINE
  5
5B9
100
AcDbEntity
  8
WAKU0
  6
CENTER
 62
12
100
AcDbLine
 10
317.4474565857986
 20
14.55921662918448
 30
0.0000000000000000
 11
317.4474565857986
 21
22.89865102149943
 31
0.0000000000000000
  0
LINE
  5
5BA
100
AcDbEntity
  8
WAKU0
  6
CONTINUOUS
 62
3
100
AcDbLine
 10
323.9336941228225
 20
20.28041421262797
 30
0.0000000000000000
 11
330.4713877753800
 21
21.78041421262795
 31
0.0000000000000000
  0
LINE
  5
5BB
100
AcDbEntity
  8
WAKU0
  6
CONTINUOUS
 62
3
100
AcDbLine
 10
323.9336941228225
 20
17.28041421262811
 30
0.0000000000000000
 11
330.4713877753799
 21
15.78041421262812
 31
0.0000000000000000
  0
CIRCLE
  5
5BC
100
AcDbEntity
  8
WAKU0
  6
CONTINUOUS
 62
3
100
AcDbCircle
 10
317.4474565857986
 20
18.78041421262813
 30
0.0000000000000000
 40
1.499999999999972
  0
CIRCLE
  5
5BD
100
AcDbEntity
  8
WAKU0
  6
CONTINUOUS
 62
3
100
AcDbCircle
 10
317.4474565857986
 20
18.78041421262813
 30
0.0000000000000000
 40
2.999999999999979
  0
LINE
  5
5BE
100
AcDbEntity
  8
A0
  6
CONTINUOUS
 62
3
100
AcDbLine
 10
211.2768338016468
 20
305.8064814613850
 30
0.0000000000000000
 11
211.2768338016468
 21
191.3064837263569
 31
0.0000000000000000
  0
LINE
  5
5BF
100
AcDbEntity
  8
A0
  6
CONTINUOUS
 62
3
100
AcDbLine
 10
63.27683427843675
 20
293.0564817001184
 30
0.0000000000000000
 11
211.2768338016469
 21
293.0564817001842
 31
0.0000000000000000
  0
LINE
  5
5C0
100
AcDbEntity
  8
A0
  6
CONTINUOUS
 62
3
100
AcDbLine
 10
63.27683427843574
 20
305.8064814612671
 30
0.0000000000000000
 11
211.2768338016469
 21
305.8064814613984
 31
0.0000000000000000
  0
MTEXT
  5
5C1
100
AcDbEntity
  8
A0
  6
CONTINUOUS
 62
3
100
AcDbMText
 10
80.15183308636739
 20
303.3064814617296
 30
0.0000000000000000
 40
7.749999761581421
 41
0.0000000000000000
 71
     1
 72
     1
  1
{\H0.71x;{仕様　　SPECIFICATIONS}}
 11
1.000000000000000
 21
0.0000000000000000
 31
0.0000000000000000
  7
KNJYOKO
  0
MTEXT
  5
5C2
100
AcDbEntity
  8
A0
  6
CONTINUOUS
 62
3
100
AcDbMText
 10
152.2768328479415
 20
286.6814818190655
 30
0.0000000000000000
 40
7.749999761581421
 41
0.0000000000000000
 71
     1
 72
     1
  1
{\H0.70x;{１９５～６０５mm}}
 11
1.000000000000000
 21
0.0000000000000000
 31
0.0000000000000000
  7
KNJYOKO
  0
MTEXT
  5
5C3
100
AcDbEntity
  8
A0
  6
CONTINUOUS
 62
3
100
AcDbMText
 10
64.52683427845301
 20
281.5564819382748
 30
0.0000000000000000
 40
7.749999761581421
 41
0.0000000000000000
 71
     1
 72
     1
  1
{\H0.71x;{CLAMPING RANGE}}
 11
1.000000000000000
 21
0.0000000000000000
 31
0.0000000000000000
  7
STANDARD
  0
LINE
  5
5C4
100
AcDbEntity
  8
A0
  6
CONTINUOUS
 62
3
100
AcDbLine
 10
63.27683427843841
 20
272.5564821765227
 30
0.0000000000000000
 11
211.2768338016468
 21
272.5564821766538
 31
0.0000000000000000
  0
LINE
  5
5C5
100
AcDbEntity
  8
A0
  6
CONTINUOUS
 62
3
100
AcDbLine
 10
151.0268328479393
 20
293.0564817001553
 30
0.0000000000000000
 11
151.0268328479393
 21
272.5564821765960
 31
0.0000000000000000
  0
MTEXT
  5
5C6
100
AcDbEntity
  8
A0
  6
CONTINUOUS
 62
3
100
AcDbMText
 10
64.52683427845301
 20
261.0564824151119
 30
0.0000000000000000
 40
7.749999761581421
 41
0.0000000000000000
 71
     1
 72
     1
  1
{\H0.71x;{TIGHTENING TORQUE}}
 11
1.000000000000000
 21
0.0000000000000000
 31
0.0000000000000000
  7
STANDARD
  0
LINE
  5
5C7
100
AcDbEntity
  8
A0
  6
CONTINUOUS
 62
3
100
AcDbLine
 10
211.2768338016468
 20
252.0564826538584
 30
0.0000000000000000
 11
63.27683427843999
 21
252.0564826537927
 31
0.0000000000000000
  0
LINE
  5
5C8
100
AcDbEntity
  8
A0
  6
CONTINUOUS
 62
3
100
AcDbLine
 10
151.0268328479393
 20
252.0564826538296
 30
0.0000000000000000
 11
151.0268328479393
 21
191.3064837263169
 31
0.0000000000000000
  0
LINE
  5
5C9
100
AcDbEntity
  8
A0
  6
CONTINUOUS
 62
3
100
AcDbLine
 10
151.0268328479391
 20
231.5564831306669
 30
0.0000000000000000
 11
211.2768338016468
 21
231.5564831306936
 31
0.0000000000000000
  0
MTEXT
  5
5CA
100
AcDbEntity
  8
A0
  6
CONTINUOUS
 62
3
100
AcDbMText
 10
162.2768333247787
 20
230.3064831299894
 30
0.0000000000000000
 40
7.749999761581421
 41
0.0000000000000000
 71
     1
 72
     1
  1
{\H0.67x;{2}}
 11
1.000000000000000
 21
0.0000000000000000
 31
0.0000000000000000
  7
STANDARD
  0
LINE
  5
5CB
100
AcDbEntity
  8
A0
  6
CONTINUOUS
 62
3
100
AcDbLine
 10
211.2768338016466
 20
211.0564833691142
 30
0.0000000000000000
 11
63.27683427844229
 21
211.0564833690484
 31
0.0000000000000000
  0
MTEXT
  5
5CC
100
AcDbEntity
  8
A0
  6
CONTINUOUS
 62
3
100
AcDbMText
 10
162.2768333247787
 20
220.0564831303677
 30
0.0000000000000000
 40
7.749999761581421
 41
0.0000000000000000
 71
     1
 72
     1
  1
{\H0.67x;{3}}
 11
1.000000000000000
 21
0.0000000000000000
 31
0.0000000000000000
  7
STANDARD
  0
LINE
  5
5CD
100
AcDbEntity
  8
A0
  6
CONTINUOUS
 62
3
100
AcDbLine
 10
151.0268328479390
 20
241.8064828918520
 30
0.0000000000000000
 11
211.2768338016469
 21
241.8064828919054
 31
0.0000000000000000
  0
LINE
  5
5CE
100
AcDbEntity
  8
A0
  6
CONTINUOUS
 62
3
100
AcDbLine
 10
178.1756277178207
 20
252.0564826538372
 30
0.0000000000000000
 11
178.1756277178207
 21
211.0564833690953
 31
0.0000000000000000
  0
MTEXT
  5
5CF
100
AcDbEntity
  8
A0
  6
CONTINUOUS
 62
3
100
AcDbMText
 10
181.9978869699413
 20
240.5564828915699
 30
0.0000000000000000
 40
7.749999761581421
 41
0.0000000000000000
 71
     1
 72
     1
  1
{\H0.70x;{20KN}}
 11
1.000000000000000
 21
0.0000000000000000
 31
0.0000000000000000
  7
STANDARD
  0
MTEXT
  5
5D0
100
AcDbEntity
  8
A0
  6
CONTINUOUS
 62
3
100
AcDbMText
 10
181.9978869699413
 20
230.3064831299885
 30
0.0000000000000000
 40
7.749999761581421
 41
0.0000000000000000
 71
     1
 72
     1
  1
{\H0.70x;{32KN}}
 11
1.000000000000000
 21
0.0000000000000000
 31
0.0000000000000000
  7
STANDARD
  0
MTEXT
  5
5D1
100
AcDbEntity
  8
A0
  6
CONTINUOUS
 62
3
100
AcDbMText
 10
181.9978869699413
 20
220.0564831303668
 30
0.0000000000000000
 40
7.749999761581421
 41
0.0000000000000000
 71
     1
 72
     1
  1
{\H0.70x;{45KN}}
 11
1.000000000000000
 21
0.0000000000000000
 31
0.0000000000000000
  7
STANDARD
  0
MTEXT
  5
5D2
100
AcDbEntity
  8
A0
  6
CONTINUOUS
 62
3
100
AcDbMText
 10
162.2768333247787
 20
240.5564828915709
 30
0.0000000000000000
 40
7.749999761581421
 41
0.0000000000000000
 71
     1
 72
     1
  1
{\H0.67x;{1}}
 11
1.000000000000000
 21
0.0000000000000000
 31
0.0000000000000000
  7
STANDARD
  0
MTEXT
  5
5D3
100
AcDbEntity
  8
A0
  6
CONTINUOUS
 62
3
100
AcDbMText
 10
162.6556464951128
 20
204.6814834879853
 30
0.0000000000000000
 40
7.749999761581421
 41
0.0000000000000000
 71
     1
 72
     1
  1
{\H0.70x;{133kg}}
 11
1.000000000000000
 21
0.0000000000000000
 31
0.0000000000000000
  7
STANDARD
  0
MTEXT
  5
5D4
100
AcDbEntity
  8
A0
  6
CONTINUOUS
 62
3
100
AcDbMText
 10
64.52683427845301
 20
199.5564836072048
 30
0.0000000000000000
 40
6.999999880790710
 41
0.0000000000000000
 71
     1
 72
     1
  1
{\H0.67x;{MASS OF POWER VISE}}
 11
1.000000000000000
 21
0.0000000000000000
 31
0.0000000000000000
  7
STANDARD
  0
MTEXT
  5
5D5
100
AcDbEntity
  8
A0
  6
CONTINUOUS
 62
3
100
AcDbMText
 10
64.52683427845301
 20
209.8064833687863
 30
0.0000000000000000
 40
7.749999761581421
 41
0.0000000000000000
 71
     1
 72
     1
  1
{\H0.70x;{製品質量}}
 11
1.000000000000000
 21
0.0000000000000000
 31
0.0000000000000000
  7
KNJYOKO
  0
MTEXT
  5
5D6
100
AcDbEntity
  8
A0
  6
CONTINUOUS
 62
3
100
AcDbMText
 10
64.52683427845301
 20
240.5564828919491
 30
0.0000000000000000
 40
7.749999761581421
 41
0.0000000000000000
 71
     1
 72
     1
  1
{\H0.71x;{CLAMP RANGE}}
 11
1.000000000000000
 21
0.0000000000000000
 31
0.0000000000000000
  7
STANDARD
  0
MTEXT
  5
5D7
100
AcDbEntity
  8
A0
  6
CONTINUOUS
 62
3
100
AcDbMText
 10
64.52683427845301
 20
250.8064826535305
 30
0.0000000000000000
 40
7.749999761581421
 41
0.0000000000000000
 71
     1
 72
     1
  1
{\H0.70x;{締付けレンジ}}
 11
1.000000000000000
 21
0.0000000000000000
 31
0.0000000000000000
  7
KNJYOKO
  0
LINE
  5
5D8
100
AcDbEntity
  8
A0
  6
CONTINUOUS
 62
3
100
AcDbLine
 10
63.27683427843579
 20
305.8064814612667
 30
0.0000000000000000
 11
63.27683427844396
 21
191.3064837262433
 31
0.0000000000000000
  0
LINE
  5
5D9
100
AcDbEntity
  8
A0
  6
CONTINUOUS
 62
3
100
AcDbLine
 10
211.2768338016466
 20
191.3064837263749
 30
0.0000000000000000
 11
63.27683427844390
 21
191.3064837262436
 31
0.0000000000000000
  0
MTEXT
  5
5DA
100
AcDbEntity
  8
A0
  6
CONTINUOUS
 62
3
100
AcDbMText
 10
64.52683427845301
 20
271.3064821766934
 30
0.0000000000000000
 40
7.749999761581421
 41
0.0000000000000000
 71
     1
 72
     1
  1
{\H0.70x;{締付トルク}}
 11
1.000000000000000
 21
0.0000000000000000
 31
0.0000000000000000
  7
KNJYOKO
  0
MTEXT
  5
5DB
100
AcDbEntity
  8
A0
  6
CONTINUOUS
 62
3
100
AcDbMText
 10
64.52683427845301
 20
291.8064816998562
 30
0.0000000000000000
 40
7.749999761581421
 41
0.0000000000000000
 71
     1
 72
     1
  1
{\H0.70x;{口金の開き}}
 11
1.000000000000000
 21
0.0000000000000000
 31
0.0000000000000000
  7
KNJYOKO
  0
LINE
  5
5DC
100
AcDbEntity
  8
A0
  6
CONTINUOUS
 62
3
100
AcDbLine
 10
151.0268328479391
 20
221.3064831306669
 30
0.0000000000000000
 11
211.2768338016468
 21
221.3064831306936
 31
0.0000000000000000
  0
MTEXT
  5
5DD
100
AcDbEntity
  8
A0
  6
CONTINUOUS
 62
3
100
AcDbMText
 10
181.9978869699413
 20
250.8064826535296
 30
0.0000000000000000
 40
7.749999761581421
 41
0.0000000000000000
 71
     1
 72
     1
  1
{\H0.70x;{10KN}}
 11
1.000000000000000
 21
0.0000000000000000
 31
0.0000000000000000
  7
STANDARD
  0
MTEXT
  5
5DE
100
AcDbEntity
  8
A0
  6
CONTINUOUS
 62
3
100
AcDbMText
 10
162.2768333247787
 20
250.8064826535305
 30
0.0000000000000000
 40
7.749999761581421
 41
0.0000000000000000
 71
     1
 72
     1
  1
{\H0.67x;{0}}
 11
1.000000000000000
 21
0.0000000000000000
 31
0.0000000000000000
  7
STANDARD
  0
ENDSEC
  0
SECTION
  2
OBJECTS
  0
DICTIONARY
  5
642
100
AcDbDictionary
  3
ACAD_GROUP
350
643
  3
ACAD_MLINESTYLE
350
644
  3
DWGPROPS
350
645
  0
DICTIONARY
  5
643
102
{ACAD_REACTORS
330
642
102
}
100
AcDbDictionary
  0
DICTIONARY
  5
644
102
{ACAD_REACTORS
330
642
102
}
100
AcDbDictionary
  3
STANDARD
350
646
  0
MLINESTYLE
  5
646
102
{ACAD_REACTORS
330
644
102
}
100
AcDbMlineStyle
  2
STANDARD
 70
     0
  3

 62
   256
 51
90.00
 52
90.00
 71
     2
 49
0.50
 62
   256
  6
BYLAYER
 49
-0.50
 62
   256
  6
BYLAYER
  0
XRECORD
  5
645
102
{ACAD_REACTORS
330
642
102
}
100
AcDbXrecord
280
     1
  1
DWGPROPS COOKIE
  2
ＶＥ２００Ｌ　ガイケイ
  3

  4

  6
パワーバイス
  7

  8

  9

300
=
301
=
302
=
303
=
304
=
305
=
306
=
307
=
308
=
309
=
 40
0.000000
 41
0.000000
 42
0.000000
  1

 90
        0
  0
ENDSEC
  0
EOF
