  0
SECTION
  2
HEADER
  9
$ACADVER
  1
AC1014
  9
$DWGCODEPAGE
  3
ANSI_932
  9
$LTSCALE
 40
20.0
  9
$FILLMODE
 70
     1
  9
$CLAYER
  8
0
  9
$PDMODE
 70
     0
  9
$SPLFRAME
 70
     0
  9
$SPLINETYPE
 70
     6
  9
$SPLINESEGS
 70
     8
  9
$DIMASZ
 40
2.000000
  9
$DIMEXE
 40
0.700000
  9
$DIMEXO
 40
0.800000
  9
$DIMTAD
 70
     1
  9
$DIMTIH
 70
     0
  9
$DIMTOH
 70
     0
  9
$DIMTVP
 40
0.500000
  9
$DIMTXT
 40
3.100000
  9
$EXTMIN
 10
0.000000
 20
0.000000
 30
0.000000
  9
$EXTMAX
 10
420.000000
 20
594.000000
 30
0.000000
  9
$MEASUREMENT
 70
  1
  9
$LIMMIN
 10
0.000000
 20
0.000000
  9
$LIMMAX
 10
420.000000
 20
594.000000
  9
$HANDLING
 70
     1
  9
$HANDSEED
  5
484
  9
$DIMBLK
  1
_OPEN
  9
$DIMDEC
 70
     3
  9
$DIMAUNIT
 70
     1
  9
$DIMZIN
 70
     8
  9
$DIMTOFL
 70
     1
  0
ENDSEC
  0
SECTION
  2
CLASSES
  0
ENDSEC
  0
SECTION
  2
TABLES
  0
TABLE
  2
VPORT
  5
437
100
AcDbSymbolTable
 70
     1
  0
VPORT
  5
438
100
AcDbSymbolTableRecord
100
AcDbViewportTableRecord
  2
*ACTIVE
 70
     0
 12
327.799338
 22
265.144211
 40
771.680973
 41
1.459672
  0
ENDTAB
  0
TABLE
  2
LTYPE
  5
439
100
AcDbSymbolTable
 70
     4
  0
LTYPE
  5
43A
100
AcDbSymbolTableRecord
100
AcDbLinetypeTableRecord
  2
BYBLOCK
 70
     0
  3

 72
    65
 73
     0
 40
0.0
  0
LTYPE
  5
43B
100
AcDbSymbolTableRecord
100
AcDbLinetypeTableRecord
  2
BYLAYER
 70
     0
  3

 72
    65
 73
     0
 40
0.0
  0
LTYPE
  5
43C
100
AcDbSymbolTableRecord
100
AcDbLinetypeTableRecord
  2
CONTINUOUS
 70
     0
  3
Solid line (NEC CAE2D for Win R12.1 : 2014.02.19)
 72
    65
 73
     0
 40
0.0
  0
LTYPE
  5
43D
100
AcDbSymbolTableRecord
100
AcDbLinetypeTableRecord
  2
DASHED
 70
     0
  3
__ __ __ __ __ __ __ __ __ __ __ __ __ _
 72
    65
 73
     2
 40
0.75
 49
0.5
 74
     0
 49
-0.25
 74
     0
  0
LTYPE
  5
43E
100
AcDbSymbolTableRecord
100
AcDbLinetypeTableRecord
  2
HIDDEN
 70
     0
  3
__ __ __ __ __ __ __ __ __ __ __ __ __ __
 72
    65
 73
     2
 40
0.375
 49
0.25
 74
     0
 49
-0.125
 74
     0
  0
LTYPE
  5
43F
100
AcDbSymbolTableRecord
100
AcDbLinetypeTableRecord
  2
CENTER
 70
     0
  3
____ _ ____ _ ____ _ ____ _ ____ _ ____
 72
    65
 73
     4
 40
2.0
 49
1.25
 74
     0
 49
-0.25
 74
     0
 49
0.25
 74
     0
 49
-0.25
 74
     0
  0
ENDTAB
  0
TABLE
  2
LAYER
  5
440
100
AcDbSymbolTable
 70
     6
  0
LAYER
  5
441
100
AcDbSymbolTableRecord
100
AcDbLayerTableRecord
  2
0
 70
     0
 62
     7
  6
CONTINUOUS
  0
LAYER
  5
442
100
AcDbSymbolTableRecord
100
AcDbLayerTableRecord
  2
WAKU0
 70
     0
 62
     7
  6
CONTINUOUS
  0
LAYER
  5
443
100
AcDbSymbolTableRecord
100
AcDbLayerTableRecord
  2
WAKU1023
 70
     0
 62
    16
  6
CONTINUOUS
  0
LAYER
  5
444
100
AcDbSymbolTableRecord
100
AcDbLayerTableRecord
  2
MA0
 70
     0
 62
     7
  6
CONTINUOUS
  0
LAYER
  5
445
100
AcDbSymbolTableRecord
100
AcDbLayerTableRecord
  2
MA10
 70
     0
 62
     7
  6
CONTINUOUS
  0
LAYER
  5
446
100
AcDbSymbolTableRecord
100
AcDbLayerTableRecord
  2
MA1023
 70
     0
 62
    16
  6
CONTINUOUS
  0
ENDTAB
  0
TABLE
  2
STYLE
  5
447
100
AcDbSymbolTable
 70
     4
  0
STYLE
  5
448
100
AcDbSymbolTableRecord
100
AcDbTextStyleTableRecord
  2
STANDARD
 70
    64
 40
0.0
 41
1.0
 50
0.0
 71
     0
 42
4.649999856948853
  3
TXT
  4

  0
STYLE
  5
449
100
AcDbSymbolTableRecord
100
AcDbTextStyleTableRecord
  2
ANKTATE
 70
    68
 40
0.0
 41
1.0
 50
0.0
 71
     0
 42
4.649999856948853
  3
TXT
  4

  0
STYLE
  5
12F
100
AcDbSymbolTableRecord
100
AcDbTextStyleTableRecord
  2
KNJYOKO
 70
    64
 40
0.0
 41
1.0
 50
0.0
 71
     0
 42
4.649999856948853
  3
TXT
  4
BIGFONT
  0
STYLE
  5
44A
100
AcDbSymbolTableRecord
100
AcDbTextStyleTableRecord
  2
KNJTATE
 70
    68
 40
0.0
 41
1.0
 50
0.0
 71
     0
 42
4.649999856948853
  3
TXT
  4
BIGFONT
  0
ENDTAB
  0
TABLE
  2
VIEW
  5
44B
100
AcDbSymbolTable
 70
     0
  0
ENDTAB
  0
TABLE
  2
UCS
  5
44C
100
AcDbSymbolTable
 70
     0
  0
ENDTAB
  0
TABLE
  2
APPID
  5
44D
100
AcDbSymbolTable
 70
     1
  0
APPID
  5
44E
100
AcDbSymbolTableRecord
100
AcDbRegAppTableRecord
  2
ACAD
 70
     0
  0
ENDTAB
  0
TABLE
  2
DIMSTYLE
  5
44F
100
AcDbSymbolTable
 70
     1
  0
DIMSTYLE
105
450
100
AcDbSymbolTableRecord
100
AcDbDimStyleTableRecord
  2
STANDARD
 70
     0
 41
2.000000
 44
0.700000
 42
0.800000
145
0.661290
140
3.100000
144
1.000000
146
0.903226
340
448
  0
DIMSTYLE
105
451
100
AcDbSymbolTableRecord
100
AcDbDimStyleTableRecord
  2
WAKU001
 70
     0
 41
2.000000
 44
0.700000
 42
0.800000
145
0.661290
140
3.100000
144
1.000000
146
0.903226
 77
     1
 73
     0
 74
     0
271
     3
275
     1
 78
     8
172
     1
340
448
  0
DIMSTYLE
105
452
100
AcDbSymbolTableRecord
100
AcDbDimStyleTableRecord
  2
MA002
 70
     0
 41
3.000000
 44
1.050000
 42
1.200000
145
0.607527
140
4.650000
144
1.000000
146
0.903226
 77
     1
 73
     0
 74
     0
271
     3
275
     1
 78
     8
172
     1
340
448
  0
ENDTAB
  0
TABLE
  2
BLOCK_RECORD
  5
453
100
AcDbSymbolTable
 70
    50
  0
BLOCK_RECORD
  5
454
100
AcDbSymbolTableRecord
100
AcDbBlockTableRecord
  2
*MODEL_SPACE
  0
BLOCK_RECORD
  5
455
100
AcDbSymbolTableRecord
100
AcDbBlockTableRecord
  2
*PAPER_SPACE
  0
BLOCK_RECORD
  5
1
100
AcDbSymbolTableRecord
100
AcDbBlockTableRecord
  2
_NONE
  0
BLOCK_RECORD
  5
4
100
AcDbSymbolTableRecord
100
AcDbBlockTableRecord
  2
_CLOSED
  0
BLOCK_RECORD
  5
B
100
AcDbSymbolTableRecord
100
AcDbBlockTableRecord
  2
_DOT
  0
BLOCK_RECORD
  5
13
100
AcDbSymbolTableRecord
100
AcDbBlockTableRecord
  2
_OPEN
  0
BLOCK_RECORD
  5
19
100
AcDbSymbolTableRecord
100
AcDbBlockTableRecord
  2
_ORIGIN
  0
BLOCK_RECORD
  5
1E
100
AcDbSymbolTableRecord
100
AcDbBlockTableRecord
  2
_OPEN30
  0
BLOCK_RECORD
  5
24
100
AcDbSymbolTableRecord
100
AcDbBlockTableRecord
  2
_BOXFILLED
  0
BLOCK_RECORD
  5
29
100
AcDbSymbolTableRecord
100
AcDbBlockTableRecord
  2
_BOXBLANK
  0
BLOCK_RECORD
  5
31
100
AcDbSymbolTableRecord
100
AcDbBlockTableRecord
  2
_OBLIQUE
  0
BLOCK_RECORD
  5
35
100
AcDbSymbolTableRecord
100
AcDbBlockTableRecord
  2
_OPEN90
  0
BLOCK_RECORD
  5
3B
100
AcDbSymbolTableRecord
100
AcDbBlockTableRecord
  2
_CLOSEDBLANK
  0
BLOCK_RECORD
  5
41
100
AcDbSymbolTableRecord
100
AcDbBlockTableRecord
  2
_DOTBLANK
  0
BLOCK_RECORD
  5
456
100
AcDbSymbolTableRecord
100
AcDbBlockTableRecord
  2
*D0
  0
BLOCK_RECORD
  5
457
100
AcDbSymbolTableRecord
100
AcDbBlockTableRecord
  2
*D1
  0
BLOCK_RECORD
  5
458
100
AcDbSymbolTableRecord
100
AcDbBlockTableRecord
  2
*D2
  0
BLOCK_RECORD
  5
459
100
AcDbSymbolTableRecord
100
AcDbBlockTableRecord
  2
*D3
  0
BLOCK_RECORD
  5
45A
100
AcDbSymbolTableRecord
100
AcDbBlockTableRecord
  2
*D4
  0
BLOCK_RECORD
  5
45B
100
AcDbSymbolTableRecord
100
AcDbBlockTableRecord
  2
*D5
  0
BLOCK_RECORD
  5
45C
100
AcDbSymbolTableRecord
100
AcDbBlockTableRecord
  2
*D6
  0
BLOCK_RECORD
  5
45D
100
AcDbSymbolTableRecord
100
AcDbBlockTableRecord
  2
*D7
  0
BLOCK_RECORD
  5
45E
100
AcDbSymbolTableRecord
100
AcDbBlockTableRecord
  2
*D8
  0
BLOCK_RECORD
  5
45F
100
AcDbSymbolTableRecord
100
AcDbBlockTableRecord
  2
*D9
  0
BLOCK_RECORD
  5
460
100
AcDbSymbolTableRecord
100
AcDbBlockTableRecord
  2
*D10
  0
BLOCK_RECORD
  5
461
100
AcDbSymbolTableRecord
100
AcDbBlockTableRecord
  2
*D11
  0
BLOCK_RECORD
  5
462
100
AcDbSymbolTableRecord
100
AcDbBlockTableRecord
  2
*D12
  0
BLOCK_RECORD
  5
463
100
AcDbSymbolTableRecord
100
AcDbBlockTableRecord
  2
*D13
  0
BLOCK_RECORD
  5
464
100
AcDbSymbolTableRecord
100
AcDbBlockTableRecord
  2
*D14
  0
BLOCK_RECORD
  5
465
100
AcDbSymbolTableRecord
100
AcDbBlockTableRecord
  2
*D15
  0
BLOCK_RECORD
  5
466
100
AcDbSymbolTableRecord
100
AcDbBlockTableRecord
  2
*D16
  0
BLOCK_RECORD
  5
467
100
AcDbSymbolTableRecord
100
AcDbBlockTableRecord
  2
*D17
  0
BLOCK_RECORD
  5
468
100
AcDbSymbolTableRecord
100
AcDbBlockTableRecord
  2
*D18
  0
BLOCK_RECORD
  5
469
100
AcDbSymbolTableRecord
100
AcDbBlockTableRecord
  2
*D19
  0
BLOCK_RECORD
  5
46A
100
AcDbSymbolTableRecord
100
AcDbBlockTableRecord
  2
*D20
  0
BLOCK_RECORD
  5
46B
100
AcDbSymbolTableRecord
100
AcDbBlockTableRecord
  2
*D21
  0
BLOCK_RECORD
  5
46C
100
AcDbSymbolTableRecord
100
AcDbBlockTableRecord
  2
*D22
  0
BLOCK_RECORD
  5
46D
100
AcDbSymbolTableRecord
100
AcDbBlockTableRecord
  2
*D23
  0
BLOCK_RECORD
  5
46E
100
AcDbSymbolTableRecord
100
AcDbBlockTableRecord
  2
*D24
  0
BLOCK_RECORD
  5
46F
100
AcDbSymbolTableRecord
100
AcDbBlockTableRecord
  2
*D25
  0
BLOCK_RECORD
  5
470
100
AcDbSymbolTableRecord
100
AcDbBlockTableRecord
  2
*D26
  0
BLOCK_RECORD
  5
471
100
AcDbSymbolTableRecord
100
AcDbBlockTableRecord
  2
*D27
  0
BLOCK_RECORD
  5
472
100
AcDbSymbolTableRecord
100
AcDbBlockTableRecord
  2
*D28
  0
BLOCK_RECORD
  5
473
100
AcDbSymbolTableRecord
100
AcDbBlockTableRecord
  2
*D29
  0
BLOCK_RECORD
  5
474
100
AcDbSymbolTableRecord
100
AcDbBlockTableRecord
  2
*D30
  0
BLOCK_RECORD
  5
475
100
AcDbSymbolTableRecord
100
AcDbBlockTableRecord
  2
*D31
  0
BLOCK_RECORD
  5
476
100
AcDbSymbolTableRecord
100
AcDbBlockTableRecord
  2
*D32
  0
BLOCK_RECORD
  5
477
100
AcDbSymbolTableRecord
100
AcDbBlockTableRecord
  2
*D33
  0
BLOCK_RECORD
  5
478
100
AcDbSymbolTableRecord
100
AcDbBlockTableRecord
  2
*D34
  0
BLOCK_RECORD
  5
479
100
AcDbSymbolTableRecord
100
AcDbBlockTableRecord
  2
M0
  0
BLOCK_RECORD
  5
47A
100
AcDbSymbolTableRecord
100
AcDbBlockTableRecord
  2
M1
  0
BLOCK_RECORD
  5
47B
100
AcDbSymbolTableRecord
100
AcDbBlockTableRecord
  2
M2
  0
ENDTAB
  0
ENDSEC
  0
SECTION
  2
BLOCKS
  0
BLOCK
  5
47C
100
AcDbEntity
  8
0
100
AcDbBlockBegin
  2
*MODEL_SPACE
 70
     0
 10
0.0
 20
0.0
 30
0.0
  3
*MODEL_SPACE
  1

  0
ENDBLK
  5
47D
100
AcDbEntity
  8
0
100
AcDbBlockEnd
  0
BLOCK
  5
47E
100
AcDbEntity
  8
0
100
AcDbBlockBegin
  2
*PAPER_SPACE
 70
     0
 10
0.0
 20
0.0
 30
0.0
  3
*PAPER_SPACE
  1

  0
ENDBLK
  5
47F
100
AcDbEntity
  8
0
100
AcDbBlockEnd
  0
BLOCK
  5
2
100
AcDbEntity
  8
0
100
AcDbBlockBegin
  2
_NONE
 70
     0
 10
0.0
 20
0.0
 30
0.0
  3
_NONE
  1

  0
ENDBLK
  5
3
100
AcDbEntity
  8
0
100
AcDbBlockEnd
  0
BLOCK
  5
5
100
AcDbEntity
  8
0
100
AcDbBlockBegin
  2
_CLOSED
 70
     0
 10
0.0
 20
0.0
 30
0.0
  3
_CLOSED
  1

  0
LINE
  5
6
100
AcDbEntity
  8
0
  6
BYBLOCK
 62
     0
100
AcDbLine
 10
-1.0
 20
0.166667
 30
0.0
 11
0.0
 21
0.0
 31
0.0
  0
LINE
  5
7
100
AcDbEntity
  8
0
  6
BYBLOCK
 62
     0
100
AcDbLine
 10
0.0
 20
0.0
 30
0.0
 11
-1.0
 21
-0.166667
 31
0.0
  0
LINE
  5
8
100
AcDbEntity
  8
0
  6
BYBLOCK
 62
     0
100
AcDbLine
 10
-1.0
 20
0.166667
 30
0.0
 11
-1.0
 21
-0.166667
 31
0.0
  0
LINE
  5
9
100
AcDbEntity
  8
0
  6
BYBLOCK
 62
     0
100
AcDbLine
 10
0.0
 20
0.0
 30
0.0
 11
-1.0
 21
0.0
 31
0.0
  0
ENDBLK
  5
A
100
AcDbEntity
  8
0
100
AcDbBlockEnd
  0
BLOCK
  5
C
100
AcDbEntity
  8
0
100
AcDbBlockBegin
  2
_DOT
 70
     0
 10
0.0
 20
0.0
 30
0.0
  3
_DOT
  1

  0
POLYLINE
  5
D
100
AcDbEntity
  8
0
  6
BYBLOCK
 62
     0
100
AcDb2dPolyline
 66
     1
 10
0.0
 20
0.0
 30
0.0
 70
     1
 40
0.5
 41
0.5
  0
VERTEX
  5
E
100
AcDbEntity
  8
0
  6
BYBLOCK
 62
     0
100
AcDbVertex
100
AcDb2dVertex
 10
-0.25
 20
0.0
 30
0.0
 42
1.0
  0
VERTEX
  5
F
100
AcDbEntity
  8
0
  6
BYBLOCK
 62
     0
100
AcDbVertex
100
AcDb2dVertex
 10
0.25
 20
0.0
 30
0.0
 42
1.0
  0
SEQEND
  5
10
100
AcDbEntity
  8
0
  6
BYBLOCK
 62
     0
  0
LINE
  5
11
100
AcDbEntity
  8
0
  6
BYBLOCK
 62
     0
100
AcDbLine
 10
-0.5
 20
0.0
 30
0.0
 11
-1.0
 21
0.0
 31
0.0
  0
ENDBLK
  5
12
100
AcDbEntity
  8
0
100
AcDbBlockEnd
  0
BLOCK
  5
14
100
AcDbEntity
  8
0
100
AcDbBlockBegin
  2
_OPEN
 70
     0
 10
0.0
 20
0.0
 30
0.0
  3
_OPEN
  1

  0
LINE
  5
15
100
AcDbEntity
  8
0
  6
BYBLOCK
 62
     0
100
AcDbLine
 10
-1.0
 20
0.166667
 30
0.0
 11
0.0
 21
0.0
 31
0.0
  0
LINE
  5
16
100
AcDbEntity
  8
0
  6
BYBLOCK
 62
     0
100
AcDbLine
 10
0.0
 20
0.0
 30
0.0
 11
-1.0
 21
-0.166667
 31
0.0
  0
LINE
  5
17
100
AcDbEntity
  8
0
  6
BYBLOCK
 62
     0
100
AcDbLine
 10
0.0
 20
0.0
 30
0.0
 11
-1.0
 21
0.0
 31
0.0
  0
ENDBLK
  5
18
100
AcDbEntity
  8
0
100
AcDbBlockEnd
  0
BLOCK
  5
1A
100
AcDbEntity
  8
0
100
AcDbBlockBegin
  2
_ORIGIN
 70
     0
 10
0.0
 20
0.0
 30
0.0
  3
_ORIGIN
  1

  0
CIRCLE
  5
1B
100
AcDbEntity
  8
0
  6
BYBLOCK
 62
     0
100
AcDbCircle
 10
0.0
 20
0.0
 30
0.0
 40
0.5
  0
LINE
  5
1C
100
AcDbEntity
  8
0
  6
BYBLOCK
 62
     0
100
AcDbLine
 10
0.0
 20
0.0
 30
0.0
 11
-1.0
 21
0.0
 31
0.0
  0
ENDBLK
  5
1D
100
AcDbEntity
  8
0
100
AcDbBlockEnd
  0
BLOCK
  5
1F
100
AcDbEntity
  8
0
100
AcDbBlockBegin
  2
_OPEN30
 70
     0
 10
0.0
 20
0.0
 30
0.0
  3
_OPEN30
  1

  0
LINE
  5
20
100
AcDbEntity
  8
0
  6
BYBLOCK
 62
     0
100
AcDbLine
 10
-1.0
 20
0.267949
 30
0.0
 11
0.0
 21
0.0
 31
0.0
  0
LINE
  5
21
100
AcDbEntity
  8
0
  6
BYBLOCK
 62
     0
100
AcDbLine
 10
0.0
 20
0.0
 30
0.0
 11
-1.0
 21
-0.267949
 31
0.0
  0
LINE
  5
22
100
AcDbEntity
  8
0
  6
BYBLOCK
 62
     0
100
AcDbLine
 10
0.0
 20
0.0
 30
0.0
 11
-1.0
 21
0.0
 31
0.0
  0
ENDBLK
  5
23
100
AcDbEntity
  8
0
100
AcDbBlockEnd
  0
BLOCK
  5
25
100
AcDbEntity
  8
0
100
AcDbBlockBegin
  2
_BOXFILLED
 70
     0
 10
0.0
 20
0.0
 30
0.0
  3
_BOXFILLED
  1

  0
SOLID
  5
26
100
AcDbEntity
  8
0
  6
BYBLOCK
 62
     0
100
AcDbTrace
 10
-0.5
 20
0.5
 30
0.0
 11
0.5
 21
0.5
 31
0.0
 12
-0.5
 22
-0.5
 32
0.0
 13
0.5
 23
-0.5
 33
0.0
  0
LINE
  5
27
100
AcDbEntity
  8
0
  6
BYBLOCK
 62
     0
100
AcDbLine
 10
-0.5
 20
0.0
 30
0.0
 11
-1.0
 21
0.0
 31
0.0
  0
ENDBLK
  5
28
100
AcDbEntity
  8
0
100
AcDbBlockEnd
  0
BLOCK
  5
2A
100
AcDbEntity
  8
0
100
AcDbBlockBegin
  2
_BOXBLANK
 70
     0
 10
0.0
 20
0.0
 30
0.0
  3
_BOXBLANK
  1

  0
LINE
  5
2B
100
AcDbEntity
  8
0
  6
BYBLOCK
 62
     0
100
AcDbLine
 10
-0.5
 20
-0.5
 30
0.0
 11
0.5
 21
-0.5
 31
0.0
  0
LINE
  5
2C
100
AcDbEntity
  8
0
  6
BYBLOCK
 62
     0
100
AcDbLine
 10
0.5
 20
-0.5
 30
0.0
 11
0.5
 21
0.5
 31
0.0
  0
LINE
  5
2D
100
AcDbEntity
  8
0
  6
BYBLOCK
 62
     0
100
AcDbLine
 10
0.5
 20
0.5
 30
0.0
 11
-0.5
 21
0.5
 31
0.0
  0
LINE
  5
2E
100
AcDbEntity
  8
0
  6
BYBLOCK
 62
     0
100
AcDbLine
 10
-0.5
 20
0.5
 30
0.0
 11
-0.5
 21
-0.5
 31
0.0
  0
LINE
  5
2F
100
AcDbEntity
  8
0
  6
BYBLOCK
 62
     0
100
AcDbLine
 10
-0.5
 20
0.0
 30
0.0
 11
-1.0
 21
0.0
 31
0.0
  0
ENDBLK
  5
30
100
AcDbEntity
  8
0
100
AcDbBlockEnd
  0
BLOCK
  5
32
100
AcDbEntity
  8
0
100
AcDbBlockBegin
  2
_OBLIQUE
 70
     0
 10
0.0
 20
0.0
 30
0.0
  3
_OBLIQUE
  1

  0
LINE
  5
33
100
AcDbEntity
  8
0
  6
BYBLOCK
 62
     0
100
AcDbLine
 10
-0.5
 20
-0.5
 30
0.0
 11
0.5
 21
0.5
 31
0.0
  0
ENDBLK
  5
34
100
AcDbEntity
  8
0
100
AcDbBlockEnd
  0
BLOCK
  5
36
100
AcDbEntity
  8
0
100
AcDbBlockBegin
  2
_OPEN90
 70
     0
 10
0.0
 20
0.0
 30
0.0
  3
_OPEN90
  1

  0
LINE
  5
37
100
AcDbEntity
  8
0
  6
BYBLOCK
 62
     0
100
AcDbLine
 10
-0.5
 20
0.5
 30
0.0
 11
0.0
 21
0.0
 31
0.0
  0
LINE
  5
38
100
AcDbEntity
  8
0
  6
BYBLOCK
 62
     0
100
AcDbLine
 10
0.0
 20
0.0
 30
0.0
 11
-0.5
 21
-0.5
 31
0.0
  0
LINE
  5
39
100
AcDbEntity
  8
0
  6
BYBLOCK
 62
     0
100
AcDbLine
 10
0.0
 20
0.0
 30
0.0
 11
-1.0
 21
0.0
 31
0.0
  0
ENDBLK
  5
3A
100
AcDbEntity
  8
0
100
AcDbBlockEnd
  0
BLOCK
  5
3C
100
AcDbEntity
  8
0
100
AcDbBlockBegin
  2
_CLOSEDBLANK
 70
     0
 10
0.0
 20
0.0
 30
0.0
  3
_CLOSEDBLANK
  1

  0
LINE
  5
3D
100
AcDbEntity
  8
0
  6
BYBLOCK
 62
     0
100
AcDbLine
 10
-1.0
 20
0.1666666666666666
 30
0.0
 11
0.0
 21
0.0
 31
0.0
  0
LINE
  5
3E
100
AcDbEntity
  8
0
  6
BYBLOCK
 62
     0
100
AcDbLine
 10
0.0
 20
0.0
 30
0.0
 11
-1.0
 21
-0.1666666666666666
 31
0.0
  0
LINE
  5
3F
100
AcDbEntity
  8
0
  6
BYBLOCK
 62
     0
100
AcDbLine
 10
-1.0
 20
0.1666666666666666
 30
0.0
 11
-1.0
 21
-0.1666666666666666
 31
0.0
  0
ENDBLK
  5
40
100
AcDbEntity
  8
0
100
AcDbBlockEnd
  0
BLOCK
  5
42
100
AcDbEntity
  8
0
100
AcDbBlockBegin
  2
_DOTBLANK
 70
     0
 10
0.0
 20
0.0
 30
0.0
  3
_DOTBLANK
  1

  0
CIRCLE
  5
43
100
AcDbEntity
  8
0
  6
BYBLOCK
 62
     0
100
AcDbCircle
 10
0.0
 20
0.0
 30
0.0
 40
0.5
  0
LINE
  5
44
100
AcDbEntity
  8
0
  6
BYBLOCK
 62
     0
100
AcDbLine
 10
-0.5
 20
0.0
 30
0.0
 11
-1.0
 21
0.0
 31
0.0
  0
ENDBLK
  5
45
100
AcDbEntity
  8
0
100
AcDbBlockEnd
  0
BLOCK
  5
114
100
AcDbEntity
  8
MA10
  6
CONTINUOUS
 62
12
100
AcDbBlockBegin
  2
*D0
 70
    65
 10
0.0
 20
0.0
 30
0.0
  0
LINE
  5
115
100
AcDbEntity
  8
MA10
  6
BYBLOCK
 62
0
100
AcDbLine
 10
627.8530771784665
 20
592.1224955686337
 30
0.0000000000000000
 11
627.8530771784665
 21
608.3724955686338
 31
0.0000000000000000
  0
LINE
  5
116
100
AcDbEntity
  8
MA10
  6
BYBLOCK
 62
0
100
AcDbLine
 10
629.7637493662717
 20
606.3724955686338
 30
0.0000000000000000
 11
675.9424049906613
 21
606.3724955686338
 31
0.0000000000000000
  0
INSERT
  5
117
100
AcDbEntity
  8
MA10
  6
BYBLOCK
 62
0
100
AcDbBlockReference
  2
_OPEN
 10
627.8530771784665
 20
606.3724955686338
 30
0.0000000000000000
 41
2.866008281707764
 42
2.866008281707764
 43
2.866008281707764
 50
180.0000000000000
  0
INSERT
  5
118
100
AcDbEntity
  8
MA10
  6
BYBLOCK
 62
0
100
AcDbBlockReference
  2
_OPEN
 10
677.8530771784665
 20
606.3724955686338
 30
0.0000000000000000
 41
2.866008281707764
 42
2.866008281707764
 43
2.866008281707764
 50
0.0000000000000000
  0
LINE
  5
119
100
AcDbEntity
  8
MA10
  6
BYBLOCK
 62
0
100
AcDbLine
 10
677.8530771784665
 20
592.1224955686337
 30
0.0000000000000000
 11
677.8530771784665
 21
608.3724955686338
 31
0.0000000000000000
  0
MTEXT
  5
11A
100
AcDbEntity
  8
MA10
  6
BYBLOCK
 62
0
100
AcDbMText
 10
647.0189135170458
 20
609.4474958547361
 30
0.0000000000000000
 40
4.650000572204590
 41
0.0000000000000000
 71
     5
 72
     1
  1
\A1;50
 11
1.000000000000000
 21
0.0000000000000000
 31
0.0000000000000000
  7
STANDARD
  0
ENDBLK
  5
11B
100
AcDbEntity
  8
MA10
  6
CONTINUOUS
 62
12
100
AcDbBlockEnd
  0
BLOCK
  5
11D
100
AcDbEntity
  8
MA10
  6
CONTINUOUS
 62
3
100
AcDbBlockBegin
  2
*D1
 70
    65
 10
0.0
 20
0.0
 30
0.0
  0
LINE
  5
11E
100
AcDbEntity
  8
MA10
  6
BYBLOCK
 62
0
100
AcDbLine
 10
206.8408379365611
 20
591.8724955686337
 30
0.0000000000000000
 11
42.04083795444245
 21
591.8724955686337
 31
0.0000000000000000
  0
LINE
  5
11F
100
AcDbEntity
  8
MA10
  6
BYBLOCK
 62
0
100
AcDbLine
 10
44.04083795444245
 20
589.8724955686337
 30
0.0000000000000000
 11
44.04083795444245
 21
212.8724955686338
 31
0.0000000000000000
  0
INSERT
  5
120
100
AcDbEntity
  8
MA10
  6
BYBLOCK
 62
0
100
AcDbBlockReference
  2
_OPEN
 10
44.04083795444245
 20
591.8724955686337
 30
0.0000000000000000
 41
3.000000000000000
 42
3.000000000000000
 43
3.000000000000000
 50
90.00000000000000
  0
INSERT
  5
121
100
AcDbEntity
  8
MA10
  6
BYBLOCK
 62
0
100
AcDbBlockReference
  2
_OPEN
 10
44.04083795444245
 20
210.8724955686338
 30
0.0000000000000000
 41
3.000000000000000
 42
3.000000000000000
 43
3.000000000000000
 50
270.0000000000000
  0
LINE
  5
122
100
AcDbEntity
  8
MA10
  6
BYBLOCK
 62
0
100
AcDbLine
 10
206.8408379365610
 20
210.8724955686338
 30
0.0000000000000000
 11
42.04083795444245
 21
210.8724955686338
 31
0.0000000000000000
  0
MTEXT
  5
123
100
AcDbEntity
  8
MA10
  6
BYBLOCK
 62
0
100
AcDbMText
 10
41.21583802596803
 20
401.3724955686337
 30
0.0000000000000000
 40
4.649999856948853
 41
0.0000000000000000
 71
     5
 72
     1
  1
\A1;\U+2205381
 11
6.123233995736766e-017
 21
1.000000000000000
 31
0.0000000000000000
  7
STANDARD
  0
ENDBLK
  5
124
100
AcDbEntity
  8
MA10
  6
CONTINUOUS
 62
3
100
AcDbBlockEnd
  0
BLOCK
  5
126
100
AcDbEntity
  8
MA10
  6
CONTINUOUS
 62
3
100
AcDbBlockBegin
  2
*D2
 70
    65
 10
0.0
 20
0.0
 30
0.0
  0
LINE
  5
127
100
AcDbEntity
  8
MA10
  6
BYBLOCK
 62
0
100
AcDbLine
 10
203.8408379365611
 20
551.3724955686337
 30
0.0000000000000000
 11
62.04083795444245
 21
551.3724955686337
 31
0.0000000000000000
  0
LINE
  5
128
100
AcDbEntity
  8
MA10
  6
BYBLOCK
 62
0
100
AcDbLine
 10
64.04083795444242
 20
549.3724955686337
 30
0.0000000000000000
 11
64.04083795444242
 21
253.3724955686338
 31
0.0000000000000000
  0
INSERT
  5
129
100
AcDbEntity
  8
MA10
  6
BYBLOCK
 62
0
100
AcDbBlockReference
  2
_OPEN
 10
64.04083795444242
 20
551.3724955686337
 30
0.0000000000000000
 41
3.000000000000000
 42
3.000000000000000
 43
3.000000000000000
 50
90.00000000000000
  0
INSERT
  5
12A
100
AcDbEntity
  8
MA10
  6
BYBLOCK
 62
0
100
AcDbBlockReference
  2
_OPEN
 10
64.04083795444242
 20
251.3724955686338
 30
0.0000000000000000
 41
3.000000000000000
 42
3.000000000000000
 43
3.000000000000000
 50
270.0000000000000
  0
LINE
  5
12B
100
AcDbEntity
  8
MA10
  6
BYBLOCK
 62
0
100
AcDbLine
 10
203.8408379365610
 20
251.3724955686338
 30
0.0000000000000000
 11
62.04083795444245
 21
251.3724955686338
 31
0.0000000000000000
  0
MTEXT
  5
12C
100
AcDbEntity
  8
MA10
  6
BYBLOCK
 62
0
100
AcDbMText
 10
61.21583802596803
 20
401.3724955500073
 30
0.0000000000000000
 40
4.649999856948853
 41
0.0000000000000000
 71
     5
 72
     1
  1
\A1;\U+2205300H6\H0.903226x;\S＋0.032^ 　0;
 11
6.123233995736766e-017
 21
1.000000000000000
 31
0.0000000000000000
  7
KNJYOKO
  0
ENDBLK
  5
12D
100
AcDbEntity
  8
MA10
  6
CONTINUOUS
 62
3
100
AcDbBlockEnd
  0
BLOCK
  5
130
100
AcDbEntity
  8
MA10
  6
CONTINUOUS
 62
3
100
AcDbBlockBegin
  2
*D3
 70
    65
 10
0.0
 20
0.0
 30
0.0
  0
LINE
  5
131
100
AcDbEntity
  8
MA10
  6
BYBLOCK
 62
0
100
AcDbLine
 10
209.0408379544425
 20
466.3724955686338
 30
0.0000000000000000
 11
144.0408379544424
 21
466.3724955686338
 31
0.0000000000000000
  0
INSERT
  5
132
100
AcDbEntity
  8
MA10
  6
BYBLOCK
 62
0
100
AcDbBlockReference
  2
_OPEN
 10
211.0408379544425
 20
466.3724955686338
 30
0.0000000000000000
 41
3.000000000000000
 42
3.000000000000000
 43
3.000000000000000
 50
360.0000000000000
  0
INSERT
  5
133
100
AcDbEntity
  8
MA10
  6
BYBLOCK
 62
0
100
AcDbBlockReference
  2
_OPEN
 10
142.0408379544424
 20
466.3724955686338
 30
0.0000000000000000
 41
3.000000000000000
 42
3.000000000000000
 43
3.000000000000000
 50
180.0000000000000
  0
LINE
  5
134
100
AcDbEntity
  8
MA10
  6
BYBLOCK
 62
0
100
AcDbLine
 10
142.0408379544424
 20
428.0724955865151
 30
0.0000000000000000
 11
142.0408379544424
 21
468.3724955686338
 31
0.0000000000000000
  0
MTEXT
  5
135
100
AcDbEntity
  8
MA10
  6
BYBLOCK
 62
0
100
AcDbMText
 10
176.5408379544425
 20
469.1974954971082
 30
0.0000000000000000
 40
4.649999856948853
 41
0.0000000000000000
 71
     5
 72
     1
  1
\A1;MIN  69
 11
1.000000000000000
 21
0.0000000000000000
 31
0.0000000000000000
  7
STANDARD
  0
ENDBLK
  5
136
100
AcDbEntity
  8
MA10
  6
CONTINUOUS
 62
3
100
AcDbBlockEnd
  0
BLOCK
  5
138
100
AcDbEntity
  8
MA10
  6
CONTINUOUS
 62
3
100
AcDbBlockBegin
  2
*D4
 70
    65
 10
0.0
 20
0.0
 30
0.0
  0
LINE
  5
139
100
AcDbEntity
  8
MA10
  6
BYBLOCK
 62
0
100
AcDbLine
 10
142.0408379544424
 20
428.0724955865151
 30
0.0000000000000000
 11
142.0408379544424
 21
468.3724955686338
 31
0.0000000000000000
  0
LINE
  5
13A
100
AcDbEntity
  8
MA10
  6
BYBLOCK
 62
0
100
AcDbLine
 10
140.0408379544424
 20
466.3724955686338
 30
0.0000000000000000
 11
89.04083795444248
 21
466.3724955686338
 31
0.0000000000000000
  0
INSERT
  5
13B
100
AcDbEntity
  8
MA10
  6
BYBLOCK
 62
0
100
AcDbBlockReference
  2
_OPEN
 10
142.0408379544424
 20
466.3724955686338
 30
0.0000000000000000
 41
3.000000000000000
 42
3.000000000000000
 43
3.000000000000000
 50
360.0000000000000
  0
INSERT
  5
13C
100
AcDbEntity
  8
MA10
  6
BYBLOCK
 62
0
100
AcDbBlockReference
  2
_OPEN
 10
87.04083795444248
 20
466.3724955686338
 30
0.0000000000000000
 41
3.000000000000000
 42
3.000000000000000
 43
3.000000000000000
 50
180.0000000000000
  0
LINE
  5
13D
100
AcDbEntity
  8
MA10
  6
BYBLOCK
 62
0
100
AcDbLine
 10
87.04083795444248
 20
415.5724955865152
 30
0.0000000000000000
 11
87.04083795444248
 21
468.3724955686338
 31
0.0000000000000000
  0
MTEXT
  5
13E
100
AcDbEntity
  8
MA10
  6
BYBLOCK
 62
0
100
AcDbMText
 10
114.5408379544425
 20
469.1974954971082
 30
0.0000000000000000
 40
4.649999856948853
 41
0.0000000000000000
 71
     5
 72
     1
  1
\A1;55
 11
1.000000000000000
 21
0.0000000000000000
 31
0.0000000000000000
  7
STANDARD
  0
ENDBLK
  5
13F
100
AcDbEntity
  8
MA10
  6
CONTINUOUS
 62
3
100
AcDbBlockEnd
  0
BLOCK
  5
141
100
AcDbEntity
  8
MA10
  6
CONTINUOUS
 62
3
100
AcDbBlockBegin
  2
*D5
 70
    65
 10
0.0
 20
0.0
 30
0.0
  0
LINE
  5
142
100
AcDbEntity
  8
MA10
  6
BYBLOCK
 62
0
100
AcDbLine
 10
177.0408379544424
 20
431.5724955865149
 30
0.0000000000000000
 11
177.0408379544424
 21
448.3724955686337
 31
0.0000000000000000
  0
LINE
  5
143
100
AcDbEntity
  8
MA10
  6
BYBLOCK
 62
0
100
AcDbLine
 10
175.0408379544424
 20
446.3724955686337
 30
0.0000000000000000
 11
144.0408379544424
 21
446.3724955686337
 31
0.0000000000000000
  0
INSERT
  5
144
100
AcDbEntity
  8
MA10
  6
BYBLOCK
 62
0
100
AcDbBlockReference
  2
_OPEN
 10
177.0408379544424
 20
446.3724955686337
 30
0.0000000000000000
 41
3.000000000000000
 42
3.000000000000000
 43
3.000000000000000
 50
360.0000000000000
  0
INSERT
  5
145
100
AcDbEntity
  8
MA10
  6
BYBLOCK
 62
0
100
AcDbBlockReference
  2
_OPEN
 10
142.0408379544424
 20
446.3724955686337
 30
0.0000000000000000
 41
3.000000000000000
 42
3.000000000000000
 43
3.000000000000000
 50
180.0000000000000
  0
LINE
  5
146
100
AcDbEntity
  8
MA10
  6
BYBLOCK
 62
0
100
AcDbLine
 10
142.0408379544424
 20
428.0724955865151
 30
0.0000000000000000
 11
142.0408379544424
 21
448.3724955686337
 31
0.0000000000000000
  0
MTEXT
  5
147
100
AcDbEntity
  8
MA10
  6
BYBLOCK
 62
0
100
AcDbMText
 10
159.5408379544424
 20
449.1974954971082
 30
0.0000000000000000
 40
4.649999856948853
 41
0.0000000000000000
 71
     5
 72
     1
  1
\A1;35
 11
1.000000000000000
 21
0.0000000000000000
 31
0.0000000000000000
  7
STANDARD
  0
ENDBLK
  5
148
100
AcDbEntity
  8
MA10
  6
CONTINUOUS
 62
3
100
AcDbBlockEnd
  0
BLOCK
  5
14A
100
AcDbEntity
  8
MA10
  6
CONTINUOUS
 62
3
100
AcDbBlockBegin
  2
*D6
 70
    65
 10
0.0
 20
0.0
 30
0.0
  0
LINE
  5
14B
100
AcDbEntity
  8
MA10
  6
BYBLOCK
 62
0
100
AcDbLine
 10
279.0408379544425
 20
412.8724955686337
 30
0.0000000000000000
 11
279.0408379544425
 21
389.8724955686337
 31
0.0000000000000000
  0
INSERT
  5
14C
100
AcDbEntity
  8
MA10
  6
BYBLOCK
 62
0
100
AcDbBlockReference
  2
_OPEN
 10
279.0408379544425
 20
414.8724955686337
 30
0.0000000000000000
 41
3.000000000000000
 42
3.000000000000000
 43
3.000000000000000
 50
90.00000000000000
  0
INSERT
  5
14D
100
AcDbEntity
  8
MA10
  6
BYBLOCK
 62
0
100
AcDbBlockReference
  2
_OPEN
 10
279.0408379544425
 20
387.8724955686337
 30
0.0000000000000000
 41
3.000000000000000
 42
3.000000000000000
 43
3.000000000000000
 50
270.0000000000000
  0
MTEXT
  5
14E
100
AcDbEntity
  8
MA10
  6
BYBLOCK
 62
0
100
AcDbMText
 10
276.2158380259680
 20
401.3724955686337
 30
0.0000000000000000
 40
4.649999856948853
 41
0.0000000000000000
 71
     5
 72
     1
  1
\A1;\U+220527
 11
6.123233995736766e-017
 21
1.000000000000000
 31
0.0000000000000000
  7
STANDARD
  0
ENDBLK
  5
14F
100
AcDbEntity
  8
MA10
  6
CONTINUOUS
 62
3
100
AcDbBlockEnd
  0
BLOCK
  5
151
100
AcDbEntity
  8
MA10
  6
CONTINUOUS
 62
3
100
AcDbBlockBegin
  2
*D7
 70
    65
 10
0.0
 20
0.0
 30
0.0
  0
LINE
  5
152
100
AcDbEntity
  8
MA10
  6
BYBLOCK
 62
0
100
AcDbLine
 10
224.0408379544425
 20
438.3724955686337
 30
0.0000000000000000
 11
224.0408379544425
 21
364.3724955686338
 31
0.0000000000000000
  0
INSERT
  5
153
100
AcDbEntity
  8
MA10
  6
BYBLOCK
 62
0
100
AcDbBlockReference
  2
_OPEN
 10
224.0408379544425
 20
440.3724955686337
 30
0.0000000000000000
 41
3.000000000000000
 42
3.000000000000000
 43
3.000000000000000
 50
90.00000000000000
  0
INSERT
  5
154
100
AcDbEntity
  8
MA10
  6
BYBLOCK
 62
0
100
AcDbBlockReference
  2
_OPEN
 10
224.0408379544425
 20
362.3724955686338
 30
0.0000000000000000
 41
3.000000000000000
 42
3.000000000000000
 43
3.000000000000000
 50
270.0000000000000
  0
MTEXT
  5
155
100
AcDbEntity
  8
MA10
  6
BYBLOCK
 62
0
100
AcDbMText
 10
221.2158380259680
 20
401.3724955686337
 30
0.0000000000000000
 40
4.649999856948853
 41
0.0000000000000000
 71
     5
 72
     1
  1
\A1;\U+220578
 11
6.123233995736766e-017
 21
1.000000000000000
 31
0.0000000000000000
  7
STANDARD
  0
ENDBLK
  5
156
100
AcDbEntity
  8
MA10
  6
CONTINUOUS
 62
3
100
AcDbBlockEnd
  0
BLOCK
  5
158
100
AcDbEntity
  8
MA10
  6
CONTINUOUS
 62
3
100
AcDbBlockBegin
  2
*D8
 70
    65
 10
0.0
 20
0.0
 30
0.0
  0
LINE
  5
159
100
AcDbEntity
  8
MA10
  6
BYBLOCK
 62
0
100
AcDbLine
 10
199.0408379544425
 20
429.3724955686336
 30
0.0000000000000000
 11
199.0408379544425
 21
373.3724955686337
 31
0.0000000000000000
  0
INSERT
  5
15A
100
AcDbEntity
  8
MA10
  6
BYBLOCK
 62
0
100
AcDbBlockReference
  2
_OPEN
 10
199.0408379544425
 20
431.3724955686336
 30
0.0000000000000000
 41
3.000000000000000
 42
3.000000000000000
 43
3.000000000000000
 50
90.00000000000000
  0
INSERT
  5
15B
100
AcDbEntity
  8
MA10
  6
BYBLOCK
 62
0
100
AcDbBlockReference
  2
_OPEN
 10
199.0408379544425
 20
371.3724955686337
 30
0.0000000000000000
 41
3.000000000000000
 42
3.000000000000000
 43
3.000000000000000
 50
270.0000000000000
  0
MTEXT
  5
15C
100
AcDbEntity
  8
MA10
  6
BYBLOCK
 62
0
100
AcDbMText
 10
196.2158380259680
 20
401.3724955686337
 30
0.0000000000000000
 40
4.649999856948853
 41
0.0000000000000000
 71
     5
 72
     1
  1
\A1;\U+220560
 11
6.123233995736766e-017
 21
1.000000000000000
 31
0.0000000000000000
  7
STANDARD
  0
ENDBLK
  5
15D
100
AcDbEntity
  8
MA10
  6
CONTINUOUS
 62
3
100
AcDbBlockEnd
  0
BLOCK
  5
15F
100
AcDbEntity
  8
MA10
  6
CONTINUOUS
 62
3
100
AcDbBlockBegin
  2
*D9
 70
    65
 10
0.0
 20
0.0
 30
0.0
  0
LINE
  5
160
100
AcDbEntity
  8
MA10
  6
BYBLOCK
 62
0
100
AcDbLine
 10
169.0408379544424
 20
426.8724955686337
 30
0.0000000000000000
 11
169.0408379544424
 21
375.8724955686340
 31
0.0000000000000000
  0
INSERT
  5
161
100
AcDbEntity
  8
MA10
  6
BYBLOCK
 62
0
100
AcDbBlockReference
  2
_OPEN
 10
169.0408379544424
 20
428.8724955686337
 30
0.0000000000000000
 41
3.000000000000000
 42
3.000000000000000
 43
3.000000000000000
 50
90.00000000000000
  0
INSERT
  5
162
100
AcDbEntity
  8
MA10
  6
BYBLOCK
 62
0
100
AcDbBlockReference
  2
_OPEN
 10
169.0408379544424
 20
373.8724955686340
 30
0.0000000000000000
 41
3.000000000000000
 42
3.000000000000000
 43
3.000000000000000
 50
270.0000000000000
  0
MTEXT
  5
163
100
AcDbEntity
  8
MA10
  6
BYBLOCK
 62
0
100
AcDbMText
 10
166.2158380259680
 20
401.3724955686338
 30
0.0000000000000000
 40
4.649999856948853
 41
0.0000000000000000
 71
     5
 72
     1
  1
\A1;\U+220555
 11
6.123233995736766e-017
 21
1.000000000000000
 31
0.0000000000000000
  7
STANDARD
  0
ENDBLK
  5
164
100
AcDbEntity
  8
MA10
  6
CONTINUOUS
 62
3
100
AcDbBlockEnd
  0
BLOCK
  5
166
100
AcDbEntity
  8
MA10
  6
CONTINUOUS
 62
3
100
AcDbBlockBegin
  2
*D10
 70
    65
 10
0.0
 20
0.0
 30
0.0
  0
LINE
  5
167
100
AcDbEntity
  8
MA10
  6
BYBLOCK
 62
0
100
AcDbLine
 10
213.0408379544425
 20
341.3724955686337
 30
0.0000000000000000
 11
244.0408379544425
 21
341.3724955686337
 31
0.0000000000000000
  0
INSERT
  5
168
100
AcDbEntity
  8
MA10
  6
BYBLOCK
 62
0
100
AcDbBlockReference
  2
_OPEN
 10
211.0408379544425
 20
341.3724955686337
 30
0.0000000000000000
 41
3.000000000000000
 42
3.000000000000000
 43
3.000000000000000
 50
180.0000000000000
  0
INSERT
  5
169
100
AcDbEntity
  8
MA10
  6
BYBLOCK
 62
0
100
AcDbBlockReference
  2
_OPEN
 10
246.0408379544425
 20
341.3724955686337
 30
0.0000000000000000
 41
3.000000000000000
 42
3.000000000000000
 43
3.000000000000000
 50
0.0000000000000000
  0
MTEXT
  5
16A
100
AcDbEntity
  8
MA10
  6
BYBLOCK
 62
0
100
AcDbMText
 10
228.5408379544425
 20
344.1974954971082
 30
0.0000000000000000
 40
4.649999856948853
 41
0.0000000000000000
 71
     5
 72
     1
  1
\A1;35
 11
1.000000000000000
 21
0.0000000000000000
 31
0.0000000000000000
  7
STANDARD
  0
ENDBLK
  5
16B
100
AcDbEntity
  8
MA10
  6
CONTINUOUS
 62
3
100
AcDbBlockEnd
  0
BLOCK
  5
16D
100
AcDbEntity
  8
MA10
  6
CONTINUOUS
 62
3
100
AcDbBlockBegin
  2
*D11
 70
    65
 10
0.0
 20
0.0
 30
0.0
  0
LINE
  5
16E
100
AcDbEntity
  8
MA10
  6
BYBLOCK
 62
0
100
AcDbLine
 10
181.0408379544424
 20
272.6724955507527
 30
0.0000000000000000
 11
181.0408379544424
 21
259.3724955686338
 31
0.0000000000000000
  0
LINE
  5
16F
100
AcDbEntity
  8
MA10
  6
BYBLOCK
 62
0
100
AcDbLine
 10
183.0408379544424
 20
261.3724955686338
 30
0.0000000000000000
 11
209.0408379544425
 21
261.3724955686338
 31
0.0000000000000000
  0
INSERT
  5
170
100
AcDbEntity
  8
MA10
  6
BYBLOCK
 62
0
100
AcDbBlockReference
  2
_OPEN
 10
181.0408379544424
 20
261.3724955686338
 30
0.0000000000000000
 41
3.000000000000000
 42
3.000000000000000
 43
3.000000000000000
 50
180.0000000000000
  0
INSERT
  5
171
100
AcDbEntity
  8
MA10
  6
BYBLOCK
 62
0
100
AcDbBlockReference
  2
_OPEN
 10
211.0408379544425
 20
261.3724955686338
 30
0.0000000000000000
 41
3.000000000000000
 42
3.000000000000000
 43
3.000000000000000
 50
0.0000000000000000
  0
MTEXT
  5
172
100
AcDbEntity
  8
MA10
  6
BYBLOCK
 62
0
100
AcDbMText
 10
196.0408379544425
 20
264.1974954971082
 30
0.0000000000000000
 40
4.649999856948853
 41
0.0000000000000000
 71
     5
 72
     1
  1
\A1;30
 11
1.000000000000000
 21
0.0000000000000000
 31
0.0000000000000000
  7
STANDARD
  0
ENDBLK
  5
173
100
AcDbEntity
  8
MA10
  6
CONTINUOUS
 62
3
100
AcDbBlockEnd
  0
BLOCK
  5
175
100
AcDbEntity
  8
MA10
  6
CONTINUOUS
 62
3
100
AcDbBlockBegin
  2
*D12
 70
    65
 10
0.0
 20
0.0
 30
0.0
  0
LINE
  5
176
100
AcDbEntity
  8
MA10
  6
BYBLOCK
 62
0
100
AcDbLine
 10
319.0408379544425
 20
212.6724955507524
 30
0.0000000000000000
 11
319.0408379544425
 21
189.3724955686338
 31
0.0000000000000000
  0
LINE
  5
177
100
AcDbEntity
  8
MA10
  6
BYBLOCK
 62
0
100
AcDbLine
 10
317.0408379544425
 20
191.3724955686338
 30
0.0000000000000000
 11
266.0408379544423
 21
191.3724955686338
 31
0.0000000000000000
  0
INSERT
  5
178
100
AcDbEntity
  8
MA10
  6
BYBLOCK
 62
0
100
AcDbBlockReference
  2
_OPEN
 10
319.0408379544425
 20
191.3724955686338
 30
0.0000000000000000
 41
3.000000000000000
 42
3.000000000000000
 43
3.000000000000000
 50
360.0000000000000
  0
INSERT
  5
179
100
AcDbEntity
  8
MA10
  6
BYBLOCK
 62
0
100
AcDbBlockReference
  2
_OPEN
 10
264.0408379544423
 20
191.3724955686338
 30
0.0000000000000000
 41
3.000000000000000
 42
3.000000000000000
 43
3.000000000000000
 50
180.0000000000000
  0
LINE
  5
17A
100
AcDbEntity
  8
MA10
  6
BYBLOCK
 62
0
100
AcDbLine
 10
264.0408379544423
 20
208.1427242557161
 30
0.0000000000000000
 11
264.0408379544423
 21
189.3724955686338
 31
0.0000000000000000
  0
MTEXT
  5
17B
100
AcDbEntity
  8
MA10
  6
BYBLOCK
 62
0
100
AcDbMText
 10
291.5408379544424
 20
194.1974954971082
 30
0.0000000000000000
 40
4.649999856948853
 41
0.0000000000000000
 71
     5
 72
     1
  1
\A1;55
 11
1.000000000000000
 21
0.0000000000000000
 31
0.0000000000000000
  7
STANDARD
  0
ENDBLK
  5
17C
100
AcDbEntity
  8
MA10
  6
CONTINUOUS
 62
3
100
AcDbBlockEnd
  0
BLOCK
  5
17E
100
AcDbEntity
  8
MA10
  6
CONTINUOUS
 62
3
100
AcDbBlockBegin
  2
*D13
 70
    65
 10
0.0
 20
0.0
 30
0.0
  0
LINE
  5
17F
100
AcDbEntity
  8
MA10
  6
BYBLOCK
 62
0
100
AcDbLine
 10
319.0408379544425
 20
212.6724955507524
 30
0.0000000000000000
 11
319.0408379544425
 21
169.3724955686338
 31
0.0000000000000000
  0
LINE
  5
180
100
AcDbEntity
  8
MA10
  6
BYBLOCK
 62
0
100
AcDbLine
 10
317.0408379544425
 20
171.3724955686338
 30
0.0000000000000000
 11
207.0408379544424
 21
171.3724955686338
 31
0.0000000000000000
  0
INSERT
  5
181
100
AcDbEntity
  8
MA10
  6
BYBLOCK
 62
0
100
AcDbBlockReference
  2
_OPEN
 10
319.0408379544425
 20
171.3724955686338
 30
0.0000000000000000
 41
3.000000000000000
 42
3.000000000000000
 43
3.000000000000000
 50
360.0000000000000
  0
INSERT
  5
182
100
AcDbEntity
  8
MA10
  6
BYBLOCK
 62
0
100
AcDbBlockReference
  2
_OPEN
 10
205.0408379544424
 20
171.3724955686338
 30
0.0000000000000000
 41
3.000000000000000
 42
3.000000000000000
 43
3.000000000000000
 50
180.0000000000000
  0
LINE
  5
183
100
AcDbEntity
  8
MA10
  6
BYBLOCK
 62
0
100
AcDbLine
 10
205.0408379544424
 20
212.6724955507524
 30
0.0000000000000000
 11
205.0408379544424
 21
169.3724955686338
 31
0.0000000000000000
  0
MTEXT
  5
184
100
AcDbEntity
  8
MA10
  6
BYBLOCK
 62
0
100
AcDbMText
 10
262.0408379544425
 20
174.1974954971082
 30
0.0000000000000000
 40
4.649999856948853
 41
0.0000000000000000
 71
     5
 72
     1
  1
\A1;114
 11
1.000000000000000
 21
0.0000000000000000
 31
0.0000000000000000
  7
STANDARD
  0
ENDBLK
  5
185
100
AcDbEntity
  8
MA10
  6
CONTINUOUS
 62
3
100
AcDbBlockEnd
  0
BLOCK
  5
187
100
AcDbEntity
  8
MA10
  6
CONTINUOUS
 62
3
100
AcDbBlockBegin
  2
*D14
 70
    65
 10
0.0
 20
0.0
 30
0.0
  0
LINE
  5
188
100
AcDbEntity
  8
MA10
  6
BYBLOCK
 62
0
100
AcDbLine
 10
205.0408379544425
 20
236.3724955686338
 30
0.0000000000000000
 11
211.0408379544425
 21
236.3724955686338
 31
0.0000000000000000
  0
INSERT
  5
189
100
AcDbEntity
  8
MA10
  6
BYBLOCK
 62
0
100
AcDbBlockReference
  2
_OPEN
 10
205.0408379544425
 20
236.3724955686338
 30
0.0000000000000000
 41
3.000000000000000
 42
3.000000000000000
 43
3.000000000000000
 50
0.0000000000000000
  0
INSERT
  5
18A
100
AcDbEntity
  8
MA10
  6
BYBLOCK
 62
0
100
AcDbBlockReference
  2
_OPEN
 10
211.0408379544425
 20
236.3724955686338
 30
0.0000000000000000
 41
3.000000000000000
 42
3.000000000000000
 43
3.000000000000000
 50
180.0000000000000
  0
LINE
  5
18B
100
AcDbEntity
  8
MA10
  6
BYBLOCK
 62
0
100
AcDbLine
 10
202.0408379544425
 20
236.3724955686338
 30
0.0000000000000000
 11
200.5408379544425
 21
236.3724955686338
 31
0.0000000000000000
  0
LINE
  5
18C
100
AcDbEntity
  8
MA10
  6
BYBLOCK
 62
0
100
AcDbLine
 10
214.0408379544425
 20
236.3724955686338
 30
0.0000000000000000
 11
215.5408379544425
 21
236.3724955686338
 31
0.0000000000000000
  0
LINE
  5
18D
100
AcDbEntity
  8
MA10
  6
BYBLOCK
 62
0
100
AcDbLine
 10
211.0408379544425
 20
250.1724955507525
 30
0.0000000000000000
 11
211.0408379544425
 21
234.3724955686338
 31
0.0000000000000000
  0
MTEXT
  5
18E
100
AcDbEntity
  8
MA10
  6
BYBLOCK
 62
0
100
AcDbMText
 10
208.0408379544425
 20
239.1974954971082
 30
0.0000000000000000
 40
4.649999856948853
 41
0.0000000000000000
 71
     5
 72
     1
  1
\A1;6
 11
1.000000000000000
 21
0.0000000000000000
 31
0.0000000000000000
  7
STANDARD
  0
ENDBLK
  5
18F
100
AcDbEntity
  8
MA10
  6
CONTINUOUS
 62
3
100
AcDbBlockEnd
  0
BLOCK
  5
191
100
AcDbEntity
  8
MA10
  6
CONTINUOUS
 62
3
100
AcDbBlockBegin
  2
*D15
 70
    65
 10
0.0
 20
0.0
 30
0.0
  0
LINE
  5
192
100
AcDbEntity
  8
MA10
  6
BYBLOCK
 62
0
100
AcDbLine
 10
320.2408379723237
 20
299.8724955686338
 30
0.0000000000000000
 11
341.0408379544425
 21
299.8724955686338
 31
0.0000000000000000
  0
LINE
  5
193
100
AcDbEntity
  8
MA10
  6
BYBLOCK
 62
0
100
AcDbLine
 10
339.0408379544425
 20
297.8724955686338
 30
0.0000000000000000
 11
339.0408379544425
 21
269.8724955686342
 31
0.0000000000000000
  0
INSERT
  5
194
100
AcDbEntity
  8
MA10
  6
BYBLOCK
 62
0
100
AcDbBlockReference
  2
_OPEN
 10
339.0408379544425
 20
299.8724955686338
 30
0.0000000000000000
 41
3.000000000000000
 42
3.000000000000000
 43
3.000000000000000
 50
90.00000000000000
  0
INSERT
  5
195
100
AcDbEntity
  8
MA10
  6
BYBLOCK
 62
0
100
AcDbBlockReference
  2
_OPEN
 10
339.0408379544425
 20
267.8724955686342
 30
0.0000000000000000
 41
3.000000000000000
 42
3.000000000000000
 43
3.000000000000000
 50
270.0000000000000
  0
LINE
  5
196
100
AcDbEntity
  8
MA10
  6
BYBLOCK
 62
0
100
AcDbLine
 10
320.2408379723237
 20
267.8724955686342
 30
0.0000000000000000
 11
341.0408379544425
 21
267.8724955686342
 31
0.0000000000000000
  0
MTEXT
  5
197
100
AcDbEntity
  8
MA10
  6
BYBLOCK
 62
0
100
AcDbMText
 10
336.2158380259680
 20
283.8724955686340
 30
0.0000000000000000
 40
4.649999856948853
 41
0.0000000000000000
 71
     5
 72
     1
  1
\A1;\U+220532
 11
6.123233995736766e-017
 21
1.000000000000000
 31
0.0000000000000000
  7
STANDARD
  0
ENDBLK
  5
198
100
AcDbEntity
  8
MA10
  6
CONTINUOUS
 62
3
100
AcDbBlockEnd
  0
BLOCK
  5
19A
100
AcDbEntity
  8
MA10
  6
CONTINUOUS
 62
3
100
AcDbBlockBegin
  2
*D16
 70
    65
 10
0.0
 20
0.0
 30
0.0
  0
LINE
  5
19B
100
AcDbEntity
  8
MA10
  6
BYBLOCK
 62
0
100
AcDbLine
 10
317.0408379544425
 20
251.3724955686338
 30
0.0000000000000000
 11
298.0408379544425
 21
251.3724955686338
 31
0.0000000000000000
  0
INSERT
  5
19C
100
AcDbEntity
  8
MA10
  6
BYBLOCK
 62
0
100
AcDbBlockReference
  2
_OPEN
 10
319.0408379544425
 20
251.3724955686338
 30
0.0000000000000000
 41
3.000000000000000
 42
3.000000000000000
 43
3.000000000000000
 50
360.0000000000000
  0
INSERT
  5
19D
100
AcDbEntity
  8
MA10
  6
BYBLOCK
 62
0
100
AcDbBlockReference
  2
_OPEN
 10
296.0408379544425
 20
251.3724955686338
 30
0.0000000000000000
 41
3.000000000000000
 42
3.000000000000000
 43
3.000000000000000
 50
180.0000000000000
  0
LINE
  5
19E
100
AcDbEntity
  8
MA10
  6
BYBLOCK
 62
0
100
AcDbLine
 10
296.0408379544425
 20
266.6724955507530
 30
0.0000000000000000
 11
296.0408379544425
 21
249.3724955686338
 31
0.0000000000000000
  0
MTEXT
  5
19F
100
AcDbEntity
  8
MA10
  6
BYBLOCK
 62
0
100
AcDbMText
 10
307.5408379544425
 20
254.1974954971082
 30
0.0000000000000000
 40
4.649999856948853
 41
0.0000000000000000
 71
     5
 72
     1
  1
\A1;23
 11
1.000000000000000
 21
0.0000000000000000
 31
0.0000000000000000
  7
STANDARD
  0
ENDBLK
  5
1A0
100
AcDbEntity
  8
MA10
  6
CONTINUOUS
 62
3
100
AcDbBlockEnd
  0
BLOCK
  5
1A2
100
AcDbEntity
  8
MA10
  6
CONTINUOUS
 62
3
100
AcDbBlockBegin
  2
*D17
 70
    65
 10
0.0
 20
0.0
 30
0.0
  0
LINE
  5
1A3
100
AcDbEntity
  8
MA10
  6
BYBLOCK
 62
0
100
AcDbLine
 10
380.0408379544425
 20
593.3224955865151
 30
0.0000000000000000
 11
380.0408379544425
 21
608.3724955686338
 31
0.0000000000000000
  0
LINE
  5
1A4
100
AcDbEntity
  8
MA10
  6
BYBLOCK
 62
0
100
AcDbLine
 10
378.0408379544425
 20
606.3724955686338
 30
0.0000000000000000
 11
321.0408379544424
 21
606.3724955686338
 31
0.0000000000000000
  0
INSERT
  5
1A5
100
AcDbEntity
  8
MA10
  6
BYBLOCK
 62
0
100
AcDbBlockReference
  2
_OPEN
 10
380.0408379544425
 20
606.3724955686338
 30
0.0000000000000000
 41
3.000000000000000
 42
3.000000000000000
 43
3.000000000000000
 50
360.0000000000000
  0
INSERT
  5
1A6
100
AcDbEntity
  8
MA10
  6
BYBLOCK
 62
0
100
AcDbBlockReference
  2
_OPEN
 10
319.0408379544424
 20
606.3724955686338
 30
0.0000000000000000
 41
3.000000000000000
 42
3.000000000000000
 43
3.000000000000000
 50
180.0000000000000
  0
LINE
  5
1A7
100
AcDbEntity
  8
MA10
  6
BYBLOCK
 62
0
100
AcDbLine
 10
319.0408379544424
 20
590.0724955865151
 30
0.0000000000000000
 11
319.0408379544424
 21
608.3724955686338
 31
0.0000000000000000
  0
MTEXT
  5
1A8
100
AcDbEntity
  8
MA10
  6
BYBLOCK
 62
0
100
AcDbMText
 10
349.5408379544424
 20
609.1974954971082
 30
0.0000000000000000
 40
4.649999856948853
 41
0.0000000000000000
 71
     5
 72
     1
  1
\A1;61
 11
1.000000000000000
 21
0.0000000000000000
 31
0.0000000000000000
  7
STANDARD
  0
ENDBLK
  5
1A9
100
AcDbEntity
  8
MA10
  6
CONTINUOUS
 62
3
100
AcDbBlockEnd
  0
BLOCK
  5
1AB
100
AcDbEntity
  8
MA10
  6
CONTINUOUS
 62
3
100
AcDbBlockBegin
  2
*D18
 70
    65
 10
0.0
 20
0.0
 30
0.0
  0
LINE
  5
1AC
100
AcDbEntity
  8
MA10
  6
BYBLOCK
 62
0
100
AcDbLine
 10
381.2408379723237
 20
592.1224955686337
 30
0.0000000000000000
 11
446.0408379544425
 21
592.1224955686337
 31
0.0000000000000000
  0
LINE
  5
1AD
100
AcDbEntity
  8
MA10
  6
BYBLOCK
 62
0
100
AcDbLine
 10
444.0408379544425
 20
590.1224955686337
 30
0.0000000000000000
 11
444.0408379544425
 21
459.1224955686335
 31
0.0000000000000000
  0
INSERT
  5
1AE
100
AcDbEntity
  8
MA10
  6
BYBLOCK
 62
0
100
AcDbBlockReference
  2
_OPEN
 10
444.0408379544425
 20
592.1224955686337
 30
0.0000000000000000
 41
3.000000000000000
 42
3.000000000000000
 43
3.000000000000000
 50
90.00000000000000
  0
INSERT
  5
1AF
100
AcDbEntity
  8
MA10
  6
BYBLOCK
 62
0
100
AcDbBlockReference
  2
_OPEN
 10
444.0408379544425
 20
457.1224955686335
 30
0.0000000000000000
 41
3.000000000000000
 42
3.000000000000000
 43
3.000000000000000
 50
270.0000000000000
  0
LINE
  5
1B0
100
AcDbEntity
  8
MA10
  6
BYBLOCK
 62
0
100
AcDbLine
 10
381.2408379723237
 20
457.1224955686335
 30
0.0000000000000000
 11
446.0408379544425
 21
457.1224955686335
 31
0.0000000000000000
  0
MTEXT
  5
1B1
100
AcDbEntity
  8
MA10
  6
BYBLOCK
 62
0
100
AcDbMText
 10
441.2158380259680
 20
524.6224955686336
 30
0.0000000000000000
 40
4.649999856948853
 41
0.0000000000000000
 71
     5
 72
     1
  1
\A1;135
 11
6.123233995736766e-017
 21
1.000000000000000
 31
0.0000000000000000
  7
STANDARD
  0
ENDBLK
  5
1B2
100
AcDbEntity
  8
MA10
  6
CONTINUOUS
 62
3
100
AcDbBlockEnd
  0
BLOCK
  5
1B4
100
AcDbEntity
  8
MA10
  6
CONTINUOUS
 62
3
100
AcDbBlockBegin
  2
*D19
 70
    65
 10
0.0
 20
0.0
 30
0.0
  0
LINE
  5
1B5
100
AcDbEntity
  8
MA10
  6
BYBLOCK
 62
0
100
AcDbLine
 10
384.7015720114933
 20
566.1224955686337
 30
0.0000000000000000
 11
426.0408379544425
 21
566.1224955686337
 31
0.0000000000000000
  0
LINE
  5
1B6
100
AcDbEntity
  8
MA10
  6
BYBLOCK
 62
0
100
AcDbLine
 10
424.0408379544425
 20
564.1224955686337
 30
0.0000000000000000
 11
424.0408379544425
 21
525.1224955686336
 31
0.0000000000000000
  0
INSERT
  5
1B7
100
AcDbEntity
  8
MA10
  6
BYBLOCK
 62
0
100
AcDbBlockReference
  2
_OPEN
 10
424.0408379544425
 20
566.1224955686337
 30
0.0000000000000000
 41
3.000000000000000
 42
3.000000000000000
 43
3.000000000000000
 50
90.00000000000000
  0
INSERT
  5
1B8
100
AcDbEntity
  8
MA10
  6
BYBLOCK
 62
0
100
AcDbBlockReference
  2
_OPEN
 10
424.0408379544425
 20
523.1224955686336
 30
0.0000000000000000
 41
3.000000000000000
 42
3.000000000000000
 43
3.000000000000000
 50
270.0000000000000
  0
LINE
  5
1B9
100
AcDbEntity
  8
MA10
  6
BYBLOCK
 62
0
100
AcDbLine
 10
386.9515700752735
 20
523.1224955686336
 30
0.0000000000000000
 11
426.0408379544425
 21
523.1224955686336
 31
0.0000000000000000
  0
MTEXT
  5
1BA
100
AcDbEntity
  8
MA10
  6
BYBLOCK
 62
0
100
AcDbMText
 10
421.2158380259680
 20
544.6224955686337
 30
0.0000000000000000
 40
4.649999856948853
 41
0.0000000000000000
 71
     5
 72
     1
  1
\A1;43
 11
6.123233995736766e-017
 21
1.000000000000000
 31
0.0000000000000000
  7
STANDARD
  0
ENDBLK
  5
1BB
100
AcDbEntity
  8
MA10
  6
CONTINUOUS
 62
3
100
AcDbBlockEnd
  0
BLOCK
  5
1BD
100
AcDbEntity
  8
MA10
  6
CONTINUOUS
 62
3
100
AcDbBlockBegin
  2
*D20
 70
    65
 10
0.0
 20
0.0
 30
0.0
  0
LINE
  5
1BE
100
AcDbEntity
  8
MA10
  6
BYBLOCK
 62
0
100
AcDbLine
 10
386.9515700752735
 20
523.1224955686336
 30
0.0000000000000000
 11
426.0408379544425
 21
523.1224955686336
 31
0.0000000000000000
  0
LINE
  5
1BF
100
AcDbEntity
  8
MA10
  6
BYBLOCK
 62
0
100
AcDbLine
 10
424.0408379544425
 20
521.1224955686336
 30
0.0000000000000000
 11
424.0408379544425
 21
459.1224955686335
 31
0.0000000000000000
  0
INSERT
  5
1C0
100
AcDbEntity
  8
MA10
  6
BYBLOCK
 62
0
100
AcDbBlockReference
  2
_OPEN
 10
424.0408379544425
 20
523.1224955686336
 30
0.0000000000000000
 41
3.000000000000000
 42
3.000000000000000
 43
3.000000000000000
 50
90.00000000000000
  0
INSERT
  5
1C1
100
AcDbEntity
  8
MA10
  6
BYBLOCK
 62
0
100
AcDbBlockReference
  2
_OPEN
 10
424.0408379544425
 20
457.1224955686335
 30
0.0000000000000000
 41
3.000000000000000
 42
3.000000000000000
 43
3.000000000000000
 50
270.0000000000000
  0
LINE
  5
1C2
100
AcDbEntity
  8
MA10
  6
BYBLOCK
 62
0
100
AcDbLine
 10
381.2408379723237
 20
457.1224955686335
 30
0.0000000000000000
 11
426.0408379544425
 21
457.1224955686335
 31
0.0000000000000000
  0
MTEXT
  5
1C3
100
AcDbEntity
  8
MA10
  6
BYBLOCK
 62
0
100
AcDbMText
 10
421.2158380259680
 20
490.1224955686336
 30
0.0000000000000000
 40
4.649999856948853
 41
0.0000000000000000
 71
     5
 72
     1
  1
\A1;66
 11
6.123233995736766e-017
 21
1.000000000000000
 31
0.0000000000000000
  7
STANDARD
  0
ENDBLK
  5
1C4
100
AcDbEntity
  8
MA10
  6
CONTINUOUS
 62
3
100
AcDbBlockEnd
  0
BLOCK
  5
1C6
100
AcDbEntity
  8
MA10
  6
CONTINUOUS
 62
3
100
AcDbBlockBegin
  2
*D21
 70
    65
 10
0.0
 20
0.0
 30
0.0
  0
LINE
  5
1C7
100
AcDbEntity
  8
MA10
  6
BYBLOCK
 62
0
100
AcDbLine
 10
386.9515700752735
 20
523.1224955686336
 30
0.0000000000000000
 11
406.0408379544425
 21
523.1224955686336
 31
0.0000000000000000
  0
LINE
  5
1C8
100
AcDbEntity
  8
MA10
  6
BYBLOCK
 62
0
100
AcDbLine
 10
404.0408379544425
 20
521.1224955686336
 30
0.0000000000000000
 11
404.0408379544425
 21
480.8724955686337
 31
0.0000000000000000
  0
INSERT
  5
1C9
100
AcDbEntity
  8
MA10
  6
BYBLOCK
 62
0
100
AcDbBlockReference
  2
_OPEN
 10
404.0408379544425
 20
523.1224955686336
 30
0.0000000000000000
 41
3.000000000000000
 42
3.000000000000000
 43
3.000000000000000
 50
90.00000000000000
  0
INSERT
  5
1CA
100
AcDbEntity
  8
MA10
  6
BYBLOCK
 62
0
100
AcDbBlockReference
  2
_OPEN
 10
404.0408379544425
 20
478.8724955686337
 30
0.0000000000000000
 41
3.000000000000000
 42
3.000000000000000
 43
3.000000000000000
 50
270.0000000000000
  0
LINE
  5
1CB
100
AcDbEntity
  8
MA10
  6
BYBLOCK
 62
0
100
AcDbLine
 10
321.2408379723239
 20
478.8724955686337
 30
0.0000000000000000
 11
406.0408379544425
 21
478.8724955686337
 31
0.0000000000000000
  0
MTEXT
  5
1CC
100
AcDbEntity
  8
MA10
  6
BYBLOCK
 62
0
100
AcDbMText
 10
401.2158380259680
 20
500.9974955686336
 30
0.0000000000000000
 40
4.649999856948853
 41
0.0000000000000000
 71
     5
 72
     1
  1
\A1;MAX 48.75
 11
6.123233995736766e-017
 21
1.000000000000000
 31
0.0000000000000000
  7
STANDARD
  0
ENDBLK
  5
1CD
100
AcDbEntity
  8
MA10
  6
CONTINUOUS
 62
3
100
AcDbBlockEnd
  0
BLOCK
  5
1CF
100
AcDbEntity
  8
MA10
  6
CONTINUOUS
 62
3
100
AcDbBlockBegin
  2
*D22
 70
    65
 10
0.0
 20
0.0
 30
0.0
  0
LINE
  5
1D0
100
AcDbEntity
  8
MA10
  6
BYBLOCK
 62
0
100
AcDbLine
 10
321.2408379723239
 20
478.8724955686337
 30
0.0000000000000000
 11
406.0408379544425
 21
478.8724955686337
 31
0.0000000000000000
  0
LINE
  5
1D1
100
AcDbEntity
  8
MA10
  6
BYBLOCK
 62
0
100
AcDbLine
 10
404.0408379544425
 20
476.8724955686337
 30
0.0000000000000000
 11
404.0408379544425
 21
403.3724955686337
 31
0.0000000000000000
  0
INSERT
  5
1D2
100
AcDbEntity
  8
MA10
  6
BYBLOCK
 62
0
100
AcDbBlockReference
  2
_OPEN
 10
404.0408379544425
 20
478.8724955686337
 30
0.0000000000000000
 41
3.000000000000000
 42
3.000000000000000
 43
3.000000000000000
 50
90.00000000000000
  0
INSERT
  5
1D3
100
AcDbEntity
  8
MA10
  6
BYBLOCK
 62
0
100
AcDbBlockReference
  2
_OPEN
 10
404.0408379544425
 20
401.3724955686337
 30
0.0000000000000000
 41
3.000000000000000
 42
3.000000000000000
 43
3.000000000000000
 50
270.0000000000000
  0
LINE
  5
1D4
100
AcDbEntity
  8
MA10
  6
BYBLOCK
 62
0
100
AcDbLine
 10
331.4043108949018
 20
401.3724955686337
 30
0.0000000000000000
 11
406.0408379544425
 21
401.3724955686337
 31
0.0000000000000000
  0
MTEXT
  5
1D5
100
AcDbEntity
  8
MA10
  6
BYBLOCK
 62
0
100
AcDbMText
 10
400.9658380259680
 20
429.5898639960582
 30
0.0000000000000000
 40
4.649999856948853
 41
0.0000000000000000
 71
     5
 72
     1
  1
\A1;MAX 77.5
 11
6.123233995736766e-017
 21
1.000000000000000
 31
0.0000000000000000
  7
STANDARD
  0
ENDBLK
  5
1D6
100
AcDbEntity
  8
MA10
  6
CONTINUOUS
 62
3
100
AcDbBlockEnd
  0
BLOCK
  5
1D8
100
AcDbEntity
  8
MA10
  6
CONTINUOUS
 62
3
100
AcDbBlockBegin
  2
*D23
 70
    65
 10
0.0
 20
0.0
 30
0.0
  0
LINE
  5
1D9
100
AcDbEntity
  8
MA10
  6
BYBLOCK
 62
0
100
AcDbLine
 10
833.2625905374227
 20
297.2130144664719
 30
0.0000000000000000
 11
840.7812663407096
 21
292.8721049674948
 31
0.0000000000000000
  0
ARC
  5
1DA
100
AcDbEntity
  8
MA10
  6
BYBLOCK
 62
0
100
AcDbCircle
 10
652.8530771784690
 20
401.3724955686336
 30
0.0000000000000000
 40
215.0007812022772
100
AcDbArc
 50
330.5329820588807
 51
359.4670179411192
  0
INSERT
  5
1DB
100
AcDbEntity
  8
MA10
  6
BYBLOCK
 62
0
100
AcDbBlockReference
  2
_OPEN
 10
839.0492155331407
 20
293.8721049674948
 30
0.0000000000000000
 41
3.000000000000000
 42
3.000000000000000
 43
3.000000000000000
 50
240.0000000000000
  0
INSERT
  5
1DC
100
AcDbEntity
  8
MA10
  6
BYBLOCK
 62
0
100
AcDbBlockReference
  2
_OPEN
 10
867.8538583807462
 20
401.3724955686336
 30
0.0000000000000000
 41
3.000000000000000
 42
3.000000000000000
 43
3.000000000000000
 50
90.00000000000000
  0
MTEXT
  5
1DD
100
AcDbEntity
  8
MA10
  6
BYBLOCK
 62
0
100
AcDbMText
 10
857.7991440238955
 20
346.4573624654665
 30
0.0000000000000000
 40
4.649999856948853
 41
0.0000000000000000
 71
     5
 72
     1
  1
\A1;30\U+00B0
 11
0.2588190451025214
 21
0.9659258262890681
 31
0.0000000000000000
  7
STANDARD
  0
ENDBLK
  5
1DE
100
AcDbEntity
  8
MA10
  6
CONTINUOUS
 62
3
100
AcDbBlockEnd
  0
BLOCK
  5
1E0
100
AcDbEntity
  8
MA10
  6
CONTINUOUS
 62
3
100
AcDbBlockBegin
  2
*D24
 70
    65
 10
0.0
 20
0.0
 30
0.0
  0
LINE
  5
1E1
100
AcDbEntity
  8
MA10
  6
BYBLOCK
 62
0
100
AcDbLine
 10
790.6814854935906
 20
438.3035062707376
 30
0.0000000000000000
 11
862.4597360666519
 21
457.5364305459079
 31
0.0000000000000000
  0
ARC
  5
1E2
100
AcDbEntity
  8
MA10
  6
BYBLOCK
 62
0
100
AcDbCircle
 10
652.8530771784690
 20
401.3724955686336
 30
0.0000000000000000
 40
215.0007812022772
100
AcDbArc
 50
0.5329820588807748
 51
14.46701794111920
  0
INSERT
  5
1E3
100
AcDbEntity
  8
MA10
  6
BYBLOCK
 62
0
100
AcDbBlockReference
  2
_OPEN
 10
867.8538583807462
 20
401.3724955686336
 30
0.0000000000000000
 41
3.000000000000000
 42
3.000000000000000
 43
3.000000000000000
 50
270.0000000000000
  0
INSERT
  5
1E4
100
AcDbEntity
  8
MA10
  6
BYBLOCK
 62
0
100
AcDbBlockReference
  2
_OPEN
 10
860.5278844140737
 20
457.0187924557029
 30
0.0000000000000000
 41
3.000000000000000
 42
3.000000000000000
 43
3.000000000000000
 50
105.0000000000000
  0
MTEXT
  5
1E5
100
AcDbEntity
  8
MA10
  6
BYBLOCK
 62
0
100
AcDbMText
 10
863.2136652303543
 20
429.0669923796176
 30
0.0000000000000000
 40
4.649999856948853
 41
0.0000000000000000
 71
     5
 72
     1
  1
\A1;15\U+00B0
 11
-0.1305261922200514
 21
0.9914448613738105
 31
0.0000000000000000
  7
STANDARD
  0
ENDBLK
  5
1E6
100
AcDbEntity
  8
MA10
  6
CONTINUOUS
 62
3
100
AcDbBlockEnd
  0
BLOCK
  5
1E8
100
AcDbEntity
  8
MA10
  6
CONTINUOUS
 62
3
100
AcDbBlockBegin
  2
*D25
 70
    65
 10
0.0
 20
0.0
 30
0.0
  0
LINE
  5
1E9
100
AcDbEntity
  8
MA10
  6
BYBLOCK
 62
0
100
AcDbLine
 10
790.6814854935906
 20
438.3035062707376
 30
0.0000000000000000
 11
862.4597360666519
 21
457.5364305459079
 31
0.0000000000000000
  0
LINE
  5
1EA
100
AcDbEntity
  8
MA10
  6
BYBLOCK
 62
0
100
AcDbLine
 10
756.3795767434499
 20
504.8989951336150
 30
0.0000000000000000
 11
806.2958010893772
 21
554.8152194795425
 31
0.0000000000000000
  0
ARC
  5
1EB
100
AcDbEntity
  8
MA10
  6
BYBLOCK
 62
0
100
AcDbCircle
 10
652.8530771784690
 20
401.3724955686336
 30
0.0000000000000000
 40
215.0007812022772
100
AcDbArc
 50
15.53298205888074
 51
44.46701794111939
  0
INSERT
  5
1EC
100
AcDbEntity
  8
MA10
  6
BYBLOCK
 62
0
100
AcDbBlockReference
  2
_OPEN
 10
860.5278844140737
 20
457.0187924557029
 30
0.0000000000000000
 41
3.000000000000000
 42
3.000000000000000
 43
3.000000000000000
 50
285.0000000000000
  0
INSERT
  5
1ED
100
AcDbEntity
  8
MA10
  6
BYBLOCK
 62
0
100
AcDbBlockReference
  2
_OPEN
 10
804.8815875270039
 20
553.4010059171694
 30
0.0000000000000000
 41
3.000000000000000
 42
3.000000000000000
 43
3.000000000000000
 50
135.0000000000002
  0
MTEXT
  5
1EE
100
AcDbEntity
  8
MA10
  6
BYBLOCK
 62
0
100
AcDbMText
 10
836.6026938293926
 20
507.4603862055352
 30
0.0000000000000000
 40
4.649999856948853
 41
0.0000000000000000
 71
     5
 72
     1
  1
\A1;30\U+00B0
 11
-0.5000000000000010
 21
0.8660254037844380
 31
0.0000000000000000
  7
STANDARD
  0
ENDBLK
  5
1EF
100
AcDbEntity
  8
MA10
  6
CONTINUOUS
 62
3
100
AcDbBlockEnd
  0
BLOCK
  5
1F1
100
AcDbEntity
  8
MA10
  6
CONTINUOUS
 62
3
100
AcDbBlockBegin
  2
*D26
 70
    65
 10
0.0
 20
0.0
 30
0.0
  0
LINE
  5
1F2
100
AcDbEntity
  8
MA10
  6
BYBLOCK
 62
0
100
AcDbLine
 10
756.3795767434499
 20
504.8989951336150
 30
0.0000000000000000
 11
806.2958010893772
 21
554.8152194795425
 31
0.0000000000000000
  0
LINE
  5
1F3
100
AcDbEntity
  8
MA10
  6
BYBLOCK
 62
0
100
AcDbLine
 10
652.8530771784665
 20
612.1810292634358
 30
0.0000000000000000
 11
652.8530771784667
 21
618.3732767709107
 31
0.0000000000000000
  0
ARC
  5
1F4
100
AcDbEntity
  8
MA10
  6
BYBLOCK
 62
0
100
AcDbCircle
 10
652.8530771784690
 20
401.3724955686336
 30
0.0000000000000000
 40
215.0007812022772
100
AcDbArc
 50
45.53298205888093
 51
89.46701794111985
  0
INSERT
  5
1F5
100
AcDbEntity
  8
MA10
  6
BYBLOCK
 62
0
100
AcDbBlockReference
  2
_OPEN
 10
804.8815875270039
 20
553.4010059171694
 30
0.0000000000000000
 41
3.000000000000000
 42
3.000000000000000
 43
3.000000000000000
 50
315.0000000000002
  0
INSERT
  5
1F6
100
AcDbEntity
  8
MA10
  6
BYBLOCK
 62
0
100
AcDbBlockReference
  2
_OPEN
 10
652.8530771784667
 20
616.3732767709107
 30
0.0000000000000000
 41
3.000000000000000
 42
3.000000000000000
 43
3.000000000000000
 50
180.0000000000006
  0
MTEXT
  5
1F7
100
AcDbEntity
  8
MA10
  6
BYBLOCK
 62
0
100
AcDbMText
 10
736.2113947591904
 20
602.6172764086189
 30
0.0000000000000000
 40
4.649999856948853
 41
0.0000000000000000
 71
     5
 72
     1
  1
\A1;45\U+00B0
 11
0.9238795325112892
 21
-0.3826834323650838
 31
0.0000000000000000
  7
STANDARD
  0
ENDBLK
  5
1F8
100
AcDbEntity
  8
MA10
  6
CONTINUOUS
 62
3
100
AcDbBlockEnd
  0
BLOCK
  5
1FA
100
AcDbEntity
  8
MA10
  6
CONTINUOUS
 62
3
100
AcDbBlockBegin
  2
*D27
 70
    65
 10
0.0
 20
0.0
 30
0.0
  0
LINE
  5
1FB
100
AcDbEntity
  8
MA10
  6
BYBLOCK
 62
0
100
AcDbLine
 10
652.8530771784665
 20
612.1810292634358
 30
0.0000000000000000
 11
652.8530771784667
 21
618.3732767709107
 31
0.0000000000000000
  0
LINE
  5
1FC
100
AcDbEntity
  8
MA10
  6
BYBLOCK
 62
0
100
AcDbLine
 10
549.8378200799467
 20
579.8001548180424
 30
0.0000000000000000
 11
544.3526865773295
 21
589.3006847308737
 31
0.0000000000000000
  0
ARC
  5
1FD
100
AcDbEntity
  8
MA10
  6
BYBLOCK
 62
0
100
AcDbCircle
 10
652.8530771784690
 20
401.3724955686336
 30
0.0000000000000000
 40
215.0007812022772
100
AcDbArc
 50
90.53298205888139
 51
119.4670179411195
  0
INSERT
  5
1FE
100
AcDbEntity
  8
MA10
  6
BYBLOCK
 62
0
100
AcDbBlockReference
  2
_OPEN
 10
652.8530771784667
 20
616.3732767709107
 30
0.0000000000000000
 41
3.000000000000000
 42
3.000000000000000
 43
3.000000000000000
 50
5.684341886080802e-013
  0
INSERT
  5
1FF
100
AcDbEntity
  8
MA10
  6
BYBLOCK
 62
0
100
AcDbBlockReference
  2
_OPEN
 10
545.3526865773295
 20
587.5686339233049
 30
0.0000000000000000
 41
3.000000000000000
 42
3.000000000000000
 43
3.000000000000000
 50
210.0000000000003
  0
MTEXT
  5
200
100
AcDbEntity
  8
MA10
  6
BYBLOCK
 62
0
100
AcDbMText
 10
596.4756165074955
 20
611.7760431944162
 30
0.0000000000000000
 40
4.649999856948853
 41
0.0000000000000000
 71
     5
 72
     1
  1
\A1;30\U+00B0
 11
0.9659258262890662
 21
0.2588190451025284
 31
0.0000000000000000
  7
STANDARD
  0
ENDBLK
  5
201
100
AcDbEntity
  8
MA10
  6
CONTINUOUS
 62
3
100
AcDbBlockEnd
  0
BLOCK
  5
203
100
AcDbEntity
  8
MA10
  6
CONTINUOUS
 62
3
100
AcDbBlockBegin
  2
*D28
 70
    65
 10
0.0
 20
0.0
 30
0.0
  0
LINE
  5
204
100
AcDbEntity
  8
MA10
  6
BYBLOCK
 62
0
100
AcDbLine
 10
780.1539433952733
 20
388.0125007912902
 30
0.0000000000000000
 11
523.5631349270220
 21
414.9412402643732
 31
0.0000000000000000
  0
INSERT
  5
205
100
AcDbEntity
  8
MA10
  6
BYBLOCK
 62
0
100
AcDbBlockReference
  2
_OPEN
 10
782.1430194299110
 20
387.8037508728942
 30
0.0000000000000000
 41
3.000000000000000
 42
3.000000000000000
 43
3.000000000000000
 50
354.0088435096961
  0
MTEXT
  5
206
100
AcDbEntity
  8
MA10
  6
BYBLOCK
 62
0
100
AcDbMText
 10
758.3027176579449
 20
393.3976350244419
 30
0.0000000000000000
 40
4.649999856948853
 41
0.0000000000000000
 71
     5
 72
     1
  1
\A1;\U+2205260\H0.903226x;\U+00B10.2
 11
0.9945380173188034
 21
-0.1043749591979964
 31
0.0000000000000000
  7
STANDARD
  0
ENDBLK
  5
207
100
AcDbEntity
  8
MA10
  6
CONTINUOUS
 62
3
100
AcDbBlockEnd
  0
BLOCK
  5
209
100
AcDbEntity
  8
MA10
  6
CONTINUOUS
 62
3
100
AcDbBlockBegin
  2
*D29
 70
    65
 10
0.0
 20
0.0
 30
0.0
  0
LINE
  5
20A
100
AcDbEntity
  8
MA10
  6
BYBLOCK
 62
0
100
AcDbLine
 10
767.8103588448332
 20
412.5561171591381
 30
0.0000000000000000
 11
537.8957955120998
 21
390.1888739781293
 31
0.0000000000000000
  0
INSERT
  5
20B
100
AcDbEntity
  8
MA10
  6
BYBLOCK
 62
0
100
AcDbBlockReference
  2
_OPEN
 10
769.8009611247703
 20
412.7497729442551
 30
0.0000000000000000
 41
3.000000000000000
 42
3.000000000000000
 43
3.000000000000000
 50
5.556535439550203
  0
INSERT
  5
20C
100
AcDbEntity
  8
MA10
  6
BYBLOCK
 62
0
100
AcDbBlockReference
  2
_OPEN
 10
535.9051932321627
 20
389.9952181930124
 30
0.0000000000000000
 41
3.000000000000000
 42
3.000000000000000
 43
3.000000000000000
 50
185.5565354395502
  0
MTEXT
  5
20D
100
AcDbEntity
  8
MA10
  6
BYBLOCK
 62
0
100
AcDbMText
 10
715.9094611544333
 20
410.5964543611613
 30
0.0000000000000000
 40
4.649999856948853
 41
0.0000000000000000
 71
     5
 72
     1
  1
\A1;\U+2205235.0
 11
0.9953011399685442
 21
0.09682789255847960
 31
0.0000000000000000
  7
STANDARD
  0
ENDBLK
  5
20E
100
AcDbEntity
  8
MA10
  6
CONTINUOUS
 62
3
100
AcDbBlockEnd
  0
BLOCK
  5
210
100
AcDbEntity
  8
MA10
  6
CONTINUOUS
 62
3
100
AcDbBlockBegin
  2
*D30
 70
    65
 10
0.0
 20
0.0
 30
0.0
  0
LINE
  5
211
100
AcDbEntity
  8
MA10
  6
BYBLOCK
 62
0
100
AcDbLine
 10
320.2408379723237
 20
137.0456473016683
 30
0.0000000000000000
 11
371.0408379544425
 21
137.0456473016683
 31
0.0000000000000000
  0
LINE
  5
212
100
AcDbEntity
  8
MA10
  6
BYBLOCK
 62
0
100
AcDbLine
 10
369.0408379544425
 20
135.0456473016683
 30
0.0000000000000000
 11
369.0408379544425
 21
77.04564730167095
 31
0.0000000000000000
  0
INSERT
  5
213
100
AcDbEntity
  8
MA10
  6
BYBLOCK
 62
0
100
AcDbBlockReference
  2
_OPEN
 10
369.0408379544425
 20
137.0456473016683
 30
0.0000000000000000
 41
3.000000000000000
 42
3.000000000000000
 43
3.000000000000000
 50
90.00000000000000
  0
INSERT
  5
214
100
AcDbEntity
  8
MA10
  6
BYBLOCK
 62
0
100
AcDbBlockReference
  2
_OPEN
 10
369.0408379544425
 20
75.04564730167095
 30
0.0000000000000000
 41
3.000000000000000
 42
3.000000000000000
 43
3.000000000000000
 50
270.0000000000000
  0
LINE
  5
215
100
AcDbEntity
  8
MA10
  6
BYBLOCK
 62
0
100
AcDbLine
 10
320.2408379723238
 20
75.04564730167095
 30
0.0000000000000000
 11
371.0408379544425
 21
75.04564730167095
 31
0.0000000000000000
  0
MTEXT
  5
216
100
AcDbEntity
  8
MA10
  6
BYBLOCK
 62
0
100
AcDbMText
 10
366.2158380259680
 20
106.0456473016697
 30
0.0000000000000000
 40
4.649999856948853
 41
0.0000000000000000
 71
     5
 72
     1
  1
\A1;62
 11
6.123233995736766e-017
 21
1.000000000000000
 31
0.0000000000000000
  7
STANDARD
  0
ENDBLK
  5
217
100
AcDbEntity
  8
MA10
  6
CONTINUOUS
 62
3
100
AcDbBlockEnd
  0
BLOCK
  5
219
100
AcDbEntity
  8
MA10
  6
CONTINUOUS
 62
3
100
AcDbBlockBegin
  2
*D31
 70
    65
 10
0.0
 20
0.0
 30
0.0
  0
LINE
  5
21A
100
AcDbEntity
  8
MA10
  6
BYBLOCK
 62
0
100
AcDbLine
 10
325.4908379723236
 20
118.7956473016683
 30
0.0000000000000000
 11
351.0408379544425
 21
118.7956473016683
 31
0.0000000000000000
  0
LINE
  5
21B
100
AcDbEntity
  8
MA10
  6
BYBLOCK
 62
0
100
AcDbLine
 10
349.0408379544425
 20
116.7956473016683
 30
0.0000000000000000
 11
349.0408379544425
 21
95.29564730167095
 31
0.0000000000000000
  0
INSERT
  5
21C
100
AcDbEntity
  8
MA10
  6
BYBLOCK
 62
0
100
AcDbBlockReference
  2
_OPEN
 10
349.0408379544425
 20
118.7956473016683
 30
0.0000000000000000
 41
3.000000000000000
 42
3.000000000000000
 43
3.000000000000000
 50
90.00000000000000
  0
INSERT
  5
21D
100
AcDbEntity
  8
MA10
  6
BYBLOCK
 62
0
100
AcDbBlockReference
  2
_OPEN
 10
349.0408379544425
 20
93.29564730167095
 30
0.0000000000000000
 41
3.000000000000000
 42
3.000000000000000
 43
3.000000000000000
 50
270.0000000000000
  0
LINE
  5
21E
100
AcDbEntity
  8
MA10
  6
BYBLOCK
 62
0
100
AcDbLine
 10
325.4908379723236
 20
93.29564730167095
 30
0.0000000000000000
 11
351.0408379544425
 21
93.29564730167095
 31
0.0000000000000000
  0
MTEXT
  5
21F
100
AcDbEntity
  8
MA10
  6
BYBLOCK
 62
0
100
AcDbMText
 10
346.2158380259680
 20
106.0456473016697
 30
0.0000000000000000
 40
4.649999856948853
 41
0.0000000000000000
 71
     5
 72
     1
  1
\A1;25.5
 11
6.123233995736766e-017
 21
1.000000000000000
 31
0.0000000000000000
  7
STANDARD
  0
ENDBLK
  5
220
100
AcDbEntity
  8
MA10
  6
CONTINUOUS
 62
3
100
AcDbBlockEnd
  0
BLOCK
  5
222
100
AcDbEntity
  8
MA10
  6
CONTINUOUS
 62
3
100
AcDbBlockBegin
  2
*D32
 70
    65
 10
0.0
 20
0.0
 30
0.0
  0
LINE
  5
223
100
AcDbEntity
  8
MA10
  6
BYBLOCK
 62
0
100
AcDbLine
 10
324.2908379544422
 20
92.09564728378956
 30
0.0000000000000000
 11
324.2908379544422
 21
49.37249556863372
 31
0.0000000000000000
  0
LINE
  5
224
100
AcDbEntity
  8
MA10
  6
BYBLOCK
 62
0
100
AcDbLine
 10
324.2908379544422
 20
51.37249556863372
 30
0.0000000000000000
 11
322.0408379544425
 21
51.37249556863372
 31
0.0000000000000000
  0
INSERT
  5
225
100
AcDbEntity
  8
MA10
  6
BYBLOCK
 62
0
100
AcDbBlockReference
  2
_OPEN
 10
324.2908379544422
 20
51.37249556863372
 30
0.0000000000000000
 41
3.000000000000000
 42
3.000000000000000
 43
3.000000000000000
 50
180.0000000000000
  0
INSERT
  5
226
100
AcDbEntity
  8
MA10
  6
BYBLOCK
 62
0
100
AcDbBlockReference
  2
_DOT
 10
321.0408379544425
 20
51.37249556863372
 30
0.0000000000000000
 41
1.500000000000000
 42
1.500000000000000
 43
1.500000000000000
 50
180.0000000000000
  0
LINE
  5
227
100
AcDbEntity
  8
MA10
  6
BYBLOCK
 62
0
100
AcDbLine
 10
327.2908379544422
 20
51.37249556863372
 30
0.0000000000000000
 11
336.0832421174629
 21
51.37249556863372
 31
0.0000000000000000
  0
LINE
  5
228
100
AcDbEntity
  8
MA10
  6
BYBLOCK
 62
0
100
AcDbLine
 10
321.0408379544425
 20
79.84564728378956
 30
0.0000000000000000
 11
321.0408379544425
 21
49.37249556863372
 31
0.0000000000000000
  0
MTEXT
  5
229
100
AcDbEntity
  8
MA10
  6
BYBLOCK
 62
0
100
AcDbMText
 10
330.6082419744117
 20
54.44749549710815
 30
0.0000000000000000
 40
4.649999856948853
 41
0.0000000000000000
 71
     5
 72
     1
  1
\A1;3.25
 11
1.000000000000000
 21
0.0000000000000000
 31
0.0000000000000000
  7
STANDARD
  0
ENDBLK
  5
22A
100
AcDbEntity
  8
MA10
  6
CONTINUOUS
 62
3
100
AcDbBlockEnd
  0
BLOCK
  5
22C
100
AcDbEntity
  8
MA10
  6
CONTINUOUS
 62
3
100
AcDbBlockBegin
  2
*D33
 70
    65
 10
0.0
 20
0.0
 30
0.0
  0
LINE
  5
22D
100
AcDbEntity
  8
MA10
  6
BYBLOCK
 62
0
100
AcDbLine
 10
321.0408379544425
 20
79.84564728378956
 30
0.0000000000000000
 11
321.0408379544425
 21
49.37249556863372
 31
0.0000000000000000
  0
LINE
  5
22E
100
AcDbEntity
  8
MA10
  6
BYBLOCK
 62
0
100
AcDbLine
 10
320.0408379544425
 20
51.37249556863372
 30
0.0000000000000000
 11
319.0408379544424
 21
51.37249556863372
 31
0.0000000000000000
  0
INSERT
  5
22F
100
AcDbEntity
  8
MA10
  6
BYBLOCK
 62
0
100
AcDbBlockReference
  2
_DOT
 10
321.0408379544425
 20
51.37249556863372
 30
0.0000000000000000
 41
1.500000000000000
 42
1.500000000000000
 43
1.500000000000000
 50
360.0000000000000
  0
INSERT
  5
230
100
AcDbEntity
  8
MA10
  6
BYBLOCK
 62
0
100
AcDbBlockReference
  2
_OPEN
 10
319.0408379544424
 20
51.37249556863372
 30
0.0000000000000000
 41
3.000000000000000
 42
3.000000000000000
 43
3.000000000000000
 50
360.0000000000000
  0
LINE
  5
231
100
AcDbEntity
  8
MA10
  6
BYBLOCK
 62
0
100
AcDbLine
 10
316.0408379544424
 20
51.37249556863372
 30
0.0000000000000000
 11
311.9566824553953
 21
51.37249556863372
 31
0.0000000000000000
  0
MTEXT
  5
232
100
AcDbEntity
  8
MA10
  6
BYBLOCK
 62
0
100
AcDbMText
 10
313.4566824553953
 20
54.44749549710815
 30
0.0000000000000000
 40
4.649999856948853
 41
0.0000000000000000
 71
     5
 72
     1
  1
\A1;2
 11
1.000000000000000
 21
0.0000000000000000
 31
0.0000000000000000
  7
STANDARD
  0
ENDBLK
  5
233
100
AcDbEntity
  8
MA10
  6
CONTINUOUS
 62
3
100
AcDbBlockEnd
  0
BLOCK
  5
235
100
AcDbEntity
  8
MA10
  6
CONTINUOUS
 62
3
100
AcDbBlockBegin
  2
*D34
 70
    65
 10
0.0
 20
0.0
 30
0.0
  0
LINE
  5
236
100
AcDbEntity
  8
MA10
  6
BYBLOCK
 62
0
100
AcDbLine
 10
269.0408379544425
 20
292.3724955686338
 30
0.0000000000000000
 11
269.0408379544425
 21
275.3724955686338
 31
0.0000000000000000
  0
INSERT
  5
237
100
AcDbEntity
  8
MA10
  6
BYBLOCK
 62
0
100
AcDbBlockReference
  2
_OPEN
 10
269.0408379544425
 20
294.3724955686338
 30
0.0000000000000000
 41
3.000000000000000
 42
3.000000000000000
 43
3.000000000000000
 50
90.00000000000000
  0
INSERT
  5
238
100
AcDbEntity
  8
MA10
  6
BYBLOCK
 62
0
100
AcDbBlockReference
  2
_OPEN
 10
269.0408379544425
 20
273.3724955686338
 30
0.0000000000000000
 41
3.000000000000000
 42
3.000000000000000
 43
3.000000000000000
 50
270.0000000000000
  0
MTEXT
  5
239
100
AcDbEntity
  8
MA10
  6
BYBLOCK
 62
0
100
AcDbMText
 10
266.2158380259680
 20
283.8724955686338
 30
0.0000000000000000
 40
4.649999856948853
 41
0.0000000000000000
 71
     5
 72
     1
  1
\A1;\U+220521
 11
6.123233995736766e-017
 21
1.000000000000000
 31
0.0000000000000000
  7
STANDARD
  0
ENDBLK
  5
23A
100
AcDbEntity
  8
MA10
  6
CONTINUOUS
 62
3
100
AcDbBlockEnd
  0
BLOCK
  5
3C5
100
AcDbEntity
  8
MA0
  6
BYBLOCK
 62
3
100
AcDbBlockBegin
  2
M0
 70
    64
 10
0.0
 20
0.0
 30
0.0
  0
MTEXT
  5
3C6
100
AcDbEntity
  8
MA0
  6
BYBLOCK
 62
0
100
AcDbMText
 10
405.6646077844484
 20
84.65888700921124
 30
0.0000000000000000
 40
4.650000572204590
 41
0.0000000000000000
 71
     1
 72
     1
  1
{\H0.95x;上記仕様は標準ソフトジョー付で許容最大入力時の場合\Pまた最大静的把握力、および許容最高回転速度については\Pソフトジョーの面上高さの１／２での実測値を示す}
 11
1.000000000000000
 21
0.0000000000000000
 31
0.0000000000000000
  7
KNJYOKO
  0
CIRCLE
  5
3C7
100
AcDbEntity
  8
MA0
  6
BYBLOCK
 62
0
100
AcDbCircle
 10
402.5096127625901
 20
82.22793800442906
 30
0.0000000000000000
 40
1.500000000000000
  0
ENDBLK
  5
3C8
100
AcDbEntity
  8
MA0
  6
BYBLOCK
 62
3
100
AcDbBlockEnd
  0
BLOCK
  5
3CA
100
AcDbEntity
  8
MA0
  6
BYBLOCK
 62
3
100
AcDbBlockBegin
  2
M1
 70
    64
 10
0.0
 20
0.0
 30
0.0
  0
LINE
  5
3CB
100
AcDbEntity
  8
MA0
  6
BYBLOCK
 62
0
100
AcDbLine
 10
399.8895633991509
 20
229.8506406108671
 30
0.0000000000000000
 11
515.3895633991508
 21
229.8506406108671
 31
0.0000000000000000
  0
LINE
  5
3CC
100
AcDbEntity
  8
MA0
  6
BYBLOCK
 62
0
100
AcDbLine
 10
399.8895633991509
 20
214.8506406108671
 30
0.0000000000000000
 11
515.3895633991508
 21
214.8506406108671
 31
0.0000000000000000
  0
LINE
  5
3CD
100
AcDbEntity
  8
MA0
  6
BYBLOCK
 62
0
100
AcDbLine
 10
399.8895633991509
 20
87.35064061086717
 30
0.0000000000000000
 11
399.8895633991509
 21
229.8506406108671
 31
0.0000000000000000
  0
LINE
  5
3CE
100
AcDbEntity
  8
MA0
  6
BYBLOCK
 62
0
100
AcDbLine
 10
399.8895633991509
 20
204.3506406108675
 30
0.0000000000000000
 11
515.3895633991506
 21
204.3506406108675
 31
0.0000000000000000
  0
LINE
  5
3CF
100
AcDbEntity
  8
MA0
  6
BYBLOCK
 62
0
100
AcDbLine
 10
399.8895633991509
 20
193.8506406108675
 30
0.0000000000000000
 11
515.3895633991506
 21
193.8506406108675
 31
0.0000000000000000
  0
LINE
  5
3D0
100
AcDbEntity
  8
MA0
  6
BYBLOCK
 62
0
100
AcDbLine
 10
399.8895633991509
 20
178.8506406108673
 30
0.0000000000000000
 11
515.3895633991506
 21
178.8506406108673
 31
0.0000000000000000
  0
LINE
  5
3D1
100
AcDbEntity
  8
MA0
  6
BYBLOCK
 62
0
100
AcDbLine
 10
399.8895633991509
 20
163.8506406108672
 30
0.0000000000000000
 11
515.3895633991506
 21
163.8506406108672
 31
0.0000000000000000
  0
LINE
  5
3D2
100
AcDbEntity
  8
MA0
  6
BYBLOCK
 62
0
100
AcDbLine
 10
399.8895633991509
 20
153.3506406108672
 30
0.0000000000000000
 11
515.3895633991506
 21
153.3506406108672
 31
0.0000000000000000
  0
LINE
  5
3D3
100
AcDbEntity
  8
MA0
  6
BYBLOCK
 62
0
100
AcDbLine
 10
399.8895633991509
 20
142.8506406108672
 30
0.0000000000000000
 11
515.3895633991506
 21
142.8506406108672
 31
0.0000000000000000
  0
LINE
  5
3D4
100
AcDbEntity
  8
MA0
  6
BYBLOCK
 62
0
100
AcDbLine
 10
399.8895633991509
 20
127.8506406108672
 30
0.0000000000000000
 11
515.3895633991506
 21
127.8506406108672
 31
0.0000000000000000
  0
LINE
  5
3D5
100
AcDbEntity
  8
MA0
  6
BYBLOCK
 62
0
100
AcDbLine
 10
399.8895633991509
 20
112.8506406108672
 30
0.0000000000000000
 11
515.3895633991506
 21
112.8506406108672
 31
0.0000000000000000
  0
LINE
  5
3D6
100
AcDbEntity
  8
MA0
  6
BYBLOCK
 62
0
100
AcDbLine
 10
399.8895633991509
 20
102.3506406108672
 30
0.0000000000000000
 11
515.3895633991506
 21
102.3506406108672
 31
0.0000000000000000
  0
LINE
  5
3D7
100
AcDbEntity
  8
MA0
  6
BYBLOCK
 62
0
100
AcDbLine
 10
399.8895633991508
 20
87.35064061086717
 30
0.0000000000000000
 11
515.3895633991507
 21
87.35064061086683
 31
0.0000000000000000
  0
LINE
  5
3D8
100
AcDbEntity
  8
MA0
  6
BYBLOCK
 62
0
100
AcDbLine
 10
470.3895633991506
 20
87.35064061086683
 30
0.0000000000000000
 11
470.3895633991506
 21
214.8506406108672
 31
0.0000000000000000
  0
LINE
  5
3D9
100
AcDbEntity
  8
MA0
  6
BYBLOCK
 62
0
100
AcDbLine
 10
515.3895633991506
 20
87.35064061086672
 30
0.0000000000000000
 11
515.3895633991506
 21
229.8506406108671
 31
0.0000000000000000
  0
MTEXT
  5
3DA
100
AcDbEntity
  8
MA0
  6
BYBLOCK
 62
0
100
AcDbMText
 10
404.4998260803234
 20
209.2455823008795
 30
0.0000000000000000
 40
3.599999427795410
 41
0.0000000000000000
 71
     1
 72
     1
  1
{\H0.93x;プランジャストロ－ク}
 11
1.000000000000000
 21
0.0000000000000000
 31
0.0000000000000000
  7
KNJYOKO
  0
MTEXT
  5
3DB
100
AcDbEntity
  8
MA0
  6
BYBLOCK
 62
0
100
AcDbMText
 10
404.4998260803234
 20
198.7455823008799
 30
0.0000000000000000
 40
3.599999427795410
 41
0.0000000000000000
 71
     1
 72
     1
  1
{\H0.94x;ジョーストローク(直径で)}
 11
1.000000000000000
 21
0.0000000000000000
 31
0.0000000000000000
  7
KNJYOKO
  0
MTEXT
  5
3DC
100
AcDbEntity
  8
MA0
  6
BYBLOCK
 62
0
100
AcDbMText
 10
404.4998260803234
 20
185.2455823008799
 30
0.0000000000000000
 40
3.599999427795410
 41
0.0000000000000000
 71
     1
 72
     1
  1
{\H0.93x;許容最大入力　}
 11
1.000000000000000
 21
0.0000000000000000
 31
0.0000000000000000
  7
KNJYOKO
  0
MTEXT
  5
3DD
100
AcDbEntity
  8
MA0
  6
BYBLOCK
 62
0
100
AcDbMText
 10
404.4998260803234
 20
173.2455823008797
 30
0.0000000000000000
 40
3.599999427795410
 41
0.0000000000000000
 71
     1
 72
     1
  1
{\H0.93x;最大静的把握力　　}
 11
1.000000000000000
 21
0.0000000000000000
 31
0.0000000000000000
  7
KNJYOKO
  0
MTEXT
  5
3DE
100
AcDbEntity
  8
MA0
  6
BYBLOCK
 62
0
100
AcDbMText
 10
404.4998260803234
 20
158.2455823008797
 30
0.0000000000000000
 40
3.599999427795410
 41
0.0000000000000000
 71
     1
 72
     1
  1
{\H0.93x;許容最高回転速度　}
 11
1.000000000000000
 21
0.0000000000000000
 31
0.0000000000000000
  7
KNJYOKO
  0
MTEXT
  5
3DF
100
AcDbEntity
  8
MA0
  6
BYBLOCK
 62
0
100
AcDbMText
 10
404.4998260803234
 20
147.7455823008797
 30
0.0000000000000000
 40
3.599999427795410
 41
0.0000000000000000
 71
     1
 72
     1
  1
{\H0.89x;質量\P}
 11
1.000000000000000
 21
0.0000000000000000
 31
0.0000000000000000
  7
KNJYOKO
  0
MTEXT
  5
3E0
100
AcDbEntity
  8
MA0
  6
BYBLOCK
 62
0
100
AcDbMText
 10
404.6108796178788
 20
138.8140073037978
 30
0.0000000000000000
 40
3.749998569488525
 41
0.0000000000000000
 71
     1
 72
     1
  1
{\H0.75x;MOMENT OF INERTIA\P慣性モーメント}
 11
1.000000000000000
 21
0.0000000000000000
 31
0.0000000000000000
  7
KNJYOKO
  0
MTEXT
  5
3E1
100
AcDbEntity
  8
MA0
  6
BYBLOCK
 62
0
100
AcDbMText
 10
404.4998260803234
 20
117.7455823008796
 30
0.0000000000000000
 40
3.599999427795410
 41
0.0000000000000000
 71
     1
 72
     1
  1
{\H0.94x;最高回転時の動的把握力}
 11
1.000000000000000
 21
0.0000000000000000
 31
0.0000000000000000
  7
KNJYOKO
  0
MTEXT
  5
3E2
100
AcDbEntity
  8
MA0
  6
BYBLOCK
 62
0
100
AcDbMText
 10
404.4998260803234
 20
107.2455823008796
 30
0.0000000000000000
 40
3.599999427795410
 41
0.0000000000000000
 71
     1
 72
     1
  1
{\H0.93x;使用シリンダ}
 11
1.000000000000000
 21
0.0000000000000000
 31
0.0000000000000000
  7
KNJYOKO
  0
MTEXT
  5
3E3
100
AcDbEntity
  8
MA0
  6
BYBLOCK
 62
0
100
AcDbMText
 10
404.2149256136471
 20
93.92137560829556
 30
0.0000000000000000
 40
3.599999427795410
 41
0.0000000000000000
 71
     1
 72
     1
  1
{\H0.93x;許容最大油圧力}
 11
1.000000000000000
 21
0.0000000000000000
 31
0.0000000000000000
  7
KNJYOKO
  0
MTEXT
  5
3E4
100
AcDbEntity
  8
MA0
  6
BYBLOCK
 62
0
100
AcDbMText
 10
492.8895633991506
 20
210.0506394664579
 30
0.0000000000000000
 40
4.199998855590820
 41
0.0000000000000000
 71
     1
 72
     1
  1
{\H0.58x;　　　　ｍｍ}
 11
1.000000000000000
 21
0.0000000000000000
 31
0.0000000000000000
  7
KNJYOKO
  0
MTEXT
  5
3E5
100
AcDbEntity
  8
MA0
  6
BYBLOCK
 62
0
100
AcDbMText
 10
492.8895633991506
 20
199.5506394664579
 30
0.0000000000000000
 40
4.199998855590820
 41
0.0000000000000000
 71
     1
 72
     1
  1
{\H0.58x;　　　　ｍｍ}
 11
1.000000000000000
 21
0.0000000000000000
 31
0.0000000000000000
  7
KNJYOKO
  0
MTEXT
  5
3E6
100
AcDbEntity
  8
MA0
  6
BYBLOCK
 62
0
100
AcDbMText
 10
492.8895633991506
 20
148.5506394664577
 30
0.0000000000000000
 40
4.199998855590820
 41
0.0000000000000000
 71
     1
 72
     1
  1
{\H0.58x;　　　　ｋｇ}
 11
1.000000000000000
 21
0.0000000000000000
 31
0.0000000000000000
  7
KNJYOKO
  0
MTEXT
  5
3E7
100
AcDbEntity
  8
MA0
  6
BYBLOCK
 62
0
100
AcDbMText
 10
492.8895633991506
 20
159.0506394664577
 30
0.0000000000000000
 40
4.199998855590820
 41
0.0000000000000000
 71
     1
 72
     1
  1
{\H0.58x;　　ｍｉｎ}
 11
1.000000000000000
 21
0.0000000000000000
 31
0.0000000000000000
  7
KNJYOKO
  0
MTEXT
  5
3E8
100
AcDbEntity
  8
MA0
  6
BYBLOCK
 62
0
100
AcDbMText
 10
440.1967244431045
 20
221.3240241785378
 30
0.0000000000000000
 40
4.650000572204590
 41
0.0000000000000000
 71
     1
 72
     1
  1
{\H0.93x;仕　　　様}
 11
1.000000000000000
 21
0.0000000000000000
 31
0.0000000000000000
  7
KNJYOKO
  0
MTEXT
  5
3E9
100
AcDbEntity
  8
MA0
  6
BYBLOCK
 62
0
100
AcDbMText
 10
491.3895633991506
 20
183.8006394664577
 30
0.0000000000000000
 40
4.199998855590820
 41
0.0000000000000000
 71
     1
 72
     1
  1
{\H0.60x;　　　ｋｇｆ)}
 11
1.000000000000000
 21
0.0000000000000000
 31
0.0000000000000000
  7
KNJYOKO
  0
MTEXT
  5
3EA
100
AcDbEntity
  8
MA0
  6
BYBLOCK
 62
0
100
AcDbMText
 10
473.3895633991506
 20
183.8006394664577
 30
0.0000000000000000
 40
4.199998855590820
 41
0.0000000000000000
 71
     1
 72
     1
  1
{\H0.60x;(}
 11
1.000000000000000
 21
0.0000000000000000
 31
0.0000000000000000
  7
STANDARD
  0
MTEXT
  5
3EB
100
AcDbEntity
  8
MA0
  6
BYBLOCK
 62
0
100
AcDbMText
 10
492.8895633991506
 20
189.8006394664579
 30
0.0000000000000000
 40
4.199998855590820
 41
0.0000000000000000
 71
     1
 72
     1
  1
{\H0.58x;　　　　ｋＮ}
 11
1.000000000000000
 21
0.0000000000000000
 31
0.0000000000000000
  7
KNJYOKO
  0
MTEXT
  5
3EC
100
AcDbEntity
  8
MA0
  6
BYBLOCK
 62
0
100
AcDbMText
 10
491.3895633991506
 20
168.8006394664577
 30
0.0000000000000000
 40
4.199998855590820
 41
0.0000000000000000
 71
     1
 72
     1
  1
{\H0.60x;　　　ｋｇｆ)}
 11
1.000000000000000
 21
0.0000000000000000
 31
0.0000000000000000
  7
KNJYOKO
  0
MTEXT
  5
3ED
100
AcDbEntity
  8
MA0
  6
BYBLOCK
 62
0
100
AcDbMText
 10
473.3895633991506
 20
168.8006394664577
 30
0.0000000000000000
 40
4.199998855590820
 41
0.0000000000000000
 71
     1
 72
     1
  1
{\H0.60x;(}
 11
1.000000000000000
 21
0.0000000000000000
 31
0.0000000000000000
  7
STANDARD
  0
MTEXT
  5
3EE
100
AcDbEntity
  8
MA0
  6
BYBLOCK
 62
0
100
AcDbMText
 10
492.5590265570410
 20
133.2068761955448
 30
0.0000000000000000
 40
4.199998855590820
 41
0.0000000000000000
 71
     7
 72
     1
  1
　　ｋｇ・ｍ
 11
1.000000000000000
 21
0.0000000000000000
 31
0.0000000000000000
  7
KNJYOKO
  0
MTEXT
  5
3EF
100
AcDbEntity
  8
MA0
  6
BYBLOCK
 62
0
100
AcDbMText
 10
510.5590265570410
 20
135.3068756233402
 30
0.0000000000000000
 40
2.099999427795410
 41
0.0000000000000000
 71
     7
 72
     1
  1
2
 11
1.000000000000000
 21
0.0000000000000000
 31
0.0000000000000000
  7
STANDARD
  0
MTEXT
  5
3F0
100
AcDbEntity
  8
MA0
  6
BYBLOCK
 62
0
100
AcDbMText
 10
491.3895633991506
 20
117.8006394664577
 30
0.0000000000000000
 40
4.199998855590820
 41
0.0000000000000000
 71
     1
 72
     1
  1
{\H0.60x;　　　ｋｇｆ)}
 11
1.000000000000000
 21
0.0000000000000000
 31
0.0000000000000000
  7
KNJYOKO
  0
MTEXT
  5
3F1
100
AcDbEntity
  8
MA0
  6
BYBLOCK
 62
0
100
AcDbMText
 10
473.3895633991506
 20
117.8006394664577
 30
0.0000000000000000
 40
4.199998855590820
 41
0.0000000000000000
 71
     1
 72
     1
  1
{\H0.60x;(}
 11
1.000000000000000
 21
0.0000000000000000
 31
0.0000000000000000
  7
STANDARD
  0
MTEXT
  5
3F2
100
AcDbEntity
  8
MA0
  6
BYBLOCK
 62
0
100
AcDbMText
 10
491.3895633991506
 20
92.30063946645748
 30
0.0000000000000000
 40
4.199998855590820
 41
0.0000000000000000
 71
     1
 72
     1
  1
{\H0.62x;ｋｇｆ／ｃｍ )}
 11
1.000000000000000
 21
0.0000000000000000
 31
0.0000000000000000
  7
KNJYOKO
  0
MTEXT
  5
3F3
100
AcDbEntity
  8
MA0
  6
BYBLOCK
 62
0
100
AcDbMText
 10
509.4695071491992
 20
92.91624665320043
 30
0.0000000000000000
 40
3.000000000000000
 41
0.0000000000000000
 71
     1
 72
     1
  1
{\H0.81x;2}
 11
1.000000000000000
 21
0.0000000000000000
 31
0.0000000000000000
  7
STANDARD
  0
MTEXT
  5
3F4
100
AcDbEntity
  8
MA0
  6
BYBLOCK
 62
0
100
AcDbMText
 10
473.3895633991506
 20
92.30063946645748
 30
0.0000000000000000
 40
4.199998855590820
 41
0.0000000000000000
 71
     1
 72
     1
  1
{\H0.60x;(}
 11
1.000000000000000
 21
0.0000000000000000
 31
0.0000000000000000
  7
STANDARD
  0
MTEXT
  5
3F5
100
AcDbEntity
  8
MA0
  6
BYBLOCK
 62
0
100
AcDbMText
 10
492.8895633991506
 20
98.30063946645748
 30
0.0000000000000000
 40
4.199998855590820
 41
0.0000000000000000
 71
     1
 72
     1
  1
{\H0.58x;　　　ＭＰａ}
 11
1.000000000000000
 21
0.0000000000000000
 31
0.0000000000000000
  7
KNJYOKO
  0
MTEXT
  5
3F6
100
AcDbEntity
  8
MA0
  6
BYBLOCK
 62
0
100
AcDbMText
 10
492.8895633991506
 20
174.8006394664577
 30
0.0000000000000000
 40
4.199998855590820
 41
0.0000000000000000
 71
     1
 72
     1
  1
{\H0.58x;　　　　ｋＮ}
 11
1.000000000000000
 21
0.0000000000000000
 31
0.0000000000000000
  7
KNJYOKO
  0
MTEXT
  5
3F7
100
AcDbEntity
  8
MA0
  6
BYBLOCK
 62
0
100
AcDbMText
 10
492.8895633991506
 20
123.8006394664577
 30
0.0000000000000000
 40
4.199998855590820
 41
0.0000000000000000
 71
     1
 72
     1
  1
{\H0.58x;　　　　ｋＮ}
 11
1.000000000000000
 21
0.0000000000000000
 31
0.0000000000000000
  7
KNJYOKO
  0
MTEXT
  5
3F8
100
AcDbEntity
  8
MA0
  6
BYBLOCK
 62
0
100
AcDbMText
 10
508.1215657716305
 20
160.0549562957999
 30
0.0000000000000000
 40
3.000000000000000
 41
0.0000000000000000
 71
     1
 72
     1
  1
{\H0.88x;-1}
 11
1.000000000000000
 21
0.0000000000000000
 31
0.0000000000000000
  7
STANDARD
  0
MTEXT
  5
3F9
100
AcDbEntity
  8
MA0
  6
BYBLOCK
 62
0
100
AcDbMText
 10
404.4998260803234
 20
213.8955814425726
 30
0.0000000000000000
 40
3.749998569488525
 41
0.0000000000000000
 71
     1
 72
     1
  1
{\H0.75x;PLUNGER STROKE}
 11
1.000000000000000
 21
0.0000000000000000
 31
0.0000000000000000
  7
STANDARD
  0
MTEXT
  5
3FA
100
AcDbEntity
  8
MA0
  6
BYBLOCK
 62
0
100
AcDbMText
 10
404.4998260803234
 20
203.3955814425730
 30
0.0000000000000000
 40
3.749998569488525
 41
0.0000000000000000
 71
     1
 72
     1
  1
{\H0.75x;JAW STROKE (IN DIA)}
 11
1.000000000000000
 21
0.0000000000000000
 31
0.0000000000000000
  7
STANDARD
  0
MTEXT
  5
3FB
100
AcDbEntity
  8
MA0
  6
BYBLOCK
 62
0
100
AcDbMText
 10
404.4998260803234
 20
189.8955828730844
 30
0.0000000000000000
 40
3.750000000000000
 41
0.0000000000000000
 71
     1
 72
     1
  1
{\H0.63x;MAX PERMISSIBLE INPUT FORCE}
 11
1.000000000000000
 21
0.0000000000000000
 31
0.0000000000000000
  7
STANDARD
  0
MTEXT
  5
3FC
100
AcDbEntity
  8
MA0
  6
BYBLOCK
 62
0
100
AcDbMText
 10
404.4998260803234
 20
177.8955828730843
 30
0.0000000000000000
 40
3.750000000000000
 41
0.0000000000000000
 71
     1
 72
     1
  1
{\H0.63x;MAX STATIC GRIPPING FORCE}
 11
1.000000000000000
 21
0.0000000000000000
 31
0.0000000000000000
  7
STANDARD
  0
MTEXT
  5
3FD
100
AcDbEntity
  8
MA0
  6
BYBLOCK
 62
0
100
AcDbMText
 10
404.4998260803234
 20
162.8955814425728
 30
0.0000000000000000
 40
3.749998569488525
 41
0.0000000000000000
 71
     1
 72
     1
  1
{\H0.75x;MAX PERMISSIBLE SPEED}
 11
1.000000000000000
 21
0.0000000000000000
 31
0.0000000000000000
  7
STANDARD
  0
MTEXT
  5
3FE
100
AcDbEntity
  8
MA0
  6
BYBLOCK
 62
0
100
AcDbMText
 10
404.4998260803234
 20
152.3955814425728
 30
0.0000000000000000
 40
3.749998569488525
 41
0.0000000000000000
 71
     1
 72
     1
  1
{\H0.73x;MASS}
 11
1.000000000000000
 21
0.0000000000000000
 31
0.0000000000000000
  7
STANDARD
  0
MTEXT
  5
3FF
100
AcDbEntity
  8
MA0
  6
BYBLOCK
 62
0
100
AcDbMText
 10
404.6108796178788
 20
112.6811412030322
 30
0.0000000000000000
 40
3.749998569488525
 41
0.0000000000000000
 71
     1
 72
     1
  1
{\H0.75x;OPERATING CYLINDER}
 11
1.000000000000000
 21
0.0000000000000000
 31
0.0000000000000000
  7
STANDARD
  0
MTEXT
  5
400
100
AcDbEntity
  8
MA0
  6
BYBLOCK
 62
0
100
AcDbMText
 10
404.0169486115312
 20
99.41673258104498
 30
0.0000000000000000
 40
3.750000000000000
 41
0.0000000000000000
 71
     1
 72
     1
  1
{\H0.63x;MAX PERMISSIBLE OIL PRESS}
 11
1.000000000000000
 21
0.0000000000000000
 31
0.0000000000000000
  7
STANDARD
  0
MTEXT
  5
401
100
AcDbEntity
  8
MA0
  6
BYBLOCK
 62
0
100
AcDbMText
 10
404.4129026157630
 20
126.1435259120609
 30
0.0000000000000000
 40
3.750000000000000
 41
0.0000000000000000
 71
     1
 72
     1
  1
{\H0.63x;DYNAMIC GRIPPING FORCE}
 11
1.000000000000000
 21
0.0000000000000000
 31
0.0000000000000000
  7
STANDARD
  0
MTEXT
  5
402
100
AcDbEntity
  8
MA0
  6
BYBLOCK
 62
0
100
AcDbMText
 10
390.6326517184167
 20
122.1178658235933
 30
0.0000000000000000
 40
3.749998569488525
 41
0.0000000000000000
 71
     1
 72
     1
  1
{\H0.75x;            AT MAX SPEED}
 11
1.000000000000000
 21
0.0000000000000000
 31
0.0000000000000000
  7
STANDARD
  0
MTEXT
  5
403
100
AcDbEntity
  8
MA0
  6
BYBLOCK
 62
0
100
AcDbMText
 10
425.4919348095693
 20
227.3908274397403
 30
0.0000000000000000
 40
4.650000572204590
 41
0.0000000000000000
 71
     1
 72
     1
  1
{\H0.94x;SPECIFICATIONS}
 11
1.000000000000000
 21
0.0000000000000000
 31
0.0000000000000000
  7
STANDARD
  0
ENDBLK
  5
404
100
AcDbEntity
  8
MA0
  6
BYBLOCK
 62
3
100
AcDbBlockEnd
  0
BLOCK
  5
406
100
AcDbEntity
  8
MA0
  6
BYBLOCK
 62
3
100
AcDbBlockBegin
  2
M2
 70
    64
 10
0.0
 20
0.0
 30
0.0
  0
MTEXT
  5
407
100
AcDbEntity
  8
MA0
  6
BYBLOCK
 62
0
100
AcDbMText
 10
365.0709296236900
 20
56.56665123240359
 30
0.0000000000000000
 40
4.649999856948853
 41
0.0000000000000000
 71
     1
 72
     1
  3
{\H0.93x;ABOVE SPECS : WITH STD SOFT BLANK TOP JAWS\P              AT MAX PERMISSBLE INPUT FORCE.\P              MAX. STATIC GRIPPING FORCE AND\P              MAX. PERMISSIBLE SPEED ARE\P              ACTUAL VALUE AT 1/2 HEIGHT\P              OF STD 
  1
SOFT BLANK TOP JAWS\P              FROM CHUCK SURFACE.}
 11
1.000000000000000
 21
0.0000000000000000
 31
0.0000000000000000
  7
STANDARD
  0
ENDBLK
  5
408
100
AcDbEntity
  8
MA0
  6
BYBLOCK
 62
3
100
AcDbBlockEnd
  0
ENDSEC
  0
SECTION
  2
ENTITIES
  0
LINE
  5
46
100
AcDbEntity
  8
WAKU0
  6
CONTINUOUS
 62
3
100
AcDbLine
 10
-5.795911628726969
 20
79.56122389234662
 30
0.0000000000000000
 11
164.2040883712730
 21
79.56122389234662
 31
0.0000000000000000
  0
LINE
  5
47
100
AcDbEntity
  8
WAKU0
  6
CONTINUOUS
 62
3
100
AcDbLine
 10
-5.795911628726969
 20
79.56122389234662
 30
0.0000000000000000
 11
-5.795911628726969
 21
40.56122389234662
 31
0.0000000000000000
  0
LINE
  5
48
100
AcDbEntity
  8
WAKU0
  6
CONTINUOUS
 62
3
100
AcDbLine
 10
66.20408837127303
 20
79.56122389234662
 30
0.0000000000000000
 11
66.20408837127303
 21
40.56122389234662
 31
0.0000000000000000
  0
LINE
  5
49
100
AcDbEntity
  8
WAKU0
  6
CONTINUOUS
 62
3
100
AcDbLine
 10
86.20408837127303
 20
79.56122389234662
 30
0.0000000000000000
 11
86.20408837127303
 21
40.56122389234662
 31
0.0000000000000000
  0
LINE
  5
4A
100
AcDbEntity
  8
WAKU0
  6
CONTINUOUS
 62
3
100
AcDbLine
 10
98.20408837127303
 20
79.56122389234662
 30
0.0000000000000000
 11
98.20408837127303
 21
40.56122389234662
 31
0.0000000000000000
  0
LINE
  5
4B
100
AcDbEntity
  8
WAKU0
  6
CONTINUOUS
 62
3
100
AcDbLine
 10
98.20408837127303
 20
65.56122389234662
 30
0.0000000000000000
 11
164.2040883712730
 21
65.56122389234662
 31
0.0000000000000000
  0
LINE
  5
4C
100
AcDbEntity
  8
WAKU0
  6
CONTINUOUS
 62
3
100
AcDbLine
 10
86.20408837127303
 20
51.56122389234662
 30
0.0000000000000000
 11
164.2040883712730
 21
51.56122389234662
 31
0.0000000000000000
  0
LINE
  5
4D
100
AcDbEntity
  8
WAKU0
  6
CONTINUOUS
 62
3
100
AcDbLine
 10
129.2040883712730
 20
79.56122389234662
 30
0.0000000000000000
 11
129.2040883712730
 21
72.56122389234662
 31
0.0000000000000000
  0
LINE
  5
4E
100
AcDbEntity
  8
WAKU0
  6
CONTINUOUS
 62
3
100
AcDbLine
 10
141.2040883712730
 20
79.56122389234662
 30
0.0000000000000000
 11
141.2040883712730
 21
72.56122389234662
 31
0.0000000000000000
  0
LINE
  5
4F
100
AcDbEntity
  8
WAKU0
  6
CONTINUOUS
 62
3
100
AcDbLine
 10
66.20408837127303
 20
60.06122389234662
 30
0.0000000000000000
 11
86.20408837127303
 21
60.06122389234662
 31
0.0000000000000000
  0
LINE
  5
50
100
AcDbEntity
  8
WAKU0
  6
CONTINUOUS
 62
3
100
AcDbLine
 10
86.20408837127303
 20
72.56122389234662
 30
0.0000000000000000
 11
164.2040883712730
 21
72.56122389234662
 31
0.0000000000000000
  0
LINE
  5
51
100
AcDbEntity
  8
WAKU0
  6
CONTINUOUS
 62
3
100
AcDbLine
 10
-5.795911628726969
 20
65.56122389234662
 30
0.0000000000000000
 11
66.20408837127303
 21
65.56122389234662
 31
0.0000000000000000
  0
LINE
  5
52
100
AcDbEntity
  8
WAKU0
  6
CONTINUOUS
 62
3
100
AcDbLine
 10
-5.795911628726969
 20
51.56122389234662
 30
0.0000000000000000
 11
66.20408837127303
 21
51.56122389234662
 31
0.0000000000000000
  0
LINE
  5
53
100
AcDbEntity
  8
WAKU0
  6
CONTINUOUS
 62
3
100
AcDbLine
 10
42.20408837127303
 20
65.56122389234662
 30
0.0000000000000000
 11
42.20408837127303
 21
40.56122389234662
 31
0.0000000000000000
  0
LINE
  5
54
100
AcDbEntity
  8
WAKU0
  6
CONTINUOUS
 62
3
100
AcDbLine
 10
18.20408837127303
 20
65.56122389234662
 30
0.0000000000000000
 11
18.20408837127303
 21
51.56122389234662
 31
0.0000000000000000
  0
LINE
  5
55
100
AcDbEntity
  8
WAKU0
  6
CONTINUOUS
 62
3
100
AcDbLine
 10
54.20408837127303
 20
54.56122389234662
 30
0.0000000000000000
 11
54.20408837127303
 21
51.56122389234662
 31
0.0000000000000000
  0
LINE
  5
56
100
AcDbEntity
  8
WAKU0
  6
CONTINUOUS
 62
3
100
AcDbLine
 10
30.20408837127303
 20
54.56122389234662
 30
0.0000000000000000
 11
30.20408837127303
 21
51.56122389234662
 31
0.0000000000000000
  0
LINE
  5
57
100
AcDbEntity
  8
WAKU0
  6
CONTINUOUS
 62
3
100
AcDbLine
 10
6.204088371273031
 20
54.56122389234662
 30
0.0000000000000000
 11
6.204088371273031
 21
51.56122389234662
 31
0.0000000000000000
  0
LINE
  5
58
100
AcDbEntity
  8
WAKU0
  6
CONTINUOUS
 62
3
100
AcDbLine
 10
12.20408837127303
 20
79.56122389234662
 30
0.0000000000000000
 11
12.20408837127303
 21
65.56122389234662
 31
0.0000000000000000
  0
LINE
  5
59
100
AcDbEntity
  8
WAKU0
  6
CONTINUOUS
 62
3
100
AcDbLine
 10
-5.795911628726969
 20
73.56122389234662
 30
0.0000000000000000
 11
66.20408837127303
 21
73.56122389234662
 31
0.0000000000000000
  0
LINE
  5
5A
100
AcDbEntity
  8
WAKU0
  6
HIDDEN
 62
3
100
AcDbLine
 10
114.7040883712730
 20
51.56122389234662
 30
0.0000000000000000
 11
114.7040883712730
 21
40.56122389234662
 31
0.0000000000000000
  0
LINE
  5
5B
100
AcDbEntity
  8
WAKU0
  6
HIDDEN
 62
3
100
AcDbLine
 10
127.1040883712730
 20
51.56122389234662
 30
0.0000000000000000
 11
127.1040883712730
 21
40.56122389234662
 31
0.0000000000000000
  0
MTEXT
  5
5C
100
AcDbEntity
  8
WAKU0
  6
CONTINUOUS
 62
3
100
AcDbMText
 10
98.68608839562153
 20
77.61122384466290
 30
0.0000000000000000
 40
3.099999904632568
 41
0.0000000000000000
 71
     1
 72
     1
  1
{\H0.91x;{N-15}}
 11
1.000000000000000
 21
0.0000000000000000
 31
0.0000000000000000
  7
STANDARD
  0
MTEXT
  5
5D
100
AcDbEntity
  8
WAKU0
  6
CONTINUOUS
 62
3
100
AcDbMText
 10
98.67008836295818
 20
72.06122389234662
 30
0.0000000000000000
 40
3.000000000000000
 41
0.0000000000000000
 71
     1
 72
     1
  1
{\H0.94x;{パワーチャック　１５\PＰＯＷＥＲ　ＣＨＵＣＫ　１５}}
 11
1.000000000000000
 21
0.0000000000000000
 31
0.0000000000000000
  7
KNJYOKO
  0
MTEXT
  5
5E
100
AcDbEntity
  8
WAKU0
  6
CONTINUOUS
 62
3
100
AcDbMText
 10
98.68608839562153
 20
62.79455716210166
 30
0.0000000000000000
 40
3.099999904632568
 41
0.0000000000000000
 71
     1
 72
     1
  1
{\H0.94x;{Ｎ－１５　ガイケイ\PＮ－１５　ＯＵＴＳＩＤＥ　ＶＩＥＷ}}
 11
1.000000000000000
 21
0.0000000000000000
 31
0.0000000000000000
  7
KNJYOKO
  0
MTEXT
  5
5F
100
AcDbEntity
  8
WAKU0
  6
CONTINUOUS
 62
3
100
AcDbMText
 10
72.20908824729537
 20
67.86122384466290
 30
0.0000000000000000
 40
3.099999904632568
 41
0.0000000000000000
 71
     1
 72
     1
  1
{\H0.90x;{2:3}}
 11
1.000000000000000
 21
0.0000000000000000
 31
0.0000000000000000
  7
STANDARD
  0
MTEXT
  5
60
100
AcDbEntity
  8
WAKU0
  6
CONTINUOUS
 62
3
100
AcDbMText
 10
128.6040885262451
 20
48.71122398771405
 30
0.0000000000000000
 40
5.300000190734863
 41
0.0000000000000000
 71
     1
 72
     1
  1
{\H0.90x;{6406}}
 11
1.000000000000000
 21
0.0000000000000000
 31
0.0000000000000000
  7
STANDARD
  0
MTEXT
  5
61
100
AcDbEntity
  8
WAKU0
  6
CONTINUOUS
 62
3
100
AcDbMText
 10
116.5040884547195
 20
48.71122398771405
 30
0.0000000000000000
 40
5.300000190734863
 41
0.0000000000000000
 71
     1
 72
     1
  1
{\H0.87x;{21}}
 11
1.000000000000000
 21
0.0000000000000000
 31
0.0000000000000000
  7
STANDARD
  0
MTEXT
  5
62
100
AcDbEntity
  8
WAKU0
  6
CONTINUOUS
 62
3
100
AcDbMText
 10
99.70408849048232
 20
48.71122398771405
 30
0.0000000000000000
 40
5.300000190734863
 41
0.0000000000000000
 71
     1
 72
     1
  1
{\H0.89x;{61P}}
 11
1.000000000000000
 21
0.0000000000000000
 31
0.0000000000000000
  7
STANDARD
  0
MTEXT
  5
63
100
AcDbEntity
  8
WAKU0
  6
CONTINUOUS
 62
3
100
AcDbMText
 10
154.2040884189568
 20
48.71122398771405
 30
0.0000000000000000
 40
5.300000190734863
 41
0.0000000000000000
 71
     1
 72
     1
  1
{\H0.81x;{5}}
 11
1.000000000000000
 21
0.0000000000000000
 31
0.0000000000000000
  7
STANDARD
  0
MTEXT
  5
64
100
AcDbEntity
  8
WAKU0
  6
CONTINUOUS
 62
3
100
AcDbMText
 10
154.2040884532294
 20
73.41122379697919
 30
0.0000000000000000
 40
5.300000190734863
 41
0.0000000000000000
 71
     7
 72
     1
  1
{\H0.81x;{ }}
 11
1.000000000000000
 21
0.0000000000000000
 31
0.0000000000000000
  7
STANDARD
  0
MTEXT
  5
65
100
AcDbEntity
  8
WAKU0
  6
CONTINUOUS
 62
3
100
AcDbMText
 10
43.58908865975951
 20
61.56122389234662
 30
0.0000000000000000
 40
3.000000000000000
 41
0.0000000000000000
 71
     7
 72
     1
  1
{\H0.93x;{DRAWN BY}}
 11
1.000000000000000
 21
0.0000000000000000
 31
0.0000000000000000
  7
STANDARD
  0
MTEXT
  5
66
100
AcDbEntity
  8
WAKU0
  6
CONTINUOUS
 62
3
100
AcDbMText
 10
23.41908816623305
 20
61.51122394003033
 30
0.0000000000000000
 40
3.099999904632568
 41
0.0000000000000000
 71
     7
 72
     1
  1
{\H0.92x;{CHIEF}}
 11
1.000000000000000
 21
0.0000000000000000
 31
0.0000000000000000
  7
STANDARD
  0
MTEXT
  5
67
100
AcDbEntity
  8
WAKU0
  6
CONTINUOUS
 62
3
100
AcDbMText
 10
-3.370911914829264
 20
61.51122394003033
 30
0.0000000000000000
 40
3.099999904632568
 41
0.0000000000000000
 71
     7
 72
     1
  1
{\H0.92x;{MANAGER}}
 11
1.000000000000000
 21
0.0000000000000000
 31
0.0000000000000000
  7
STANDARD
  0
MTEXT
  5
68
100
AcDbEntity
  8
WAKU0
  6
CONTINUOUS
 62
3
100
AcDbMText
 10
-1.135912198547374
 20
46.69455725746909
 30
0.0000000000000000
 40
3.099999904632568
 41
0.0000000000000000
 71
     7
 72
     1
  1
{\H0.93x;{KITAGAWA IRON\PWORKS CO.,LTD.}}
 11
1.000000000000000
 21
0.0000000000000000
 31
0.0000000000000000
  7
STANDARD
  0
MTEXT
  5
69
100
AcDbEntity
  8
WAKU0
  6
CONTINUOUS
 62
3
100
AcDbMText
 10
-4.710911411766062
 20
75.06122389234662
 30
0.0000000000000000
 40
3.000000000000000
 41
0.0000000000000000
 71
     7
 72
     1
  1
{\H0.92x;{CAREER}}
 11
1.000000000000000
 21
0.0000000000000000
 31
0.0000000000000000
  7
STANDARD
  0
MTEXT
  5
6A
100
AcDbEntity
  8
WAKU0
  6
CONTINUOUS
 62
3
100
AcDbMText
 10
48.81408820676421
 20
47.51122394003033
 30
0.0000000000000000
 40
3.099999904632568
 41
0.0000000000000000
 71
     7
 72
     1
  1
{\H0.91x;{DATE}}
 11
1.000000000000000
 21
0.0000000000000000
 31
0.0000000000000000
  7
STANDARD
  0
MTEXT
  5
6B
100
AcDbEntity
  8
WAKU0
  6
CONTINUOUS
 62
3
100
AcDbMText
 10
68.10408858584975
 20
55.06122389234662
 30
0.0000000000000000
 40
3.000000000000000
 41
0.0000000000000000
 71
     7
 72
     1
  1
{\H0.63x;{3RD ANGLE}}
 11
1.000000000000000
 21
0.0000000000000000
 31
0.0000000000000000
  7
STANDARD
  0
MTEXT
  5
6C
100
AcDbEntity
  8
WAKU0
  6
CONTINUOUS
 62
3
100
AcDbMText
 10
69.41908816623305
 20
74.51122394003033
 30
0.0000000000000000
 40
3.099999904632568
 41
0.0000000000000000
 71
     7
 72
     1
  1
{\H0.92x;{SCALE}}
 11
1.000000000000000
 21
0.0000000000000000
 31
0.0000000000000000
  7
STANDARD
  0
MTEXT
  5
6D
100
AcDbEntity
  8
WAKU0
  6
CONTINUOUS
 62
3
100
AcDbMText
 10
159.9040884189568
 20
74.56122389234662
 30
0.0000000000000000
 40
3.000000000000000
 41
0.0000000000000000
 71
     7
 72
     1
  1
{\H0.63x;{kg}}
 11
1.000000000000000
 21
0.0000000000000000
 31
0.0000000000000000
  7
STANDARD
  0
MTEXT
  5
6E
100
AcDbEntity
  8
WAKU0
  6
CONTINUOUS
 62
3
100
AcDbMText
 10
129.8040885143242
 20
74.56122389234662
 30
0.0000000000000000
 40
3.000000000000000
 41
0.0000000000000000
 71
     7
 72
     1
  1
{\H0.63x;{WEIGHT}}
 11
1.000000000000000
 21
0.0000000000000000
 31
0.0000000000000000
  7
STANDARD
  0
MTEXT
  5
6F
100
AcDbEntity
  8
WAKU0
  6
CONTINUOUS
 62
3
100
AcDbMText
 10
88.20908824729537
 20
46.69455725746909
 30
0.0000000000000000
 40
3.099999904632568
 41
0.0000000000000000
 71
     7
 72
     1
  1
{\H0.90x;{DRW\PNO.}}
 11
1.000000000000000
 21
0.0000000000000000
 31
0.0000000000000000
  7
STANDARD
  0
MTEXT
  5
70
100
AcDbEntity
  8
WAKU0
  6
CONTINUOUS
 62
3
100
AcDbMText
 10
86.81408820676421
 20
60.51122394003033
 30
0.0000000000000000
 40
3.099999904632568
 41
0.0000000000000000
 71
     7
 72
     1
  1
{\H0.91x;{NAME}}
 11
1.000000000000000
 21
0.0000000000000000
 31
0.0000000000000000
  7
STANDARD
  0
MTEXT
  5
71
100
AcDbEntity
  8
WAKU0
  6
CONTINUOUS
 62
3
100
AcDbMText
 10
86.81408820676421
 20
74.51122394003033
 30
0.0000000000000000
 40
3.099999904632568
 41
0.0000000000000000
 71
     7
 72
     1
  1
{\H0.91x;{TYPE}}
 11
1.000000000000000
 21
0.0000000000000000
 31
0.0000000000000000
  7
STANDARD
  0
LINE
  5
72
100
AcDbEntity
  8
WAKU0
  6
HIDDEN
 62
3
100
AcDbLine
 10
161.3640448456615
 20
42.41122379697919
 30
0.0000000000000000
 11
151.1441319922520
 21
42.41122379697919
 31
0.0000000000000000
  0
LINE
  5
73
100
AcDbEntity
  8
WAKU0
  6
HIDDEN
 62
3
100
AcDbLine
 10
161.3640448456615
 20
42.41122379697912
 30
0.0000000000000000
 11
156.2540884189582
 21
51.26192795249563
 31
0.0000000000000000
  0
LINE
  5
74
100
AcDbEntity
  8
WAKU0
  6
HIDDEN
 62
3
100
AcDbLine
 10
156.2540884189582
 20
51.26192795249563
 30
0.0000000000000000
 11
151.1441319922519
 21
42.41122379697910
 31
0.0000000000000000
  0
LINE
  5
75
100
AcDbEntity
  8
WAKU0
  6
CONTINUOUS
 62
3
100
AcDbLine
 10
84.67547614665301
 20
44.34163810497474
 30
0.0000000000000000
 11
84.67547614665301
 21
50.34163810497476
 31
0.0000000000000000
  0
LINE
  5
76
100
AcDbEntity
  8
WAKU0
  6
CONTINUOUS
 62
3
100
AcDbLine
 10
78.13778249409552
 20
45.84163810497473
 30
0.0000000000000000
 11
78.13778249409552
 21
48.84163810497486
 31
0.0000000000000000
  0
LINE
  5
77
100
AcDbEntity
  8
WAKU0
  6
CENTER
 62
12
100
AcDbLine
 10
67.63626892277256
 20
47.34163810497475
 30
0.0000000000000000
 11
85.48066726774243
 21
47.34163810497475
 31
0.0000000000000000
  0
LINE
  5
78
100
AcDbEntity
  8
WAKU0
  6
CENTER
 62
12
100
AcDbLine
 10
71.65154495707162
 20
43.12044052153110
 30
0.0000000000000000
 11
71.65154495707162
 21
51.45987491384605
 31
0.0000000000000000
  0
LINE
  5
79
100
AcDbEntity
  8
WAKU0
  6
CONTINUOUS
 62
3
100
AcDbLine
 10
78.13778249409558
 20
48.84163810497459
 30
0.0000000000000000
 11
84.67547614665307
 21
50.34163810497456
 31
0.0000000000000000
  0
LINE
  5
7A
100
AcDbEntity
  8
WAKU0
  6
CONTINUOUS
 62
3
100
AcDbLine
 10
78.13778249409558
 20
45.84163810497473
 30
0.0000000000000000
 11
84.67547614665295
 21
44.34163810497473
 31
0.0000000000000000
  0
CIRCLE
  5
7B
100
AcDbEntity
  8
WAKU0
  6
CONTINUOUS
 62
3
100
AcDbCircle
 10
71.65154495707162
 20
47.34163810497475
 30
0.0000000000000000
 40
1.499999999999972
  0
CIRCLE
  5
7C
100
AcDbEntity
  8
WAKU0
  6
CONTINUOUS
 62
3
100
AcDbCircle
 10
71.65154495707162
 20
47.34163810497475
 30
0.0000000000000000
 40
2.999999999999979
  0
LINE
  5
7D
100
AcDbEntity
  8
MA0
  6
CONTINUOUS
 62
3
100
AcDbLine
 10
254.0408379544425
 20
591.8724955686337
 30
0.0000000000000000
 11
254.5408379544425
 21
591.8724955686337
 31
0.0000000000000000
  0
LINE
  5
7E
100
AcDbEntity
  8
MA0
  6
CONTINUOUS
 62
3
100
AcDbLine
 10
321.0408379544425
 20
585.1224955686337
 30
0.0000000000000000
 11
324.2908379544424
 21
585.1224955686337
 31
0.0000000000000000
  0
LINE
  5
7F
100
AcDbEntity
  8
MA0
  6
CONTINUOUS
 62
3
100
AcDbLine
 10
321.0408379544424
 20
547.1224955686337
 30
0.0000000000000000
 11
324.2908379544425
 21
547.1224955686337
 31
0.0000000000000000
  0
LINE
  5
80
100
AcDbEntity
  8
MA0
  6
CONTINUOUS
 62
3
100
AcDbLine
 10
324.2908379544425
 20
547.1224955686337
 30
0.0000000000000000
 11
324.2908379544425
 21
585.1224955686334
 31
0.0000000000000000
  0
LINE
  5
81
100
AcDbEntity
  8
MA0
  6
CENTER
 62
12
100
AcDbLine
 10
264.0408379544423
 20
209.3427242735975
 30
0.0000000000000000
 11
264.0408379544423
 21
249.0965256262961
 31
0.0000000000000000
  0
LINE
  5
82
100
AcDbEntity
  8
MA0
  6
CONTINUOUS
 62
3
100
AcDbLine
 10
296.0408379544425
 20
299.8724955686338
 30
0.0000000000000000
 11
296.0408379544425
 21
267.8724955686344
 31
0.0000000000000000
  0
LINE
  5
83
100
AcDbEntity
  8
MA0
  6
CENTER
 62
12
100
AcDbLine
 10
473.4827943195401
 20
297.8130144754121
 30
0.0000000000000000
 11
607.5612628638057
 21
375.2232543819765
 31
0.0000000000000000
  0
LINE
  5
84
100
AcDbEntity
  8
MA0
  6
CONTINUOUS
 62
3
100
AcDbLine
 10
719.9700459717601
 20
437.8130944918737
 30
0.0000000000000000
 11
721.9700459717614
 21
438.9677950302537
 31
0.0000000000000000
  0
LINE
  5
85
100
AcDbEntity
  8
MA0
  6
CONTINUOUS
 62
3
100
AcDbLine
 10
719.9700459717619
 20
442.4318966453917
 30
0.0000000000000000
 11
717.9700459717606
 21
441.2771961070117
 31
0.0000000000000000
  0
LINE
  5
86
100
AcDbEntity
  8
MA0
  6
CONTINUOUS
 62
3
100
AcDbLine
 10
721.9700459717626
 20
441.2771961070126
 30
0.0000000000000000
 11
721.9700459717626
 21
438.9677950302542
 31
0.0000000000000000
  0
LINE
  5
87
100
AcDbEntity
  8
MA0
  6
CONTINUOUS
 62
3
100
AcDbLine
 10
717.9700459717626
 20
441.2771961070127
 30
0.0000000000000000
 11
717.9700459717626
 21
438.9677950302542
 31
0.0000000000000000
  0
LINE
  5
88
100
AcDbEntity
  8
MA0
  6
CONTINUOUS
 62
3
100
AcDbLine
 10
721.9700459717603
 20
441.2771961070141
 30
0.0000000000000000
 11
719.9700459717624
 21
442.4318966453923
 31
0.0000000000000000
  0
LINE
  5
89
100
AcDbEntity
  8
MA0
  6
CONTINUOUS
 62
3
100
AcDbLine
 10
719.9700459717619
 20
437.8130944918755
 30
0.0000000000000000
 11
717.9700459717607
 21
438.9677950302555
 31
0.0000000000000000
  0
LINE
  5
8A
100
AcDbEntity
  8
MA0
  6
CONTINUOUS
 62
3
100
AcDbLine
 10
587.7361083851756
 20
441.2771961070125
 30
0.0000000000000000
 11
585.7361083851756
 21
442.4318966453918
 31
0.0000000000000000
  0
LINE
  5
8B
100
AcDbEntity
  8
MA0
  6
CONTINUOUS
 62
3
100
AcDbLine
 10
583.7361083851756
 20
438.9677950302540
 30
0.0000000000000000
 11
585.7361083851756
 21
437.8130944918748
 31
0.0000000000000000
  0
LINE
  5
8C
100
AcDbEntity
  8
MA0
  6
CONTINUOUS
 62
3
100
AcDbLine
 10
583.7361083851756
 20
441.2771961070129
 30
0.0000000000000000
 11
585.7361083851756
 21
442.4318966453921
 31
0.0000000000000000
  0
LINE
  5
8D
100
AcDbEntity
  8
MA0
  6
CONTINUOUS
 62
3
100
AcDbLine
 10
585.7361083851756
 20
437.8130944918751
 30
0.0000000000000000
 11
587.7361083851755
 21
438.9677950302544
 31
0.0000000000000000
  0
LINE
  5
8E
100
AcDbEntity
  8
MA0
  6
CONTINUOUS
 62
3
100
AcDbLine
 10
583.7361083851756
 20
441.2771961070128
 30
0.0000000000000000
 11
583.7361083851756
 21
438.9677950302541
 31
0.0000000000000000
  0
LINE
  5
8F
100
AcDbEntity
  8
MA0
  6
CONTINUOUS
 62
3
100
AcDbLine
 10
587.7361083851756
 20
441.2771961070123
 30
0.0000000000000000
 11
587.7361083851756
 21
438.9677950302542
 31
0.0000000000000000
  0
LINE
  5
90
100
AcDbEntity
  8
MA0
  6
CONTINUOUS
 62
3
100
AcDbLine
 10
650.8530771784665
 20
325.0271961070135
 30
0.0000000000000000
 11
650.8530771784665
 21
322.7177950302551
 31
0.0000000000000000
  0
LINE
  5
91
100
AcDbEntity
  8
MA0
  6
CONTINUOUS
 62
3
100
AcDbLine
 10
654.8530771784665
 20
322.7177950302551
 30
0.0000000000000000
 11
654.8530771784665
 21
325.0271961070135
 31
0.0000000000000000
  0
LINE
  5
92
100
AcDbEntity
  8
MA0
  6
CONTINUOUS
 62
3
100
AcDbLine
 10
652.8530771784689
 20
321.5630944918757
 30
0.0000000000000000
 11
650.8530771784676
 21
322.7177950302557
 31
0.0000000000000000
  0
LINE
  5
93
100
AcDbEntity
  8
MA0
  6
CONTINUOUS
 62
3
100
AcDbLine
 10
654.8530771784689
 20
325.0271961070134
 30
0.0000000000000000
 11
652.8530771784676
 21
326.1818966453934
 31
0.0000000000000000
  0
LINE
  5
94
100
AcDbEntity
  8
MA0
  6
CONTINUOUS
 62
3
100
AcDbLine
 10
652.8530771784691
 20
321.5630944918756
 30
0.0000000000000000
 11
654.8530771784692
 21
322.7177950302549
 31
0.0000000000000000
  0
LINE
  5
95
100
AcDbEntity
  8
MA0
  6
CONTINUOUS
 62
3
100
AcDbLine
 10
650.8530771784695
 20
325.0271961070136
 30
0.0000000000000000
 11
652.8530771784690
 21
326.1818966453927
 31
0.0000000000000000
  0
LINE
  5
96
100
AcDbEntity
  8
MA0
  6
CONTINUOUS
 62
3
100
AcDbLine
 10
320.0408379544426
 20
478.8724955686337
 30
0.0000000000000000
 11
321.0408379544424
 21
479.4498458378232
 31
0.0000000000000000
  0
LINE
  5
97
100
AcDbEntity
  8
MA0
  6
CONTINUOUS
 62
3
100
AcDbLine
 10
621.8530771784667
 20
478.8724955686337
 30
0.0000000000000000
 11
627.8530771784667
 21
478.8724955686337
 31
0.0000000000000000
  0
LINE
  5
98
100
AcDbEntity
  8
MA0
  6
CONTINUOUS
 62
3
100
AcDbLine
 10
677.8530771784665
 20
478.8724955686337
 30
0.0000000000000000
 11
683.8530771784665
 21
478.8724955686337
 31
0.0000000000000000
  0
LINE
  5
99
100
AcDbEntity
  8
MA0
  6
CENTER
 62
12
100
AcDbLine
 10
522.8918982559292
 20
297.4718604740230
 30
0.0000000000000000
 11
497.8918982559292
 21
340.7731306632447
 31
0.0000000000000000
  0
LINE
  5
9A
100
AcDbEntity
  8
MA0
  6
CENTER
 62
12
100
AcDbLine
 10
832.2233600373957
 20
297.8130144754125
 30
0.0000000000000000
 11
699.4333363341250
 21
374.4793704061929
 31
0.0000000000000000
  0
LINE
  5
9B
100
AcDbEntity
  8
MA0
  6
CONTINUOUS
 62
3
100
AcDbLine
 10
713.5950459717619
 20
351.5806716703826
 30
0.0000000000000000
 11
812.3219420031878
 21
294.5806716703823
 31
0.0000000000000000
  0
LINE
  5
9C
100
AcDbEntity
  8
MA0
  6
CONTINUOUS
 62
3
100
AcDbLine
 10
726.3450459717619
 20
373.6643194668857
 30
0.0000000000000000
 11
825.0719420031878
 21
316.6643194668854
 31
0.0000000000000000
  0
LINE
  5
9D
100
AcDbEntity
  8
MA0
  6
CENTER
 62
12
100
AcDbLine
 10
770.5751637382771
 20
362.2731306632453
 30
0.0000000000000000
 11
745.5751637382773
 21
318.9718604740235
 31
0.0000000000000000
  0
LINE
  5
9E
100
AcDbEntity
  8
MA0
  6
CENTER
 62
12
100
AcDbLine
 10
807.8142561010079
 20
340.7731306632453
 30
0.0000000000000000
 11
782.8142561010080
 21
297.4718604740236
 31
0.0000000000000000
  0
LINE
  5
9F
100
AcDbEntity
  8
MA0
  6
CONTINUOUS
 62
3
100
AcDbLine
 10
321.0408379544424
 20
592.2951452994438
 30
0.0000000000000000
 11
320.0408379544425
 21
592.8724955686334
 31
0.0000000000000000
  0
LINE
  5
A0
100
AcDbEntity
  8
MA0
  6
CONTINUOUS
 62
3
100
AcDbLine
 10
320.0408379544422
 20
591.5451452994438
 30
0.0000000000000000
 11
321.0408379544424
 21
592.1224955686336
 31
0.0000000000000000
  0
LINE
  5
A1
100
AcDbEntity
  8
MA0
  6
CONTINUOUS
 62
3
100
AcDbLine
 10
320.0408379544422
 20
591.5451452994438
 30
0.0000000000000000
 11
321.0408379544425
 21
590.9677950302539
 31
0.0000000000000000
  0
LINE
  5
A2
100
AcDbEntity
  8
MA0
  6
CONTINUOUS
 62
3
100
AcDbLine
 10
320.0408379544425
 20
457.6998458378226
 30
0.0000000000000000
 11
321.0408379544423
 21
457.1224955686331
 31
0.0000000000000000
  0
LINE
  5
A3
100
AcDbEntity
  8
MA0
  6
CONTINUOUS
 62
3
100
AcDbLine
 10
320.0408379544425
 20
457.6998458378228
 30
0.0000000000000000
 11
321.0408379544423
 21
458.2771961070123
 31
0.0000000000000000
  0
LINE
  5
A4
100
AcDbEntity
  8
MA0
  6
CONTINUOUS
 62
3
100
AcDbLine
 10
321.0408379544425
 20
479.4498458378230
 30
0.0000000000000000
 11
320.0408379544424
 21
480.0271961070126
 31
0.0000000000000000
  0
LINE
  5
A5
100
AcDbEntity
  8
MA0
  6
CONTINUOUS
 62
3
100
AcDbLine
 10
229.0408379544422
 20
328.1474955686342
 30
0.0000000000000000
 11
236.2577163193126
 21
315.6474955686342
 31
0.0000000000000000
  0
LINE
  5
A6
100
AcDbEntity
  8
MA0
  6
CONTINUOUS
 62
3
100
AcDbLine
 10
229.0408379544427
 20
303.1474955686347
 30
0.0000000000000000
 11
236.2577163193128
 21
315.6474955686341
 31
0.0000000000000000
  0
LINE
  5
A7
100
AcDbEntity
  8
MA0
  6
CONTINUOUS
 62
3
100
AcDbLine
 10
208.0408379544426
 20
440.3724955686337
 30
0.0000000000000000
 11
207.0408379544426
 21
439.3724955686337
 31
0.0000000000000000
  0
LINE
  5
A8
100
AcDbEntity
  8
MA0
  6
CONTINUOUS
 62
3
100
AcDbLine
 10
208.0408379544425
 20
362.3724955686337
 30
0.0000000000000000
 11
207.0408379544425
 21
363.3724955686337
 31
0.0000000000000000
  0
LINE
  5
A9
100
AcDbEntity
  8
MA0
  6
CONTINUOUS
 62
12
100
AcDbLine
 10
207.0408379544425
 20
431.6224955686335
 30
0.0000000000000000
 11
217.0408379544425
 21
431.6224955686335
 31
0.0000000000000000
  0
LINE
  5
AA
100
AcDbEntity
  8
MA0
  6
CONTINUOUS
 62
3
100
AcDbLine
 10
207.0408379544425
 20
371.1224955686340
 30
0.0000000000000000
 11
207.0408379544425
 21
371.3724955686337
 31
0.0000000000000000
  0
LINE
  5
AB
100
AcDbEntity
  8
MA0
  6
CONTINUOUS
 62
3
100
AcDbLine
 10
207.0408379544425
 20
431.3724955686335
 30
0.0000000000000000
 11
207.0408379544425
 21
431.6224955686335
 31
0.0000000000000000
  0
LINE
  5
AC
100
AcDbEntity
  8
MA0
  6
CONTINUOUS
 62
12
100
AcDbLine
 10
217.0408379544420
 20
431.6224955686337
 30
0.0000000000000000
 11
219.2059014639032
 21
430.3724955686337
 31
0.0000000000000000
  0
LINE
  5
AD
100
AcDbEntity
  8
MA0
  6
CONTINUOUS
 62
12
100
AcDbLine
 10
217.0408379544422
 20
371.1224955686338
 30
0.0000000000000000
 11
219.2059014639029
 21
372.3724955686335
 31
0.0000000000000000
  0
LINE
  5
AE
100
AcDbEntity
  8
MA0
  6
CENTER
 62
12
100
AcDbLine
 10
213.5408379544424
 20
360.3838156128064
 30
0.0000000000000000
 11
213.5408379544424
 21
373.8351573024957
 31
0.0000000000000000
  0
LINE
  5
AF
100
AcDbEntity
  8
MA0
  6
CONTINUOUS
 62
3
100
AcDbLine
 10
207.0408379544423
 20
363.3724955686340
 30
0.0000000000000000
 11
207.0408379544423
 21
371.3724955686338
 31
0.0000000000000000
  0
LINE
  5
B0
100
AcDbEntity
  8
MA0
  6
CONTINUOUS
 62
3
100
AcDbLine
 10
207.0408379544424
 20
431.3724955686337
 30
0.0000000000000000
 11
207.0408379544424
 21
439.3724955686334
 31
0.0000000000000000
  0
LINE
  5
B1
100
AcDbEntity
  8
MA0
  6
CONTINUOUS
 62
12
100
AcDbLine
 10
207.0408379544425
 20
371.1224955686339
 30
0.0000000000000000
 11
211.7908379544426
 21
371.1224955686339
 31
0.0000000000000000
  0
LINE
  5
B2
100
AcDbEntity
  8
MA0
  6
CONTINUOUS
 62
12
100
AcDbLine
 10
215.2908379544424
 20
371.1224955686340
 30
0.0000000000000000
 11
217.0408379544425
 21
371.1224955686340
 31
0.0000000000000000
  0
LINE
  5
B3
100
AcDbEntity
  8
MA0
  6
CONTINUOUS
 62
3
100
AcDbLine
 10
621.6030771784665
 20
592.8724955686334
 30
0.0000000000000000
 11
684.1030771784665
 21
592.8724955686334
 31
0.0000000000000000
  0
LINE
  5
B4
100
AcDbEntity
  8
MA0
  6
CONTINUOUS
 62
3
100
AcDbLine
 10
684.1030771784658
 20
592.8724955686332
 30
0.0000000000000000
 11
700.3530771784670
 21
588.5183211916271
 31
0.0000000000000000
  0
LINE
  5
B5
100
AcDbEntity
  8
MA0
  6
CONTINUOUS
 62
3
100
AcDbLine
 10
700.3530771784665
 20
585.8555571217204
 30
0.0000000000000000
 11
700.3530771784665
 21
588.5183211916276
 31
0.0000000000000000
  0
LINE
  5
B6
100
AcDbEntity
  8
MA0
  6
CONTINUOUS
 62
3
100
AcDbLine
 10
621.6030771784672
 20
592.8724955686329
 30
0.0000000000000000
 11
605.3530771784659
 21
588.5183211916268
 31
0.0000000000000000
  0
LINE
  5
B7
100
AcDbEntity
  8
MA0
  6
CONTINUOUS
 62
3
100
AcDbLine
 10
605.3530771784665
 20
585.8555571217204
 30
0.0000000000000000
 11
605.3530771784665
 21
588.5183211916276
 31
0.0000000000000000
  0
LINE
  5
B8
100
AcDbEntity
  8
MA0
  6
CONTINUOUS
 62
3
100
AcDbLine
 10
502.6342123537495
 20
278.5592017003701
 30
0.0000000000000000
 11
471.3842123537494
 21
332.6857894368978
 31
0.0000000000000000
  0
LINE
  5
B9
100
AcDbEntity
  8
MA0
  6
CONTINUOUS
 62
3
100
AcDbLine
 10
471.3842123537494
 20
332.6857894368978
 30
0.0000000000000000
 11
467.0300379767437
 21
348.9357894368977
 31
0.0000000000000000
  0
LINE
  5
BA
100
AcDbEntity
  8
MA0
  6
CONTINUOUS
 62
3
100
AcDbLine
 10
469.3360593055678
 20
350.2671714718513
 30
0.0000000000000000
 11
467.0300379767436
 21
348.9357894368977
 31
0.0000000000000000
  0
LINE
  5
BB
100
AcDbEntity
  8
MA0
  6
CONTINUOUS
 62
3
100
AcDbLine
 10
502.6342123537495
 20
278.5592017003701
 30
0.0000000000000000
 11
514.5300379767436
 21
266.6633760773760
 31
0.0000000000000000
  0
LINE
  5
BC
100
AcDbEntity
  8
MA0
  6
CONTINUOUS
 62
3
100
AcDbLine
 10
516.8360593055678
 20
267.9947581123296
 30
0.0000000000000000
 11
514.5300379767436
 21
266.6633760773760
 31
0.0000000000000000
  0
LINE
  5
BD
100
AcDbEntity
  8
MA0
  6
CONTINUOUS
 62
3
100
AcDbLine
 10
834.3219420031878
 20
332.6857894368983
 30
0.0000000000000000
 11
803.0719420031874
 21
278.5592017003702
 31
0.0000000000000000
  0
LINE
  5
BE
100
AcDbEntity
  8
MA0
  6
CONTINUOUS
 62
3
100
AcDbLine
 10
834.3219420031883
 20
332.6857894368977
 30
0.0000000000000000
 11
838.6761163801939
 21
348.9357894368976
 31
0.0000000000000000
  0
LINE
  5
BF
100
AcDbEntity
  8
MA0
  6
CONTINUOUS
 62
3
100
AcDbLine
 10
836.3700950513694
 20
350.2671714718518
 30
0.0000000000000000
 11
838.6761163801941
 21
348.9357894368977
 31
0.0000000000000000
  0
LINE
  5
C0
100
AcDbEntity
  8
MA0
  6
CONTINUOUS
 62
3
100
AcDbLine
 10
735.4700459717631
 20
389.4692830859514
 30
0.0000000000000000
 11
726.3450459717631
 21
373.6643194668851
 31
0.0000000000000000
  0
LINE
  5
C1
100
AcDbEntity
  8
MA0
  6
CONTINUOUS
 62
3
100
AcDbLine
 10
713.5950459717606
 20
351.5806716703834
 30
0.0000000000000000
 11
704.4700459717598
 21
335.7757080513156
 31
0.0000000000000000
  0
LINE
  5
C2
100
AcDbEntity
  8
MA0
  6
CONTINUOUS
 62
3
100
AcDbLine
 10
579.3611083851747
 20
373.6643194668853
 30
0.0000000000000000
 11
570.2361083851737
 21
389.4692830859529
 31
0.0000000000000000
  0
LINE
  5
C3
100
AcDbEntity
  8
MA0
  6
CONTINUOUS
 62
3
100
AcDbLine
 10
601.2361083851753
 20
335.7757080513161
 30
0.0000000000000000
 11
592.1111083851749
 21
351.5806716703823
 31
0.0000000000000000
  0
LINE
  5
C4
100
AcDbEntity
  8
MA0
  6
CONTINUOUS
 62
3
100
AcDbLine
 10
254.5408379544425
 20
434.5319824627905
 30
0.0000000000000000
 11
254.5408379544425
 21
437.4505864296586
 31
0.0000000000000000
  0
LINE
  5
C5
100
AcDbEntity
  8
MA0
  6
CONTINUOUS
 62
3
100
AcDbLine
 10
254.5408379544425
 20
591.8724955686337
 30
0.0000000000000000
 11
254.5408379544425
 21
592.8724955686334
 31
0.0000000000000000
  0
LINE
  5
C6
100
AcDbEntity
  8
MA0
  6
CONTINUOUS
 62
12
100
AcDbLine
 10
404.2656233359920
 20
350.5728705071714
 30
0.0000000000000000
 11
670.8621699856449
 21
405.0527101094744
 31
0.0000000000000000
  0
LINE
  5
C7
100
AcDbEntity
  8
MA0
  6
CONTINUOUS
 62
3
100
AcDbLine
 10
205.0408379544425
 20
431.3724955686336
 30
0.0000000000000000
 11
205.0408379544425
 21
588.8724955686337
 31
0.0000000000000000
  0
LINE
  5
C8
100
AcDbEntity
  8
MA0
  6
CONTINUOUS
 62
3
100
AcDbLine
 10
205.0408379544424
 20
213.8724955686338
 30
0.0000000000000000
 11
205.0408379544425
 21
273.8724972381993
 31
0.0000000000000000
  0
LINE
  5
C9
100
AcDbEntity
  8
MA0
  6
CONTINUOUS
 62
3
100
AcDbLine
 10
205.0408379544424
 20
293.8724907686341
 30
0.0000000000000000
 11
205.0408379544424
 21
371.3724955686338
 31
0.0000000000000000
  0
LINE
  5
CA
100
AcDbEntity
  8
MA0
  6
CENTER
 62
12
100
AcDbLine
 10
206.7254607967474
 20
315.6474955686343
 30
0.0000000000000000
 11
242.0638843597681
 21
315.6474955686343
 31
0.0000000000000000
  0
LINE
  5
CB
100
AcDbEntity
  8
MA0
  6
CENTER
 62
12
100
AcDbLine
 10
582.4880946528198
 20
279.4967707605160
 30
0.0000000000000000
 11
594.3847913976374
 21
300.1024539647793
 31
0.0000000000000000
  0
LINE
  5
CC
100
AcDbEntity
  8
MA0
  6
CONTINUOUS
 62
3
100
AcDbLine
 10
208.0408379544425
 20
591.8724955686337
 30
0.0000000000000000
 11
316.0408379544424
 21
591.8724955686337
 31
0.0000000000000000
  0
LINE
  5
CD
100
AcDbEntity
  8
MA0
  6
CONTINUOUS
 62
3
100
AcDbLine
 10
232.0408379544426
 20
541.8724955686334
 30
0.0000000000000000
 11
237.0408379544426
 21
541.8724955686334
 31
0.0000000000000000
  0
LINE
  5
CE
100
AcDbEntity
  8
MA0
  6
CONTINUOUS
 62
3
100
AcDbLine
 10
232.0408379544426
 20
520.8724955686334
 30
0.0000000000000000
 11
237.0408379544425
 21
520.8724955686334
 31
0.0000000000000000
  0
LINE
  5
CF
100
AcDbEntity
  8
MA0
  6
CONTINUOUS
 62
3
100
AcDbLine
 10
237.0408379544425
 20
520.8724955686334
 30
0.0000000000000000
 11
237.0408379544425
 21
522.3724955686334
 31
0.0000000000000000
  0
LINE
  5
D0
100
AcDbEntity
  8
MA0
  6
CONTINUOUS
 62
3
100
AcDbLine
 10
237.0408379544426
 20
540.3724955686334
 30
0.0000000000000000
 11
237.0408379544426
 21
541.8724955686334
 31
0.0000000000000000
  0
LINE
  5
D1
100
AcDbEntity
  8
MA0
  6
CONTINUOUS
 62
3
100
AcDbLine
 10
732.4700459717617
 20
384.2731306632452
 30
0.0000000000000000
 11
831.1969420031876
 21
327.2731306632451
 31
0.0000000000000000
  0
LINE
  5
D2
100
AcDbEntity
  8
MA0
  6
CONTINUOUS
 62
3
100
AcDbLine
 10
707.4700459717618
 20
340.9718604740233
 30
0.0000000000000000
 11
806.1969420031876
 21
283.9718604740232
 31
0.0000000000000000
  0
LINE
  5
D3
100
AcDbEntity
  8
MA0
  6
CONTINUOUS
 62
3
100
AcDbLine
 10
499.4511996518569
 20
283.9383668249693
 30
0.0000000000000000
 11
598.2361083851749
 21
340.9718604740230
 31
0.0000000000000000
  0
LINE
  5
D4
100
AcDbEntity
  8
MA0
  6
CONTINUOUS
 62
3
100
AcDbLine
 10
474.5092123537493
 20
327.2731306632451
 30
0.0000000000000000
 11
573.2361083851747
 21
384.2731306632447
 31
0.0000000000000000
  0
CIRCLE
  5
D5
100
AcDbEntity
  8
MA0
  6
CONTINUOUS
 62
12
100
AcDbCircle
 10
795.3142561010084
 20
319.1224955686336
 30
0.0000000000000000
 40
9.999999999999998
  0
CIRCLE
  5
D6
100
AcDbEntity
  8
MA0
  6
CONTINUOUS
 62
3
100
AcDbCircle
 10
795.3142561010084
 20
319.1224955686336
 30
0.0000000000000000
 40
8.749999999999996
  0
CIRCLE
  5
D7
100
AcDbEntity
  8
MA0
  6
CONTINUOUS
 62
12
100
AcDbCircle
 10
758.0751637382766
 20
340.6224955686336
 30
0.0000000000000000
 40
9.999999999999998
  0
CIRCLE
  5
D8
100
AcDbEntity
  8
MA0
  6
CONTINUOUS
 62
3
100
AcDbCircle
 10
758.0751637382766
 20
340.6224955686336
 30
0.0000000000000000
 40
8.749999999999996
  0
ARC
  5
D9
100
AcDbEntity
  8
MA0
  6
CONTINUOUS
 62
3
100
AcDbCircle
 10
795.3142561010084
 20
319.1224955686336
 30
0.0000000000000000
 40
18.99999999999977
100
AcDbArc
 50
287.8516405174902
 51
372.1483594825093
  0
ARC
  5
DA
100
AcDbEntity
  8
MA0
  6
CONTINUOUS
 62
3
100
AcDbCircle
 10
652.8530771784665
 20
401.3724955686337
 30
0.0000000000000000
 40
105.0000000000000
100
AcDbArc
 50
107.1718151492249
 51
129.8463856686202
  0
ARC
  5
DB
100
AcDbEntity
  8
MA0
  6
CONTINUOUS
 62
3
100
AcDbCircle
 10
289.5393660918656
 20
123.4456473016683
 30
0.0000000000000000
 40
0.6000000000000000
100
AcDbArc
 50
89.99999999999970
 51
134.9999999999918
  0
ARC
  5
DC
100
AcDbEntity
  8
MA0
  6
CONTINUOUS
 62
3
100
AcDbCircle
 10
285.1408379544421
 20
119.0471191642450
 30
0.0000000000000000
 40
0.6000000000000000
100
AcDbArc
 50
134.9999999999959
 51
179.9999999999998
  0
ARC
  5
DD
100
AcDbEntity
  8
MA0
  6
CONTINUOUS
 62
3
100
AcDbCircle
 10
285.1408379544421
 20
93.04417543909568
 30
0.0000000000000000
 40
0.6000000000000000
100
AcDbArc
 50
179.9999999999998
 51
224.9999999999972
  0
ARC
  5
DE
100
AcDbEntity
  8
MA0
  6
CONTINUOUS
 62
3
100
AcDbCircle
 10
289.5393660918663
 20
88.64564730166950
 30
0.0000000000000000
 40
0.6000000000000000
100
AcDbArc
 50
224.9999999999960
 51
269.9999999999999
  0
ARC
  5
DF
100
AcDbEntity
  8
MA0
  6
CONTINUOUS
 62
3
100
AcDbCircle
 10
795.3142561010084
 20
319.1224955686336
 30
0.0000000000000000
 40
21.00000000000000
100
AcDbArc
 50
112.6168015821349
 51
187.3831984178648
  0
ARC
  5
E0
100
AcDbEntity
  8
MA0
  6
CONTINUOUS
 62
3
100
AcDbCircle
 10
758.0751637382766
 20
340.6224955686336
 30
0.0000000000000000
 40
21.00000000000000
100
AcDbArc
 50
112.6168015821349
 51
187.3831984178648
  0
ARC
  5
E1
100
AcDbEntity
  8
MA0
  6
CONTINUOUS
 62
3
100
AcDbCircle
 10
758.0751637382766
 20
340.6224955686336
 30
0.0000000000000000
 40
21.00000000000000
100
AcDbArc
 50
292.6168015821347
 51
367.3831984178646
  0
ARC
  5
E2
100
AcDbEntity
  8
MA0
  6
CONTINUOUS
 62
3
100
AcDbCircle
 10
547.6309906186600
 20
340.6224955686341
 30
0.0000000000000000
 40
21.00000000000000
100
AcDbArc
 50
172.6168015821348
 51
247.3831984178645
  0
ARC
  5
E3
100
AcDbEntity
  8
MA0
  6
CONTINUOUS
 62
3
100
AcDbCircle
 10
547.6309906186600
 20
340.6224955686341
 30
0.0000000000000000
 40
21.00000000000000
100
AcDbArc
 50
352.6168015821352
 51
427.3831984178647
  0
ARC
  5
E4
100
AcDbEntity
  8
MA0
  6
CONTINUOUS
 62
3
100
AcDbCircle
 10
510.3918982559291
 20
319.1224955686341
 30
0.0000000000000000
 40
21.00000000000000
100
AcDbArc
 50
352.6168015821352
 51
427.3831984178649
  0
ARC
  5
E5
100
AcDbEntity
  8
MA0
  6
CONTINUOUS
 62
3
100
AcDbCircle
 10
510.3918982559291
 20
319.1224955686341
 30
0.0000000000000000
 40
21.00000000000000
100
AcDbArc
 50
172.6168015821348
 51
247.3831984178643
  0
ARC
  5
E6
100
AcDbEntity
  8
MA0
  6
CONTINUOUS
 62
12
100
AcDbCircle
 10
652.8530771784665
 20
401.3724955686337
 30
0.0000000000000000
 40
194.0330190972657
100
AcDbArc
 50
188.9934832578149
 51
200.7318588896960
  0
ARC
  5
E7
100
AcDbEntity
  8
MA0
  6
CENTER
 62
12
100
AcDbCircle
 10
652.8530771784665
 20
401.3724955686337
 30
0.0000000000000000
 40
130.0000000000000
100
AcDbArc
 50
115.9502128294803
 51
124.4701397148397
  0
ARC
  5
E8
100
AcDbEntity
  8
MA0
  6
CENTER
 62
12
100
AcDbCircle
 10
652.8530771784665
 20
401.3724955686337
 30
0.0000000000000000
 40
130.0000000000000
100
AcDbArc
 50
235.7378310480256
 51
243.5784207126631
  0
ARC
  5
E9
100
AcDbEntity
  8
MA0
  6
CENTER
 62
12
100
AcDbCircle
 10
652.8530771784665
 20
401.3724955686337
 30
0.0000000000000000
 40
130.0000000000000
100
AcDbArc
 50
351.0766564289327
 51
366.9751573535588
  0
MTEXT
  5
EA
100
AcDbEntity
  8
MA0
  6
CONTINUOUS
 62
4
100
AcDbMText
 10
219.7581551732383
 20
340.4018319833176
 30
0.0000000000000000
 40
4.649999856948853
 41
0.0000000000000000
 71
     1
 72
     1
  1
{\H0.70x;{ストロ―ク\PSTROKE}}
 11
1.000000000000000
 21
0.0000000000000000
 31
0.0000000000000000
  7
KNJYOKO
  0
MTEXT
  5
EB
100
AcDbEntity
  8
MA0
  6
CONTINUOUS
 62
4
100
AcDbMText
 10
350.0863434689421
 20
95.52369538170501
 30
0.0000000000000000
 40
4.649999856948853
 41
0.0000000000000000
 71
     1
 72
     1
  1
{\H0.70x;{Ｈ８／ｈ８}}
 11
6.123233995736766e-017
 21
1.000000000000000
 31
0.0000000000000000
  7
KNJYOKO
  0
MTEXT
  5
EC
100
AcDbEntity
  8
MA0
  6
CONTINUOUS
 62
4
100
AcDbMText
 10
404.7402909230590
 20
416.8931669720456
 30
0.0000000000000000
 40
4.649999856948853
 41
0.0000000000000000
 71
     1
 72
     1
  1
{\H0.70x;{MIN 69.5}}
 11
6.123233995736766e-017
 21
1.000000000000000
 31
0.0000000000000000
  7
STANDARD
  0
MTEXT
  5
ED
100
AcDbEntity
  8
MA0
  6
CONTINUOUS
 62
4
100
AcDbMText
 10
404.6066435200297
 20
486.7918243056303
 30
0.0000000000000000
 40
4.649999856948853
 41
0.0000000000000000
 71
     1
 72
     1
  1
{\H0.70x;{MIN 23.25}}
 11
6.123233995736766e-017
 21
1.000000000000000
 31
0.0000000000000000
  7
STANDARD
  0
MTEXT
  5
EE
100
AcDbEntity
  8
MA0
  6
CONTINUOUS
 62
4
100
AcDbMText
 10
425.6397310538983
 20
360.9951432815657
 30
0.0000000000000000
 40
4.649999856948853
 41
0.0000000000000000
 71
     1
 72
     1
  1
{\H0.70x;{\U+2205388}}
 11
0.9797519097294658
 21
0.2002153724903879
 31
0.0000000000000000
  7
STANDARD
  0
MTEXT
  5
EF
100
AcDbEntity
  8
MA0
  6
CONTINUOUS
 62
4
100
AcDbMText
 10
407.8888118403579
 20
350.6404368802091
 30
0.0000000000000000
 40
4.649999856948853
 41
0.0000000000000000
 71
     1
 72
     1
  1
{\H0.70x;{（マスタジョー最大開き時）}}
 11
0.9797519097294658
 21
0.2002153724903879
 31
0.0000000000000000
  7
KNJYOKO
  0
MTEXT
  5
F0
100
AcDbEntity
  8
MA0
  6
CONTINUOUS
 62
4
100
AcDbMText
 10
165.8918047488765
 20
465.5777496359556
 30
0.0000000000000000
 40
4.649999856948853
 41
0.0000000000000000
 71
     1
 72
     1
  1
{\H0.70x;{MAX 104}}
 11
1.000000000000000
 21
0.0000000000000000
 31
0.0000000000000000
  7
STANDARD
  0
SPLINE
  5
F1
100
AcDbEntity
  8
MA0
  6
CONTINUOUS
 62
12
100
AcDbSpline
210
0.0000000000000000
220
0.0000000000000000
230
1.000000000000000
 70
     8
 71
     3
 72
    25
 73
    21
 74
     0
 42
1.000000000000000e-007
 43
1.000000000000000e-007
 12
-1.002251572014529
 22
-0.006069643708769945
 32
0.0000000000000000
 13
-0.8450634584360444
 23
0.5388642442453033
 33
0.0000000000000000
 40
0.0000000000000000
 40
0.0000000000000000
 40
0.0000000000000000
 40
0.0000000000000000
 40
4.844682957254261
 40
15.36033154569405
 40
27.33293495238831
 40
36.56809474095121
 40
48.33780466669703
 40
58.20358730749967
 40
70.29134689477718
 40
88.34131203243931
 40
100.7911316834797
 40
110.4015348403315
 40
130.2235418134365
 40
143.2459995147947
 40
155.6835157692242
 40
168.6907118062499
 40
183.2901833152230
 40
199.8406817764653
 40
210.4853622964115
 40
221.1746195774713
 40
221.1746195774713
 40
221.1746195774713
 40
221.1746195774713
 10
312.6623975642339
 20
417.8322142483797
 30
0.0000000000000000
 10
311.0438671942939
 20
417.8224124152355
 30
0.0000000000000000
 10
305.9122283815150
 20
417.7913351686582
 30
0.0000000000000000
 10
296.9878893145172
 20
419.7060015130272
 30
0.0000000000000000
 10
286.2432532893016
 20
420.3942767832971
 30
0.0000000000000000
 10
276.5395078369414
 20
426.0453713861535
 30
0.0000000000000000
 10
265.7324303336871
 20
426.2093126062349
 30
0.0000000000000000
 10
256.7104894645804
 20
433.6652519672152
 30
0.0000000000000000
 10
249.4151035207705
 20
445.4028811046939
 30
0.0000000000000000
 10
250.8215642180794
 20
460.1462022008662
 30
0.0000000000000000
 10
249.3242019273648
 20
473.3864738323748
 30
0.0000000000000000
 10
250.0905604158110
 20
487.3447272010831
 30
0.0000000000000000
 10
250.1581468568569
 20
501.6556302173159
 30
0.0000000000000000
 10
244.1381855975658
 20
516.1081162590308
 30
0.0000000000000000
 10
247.7560631697303
 20
529.0422581564877
 30
0.0000000000000000
 10
247.0636873090132
 20
541.9147966670967
 30
0.0000000000000000
 10
242.3370868518022
 20
558.6751329005567
 30
0.0000000000000000
 10
225.7752408165025
 20
557.1035655113949
 30
0.0000000000000000
 10
214.4680731617361
 20
562.5684949823808
 30
0.0000000000000000
 10
208.4585627416769
 20
566.4005270723529
 30
0.0000000000000000
 10
205.4475291663286
 20
568.3205465877870
 30
0.0000000000000000
  0
LINE
  5
F2
100
AcDbEntity
  8
MA0
  6
HIDDEN
 62
3
100
AcDbLine
 10
827.6969420031876
 20
321.2109528367540
 30
0.0000000000000000
 11
741.5274143266362
 21
370.9609528367541
 31
0.0000000000000000
  0
LINE
  5
F3
100
AcDbEntity
  8
MA0
  6
HIDDEN
 62
3
100
AcDbLine
 10
809.6969420031876
 20
290.0340383005142
 30
0.0000000000000000
 11
723.5274143266361
 21
339.7840383005142
 31
0.0000000000000000
  0
LINE
  5
F4
100
AcDbEntity
  8
MA0
  6
HIDDEN
 62
3
100
AcDbLine
 10
825.2219420031877
 20
316.9241270880210
 30
0.0000000000000000
 11
733.0335377703343
 21
370.1491270880212
 31
0.0000000000000000
  0
LINE
  5
F5
100
AcDbEntity
  8
MA0
  6
HIDDEN
 62
3
100
AcDbLine
 10
812.1719420031877
 20
294.3208640492472
 30
0.0000000000000000
 11
719.9835377703341
 21
347.5458640492474
 31
0.0000000000000000
  0
ARC
  5
F6
100
AcDbEntity
  8
MA0
  6
HIDDEN
 62
3
100
AcDbCircle
 10
732.5274143266361
 20
355.3724955686342
 30
0.0000000000000000
 40
17.99999999999996
100
AcDbArc
 50
59.99999999999993
 51
104.9005279606889
  0
ARC
  5
F7
100
AcDbEntity
  8
MA0
  6
HIDDEN
 62
3
100
AcDbCircle
 10
726.5085377703342
 20
358.8474955686342
 30
0.0000000000000000
 40
13.05000000000003
100
AcDbArc
 50
59.99999999999993
 51
72.30916270598185
  0
ARC
  5
F8
100
AcDbEntity
  8
MA0
  6
CONTINUOUS
 62
3
100
AcDbCircle
 10
726.5085377703342
 20
358.8474955686342
 30
0.0000000000000000
 40
13.05000000000003
100
AcDbArc
 50
72.30916270598185
 51
227.6908372940166
  0
ARC
  5
F9
100
AcDbEntity
  8
MA0
  6
HIDDEN
 62
3
100
AcDbCircle
 10
726.5085377703342
 20
358.8474955686342
 30
0.0000000000000000
 40
13.05000000000003
100
AcDbArc
 50
227.6908372940166
 51
239.9999999999999
  0
ARC
  5
FA
100
AcDbEntity
  8
MA0
  6
CONTINUOUS
 62
3
100
AcDbCircle
 10
732.5274143266361
 20
355.3724955686342
 30
0.0000000000000000
 40
17.99999999999996
100
AcDbArc
 50
104.9005279606889
 51
195.0994720393112
  0
ARC
  5
FB
100
AcDbEntity
  8
MA0
  6
HIDDEN
 62
3
100
AcDbCircle
 10
732.5274143266361
 20
355.3724955686342
 30
0.0000000000000000
 40
17.99999999999996
100
AcDbArc
 50
195.0994720393112
 51
239.9999999999999
  0
LINE
  5
FC
100
AcDbEntity
  8
MA0
  6
HIDDEN
 62
3
100
AcDbLine
 10
480.4842123537455
 20
316.9241270880210
 30
0.0000000000000000
 11
572.6726165865989
 21
370.1491270880212
 31
0.0000000000000000
  0
LINE
  5
FD
100
AcDbEntity
  8
MA0
  6
HIDDEN
 62
3
100
AcDbLine
 10
478.0092123537455
 20
321.2109528367540
 30
0.0000000000000000
 11
564.1787400302969
 21
370.9609528367541
 31
0.0000000000000000
  0
ARC
  5
FE
100
AcDbEntity
  8
MA0
  6
HIDDEN
 62
3
100
AcDbCircle
 10
573.1787400302969
 20
355.3724955686342
 30
0.0000000000000000
 40
17.99999999999996
100
AcDbArc
 50
75.09947203931111
 51
120.0000000000001
  0
ARC
  5
FF
100
AcDbEntity
  8
MA0
  6
HIDDEN
 62
3
100
AcDbCircle
 10
579.1976165865990
 20
358.8474955686342
 30
0.0000000000000000
 40
13.05000000000003
100
AcDbArc
 50
107.6908372940182
 51
120.0000000000001
  0
ARC
  5
100
100
AcDbEntity
  8
MA0
  6
CONTINUOUS
 62
3
100
AcDbCircle
 10
579.1976165865990
 20
358.8474955686342
 30
0.0000000000000000
 40
13.05000000000003
100
AcDbArc
 50
312.3091627059833
 51
467.6908372940182
  0
ARC
  5
101
100
AcDbEntity
  8
MA0
  6
CONTINUOUS
 62
3
100
AcDbCircle
 10
573.1787400302969
 20
355.3724955686342
 30
0.0000000000000000
 40
17.99999999999996
100
AcDbArc
 50
344.9005279606888
 51
435.0994720393111
  0
ARC
  5
102
100
AcDbEntity
  8
MA0
  6
HIDDEN
 62
3
100
AcDbCircle
 10
579.1976165865990
 20
358.8474955686342
 30
0.0000000000000000
 40
13.05000000000003
100
AcDbArc
 50
300.0000000000001
 51
312.3091627059833
  0
LINE
  5
103
100
AcDbEntity
  8
MA0
  6
HIDDEN
 62
3
100
AcDbLine
 10
493.5342123537455
 20
294.3208640492472
 30
0.0000000000000000
 11
585.7226165865990
 21
347.5458640492474
 31
0.0000000000000000
  0
ARC
  5
104
100
AcDbEntity
  8
MA0
  6
HIDDEN
 62
3
100
AcDbCircle
 10
573.1787400302969
 20
355.3724955686342
 30
0.0000000000000000
 40
17.99999999999996
100
AcDbArc
 50
300.0000000000001
 51
344.9005279606888
  0
LINE
  5
105
100
AcDbEntity
  8
MA0
  6
HIDDEN
 62
3
100
AcDbLine
 10
496.0092123537455
 20
290.0340383005142
 30
0.0000000000000000
 11
582.1787400302969
 21
339.7840383005142
 31
0.0000000000000000
  0
MTEXT
  5
106
100
AcDbEntity
  8
MA0
  6
CONTINUOUS
 62
3
100
AcDbMText
 10
378.7561937739286
 20
338.8117938252503
 30
0.0000000000000000
 40
4.500000000000000
 41
0.0000000000000000
 71
     1
 72
     1
  1
{\H0.63x;{(MASTER JAW MAX OPEN POSITION)}}
 11
0.9797519097294658
 21
0.2002153724903879
 31
0.0000000000000000
  7
STANDARD
  0
LINE
  5
107
100
AcDbEntity
  8
MA0
  6
CONTINUOUS
 62
3
100
AcDbLine
 10
803.0719420031878
 20
278.5592017003698
 30
0.0000000000000000
 11
791.1761163801937
 21
266.6633760773757
 31
0.0000000000000000
  0
LINE
  5
108
100
AcDbEntity
  8
MA0
  6
CONTINUOUS
 62
3
100
AcDbLine
 10
788.8700950513689
 20
267.9947581123294
 30
0.0000000000000000
 11
791.1761163801937
 21
266.6633760773755
 31
0.0000000000000000
  0
LEADER
  5
109
100
AcDbEntity
  8
MA10
  6
CONTINUOUS
 62
12
100
AcDbLeader
  3
MA002
 73
     3
 74
     0
 75
     0
 76
     2
 10
462.7488561673492
 20
362.5241023746402
 30
0.0000000000000000
 10
458.2394224149126
 20
361.6025854584710
 30
0.0000000000000000
1001
ACAD
1000
DSTYLE
1002
{
1070
   173
1070
     1
1070
     6
1000
_OPEN
1070
     7
1000
_OPEN
1002
}
  0
LEADER
  5
10A
100
AcDbEntity
  8
MA0
  6
CONTINUOUS
 62
3
100
AcDbLeader
  3
MA002
 73
     0
 75
     1
 40
4.649999856948853
 41
9.299000004470344
 76
     3
 10
129.1629022278405
 20
386.3724955686338
 30
0.0000000000000000
 10
109.0408379544424
 20
361.3724955686338
 30
0.0000000000000000
 10
106.3608380334335
 20
361.3724955686338
 30
0.0000000000000000
340
10B
213
0.0000000000000000
223
-0.7500000000000000
233
0.0000000000000000
1001
ACAD
1000
DSTYLE
1002
{
1070
   147
1040
0.0
1070
    77
1070
     1
1070
   173
1070
     1
1070
     6
1000
_OPEN
1070
     7
1000
_OPEN
1002
}
  0
MTEXT
  5
10B
102
{ACAD_REACTORS
330
10A
102
}
100
AcDbEntity
  8
MA0
  6
CONTINUOUS
 62
3
100
AcDbMText
 10
97.06183802896314
 20
366.7724954255826
 30
0.0000000000000000
 40
4.649999856948853
 41
0.0000000000000000
 71
     1
 72
     1
  1
{\H0.70x;{M30}}
 11
1.000000000000000
 21
0.0000000000000000
 31
0.0000000000000000
  7
STANDARD
  0
LEADER
  5
10C
100
AcDbEntity
  8
MA0
  6
CONTINUOUS
 62
3
100
AcDbLeader
  3
MA002
 73
     0
 75
     1
 40
4.649999856948853
 41
20.35400061511993
 76
     3
 10
191.1075032655840
 20
273.8724962689238
 30
0.0000000000000000
 10
169.0408379544425
 20
261.3724955686337
 30
0.0000000000000000
 10
166.1508380381274
 20
261.3724955686337
 30
0.0000000000000000
340
10D
213
0.0000000000000000
223
-0.7500000000000000
233
0.0000000000000000
1001
ACAD
1000
DSTYLE
1002
{
1070
   147
1040
0.0
1070
    77
1070
     1
1070
   173
1070
     1
1070
     6
1000
_OPEN
1070
     7
1000
_OPEN
1002
}
  0
MTEXT
  5
10D
102
{ACAD_REACTORS
330
10C
102
}
100
AcDbEntity
  8
MA0
  6
CONTINUOUS
 62
3
100
AcDbMText
 10
145.7968374230075
 20
266.7724954255826
 30
0.0000000000000000
 40
4.649999856948853
 41
0.0000000000000000
 71
     1
 72
     1
  1
{\H0.92x;{6-M20}}
 11
1.000000000000000
 21
0.0000000000000000
 31
0.0000000000000000
  7
STANDARD
  0
LEADER
  5
10E
100
AcDbEntity
  8
MA0
  6
CONTINUOUS
 62
3
100
AcDbLeader
  3
MA002
 73
     0
 74
     0
 75
     1
 40
4.649999856948853
 41
77.13850225305555
 76
     3
 10
321.0408379544425
 20
580.9726196917848
 30
0.0000000000000000
 10
399.0408379544425
 20
606.3724955686338
 30
0.0000000000000000
 10
401.9288378707576
 20
606.3724955686338
 30
0.0000000000000000
340
10F
213
0.0000000000000000
223
-0.7500000000000000
233
0.0000000000000000
1001
ACAD
1000
DSTYLE
1002
{
1070
   147
1040
0.0
1070
    77
1070
     1
1070
   173
1070
     1
1070
     6
1000
_OPEN
1070
     7
1000
_OPEN
1002
}
  0
MTEXT
  5
10F
102
{ACAD_REACTORS
330
10E
102
}
100
AcDbEntity
  8
MA0
  6
CONTINUOUS
 62
3
100
AcDbMText
 10
401.9298378707575
 20
611.7724954255826
 30
0.0000000000000000
 40
4.649999856948853
 41
0.0000000000000000
 71
     1
 72
     1
  1
{\H0.91x;{セレーションピッチ　１．５\PSERRATION PITCH 1.5}}
 11
1.000000000000000
 21
0.0000000000000000
 31
0.0000000000000000
  7
KNJYOKO
  0
LEADER
  5
110
100
AcDbEntity
  8
MA0
  6
CONTINUOUS
 62
3
100
AcDbLeader
  3
MA002
 73
     0
 75
     1
 40
4.649999856948853
 41
43.94900002905726
 76
     3
 10
258.0408379544426
 20
228.8650279301247
 30
0.0000000000000000
 10
199.0408379544424
 20
191.3724955686338
 30
0.0000000000000000
 10
196.3608380334335
 20
191.3724955686338
 30
0.0000000000000000
340
111
213
0.0000000000000000
223
-0.7500000000000000
233
0.0000000000000000
1001
ACAD
1000
DSTYLE
1002
{
1070
   147
1040
0.0
1070
    77
1070
     1
1070
   173
1070
     1
1070
     6
1000
_OPEN
1070
     7
1000
_OPEN
1002
}
  0
MTEXT
  5
111
102
{ACAD_REACTORS
330
110
102
}
100
AcDbEntity
  8
MA0
  6
CONTINUOUS
 62
3
100
AcDbMText
 10
152.4118380043762
 20
196.7724954255826
 30
0.0000000000000000
 40
4.649999856948853
 41
0.0000000000000000
 71
     1
 72
     1
  1
{\H0.71x;{２－Ｍ１２　ねじ深２５\P2-M12 DEPTH 25}}
 11
1.000000000000000
 21
0.0000000000000000
 31
0.0000000000000000
  7
KNJYOKO
  0
LEADER
  5
112
100
AcDbEntity
  8
MA0
  6
CONTINUOUS
 62
3
100
AcDbLeader
  3
MA002
 73
     0
 74
     0
 75
     1
 40
4.649999856948853
 41
43.95100002905735
 76
     3
 10
785.2953989362852
 20
405.7354148242795
 30
0.0000000000000000
 10
834.4300575482978
 20
521.3724955686337
 30
0.0000000000000000
 10
837.1080574693067
 20
521.3724955686337
 30
0.0000000000000000
340
113
213
-0.001000000000090040
223
-0.7500000000000000
233
0.0000000000000000
1001
ACAD
1000
DSTYLE
1002
{
1070
   147
1040
0.0
1070
    77
1070
     1
1070
   173
1070
     1
1070
     6
1000
_OPEN
1070
     7
1000
_OPEN
1002
}
  0
MTEXT
  5
113
102
{ACAD_REACTORS
330
112
102
}
100
AcDbEntity
  8
MA0
  6
CONTINUOUS
 62
3
100
AcDbMText
 10
837.1090574693068
 20
526.7724954255825
 30
0.0000000000000000
 40
4.649999856948853
 41
0.0000000000000000
 71
     1
 72
     1
  1
{\H0.71x;{３－Ｍ１０　ねじ深２０\P3-M10 DEPTH 20}}
 11
1.000000000000000
 21
0.0000000000000000
 31
0.0000000000000000
  7
KNJYOKO
  0
DIMENSION
  5
11C
100
AcDbEntity
  8
MA10
  6
CONTINUOUS
 62
12
100
AcDbDimension
  2
*D0
 10
627.8530771784665
 20
606.3724955686338
 30
0.0000000000000000
 11
647.0189135170458
 21
607.1224955686338
 31
0.0000000000000000
 70
160
  3
MA002
100
AcDbAlignedDimension
 13
677.8530771784665
 23
592.1224955686337
 33
0.0000000000000000
 14
627.8530771784665
 24
592.1224955686337
 34
0.0000000000000000
100
AcDbRotatedDimension
1001
ACAD
1000
DSTYLE
1002
{
1070
   173
1070
     1
1070
     6
1000
_OPEN
1070
     7
1000
_OPEN
1070
    41
1040
2.866008
1002
}
  0
DIMENSION
  5
125
100
AcDbEntity
  8
MA10
  6
CONTINUOUS
 62
3
100
AcDbDimension
  2
*D1
 10
44.04083795444245
 20
591.8724955686337
 30
0.0000000000000000
 11
43.54083795444245
 21
401.3724955686337
 31
0.0000000000000000
 70
32
  1
\A1;\U+2205381
  3
MA002
100
AcDbAlignedDimension
 13
208.0408379544424
 23
210.8724955686338
 33
0.0000000000000000
 14
208.0408379544425
 24
591.8724955686337
 34
0.0000000000000000
 50
90.00000000000000
100
AcDbRotatedDimension
1001
ACAD
1000
DSTYLE
1002
{
1070
   173
1070
     1
1070
     6
1000
_OPEN
1070
     7
1000
_OPEN
1070
    41
1040
3.000000
1002
}
  0
DIMENSION
  5
12E
100
AcDbEntity
  8
MA10
  6
CONTINUOUS
 62
3
100
AcDbDimension
  2
*D2
 10
64.04083795444242
 20
551.3724955686337
 30
0.0000000000000000
 11
63.54083795444242
 21
394.2974954315430
 31
0.0000000000000000
 70
32
  1
\A1;\U+2205300H6\H0.903226x;\S＋0.032^ 　0;
  3
MA002
100
AcDbAlignedDimension
 13
205.0408379544424
 23
251.3724955686338
 33
0.0000000000000000
 14
205.0408379544425
 24
551.3724955686337
 34
0.0000000000000000
 50
90.00000000000000
100
AcDbRotatedDimension
1001
ACAD
1000
DSTYLE
1002
{
1070
   173
1070
     1
1070
     6
1000
_OPEN
1070
     7
1000
_OPEN
1070
    41
1040
3.000000
1070
   272
1070
     3
1070
    47
1040
0.032000
1070
    48
1040
0.000000
1070
    71
1070
     1
1070
   340
1005
12F
1002
}
  0
DIMENSION
  5
137
100
AcDbEntity
  8
MA10
  6
CONTINUOUS
 62
3
100
AcDbDimension
  2
*D3
 10
211.0408379544425
 20
466.3724955686338
 30
0.0000000000000000
 11
176.5408379544425
 21
466.8724955686338
 31
0.0000000000000000
 70
32
  1
\A1;MIN  69
  3
MA002
100
AcDbAlignedDimension
 13
142.0408379544424
 23
426.8724955686337
 33
0.0000000000000000
 14
211.0408379544425
 24
449.4224955686332
 34
0.0000000000000000
100
AcDbRotatedDimension
1001
ACAD
1000
DSTYLE
1002
{
1070
   173
1070
     1
1070
     6
1000
_OPEN
1070
     7
1000
_OPEN
1070
    41
1040
3.000000
1002
}
  0
DIMENSION
  5
140
100
AcDbEntity
  8
MA10
  6
CONTINUOUS
 62
3
100
AcDbDimension
  2
*D4
 10
142.0408379544424
 20
466.3724955686338
 30
0.0000000000000000
 11
114.5408379544425
 21
466.8724955686338
 31
0.0000000000000000
 70
32
  3
MA002
100
AcDbAlignedDimension
 13
87.04083795444248
 23
414.3724955686338
 33
0.0000000000000000
 14
142.0408379544424
 24
426.8724955686337
 34
0.0000000000000000
100
AcDbRotatedDimension
1001
ACAD
1000
DSTYLE
1002
{
1070
   173
1070
     1
1070
     6
1000
_OPEN
1070
     7
1000
_OPEN
1070
    41
1040
3.000000
1002
}
  0
DIMENSION
  5
149
100
AcDbEntity
  8
MA10
  6
CONTINUOUS
 62
3
100
AcDbDimension
  2
*D5
 10
177.0408379544424
 20
446.3724955686337
 30
0.0000000000000000
 11
159.5408379544424
 21
446.8724955686337
 31
0.0000000000000000
 70
32
  3
MA002
100
AcDbAlignedDimension
 13
142.0408379544424
 23
426.8724955686337
 33
0.0000000000000000
 14
177.0408379544424
 24
430.3724955686335
 34
0.0000000000000000
100
AcDbRotatedDimension
1001
ACAD
1000
DSTYLE
1002
{
1070
   173
1070
     1
1070
     6
1000
_OPEN
1070
     7
1000
_OPEN
1070
    41
1040
3.000000
1002
}
  0
DIMENSION
  5
150
100
AcDbEntity
  8
MA10
  6
CONTINUOUS
 62
3
100
AcDbDimension
  2
*D6
 10
279.0408379544425
 20
414.8724955686337
 30
0.0000000000000000
 11
278.5408379544425
 21
401.3724955686337
 31
0.0000000000000000
 70
32
  1
\A1;\U+220527
  3
MA002
100
AcDbAlignedDimension
 13
304.5408379544423
 23
387.8724955686337
 33
0.0000000000000000
 14
304.5408379544423
 24
414.8724955686337
 34
0.0000000000000000
 50
90.00000000000000
100
AcDbRotatedDimension
1001
ACAD
1000
DSTYLE
1002
{
1070
   173
1070
     1
1070
     6
1000
_OPEN
1070
     7
1000
_OPEN
1070
    41
1040
3.000000
1002
}
  0
DIMENSION
  5
157
100
AcDbEntity
  8
MA10
  6
CONTINUOUS
 62
3
100
AcDbDimension
  2
*D7
 10
224.0408379544425
 20
440.3724955686337
 30
0.0000000000000000
 11
223.5408379544425
 21
401.3724955686337
 31
0.0000000000000000
 70
32
  1
\A1;\U+220578
  3
MA002
100
AcDbAlignedDimension
 13
236.0408379544425
 23
362.3724955686338
 33
0.0000000000000000
 14
208.0408379544425
 24
440.3724955686337
 34
0.0000000000000000
 50
90.00000000000000
100
AcDbRotatedDimension
1001
ACAD
1000
DSTYLE
1002
{
1070
   173
1070
     1
1070
     6
1000
_OPEN
1070
     7
1000
_OPEN
1070
    41
1040
3.000000
1002
}
  0
DIMENSION
  5
15E
100
AcDbEntity
  8
MA10
  6
CONTINUOUS
 62
3
100
AcDbDimension
  2
*D8
 10
199.0408379544425
 20
431.3724955686336
 30
0.0000000000000000
 11
198.5408379544425
 21
401.3724955686337
 31
0.0000000000000000
 70
32
  1
\A1;\U+220560
  3
MA002
100
AcDbAlignedDimension
 13
207.0408379544424
 23
371.3724955686337
 33
0.0000000000000000
 14
178.0408379544424
 24
431.3724955686336
 34
0.0000000000000000
 50
90.00000000000000
100
AcDbRotatedDimension
1001
ACAD
1000
DSTYLE
1002
{
1070
   173
1070
     1
1070
     6
1000
_OPEN
1070
     7
1000
_OPEN
1070
    41
1040
3.000000
1002
}
  0
DIMENSION
  5
165
100
AcDbEntity
  8
MA10
  6
CONTINUOUS
 62
3
100
AcDbDimension
  2
*D9
 10
169.0408379544424
 20
428.8724955686337
 30
0.0000000000000000
 11
168.5408379544424
 21
401.3724955686338
 31
0.0000000000000000
 70
32
  1
\A1;\U+220555
  3
MA002
100
AcDbAlignedDimension
 13
177.0408379544424
 23
373.8724955686340
 33
0.0000000000000000
 14
177.0408379544425
 24
428.8724955686337
 34
0.0000000000000000
 50
90.00000000000000
100
AcDbRotatedDimension
1001
ACAD
1000
DSTYLE
1002
{
1070
   173
1070
     1
1070
     6
1000
_OPEN
1070
     7
1000
_OPEN
1070
    41
1040
3.000000
1002
}
  0
DIMENSION
  5
16C
100
AcDbEntity
  8
MA10
  6
CONTINUOUS
 62
3
100
AcDbDimension
  2
*D10
 10
211.0408379544425
 20
341.3724955686337
 30
0.0000000000000000
 11
228.5408379544425
 21
341.8724955686337
 31
0.0000000000000000
 70
32
  3
MA002
100
AcDbAlignedDimension
 13
246.0408379544425
 23
352.3724955686337
 33
0.0000000000000000
 14
211.0408379544425
 24
353.3224955686334
 34
0.0000000000000000
100
AcDbRotatedDimension
1001
ACAD
1000
DSTYLE
1002
{
1070
   173
1070
     1
1070
     6
1000
_OPEN
1070
     7
1000
_OPEN
1070
    41
1040
3.000000
1002
}
  0
DIMENSION
  5
174
100
AcDbEntity
  8
MA10
  6
CONTINUOUS
 62
3
100
AcDbDimension
  2
*D11
 10
181.0408379544424
 20
261.3724955686338
 30
0.0000000000000000
 11
196.0408379544425
 21
261.8724955686338
 31
0.0000000000000000
 70
32
  3
MA002
100
AcDbAlignedDimension
 13
211.0408379544425
 23
273.8724976555906
 33
0.0000000000000000
 14
181.0408379544424
 24
273.8724955686341
 34
0.0000000000000000
100
AcDbRotatedDimension
1001
ACAD
1000
DSTYLE
1002
{
1070
   173
1070
     1
1070
     6
1000
_OPEN
1070
     7
1000
_OPEN
1070
    41
1040
3.000000
1002
}
  0
DIMENSION
  5
17D
100
AcDbEntity
  8
MA10
  6
CONTINUOUS
 62
3
100
AcDbDimension
  2
*D12
 10
319.0408379544425
 20
191.3724955686338
 30
0.0000000000000000
 11
291.5408379544424
 21
191.8724955686338
 31
0.0000000000000000
 70
32
  3
MA002
100
AcDbAlignedDimension
 13
264.0408379544423
 23
209.3427242735975
 33
0.0000000000000000
 14
319.0408379544425
 24
213.8724955686338
 34
0.0000000000000000
100
AcDbRotatedDimension
1001
ACAD
1000
DSTYLE
1002
{
1070
   173
1070
     1
1070
     6
1000
_OPEN
1070
     7
1000
_OPEN
1070
    41
1040
3.000000
1002
}
  0
DIMENSION
  5
186
100
AcDbEntity
  8
MA10
  6
CONTINUOUS
 62
3
100
AcDbDimension
  2
*D13
 10
319.0408379544425
 20
171.3724955686338
 30
0.0000000000000000
 11
262.0408379544425
 21
171.8724955686338
 31
0.0000000000000000
 70
32
  3
MA002
100
AcDbAlignedDimension
 13
205.0408379544424
 23
213.8724955686338
 33
0.0000000000000000
 14
319.0408379544425
 24
213.8724955686338
 34
0.0000000000000000
100
AcDbRotatedDimension
1001
ACAD
1000
DSTYLE
1002
{
1070
   173
1070
     1
1070
     6
1000
_OPEN
1070
     7
1000
_OPEN
1070
    41
1040
3.000000
1002
}
  0
DIMENSION
  5
190
100
AcDbEntity
  8
MA10
  6
CONTINUOUS
 62
3
100
AcDbDimension
  2
*D14
 10
205.0408379544425
 20
236.3724955686338
 30
0.0000000000000000
 11
208.0408379544425
 21
236.8724955686338
 31
0.0000000000000000
 70
32
  3
MA002
100
AcDbAlignedDimension
 13
211.0408379544425
 23
251.3724955686339
 33
0.0000000000000000
 14
205.0408379544425
 24
273.8724972381993
 34
0.0000000000000000
100
AcDbRotatedDimension
1001
ACAD
1000
DSTYLE
1002
{
1070
   173
1070
     1
1070
     6
1000
_OPEN
1070
     7
1000
_OPEN
1070
    41
1040
3.000000
1070
   287
1070
     0
1002
}
  0
DIMENSION
  5
199
100
AcDbEntity
  8
MA10
  6
CONTINUOUS
 62
3
100
AcDbDimension
  2
*D15
 10
339.0408379544425
 20
299.8724955686338
 30
0.0000000000000000
 11
338.5408379544425
 21
283.8724955686340
 31
0.0000000000000000
 70
32
  1
\A1;\U+220532
  3
MA002
100
AcDbAlignedDimension
 13
319.0408379544423
 23
267.8724955686342
 33
0.0000000000000000
 14
319.0408379544423
 24
299.8724955686338
 34
0.0000000000000000
 50
90.00000000000000
100
AcDbRotatedDimension
1001
ACAD
1000
DSTYLE
1002
{
1070
   173
1070
     1
1070
     6
1000
_OPEN
1070
     7
1000
_OPEN
1070
    41
1040
3.000000
1002
}
  0
DIMENSION
  5
1A1
100
AcDbEntity
  8
MA10
  6
CONTINUOUS
 62
3
100
AcDbDimension
  2
*D16
 10
319.0408379544425
 20
251.3724955686338
 30
0.0000000000000000
 11
307.5408379544425
 21
251.8724955686338
 31
0.0000000000000000
 70
32
  3
MA002
100
AcDbAlignedDimension
 13
296.0408379544425
 23
267.8724955686344
 33
0.0000000000000000
 14
319.0408379544425
 24
213.8724955686338
 34
0.0000000000000000
100
AcDbRotatedDimension
1001
ACAD
1000
DSTYLE
1002
{
1070
   173
1070
     1
1070
     6
1000
_OPEN
1070
     7
1000
_OPEN
1070
    41
1040
3.000000
1002
}
  0
DIMENSION
  5
1AA
100
AcDbEntity
  8
MA10
  6
CONTINUOUS
 62
3
100
AcDbDimension
  2
*D17
 10
380.0408379544425
 20
606.3724955686338
 30
0.0000000000000000
 11
349.5408379544424
 21
606.8724955686338
 31
0.0000000000000000
 70
32
  3
MA002
100
AcDbAlignedDimension
 13
319.0408379544424
 23
588.8724955686337
 33
0.0000000000000000
 14
380.0408379544425
 24
592.1224955686337
 34
0.0000000000000000
100
AcDbRotatedDimension
1001
ACAD
1000
DSTYLE
1002
{
1070
   173
1070
     1
1070
     6
1000
_OPEN
1070
     7
1000
_OPEN
1070
    41
1040
3.000000
1002
}
  0
DIMENSION
  5
1B3
100
AcDbEntity
  8
MA10
  6
CONTINUOUS
 62
3
100
AcDbDimension
  2
*D18
 10
444.0408379544425
 20
592.1224955686337
 30
0.0000000000000000
 11
443.5408379544425
 21
524.6224955686336
 31
0.0000000000000000
 70
32
  3
MA002
100
AcDbAlignedDimension
 13
380.0408379544423
 23
457.1224955686335
 33
0.0000000000000000
 14
380.0408379544423
 24
592.1224955686337
 34
0.0000000000000000
 50
90.00000000000000
100
AcDbRotatedDimension
1001
ACAD
1000
DSTYLE
1002
{
1070
   173
1070
     1
1070
     6
1000
_OPEN
1070
     7
1000
_OPEN
1070
    41
1040
3.000000
1002
}
  0
DIMENSION
  5
1BC
100
AcDbEntity
  8
MA10
  6
CONTINUOUS
 62
3
100
AcDbDimension
  2
*D19
 10
424.0408379544425
 20
566.1224955686337
 30
0.0000000000000000
 11
423.5408379544425
 21
544.6224955686337
 31
0.0000000000000000
 70
32
  3
MA002
100
AcDbAlignedDimension
 13
385.7515700573921
 23
523.1224955686336
 33
0.0000000000000000
 14
383.5015719936120
 24
566.1224955686337
 34
0.0000000000000000
 50
90.00000000000000
100
AcDbRotatedDimension
1001
ACAD
1000
DSTYLE
1002
{
1070
   173
1070
     1
1070
     6
1000
_OPEN
1070
     7
1000
_OPEN
1070
    41
1040
3.000000
1002
}
  0
DIMENSION
  5
1C5
100
AcDbEntity
  8
MA10
  6
CONTINUOUS
 62
3
100
AcDbDimension
  2
*D20
 10
424.0408379544425
 20
523.1224955686336
 30
0.0000000000000000
 11
423.5408379544425
 21
490.1224955686336
 31
0.0000000000000000
 70
32
  3
MA002
100
AcDbAlignedDimension
 13
380.0408379544423
 23
457.1224955686335
 33
0.0000000000000000
 14
385.7515700573921
 24
523.1224955686336
 34
0.0000000000000000
 50
90.00000000000000
100
AcDbRotatedDimension
1001
ACAD
1000
DSTYLE
1002
{
1070
   173
1070
     1
1070
     6
1000
_OPEN
1070
     7
1000
_OPEN
1070
    41
1040
3.000000
1002
}
  0
DIMENSION
  5
1CE
100
AcDbEntity
  8
MA10
  6
CONTINUOUS
 62
3
100
AcDbDimension
  2
*D21
 10
404.0408379544425
 20
523.1224955686336
 30
0.0000000000000000
 11
403.5408379544425
 21
500.9974955686336
 31
0.0000000000000000
 70
32
  1
\A1;MAX 48.75
  3
MA002
100
AcDbAlignedDimension
 13
320.0408379544425
 23
478.8724955686337
 33
0.0000000000000000
 14
385.7515700573921
 24
523.1224955686336
 34
0.0000000000000000
 50
90.00000000000000
100
AcDbRotatedDimension
1001
ACAD
1000
DSTYLE
1002
{
1070
   173
1070
     1
1070
     6
1000
_OPEN
1070
     7
1000
_OPEN
1070
    41
1040
3.000000
1002
}
  0
DIMENSION
  5
1D7
100
AcDbEntity
  8
MA10
  6
CONTINUOUS
 62
3
100
AcDbDimension
  2
*D22
 10
404.0408379544425
 20
478.8724955686337
 30
0.0000000000000000
 11
403.2908379544425
 21
429.5898639960582
 31
0.0000000000000000
 70
160
  1
\A1;MAX 77.5
  3
MA002
100
AcDbAlignedDimension
 13
330.2043108770204
 23
401.3724955686337
 33
0.0000000000000000
 14
320.0408379544425
 24
478.8724955686337
 34
0.0000000000000000
 50
90.00000000000000
100
AcDbRotatedDimension
1001
ACAD
1000
DSTYLE
1002
{
1070
   173
1070
     1
1070
     6
1000
_OPEN
1070
     7
1000
_OPEN
1070
    41
1040
3.000000
1002
}
  0
DIMENSION
  5
1DF
100
AcDbEntity
  8
MA10
  6
CONTINUOUS
 62
3
100
AcDbDimension
  2
*D23
 10
867.8538583807460
 20
401.3724955686336
 30
0.0000000000000000
 11
860.0449215009292
 21
345.8556082041154
 31
0.0000000000000000
 70
162
  3
MA002
100
AcDb2LineAngularDimension
 13
832.2233600373957
 23
297.8130144754125
 33
0.0000000000000000
 14
831.3573346336113
 24
298.3130144754125
 34
0.0000000000000000
 15
652.8530771784690
 25
401.3724955686336
 35
0.0000000000000000
 16
860.5278844140737
 26
345.7261986815641
 36
0.0000000000000000
1001
ACAD
1000
DSTYLE
1002
{
1070
   173
1070
     1
1070
     6
1000
_OPEN
1070
     7
1000
_OPEN
1070
    41
1040
3.000000
1002
}
  0
DIMENSION
  5
1E7
100
AcDbEntity
  8
MA10
  6
CONTINUOUS
 62
3
100
AcDbDimension
  2
*D24
 10
789.5223744847717
 20
437.9929234119865
 30
0.0000000000000000
 11
865.5187744621346
 21
429.3704657671932
 31
0.0000000000000000
 70
162
  3
MA002
100
AcDb2LineAngularDimension
 13
867.8538583807460
 23
401.3724955686336
 33
0.0000000000000000
 14
652.8530771784690
 24
401.3724955686336
 34
0.0000000000000000
 15
788.5564486584826
 25
437.7341043668839
 35
0.0000000000000000
 16
866.0144968928216
 26
429.4357288633032
 36
0.0000000000000000
1001
ACAD
1000
DSTYLE
1002
{
1070
   173
1070
     1
1070
     6
1000
_OPEN
1070
     7
1000
_OPEN
1070
    41
1040
3.000000
1002
}
  0
DIMENSION
  5
1F0
100
AcDbEntity
  8
MA10
  6
CONTINUOUS
 62
3
100
AcDbDimension
  2
*D25
 10
755.5310485933819
 20
504.0504669835470
 30
0.0000000000000000
 11
838.6162028312483
 21
508.6228861697724
 31
0.0000000000000000
 70
162
  3
MA002
100
AcDb2LineAngularDimension
 13
789.5223744847717
 23
437.9929234119865
 33
0.0000000000000000
 14
788.5564486584826
 24
437.7341043668839
 34
0.0000000000000000
 15
754.8239418121954
 25
503.3433602023605
 35
0.0000000000000000
 16
839.0492155331406
 26
508.8728861697724
 36
0.0000000000000000
1001
ACAD
1000
DSTYLE
1002
{
1070
   173
1070
     1
1070
     6
1000
_OPEN
1070
     7
1000
_OPEN
1070
    41
1040
3.000000
1002
}
  0
DIMENSION
  5
1F9
100
AcDbEntity
  8
MA10
  6
CONTINUOUS
 62
3
100
AcDbDimension
  2
*D26
 10
652.8530771784665
 20
610.9810292455544
 30
0.0000000000000000
 11
735.3216558063132
 21
600.4692565616110
 31
0.0000000000000000
 70
162
  3
MA002
100
AcDb2LineAngularDimension
 13
755.5310485933819
 23
504.0504669835470
 33
0.0000000000000000
 14
754.8239418121954
 24
503.3433602023605
 34
0.0000000000000000
 15
652.8530771784665
 25
609.9810292455544
 35
0.0000000000000000
 16
735.1303140901307
 26
600.0073167953555
 36
0.0000000000000000
1001
ACAD
1000
DSTYLE
1002
{
1070
   173
1070
     1
1070
     6
1000
_OPEN
1070
     7
1000
_OPEN
1070
    41
1040
3.000000
1002
}
  0
DIMENSION
  5
202
100
AcDbEntity
  8
MA10
  6
CONTINUOUS
 62
3
100
AcDbDimension
  2
*D27
 10
550.4378200888874
 20
578.7609243180154
 30
0.0000000000000000
 11
597.0773707688466
 21
609.5302657173825
 31
0.0000000000000000
 70
162
  3
MA002
100
AcDb2LineAngularDimension
 13
652.8530771784665
 23
610.9810292455544
 33
0.0000000000000000
 14
652.8530771784665
 24
609.9810292455544
 34
0.0000000000000000
 15
550.9378200888874
 25
577.8948989142309
 35
0.0000000000000000
 16
597.2067802913980
 26
609.0473028042379
 36
0.0000000000000000
1001
ACAD
1000
DSTYLE
1002
{
1070
   173
1070
     1
1070
     6
1000
_OPEN
1070
     7
1000
_OPEN
1070
    41
1040
3.000000
1002
}
  0
DIMENSION
  5
208
100
AcDbEntity
  8
MA10
  6
CONTINUOUS
 62
3
100
AcDbDimension
  2
*D28
 10
782.1430194299110
 20
387.8037508728942
 30
0.0000000000000000
 11
753.3235585822401
 21
391.5824199480244
 31
0.0000000000000000
 70
163
  3
MA002
100
AcDbDiametricDimension
 15
523.5631349270220
 25
414.9412402643732
 35
0.0000000000000000
1001
ACAD
1000
DSTYLE
1002
{
1070
   287
1070
     2
1070
   173
1070
     1
1070
     6
1000
_OPEN
1070
     7
1000
_NONE
1070
    41
1040
3.000000
1070
   272
1070
     1
1070
    47
1040
0.200000
1070
    48
1040
0.200000
1070
    71
1070
     1
1002
}
  0
DIMENSION
  5
20F
100
AcDbEntity
  8
MA10
  6
CONTINUOUS
 62
3
100
AcDbDimension
  2
*D29
 10
769.8009611247703
 20
412.7497729442551
 30
0.0000000000000000
 11
716.1345859977062
 21
408.2823792819239
 31
0.0000000000000000
 70
163
  3
MA002
100
AcDbDiametricDimension
 15
535.9051932321627
 25
389.9952181930124
 35
0.0000000000000000
1001
ACAD
1000
DSTYLE
1002
{
1070
   287
1070
     2
1070
   173
1070
     1
1070
     6
1000
_OPEN
1070
     7
1000
_OPEN
1070
    41
1040
3.000000
1002
}
  0
DIMENSION
  5
218
100
AcDbEntity
  8
MA10
  6
CONTINUOUS
 62
3
100
AcDbDimension
  2
*D30
 10
369.0408379544425
 20
137.0456473016683
 30
0.0000000000000000
 11
368.5408379544425
 21
106.0456473016697
 31
0.0000000000000000
 70
32
  3
MA002
100
AcDbAlignedDimension
 13
319.0408379544424
 23
75.04564730167095
 33
0.0000000000000000
 14
319.0408379544423
 24
137.0456473016683
 34
0.0000000000000000
 50
90.00000000000000
100
AcDbRotatedDimension
1001
ACAD
1000
DSTYLE
1002
{
1070
   173
1070
     1
1070
     6
1000
_OPEN
1070
     7
1000
_OPEN
1070
    41
1040
3.000000
1002
}
  0
DIMENSION
  5
221
100
AcDbEntity
  8
MA10
  6
CONTINUOUS
 62
3
100
AcDbDimension
  2
*D31
 10
349.0408379544425
 20
118.7956473016683
 30
0.0000000000000000
 11
348.5408379544425
 21
106.0456473016697
 31
0.0000000000000000
 70
32
  3
MA002
100
AcDbAlignedDimension
 13
324.2908379544422
 23
93.29564730167095
 33
0.0000000000000000
 14
324.2908379544422
 24
118.7956473016683
 34
0.0000000000000000
 50
90.00000000000000
100
AcDbRotatedDimension
1001
ACAD
1000
DSTYLE
1002
{
1070
   173
1070
     1
1070
     6
1000
_OPEN
1070
     7
1000
_OPEN
1070
    41
1040
3.000000
1002
}
  0
DIMENSION
  5
22B
100
AcDbEntity
  8
MA10
  6
CONTINUOUS
 62
3
100
AcDbDimension
  2
*D32
 10
324.2908379544422
 20
51.37249556863372
 30
0.0000000000000000
 11
330.6082419744117
 21
52.12249556863372
 31
0.0000000000000000
 70
160
  3
MA002
100
AcDbAlignedDimension
 13
321.0408379544425
 23
81.04564730167095
 33
0.0000000000000000
 14
324.2908379544422
 24
93.29564730167095
 34
0.0000000000000000
100
AcDbRotatedDimension
1001
ACAD
1000
DSTYLE
1002
{
1070
   173
1070
     1
1070
     6
1000
_DOT
1070
     7
1000
_OPEN
1070
    41
1040
3.000000
1070
   287
1070
     0
1002
}
  0
DIMENSION
  5
234
100
AcDbEntity
  8
MA10
  6
CONTINUOUS
 62
3
100
AcDbDimension
  2
*D33
 10
321.0408379544425
 20
51.37249556863372
 30
0.0000000000000000
 11
313.4566824553953
 21
52.12249556863372
 31
0.0000000000000000
 70
160
  3
MA002
100
AcDbAlignedDimension
 13
319.0408379544424
 23
40.88218056094758
 33
0.0000000000000000
 14
321.0408379544425
 24
81.04564730167095
 34
0.0000000000000000
100
AcDbRotatedDimension
1001
ACAD
1000
DSTYLE
1002
{
1070
   173
1070
     1
1070
     6
1000
_OPEN
1070
     7
1000
_DOT
1070
    41
1040
3.000000
1070
   287
1070
     0
1002
}
  0
DIMENSION
  5
23B
100
AcDbEntity
  8
MA10
  6
CONTINUOUS
 62
3
100
AcDbDimension
  2
*D34
 10
269.0408379544425
 20
294.3724955686338
 30
0.0000000000000000
 11
268.5408379544425
 21
283.8724955686338
 31
0.0000000000000000
 70
32
  1
\A1;\U+220521
  3
MA002
100
AcDbAlignedDimension
 13
296.0408379544425
 23
273.3724955686338
 33
0.0000000000000000
 14
296.0408379544425
 24
294.3724955686338
 34
0.0000000000000000
 50
90.00000000000000
100
AcDbRotatedDimension
1001
ACAD
1000
DSTYLE
1002
{
1070
   173
1070
     1
1070
     6
1000
_OPEN
1070
     7
1000
_OPEN
1070
    41
1040
3.000000
1002
}
  0
LINE
  5
23C
100
AcDbEntity
  8
MA0
  6
CONTINUOUS
 62
3
100
AcDbLine
 10
208.0408379544424
 20
210.8724955686338
 30
0.0000000000000000
 11
316.0408379544424
 21
210.8724955686338
 31
0.0000000000000000
  0
LINE
  5
23D
100
AcDbEntity
  8
MA0
  6
CONTINUOUS
 62
3
100
AcDbLine
 10
211.0408379544426
 20
294.3724955686338
 30
0.0000000000000000
 11
296.0408379544425
 21
294.3724955686338
 31
0.0000000000000000
  0
LINE
  5
23E
100
AcDbEntity
  8
MA0
  6
CONTINUOUS
 62
3
100
AcDbLine
 10
211.0408379544426
 20
273.3724955686338
 30
0.0000000000000000
 11
296.0408379544425
 21
273.3724955686338
 31
0.0000000000000000
  0
LINE
  5
23F
100
AcDbEntity
  8
MA0
  6
CONTINUOUS
 62
3
100
AcDbLine
 10
296.0408379544425
 20
299.8724955686338
 30
0.0000000000000000
 11
319.0408379544423
 21
299.8724955686338
 31
0.0000000000000000
  0
LINE
  5
240
100
AcDbEntity
  8
MA0
  6
CONTINUOUS
 62
3
100
AcDbLine
 10
296.0408379544425
 20
267.8724955686342
 30
0.0000000000000000
 11
319.0408379544423
 21
267.8724955686342
 31
0.0000000000000000
  0
LINE
  5
241
100
AcDbEntity
  8
MA0
  6
CONTINUOUS
 62
3
100
AcDbLine
 10
229.0408379544425
 20
303.1474955686341
 30
0.0000000000000000
 11
229.0408379544425
 21
328.1474955686341
 31
0.0000000000000000
  0
LINE
  5
242
100
AcDbEntity
  8
MA0
  6
CENTER
 62
12
100
AcDbLine
 10
296.4508640563279
 20
323.8724955686338
 30
0.0000000000000000
 11
322.3708771562379
 21
323.8724955686338
 31
0.0000000000000000
  0
LINE
  5
243
100
AcDbEntity
  8
MA0
  6
CENTER
 62
12
100
AcDbLine
 10
207.8999916506867
 20
531.3724955686336
 30
0.0000000000000000
 11
256.0678121199600
 21
531.3724955686336
 31
0.0000000000000000
  0
LINE
  5
244
100
AcDbEntity
  8
MA0
  6
CONTINUOUS
 62
3
100
AcDbLine
 10
211.0408379544426
 20
328.1474955686340
 30
0.0000000000000000
 11
229.0408379544426
 21
328.1474955686340
 31
0.0000000000000000
  0
LINE
  5
245
100
AcDbEntity
  8
MA0
  6
CONTINUOUS
 62
3
100
AcDbLine
 10
211.0408379544426
 20
303.1474955686340
 30
0.0000000000000000
 11
229.0408379544426
 21
303.1474955686340
 31
0.0000000000000000
  0
LINE
  5
246
100
AcDbEntity
  8
MA0
  6
CONTINUOUS
 62
3
100
AcDbLine
 10
211.0408379544425
 20
469.8542449621765
 30
0.0000000000000000
 11
249.9320089815137
 21
469.8542449621765
 31
0.0000000000000000
  0
LINE
  5
247
100
AcDbEntity
  8
MA0
  6
CENTER
 62
12
100
AcDbLine
 10
449.5742670574610
 20
401.3724955686337
 30
0.0000000000000000
 11
879.4973294269732
 21
401.3724955686337
 31
0.0000000000000000
  0
LINE
  5
248
100
AcDbEntity
  8
MA0
  6
CONTINUOUS
 62
3
100
AcDbLine
 10
319.0408379544424
 20
477.3724955686336
 30
0.0000000000000000
 11
319.0408379544424
 21
588.8724955686337
 31
0.0000000000000000
  0
LINE
  5
249
100
AcDbEntity
  8
MA0
  6
CONTINUOUS
 62
3
100
AcDbLine
 10
208.0408379544425
 20
591.8724955686337
 30
0.0000000000000000
 11
205.0408379544425
 21
588.8724955686337
 31
0.0000000000000000
  0
LINE
  5
24A
100
AcDbEntity
  8
MA0
  6
CONTINUOUS
 62
3
100
AcDbLine
 10
316.0408379544424
 20
210.8724955686338
 30
0.0000000000000000
 11
319.0408379544424
 21
213.8724955686338
 31
0.0000000000000000
  0
LINE
  5
24B
100
AcDbEntity
  8
MA0
  6
CONTINUOUS
 62
3
100
AcDbLine
 10
208.0408379544424
 20
210.8724955686338
 30
0.0000000000000000
 11
205.0408379544424
 21
213.8724955686338
 31
0.0000000000000000
  0
LINE
  5
24C
100
AcDbEntity
  8
MA0
  6
CENTER
 62
12
100
AcDbLine
 10
721.0243454003903
 20
469.5437637905555
 30
0.0000000000000000
 11
755.5310485933819
 21
504.0504669835471
 31
0.0000000000000000
  0
LINE
  5
24D
100
AcDbEntity
  8
MA0
  6
CENTER
 62
12
100
AcDbLine
 10
745.1138689216564
 20
426.0937002092768
 30
0.0000000000000000
 11
789.5223744847717
 21
437.9929234119865
 31
0.0000000000000000
  0
LINE
  5
24E
100
AcDbEntity
  8
MA0
  6
CENTER
 62
12
100
AcDbLine
 10
517.8365095868844
 20
437.5500758196209
 30
0.0000000000000000
 11
560.3794177795201
 21
426.1507379257328
 31
0.0000000000000000
  0
LINE
  5
24F
100
AcDbEntity
  8
MA0
  6
CENTER
 62
12
100
AcDbLine
 10
554.4587763494993
 20
499.7667963976037
 30
0.0000000000000000
 11
585.1483073749323
 21
469.0772653721705
 31
0.0000000000000000
  0
LINE
  5
250
100
AcDbEntity
  8
MA0
  6
CENTER
 62
12
100
AcDbLine
 10
677.6335789375231
 20
308.8904039667841
 30
0.0000000000000000
 11
688.7899521554093
 21
267.2542522894320
 31
0.0000000000000000
  0
LINE
  5
251
100
AcDbEntity
  8
MA0
  6
CENTER
 62
12
100
AcDbLine
 10
615.2650702546064
 20
261.0921439735380
 30
0.0000000000000000
 11
628.4638579004035
 21
310.3506900659652
 31
0.0000000000000000
  0
LINE
  5
252
100
AcDbEntity
  8
MA0
  6
CONTINUOUS
 62
3
100
AcDbLine
 10
683.8530771784665
 20
464.1970690880904
 30
0.0000000000000000
 11
683.8530771784665
 21
592.8724955686332
 31
0.0000000000000000
  0
LINE
  5
253
100
AcDbEntity
  8
MA0
  6
CONTINUOUS
 62
3
100
AcDbLine
 10
621.8530771784665
 20
464.1970690880904
 30
0.0000000000000000
 11
621.8530771784665
 21
592.8724955686333
 31
0.0000000000000000
  0
LINE
  5
254
100
AcDbEntity
  8
MA0
  6
CENTER
 62
12
100
AcDbLine
 10
550.4378200888874
 20
578.7609243180153
 30
0.0000000000000000
 11
593.7893467054473
 21
503.6738776324580
 31
0.0000000000000000
  0
LINE
  5
255
100
AcDbEntity
  8
MA0
  6
HIDDEN
 62
12
100
AcDbLine
 10
575.2992296011744
 20
547.6996998949575
 30
0.0000000000000000
 11
563.1492296011743
 21
568.7441172069192
 31
0.0000000000000000
  0
LINE
  5
256
100
AcDbEntity
  8
MA0
  6
HIDDEN
 62
12
100
AcDbLine
 10
564.9069247557611
 20
541.6996998949575
 30
0.0000000000000000
 11
552.7569247557611
 21
562.7441172069192
 31
0.0000000000000000
  0
LINE
  5
257
100
AcDbEntity
  8
MA0
  6
HIDDEN
 62
12
100
AcDbLine
 10
562.8198067377699
 20
567.5146943435144
 30
0.0000000000000000
 11
563.3637628635548
 21
569.5447662420311
 31
0.0000000000000000
  0
LINE
  5
258
100
AcDbEntity
  8
MA0
  6
HIDDEN
 62
12
100
AcDbLine
 10
551.9562757206520
 20
562.9586504692991
 30
0.0000000000000000
 11
553.9863476191688
 21
562.4146943435143
 31
0.0000000000000000
  0
LINE
  5
259
100
AcDbEntity
  8
MA0
  6
HIDDEN
 62
12
100
AcDbLine
 10
577.5198067377671
 20
542.0535474722501
 30
0.0000000000000000
 11
562.8198067377671
 21
567.5146943435127
 31
0.0000000000000000
  0
LINE
  5
25A
100
AcDbEntity
  8
MA0
  6
HIDDEN
 62
12
100
AcDbLine
 10
568.6863476191684
 20
536.9535474722516
 30
0.0000000000000000
 11
553.9863476191684
 21
562.4146943435139
 31
0.0000000000000000
  0
LINE
  5
25B
100
AcDbEntity
  8
MA0
  6
HIDDEN
 62
12
100
AcDbLine
 10
575.2992296011744
 20
547.6996998949574
 30
0.0000000000000000
 11
564.9069247557611
 21
541.6996998949574
 31
0.0000000000000000
  0
LINE
  5
25C
100
AcDbEntity
  8
MA0
  6
HIDDEN
 62
12
100
AcDbLine
 10
577.5198067377671
 20
542.0535474722501
 30
0.0000000000000000
 11
568.6863476191684
 21
536.9535474722516
 31
0.0000000000000000
  0
LINE
  5
25D
100
AcDbEntity
  8
MA0
  6
HIDDEN
 62
12
100
AcDbLine
 10
574.5753203649028
 20
536.9535474722517
 30
0.0000000000000000
 11
577.5198067377701
 21
542.0535474722517
 31
0.0000000000000000
  0
LINE
  5
25E
100
AcDbEntity
  8
MA0
  6
HIDDEN
 62
12
100
AcDbLine
 10
574.5753203649027
 20
536.9535474722517
 30
0.0000000000000000
 11
568.6863476191687
 21
536.9535474722518
 31
0.0000000000000000
  0
LINE
  5
25F
100
AcDbEntity
  8
MA0
  6
HIDDEN
 62
12
100
AcDbLine
 10
562.8198067377698
 20
567.5146943435142
 30
0.0000000000000000
 11
553.9863476191680
 21
562.4146943435137
 31
0.0000000000000000
  0
LINE
  5
260
100
AcDbEntity
  8
MA0
  6
CONTINUOUS
 62
3
100
AcDbLine
 10
691.7607538282414
 20
343.1134212915877
 30
0.0000000000000000
 11
803.2549547050804
 21
278.7422144022622
 31
0.0000000000000000
  0
LINE
  5
261
100
AcDbEntity
  8
MA0
  6
CONTINUOUS
 62
3
100
AcDbLine
 10
722.7607538282413
 20
396.8069963262229
 30
0.0000000000000000
 11
834.1969420031876
 21
332.4692830859517
 31
0.0000000000000000
  0
LINE
  5
262
100
AcDbEntity
  8
MA0
  6
CONTINUOUS
 62
3
100
AcDbLine
 10
211.0408379544425
 20
251.3724955686339
 30
0.0000000000000000
 11
211.0408379544425
 21
273.8724976555906
 31
0.0000000000000000
  0
LINE
  5
263
100
AcDbEntity
  8
MA0
  6
CONTINUOUS
 62
3
100
AcDbLine
 10
211.0408379544425
 20
293.8724895686341
 30
0.0000000000000000
 11
211.0408379544425
 21
353.3224955686334
 31
0.0000000000000000
  0
LINE
  5
264
100
AcDbEntity
  8
MA0
  6
CONTINUOUS
 62
3
100
AcDbLine
 10
316.0408379544424
 20
591.8724955686337
 30
0.0000000000000000
 11
318.0408379544425
 21
589.8724955686337
 31
0.0000000000000000
  0
LINE
  5
265
100
AcDbEntity
  8
MA0
  6
DASHED
 62
3
100
AcDbLine
 10
318.0408379544425
 20
589.8724955686337
 30
0.0000000000000000
 11
319.0408379544424
 21
588.8724955686337
 31
0.0000000000000000
  0
LINE
  5
266
100
AcDbEntity
  8
MA0
  6
CONTINUOUS
 62
3
100
AcDbLine
 10
211.0408379544425
 20
449.4224955686332
 30
0.0000000000000000
 11
211.0408379544425
 21
551.3724955686337
 31
0.0000000000000000
  0
LINE
  5
267
100
AcDbEntity
  8
MA0
  6
CONTINUOUS
 62
3
100
AcDbLine
 10
319.0408379544425
 20
213.8724955686338
 30
0.0000000000000000
 11
319.0408379544425
 21
477.3724955686337
 31
0.0000000000000000
  0
LINE
  5
268
100
AcDbEntity
  8
MA0
  6
CONTINUOUS
 62
3
100
AcDbLine
 10
205.0408379544425
 20
551.3724955686337
 30
0.0000000000000000
 11
211.0408379544423
 21
551.3724955686337
 31
0.0000000000000000
  0
LINE
  5
269
100
AcDbEntity
  8
MA0
  6
CONTINUOUS
 62
3
100
AcDbLine
 10
205.0408379544424
 20
251.3724955686338
 30
0.0000000000000000
 11
211.0408379544423
 21
251.3724955686338
 31
0.0000000000000000
  0
ARC
  5
26A
100
AcDbEntity
  8
MA0
  6
CENTER
 62
12
100
AcDbCircle
 10
652.8530771784665
 20
401.3724955686337
 30
0.0000000000000000
 40
117.4999999999999
100
AcDbArc
 50
3.903351883003051
 51
57.44516633103071
  0
CIRCLE
  5
26B
100
AcDbEntity
  8
MA0
  6
CONTINUOUS
 62
3
100
AcDbCircle
 10
735.9381239678862
 20
484.4575423580532
 30
0.0000000000000000
 40
10.50000000000000
  0
CIRCLE
  5
26C
100
AcDbEntity
  8
MA0
  6
CONTINUOUS
 62
3
100
AcDbCircle
 10
735.9381239678862
 20
484.4575423580532
 30
0.0000000000000000
 40
16.00000000000000
  0
CIRCLE
  5
26D
100
AcDbEntity
  8
MA0
  6
CONTINUOUS
 62
3
100
AcDbCircle
 10
766.3493617674342
 20
431.7837333681796
 30
0.0000000000000000
 40
10.50000000000000
  0
CIRCLE
  5
26E
100
AcDbEntity
  8
MA0
  6
CONTINUOUS
 62
3
100
AcDbCircle
 10
766.3493617674342
 20
431.7837333681796
 30
0.0000000000000000
 40
16.00000000000000
  0
ARC
  5
26F
100
AcDbEntity
  8
MA0
  6
CENTER
 62
12
100
AcDbCircle
 10
652.8530771784665
 20
401.3724955686337
 30
0.0000000000000000
 40
117.4999999999999
100
AcDbArc
 50
122.1747943458312
 51
188.3604056395198
  0
CIRCLE
  5
270
100
AcDbEntity
  8
MA0
  6
CONTINUOUS
 62
3
100
AcDbCircle
 10
539.3567925895037
 20
431.7837333681796
 30
0.0000000000000000
 40
10.50000000000000
  0
CIRCLE
  5
271
100
AcDbEntity
  8
MA0
  6
CONTINUOUS
 62
3
100
AcDbCircle
 10
539.3567925895037
 20
431.7837333681796
 30
0.0000000000000000
 40
16.00000000000000
  0
CIRCLE
  5
272
100
AcDbEntity
  8
MA0
  6
CONTINUOUS
 62
3
100
AcDbCircle
 10
569.7680303890500
 20
484.4575423580531
 30
0.0000000000000000
 40
10.50000000000000
  0
CIRCLE
  5
273
100
AcDbEntity
  8
MA0
  6
CONTINUOUS
 62
3
100
AcDbCircle
 10
569.7680303890500
 20
484.4575423580531
 30
0.0000000000000000
 40
16.00000000000000
  0
ARC
  5
274
100
AcDbEntity
  8
MA0
  6
CENTER
 62
12
100
AcDbCircle
 10
652.8530771784665
 20
401.3724955686337
 30
0.0000000000000000
 40
117.4999999999999
100
AcDbArc
 50
244.9900722761976
 51
296.8753556657106
  0
CIRCLE
  5
275
100
AcDbEntity
  8
MA0
  6
CONTINUOUS
 62
3
100
AcDbCircle
 10
683.2643149780145
 20
287.8762109796683
 30
0.0000000000000000
 40
10.50000000000000
  0
CIRCLE
  5
276
100
AcDbEntity
  8
MA0
  6
CONTINUOUS
 62
3
100
AcDbCircle
 10
683.2643149780145
 20
287.8762109796683
 30
0.0000000000000000
 40
16.00000000000000
  0
CIRCLE
  5
277
100
AcDbEntity
  8
MA0
  6
CONTINUOUS
 62
3
100
AcDbCircle
 10
622.4418393789222
 20
287.8762109796683
 30
0.0000000000000000
 40
10.50000000000000
  0
CIRCLE
  5
278
100
AcDbEntity
  8
MA0
  6
CONTINUOUS
 62
3
100
AcDbCircle
 10
622.4418393789222
 20
287.8762109796683
 30
0.0000000000000000
 40
16.00000000000000
  0
ARC
  5
279
100
AcDbEntity
  8
MA0
  6
CONTINUOUS
 62
3
100
AcDbCircle
 10
652.8530771784665
 20
401.3724955686337
 30
0.0000000000000000
 40
84.99999999999994
100
AcDbArc
 50
111.3894833261843
 51
188.6105166738145
  0
ARC
  5
27A
100
AcDbEntity
  8
MA0
  6
CONTINUOUS
 62
3
100
AcDbCircle
 10
652.8530771784665
 20
401.3724955686337
 30
0.0000000000000000
 40
84.99999999999994
100
AcDbArc
 50
231.3894833261846
 51
308.6105166738148
  0
ARC
  5
27B
100
AcDbEntity
  8
MA0
  6
CONTINUOUS
 62
3
100
AcDbCircle
 10
652.8530771784665
 20
401.3724955686337
 30
0.0000000000000000
 40
84.99999999999994
100
AcDbArc
 50
351.3894833261845
 51
428.6105166738149
  0
ARC
  5
27C
100
AcDbEntity
  8
MA0
  6
CONTINUOUS
 62
3
100
AcDbCircle
 10
652.8530771784665
 20
401.3724955686337
 30
0.0000000000000000
 40
145.0000000000000
100
AcDbArc
 50
342.3447309728995
 51
437.6552690271000
  0
ARC
  5
27D
100
AcDbEntity
  8
MA0
  6
CONTINUOUS
 62
3
100
AcDbCircle
 10
652.8530771784665
 20
401.3724955686337
 30
0.0000000000000000
 40
124.9999999999999
100
AcDbArc
 50
51.68557082847575
 51
75.64080600830197
  0
ARC
  5
27E
100
AcDbEntity
  8
MA0
  6
CONTINUOUS
 62
3
100
AcDbCircle
 10
652.8530771784665
 20
401.3724955686337
 30
0.0000000000000000
 40
105.0000000000000
100
AcDbArc
 50
50.15361433137949
 51
72.82818485077451
  0
ARC
  5
27F
100
AcDbEntity
  8
MA0
  6
CONTINUOUS
 62
3
100
AcDbCircle
 10
652.8530771784665
 20
401.3724955686337
 30
0.0000000000000000
 40
105.0000000000000
100
AcDbArc
 50
107.1718151492249
 51
129.8463856686202
  0
ARC
  5
280
100
AcDbEntity
  8
MA0
  6
CONTINUOUS
 62
3
100
AcDbCircle
 10
652.8530771784665
 20
401.3724955686337
 30
0.0000000000000000
 40
124.9999999999999
100
AcDbArc
 50
104.3591939916974
 51
128.3144291715240
  0
ARC
  5
281
100
AcDbEntity
  8
MA0
  6
CONTINUOUS
 62
3
100
AcDbCircle
 10
652.8530771784665
 20
401.3724955686337
 30
0.0000000000000000
 40
145.0000000000000
100
AcDbArc
 50
102.3447309728996
 51
197.6552690271001
  0
ARC
  5
282
100
AcDbEntity
  8
MA0
  6
CONTINUOUS
 62
3
100
AcDbCircle
 10
652.8530771784665
 20
401.3724955686337
 30
0.0000000000000000
 40
124.9999999999999
100
AcDbArc
 50
21.68557082847568
 51
38.31442917152438
  0
ARC
  5
283
100
AcDbEntity
  8
MA0
  6
CONTINUOUS
 62
3
100
AcDbCircle
 10
652.8530771784665
 20
401.3724955686337
 30
0.0000000000000000
 40
124.9999999999999
100
AcDbArc
 50
261.6855708284755
 51
278.3144291715242
  0
ARC
  5
284
100
AcDbEntity
  8
MA0
  6
CONTINUOUS
 62
3
100
AcDbCircle
 10
652.8530771784665
 20
401.3724955686337
 30
0.0000000000000000
 40
124.9999999999999
100
AcDbArc
 50
291.6855708284755
 51
315.6408060083019
  0
ARC
  5
285
100
AcDbEntity
  8
MA0
  6
CONTINUOUS
 62
3
100
AcDbCircle
 10
652.8530771784665
 20
401.3724955686337
 30
0.0000000000000000
 40
124.9999999999999
100
AcDbArc
 50
344.3591939916976
 51
368.3144291715242
  0
ARC
  5
286
100
AcDbEntity
  8
MA0
  6
CONTINUOUS
 62
3
100
AcDbCircle
 10
652.8530771784665
 20
401.3724955686337
 30
0.0000000000000000
 40
105.0000000000000
100
AcDbArc
 50
20.15361433137942
 51
39.84638566862065
  0
ARC
  5
287
100
AcDbEntity
  8
MA0
  6
CONTINUOUS
 62
3
100
AcDbCircle
 10
652.8530771784665
 20
401.3724955686337
 30
0.0000000000000000
 40
105.0000000000000
100
AcDbArc
 50
290.1536143313793
 51
312.8281848507745
  0
ARC
  5
288
100
AcDbEntity
  8
MA0
  6
CONTINUOUS
 62
3
100
AcDbCircle
 10
652.8530771784665
 20
401.3724955686337
 30
0.0000000000000000
 40
105.0000000000000
100
AcDbArc
 50
140.1536143313793
 51
159.8463856686204
  0
ARC
  5
289
100
AcDbEntity
  8
MA0
  6
CONTINUOUS
 62
3
100
AcDbCircle
 10
652.8530771784665
 20
401.3724955686337
 30
0.0000000000000000
 40
105.0000000000000
100
AcDbArc
 50
260.1536143313793
 51
279.8463856686205
  0
ARC
  5
28A
100
AcDbEntity
  8
MA0
  6
CONTINUOUS
 62
3
100
AcDbCircle
 10
652.8530771784665
 20
401.3724955686337
 30
0.0000000000000000
 40
105.0000000000000
100
AcDbArc
 50
170.1536143313795
 51
192.8281848507744
  0
ARC
  5
28B
100
AcDbEntity
  8
MA0
  6
CONTINUOUS
 62
3
100
AcDbCircle
 10
652.8530771784665
 20
401.3724955686337
 30
0.0000000000000000
 40
105.0000000000000
100
AcDbArc
 50
227.1718151492248
 51
249.8463856686203
  0
ARC
  5
28C
100
AcDbEntity
  8
MA0
  6
CONTINUOUS
 62
3
100
AcDbCircle
 10
652.8530771784665
 20
401.3724955686337
 30
0.0000000000000000
 40
124.9999999999999
100
AcDbArc
 50
141.6855708284755
 51
158.3144291715242
  0
ARC
  5
28D
100
AcDbEntity
  8
MA0
  6
CONTINUOUS
 62
3
100
AcDbCircle
 10
652.8530771784665
 20
401.3724955686337
 30
0.0000000000000000
 40
124.9999999999999
100
AcDbArc
 50
171.6855708284757
 51
195.6408060083019
  0
ARC
  5
28E
100
AcDbEntity
  8
MA0
  6
CONTINUOUS
 62
3
100
AcDbCircle
 10
652.8530771784665
 20
401.3724955686337
 30
0.0000000000000000
 40
124.9999999999999
100
AcDbArc
 50
224.3591939916977
 51
248.3144291715241
  0
ARC
  5
28F
100
AcDbEntity
  8
MA0
  6
CONTINUOUS
 62
3
100
AcDbCircle
 10
652.8530771784665
 20
401.3724955686337
 30
0.0000000000000000
 40
190.5000000000000
100
AcDbArc
 50
99.36537104411609
 51
200.6346289558836
  0
ARC
  5
290
100
AcDbEntity
  8
MA0
  6
CONTINUOUS
 62
3
100
AcDbCircle
 10
652.8530771784665
 20
401.3724955686337
 30
0.0000000000000000
 40
190.5000000000000
100
AcDbArc
 50
339.3653710441161
 51
440.6346289558835
  0
ARC
  5
291
100
AcDbEntity
  8
MA0
  6
CONTINUOUS
 62
3
100
AcDbCircle
 10
652.8530771784665
 20
401.3724955686337
 30
0.0000000000000000
 40
105.0000000000000
100
AcDbArc
 50
347.1718151492248
 51
353.1903045307230
  0
ARC
  5
292
100
AcDbEntity
  8
MA0
  6
CONTINUOUS
 62
3
100
AcDbCircle
 10
652.8530771784665
 20
401.3724955686337
 30
0.0000000000000000
 40
105.0000000000000
100
AcDbArc
 50
358.1869521461743
 51
369.8463856686204
  0
LINE
  5
293
100
AcDbEntity
  8
MA0
  6
CENTER
 62
12
100
AcDbLine
 10
177.0032350026512
 20
283.8724955686340
 30
0.0000000000000000
 11
261.3908380974936
 21
283.8724955686340
 31
0.0000000000000000
  0
LINE
  5
294
100
AcDbEntity
  8
MA0
  6
CENTER
 62
12
100
AcDbLine
 10
270.5408379544425
 20
283.8724955686340
 30
0.0000000000000000
 11
323.6558074642946
 21
283.8724955686340
 31
0.0000000000000000
  0
ARC
  5
295
100
AcDbEntity
  8
MA0
  6
CONTINUOUS
 62
3
100
AcDbCircle
 10
652.8530771784665
 20
401.3724955686337
 30
0.0000000000000000
 40
145.0000000000000
100
AcDbArc
 50
222.3447309728994
 51
317.6552690271006
  0
LINE
  5
296
100
AcDbEntity
  8
MA0
  6
CONTINUOUS
 62
3
100
AcDbLine
 10
211.0408379544426
 20
331.3724955686338
 30
0.0000000000000000
 11
218.2581551732383
 21
331.3724955686338
 31
0.0000000000000000
  0
LINE
  5
297
100
AcDbEntity
  8
MA0
  6
CONTINUOUS
 62
3
100
AcDbLine
 10
240.6081546010337
 20
331.3724955686338
 30
0.0000000000000000
 11
312.5408379544423
 21
331.3724955686338
 31
0.0000000000000000
  0
ARC
  5
298
100
AcDbEntity
  8
MA0
  6
CONTINUOUS
 62
3
100
AcDbCircle
 10
652.8530771784665
 20
401.3724955686337
 30
0.0000000000000000
 40
190.5000000000000
100
AcDbArc
 50
219.3653710441166
 51
320.6346289558840
  0
LINE
  5
299
100
AcDbEntity
  8
MA0
  6
CONTINUOUS
 62
3
100
AcDbLine
 10
312.5408379544424
 20
467.3724955686337
 30
0.0000000000000000
 11
313.5408379544424
 21
467.3724955686337
 31
0.0000000000000000
  0
LINE
  5
29A
100
AcDbEntity
  8
MA0
  6
CONTINUOUS
 62
3
100
AcDbLine
 10
313.5408379544423
 20
467.3724955686334
 30
0.0000000000000000
 11
319.0408379544424
 21
464.1970690880905
 31
0.0000000000000000
  0
LINE
  5
29B
100
AcDbEntity
  8
MA0
  6
CONTINUOUS
 62
3
100
AcDbLine
 10
312.5408379544423
 20
316.3724955686338
 30
0.0000000000000000
 11
319.0408379544424
 21
316.3724955686338
 31
0.0000000000000000
  0
LINE
  5
29C
100
AcDbEntity
  8
MA0
  6
CONTINUOUS
 62
3
100
AcDbLine
 10
314.5408379544423
 20
329.3724955686338
 30
0.0000000000000000
 11
319.0408379544423
 21
329.3724955686338
 31
0.0000000000000000
  0
LINE
  5
29D
100
AcDbEntity
  8
MA0
  6
CONTINUOUS
 62
3
100
AcDbLine
 10
314.5408379544423
 20
318.3724955686338
 30
0.0000000000000000
 11
319.0408379544423
 21
318.3724955686338
 31
0.0000000000000000
  0
LINE
  5
29E
100
AcDbEntity
  8
MA0
  6
CONTINUOUS
 62
3
100
AcDbLine
 10
312.5408379544423
 20
316.3724955686338
 30
0.0000000000000000
 11
312.5408379544423
 21
320.8724955686338
 31
0.0000000000000000
  0
LINE
  5
29F
100
AcDbEntity
  8
MA0
  6
CONTINUOUS
 62
3
100
AcDbLine
 10
312.5408379544423
 20
326.8724955686338
 30
0.0000000000000000
 11
312.5408379544423
 21
478.8724955686336
 31
0.0000000000000000
  0
LINE
  5
2A0
100
AcDbEntity
  8
MA0
  6
CENTER
 62
12
100
AcDbLine
 10
713.1904829191531
 20
436.2083130152215
 30
0.0000000000000000
 11
728.4876796010512
 21
445.0401536373621
 31
0.0000000000000000
  0
LINE
  5
2A1
100
AcDbEntity
  8
MA0
  6
CENTER
 62
12
100
AcDbLine
 10
592.5156714377833
 20
436.2083130152222
 30
0.0000000000000000
 11
577.2184747558849
 21
445.0401536373628
 31
0.0000000000000000
  0
LINE
  5
2A2
100
AcDbEntity
  8
MA0
  6
CONTINUOUS
 62
3
100
AcDbLine
 10
621.8530771784666
 20
467.3724955686337
 30
0.0000000000000000
 11
627.8530771784666
 21
467.3724955686337
 31
0.0000000000000000
  0
LINE
  5
2A3
100
AcDbEntity
  8
MA0
  6
CONTINUOUS
 62
3
100
AcDbLine
 10
677.8530771784665
 20
467.3724955686337
 30
0.0000000000000000
 11
683.8530771784665
 21
467.3724955686337
 31
0.0000000000000000
  0
LINE
  5
2A4
100
AcDbEntity
  8
MA0
  6
CONTINUOUS
 62
3
100
AcDbLine
 10
621.8530771784666
 20
464.1970690880904
 30
0.0000000000000000
 11
627.8530771784666
 21
464.1970690880904
 31
0.0000000000000000
  0
LINE
  5
2A5
100
AcDbEntity
  8
MA0
  6
CONTINUOUS
 62
3
100
AcDbLine
 10
677.8530771784665
 20
464.1970690880904
 30
0.0000000000000000
 11
683.8530771784665
 21
464.1970690880904
 31
0.0000000000000000
  0
LINE
  5
2A6
100
AcDbEntity
  8
MA0
  6
CONTINUOUS
 62
3
100
AcDbLine
 10
580.1954005286948
 20
395.2192830859522
 30
0.0000000000000000
 11
611.1954005286962
 21
341.5257080513161
 31
0.0000000000000000
  0
LINE
  5
2A7
100
AcDbEntity
  8
MA0
  6
CONTINUOUS
 62
3
100
AcDbLine
 10
582.9454005286943
 20
396.8069963262245
 30
0.0000000000000000
 11
613.9454005286965
 21
343.1134212915877
 31
0.0000000000000000
  0
LINE
  5
2A8
100
AcDbEntity
  8
MA0
  6
CONTINUOUS
 62
3
100
AcDbLine
 10
694.5107538282416
 20
341.5257080513147
 30
0.0000000000000000
 11
725.5107538282416
 21
395.2192830859516
 31
0.0000000000000000
  0
LINE
  5
2A9
100
AcDbEntity
  8
MA0
  6
CONTINUOUS
 62
3
100
AcDbLine
 10
691.7607538282412
 20
343.1134212915852
 30
0.0000000000000000
 11
722.7607538282416
 21
396.8069963262232
 31
0.0000000000000000
  0
LINE
  5
2AA
100
AcDbEntity
  8
MA0
  6
CONTINUOUS
 62
3
100
AcDbLine
 10
314.5408379544423
 20
318.3724955686338
 30
0.0000000000000000
 11
314.5408379544423
 21
329.3724955686339
 31
0.0000000000000000
  0
LINE
  5
2AB
100
AcDbEntity
  8
MA0
  6
CONTINUOUS
 62
3
100
AcDbLine
 10
314.5408379544423
 20
327.1724955686337
 30
0.0000000000000000
 11
312.5408379544423
 21
327.1724955686337
 31
0.0000000000000000
  0
LINE
  5
2AC
100
AcDbEntity
  8
MA0
  6
CONTINUOUS
 62
3
100
AcDbLine
 10
314.5408379544423
 20
320.5724955686337
 30
0.0000000000000000
 11
312.5408379544423
 21
320.5724955686337
 31
0.0000000000000000
  0
ARC
  5
2AD
100
AcDbEntity
  8
MA0
  6
CENTER
 62
12
100
AcDbCircle
 10
652.8530771784665
 20
401.3724955686337
 30
0.0000000000000000
 40
77.49999999999994
100
AcDbArc
 50
23.93247965468179
 51
36.89583251851474
  0
CIRCLE
  5
2AE
100
AcDbEntity
  8
MA0
  6
CONTINUOUS
 62
3
100
AcDbCircle
 10
719.9700459717626
 20
440.1224955686337
 30
0.0000000000000000
 40
5.499999999999996
  0
ARC
  5
2AF
100
AcDbEntity
  8
MA0
  6
CENTER
 62
12
100
AcDbCircle
 10
652.8530771784665
 20
401.3724955686337
 30
0.0000000000000000
 40
77.49999999999994
100
AcDbArc
 50
143.9324796546817
 51
156.8958325185146
  0
CIRCLE
  5
2B0
100
AcDbEntity
  8
MA0
  6
CONTINUOUS
 62
3
100
AcDbCircle
 10
585.7361083851752
 20
440.1224955686335
 30
0.0000000000000000
 40
5.499999999999996
  0
ARC
  5
2B1
100
AcDbEntity
  8
MA0
  6
CENTER
 62
12
100
AcDbCircle
 10
652.8530771784665
 20
401.3724955686337
 30
0.0000000000000000
 40
77.49999999999994
100
AcDbArc
 50
263.9324796546817
 51
276.8958325185147
  0
CIRCLE
  5
2B2
100
AcDbEntity
  8
MA0
  6
CONTINUOUS
 62
3
100
AcDbCircle
 10
652.8530771784665
 20
323.8724955686338
 30
0.0000000000000000
 40
5.499999999999996
  0
LINE
  5
2B3
100
AcDbEntity
  8
MA0
  6
CONTINUOUS
 62
3
100
AcDbLine
 10
247.0408379544425
 20
414.8724955686337
 30
0.0000000000000000
 11
304.5408379544423
 21
414.8724955686337
 31
0.0000000000000000
  0
LINE
  5
2B4
100
AcDbEntity
  8
MA0
  6
CONTINUOUS
 62
3
100
AcDbLine
 10
247.0408379544426
 20
387.8724955686337
 30
0.0000000000000000
 11
304.5408379544423
 21
387.8724955686337
 31
0.0000000000000000
  0
LINE
  5
2B5
100
AcDbEntity
  8
MA0
  6
CONTINUOUS
 62
3
100
AcDbLine
 10
246.0408379544426
 20
457.0204442432257
 30
0.0000000000000000
 11
250.1370441266952
 21
456.0747605337604
 31
0.0000000000000000
  0
LINE
  5
2B6
100
AcDbEntity
  8
MA0
  6
CONTINUOUS
 62
3
100
AcDbLine
 10
311.5408379544423
 20
332.8724954854788
 30
0.0000000000000000
 11
311.5408379544423
 21
417.9936617884401
 31
0.0000000000000000
  0
LINE
  5
2B7
100
AcDbEntity
  8
MA0
  6
CONTINUOUS
 62
3
100
AcDbLine
 10
246.0408379544425
 20
332.8724953904540
 30
0.0000000000000000
 11
246.0408379544425
 21
352.3724955686337
 31
0.0000000000000000
  0
LINE
  5
2B8
100
AcDbEntity
  8
MA0
  6
CONTINUOUS
 62
3
100
AcDbLine
 10
246.0408379544425
 20
450.3724955686336
 30
0.0000000000000000
 11
246.0408379544425
 21
468.3542448598078
 31
0.0000000000000000
  0
LINE
  5
2B9
100
AcDbEntity
  8
MA0
  6
CONTINUOUS
 62
3
100
AcDbLine
 10
247.0408379544425
 20
370.8724955686340
 30
0.0000000000000000
 11
247.0408379544425
 21
431.8724955686335
 31
0.0000000000000000
  0
LINE
  5
2BA
100
AcDbEntity
  8
MA0
  6
CONTINUOUS
 62
3
100
AcDbLine
 10
208.0408379544425
 20
440.3724955686337
 30
0.0000000000000000
 11
236.0408379544425
 21
440.3724955686337
 31
0.0000000000000000
  0
LINE
  5
2BB
100
AcDbEntity
  8
MA0
  6
CONTINUOUS
 62
3
100
AcDbLine
 10
208.0408379544424
 20
362.3724955686338
 30
0.0000000000000000
 11
236.0408379544425
 21
362.3724955686338
 31
0.0000000000000000
  0
LINE
  5
2BC
100
AcDbEntity
  8
MA0
  6
CONTINUOUS
 62
3
100
AcDbLine
 10
304.5408379544422
 20
358.3724955686338
 30
0.0000000000000000
 11
311.5408379544422
 21
358.3724955686338
 31
0.0000000000000000
  0
LINE
  5
2BD
100
AcDbEntity
  8
MA0
  6
CONTINUOUS
 62
3
100
AcDbLine
 10
304.5408379544423
 20
358.3724955686338
 30
0.0000000000000000
 11
304.5408379544423
 21
418.3973337463345
 31
0.0000000000000000
  0
LINE
  5
2BE
100
AcDbEntity
  8
MA0
  6
CONTINUOUS
 62
3
100
AcDbLine
 10
229.2427963430432
 20
440.3724955686336
 30
0.0000000000000000
 11
256.8247393214154
 21
434.0047022854884
 31
0.0000000000000000
  0
LINE
  5
2BF
100
AcDbEntity
  8
MA0
  6
CONTINUOUS
 62
3
100
AcDbLine
 10
227.0200906017502
 20
440.3724955686336
 30
0.0000000000000000
 11
257.4611820944091
 21
433.3446158398357
 31
0.0000000000000000
  0
LINE
  5
2C0
100
AcDbEntity
  8
MA0
  6
CONTINUOUS
 62
3
100
AcDbLine
 10
242.0408379544426
 20
431.8724955686335
 30
0.0000000000000000
 11
247.0408379544425
 21
431.8724955686335
 31
0.0000000000000000
  0
LINE
  5
2C1
100
AcDbEntity
  8
MA0
  6
CONTINUOUS
 62
3
100
AcDbLine
 10
242.0408379544425
 20
370.8724955686337
 30
0.0000000000000000
 11
247.0408379544425
 21
370.8724955686337
 31
0.0000000000000000
  0
LINE
  5
2C2
100
AcDbEntity
  8
MA0
  6
CONTINUOUS
 62
3
100
AcDbLine
 10
242.0408379544425
 20
430.3724955686335
 30
0.0000000000000000
 11
242.0408379544425
 21
431.8724955686335
 31
0.0000000000000000
  0
LINE
  5
2C3
100
AcDbEntity
  8
MA0
  6
CONTINUOUS
 62
3
100
AcDbLine
 10
242.0408379544425
 20
370.8724955686337
 30
0.0000000000000000
 11
242.0408379544425
 21
372.3724955686340
 31
0.0000000000000000
  0
ARC
  5
2C4
100
AcDbEntity
  8
MA0
  6
CONTINUOUS
 62
3
100
AcDbCircle
 10
236.0408379544425
 20
450.3724955686336
 30
0.0000000000000000
 40
9.999999999999998
100
AcDbArc
 50
269.9999999999999
 51
359.9999999999998
  0
ARC
  5
2C5
100
AcDbEntity
  8
MA0
  6
CONTINUOUS
 62
3
100
AcDbCircle
 10
236.0408379544425
 20
352.3724955686337
 30
0.0000000000000000
 40
9.999999999999998
100
AcDbArc
 50
0.0000000000000000
 51
89.99999999999970
  0
ARC
  5
2C6
100
AcDbEntity
  8
MA0
  6
CONTINUOUS
 62
3
100
AcDbCircle
 10
247.5408379544425
 20
468.3542449621764
 30
0.0000000000000000
 40
1.499999999999986
100
AcDbArc
 50
89.99999999999970
 51
179.9999999999998
  0
ARC
  5
2C7
100
AcDbEntity
  8
MA0
  6
CONTINUOUS
 62
3
100
AcDbCircle
 10
247.5408379544425
 20
332.8724955686338
 30
0.0000000000000000
 40
1.499999999999986
100
AcDbArc
 50
179.9999999999998
 51
269.9999999999999
  0
ARC
  5
2C8
100
AcDbEntity
  8
MA0
  6
CONTINUOUS
 62
3
100
AcDbCircle
 10
310.0408379544423
 20
332.8724955686338
 30
0.0000000000000000
 40
1.499999999999986
100
AcDbArc
 50
269.9999999999999
 51
359.9999999999998
  0
LINE
  5
2C9
100
AcDbEntity
  8
MA0
  6
CONTINUOUS
 62
3
100
AcDbLine
 10
254.5408379544425
 20
592.8724955686337
 30
0.0000000000000000
 11
320.0408379544425
 21
592.8724955686337
 31
0.0000000000000000
  0
LINE
  5
2CA
100
AcDbEntity
  8
MA0
  6
CONTINUOUS
 62
3
100
AcDbLine
 10
291.0408379544425
 20
75.04564730167095
 30
0.0000000000000000
 11
319.0408379544424
 21
75.04564730167095
 31
0.0000000000000000
  0
LINE
  5
2CB
100
AcDbEntity
  8
MA0
  6
CONTINUOUS
 62
3
100
AcDbLine
 10
291.0408379544425
 20
137.0456473016683
 30
0.0000000000000000
 11
319.0408379544423
 21
137.0456473016683
 31
0.0000000000000000
  0
LINE
  5
2CC
100
AcDbEntity
  8
MA0
  6
CONTINUOUS
 62
3
100
AcDbLine
 10
263.0408379544423
 20
58.54564730167095
 30
0.0000000000000000
 11
291.0408379544425
 21
58.54564730167095
 31
0.0000000000000000
  0
LINE
  5
2CD
100
AcDbEntity
  8
MA0
  6
CONTINUOUS
 62
3
100
AcDbLine
 10
263.0408379544425
 20
153.5456473016683
 30
0.0000000000000000
 11
291.0408379544425
 21
153.5456473016683
 31
0.0000000000000000
  0
LINE
  5
2CE
100
AcDbEntity
  8
MA0
  6
CONTINUOUS
 62
3
100
AcDbLine
 10
254.5408379544424
 20
132.0456473016683
 30
0.0000000000000000
 11
254.5408379544423
 21
80.04564730167107
 31
0.0000000000000000
  0
LINE
  5
2CF
100
AcDbEntity
  8
MA0
  6
CONTINUOUS
 62
3
100
AcDbLine
 10
254.5408379544423
 20
80.04564730167095
 30
0.0000000000000000
 11
263.0408379544423
 21
80.04564730167095
 31
0.0000000000000000
  0
LINE
  5
2D0
100
AcDbEntity
  8
MA0
  6
CONTINUOUS
 62
3
100
AcDbLine
 10
254.5408379544424
 20
132.0456473016683
 30
0.0000000000000000
 11
263.0408379544426
 21
132.0456473016683
 31
0.0000000000000000
  0
LINE
  5
2D1
100
AcDbEntity
  8
MA0
  6
CONTINUOUS
 62
3
100
AcDbLine
 10
291.0408379544425
 20
153.5456473016684
 30
0.0000000000000000
 11
291.0408379544425
 21
137.0456473016683
 31
0.0000000000000000
  0
LINE
  5
2D2
100
AcDbEntity
  8
MA0
  6
CONTINUOUS
 62
3
100
AcDbLine
 10
291.0408379544424
 20
75.04564730167101
 30
0.0000000000000000
 11
291.0408379544424
 21
58.54564730167101
 31
0.0000000000000000
  0
LINE
  5
2D3
100
AcDbEntity
  8
MA0
  6
CONTINUOUS
 62
3
100
AcDbLine
 10
263.0408379544423
 20
153.5456473016684
 30
0.0000000000000000
 11
263.0408379544423
 21
132.0456473016683
 31
0.0000000000000000
  0
LINE
  5
2D4
100
AcDbEntity
  8
MA0
  6
CONTINUOUS
 62
3
100
AcDbLine
 10
263.0408379544423
 20
80.04564730167101
 30
0.0000000000000000
 11
263.0408379544423
 21
58.54564730167101
 31
0.0000000000000000
  0
LINE
  5
2D5
100
AcDbEntity
  8
MA0
  6
CONTINUOUS
 62
3
100
AcDbLine
 10
319.0408379544423
 20
131.5815456865304
 30
0.0000000000000000
 11
319.0408379544423
 21
153.1989505479898
 31
0.0000000000000000
  0
LINE
  5
2D6
100
AcDbEntity
  8
MA0
  6
CONTINUOUS
 62
3
100
AcDbLine
 10
319.0408379544424
 20
40.88218056094758
 30
0.0000000000000000
 11
319.0408379544424
 21
80.50974891680727
 31
0.0000000000000000
  0
LINE
  5
2D7
100
AcDbEntity
  8
MA0
  6
CONTINUOUS
 62
3
100
AcDbLine
 10
289.5393660918664
 20
88.04564730167107
 30
0.0000000000000000
 11
302.6408379544425
 21
88.04564730167101
 31
0.0000000000000000
  0
LINE
  5
2D8
100
AcDbEntity
  8
MA0
  6
CONTINUOUS
 62
3
100
AcDbLine
 10
289.5393660918657
 20
124.0456473016683
 30
0.0000000000000000
 11
302.6408379544424
 21
124.0456473016683
 31
0.0000000000000000
  0
LINE
  5
2D9
100
AcDbEntity
  8
MA0
  6
CONTINUOUS
 62
3
100
AcDbLine
 10
321.0408379544424
 20
118.7956473016683
 30
0.0000000000000000
 11
321.0408379544424
 21
131.0456473016681
 31
0.0000000000000000
  0
LINE
  5
2DA
100
AcDbEntity
  8
MA0
  6
CONTINUOUS
 62
3
100
AcDbLine
 10
321.0408379544425
 20
81.04564730167095
 30
0.0000000000000000
 11
321.0408379544425
 21
93.29564730167095
 31
0.0000000000000000
  0
LINE
  5
2DB
100
AcDbEntity
  8
MA0
  6
CENTER
 62
12
100
AcDbLine
 10
253.1033258530688
 20
106.0456473016709
 30
0.0000000000000000
 11
326.7233333102810
 21
106.0456473016710
 31
0.0000000000000000
  0
LINE
  5
2DC
100
AcDbEntity
  8
MA0
  6
CONTINUOUS
 62
3
100
AcDbLine
 10
289.1151020231544
 20
88.22138323295661
 30
0.0000000000000000
 11
284.7165738857302
 21
92.61991137038075
 31
0.0000000000000000
  0
LINE
  5
2DD
100
AcDbEntity
  8
MA0
  6
CONTINUOUS
 62
3
100
AcDbLine
 10
289.1151020231536
 20
123.8699113703804
 30
0.0000000000000000
 11
284.7165738857302
 21
119.4713832329570
 31
0.0000000000000000
  0
LINE
  5
2DE
100
AcDbEntity
  8
MA0
  6
CONTINUOUS
 62
3
100
AcDbLine
 10
284.5408379544421
 20
93.04417543909574
 30
0.0000000000000000
 11
284.5408379544422
 21
119.0471191642450
 31
0.0000000000000000
  0
LINE
  5
2DF
100
AcDbEntity
  8
MA0
  6
CENTER
 62
12
100
AcDbLine
 10
275.0408379544422
 20
92.79564730167101
 30
0.0000000000000000
 11
275.0408379544422
 21
119.2956473016684
 31
0.0000000000000000
  0
LINE
  5
2E0
100
AcDbEntity
  8
MA0
  6
CONTINUOUS
 62
3
100
AcDbLine
 10
312.5408379544424
 20
478.8724955686337
 30
0.0000000000000000
 11
320.0408379544425
 21
478.8724955686337
 31
0.0000000000000000
  0
LINE
  5
2E1
100
AcDbEntity
  8
MA0
  6
CONTINUOUS
 62
3
100
AcDbLine
 10
480.6342123537493
 20
316.6643194668858
 30
0.0000000000000000
 11
579.3611083851747
 21
373.6643194668853
 31
0.0000000000000000
  0
LINE
  5
2E2
100
AcDbEntity
  8
MA0
  6
CONTINUOUS
 62
3
100
AcDbLine
 10
493.3842123537492
 20
294.5806716703827
 30
0.0000000000000000
 11
592.1111083851748
 21
351.5806716703823
 31
0.0000000000000000
  0
LINE
  5
2E3
100
AcDbEntity
  8
MA0
  6
CONTINUOUS
 62
3
100
AcDbLine
 10
471.5092123537493
 20
332.4692830859518
 30
0.0000000000000000
 11
582.9454005286953
 21
396.8069963262225
 31
0.0000000000000000
  0
LINE
  5
2E4
100
AcDbEntity
  8
MA0
  6
CONTINUOUS
 62
3
100
AcDbLine
 10
502.4511996518570
 20
278.7422144022627
 30
0.0000000000000000
 11
613.9454005286962
 21
343.1134212915879
 31
0.0000000000000000
  0
LINE
  5
2E5
100
AcDbEntity
  8
MA0
  6
CONTINUOUS
 62
12
100
AcDbLine
 10
320.0408379544425
 20
118.7956473016683
 30
0.0000000000000000
 11
320.0408379544425
 21
131.3135964940993
 31
0.0000000000000000
  0
LINE
  5
2E6
100
AcDbEntity
  8
MA0
  6
CONTINUOUS
 62
12
100
AcDbLine
 10
320.0408379544425
 20
80.77769810923911
 30
0.0000000000000000
 11
320.0408379544425
 21
93.29564730167095
 31
0.0000000000000000
  0
LINE
  5
2E7
100
AcDbEntity
  8
MA0
  6
CONTINUOUS
 62
3
100
AcDbLine
 10
321.0408379544425
 20
131.0456473016681
 30
0.0000000000000000
 11
319.0408379544423
 21
131.5815456865304
 31
0.0000000000000000
  0
LINE
  5
2E8
100
AcDbEntity
  8
MA0
  6
CONTINUOUS
 62
3
100
AcDbLine
 10
321.0408379544422
 20
81.04564730167022
 30
0.0000000000000000
 11
319.0408379544420
 21
80.50974891680795
 31
0.0000000000000000
  0
LINE
  5
2E9
100
AcDbEntity
  8
MA0
  6
CONTINUOUS
 62
3
100
AcDbLine
 10
312.0408379544423
 20
92.79564730167095
 30
0.0000000000000000
 11
312.0408379544423
 21
93.29564730167095
 31
0.0000000000000000
  0
LINE
  5
2EA
100
AcDbEntity
  8
MA0
  6
CONTINUOUS
 62
3
100
AcDbLine
 10
312.0408379544423
 20
118.7956473016683
 30
0.0000000000000000
 11
312.0408379544423
 21
119.2956473016683
 31
0.0000000000000000
  0
LINE
  5
2EB
100
AcDbEntity
  8
MA0
  6
CONTINUOUS
 62
3
100
AcDbLine
 10
304.0408379544423
 20
119.2956473016683
 30
0.0000000000000000
 11
312.0408379544423
 21
119.2956473016684
 31
0.0000000000000000
  0
LINE
  5
2EC
100
AcDbEntity
  8
MA0
  6
CONTINUOUS
 62
3
100
AcDbLine
 10
304.0408379544424
 20
92.79564730167095
 30
0.0000000000000000
 11
312.0408379544423
 21
92.79564730167095
 31
0.0000000000000000
  0
CIRCLE
  5
2ED
100
AcDbEntity
  8
MA0
  6
CONTINUOUS
 62
3
100
AcDbCircle
 10
275.0408379544422
 20
106.0456473016710
 30
0.0000000000000000
 40
7.500000000000000
  0
ARC
  5
2EE
100
AcDbEntity
  8
MA0
  6
CONTINUOUS
 62
3
100
AcDbCircle
 10
302.6408379544424
 20
122.6456473016684
 30
0.0000000000000000
 40
1.399999999999992
100
AcDbArc
 50
0.0000000000000000
 51
89.99999999999970
  0
ARC
  5
2EF
100
AcDbEntity
  8
MA0
  6
CONTINUOUS
 62
3
100
AcDbCircle
 10
302.6408379544424
 20
89.44564730166877
 30
0.0000000000000000
 40
1.399999999999992
100
AcDbArc
 50
269.9999999999999
 51
359.9999999999998
  0
LINE
  5
2F0
100
AcDbEntity
  8
MA0
  6
CONTINUOUS
 62
3
100
AcDbLine
 10
324.2908379544422
 20
118.7956473016683
 30
0.0000000000000000
 11
324.2908379544422
 21
93.29564730167095
 31
0.0000000000000000
  0
LINE
  5
2F1
100
AcDbEntity
  8
MA0
  6
CONTINUOUS
 62
3
100
AcDbLine
 10
304.0408379544424
 20
93.29564730167095
 30
0.0000000000000000
 11
324.2908379544422
 21
93.29564730167095
 31
0.0000000000000000
  0
LINE
  5
2F2
100
AcDbEntity
  8
MA0
  6
CONTINUOUS
 62
3
100
AcDbLine
 10
304.0408379544423
 20
118.7956473016683
 30
0.0000000000000000
 11
324.2908379544422
 21
118.7956473016683
 31
0.0000000000000000
  0
LINE
  5
2F3
100
AcDbEntity
  8
MA0
  6
CONTINUOUS
 62
3
100
AcDbLine
 10
304.0408379544423
 20
122.5456473016684
 30
0.0000000000000000
 11
304.0408379544423
 21
118.7956473016684
 31
0.0000000000000000
  0
LINE
  5
2F4
100
AcDbEntity
  8
MA0
  6
CONTINUOUS
 62
3
100
AcDbLine
 10
304.0408379544423
 20
93.29564730167101
 30
0.0000000000000000
 11
304.0408379544423
 21
89.54564730167101
 31
0.0000000000000000
  0
LINE
  5
2F5
100
AcDbEntity
  8
MA0
  6
CONTINUOUS
 62
3
100
AcDbLine
 10
321.0408379544424
 20
542.1224955686337
 30
0.0000000000000000
 11
324.2908379544425
 21
542.1224955686337
 31
0.0000000000000000
  0
LINE
  5
2F6
100
AcDbEntity
  8
MA0
  6
CONTINUOUS
 62
3
100
AcDbLine
 10
321.0408379544424
 20
504.1224955686336
 30
0.0000000000000000
 11
324.2908379544425
 21
504.1224955686336
 31
0.0000000000000000
  0
LINE
  5
2F7
100
AcDbEntity
  8
MA0
  6
CONTINUOUS
 62
3
100
AcDbLine
 10
324.2908379544425
 20
504.1224955686336
 30
0.0000000000000000
 11
324.2908379544425
 21
542.1224955686337
 31
0.0000000000000000
  0
LINE
  5
2F8
100
AcDbEntity
  8
MA0
  6
CENTER
 62
12
100
AcDbLine
 10
560.1309906186600
 20
318.9718604740230
 30
0.0000000000000000
 11
535.1309906186601
 21
362.2731306632447
 31
0.0000000000000000
  0
LINE
  5
2F9
100
AcDbEntity
  8
MA0
  6
CONTINUOUS
 62
3
100
AcDbLine
 10
290.0408379544426
 20
123.5456473016684
 30
0.0000000000000000
 11
303.0408379544426
 21
123.5456473016684
 31
0.0000000000000000
  0
LINE
  5
2FA
100
AcDbEntity
  8
MA0
  6
CONTINUOUS
 62
3
100
AcDbLine
 10
290.0408379544426
 20
88.54564730167084
 30
0.0000000000000000
 11
303.0408379544423
 21
88.54564730167090
 31
0.0000000000000000
  0
LINE
  5
2FB
100
AcDbEntity
  8
MA0
  6
CONTINUOUS
 62
3
100
AcDbLine
 10
285.0408379544425
 20
93.54564730167095
 30
0.0000000000000000
 11
285.0408379544425
 21
118.5456473016683
 31
0.0000000000000000
  0
LINE
  5
2FC
100
AcDbEntity
  8
MA0
  6
CONTINUOUS
 62
3
100
AcDbLine
 10
290.0408379544424
 20
123.5456473016684
 30
0.0000000000000000
 11
285.0408379544424
 21
118.5456473016684
 31
0.0000000000000000
  0
LINE
  5
2FD
100
AcDbEntity
  8
MA0
  6
CONTINUOUS
 62
3
100
AcDbLine
 10
290.0408379544424
 20
88.54564730166845
 30
0.0000000000000000
 11
285.0408379544424
 21
93.54564730166845
 31
0.0000000000000000
  0
LINE
  5
2FE
100
AcDbEntity
  8
MA0
  6
CONTINUOUS
 62
3
100
AcDbLine
 10
303.0408379544423
 20
88.54564730166851
 30
0.0000000000000000
 11
304.0408379544423
 21
89.54564730166851
 31
0.0000000000000000
  0
LINE
  5
2FF
100
AcDbEntity
  8
MA0
  6
CONTINUOUS
 62
3
100
AcDbLine
 10
303.0408379544423
 20
123.5456473016685
 30
0.0000000000000000
 11
304.0408379544423
 21
122.5456473016685
 31
0.0000000000000000
  0
LINE
  5
300
100
AcDbEntity
  8
MA0
  6
CONTINUOUS
 62
12
100
AcDbLine
 10
212.0408379544426
 20
430.3724955686335
 30
0.0000000000000000
 11
247.0408379544426
 21
430.3724955686335
 31
0.0000000000000000
  0
LINE
  5
301
100
AcDbEntity
  8
MA0
  6
CONTINUOUS
 62
12
100
AcDbLine
 10
212.0408379544425
 20
372.3724955686337
 30
0.0000000000000000
 11
247.0408379544426
 21
372.3724955686337
 31
0.0000000000000000
  0
LINE
  5
302
100
AcDbEntity
  8
MA0
  6
CONTINUOUS
 62
12
100
AcDbLine
 10
212.0408379544421
 20
430.3724955686337
 30
0.0000000000000000
 11
210.3087871468731
 21
431.3724955686338
 31
0.0000000000000000
  0
LINE
  5
303
100
AcDbEntity
  8
MA0
  6
CONTINUOUS
 62
12
100
AcDbLine
 10
212.0408379544421
 20
372.3724955686337
 30
0.0000000000000000
 11
210.3087871468732
 21
371.3724955686337
 31
0.0000000000000000
  0
LINE
  5
304
100
AcDbEntity
  8
MA0
  6
CONTINUOUS
 62
3
100
AcDbLine
 10
212.0408379544425
 20
424.8724955686335
 30
0.0000000000000000
 11
247.0408379544426
 21
424.8724955686335
 31
0.0000000000000000
  0
LINE
  5
305
100
AcDbEntity
  8
MA0
  6
CONTINUOUS
 62
3
100
AcDbLine
 10
212.0408379544425
 20
377.8724955686337
 30
0.0000000000000000
 11
247.0408379544426
 21
377.8724955686337
 31
0.0000000000000000
  0
LINE
  5
306
100
AcDbEntity
  8
MA0
  6
CONTINUOUS
 62
3
100
AcDbLine
 10
177.0408379544424
 20
415.3724955686338
 30
0.0000000000000000
 11
177.0408379544424
 21
430.3724955686335
 31
0.0000000000000000
  0
LINE
  5
307
100
AcDbEntity
  8
MA0
  6
CONTINUOUS
 62
3
100
AcDbLine
 10
178.0408379544425
 20
431.3724955686337
 30
0.0000000000000000
 11
177.0408379544425
 21
430.3724955686337
 31
0.0000000000000000
  0
LINE
  5
308
100
AcDbEntity
  8
MA0
  6
CENTER
 62
12
100
AcDbLine
 10
196.3928721329301
 20
379.3724955686337
 30
0.0000000000000000
 11
171.9179030294662
 21
379.3724955686337
 31
0.0000000000000000
  0
LINE
  5
309
100
AcDbEntity
  8
MA0
  6
CONTINUOUS
 62
3
100
AcDbLine
 10
177.0408379544425
 20
381.8724955686337
 30
0.0000000000000000
 11
192.0408379544426
 21
381.8724955686337
 31
0.0000000000000000
  0
LINE
  5
30A
100
AcDbEntity
  8
MA0
  6
CONTINUOUS
 62
3
100
AcDbLine
 10
177.0408379544425
 20
376.8724955686337
 30
0.0000000000000000
 11
192.0408379544426
 21
376.8724955686337
 31
0.0000000000000000
  0
LINE
  5
30B
100
AcDbEntity
  8
MA0
  6
CONTINUOUS
 62
3
100
AcDbLine
 10
192.0408379544425
 20
381.8724955686336
 30
0.0000000000000000
 11
193.4842136274165
 21
379.3724955686337
 31
0.0000000000000000
  0
LINE
  5
30C
100
AcDbEntity
  8
MA0
  6
CONTINUOUS
 62
3
100
AcDbLine
 10
192.0408379544422
 20
376.8724955686336
 30
0.0000000000000000
 11
193.4842136274164
 21
379.3724955686338
 31
0.0000000000000000
  0
LINE
  5
30D
100
AcDbEntity
  8
MA0
  6
CONTINUOUS
 62
3
100
AcDbLine
 10
177.0408379544425
 20
372.3724955686338
 30
0.0000000000000000
 11
177.0408379544424
 21
376.8724955686338
 31
0.0000000000000000
  0
LINE
  5
30E
100
AcDbEntity
  8
MA0
  6
CONTINUOUS
 62
3
100
AcDbLine
 10
177.0408379544424
 20
381.8724955686337
 30
0.0000000000000000
 11
177.0408379544424
 21
387.3724955686338
 31
0.0000000000000000
  0
LINE
  5
30F
100
AcDbEntity
  8
MA0
  6
CONTINUOUS
 62
3
100
AcDbLine
 10
178.0408379544425
 20
371.3724955686338
 30
0.0000000000000000
 11
177.0408379544425
 21
372.3724955686338
 31
0.0000000000000000
  0
LINE
  5
310
100
AcDbEntity
  8
MA0
  6
CONTINUOUS
 62
3
100
AcDbLine
 10
217.4738506563343
 20
431.3724955686335
 30
0.0000000000000000
 11
247.0408379544426
 21
431.3724955686335
 31
0.0000000000000000
  0
LINE
  5
311
100
AcDbEntity
  8
MA0
  6
CONTINUOUS
 62
3
100
AcDbLine
 10
178.0408379544424
 20
431.3724955686336
 30
0.0000000000000000
 11
207.0408379544424
 21
431.3724955686336
 31
0.0000000000000000
  0
LINE
  5
312
100
AcDbEntity
  8
MA0
  6
CONTINUOUS
 62
12
100
AcDbLine
 10
207.0408379544424
 20
431.3724955686337
 30
0.0000000000000000
 11
217.4738506563342
 21
431.3724955686337
 31
0.0000000000000000
  0
LINE
  5
313
100
AcDbEntity
  8
MA0
  6
CONTINUOUS
 62
3
100
AcDbLine
 10
217.4738506563342
 20
371.3724955686338
 30
0.0000000000000000
 11
247.0408379544425
 21
371.3724955686338
 31
0.0000000000000000
  0
LINE
  5
314
100
AcDbEntity
  8
MA0
  6
CONTINUOUS
 62
3
100
AcDbLine
 10
178.0408379544425
 20
371.3724955686337
 30
0.0000000000000000
 11
207.0408379544424
 21
371.3724955686337
 31
0.0000000000000000
  0
LINE
  5
315
100
AcDbEntity
  8
MA0
  6
CONTINUOUS
 62
12
100
AcDbLine
 10
207.0408379544424
 20
371.3724955686338
 30
0.0000000000000000
 11
217.4738506563342
 21
371.3724955686338
 31
0.0000000000000000
  0
LINE
  5
316
100
AcDbEntity
  8
MA0
  6
CONTINUOUS
 62
3
100
AcDbLine
 10
212.0408379544425
 20
377.8724955686340
 30
0.0000000000000000
 11
212.0408379544425
 21
424.8724955686337
 31
0.0000000000000000
  0
LINE
  5
317
100
AcDbEntity
  8
MA0
  6
CONTINUOUS
 62
3
100
AcDbLine
 10
212.0408379544425
 20
423.8724955686337
 30
0.0000000000000000
 11
239.0408379544426
 21
423.8724955686337
 31
0.0000000000000000
  0
LINE
  5
318
100
AcDbEntity
  8
MA0
  6
CONTINUOUS
 62
3
100
AcDbLine
 10
212.0408379544425
 20
378.8724955686340
 30
0.0000000000000000
 11
239.0408379544426
 21
378.8724955686340
 31
0.0000000000000000
  0
LINE
  5
319
100
AcDbEntity
  8
MA0
  6
CONTINUOUS
 62
3
100
AcDbLine
 10
89.04083795444259
 20
416.3724955686338
 30
0.0000000000000000
 11
212.0408379544425
 21
416.3724955686338
 31
0.0000000000000000
  0
LINE
  5
31A
100
AcDbEntity
  8
MA0
  6
CONTINUOUS
 62
3
100
AcDbLine
 10
89.04083795444259
 20
386.3724955686338
 30
0.0000000000000000
 11
212.0408379544425
 21
386.3724955686338
 31
0.0000000000000000
  0
LINE
  5
31B
100
AcDbEntity
  8
MA0
  6
CONTINUOUS
 62
3
100
AcDbLine
 10
87.04083795444248
 20
388.3724955686336
 30
0.0000000000000000
 11
87.04083795444248
 21
414.3724955686338
 31
0.0000000000000000
  0
LINE
  5
31C
100
AcDbEntity
  8
MA0
  6
CONTINUOUS
 62
3
100
AcDbLine
 10
187.0408379544425
 20
386.3724955686338
 30
0.0000000000000000
 11
187.0408379544425
 21
416.3724955686338
 31
0.0000000000000000
  0
LINE
  5
31D
100
AcDbEntity
  8
MA0
  6
CONTINUOUS
 62
12
100
AcDbLine
 10
88.04083795444251
 20
415.3724955686338
 30
0.0000000000000000
 11
187.0408379544425
 21
415.3724955686338
 31
0.0000000000000000
  0
LINE
  5
31E
100
AcDbEntity
  8
MA0
  6
CONTINUOUS
 62
12
100
AcDbLine
 10
88.04083795444257
 20
387.3724955686338
 30
0.0000000000000000
 11
187.0408379544425
 21
387.3724955686338
 31
0.0000000000000000
  0
LINE
  5
31F
100
AcDbEntity
  8
MA0
  6
CONTINUOUS
 62
3
100
AcDbLine
 10
242.0408379544425
 20
381.8724955686335
 30
0.0000000000000000
 11
242.0408379544425
 21
420.8724955686335
 31
0.0000000000000000
  0
LINE
  5
320
100
AcDbEntity
  8
MA0
  6
CONTINUOUS
 62
3
100
AcDbLine
 10
89.04083795444248
 20
386.3724955686337
 30
0.0000000000000000
 11
89.04083795444248
 21
416.3724955686337
 31
0.0000000000000000
  0
LINE
  5
321
100
AcDbEntity
  8
MA0
  6
CONTINUOUS
 62
3
100
AcDbLine
 10
89.04083795444251
 20
386.3724955686337
 30
0.0000000000000000
 11
87.04083795444251
 21
388.3724955686337
 31
0.0000000000000000
  0
LINE
  5
322
100
AcDbEntity
  8
MA0
  6
CONTINUOUS
 62
3
100
AcDbLine
 10
87.04083795444262
 20
414.3724955686339
 30
0.0000000000000000
 11
89.04083795444262
 21
416.3724955686339
 31
0.0000000000000000
  0
LINE
  5
323
100
AcDbEntity
  8
MA0
  6
CONTINUOUS
 62
3
100
AcDbLine
 10
239.0408379544425
 20
378.8724955686333
 30
0.0000000000000000
 11
239.0408379544425
 21
423.8724955686337
 31
0.0000000000000000
  0
LINE
  5
324
100
AcDbEntity
  8
MA0
  6
CONTINUOUS
 62
3
100
AcDbLine
 10
239.0408379544426
 20
423.8724955686336
 30
0.0000000000000000
 11
242.0408379544426
 21
420.8724955686336
 31
0.0000000000000000
  0
LINE
  5
325
100
AcDbEntity
  8
MA0
  6
CONTINUOUS
 62
3
100
AcDbLine
 10
239.0408379544427
 20
378.8724955686336
 30
0.0000000000000000
 11
242.0408379544425
 21
381.8724955686334
 31
0.0000000000000000
  0
LINE
  5
326
100
AcDbEntity
  8
MA0
  6
CENTER
 62
12
100
AcDbLine
 10
280.5408379544425
 20
401.3724955686337
 30
0.0000000000000000
 11
330.2043108770204
 21
401.3724955686337
 31
0.0000000000000000
  0
LINE
  5
327
100
AcDbEntity
  8
MA0
  6
CENTER
 62
12
100
AcDbLine
 10
225.5408379544425
 20
401.3724955686337
 30
0.0000000000000000
 11
271.3908380974936
 21
401.3724955686337
 31
0.0000000000000000
  0
LINE
  5
328
100
AcDbEntity
  8
MA0
  6
CENTER
 62
12
100
AcDbLine
 10
200.5408379544425
 20
401.3724955686337
 30
0.0000000000000000
 11
216.3908380974936
 21
401.3724955686337
 31
0.0000000000000000
  0
LINE
  5
329
100
AcDbEntity
  8
MA0
  6
CENTER
 62
12
100
AcDbLine
 10
84.99964580432368
 20
401.3724955686337
 30
0.0000000000000000
 11
161.3908380974936
 21
401.3724955686337
 31
0.0000000000000000
  0
LINE
  5
32A
100
AcDbEntity
  8
MA0
  6
CENTER
 62
12
100
AcDbLine
 10
170.5408379544424
 20
401.3724955686337
 30
0.0000000000000000
 11
191.3908380974936
 21
401.3724955686337
 31
0.0000000000000000
  0
LINE
  5
32B
100
AcDbEntity
  8
MA0
  6
CONTINUOUS
 62
3
100
AcDbLine
 10
144.0408379544424
 20
428.8724955686337
 30
0.0000000000000000
 11
177.0408379544425
 21
428.8724955686337
 31
0.0000000000000000
  0
LINE
  5
32C
100
AcDbEntity
  8
MA0
  6
CONTINUOUS
 62
3
100
AcDbLine
 10
144.0408379544424
 20
373.8724955686340
 30
0.0000000000000000
 11
177.0408379544424
 21
373.8724955686340
 31
0.0000000000000000
  0
LINE
  5
32D
100
AcDbEntity
  8
MA0
  6
CONTINUOUS
 62
3
100
AcDbLine
 10
142.0408379544424
 20
375.8724955686340
 30
0.0000000000000000
 11
142.0408379544424
 21
387.3724955686338
 31
0.0000000000000000
  0
LINE
  5
32E
100
AcDbEntity
  8
MA0
  6
CONTINUOUS
 62
3
100
AcDbLine
 10
142.0408379544424
 20
415.3724955686338
 30
0.0000000000000000
 11
142.0408379544424
 21
426.8724955686337
 31
0.0000000000000000
  0
LINE
  5
32F
100
AcDbEntity
  8
MA0
  6
CONTINUOUS
 62
3
100
AcDbLine
 10
144.0408379544425
 20
428.8724955686338
 30
0.0000000000000000
 11
142.0408379544425
 21
426.8724955686338
 31
0.0000000000000000
  0
LINE
  5
330
100
AcDbEntity
  8
MA0
  6
CONTINUOUS
 62
3
100
AcDbLine
 10
144.0408379544425
 20
373.8724955686338
 30
0.0000000000000000
 11
142.0408379544425
 21
375.8724955686338
 31
0.0000000000000000
  0
LINE
  5
331
100
AcDbEntity
  8
MA0
  6
CONTINUOUS
 62
3
100
AcDbLine
 10
175.5974622814683
 20
379.3724955686340
 30
0.0000000000000000
 11
177.0408379544422
 21
381.8724955686337
 31
0.0000000000000000
  0
LINE
  5
332
100
AcDbEntity
  8
MA0
  6
CONTINUOUS
 62
3
100
AcDbLine
 10
175.5974622814683
 20
379.3724955686339
 30
0.0000000000000000
 11
177.0408379544425
 21
376.8724955686338
 31
0.0000000000000000
  0
LINE
  5
333
100
AcDbEntity
  8
MA0
  6
CENTER
 62
12
100
AcDbLine
 10
157.0408379544424
 20
372.4875483126824
 30
0.0000000000000000
 11
157.0408379544424
 21
388.5594384947202
 31
0.0000000000000000
  0
LINE
  5
334
100
AcDbEntity
  8
MA0
  6
CONTINUOUS
 62
3
100
AcDbLine
 10
380.0408379544425
 20
457.1224955686335
 30
0.0000000000000000
 11
380.0408379544425
 21
592.1224955686337
 31
0.0000000000000000
  0
LINE
  5
335
100
AcDbEntity
  8
MA0
  6
CONTINUOUS
 62
3
100
AcDbLine
 10
321.0408379544424
 20
457.1224955686335
 30
0.0000000000000000
 11
380.0408379544423
 21
457.1224955686335
 31
0.0000000000000000
  0
LINE
  5
336
100
AcDbEntity
  8
MA0
  6
CENTER
 62
12
100
AcDbLine
 10
300.3908443950848
 20
523.1224955686336
 30
0.0000000000000000
 11
385.7515700573921
 21
523.1224955686336
 31
0.0000000000000000
  0
LINE
  5
337
100
AcDbEntity
  8
MA0
  6
CENTER
 62
12
100
AcDbLine
 10
300.5522919351452
 20
566.1224955686337
 30
0.0000000000000000
 11
383.5015719936120
 21
566.1224955686337
 31
0.0000000000000000
  0
LINE
  5
338
100
AcDbEntity
  8
MA0
  6
CONTINUOUS
 62
3
100
AcDbLine
 10
321.0408379544424
 20
592.1224955686337
 30
0.0000000000000000
 11
380.0408379544423
 21
592.1224955686337
 31
0.0000000000000000
  0
LINE
  5
339
100
AcDbEntity
  8
MA0
  6
CONTINUOUS
 62
3
100
AcDbLine
 10
325.0408379544425
 20
457.1224955686335
 30
0.0000000000000000
 11
325.0408379544425
 21
592.1224955686336
 31
0.0000000000000000
  0
LINE
  5
33A
100
AcDbEntity
  8
MA0
  6
CONTINUOUS
 62
3
100
AcDbLine
 10
380.0408379544423
 20
539.1224955686337
 30
0.0000000000000000
 11
341.0408379544425
 21
539.1224955686337
 31
0.0000000000000000
  0
LINE
  5
33B
100
AcDbEntity
  8
MA0
  6
CONTINUOUS
 62
3
100
AcDbLine
 10
341.0408379544425
 20
533.6224955686337
 30
0.0000000000000000
 11
325.0408379544425
 21
533.6224955686337
 31
0.0000000000000000
  0
LINE
  5
33C
100
AcDbEntity
  8
MA0
  6
CONTINUOUS
 62
3
100
AcDbLine
 10
341.0408379544425
 20
512.6224955686336
 30
0.0000000000000000
 11
325.0408379544425
 21
512.6224955686336
 31
0.0000000000000000
  0
LINE
  5
33D
100
AcDbEntity
  8
MA0
  6
CONTINUOUS
 62
3
100
AcDbLine
 10
341.0408379544425
 20
507.1224955686336
 30
0.0000000000000000
 11
380.0408379544423
 21
507.1224955686336
 31
0.0000000000000000
  0
LINE
  5
33E
100
AcDbEntity
  8
MA0
  6
CONTINUOUS
 62
3
100
AcDbLine
 10
341.0408379544422
 20
582.1224955686337
 30
0.0000000000000000
 11
380.0408379544423
 21
582.1224955686337
 31
0.0000000000000000
  0
LINE
  5
33F
100
AcDbEntity
  8
MA0
  6
CONTINUOUS
 62
3
100
AcDbLine
 10
325.0408379544425
 20
576.6224955686337
 30
0.0000000000000000
 11
341.0408379544422
 21
576.6224955686337
 31
0.0000000000000000
  0
LINE
  5
340
100
AcDbEntity
  8
MA0
  6
CONTINUOUS
 62
3
100
AcDbLine
 10
325.0408379544425
 20
555.6224955686337
 30
0.0000000000000000
 11
341.0408379544422
 21
555.6224955686337
 31
0.0000000000000000
  0
LINE
  5
341
100
AcDbEntity
  8
MA0
  6
CONTINUOUS
 62
3
100
AcDbLine
 10
341.0408379544422
 20
550.1224955686337
 30
0.0000000000000000
 11
380.0408379544423
 21
550.1224955686337
 31
0.0000000000000000
  0
LINE
  5
342
100
AcDbEntity
  8
MA0
  6
CONTINUOUS
 62
3
100
AcDbLine
 10
341.0408379544422
 20
507.1224955686336
 30
0.0000000000000000
 11
341.0408379544422
 21
539.1224955686336
 31
0.0000000000000000
  0
LINE
  5
343
100
AcDbEntity
  8
MA0
  6
CONTINUOUS
 62
3
100
AcDbLine
 10
341.0408379544422
 20
550.1224955686337
 30
0.0000000000000000
 11
341.0408379544422
 21
582.1224955686336
 31
0.0000000000000000
  0
LINE
  5
344
100
AcDbEntity
  8
MA0
  6
CENTER
 62
12
100
AcDbLine
 10
652.8530771784665
 20
205.6227528826037
 30
0.0000000000000000
 11
652.8530771784665
 21
610.9810292455544
 31
0.0000000000000000
  0
LINE
  5
345
100
AcDbEntity
  8
MA0
  6
CONTINUOUS
 62
3
100
AcDbLine
 10
677.8530771784665
 20
457.1224955686336
 30
0.0000000000000000
 11
677.8530771784665
 21
592.1224955686337
 31
0.0000000000000000
  0
LINE
  5
346
100
AcDbEntity
  8
MA0
  6
CONTINUOUS
 62
3
100
AcDbLine
 10
627.8530771784665
 20
457.1224955686336
 30
0.0000000000000000
 11
627.8530771784665
 21
592.1224955686337
 31
0.0000000000000000
  0
LINE
  5
347
100
AcDbEntity
  8
MA0
  6
CONTINUOUS
 62
3
100
AcDbLine
 10
627.8530771784665
 20
592.1224955686337
 30
0.0000000000000000
 11
677.8530771784665
 21
592.1224955686337
 31
0.0000000000000000
  0
LINE
  5
348
100
AcDbEntity
  8
MA0
  6
CONTINUOUS
 62
3
100
AcDbLine
 10
627.8530771784665
 20
457.1224955686336
 30
0.0000000000000000
 11
677.8530771784665
 21
457.1224955686336
 31
0.0000000000000000
  0
LINE
  5
349
100
AcDbEntity
  8
MA0
  6
CENTER
 62
12
100
AcDbLine
 10
634.1010516159388
 20
523.1224955686337
 30
0.0000000000000000
 11
671.2481124895842
 21
523.1224955686337
 31
0.0000000000000000
  0
LINE
  5
34A
100
AcDbEntity
  8
MA0
  6
CENTER
 62
12
100
AcDbLine
 10
632.9966760910850
 20
566.1224955686337
 30
0.0000000000000000
 11
671.9007004409853
 21
566.1224955686337
 31
0.0000000000000000
  0
LINE
  5
34B
100
AcDbEntity
  8
MA0
  6
CONTINUOUS
 62
3
100
AcDbLine
 10
320.0408379544425
 20
457.6998458378227
 30
0.0000000000000000
 11
320.0408379544425
 21
477.3724955686337
 31
0.0000000000000000
  0
LINE
  5
34C
100
AcDbEntity
  8
MA0
  6
CONTINUOUS
 62
12
100
AcDbLine
 10
320.0408379544425
 20
478.5271961070126
 30
0.0000000000000000
 11
320.0408379544425
 21
592.8724955686336
 31
0.0000000000000000
  0
CIRCLE
  5
34D
100
AcDbEntity
  8
MA0
  6
CONTINUOUS
 62
3
100
AcDbCircle
 10
652.8530771784665
 20
566.1224955686337
 30
0.0000000000000000
 40
16.00000000000000
  0
CIRCLE
  5
34E
100
AcDbEntity
  8
MA0
  6
CONTINUOUS
 62
3
100
AcDbCircle
 10
652.8530771784665
 20
523.1224955686337
 30
0.0000000000000000
 40
16.00000000000000
  0
LINE
  5
34F
100
AcDbEntity
  8
MA0
  6
CONTINUOUS
 62
12
100
AcDbLine
 10
321.0408379544425
 20
458.2771961070123
 30
0.0000000000000000
 11
321.0408379544425
 21
479.4498458378232
 31
0.0000000000000000
  0
LINE
  5
350
100
AcDbEntity
  8
MA0
  6
CONTINUOUS
 62
3
100
AcDbLine
 10
321.0408379544425
 20
479.4498458378232
 30
0.0000000000000000
 11
321.0408379544425
 21
592.2951452994437
 31
0.0000000000000000
  0
LINE
  5
351
100
AcDbEntity
  8
MA0
  6
CONTINUOUS
 62
3
100
AcDbLine
 10
192.0408379544425
 20
376.8724955686340
 30
0.0000000000000000
 11
192.0408379544425
 21
381.8724955686337
 31
0.0000000000000000
  0
LINE
  5
352
100
AcDbEntity
  8
MA0
  6
CONTINUOUS
 62
3
100
AcDbLine
 10
192.0408379544423
 20
381.8724955686337
 30
0.0000000000000000
 11
190.7010919922867
 21
376.8724955686337
 31
0.0000000000000000
  0
LINE
  5
353
100
AcDbEntity
  8
MA0
  6
CONTINUOUS
 62
3
100
AcDbLine
 10
190.7010919922865
 20
376.8724955686337
 30
0.0000000000000000
 11
189.3613460301309
 21
381.8724955686337
 31
0.0000000000000000
  0
LINE
  5
354
100
AcDbEntity
  8
MA0
  6
CONTINUOUS
 62
3
100
AcDbLine
 10
188.0216000679748
 20
376.8724955686337
 30
0.0000000000000000
 11
186.6818541058192
 21
381.8724955686337
 31
0.0000000000000000
  0
LINE
  5
355
100
AcDbEntity
  8
MA0
  6
CONTINUOUS
 62
3
100
AcDbLine
 10
186.6818541058191
 20
381.8724955686338
 30
0.0000000000000000
 11
185.3421081436634
 21
376.8724955686338
 31
0.0000000000000000
  0
LINE
  5
356
100
AcDbEntity
  8
MA0
  6
CONTINUOUS
 62
3
100
AcDbLine
 10
184.0023621815077
 20
381.8724955686335
 30
0.0000000000000000
 11
185.3421081436633
 21
376.8724955686337
 31
0.0000000000000000
  0
LINE
  5
357
100
AcDbEntity
  8
MA0
  6
CONTINUOUS
 62
3
100
AcDbLine
 10
184.0023621815075
 20
381.8724955686337
 30
0.0000000000000000
 11
182.6626162193518
 21
376.8724955686337
 31
0.0000000000000000
  0
LINE
  5
358
100
AcDbEntity
  8
MA0
  6
CONTINUOUS
 62
3
100
AcDbLine
 10
182.6626162193517
 20
376.8724955686337
 30
0.0000000000000000
 11
181.3228702571961
 21
381.8724955686336
 31
0.0000000000000000
  0
LINE
  5
359
100
AcDbEntity
  8
MA0
  6
CONTINUOUS
 62
3
100
AcDbLine
 10
181.3228702571959
 20
376.8724955686340
 30
0.0000000000000000
 11
181.3228702571959
 21
381.8724955686337
 31
0.0000000000000000
  0
LINE
  5
35A
100
AcDbEntity
  8
MA0
  6
CONTINUOUS
 62
3
100
AcDbLine
 10
188.0216000679751
 20
376.8724955686337
 30
0.0000000000000000
 11
189.3613460301308
 21
381.8724955686337
 31
0.0000000000000000
  0
LINE
  5
35B
100
AcDbEntity
  8
MA0
  6
CONTINUOUS
 62
3
100
AcDbLine
 10
652.8530771784671
 20
575.9374525686325
 30
0.0000000000000000
 11
644.3530771784670
 21
571.0299735686324
 31
0.0000000000000000
  0
LINE
  5
35C
100
AcDbEntity
  8
MA0
  6
CONTINUOUS
 62
3
100
AcDbLine
 10
644.3530771784665
 20
571.0299735686336
 30
0.0000000000000000
 11
644.3530771784665
 21
561.2150095686336
 31
0.0000000000000000
  0
LINE
  5
35D
100
AcDbEntity
  8
MA0
  6
CONTINUOUS
 62
3
100
AcDbLine
 10
644.3530771784688
 20
561.2150095686330
 30
0.0000000000000000
 11
652.8530771784688
 21
556.3075385686332
 31
0.0000000000000000
  0
LINE
  5
35E
100
AcDbEntity
  8
MA0
  6
CONTINUOUS
 62
3
100
AcDbLine
 10
652.8530771784685
 20
556.3075385686336
 30
0.0000000000000000
 11
661.3530771784674
 21
561.2150245686329
 31
0.0000000000000000
  0
LINE
  5
35F
100
AcDbEntity
  8
MA0
  6
CONTINUOUS
 62
3
100
AcDbLine
 10
661.3530771784665
 20
561.2150245686337
 30
0.0000000000000000
 11
661.3530771784665
 21
571.0299735686336
 31
0.0000000000000000
  0
LINE
  5
360
100
AcDbEntity
  8
MA0
  6
CONTINUOUS
 62
3
100
AcDbLine
 10
661.3530771784684
 20
571.0299735686324
 30
0.0000000000000000
 11
652.8530771784683
 21
575.9374525686324
 31
0.0000000000000000
  0
CIRCLE
  5
361
100
AcDbEntity
  8
MA0
  6
CONTINUOUS
 62
3
100
AcDbCircle
 10
652.8530771784665
 20
566.1224955686337
 30
0.0000000000000000
 40
15.00000000000000
  0
LINE
  5
362
100
AcDbEntity
  8
MA0
  6
CONTINUOUS
 62
3
100
AcDbLine
 10
652.8530771784660
 20
532.9374525686319
 30
0.0000000000000000
 11
644.3530771784690
 21
528.0299735686335
 31
0.0000000000000000
  0
LINE
  5
363
100
AcDbEntity
  8
MA0
  6
CONTINUOUS
 62
3
100
AcDbLine
 10
644.3530771784665
 20
528.0299735686336
 30
0.0000000000000000
 11
644.3530771784665
 21
518.2150095686336
 31
0.0000000000000000
  0
LINE
  5
364
100
AcDbEntity
  8
MA0
  6
CONTINUOUS
 62
3
100
AcDbLine
 10
644.3530771784691
 20
518.2150095686337
 30
0.0000000000000000
 11
652.8530771784692
 21
513.3075385686337
 31
0.0000000000000000
  0
LINE
  5
365
100
AcDbEntity
  8
MA0
  6
CONTINUOUS
 62
3
100
AcDbLine
 10
652.8530771784681
 20
513.3075385686332
 30
0.0000000000000000
 11
661.3530771784670
 21
518.2150245686324
 31
0.0000000000000000
  0
LINE
  5
366
100
AcDbEntity
  8
MA0
  6
CONTINUOUS
 62
3
100
AcDbLine
 10
661.3530771784665
 20
518.2150245686337
 30
0.0000000000000000
 11
661.3530771784665
 21
528.0299735686336
 31
0.0000000000000000
  0
LINE
  5
367
100
AcDbEntity
  8
MA0
  6
CONTINUOUS
 62
3
100
AcDbLine
 10
661.3530771784676
 20
528.0299735686308
 30
0.0000000000000000
 11
652.8530771784675
 21
532.9374525686308
 31
0.0000000000000000
  0
CIRCLE
  5
368
100
AcDbEntity
  8
MA0
  6
CONTINUOUS
 62
3
100
AcDbCircle
 10
652.8530771784665
 20
523.1224955686337
 30
0.0000000000000000
 40
15.00000000000000
  0
LINE
  5
369
100
AcDbEntity
  8
MA0
  6
CONTINUOUS
 62
3
100
AcDbLine
 10
341.0408529544424
 20
581.1224955686337
 30
0.0000000000000000
 11
360.0408679544424
 21
581.1224805686336
 31
0.0000000000000000
  0
LINE
  5
36A
100
AcDbEntity
  8
MA0
  6
CONTINUOUS
 62
3
100
AcDbLine
 10
360.0409139544424
 20
551.1224885686336
 30
0.0000000000000000
 11
341.0408229544422
 21
551.1224955686336
 31
0.0000000000000000
  0
LINE
  5
36B
100
AcDbEntity
  8
MA0
  6
CONTINUOUS
 62
3
100
AcDbLine
 10
360.0408449544424
 20
581.1224805686336
 30
0.0000000000000000
 11
360.0408299544424
 21
551.1224885686336
 31
0.0000000000000000
  0
LINE
  5
36C
100
AcDbEntity
  8
MA0
  6
CONTINUOUS
 62
3
100
AcDbLine
 10
361.0408839544424
 20
579.3904405686336
 30
0.0000000000000000
 11
360.0408449544424
 21
581.1224805686336
 31
0.0000000000000000
  0
LINE
  5
36D
100
AcDbEntity
  8
MA0
  6
CONTINUOUS
 62
3
100
AcDbLine
 10
361.0408679544424
 20
552.8547265686336
 30
0.0000000000000000
 11
360.0408299544424
 21
551.1224885686336
 31
0.0000000000000000
  0
LINE
  5
36E
100
AcDbEntity
  8
MA0
  6
CONTINUOUS
 62
3
100
AcDbLine
 10
361.0408379544424
 20
552.8546746034682
 30
0.0000000000000000
 11
361.0408379544424
 21
579.3905202393663
 31
0.0000000000000000
  0
LINE
  5
36F
100
AcDbEntity
  8
MA0
  6
CONTINUOUS
 62
3
100
AcDbLine
 10
332.0408379544425
 20
556.1224955686337
 30
0.0000000000000000
 11
332.0408379544425
 21
576.1224955686337
 31
0.0000000000000000
  0
LINE
  5
370
100
AcDbEntity
  8
MA0
  6
CONTINUOUS
 62
3
100
AcDbLine
 10
324.2908379544425
 20
576.1224795731790
 30
0.0000000000000000
 11
341.0408379544422
 21
576.1224725686336
 31
0.0000000000000000
  0
LINE
  5
371
100
AcDbEntity
  8
MA0
  6
CONTINUOUS
 62
12
100
AcDbLine
 10
324.2908379544425
 20
575.1224955686337
 30
0.0000000000000000
 11
332.0408379544425
 21
575.1224955686337
 31
0.0000000000000000
  0
LINE
  5
372
100
AcDbEntity
  8
MA0
  6
CONTINUOUS
 62
12
100
AcDbLine
 10
324.2908379544425
 20
557.1224955686337
 30
0.0000000000000000
 11
332.0408379544425
 21
557.1224955686337
 31
0.0000000000000000
  0
LINE
  5
373
100
AcDbEntity
  8
MA0
  6
CONTINUOUS
 62
3
100
AcDbLine
 10
324.2908379544425
 20
556.1225011322700
 30
0.0000000000000000
 11
341.0408379544424
 21
556.1225035686337
 31
0.0000000000000000
  0
LINE
  5
374
100
AcDbEntity
  8
MA0
  6
CONTINUOUS
 62
3
100
AcDbLine
 10
341.0408529544423
 20
538.1224955686337
 30
0.0000000000000000
 11
360.0408679544424
 21
538.1224805686336
 31
0.0000000000000000
  0
LINE
  5
375
100
AcDbEntity
  8
MA0
  6
CONTINUOUS
 62
3
100
AcDbLine
 10
360.0409139544423
 20
508.1224885686336
 30
0.0000000000000000
 11
341.0408229544424
 21
508.1224955686336
 31
0.0000000000000000
  0
LINE
  5
376
100
AcDbEntity
  8
MA0
  6
CONTINUOUS
 62
3
100
AcDbLine
 10
360.0408449544424
 20
538.1224805686336
 30
0.0000000000000000
 11
360.0408299544424
 21
508.1224885686336
 31
0.0000000000000000
  0
LINE
  5
377
100
AcDbEntity
  8
MA0
  6
CONTINUOUS
 62
3
100
AcDbLine
 10
361.0408839544424
 20
536.3904405686336
 30
0.0000000000000000
 11
360.0408449544424
 21
538.1224805686336
 31
0.0000000000000000
  0
LINE
  5
378
100
AcDbEntity
  8
MA0
  6
CONTINUOUS
 62
3
100
AcDbLine
 10
361.0408679544424
 20
509.8547265686336
 30
0.0000000000000000
 11
360.0408299544424
 21
508.1224885686336
 31
0.0000000000000000
  0
LINE
  5
379
100
AcDbEntity
  8
MA0
  6
CONTINUOUS
 62
3
100
AcDbLine
 10
361.0408379544424
 20
509.8546746034682
 30
0.0000000000000000
 11
361.0408379544424
 21
536.3905202393663
 31
0.0000000000000000
  0
LINE
  5
37A
100
AcDbEntity
  8
MA0
  6
CONTINUOUS
 62
3
100
AcDbLine
 10
332.0408379544425
 20
513.1224955686336
 30
0.0000000000000000
 11
332.0408379544425
 21
533.1224955686337
 31
0.0000000000000000
  0
LINE
  5
37B
100
AcDbEntity
  8
MA0
  6
CONTINUOUS
 62
3
100
AcDbLine
 10
324.2908379544425
 20
533.1224795731790
 30
0.0000000000000000
 11
341.0408379544423
 21
533.1224725686336
 31
0.0000000000000000
  0
LINE
  5
37C
100
AcDbEntity
  8
MA0
  6
CONTINUOUS
 62
12
100
AcDbLine
 10
324.2908379544425
 20
532.1224955686337
 30
0.0000000000000000
 11
332.0408379544425
 21
532.1224955686337
 31
0.0000000000000000
  0
LINE
  5
37D
100
AcDbEntity
  8
MA0
  6
CONTINUOUS
 62
12
100
AcDbLine
 10
324.2908379544425
 20
514.1224955686336
 30
0.0000000000000000
 11
332.0408379544425
 21
514.1224955686336
 31
0.0000000000000000
  0
LINE
  5
37E
100
AcDbEntity
  8
MA0
  6
CONTINUOUS
 62
3
100
AcDbLine
 10
324.2908379544425
 20
513.1225011322700
 30
0.0000000000000000
 11
341.0408379544422
 21
513.1225035686337
 31
0.0000000000000000
  0
LINE
  5
37F
100
AcDbEntity
  8
MA0
  6
CONTINUOUS
 62
3
100
AcDbLine
 10
277.0615638966060
 20
109.5456473016710
 30
0.0000000000000000
 11
273.0201120122786
 21
109.5456473016710
 31
0.0000000000000000
  0
LINE
  5
380
100
AcDbEntity
  8
MA0
  6
CONTINUOUS
 62
3
100
AcDbLine
 10
273.0201120122784
 20
102.5456473016710
 30
0.0000000000000000
 11
277.0615638966060
 21
102.5456473016710
 31
0.0000000000000000
  0
LINE
  5
381
100
AcDbEntity
  8
MA0
  6
CONTINUOUS
 62
3
100
AcDbLine
 10
279.0822898387694
 20
106.0456473016685
 30
0.0000000000000000
 11
277.0615638966058
 21
109.5456473016683
 31
0.0000000000000000
  0
LINE
  5
382
100
AcDbEntity
  8
MA0
  6
CONTINUOUS
 62
3
100
AcDbLine
 10
273.0201120122785
 20
109.5456473016686
 30
0.0000000000000000
 11
270.9993860701147
 21
106.0456473016684
 31
0.0000000000000000
  0
LINE
  5
383
100
AcDbEntity
  8
MA0
  6
CONTINUOUS
 62
3
100
AcDbLine
 10
270.9993860701147
 20
106.0456473016683
 30
0.0000000000000000
 11
273.0201120122784
 21
102.5456473016684
 31
0.0000000000000000
  0
LINE
  5
384
100
AcDbEntity
  8
MA0
  6
CONTINUOUS
 62
3
100
AcDbLine
 10
277.0615638966058
 20
102.5456473016685
 30
0.0000000000000000
 11
279.0822898387695
 21
106.0456473016684
 31
0.0000000000000000
  0
CIRCLE
  5
385
100
AcDbEntity
  8
MA0
  6
CONTINUOUS
 62
3
100
AcDbCircle
 10
275.0408379544422
 20
106.0456473016710
 30
0.0000000000000000
 40
2.154065922853398
  0
CIRCLE
  5
386
100
AcDbEntity
  8
MA0
  6
CONTINUOUS
 62
3
100
AcDbCircle
 10
275.0408379544422
 20
106.0456473016710
 30
0.0000000000000000
 40
3.299999999999997
  0
CIRCLE
  5
387
100
AcDbEntity
  8
MA0
  6
CONTINUOUS
 62
3
100
AcDbCircle
 10
275.0408379544422
 20
106.0456473016710
 30
0.0000000000000000
 40
0.9914283891267653
  0
LINE
  5
388
100
AcDbEntity
  8
MA0
  6
CONTINUOUS
 62
3
100
AcDbLine
 10
212.2408379544425
 20
547.3724955686333
 30
0.0000000000000000
 11
232.0408379544426
 21
547.3724955686334
 31
0.0000000000000000
  0
LINE
  5
389
100
AcDbEntity
  8
MA0
  6
CONTINUOUS
 62
3
100
AcDbLine
 10
212.2408379544424
 20
515.3724955686333
 30
0.0000000000000000
 11
232.0408379544425
 21
515.3724955686334
 31
0.0000000000000000
  0
LINE
  5
38A
100
AcDbEntity
  8
MA0
  6
CONTINUOUS
 62
3
100
AcDbLine
 10
232.0408379544425
 20
547.3724955686334
 30
0.0000000000000000
 11
232.0408379544425
 21
515.3724955686334
 31
0.0000000000000000
  0
LINE
  5
38B
100
AcDbEntity
  8
MA0
  6
CONTINUOUS
 62
3
100
AcDbLine
 10
211.0408379544425
 20
548.5724955686334
 30
0.0000000000000000
 11
212.2408379544425
 21
547.3724955686333
 31
0.0000000000000000
  0
LINE
  5
38C
100
AcDbEntity
  8
MA0
  6
CONTINUOUS
 62
3
100
AcDbLine
 10
211.0408379544425
 20
514.1724955686333
 30
0.0000000000000000
 11
212.2408379544425
 21
515.3724955686333
 31
0.0000000000000000
  0
LINE
  5
38D
100
AcDbEntity
  8
MA0
  6
CONTINUOUS
 62
3
100
AcDbLine
 10
232.0408379544425
 20
541.3724875686335
 30
0.0000000000000000
 11
246.8641339661622
 21
541.3724875686335
 31
0.0000000000000000
  0
LINE
  5
38E
100
AcDbEntity
  8
MA0
  6
CONTINUOUS
 62
3
100
AcDbLine
 10
232.0408379544425
 20
521.3725185686335
 30
0.0000000000000000
 11
246.0567900503734
 21
521.3725185686335
 31
0.0000000000000000
  0
LINE
  5
38F
100
AcDbEntity
  8
MA0
  6
CONTINUOUS
 62
12
100
AcDbLine
 10
232.0408379544425
 20
540.3724955686334
 30
0.0000000000000000
 11
246.9448577361924
 21
540.3724955686334
 31
0.0000000000000000
  0
LINE
  5
390
100
AcDbEntity
  8
MA0
  6
CONTINUOUS
 62
12
100
AcDbLine
 10
232.0408379544425
 20
522.3724955686334
 30
0.0000000000000000
 11
246.3797382382376
 21
522.3724955686334
 31
0.0000000000000000
  0
LINE
  5
391
100
AcDbEntity
  8
MA0
  6
CONTINUOUS
 62
3
100
AcDbLine
 10
232.0408229544425
 20
516.3724955686336
 30
0.0000000000000000
 11
213.0408079544425
 21
516.3725105686335
 31
0.0000000000000000
  0
LINE
  5
392
100
AcDbEntity
  8
MA0
  6
CONTINUOUS
 62
3
100
AcDbLine
 10
213.0407619544425
 20
546.3725025686334
 30
0.0000000000000000
 11
232.0408529544425
 21
546.3724955686334
 31
0.0000000000000000
  0
LINE
  5
393
100
AcDbEntity
  8
MA0
  6
CONTINUOUS
 62
3
100
AcDbLine
 10
213.0408309544425
 20
516.3725105686335
 30
0.0000000000000000
 11
213.0408459544425
 21
546.3725025686335
 31
0.0000000000000000
  0
LINE
  5
394
100
AcDbEntity
  8
MA0
  6
CONTINUOUS
 62
3
100
AcDbLine
 10
212.0407919544425
 20
518.1045505686335
 30
0.0000000000000000
 11
213.0408309544425
 21
516.3725105686335
 31
0.0000000000000000
  0
LINE
  5
395
100
AcDbEntity
  8
MA0
  6
CONTINUOUS
 62
3
100
AcDbLine
 10
212.0408079544425
 20
544.6402645686335
 30
0.0000000000000000
 11
213.0408459544424
 21
546.3725025686334
 31
0.0000000000000000
  0
LINE
  5
396
100
AcDbEntity
  8
MA0
  6
CONTINUOUS
 62
3
100
AcDbLine
 10
212.0408379544425
 20
544.6403165337988
 30
0.0000000000000000
 11
212.0408379544425
 21
518.1044708979008
 31
0.0000000000000000
  0
LINE
  5
397
100
AcDbEntity
  8
MA0
  6
CONTINUOUS
 62
3
100
AcDbLine
 10
296.0408379544426
 20
273.8725035686340
 30
0.0000000000000000
 11
181.0408379544425
 21
273.8724955686341
 31
0.0000000000000000
  0
LINE
  5
398
100
AcDbEntity
  8
MA0
  6
CONTINUOUS
 62
3
100
AcDbLine
 10
181.0408379544424
 20
273.8724955686341
 30
0.0000000000000000
 11
181.0408379544424
 21
293.8724955686341
 31
0.0000000000000000
  0
LINE
  5
399
100
AcDbEntity
  8
MA0
  6
CONTINUOUS
 62
3
100
AcDbLine
 10
181.0408379544425
 20
293.8724955686341
 30
0.0000000000000000
 11
296.0408379544426
 21
293.8724725686340
 31
0.0000000000000000
  0
LINE
  5
39A
100
AcDbEntity
  8
MA0
  6
CONTINUOUS
 62
12
100
AcDbLine
 10
227.0408379544425
 20
274.8724955686341
 30
0.0000000000000000
 11
181.0408379544424
 21
274.8724955686341
 31
0.0000000000000000
  0
LINE
  5
39B
100
AcDbEntity
  8
MA0
  6
CONTINUOUS
 62
12
100
AcDbLine
 10
227.0408379544425
 20
292.8724955686341
 30
0.0000000000000000
 11
181.0408379544425
 21
292.8724955686341
 31
0.0000000000000000
  0
LINE
  5
39C
100
AcDbEntity
  8
MA0
  6
CONTINUOUS
 62
3
100
AcDbLine
 10
296.0408529544425
 20
298.8724955686340
 30
0.0000000000000000
 11
315.0408679544424
 21
298.8724805686340
 31
0.0000000000000000
  0
LINE
  5
39D
100
AcDbEntity
  8
MA0
  6
CONTINUOUS
 62
3
100
AcDbLine
 10
315.0409139544424
 20
268.8724885686340
 30
0.0000000000000000
 11
296.0408229544425
 21
268.8724955686341
 31
0.0000000000000000
  0
LINE
  5
39E
100
AcDbEntity
  8
MA0
  6
CONTINUOUS
 62
3
100
AcDbLine
 10
315.0408449544424
 20
298.8724805686341
 30
0.0000000000000000
 11
315.0408299544424
 21
268.8724885686340
 31
0.0000000000000000
  0
LINE
  5
39F
100
AcDbEntity
  8
MA0
  6
CONTINUOUS
 62
3
100
AcDbLine
 10
316.0408839544425
 20
297.1404405686341
 30
0.0000000000000000
 11
315.0408449544425
 21
298.8724805686341
 31
0.0000000000000000
  0
LINE
  5
3A0
100
AcDbEntity
  8
MA0
  6
CONTINUOUS
 62
3
100
AcDbLine
 10
316.0408679544424
 20
270.6047265686340
 30
0.0000000000000000
 11
315.0408299544424
 21
268.8724885686340
 31
0.0000000000000000
  0
LINE
  5
3A1
100
AcDbEntity
  8
MA0
  6
CONTINUOUS
 62
3
100
AcDbLine
 10
316.0408379544425
 20
270.6046746034687
 30
0.0000000000000000
 11
316.0408379544425
 21
297.1405202393668
 31
0.0000000000000000
  0
LINE
  5
3A2
100
AcDbEntity
  8
MA0
  6
CONTINUOUS
 62
3
100
AcDbLine
 10
227.0408379544425
 20
273.8724955686341
 30
0.0000000000000000
 11
227.0408379544425
 21
293.8724955686341
 31
0.0000000000000000
  0
LINE
  5
3A3
100
AcDbEntity
  8
MA0
  6
HIDDEN
 62
12
100
AcDbLine
 10
231.0408379544425
 20
536.3724955686332
 30
0.0000000000000000
 11
211.4908379544425
 21
536.3724955686333
 31
0.0000000000000000
  0
LINE
  5
3A4
100
AcDbEntity
  8
MA0
  6
HIDDEN
 62
12
100
AcDbLine
 10
231.0408379544425
 20
526.3724955686332
 30
0.0000000000000000
 11
211.4908379544425
 21
526.3724955686332
 31
0.0000000000000000
  0
LINE
  5
3A5
100
AcDbEntity
  8
MA0
  6
HIDDEN
 62
3
100
AcDbLine
 10
212.2408379544423
 20
535.6224955686332
 30
0.0000000000000000
 11
211.0408379544424
 21
536.8224955686334
 31
0.0000000000000000
  0
LINE
  5
3A6
100
AcDbEntity
  8
MA0
  6
HIDDEN
 62
3
100
AcDbLine
 10
212.2408379544425
 20
527.1224955686333
 30
0.0000000000000000
 11
211.0408379544425
 21
525.9224955686335
 31
0.0000000000000000
  0
LINE
  5
3A7
100
AcDbEntity
  8
MA0
  6
HIDDEN
 62
3
100
AcDbLine
 10
241.0408379544425
 20
535.6224955686333
 30
0.0000000000000000
 11
212.2408379544424
 21
535.6224955686333
 31
0.0000000000000000
  0
LINE
  5
3A8
100
AcDbEntity
  8
MA0
  6
HIDDEN
 62
3
100
AcDbLine
 10
241.0408379544425
 20
527.1224955686333
 30
0.0000000000000000
 11
212.2408379544425
 21
527.1224955686333
 31
0.0000000000000000
  0
LINE
  5
3A9
100
AcDbEntity
  8
MA0
  6
HIDDEN
 62
3
100
AcDbLine
 10
231.0408379544425
 20
536.3724955686332
 30
0.0000000000000000
 11
231.0408379544425
 21
526.3724955686333
 31
0.0000000000000000
  0
LINE
  5
3AA
100
AcDbEntity
  8
MA0
  6
HIDDEN
 62
3
100
AcDbLine
 10
241.0408379544425
 20
535.6224955686333
 30
0.0000000000000000
 11
241.0408379544425
 21
527.1224955686333
 31
0.0000000000000000
  0
LINE
  5
3AB
100
AcDbEntity
  8
MA0
  6
HIDDEN
 62
3
100
AcDbLine
 10
243.4945765984984
 20
531.3724955686331
 30
0.0000000000000000
 11
241.0408379544425
 21
535.6224955686333
 31
0.0000000000000000
  0
LINE
  5
3AC
100
AcDbEntity
  8
MA0
  6
HIDDEN
 62
3
100
AcDbLine
 10
243.4945765984984
 20
531.3724955686331
 30
0.0000000000000000
 11
241.0408379544425
 21
527.1224955686333
 31
0.0000000000000000
  0
LINE
  5
3AD
100
AcDbEntity
  8
MA0
  6
HIDDEN
 62
3
100
AcDbLine
 10
212.2408379544424
 20
535.6224955686333
 30
0.0000000000000000
 11
212.2408379544425
 21
527.1224955686333
 31
0.0000000000000000
  0
CIRCLE
  5
3AE
100
AcDbEntity
  8
MA0
  6
CONTINUOUS
 62
3
100
AcDbCircle
 10
178.4842136274164
 20
379.3724955686340
 30
0.0000000000000000
 40
2.499999999999993
  0
CIRCLE
  5
3AF
100
AcDbEntity
  8
MA0
  6
CONTINUOUS
 62
12
100
AcDbCircle
 10
510.3918982559291
 20
319.1224955686341
 30
0.0000000000000000
 40
9.999999999999998
  0
CIRCLE
  5
3B0
100
AcDbEntity
  8
MA0
  6
CONTINUOUS
 62
3
100
AcDbCircle
 10
510.3918982559291
 20
319.1224955686341
 30
0.0000000000000000
 40
8.749999999999996
  0
CIRCLE
  5
3B1
100
AcDbEntity
  8
MA0
  6
HIDDEN
 62
12
100
AcDbCircle
 10
782.8530771784665
 20
401.3724955686337
 30
0.0000000000000000
 40
4.999999999999996
  0
CIRCLE
  5
3B2
100
AcDbEntity
  8
MA0
  6
HIDDEN
 62
12
100
AcDbCircle
 10
782.8530771784665
 20
401.3724955686337
 30
0.0000000000000000
 40
4.249999999999996
  0
CIRCLE
  5
3B3
100
AcDbEntity
  8
MA0
  6
HIDDEN
 62
12
100
AcDbCircle
 10
587.8530771784692
 20
513.9557980606107
 30
0.0000000000000000
 40
4.999999999999996
  0
CIRCLE
  5
3B4
100
AcDbEntity
  8
MA0
  6
HIDDEN
 62
12
100
AcDbCircle
 10
587.8530771784692
 20
513.9557980606107
 30
0.0000000000000000
 40
4.249999999999996
  0
CIRCLE
  5
3B5
100
AcDbEntity
  8
MA0
  6
HIDDEN
 62
12
100
AcDbCircle
 10
587.8530771784692
 20
288.7891930766567
 30
0.0000000000000000
 40
4.999999999999996
  0
CIRCLE
  5
3B6
100
AcDbEntity
  8
MA0
  6
HIDDEN
 62
12
100
AcDbCircle
 10
587.8530771784692
 20
288.7891930766567
 30
0.0000000000000000
 40
4.249999999999996
  0
MTEXT
  5
3B7
100
AcDbEntity
  8
MA0
  6
CONTINUOUS
 62
4
100
AcDbMText
 10
477.8895633991507
 20
93.35064061086717
 30
0.0000000000000000
 40
4.500000000000000
 41
0.0000000000000000
 71
     1
 72
     1
  1
{\H0.63x;{32.6}}
 11
1.000000000000000
 21
0.0000000000000000
 31
0.0000000000000000
  7
STANDARD
  0
MTEXT
  5
3B8
100
AcDbEntity
  8
MA0
  6
CONTINUOUS
 62
4
100
AcDbMText
 10
473.3895633991476
 20
100.2506411830736
 30
0.0000000000000000
 40
4.650000572204590
 41
0.0000000000000000
 71
     1
 72
     1
  1
{\H0.90x;{3.2}}
 11
1.000000000000000
 21
0.0000000000000000
 31
0.0000000000000000
  7
STANDARD
  0
MTEXT
  5
3B9
100
AcDbEntity
  8
MA0
  6
CONTINUOUS
 62
4
100
AcDbMText
 10
473.3895633991476
 20
110.0006411830736
 30
0.0000000000000000
 40
4.650000572204590
 41
0.0000000000000000
 71
     1
 72
     1
  1
{\H0.92x;{Y2035R}}
 11
1.000000000000000
 21
0.0000000000000000
 31
0.0000000000000000
  7
STANDARD
  0
MTEXT
  5
3BA
100
AcDbEntity
  8
MA0
  6
CONTINUOUS
 62
4
100
AcDbMText
 10
477.8895633991476
 20
119.0006411830736
 30
0.0000000000000000
 40
4.650000572204590
 41
0.0000000000000000
 71
     1
 72
     1
  1
{\H0.91x;{8464}}
 11
1.000000000000000
 21
0.0000000000000000
 31
0.0000000000000000
  7
STANDARD
  0
MTEXT
  5
3BB
100
AcDbEntity
  8
MA0
  6
CONTINUOUS
 62
4
100
AcDbMText
 10
473.3895633991476
 20
125.7506411830736
 30
0.0000000000000000
 40
4.650000572204590
 41
0.0000000000000000
 71
     1
 72
     1
  1
{\H0.88x;{83}}
 11
1.000000000000000
 21
0.0000000000000000
 31
0.0000000000000000
  7
STANDARD
  0
MTEXT
  5
3BC
100
AcDbEntity
  8
MA0
  6
CONTINUOUS
 62
3
100
AcDbMText
 10
473.3895633991507
 20
138.7506404678163
 30
0.0000000000000000
 40
4.649999856948853
 41
0.0000000000000000
 71
     1
 72
     1
  1
{\H0.76x;{1.9}}
 11
1.000000000000000
 21
0.0000000000000000
 31
0.0000000000000000
  7
STANDARD
  0
MTEXT
  5
3BD
100
AcDbEntity
  8
MA0
  6
CONTINUOUS
 62
4
100
AcDbMText
 10
473.3895633991476
 20
150.5006411830722
 30
0.0000000000000000
 40
4.650000572204590
 41
0.0000000000000000
 71
     1
 72
     1
  1
{\H0.90x;{101}}
 11
1.000000000000000
 21
0.0000000000000000
 31
0.0000000000000000
  7
STANDARD
  0
MTEXT
  5
3BE
100
AcDbEntity
  8
MA0
  6
CONTINUOUS
 62
4
100
AcDbMText
 10
473.3895633991476
 20
161.0006411830722
 30
0.0000000000000000
 40
4.650000572204590
 41
0.0000000000000000
 71
     1
 72
     1
  1
{\H0.91x;{3040}}
 11
1.000000000000000
 21
0.0000000000000000
 31
0.0000000000000000
  7
STANDARD
  0
MTEXT
  5
3BF
100
AcDbEntity
  8
MA0
  6
CONTINUOUS
 62
4
100
AcDbMText
 10
477.8895633991476
 20
170.0006411830722
 30
0.0000000000000000
 40
4.650000572204590
 41
0.0000000000000000
 71
     1
 72
     1
  1
{\H0.92x;{25391}}
 11
1.000000000000000
 21
0.0000000000000000
 31
0.0000000000000000
  7
STANDARD
  0
MTEXT
  5
3C0
100
AcDbEntity
  8
MA0
  6
CONTINUOUS
 62
4
100
AcDbMText
 10
473.3895633991476
 20
176.7506411830722
 30
0.0000000000000000
 40
4.650000572204590
 41
0.0000000000000000
 71
     1
 72
     1
  1
{\H0.90x;{249}}
 11
1.000000000000000
 21
0.0000000000000000
 31
0.0000000000000000
  7
STANDARD
  0
MTEXT
  5
3C1
100
AcDbEntity
  8
MA0
  6
CONTINUOUS
 62
4
100
AcDbMText
 10
477.8895633991476
 20
185.0006411830722
 30
0.0000000000000000
 40
4.650000572204590
 41
0.0000000000000000
 71
     1
 72
     1
  1
{\H0.91x;{8362}}
 11
1.000000000000000
 21
0.0000000000000000
 31
0.0000000000000000
  7
STANDARD
  0
MTEXT
  5
3C2
100
AcDbEntity
  8
MA0
  6
CONTINUOUS
 62
4
100
AcDbMText
 10
473.3895633991476
 20
191.7506411830722
 30
0.0000000000000000
 40
4.650000572204590
 41
0.0000000000000000
 71
     1
 72
     1
  1
{\H0.88x;{82}}
 11
1.000000000000000
 21
0.0000000000000000
 31
0.0000000000000000
  7
STANDARD
  0
MTEXT
  5
3C3
100
AcDbEntity
  8
MA0
  6
CONTINUOUS
 62
4
100
AcDbMText
 10
473.3895633991476
 20
201.5006411830722
 30
0.0000000000000000
 40
4.650000572204590
 41
0.0000000000000000
 71
     1
 72
     1
  1
{\H0.88x;{16}}
 11
1.000000000000000
 21
0.0000000000000000
 31
0.0000000000000000
  7
STANDARD
  0
MTEXT
  5
3C4
100
AcDbEntity
  8
MA0
  6
CONTINUOUS
 62
4
100
AcDbMText
 10
473.3895633991476
 20
212.0006411830722
 30
0.0000000000000000
 40
4.650000572204590
 41
0.0000000000000000
 71
     1
 72
     1
  1
{\H0.88x;{35}}
 11
1.000000000000000
 21
0.0000000000000000
 31
0.0000000000000000
  7
STANDARD
  0
INSERT
  5
3C9
100
AcDbEntity
  8
MA0
  6
CONTINUOUS
 62
3
100
AcDbBlockReference
  2
M0
 10
0.0000000000000000
 20
0.0000000000000000
 30
0.0000000000000000
 50
0.0000000000000000
  0
INSERT
  5
405
100
AcDbEntity
  8
MA0
  6
CONTINUOUS
 62
3
100
AcDbBlockReference
  2
M1
 10
0.0000000000000000
 20
0.0000000000000000
 30
0.0000000000000000
 50
0.0000000000000000
  0
INSERT
  5
409
100
AcDbEntity
  8
MA0
  6
CONTINUOUS
 62
3
100
AcDbBlockReference
  2
M2
 10
0.0000000000000000
 20
0.0000000000000000
 30
0.0000000000000000
 50
0.0000000000000000
  0
LINE
  5
40A
100
AcDbEntity
  8
MA0
  6
HIDDEN
 62
12
100
AcDbLine
 10
258.0408379544426
 20
235.8724955686338
 30
0.0000000000000000
 11
258.0408379544426
 21
211.5724955686339
 31
0.0000000000000000
  0
LINE
  5
40B
100
AcDbEntity
  8
MA0
  6
HIDDEN
 62
12
100
AcDbLine
 10
270.0408379544426
 20
235.8724955686338
 30
0.0000000000000000
 11
270.0408379544426
 21
211.5724955686338
 31
0.0000000000000000
  0
LINE
  5
40C
100
AcDbEntity
  8
MA0
  6
HIDDEN
 62
12
100
AcDbLine
 10
258.9408379544425
 20
212.4724955686337
 30
0.0000000000000000
 11
257.3408379544423
 21
210.8724955686338
 31
0.0000000000000000
  0
LINE
  5
40D
100
AcDbEntity
  8
MA0
  6
HIDDEN
 62
12
100
AcDbLine
 10
269.1408379544425
 20
212.4724955686338
 30
0.0000000000000000
 11
270.7408379544423
 21
210.8724955686338
 31
0.0000000000000000
  0
LINE
  5
40E
100
AcDbEntity
  8
MA0
  6
HIDDEN
 62
12
100
AcDbLine
 10
258.9408379544425
 20
241.8724955686338
 30
0.0000000000000000
 11
258.9408379544425
 21
212.4724955686337
 31
0.0000000000000000
  0
LINE
  5
40F
100
AcDbEntity
  8
MA0
  6
HIDDEN
 62
12
100
AcDbLine
 10
269.1408379544426
 20
241.8724955686338
 30
0.0000000000000000
 11
269.1408379544426
 21
212.4724955686338
 31
0.0000000000000000
  0
LINE
  5
410
100
AcDbEntity
  8
MA0
  6
HIDDEN
 62
12
100
AcDbLine
 10
258.0408379544427
 20
235.8724955686338
 30
0.0000000000000000
 11
270.0408379544427
 21
235.8724955686338
 31
0.0000000000000000
  0
LINE
  5
411
100
AcDbEntity
  8
MA0
  6
HIDDEN
 62
12
100
AcDbLine
 10
258.9408379544425
 20
241.8724955686338
 30
0.0000000000000000
 11
269.1408379544426
 21
241.8724955686338
 31
0.0000000000000000
  0
LINE
  5
412
100
AcDbEntity
  8
MA0
  6
HIDDEN
 62
12
100
AcDbLine
 10
264.0408379544427
 20
244.8169819415009
 30
0.0000000000000000
 11
258.9408379544425
 21
241.8724955686339
 31
0.0000000000000000
  0
LINE
  5
413
100
AcDbEntity
  8
MA0
  6
HIDDEN
 62
12
100
AcDbLine
 10
264.0408379544426
 20
244.8169819415010
 30
0.0000000000000000
 11
269.1408379544425
 21
241.8724955686338
 31
0.0000000000000000
  0
LINE
  5
414
100
AcDbEntity
  8
MA0
  6
HIDDEN
 62
12
100
AcDbLine
 10
258.9408379544426
 20
212.4724955686337
 30
0.0000000000000000
 11
269.1408379544425
 21
212.4724955686338
 31
0.0000000000000000
  0
LINE
  5
415
100
AcDbEntity
  8
MA0
  6
CONTINUOUS
 62
3
100
AcDbLine
 10
314.5408379544423
 20
320.8724955686338
 30
0.0000000000000000
 11
302.5408379544424
 21
320.8724955686338
 31
0.0000000000000000
  0
LINE
  5
416
100
AcDbEntity
  8
MA0
  6
CONTINUOUS
 62
3
100
AcDbLine
 10
314.5408379544423
 20
326.8724955686336
 30
0.0000000000000000
 11
302.5408379544425
 21
326.8724955686336
 31
0.0000000000000000
  0
LINE
  5
417
100
AcDbEntity
  8
MA0
  6
CONTINUOUS
 62
3
100
AcDbLine
 10
318.7408379544424
 20
321.8724955686333
 30
0.0000000000000000
 11
318.7408379544424
 21
325.8724955686342
 31
0.0000000000000000
  0
LINE
  5
418
100
AcDbEntity
  8
MA0
  6
CONTINUOUS
 62
3
100
AcDbLine
 10
302.5408379544424
 20
320.8724955686338
 30
0.0000000000000000
 11
302.5408379544424
 21
326.8724955686336
 31
0.0000000000000000
  0
LINE
  5
419
100
AcDbEntity
  8
MA0
  6
CONTINUOUS
 62
12
100
AcDbLine
 10
302.5408379544425
 20
321.8724955686338
 30
0.0000000000000000
 11
314.5408379544423
 21
321.8724955686338
 31
0.0000000000000000
  0
LINE
  5
41A
100
AcDbEntity
  8
MA0
  6
CONTINUOUS
 62
12
100
AcDbLine
 10
302.5408379544425
 20
325.8724955686336
 30
0.0000000000000000
 11
314.5408379544423
 21
325.8724955686336
 31
0.0000000000000000
  0
ARC
  5
41B
100
AcDbEntity
  8
MA0
  6
CONTINUOUS
 62
3
100
AcDbCircle
 10
313.8357784306328
 20
323.8724955686338
 30
0.0000000000000000
 40
5.297132142217585
100
AcDbArc
 50
277.6488890354127
 51
337.8172021529632
  0
ARC
  5
41C
100
AcDbEntity
  8
MA0
  6
CONTINUOUS
 62
3
100
AcDbCircle
 10
313.8357784306328
 20
323.8724955686338
 30
0.0000000000000000
 40
5.297132142217585
100
AcDbArc
 50
22.18279784703669
 51
82.35111096458650
  0
LINE
  5
41D
100
AcDbEntity
  8
MA0
  6
CONTINUOUS
 62
3
100
AcDbLine
 10
210.5408379544425
 20
362.3724955686338
 30
0.0000000000000000
 11
210.5408379544425
 21
371.1224955686340
 31
0.0000000000000000
  0
LINE
  5
41E
100
AcDbEntity
  8
MA0
  6
CONTINUOUS
 62
3
100
AcDbLine
 10
216.5408379544425
 20
362.3724955686338
 30
0.0000000000000000
 11
216.5408379544425
 21
371.1224955686340
 31
0.0000000000000000
  0
LINE
  5
41F
100
AcDbEntity
  8
MA0
  6
CONTINUOUS
 62
12
100
AcDbLine
 10
211.0823379544425
 20
362.3724955686338
 30
0.0000000000000000
 11
211.0823379544425
 21
371.1224955686340
 31
0.0000000000000000
  0
LINE
  5
420
100
AcDbEntity
  8
MA0
  6
CONTINUOUS
 62
12
100
AcDbLine
 10
215.9993379544425
 20
362.3724955686338
 30
0.0000000000000000
 11
215.9993379544425
 21
371.1224955686340
 31
0.0000000000000000
  0
LINE
  5
421
100
AcDbEntity
  8
MA0
  6
CONTINUOUS
 62
12
100
AcDbLine
 10
212.0408379544426
 20
371.3724955686339
 30
0.0000000000000000
 11
215.0408379544424
 21
371.3724955686339
 31
0.0000000000000000
  0
LINE
  5
422
100
AcDbEntity
  8
MA0
  6
CONTINUOUS
 62
3
100
AcDbLine
 10
211.4068633582268
 20
363.3724955686337
 30
0.0000000000000000
 11
215.6748125506582
 21
363.3724955686337
 31
0.0000000000000000
  0
LINE
  5
423
100
AcDbEntity
  8
MA0
  6
CONTINUOUS
 62
3
100
AcDbLine
 10
210.5408379544425
 20
369.8724955686338
 30
0.0000000000000000
 11
216.5408379544424
 21
369.8724955686338
 31
0.0000000000000000
  0
LINE
  5
424
100
AcDbEntity
  8
MA0
  6
CONTINUOUS
 62
3
100
AcDbLine
 10
210.5408379544425
 20
363.8724955686337
 30
0.0000000000000000
 11
216.5408379544426
 21
363.8724955686337
 31
0.0000000000000000
  0
LINE
  5
425
100
AcDbEntity
  8
MA0
  6
CONTINUOUS
 62
3
100
AcDbLine
 10
210.5408379544426
 20
369.8724955686337
 30
0.0000000000000000
 11
212.0408379544426
 21
371.3724955686337
 31
0.0000000000000000
  0
LINE
  5
426
100
AcDbEntity
  8
MA0
  6
CONTINUOUS
 62
3
100
AcDbLine
 10
215.0408379544425
 20
371.3724955686337
 30
0.0000000000000000
 11
216.5408379544426
 21
369.8724955686336
 31
0.0000000000000000
  0
LINE
  5
427
100
AcDbEntity
  8
MA0
  6
CONTINUOUS
 62
3
100
AcDbLine
 10
211.4068633582269
 20
363.3724955686337
 30
0.0000000000000000
 11
210.5408379544425
 21
363.8724955686336
 31
0.0000000000000000
  0
LINE
  5
428
100
AcDbEntity
  8
MA0
  6
CONTINUOUS
 62
3
100
AcDbLine
 10
216.5408379544426
 20
363.8724955686334
 30
0.0000000000000000
 11
215.6748125506584
 21
363.3724955686336
 31
0.0000000000000000
  0
CIRCLE
  5
429
100
AcDbEntity
  8
MA0
  6
CONTINUOUS
 62
12
100
AcDbCircle
 10
547.6309906186600
 20
340.6224955686341
 30
0.0000000000000000
 40
9.999999999999998
  0
CIRCLE
  5
42A
100
AcDbEntity
  8
MA0
  6
CONTINUOUS
 62
3
100
AcDbCircle
 10
547.6309906186600
 20
340.6224955686341
 30
0.0000000000000000
 40
8.749999999999996
  0
LINE
  5
42B
100
AcDbEntity
  8
MA0
  6
CONTINUOUS
 62
3
100
AcDbLine
 10
153.0408379544424
 20
373.8724955686340
 30
0.0000000000000000
 11
153.0408379544424
 21
387.3724955686338
 31
0.0000000000000000
  0
LINE
  5
42C
100
AcDbEntity
  8
MA0
  6
CONTINUOUS
 62
3
100
AcDbLine
 10
161.0408379544424
 20
373.8724955686340
 30
0.0000000000000000
 11
161.0408379544424
 21
387.3724955686338
 31
0.0000000000000000
  0
LINE
  5
42D
100
AcDbEntity
  8
MA0
  6
CONTINUOUS
 62
12
100
AcDbLine
 10
153.7173379544424
 20
373.8724955686340
 30
0.0000000000000000
 11
153.7173379544424
 21
387.3724955686338
 31
0.0000000000000000
  0
LINE
  5
42E
100
AcDbEntity
  8
MA0
  6
CONTINUOUS
 62
12
100
AcDbLine
 10
160.3643379544424
 20
373.8724955686340
 30
0.0000000000000000
 11
160.3643379544424
 21
387.3724955686338
 31
0.0000000000000000
  0
LINE
  5
42F
100
AcDbEntity
  8
MA0
  6
CONTINUOUS
 62
3
100
AcDbLine
 10
154.5408379544425
 20
386.3724955686338
 30
0.0000000000000000
 11
159.5408379544423
 21
386.3724955686337
 31
0.0000000000000000
  0
LINE
  5
430
100
AcDbEntity
  8
MA0
  6
CONTINUOUS
 62
3
100
AcDbLine
 10
154.0800684389837
 20
374.3724955686338
 30
0.0000000000000000
 11
160.0016074699011
 21
374.3724955686338
 31
0.0000000000000000
  0
LINE
  5
431
100
AcDbEntity
  8
MA0
  6
CONTINUOUS
 62
3
100
AcDbLine
 10
161.0408379544424
 20
384.8724955686338
 30
0.0000000000000000
 11
153.0408379544425
 21
384.8724955686338
 31
0.0000000000000000
  0
LINE
  5
432
100
AcDbEntity
  8
MA0
  6
CONTINUOUS
 62
3
100
AcDbLine
 10
153.0408379544424
 20
374.9724955686338
 30
0.0000000000000000
 11
161.0408379544425
 21
374.9724955686338
 31
0.0000000000000000
  0
LINE
  5
433
100
AcDbEntity
  8
MA0
  6
CONTINUOUS
 62
3
100
AcDbLine
 10
153.0408379544425
 20
384.8724955686337
 30
0.0000000000000000
 11
154.5408379544426
 21
386.3724955686337
 31
0.0000000000000000
  0
LINE
  5
434
100
AcDbEntity
  8
MA0
  6
CONTINUOUS
 62
3
100
AcDbLine
 10
159.5408379544424
 20
386.3724955686338
 30
0.0000000000000000
 11
161.0408379544425
 21
384.8724955686337
 31
0.0000000000000000
  0
LINE
  5
435
100
AcDbEntity
  8
MA0
  6
CONTINUOUS
 62
3
100
AcDbLine
 10
154.0800684389837
 20
374.3724955686337
 30
0.0000000000000000
 11
153.0408379544424
 21
374.9724955686337
 31
0.0000000000000000
  0
LINE
  5
436
100
AcDbEntity
  8
MA0
  6
CONTINUOUS
 62
3
100
AcDbLine
 10
161.0408379544425
 20
374.9724955686336
 30
0.0000000000000000
 11
160.0016074699012
 21
374.3724955686337
 31
0.0000000000000000
  0
ENDSEC
  0
SECTION
  2
OBJECTS
  0
DICTIONARY
  5
480
100
AcDbDictionary
  3
ACAD_GROUP
350
481
  3
ACAD_MLINESTYLE
350
482
  0
DICTIONARY
  5
481
102
{ACAD_REACTORS
330
480
102
}
100
AcDbDictionary
  0
DICTIONARY
  5
482
102
{ACAD_REACTORS
330
480
102
}
100
AcDbDictionary
  3
STANDARD
350
483
  0
MLINESTYLE
  5
483
102
{ACAD_REACTORS
330
482
102
}
100
AcDbMlineStyle
  2
STANDARD
 70
     0
  3

 62
   256
 51
90.00
 52
90.00
 71
     2
 49
0.50
 62
   256
  6
BYLAYER
 49
-0.50
 62
   256
  6
BYLAYER
  0
ENDSEC
  0
EOF
