  0
SECTION
  2
HEADER
  9
$ACADVER
  1
AC1014
  9
$DWGCODEPAGE
  3
ANSI_932
  9
$LTSCALE
 40
20.0
  9
$FILLMODE
 70
     1
  9
$CLAYER
  8
0
  9
$PDMODE
 70
     0
  9
$SPLFRAME
 70
     0
  9
$SPLINETYPE
 70
     6
  9
$SPLINESEGS
 70
     8
  9
$DIMASZ
 40
2.000000
  9
$DIMEXE
 40
2.000000
  9
$DIMEXO
 40
0.800000
  9
$DIMTAD
 70
     1
  9
$DIMTIH
 70
     0
  9
$DIMTOH
 70
     0
  9
$DIMTVP
 40
0.500000
  9
$DIMTXT
 40
3.100000
  9
$EXTMIN
 10
0.000000
 20
0.000000
 30
0.000000
  9
$EXTMAX
 10
420.000000
 20
594.000000
 30
0.000000
  9
$MEASUREMENT
 70
  1
  9
$LIMMIN
 10
0.000000
 20
0.000000
  9
$LIMMAX
 10
420.000000
 20
594.000000
  9
$HANDLING
 70
     1
  9
$HANDSEED
  5
48A
  9
$DIMBLK
  1
_OPEN
  9
$DIMDEC
 70
     3
  9
$DIMAUNIT
 70
     1
  9
$DIMZIN
 70
     8
  9
$DIMTOFL
 70
     1
  0
ENDSEC
  0
SECTION
  2
CLASSES
  0
ENDSEC
  0
SECTION
  2
TABLES
  0
TABLE
  2
VPORT
  5
439
100
AcDbSymbolTable
 70
     1
  0
VPORT
  5
43A
100
AcDbSymbolTableRecord
100
AcDbViewportTableRecord
  2
*ACTIVE
 70
     0
 12
742.500000
 22
525.000000
 40
1119.948990
 41
1.325953
  0
ENDTAB
  0
TABLE
  2
LTYPE
  5
43B
100
AcDbSymbolTable
 70
     3
  0
LTYPE
  5
43C
100
AcDbSymbolTableRecord
100
AcDbLinetypeTableRecord
  2
BYBLOCK
 70
     0
  3

 72
    65
 73
     0
 40
0.0
  0
LTYPE
  5
43D
100
AcDbSymbolTableRecord
100
AcDbLinetypeTableRecord
  2
BYLAYER
 70
     0
  3

 72
    65
 73
     0
 40
0.0
  0
LTYPE
  5
43E
100
AcDbSymbolTableRecord
100
AcDbLinetypeTableRecord
  2
CONTINUOUS
 70
     0
  3
Solid line (NEC CAE2D for Win R12.1 : 2014.02.18)
 72
    65
 73
     0
 40
0.0
  0
LTYPE
  5
43F
100
AcDbSymbolTableRecord
100
AcDbLinetypeTableRecord
  2
HIDDEN
 70
     0
  3
__ __ __ __ __ __ __ __ __ __ __ __ __ __
 72
    65
 73
     2
 40
0.375
 49
0.25
 74
     0
 49
-0.125
 74
     0
  0
LTYPE
  5
440
100
AcDbSymbolTableRecord
100
AcDbLinetypeTableRecord
  2
CENTER
 70
     0
  3
____ _ ____ _ ____ _ ____ _ ____ _ ____
 72
    65
 73
     4
 40
2.0
 49
1.25
 74
     0
 49
-0.25
 74
     0
 49
0.25
 74
     0
 49
-0.25
 74
     0
  0
ENDTAB
  0
TABLE
  2
LAYER
  5
441
100
AcDbSymbolTable
 70
    12
  0
LAYER
  5
442
100
AcDbSymbolTableRecord
100
AcDbLayerTableRecord
  2
0
 70
     0
 62
     7
  6
CONTINUOUS
  0
LAYER
  5
443
100
AcDbSymbolTableRecord
100
AcDbLayerTableRecord
  2
MAIN0
 70
     0
 62
     7
  6
CONTINUOUS
  0
LAYER
  5
444
100
AcDbSymbolTableRecord
100
AcDbLayerTableRecord
  2
MAIN1
 70
     0
 62
     7
  6
CONTINUOUS
  0
LAYER
  5
445
100
AcDbSymbolTableRecord
100
AcDbLayerTableRecord
  2
MAIN2
 70
     0
 62
     7
  6
CONTINUOUS
  0
LAYER
  5
446
100
AcDbSymbolTableRecord
100
AcDbLayerTableRecord
  2
MAIN3
 70
     0
 62
     7
  6
CONTINUOUS
  0
LAYER
  5
447
100
AcDbSymbolTableRecord
100
AcDbLayerTableRecord
  2
MAIN4
 70
     0
 62
     7
  6
CONTINUOUS
  0
LAYER
  5
448
100
AcDbSymbolTableRecord
100
AcDbLayerTableRecord
  2
MAIN5
 70
     0
 62
     7
  6
CONTINUOUS
  0
LAYER
  5
449
100
AcDbSymbolTableRecord
100
AcDbLayerTableRecord
  2
MAIN6
 70
     0
 62
     7
  6
CONTINUOUS
  0
LAYER
  5
44A
100
AcDbSymbolTableRecord
100
AcDbLayerTableRecord
  2
MAIN10
 70
     0
 62
     7
  6
CONTINUOUS
  0
LAYER
  5
44B
100
AcDbSymbolTableRecord
100
AcDbLayerTableRecord
  2
MAIN1023
 70
     0
 62
    16
  6
CONTINUOUS
  0
LAYER
  5
44C
100
AcDbSymbolTableRecord
100
AcDbLayerTableRecord
  2
WAKU0
 70
     0
 62
     7
  6
CONTINUOUS
  0
LAYER
  5
44D
100
AcDbSymbolTableRecord
100
AcDbLayerTableRecord
  2
WAKU1023
 70
     0
 62
    16
  6
CONTINUOUS
  0
ENDTAB
  0
TABLE
  2
STYLE
  5
44E
100
AcDbSymbolTable
 70
     4
  0
STYLE
  5
44F
100
AcDbSymbolTableRecord
100
AcDbTextStyleTableRecord
  2
STANDARD
 70
    64
 40
0.0
 41
1.0
 50
0.0
 71
     0
 42
3.099999904632568
  3
TXT
  4

  0
STYLE
  5
450
100
AcDbSymbolTableRecord
100
AcDbTextStyleTableRecord
  2
ANKTATE
 70
    68
 40
0.0
 41
1.0
 50
0.0
 71
     0
 42
3.099999904632568
  3
TXT
  4

  0
STYLE
  5
DD
100
AcDbSymbolTableRecord
100
AcDbTextStyleTableRecord
  2
KNJYOKO
 70
    64
 40
0.0
 41
1.0
 50
0.0
 71
     0
 42
3.099999904632568
  3
TXT
  4
BIGFONT
  0
STYLE
  5
451
100
AcDbSymbolTableRecord
100
AcDbTextStyleTableRecord
  2
KNJTATE
 70
    68
 40
0.0
 41
1.0
 50
0.0
 71
     0
 42
3.099999904632568
  3
TXT
  4
BIGFONT
  0
ENDTAB
  0
TABLE
  2
VIEW
  5
452
100
AcDbSymbolTable
 70
     0
  0
ENDTAB
  0
TABLE
  2
UCS
  5
453
100
AcDbSymbolTable
 70
     0
  0
ENDTAB
  0
TABLE
  2
APPID
  5
454
100
AcDbSymbolTable
 70
     1
  0
APPID
  5
455
100
AcDbSymbolTableRecord
100
AcDbRegAppTableRecord
  2
ACAD
 70
     0
  0
ENDTAB
  0
TABLE
  2
DIMSTYLE
  5
456
100
AcDbSymbolTable
 70
     1
  0
DIMSTYLE
105
457
100
AcDbSymbolTableRecord
100
AcDbDimStyleTableRecord
  2
STANDARD
 70
     0
 41
2.000000
 44
2.000000
 42
0.800000
145
0.661290
140
3.100000
144
1.000000
146
0.903226
340
44F
  0
DIMSTYLE
105
458
100
AcDbSymbolTableRecord
100
AcDbDimStyleTableRecord
  2
MAIN001
 70
     0
 41
5.000000
 44
5.000000
 42
2.000000
145
0.564516
140
7.750000
144
1.000000
146
0.903226
 77
     1
 73
     0
 74
     0
271
     3
275
     1
 78
     8
172
     1
340
44F
  0
DIMSTYLE
105
459
100
AcDbSymbolTableRecord
100
AcDbDimStyleTableRecord
  2
WAKU002
 70
     0
 41
2.000000
 44
2.000000
 42
0.800000
145
0.661290
140
3.100000
144
1.000000
146
0.903226
 77
     1
 73
     0
 74
     0
271
     3
275
     1
 78
     8
172
     1
340
44F
  0
ENDTAB
  0
TABLE
  2
BLOCK_RECORD
  5
45A
100
AcDbSymbolTable
 70
    49
  0
BLOCK_RECORD
  5
45B
100
AcDbSymbolTableRecord
100
AcDbBlockTableRecord
  2
*MODEL_SPACE
  0
BLOCK_RECORD
  5
45C
100
AcDbSymbolTableRecord
100
AcDbBlockTableRecord
  2
*PAPER_SPACE
  0
BLOCK_RECORD
  5
1
100
AcDbSymbolTableRecord
100
AcDbBlockTableRecord
  2
_NONE
  0
BLOCK_RECORD
  5
4
100
AcDbSymbolTableRecord
100
AcDbBlockTableRecord
  2
_CLOSED
  0
BLOCK_RECORD
  5
B
100
AcDbSymbolTableRecord
100
AcDbBlockTableRecord
  2
_DOT
  0
BLOCK_RECORD
  5
13
100
AcDbSymbolTableRecord
100
AcDbBlockTableRecord
  2
_OPEN
  0
BLOCK_RECORD
  5
19
100
AcDbSymbolTableRecord
100
AcDbBlockTableRecord
  2
_ORIGIN
  0
BLOCK_RECORD
  5
1E
100
AcDbSymbolTableRecord
100
AcDbBlockTableRecord
  2
_OPEN30
  0
BLOCK_RECORD
  5
24
100
AcDbSymbolTableRecord
100
AcDbBlockTableRecord
  2
_BOXFILLED
  0
BLOCK_RECORD
  5
29
100
AcDbSymbolTableRecord
100
AcDbBlockTableRecord
  2
_BOXBLANK
  0
BLOCK_RECORD
  5
31
100
AcDbSymbolTableRecord
100
AcDbBlockTableRecord
  2
_OBLIQUE
  0
BLOCK_RECORD
  5
35
100
AcDbSymbolTableRecord
100
AcDbBlockTableRecord
  2
_OPEN90
  0
BLOCK_RECORD
  5
3B
100
AcDbSymbolTableRecord
100
AcDbBlockTableRecord
  2
_CLOSEDBLANK
  0
BLOCK_RECORD
  5
41
100
AcDbSymbolTableRecord
100
AcDbBlockTableRecord
  2
_DOTBLANK
  0
BLOCK_RECORD
  5
45D
100
AcDbSymbolTableRecord
100
AcDbBlockTableRecord
  2
*D0
  0
BLOCK_RECORD
  5
45E
100
AcDbSymbolTableRecord
100
AcDbBlockTableRecord
  2
*D1
  0
BLOCK_RECORD
  5
45F
100
AcDbSymbolTableRecord
100
AcDbBlockTableRecord
  2
*D2
  0
BLOCK_RECORD
  5
460
100
AcDbSymbolTableRecord
100
AcDbBlockTableRecord
  2
*D3
  0
BLOCK_RECORD
  5
461
100
AcDbSymbolTableRecord
100
AcDbBlockTableRecord
  2
*D4
  0
BLOCK_RECORD
  5
462
100
AcDbSymbolTableRecord
100
AcDbBlockTableRecord
  2
*D5
  0
BLOCK_RECORD
  5
463
100
AcDbSymbolTableRecord
100
AcDbBlockTableRecord
  2
*D6
  0
BLOCK_RECORD
  5
464
100
AcDbSymbolTableRecord
100
AcDbBlockTableRecord
  2
*D7
  0
BLOCK_RECORD
  5
465
100
AcDbSymbolTableRecord
100
AcDbBlockTableRecord
  2
*D8
  0
BLOCK_RECORD
  5
466
100
AcDbSymbolTableRecord
100
AcDbBlockTableRecord
  2
*D9
  0
BLOCK_RECORD
  5
467
100
AcDbSymbolTableRecord
100
AcDbBlockTableRecord
  2
*D10
  0
BLOCK_RECORD
  5
468
100
AcDbSymbolTableRecord
100
AcDbBlockTableRecord
  2
*D11
  0
BLOCK_RECORD
  5
469
100
AcDbSymbolTableRecord
100
AcDbBlockTableRecord
  2
*D12
  0
BLOCK_RECORD
  5
46A
100
AcDbSymbolTableRecord
100
AcDbBlockTableRecord
  2
*D13
  0
BLOCK_RECORD
  5
46B
100
AcDbSymbolTableRecord
100
AcDbBlockTableRecord
  2
*D14
  0
BLOCK_RECORD
  5
46C
100
AcDbSymbolTableRecord
100
AcDbBlockTableRecord
  2
*D15
  0
BLOCK_RECORD
  5
46D
100
AcDbSymbolTableRecord
100
AcDbBlockTableRecord
  2
*D16
  0
BLOCK_RECORD
  5
46E
100
AcDbSymbolTableRecord
100
AcDbBlockTableRecord
  2
*D17
  0
BLOCK_RECORD
  5
46F
100
AcDbSymbolTableRecord
100
AcDbBlockTableRecord
  2
*D18
  0
BLOCK_RECORD
  5
470
100
AcDbSymbolTableRecord
100
AcDbBlockTableRecord
  2
*D19
  0
BLOCK_RECORD
  5
471
100
AcDbSymbolTableRecord
100
AcDbBlockTableRecord
  2
*D20
  0
BLOCK_RECORD
  5
472
100
AcDbSymbolTableRecord
100
AcDbBlockTableRecord
  2
*D21
  0
BLOCK_RECORD
  5
473
100
AcDbSymbolTableRecord
100
AcDbBlockTableRecord
  2
*D22
  0
BLOCK_RECORD
  5
474
100
AcDbSymbolTableRecord
100
AcDbBlockTableRecord
  2
*D23
  0
BLOCK_RECORD
  5
475
100
AcDbSymbolTableRecord
100
AcDbBlockTableRecord
  2
*D24
  0
BLOCK_RECORD
  5
476
100
AcDbSymbolTableRecord
100
AcDbBlockTableRecord
  2
*D25
  0
BLOCK_RECORD
  5
477
100
AcDbSymbolTableRecord
100
AcDbBlockTableRecord
  2
*D26
  0
BLOCK_RECORD
  5
478
100
AcDbSymbolTableRecord
100
AcDbBlockTableRecord
  2
*D27
  0
BLOCK_RECORD
  5
479
100
AcDbSymbolTableRecord
100
AcDbBlockTableRecord
  2
*D28
  0
BLOCK_RECORD
  5
47A
100
AcDbSymbolTableRecord
100
AcDbBlockTableRecord
  2
*D29
  0
BLOCK_RECORD
  5
47B
100
AcDbSymbolTableRecord
100
AcDbBlockTableRecord
  2
*D30
  0
BLOCK_RECORD
  5
47C
100
AcDbSymbolTableRecord
100
AcDbBlockTableRecord
  2
*D31
  0
BLOCK_RECORD
  5
47D
100
AcDbSymbolTableRecord
100
AcDbBlockTableRecord
  2
*D32
  0
BLOCK_RECORD
  5
47E
100
AcDbSymbolTableRecord
100
AcDbBlockTableRecord
  2
*D33
  0
BLOCK_RECORD
  5
47F
100
AcDbSymbolTableRecord
100
AcDbBlockTableRecord
  2
M0
  0
BLOCK_RECORD
  5
480
100
AcDbSymbolTableRecord
100
AcDbBlockTableRecord
  2
M1
  0
BLOCK_RECORD
  5
481
100
AcDbSymbolTableRecord
100
AcDbBlockTableRecord
  2
M2
  0
ENDTAB
  0
ENDSEC
  0
SECTION
  2
BLOCKS
  0
BLOCK
  5
482
100
AcDbEntity
  8
0
100
AcDbBlockBegin
  2
*MODEL_SPACE
 70
     0
 10
0.0
 20
0.0
 30
0.0
  3
*MODEL_SPACE
  1

  0
ENDBLK
  5
483
100
AcDbEntity
  8
0
100
AcDbBlockEnd
  0
BLOCK
  5
484
100
AcDbEntity
  8
0
100
AcDbBlockBegin
  2
*PAPER_SPACE
 70
     0
 10
0.0
 20
0.0
 30
0.0
  3
*PAPER_SPACE
  1

  0
ENDBLK
  5
485
100
AcDbEntity
  8
0
100
AcDbBlockEnd
  0
BLOCK
  5
2
100
AcDbEntity
  8
0
100
AcDbBlockBegin
  2
_NONE
 70
     0
 10
0.0
 20
0.0
 30
0.0
  3
_NONE
  1

  0
ENDBLK
  5
3
100
AcDbEntity
  8
0
100
AcDbBlockEnd
  0
BLOCK
  5
5
100
AcDbEntity
  8
0
100
AcDbBlockBegin
  2
_CLOSED
 70
     0
 10
0.0
 20
0.0
 30
0.0
  3
_CLOSED
  1

  0
LINE
  5
6
100
AcDbEntity
  8
0
  6
BYBLOCK
 62
     0
100
AcDbLine
 10
-1.0
 20
0.166667
 30
0.0
 11
0.0
 21
0.0
 31
0.0
  0
LINE
  5
7
100
AcDbEntity
  8
0
  6
BYBLOCK
 62
     0
100
AcDbLine
 10
0.0
 20
0.0
 30
0.0
 11
-1.0
 21
-0.166667
 31
0.0
  0
LINE
  5
8
100
AcDbEntity
  8
0
  6
BYBLOCK
 62
     0
100
AcDbLine
 10
-1.0
 20
0.166667
 30
0.0
 11
-1.0
 21
-0.166667
 31
0.0
  0
LINE
  5
9
100
AcDbEntity
  8
0
  6
BYBLOCK
 62
     0
100
AcDbLine
 10
0.0
 20
0.0
 30
0.0
 11
-1.0
 21
0.0
 31
0.0
  0
ENDBLK
  5
A
100
AcDbEntity
  8
0
100
AcDbBlockEnd
  0
BLOCK
  5
C
100
AcDbEntity
  8
0
100
AcDbBlockBegin
  2
_DOT
 70
     0
 10
0.0
 20
0.0
 30
0.0
  3
_DOT
  1

  0
POLYLINE
  5
D
100
AcDbEntity
  8
0
  6
BYBLOCK
 62
     0
100
AcDb2dPolyline
 66
     1
 10
0.0
 20
0.0
 30
0.0
 70
     1
 40
0.5
 41
0.5
  0
VERTEX
  5
E
100
AcDbEntity
  8
0
  6
BYBLOCK
 62
     0
100
AcDbVertex
100
AcDb2dVertex
 10
-0.25
 20
0.0
 30
0.0
 42
1.0
  0
VERTEX
  5
F
100
AcDbEntity
  8
0
  6
BYBLOCK
 62
     0
100
AcDbVertex
100
AcDb2dVertex
 10
0.25
 20
0.0
 30
0.0
 42
1.0
  0
SEQEND
  5
10
100
AcDbEntity
  8
0
  6
BYBLOCK
 62
     0
  0
LINE
  5
11
100
AcDbEntity
  8
0
  6
BYBLOCK
 62
     0
100
AcDbLine
 10
-0.5
 20
0.0
 30
0.0
 11
-1.0
 21
0.0
 31
0.0
  0
ENDBLK
  5
12
100
AcDbEntity
  8
0
100
AcDbBlockEnd
  0
BLOCK
  5
14
100
AcDbEntity
  8
0
100
AcDbBlockBegin
  2
_OPEN
 70
     0
 10
0.0
 20
0.0
 30
0.0
  3
_OPEN
  1

  0
LINE
  5
15
100
AcDbEntity
  8
0
  6
BYBLOCK
 62
     0
100
AcDbLine
 10
-1.0
 20
0.166667
 30
0.0
 11
0.0
 21
0.0
 31
0.0
  0
LINE
  5
16
100
AcDbEntity
  8
0
  6
BYBLOCK
 62
     0
100
AcDbLine
 10
0.0
 20
0.0
 30
0.0
 11
-1.0
 21
-0.166667
 31
0.0
  0
LINE
  5
17
100
AcDbEntity
  8
0
  6
BYBLOCK
 62
     0
100
AcDbLine
 10
0.0
 20
0.0
 30
0.0
 11
-1.0
 21
0.0
 31
0.0
  0
ENDBLK
  5
18
100
AcDbEntity
  8
0
100
AcDbBlockEnd
  0
BLOCK
  5
1A
100
AcDbEntity
  8
0
100
AcDbBlockBegin
  2
_ORIGIN
 70
     0
 10
0.0
 20
0.0
 30
0.0
  3
_ORIGIN
  1

  0
CIRCLE
  5
1B
100
AcDbEntity
  8
0
  6
BYBLOCK
 62
     0
100
AcDbCircle
 10
0.0
 20
0.0
 30
0.0
 40
0.5
  0
LINE
  5
1C
100
AcDbEntity
  8
0
  6
BYBLOCK
 62
     0
100
AcDbLine
 10
0.0
 20
0.0
 30
0.0
 11
-1.0
 21
0.0
 31
0.0
  0
ENDBLK
  5
1D
100
AcDbEntity
  8
0
100
AcDbBlockEnd
  0
BLOCK
  5
1F
100
AcDbEntity
  8
0
100
AcDbBlockBegin
  2
_OPEN30
 70
     0
 10
0.0
 20
0.0
 30
0.0
  3
_OPEN30
  1

  0
LINE
  5
20
100
AcDbEntity
  8
0
  6
BYBLOCK
 62
     0
100
AcDbLine
 10
-1.0
 20
0.267949
 30
0.0
 11
0.0
 21
0.0
 31
0.0
  0
LINE
  5
21
100
AcDbEntity
  8
0
  6
BYBLOCK
 62
     0
100
AcDbLine
 10
0.0
 20
0.0
 30
0.0
 11
-1.0
 21
-0.267949
 31
0.0
  0
LINE
  5
22
100
AcDbEntity
  8
0
  6
BYBLOCK
 62
     0
100
AcDbLine
 10
0.0
 20
0.0
 30
0.0
 11
-1.0
 21
0.0
 31
0.0
  0
ENDBLK
  5
23
100
AcDbEntity
  8
0
100
AcDbBlockEnd
  0
BLOCK
  5
25
100
AcDbEntity
  8
0
100
AcDbBlockBegin
  2
_BOXFILLED
 70
     0
 10
0.0
 20
0.0
 30
0.0
  3
_BOXFILLED
  1

  0
SOLID
  5
26
100
AcDbEntity
  8
0
  6
BYBLOCK
 62
     0
100
AcDbTrace
 10
-0.5
 20
0.5
 30
0.0
 11
0.5
 21
0.5
 31
0.0
 12
-0.5
 22
-0.5
 32
0.0
 13
0.5
 23
-0.5
 33
0.0
  0
LINE
  5
27
100
AcDbEntity
  8
0
  6
BYBLOCK
 62
     0
100
AcDbLine
 10
-0.5
 20
0.0
 30
0.0
 11
-1.0
 21
0.0
 31
0.0
  0
ENDBLK
  5
28
100
AcDbEntity
  8
0
100
AcDbBlockEnd
  0
BLOCK
  5
2A
100
AcDbEntity
  8
0
100
AcDbBlockBegin
  2
_BOXBLANK
 70
     0
 10
0.0
 20
0.0
 30
0.0
  3
_BOXBLANK
  1

  0
LINE
  5
2B
100
AcDbEntity
  8
0
  6
BYBLOCK
 62
     0
100
AcDbLine
 10
-0.5
 20
-0.5
 30
0.0
 11
0.5
 21
-0.5
 31
0.0
  0
LINE
  5
2C
100
AcDbEntity
  8
0
  6
BYBLOCK
 62
     0
100
AcDbLine
 10
0.5
 20
-0.5
 30
0.0
 11
0.5
 21
0.5
 31
0.0
  0
LINE
  5
2D
100
AcDbEntity
  8
0
  6
BYBLOCK
 62
     0
100
AcDbLine
 10
0.5
 20
0.5
 30
0.0
 11
-0.5
 21
0.5
 31
0.0
  0
LINE
  5
2E
100
AcDbEntity
  8
0
  6
BYBLOCK
 62
     0
100
AcDbLine
 10
-0.5
 20
0.5
 30
0.0
 11
-0.5
 21
-0.5
 31
0.0
  0
LINE
  5
2F
100
AcDbEntity
  8
0
  6
BYBLOCK
 62
     0
100
AcDbLine
 10
-0.5
 20
0.0
 30
0.0
 11
-1.0
 21
0.0
 31
0.0
  0
ENDBLK
  5
30
100
AcDbEntity
  8
0
100
AcDbBlockEnd
  0
BLOCK
  5
32
100
AcDbEntity
  8
0
100
AcDbBlockBegin
  2
_OBLIQUE
 70
     0
 10
0.0
 20
0.0
 30
0.0
  3
_OBLIQUE
  1

  0
LINE
  5
33
100
AcDbEntity
  8
0
  6
BYBLOCK
 62
     0
100
AcDbLine
 10
-0.5
 20
-0.5
 30
0.0
 11
0.5
 21
0.5
 31
0.0
  0
ENDBLK
  5
34
100
AcDbEntity
  8
0
100
AcDbBlockEnd
  0
BLOCK
  5
36
100
AcDbEntity
  8
0
100
AcDbBlockBegin
  2
_OPEN90
 70
     0
 10
0.0
 20
0.0
 30
0.0
  3
_OPEN90
  1

  0
LINE
  5
37
100
AcDbEntity
  8
0
  6
BYBLOCK
 62
     0
100
AcDbLine
 10
-0.5
 20
0.5
 30
0.0
 11
0.0
 21
0.0
 31
0.0
  0
LINE
  5
38
100
AcDbEntity
  8
0
  6
BYBLOCK
 62
     0
100
AcDbLine
 10
0.0
 20
0.0
 30
0.0
 11
-0.5
 21
-0.5
 31
0.0
  0
LINE
  5
39
100
AcDbEntity
  8
0
  6
BYBLOCK
 62
     0
100
AcDbLine
 10
0.0
 20
0.0
 30
0.0
 11
-1.0
 21
0.0
 31
0.0
  0
ENDBLK
  5
3A
100
AcDbEntity
  8
0
100
AcDbBlockEnd
  0
BLOCK
  5
3C
100
AcDbEntity
  8
0
100
AcDbBlockBegin
  2
_CLOSEDBLANK
 70
     0
 10
0.0
 20
0.0
 30
0.0
  3
_CLOSEDBLANK
  1

  0
LINE
  5
3D
100
AcDbEntity
  8
0
  6
BYBLOCK
 62
     0
100
AcDbLine
 10
-1.0
 20
0.1666666666666666
 30
0.0
 11
0.0
 21
0.0
 31
0.0
  0
LINE
  5
3E
100
AcDbEntity
  8
0
  6
BYBLOCK
 62
     0
100
AcDbLine
 10
0.0
 20
0.0
 30
0.0
 11
-1.0
 21
-0.1666666666666666
 31
0.0
  0
LINE
  5
3F
100
AcDbEntity
  8
0
  6
BYBLOCK
 62
     0
100
AcDbLine
 10
-1.0
 20
0.1666666666666666
 30
0.0
 11
-1.0
 21
-0.1666666666666666
 31
0.0
  0
ENDBLK
  5
40
100
AcDbEntity
  8
0
100
AcDbBlockEnd
  0
BLOCK
  5
42
100
AcDbEntity
  8
0
100
AcDbBlockBegin
  2
_DOTBLANK
 70
     0
 10
0.0
 20
0.0
 30
0.0
  3
_DOTBLANK
  1

  0
CIRCLE
  5
43
100
AcDbEntity
  8
0
  6
BYBLOCK
 62
     0
100
AcDbCircle
 10
0.0
 20
0.0
 30
0.0
 40
0.5
  0
LINE
  5
44
100
AcDbEntity
  8
0
  6
BYBLOCK
 62
     0
100
AcDbLine
 10
-0.5
 20
0.0
 30
0.0
 11
-1.0
 21
0.0
 31
0.0
  0
ENDBLK
  5
45
100
AcDbEntity
  8
0
100
AcDbBlockEnd
  0
BLOCK
  5
CB
100
AcDbEntity
  8
MAIN10
  6
CONTINUOUS
 62
3
100
AcDbBlockBegin
  2
*D0
 70
    65
 10
0.0
 20
0.0
 30
0.0
  0
LINE
  5
CC
100
AcDbEntity
  8
MAIN10
  6
BYBLOCK
 62
0
100
AcDbLine
 10
356.2882865041762
 20
949.1800219733214
 30
0.0000000000000000
 11
115.2882865339784
 21
949.1800219733214
 31
0.0000000000000000
  0
LINE
  5
CD
100
AcDbEntity
  8
MAIN10
  6
BYBLOCK
 62
0
100
AcDbLine
 10
120.2882865339784
 20
944.1800219733214
 30
0.0000000000000000
 11
120.2882865339784
 21
344.1800219733250
 31
0.0000000000000000
  0
INSERT
  5
CE
100
AcDbEntity
  8
MAIN10
  6
BYBLOCK
 62
0
100
AcDbBlockReference
  2
_OPEN
 10
120.2882865339784
 20
949.1800219733214
 30
0.0000000000000000
 41
5.000000000000000
 42
5.000000000000000
 43
5.000000000000000
 50
90.00000000000000
  0
INSERT
  5
CF
100
AcDbEntity
  8
MAIN10
  6
BYBLOCK
 62
0
100
AcDbBlockReference
  2
_OPEN
 10
120.2882865339784
 20
339.1800219733250
 30
0.0000000000000000
 41
5.000000000000000
 42
5.000000000000000
 43
5.000000000000000
 50
270.0000000000000
  0
LINE
  5
D0
100
AcDbEntity
  8
MAIN10
  6
BYBLOCK
 62
0
100
AcDbLine
 10
356.2882865041761
 20
339.1800219733250
 30
0.0000000000000000
 11
115.2882865339784
 21
339.1800219733250
 31
0.0000000000000000
  0
MTEXT
  5
D1
100
AcDbEntity
  8
MAIN10
  6
BYBLOCK
 62
0
100
AcDbMText
 10
115.9132866531877
 20
644.1800219733232
 30
0.0000000000000000
 40
7.749999761581421
 41
0.0000000000000000
 71
     5
 72
     1
  1
\A1;\U+2205610
 11
6.123233995736766e-017
 21
1.000000000000000
 31
0.0000000000000000
  7
STANDARD
  0
ENDBLK
  5
D2
100
AcDbEntity
  8
MAIN10
  6
CONTINUOUS
 62
3
100
AcDbBlockEnd
  0
BLOCK
  5
D4
100
AcDbEntity
  8
MAIN10
  6
CONTINUOUS
 62
3
100
AcDbBlockBegin
  2
*D1
 70
    65
 10
0.0
 20
0.0
 30
0.0
  0
LINE
  5
D5
100
AcDbEntity
  8
MAIN10
  6
BYBLOCK
 62
0
100
AcDbLine
 10
353.2882865041761
 20
834.1800219733249
 30
0.0000000000000000
 11
155.2882865339784
 21
834.1800219733249
 31
0.0000000000000000
  0
LINE
  5
D6
100
AcDbEntity
  8
MAIN10
  6
BYBLOCK
 62
0
100
AcDbLine
 10
160.2882865339784
 20
829.1800219733249
 30
0.0000000000000000
 11
160.2882865339784
 21
459.1800219733250
 31
0.0000000000000000
  0
INSERT
  5
D7
100
AcDbEntity
  8
MAIN10
  6
BYBLOCK
 62
0
100
AcDbBlockReference
  2
_OPEN
 10
160.2882865339784
 20
834.1800219733249
 30
0.0000000000000000
 41
5.000000000000000
 42
5.000000000000000
 43
5.000000000000000
 50
90.00000000000000
  0
INSERT
  5
D8
100
AcDbEntity
  8
MAIN10
  6
BYBLOCK
 62
0
100
AcDbBlockReference
  2
_OPEN
 10
160.2882865339784
 20
454.1800219733250
 30
0.0000000000000000
 41
5.000000000000000
 42
5.000000000000000
 43
5.000000000000000
 50
270.0000000000000
  0
LINE
  5
D9
100
AcDbEntity
  8
MAIN10
  6
BYBLOCK
 62
0
100
AcDbLine
 10
353.2882865041760
 20
454.1800219733250
 30
0.0000000000000000
 11
155.2882865339784
 21
454.1800219733250
 31
0.0000000000000000
  0
MTEXT
  5
DA
100
AcDbEntity
  8
MAIN10
  6
BYBLOCK
 62
0
100
AcDbMText
 10
155.9132866531877
 20
644.1800219546985
 30
0.0000000000000000
 40
7.749999761581421
 41
0.0000000000000000
 71
     5
 72
     1
  1
\A1;\U+2205380H6\H0.903226x;\S＋0.036^ 　0;
 11
6.123233995736766e-017
 21
1.000000000000000
 31
0.0000000000000000
  7
KNJYOKO
  0
ENDBLK
  5
DB
100
AcDbEntity
  8
MAIN10
  6
CONTINUOUS
 62
3
100
AcDbBlockEnd
  0
BLOCK
  5
DE
100
AcDbEntity
  8
MAIN10
  6
CONTINUOUS
 62
3
100
AcDbBlockBegin
  2
*D2
 70
    65
 10
0.0
 20
0.0
 30
0.0
  0
LINE
  5
DF
100
AcDbEntity
  8
MAIN10
  6
BYBLOCK
 62
0
100
AcDbLine
 10
356.2882865339784
 20
734.1800219733250
 30
0.0000000000000000
 11
304.2882865339784
 21
734.1800219733250
 31
0.0000000000000000
  0
INSERT
  5
E0
100
AcDbEntity
  8
MAIN10
  6
BYBLOCK
 62
0
100
AcDbBlockReference
  2
_OPEN
 10
361.2882865339784
 20
734.1800219733250
 30
0.0000000000000000
 41
5.000000000000000
 42
5.000000000000000
 43
5.000000000000000
 50
360.0000000000000
  0
INSERT
  5
E1
100
AcDbEntity
  8
MAIN10
  6
BYBLOCK
 62
0
100
AcDbBlockReference
  2
_OPEN
 10
299.2882865339784
 20
734.1800219733250
 30
0.0000000000000000
 41
5.000000000000000
 42
5.000000000000000
 43
5.000000000000000
 50
180.0000000000000
  0
LINE
  5
E2
100
AcDbEntity
  8
MAIN10
  6
BYBLOCK
 62
0
100
AcDbLine
 10
299.2882865339784
 20
671.6800220031273
 30
0.0000000000000000
 11
299.2882865339784
 21
739.1800219733250
 31
0.0000000000000000
  0
MTEXT
  5
E3
100
AcDbEntity
  8
MAIN10
  6
BYBLOCK
 62
0
100
AcDbMText
 10
330.2882865339784
 20
738.5550218541157
 30
0.0000000000000000
 40
7.749999761581421
 41
0.0000000000000000
 71
     5
 72
     1
  1
\A1;MIN 62
 11
1.000000000000000
 21
0.0000000000000000
 31
0.0000000000000000
  7
STANDARD
  0
ENDBLK
  5
E4
100
AcDbEntity
  8
MAIN10
  6
CONTINUOUS
 62
3
100
AcDbBlockEnd
  0
BLOCK
  5
E6
100
AcDbEntity
  8
MAIN10
  6
CONTINUOUS
 62
3
100
AcDbBlockBegin
  2
*D3
 70
    65
 10
0.0
 20
0.0
 30
0.0
  0
LINE
  5
E7
100
AcDbEntity
  8
MAIN10
  6
BYBLOCK
 62
0
100
AcDbLine
 10
299.2882865339784
 20
671.6800220031273
 30
0.0000000000000000
 11
299.2882865339784
 21
739.1800219733250
 31
0.0000000000000000
  0
LINE
  5
E8
100
AcDbEntity
  8
MAIN10
  6
BYBLOCK
 62
0
100
AcDbLine
 10
294.2882865339784
 20
734.1800219733250
 30
0.0000000000000000
 11
249.2882865339784
 21
734.1800219733250
 31
0.0000000000000000
  0
INSERT
  5
E9
100
AcDbEntity
  8
MAIN10
  6
BYBLOCK
 62
0
100
AcDbBlockReference
  2
_OPEN
 10
299.2882865339784
 20
734.1800219733250
 30
0.0000000000000000
 41
5.000000000000000
 42
5.000000000000000
 43
5.000000000000000
 50
360.0000000000000
  0
INSERT
  5
EA
100
AcDbEntity
  8
MAIN10
  6
BYBLOCK
 62
0
100
AcDbBlockReference
  2
_OPEN
 10
244.2882865339784
 20
734.1800219733250
 30
0.0000000000000000
 41
5.000000000000000
 42
5.000000000000000
 43
5.000000000000000
 50
180.0000000000000
  0
LINE
  5
EB
100
AcDbEntity
  8
MAIN10
  6
BYBLOCK
 62
0
100
AcDbLine
 10
244.2882865339784
 20
661.1800220031273
 30
0.0000000000000000
 11
244.2882865339784
 21
739.1800219733250
 31
0.0000000000000000
  0
MTEXT
  5
EC
100
AcDbEntity
  8
MAIN10
  6
BYBLOCK
 62
0
100
AcDbMText
 10
271.7882865339784
 20
738.5550218541157
 30
0.0000000000000000
 40
7.749999761581421
 41
0.0000000000000000
 71
     5
 72
     1
  1
\A1;55
 11
1.000000000000000
 21
0.0000000000000000
 31
0.0000000000000000
  7
STANDARD
  0
ENDBLK
  5
ED
100
AcDbEntity
  8
MAIN10
  6
CONTINUOUS
 62
3
100
AcDbBlockEnd
  0
BLOCK
  5
EF
100
AcDbEntity
  8
MAIN10
  6
CONTINUOUS
 62
3
100
AcDbBlockBegin
  2
*D4
 70
    65
 10
0.0
 20
0.0
 30
0.0
  0
LINE
  5
F0
100
AcDbEntity
  8
MAIN10
  6
BYBLOCK
 62
0
100
AcDbLine
 10
334.2882865339785
 20
675.1800220031271
 30
0.0000000000000000
 11
334.2882865339784
 21
699.1800219733250
 31
0.0000000000000000
  0
LINE
  5
F1
100
AcDbEntity
  8
MAIN10
  6
BYBLOCK
 62
0
100
AcDbLine
 10
329.2882865339784
 20
694.1800219733250
 30
0.0000000000000000
 11
304.2882865339784
 21
694.1800219733250
 31
0.0000000000000000
  0
INSERT
  5
F2
100
AcDbEntity
  8
MAIN10
  6
BYBLOCK
 62
0
100
AcDbBlockReference
  2
_OPEN
 10
334.2882865339784
 20
694.1800219733250
 30
0.0000000000000000
 41
5.000000000000000
 42
5.000000000000000
 43
5.000000000000000
 50
360.0000000000000
  0
INSERT
  5
F3
100
AcDbEntity
  8
MAIN10
  6
BYBLOCK
 62
0
100
AcDbBlockReference
  2
_OPEN
 10
299.2882865339784
 20
694.1800219733250
 30
0.0000000000000000
 41
5.000000000000000
 42
5.000000000000000
 43
5.000000000000000
 50
180.0000000000000
  0
LINE
  5
F4
100
AcDbEntity
  8
MAIN10
  6
BYBLOCK
 62
0
100
AcDbLine
 10
299.2882865339784
 20
671.6800220031273
 30
0.0000000000000000
 11
299.2882865339784
 21
699.1800219733250
 31
0.0000000000000000
  0
MTEXT
  5
F5
100
AcDbEntity
  8
MAIN10
  6
BYBLOCK
 62
0
100
AcDbMText
 10
316.7882865339784
 20
698.5550218541157
 30
0.0000000000000000
 40
7.749999761581421
 41
0.0000000000000000
 71
     5
 72
     1
  1
\A1;35
 11
1.000000000000000
 21
0.0000000000000000
 31
0.0000000000000000
  7
STANDARD
  0
ENDBLK
  5
F6
100
AcDbEntity
  8
MAIN10
  6
CONTINUOUS
 62
3
100
AcDbBlockEnd
  0
BLOCK
  5
F8
100
AcDbEntity
  8
MAIN10
  6
CONTINUOUS
 62
3
100
AcDbBlockBegin
  2
*D5
 70
    65
 10
0.0
 20
0.0
 30
0.0
  0
LINE
  5
F9
100
AcDbEntity
  8
MAIN10
  6
BYBLOCK
 62
0
100
AcDbLine
 10
380.2882865339784
 20
678.1800219733248
 30
0.0000000000000000
 11
380.2882865339784
 21
610.1800219733251
 31
0.0000000000000000
  0
INSERT
  5
FA
100
AcDbEntity
  8
MAIN10
  6
BYBLOCK
 62
0
100
AcDbBlockReference
  2
_OPEN
 10
380.2882865339784
 20
683.1800219733248
 30
0.0000000000000000
 41
5.000000000000000
 42
5.000000000000000
 43
5.000000000000000
 50
90.00000000000000
  0
INSERT
  5
FB
100
AcDbEntity
  8
MAIN10
  6
BYBLOCK
 62
0
100
AcDbBlockReference
  2
_OPEN
 10
380.2882865339784
 20
605.1800219733251
 30
0.0000000000000000
 41
5.000000000000000
 42
5.000000000000000
 43
5.000000000000000
 50
270.0000000000000
  0
MTEXT
  5
FC
100
AcDbEntity
  8
MAIN10
  6
BYBLOCK
 62
0
100
AcDbMText
 10
375.9132866531877
 20
644.1800219733250
 30
0.0000000000000000
 40
7.749999761581421
 41
0.0000000000000000
 71
     5
 72
     1
  1
\A1;\U+220578
 11
6.123233995736766e-017
 21
1.000000000000000
 31
0.0000000000000000
  7
STANDARD
  0
ENDBLK
  5
FD
100
AcDbEntity
  8
MAIN10
  6
CONTINUOUS
 62
3
100
AcDbBlockEnd
  0
BLOCK
  5
FF
100
AcDbEntity
  8
MAIN10
  6
CONTINUOUS
 62
3
100
AcDbBlockBegin
  2
*D6
 70
    65
 10
0.0
 20
0.0
 30
0.0
  0
LINE
  5
100
100
AcDbEntity
  8
MAIN10
  6
BYBLOCK
 62
0
100
AcDbLine
 10
333.2882865041761
 20
674.1800219733248
 30
0.0000000000000000
 11
325.2882865339784
 21
674.1800219733248
 31
0.0000000000000000
  0
LINE
  5
101
100
AcDbEntity
  8
MAIN10
  6
BYBLOCK
 62
0
100
AcDbLine
 10
330.2882865339784
 20
669.1800219733248
 30
0.0000000000000000
 11
330.2882865339784
 21
619.1800219733250
 31
0.0000000000000000
  0
INSERT
  5
102
100
AcDbEntity
  8
MAIN10
  6
BYBLOCK
 62
0
100
AcDbBlockReference
  2
_OPEN
 10
330.2882865339784
 20
674.1800219733248
 30
0.0000000000000000
 41
5.000000000000000
 42
5.000000000000000
 43
5.000000000000000
 50
90.00000000000000
  0
INSERT
  5
103
100
AcDbEntity
  8
MAIN10
  6
BYBLOCK
 62
0
100
AcDbBlockReference
  2
_OPEN
 10
330.2882865339784
 20
614.1800219733250
 30
0.0000000000000000
 41
5.000000000000000
 42
5.000000000000000
 43
5.000000000000000
 50
270.0000000000000
  0
LINE
  5
104
100
AcDbEntity
  8
MAIN10
  6
BYBLOCK
 62
0
100
AcDbLine
 10
333.2882865041761
 20
614.1800219733250
 30
0.0000000000000000
 11
325.2882865339784
 21
614.1800219733250
 31
0.0000000000000000
  0
MTEXT
  5
105
100
AcDbEntity
  8
MAIN10
  6
BYBLOCK
 62
0
100
AcDbMText
 10
325.9132866531877
 20
644.1800219733249
 30
0.0000000000000000
 40
7.749999761581421
 41
0.0000000000000000
 71
     5
 72
     1
  1
\A1;\U+220560
 11
6.123233995736766e-017
 21
1.000000000000000
 31
0.0000000000000000
  7
STANDARD
  0
ENDBLK
  5
106
100
AcDbEntity
  8
MAIN10
  6
CONTINUOUS
 62
3
100
AcDbBlockEnd
  0
BLOCK
  5
108
100
AcDbEntity
  8
MAIN10
  6
CONTINUOUS
 62
3
100
AcDbBlockBegin
  2
*D7
 70
    65
 10
0.0
 20
0.0
 30
0.0
  0
LINE
  5
109
100
AcDbEntity
  8
MAIN10
  6
BYBLOCK
 62
0
100
AcDbLine
 10
299.2882865041761
 20
671.6800219733250
 30
0.0000000000000000
 11
275.2882865339784
 21
671.6800219733250
 31
0.0000000000000000
  0
LINE
  5
10A
100
AcDbEntity
  8
MAIN10
  6
BYBLOCK
 62
0
100
AcDbLine
 10
280.2882865339784
 20
666.6800219733250
 30
0.0000000000000000
 11
280.2882865339784
 21
621.6800219733252
 31
0.0000000000000000
  0
INSERT
  5
10B
100
AcDbEntity
  8
MAIN10
  6
BYBLOCK
 62
0
100
AcDbBlockReference
  2
_OPEN
 10
280.2882865339784
 20
671.6800219733250
 30
0.0000000000000000
 41
5.000000000000000
 42
5.000000000000000
 43
5.000000000000000
 50
90.00000000000000
  0
INSERT
  5
10C
100
AcDbEntity
  8
MAIN10
  6
BYBLOCK
 62
0
100
AcDbBlockReference
  2
_OPEN
 10
280.2882865339784
 20
616.6800219733252
 30
0.0000000000000000
 41
5.000000000000000
 42
5.000000000000000
 43
5.000000000000000
 50
270.0000000000000
  0
LINE
  5
10D
100
AcDbEntity
  8
MAIN10
  6
BYBLOCK
 62
0
100
AcDbLine
 10
299.2882865041761
 20
616.6800219733252
 30
0.0000000000000000
 11
275.2882865339784
 21
616.6800219733252
 31
0.0000000000000000
  0
MTEXT
  5
10E
100
AcDbEntity
  8
MAIN10
  6
BYBLOCK
 62
0
100
AcDbMText
 10
275.9132866531877
 20
644.1800219733251
 30
0.0000000000000000
 40
7.749999761581421
 41
0.0000000000000000
 71
     5
 72
     1
  1
\A1;\U+220555
 11
6.123233995736766e-017
 21
1.000000000000000
 31
0.0000000000000000
  7
STANDARD
  0
ENDBLK
  5
10F
100
AcDbEntity
  8
MAIN10
  6
CONTINUOUS
 62
3
100
AcDbBlockEnd
  0
BLOCK
  5
114
100
AcDbEntity
  8
MAIN10
  6
CONTINUOUS
 62
3
100
AcDbBlockBegin
  2
*D8
 70
    65
 10
0.0
 20
0.0
 30
0.0
  0
LINE
  5
115
100
AcDbEntity
  8
MAIN10
  6
BYBLOCK
 62
0
100
AcDbLine
 10
440.2882865339784
 20
652.6800219733250
 30
0.0000000000000000
 11
440.2882865339784
 21
635.6800219733250
 31
0.0000000000000000
  0
INSERT
  5
116
100
AcDbEntity
  8
MAIN10
  6
BYBLOCK
 62
0
100
AcDbBlockReference
  2
_OPEN
 10
440.2882865339784
 20
657.6800219733250
 30
0.0000000000000000
 41
5.000000000000000
 42
5.000000000000000
 43
5.000000000000000
 50
90.00000000000000
  0
INSERT
  5
117
100
AcDbEntity
  8
MAIN10
  6
BYBLOCK
 62
0
100
AcDbBlockReference
  2
_OPEN
 10
440.2882865339784
 20
630.6800219733250
 30
0.0000000000000000
 41
5.000000000000000
 42
5.000000000000000
 43
5.000000000000000
 50
270.0000000000000
  0
MTEXT
  5
118
100
AcDbEntity
  8
MAIN10
  6
BYBLOCK
 62
0
100
AcDbMText
 10
435.9132866531877
 20
644.1800219733250
 30
0.0000000000000000
 40
7.749999761581421
 41
0.0000000000000000
 71
     5
 72
     1
  1
\A1;\U+220527
 11
6.123233995736766e-017
 21
1.000000000000000
 31
0.0000000000000000
  7
STANDARD
  0
ENDBLK
  5
119
100
AcDbEntity
  8
MAIN10
  6
CONTINUOUS
 62
3
100
AcDbBlockEnd
  0
BLOCK
  5
11D
100
AcDbEntity
  8
MAIN10
  6
CONTINUOUS
 62
3
100
AcDbBlockBegin
  2
*D9
 70
    65
 10
0.0
 20
0.0
 30
0.0
  0
LINE
  5
11E
100
AcDbEntity
  8
MAIN10
  6
BYBLOCK
 62
0
100
AcDbLine
 10
366.2882865339783
 20
584.1800219733250
 30
0.0000000000000000
 11
391.2882865339783
 21
584.1800219733250
 31
0.0000000000000000
  0
INSERT
  5
11F
100
AcDbEntity
  8
MAIN10
  6
BYBLOCK
 62
0
100
AcDbBlockReference
  2
_OPEN
 10
361.2882865339783
 20
584.1800219733250
 30
0.0000000000000000
 41
5.000000000000000
 42
5.000000000000000
 43
5.000000000000000
 50
180.0000000000000
  0
INSERT
  5
120
100
AcDbEntity
  8
MAIN10
  6
BYBLOCK
 62
0
100
AcDbBlockReference
  2
_OPEN
 10
396.2882865339783
 20
584.1800219733250
 30
0.0000000000000000
 41
5.000000000000000
 42
5.000000000000000
 43
5.000000000000000
 50
0.0000000000000000
  0
MTEXT
  5
121
100
AcDbEntity
  8
MAIN10
  6
BYBLOCK
 62
0
100
AcDbMText
 10
378.7882865339783
 20
588.5550218541157
 30
0.0000000000000000
 40
7.749999761581421
 41
0.0000000000000000
 71
     5
 72
     1
  1
\A1;35
 11
1.000000000000000
 21
0.0000000000000000
 31
0.0000000000000000
  7
STANDARD
  0
ENDBLK
  5
122
100
AcDbEntity
  8
MAIN10
  6
CONTINUOUS
 62
3
100
AcDbBlockEnd
  0
BLOCK
  5
126
100
AcDbEntity
  8
MAIN10
  6
CONTINUOUS
 62
3
100
AcDbBlockBegin
  2
*D10
 70
    65
 10
0.0
 20
0.0
 30
0.0
  0
LINE
  5
127
100
AcDbEntity
  8
MAIN10
  6
BYBLOCK
 62
0
100
AcDbLine
 10
482.2882865637807
 20
497.0800219733252
 30
0.0000000000000000
 11
525.2882865339784
 21
497.0800219733252
 31
0.0000000000000000
  0
LINE
  5
128
100
AcDbEntity
  8
MAIN10
  6
BYBLOCK
 62
0
100
AcDbLine
 10
520.2882865339784
 20
492.0800219733252
 30
0.0000000000000000
 11
520.2882865339784
 21
466.0800219733252
 31
0.0000000000000000
  0
INSERT
  5
129
100
AcDbEntity
  8
MAIN10
  6
BYBLOCK
 62
0
100
AcDbBlockReference
  2
_OPEN
 10
520.2882865339784
 20
497.0800219733252
 30
0.0000000000000000
 41
5.000000000000000
 42
5.000000000000000
 43
5.000000000000000
 50
90.00000000000000
  0
INSERT
  5
12A
100
AcDbEntity
  8
MAIN10
  6
BYBLOCK
 62
0
100
AcDbBlockReference
  2
_OPEN
 10
520.2882865339784
 20
461.0800219733252
 30
0.0000000000000000
 41
5.000000000000000
 42
5.000000000000000
 43
5.000000000000000
 50
270.0000000000000
  0
LINE
  5
12B
100
AcDbEntity
  8
MAIN10
  6
BYBLOCK
 62
0
100
AcDbLine
 10
482.2882865637807
 20
461.0800219733252
 30
0.0000000000000000
 11
525.2882865339784
 21
461.0800219733252
 31
0.0000000000000000
  0
MTEXT
  5
12C
100
AcDbEntity
  8
MAIN10
  6
BYBLOCK
 62
0
100
AcDbMText
 10
515.9132866531877
 20
479.0800219733252
 30
0.0000000000000000
 40
7.749999761581421
 41
0.0000000000000000
 71
     5
 72
     1
  1
\A1;\U+220536
 11
6.123233995736766e-017
 21
1.000000000000000
 31
0.0000000000000000
  7
STANDARD
  0
ENDBLK
  5
12D
100
AcDbEntity
  8
MAIN10
  6
CONTINUOUS
 62
3
100
AcDbBlockEnd
  0
BLOCK
  5
12F
100
AcDbEntity
  8
MAIN10
  6
CONTINUOUS
 62
3
100
AcDbBlockBegin
  2
*D11
 70
    65
 10
0.0
 20
0.0
 30
0.0
  0
LINE
  5
130
100
AcDbEntity
  8
MAIN10
  6
BYBLOCK
 62
0
100
AcDbLine
 10
450.2882865339784
 20
459.0800219435228
 30
0.0000000000000000
 11
450.2882865339784
 21
429.1800219733250
 31
0.0000000000000000
  0
LINE
  5
131
100
AcDbEntity
  8
MAIN10
  6
BYBLOCK
 62
0
100
AcDbLine
 10
455.2882865339784
 20
434.1800219733250
 30
0.0000000000000000
 11
475.2882865339784
 21
434.1800219733250
 31
0.0000000000000000
  0
INSERT
  5
132
100
AcDbEntity
  8
MAIN10
  6
BYBLOCK
 62
0
100
AcDbBlockReference
  2
_OPEN
 10
450.2882865339784
 20
434.1800219733250
 30
0.0000000000000000
 41
5.000000000000000
 42
5.000000000000000
 43
5.000000000000000
 50
180.0000000000000
  0
INSERT
  5
133
100
AcDbEntity
  8
MAIN10
  6
BYBLOCK
 62
0
100
AcDbBlockReference
  2
_OPEN
 10
480.2882865339784
 20
434.1800219733250
 30
0.0000000000000000
 41
5.000000000000000
 42
5.000000000000000
 43
5.000000000000000
 50
0.0000000000000000
  0
MTEXT
  5
134
100
AcDbEntity
  8
MAIN10
  6
BYBLOCK
 62
0
100
AcDbMText
 10
465.2882865339784
 20
438.5550218541157
 30
0.0000000000000000
 40
7.749999761581421
 41
0.0000000000000000
 71
     5
 72
     1
  1
\A1;30
 11
1.000000000000000
 21
0.0000000000000000
 31
0.0000000000000000
  7
STANDARD
  0
ENDBLK
  5
135
100
AcDbEntity
  8
MAIN10
  6
CONTINUOUS
 62
3
100
AcDbBlockEnd
  0
BLOCK
  5
137
100
AcDbEntity
  8
MAIN10
  6
CONTINUOUS
 62
3
100
AcDbBlockBegin
  2
*D12
 70
    65
 10
0.0
 20
0.0
 30
0.0
  0
LINE
  5
138
100
AcDbEntity
  8
MAIN10
  6
BYBLOCK
 62
0
100
AcDbLine
 10
361.2882865339783
 20
452.1800219435227
 30
0.0000000000000000
 11
361.2882865339783
 21
419.1800219733250
 31
0.0000000000000000
  0
LINE
  5
139
100
AcDbEntity
  8
MAIN10
  6
BYBLOCK
 62
0
100
AcDbLine
 10
361.2882865339783
 20
424.1800219733250
 30
0.0000000000000000
 11
355.2882865339784
 21
424.1800219733250
 31
0.0000000000000000
  0
INSERT
  5
13A
100
AcDbEntity
  8
MAIN10
  6
BYBLOCK
 62
0
100
AcDbBlockReference
  2
_OPEN
 10
361.2882865339783
 20
424.1800219733250
 30
0.0000000000000000
 41
5.000000000000000
 42
5.000000000000000
 43
5.000000000000000
 50
180.0000000000000
  0
INSERT
  5
13B
100
AcDbEntity
  8
MAIN10
  6
BYBLOCK
 62
0
100
AcDbBlockReference
  2
_OPEN
 10
355.2882865339784
 20
424.1800219733250
 30
0.0000000000000000
 41
5.000000000000000
 42
5.000000000000000
 43
5.000000000000000
 50
360.0000000000000
  0
LINE
  5
13C
100
AcDbEntity
  8
MAIN10
  6
BYBLOCK
 62
0
100
AcDbLine
 10
366.2882865339783
 20
424.1800219733250
 30
0.0000000000000000
 11
368.7882865339783
 21
424.1800219733250
 31
0.0000000000000000
  0
LINE
  5
13D
100
AcDbEntity
  8
MAIN10
  6
BYBLOCK
 62
0
100
AcDbLine
 10
350.2882865339784
 20
424.1800219733250
 30
0.0000000000000000
 11
347.7882865339784
 21
424.1800219733250
 31
0.0000000000000000
  0
MTEXT
  5
13E
100
AcDbEntity
  8
MAIN10
  6
BYBLOCK
 62
0
100
AcDbMText
 10
358.2882865339783
 20
428.5550218541157
 30
0.0000000000000000
 40
7.749999761581421
 41
0.0000000000000000
 71
     5
 72
     1
  1
\A1;6
 11
1.000000000000000
 21
0.0000000000000000
 31
0.0000000000000000
  7
STANDARD
  0
ENDBLK
  5
13F
100
AcDbEntity
  8
MAIN10
  6
CONTINUOUS
 62
3
100
AcDbBlockEnd
  0
BLOCK
  5
141
100
AcDbEntity
  8
MAIN10
  6
CONTINUOUS
 62
3
100
AcDbBlockBegin
  2
*D13
 70
    65
 10
0.0
 20
0.0
 30
0.0
  0
LINE
  5
142
100
AcDbEntity
  8
MAIN10
  6
BYBLOCK
 62
0
100
AcDbLine
 10
356.2882865339783
 20
504.1800219733250
 30
0.0000000000000000
 11
335.2882865339783
 21
504.1800219733250
 31
0.0000000000000000
  0
INSERT
  5
143
100
AcDbEntity
  8
MAIN10
  6
BYBLOCK
 62
0
100
AcDbBlockReference
  2
_OPEN
 10
361.2882865339783
 20
504.1800219733250
 30
0.0000000000000000
 41
5.000000000000000
 42
5.000000000000000
 43
5.000000000000000
 50
360.0000000000000
  0
INSERT
  5
144
100
AcDbEntity
  8
MAIN10
  6
BYBLOCK
 62
0
100
AcDbBlockReference
  2
_OPEN
 10
330.2882865339783
 20
504.1800219733250
 30
0.0000000000000000
 41
5.000000000000000
 42
5.000000000000000
 43
5.000000000000000
 50
180.0000000000000
  0
LINE
  5
145
100
AcDbEntity
  8
MAIN10
  6
BYBLOCK
 62
0
100
AcDbLine
 10
330.2882865339783
 20
489.5800220031284
 30
0.0000000000000000
 11
330.2882865339783
 21
509.1800219733250
 31
0.0000000000000000
  0
MTEXT
  5
146
100
AcDbEntity
  8
MAIN10
  6
BYBLOCK
 62
0
100
AcDbMText
 10
345.7882865339783
 20
508.5550218541157
 30
0.0000000000000000
 40
7.749999761581421
 41
0.0000000000000000
 71
     5
 72
     1
  1
\A1;31
 11
1.000000000000000
 21
0.0000000000000000
 31
0.0000000000000000
  7
STANDARD
  0
ENDBLK
  5
147
100
AcDbEntity
  8
MAIN10
  6
CONTINUOUS
 62
3
100
AcDbBlockEnd
  0
BLOCK
  5
14B
100
AcDbEntity
  8
MAIN10
  6
CONTINUOUS
 62
3
100
AcDbBlockBegin
  2
*D14
 70
    65
 10
0.0
 20
0.0
 30
0.0
  0
LINE
  5
14C
100
AcDbEntity
  8
MAIN10
  6
BYBLOCK
 62
0
100
AcDbLine
 10
480.2882865339784
 20
340.1800219435227
 30
0.0000000000000000
 11
480.2882865339784
 21
309.1800219733250
 31
0.0000000000000000
  0
LINE
  5
14D
100
AcDbEntity
  8
MAIN10
  6
BYBLOCK
 62
0
100
AcDbLine
 10
475.2882865339784
 20
314.1800219733250
 30
0.0000000000000000
 11
425.2882865339784
 21
314.1800219733250
 31
0.0000000000000000
  0
INSERT
  5
14E
100
AcDbEntity
  8
MAIN10
  6
BYBLOCK
 62
0
100
AcDbBlockReference
  2
_OPEN
 10
480.2882865339784
 20
314.1800219733250
 30
0.0000000000000000
 41
5.000000000000000
 42
5.000000000000000
 43
5.000000000000000
 50
360.0000000000000
  0
INSERT
  5
14F
100
AcDbEntity
  8
MAIN10
  6
BYBLOCK
 62
0
100
AcDbBlockReference
  2
_OPEN
 10
420.2882865339784
 20
314.1800219733250
 30
0.0000000000000000
 41
5.000000000000000
 42
5.000000000000000
 43
5.000000000000000
 50
180.0000000000000
  0
LINE
  5
150
100
AcDbEntity
  8
MAIN10
  6
BYBLOCK
 62
0
100
AcDbLine
 10
420.2882865339784
 20
334.4177922099098
 30
0.0000000000000000
 11
420.2882865339784
 21
309.1800219733250
 31
0.0000000000000000
  0
MTEXT
  5
151
100
AcDbEntity
  8
MAIN10
  6
BYBLOCK
 62
0
100
AcDbMText
 10
450.2882865339784
 20
318.5550218541157
 30
0.0000000000000000
 40
7.749999761581421
 41
0.0000000000000000
 71
     5
 72
     1
  1
\A1;60
 11
1.000000000000000
 21
0.0000000000000000
 31
0.0000000000000000
  7
STANDARD
  0
ENDBLK
  5
152
100
AcDbEntity
  8
MAIN10
  6
CONTINUOUS
 62
3
100
AcDbBlockEnd
  0
BLOCK
  5
154
100
AcDbEntity
  8
MAIN10
  6
CONTINUOUS
 62
3
100
AcDbBlockBegin
  2
*D15
 70
    65
 10
0.0
 20
0.0
 30
0.0
  0
LINE
  5
155
100
AcDbEntity
  8
MAIN10
  6
BYBLOCK
 62
0
100
AcDbLine
 10
480.2882865339784
 20
340.1800219435227
 30
0.0000000000000000
 11
480.2882865339784
 21
279.1800219733250
 31
0.0000000000000000
  0
LINE
  5
156
100
AcDbEntity
  8
MAIN10
  6
BYBLOCK
 62
0
100
AcDbLine
 10
475.2882865339784
 20
284.1800219733250
 30
0.0000000000000000
 11
360.2882865339784
 21
284.1800219733250
 31
0.0000000000000000
  0
INSERT
  5
157
100
AcDbEntity
  8
MAIN10
  6
BYBLOCK
 62
0
100
AcDbBlockReference
  2
_OPEN
 10
480.2882865339784
 20
284.1800219733250
 30
0.0000000000000000
 41
5.000000000000000
 42
5.000000000000000
 43
5.000000000000000
 50
360.0000000000000
  0
INSERT
  5
158
100
AcDbEntity
  8
MAIN10
  6
BYBLOCK
 62
0
100
AcDbBlockReference
  2
_OPEN
 10
355.2882865339784
 20
284.1800219733250
 30
0.0000000000000000
 41
5.000000000000000
 42
5.000000000000000
 43
5.000000000000000
 50
180.0000000000000
  0
LINE
  5
159
100
AcDbEntity
  8
MAIN10
  6
BYBLOCK
 62
0
100
AcDbLine
 10
355.2882865339784
 20
340.1800219435263
 30
0.0000000000000000
 11
355.2882865339784
 21
279.1800219733250
 31
0.0000000000000000
  0
MTEXT
  5
15A
100
AcDbEntity
  8
MAIN10
  6
BYBLOCK
 62
0
100
AcDbMText
 10
417.7882865339784
 20
288.5550218541157
 30
0.0000000000000000
 40
7.749999761581421
 41
0.0000000000000000
 71
     5
 72
     1
  1
\A1;125
 11
1.000000000000000
 21
0.0000000000000000
 31
0.0000000000000000
  7
STANDARD
  0
ENDBLK
  5
15B
100
AcDbEntity
  8
MAIN10
  6
CONTINUOUS
 62
3
100
AcDbBlockEnd
  0
BLOCK
  5
15F
100
AcDbEntity
  8
MAIN10
  6
CONTINUOUS
 62
3
100
AcDbBlockBegin
  2
*D16
 70
    65
 10
0.0
 20
0.0
 30
0.0
  0
LINE
  5
160
100
AcDbEntity
  8
MAIN10
  6
BYBLOCK
 62
0
100
AcDbLine
 10
553.2882865637806
 20
947.6800219733214
 30
0.0000000000000000
 11
675.2882865339784
 21
947.6800219733214
 31
0.0000000000000000
  0
LINE
  5
161
100
AcDbEntity
  8
MAIN10
  6
BYBLOCK
 62
0
100
AcDbLine
 10
670.2882865339784
 20
942.6800219733214
 30
0.0000000000000000
 11
670.2882865339784
 21
772.6800219733248
 31
0.0000000000000000
  0
INSERT
  5
162
100
AcDbEntity
  8
MAIN10
  6
BYBLOCK
 62
0
100
AcDbBlockReference
  2
_OPEN
 10
670.2882865339784
 20
947.6800219733214
 30
0.0000000000000000
 41
5.000000000000000
 42
5.000000000000000
 43
5.000000000000000
 50
90.00000000000000
  0
INSERT
  5
163
100
AcDbEntity
  8
MAIN10
  6
BYBLOCK
 62
0
100
AcDbBlockReference
  2
_OPEN
 10
670.2882865339784
 20
767.6800219733248
 30
0.0000000000000000
 41
5.000000000000000
 42
5.000000000000000
 43
5.000000000000000
 50
270.0000000000000
  0
LINE
  5
164
100
AcDbEntity
  8
MAIN10
  6
BYBLOCK
 62
0
100
AcDbLine
 10
553.2882865637806
 20
767.6800219733248
 30
0.0000000000000000
 11
675.2882865339784
 21
767.6800219733248
 31
0.0000000000000000
  0
MTEXT
  5
165
100
AcDbEntity
  8
MAIN10
  6
BYBLOCK
 62
0
100
AcDbMText
 10
665.9132866531877
 20
857.6800219733231
 30
0.0000000000000000
 40
7.749999761581421
 41
0.0000000000000000
 71
     5
 72
     1
  1
\A1;180
 11
6.123233995736766e-017
 21
1.000000000000000
 31
0.0000000000000000
  7
STANDARD
  0
ENDBLK
  5
166
100
AcDbEntity
  8
MAIN10
  6
CONTINUOUS
 62
3
100
AcDbBlockEnd
  0
BLOCK
  5
168
100
AcDbEntity
  8
MAIN10
  6
CONTINUOUS
 62
3
100
AcDbBlockBegin
  2
*D17
 70
    65
 10
0.0
 20
0.0
 30
0.0
  0
LINE
  5
169
100
AcDbEntity
  8
MAIN10
  6
BYBLOCK
 62
0
100
AcDbLine
 10
558.1721904982592
 20
907.6800219733214
 30
0.0000000000000000
 11
645.2882865339784
 21
907.6800219733214
 31
0.0000000000000000
  0
LINE
  5
16A
100
AcDbEntity
  8
MAIN10
  6
BYBLOCK
 62
0
100
AcDbLine
 10
640.2882865339784
 20
902.6800219733214
 30
0.0000000000000000
 11
640.2882865339784
 21
852.6800219733248
 31
0.0000000000000000
  0
INSERT
  5
16B
100
AcDbEntity
  8
MAIN10
  6
BYBLOCK
 62
0
100
AcDbBlockReference
  2
_OPEN
 10
640.2882865339784
 20
907.6800219733214
 30
0.0000000000000000
 41
5.000000000000000
 42
5.000000000000000
 43
5.000000000000000
 50
90.00000000000000
  0
INSERT
  5
16C
100
AcDbEntity
  8
MAIN10
  6
BYBLOCK
 62
0
100
AcDbBlockReference
  2
_OPEN
 10
640.2882865339784
 20
847.6800219733248
 30
0.0000000000000000
 41
5.000000000000000
 42
5.000000000000000
 43
5.000000000000000
 50
270.0000000000000
  0
LINE
  5
16D
100
AcDbEntity
  8
MAIN10
  6
BYBLOCK
 62
0
100
AcDbLine
 10
559.5361099684114
 20
847.6800219733248
 30
0.0000000000000000
 11
645.2882865339784
 21
847.6800219733248
 31
0.0000000000000000
  0
MTEXT
  5
16E
100
AcDbEntity
  8
MAIN10
  6
BYBLOCK
 62
0
100
AcDbMText
 10
635.9132866531877
 20
877.6800219733231
 30
0.0000000000000000
 40
7.749999761581421
 41
0.0000000000000000
 71
     5
 72
     1
  1
\A1;60
 11
6.123233995736766e-017
 21
1.000000000000000
 31
0.0000000000000000
  7
STANDARD
  0
ENDBLK
  5
16F
100
AcDbEntity
  8
MAIN10
  6
CONTINUOUS
 62
3
100
AcDbBlockEnd
  0
BLOCK
  5
171
100
AcDbEntity
  8
MAIN10
  6
CONTINUOUS
 62
3
100
AcDbBlockBegin
  2
*D18
 70
    65
 10
0.0
 20
0.0
 30
0.0
  0
LINE
  5
172
100
AcDbEntity
  8
MAIN10
  6
BYBLOCK
 62
0
100
AcDbLine
 10
559.5361099684114
 20
847.6800219733248
 30
0.0000000000000000
 11
645.2882865339784
 21
847.6800219733248
 31
0.0000000000000000
  0
LINE
  5
173
100
AcDbEntity
  8
MAIN10
  6
BYBLOCK
 62
0
100
AcDbLine
 10
640.2882865339784
 20
842.6800219733248
 30
0.0000000000000000
 11
640.2882865339784
 21
772.6800219733248
 31
0.0000000000000000
  0
INSERT
  5
174
100
AcDbEntity
  8
MAIN10
  6
BYBLOCK
 62
0
100
AcDbBlockReference
  2
_OPEN
 10
640.2882865339784
 20
847.6800219733248
 30
0.0000000000000000
 41
5.000000000000000
 42
5.000000000000000
 43
5.000000000000000
 50
90.00000000000000
  0
INSERT
  5
175
100
AcDbEntity
  8
MAIN10
  6
BYBLOCK
 62
0
100
AcDbBlockReference
  2
_OPEN
 10
640.2882865339784
 20
767.6800219733248
 30
0.0000000000000000
 41
5.000000000000000
 42
5.000000000000000
 43
5.000000000000000
 50
270.0000000000000
  0
LINE
  5
176
100
AcDbEntity
  8
MAIN10
  6
BYBLOCK
 62
0
100
AcDbLine
 10
553.2882865637806
 20
767.6800219733248
 30
0.0000000000000000
 11
645.2882865339784
 21
767.6800219733248
 31
0.0000000000000000
  0
MTEXT
  5
177
100
AcDbEntity
  8
MAIN10
  6
BYBLOCK
 62
0
100
AcDbMText
 10
635.9132866531877
 20
807.6800219733248
 30
0.0000000000000000
 40
7.749999761581421
 41
0.0000000000000000
 71
     5
 72
     1
  1
\A1;80
 11
6.123233995736766e-017
 21
1.000000000000000
 31
0.0000000000000000
  7
STANDARD
  0
ENDBLK
  5
178
100
AcDbEntity
  8
MAIN10
  6
CONTINUOUS
 62
3
100
AcDbBlockEnd
  0
BLOCK
  5
17A
100
AcDbEntity
  8
MAIN10
  6
CONTINUOUS
 62
3
100
AcDbBlockBegin
  2
*D19
 70
    65
 10
0.0
 20
0.0
 30
0.0
  0
LINE
  5
17B
100
AcDbEntity
  8
MAIN10
  6
BYBLOCK
 62
0
100
AcDbLine
 10
559.5361099684114
 20
847.6800219733248
 30
0.0000000000000000
 11
605.2882865339784
 21
847.6800219733248
 31
0.0000000000000000
  0
LINE
  5
17C
100
AcDbEntity
  8
MAIN10
  6
BYBLOCK
 62
0
100
AcDbLine
 10
600.2882865339784
 20
842.6800219733248
 30
0.0000000000000000
 11
600.2882865339784
 21
774.1800219733250
 31
0.0000000000000000
  0
INSERT
  5
17D
100
AcDbEntity
  8
MAIN10
  6
BYBLOCK
 62
0
100
AcDbBlockReference
  2
_OPEN
 10
600.2882865339784
 20
847.6800219733248
 30
0.0000000000000000
 41
5.000000000000000
 42
5.000000000000000
 43
5.000000000000000
 50
90.00000000000000
  0
INSERT
  5
17E
100
AcDbEntity
  8
MAIN10
  6
BYBLOCK
 62
0
100
AcDbBlockReference
  2
_OPEN
 10
600.2882865339784
 20
769.1800219733250
 30
0.0000000000000000
 41
5.000000000000000
 42
5.000000000000000
 43
5.000000000000000
 50
270.0000000000000
  0
LINE
  5
17F
100
AcDbEntity
  8
MAIN10
  6
BYBLOCK
 62
0
100
AcDbLine
 10
483.2882865637807
 20
769.1800219733250
 30
0.0000000000000000
 11
605.2882865339784
 21
769.1800219733250
 31
0.0000000000000000
  0
MTEXT
  5
180
100
AcDbEntity
  8
MAIN10
  6
BYBLOCK
 62
0
100
AcDbMText
 10
595.9132866531877
 20
808.4300219733248
 30
0.0000000000000000
 40
7.749999761581421
 41
0.0000000000000000
 71
     5
 72
     1
  1
\A1;MAX 93.5
 11
6.123233995736766e-017
 21
1.000000000000000
 31
0.0000000000000000
  7
STANDARD
  0
ENDBLK
  5
181
100
AcDbEntity
  8
MAIN10
  6
CONTINUOUS
 62
3
100
AcDbBlockEnd
  0
BLOCK
  5
183
100
AcDbEntity
  8
MAIN10
  6
CONTINUOUS
 62
3
100
AcDbBlockBegin
  2
*D20
 70
    65
 10
0.0
 20
0.0
 30
0.0
  0
LINE
  5
184
100
AcDbEntity
  8
MAIN10
  6
BYBLOCK
 62
0
100
AcDbLine
 10
483.2882865637807
 20
769.1800219733250
 30
0.0000000000000000
 11
605.2882865339784
 21
769.1800219733250
 31
0.0000000000000000
  0
LINE
  5
185
100
AcDbEntity
  8
MAIN10
  6
BYBLOCK
 62
0
100
AcDbLine
 10
600.2882865339784
 20
764.1800219733250
 30
0.0000000000000000
 11
600.2882865339784
 21
649.1800219733250
 31
0.0000000000000000
  0
INSERT
  5
186
100
AcDbEntity
  8
MAIN10
  6
BYBLOCK
 62
0
100
AcDbBlockReference
  2
_OPEN
 10
600.2882865339784
 20
769.1800219733250
 30
0.0000000000000000
 41
5.000000000000000
 42
5.000000000000000
 43
5.000000000000000
 50
90.00000000000000
  0
INSERT
  5
187
100
AcDbEntity
  8
MAIN10
  6
BYBLOCK
 62
0
100
AcDbBlockReference
  2
_OPEN
 10
600.2882865339784
 20
644.1800219733250
 30
0.0000000000000000
 41
5.000000000000000
 42
5.000000000000000
 43
5.000000000000000
 50
270.0000000000000
  0
LINE
  5
188
100
AcDbEntity
  8
MAIN10
  6
BYBLOCK
 62
0
100
AcDbLine
 10
515.6056221583170
 20
644.1800219733250
 30
0.0000000000000000
 11
605.2882865339784
 21
644.1800219733250
 31
0.0000000000000000
  0
MTEXT
  5
189
100
AcDbEntity
  8
MAIN10
  6
BYBLOCK
 62
0
100
AcDbMText
 10
595.9132866531877
 20
706.6800219733250
 30
0.0000000000000000
 40
7.749999761581421
 41
0.0000000000000000
 71
     5
 72
     1
  1
\A1;MAX 125
 11
6.123233995736766e-017
 21
1.000000000000000
 31
0.0000000000000000
  7
STANDARD
  0
ENDBLK
  5
18A
100
AcDbEntity
  8
MAIN10
  6
CONTINUOUS
 62
3
100
AcDbBlockEnd
  0
BLOCK
  5
18C
100
AcDbEntity
  8
MAIN10
  6
CONTINUOUS
 62
3
100
AcDbBlockBegin
  2
*D21
 70
    65
 10
0.0
 20
0.0
 30
0.0
  0
LINE
  5
18D
100
AcDbEntity
  8
MAIN10
  6
BYBLOCK
 62
0
100
AcDbLine
 10
551.2882865339784
 20
949.6800220031237
 30
0.0000000000000000
 11
551.2882865339784
 21
979.1800219733250
 31
0.0000000000000000
  0
LINE
  5
18E
100
AcDbEntity
  8
MAIN10
  6
BYBLOCK
 62
0
100
AcDbLine
 10
546.2882865339784
 20
974.1800219733250
 30
0.0000000000000000
 11
485.2882865339784
 21
974.1800219733250
 31
0.0000000000000000
  0
INSERT
  5
18F
100
AcDbEntity
  8
MAIN10
  6
BYBLOCK
 62
0
100
AcDbBlockReference
  2
_OPEN
 10
551.2882865339784
 20
974.1800219733250
 30
0.0000000000000000
 41
5.000000000000000
 42
5.000000000000000
 43
5.000000000000000
 50
360.0000000000000
  0
INSERT
  5
190
100
AcDbEntity
  8
MAIN10
  6
BYBLOCK
 62
0
100
AcDbBlockReference
  2
_OPEN
 10
480.2882865339784
 20
974.1800219733250
 30
0.0000000000000000
 41
5.000000000000000
 42
5.000000000000000
 43
5.000000000000000
 50
180.0000000000000
  0
LINE
  5
191
100
AcDbEntity
  8
MAIN10
  6
BYBLOCK
 62
0
100
AcDbLine
 10
480.2882865339784
 20
948.1800220031237
 30
0.0000000000000000
 11
480.2882865339784
 21
979.1800219733250
 31
0.0000000000000000
  0
MTEXT
  5
192
100
AcDbEntity
  8
MAIN10
  6
BYBLOCK
 62
0
100
AcDbMText
 10
515.7882865339784
 20
978.5550218541157
 30
0.0000000000000000
 40
7.749999761581421
 41
0.0000000000000000
 71
     5
 72
     1
  1
\A1;71
 11
1.000000000000000
 21
0.0000000000000000
 31
0.0000000000000000
  7
STANDARD
  0
ENDBLK
  5
193
100
AcDbEntity
  8
MAIN10
  6
CONTINUOUS
 62
3
100
AcDbBlockEnd
  0
BLOCK
  5
197
100
AcDbEntity
  8
MAIN10
  6
CONTINUOUS
 62
3
100
AcDbBlockBegin
  2
*D22
 70
    65
 10
0.0
 20
0.0
 30
0.0
  0
LINE
  5
198
100
AcDbEntity
  8
MAIN10
  6
BYBLOCK
 62
0
100
AcDbLine
 10
1128.906783355784
 20
949.6800220031237
 30
0.0000000000000000
 11
1128.906783355784
 21
969.2933622652275
 31
0.0000000000000000
  0
LINE
  5
199
100
AcDbEntity
  8
MAIN10
  6
BYBLOCK
 62
0
100
AcDbLine
 10
1123.906783355784
 20
964.2933622652275
 30
0.0000000000000000
 11
1068.906783355782
 21
964.2933622652275
 31
0.0000000000000000
  0
INSERT
  5
19A
100
AcDbEntity
  8
MAIN10
  6
BYBLOCK
 62
0
100
AcDbBlockReference
  2
_OPEN
 10
1128.906783355784
 20
964.2933622652275
 30
0.0000000000000000
 41
5.000000000000000
 42
5.000000000000000
 43
5.000000000000000
 50
360.0000000000000
  0
INSERT
  5
19B
100
AcDbEntity
  8
MAIN10
  6
BYBLOCK
 62
0
100
AcDbBlockReference
  2
_OPEN
 10
1063.906783355782
 20
964.2933622652275
 30
0.0000000000000000
 41
5.000000000000000
 42
5.000000000000000
 43
5.000000000000000
 50
180.0000000000000
  0
LINE
  5
19C
100
AcDbEntity
  8
MAIN10
  6
BYBLOCK
 62
0
100
AcDbLine
 10
1063.906783355782
 20
949.6800220031237
 30
0.0000000000000000
 11
1063.906783355782
 21
969.2933622652275
 31
0.0000000000000000
  0
MTEXT
  5
19D
100
AcDbEntity
  8
MAIN10
  6
BYBLOCK
 62
0
100
AcDbMText
 10
1088.596666989867
 20
969.4183621460182
 30
0.0000000000000000
 40
7.749999761581421
 41
0.0000000000000000
 71
     5
 72
     1
  1
\A1;65
 11
1.000000000000000
 21
0.0000000000000000
 31
0.0000000000000000
  7
STANDARD
  0
ENDBLK
  5
19E
100
AcDbEntity
  8
MAIN10
  6
CONTINUOUS
 62
3
100
AcDbBlockEnd
  0
BLOCK
  5
1A1
100
AcDbEntity
  8
MAIN10
  6
CONTINUOUS
 62
3
100
AcDbBlockBegin
  2
*D23
 70
    65
 10
0.0
 20
0.0
 30
0.0
  0
LINE
  5
1A2
100
AcDbEntity
  8
MAIN10
  6
BYBLOCK
 62
0
100
AcDbLine
 10
474.4261908491873
 20
187.5038908877586
 30
0.0000000000000000
 11
526.7079823911437
 21
187.5038908877586
 31
0.0000000000000000
  0
LINE
  5
1A3
100
AcDbEntity
  8
MAIN10
  6
BYBLOCK
 62
0
100
AcDbLine
 10
521.7079823911437
 20
182.5038908877586
 30
0.0000000000000000
 11
521.7079823911437
 21
127.5038908877586
 31
0.0000000000000000
  0
INSERT
  5
1A4
100
AcDbEntity
  8
MAIN10
  6
BYBLOCK
 62
0
100
AcDbBlockReference
  2
_OPEN
 10
521.7079823911437
 20
187.5038908877586
 30
0.0000000000000000
 41
5.000000000000000
 42
5.000000000000000
 43
5.000000000000000
 50
90.00000000000000
  0
INSERT
  5
1A5
100
AcDbEntity
  8
MAIN10
  6
BYBLOCK
 62
0
100
AcDbBlockReference
  2
_OPEN
 10
521.7079823911437
 20
122.5038908877586
 30
0.0000000000000000
 41
5.000000000000000
 42
5.000000000000000
 43
5.000000000000000
 50
270.0000000000000
  0
LINE
  5
1A6
100
AcDbEntity
  8
MAIN10
  6
BYBLOCK
 62
0
100
AcDbLine
 10
474.4261908491862
 20
122.5038908877586
 30
0.0000000000000000
 11
526.7079823911437
 21
122.5038908877586
 31
0.0000000000000000
  0
MTEXT
  5
1A7
100
AcDbEntity
  8
MAIN10
  6
BYBLOCK
 62
0
100
AcDbMText
 10
517.3329825103530
 20
155.0038908877586
 30
0.0000000000000000
 40
7.749999761581421
 41
0.0000000000000000
 71
     5
 72
     1
  1
\A1;65
 11
6.123233995736766e-017
 21
1.000000000000000
 31
0.0000000000000000
  7
STANDARD
  0
ENDBLK
  5
1A8
100
AcDbEntity
  8
MAIN10
  6
CONTINUOUS
 62
3
100
AcDbBlockEnd
  0
BLOCK
  5
1AA
100
AcDbEntity
  8
MAIN10
  6
CONTINUOUS
 62
3
100
AcDbBlockBegin
  2
*D24
 70
    65
 10
0.0
 20
0.0
 30
0.0
  0
LINE
  5
1AB
100
AcDbEntity
  8
MAIN10
  6
BYBLOCK
 62
0
100
AcDbLine
 10
482.1582416567565
 20
167.5038908877586
 30
0.0000000000000000
 11
499.7276081326916
 21
167.5038908877586
 31
0.0000000000000000
  0
LINE
  5
1AC
100
AcDbEntity
  8
MAIN10
  6
BYBLOCK
 62
0
100
AcDbLine
 10
494.7276081326916
 20
162.5038908877586
 30
0.0000000000000000
 11
494.7276081326916
 21
147.5038908877586
 31
0.0000000000000000
  0
INSERT
  5
1AD
100
AcDbEntity
  8
MAIN10
  6
BYBLOCK
 62
0
100
AcDbBlockReference
  2
_OPEN
 10
494.7276081326916
 20
167.5038908877586
 30
0.0000000000000000
 41
5.000000000000000
 42
5.000000000000000
 43
5.000000000000000
 50
90.00000000000000
  0
INSERT
  5
1AE
100
AcDbEntity
  8
MAIN10
  6
BYBLOCK
 62
0
100
AcDbBlockReference
  2
_OPEN
 10
494.7276081326916
 20
142.5038908877586
 30
0.0000000000000000
 41
5.000000000000000
 42
5.000000000000000
 43
5.000000000000000
 50
270.0000000000000
  0
LINE
  5
1AF
100
AcDbEntity
  8
MAIN10
  6
BYBLOCK
 62
0
100
AcDbLine
 10
482.1582416567564
 20
142.5038908877586
 30
0.0000000000000000
 11
499.7276081326916
 21
142.5038908877586
 31
0.0000000000000000
  0
MTEXT
  5
1B0
100
AcDbEntity
  8
MAIN10
  6
BYBLOCK
 62
0
100
AcDbMText
 10
490.3526082519009
 20
155.0038908877586
 30
0.0000000000000000
 40
7.749999761581421
 41
0.0000000000000000
 71
     5
 72
     1
  1
\A1;25
 11
6.123233995736766e-017
 21
1.000000000000000
 31
0.0000000000000000
  7
STANDARD
  0
ENDBLK
  5
1B1
100
AcDbEntity
  8
MAIN10
  6
CONTINUOUS
 62
3
100
AcDbBlockEnd
  0
BLOCK
  5
1B3
100
AcDbEntity
  8
MAIN10
  6
CONTINUOUS
 62
3
100
AcDbBlockBegin
  2
*D25
 70
    65
 10
0.0
 20
0.0
 30
0.0
  0
LINE
  5
1B4
100
AcDbEntity
  8
MAIN10
  6
BYBLOCK
 62
0
100
AcDbLine
 10
480.1582416269541
 20
140.5038908579563
 30
0.0000000000000000
 11
480.1582416269541
 21
82.56395864805472
 31
0.0000000000000000
  0
LINE
  5
1B5
100
AcDbEntity
  8
MAIN10
  6
BYBLOCK
 62
0
100
AcDbLine
 10
480.1582416269541
 20
87.56395864805472
 30
0.0000000000000000
 11
475.1582416269541
 21
87.56395864805472
 31
0.0000000000000000
  0
INSERT
  5
1B6
100
AcDbEntity
  8
MAIN10
  6
BYBLOCK
 62
0
100
AcDbBlockReference
  2
_OPEN
 10
480.1582416269541
 20
87.56395864805472
 30
0.0000000000000000
 41
5.000000000000000
 42
5.000000000000000
 43
5.000000000000000
 50
180.0000000000000
  0
INSERT
  5
1B7
100
AcDbEntity
  8
MAIN10
  6
BYBLOCK
 62
0
100
AcDbBlockReference
  2
_DOT
 10
474.1582416269541
 20
87.56395864805472
 30
0.0000000000000000
 41
2.500000000000000
 42
2.500000000000000
 43
2.500000000000000
 50
180.0000000000000
  0
LINE
  5
1B8
100
AcDbEntity
  8
MAIN10
  6
BYBLOCK
 62
0
100
AcDbLine
 10
485.1582416269541
 20
87.56395864805472
 30
0.0000000000000000
 11
492.0265559227473
 21
87.56395864805472
 31
0.0000000000000000
  0
LINE
  5
1B9
100
AcDbEntity
  8
MAIN10
  6
BYBLOCK
 62
0
100
AcDbLine
 10
474.1582416269541
 20
121.5038908579581
 30
0.0000000000000000
 11
474.1582416269541
 21
82.56395864805472
 31
0.0000000000000000
  0
MTEXT
  5
1BA
100
AcDbEntity
  8
MAIN10
  6
BYBLOCK
 62
0
100
AcDbMText
 10
489.5265559227473
 20
92.68895852884543
 30
0.0000000000000000
 40
7.749999761581421
 41
0.0000000000000000
 71
     5
 72
     1
  1
\A1;6
 11
1.000000000000000
 21
0.0000000000000000
 31
0.0000000000000000
  7
STANDARD
  0
ENDBLK
  5
1BB
100
AcDbEntity
  8
MAIN10
  6
CONTINUOUS
 62
3
100
AcDbBlockEnd
  0
BLOCK
  5
1BD
100
AcDbEntity
  8
MAIN10
  6
CONTINUOUS
 62
3
100
AcDbBlockBegin
  2
*D26
 70
    65
 10
0.0
 20
0.0
 30
0.0
  0
LINE
  5
1BE
100
AcDbEntity
  8
MAIN10
  6
BYBLOCK
 62
0
100
AcDbLine
 10
474.1582416269541
 20
121.5038908579581
 30
0.0000000000000000
 11
474.1582416269541
 21
82.56395864805472
 31
0.0000000000000000
  0
LINE
  5
1BF
100
AcDbEntity
  8
MAIN10
  6
BYBLOCK
 62
0
100
AcDbLine
 10
473.1582416269541
 20
87.56395864805472
 30
0.0000000000000000
 11
471.1582416269541
 21
87.56395864805472
 31
0.0000000000000000
  0
INSERT
  5
1C0
100
AcDbEntity
  8
MAIN10
  6
BYBLOCK
 62
0
100
AcDbBlockReference
  2
_DOT
 10
474.1582416269541
 20
87.56395864805472
 30
0.0000000000000000
 41
2.500000000000000
 42
2.500000000000000
 43
2.500000000000000
 50
360.0000000000000
  0
INSERT
  5
1C1
100
AcDbEntity
  8
MAIN10
  6
BYBLOCK
 62
0
100
AcDbBlockReference
  2
_OPEN
 10
471.1582416269541
 20
87.56395864805472
 30
0.0000000000000000
 41
5.000000000000000
 42
5.000000000000000
 43
5.000000000000000
 50
360.0000000000000
  0
LINE
  5
1C2
100
AcDbEntity
  8
MAIN10
  6
BYBLOCK
 62
0
100
AcDbLine
 10
466.1582416269541
 20
87.56395864805472
 30
0.0000000000000000
 11
460.6963147333022
 21
87.56395864805472
 31
0.0000000000000000
  0
LINE
  5
1C3
100
AcDbEntity
  8
MAIN10
  6
BYBLOCK
 62
0
100
AcDbLine
 10
471.1582416269541
 20
106.8198602300481
 30
0.0000000000000000
 11
471.1582416269541
 21
82.56395864805472
 31
0.0000000000000000
  0
MTEXT
  5
1C4
100
AcDbEntity
  8
MAIN10
  6
BYBLOCK
 62
0
100
AcDbMText
 10
463.1963147333022
 20
92.68895852884543
 30
0.0000000000000000
 40
7.749999761581421
 41
0.0000000000000000
 71
     5
 72
     1
  1
\A1;3
 11
1.000000000000000
 21
0.0000000000000000
 31
0.0000000000000000
  7
STANDARD
  0
ENDBLK
  5
1C5
100
AcDbEntity
  8
MAIN10
  6
CONTINUOUS
 62
3
100
AcDbBlockEnd
  0
BLOCK
  5
1DF
100
AcDbEntity
  8
MAIN10
  6
CONTINUOUS
 62
3
100
AcDbBlockBegin
  2
*D27
 70
    65
 10
0.0
 20
0.0
 30
0.0
  0
LINE
  5
1E0
100
AcDbEntity
  8
MAIN10
  6
BYBLOCK
 62
0
100
AcDbLine
 10
1253.716452859289
 20
614.4196812377430
 30
0.0000000000000000
 11
934.1842572156920
 21
674.8697924632972
 31
0.0000000000000000
  0
INSERT
  5
1E1
100
AcDbEntity
  8
MAIN10
  6
BYBLOCK
 62
0
100
AcDbBlockReference
  2
_OPEN
 10
1258.629309495876
 20
613.4902514833526
 30
0.0000000000000000
 41
5.000000000000000
 42
5.000000000000000
 43
5.000000000000000
 50
349.2872103607866
  0
MTEXT
  5
1E2
100
AcDbEntity
  8
MAIN10
  6
BYBLOCK
 62
0
100
AcDbMText
 10
1192.631923923258
 20
631.1917517916426
 30
0.0000000000000000
 40
7.749999761581421
 41
0.0000000000000000
 71
     5
 72
     1
  1
\A1;\U+2205330.2
 11
0.9825713273173347
 21
-0.1858859508780885
 31
0.0000000000000000
  7
STANDARD
  0
ENDBLK
  5
1E3
100
AcDbEntity
  8
MAIN10
  6
CONTINUOUS
 62
3
100
AcDbBlockEnd
  0
BLOCK
  5
1E5
100
AcDbEntity
  8
MAIN10
  6
CONTINUOUS
 62
3
100
AcDbBlockBegin
  2
*D28
 70
    65
 10
0.0
 20
0.0
 30
0.0
  0
LINE
  5
1E6
100
AcDbEntity
  8
MAIN10
  6
BYBLOCK
 62
0
100
AcDbLine
 10
1221.638700720139
 20
743.9245800867757
 30
0.0000000000000000
 11
967.2638129819246
 21
541.3203933379053
 31
0.0000000000000000
  0
INSERT
  5
1E7
100
AcDbEntity
  8
MAIN10
  6
BYBLOCK
 62
0
100
AcDbBlockReference
  2
_OPEN
 10
1225.549753729644
 20
747.0396506087448
 30
0.0000000000000000
 41
5.000000000000000
 42
5.000000000000000
 43
5.000000000000000
 50
38.53657598466430
  0
MTEXT
  5
1E8
100
AcDbEntity
  8
MAIN10
  6
BYBLOCK
 62
0
100
AcDbMText
 10
1164.255415209482
 20
704.7719576672176
 30
0.0000000000000000
 40
7.749999761581421
 41
0.0000000000000000
 71
     5
 72
     1
  1
\A1;\U+2205330.2\H0.903226x;\U+00B10.2
 11
0.7822106019010268
 21
0.6230141043938199
 31
0.0000000000000000
  7
STANDARD
  0
ENDBLK
  5
1E9
100
AcDbEntity
  8
MAIN10
  6
CONTINUOUS
 62
3
100
AcDbBlockEnd
  0
BLOCK
  5
1EB
100
AcDbEntity
  8
MAIN10
  6
CONTINUOUS
 62
3
100
AcDbBlockBegin
  2
*D29
 70
    65
 10
0.0
 20
0.0
 30
0.0
  0
LINE
  5
1EC
100
AcDbEntity
  8
MAIN10
  6
BYBLOCK
 62
0
100
AcDbLine
 10
1365.005587117363
 20
489.1044303175656
 30
0.0000000000000000
 11
1392.949038164421
 21
472.9712713334594
 31
0.0000000000000000
  0
LINE
  5
1ED
100
AcDbEntity
  8
MAIN10
  6
BYBLOCK
 62
0
100
AcDbLine
 10
1415.185506356411
 20
644.1800219733250
 30
0.0000000000000000
 11
1438.824284635514
 21
644.1800219733248
 31
0.0000000000000000
  0
ARC
  5
1EE
100
AcDbEntity
  8
MAIN10
  6
BYBLOCK
 62
0
100
AcDbCircle
 10
1096.406783355785
 20
644.1800219733249
 30
0.0000000000000000
 40
337.4175012797294
100
AcDbArc
 50
330.8490339015577
 51
359.1509660984422
  0
INSERT
  5
1EF
100
AcDbEntity
  8
MAIN10
  6
BYBLOCK
 62
0
100
AcDbBlockReference
  2
_OPEN
 10
1388.618911145499
 20
475.4712713334595
 30
0.0000000000000000
 41
5.000000000000000
 42
5.000000000000000
 43
5.000000000000000
 50
239.9999999999999
  0
INSERT
  5
1F0
100
AcDbEntity
  8
MAIN10
  6
BYBLOCK
 62
0
100
AcDbBlockReference
  2
_OPEN
 10
1433.824284635514
 20
644.1800219733248
 30
0.0000000000000000
 41
5.000000000000000
 42
5.000000000000000
 43
5.000000000000000
 50
90.00000000000000
  0
MTEXT
  5
1F1
100
AcDbEntity
  8
MAIN10
  6
BYBLOCK
 62
0
100
AcDbMText
 10
1418.101136708933
 20
557.9822797826961
 30
0.0000000000000000
 40
7.749999761581421
 41
0.0000000000000000
 71
     5
 72
     1
  1
\A1;30\U+00B0
 11
0.2588190451025222
 21
0.9659258262890679
 31
0.0000000000000000
  7
STANDARD
  0
ENDBLK
  5
1F2
100
AcDbEntity
  8
MAIN10
  6
CONTINUOUS
 62
3
100
AcDbBlockEnd
  0
BLOCK
  5
1F4
100
AcDbEntity
  8
MAIN10
  6
CONTINUOUS
 62
3
100
AcDbBlockBegin
  2
*D30
 70
    65
 10
0.0
 20
0.0
 30
0.0
  0
LINE
  5
1F5
100
AcDbEntity
  8
MAIN10
  6
BYBLOCK
 62
0
100
AcDbLine
 10
1415.185506356411
 20
644.1800219733250
 30
0.0000000000000000
 11
1438.824284635514
 21
644.1800219733248
 31
0.0000000000000000
  0
LINE
  5
1F6
100
AcDbEntity
  8
MAIN10
  6
BYBLOCK
 62
0
100
AcDbLine
 10
1225.753592183685
 20
773.5268308012287
 30
0.0000000000000000
 11
1338.532520507631
 21
886.3057591251784
 31
0.0000000000000000
  0
ARC
  5
1F7
100
AcDbEntity
  8
MAIN10
  6
BYBLOCK
 62
0
100
AcDbCircle
 10
1096.406783355785
 20
644.1800219733249
 30
0.0000000000000000
 40
337.4175012797294
100
AcDbArc
 50
0.8490339015577969
 51
44.15096609844304
  0
INSERT
  5
1F8
100
AcDbEntity
  8
MAIN10
  6
BYBLOCK
 62
0
100
AcDbBlockReference
  2
_OPEN
 10
1433.824284635514
 20
644.1800219733249
 30
0.0000000000000000
 41
5.000000000000000
 42
5.000000000000000
 43
5.000000000000000
 50
270.0000000000000
  0
INSERT
  5
1F9
100
AcDbEntity
  8
MAIN10
  6
BYBLOCK
 62
0
100
AcDbBlockReference
  2
_OPEN
 10
1334.996986601699
 20
882.7702252192456
 30
0.0000000000000000
 41
5.000000000000000
 42
5.000000000000000
 43
5.000000000000000
 50
135.0000000000009
  0
MTEXT
  5
1FA
100
AcDbEntity
  8
MAIN10
  6
BYBLOCK
 62
0
100
AcDbMText
 10
1404.097933854625
 20
771.6298695321282
 30
0.0000000000000000
 40
7.749999761581421
 41
0.0000000000000000
 71
     5
 72
     1
  1
\A1;45\U+00B0
 11
-0.3826834323650964
 21
0.9238795325112840
 31
0.0000000000000000
  7
STANDARD
  0
ENDBLK
  5
1FB
100
AcDbEntity
  8
MAIN10
  6
CONTINUOUS
 62
3
100
AcDbBlockEnd
  0
BLOCK
  5
1FD
100
AcDbEntity
  8
MAIN10
  6
CONTINUOUS
 62
3
100
AcDbBlockBegin
  2
*D31
 70
    65
 10
0.0
 20
0.0
 30
0.0
  0
LINE
  5
1FE
100
AcDbEntity
  8
MAIN10
  6
BYBLOCK
 62
0
100
AcDbLine
 10
1225.753592183685
 20
773.5268308012287
 30
0.0000000000000000
 11
1338.532520507631
 21
886.3057591251784
 31
0.0000000000000000
  0
LINE
  5
1FF
100
AcDbEntity
  8
MAIN10
  6
BYBLOCK
 62
0
100
AcDbLine
 10
1235.217901959494
 20
884.6079320504198
 30
0.0000000000000000
 11
1267.615533995650
 21
940.7222767819612
 31
0.0000000000000000
  0
ARC
  5
200
100
AcDbEntity
  8
MAIN10
  6
BYBLOCK
 62
0
100
AcDbCircle
 10
1096.406783355785
 20
644.1800219733249
 30
0.0000000000000000
 40
337.4175012797294
100
AcDbArc
 50
45.84903390155863
 51
59.15096609844227
  0
INSERT
  5
201
100
AcDbEntity
  8
MAIN10
  6
BYBLOCK
 62
0
100
AcDbBlockReference
  2
_OPEN
 10
1334.996986601699
 20
882.7702252192456
 30
0.0000000000000000
 41
5.000000000000000
 42
5.000000000000000
 43
5.000000000000000
 50
315.0000000000009
  0
INSERT
  5
202
100
AcDbEntity
  8
MAIN10
  6
BYBLOCK
 62
0
100
AcDbBlockReference
  2
_OPEN
 10
1265.115533995649
 20
936.3921497630390
 30
0.0000000000000000
 41
5.000000000000000
 42
5.000000000000000
 43
5.000000000000000
 50
150.0000000000001
  0
MTEXT
  5
203
100
AcDbEntity
  8
MAIN10
  6
BYBLOCK
 62
0
100
AcDbMText
 10
1304.476874786726
 20
915.3422444555210
 30
0.0000000000000000
 40
7.749999761581421
 41
0.0000000000000000
 71
     5
 72
     1
  1
\A1;15\U+00B0
 11
0.7933533402912398
 21
-0.6087614290087146
 31
0.0000000000000000
  7
STANDARD
  0
ENDBLK
  5
204
100
AcDbEntity
  8
MAIN10
  6
CONTINUOUS
 62
3
100
AcDbBlockEnd
  0
BLOCK
  5
206
100
AcDbEntity
  8
MAIN10
  6
CONTINUOUS
 62
3
100
AcDbBlockBegin
  2
*D32
 70
    65
 10
0.0
 20
0.0
 30
0.0
  0
LINE
  5
207
100
AcDbEntity
  8
MAIN10
  6
BYBLOCK
 62
0
100
AcDbLine
 10
1235.217901959494
 20
884.6079320504198
 30
0.0000000000000000
 11
1267.615533995650
 21
940.7222767819612
 31
0.0000000000000000
  0
LINE
  5
208
100
AcDbEntity
  8
MAIN10
  6
BYBLOCK
 62
0
100
AcDbLine
 10
1096.406783355784
 20
959.8822161666667
 30
0.0000000000000000
 11
1096.406783355784
 21
986.5975232530543
 31
0.0000000000000000
  0
ARC
  5
209
100
AcDbEntity
  8
MAIN10
  6
BYBLOCK
 62
0
100
AcDbCircle
 10
1096.406783355785
 20
644.1800219733249
 30
0.0000000000000000
 40
337.4175012797294
100
AcDbArc
 50
60.84903390155785
 51
89.15096609844240
  0
INSERT
  5
20A
100
AcDbEntity
  8
MAIN10
  6
BYBLOCK
 62
0
100
AcDbBlockReference
  2
_OPEN
 10
1265.115533995649
 20
936.3921497630390
 30
0.0000000000000000
 41
5.000000000000000
 42
5.000000000000000
 43
5.000000000000000
 50
330.0000000000001
  0
INSERT
  5
20B
100
AcDbEntity
  8
MAIN10
  6
BYBLOCK
 62
0
100
AcDbBlockReference
  2
_OPEN
 10
1096.406783355784
 20
981.5975232530543
 30
0.0000000000000000
 41
5.000000000000000
 42
5.000000000000000
 43
5.000000000000000
 50
180.0000000000002
  0
MTEXT
  5
20C
100
AcDbEntity
  8
MAIN10
  6
BYBLOCK
 62
0
100
AcDbMText
 10
1184.869192129353
 20
974.3262260762077
 30
0.0000000000000000
 40
7.749999761581421
 41
0.0000000000000000
 71
     5
 72
     1
  1
\A1;30\U+00B0
 11
0.9659258262890688
 21
-0.2588190451025190
 31
0.0000000000000000
  7
STANDARD
  0
ENDBLK
  5
20D
100
AcDbEntity
  8
MAIN10
  6
CONTINUOUS
 62
3
100
AcDbBlockEnd
  0
BLOCK
  5
20F
100
AcDbEntity
  8
MAIN10
  6
CONTINUOUS
 62
3
100
AcDbBlockBegin
  2
*D33
 70
    65
 10
0.0
 20
0.0
 30
0.0
  0
LINE
  5
210
100
AcDbEntity
  8
MAIN10
  6
BYBLOCK
 62
0
100
AcDbLine
 10
1096.406783355784
 20
959.8822161666667
 30
0.0000000000000000
 11
1096.406783355784
 21
986.5975232530543
 31
0.0000000000000000
  0
LINE
  5
211
100
AcDbEntity
  8
MAIN10
  6
BYBLOCK
 62
0
100
AcDbLine
 10
987.4096175434914
 20
943.6472738271483
 30
0.0000000000000000
 11
979.2931004908730
 21
965.9472211538354
 31
0.0000000000000000
  0
ARC
  5
212
100
AcDbEntity
  8
MAIN10
  6
BYBLOCK
 62
0
100
AcDbCircle
 10
1096.406783355785
 20
644.1800219733249
 30
0.0000000000000000
 40
337.4175012797294
100
AcDbArc
 50
90.84903390155799
 51
109.1509660984425
  0
INSERT
  5
213
100
AcDbEntity
  8
MAIN10
  6
BYBLOCK
 62
0
100
AcDbBlockReference
  2
_OPEN
 10
1096.406783355784
 20
981.5975232530543
 30
0.0000000000000000
 41
5.000000000000000
 42
5.000000000000000
 43
5.000000000000000
 50
2.273736754432321e-013
  0
INSERT
  5
214
100
AcDbEntity
  8
MAIN10
  6
BYBLOCK
 62
0
100
AcDbBlockReference
  2
_OPEN
 10
981.0032012075014
 20
961.2487580499060
 30
0.0000000000000000
 41
5.000000000000000
 42
5.000000000000000
 43
5.000000000000000
 50
200.0000000000003
  0
MTEXT
  5
215
100
AcDbEntity
  8
MAIN10
  6
BYBLOCK
 62
0
100
AcDbMText
 10
1037.055138389037
 20
980.7799270376390
 30
0.0000000000000000
 40
7.749999761581421
 41
0.0000000000000000
 71
     5
 72
     1
  1
\A1;20\U+00B0
 11
0.9848077530122074
 21
0.1736481776669341
 31
0.0000000000000000
  7
STANDARD
  0
ENDBLK
  5
216
100
AcDbEntity
  8
MAIN10
  6
CONTINUOUS
 62
3
100
AcDbBlockEnd
  0
BLOCK
  5
224
100
AcDbEntity
  8
MAIN0
  6
BYBLOCK
 62
3
100
AcDbBlockBegin
  2
M0
 70
    64
 10
0.0
 20
0.0
 30
0.0
  0
MTEXT
  5
225
100
AcDbEntity
  8
MAIN0
  6
BYBLOCK
 62
0
100
AcDbMText
 10
616.1046779020516
 20
209.6707165634535
 30
0.0000000000000000
 40
7.750000953674316
 41
0.0000000000000000
 71
     1
 72
     1
  1
{\H0.95x;上記仕様は標準ソフトジョー付で許容最大入力時の場合\Pまた最大静的把握力、および許容最高回転速度については\Pソフトジョーの面上高さの１／２での実測値を示す}
 11
1.000000000000000
 21
0.0000000000000000
 31
0.0000000000000000
  7
KNJYOKO
  0
CIRCLE
  5
226
100
AcDbEntity
  8
MAIN0
  6
BYBLOCK
 62
0
100
AcDbCircle
 10
610.8463528656209
 20
205.6191348888166
 30
0.0000000000000000
 40
2.500000000000000
  0
ENDBLK
  5
227
100
AcDbEntity
  8
MAIN0
  6
BYBLOCK
 62
3
100
AcDbBlockEnd
  0
BLOCK
  5
229
100
AcDbEntity
  8
MAIN0
  6
BYBLOCK
 62
3
100
AcDbBlockBegin
  2
M1
 70
    64
 10
0.0
 20
0.0
 30
0.0
  0
LINE
  5
22A
100
AcDbEntity
  8
MAIN0
  6
BYBLOCK
 62
0
100
AcDbLine
 10
606.4796039265552
 20
451.6569725662130
 30
0.0000000000000000
 11
798.9796039265552
 21
451.6569725662130
 31
0.0000000000000000
  0
LINE
  5
22B
100
AcDbEntity
  8
MAIN0
  6
BYBLOCK
 62
0
100
AcDbLine
 10
606.4796039265552
 20
426.6569725662130
 30
0.0000000000000000
 11
798.9796039265552
 21
426.6569725662130
 31
0.0000000000000000
  0
LINE
  5
22C
100
AcDbEntity
  8
MAIN0
  6
BYBLOCK
 62
0
100
AcDbLine
 10
606.4796039265552
 20
214.1569725662130
 30
0.0000000000000000
 11
606.4796039265552
 21
451.6569725662130
 31
0.0000000000000000
  0
LINE
  5
22D
100
AcDbEntity
  8
MAIN0
  6
BYBLOCK
 62
0
100
AcDbLine
 10
606.4796039265552
 20
409.1569725662137
 30
0.0000000000000000
 11
798.9796039265548
 21
409.1569725662137
 31
0.0000000000000000
  0
LINE
  5
22E
100
AcDbEntity
  8
MAIN0
  6
BYBLOCK
 62
0
100
AcDbLine
 10
606.4796039265552
 20
391.6569725662137
 30
0.0000000000000000
 11
798.9796039265548
 21
391.6569725662137
 31
0.0000000000000000
  0
LINE
  5
22F
100
AcDbEntity
  8
MAIN0
  6
BYBLOCK
 62
0
100
AcDbLine
 10
606.4796039265552
 20
366.6569725662133
 30
0.0000000000000000
 11
798.9796039265548
 21
366.6569725662133
 31
0.0000000000000000
  0
LINE
  5
230
100
AcDbEntity
  8
MAIN0
  6
BYBLOCK
 62
0
100
AcDbLine
 10
606.4796039265552
 20
341.6569725662133
 30
0.0000000000000000
 11
798.9796039265548
 21
341.6569725662133
 31
0.0000000000000000
  0
LINE
  5
231
100
AcDbEntity
  8
MAIN0
  6
BYBLOCK
 62
0
100
AcDbLine
 10
606.4796039265552
 20
324.1569725662133
 30
0.0000000000000000
 11
798.9796039265548
 21
324.1569725662133
 31
0.0000000000000000
  0
LINE
  5
232
100
AcDbEntity
  8
MAIN0
  6
BYBLOCK
 62
0
100
AcDbLine
 10
606.4796039265552
 20
306.6569725662133
 30
0.0000000000000000
 11
798.9796039265548
 21
306.6569725662133
 31
0.0000000000000000
  0
LINE
  5
233
100
AcDbEntity
  8
MAIN0
  6
BYBLOCK
 62
0
100
AcDbLine
 10
606.4796039265552
 20
281.6569725662133
 30
0.0000000000000000
 11
798.9796039265548
 21
281.6569725662133
 31
0.0000000000000000
  0
LINE
  5
234
100
AcDbEntity
  8
MAIN0
  6
BYBLOCK
 62
0
100
AcDbLine
 10
606.4796039265552
 20
256.6569725662133
 30
0.0000000000000000
 11
798.9796039265548
 21
256.6569725662133
 31
0.0000000000000000
  0
LINE
  5
235
100
AcDbEntity
  8
MAIN0
  6
BYBLOCK
 62
0
100
AcDbLine
 10
606.4796039265552
 20
239.1569725662133
 30
0.0000000000000000
 11
798.9796039265548
 21
239.1569725662133
 31
0.0000000000000000
  0
LINE
  5
236
100
AcDbEntity
  8
MAIN0
  6
BYBLOCK
 62
0
100
AcDbLine
 10
606.4796039265551
 20
214.1569725662131
 30
0.0000000000000000
 11
798.9796039265552
 21
214.1569725662125
 31
0.0000000000000000
  0
LINE
  5
237
100
AcDbEntity
  8
MAIN0
  6
BYBLOCK
 62
0
100
AcDbLine
 10
723.9796039265548
 20
214.1569725662125
 30
0.0000000000000000
 11
723.9796039265548
 21
426.6569725662133
 31
0.0000000000000000
  0
LINE
  5
238
100
AcDbEntity
  8
MAIN0
  6
BYBLOCK
 62
0
100
AcDbLine
 10
798.9796039265548
 20
214.1569725662124
 30
0.0000000000000000
 11
798.9796039265548
 21
451.6569725662130
 31
0.0000000000000000
  0
MTEXT
  5
239
100
AcDbEntity
  8
MAIN0
  6
BYBLOCK
 62
0
100
AcDbMText
 10
614.1633750618432
 20
417.3152087162339
 30
0.0000000000000000
 40
5.999999046325684
 41
0.0000000000000000
 71
     1
 72
     1
  1
{\H0.93x;プランジャストロ－ク}
 11
1.000000000000000
 21
0.0000000000000000
 31
0.0000000000000000
  7
KNJYOKO
  0
MTEXT
  5
23A
100
AcDbEntity
  8
MAIN0
  6
BYBLOCK
 62
0
100
AcDbMText
 10
614.1633750618432
 20
399.8152087162345
 30
0.0000000000000000
 40
5.999999046325684
 41
0.0000000000000000
 71
     1
 72
     1
  1
{\H0.94x;ジョーストローク(直径で)}
 11
1.000000000000000
 21
0.0000000000000000
 31
0.0000000000000000
  7
KNJYOKO
  0
MTEXT
  5
23B
100
AcDbEntity
  8
MAIN0
  6
BYBLOCK
 62
0
100
AcDbMText
 10
614.1633750618432
 20
377.3152087162345
 30
0.0000000000000000
 40
5.999999046325684
 41
0.0000000000000000
 71
     1
 72
     1
  1
{\H0.93x;許容最大入力　}
 11
1.000000000000000
 21
0.0000000000000000
 31
0.0000000000000000
  7
KNJYOKO
  0
MTEXT
  5
23C
100
AcDbEntity
  8
MAIN0
  6
BYBLOCK
 62
0
100
AcDbMText
 10
614.1633750618432
 20
357.3152087162342
 30
0.0000000000000000
 40
5.999999046325684
 41
0.0000000000000000
 71
     1
 72
     1
  1
{\H0.93x;最大静的把握力　　}
 11
1.000000000000000
 21
0.0000000000000000
 31
0.0000000000000000
  7
KNJYOKO
  0
MTEXT
  5
23D
100
AcDbEntity
  8
MAIN0
  6
BYBLOCK
 62
0
100
AcDbMText
 10
614.1633750618432
 20
332.3152087162342
 30
0.0000000000000000
 40
5.999999046325684
 41
0.0000000000000000
 71
     1
 72
     1
  1
{\H0.93x;許容最高回転速度　}
 11
1.000000000000000
 21
0.0000000000000000
 31
0.0000000000000000
  7
KNJYOKO
  0
MTEXT
  5
23E
100
AcDbEntity
  8
MAIN0
  6
BYBLOCK
 62
0
100
AcDbMText
 10
614.1633750618431
 20
314.8152087162342
 30
0.0000000000000000
 40
5.999999046325684
 41
0.0000000000000000
 71
     1
 72
     1
  1
{\H0.89x;質量\P}
 11
1.000000000000000
 21
0.0000000000000000
 31
0.0000000000000000
  7
KNJYOKO
  0
MTEXT
  5
23F
100
AcDbEntity
  8
MAIN0
  6
BYBLOCK
 62
0
100
AcDbMText
 10
614.3484642911021
 20
299.9292503877643
 30
0.0000000000000000
 40
6.249997615814209
 41
0.0000000000000000
 71
     1
 72
     1
  1
{\H0.75x;MOMENT OF INERTIA\P慣性モーメント}
 11
1.000000000000000
 21
0.0000000000000000
 31
0.0000000000000000
  7
KNJYOKO
  0
MTEXT
  5
240
100
AcDbEntity
  8
MAIN0
  6
BYBLOCK
 62
0
100
AcDbMText
 10
614.1633750618431
 20
264.8152087162341
 30
0.0000000000000000
 40
5.999999046325684
 41
0.0000000000000000
 71
     1
 72
     1
  1
{\H0.94x;最高回転時の動的把握力}
 11
1.000000000000000
 21
0.0000000000000000
 31
0.0000000000000000
  7
KNJYOKO
  0
MTEXT
  5
241
100
AcDbEntity
  8
MAIN0
  6
BYBLOCK
 62
0
100
AcDbMText
 10
614.1633750618431
 20
247.3152087162341
 30
0.0000000000000000
 40
5.999999046325684
 41
0.0000000000000000
 71
     1
 72
     1
  1
{\H0.93x;使用シリンダ}
 11
1.000000000000000
 21
0.0000000000000000
 31
0.0000000000000000
  7
KNJYOKO
  0
MTEXT
  5
242
100
AcDbEntity
  8
MAIN0
  6
BYBLOCK
 62
0
100
AcDbMText
 10
613.6885409507160
 20
225.1081975619274
 30
0.0000000000000000
 40
5.999999046325684
 41
0.0000000000000000
 71
     1
 72
     1
  1
{\H0.93x;許容最大油圧力}
 11
1.000000000000000
 21
0.0000000000000000
 31
0.0000000000000000
  7
KNJYOKO
  0
MTEXT
  5
243
100
AcDbEntity
  8
MAIN0
  6
BYBLOCK
 62
0
100
AcDbMText
 10
761.4796039265552
 20
418.6569706588646
 30
0.0000000000000000
 40
6.999998092651367
 41
0.0000000000000000
 71
     1
 72
     1
  1
{\H0.58x;　　　　ｍｍ}
 11
1.000000000000000
 21
0.0000000000000000
 31
0.0000000000000000
  7
KNJYOKO
  0
MTEXT
  5
244
100
AcDbEntity
  8
MAIN0
  6
BYBLOCK
 62
0
100
AcDbMText
 10
761.4796039265552
 20
401.1569706588646
 30
0.0000000000000000
 40
6.999998092651367
 41
0.0000000000000000
 71
     1
 72
     1
  1
{\H0.58x;　　　　ｍｍ}
 11
1.000000000000000
 21
0.0000000000000000
 31
0.0000000000000000
  7
KNJYOKO
  0
MTEXT
  5
245
100
AcDbEntity
  8
MAIN0
  6
BYBLOCK
 62
0
100
AcDbMText
 10
761.4796039265552
 20
316.1569706588643
 30
0.0000000000000000
 40
6.999998092651367
 41
0.0000000000000000
 71
     1
 72
     1
  1
{\H0.58x;　　　　ｋｇ}
 11
1.000000000000000
 21
0.0000000000000000
 31
0.0000000000000000
  7
KNJYOKO
  0
MTEXT
  5
246
100
AcDbEntity
  8
MAIN0
  6
BYBLOCK
 62
0
100
AcDbMText
 10
761.4796039265552
 20
333.6569706588643
 30
0.0000000000000000
 40
6.999998092651367
 41
0.0000000000000000
 71
     1
 72
     1
  1
{\H0.58x;　　ｍｉｎ}
 11
1.000000000000000
 21
0.0000000000000000
 31
0.0000000000000000
  7
KNJYOKO
  0
MTEXT
  5
247
100
AcDbEntity
  8
MAIN0
  6
BYBLOCK
 62
0
100
AcDbMText
 10
673.6582056664782
 20
437.4459451789978
 30
0.0000000000000000
 40
7.750000953674316
 41
0.0000000000000000
 71
     1
 72
     1
  1
{\H0.93x;仕　　　様}
 11
1.000000000000000
 21
0.0000000000000000
 31
0.0000000000000000
  7
KNJYOKO
  0
MTEXT
  5
248
100
AcDbEntity
  8
MAIN0
  6
BYBLOCK
 62
0
100
AcDbMText
 10
758.9796039265552
 20
374.9069706588643
 30
0.0000000000000000
 40
6.999998092651367
 41
0.0000000000000000
 71
     1
 72
     1
  1
{\H0.60x;　　　ｋｇｆ)}
 11
1.000000000000000
 21
0.0000000000000000
 31
0.0000000000000000
  7
KNJYOKO
  0
MTEXT
  5
249
100
AcDbEntity
  8
MAIN0
  6
BYBLOCK
 62
0
100
AcDbMText
 10
728.9796039265552
 20
374.9069706588643
 30
0.0000000000000000
 40
6.999998092651367
 41
0.0000000000000000
 71
     1
 72
     1
  1
{\H0.60x;(}
 11
1.000000000000000
 21
0.0000000000000000
 31
0.0000000000000000
  7
STANDARD
  0
MTEXT
  5
24A
100
AcDbEntity
  8
MAIN0
  6
BYBLOCK
 62
0
100
AcDbMText
 10
761.4796039265552
 20
384.9069706588646
 30
0.0000000000000000
 40
6.999998092651367
 41
0.0000000000000000
 71
     1
 72
     1
  1
{\H0.58x;　　　　ｋＮ}
 11
1.000000000000000
 21
0.0000000000000000
 31
0.0000000000000000
  7
KNJYOKO
  0
MTEXT
  5
24B
100
AcDbEntity
  8
MAIN0
  6
BYBLOCK
 62
0
100
AcDbMText
 10
758.9796039265552
 20
349.9069706588643
 30
0.0000000000000000
 40
6.999998092651367
 41
0.0000000000000000
 71
     1
 72
     1
  1
{\H0.60x;　　　ｋｇｆ)}
 11
1.000000000000000
 21
0.0000000000000000
 31
0.0000000000000000
  7
KNJYOKO
  0
MTEXT
  5
24C
100
AcDbEntity
  8
MAIN0
  6
BYBLOCK
 62
0
100
AcDbMText
 10
728.9796039265552
 20
349.9069706588643
 30
0.0000000000000000
 40
6.999998092651367
 41
0.0000000000000000
 71
     1
 72
     1
  1
{\H0.60x;(}
 11
1.000000000000000
 21
0.0000000000000000
 31
0.0000000000000000
  7
STANDARD
  0
MTEXT
  5
24D
100
AcDbEntity
  8
MAIN0
  6
BYBLOCK
 62
0
100
AcDbMText
 10
760.9287091897058
 20
290.5840318740095
 30
0.0000000000000000
 40
6.999998092651367
 41
0.0000000000000000
 71
     7
 72
     1
  1
　　ｋｇ・ｍ
 11
1.000000000000000
 21
0.0000000000000000
 31
0.0000000000000000
  7
KNJYOKO
  0
MTEXT
  5
24E
100
AcDbEntity
  8
MAIN0
  6
BYBLOCK
 62
0
100
AcDbMText
 10
790.9287091897058
 20
294.0840309203352
 30
0.0000000000000000
 40
3.499999046325684
 41
0.0000000000000000
 71
     7
 72
     1
  1
2
 11
1.000000000000000
 21
0.0000000000000000
 31
0.0000000000000000
  7
STANDARD
  0
MTEXT
  5
24F
100
AcDbEntity
  8
MAIN0
  6
BYBLOCK
 62
0
100
AcDbMText
 10
758.9796039265552
 20
264.9069706588643
 30
0.0000000000000000
 40
6.999998092651367
 41
0.0000000000000000
 71
     1
 72
     1
  1
{\H0.60x;　　　ｋｇｆ)}
 11
1.000000000000000
 21
0.0000000000000000
 31
0.0000000000000000
  7
KNJYOKO
  0
MTEXT
  5
250
100
AcDbEntity
  8
MAIN0
  6
BYBLOCK
 62
0
100
AcDbMText
 10
728.9796039265552
 20
264.9069706588643
 30
0.0000000000000000
 40
6.999998092651367
 41
0.0000000000000000
 71
     1
 72
     1
  1
{\H0.60x;(}
 11
1.000000000000000
 21
0.0000000000000000
 31
0.0000000000000000
  7
STANDARD
  0
MTEXT
  5
251
100
AcDbEntity
  8
MAIN0
  6
BYBLOCK
 62
0
100
AcDbMText
 10
758.9796039265552
 20
222.4069706588639
 30
0.0000000000000000
 40
6.999998092651367
 41
0.0000000000000000
 71
     1
 72
     1
  1
{\H0.62x;ｋｇｆ／ｃｍ )}
 11
1.000000000000000
 21
0.0000000000000000
 31
0.0000000000000000
  7
KNJYOKO
  0
MTEXT
  5
252
100
AcDbEntity
  8
MAIN0
  6
BYBLOCK
 62
0
100
AcDbMText
 10
789.1128435099695
 20
223.4329826367688
 30
0.0000000000000000
 40
5.000000000000000
 41
0.0000000000000000
 71
     1
 72
     1
  1
{\H0.81x;2}
 11
1.000000000000000
 21
0.0000000000000000
 31
0.0000000000000000
  7
STANDARD
  0
MTEXT
  5
253
100
AcDbEntity
  8
MAIN0
  6
BYBLOCK
 62
0
100
AcDbMText
 10
728.9796039265552
 20
222.4069706588639
 30
0.0000000000000000
 40
6.999998092651367
 41
0.0000000000000000
 71
     1
 72
     1
  1
{\H0.60x;(}
 11
1.000000000000000
 21
0.0000000000000000
 31
0.0000000000000000
  7
STANDARD
  0
MTEXT
  5
254
100
AcDbEntity
  8
MAIN0
  6
BYBLOCK
 62
0
100
AcDbMText
 10
761.4796039265552
 20
232.4069706588639
 30
0.0000000000000000
 40
6.999998092651367
 41
0.0000000000000000
 71
     1
 72
     1
  1
{\H0.58x;　　　ＭＰａ}
 11
1.000000000000000
 21
0.0000000000000000
 31
0.0000000000000000
  7
KNJYOKO
  0
MTEXT
  5
255
100
AcDbEntity
  8
MAIN0
  6
BYBLOCK
 62
0
100
AcDbMText
 10
761.4796039265552
 20
359.9069706588643
 30
0.0000000000000000
 40
6.999998092651367
 41
0.0000000000000000
 71
     1
 72
     1
  1
{\H0.58x;　　　　ｋＮ}
 11
1.000000000000000
 21
0.0000000000000000
 31
0.0000000000000000
  7
KNJYOKO
  0
MTEXT
  5
256
100
AcDbEntity
  8
MAIN0
  6
BYBLOCK
 62
0
100
AcDbMText
 10
761.4796039265552
 20
274.9069706588643
 30
0.0000000000000000
 40
6.999998092651367
 41
0.0000000000000000
 71
     1
 72
     1
  1
{\H0.58x;　　　　ｋＮ}
 11
1.000000000000000
 21
0.0000000000000000
 31
0.0000000000000000
  7
KNJYOKO
  0
MTEXT
  5
257
100
AcDbEntity
  8
MAIN0
  6
BYBLOCK
 62
0
100
AcDbMText
 10
786.8662745473550
 20
335.3308320411013
 30
0.0000000000000000
 40
5.000000000000000
 41
0.0000000000000000
 71
     1
 72
     1
  1
{\H0.88x;-1}
 11
1.000000000000000
 21
0.0000000000000000
 31
0.0000000000000000
  7
STANDARD
  0
MTEXT
  5
258
100
AcDbEntity
  8
MAIN0
  6
BYBLOCK
 62
0
100
AcDbMText
 10
614.1633750618432
 20
425.0652072857225
 30
0.0000000000000000
 40
6.249997615814209
 41
0.0000000000000000
 71
     1
 72
     1
  1
{\H0.75x;PLUNGER STROKE}
 11
1.000000000000000
 21
0.0000000000000000
 31
0.0000000000000000
  7
STANDARD
  0
MTEXT
  5
259
100
AcDbEntity
  8
MAIN0
  6
BYBLOCK
 62
0
100
AcDbMText
 10
614.1633750618432
 20
407.5652072857230
 30
0.0000000000000000
 40
6.249997615814209
 41
0.0000000000000000
 71
     1
 72
     1
  1
{\H0.75x;JAW STROKE (IN DIA)}
 11
1.000000000000000
 21
0.0000000000000000
 31
0.0000000000000000
  7
STANDARD
  0
MTEXT
  5
25A
100
AcDbEntity
  8
MAIN0
  6
BYBLOCK
 62
0
100
AcDbMText
 10
614.1633750618432
 20
385.0652096699088
 30
0.0000000000000000
 40
6.250000000000000
 41
0.0000000000000000
 71
     1
 72
     1
  1
{\H0.63x;MAX PERMISSIBLE INPUT FORCE}
 11
1.000000000000000
 21
0.0000000000000000
 31
0.0000000000000000
  7
STANDARD
  0
MTEXT
  5
25B
100
AcDbEntity
  8
MAIN0
  6
BYBLOCK
 62
0
100
AcDbMText
 10
614.1633750618432
 20
365.0652096699085
 30
0.0000000000000000
 40
6.250000000000000
 41
0.0000000000000000
 71
     1
 72
     1
  1
{\H0.63x;MAX STATIC GRIPPING FORCE}
 11
1.000000000000000
 21
0.0000000000000000
 31
0.0000000000000000
  7
STANDARD
  0
MTEXT
  5
25C
100
AcDbEntity
  8
MAIN0
  6
BYBLOCK
 62
0
100
AcDbMText
 10
614.1633750618432
 20
340.0652072857228
 30
0.0000000000000000
 40
6.249997615814209
 41
0.0000000000000000
 71
     1
 72
     1
  1
{\H0.75x;MAX PERMISSIBLE SPEED}
 11
1.000000000000000
 21
0.0000000000000000
 31
0.0000000000000000
  7
STANDARD
  0
MTEXT
  5
25D
100
AcDbEntity
  8
MAIN0
  6
BYBLOCK
 62
0
100
AcDbMText
 10
614.1633750618431
 20
322.5652072857228
 30
0.0000000000000000
 40
6.249997615814209
 41
0.0000000000000000
 71
     1
 72
     1
  1
{\H0.73x;MASS}
 11
1.000000000000000
 21
0.0000000000000000
 31
0.0000000000000000
  7
STANDARD
  0
MTEXT
  5
25E
100
AcDbEntity
  8
MAIN0
  6
BYBLOCK
 62
0
100
AcDbMText
 10
614.3484642911021
 20
256.3744735531551
 30
0.0000000000000000
 40
6.249997615814209
 41
0.0000000000000000
 71
     1
 72
     1
  1
{\H0.75x;OPERATING CYLINDER}
 11
1.000000000000000
 21
0.0000000000000000
 31
0.0000000000000000
  7
STANDARD
  0
MTEXT
  5
25F
100
AcDbEntity
  8
MAIN0
  6
BYBLOCK
 62
0
100
AcDbMText
 10
613.3585792805228
 20
234.2671258498431
 30
0.0000000000000000
 40
6.250000000000000
 41
0.0000000000000000
 71
     1
 72
     1
  1
{\H0.63x;MAX PERMISSIBLE OIL PRESS}
 11
1.000000000000000
 21
0.0000000000000000
 31
0.0000000000000000
  7
STANDARD
  0
MTEXT
  5
260
100
AcDbEntity
  8
MAIN0
  6
BYBLOCK
 62
0
100
AcDbMText
 10
614.0185026209091
 20
278.8117814015363
 30
0.0000000000000000
 40
6.250000000000000
 41
0.0000000000000000
 71
     1
 72
     1
  1
{\H0.63x;DYNAMIC GRIPPING FORCE}
 11
1.000000000000000
 21
0.0000000000000000
 31
0.0000000000000000
  7
STANDARD
  0
MTEXT
  5
261
100
AcDbEntity
  8
MAIN0
  6
BYBLOCK
 62
0
100
AcDbMText
 10
591.0514177919987
 20
272.1023479207570
 30
0.0000000000000000
 40
6.249997615814209
 41
0.0000000000000000
 71
     1
 72
     1
  1
{\H0.75x;            AT MAX SPEED}
 11
1.000000000000000
 21
0.0000000000000000
 31
0.0000000000000000
  7
STANDARD
  0
MTEXT
  5
262
100
AcDbEntity
  8
MAIN0
  6
BYBLOCK
 62
0
100
AcDbMText
 10
649.1502229439195
 20
447.5572839476686
 30
0.0000000000000000
 40
7.750000953674316
 41
0.0000000000000000
 71
     1
 72
     1
  1
{\H0.94x;SPECIFICATIONS}
 11
1.000000000000000
 21
0.0000000000000000
 31
0.0000000000000000
  7
STANDARD
  0
ENDBLK
  5
263
100
AcDbEntity
  8
MAIN0
  6
BYBLOCK
 62
3
100
AcDbBlockEnd
  0
BLOCK
  5
265
100
AcDbEntity
  8
MAIN0
  6
BYBLOCK
 62
3
100
AcDbBlockBegin
  2
M2
 70
    64
 10
0.0
 20
0.0
 30
0.0
  0
MTEXT
  5
266
100
AcDbEntity
  8
MAIN0
  6
BYBLOCK
 62
0
100
AcDbMText
 10
548.4485476341207
 20
161.3526527266890
 30
0.0000000000000000
 40
7.749999761581421
 41
0.0000000000000000
 71
     1
 72
     1
  3
{\H0.93x;ABOVE SPECS : WITH STD SOFT BLANK TOP JAWS\P              AT MAX PERMISSBLE INPUT FORCE.\P              MAX. STATIC GRIPPING FORCE AND\P              MAX. PERMISSIBLE SPEED ARE\P              ACTUAL VALUE AT 1/2 HEIGHT\P              OF STD 
  1
SOFT BLANK TOP JAWS\P              FROM CHUCK SURFACE.}
 11
1.000000000000000
 21
0.0000000000000000
 31
0.0000000000000000
  7
STANDARD
  0
ENDBLK
  5
267
100
AcDbEntity
  8
MAIN0
  6
BYBLOCK
 62
3
100
AcDbBlockEnd
  0
ENDSEC
  0
SECTION
  2
ENTITIES
  0
LINE
  5
46
100
AcDbEntity
  8
MAIN0
  6
CONTINUOUS
 62
3
100
AcDbLine
 10
471.1582416269541
 20
201.6123511585729
 30
0.0000000000000000
 11
471.1582416269541
 21
187.5038908877586
 31
0.0000000000000000
  0
LINE
  5
47
100
AcDbEntity
  8
MAIN0
  6
CONTINUOUS
 62
3
100
AcDbLine
 10
471.1582416269541
 20
122.5038908877586
 30
0.0000000000000000
 11
471.1582416269541
 21
108.8198602598504
 31
0.0000000000000000
  0
LINE
  5
48
100
AcDbEntity
  8
MAIN0
  6
CENTER
 62
12
100
AcDbLine
 10
464.7940237338003
 20
847.6800219733248
 30
0.0000000000000000
 11
557.5361099386091
 21
847.6800219733248
 31
0.0000000000000000
  0
LINE
  5
49
100
AcDbEntity
  8
MAIN0
  6
CONTINUOUS
 62
3
100
AcDbLine
 10
483.2882865339784
 20
930.6800219733214
 30
0.0000000000000000
 11
489.2882865339784
 21
930.6800219733214
 31
0.0000000000000000
  0
LINE
  5
4A
100
AcDbEntity
  8
MAIN0
  6
CONTINUOUS
 62
3
100
AcDbLine
 10
483.2882865339784
 20
884.6800219733248
 30
0.0000000000000000
 11
489.2882865339784
 21
884.6800219733248
 31
0.0000000000000000
  0
LINE
  5
4B
100
AcDbEntity
  8
MAIN0
  6
CONTINUOUS
 62
3
100
AcDbLine
 10
472.4261908193853
 20
187.5038908877595
 30
0.0000000000000000
 11
474.1582416269545
 21
186.5038908877592
 31
0.0000000000000000
  0
LINE
  5
4C
100
AcDbEntity
  8
MAIN0
  6
CONTINUOUS
 62
3
100
AcDbLine
 10
474.1582416269525
 20
123.5038908877624
 30
0.0000000000000000
 11
472.4261908193836
 21
122.5038908877625
 31
0.0000000000000000
  0
LINE
  5
4D
100
AcDbEntity
  8
MAIN0
  6
CONTINUOUS
 62
3
100
AcDbLine
 10
483.2882865339781
 20
945.0253214349449
 30
0.0000000000000000
 11
481.2882865339781
 21
946.1800219733241
 31
0.0000000000000000
  0
LINE
  5
4E
100
AcDbEntity
  8
MAIN0
  6
CONTINUOUS
 62
3
100
AcDbLine
 10
483.2882865339784
 20
947.6800219733246
 30
0.0000000000000000
 11
481.2882865339784
 21
946.1800219733245
 31
0.0000000000000000
  0
LINE
  5
4F
100
AcDbEntity
  8
MAIN0
  6
CENTER
 62
12
100
AcDbLine
 10
881.2786068883974
 20
489.7929537544858
 30
0.0000000000000000
 11
856.1885616029844
 21
533.2501869530252
 31
0.0000000000000000
  0
LINE
  5
50
100
AcDbEntity
  8
MAIN0
  6
CONTINUOUS
 62
3
100
AcDbLine
 10
481.2882865339785
 20
768.8347225117033
 30
0.0000000000000000
 11
483.2882865339785
 21
767.6800219733241
 31
0.0000000000000000
  0
LINE
  5
51
100
AcDbEntity
  8
MAIN0
  6
CONTINUOUS
 62
3
100
AcDbLine
 10
481.2882865339784
 20
769.1800219733251
 30
0.0000000000000000
 11
483.2882865339784
 21
770.3347225117043
 31
0.0000000000000000
  0
LINE
  5
52
100
AcDbEntity
  8
MAIN0
  6
CONTINUOUS
 62
3
100
AcDbLine
 10
481.2882865339785
 20
771.4894230500830
 30
0.0000000000000000
 11
483.2882865339785
 21
770.3347225117037
 31
0.0000000000000000
  0
LINE
  5
53
100
AcDbEntity
  8
MAIN0
  6
CONTINUOUS
 62
3
100
AcDbLine
 10
481.2882865339784
 20
768.8347225117032
 30
0.0000000000000000
 11
483.2882865339785
 21
769.9894230500825
 31
0.0000000000000000
  0
LINE
  5
54
100
AcDbEntity
  8
MAIN0
  6
CONTINUOUS
 62
3
100
AcDbLine
 10
1210.909958828837
 20
592.5053395206287
 30
0.0000000000000000
 11
1364.196455298685
 21
504.0053395206278
 31
0.0000000000000000
  0
LINE
  5
55
100
AcDbEntity
  8
MAIN0
  6
CONTINUOUS
 62
3
100
AcDbLine
 10
1198.409958828839
 20
570.8547044260197
 30
0.0000000000000000
 11
1351.696455298686
 21
482.3547044260187
 31
0.0000000000000000
  0
LINE
  5
56
100
AcDbEntity
  8
MAIN0
  6
CONTINUOUS
 62
3
100
AcDbLine
 10
1341.696455298685
 20
465.0341963503307
 30
0.0000000000000000
 11
1374.196455298681
 21
521.3258475963111
 31
0.0000000000000000
  0
LINE
  5
57
100
AcDbEntity
  8
MAIN0
  6
CENTER
 62
12
100
AcDbLine
 10
1285.015829631142
 20
563.8604728893549
 30
0.0000000000000000
 11
1260.633799078702
 21
521.6295571808312
 31
0.0000000000000000
  0
LINE
  5
58
100
AcDbEntity
  8
MAIN0
  6
CENTER
 62
12
100
AcDbLine
 10
1337.673994682797
 20
535.0670901921669
 30
0.0000000000000000
 11
1312.583949397382
 21
491.6098569936255
 31
0.0000000000000000
  0
LINE
  5
59
100
AcDbEntity
  8
MAIN0
  6
CENTER
 62
12
100
AcDbLine
 10
321.5973137585065
 20
479.0800219733252
 30
0.0000000000000000
 11
492.4043854971102
 21
479.0800219733252
 31
0.0000000000000000
  0
LINE
  5
5A
100
AcDbEntity
  8
MAIN0
  6
CENTER
 62
12
100
AcDbLine
 10
348.0715238638037
 20
401.6800219733252
 30
0.0000000000000000
 11
448.4171003760191
 21
401.6800219733252
 31
0.0000000000000000
  0
LINE
  5
5B
100
AcDbEntity
  8
MAIN0
  6
CENTER
 62
12
100
AcDbLine
 10
361.2882865339784
 20
509.1800219733253
 30
0.0000000000000000
 11
383.2882865339778
 21
509.1800219733253
 31
0.0000000000000000
  0
LINE
  5
5C
100
AcDbEntity
  8
MAIN0
  6
CENTER
 62
12
100
AcDbLine
 10
383.2882865339783
 20
509.1800219733253
 30
0.0000000000000000
 11
383.2882865339783
 21
527.1800219733254
 31
0.0000000000000000
  0
LINE
  5
5D
100
AcDbEntity
  8
MAIN0
  6
CONTINUOUS
 62
3
100
AcDbLine
 10
450.2882865339785
 20
497.0800219733252
 30
0.0000000000000000
 11
480.2882865339784
 21
497.0800219733252
 31
0.0000000000000000
  0
LINE
  5
5E
100
AcDbEntity
  8
MAIN0
  6
CONTINUOUS
 62
3
100
AcDbLine
 10
450.2882865339784
 20
461.0800219733252
 30
0.0000000000000000
 11
480.2882865339784
 21
461.0800219733252
 31
0.0000000000000000
  0
LINE
  5
5F
100
AcDbEntity
  8
MAIN0
  6
CONTINUOUS
 62
3
100
AcDbLine
 10
361.2882865339783
 20
467.0800219733252
 30
0.0000000000000000
 11
450.2882865339784
 21
467.0800219733252
 31
0.0000000000000000
  0
LINE
  5
60
100
AcDbEntity
  8
MAIN0
  6
CONTINUOUS
 62
3
100
AcDbLine
 10
450.2882865339784
 20
491.0800219733252
 30
0.0000000000000000
 11
361.2882865339783
 21
491.0800219733252
 31
0.0000000000000000
  0
LINE
  5
61
100
AcDbEntity
  8
MAIN0
  6
CONTINUOUS
 62
3
100
AcDbLine
 10
450.2882865339784
 20
497.0800219733252
 30
0.0000000000000000
 11
450.2882865339784
 21
461.0800219733252
 31
0.0000000000000000
  0
LINE
  5
62
100
AcDbEntity
  8
MAIN0
  6
CENTER
 62
12
100
AcDbLine
 10
1190.415926640741
 20
481.3514094277545
 30
0.0000000000000000
 11
1165.739207410296
 21
524.0927408989974
 31
0.0000000000000000
  0
LINE
  5
63
100
AcDbEntity
  8
MAIN0
  6
CENTER
 62
12
100
AcDbLine
 10
1027.613393345853
 20
763.3336686954265
 30
0.0000000000000000
 11
1000.099465534193
 21
810.9891895810044
 31
0.0000000000000000
  0
LINE
  5
64
100
AcDbEntity
  8
MAIN0
  6
CONTINUOUS
 62
3
100
AcDbLine
 10
361.2882865339783
 20
454.1800219733250
 30
0.0000000000000000
 11
361.2882865339783
 21
468.0800219733252
 31
0.0000000000000000
  0
LINE
  5
65
100
AcDbEntity
  8
MAIN0
  6
CONTINUOUS
 62
3
100
AcDbLine
 10
361.2882865339783
 20
490.0800219733251
 30
0.0000000000000000
 11
361.2882865339783
 21
605.1800219733252
 31
0.0000000000000000
  0
LINE
  5
66
100
AcDbEntity
  8
MAIN0
  6
CONTINUOUS
 62
3
100
AcDbLine
 10
355.2882865339784
 20
342.1800219733286
 30
0.0000000000000000
 11
355.2882865339784
 21
468.0800219733252
 31
0.0000000000000000
  0
LINE
  5
67
100
AcDbEntity
  8
MAIN0
  6
CONTINUOUS
 62
3
100
AcDbLine
 10
355.2882865339784
 20
490.0800219733251
 30
0.0000000000000000
 11
355.2882865339784
 21
614.1800219733252
 31
0.0000000000000000
  0
LINE
  5
68
100
AcDbEntity
  8
MAIN0
  6
CONTINUOUS
 62
3
100
AcDbLine
 10
364.2882865339785
 20
606.1800219733251
 30
0.0000000000000000
 11
364.2882865339785
 21
614.1800219733250
 31
0.0000000000000000
  0
LINE
  5
69
100
AcDbEntity
  8
MAIN0
  6
CONTINUOUS
 62
3
100
AcDbLine
 10
364.2882865339785
 20
674.1800219733248
 30
0.0000000000000000
 11
364.2882865339785
 21
682.1800219733248
 31
0.0000000000000000
  0
LINE
  5
6A
100
AcDbEntity
  8
MAIN0
  6
CONTINUOUS
 62
3
100
AcDbLine
 10
364.2882865339786
 20
674.6800219733248
 30
0.0000000000000000
 11
374.2882865339785
 21
674.6800219733248
 31
0.0000000000000000
  0
LINE
  5
6B
100
AcDbEntity
  8
MAIN0
  6
CONTINUOUS
 62
3
100
AcDbLine
 10
374.2882865339785
 20
674.6800219733245
 30
0.0000000000000000
 11
376.8863627453316
 21
673.1800219733246
 31
0.0000000000000000
  0
LINE
  5
6C
100
AcDbEntity
  8
MAIN0
  6
CONTINUOUS
 62
3
100
AcDbLine
 10
374.2882865339785
 20
615.1800219733250
 30
0.0000000000000000
 11
374.2882865339785
 21
613.6800219733250
 31
0.0000000000000000
  0
LINE
  5
6D
100
AcDbEntity
  8
MAIN0
  6
CONTINUOUS
 62
3
100
AcDbLine
 10
364.2882865339786
 20
613.6800219733250
 30
0.0000000000000000
 11
374.2882865339785
 21
613.6800219733250
 31
0.0000000000000000
  0
LINE
  5
6E
100
AcDbEntity
  8
MAIN0
  6
CONTINUOUS
 62
3
100
AcDbLine
 10
374.2882865339785
 20
613.6800219733254
 30
0.0000000000000000
 11
376.8863627453316
 21
615.1800219733253
 31
0.0000000000000000
  0
LINE
  5
6F
100
AcDbEntity
  8
MAIN0
  6
CONTINUOUS
 62
3
100
AcDbLine
 10
365.2882865339785
 20
683.1800219733248
 30
0.0000000000000000
 11
364.2882865339785
 21
682.1800219733248
 31
0.0000000000000000
  0
LINE
  5
70
100
AcDbEntity
  8
MAIN0
  6
CONTINUOUS
 62
3
100
AcDbLine
 10
365.2882865339785
 20
605.1800219733251
 30
0.0000000000000000
 11
364.2882865339786
 21
606.1800219733250
 31
0.0000000000000000
  0
LINE
  5
71
100
AcDbEntity
  8
MAIN0
  6
CONTINUOUS
 62
3
100
AcDbLine
 10
1004.403607882730
 20
553.5341963503300
 30
0.0000000000000000
 11
994.4036078827296
 21
570.8547044260188
 31
0.0000000000000000
  0
LINE
  5
72
100
AcDbEntity
  8
MAIN0
  6
CONTINUOUS
 62
3
100
AcDbLine
 10
981.9036078827297
 20
592.5053395206290
 30
0.0000000000000000
 11
971.9036078827298
 21
609.8258475963175
 31
0.0000000000000000
  0
LINE
  5
73
100
AcDbEntity
  8
MAIN0
  6
CONTINUOUS
 62
3
100
AcDbLine
 10
1220.909958828839
 20
609.8258475963173
 30
0.0000000000000000
 11
1210.909958828839
 21
592.5053395206285
 31
0.0000000000000000
  0
LINE
  5
74
100
AcDbEntity
  8
MAIN0
  6
CONTINUOUS
 62
3
100
AcDbLine
 10
1198.409958828839
 20
570.8547044260209
 30
0.0000000000000000
 11
1188.409958828840
 21
553.5341963503324
 31
0.0000000000000000
  0
LINE
  5
75
100
AcDbEntity
  8
MAIN0
  6
CONTINUOUS
 62
3
100
AcDbLine
 10
980.1308492186820
 20
614.5758475963180
 30
0.0000000000000000
 11
1012.630849218682
 21
558.2841963503298
 31
0.0000000000000000
  0
LINE
  5
76
100
AcDbEntity
  8
MAIN0
  6
CONTINUOUS
 62
3
100
AcDbLine
 10
984.1308492186815
 20
616.8852486730759
 30
0.0000000000000000
 11
1016.630849218681
 21
560.5935974270880
 31
0.0000000000000000
  0
LINE
  5
77
100
AcDbEntity
  8
MAIN0
  6
CONTINUOUS
 62
3
100
AcDbLine
 10
1180.182717492887
 20
558.2841963503321
 30
0.0000000000000000
 11
1212.682717492887
 21
614.5758475963205
 31
0.0000000000000000
  0
LINE
  5
78
100
AcDbEntity
  8
MAIN0
  6
CONTINUOUS
 62
3
100
AcDbLine
 10
1176.182717492887
 20
560.5935974270911
 30
0.0000000000000000
 11
1208.682717492886
 21
616.8852486730787
 31
0.0000000000000000
  0
LINE
  5
79
100
AcDbEntity
  8
MAIN0
  6
CENTER
 62
12
100
AcDbLine
 10
996.7247995197824
 20
701.7314421743959
 30
0.0000000000000000
 11
980.6007075410558
 21
711.0406910187525
 31
0.0000000000000000
  0
LINE
  5
7A
100
AcDbEntity
  8
MAIN0
  6
CONTINUOUS
 62
3
100
AcDbLine
 10
990.5866205846510
 20
707.5847225116875
 30
0.0000000000000000
 11
988.5866205846496
 21
708.7394230500674
 31
0.0000000000000000
  0
LINE
  5
7B
100
AcDbEntity
  8
MAIN0
  6
CONTINUOUS
 62
3
100
AcDbLine
 10
986.5866205846522
 20
705.2753214349300
 30
0.0000000000000000
 11
986.5866205846523
 21
707.5847225116885
 31
0.0000000000000000
  0
LINE
  5
7C
100
AcDbEntity
  8
MAIN0
  6
CONTINUOUS
 62
3
100
AcDbLine
 10
988.5866205846509
 20
708.7394230500667
 30
0.0000000000000000
 11
986.5866205846528
 21
707.5847225116884
 31
0.0000000000000000
  0
LINE
  5
7D
100
AcDbEntity
  8
MAIN0
  6
CONTINUOUS
 62
3
100
AcDbLine
 10
988.5866205846511
 20
704.1206208965489
 30
0.0000000000000000
 11
986.5866205846497
 21
705.2753214349289
 31
0.0000000000000000
  0
LINE
  5
7E
100
AcDbEntity
  8
MAIN0
  6
CONTINUOUS
 62
3
100
AcDbLine
 10
990.5866205846508
 20
705.2753214349301
 30
0.0000000000000000
 11
990.5866205846508
 21
707.5847225116886
 31
0.0000000000000000
  0
LINE
  5
7F
100
AcDbEntity
  8
MAIN0
  6
CONTINUOUS
 62
3
100
AcDbLine
 10
988.5866205846520
 20
704.1206208965504
 30
0.0000000000000000
 11
990.5866205846501
 21
705.2753214349285
 31
0.0000000000000000
  0
LINE
  5
80
100
AcDbEntity
  8
MAIN0
  6
CONTINUOUS
 62
3
100
AcDbLine
 10
1094.406783355783
 20
520.8347225117378
 30
0.0000000000000000
 11
1094.406783355783
 21
518.5253214349795
 31
0.0000000000000000
  0
LINE
  5
81
100
AcDbEntity
  8
MAIN0
  6
CONTINUOUS
 62
3
100
AcDbLine
 10
1098.406783355782
 20
518.5253214349789
 30
0.0000000000000000
 11
1096.406783355781
 21
517.3706208965990
 31
0.0000000000000000
  0
LINE
  5
82
100
AcDbEntity
  8
MAIN0
  6
CONTINUOUS
 62
3
100
AcDbLine
 10
1094.406783355783
 20
518.5253214349802
 30
0.0000000000000000
 11
1096.406783355784
 21
517.3706208966003
 31
0.0000000000000000
  0
LINE
  5
83
100
AcDbEntity
  8
MAIN0
  6
CONTINUOUS
 62
3
100
AcDbLine
 10
1098.406783355784
 20
520.8347225117377
 30
0.0000000000000000
 11
1098.406783355784
 21
518.5253214349795
 31
0.0000000000000000
  0
LINE
  5
84
100
AcDbEntity
  8
MAIN0
  6
CONTINUOUS
 62
3
100
AcDbLine
 10
1096.406783355782
 20
521.9894230501197
 30
0.0000000000000000
 11
1094.406783355781
 21
520.8347225117398
 31
0.0000000000000000
  0
LINE
  5
85
100
AcDbEntity
  8
MAIN0
  6
CONTINUOUS
 62
3
100
AcDbLine
 10
1098.406783355783
 20
520.8347225117382
 30
0.0000000000000000
 11
1096.406783355784
 21
521.9894230501174
 31
0.0000000000000000
  0
LINE
  5
86
100
AcDbEntity
  8
MAIN0
  6
CONTINUOUS
 62
3
100
AcDbLine
 10
480.2882865339784
 20
342.1800219733250
 30
0.0000000000000000
 11
480.2882865339784
 21
946.1800219733214
 31
0.0000000000000000
  0
LINE
  5
87
100
AcDbEntity
  8
MAIN0
  6
CONTINUOUS
 62
3
100
AcDbLine
 10
382.2882865339786
 20
819.7800219733248
 30
0.0000000000000000
 11
387.2882865339785
 21
819.7800219733248
 31
0.0000000000000000
  0
LINE
  5
88
100
AcDbEntity
  8
MAIN0
  6
CONTINUOUS
 62
3
100
AcDbLine
 10
382.2882865339785
 20
798.7800219733248
 30
0.0000000000000000
 11
387.2882865339785
 21
798.7800219733248
 31
0.0000000000000000
  0
LINE
  5
89
100
AcDbEntity
  8
MAIN0
  6
CONTINUOUS
 62
3
100
AcDbLine
 10
387.2882865339784
 20
798.7800219733248
 30
0.0000000000000000
 11
387.2882865339784
 21
800.2800219733248
 31
0.0000000000000000
  0
LINE
  5
8A
100
AcDbEntity
  8
MAIN0
  6
CONTINUOUS
 62
3
100
AcDbLine
 10
387.2882865339785
 20
818.2800219733248
 30
0.0000000000000000
 11
387.2882865339785
 21
819.7800219733248
 31
0.0000000000000000
  0
ARC
  5
8B
100
AcDbEntity
  8
MAIN0
  6
CONTINUOUS
 62
3
100
AcDbCircle
 10
454.5582416269542
 20
167.9038908877601
 30
0.0000000000000000
 40
0.3999999999999999
100
AcDbArc
 50
179.9999999999998
 51
269.9999999999999
  0
ARC
  5
8C
100
AcDbEntity
  8
MAIN0
  6
CONTINUOUS
 62
3
100
AcDbCircle
 10
454.5582416269542
 20
142.1038908877590
 30
0.0000000000000000
 40
0.3999999999999999
100
AcDbArc
 50
89.99999999999970
 51
179.9999999999998
  0
ARC
  5
8D
100
AcDbEntity
  8
MAIN0
  6
CONTINUOUS
 62
3
100
AcDbCircle
 10
868.2090894585856
 20
512.4300219733256
 30
0.0000000000000000
 40
22.99999999999977
100
AcDbArc
 50
177.0792654719099
 51
242.9207345280892
  0
ARC
  5
8E
100
AcDbEntity
  8
MAIN0
  6
CONTINUOUS
 62
3
100
AcDbCircle
 10
868.2090894585856
 20
512.4300219733256
 30
0.0000000000000000
 40
22.99999999999977
100
AcDbArc
 50
357.0792654719106
 51
422.9207345280896
  0
ARC
  5
8F
100
AcDbEntity
  8
MAIN0
  6
CONTINUOUS
 62
3
100
AcDbCircle
 10
1272.642953025918
 20
542.4300219733248
 30
0.0000000000000000
 40
22.99999999999977
100
AcDbArc
 50
297.0792654719102
 51
362.9207345280892
  0
ARC
  5
90
100
AcDbEntity
  8
MAIN0
  6
CONTINUOUS
 62
3
100
AcDbCircle
 10
1272.642953025918
 20
542.4300219733248
 30
0.0000000000000000
 40
22.99999999999977
100
AcDbArc
 50
117.0792654719104
 51
182.9207345280893
  0
ARC
  5
91
100
AcDbEntity
  8
MAIN0
  6
CONTINUOUS
 62
3
100
AcDbCircle
 10
1324.604477252984
 20
512.4300219733248
 30
0.0000000000000000
 40
22.99999999999977
100
AcDbArc
 50
297.0792654719100
 51
362.9207345280892
  0
ARC
  5
92
100
AcDbEntity
  8
MAIN0
  6
CONTINUOUS
 62
3
100
AcDbCircle
 10
1324.604477252984
 20
512.4300219733248
 30
0.0000000000000000
 40
22.99999999999977
100
AcDbArc
 50
117.0792654719104
 51
182.9207345280897
  0
CIRCLE
  5
93
100
AcDbEntity
  8
MAIN0
  6
CONTINUOUS
 62
12
100
AcDbCircle
 10
1272.642953025918
 20
542.4300219733248
 30
0.0000000000000000
 40
9.999999999999998
  0
CIRCLE
  5
94
100
AcDbEntity
  8
MAIN0
  6
CONTINUOUS
 62
3
100
AcDbCircle
 10
1272.642953025918
 20
542.4300219733248
 30
0.0000000000000000
 40
8.749999999999996
  0
CIRCLE
  5
95
100
AcDbEntity
  8
MAIN0
  6
CONTINUOUS
 62
12
100
AcDbCircle
 10
1324.604477252984
 20
512.4300219733248
 30
0.0000000000000000
 40
9.999999999999998
  0
CIRCLE
  5
96
100
AcDbEntity
  8
MAIN0
  6
CONTINUOUS
 62
3
100
AcDbCircle
 10
1324.604477252984
 20
512.4300219733248
 30
0.0000000000000000
 40
8.749999999999996
  0
ARC
  5
97
100
AcDbEntity
  8
MAIN0
  6
CENTER
 62
12
100
AcDbCircle
 10
1096.406783355784
 20
644.1800219733250
 30
0.0000000000000000
 40
165.1000000000000
100
AcDbArc
 50
36.44717585356136
 51
68.17149011402937
  0
ARC
  5
98
100
AcDbEntity
  8
MAIN0
  6
CENTER
 62
12
100
AcDbCircle
 10
1096.406783355784
 20
644.1800219733250
 30
0.0000000000000000
 40
165.1000000000000
100
AcDbArc
 50
346.8143564068485
 51
381.9702235775222
  0
ARC
  5
99
100
AcDbEntity
  8
MAIN0
  6
CENTER
 62
12
100
AcDbCircle
 10
1096.406783355784
 20
644.1800219733250
 30
0.0000000000000000
 40
165.1000000000000
100
AcDbArc
 50
111.0834661987832
 51
138.6253993716158
  0
CIRCLE
  5
9A
100
AcDbEntity
  8
MAIN0
  6
CONTINUOUS
 62
3
100
AcDbCircle
 10
1178.956783355785
 20
787.1608161381359
 30
0.0000000000000000
 40
12.00000000000000
  0
CIRCLE
  5
9B
100
AcDbEntity
  8
MAIN0
  6
CONTINUOUS
 62
3
100
AcDbCircle
 10
1178.956783355785
 20
787.1608161381359
 30
0.0000000000000000
 40
17.99999999999977
  0
CIRCLE
  5
9C
100
AcDbEntity
  8
MAIN0
  6
CONTINUOUS
 62
3
100
AcDbCircle
 10
1261.506783355784
 20
644.1800219733250
 30
0.0000000000000000
 40
12.00000000000000
  0
CIRCLE
  5
9D
100
AcDbEntity
  8
MAIN0
  6
CONTINUOUS
 62
3
100
AcDbCircle
 10
1261.506783355784
 20
644.1800219733250
 30
0.0000000000000000
 40
17.99999999999977
  0
CIRCLE
  5
9E
100
AcDbEntity
  8
MAIN0
  6
CONTINUOUS
 62
3
100
AcDbCircle
 10
1178.956783355783
 20
501.1992278085138
 30
0.0000000000000000
 40
12.00000000000000
  0
CIRCLE
  5
9F
100
AcDbEntity
  8
MAIN0
  6
CONTINUOUS
 62
3
100
AcDbCircle
 10
1178.956783355783
 20
501.1992278085138
 30
0.0000000000000000
 40
17.99999999999977
  0
CIRCLE
  5
A0
100
AcDbEntity
  8
MAIN0
  6
CONTINUOUS
 62
3
100
AcDbCircle
 10
1013.856783355783
 20
501.1992278085145
 30
0.0000000000000000
 40
12.00000000000000
  0
CIRCLE
  5
A1
100
AcDbEntity
  8
MAIN0
  6
CONTINUOUS
 62
3
100
AcDbCircle
 10
1013.856783355783
 20
501.1992278085145
 30
0.0000000000000000
 40
17.99999999999977
  0
CIRCLE
  5
A2
100
AcDbEntity
  8
MAIN0
  6
CONTINUOUS
 62
3
100
AcDbCircle
 10
931.3067833557836
 20
644.1800219733250
 30
0.0000000000000000
 40
12.00000000000000
  0
CIRCLE
  5
A3
100
AcDbEntity
  8
MAIN0
  6
CONTINUOUS
 62
3
100
AcDbCircle
 10
931.3067833557836
 20
644.1800219733250
 30
0.0000000000000000
 40
17.99999999999977
  0
CIRCLE
  5
A4
100
AcDbEntity
  8
MAIN0
  6
CONTINUOUS
 62
3
100
AcDbCircle
 10
1013.856783355783
 20
787.1608161381356
 30
0.0000000000000000
 40
12.00000000000000
  0
CIRCLE
  5
A5
100
AcDbEntity
  8
MAIN0
  6
CONTINUOUS
 62
3
100
AcDbCircle
 10
1013.856783355783
 20
787.1608161381356
 30
0.0000000000000000
 40
17.99999999999977
  0
CIRCLE
  5
A6
100
AcDbEntity
  8
MAIN0
  6
CONTINUOUS
 62
3
100
AcDbCircle
 10
988.5866205846508
 20
706.4300219733093
 30
0.0000000000000000
 40
5.499999999999996
  0
CIRCLE
  5
A7
100
AcDbEntity
  8
MAIN0
  6
CONTINUOUS
 62
3
100
AcDbCircle
 10
988.5866205846508
 20
706.4300219733093
 30
0.0000000000000000
 40
5.249999999999996
  0
CIRCLE
  5
A8
100
AcDbEntity
  8
MAIN0
  6
CONTINUOUS
 62
3
100
AcDbCircle
 10
1096.406783355784
 20
519.6800219733586
 30
0.0000000000000000
 40
5.499999999999996
  0
CIRCLE
  5
A9
100
AcDbEntity
  8
MAIN0
  6
CONTINUOUS
 62
3
100
AcDbCircle
 10
1096.406783355784
 20
519.6800219733586
 30
0.0000000000000000
 40
5.249999999999996
  0
ARC
  5
AA
100
AcDbEntity
  8
MAIN0
  6
CENTER
 62
12
100
AcDbCircle
 10
1096.406783355784
 20
644.1800219733250
 30
0.0000000000000000
 40
124.4999999999655
100
AcDbArc
 50
264.9196791627428
 51
274.9986472769991
  0
ARC
  5
AB
100
AcDbEntity
  8
MAIN0
  6
CENTER
 62
12
100
AcDbCircle
 10
1096.406783355784
 20
644.1800219733250
 30
0.0000000000000000
 40
124.4999999999655
100
AcDbArc
 50
25.44291630762394
 51
35.32182777721064
  0
ARC
  5
AC
100
AcDbEntity
  8
MAIN0
  6
CENTER
 62
12
100
AcDbCircle
 10
1096.406783355784
 20
644.1800219733250
 30
0.0000000000000000
 40
124.4999999999655
100
AcDbArc
 50
144.7359455541142
 51
154.7576066213020
  0
ARC
  5
AD
100
AcDbEntity
  8
MAIN0
  6
CONTINUOUS
 62
3
100
AcDbCircle
 10
1096.406783355784
 20
644.1800219733250
 30
0.0000000000000000
 40
131.9999999999423
100
AcDbArc
 50
224.2534775723577
 51
315.7465223636974
  0
ARC
  5
AE
100
AcDbEntity
  8
MAIN0
  6
CONTINUOUS
 62
3
100
AcDbCircle
 10
1096.406783355784
 20
644.1800219733250
 30
0.0000000000000000
 40
131.9999999999423
100
AcDbArc
 50
344.2534775723580
 51
435.7465223636979
  0
ARC
  5
AF
100
AcDbEntity
  8
MAIN0
  6
CONTINUOUS
 62
3
100
AcDbCircle
 10
1096.406783355784
 20
644.1800219733250
 30
0.0000000000000000
 40
131.9999999999423
100
AcDbArc
 50
104.2534776363019
 51
195.7465223636973
  0
ARC
  5
B0
100
AcDbEntity
  8
MAIN0
  6
CONTINUOUS
 62
3
100
AcDbCircle
 10
1096.406783355784
 20
644.1800219733250
 30
0.0000000000000000
 40
182.0000000000000
100
AcDbArc
 50
62.04807369557331
 51
79.71343938852441
  0
ARC
  5
B1
100
AcDbEntity
  8
MAIN0
  6
CONTINUOUS
 62
3
100
AcDbCircle
 10
1096.406783355784
 20
644.1800219733250
 30
0.0000000000000000
 40
157.0000000000000
100
AcDbArc
 50
65.72291995089969
 51
78.05302471819920
  0
ARC
  5
B2
100
AcDbEntity
  8
MAIN0
  6
CONTINUOUS
 62
3
100
AcDbCircle
 10
1096.406783355784
 20
644.1800219733250
 30
0.0000000000000000
 40
157.0000000000000
100
AcDbArc
 50
5.722919950899864
 51
54.27708004910024
  0
ARC
  5
B3
100
AcDbEntity
  8
MAIN0
  6
CONTINUOUS
 62
3
100
AcDbCircle
 10
1096.406783355784
 20
644.1800219733250
 30
0.0000000000000000
 40
182.0000000000000
100
AcDbArc
 50
2.048073695573244
 51
57.95192630442655
  0
ARC
  5
B4
100
AcDbEntity
  8
MAIN0
  6
CONTINUOUS
 62
3
100
AcDbCircle
 10
1096.406783355784
 20
644.1800219733250
 30
0.0000000000000000
 40
157.0000000000000
100
AcDbArc
 50
341.9469752363918
 51
354.2770800491000
  0
ARC
  5
B5
100
AcDbEntity
  8
MAIN0
  6
CONTINUOUS
 62
3
100
AcDbCircle
 10
1096.406783355784
 20
644.1800219733250
 30
0.0000000000000000
 40
182.0000000000000
100
AcDbArc
 50
340.2865605792118
 51
357.9519263044266
  0
ARC
  5
B6
100
AcDbEntity
  8
MAIN0
  6
CONTINUOUS
 62
3
100
AcDbCircle
 10
1096.406783355784
 20
644.1800219733250
 30
0.0000000000000000
 40
207.0000000000000
100
AcDbArc
 50
339.0330884050254
 51
440.9669115725427
  0
ARC
  5
B7
100
AcDbEntity
  8
MAIN0
  6
CONTINUOUS
 62
3
100
AcDbCircle
 10
1096.406783355784
 20
644.1800219733250
 30
0.0000000000000000
 40
157.0000000000000
100
AcDbArc
 50
305.7229199508994
 51
318.0530247181989
  0
ARC
  5
B8
100
AcDbEntity
  8
MAIN0
  6
CONTINUOUS
 62
3
100
AcDbCircle
 10
1096.406783355784
 20
644.1800219733250
 30
0.0000000000000000
 40
182.0000000000000
100
AcDbArc
 50
302.0480736955731
 51
319.7134393885248
  0
ARC
  5
B9
100
AcDbEntity
  8
MAIN0
  6
CONTINUOUS
 62
3
100
AcDbCircle
 10
1096.406783355784
 20
644.1800219733250
 30
0.0000000000000000
 40
157.0000000000000
100
AcDbArc
 50
245.7229199508995
 51
294.2770800490997
  0
ARC
  5
BA
100
AcDbEntity
  8
MAIN0
  6
CONTINUOUS
 62
3
100
AcDbCircle
 10
1096.406783355784
 20
644.1800219733250
 30
0.0000000000000000
 40
182.0000000000000
100
AcDbArc
 50
242.0480736955731
 51
297.9519263044261
  0
ARC
  5
BB
100
AcDbEntity
  8
MAIN0
  6
CONTINUOUS
 62
3
100
AcDbCircle
 10
1096.406783355784
 20
644.1800219733250
 30
0.0000000000000000
 40
157.0000000000000
100
AcDbArc
 50
221.9469752363917
 51
234.2770800490998
  0
ARC
  5
BC
100
AcDbEntity
  8
MAIN0
  6
CONTINUOUS
 62
3
100
AcDbCircle
 10
1096.406783355784
 20
644.1800219733250
 30
0.0000000000000000
 40
182.0000000000000
100
AcDbArc
 50
220.2865605792117
 51
237.9519263044261
  0
ARC
  5
BD
100
AcDbEntity
  8
MAIN0
  6
CONTINUOUS
 62
3
100
AcDbCircle
 10
1096.406783355784
 20
644.1800219733250
 30
0.0000000000000000
 40
207.0000000000000
100
AcDbArc
 50
99.03308842745668
 51
200.9669115725422
  0
ARC
  5
BE
100
AcDbEntity
  8
MAIN0
  6
CONTINUOUS
 62
3
100
AcDbCircle
 10
1096.406783355784
 20
644.1800219733250
 30
0.0000000000000000
 40
207.0000000000000
100
AcDbArc
 50
219.0330884050255
 51
320.9669115725425
  0
ARC
  5
BF
100
AcDbEntity
  8
MAIN0
  6
CONTINUOUS
 62
3
100
AcDbCircle
 10
1096.406783355784
 20
644.1800219733250
 30
0.0000000000000000
 40
157.0000000000000
100
AcDbArc
 50
185.7229199508996
 51
198.0530247181991
  0
ARC
  5
C0
100
AcDbEntity
  8
MAIN0
  6
CONTINUOUS
 62
3
100
AcDbCircle
 10
1096.406783355784
 20
644.1800219733250
 30
0.0000000000000000
 40
182.0000000000000
100
AcDbArc
 50
182.0480736955732
 51
199.7134393885247
  0
ARC
  5
C1
100
AcDbEntity
  8
MAIN0
  6
CONTINUOUS
 62
3
100
AcDbCircle
 10
1096.406783355784
 20
644.1800219733250
 30
0.0000000000000000
 40
182.0000000000000
100
AcDbArc
 50
100.2865606114750
 51
117.9519263044265
  0
ARC
  5
C2
100
AcDbEntity
  8
MAIN0
  6
CONTINUOUS
 62
3
100
AcDbCircle
 10
1096.406783355784
 20
644.1800219733250
 30
0.0000000000000000
 40
182.0000000000000
100
AcDbArc
 50
122.0480736955733
 51
177.9519263044264
  0
ARC
  5
C3
100
AcDbEntity
  8
MAIN0
  6
CONTINUOUS
 62
3
100
AcDbCircle
 10
1096.406783355784
 20
644.1800219733250
 30
0.0000000000000000
 40
157.0000000000000
100
AcDbArc
 50
101.9469752818002
 51
114.2770800490997
  0
ARC
  5
C4
100
AcDbEntity
  8
MAIN0
  6
CONTINUOUS
 62
3
100
AcDbCircle
 10
1096.406783355784
 20
644.1800219733250
 30
0.0000000000000000
 40
157.0000000000000
100
AcDbArc
 50
125.7229199508996
 51
174.2770800491000
  0
MTEXT
  5
C5
100
AcDbEntity
  8
MAIN0
  6
CONTINUOUS
 62
4
100
AcDbMText
 10
500.3532617958823
 20
140.7824691674080
 30
0.0000000000000000
 40
7.749999761581421
 41
0.0000000000000000
 71
     1
 72
     1
  1
{\H0.70x;{Ｈ８／ｈ８}}
 11
6.123233995736766e-017
 21
1.000000000000000
 31
0.0000000000000000
  7
KNJYOKO
  0
MTEXT
  5
C6
100
AcDbEntity
  8
MAIN0
  6
CONTINUOUS
 62
4
100
AcDbMText
 10
315.0016191292775
 20
733.3441125729527
 30
0.0000000000000000
 40
7.749999761581421
 41
0.0000000000000000
 71
     1
 72
     1
  1
{\H0.70x;{MAX 97}}
 11
1.000000000000000
 21
0.0000000000000000
 31
0.0000000000000000
  7
STANDARD
  0
MTEXT
  5
C7
100
AcDbEntity
  8
MAIN0
  6
CONTINUOUS
 62
4
100
AcDbMText
 10
362.9884326700466
 20
581.1621288240270
 30
0.0000000000000000
 40
7.749999761581421
 41
0.0000000000000000
 71
     1
 72
     1
  1
{\H0.70x;{ストロ―ク\PSTROKE}}
 11
1.000000000000000
 21
0.0000000000000000
 31
0.0000000000000000
  7
KNJYOKO
  0
MTEXT
  5
C8
100
AcDbEntity
  8
MAIN0
  6
CONTINUOUS
 62
4
100
AcDbMText
 10
601.0570102821446
 20
688.0557654062078
 30
0.0000000000000000
 40
7.749999761581421
 41
0.0000000000000000
 71
     1
 72
     1
  1
{\H0.70x;{MIN 117}}
 11
6.123233995736766e-017
 21
1.000000000000000
 31
0.0000000000000000
  7
STANDARD
  0
MTEXT
  5
C9
100
AcDbEntity
  8
MAIN0
  6
CONTINUOUS
 62
4
100
AcDbMText
 10
601.4560962436748
 20
787.6292390294022
 30
0.0000000000000000
 40
7.749999761581421
 41
0.0000000000000000
 71
     1
 72
     1
  1
{\H0.70x;{MIN 27.5}}
 11
6.123233995736766e-017
 21
1.000000000000000
 31
0.0000000000000000
  7
STANDARD
  0
SPLINE
  5
CA
100
AcDbEntity
  8
MAIN0
  6
CONTINUOUS
 62
12
100
AcDbSpline
210
0.0000000000000000
220
0.0000000000000000
230
1.000000000000000
 70
     8
 71
     3
 72
    25
 73
    21
 74
     0
 42
1.000000000000000e-007
 43
1.000000000000000e-007
 12
-0.9977512616617901
 22
-0.03723395003544283
 32
0.0000000000000000
 13
-0.7180113714031506
 23
0.7530747336319337
 33
0.0000000000000000
 40
0.0000000000000000
 40
0.0000000000000000
 40
0.0000000000000000
 40
0.0000000000000000
 40
6.413990671611074
 40
22.91069933125618
 40
36.35509192872530
 40
55.03863346781941
 40
68.53879314440337
 40
82.38928679458888
 40
98.92514464939552
 40
115.2034360340487
 40
134.9598700843677
 40
148.3480677145816
 40
158.9287335434943
 40
171.9052050829357
 40
186.5163947312850
 40
200.7735594382176
 40
217.2977998999658
 40
230.7721891735808
 40
241.7176505710785
 40
246.4254326026860
 40
246.4254326026860
 40
246.4254326026860
 40
246.4254326026860
 10
471.2028891864387
 20
684.1670352543407
 30
0.0000000000000000
 10
469.0697000914764
 20
684.0874291849426
 30
0.0000000000000000
 10
461.4499737037049
 20
683.8030772402173
 30
0.0000000000000000
 10
449.0756273116117
 20
686.6763519433210
 30
0.0000000000000000
 10
436.7690445570120
 20
697.7475073047042
 30
0.0000000000000000
 10
421.5593935292275
 20
701.4183991200192
 30
0.0000000000000000
 10
409.9628984738852
 20
712.7444266530335
 30
0.0000000000000000
 10
406.7610602317033
 20
727.4509926143401
 30
0.0000000000000000
 10
405.8261047026404
 20
742.9051193518699
 30
0.0000000000000000
 10
405.5787919531005
 20
760.4234255048564
 30
0.0000000000000000
 10
402.2089687813546
 20
776.8982040240594
 30
0.0000000000000000
 10
405.5877699226247
 20
791.2226129845313
 30
0.0000000000000000
 10
408.0489457272971
 20
803.3800075611179
 30
0.0000000000000000
 10
406.9844820917678
 20
815.9590805520056
 30
0.0000000000000000
 10
408.1184036898317
 20
830.7778480663720
 30
0.0000000000000000
 10
395.9716404605632
 20
842.0000885085544
 30
0.0000000000000000
 10
382.9538390895476
 20
848.0010761063004
 30
0.0000000000000000
 10
371.7054479776057
 20
857.1044153236145
 30
0.0000000000000000
 10
360.6321075111888
 20
854.3845756610713
 30
0.0000000000000000
 10
356.8857052507093
 20
858.3139297030207
 30
0.0000000000000000
 10
355.7589582397821
 20
859.4957002695039
 30
0.0000000000000000
  0
DIMENSION
  5
D3
100
AcDbEntity
  8
MAIN10
  6
CONTINUOUS
 62
3
100
AcDbDimension
  2
*D0
 10
120.2882865339784
 20
949.1800219733214
 30
0.0000000000000000
 11
119.7882865339784
 21
644.1800219733232
 31
0.0000000000000000
 70
32
  1
\A1;\U+2205610
  3
MAIN001
100
AcDbAlignedDimension
 13
358.2882865339784
 23
339.1800219733250
 33
0.0000000000000000
 14
358.2882865339785
 24
949.1800219733214
 34
0.0000000000000000
 50
90.00000000000000
100
AcDbRotatedDimension
1001
ACAD
1000
DSTYLE
1002
{
1070
   173
1070
     1
1070
     6
1000
_OPEN
1070
     7
1000
_OPEN
1070
    41
1040
5.000000
1002
}
  0
DIMENSION
  5
DC
100
AcDbEntity
  8
MAIN10
  6
CONTINUOUS
 62
3
100
AcDbDimension
  2
*D1
 10
160.2882865339784
 20
834.1800219733249
 30
0.0000000000000000
 11
159.7882865339784
 21
637.1050218362343
 31
0.0000000000000000
 70
32
  1
\A1;\U+2205380H6\H0.903226x;\S＋0.036^ 　0;
  3
MAIN001
100
AcDbAlignedDimension
 13
355.2882865339783
 23
454.1800219733250
 33
0.0000000000000000
 14
355.2882865339785
 24
834.1800219733249
 34
0.0000000000000000
 50
90.00000000000000
100
AcDbRotatedDimension
1001
ACAD
1000
DSTYLE
1002
{
1070
   173
1070
     1
1070
     6
1000
_OPEN
1070
     7
1000
_OPEN
1070
    41
1040
5.000000
1070
   272
1070
     3
1070
    47
1040
0.036000
1070
    48
1040
0.000000
1070
    71
1070
     1
1070
   340
1005
DD
1002
}
  0
DIMENSION
  5
E5
100
AcDbEntity
  8
MAIN10
  6
CONTINUOUS
 62
3
100
AcDbDimension
  2
*D2
 10
361.2882865339784
 20
734.1800219733250
 30
0.0000000000000000
 11
330.2882865339784
 21
734.6800219733250
 31
0.0000000000000000
 70
32
  1
\A1;MIN 62
  3
MAIN001
100
AcDbAlignedDimension
 13
299.2882865339784
 23
669.6800219733250
 33
0.0000000000000000
 14
361.2882865339784
 24
674.1800219733248
 34
0.0000000000000000
100
AcDbRotatedDimension
1001
ACAD
1000
DSTYLE
1002
{
1070
   173
1070
     1
1070
     6
1000
_OPEN
1070
     7
1000
_OPEN
1070
    41
1040
5.000000
1002
}
  0
DIMENSION
  5
EE
100
AcDbEntity
  8
MAIN10
  6
CONTINUOUS
 62
3
100
AcDbDimension
  2
*D3
 10
299.2882865339784
 20
734.1800219733250
 30
0.0000000000000000
 11
271.7882865339784
 21
734.6800219733250
 31
0.0000000000000000
 70
32
  3
MAIN001
100
AcDbAlignedDimension
 13
244.2882865339784
 23
659.1800219733250
 33
0.0000000000000000
 14
299.2882865339784
 24
669.6800219733250
 34
0.0000000000000000
100
AcDbRotatedDimension
1001
ACAD
1000
DSTYLE
1002
{
1070
   173
1070
     1
1070
     6
1000
_OPEN
1070
     7
1000
_OPEN
1070
    41
1040
5.000000
1002
}
  0
DIMENSION
  5
F7
100
AcDbEntity
  8
MAIN10
  6
CONTINUOUS
 62
3
100
AcDbDimension
  2
*D4
 10
334.2882865339784
 20
694.1800219733250
 30
0.0000000000000000
 11
316.7882865339784
 21
694.6800219733250
 31
0.0000000000000000
 70
32
  3
MAIN001
100
AcDbAlignedDimension
 13
299.2882865339784
 23
669.6800219733250
 33
0.0000000000000000
 14
334.2882865339785
 24
673.1800219733248
 34
0.0000000000000000
100
AcDbRotatedDimension
1001
ACAD
1000
DSTYLE
1002
{
1070
   173
1070
     1
1070
     6
1000
_OPEN
1070
     7
1000
_OPEN
1070
    41
1040
5.000000
1002
}
  0
DIMENSION
  5
FE
100
AcDbEntity
  8
MAIN10
  6
CONTINUOUS
 62
3
100
AcDbDimension
  2
*D5
 10
380.2882865339784
 20
683.1800219733248
 30
0.0000000000000000
 11
379.7882865339784
 21
644.1800219733250
 31
0.0000000000000000
 70
32
  1
\A1;\U+220578
  3
MAIN001
100
AcDbAlignedDimension
 13
386.2882865339784
 23
605.1800219733251
 33
0.0000000000000000
 14
386.2882865339783
 24
683.1800219733248
 34
0.0000000000000000
 50
90.00000000000000
100
AcDbRotatedDimension
1001
ACAD
1000
DSTYLE
1002
{
1070
   173
1070
     1
1070
     6
1000
_OPEN
1070
     7
1000
_OPEN
1070
    41
1040
5.000000
1002
}
  0
DIMENSION
  5
107
100
AcDbEntity
  8
MAIN10
  6
CONTINUOUS
 62
3
100
AcDbDimension
  2
*D6
 10
330.2882865339784
 20
674.1800219733248
 30
0.0000000000000000
 11
329.7882865339784
 21
644.1800219733249
 31
0.0000000000000000
 70
32
  1
\A1;\U+220560
  3
MAIN001
100
AcDbAlignedDimension
 13
335.2882865339784
 23
614.1800219733250
 33
0.0000000000000000
 14
335.2882865339785
 24
674.1800219733248
 34
0.0000000000000000
 50
90.00000000000000
100
AcDbRotatedDimension
1001
ACAD
1000
DSTYLE
1002
{
1070
   173
1070
     1
1070
     6
1000
_OPEN
1070
     7
1000
_OPEN
1070
    41
1040
5.000000
1002
}
  0
DIMENSION
  5
110
100
AcDbEntity
  8
MAIN10
  6
CONTINUOUS
 62
3
100
AcDbDimension
  2
*D7
 10
280.2882865339784
 20
671.6800219733250
 30
0.0000000000000000
 11
279.7882865339784
 21
644.1800219733251
 31
0.0000000000000000
 70
32
  1
\A1;\U+220555
  3
MAIN001
100
AcDbAlignedDimension
 13
301.2882865339784
 23
616.6800219733252
 33
0.0000000000000000
 14
301.2882865339784
 24
671.6800219733250
 34
0.0000000000000000
 50
90.00000000000000
100
AcDbRotatedDimension
1001
ACAD
1000
DSTYLE
1002
{
1070
   173
1070
     1
1070
     6
1000
_OPEN
1070
     7
1000
_OPEN
1070
    41
1040
5.000000
1002
}
  0
LINE
  5
111
100
AcDbEntity
  8
MAIN0
  6
CENTER
 62
12
100
AcDbLine
 10
237.5479426934928
 20
644.1800219733250
 30
0.0000000000000000
 11
267.5382867723970
 21
644.1800219733250
 31
0.0000000000000000
  0
LINE
  5
112
100
AcDbEntity
  8
MAIN0
  6
CENTER
 62
12
100
AcDbLine
 10
282.7882865339784
 20
644.1800219733250
 30
0.0000000000000000
 11
317.5382867723970
 21
644.1800219733250
 31
0.0000000000000000
  0
LINE
  5
113
100
AcDbEntity
  8
MAIN0
  6
CENTER
 62
12
100
AcDbLine
 10
332.7882865339784
 20
644.1800219733250
 30
0.0000000000000000
 11
367.5382867723970
 21
644.1800219733250
 31
0.0000000000000000
  0
DIMENSION
  5
11A
100
AcDbEntity
  8
MAIN10
  6
CONTINUOUS
 62
3
100
AcDbDimension
  2
*D8
 10
440.2882865339784
 20
657.6800219733250
 30
0.0000000000000000
 11
439.7882865339784
 21
644.1800219733250
 31
0.0000000000000000
 70
32
  1
\A1;\U+220527
  3
MAIN001
100
AcDbAlignedDimension
 13
470.2882865339783
 23
630.6800219733250
 33
0.0000000000000000
 14
470.2882865339783
 24
657.6800219733250
 34
0.0000000000000000
 50
90.00000000000000
100
AcDbRotatedDimension
1001
ACAD
1000
DSTYLE
1002
{
1070
   173
1070
     1
1070
     6
1000
_OPEN
1070
     7
1000
_OPEN
1070
    41
1040
5.000000
1002
}
  0
LINE
  5
11B
100
AcDbEntity
  8
MAIN0
  6
CENTER
 62
12
100
AcDbLine
 10
382.7882865339784
 20
644.1800219733250
 30
0.0000000000000000
 11
427.5382867723970
 21
644.1800219733250
 31
0.0000000000000000
  0
LINE
  5
11C
100
AcDbEntity
  8
MAIN0
  6
CENTER
 62
12
100
AcDbLine
 10
442.7882865339784
 20
644.1800219733250
 30
0.0000000000000000
 11
513.6056221285147
 21
644.1800219733250
 31
0.0000000000000000
  0
DIMENSION
  5
123
100
AcDbEntity
  8
MAIN10
  6
CONTINUOUS
 62
3
100
AcDbDimension
  2
*D9
 10
361.2882865339783
 20
584.1800219733250
 30
0.0000000000000000
 11
378.7882865339783
 21
584.6800219733250
 31
0.0000000000000000
 70
32
  3
MAIN001
100
AcDbAlignedDimension
 13
396.2882865339783
 23
595.1800219733252
 33
0.0000000000000000
 14
361.2882865339783
 24
605.1800219733252
 34
0.0000000000000000
100
AcDbRotatedDimension
1001
ACAD
1000
DSTYLE
1002
{
1070
   173
1070
     1
1070
     6
1000
_OPEN
1070
     7
1000
_OPEN
1070
    41
1040
5.000000
1002
}
  0
LEADER
  5
124
100
AcDbEntity
  8
MAIN0
  6
CONTINUOUS
 62
3
100
AcDbLeader
  3
MAIN001
 73
     0
 75
     1
 40
7.749999761581421
 41
19.97400061988833
 76
     3
 10
268.8820094924942
 20
629.1800219733250
 30
0.0000000000000000
 10
230.2882865339784
 20
594.1800219733250
 30
0.0000000000000000
 10
225.4722866734533
 20
594.1800219733250
 30
0.0000000000000000
340
125
213
0.0000000000000000
223
-1.250000000000000
233
0.0000000000000000
1001
ACAD
1000
DSTYLE
1002
{
1070
   147
1040
0.0
1070
    77
1070
     1
1070
   173
1070
     1
1070
     6
1000
_OPEN
1070
     7
1000
_OPEN
1002
}
  0
MTEXT
  5
125
102
{ACAD_REACTORS
330
124
102
}
100
AcDbEntity
  8
MAIN0
  6
CONTINUOUS
 62
3
100
AcDbMText
 10
205.4982860535649
 20
603.1800217349064
 30
0.0000000000000000
 40
7.749999761581421
 41
0.0000000000000000
 71
     1
 72
     1
  1
{\H0.90x;{M30}}
 11
1.000000000000000
 21
0.0000000000000000
 31
0.0000000000000000
  7
STANDARD
  0
DIMENSION
  5
12E
100
AcDbEntity
  8
MAIN10
  6
CONTINUOUS
 62
3
100
AcDbDimension
  2
*D10
 10
520.2882865339784
 20
497.0800219733252
 30
0.0000000000000000
 11
519.7882865339784
 21
479.0800219733252
 31
0.0000000000000000
 70
32
  1
\A1;\U+220536
  3
MAIN001
100
AcDbAlignedDimension
 13
480.2882865339784
 23
461.0800219733252
 33
0.0000000000000000
 14
480.2882865339784
 24
497.0800219733252
 34
0.0000000000000000
 50
90.00000000000000
100
AcDbRotatedDimension
1001
ACAD
1000
DSTYLE
1002
{
1070
   173
1070
     1
1070
     6
1000
_OPEN
1070
     7
1000
_OPEN
1070
    41
1040
5.000000
1002
}
  0
DIMENSION
  5
136
100
AcDbEntity
  8
MAIN10
  6
CONTINUOUS
 62
3
100
AcDbDimension
  2
*D11
 10
450.2882865339784
 20
434.1800219733250
 30
0.0000000000000000
 11
465.2882865339784
 21
434.6800219733250
 31
0.0000000000000000
 70
32
  3
MAIN001
100
AcDbAlignedDimension
 13
480.2882865339784
 23
342.1800219733250
 33
0.0000000000000000
 14
450.2882865339784
 24
461.0800219733251
 34
0.0000000000000000
100
AcDbRotatedDimension
1001
ACAD
1000
DSTYLE
1002
{
1070
   173
1070
     1
1070
     6
1000
_OPEN
1070
     7
1000
_OPEN
1070
    41
1040
5.000000
1002
}
  0
DIMENSION
  5
140
100
AcDbEntity
  8
MAIN10
  6
CONTINUOUS
 62
3
100
AcDbDimension
  2
*D12
 10
361.2882865339783
 20
424.1800219733250
 30
0.0000000000000000
 11
358.2882865339783
 21
424.6800219733250
 31
0.0000000000000000
 70
32
  3
MAIN001
100
AcDbAlignedDimension
 13
355.2882865339784
 23
468.0800219733252
 33
0.0000000000000000
 14
361.2882865339783
 24
454.1800219733250
 34
0.0000000000000000
100
AcDbRotatedDimension
1001
ACAD
1000
DSTYLE
1002
{
1070
   173
1070
     1
1070
     6
1000
_OPEN
1070
     7
1000
_OPEN
1070
    41
1040
5.000000
1070
   287
1070
     0
1002
}
  0
DIMENSION
  5
148
100
AcDbEntity
  8
MAIN10
  6
CONTINUOUS
 62
3
100
AcDbDimension
  2
*D13
 10
361.2882865339783
 20
504.1800219733250
 30
0.0000000000000000
 11
345.7882865339783
 21
504.6800219733250
 31
0.0000000000000000
 70
32
  3
MAIN001
100
AcDbAlignedDimension
 13
330.2882865339783
 23
487.5800219733261
 33
0.0000000000000000
 14
361.2882865339783
 24
490.0800219733251
 34
0.0000000000000000
100
AcDbRotatedDimension
1001
ACAD
1000
DSTYLE
1002
{
1070
   173
1070
     1
1070
     6
1000
_OPEN
1070
     7
1000
_OPEN
1070
    41
1040
5.000000
1002
}
  0
LEADER
  5
149
100
AcDbEntity
  8
MAIN0
  6
CONTINUOUS
 62
3
100
AcDbLeader
  3
MAIN001
 73
     0
 75
     1
 40
7.749999761581421
 41
33.92400102519986
 76
     3
 10
343.4781466206930
 20
468.0800219733252
 30
0.0000000000000000
 10
310.2882865339784
 20
424.1800219733250
 30
0.0000000000000000
 10
305.4722866734533
 20
424.1800219733250
 30
0.0000000000000000
340
14A
213
0.0000000000000000
223
-1.250000000000000
233
0.0000000000000000
1001
ACAD
1000
DSTYLE
1002
{
1070
   147
1040
0.0
1070
    77
1070
     1
1070
   173
1070
     1
1070
     6
1000
_OPEN
1070
     7
1000
_OPEN
1002
}
  0
MTEXT
  5
14A
102
{ACAD_REACTORS
330
149
102
}
100
AcDbEntity
  8
MAIN0
  6
CONTINUOUS
 62
3
100
AcDbMText
 10
271.5482856482534
 20
433.1800217349065
 30
0.0000000000000000
 40
7.749999761581421
 41
0.0000000000000000
 71
     1
 72
     1
  1
{\H0.92x;{6-M22}}
 11
1.000000000000000
 21
0.0000000000000000
 31
0.0000000000000000
  7
STANDARD
  0
DIMENSION
  5
153
100
AcDbEntity
  8
MAIN10
  6
CONTINUOUS
 62
3
100
AcDbDimension
  2
*D14
 10
480.2882865339784
 20
314.1800219733250
 30
0.0000000000000000
 11
450.2882865339784
 21
314.6800219733250
 31
0.0000000000000000
 70
32
  3
MAIN001
100
AcDbAlignedDimension
 13
420.2882865339784
 23
336.4177922397121
 33
0.0000000000000000
 14
480.2882865339784
 24
342.1800219733250
 34
0.0000000000000000
100
AcDbRotatedDimension
1001
ACAD
1000
DSTYLE
1002
{
1070
   173
1070
     1
1070
     6
1000
_OPEN
1070
     7
1000
_OPEN
1070
    41
1040
5.000000
1002
}
  0
DIMENSION
  5
15C
100
AcDbEntity
  8
MAIN10
  6
CONTINUOUS
 62
3
100
AcDbDimension
  2
*D15
 10
480.2882865339784
 20
284.1800219733250
 30
0.0000000000000000
 11
417.7882865339784
 21
284.6800219733250
 31
0.0000000000000000
 70
32
  3
MAIN001
100
AcDbAlignedDimension
 13
355.2882865339784
 23
342.1800219733286
 33
0.0000000000000000
 14
480.2882865339784
 24
342.1800219733250
 34
0.0000000000000000
100
AcDbRotatedDimension
1001
ACAD
1000
DSTYLE
1002
{
1070
   173
1070
     1
1070
     6
1000
_OPEN
1070
     7
1000
_OPEN
1070
    41
1040
5.000000
1002
}
  0
LEADER
  5
15D
100
AcDbEntity
  8
MAIN0
  6
CONTINUOUS
 62
3
100
AcDbLeader
  3
MAIN001
 73
     0
 75
     1
 40
7.749999761581421
 41
62.74900004097822
 76
     3
 10
412.2882865339788
 20
351.6518795131266
 30
0.0000000000000000
 10
340.2882865339784
 20
314.1800219733250
 30
0.0000000000000000
 10
335.8222866656301
 20
314.1800219733250
 30
0.0000000000000000
340
15E
213
0.0000000000000000
223
-1.250000000000000
233
0.0000000000000000
1001
ACAD
1000
DSTYLE
1002
{
1070
   147
1040
0.0
1070
    77
1070
     1
1070
   173
1070
     1
1070
     6
1000
_OPEN
1070
     7
1000
_OPEN
1002
}
  0
MTEXT
  5
15E
102
{ACAD_REACTORS
330
15D
102
}
100
AcDbEntity
  8
MAIN0
  6
CONTINUOUS
 62
3
100
AcDbMText
 10
273.0732866246519
 20
323.1800217349064
 30
0.0000000000000000
 40
7.749999761581421
 41
0.0000000000000000
 71
     1
 72
     1
  1
{\H0.71x;{Ｍ１６　ねじ深３０\PM16 DEPTH 30}}
 11
1.000000000000000
 21
0.0000000000000000
 31
0.0000000000000000
  7
KNJYOKO
  0
DIMENSION
  5
167
100
AcDbEntity
  8
MAIN10
  6
CONTINUOUS
 62
3
100
AcDbDimension
  2
*D16
 10
670.2882865339784
 20
947.6800219733214
 30
0.0000000000000000
 11
669.7882865339784
 21
857.6800219733231
 31
0.0000000000000000
 70
32
  3
MAIN001
100
AcDbAlignedDimension
 13
551.2882865339783
 23
767.6800219733248
 33
0.0000000000000000
 14
551.2882865339783
 24
947.6800219733214
 34
0.0000000000000000
 50
90.00000000000000
100
AcDbRotatedDimension
1001
ACAD
1000
DSTYLE
1002
{
1070
   173
1070
     1
1070
     6
1000
_OPEN
1070
     7
1000
_OPEN
1070
    41
1040
5.000000
1002
}
  0
DIMENSION
  5
170
100
AcDbEntity
  8
MAIN10
  6
CONTINUOUS
 62
3
100
AcDbDimension
  2
*D17
 10
640.2882865339784
 20
907.6800219733214
 30
0.0000000000000000
 11
639.7882865339784
 21
877.6800219733231
 31
0.0000000000000000
 70
32
  3
MAIN001
100
AcDbAlignedDimension
 13
557.5361099386091
 23
847.6800219733248
 33
0.0000000000000000
 14
556.1721904684569
 24
907.6800219733214
 34
0.0000000000000000
 50
90.00000000000000
100
AcDbRotatedDimension
1001
ACAD
1000
DSTYLE
1002
{
1070
   173
1070
     1
1070
     6
1000
_OPEN
1070
     7
1000
_OPEN
1070
    41
1040
5.000000
1002
}
  0
DIMENSION
  5
179
100
AcDbEntity
  8
MAIN10
  6
CONTINUOUS
 62
3
100
AcDbDimension
  2
*D18
 10
640.2882865339784
 20
847.6800219733248
 30
0.0000000000000000
 11
639.7882865339784
 21
807.6800219733248
 31
0.0000000000000000
 70
32
  3
MAIN001
100
AcDbAlignedDimension
 13
551.2882865339783
 23
767.6800219733248
 33
0.0000000000000000
 14
557.5361099386091
 24
847.6800219733248
 34
0.0000000000000000
 50
90.00000000000000
100
AcDbRotatedDimension
1001
ACAD
1000
DSTYLE
1002
{
1070
   173
1070
     1
1070
     6
1000
_OPEN
1070
     7
1000
_OPEN
1070
    41
1040
5.000000
1002
}
  0
DIMENSION
  5
182
100
AcDbEntity
  8
MAIN10
  6
CONTINUOUS
 62
3
100
AcDbDimension
  2
*D19
 10
600.2882865339784
 20
847.6800219733248
 30
0.0000000000000000
 11
599.7882865339784
 21
808.4300219733248
 31
0.0000000000000000
 70
32
  1
\A1;MAX 93.5
  3
MAIN001
100
AcDbAlignedDimension
 13
481.2882865339784
 23
769.1800219733250
 33
0.0000000000000000
 14
557.5361099386091
 24
847.6800219733248
 34
0.0000000000000000
 50
90.00000000000000
100
AcDbRotatedDimension
1001
ACAD
1000
DSTYLE
1002
{
1070
   173
1070
     1
1070
     6
1000
_OPEN
1070
     7
1000
_OPEN
1070
    41
1040
5.000000
1002
}
  0
DIMENSION
  5
18B
100
AcDbEntity
  8
MAIN10
  6
CONTINUOUS
 62
3
100
AcDbDimension
  2
*D20
 10
600.2882865339784
 20
769.1800219733250
 30
0.0000000000000000
 11
599.7882865339784
 21
706.6800219733250
 31
0.0000000000000000
 70
32
  1
\A1;MAX 125
  3
MAIN001
100
AcDbAlignedDimension
 13
513.6056221285147
 23
644.1800219733250
 33
0.0000000000000000
 14
481.2882865339784
 24
769.1800219733250
 34
0.0000000000000000
 50
90.00000000000000
100
AcDbRotatedDimension
1001
ACAD
1000
DSTYLE
1002
{
1070
   173
1070
     1
1070
     6
1000
_OPEN
1070
     7
1000
_OPEN
1070
    41
1040
5.000000
1002
}
  0
DIMENSION
  5
194
100
AcDbEntity
  8
MAIN10
  6
CONTINUOUS
 62
3
100
AcDbDimension
  2
*D21
 10
551.2882865339784
 20
974.1800219733250
 30
0.0000000000000000
 11
515.7882865339784
 21
974.6800219733250
 31
0.0000000000000000
 70
32
  3
MAIN001
100
AcDbAlignedDimension
 13
480.2882865339784
 23
946.1800219733214
 33
0.0000000000000000
 14
551.2882865339784
 24
947.6800219733214
 34
0.0000000000000000
100
AcDbRotatedDimension
1001
ACAD
1000
DSTYLE
1002
{
1070
   173
1070
     1
1070
     6
1000
_OPEN
1070
     7
1000
_OPEN
1070
    41
1040
5.000000
1002
}
  0
LEADER
  5
195
100
AcDbEntity
  8
MAIN0
  6
CONTINUOUS
 62
3
100
AcDbLeader
  3
MAIN001
 73
     0
 74
     0
 75
     1
 40
7.749999761581421
 41
97.00100006705532
 76
     3
 10
483.2882865339784
 20
925.1300651528891
 30
0.0000000000000000
 10
580.2882865339784
 20
974.1800219733250
 30
0.0000000000000000
 10
584.7522864023266
 20
974.1800219733250
 30
0.0000000000000000
340
196
213
-0.001000000000090040
223
-1.250000000000000
233
0.0000000000000000
1001
ACAD
1000
DSTYLE
1002
{
1070
   147
1040
0.0
1070
    77
1070
     1
1070
   173
1070
     1
1070
     6
1000
_OPEN
1070
     7
1000
_OPEN
1002
}
  0
MTEXT
  5
196
102
{ACAD_REACTORS
330
195
102
}
100
AcDbEntity
  8
MAIN0
  6
CONTINUOUS
 62
3
100
AcDbMText
 10
584.7532864023267
 20
983.1800217349064
 30
0.0000000000000000
 40
7.749999761581421
 41
0.0000000000000000
 71
     1
 72
     1
  1
{\H0.69x;{セレーションピッチ　３．０\PSERRATION PITCH 3.0}}
 11
1.000000000000000
 21
0.0000000000000000
 31
0.0000000000000000
  7
KNJYOKO
  0
DIMENSION
  5
19F
100
AcDbEntity
  8
MAIN10
  6
CONTINUOUS
 62
3
100
AcDbDimension
  2
*D22
 10
1128.906783355784
 20
964.2933622652275
 30
0.0000000000000000
 11
1088.596666989867
 21
965.5433622652275
 31
0.0000000000000000
 70
160
  3
MAIN001
100
AcDbAlignedDimension
 13
1063.906783355782
 23
947.6800219733214
 33
0.0000000000000000
 14
1128.906783355784
 24
947.6800219733214
 34
0.0000000000000000
100
AcDbRotatedDimension
1001
ACAD
1000
DSTYLE
1002
{
1070
   173
1070
     1
1070
     6
1000
_OPEN
1070
     7
1000
_OPEN
1070
    41
1040
5.000000
1002
}
  0
ARC
  5
1A0
100
AcDbEntity
  8
MAIN0
  6
CENTER
 62
12
100
AcDbCircle
 10
1096.406783355784
 20
644.1800219733250
 30
0.0000000000000000
 40
165.1000000000000
100
AcDbArc
 50
231.8636236996885
 51
261.0121273501708
  0
DIMENSION
  5
1A9
100
AcDbEntity
  8
MAIN10
  6
CONTINUOUS
 62
3
100
AcDbDimension
  2
*D23
 10
521.7079823911437
 20
187.5038908877586
 30
0.0000000000000000
 11
521.2079823911437
 21
155.0038908877586
 31
0.0000000000000000
 70
32
  3
MAIN001
100
AcDbAlignedDimension
 13
472.4261908193839
 23
122.5038908877586
 33
0.0000000000000000
 14
472.4261908193849
 24
187.5038908877586
 34
0.0000000000000000
 50
90.00000000000000
100
AcDbRotatedDimension
1001
ACAD
1000
DSTYLE
1002
{
1070
   173
1070
     1
1070
     6
1000
_OPEN
1070
     7
1000
_OPEN
1070
    41
1040
5.000000
1002
}
  0
DIMENSION
  5
1B2
100
AcDbEntity
  8
MAIN10
  6
CONTINUOUS
 62
3
100
AcDbDimension
  2
*D24
 10
494.7276081326916
 20
167.5038908877586
 30
0.0000000000000000
 11
494.2276081326916
 21
155.0038908877586
 31
0.0000000000000000
 70
32
  3
MAIN001
100
AcDbAlignedDimension
 13
480.1582416269541
 23
142.5038908877586
 33
0.0000000000000000
 14
480.1582416269541
 24
167.5038908877586
 34
0.0000000000000000
 50
90.00000000000000
100
AcDbRotatedDimension
1001
ACAD
1000
DSTYLE
1002
{
1070
   173
1070
     1
1070
     6
1000
_OPEN
1070
     7
1000
_OPEN
1070
    41
1040
5.000000
1002
}
  0
DIMENSION
  5
1BC
100
AcDbEntity
  8
MAIN10
  6
CONTINUOUS
 62
3
100
AcDbDimension
  2
*D25
 10
480.1582416269541
 20
87.56395864805472
 30
0.0000000000000000
 11
489.5265559227473
 21
88.81395864805472
 31
0.0000000000000000
 70
160
  3
MAIN001
100
AcDbAlignedDimension
 13
474.1582416269541
 23
123.5038908877605
 33
0.0000000000000000
 14
480.1582416269541
 24
142.5038908877586
 34
0.0000000000000000
100
AcDbRotatedDimension
1001
ACAD
1000
DSTYLE
1002
{
1070
   173
1070
     1
1070
     6
1000
_DOT
1070
     7
1000
_OPEN
1070
    41
1040
5.000000
1070
   287
1070
     0
1002
}
  0
DIMENSION
  5
1C6
100
AcDbEntity
  8
MAIN10
  6
CONTINUOUS
 62
3
100
AcDbDimension
  2
*D26
 10
474.1582416269541
 20
87.56395864805472
 30
0.0000000000000000
 11
463.1963147333022
 21
88.81395864805472
 31
0.0000000000000000
 70
160
  3
MAIN001
100
AcDbAlignedDimension
 13
471.1582416269541
 23
108.8198602598504
 33
0.0000000000000000
 14
474.1582416269541
 24
123.5038908877605
 34
0.0000000000000000
100
AcDbRotatedDimension
1001
ACAD
1000
DSTYLE
1002
{
1070
   173
1070
     1
1070
     6
1000
_OPEN
1070
     7
1000
_DOT
1070
    41
1040
5.000000
1070
   287
1070
     0
1002
}
  0
LINE
  5
1C7
100
AcDbEntity
  8
MAIN0
  6
HIDDEN
 62
3
100
AcDbLine
 10
1367.571455298685
 20
509.8510109961748
 30
0.0000000000000000
 11
1226.625820832768
 21
591.2260109961751
 31
0.0000000000000000
  0
LINE
  5
1C8
100
AcDbEntity
  8
MAIN0
  6
HIDDEN
 62
3
100
AcDbLine
 10
1348.321455298685
 20
476.5090329504740
 30
0.0000000000000000
 11
1207.375820832768
 21
557.8840329504742
 31
0.0000000000000000
  0
LINE
  5
1C9
100
AcDbEntity
  8
MAIN0
  6
HIDDEN
 62
3
100
AcDbLine
 10
1364.346455298685
 20
504.2651471417652
 30
0.0000000000000000
 11
1217.814956978358
 21
588.8651471417654
 31
0.0000000000000000
  0
LINE
  5
1CA
100
AcDbEntity
  8
MAIN0
  6
HIDDEN
 62
3
100
AcDbLine
 10
1351.546455298685
 20
482.0948968048837
 30
0.0000000000000000
 11
1205.014956978358
 21
566.6948968048838
 31
0.0000000000000000
  0
ARC
  5
1CB
100
AcDbEntity
  8
MAIN0
  6
HIDDEN
 62
3
100
AcDbCircle
 10
1217.000820832768
 20
574.5550219733246
 30
0.0000000000000000
 40
19.25000000000000
100
AcDbArc
 50
59.99999999999999
 51
107.7535461558589
  0
ARC
  5
1CC
100
AcDbEntity
  8
MAIN0
  6
HIDDEN
 62
3
100
AcDbCircle
 10
1211.414956978358
 20
577.7800219733247
 30
0.0000000000000000
 40
12.80000000000012
100
AcDbArc
 50
59.99999999999983
 51
72.42925713257631
  0
ARC
  5
1CD
100
AcDbEntity
  8
MAIN0
  6
CONTINUOUS
 62
3
100
AcDbCircle
 10
1217.000820832768
 20
574.5550219733246
 30
0.0000000000000000
 40
19.25000000000000
100
AcDbArc
 50
107.7535461558589
 51
192.2464538441349
  0
ARC
  5
1CE
100
AcDbEntity
  8
MAIN0
  6
HIDDEN
 62
3
100
AcDbCircle
 10
1217.000820832768
 20
574.5550219733246
 30
0.0000000000000000
 40
19.25000000000000
100
AcDbArc
 50
192.2464538441349
 51
240.0000000000000
  0
ARC
  5
1CF
100
AcDbEntity
  8
MAIN0
  6
CONTINUOUS
 62
3
100
AcDbCircle
 10
1211.414956978358
 20
577.7800219733247
 30
0.0000000000000000
 40
12.80000000000012
100
AcDbArc
 50
72.42925713257631
 51
227.5707428674741
  0
ARC
  5
1D0
100
AcDbEntity
  8
MAIN0
  6
HIDDEN
 62
3
100
AcDbCircle
 10
1211.414956978358
 20
577.7800219733247
 30
0.0000000000000000
 40
12.80000000000012
100
AcDbArc
 50
227.5707428674741
 51
240.0000000000003
  0
LINE
  5
1D1
100
AcDbEntity
  8
MAIN0
  6
HIDDEN
 62
3
100
AcDbLine
 10
825.2421114128824
 20
509.8510109961748
 30
0.0000000000000000
 11
966.1877458787999
 21
591.2260109961751
 31
0.0000000000000000
  0
ARC
  5
1D2
100
AcDbEntity
  8
MAIN0
  6
HIDDEN
 62
3
100
AcDbCircle
 10
975.8127458787999
 20
574.5550219733246
 30
0.0000000000000000
 40
19.25000000000000
100
AcDbArc
 50
72.24645384414112
 51
120.0000000000000
  0
ARC
  5
1D3
100
AcDbEntity
  8
MAIN0
  6
HIDDEN
 62
3
100
AcDbCircle
 10
981.3986097332095
 20
577.7800219733247
 30
0.0000000000000000
 40
12.80000000000012
100
AcDbArc
 50
107.5707428674237
 51
120.0000000000002
  0
LINE
  5
1D4
100
AcDbEntity
  8
MAIN0
  6
HIDDEN
 62
3
100
AcDbLine
 10
828.4671114128826
 20
504.2651471417653
 30
0.0000000000000000
 11
974.9986097332095
 21
588.8651471417655
 31
0.0000000000000000
  0
ARC
  5
1D5
100
AcDbEntity
  8
MAIN0
  6
CONTINUOUS
 62
3
100
AcDbCircle
 10
981.3986097332095
 20
577.7800219733247
 30
0.0000000000000000
 40
12.80000000000012
100
AcDbArc
 50
312.4292571325259
 51
467.5707428674237
  0
ARC
  5
1D6
100
AcDbEntity
  8
MAIN0
  6
CONTINUOUS
 62
3
100
AcDbCircle
 10
975.8127458787999
 20
574.5550219733246
 30
0.0000000000000000
 40
19.25000000000000
100
AcDbArc
 50
347.7535461558651
 51
432.2464538441411
  0
ARC
  5
1D7
100
AcDbEntity
  8
MAIN0
  6
HIDDEN
 62
3
100
AcDbCircle
 10
981.3986097332095
 20
577.7800219733247
 30
0.0000000000000000
 40
12.80000000000012
100
AcDbArc
 50
299.9999999999997
 51
312.4292571325259
  0
LINE
  5
1D8
100
AcDbEntity
  8
MAIN0
  6
HIDDEN
 62
3
100
AcDbLine
 10
841.2671114128827
 20
482.0948968048837
 30
0.0000000000000000
 11
987.7986097332096
 21
566.6948968048839
 31
0.0000000000000000
  0
ARC
  5
1D9
100
AcDbEntity
  8
MAIN0
  6
HIDDEN
 62
3
100
AcDbCircle
 10
975.8127458787999
 20
574.5550219733246
 30
0.0000000000000000
 40
19.25000000000000
100
AcDbArc
 50
300.0000000000001
 51
347.7535461558651
  0
LINE
  5
1DA
100
AcDbEntity
  8
MAIN0
  6
HIDDEN
 62
3
100
AcDbLine
 10
844.4921114128828
 20
476.5090329504741
 30
0.0000000000000000
 11
985.4377458787999
 21
557.8840329504742
 31
0.0000000000000000
  0
ARC
  5
1DB
100
AcDbEntity
  8
MAIN0
  6
CONTINUOUS
 62
3
100
AcDbCircle
 10
1096.406783355784
 20
783.4300219733259
 30
0.0000000000000000
 40
19.25000000000000
100
AcDbArc
 50
234.9031987724222
 51
305.0968012275777
  0
ARC
  5
1DC
100
AcDbEntity
  8
MAIN0
  6
CONTINUOUS
 62
3
100
AcDbCircle
 10
1096.406783355784
 20
776.9800219733259
 30
0.0000000000000000
 40
12.80000000000012
100
AcDbArc
 50
226.5989850801805
 51
313.4010149198195
  0
LEADER
  5
1DD
100
AcDbEntity
  8
MAIN0
  6
CONTINUOUS
 62
3
100
AcDbLeader
  3
MAIN001
 73
     0
 75
     1
 40
7.749999761581421
 41
73.24900004842880
 76
     3
 10
935.0799745465940
 20
692.6179203226284
 30
0.0000000000000000
 10
866.4067833557858
 20
904.1800219733250
 30
0.0000000000000000
 10
861.9407834874376
 20
904.1800219733250
 30
0.0000000000000000
340
1DE
213
0.0000000000000000
223
-1.250000000000000
233
0.0000000000000000
1001
ACAD
1000
DSTYLE
1002
{
1070
   147
1040
0.0
1070
    77
1070
     1
1070
   173
1070
     1
1070
     6
1000
_OPEN
1070
     7
1000
_OPEN
1002
}
  0
MTEXT
  5
1DE
102
{ACAD_REACTORS
330
1DD
102
}
100
AcDbEntity
  8
MAIN0
  6
CONTINUOUS
 62
3
100
AcDbMText
 10
788.6917834390088
 20
913.1800217349064
 30
0.0000000000000000
 40
7.749999761581421
 41
0.0000000000000000
 71
     1
 72
     1
  1
{\H0.71x;{３－Ｍ１２　ねじ深３０\P3-M12 DEPTH 30}}
 11
1.000000000000000
 21
0.0000000000000000
 31
0.0000000000000000
  7
KNJYOKO
  0
DIMENSION
  5
1E4
100
AcDbEntity
  8
MAIN10
  6
CONTINUOUS
 62
3
100
AcDbDimension
  2
*D27
 10
1258.629309495876
 20
613.4902514833526
 30
0.0000000000000000
 11
1191.911615885764
 21
627.3842880154195
 31
0.0000000000000000
 70
163
  3
MAIN001
100
AcDbDiametricDimension
 15
934.1842572156920
 25
674.8697924632972
 35
0.0000000000000000
1001
ACAD
1000
DSTYLE
1002
{
1070
   287
1070
     2
1070
   173
1070
     1
1070
     6
1000
_OPEN
1070
     7
1000
_NONE
1070
    41
1040
5.000000
1002
}
  0
DIMENSION
  5
1EA
100
AcDbEntity
  8
MAIN10
  6
CONTINUOUS
 62
3
100
AcDbDimension
  2
*D28
 10
1225.549753729644
 20
747.0396506087448
 30
0.0000000000000000
 11
1160.460798048274
 21
696.7957171536843
 31
0.0000000000000000
 70
163
  3
MAIN001
100
AcDbDiametricDimension
 15
967.2638129819246
 25
541.3203933379053
 35
0.0000000000000000
1001
ACAD
1000
DSTYLE
1002
{
1070
   287
1070
     2
1070
   173
1070
     1
1070
     6
1000
_OPEN
1070
     7
1000
_NONE
1070
    41
1040
5.000000
1070
   272
1070
     1
1070
    47
1040
0.200000
1070
    48
1040
0.200000
1070
    71
1070
     1
1002
}
  0
DIMENSION
  5
1F3
100
AcDbEntity
  8
MAIN10
  6
CONTINUOUS
 62
3
100
AcDbDimension
  2
*D29
 10
1413.185506326609
 20
644.1800219733250
 30
0.0000000000000000
 11
1421.844099170656
 21
556.9793560137774
 31
0.0000000000000000
 70
162
  3
MAIN001
100
AcDb2LineAngularDimension
 13
1363.273536283985
 23
490.1044303324667
 33
0.0000000000000000
 14
1362.407510880200
 24
490.6044303324667
 34
0.0000000000000000
 15
1412.185506326609
 25
644.1800219733250
 35
0.0000000000000000
 16
1422.327062083800
 26
556.8499464912261
 36
0.0000000000000000
1001
ACAD
1000
DSTYLE
1002
{
1070
   173
1070
     1
1070
     6
1000
_OPEN
1070
     7
1000
_OPEN
1070
    41
1040
5.000000
1002
}
  0
DIMENSION
  5
1FC
100
AcDbEntity
  8
MAIN10
  6
CONTINUOUS
 62
3
100
AcDbDimension
  2
*D30
 10
1224.339378600238
 20
772.1126172177821
 30
0.0000000000000000
 11
1407.677966932971
 21
773.1127677869234
 31
0.0000000000000000
 70
162
  3
MAIN001
100
AcDb2LineAngularDimension
 13
1413.185506326609
 23
644.1800219733250
 33
0.0000000000000000
 14
1412.185506326609
 24
644.1800219733250
 34
0.0000000000000000
 15
1223.632271819052
 25
771.4055104365956
 35
0.0000000000000000
 16
1408.139906699227
 26
773.3041095031060
 36
0.0000000000000000
1001
ACAD
1000
DSTYLE
1002
{
1070
   173
1070
     1
1070
     6
1000
_OPEN
1070
     7
1000
_OPEN
1070
    41
1040
5.000000
1002
}
  0
DIMENSION
  5
205
100
AcDbEntity
  8
MAIN10
  6
CONTINUOUS
 62
3
100
AcDbDimension
  2
*D31
 10
1232.743264927939
 20
880.3217349814747
 30
0.0000000000000000
 11
1302.117924321887
 21
912.2680003564676
 31
0.0000000000000000
 70
162
  3
MAIN001
100
AcDb2LineAngularDimension
 13
1224.339378600238
 23
772.1126172177821
 33
0.0000000000000000
 14
1223.632271819052
 24
771.4055104365956
 34
0.0000000000000000
 15
1232.243264927939
 25
879.4557095776904
 35
0.0000000000000000
 16
1301.813543607383
 26
911.8713236863219
 36
0.0000000000000000
1001
ACAD
1000
DSTYLE
1002
{
1070
   173
1070
     1
1070
     6
1000
_OPEN
1070
     7
1000
_OPEN
1070
    41
1040
5.000000
1002
}
  0
DIMENSION
  5
20E
100
AcDbEntity
  8
MAIN10
  6
CONTINUOUS
 62
3
100
AcDbDimension
  2
*D32
 10
1096.406783355784
 20
957.8822161368644
 30
0.0000000000000000
 11
1183.866268360434
 21
970.5832636144849
 31
0.0000000000000000
 70
162
  3
MAIN001
100
AcDb2LineAngularDimension
 13
1232.743264927939
 23
880.3217349814747
 33
0.0000000000000000
 14
1232.243264927939
 24
879.4557095776904
 34
0.0000000000000000
 15
1096.406783355784
 25
956.8822161368644
 35
0.0000000000000000
 16
1183.736858837882
 26
970.1003007013404
 36
0.0000000000000000
1001
ACAD
1000
DSTYLE
1002
{
1070
   173
1070
     1
1070
     6
1000
_OPEN
1070
     7
1000
_OPEN
1070
    41
1040
5.000000
1002
}
  0
DIMENSION
  5
217
100
AcDbEntity
  8
MAIN10
  6
CONTINUOUS
 62
3
100
AcDbDimension
  2
*D33
 10
988.0936578403357
 20
941.7678885575715
 30
0.0000000000000000
 11
1037.728025056796
 21
976.9637971121149
 31
0.0000000000000000
 70
162
  3
MAIN001
100
AcDb2LineAngularDimension
 13
1096.406783355784
 23
957.8822161368644
 33
0.0000000000000000
 14
1096.406783355784
 24
956.8822161368644
 34
0.0000000000000000
 15
988.4356779836614
 25
940.8281959367855
 35
0.0000000000000000
 16
1037.814849145630
 26
976.4713932356088
 36
0.0000000000000000
1001
ACAD
1000
DSTYLE
1002
{
1070
   173
1070
     1
1070
     6
1000
_OPEN
1070
     7
1000
_OPEN
1070
    41
1040
5.000000
1002
}
  0
CIRCLE
  5
218
100
AcDbEntity
  8
MAIN0
  6
CONTINUOUS
 62
3
100
AcDbCircle
 10
1215.156783355785
 20
849.8610553721289
 30
0.0000000000000000
 40
30.00000000000000
  0
CIRCLE
  5
219
100
AcDbEntity
  8
MAIN0
  6
CONTINUOUS
 62
3
100
AcDbCircle
 10
1190.548367156582
 20
849.8610553721292
 30
0.0000000000000000
 40
4.000000000000000
  0
LINE
  5
21A
100
AcDbEntity
  8
MAIN0
  6
CONTINUOUS
 62
3
100
AcDbLine
 10
1188.423330338746
 20
850.4304572713547
 30
0.0000000000000000
 11
1192.673403974418
 21
849.2916534729036
 31
0.0000000000000000
  0
LINE
  5
21B
100
AcDbEntity
  8
MAIN0
  6
CONTINUOUS
 62
3
100
AcDbLine
 10
1191.117769055808
 20
851.9860921899651
 30
0.0000000000000000
 11
1189.978965257357
 21
847.7360185542932
 31
0.0000000000000000
  0
CIRCLE
  5
21C
100
AcDbEntity
  8
MAIN0
  6
CONTINUOUS
 62
3
100
AcDbCircle
 10
1227.460991455385
 20
828.5495417967193
 30
0.0000000000000000
 40
4.000000000000000
  0
LINE
  5
21D
100
AcDbEntity
  8
MAIN0
  6
CONTINUOUS
 62
3
100
AcDbLine
 10
1228.030393354611
 20
826.4245049788833
 30
0.0000000000000000
 11
1226.891589556160
 21
830.6745786145551
 31
0.0000000000000000
  0
LINE
  5
21E
100
AcDbEntity
  8
MAIN0
  6
CONTINUOUS
 62
3
100
AcDbLine
 10
1225.335954637549
 20
827.9801398974936
 30
0.0000000000000000
 11
1229.586028273221
 21
829.1189436959447
 31
0.0000000000000000
  0
LINE
  5
21F
100
AcDbEntity
  8
MAIN0
  6
CENTER
 62
3
100
AcDbLine
 10
1181.452729492890
 20
849.8610553719487
 30
0.0000000000000000
 11
1198.333807428124
 21
849.8610553719520
 31
0.0000000000000000
  0
LINE
  5
220
100
AcDbEntity
  8
MAIN0
  6
CENTER
 62
3
100
AcDbLine
 10
1223.374454345373
 20
835.6276316980470
 30
0.0000000000000000
 11
1231.619875243245
 21
821.3461437731410
 31
0.0000000000000000
  0
ARC
  5
221
100
AcDbEntity
  8
MAIN0
  6
CENTER
 62
3
100
AcDbCircle
 10
1215.156783355785
 20
849.8610553721289
 30
0.0000000000000000
 40
25.00000000000000
100
AcDbArc
 50
163.0921344865000
 51
199.3224973954751
  0
ARC
  5
222
100
AcDbEntity
  8
MAIN0
  6
CENTER
 62
3
100
AcDbCircle
 10
1215.156783355785
 20
849.8610553721289
 30
0.0000000000000000
 40
25.00000000000000
100
AcDbArc
 50
278.7786161850843
 51
318.3012779951325
  0
ARC
  5
223
100
AcDbEntity
  8
MAIN0
  6
CENTER
 62
3
100
AcDbCircle
 10
1215.156783355785
 20
849.8610553721289
 30
0.0000000000000000
 40
25.00000000000000
100
AcDbArc
 50
38.58261012964890
 51
77.02031975249075
  0
INSERT
  5
228
100
AcDbEntity
  8
MAIN0
  6
CONTINUOUS
 62
3
100
AcDbBlockReference
  2
M0
 10
0.0000000000000000
 20
0.0000000000000000
 30
0.0000000000000000
 50
0.0000000000000000
  0
INSERT
  5
264
100
AcDbEntity
  8
MAIN0
  6
CONTINUOUS
 62
3
100
AcDbBlockReference
  2
M1
 10
0.0000000000000000
 20
0.0000000000000000
 30
0.0000000000000000
 50
0.0000000000000000
  0
INSERT
  5
268
100
AcDbEntity
  8
MAIN0
  6
CONTINUOUS
 62
3
100
AcDbBlockReference
  2
M2
 10
0.0000000000000000
 20
0.0000000000000000
 30
0.0000000000000000
 50
0.0000000000000000
  0
MTEXT
  5
269
100
AcDbEntity
  8
MAIN0
  6
CONTINUOUS
 62
3
100
AcDbMText
 10
736.4796039265548
 20
224.1569725662134
 30
0.0000000000000000
 40
7.500000000000000
 41
0.0000000000000000
 71
     1
 72
     1
  1
{\H0.63x;{32.6}}
 11
1.000000000000000
 21
0.0000000000000000
 31
0.0000000000000000
  7
STANDARD
  0
MTEXT
  5
26A
100
AcDbEntity
  8
MAIN0
  6
CONTINUOUS
 62
3
100
AcDbMText
 10
728.9796039265548
 20
235.6569723277948
 30
0.0000000000000000
 40
7.749999761581421
 41
0.0000000000000000
 71
     1
 72
     1
  1
{\H0.90x;{3.2}}
 11
1.000000000000000
 21
0.0000000000000000
 31
0.0000000000000000
  7
STANDARD
  0
MTEXT
  5
26B
100
AcDbEntity
  8
MAIN0
  6
CONTINUOUS
 62
3
100
AcDbMText
 10
728.9796039265548
 20
251.9069723277952
 30
0.0000000000000000
 40
7.749999761581421
 41
0.0000000000000000
 71
     1
 72
     1
  1
{\H0.92x;{Y2035R}}
 11
1.000000000000000
 21
0.0000000000000000
 31
0.0000000000000000
  7
STANDARD
  0
MTEXT
  5
26C
100
AcDbEntity
  8
MAIN0
  6
CONTINUOUS
 62
3
100
AcDbMText
 10
736.4796039265548
 20
266.9069723277952
 30
0.0000000000000000
 40
7.749999761581421
 41
0.0000000000000000
 71
     1
 72
     1
  1
{\H0.91x;{9279}}
 11
1.000000000000000
 21
0.0000000000000000
 31
0.0000000000000000
  7
STANDARD
  0
MTEXT
  5
26D
100
AcDbEntity
  8
MAIN0
  6
CONTINUOUS
 62
3
100
AcDbMText
 10
728.9796039265548
 20
278.1569723277952
 30
0.0000000000000000
 40
7.749999761581421
 41
0.0000000000000000
 71
     1
 72
     1
  1
{\H0.88x;{91}}
 11
1.000000000000000
 21
0.0000000000000000
 31
0.0000000000000000
  7
STANDARD
  0
MTEXT
  5
26E
100
AcDbEntity
  8
MAIN0
  6
CONTINUOUS
 62
3
100
AcDbMText
 10
728.9796039265548
 20
301.1569723277952
 30
0.0000000000000000
 40
7.749999761581421
 41
0.0000000000000000
 71
     1
 72
     1
  1
{\H0.91x;{12.0}}
 11
1.000000000000000
 21
0.0000000000000000
 31
0.0000000000000000
  7
STANDARD
  0
MTEXT
  5
26F
100
AcDbEntity
  8
MAIN0
  6
CONTINUOUS
 62
3
100
AcDbMText
 10
728.9796039265548
 20
319.4069723277952
 30
0.0000000000000000
 40
7.749999761581421
 41
0.0000000000000000
 71
     1
 72
     1
  1
{\H0.90x;{252}}
 11
1.000000000000000
 21
0.0000000000000000
 31
0.0000000000000000
  7
STANDARD
  0
MTEXT
  5
270
100
AcDbEntity
  8
MAIN0
  6
CONTINUOUS
 62
3
100
AcDbMText
 10
728.9796039265548
 20
336.9069723277952
 30
0.0000000000000000
 40
7.749999761581421
 41
0.0000000000000000
 71
     1
 72
     1
  1
{\H0.91x;{1760}}
 11
1.000000000000000
 21
0.0000000000000000
 31
0.0000000000000000
  7
STANDARD
  0
MTEXT
  5
271
100
AcDbEntity
  8
MAIN0
  6
CONTINUOUS
 62
3
100
AcDbMText
 10
736.4796039265548
 20
351.9069723277952
 30
0.0000000000000000
 40
7.749999761581421
 41
0.0000000000000000
 71
     1
 72
     1
  1
{\H0.92x;{27838}}
 11
1.000000000000000
 21
0.0000000000000000
 31
0.0000000000000000
  7
STANDARD
  0
MTEXT
  5
272
100
AcDbEntity
  8
MAIN0
  6
CONTINUOUS
 62
3
100
AcDbMText
 10
728.9796039265548
 20
363.1569723277952
 30
0.0000000000000000
 40
7.749999761581421
 41
0.0000000000000000
 71
     1
 72
     1
  1
{\H0.90x;{273}}
 11
1.000000000000000
 21
0.0000000000000000
 31
0.0000000000000000
  7
STANDARD
  0
MTEXT
  5
273
100
AcDbEntity
  8
MAIN0
  6
CONTINUOUS
 62
3
100
AcDbMText
 10
736.4796039265548
 20
376.9069723277956
 30
0.0000000000000000
 40
7.749999761581421
 41
0.0000000000000000
 71
     1
 72
     1
  1
{\H0.91x;{8362}}
 11
1.000000000000000
 21
0.0000000000000000
 31
0.0000000000000000
  7
STANDARD
  0
MTEXT
  5
274
100
AcDbEntity
  8
MAIN0
  6
CONTINUOUS
 62
3
100
AcDbMText
 10
728.9796039265548
 20
388.1569723277956
 30
0.0000000000000000
 40
7.749999761581421
 41
0.0000000000000000
 71
     1
 72
     1
  1
{\H0.88x;{82}}
 11
1.000000000000000
 21
0.0000000000000000
 31
0.0000000000000000
  7
STANDARD
  0
MTEXT
  5
275
100
AcDbEntity
  8
MAIN0
  6
CONTINUOUS
 62
3
100
AcDbMText
 10
728.9796039265548
 20
404.4069723277956
 30
0.0000000000000000
 40
7.749999761581421
 41
0.0000000000000000
 71
     1
 72
     1
  1
{\H0.88x;{16}}
 11
1.000000000000000
 21
0.0000000000000000
 31
0.0000000000000000
  7
STANDARD
  0
MTEXT
  5
276
100
AcDbEntity
  8
MAIN0
  6
CONTINUOUS
 62
3
100
AcDbMText
 10
728.9796039265548
 20
421.9069723277951
 30
0.0000000000000000
 40
7.749999761581421
 41
0.0000000000000000
 71
     1
 72
     1
  1
{\H0.88x;{35}}
 11
1.000000000000000
 21
0.0000000000000000
 31
0.0000000000000000
  7
STANDARD
  0
LINE
  5
277
100
AcDbEntity
  8
MAIN0
  6
CONTINUOUS
 62
3
100
AcDbLine
 10
489.2882865339784
 20
884.6800219733248
 30
0.0000000000000000
 11
489.2882865339784
 21
897.6800277066581
 31
0.0000000000000000
  0
LINE
  5
278
100
AcDbEntity
  8
MAIN0
  6
CONTINUOUS
 62
3
100
AcDbLine
 10
489.2882865339784
 20
917.6800054899877
 30
0.0000000000000000
 11
489.2882865339784
 21
930.6800219733214
 31
0.0000000000000000
  0
LINE
  5
279
100
AcDbEntity
  8
MAIN0
  6
CONTINUOUS
 62
3
100
AcDbLine
 10
427.1789675691180
 20
158.5038908877586
 30
0.0000000000000000
 11
423.1375156847905
 21
158.5038908877586
 31
0.0000000000000000
  0
LINE
  5
27A
100
AcDbEntity
  8
MAIN0
  6
CONTINUOUS
 62
3
100
AcDbLine
 10
423.1375156847904
 20
151.5038908877586
 30
0.0000000000000000
 11
427.1789675691178
 21
151.5038908877586
 31
0.0000000000000000
  0
LINE
  5
27B
100
AcDbEntity
  8
MAIN0
  6
CONTINUOUS
 62
3
100
AcDbLine
 10
429.1996935112837
 20
155.0038908877599
 30
0.0000000000000000
 11
427.1789675691197
 21
158.5038908877605
 31
0.0000000000000000
  0
LINE
  5
27C
100
AcDbEntity
  8
MAIN0
  6
CONTINUOUS
 62
3
100
AcDbLine
 10
423.1375156847909
 20
158.5038908877593
 30
0.0000000000000000
 11
421.1167897426268
 21
155.0038908877586
 31
0.0000000000000000
  0
LINE
  5
27D
100
AcDbEntity
  8
MAIN0
  6
CONTINUOUS
 62
3
100
AcDbLine
 10
421.1167897426266
 20
155.0038908877608
 30
0.0000000000000000
 11
423.1375156847906
 21
151.5038908877601
 31
0.0000000000000000
  0
LINE
  5
27E
100
AcDbEntity
  8
MAIN0
  6
CONTINUOUS
 62
3
100
AcDbLine
 10
427.1789675691196
 20
151.5038908877616
 30
0.0000000000000000
 11
429.1996935112818
 21
155.0038908877591
 31
0.0000000000000000
  0
CIRCLE
  5
27F
100
AcDbEntity
  8
MAIN0
  6
CONTINUOUS
 62
3
100
AcDbCircle
 10
425.1582416269541
 20
155.0038908877586
 30
0.0000000000000000
 40
2.154065922853398
  0
CIRCLE
  5
280
100
AcDbEntity
  8
MAIN0
  6
CONTINUOUS
 62
3
100
AcDbCircle
 10
425.1582416269541
 20
155.0038908877586
 30
0.0000000000000000
 40
3.299999999999997
  0
CIRCLE
  5
281
100
AcDbEntity
  8
MAIN0
  6
CONTINUOUS
 62
3
100
AcDbCircle
 10
425.1582416269541
 20
155.0038908877586
 30
0.0000000000000000
 40
0.9914283891267653
  0
LINE
  5
282
100
AcDbEntity
  8
MAIN0
  6
CONTINUOUS
 62
3
100
AcDbLine
 10
506.2883015339781
 20
922.6800219733226
 30
0.0000000000000000
 11
525.2883165339783
 21
922.6800069733226
 31
0.0000000000000000
  0
LINE
  5
283
100
AcDbEntity
  8
MAIN0
  6
CONTINUOUS
 62
3
100
AcDbLine
 10
525.2883625339782
 20
892.6800149733247
 30
0.0000000000000000
 11
506.2882715339783
 21
892.6800219733246
 31
0.0000000000000000
  0
LINE
  5
284
100
AcDbEntity
  8
MAIN0
  6
CONTINUOUS
 62
3
100
AcDbLine
 10
525.2882935339783
 20
922.6800069733238
 30
0.0000000000000000
 11
525.2882785339782
 21
892.6800149733247
 31
0.0000000000000000
  0
LINE
  5
285
100
AcDbEntity
  8
MAIN0
  6
CONTINUOUS
 62
3
100
AcDbLine
 10
526.2883325339783
 20
920.9479669733247
 30
0.0000000000000000
 11
525.2882935339784
 21
922.6800069733247
 31
0.0000000000000000
  0
LINE
  5
286
100
AcDbEntity
  8
MAIN0
  6
CONTINUOUS
 62
3
100
AcDbLine
 10
526.2883165339783
 20
894.4122529733247
 30
0.0000000000000000
 11
525.2882785339783
 21
892.6800149733247
 31
0.0000000000000000
  0
LINE
  5
287
100
AcDbEntity
  8
MAIN0
  6
CONTINUOUS
 62
3
100
AcDbLine
 10
526.2882865339784
 20
894.4122010081594
 30
0.0000000000000000
 11
526.2882865339784
 21
920.9480466440564
 31
0.0000000000000000
  0
LINE
  5
288
100
AcDbEntity
  8
MAIN0
  6
CONTINUOUS
 62
3
100
AcDbLine
 10
492.2882865339784
 20
897.6800219733248
 30
0.0000000000000000
 11
492.2882865339784
 21
917.6800219733214
 31
0.0000000000000000
  0
LINE
  5
289
100
AcDbEntity
  8
MAIN0
  6
CONTINUOUS
 62
3
100
AcDbLine
 10
483.2882865339784
 20
917.6800077899877
 30
0.0000000000000000
 11
506.2882865339782
 21
917.6799989733211
 31
0.0000000000000000
  0
LINE
  5
28A
100
AcDbEntity
  8
MAIN0
  6
CONTINUOUS
 62
12
100
AcDbLine
 10
483.2882865339784
 20
916.6800219733214
 30
0.0000000000000000
 11
492.2882865339784
 21
916.6800219733214
 31
0.0000000000000000
  0
LINE
  5
28B
100
AcDbEntity
  8
MAIN0
  6
CONTINUOUS
 62
12
100
AcDbLine
 10
483.2882865339784
 20
898.6800219733248
 30
0.0000000000000000
 11
492.2882865339784
 21
898.6800219733248
 31
0.0000000000000000
  0
LINE
  5
28C
100
AcDbEntity
  8
MAIN0
  6
CONTINUOUS
 62
3
100
AcDbLine
 10
483.2882865339784
 20
897.6800269066580
 30
0.0000000000000000
 11
506.2882865339782
 21
897.6800299733247
 31
0.0000000000000000
  0
LINE
  5
28D
100
AcDbEntity
  8
MAIN0
  6
CONTINUOUS
 62
3
100
AcDbLine
 10
506.2883015339784
 20
862.6800219733248
 30
0.0000000000000000
 11
525.2883165339783
 21
862.6800069733247
 31
0.0000000000000000
  0
LINE
  5
28E
100
AcDbEntity
  8
MAIN0
  6
CONTINUOUS
 62
3
100
AcDbLine
 10
525.2883625339782
 20
832.6800149733247
 30
0.0000000000000000
 11
506.2882715339783
 21
832.6800219733248
 31
0.0000000000000000
  0
LINE
  5
28F
100
AcDbEntity
  8
MAIN0
  6
CONTINUOUS
 62
3
100
AcDbLine
 10
525.2882935339783
 20
862.6800069733247
 30
0.0000000000000000
 11
525.2882785339782
 21
832.6800149733247
 31
0.0000000000000000
  0
LINE
  5
290
100
AcDbEntity
  8
MAIN0
  6
CONTINUOUS
 62
3
100
AcDbLine
 10
526.2883325339783
 20
860.9479669733247
 30
0.0000000000000000
 11
525.2882935339784
 21
862.6800069733247
 31
0.0000000000000000
  0
LINE
  5
291
100
AcDbEntity
  8
MAIN0
  6
CONTINUOUS
 62
3
100
AcDbLine
 10
526.2883165339783
 20
834.4122529733247
 30
0.0000000000000000
 11
525.2882785339783
 21
832.6800149733247
 31
0.0000000000000000
  0
LINE
  5
292
100
AcDbEntity
  8
MAIN0
  6
CONTINUOUS
 62
3
100
AcDbLine
 10
526.2882865339783
 20
834.4122010081594
 30
0.0000000000000000
 11
526.2882865339784
 21
860.9480466440574
 31
0.0000000000000000
  0
LINE
  5
293
100
AcDbEntity
  8
MAIN0
  6
CONTINUOUS
 62
3
100
AcDbLine
 10
492.2882865339784
 20
837.6800219733248
 30
0.0000000000000000
 11
492.2882865339784
 21
857.6800219733248
 31
0.0000000000000000
  0
LINE
  5
294
100
AcDbEntity
  8
MAIN0
  6
CONTINUOUS
 62
3
100
AcDbLine
 10
483.2882865339784
 20
857.6800077899914
 30
0.0000000000000000
 11
506.2882865339783
 21
857.6799989733247
 31
0.0000000000000000
  0
LINE
  5
295
100
AcDbEntity
  8
MAIN0
  6
CONTINUOUS
 62
12
100
AcDbLine
 10
483.2882865339784
 20
856.6800219733248
 30
0.0000000000000000
 11
492.2882865339784
 21
856.6800219733248
 31
0.0000000000000000
  0
LINE
  5
296
100
AcDbEntity
  8
MAIN0
  6
CONTINUOUS
 62
12
100
AcDbLine
 10
483.2882865339784
 20
838.6800219733248
 30
0.0000000000000000
 11
492.2882865339784
 21
838.6800219733248
 31
0.0000000000000000
  0
LINE
  5
297
100
AcDbEntity
  8
MAIN0
  6
CONTINUOUS
 62
3
100
AcDbLine
 10
483.2882865339784
 20
837.6800269066581
 30
0.0000000000000000
 11
506.2882865339783
 21
837.6800299733247
 31
0.0000000000000000
  0
LINE
  5
298
100
AcDbEntity
  8
MAIN0
  6
CONTINUOUS
 62
3
100
AcDbLine
 10
475.7882865339784
 20
516.6800219733254
 30
0.0000000000000000
 11
463.7882865339786
 21
516.6800219733254
 31
0.0000000000000000
  0
LINE
  5
299
100
AcDbEntity
  8
MAIN0
  6
CONTINUOUS
 62
3
100
AcDbLine
 10
475.7882865339784
 20
522.6800219733252
 30
0.0000000000000000
 11
463.7882865339786
 21
522.6800219733252
 31
0.0000000000000000
  0
LINE
  5
29A
100
AcDbEntity
  8
MAIN0
  6
CONTINUOUS
 62
3
100
AcDbLine
 10
479.9882865339784
 20
517.6800219733251
 30
0.0000000000000000
 11
479.9882865339784
 21
521.6800219733259
 31
0.0000000000000000
  0
LINE
  5
29B
100
AcDbEntity
  8
MAIN0
  6
CONTINUOUS
 62
3
100
AcDbLine
 10
463.7882865339784
 20
516.6800219733254
 30
0.0000000000000000
 11
463.7882865339784
 21
522.6800219733252
 31
0.0000000000000000
  0
LINE
  5
29C
100
AcDbEntity
  8
MAIN0
  6
CONTINUOUS
 62
3
100
AcDbLine
 10
473.7882865339784
 20
522.6800219733252
 30
0.0000000000000000
 11
473.7882865339784
 21
516.6800219733254
 31
0.0000000000000000
  0
LINE
  5
29D
100
AcDbEntity
  8
MAIN0
  6
CONTINUOUS
 62
12
100
AcDbLine
 10
473.7882865339784
 20
517.6800219733254
 30
0.0000000000000000
 11
463.7882865339785
 21
517.6800219733256
 31
0.0000000000000000
  0
LINE
  5
29E
100
AcDbEntity
  8
MAIN0
  6
CONTINUOUS
 62
12
100
AcDbLine
 10
473.7882865339784
 20
521.6800219733252
 30
0.0000000000000000
 11
463.7882865339786
 21
521.6800219733252
 31
0.0000000000000000
  0
ARC
  5
29F
100
AcDbEntity
  8
MAIN0
  6
CONTINUOUS
 62
3
100
AcDbCircle
 10
475.0832270101689
 20
519.6800219733254
 30
0.0000000000000000
 40
5.297132142217585
100
AcDbArc
 50
277.6488890354127
 51
337.8172021529632
  0
ARC
  5
2A0
100
AcDbEntity
  8
MAIN0
  6
CONTINUOUS
 62
3
100
AcDbCircle
 10
475.0832270101689
 20
519.6800219733254
 30
0.0000000000000000
 40
5.297132142217585
100
AcDbArc
 50
22.18279784703669
 51
82.35111096458650
  0
LINE
  5
2A1
100
AcDbEntity
  8
MAIN0
  6
CONTINUOUS
 62
3
100
AcDbLine
 10
310.2882865339784
 20
616.6800219733252
 30
0.0000000000000000
 11
310.2882865339784
 21
630.1800219733250
 31
0.0000000000000000
  0
LINE
  5
2A2
100
AcDbEntity
  8
MAIN0
  6
CONTINUOUS
 62
3
100
AcDbLine
 10
318.2882865339784
 20
616.6800219733252
 30
0.0000000000000000
 11
318.2882865339784
 21
630.1800219733250
 31
0.0000000000000000
  0
LINE
  5
2A3
100
AcDbEntity
  8
MAIN0
  6
CONTINUOUS
 62
12
100
AcDbLine
 10
310.9647865339784
 20
616.6800219733252
 30
0.0000000000000000
 11
310.9647865339784
 21
630.1800219733250
 31
0.0000000000000000
  0
LINE
  5
2A4
100
AcDbEntity
  8
MAIN0
  6
CONTINUOUS
 62
12
100
AcDbLine
 10
317.6117865339784
 20
616.6800219733252
 30
0.0000000000000000
 11
317.6117865339784
 21
630.1800219733250
 31
0.0000000000000000
  0
LINE
  5
2A5
100
AcDbEntity
  8
MAIN0
  6
CONTINUOUS
 62
3
100
AcDbLine
 10
311.7882865339785
 20
629.1800219733250
 30
0.0000000000000000
 11
316.7882865339784
 21
629.1800219733250
 31
0.0000000000000000
  0
LINE
  5
2A6
100
AcDbEntity
  8
MAIN0
  6
CONTINUOUS
 62
3
100
AcDbLine
 10
311.3275170185197
 20
617.1800219733251
 30
0.0000000000000000
 11
317.2490560494372
 21
617.1800219733251
 31
0.0000000000000000
  0
LINE
  5
2A7
100
AcDbEntity
  8
MAIN0
  6
CONTINUOUS
 62
3
100
AcDbLine
 10
318.2882865339784
 20
627.6800219733251
 30
0.0000000000000000
 11
310.2882865339785
 21
627.6800219733251
 31
0.0000000000000000
  0
LINE
  5
2A8
100
AcDbEntity
  8
MAIN0
  6
CONTINUOUS
 62
3
100
AcDbLine
 10
310.2882865339784
 20
617.7800219733250
 30
0.0000000000000000
 11
318.2882865339785
 21
617.7800219733250
 31
0.0000000000000000
  0
LINE
  5
2A9
100
AcDbEntity
  8
MAIN0
  6
CONTINUOUS
 62
3
100
AcDbLine
 10
310.2882865339785
 20
627.6800219733249
 30
0.0000000000000000
 11
311.7882865339786
 21
629.1800219733250
 31
0.0000000000000000
  0
LINE
  5
2AA
100
AcDbEntity
  8
MAIN0
  6
CONTINUOUS
 62
3
100
AcDbLine
 10
316.7882865339784
 20
629.1800219733250
 30
0.0000000000000000
 11
318.2882865339785
 21
627.6800219733249
 31
0.0000000000000000
  0
LINE
  5
2AB
100
AcDbEntity
  8
MAIN0
  6
CONTINUOUS
 62
3
100
AcDbLine
 10
311.3275170185197
 20
617.1800219733250
 30
0.0000000000000000
 11
310.2882865339784
 21
617.7800219733249
 31
0.0000000000000000
  0
LINE
  5
2AC
100
AcDbEntity
  8
MAIN0
  6
CONTINUOUS
 62
3
100
AcDbLine
 10
318.2882865339785
 20
617.7800219733249
 30
0.0000000000000000
 11
317.2490560494372
 21
617.1800219733249
 31
0.0000000000000000
  0
LINE
  5
2AD
100
AcDbEntity
  8
MAIN0
  6
CONTINUOUS
 62
3
100
AcDbLine
 10
367.7882865339785
 20
605.1800219733252
 30
0.0000000000000000
 11
367.7882865339785
 21
614.1800219733252
 31
0.0000000000000000
  0
LINE
  5
2AE
100
AcDbEntity
  8
MAIN0
  6
CONTINUOUS
 62
3
100
AcDbLine
 10
373.7882865339785
 20
605.1298963443913
 30
0.0000000000000000
 11
373.7882865339785
 21
614.1800219733252
 31
0.0000000000000000
  0
LINE
  5
2AF
100
AcDbEntity
  8
MAIN0
  6
CONTINUOUS
 62
12
100
AcDbLine
 10
368.3297865339785
 20
605.1800219733252
 30
0.0000000000000000
 11
368.3297865339785
 21
614.1800219733252
 31
0.0000000000000000
  0
LINE
  5
2B0
100
AcDbEntity
  8
MAIN0
  6
CONTINUOUS
 62
12
100
AcDbLine
 10
373.2467865339785
 20
605.1695053308367
 30
0.0000000000000000
 11
373.2467865339785
 21
614.1800219733252
 31
0.0000000000000000
  0
LINE
  5
2B1
100
AcDbEntity
  8
MAIN0
  6
CONTINUOUS
 62
3
100
AcDbLine
 10
382.7882865339786
 20
614.1800219733250
 30
0.0000000000000000
 11
385.7882865339784
 21
614.1800219733250
 31
0.0000000000000000
  0
LINE
  5
2B2
100
AcDbEntity
  8
MAIN0
  6
CONTINUOUS
 62
3
100
AcDbLine
 10
368.6543119377628
 20
606.1800219733250
 30
0.0000000000000000
 11
372.9222611301942
 21
606.1800219733250
 31
0.0000000000000000
  0
LINE
  5
2B3
100
AcDbEntity
  8
MAIN0
  6
CONTINUOUS
 62
3
100
AcDbLine
 10
367.7882865339786
 20
612.6800219733251
 30
0.0000000000000000
 11
373.7882865339785
 21
612.6800219733251
 31
0.0000000000000000
  0
LINE
  5
2B4
100
AcDbEntity
  8
MAIN0
  6
CONTINUOUS
 62
3
100
AcDbLine
 10
367.7882865339784
 20
606.6800219733250
 30
0.0000000000000000
 11
373.7882865339785
 21
606.6800219733250
 31
0.0000000000000000
  0
LINE
  5
2B5
100
AcDbEntity
  8
MAIN0
  6
CONTINUOUS
 62
3
100
AcDbLine
 10
367.7882865339786
 20
612.6800219733248
 30
0.0000000000000000
 11
369.2882865339786
 21
614.1800219733249
 31
0.0000000000000000
  0
LINE
  5
2B6
100
AcDbEntity
  8
MAIN0
  6
CONTINUOUS
 62
3
100
AcDbLine
 10
372.2882865339785
 20
614.1800219733249
 30
0.0000000000000000
 11
373.7882865339786
 21
612.6800219733248
 31
0.0000000000000000
  0
LINE
  5
2B7
100
AcDbEntity
  8
MAIN0
  6
CONTINUOUS
 62
3
100
AcDbLine
 10
368.6543119377629
 20
606.1800219733250
 30
0.0000000000000000
 11
367.7882865339785
 21
606.6800219733249
 31
0.0000000000000000
  0
LINE
  5
2B8
100
AcDbEntity
  8
MAIN0
  6
CONTINUOUS
 62
3
100
AcDbLine
 10
373.7882865339786
 20
606.6800219733248
 30
0.0000000000000000
 11
372.9222611301943
 21
606.1800219733249
 31
0.0000000000000000
  0
LINE
  5
2B9
100
AcDbEntity
  8
MAIN0
  6
CONTINUOUS
 62
3
100
AcDbLine
 10
1096.406783355784
 20
917.4949789733237
 30
0.0000000000000000
 11
1087.906783355784
 21
912.5874999733236
 31
0.0000000000000000
  0
LINE
  5
2BA
100
AcDbEntity
  8
MAIN0
  6
CONTINUOUS
 62
3
100
AcDbLine
 10
1087.906783355784
 20
912.5874999733223
 30
0.0000000000000000
 11
1087.906783355784
 21
902.7725359733213
 31
0.0000000000000000
  0
LINE
  5
2BB
100
AcDbEntity
  8
MAIN0
  6
CONTINUOUS
 62
3
100
AcDbLine
 10
1087.906783355783
 20
902.7725359733252
 30
0.0000000000000000
 11
1096.406783355784
 21
897.8650649733246
 31
0.0000000000000000
  0
LINE
  5
2BC
100
AcDbEntity
  8
MAIN0
  6
CONTINUOUS
 62
3
100
AcDbLine
 10
1096.406783355784
 20
897.8650649733238
 30
0.0000000000000000
 11
1104.906783355784
 21
902.7725509733241
 31
0.0000000000000000
  0
LINE
  5
2BD
100
AcDbEntity
  8
MAIN0
  6
CONTINUOUS
 62
3
100
AcDbLine
 10
1104.906783355784
 20
902.7725509733227
 30
0.0000000000000000
 11
1104.906783355784
 21
912.5874999733223
 31
0.0000000000000000
  0
LINE
  5
2BE
100
AcDbEntity
  8
MAIN0
  6
CONTINUOUS
 62
3
100
AcDbLine
 10
1104.906783355782
 20
912.5874999733244
 30
0.0000000000000000
 11
1096.406783355781
 21
917.4949789733245
 31
0.0000000000000000
  0
CIRCLE
  5
2BF
100
AcDbEntity
  8
MAIN0
  6
CONTINUOUS
 62
3
100
AcDbCircle
 10
1096.406783355784
 20
907.6800219733214
 30
0.0000000000000000
 40
15.00000000000000
  0
LINE
  5
2C0
100
AcDbEntity
  8
MAIN0
  6
CONTINUOUS
 62
3
100
AcDbLine
 10
1096.406783355785
 20
857.4949789733244
 30
0.0000000000000000
 11
1087.906783355785
 21
852.5874999733243
 31
0.0000000000000000
  0
LINE
  5
2C1
100
AcDbEntity
  8
MAIN0
  6
CONTINUOUS
 62
3
100
AcDbLine
 10
1087.906783355784
 20
852.5874999733245
 30
0.0000000000000000
 11
1087.906783355784
 21
842.7725359733245
 31
0.0000000000000000
  0
LINE
  5
2C2
100
AcDbEntity
  8
MAIN0
  6
CONTINUOUS
 62
3
100
AcDbLine
 10
1087.906783355782
 20
842.7725359733224
 30
0.0000000000000000
 11
1096.406783355783
 21
837.8650649733220
 31
0.0000000000000000
  0
LINE
  5
2C3
100
AcDbEntity
  8
MAIN0
  6
CONTINUOUS
 62
3
100
AcDbLine
 10
1096.406783355784
 20
837.8650649733239
 30
0.0000000000000000
 11
1104.906783355785
 21
842.7725509733241
 31
0.0000000000000000
  0
LINE
  5
2C4
100
AcDbEntity
  8
MAIN0
  6
CONTINUOUS
 62
3
100
AcDbLine
 10
1104.906783355784
 20
842.7725509733245
 30
0.0000000000000000
 11
1104.906783355784
 21
852.5874999733245
 31
0.0000000000000000
  0
LINE
  5
2C5
100
AcDbEntity
  8
MAIN0
  6
CONTINUOUS
 62
3
100
AcDbLine
 10
1104.906783355782
 20
852.5874999733243
 30
0.0000000000000000
 11
1096.406783355782
 21
857.4949789733244
 31
0.0000000000000000
  0
CIRCLE
  5
2C6
100
AcDbEntity
  8
MAIN0
  6
CONTINUOUS
 62
3
100
AcDbCircle
 10
1096.406783355784
 20
847.6800219733245
 30
0.0000000000000000
 40
15.00000000000000
  0
CIRCLE
  5
2C7
100
AcDbEntity
  8
MAIN0
  6
CONTINUOUS
 62
12
100
AcDbCircle
 10
868.2090894585856
 20
512.4300219733256
 30
0.0000000000000000
 40
9.999999999999998
  0
CIRCLE
  5
2C8
100
AcDbEntity
  8
MAIN0
  6
CONTINUOUS
 62
3
100
AcDbCircle
 10
868.2090894585856
 20
512.4300219733256
 30
0.0000000000000000
 40
8.749999999999996
  0
LINE
  5
2C9
100
AcDbEntity
  8
MAIN0
  6
CONTINUOUS
 62
3
100
AcDbLine
 10
1202.226946126915
 20
707.5847225116904
 30
0.0000000000000000
 11
1204.226946126916
 21
708.7394230500704
 31
0.0000000000000000
  0
LINE
  5
2CA
100
AcDbEntity
  8
MAIN0
  6
CONTINUOUS
 62
3
100
AcDbLine
 10
1206.226946126916
 20
705.2753214349301
 30
0.0000000000000000
 11
1206.226946126916
 21
707.5847225116886
 31
0.0000000000000000
  0
LINE
  5
2CB
100
AcDbEntity
  8
MAIN0
  6
CONTINUOUS
 62
3
100
AcDbLine
 10
1204.226946126915
 20
708.7394230500662
 30
0.0000000000000000
 11
1206.226946126915
 21
707.5847225116870
 31
0.0000000000000000
  0
LINE
  5
2CC
100
AcDbEntity
  8
MAIN0
  6
CONTINUOUS
 62
3
100
AcDbLine
 10
1204.226946126916
 20
704.1206208965505
 30
0.0000000000000000
 11
1206.226946126916
 21
705.2753214349295
 31
0.0000000000000000
  0
LINE
  5
2CD
100
AcDbEntity
  8
MAIN0
  6
CONTINUOUS
 62
3
100
AcDbLine
 10
1202.226946126917
 20
705.2753214349301
 30
0.0000000000000000
 11
1202.226946126917
 21
707.5847225116886
 31
0.0000000000000000
  0
LINE
  5
2CE
100
AcDbEntity
  8
MAIN0
  6
CONTINUOUS
 62
3
100
AcDbLine
 10
1204.226946126916
 20
704.1206208965501
 30
0.0000000000000000
 11
1202.226946126917
 21
705.2753214349291
 31
0.0000000000000000
  0
CIRCLE
  5
2CF
100
AcDbEntity
  8
MAIN0
  6
CONTINUOUS
 62
3
100
AcDbCircle
 10
1204.226946126917
 20
706.4300219733093
 30
0.0000000000000000
 40
5.249999999999996
  0
LINE
  5
2D0
100
AcDbEntity
  8
MAIN0
  6
CONTINUOUS
 62
3
100
AcDbLine
 10
472.2882865339777
 20
759.6800219733249
 30
0.0000000000000000
 11
480.2882865339785
 21
755.0612198198074
 31
0.0000000000000000
  0
LINE
  5
2D1
100
AcDbEntity
  8
MAIN0
  6
CENTER
 62
12
100
AcDbLine
 10
462.7292890411736
 20
519.6800219733254
 30
0.0000000000000000
 11
480.8263722090063
 21
519.6800219733254
 31
0.0000000000000000
  0
LINE
  5
2D2
100
AcDbEntity
  8
MAIN0
  6
CONTINUOUS
 62
3
100
AcDbLine
 10
471.2882865339782
 20
512.1800219733254
 30
0.0000000000000000
 11
480.2882865339783
 21
512.1800219733254
 31
0.0000000000000000
  0
LINE
  5
2D3
100
AcDbEntity
  8
MAIN0
  6
CONTINUOUS
 62
3
100
AcDbLine
 10
471.2882865339782
 20
512.1800219733254
 30
0.0000000000000000
 11
471.2882865339782
 21
516.6800219733256
 31
0.0000000000000000
  0
LINE
  5
2D4
100
AcDbEntity
  8
MAIN0
  6
CONTINUOUS
 62
3
100
AcDbLine
 10
471.2882865339782
 20
522.6800219733254
 30
0.0000000000000000
 11
471.2882865339782
 21
769.1800219733249
 31
0.0000000000000000
  0
LINE
  5
2D5
100
AcDbEntity
  8
MAIN0
  6
CONTINUOUS
 62
3
100
AcDbLine
 10
475.7882865339784
 20
514.1800219733256
 30
0.0000000000000000
 11
475.7882865339784
 21
525.1800219733257
 31
0.0000000000000000
  0
LINE
  5
2D6
100
AcDbEntity
  8
MAIN0
  6
CONTINUOUS
 62
3
100
AcDbLine
 10
475.7882865339784
 20
525.1800219733254
 30
0.0000000000000000
 11
480.2882865339783
 21
525.1800219733254
 31
0.0000000000000000
  0
LINE
  5
2D7
100
AcDbEntity
  8
MAIN0
  6
CONTINUOUS
 62
3
100
AcDbLine
 10
475.7882865339784
 20
514.1800219733254
 30
0.0000000000000000
 11
480.2882865339783
 21
514.1800219733254
 31
0.0000000000000000
  0
LINE
  5
2D8
100
AcDbEntity
  8
MAIN0
  6
CONTINUOUS
 62
3
100
AcDbLine
 10
471.2882865339782
 20
522.9800219733254
 30
0.0000000000000000
 11
475.7882865339783
 21
522.9800219733254
 31
0.0000000000000000
  0
LINE
  5
2D9
100
AcDbEntity
  8
MAIN0
  6
CONTINUOUS
 62
3
100
AcDbLine
 10
471.2882865339782
 20
516.3800219733255
 30
0.0000000000000000
 11
475.7882865339783
 21
516.3800219733255
 31
0.0000000000000000
  0
LINE
  5
2DA
100
AcDbEntity
  8
MAIN0
  6
CONTINUOUS
 62
3
100
AcDbLine
 10
1128.906783355784
 20
759.6800219733249
 30
0.0000000000000000
 11
1063.906783355782
 21
759.6800219733249
 31
0.0000000000000000
  0
LINE
  5
2DB
100
AcDbEntity
  8
MAIN0
  6
CONTINUOUS
 62
3
100
AcDbLine
 10
1128.906783355784
 20
755.0612198198073
 30
0.0000000000000000
 11
1063.906783355782
 21
755.0612198198072
 31
0.0000000000000000
  0
LINE
  5
2DC
100
AcDbEntity
  8
MAIN0
  6
CENTER
 62
12
100
AcDbLine
 10
1196.088767191784
 20
701.7314421743988
 30
0.0000000000000000
 11
1212.212859170509
 21
711.0406910187545
 31
0.0000000000000000
  0
LINE
  5
2DD
100
AcDbEntity
  8
MAIN0
  6
CONTINUOUS
 62
3
100
AcDbLine
 10
472.2882865339782
 20
759.6800219733248
 30
0.0000000000000000
 11
471.2882865339782
 21
759.6800219733248
 31
0.0000000000000000
  0
CIRCLE
  5
2DE
100
AcDbEntity
  8
MAIN0
  6
CONTINUOUS
 62
3
100
AcDbCircle
 10
1204.226946126917
 20
706.4300219733093
 30
0.0000000000000000
 40
5.499999999999996
  0
LINE
  5
2DF
100
AcDbEntity
  8
MAIN0
  6
CONTINUOUS
 62
3
100
AcDbLine
 10
361.2882865339784
 20
527.1800219733254
 30
0.0000000000000000
 11
471.2882865339782
 21
527.1800219733254
 31
0.0000000000000000
  0
LINE
  5
2E0
100
AcDbEntity
  8
MAIN0
  6
CONTINUOUS
 62
3
100
AcDbLine
 10
361.2882865339784
 20
674.1800219733248
 30
0.0000000000000000
 11
361.2882865339784
 21
834.1800219733249
 31
0.0000000000000000
  0
LINE
  5
2E1
100
AcDbEntity
  8
MAIN0
  6
CONTINUOUS
 62
3
100
AcDbLine
 10
355.2882865339785
 20
834.1800219733249
 30
0.0000000000000000
 11
361.2882865339784
 21
834.1800219733249
 31
0.0000000000000000
  0
LINE
  5
2E2
100
AcDbEntity
  8
MAIN0
  6
CONTINUOUS
 62
3
100
AcDbLine
 10
355.2882865339783
 20
454.1800219733250
 30
0.0000000000000000
 11
361.2882865339783
 21
454.1800219733250
 31
0.0000000000000000
  0
LINE
  5
2E3
100
AcDbEntity
  8
MAIN0
  6
CENTER
 62
12
100
AcDbLine
 10
357.9601856925024
 20
526.6800219733252
 30
0.0000000000000000
 11
391.5020628078226
 21
526.6800219733252
 31
0.0000000000000000
  0
LINE
  5
2E4
100
AcDbEntity
  8
MAIN0
  6
CENTER
 62
12
100
AcDbLine
 10
359.0678420543189
 20
809.2800219733248
 30
0.0000000000000000
 11
414.4412444838808
 21
809.2800219733248
 31
0.0000000000000000
  0
LINE
  5
2E5
100
AcDbEntity
  8
MAIN0
  6
CONTINUOUS
 62
3
100
AcDbLine
 10
355.2882865339783
 20
439.1800219733250
 30
0.0000000000000000
 11
415.2882865339778
 21
439.1800219733250
 31
0.0000000000000000
  0
LINE
  5
2E6
100
AcDbEntity
  8
MAIN0
  6
CONTINUOUS
 62
3
100
AcDbLine
 10
355.2882865339785
 20
674.1800219733248
 30
0.0000000000000000
 11
355.2882865339785
 21
946.1800219733214
 31
0.0000000000000000
  0
LINE
  5
2E7
100
AcDbEntity
  8
MAIN0
  6
CENTER
 62
12
100
AcDbLine
 10
778.8586525067797
 20
644.1800219733250
 30
0.0000000000000000
 11
1413.185506326609
 21
644.1800219733250
 31
0.0000000000000000
  0
LINE
  5
2E8
100
AcDbEntity
  8
MAIN0
  6
CENTER
 62
12
100
AcDbLine
 10
1096.406783355784
 20
320.0938881124657
 30
0.0000000000000000
 11
1096.406783355784
 21
957.8822161368644
 31
0.0000000000000000
  0
LINE
  5
2E9
100
AcDbEntity
  8
MAIN0
  6
CENTER
 62
12
100
AcDbLine
 10
829.5400304275830
 20
490.1044303324699
 30
0.0000000000000000
 11
1038.400146805236
 21
610.6898747460839
 31
0.0000000000000000
  0
LINE
  5
2EA
100
AcDbEntity
  8
MAIN0
  6
CONTINUOUS
 62
3
100
AcDbLine
 10
358.2882865339784
 20
339.1800219733250
 30
0.0000000000000000
 11
477.2882865339784
 21
339.1800219733250
 31
0.0000000000000000
  0
LINE
  5
2EB
100
AcDbEntity
  8
MAIN0
  6
CONTINUOUS
 62
3
100
AcDbLine
 10
358.2882865339785
 20
949.1800219733214
 30
0.0000000000000000
 11
477.2882865339784
 21
949.1800219733214
 31
0.0000000000000000
  0
LINE
  5
2EC
100
AcDbEntity
  8
MAIN0
  6
CONTINUOUS
 62
3
100
AcDbLine
 10
477.2882865339784
 20
339.1800219733250
 30
0.0000000000000000
 11
480.2882865339784
 21
342.1800219733251
 31
0.0000000000000000
  0
LINE
  5
2ED
100
AcDbEntity
  8
MAIN0
  6
CONTINUOUS
 62
3
100
AcDbLine
 10
358.2882865339797
 20
339.1800219733264
 30
0.0000000000000000
 11
355.2882865339797
 21
342.1800219733264
 31
0.0000000000000000
  0
LINE
  5
2EE
100
AcDbEntity
  8
MAIN0
  6
CONTINUOUS
 62
3
100
AcDbLine
 10
358.2882865339789
 20
949.1800219733245
 30
0.0000000000000000
 11
355.2882865339789
 21
946.1800219733244
 31
0.0000000000000000
  0
LINE
  5
2EF
100
AcDbEntity
  8
MAIN0
  6
CONTINUOUS
 62
3
100
AcDbLine
 10
477.2882865339784
 20
949.1800219733248
 30
0.0000000000000000
 11
480.2882865339784
 21
946.1800219733248
 31
0.0000000000000000
  0
LINE
  5
2F0
100
AcDbEntity
  8
MAIN0
  6
CENTER
 62
12
100
AcDbLine
 10
1363.273536283985
 20
490.1044303324667
 30
0.0000000000000000
 11
1154.413419906332
 21
610.6898747460818
 31
0.0000000000000000
  0
LINE
  5
2F1
100
AcDbEntity
  8
MAIN0
  6
CONTINUOUS
 62
3
100
AcDbLine
 10
1176.182717492886
 20
560.5935974270899
 30
0.0000000000000000
 11
1342.790677779181
 21
464.4024467066630
 31
0.0000000000000000
  0
LINE
  5
2F2
100
AcDbEntity
  8
MAIN0
  6
CONTINUOUS
 62
3
100
AcDbLine
 10
1208.682717414501
 20
616.8852485373109
 30
0.0000000000000000
 11
1375.290677779600
 21
520.6940979535968
 31
0.0000000000000000
  0
LINE
  5
2F3
100
AcDbEntity
  8
MAIN0
  6
CENTER
 62
12
100
AcDbLine
 10
420.2882865339784
 20
336.4177922397121
 30
0.0000000000000000
 11
420.2882865339784
 21
391.1645291561182
 31
0.0000000000000000
  0
LINE
  5
2F4
100
AcDbEntity
  8
MAIN0
  6
CONTINUOUS
 62
3
100
AcDbLine
 10
355.2882865339785
 20
364.1800219733286
 30
0.0000000000000000
 11
415.2882865339775
 21
364.1800219733286
 31
0.0000000000000000
  0
LINE
  5
2F5
100
AcDbEntity
  8
MAIN0
  6
CONTINUOUS
 62
3
100
AcDbLine
 10
415.2882865339783
 20
364.1800219733286
 30
0.0000000000000000
 11
415.2882865339783
 21
439.1800219733250
 31
0.0000000000000000
  0
LINE
  5
2F6
100
AcDbEntity
  8
MAIN0
  6
CONTINUOUS
 62
3
100
AcDbLine
 10
415.2882865339778
 20
439.1800219733250
 30
0.0000000000000000
 11
436.9389216285886
 21
401.6800219733251
 31
0.0000000000000000
  0
LINE
  5
2F7
100
AcDbEntity
  8
MAIN0
  6
CONTINUOUS
 62
3
100
AcDbLine
 10
415.2882865339789
 20
364.1800219733275
 30
0.0000000000000000
 11
436.9389216285886
 21
401.6800219733252
 31
0.0000000000000000
  0
LINE
  5
2F8
100
AcDbEntity
  8
MAIN0
  6
CENTER
 62
12
100
AcDbLine
 10
988.0936578403358
 20
941.7678885575715
 30
0.0000000000000000
 11
1010.312085593629
 21
880.7232600096145
 31
0.0000000000000000
  0
LINE
  5
2F9
100
AcDbEntity
  8
MAIN0
  6
CENTER
 62
12
100
AcDbLine
 10
1182.348636676748
 20
408.0567205878861
 30
0.0000000000000000
 11
1202.436978067926
 21
352.8644562213292
 31
0.0000000000000000
  0
LINE
  5
2FA
100
AcDbEntity
  8
MAIN0
  6
CENTER
 62
12
100
AcDbLine
 10
1203.014272442607
 20
750.7875110601508
 30
0.0000000000000000
 11
1224.339378600239
 21
772.1126172177821
 31
0.0000000000000000
  0
LINE
  5
2FB
100
AcDbEntity
  8
MAIN0
  6
CENTER
 62
12
100
AcDbLine
 10
921.6476082797858
 20
691.0066018048683
 30
0.0000000000000000
 11
949.7060417905254
 21
683.4883672047831
 31
0.0000000000000000
  0
LINE
  5
2FC
100
AcDbEntity
  8
MAIN0
  6
CENTER
 62
12
100
AcDbLine
 10
1136.204421105080
 20
495.6532158717333
 30
0.0000000000000000
 11
1143.233363187328
 21
469.4208468973259
 31
0.0000000000000000
  0
LINE
  5
2FD
100
AcDbEntity
  8
MAIN0
  6
HIDDEN
 62
12
100
AcDbLine
 10
1182.944781804056
 20
383.0283901105950
 30
0.0000000000000000
 11
1193.000174017830
 21
355.4014270594912
 31
0.0000000000000000
  0
LINE
  5
2FE
100
AcDbEntity
  8
MAIN0
  6
HIDDEN
 62
12
100
AcDbLine
 10
1197.979863736628
 20
388.5007124038071
 30
0.0000000000000000
 11
1208.035255950404
 21
360.8737493527001
 31
0.0000000000000000
  0
LINE
  5
2FF
100
AcDbEntity
  8
MAIN0
  6
HIDDEN
 62
12
100
AcDbLine
 10
1193.597846495291
 20
356.6831398236005
 30
0.0000000000000000
 11
1192.641570531354
 21
354.6323994010220
 31
0.0000000000000000
  0
LINE
  5
300
100
AcDbEntity
  8
MAIN0
  6
HIDDEN
 62
12
100
AcDbLine
 10
1206.753543186294
 20
361.4714218301598
 30
0.0000000000000000
 11
1208.804283608872
 21
360.5151458662234
 31
0.0000000000000000
  0
LINE
  5
301
100
AcDbEntity
  8
MAIN0
  6
HIDDEN
 62
12
100
AcDbLine
 10
1181.490333421560
 20
389.9482585994231
 30
0.0000000000000000
 11
1193.597846495289
 21
356.6831398236005
 31
0.0000000000000000
  0
LINE
  5
302
100
AcDbEntity
  8
MAIN0
  6
HIDDEN
 62
12
100
AcDbLine
 10
1194.646030112563
 20
394.7365406059819
 30
0.0000000000000000
 11
1206.753543186292
 21
361.4714218301593
 31
0.0000000000000000
  0
LINE
  5
303
100
AcDbEntity
  8
MAIN0
  6
HIDDEN
 62
12
100
AcDbLine
 10
1182.944781804054
 20
383.0283901105971
 30
0.0000000000000000
 11
1197.979863736629
 21
388.5007124038079
 31
0.0000000000000000
  0
LINE
  5
304
100
AcDbEntity
  8
MAIN0
  6
HIDDEN
 62
12
100
AcDbLine
 10
1181.490333421560
 20
389.9482585994235
 30
0.0000000000000000
 11
1194.646030112563
 21
394.7365406059828
 31
0.0000000000000000
  0
LINE
  5
305
100
AcDbEntity
  8
MAIN0
  6
HIDDEN
 62
12
100
AcDbLine
 10
1186.685923814342
 20
396.1401221156660
 30
0.0000000000000000
 11
1181.490333421561
 21
389.9482585994226
 31
0.0000000000000000
  0
LINE
  5
306
100
AcDbEntity
  8
MAIN0
  6
HIDDEN
 62
12
100
AcDbLine
 10
1186.685923814343
 20
396.1401221156652
 30
0.0000000000000000
 11
1194.646030112565
 21
394.7365406059812
 31
0.0000000000000000
  0
LINE
  5
307
100
AcDbEntity
  8
MAIN0
  6
HIDDEN
 62
12
100
AcDbLine
 10
1193.597846495290
 20
356.6831398236030
 30
0.0000000000000000
 11
1206.753543186293
 21
361.4714218301625
 31
0.0000000000000000
  0
LINE
  5
308
100
AcDbEntity
  8
MAIN0
  6
CENTER
 62
12
100
AcDbLine
 10
1004.605696691242
 20
485.1758756803050
 30
0.0000000000000000
 11
1027.018264084900
 21
523.9955811341815
 31
0.0000000000000000
  0
LINE
  5
309
100
AcDbEntity
  8
MAIN0
  6
CENTER
 62
12
100
AcDbLine
 10
1165.584320561679
 20
763.9990311564209
 30
0.0000000000000000
 11
1232.743264927939
 21
880.3217349814747
 31
0.0000000000000000
  0
CIRCLE
  5
30A
100
AcDbEntity
  8
MAIN0
  6
HIDDEN
 62
12
100
AcDbCircle
 10
1213.150112929683
 20
760.9233515472240
 30
0.0000000000000000
 40
5.999999999999996
  0
CIRCLE
  5
30B
100
AcDbEntity
  8
MAIN0
  6
HIDDEN
 62
12
100
AcDbCircle
 10
1213.150112929683
 20
760.9233515472240
 30
0.0000000000000000
 40
5.099999999999998
  0
CIRCLE
  5
30C
100
AcDbEntity
  8
MAIN0
  6
HIDDEN
 62
12
100
AcDbCircle
 10
936.9324294354594
 20
686.9110463197509
 30
0.0000000000000000
 40
5.999999999999996
  0
CIRCLE
  5
30D
100
AcDbEntity
  8
MAIN0
  6
HIDDEN
 62
12
100
AcDbCircle
 10
936.9324294354594
 20
686.9110463197509
 30
0.0000000000000000
 40
5.099999999999998
  0
CIRCLE
  5
30E
100
AcDbEntity
  8
MAIN0
  6
HIDDEN
 62
12
100
AcDbCircle
 10
1139.137807702211
 20
484.7056680530000
 30
0.0000000000000000
 40
5.999999999999996
  0
CIRCLE
  5
30F
100
AcDbEntity
  8
MAIN0
  6
HIDDEN
 62
12
100
AcDbCircle
 10
1139.137807702211
 20
484.7056680530000
 30
0.0000000000000000
 40
5.099999999999998
  0
CIRCLE
  5
310
100
AcDbEntity
  8
MAIN0
  6
CONTINUOUS
 62
3
100
AcDbCircle
 10
1096.406783355784
 20
644.1800219733250
 30
0.0000000000000000
 40
305.0000000000000
  0
ARC
  5
311
100
AcDbEntity
  8
MAIN0
  6
CENTER
 62
12
100
AcDbCircle
 10
1096.406783355784
 20
644.1800219733250
 30
0.0000000000000000
 40
237.5000000000000
100
AcDbArc
 50
49.95523200894461
 51
69.87986272001982
  0
ARC
  5
312
100
AcDbEntity
  8
MAIN0
  6
CENTER
 62
12
100
AcDbCircle
 10
1096.406783355784
 20
644.1800219733250
 30
0.0000000000000000
 40
165.1000000000000
100
AcDbArc
 50
159.3032462714285
 51
191.3442838028009
  0
ARC
  5
313
100
AcDbEntity
  8
MAIN0
  6
CENTER
 62
12
100
AcDbCircle
 10
1096.406783355784
 20
644.1800219733250
 30
0.0000000000000000
 40
165.1000000000000
100
AcDbArc
 50
279.3032462714285
 51
309.4956689300061
  0
LINE
  5
314
100
AcDbEntity
  8
MAIN0
  6
CENTER
 62
12
100
AcDbLine
 10
396.4124570374046
 20
155.0038908877586
 30
0.0000000000000000
 11
482.6530816262023
 21
155.0038908877586
 31
0.0000000000000000
  0
LINE
  5
315
100
AcDbEntity
  8
MAIN0
  6
CONTINUOUS
 62
3
100
AcDbLine
 10
443.1582416269544
 20
122.5038908877586
 30
0.0000000000000000
 11
472.4261908193839
 21
122.5038908877586
 31
0.0000000000000000
  0
LINE
  5
316
100
AcDbEntity
  8
MAIN0
  6
CONTINUOUS
 62
3
100
AcDbLine
 10
443.1582416269544
 20
187.5038908877586
 30
0.0000000000000000
 11
472.4261908193849
 21
187.5038908877586
 31
0.0000000000000000
  0
LINE
  5
317
100
AcDbEntity
  8
MAIN0
  6
CONTINUOUS
 62
3
100
AcDbLine
 10
400.1582416269542
 20
181.0038908877588
 30
0.0000000000000000
 11
400.1582416269541
 21
129.0038908877588
 31
0.0000000000000000
  0
LINE
  5
318
100
AcDbEntity
  8
MAIN0
  6
CONTINUOUS
 62
3
100
AcDbLine
 10
400.1582416269541
 20
129.0038908877586
 30
0.0000000000000000
 11
415.1582416269542
 21
129.0038908877586
 31
0.0000000000000000
  0
LINE
  5
319
100
AcDbEntity
  8
MAIN0
  6
CONTINUOUS
 62
3
100
AcDbLine
 10
400.1582416269542
 20
181.0038908877586
 30
0.0000000000000000
 11
415.1582416269544
 21
181.0038908877586
 31
0.0000000000000000
  0
LINE
  5
31A
100
AcDbEntity
  8
MAIN0
  6
CONTINUOUS
 62
3
100
AcDbLine
 10
415.1582416269541
 20
107.5038908877586
 30
0.0000000000000000
 11
443.1582416269541
 21
107.5038908877586
 31
0.0000000000000000
  0
LINE
  5
31B
100
AcDbEntity
  8
MAIN0
  6
CONTINUOUS
 62
3
100
AcDbLine
 10
415.1582416269542
 20
202.5038908877586
 30
0.0000000000000000
 11
443.1582416269544
 21
202.5038908877586
 31
0.0000000000000000
  0
LINE
  5
31C
100
AcDbEntity
  8
MAIN0
  6
CONTINUOUS
 62
3
100
AcDbLine
 10
415.1582416269542
 20
202.5038908877587
 30
0.0000000000000000
 11
415.1582416269542
 21
181.0038908877587
 31
0.0000000000000000
  0
LINE
  5
31D
100
AcDbEntity
  8
MAIN0
  6
CONTINUOUS
 62
3
100
AcDbLine
 10
415.1582416269541
 20
129.0038908877588
 30
0.0000000000000000
 11
415.1582416269541
 21
107.5038908877588
 31
0.0000000000000000
  0
LINE
  5
31E
100
AcDbEntity
  8
MAIN0
  6
CONTINUOUS
 62
3
100
AcDbLine
 10
443.1582416269542
 20
202.5038908877587
 30
0.0000000000000000
 11
443.1582416269542
 21
187.5038908877587
 31
0.0000000000000000
  0
LINE
  5
31F
100
AcDbEntity
  8
MAIN0
  6
CONTINUOUS
 62
3
100
AcDbLine
 10
443.1582416269543
 20
122.5038908877586
 30
0.0000000000000000
 11
443.1582416269542
 21
107.5038908877586
 31
0.0000000000000000
  0
LINE
  5
320
100
AcDbEntity
  8
MAIN0
  6
CONTINUOUS
 62
3
100
AcDbLine
 10
474.1582416269541
 20
167.5038908877586
 30
0.0000000000000000
 11
474.1582416269541
 21
186.5038908877586
 31
0.0000000000000000
  0
LINE
  5
321
100
AcDbEntity
  8
MAIN0
  6
CONTINUOUS
 62
3
100
AcDbLine
 10
474.1582416269541
 20
123.5038908877605
 30
0.0000000000000000
 11
474.1582416269541
 21
142.5038908877586
 31
0.0000000000000000
  0
LINE
  5
322
100
AcDbEntity
  8
MAIN0
  6
CONTINUOUS
 62
12
100
AcDbLine
 10
472.1582416269541
 20
187.5038908877586
 30
0.0000000000000000
 11
472.1582416269541
 21
167.5038908877586
 31
0.0000000000000000
  0
LINE
  5
323
100
AcDbEntity
  8
MAIN0
  6
CONTINUOUS
 62
12
100
AcDbLine
 10
472.1582416269541
 20
142.5038908877586
 30
0.0000000000000000
 11
472.1582416269541
 21
122.5038908877586
 31
0.0000000000000000
  0
LINE
  5
324
100
AcDbEntity
  8
MAIN0
  6
CENTER
 62
12
100
AcDbLine
 10
425.1582416269541
 20
168.7538908877586
 30
0.0000000000000000
 11
425.1582416269541
 21
141.2538908877586
 31
0.0000000000000000
  0
LINE
  5
325
100
AcDbEntity
  8
MAIN0
  6
CONTINUOUS
 62
3
100
AcDbLine
 10
471.2882865339782
 20
769.1800219733250
 30
0.0000000000000000
 11
481.2882865339784
 21
769.1800219733250
 31
0.0000000000000000
  0
LINE
  5
326
100
AcDbEntity
  8
MAIN0
  6
CONTINUOUS
 62
3
100
AcDbLine
 10
481.2882865339784
 20
768.8347225117033
 30
0.0000000000000000
 11
481.2882865339784
 21
946.1800219733214
 31
0.0000000000000000
  0
LINE
  5
327
100
AcDbEntity
  8
MAIN0
  6
CONTINUOUS
 62
3
100
AcDbLine
 10
480.2882865339786
 20
946.1800219733214
 30
0.0000000000000000
 11
481.2882865339784
 21
946.1800219733214
 31
0.0000000000000000
  0
LINE
  5
328
100
AcDbEntity
  8
MAIN0
  6
CONTINUOUS
 62
3
100
AcDbLine
 10
817.5228889323885
 20
520.6940979526518
 30
0.0000000000000000
 11
984.1308492186807
 21
616.8852486730771
 31
0.0000000000000000
  0
LINE
  5
329
100
AcDbEntity
  8
MAIN0
  6
CONTINUOUS
 62
3
100
AcDbLine
 10
850.0228889329976
 20
464.4024467058285
 30
0.0000000000000000
 11
1016.630849140295
 21
560.5935975628570
 31
0.0000000000000000
  0
LINE
  5
32A
100
AcDbEntity
  8
MAIN0
  6
CONTINUOUS
 62
3
100
AcDbLine
 10
841.1171114128829
 20
482.3547044260225
 30
0.0000000000000000
 11
994.4036078827278
 21
570.8547044260222
 31
0.0000000000000000
  0
LINE
  5
32B
100
AcDbEntity
  8
MAIN0
  6
CONTINUOUS
 62
3
100
AcDbLine
 10
828.6171114128845
 20
504.0053395206307
 30
0.0000000000000000
 11
981.9036078827293
 21
592.5053395206302
 31
0.0000000000000000
  0
LINE
  5
32C
100
AcDbEntity
  8
MAIN0
  6
CONTINUOUS
 62
3
100
AcDbLine
 10
818.6171114128847
 20
521.3258475963194
 30
0.0000000000000000
 11
851.1171114128796
 21
465.0341963503394
 31
0.0000000000000000
  0
LINE
  5
32D
100
AcDbEntity
  8
MAIN0
  6
CONTINUOUS
 62
12
100
AcDbLine
 10
483.2882865339784
 20
767.6800219733248
 30
0.0000000000000000
 11
483.2882865339784
 21
947.6800219733214
 31
0.0000000000000000
  0
CIRCLE
  5
32E
100
AcDbEntity
  8
MAIN0
  6
CONTINUOUS
 62
3
100
AcDbCircle
 10
425.1582416269541
 20
155.0038908877586
 30
0.0000000000000000
 40
7.500000000000000
  0
LINE
  5
32F
100
AcDbEntity
  8
MAIN0
  6
CONTINUOUS
 62
3
100
AcDbLine
 10
396.2882865339784
 20
725.2642681166163
 30
0.0000000000000000
 11
407.8961093725505
 21
722.5843910549692
 31
0.0000000000000000
  0
LINE
  5
330
100
AcDbEntity
  8
MAIN0
  6
CONTINUOUS
 62
3
100
AcDbLine
 10
396.2882865339783
 20
724.7511160627197
 30
0.0000000000000000
 11
408.0717096470584
 21
722.0306984833358
 31
0.0000000000000000
  0
LINE
  5
331
100
AcDbEntity
  8
MAIN0
  6
CONTINUOUS
 62
3
100
AcDbLine
 10
396.2882865339784
 20
748.8692625958644
 30
0.0000000000000000
 11
405.7862996335596
 21
746.6764734922771
 31
0.0000000000000000
  0
LINE
  5
332
100
AcDbEntity
  8
MAIN0
  6
CONTINUOUS
 62
3
100
AcDbLine
 10
404.2882865339785
 20
657.6800219733250
 30
0.0000000000000000
 11
470.2882865339783
 21
657.6800219733250
 31
0.0000000000000000
  0
LINE
  5
333
100
AcDbEntity
  8
MAIN0
  6
CONTINUOUS
 62
3
100
AcDbLine
 10
404.2882865339785
 20
630.6800219733250
 30
0.0000000000000000
 11
470.2882865339783
 21
630.6800219733250
 31
0.0000000000000000
  0
LINE
  5
334
100
AcDbEntity
  8
MAIN0
  6
CONTINUOUS
 62
3
100
AcDbLine
 10
404.2882865339785
 20
613.6800219733252
 30
0.0000000000000000
 11
404.2882865339785
 21
674.6800219733248
 31
0.0000000000000000
  0
LINE
  5
335
100
AcDbEntity
  8
MAIN0
  6
CONTINUOUS
 62
3
100
AcDbLine
 10
396.2882865339783
 20
545.1800219733254
 30
0.0000000000000000
 11
396.2882865339783
 21
595.1800219733252
 31
0.0000000000000000
  0
LINE
  5
336
100
AcDbEntity
  8
MAIN0
  6
CONTINUOUS
 62
3
100
AcDbLine
 10
396.2882865339783
 20
693.1800205688824
 30
0.0000000000000000
 11
396.2882865339783
 21
759.6800219733244
 31
0.0000000000000000
  0
LINE
  5
337
100
AcDbEntity
  8
MAIN0
  6
CONTINUOUS
 62
3
100
AcDbLine
 10
361.2882865339784
 20
761.1800219733244
 30
0.0000000000000000
 11
405.2336009519060
 21
761.1800219733244
 31
0.0000000000000000
  0
LINE
  5
338
100
AcDbEntity
  8
MAIN0
  6
CONTINUOUS
 62
3
100
AcDbLine
 10
470.2882865339782
 20
528.7396119646037
 30
0.0000000000000000
 11
470.2882865339782
 21
684.1164058722603
 31
0.0000000000000000
  0
LINE
  5
339
100
AcDbEntity
  8
MAIN0
  6
CONTINUOUS
 62
3
100
AcDbLine
 10
397.2882865339783
 20
544.1800219733253
 30
0.0000000000000000
 11
417.2882862955598
 21
544.1800219733253
 31
0.0000000000000000
  0
LINE
  5
33A
100
AcDbEntity
  8
MAIN0
  6
CONTINUOUS
 62
3
100
AcDbLine
 10
418.2882865339783
 20
528.6800219733254
 30
0.0000000000000000
 11
418.2882865339783
 21
543.0454218410953
 31
0.0000000000000000
  0
LINE
  5
33B
100
AcDbEntity
  8
MAIN0
  6
CONTINUOUS
 62
3
100
AcDbLine
 10
399.2882865339785
 20
674.6800219733248
 30
0.0000000000000000
 11
404.2882865339786
 21
674.6800219733248
 31
0.0000000000000000
  0
LINE
  5
33C
100
AcDbEntity
  8
MAIN0
  6
CONTINUOUS
 62
3
100
AcDbLine
 10
399.2882865339785
 20
613.6800219733250
 30
0.0000000000000000
 11
404.2882865339785
 21
613.6800219733250
 31
0.0000000000000000
  0
LINE
  5
33D
100
AcDbEntity
  8
MAIN0
  6
CONTINUOUS
 62
3
100
AcDbLine
 10
399.2882865339784
 20
613.6800219733252
 30
0.0000000000000000
 11
399.2882865339784
 21
615.1800219733252
 31
0.0000000000000000
  0
LINE
  5
33E
100
AcDbEntity
  8
MAIN0
  6
CONTINUOUS
 62
3
100
AcDbLine
 10
399.2882865339784
 20
673.1800219733248
 30
0.0000000000000000
 11
399.2882865339784
 21
674.6800219733248
 31
0.0000000000000000
  0
LINE
  5
33F
100
AcDbEntity
  8
MAIN0
  6
CONTINUOUS
 62
3
100
AcDbLine
 10
365.2882865339785
 20
683.1800219733248
 30
0.0000000000000000
 11
386.2882865339783
 21
683.1800219733248
 31
0.0000000000000000
  0
LINE
  5
340
100
AcDbEntity
  8
MAIN0
  6
CONTINUOUS
 62
3
100
AcDbLine
 10
365.2882865339785
 20
605.1800219733251
 30
0.0000000000000000
 11
386.2882865339784
 21
605.1800219733251
 31
0.0000000000000000
  0
LINE
  5
341
100
AcDbEntity
  8
MAIN0
  6
CONTINUOUS
 62
3
100
AcDbLine
 10
374.2882865339785
 20
673.1800219733248
 30
0.0000000000000000
 11
374.2882865339785
 21
674.6800219733248
 31
0.0000000000000000
  0
LINE
  5
342
100
AcDbEntity
  8
MAIN0
  6
CENTER
 62
12
100
AcDbLine
 10
370.7882865339785
 20
603.7083077955338
 30
0.0000000000000000
 11
370.7882865339785
 21
616.0304549416012
 31
0.0000000000000000
  0
LINE
  5
343
100
AcDbEntity
  8
MAIN0
  6
CONTINUOUS
 62
3
100
AcDbLine
 10
397.2882865339783
 20
544.1800219733253
 30
0.0000000000000000
 11
396.2882865339783
 21
545.1800219733253
 31
0.0000000000000000
  0
ARC
  5
344
100
AcDbEntity
  8
MAIN0
  6
CONTINUOUS
 62
3
100
AcDbCircle
 10
386.2882865339783
 20
693.1800219733248
 30
0.0000000000000000
 40
9.999999999999998
100
AcDbArc
 50
269.9999999999999
 51
359.9999999999998
  0
ARC
  5
345
100
AcDbEntity
  8
MAIN0
  6
CONTINUOUS
 62
3
100
AcDbCircle
 10
386.2882865339783
 20
595.1800219733251
 30
0.0000000000000000
 40
9.999999999999998
100
AcDbArc
 50
0.0000000000000000
 51
89.99999999999970
  0
ARC
  5
346
100
AcDbEntity
  8
MAIN0
  6
CONTINUOUS
 62
3
100
AcDbCircle
 10
397.7882865339782
 20
759.6800219733244
 30
0.0000000000000000
 40
1.499999999999986
100
AcDbArc
 50
89.99999999999970
 51
179.9999999999998
  0
ARC
  5
347
100
AcDbEntity
  8
MAIN0
  6
CONTINUOUS
 62
3
100
AcDbCircle
 10
419.7882865339783
 20
528.6800219733254
 30
0.0000000000000000
 40
1.499999999999986
100
AcDbArc
 50
179.9999999999998
 51
269.9999999999999
  0
ARC
  5
348
100
AcDbEntity
  8
MAIN0
  6
CONTINUOUS
 62
3
100
AcDbCircle
 10
468.7882865339782
 20
528.6800219733254
 30
0.0000000000000000
 40
1.499999999999986
100
AcDbArc
 50
269.9999999999999
 51
359.9999999999998
  0
ARC
  5
349
100
AcDbEntity
  8
MAIN0
  6
CONTINUOUS
 62
3
100
AcDbCircle
 10
417.2882865339783
 20
543.1800219733253
 30
0.0000000000000000
 40
0.9999999999999999
100
AcDbArc
 50
0.0000000000000000
 51
89.99999999999970
  0
LINE
  5
34A
100
AcDbEntity
  8
MAIN0
  6
CONTINUOUS
 62
3
100
AcDbLine
 10
454.5582416269542
 20
142.5038908877587
 30
0.0000000000000000
 11
480.1582416269541
 21
142.5038908877586
 31
0.0000000000000000
  0
LINE
  5
34B
100
AcDbEntity
  8
MAIN0
  6
CONTINUOUS
 62
3
100
AcDbLine
 10
454.5582416269543
 20
167.5038908877587
 30
0.0000000000000000
 11
480.1582416269541
 21
167.5038908877586
 31
0.0000000000000000
  0
LINE
  5
34C
100
AcDbEntity
  8
MAIN0
  6
CONTINUOUS
 62
3
100
AcDbLine
 10
480.1582416269541
 20
167.5038908877586
 30
0.0000000000000000
 11
480.1582416269541
 21
142.5038908877586
 31
0.0000000000000000
  0
LINE
  5
34D
100
AcDbEntity
  8
MAIN0
  6
CONTINUOUS
 62
3
100
AcDbLine
 10
454.1582416269543
 20
167.9038908877601
 30
0.0000000000000000
 11
454.1582416269543
 21
172.4538908877594
 31
0.0000000000000000
  0
LINE
  5
34E
100
AcDbEntity
  8
MAIN0
  6
CONTINUOUS
 62
3
100
AcDbLine
 10
454.1582416269542
 20
137.5538908877597
 30
0.0000000000000000
 11
454.1582416269542
 21
142.1038908877590
 31
0.0000000000000000
  0
LINE
  5
34F
100
AcDbEntity
  8
MAIN0
  6
CONTINUOUS
 62
3
100
AcDbLine
 10
483.2882865339784
 20
870.6800219733248
 30
0.0000000000000000
 11
489.2882865339784
 21
870.6800219733248
 31
0.0000000000000000
  0
LINE
  5
350
100
AcDbEntity
  8
MAIN0
  6
CONTINUOUS
 62
3
100
AcDbLine
 10
483.2882865339784
 20
824.6800219733248
 30
0.0000000000000000
 11
489.2882865339784
 21
824.6800219733248
 31
0.0000000000000000
  0
LINE
  5
351
100
AcDbEntity
  8
MAIN0
  6
CONTINUOUS
 62
3
100
AcDbLine
 10
435.1582416269541
 20
142.7538908877586
 30
0.0000000000000000
 11
435.1582416269541
 21
167.2538908877586
 31
0.0000000000000000
  0
LINE
  5
352
100
AcDbEntity
  8
MAIN0
  6
CONTINUOUS
 62
3
100
AcDbLine
 10
441.6582416269541
 20
173.7538908877586
 30
0.0000000000000000
 11
452.6582416269541
 21
173.7538908877586
 31
0.0000000000000000
  0
LINE
  5
353
100
AcDbEntity
  8
MAIN0
  6
CONTINUOUS
 62
3
100
AcDbLine
 10
441.6582416269541
 20
136.2538908877586
 30
0.0000000000000000
 11
452.6582416269541
 21
136.2538908877586
 31
0.0000000000000000
  0
LINE
  5
354
100
AcDbEntity
  8
MAIN0
  6
CONTINUOUS
 62
3
100
AcDbLine
 10
452.6582416269546
 20
173.7538908877602
 30
0.0000000000000000
 11
454.1582416269535
 21
172.2538908877613
 31
0.0000000000000000
  0
LINE
  5
355
100
AcDbEntity
  8
MAIN0
  6
CONTINUOUS
 62
3
100
AcDbLine
 10
452.6582416269547
 20
136.2538908877625
 30
0.0000000000000000
 11
454.1582416269537
 21
137.7538908877616
 31
0.0000000000000000
  0
LINE
  5
356
100
AcDbEntity
  8
MAIN0
  6
CONTINUOUS
 62
3
100
AcDbLine
 10
441.6582416269557
 20
173.7538908877602
 30
0.0000000000000000
 11
435.1582416269558
 21
167.2538908877605
 31
0.0000000000000000
  0
LINE
  5
357
100
AcDbEntity
  8
MAIN0
  6
CONTINUOUS
 62
3
100
AcDbLine
 10
441.6582416269554
 20
136.2538908877602
 30
0.0000000000000000
 11
435.1582416269555
 21
142.7538908877600
 31
0.0000000000000000
  0
LINE
  5
358
100
AcDbEntity
  8
MAIN0
  6
CENTER
 62
12
100
AcDbLine
 10
932.5434902908771
 20
520.9995710572960
 30
0.0000000000000000
 11
908.1614597384366
 21
563.2304867658197
 31
0.0000000000000000
  0
ARC
  5
359
100
AcDbEntity
  8
MAIN0
  6
CONTINUOUS
 62
3
100
AcDbCircle
 10
920.1706136856521
 20
542.4300219733257
 30
0.0000000000000000
 40
22.99999999999977
100
AcDbArc
 50
177.0792654719099
 51
242.9207345280892
  0
ARC
  5
35A
100
AcDbEntity
  8
MAIN0
  6
CONTINUOUS
 62
3
100
AcDbCircle
 10
920.1706136856521
 20
542.4300219733257
 30
0.0000000000000000
 40
22.99999999999977
100
AcDbArc
 50
357.0792654719103
 51
422.9207345280896
  0
LINE
  5
35B
100
AcDbEntity
  8
MAIN0
  6
CONTINUOUS
 62
3
100
AcDbLine
 10
489.2882865339784
 20
824.6800219733246
 30
0.0000000000000000
 11
489.2882865339784
 21
837.6800277066581
 31
0.0000000000000000
  0
LINE
  5
35C
100
AcDbEntity
  8
MAIN0
  6
CONTINUOUS
 62
3
100
AcDbLine
 10
489.2882865339784
 20
857.6800054899913
 30
0.0000000000000000
 11
489.2882865339784
 21
870.6800219733248
 31
0.0000000000000000
  0
LINE
  5
35D
100
AcDbEntity
  8
MAIN0
  6
CONTINUOUS
 62
3
100
AcDbLine
 10
335.2882865339784
 20
614.1800219733250
 30
0.0000000000000000
 11
402.7882865339785
 21
614.1800219733250
 31
0.0000000000000000
  0
LINE
  5
35E
100
AcDbEntity
  8
MAIN0
  6
CONTINUOUS
 62
3
100
AcDbLine
 10
335.2882865339785
 20
674.1800219733248
 30
0.0000000000000000
 11
402.7882865339785
 21
674.1800219733248
 31
0.0000000000000000
  0
LINE
  5
35F
100
AcDbEntity
  8
MAIN0
  6
CONTINUOUS
 62
3
100
AcDbLine
 10
369.2882865339784
 20
620.6800219733252
 30
0.0000000000000000
 11
369.2882865339784
 21
667.6800219733248
 31
0.0000000000000000
  0
LINE
  5
360
100
AcDbEntity
  8
MAIN0
  6
CONTINUOUS
 62
3
100
AcDbLine
 10
369.2882865339785
 20
667.6800219733248
 30
0.0000000000000000
 11
404.2882865339785
 21
667.6800219733248
 31
0.0000000000000000
  0
LINE
  5
361
100
AcDbEntity
  8
MAIN0
  6
CONTINUOUS
 62
3
100
AcDbLine
 10
369.2882865339785
 20
620.6800219733250
 30
0.0000000000000000
 11
404.2882865339785
 21
620.6800219733250
 31
0.0000000000000000
  0
LINE
  5
362
100
AcDbEntity
  8
MAIN0
  6
CONTINUOUS
 62
3
100
AcDbLine
 10
334.2882865339784
 20
658.1800219733250
 30
0.0000000000000000
 11
334.2882865339785
 21
673.1800219733248
 31
0.0000000000000000
  0
LINE
  5
363
100
AcDbEntity
  8
MAIN0
  6
CONTINUOUS
 62
12
100
AcDbLine
 10
369.2882865339783
 20
673.1800219733248
 30
0.0000000000000000
 11
403.7882865339785
 21
673.1800219733248
 31
0.0000000000000000
  0
LINE
  5
364
100
AcDbEntity
  8
MAIN0
  6
CONTINUOUS
 62
12
100
AcDbLine
 10
369.2882865339783
 20
615.1800219733250
 30
0.0000000000000000
 11
403.7882865339786
 21
615.1800219733250
 31
0.0000000000000000
  0
LINE
  5
365
100
AcDbEntity
  8
MAIN0
  6
CONTINUOUS
 62
3
100
AcDbLine
 10
369.2882865339781
 20
673.1800219733250
 30
0.0000000000000000
 11
367.5562357264091
 21
674.1800219733251
 31
0.0000000000000000
  0
LINE
  5
366
100
AcDbEntity
  8
MAIN0
  6
CONTINUOUS
 62
3
100
AcDbLine
 10
369.2882865339782
 20
615.1800219733250
 30
0.0000000000000000
 11
367.5562357264090
 21
614.1800219733249
 31
0.0000000000000000
  0
LINE
  5
367
100
AcDbEntity
  8
MAIN0
  6
CONTINUOUS
 62
3
100
AcDbLine
 10
335.2882865339785
 20
674.1800219733250
 30
0.0000000000000000
 11
334.2882865339785
 21
673.1800219733250
 31
0.0000000000000000
  0
LINE
  5
368
100
AcDbEntity
  8
MAIN0
  6
CONTINUOUS
 62
3
100
AcDbLine
 10
335.2882865339785
 20
614.1800219733250
 30
0.0000000000000000
 11
334.2882865339785
 21
615.1800219733250
 31
0.0000000000000000
  0
LINE
  5
369
100
AcDbEntity
  8
MAIN0
  6
CONTINUOUS
 62
3
100
AcDbLine
 10
402.7882865339785
 20
674.1800219733250
 30
0.0000000000000000
 11
404.2882865339785
 21
672.6800219733250
 31
0.0000000000000000
  0
LINE
  5
36A
100
AcDbEntity
  8
MAIN0
  6
CONTINUOUS
 62
3
100
AcDbLine
 10
402.7882865339785
 20
614.1800219733250
 30
0.0000000000000000
 11
404.2882865339785
 21
615.6800219733250
 31
0.0000000000000000
  0
LINE
  5
36B
100
AcDbEntity
  8
MAIN0
  6
CENTER
 62
12
100
AcDbLine
 10
331.3361197177533
 20
622.1800219733250
 30
0.0000000000000000
 11
354.8562115941494
 21
622.1800219733250
 31
0.0000000000000000
  0
LINE
  5
36C
100
AcDbEntity
  8
MAIN0
  6
CONTINUOUS
 62
3
100
AcDbLine
 10
349.2882865339783
 20
624.6800219733252
 30
0.0000000000000000
 11
334.2882865339783
 21
624.6800219733252
 31
0.0000000000000000
  0
LINE
  5
36D
100
AcDbEntity
  8
MAIN0
  6
CONTINUOUS
 62
3
100
AcDbLine
 10
349.2882865339783
 20
619.6800219733250
 30
0.0000000000000000
 11
334.2882865339784
 21
619.6800219733250
 31
0.0000000000000000
  0
LINE
  5
36E
100
AcDbEntity
  8
MAIN0
  6
CONTINUOUS
 62
3
100
AcDbLine
 10
349.2882865339786
 20
624.6800219733245
 30
0.0000000000000000
 11
350.7316622069524
 21
622.1800219733250
 31
0.0000000000000000
  0
LINE
  5
36F
100
AcDbEntity
  8
MAIN0
  6
CONTINUOUS
 62
3
100
AcDbLine
 10
349.2882865339786
 20
619.6800219733254
 30
0.0000000000000000
 11
350.7316622069524
 21
622.1800219733250
 31
0.0000000000000000
  0
LINE
  5
370
100
AcDbEntity
  8
MAIN0
  6
CONTINUOUS
 62
3
100
AcDbLine
 10
332.8449108610043
 20
622.1800219733251
 30
0.0000000000000000
 11
334.2882865339784
 21
624.6800219733249
 31
0.0000000000000000
  0
LINE
  5
371
100
AcDbEntity
  8
MAIN0
  6
CONTINUOUS
 62
3
100
AcDbLine
 10
332.8449108610043
 20
622.1800219733250
 30
0.0000000000000000
 11
334.2882865339785
 21
619.6800219733249
 31
0.0000000000000000
  0
LINE
  5
372
100
AcDbEntity
  8
MAIN0
  6
CONTINUOUS
 62
3
100
AcDbLine
 10
334.2882865339781
 20
615.1800219733254
 30
0.0000000000000000
 11
334.2882865339782
 21
619.6800219733250
 31
0.0000000000000000
  0
LINE
  5
373
100
AcDbEntity
  8
MAIN0
  6
CONTINUOUS
 62
3
100
AcDbLine
 10
334.2882865339781
 20
624.6800219733250
 30
0.0000000000000000
 11
334.2882865339781
 21
630.1800219733250
 31
0.0000000000000000
  0
LINE
  5
374
100
AcDbEntity
  8
MAIN0
  6
CONTINUOUS
 62
3
100
AcDbLine
 10
301.2882865339784
 20
671.6800219733250
 30
0.0000000000000000
 11
334.2882865339785
 21
671.6800219733250
 31
0.0000000000000000
  0
LINE
  5
375
100
AcDbEntity
  8
MAIN0
  6
CONTINUOUS
 62
3
100
AcDbLine
 10
301.2882865339784
 20
616.6800219733252
 30
0.0000000000000000
 11
334.2882865339784
 21
616.6800219733252
 31
0.0000000000000000
  0
LINE
  5
376
100
AcDbEntity
  8
MAIN0
  6
CONTINUOUS
 62
3
100
AcDbLine
 10
299.2882865339784
 20
618.6800219733252
 30
0.0000000000000000
 11
299.2882865339784
 21
630.1800219733250
 31
0.0000000000000000
  0
LINE
  5
377
100
AcDbEntity
  8
MAIN0
  6
CONTINUOUS
 62
3
100
AcDbLine
 10
299.2882865339784
 20
658.1800219733250
 30
0.0000000000000000
 11
299.2882865339784
 21
669.6800219733250
 31
0.0000000000000000
  0
LINE
  5
378
100
AcDbEntity
  8
MAIN0
  6
CONTINUOUS
 62
3
100
AcDbLine
 10
301.2882865339785
 20
671.6800219733250
 30
0.0000000000000000
 11
299.2882865339785
 21
669.6800219733250
 31
0.0000000000000000
  0
LINE
  5
379
100
AcDbEntity
  8
MAIN0
  6
CONTINUOUS
 62
3
100
AcDbLine
 10
301.2882865339785
 20
616.6800219733250
 30
0.0000000000000000
 11
299.2882865339785
 21
618.6800219733250
 31
0.0000000000000000
  0
LINE
  5
37A
100
AcDbEntity
  8
MAIN0
  6
CENTER
 62
12
100
AcDbLine
 10
314.2882865339784
 20
611.7433323523330
 30
0.0000000000000000
 11
314.2882865339784
 21
633.1314138682934
 31
0.0000000000000000
  0
LINE
  5
37B
100
AcDbEntity
  8
MAIN0
  6
CONTINUOUS
 62
3
100
AcDbLine
 10
369.2882865339785
 20
666.6800219733250
 30
0.0000000000000000
 11
399.2882865339784
 21
666.6800219733250
 31
0.0000000000000000
  0
LINE
  5
37C
100
AcDbEntity
  8
MAIN0
  6
CONTINUOUS
 62
3
100
AcDbLine
 10
369.2882865339784
 20
621.6800219733252
 30
0.0000000000000000
 11
399.2882865339784
 21
621.6800219733252
 31
0.0000000000000000
  0
LINE
  5
37D
100
AcDbEntity
  8
MAIN0
  6
CONTINUOUS
 62
3
100
AcDbLine
 10
244.2882865339784
 20
659.1800219733250
 30
0.0000000000000000
 11
369.2882865339785
 21
659.1800219733250
 31
0.0000000000000000
  0
LINE
  5
37E
100
AcDbEntity
  8
MAIN0
  6
CONTINUOUS
 62
3
100
AcDbLine
 10
244.2882865339784
 20
629.1800219733250
 30
0.0000000000000000
 11
369.2882865339785
 21
629.1800219733250
 31
0.0000000000000000
  0
LINE
  5
37F
100
AcDbEntity
  8
MAIN0
  6
CONTINUOUS
 62
3
100
AcDbLine
 10
244.2882865339784
 20
629.1800219733250
 30
0.0000000000000000
 11
244.2882865339784
 21
659.1800219733250
 31
0.0000000000000000
  0
LINE
  5
380
100
AcDbEntity
  8
MAIN0
  6
CONTINUOUS
 62
3
100
AcDbLine
 10
344.2882865339784
 20
629.1800219733250
 30
0.0000000000000000
 11
344.2882865339784
 21
659.1800219733250
 31
0.0000000000000000
  0
LINE
  5
381
100
AcDbEntity
  8
MAIN0
  6
CONTINUOUS
 62
12
100
AcDbLine
 10
244.2882865339786
 20
658.1800219733250
 30
0.0000000000000000
 11
344.2882865339785
 21
658.1800219733250
 31
0.0000000000000000
  0
LINE
  5
382
100
AcDbEntity
  8
MAIN0
  6
CONTINUOUS
 62
12
100
AcDbLine
 10
244.2882865339786
 20
630.1800219733250
 30
0.0000000000000000
 11
344.2882865339785
 21
630.1800219733250
 31
0.0000000000000000
  0
LINE
  5
383
100
AcDbEntity
  8
MAIN0
  6
CONTINUOUS
 62
3
100
AcDbLine
 10
399.2882865339784
 20
621.6800219733252
 30
0.0000000000000000
 11
399.2882865339784
 21
666.6800219733250
 31
0.0000000000000000
  0
LINE
  5
384
100
AcDbEntity
  8
MAIN0
  6
CONTINUOUS
 62
3
100
AcDbLine
 10
483.2882865339784
 20
947.6800219733214
 30
0.0000000000000000
 11
551.2882865339783
 21
947.6800219733214
 31
0.0000000000000000
  0
LINE
  5
385
100
AcDbEntity
  8
MAIN0
  6
CONTINUOUS
 62
3
100
AcDbLine
 10
551.2882865339784
 20
767.6800219733248
 30
0.0000000000000000
 11
551.2882865339784
 21
947.6800219733214
 31
0.0000000000000000
  0
LINE
  5
386
100
AcDbEntity
  8
MAIN0
  6
CENTER
 62
12
100
AcDbLine
 10
464.3789867188095
 20
907.6800219733214
 30
0.0000000000000000
 11
556.1721904684569
 21
907.6800219733214
 31
0.0000000000000000
  0
LINE
  5
387
100
AcDbEntity
  8
MAIN0
  6
CONTINUOUS
 62
3
100
AcDbLine
 10
483.2882865339784
 20
767.6800219733248
 30
0.0000000000000000
 11
551.2882865339783
 21
767.6800219733248
 31
0.0000000000000000
  0
LINE
  5
388
100
AcDbEntity
  8
MAIN0
  6
CONTINUOUS
 62
3
100
AcDbLine
 10
506.2882865339782
 20
923.6800219733214
 30
0.0000000000000000
 11
551.2882865339783
 21
923.6800219733214
 31
0.0000000000000000
  0
LINE
  5
389
100
AcDbEntity
  8
MAIN0
  6
CONTINUOUS
 62
3
100
AcDbLine
 10
506.2882865339782
 20
891.6800219733248
 30
0.0000000000000000
 11
551.2882865339783
 21
891.6800219733248
 31
0.0000000000000000
  0
LINE
  5
38A
100
AcDbEntity
  8
MAIN0
  6
CONTINUOUS
 62
3
100
AcDbLine
 10
506.2882865339782
 20
863.6800219733248
 30
0.0000000000000000
 11
551.2882865339783
 21
863.6800219733248
 31
0.0000000000000000
  0
LINE
  5
38B
100
AcDbEntity
  8
MAIN0
  6
CONTINUOUS
 62
3
100
AcDbLine
 10
506.2882865339782
 20
831.6800219733248
 30
0.0000000000000000
 11
551.2882865339783
 21
831.6800219733248
 31
0.0000000000000000
  0
LINE
  5
38C
100
AcDbEntity
  8
MAIN0
  6
CONTINUOUS
 62
3
100
AcDbLine
 10
506.2882865339781
 20
831.6800219733245
 30
0.0000000000000000
 11
506.2882865339781
 21
863.6800219733246
 31
0.0000000000000000
  0
LINE
  5
38D
100
AcDbEntity
  8
MAIN0
  6
CONTINUOUS
 62
3
100
AcDbLine
 10
506.2882865339782
 20
891.6800219733248
 30
0.0000000000000000
 11
506.2882865339782
 21
923.6800219733214
 31
0.0000000000000000
  0
LINE
  5
38E
100
AcDbEntity
  8
MAIN0
  6
CONTINUOUS
 62
3
100
AcDbLine
 10
490.2882865339784
 20
918.1800219733214
 30
0.0000000000000000
 11
506.2882865339782
 21
918.1800219733214
 31
0.0000000000000000
  0
LINE
  5
38F
100
AcDbEntity
  8
MAIN0
  6
CONTINUOUS
 62
3
100
AcDbLine
 10
490.2882865339784
 20
897.1800219733248
 30
0.0000000000000000
 11
506.2882865339782
 21
897.1800219733248
 31
0.0000000000000000
  0
LINE
  5
390
100
AcDbEntity
  8
MAIN0
  6
CONTINUOUS
 62
3
100
AcDbLine
 10
490.2882865339784
 20
858.1800219733248
 30
0.0000000000000000
 11
506.2882865339782
 21
858.1800219733248
 31
0.0000000000000000
  0
LINE
  5
391
100
AcDbEntity
  8
MAIN0
  6
CONTINUOUS
 62
3
100
AcDbLine
 10
490.2882865339784
 20
837.1800219733248
 30
0.0000000000000000
 11
506.2882865339782
 21
837.1800219733248
 31
0.0000000000000000
  0
LINE
  5
392
100
AcDbEntity
  8
MAIN0
  6
CONTINUOUS
 62
3
100
AcDbLine
 10
1128.906783355784
 20
755.0612198198072
 30
0.0000000000000000
 11
1128.906783355784
 21
947.6800219733214
 31
0.0000000000000000
  0
LINE
  5
393
100
AcDbEntity
  8
MAIN0
  6
CONTINUOUS
 62
3
100
AcDbLine
 10
1063.906783355782
 20
755.0612198198072
 30
0.0000000000000000
 11
1063.906783355782
 21
947.6800219733214
 31
0.0000000000000000
  0
LINE
  5
394
100
AcDbEntity
  8
MAIN0
  6
CONTINUOUS
 62
3
100
AcDbLine
 10
1128.906783355784
 20
947.6800219733214
 30
0.0000000000000000
 11
1063.906783355782
 21
947.6800219733214
 31
0.0000000000000000
  0
LINE
  5
395
100
AcDbEntity
  8
MAIN0
  6
CENTER
 62
12
100
AcDbLine
 10
1071.661030145333
 20
847.6800219733245
 30
0.0000000000000000
 11
1120.425091250218
 21
847.6800219733245
 31
0.0000000000000000
  0
LINE
  5
396
100
AcDbEntity
  8
MAIN0
  6
CENTER
 62
12
100
AcDbLine
 10
1070.267748496161
 20
907.6800219733214
 30
0.0000000000000000
 11
1120.447839066989
 21
907.6800219733214
 31
0.0000000000000000
  0
LINE
  5
397
100
AcDbEntity
  8
MAIN0
  6
CONTINUOUS
 62
3
100
AcDbLine
 10
1128.906783355784
 20
767.6800219733245
 30
0.0000000000000000
 11
1063.906783355782
 21
767.6800219733245
 31
0.0000000000000000
  0
CIRCLE
  5
398
100
AcDbEntity
  8
MAIN0
  6
CONTINUOUS
 62
3
100
AcDbCircle
 10
1096.406783355784
 20
907.6800219733214
 30
0.0000000000000000
 40
16.00000000000000
  0
CIRCLE
  5
399
100
AcDbEntity
  8
MAIN0
  6
CONTINUOUS
 62
3
100
AcDbCircle
 10
1096.406783355784
 20
847.6800219733245
 30
0.0000000000000000
 40
16.00000000000000
  0
LINE
  5
39A
100
AcDbEntity
  8
MAIN0
  6
CONTINUOUS
 62
3
100
AcDbLine
 10
490.2882865339784
 20
917.6800051066543
 30
0.0000000000000000
 11
490.2882865339784
 21
947.6800219733214
 31
0.0000000000000000
  0
LINE
  5
39B
100
AcDbEntity
  8
MAIN0
  6
CONTINUOUS
 62
3
100
AcDbLine
 10
490.2882865339784
 20
767.6800219733248
 30
0.0000000000000000
 11
490.2882865339784
 21
837.6800278399915
 31
0.0000000000000000
  0
LINE
  5
39C
100
AcDbEntity
  8
MAIN0
  6
CONTINUOUS
 62
3
100
AcDbLine
 10
490.2882865339784
 20
857.6800051066581
 30
0.0000000000000000
 11
490.2882865339784
 21
897.6800278399913
 31
0.0000000000000000
  0
LINE
  5
39D
100
AcDbEntity
  8
MAIN0
  6
CONTINUOUS
 62
3
100
AcDbLine
 10
349.2882865339780
 20
619.6800219733252
 30
0.0000000000000000
 11
349.2882865339780
 21
624.6800219733252
 31
0.0000000000000000
  0
LINE
  5
39E
100
AcDbEntity
  8
MAIN0
  6
CONTINUOUS
 62
3
100
AcDbLine
 10
347.9016638136791
 20
619.6800219733253
 30
0.0000000000000000
 11
349.2882865339782
 21
624.6800219733251
 31
0.0000000000000000
  0
LINE
  5
39F
100
AcDbEntity
  8
MAIN0
  6
CONTINUOUS
 62
3
100
AcDbLine
 10
346.5150410933795
 20
624.6800219733249
 30
0.0000000000000000
 11
347.9016638136787
 21
619.6800219733253
 31
0.0000000000000000
  0
LINE
  5
3A0
100
AcDbEntity
  8
MAIN0
  6
CONTINUOUS
 62
3
100
AcDbLine
 10
345.1284183730801
 20
619.6800219733252
 30
0.0000000000000000
 11
346.5150410933792
 21
624.6800219733250
 31
0.0000000000000000
  0
LINE
  5
3A1
100
AcDbEntity
  8
MAIN0
  6
CONTINUOUS
 62
3
100
AcDbLine
 10
343.7417956527806
 20
624.6800219733248
 30
0.0000000000000000
 11
345.1284183730797
 21
619.6800219733252
 31
0.0000000000000000
  0
LINE
  5
3A2
100
AcDbEntity
  8
MAIN0
  6
CONTINUOUS
 62
3
100
AcDbLine
 10
342.3551729324811
 20
619.6800219733253
 30
0.0000000000000000
 11
343.7417956527802
 21
624.6800219733251
 31
0.0000000000000000
  0
LINE
  5
3A3
100
AcDbEntity
  8
MAIN0
  6
CONTINUOUS
 62
3
100
AcDbLine
 10
340.9685502121816
 20
624.6800219733249
 30
0.0000000000000000
 11
342.3551729324808
 21
619.6800219733250
 31
0.0000000000000000
  0
LINE
  5
3A4
100
AcDbEntity
  8
MAIN0
  6
CONTINUOUS
 62
3
100
AcDbLine
 10
339.5819274918822
 20
619.6800219733253
 30
0.0000000000000000
 11
340.9685502121813
 21
624.6800219733250
 31
0.0000000000000000
  0
LINE
  5
3A5
100
AcDbEntity
  8
MAIN0
  6
CONTINUOUS
 62
3
100
AcDbLine
 10
338.1953047715828
 20
624.6800219733248
 30
0.0000000000000000
 11
339.5819274918819
 21
619.6800219733252
 31
0.0000000000000000
  0
LINE
  5
3A6
100
AcDbEntity
  8
MAIN0
  6
CONTINUOUS
 62
3
100
AcDbLine
 10
338.1953047715824
 20
619.6800219733252
 30
0.0000000000000000
 11
338.1953047715824
 21
624.6800219733252
 31
0.0000000000000000
  0
CIRCLE
  5
3A7
100
AcDbEntity
  8
MAIN0
  6
CONTINUOUS
 62
3
100
AcDbCircle
 10
335.7316622069524
 20
622.1800219733252
 30
0.0000000000000000
 40
2.500000000000000
  0
LINE
  5
3A8
100
AcDbEntity
  8
MAIN0
  6
CONTINUOUS
 62
3
100
AcDbLine
 10
450.2882865339784
 20
461.0800219733251
 30
0.0000000000000000
 11
450.2882865339784
 21
497.0800219733251
 31
0.0000000000000000
  0
LINE
  5
3A9
100
AcDbEntity
  8
MAIN0
  6
CONTINUOUS
 62
3
100
AcDbLine
 10
472.2882865339783
 20
464.3120727808959
 30
0.0000000000000000
 11
472.2882865339785
 21
493.8479711657554
 31
0.0000000000000000
  0
LINE
  5
3AA
100
AcDbEntity
  8
MAIN0
  6
CONTINUOUS
 62
3
100
AcDbLine
 10
450.2882865339785
 20
495.5800219733252
 30
0.0000000000000000
 11
471.2882865339781
 21
495.5800219733251
 31
0.0000000000000000
  0
LINE
  5
3AB
100
AcDbEntity
  8
MAIN0
  6
CONTINUOUS
 62
3
100
AcDbLine
 10
450.2882865339784
 20
462.5800219733252
 30
0.0000000000000000
 11
471.2882865339772
 21
462.5800219733251
 31
0.0000000000000000
  0
LINE
  5
3AC
100
AcDbEntity
  8
MAIN0
  6
CONTINUOUS
 62
3
100
AcDbLine
 10
332.7882865339783
 20
468.0800219733251
 30
0.0000000000000000
 11
450.2882865339784
 21
468.0800219733251
 31
0.0000000000000000
  0
LINE
  5
3AD
100
AcDbEntity
  8
MAIN0
  6
CONTINUOUS
 62
3
100
AcDbLine
 10
332.7882865339773
 20
490.0800219733251
 30
0.0000000000000000
 11
450.2882865339784
 21
490.0800219733251
 31
0.0000000000000000
  0
LINE
  5
3AE
100
AcDbEntity
  8
MAIN0
  6
CONTINUOUS
 62
3
100
AcDbLine
 10
330.2882865339783
 20
470.5800219733249
 30
0.0000000000000000
 11
330.2882865339783
 21
487.5800219733261
 31
0.0000000000000000
  0
LINE
  5
3AF
100
AcDbEntity
  8
MAIN0
  6
CONTINUOUS
 62
3
100
AcDbLine
 10
471.2882865339783
 20
462.5800219733251
 30
0.0000000000000000
 11
471.2882865339783
 21
495.5800219733251
 31
0.0000000000000000
  0
LINE
  5
3B0
100
AcDbEntity
  8
MAIN0
  6
CONTINUOUS
 62
3
100
AcDbLine
 10
471.2882865339780
 20
495.5800219733251
 30
0.0000000000000000
 11
472.2882865339784
 21
493.8479711657555
 31
0.0000000000000000
  0
LINE
  5
3B1
100
AcDbEntity
  8
MAIN0
  6
CONTINUOUS
 62
3
100
AcDbLine
 10
471.2882865339772
 20
462.5800219733251
 30
0.0000000000000000
 11
472.2882865339783
 21
464.3120727808960
 31
0.0000000000000000
  0
LINE
  5
3B2
100
AcDbEntity
  8
MAIN0
  6
CONTINUOUS
 62
3
100
AcDbLine
 10
332.7882865339783
 20
468.0800219733251
 30
0.0000000000000000
 11
332.7882865339783
 21
490.0800219733252
 31
0.0000000000000000
  0
LINE
  5
3B3
100
AcDbEntity
  8
MAIN0
  6
CONTINUOUS
 62
3
100
AcDbLine
 10
330.2882865339783
 20
487.5800219733261
 30
0.0000000000000000
 11
332.7882865339773
 21
490.0800219733251
 31
0.0000000000000000
  0
LINE
  5
3B4
100
AcDbEntity
  8
MAIN0
  6
CONTINUOUS
 62
3
100
AcDbLine
 10
330.2882865339783
 20
470.5800219733250
 30
0.0000000000000000
 11
332.7882865339781
 21
468.0800219733252
 31
0.0000000000000000
  0
LINE
  5
3B5
100
AcDbEntity
  8
MAIN0
  6
CONTINUOUS
 62
3
100
AcDbLine
 10
380.2882865339783
 20
468.0800219733252
 30
0.0000000000000000
 11
380.2882865339783
 21
490.0800219733252
 31
0.0000000000000000
  0
LINE
  5
3B6
100
AcDbEntity
  8
MAIN0
  6
CONTINUOUS
 62
12
100
AcDbLine
 10
331.4352865339780
 20
469.4330219733251
 30
0.0000000000000000
 11
380.2882865339783
 21
469.4330219733251
 31
0.0000000000000000
  0
LINE
  5
3B7
100
AcDbEntity
  8
MAIN0
  6
CONTINUOUS
 62
12
100
AcDbLine
 10
331.4352865339773
 20
488.7270219733251
 30
0.0000000000000000
 11
380.2882865339784
 21
488.7270219733251
 31
0.0000000000000000
  0
LINE
  5
3B8
100
AcDbEntity
  8
MAIN0
  6
CONTINUOUS
 62
12
100
AcDbLine
 10
380.2882865339782
 20
488.7270219733259
 30
0.0000000000000000
 11
382.6317512766175
 21
490.0800219733250
 31
0.0000000000000000
  0
LINE
  5
3B9
100
AcDbEntity
  8
MAIN0
  6
CONTINUOUS
 62
12
100
AcDbLine
 10
380.2882865339784
 20
469.4330219733253
 30
0.0000000000000000
 11
382.6317512766188
 21
468.0800219733253
 31
0.0000000000000000
  0
LINE
  5
3BA
100
AcDbEntity
  8
MAIN0
  6
CONTINUOUS
 62
3
100
AcDbLine
 10
362.4882865339785
 20
825.2800219733247
 30
0.0000000000000000
 11
382.2882865339785
 21
825.2800219733247
 31
0.0000000000000000
  0
LINE
  5
3BB
100
AcDbEntity
  8
MAIN0
  6
CONTINUOUS
 62
3
100
AcDbLine
 10
362.4882865339785
 20
793.2800219733247
 30
0.0000000000000000
 11
382.2882865339784
 21
793.2800219733247
 31
0.0000000000000000
  0
LINE
  5
3BC
100
AcDbEntity
  8
MAIN0
  6
CONTINUOUS
 62
3
100
AcDbLine
 10
382.2882865339785
 20
825.2800219733247
 30
0.0000000000000000
 11
382.2882865339785
 21
793.2800219733247
 31
0.0000000000000000
  0
LINE
  5
3BD
100
AcDbEntity
  8
MAIN0
  6
CONTINUOUS
 62
3
100
AcDbLine
 10
361.2882865339784
 20
826.4800219733246
 30
0.0000000000000000
 11
362.4882865339784
 21
825.2800219733247
 31
0.0000000000000000
  0
LINE
  5
3BE
100
AcDbEntity
  8
MAIN0
  6
CONTINUOUS
 62
3
100
AcDbLine
 10
361.2882865339783
 20
792.0800219733246
 30
0.0000000000000000
 11
362.4882865339783
 21
793.2800219733246
 31
0.0000000000000000
  0
LINE
  5
3BF
100
AcDbEntity
  8
MAIN0
  6
CONTINUOUS
 62
3
100
AcDbLine
 10
382.2882865339785
 20
819.2800139733248
 30
0.0000000000000000
 11
407.3888018842295
 21
819.2800139733248
 31
0.0000000000000000
  0
LINE
  5
3C0
100
AcDbEntity
  8
MAIN0
  6
CONTINUOUS
 62
3
100
AcDbLine
 10
382.2882865339785
 20
799.2800449733248
 30
0.0000000000000000
 11
407.1248566526128
 21
799.2800449733248
 31
0.0000000000000000
  0
LINE
  5
3C1
100
AcDbEntity
  8
MAIN0
  6
CONTINUOUS
 62
12
100
AcDbLine
 10
382.2882865339785
 20
818.2800219733248
 30
0.0000000000000000
 11
407.4620903795927
 21
818.2800219733248
 31
0.0000000000000000
  0
LINE
  5
3C2
100
AcDbEntity
  8
MAIN0
  6
CONTINUOUS
 62
12
100
AcDbLine
 10
382.2882865339785
 20
800.2800219733248
 30
0.0000000000000000
 11
407.2568289511935
 21
800.2800219733248
 31
0.0000000000000000
  0
LINE
  5
3C3
100
AcDbEntity
  8
MAIN0
  6
CONTINUOUS
 62
3
100
AcDbLine
 10
382.2882715339785
 20
794.2800219733249
 30
0.0000000000000000
 11
363.2882565339784
 21
794.2800369733249
 31
0.0000000000000000
  0
LINE
  5
3C4
100
AcDbEntity
  8
MAIN0
  6
CONTINUOUS
 62
3
100
AcDbLine
 10
363.2882105339784
 20
824.2800289733248
 30
0.0000000000000000
 11
382.2883015339785
 21
824.2800219733248
 31
0.0000000000000000
  0
LINE
  5
3C5
100
AcDbEntity
  8
MAIN0
  6
CONTINUOUS
 62
3
100
AcDbLine
 10
363.2882795339784
 20
794.2800369733247
 30
0.0000000000000000
 11
363.2882945339784
 21
824.2800289733248
 31
0.0000000000000000
  0
LINE
  5
3C6
100
AcDbEntity
  8
MAIN0
  6
CONTINUOUS
 62
3
100
AcDbLine
 10
362.2882405339786
 20
796.0120769733250
 30
0.0000000000000000
 11
363.2882795339786
 21
794.2800369733250
 31
0.0000000000000000
  0
LINE
  5
3C7
100
AcDbEntity
  8
MAIN0
  6
CONTINUOUS
 62
3
100
AcDbLine
 10
362.2882565339784
 20
822.5477909733247
 30
0.0000000000000000
 11
363.2882945339784
 21
824.2800289733248
 31
0.0000000000000000
  0
LINE
  5
3C8
100
AcDbEntity
  8
MAIN0
  6
CONTINUOUS
 62
3
100
AcDbLine
 10
362.2882865339784
 20
822.5478429384901
 30
0.0000000000000000
 11
362.2882865339784
 21
796.0119973025921
 31
0.0000000000000000
  0
CIRCLE
  5
3C9
100
AcDbEntity
  8
MAIN0
  6
CONTINUOUS
 62
3
100
AcDbCircle
 10
1227.460991455386
 20
871.1725689475386
 30
0.0000000000000000
 40
4.000000000000000
  0
LINE
  5
3CA
100
AcDbEntity
  8
MAIN0
  6
CONTINUOUS
 62
3
100
AcDbLine
 10
1229.016626373996
 20
872.7282038661488
 30
0.0000000000000000
 11
1225.905356536775
 21
869.6169340289280
 31
0.0000000000000000
  0
LINE
  5
3CB
100
AcDbEntity
  8
MAIN0
  6
CONTINUOUS
 62
3
100
AcDbLine
 10
1229.016626373996
 20
869.6169340289281
 30
0.0000000000000000
 11
1225.905356536775
 21
872.7282038661489
 31
0.0000000000000000
  0
LINE
  5
3CC
100
AcDbEntity
  8
MAIN0
  6
HIDDEN
 62
12
100
AcDbLine
 10
391.2882865339785
 20
815.2800219733246
 30
0.0000000000000000
 11
361.9882865339785
 21
815.2800219733246
 31
0.0000000000000000
  0
LINE
  5
3CD
100
AcDbEntity
  8
MAIN0
  6
HIDDEN
 62
12
100
AcDbLine
 10
391.2882865339784
 20
803.2800219733246
 30
0.0000000000000000
 11
361.9882865339785
 21
803.2800219733246
 31
0.0000000000000000
  0
LINE
  5
3CE
100
AcDbEntity
  8
MAIN0
  6
HIDDEN
 62
12
100
AcDbLine
 10
362.8882865339782
 20
814.3800219733246
 30
0.0000000000000000
 11
361.2882865339784
 21
815.9800219733247
 31
0.0000000000000000
  0
LINE
  5
3CF
100
AcDbEntity
  8
MAIN0
  6
HIDDEN
 62
12
100
AcDbLine
 10
362.8882865339783
 20
804.1800219733245
 30
0.0000000000000000
 11
361.2882865339783
 21
802.5800219733247
 31
0.0000000000000000
  0
LINE
  5
3D0
100
AcDbEntity
  8
MAIN0
  6
HIDDEN
 62
12
100
AcDbLine
 10
401.2882865339785
 20
814.3800219733246
 30
0.0000000000000000
 11
362.8882865339783
 21
814.3800219733246
 31
0.0000000000000000
  0
LINE
  5
3D1
100
AcDbEntity
  8
MAIN0
  6
HIDDEN
 62
12
100
AcDbLine
 10
401.2882865339784
 20
804.1800219733246
 30
0.0000000000000000
 11
362.8882865339784
 21
804.1800219733246
 31
0.0000000000000000
  0
LINE
  5
3D2
100
AcDbEntity
  8
MAIN0
  6
HIDDEN
 62
12
100
AcDbLine
 10
391.2882865339785
 20
815.2800219733246
 30
0.0000000000000000
 11
391.2882865339784
 21
803.2800219733246
 31
0.0000000000000000
  0
LINE
  5
3D3
100
AcDbEntity
  8
MAIN0
  6
HIDDEN
 62
12
100
AcDbLine
 10
401.2882865339785
 20
814.3800219733246
 30
0.0000000000000000
 11
401.2882865339785
 21
804.1800219733246
 31
0.0000000000000000
  0
LINE
  5
3D4
100
AcDbEntity
  8
MAIN0
  6
HIDDEN
 62
12
100
AcDbLine
 10
404.2327729068454
 20
809.2800219733244
 30
0.0000000000000000
 11
401.2882865339784
 21
814.3800219733246
 31
0.0000000000000000
  0
LINE
  5
3D5
100
AcDbEntity
  8
MAIN0
  6
HIDDEN
 62
12
100
AcDbLine
 10
404.2327729068455
 20
809.2800219733244
 30
0.0000000000000000
 11
401.2882865339784
 21
804.1800219733245
 31
0.0000000000000000
  0
LINE
  5
3D6
100
AcDbEntity
  8
MAIN0
  6
HIDDEN
 62
12
100
AcDbLine
 10
362.8882865339783
 20
814.3800219733246
 30
0.0000000000000000
 11
362.8882865339784
 21
804.1800219733246
 31
0.0000000000000000
  0
LINE
  5
3D7
100
AcDbEntity
  8
MAIN0
  6
HIDDEN
 62
12
100
AcDbLine
 10
412.2882865339788
 20
369.1800219733251
 30
0.0000000000000000
 11
412.2882865339788
 21
339.7800219733273
 31
0.0000000000000000
  0
LINE
  5
3D8
100
AcDbEntity
  8
MAIN0
  6
HIDDEN
 62
12
100
AcDbLine
 10
428.2882865339789
 20
369.1800219733251
 30
0.0000000000000000
 11
428.2882865339788
 21
339.7800219733273
 31
0.0000000000000000
  0
LINE
  5
3D9
100
AcDbEntity
  8
MAIN0
  6
HIDDEN
 62
12
100
AcDbLine
 10
413.2882865339791
 20
340.7800219733253
 30
0.0000000000000000
 11
411.6882865339791
 21
339.1800219733258
 31
0.0000000000000000
  0
LINE
  5
3DA
100
AcDbEntity
  8
MAIN0
  6
HIDDEN
 62
12
100
AcDbLine
 10
427.2882865339786
 20
340.7800219733250
 30
0.0000000000000000
 11
428.8882865339784
 21
339.1800219733250
 31
0.0000000000000000
  0
LINE
  5
3DB
100
AcDbEntity
  8
MAIN0
  6
HIDDEN
 62
12
100
AcDbLine
 10
413.2882865339788
 20
376.1800219733252
 30
0.0000000000000000
 11
413.2882865339786
 21
340.7800219733273
 31
0.0000000000000000
  0
LINE
  5
3DC
100
AcDbEntity
  8
MAIN0
  6
HIDDEN
 62
12
100
AcDbLine
 10
427.2882865339788
 20
376.1800219733251
 30
0.0000000000000000
 11
427.2882865339787
 21
340.7800219733273
 31
0.0000000000000000
  0
LINE
  5
3DD
100
AcDbEntity
  8
MAIN0
  6
HIDDEN
 62
12
100
AcDbLine
 10
412.2882865339788
 20
369.1800219733252
 30
0.0000000000000000
 11
428.2882865339788
 21
369.1800219733252
 31
0.0000000000000000
  0
LINE
  5
3DE
100
AcDbEntity
  8
MAIN0
  6
HIDDEN
 62
12
100
AcDbLine
 10
413.2882865339788
 20
376.1800219733256
 30
0.0000000000000000
 11
427.2882865339789
 21
376.1800219733254
 31
0.0000000000000000
  0
LINE
  5
3DF
100
AcDbEntity
  8
MAIN0
  6
HIDDEN
 62
12
100
AcDbLine
 10
420.2882865339788
 20
380.2214738576524
 30
0.0000000000000000
 11
413.2882865339788
 21
376.1800219733252
 31
0.0000000000000000
  0
LINE
  5
3E0
100
AcDbEntity
  8
MAIN0
  6
HIDDEN
 62
12
100
AcDbLine
 10
420.2882865339794
 20
380.2214738576534
 30
0.0000000000000000
 11
427.2882865339793
 21
376.1800219733260
 31
0.0000000000000000
  0
LINE
  5
3E1
100
AcDbEntity
  8
MAIN0
  6
HIDDEN
 62
12
100
AcDbLine
 10
413.2882865339787
 20
340.7800219733264
 30
0.0000000000000000
 11
427.2882865339787
 21
340.7800219733265
 31
0.0000000000000000
  0
LINE
  5
3E2
100
AcDbEntity
  8
MAIN0
  6
HIDDEN
 62
12
100
AcDbLine
 10
1009.868784907512
 20
905.3316538360541
 30
0.0000000000000000
 11
999.8133926937371
 21
932.9586168871597
 31
0.0000000000000000
  0
LINE
  5
3E3
100
AcDbEntity
  8
MAIN0
  6
HIDDEN
 62
12
100
AcDbLine
 10
994.8337029749371
 20
899.8593315428434
 30
0.0000000000000000
 11
984.7783107611624
 21
927.4862945939491
 31
0.0000000000000000
  0
LINE
  5
3E4
100
AcDbEntity
  8
MAIN0
  6
HIDDEN
 62
12
100
AcDbLine
 10
999.2157202162756
 20
931.6769041230475
 30
0.0000000000000000
 11
1000.171996180214
 21
933.7276445456289
 31
0.0000000000000000
  0
LINE
  5
3E5
100
AcDbEntity
  8
MAIN0
  6
HIDDEN
 62
12
100
AcDbLine
 10
986.0600235252753
 20
926.8886221164903
 30
0.0000000000000000
 11
984.0092831026971
 21
927.8448980804267
 31
0.0000000000000000
  0
LINE
  5
3E6
100
AcDbEntity
  8
MAIN0
  6
HIDDEN
 62
12
100
AcDbLine
 10
1011.323233290005
 20
898.4117853472270
 30
0.0000000000000000
 11
999.2157202162767
 21
931.6769041230484
 31
0.0000000000000000
  0
LINE
  5
3E7
100
AcDbEntity
  8
MAIN0
  6
HIDDEN
 62
12
100
AcDbLine
 10
998.1675365990028
 20
893.6235033406679
 30
0.0000000000000000
 11
986.0600235252741
 21
926.8886221164889
 31
0.0000000000000000
  0
LINE
  5
3E8
100
AcDbEntity
  8
MAIN0
  6
HIDDEN
 62
12
100
AcDbLine
 10
1009.868784907512
 20
905.3316538360541
 30
0.0000000000000000
 11
994.8337029749371
 21
899.8593315428435
 31
0.0000000000000000
  0
LINE
  5
3E9
100
AcDbEntity
  8
MAIN0
  6
HIDDEN
 62
12
100
AcDbLine
 10
1011.323233290006
 20
898.4117853472272
 30
0.0000000000000000
 11
998.1675365990029
 21
893.6235033406679
 31
0.0000000000000000
  0
LINE
  5
3EA
100
AcDbEntity
  8
MAIN0
  6
HIDDEN
 62
12
100
AcDbLine
 10
1006.127642897226
 20
892.2199218309822
 30
0.0000000000000000
 11
1011.323233290007
 21
898.4117853472267
 31
0.0000000000000000
  0
LINE
  5
3EB
100
AcDbEntity
  8
MAIN0
  6
HIDDEN
 62
12
100
AcDbLine
 10
1006.127642897227
 20
892.2199218309817
 30
0.0000000000000000
 11
998.1675365990028
 21
893.6235033406661
 31
0.0000000000000000
  0
LINE
  5
3EC
100
AcDbEntity
  8
MAIN0
  6
HIDDEN
 62
12
100
AcDbLine
 10
999.2157202162788
 20
931.6769041230491
 30
0.0000000000000000
 11
986.0600235252762
 21
926.8886221164896
 31
0.0000000000000000
  0
CIRCLE
  5
3ED
100
AcDbEntity
  8
MAIN0
  6
CONTINUOUS
 62
12
100
AcDbCircle
 10
920.1706136856521
 20
542.4300219733257
 30
0.0000000000000000
 40
9.999999999999998
  0
CIRCLE
  5
3EE
100
AcDbEntity
  8
MAIN0
  6
CONTINUOUS
 62
3
100
AcDbCircle
 10
920.1706136856521
 20
542.4300219733257
 30
0.0000000000000000
 40
8.749999999999996
  0
LINE
  5
3EF
100
AcDbEntity
  8
MAIN0
  6
CONTINUOUS
 62
3
100
AcDbLine
 10
440.6567697643783
 20
135.7538908877586
 30
0.0000000000000000
 11
452.3582416269540
 21
135.7538908877587
 31
0.0000000000000000
  0
LINE
  5
3F0
100
AcDbEntity
  8
MAIN0
  6
CONTINUOUS
 62
3
100
AcDbLine
 10
440.6567697643785
 20
174.2538908877586
 30
0.0000000000000000
 11
452.3582416269541
 21
174.2538908877587
 31
0.0000000000000000
  0
LINE
  5
3F1
100
AcDbEntity
  8
MAIN0
  6
CONTINUOUS
 62
3
100
AcDbLine
 10
434.6582416269542
 20
168.2553627503343
 30
0.0000000000000000
 11
434.6582416269542
 21
141.7524190251829
 31
0.0000000000000000
  0
LINE
  5
3F2
100
AcDbEntity
  8
MAIN0
  6
CONTINUOUS
 62
3
100
AcDbLine
 10
434.8339775582423
 20
141.3281549564711
 30
0.0000000000000000
 11
440.2325056956664
 21
135.9296268190469
 31
0.0000000000000000
  0
LINE
  5
3F3
100
AcDbEntity
  8
MAIN0
  6
CONTINUOUS
 62
3
100
AcDbLine
 10
440.4082416269545
 20
174.2538908877588
 30
0.0000000000000000
 11
434.8339775582423
 21
168.6796268190465
 31
0.0000000000000000
  0
ARC
  5
3F4
100
AcDbEntity
  8
MAIN0
  6
CONTINUOUS
 62
3
100
AcDbCircle
 10
452.3582416269541
 20
172.4538908877587
 30
0.0000000000000000
 40
1.799999999999997
100
AcDbArc
 50
359.9999999999997
 51
449.9999999999998
  0
ARC
  5
3F5
100
AcDbEntity
  8
MAIN0
  6
CONTINUOUS
 62
3
100
AcDbCircle
 10
452.3582416269541
 20
137.5538908877587
 30
0.0000000000000000
 40
1.799999999999997
100
AcDbArc
 50
269.9999999999998
 51
359.9999999999999
  0
ARC
  5
3F6
100
AcDbEntity
  8
MAIN0
  6
CONTINUOUS
 62
3
100
AcDbCircle
 10
440.6567697643784
 20
136.3538908877587
 30
0.0000000000000000
 40
0.6000000000000000
100
AcDbArc
 50
225.0000000000028
 51
269.9999999999998
  0
ARC
  5
3F7
100
AcDbEntity
  8
MAIN0
  6
CONTINUOUS
 62
3
100
AcDbCircle
 10
435.2582416269542
 20
141.7524190251829
 30
0.0000000000000000
 40
0.6000000000000000
100
AcDbArc
 50
179.9999999999999
 51
225.0000000000053
  0
ARC
  5
3F8
100
AcDbEntity
  8
MAIN0
  6
CONTINUOUS
 62
3
100
AcDbCircle
 10
435.2582416269542
 20
168.2553627503344
 30
0.0000000000000000
 40
0.6000000000000000
100
AcDbArc
 50
135.0000000000001
 51
179.9999999999999
  0
ARC
  5
3F9
100
AcDbEntity
  8
MAIN0
  6
CONTINUOUS
 62
3
100
AcDbCircle
 10
440.6567697643785
 20
173.6538908877587
 30
0.0000000000000000
 40
0.6000000000000000
100
AcDbArc
 50
89.99999999999980
 51
135.0000000000009
  0
LINE
  5
3FA
100
AcDbEntity
  8
MAIN0
  6
CONTINUOUS
 62
3
100
AcDbLine
 10
454.9082416271875
 20
167.8038908877587
 30
0.0000000000000000
 11
454.1582416269540
 21
168.5538908879927
 31
0.0000000000000000
  0
LINE
  5
3FB
100
AcDbEntity
  8
MAIN0
  6
CONTINUOUS
 62
3
100
AcDbLine
 10
466.1582416269541
 20
167.8038908877586
 30
0.0000000000000000
 11
454.9082416271874
 21
167.8038908877586
 31
0.0000000000000000
  0
LINE
  5
3FC
100
AcDbEntity
  8
MAIN0
  6
CONTINUOUS
 62
3
100
AcDbLine
 10
466.1582416269541
 20
167.8038908877586
 30
0.0000000000000000
 11
466.1582416269541
 21
167.5038908877586
 31
0.0000000000000000
  0
LINE
  5
3FD
100
AcDbEntity
  8
MAIN0
  6
CONTINUOUS
 62
3
100
AcDbLine
 10
454.9082416271875
 20
142.2038908877587
 30
0.0000000000000000
 11
454.1582416269540
 21
141.4538908875246
 31
0.0000000000000000
  0
LINE
  5
3FE
100
AcDbEntity
  8
MAIN0
  6
CONTINUOUS
 62
3
100
AcDbLine
 10
466.1582416269541
 20
142.2038908877587
 30
0.0000000000000000
 11
454.9082416271874
 21
142.2038908877587
 31
0.0000000000000000
  0
LINE
  5
3FF
100
AcDbEntity
  8
MAIN0
  6
CONTINUOUS
 62
3
100
AcDbLine
 10
466.1582416269541
 20
142.2038908877587
 30
0.0000000000000000
 11
466.1582416269541
 21
142.5038908877586
 31
0.0000000000000000
  0
LINE
  5
400
100
AcDbEntity
  8
MAIN0
  6
CONTINUOUS
 62
3
100
AcDbLine
 10
454.1582416269541
 20
172.4538908877587
 30
0.0000000000000000
 11
454.1582416269541
 21
168.5538908879927
 31
0.0000000000000000
  0
LINE
  5
401
100
AcDbEntity
  8
MAIN0
  6
CONTINUOUS
 62
3
100
AcDbLine
 10
454.1582416269541
 20
141.4538908875245
 30
0.0000000000000000
 11
454.1582416269541
 21
137.5538908877587
 31
0.0000000000000000
  0
LINE
  5
402
100
AcDbEntity
  8
WAKU0
  6
CONTINUOUS
 62
3
100
AcDbLine
 10
412.0000000000000
 20
51.00000000000000
 30
0.0000000000000000
 11
582.0000000000000
 21
51.00000000000000
 31
0.0000000000000000
  0
LINE
  5
403
100
AcDbEntity
  8
WAKU0
  6
CONTINUOUS
 62
3
100
AcDbLine
 10
412.0000000000000
 20
51.00000000000000
 30
0.0000000000000000
 11
412.0000000000000
 21
12.00000000000000
 31
0.0000000000000000
  0
LINE
  5
404
100
AcDbEntity
  8
WAKU0
  6
CONTINUOUS
 62
3
100
AcDbLine
 10
484.0000000000000
 20
51.00000000000000
 30
0.0000000000000000
 11
484.0000000000000
 21
12.00000000000000
 31
0.0000000000000000
  0
LINE
  5
405
100
AcDbEntity
  8
WAKU0
  6
CONTINUOUS
 62
3
100
AcDbLine
 10
504.0000000000000
 20
51.00000000000000
 30
0.0000000000000000
 11
504.0000000000000
 21
12.00000000000000
 31
0.0000000000000000
  0
LINE
  5
406
100
AcDbEntity
  8
WAKU0
  6
CONTINUOUS
 62
3
100
AcDbLine
 10
516.0000000000000
 20
51.00000000000000
 30
0.0000000000000000
 11
516.0000000000000
 21
12.00000000000000
 31
0.0000000000000000
  0
LINE
  5
407
100
AcDbEntity
  8
WAKU0
  6
CONTINUOUS
 62
3
100
AcDbLine
 10
516.0000000000000
 20
37.00000000000000
 30
0.0000000000000000
 11
582.0000000000000
 21
37.00000000000000
 31
0.0000000000000000
  0
LINE
  5
408
100
AcDbEntity
  8
WAKU0
  6
CONTINUOUS
 62
3
100
AcDbLine
 10
504.0000000000000
 20
23.00000000000000
 30
0.0000000000000000
 11
582.0000000000000
 21
23.00000000000000
 31
0.0000000000000000
  0
LINE
  5
409
100
AcDbEntity
  8
WAKU0
  6
CONTINUOUS
 62
3
100
AcDbLine
 10
547.0000000000000
 20
51.00000000000000
 30
0.0000000000000000
 11
547.0000000000000
 21
44.00000000000000
 31
0.0000000000000000
  0
LINE
  5
40A
100
AcDbEntity
  8
WAKU0
  6
CONTINUOUS
 62
3
100
AcDbLine
 10
559.0000000000000
 20
51.00000000000000
 30
0.0000000000000000
 11
559.0000000000000
 21
44.00000000000000
 31
0.0000000000000000
  0
LINE
  5
40B
100
AcDbEntity
  8
WAKU0
  6
CONTINUOUS
 62
3
100
AcDbLine
 10
484.0000000000000
 20
31.50000000000000
 30
0.0000000000000000
 11
504.0000000000000
 21
31.50000000000000
 31
0.0000000000000000
  0
LINE
  5
40C
100
AcDbEntity
  8
WAKU0
  6
CONTINUOUS
 62
3
100
AcDbLine
 10
504.0000000000000
 20
44.00000000000000
 30
0.0000000000000000
 11
582.0000000000000
 21
44.00000000000000
 31
0.0000000000000000
  0
LINE
  5
40D
100
AcDbEntity
  8
WAKU0
  6
CONTINUOUS
 62
3
100
AcDbLine
 10
412.0000000000000
 20
37.00000000000000
 30
0.0000000000000000
 11
484.0000000000000
 21
37.00000000000000
 31
0.0000000000000000
  0
LINE
  5
40E
100
AcDbEntity
  8
WAKU0
  6
CONTINUOUS
 62
3
100
AcDbLine
 10
412.0000000000000
 20
23.00000000000000
 30
0.0000000000000000
 11
484.0000000000000
 21
23.00000000000000
 31
0.0000000000000000
  0
LINE
  5
40F
100
AcDbEntity
  8
WAKU0
  6
CONTINUOUS
 62
3
100
AcDbLine
 10
460.0000000000000
 20
37.00000000000000
 30
0.0000000000000000
 11
460.0000000000000
 21
12.00000000000000
 31
0.0000000000000000
  0
LINE
  5
410
100
AcDbEntity
  8
WAKU0
  6
CONTINUOUS
 62
3
100
AcDbLine
 10
436.0000000000000
 20
37.00000000000000
 30
0.0000000000000000
 11
436.0000000000000
 21
23.00000000000000
 31
0.0000000000000000
  0
LINE
  5
411
100
AcDbEntity
  8
WAKU0
  6
CONTINUOUS
 62
3
100
AcDbLine
 10
472.0000000000000
 20
26.00000000000000
 30
0.0000000000000000
 11
472.0000000000000
 21
23.00000000000000
 31
0.0000000000000000
  0
LINE
  5
412
100
AcDbEntity
  8
WAKU0
  6
CONTINUOUS
 62
3
100
AcDbLine
 10
448.0000000000000
 20
26.00000000000000
 30
0.0000000000000000
 11
448.0000000000000
 21
23.00000000000000
 31
0.0000000000000000
  0
LINE
  5
413
100
AcDbEntity
  8
WAKU0
  6
CONTINUOUS
 62
3
100
AcDbLine
 10
424.0000000000000
 20
26.00000000000000
 30
0.0000000000000000
 11
424.0000000000000
 21
23.00000000000000
 31
0.0000000000000000
  0
LINE
  5
414
100
AcDbEntity
  8
WAKU0
  6
CONTINUOUS
 62
3
100
AcDbLine
 10
430.0000000000000
 20
51.00000000000000
 30
0.0000000000000000
 11
430.0000000000000
 21
37.00000000000000
 31
0.0000000000000000
  0
LINE
  5
415
100
AcDbEntity
  8
WAKU0
  6
CONTINUOUS
 62
3
100
AcDbLine
 10
412.0000000000000
 20
45.00000000000000
 30
0.0000000000000000
 11
484.0000000000000
 21
45.00000000000000
 31
0.0000000000000000
  0
LINE
  5
416
100
AcDbEntity
  8
WAKU0
  6
HIDDEN
 62
3
100
AcDbLine
 10
532.5000000000000
 20
23.00000000000000
 30
0.0000000000000000
 11
532.5000000000000
 21
12.00000000000000
 31
0.0000000000000000
  0
LINE
  5
417
100
AcDbEntity
  8
WAKU0
  6
HIDDEN
 62
3
100
AcDbLine
 10
544.9000000000000
 20
23.00000000000000
 30
0.0000000000000000
 11
544.9000000000000
 21
12.00000000000000
 31
0.0000000000000000
  0
MTEXT
  5
418
100
AcDbEntity
  8
WAKU0
  6
CONTINUOUS
 62
3
100
AcDbMText
 10
516.4820000243485
 20
49.04999995231628
 30
0.0000000000000000
 40
3.099999904632568
 41
0.0000000000000000
 71
     1
 72
     1
  1
{\H0.91x;{N-24}}
 11
1.000000000000000
 21
0.0000000000000000
 31
0.0000000000000000
  7
STANDARD
  0
MTEXT
  5
419
100
AcDbEntity
  8
WAKU0
  6
CONTINUOUS
 62
3
100
AcDbMText
 10
516.4659999916852
 20
43.50000000000000
 30
0.0000000000000000
 40
3.000000000000000
 41
0.0000000000000000
 71
     1
 72
     1
  1
{\H0.94x;{パワーチャック　２４\PＰＯＷＥＲ　ＣＨＵＣＫ　２４}}
 11
1.000000000000000
 21
0.0000000000000000
 31
0.0000000000000000
  7
KNJYOKO
  0
MTEXT
  5
41A
100
AcDbEntity
  8
WAKU0
  6
CONTINUOUS
 62
3
100
AcDbMText
 10
516.4820000243485
 20
34.23333326975504
 30
0.0000000000000000
 40
3.099999904632568
 41
0.0000000000000000
 71
     1
 72
     1
  1
{\H0.94x;{Ｎ－２４　ガイケイ\PＮ－２４　ＯＵＴＳＩＤＥ　ＶＩＥＷ}}
 11
1.000000000000000
 21
0.0000000000000000
 31
0.0000000000000000
  7
KNJYOKO
  0
MTEXT
  5
41B
100
AcDbEntity
  8
WAKU0
  6
CONTINUOUS
 62
3
100
AcDbMText
 10
490.0049998760223
 20
39.29999995231628
 30
0.0000000000000000
 40
3.099999904632568
 41
0.0000000000000000
 71
     1
 72
     1
  1
{\H0.90x;{2:5}}
 11
1.000000000000000
 21
0.0000000000000000
 31
0.0000000000000000
  7
STANDARD
  0
MTEXT
  5
41C
100
AcDbEntity
  8
WAKU0
  6
CONTINUOUS
 62
3
100
AcDbMText
 10
546.4000001549721
 20
20.15000009536743
 30
0.0000000000000000
 40
5.300000190734863
 41
0.0000000000000000
 71
     1
 72
     1
  1
{\H0.90x;{6409}}
 11
1.000000000000000
 21
0.0000000000000000
 31
0.0000000000000000
  7
STANDARD
  0
MTEXT
  5
41D
100
AcDbEntity
  8
WAKU0
  6
CONTINUOUS
 62
3
100
AcDbMText
 10
534.3000000834466
 20
20.15000009536743
 30
0.0000000000000000
 40
5.300000190734863
 41
0.0000000000000000
 71
     1
 72
     1
  1
{\H0.87x;{21}}
 11
1.000000000000000
 21
0.0000000000000000
 31
0.0000000000000000
  7
STANDARD
  0
MTEXT
  5
41E
100
AcDbEntity
  8
WAKU0
  6
CONTINUOUS
 62
3
100
AcDbMText
 10
517.5000001192093
 20
20.15000009536743
 30
0.0000000000000000
 40
5.300000190734863
 41
0.0000000000000000
 71
     1
 72
     1
  1
{\H0.89x;{61P}}
 11
1.000000000000000
 21
0.0000000000000000
 31
0.0000000000000000
  7
STANDARD
  0
MTEXT
  5
41F
100
AcDbEntity
  8
WAKU0
  6
CONTINUOUS
 62
3
100
AcDbMText
 10
572.0000000476837
 20
20.15000009536743
 30
0.0000000000000000
 40
5.300000190734863
 41
0.0000000000000000
 71
     1
 72
     1
  1
{\H0.81x;{5}}
 11
1.000000000000000
 21
0.0000000000000000
 31
0.0000000000000000
  7
STANDARD
  0
MTEXT
  5
420
100
AcDbEntity
  8
WAKU0
  6
CONTINUOUS
 62
3
100
AcDbMText
 10
572.0000000819564
 20
44.84999990463257
 30
0.0000000000000000
 40
5.300000190734863
 41
0.0000000000000000
 71
     7
 72
     1
  1
{\H0.81x;{ }}
 11
1.000000000000000
 21
0.0000000000000000
 31
0.0000000000000000
  7
STANDARD
  0
MTEXT
  5
421
100
AcDbEntity
  8
WAKU0
  6
CONTINUOUS
 62
3
100
AcDbMText
 10
461.3850002884865
 20
33.00000000000000
 30
0.0000000000000000
 40
3.000000000000000
 41
0.0000000000000000
 71
     7
 72
     1
  1
{\H0.93x;{DRAWN BY}}
 11
1.000000000000000
 21
0.0000000000000000
 31
0.0000000000000000
  7
STANDARD
  0
MTEXT
  5
422
100
AcDbEntity
  8
WAKU0
  6
CONTINUOUS
 62
3
100
AcDbMText
 10
441.2149997949600
 20
32.95000004768372
 30
0.0000000000000000
 40
3.099999904632568
 41
0.0000000000000000
 71
     7
 72
     1
  1
{\H0.92x;{CHIEF}}
 11
1.000000000000000
 21
0.0000000000000000
 31
0.0000000000000000
  7
STANDARD
  0
MTEXT
  5
423
100
AcDbEntity
  8
WAKU0
  6
CONTINUOUS
 62
3
100
AcDbMText
 10
414.4249997138977
 20
32.95000004768372
 30
0.0000000000000000
 40
3.099999904632568
 41
0.0000000000000000
 71
     7
 72
     1
  1
{\H0.92x;{MANAGER}}
 11
1.000000000000000
 21
0.0000000000000000
 31
0.0000000000000000
  7
STANDARD
  0
MTEXT
  5
424
100
AcDbEntity
  8
WAKU0
  6
CONTINUOUS
 62
3
100
AcDbMText
 10
416.6599994301796
 20
18.13333336512248
 30
0.0000000000000000
 40
3.099999904632568
 41
0.0000000000000000
 71
     7
 72
     1
  1
{\H0.93x;{KITAGAWA IRON\PWORKS CO.,LTD.}}
 11
1.000000000000000
 21
0.0000000000000000
 31
0.0000000000000000
  7
STANDARD
  0
MTEXT
  5
425
100
AcDbEntity
  8
WAKU0
  6
CONTINUOUS
 62
3
100
AcDbMText
 10
413.0850002169609
 20
46.50000000000000
 30
0.0000000000000000
 40
3.000000000000000
 41
0.0000000000000000
 71
     7
 72
     1
  1
{\H0.92x;{CAREER}}
 11
1.000000000000000
 21
0.0000000000000000
 31
0.0000000000000000
  7
STANDARD
  0
MTEXT
  5
426
100
AcDbEntity
  8
WAKU0
  6
CONTINUOUS
 62
3
100
AcDbMText
 10
466.6099998354912
 20
18.95000004768372
 30
0.0000000000000000
 40
3.099999904632568
 41
0.0000000000000000
 71
     7
 72
     1
  1
{\H0.91x;{DATE}}
 11
1.000000000000000
 21
0.0000000000000000
 31
0.0000000000000000
  7
STANDARD
  0
MTEXT
  5
427
100
AcDbEntity
  8
WAKU0
  6
CONTINUOUS
 62
3
100
AcDbMText
 10
485.9000002145767
 20
26.50000000000000
 30
0.0000000000000000
 40
3.000000000000000
 41
0.0000000000000000
 71
     7
 72
     1
  1
{\H0.63x;{3RD ANGLE}}
 11
1.000000000000000
 21
0.0000000000000000
 31
0.0000000000000000
  7
STANDARD
  0
MTEXT
  5
428
100
AcDbEntity
  8
WAKU0
  6
CONTINUOUS
 62
3
100
AcDbMText
 10
487.2149997949600
 20
45.95000004768372
 30
0.0000000000000000
 40
3.099999904632568
 41
0.0000000000000000
 71
     7
 72
     1
  1
{\H0.92x;{SCALE}}
 11
1.000000000000000
 21
0.0000000000000000
 31
0.0000000000000000
  7
STANDARD
  0
MTEXT
  5
429
100
AcDbEntity
  8
WAKU0
  6
CONTINUOUS
 62
3
100
AcDbMText
 10
577.7000000476837
 20
46.00000000000000
 30
0.0000000000000000
 40
3.000000000000000
 41
0.0000000000000000
 71
     7
 72
     1
  1
{\H0.63x;{kg}}
 11
1.000000000000000
 21
0.0000000000000000
 31
0.0000000000000000
  7
STANDARD
  0
MTEXT
  5
42A
100
AcDbEntity
  8
WAKU0
  6
CONTINUOUS
 62
3
100
AcDbMText
 10
547.6000001430512
 20
46.00000000000000
 30
0.0000000000000000
 40
3.000000000000000
 41
0.0000000000000000
 71
     7
 72
     1
  1
{\H0.63x;{WEIGHT}}
 11
1.000000000000000
 21
0.0000000000000000
 31
0.0000000000000000
  7
STANDARD
  0
MTEXT
  5
42B
100
AcDbEntity
  8
WAKU0
  6
CONTINUOUS
 62
3
100
AcDbMText
 10
506.0049998760223
 20
18.13333336512248
 30
0.0000000000000000
 40
3.099999904632568
 41
0.0000000000000000
 71
     7
 72
     1
  1
{\H0.90x;{DRW\PNO.}}
 11
1.000000000000000
 21
0.0000000000000000
 31
0.0000000000000000
  7
STANDARD
  0
MTEXT
  5
42C
100
AcDbEntity
  8
WAKU0
  6
CONTINUOUS
 62
3
100
AcDbMText
 10
504.6099998354912
 20
31.95000004768372
 30
0.0000000000000000
 40
3.099999904632568
 41
0.0000000000000000
 71
     7
 72
     1
  1
{\H0.91x;{NAME}}
 11
1.000000000000000
 21
0.0000000000000000
 31
0.0000000000000000
  7
STANDARD
  0
MTEXT
  5
42D
100
AcDbEntity
  8
WAKU0
  6
CONTINUOUS
 62
3
100
AcDbMText
 10
504.6099998354912
 20
45.95000004768372
 30
0.0000000000000000
 40
3.099999904632568
 41
0.0000000000000000
 71
     7
 72
     1
  1
{\H0.91x;{TYPE}}
 11
1.000000000000000
 21
0.0000000000000000
 31
0.0000000000000000
  7
STANDARD
  0
LINE
  5
42E
100
AcDbEntity
  8
WAKU0
  6
HIDDEN
 62
3
100
AcDbLine
 10
579.1599564743885
 20
13.84999990463257
 30
0.0000000000000000
 11
568.9400436209789
 21
13.84999990463257
 31
0.0000000000000000
  0
LINE
  5
42F
100
AcDbEntity
  8
WAKU0
  6
HIDDEN
 62
3
100
AcDbLine
 10
579.1599564743885
 20
13.84999990463250
 30
0.0000000000000000
 11
574.0500000476851
 21
22.70070406014901
 31
0.0000000000000000
  0
LINE
  5
430
100
AcDbEntity
  8
WAKU0
  6
HIDDEN
 62
3
100
AcDbLine
 10
574.0500000476851
 20
22.70070406014902
 30
0.0000000000000000
 11
568.9400436209789
 21
13.84999990463248
 31
0.0000000000000000
  0
LINE
  5
431
100
AcDbEntity
  8
WAKU0
  6
CONTINUOUS
 62
3
100
AcDbLine
 10
502.4713877753800
 20
15.78041421262812
 30
0.0000000000000000
 11
502.4713877753800
 21
21.78041421262815
 31
0.0000000000000000
  0
LINE
  5
432
100
AcDbEntity
  8
WAKU0
  6
CONTINUOUS
 62
3
100
AcDbLine
 10
495.9336941228225
 20
17.28041421262811
 30
0.0000000000000000
 11
495.9336941228225
 21
20.28041421262824
 31
0.0000000000000000
  0
LINE
  5
433
100
AcDbEntity
  8
WAKU0
  6
CENTER
 62
12
100
AcDbLine
 10
485.4321805514995
 20
18.78041421262813
 30
0.0000000000000000
 11
503.2765788964694
 21
18.78041421262813
 31
0.0000000000000000
  0
LINE
  5
434
100
AcDbEntity
  8
WAKU0
  6
CENTER
 62
12
100
AcDbLine
 10
489.4474565857986
 20
14.55921662918448
 30
0.0000000000000000
 11
489.4474565857986
 21
22.89865102149943
 31
0.0000000000000000
  0
LINE
  5
435
100
AcDbEntity
  8
WAKU0
  6
CONTINUOUS
 62
3
100
AcDbLine
 10
495.9336941228225
 20
20.28041421262797
 30
0.0000000000000000
 11
502.4713877753800
 21
21.78041421262795
 31
0.0000000000000000
  0
LINE
  5
436
100
AcDbEntity
  8
WAKU0
  6
CONTINUOUS
 62
3
100
AcDbLine
 10
495.9336941228225
 20
17.28041421262811
 30
0.0000000000000000
 11
502.4713877753799
 21
15.78041421262812
 31
0.0000000000000000
  0
CIRCLE
  5
437
100
AcDbEntity
  8
WAKU0
  6
CONTINUOUS
 62
3
100
AcDbCircle
 10
489.4474565857986
 20
18.78041421262813
 30
0.0000000000000000
 40
1.499999999999972
  0
CIRCLE
  5
438
100
AcDbEntity
  8
WAKU0
  6
CONTINUOUS
 62
3
100
AcDbCircle
 10
489.4474565857986
 20
18.78041421262813
 30
0.0000000000000000
 40
2.999999999999979
  0
ENDSEC
  0
SECTION
  2
OBJECTS
  0
DICTIONARY
  5
486
100
AcDbDictionary
  3
ACAD_GROUP
350
487
  3
ACAD_MLINESTYLE
350
488
  0
DICTIONARY
  5
487
102
{ACAD_REACTORS
330
486
102
}
100
AcDbDictionary
  0
DICTIONARY
  5
488
102
{ACAD_REACTORS
330
486
102
}
100
AcDbDictionary
  3
STANDARD
350
489
  0
MLINESTYLE
  5
489
102
{ACAD_REACTORS
330
488
102
}
100
AcDbMlineStyle
  2
STANDARD
 70
     0
  3

 62
   256
 51
90.00
 52
90.00
 71
     2
 49
0.50
 62
   256
  6
BYLAYER
 49
-0.50
 62
   256
  6
BYLAYER
  0
ENDSEC
  0
EOF
