  0
SECTION
  2
HEADER
  9
$ACADVER
  1
AC1014
  9
$DWGCODEPAGE
  3
ANSI_932
  9
$LTSCALE
 40
20.0
  9
$FILLMODE
 70
     1
  9
$CLAYER
  8
0
  9
$PDMODE
 70
     0
  9
$SPLFRAME
 70
     0
  9
$SPLINETYPE
 70
     6
  9
$SPLINESEGS
 70
     8
  9
$DIMASZ
 40
2.000000
  9
$DIMEXE
 40
2.000000
  9
$DIMEXO
 40
0.800000
  9
$DIMTAD
 70
     1
  9
$DIMTIH
 70
     0
  9
$DIMTOH
 70
     0
  9
$DIMTVP
 40
0.500000
  9
$DIMTXT
 40
3.100000
  9
$EXTMIN
 10
0.000000
 20
0.000000
 30
0.000000
  9
$EXTMAX
 10
420.000000
 20
594.000000
 30
0.000000
  9
$MEASUREMENT
 70
  1
  9
$LIMMIN
 10
0.000000
 20
0.000000
  9
$LIMMAX
 10
420.000000
 20
594.000000
  9
$HANDLING
 70
     1
  9
$HANDSEED
  5
588
  9
$DIMBLK
  1
_OPEN
  9
$DIMDEC
 70
     3
  9
$DIMAUNIT
 70
     1
  9
$DIMZIN
 70
     8
  9
$DIMTOFL
 70
     1
  0
ENDSEC
  0
SECTION
  2
CLASSES
  0
ENDSEC
  0
SECTION
  2
TABLES
  0
TABLE
  2
VPORT
  5
52D
100
AcDbSymbolTable
 70
     1
  0
VPORT
  5
52E
100
AcDbSymbolTableRecord
100
AcDbViewportTableRecord
  2
*ACTIVE
 70
     0
 12
297.000000
 22
210.000000
 40
420.000000
 41
1.414286
  0
ENDTAB
  0
TABLE
  2
LTYPE
  5
52F
100
AcDbSymbolTable
 70
     4
  0
LTYPE
  5
530
100
AcDbSymbolTableRecord
100
AcDbLinetypeTableRecord
  2
BYBLOCK
 70
     0
  3

 72
    65
 73
     0
 40
0.0
  0
LTYPE
  5
531
100
AcDbSymbolTableRecord
100
AcDbLinetypeTableRecord
  2
BYLAYER
 70
     0
  3

 72
    65
 73
     0
 40
0.0
  0
LTYPE
  5
532
100
AcDbSymbolTableRecord
100
AcDbLinetypeTableRecord
  2
CONTINUOUS
 70
     0
  3
Solid line (NEC CAE2D for Win R12.1 : 2017.12.22)
 72
    65
 73
     0
 40
0.0
  0
LTYPE
  5
533
100
AcDbSymbolTableRecord
100
AcDbLinetypeTableRecord
  2
HIDDEN
 70
     0
  3
__ __ __ __ __ __ __ __ __ __ __ __ __ __
 72
    65
 73
     2
 40
0.375
 49
0.25
 74
     0
 49
-0.125
 74
     0
  0
LTYPE
  5
534
100
AcDbSymbolTableRecord
100
AcDbLinetypeTableRecord
  2
CENTER
 70
     0
  3
____ _ ____ _ ____ _ ____ _ ____ _ ____
 72
    65
 73
     4
 40
2.0
 49
1.25
 74
     0
 49
-0.25
 74
     0
 49
0.25
 74
     0
 49
-0.25
 74
     0
  0
LTYPE
  5
535
100
AcDbSymbolTableRecord
100
AcDbLinetypeTableRecord
  2
PHANTOM
 70
     0
  3
______  __  __  ______  __  __  ______ 
 72
    65
 73
     6
 40
2.5
 49
1.25
 74
     0
 49
-0.25
 74
     0
 49
0.25
 74
     0
 49
-0.25
 74
     0
 49
0.25
 74
     0
 49
-0.25
 74
     0
  0
ENDTAB
  0
TABLE
  2
LAYER
  5
536
100
AcDbSymbolTable
 70
    14
  0
LAYER
  5
537
100
AcDbSymbolTableRecord
100
AcDbLayerTableRecord
  2
0
 70
     0
 62
     7
  6
CONTINUOUS
  0
LAYER
  5
538
100
AcDbSymbolTableRecord
100
AcDbLayerTableRecord
  2
MAIN0
 70
     0
 62
     7
  6
CONTINUOUS
  0
LAYER
  5
539
100
AcDbSymbolTableRecord
100
AcDbLayerTableRecord
  2
MAIN1
 70
     0
 62
     7
  6
CONTINUOUS
  0
LAYER
  5
53A
100
AcDbSymbolTableRecord
100
AcDbLayerTableRecord
  2
MAIN2
 70
     0
 62
     7
  6
CONTINUOUS
  0
LAYER
  5
53B
100
AcDbSymbolTableRecord
100
AcDbLayerTableRecord
  2
MAIN3
 70
     0
 62
     7
  6
CONTINUOUS
  0
LAYER
  5
53C
100
AcDbSymbolTableRecord
100
AcDbLayerTableRecord
  2
MAIN4
 70
     0
 62
     7
  6
CONTINUOUS
  0
LAYER
  5
53D
100
AcDbSymbolTableRecord
100
AcDbLayerTableRecord
  2
MAIN5
 70
     0
 62
     7
  6
CONTINUOUS
  0
LAYER
  5
53E
100
AcDbSymbolTableRecord
100
AcDbLayerTableRecord
  2
MAIN6
 70
     0
 62
     7
  6
CONTINUOUS
  0
LAYER
  5
53F
100
AcDbSymbolTableRecord
100
AcDbLayerTableRecord
  2
MAIN7
 70
     0
 62
     7
  6
CONTINUOUS
  0
LAYER
  5
540
100
AcDbSymbolTableRecord
100
AcDbLayerTableRecord
  2
MAIN8
 70
     0
 62
     7
  6
CONTINUOUS
  0
LAYER
  5
541
100
AcDbSymbolTableRecord
100
AcDbLayerTableRecord
  2
MAIN10
 70
     0
 62
     7
  6
CONTINUOUS
  0
LAYER
  5
542
100
AcDbSymbolTableRecord
100
AcDbLayerTableRecord
  2
MAIN1023
 70
     0
 62
    16
  6
CONTINUOUS
  0
LAYER
  5
543
100
AcDbSymbolTableRecord
100
AcDbLayerTableRecord
  2
WAKU0
 70
     0
 62
     7
  6
CONTINUOUS
  0
LAYER
  5
544
100
AcDbSymbolTableRecord
100
AcDbLayerTableRecord
  2
WAKU1023
 70
     0
 62
    16
  6
CONTINUOUS
  0
ENDTAB
  0
TABLE
  2
STYLE
  5
545
100
AcDbSymbolTable
 70
     4
  0
STYLE
  5
546
100
AcDbSymbolTableRecord
100
AcDbTextStyleTableRecord
  2
STANDARD
 70
    64
 40
0.0
 41
1.0
 50
0.0
 71
     0
 42
3.100000381469727
  3
TXT
  4

  0
STYLE
  5
547
100
AcDbSymbolTableRecord
100
AcDbTextStyleTableRecord
  2
ANKTATE
 70
    68
 40
0.0
 41
1.0
 50
0.0
 71
     0
 42
3.100000381469727
  3
TXT
  4

  0
STYLE
  5
548
100
AcDbSymbolTableRecord
100
AcDbTextStyleTableRecord
  2
KNJYOKO
 70
    64
 40
0.0
 41
1.0
 50
0.0
 71
     0
 42
3.100000381469727
  3
TXT
  4
BIGFONT
  0
STYLE
  5
549
100
AcDbSymbolTableRecord
100
AcDbTextStyleTableRecord
  2
KNJTATE
 70
    68
 40
0.0
 41
1.0
 50
0.0
 71
     0
 42
3.100000381469727
  3
TXT
  4
BIGFONT
  0
ENDTAB
  0
TABLE
  2
VIEW
  5
54A
100
AcDbSymbolTable
 70
     0
  0
ENDTAB
  0
TABLE
  2
UCS
  5
54B
100
AcDbSymbolTable
 70
     0
  0
ENDTAB
  0
TABLE
  2
APPID
  5
54C
100
AcDbSymbolTable
 70
     1
  0
APPID
  5
54D
100
AcDbSymbolTableRecord
100
AcDbRegAppTableRecord
  2
ACAD
 70
     0
  0
ENDTAB
  0
TABLE
  2
DIMSTYLE
  5
54E
100
AcDbSymbolTable
 70
     3
  0
DIMSTYLE
105
54F
100
AcDbSymbolTableRecord
100
AcDbDimStyleTableRecord
  2
STANDARD
 70
     0
 41
2.000000
 44
2.000000
 42
0.800000
145
0.661290
140
3.100000
144
1.000000
146
0.903226
340
546
  0
DIMSTYLE
105
550
100
AcDbSymbolTableRecord
100
AcDbDimStyleTableRecord
  2
MAIN001
 70
     0
 41
2.000000
 44
2.000000
 42
0.800000
145
0.661290
140
3.100000
144
1.000000
146
0.903226
 77
     1
 73
     0
 74
     0
271
     3
275
     1
 78
     8
172
     1
340
546
  0
DIMSTYLE
105
551
100
AcDbSymbolTableRecord
100
AcDbDimStyleTableRecord
  2
WAKU002
 70
     0
 41
2.000000
 44
2.000000
 42
0.800000
145
0.661290
140
3.100000
144
1.000000
146
0.903226
 77
     1
 73
     0
 74
     0
271
     3
275
     1
 78
     8
172
     1
340
546
  0
ENDTAB
  0
TABLE
  2
BLOCK_RECORD
  5
552
100
AcDbSymbolTable
 70
    55
  0
BLOCK_RECORD
  5
553
100
AcDbSymbolTableRecord
100
AcDbBlockTableRecord
  2
*MODEL_SPACE
  0
BLOCK_RECORD
  5
554
100
AcDbSymbolTableRecord
100
AcDbBlockTableRecord
  2
*PAPER_SPACE
  0
BLOCK_RECORD
  5
1
100
AcDbSymbolTableRecord
100
AcDbBlockTableRecord
  2
_NONE
  0
BLOCK_RECORD
  5
4
100
AcDbSymbolTableRecord
100
AcDbBlockTableRecord
  2
_CLOSED
  0
BLOCK_RECORD
  5
B
100
AcDbSymbolTableRecord
100
AcDbBlockTableRecord
  2
_DOT
  0
BLOCK_RECORD
  5
13
100
AcDbSymbolTableRecord
100
AcDbBlockTableRecord
  2
_OPEN
  0
BLOCK_RECORD
  5
19
100
AcDbSymbolTableRecord
100
AcDbBlockTableRecord
  2
_ORIGIN
  0
BLOCK_RECORD
  5
1E
100
AcDbSymbolTableRecord
100
AcDbBlockTableRecord
  2
_OPEN30
  0
BLOCK_RECORD
  5
24
100
AcDbSymbolTableRecord
100
AcDbBlockTableRecord
  2
_BOXFILLED
  0
BLOCK_RECORD
  5
29
100
AcDbSymbolTableRecord
100
AcDbBlockTableRecord
  2
_BOXBLANK
  0
BLOCK_RECORD
  5
31
100
AcDbSymbolTableRecord
100
AcDbBlockTableRecord
  2
_OBLIQUE
  0
BLOCK_RECORD
  5
35
100
AcDbSymbolTableRecord
100
AcDbBlockTableRecord
  2
_OPEN90
  0
BLOCK_RECORD
  5
3B
100
AcDbSymbolTableRecord
100
AcDbBlockTableRecord
  2
_CLOSEDBLANK
  0
BLOCK_RECORD
  5
41
100
AcDbSymbolTableRecord
100
AcDbBlockTableRecord
  2
_DOTBLANK
  0
BLOCK_RECORD
  5
555
100
AcDbSymbolTableRecord
100
AcDbBlockTableRecord
  2
*D0
  0
BLOCK_RECORD
  5
556
100
AcDbSymbolTableRecord
100
AcDbBlockTableRecord
  2
*D1
  0
BLOCK_RECORD
  5
557
100
AcDbSymbolTableRecord
100
AcDbBlockTableRecord
  2
*D2
  0
BLOCK_RECORD
  5
558
100
AcDbSymbolTableRecord
100
AcDbBlockTableRecord
  2
*D3
  0
BLOCK_RECORD
  5
559
100
AcDbSymbolTableRecord
100
AcDbBlockTableRecord
  2
*D4
  0
BLOCK_RECORD
  5
55A
100
AcDbSymbolTableRecord
100
AcDbBlockTableRecord
  2
*D5
  0
BLOCK_RECORD
  5
55B
100
AcDbSymbolTableRecord
100
AcDbBlockTableRecord
  2
*D6
  0
BLOCK_RECORD
  5
55C
100
AcDbSymbolTableRecord
100
AcDbBlockTableRecord
  2
*D7
  0
BLOCK_RECORD
  5
55D
100
AcDbSymbolTableRecord
100
AcDbBlockTableRecord
  2
*D8
  0
BLOCK_RECORD
  5
55E
100
AcDbSymbolTableRecord
100
AcDbBlockTableRecord
  2
*D9
  0
BLOCK_RECORD
  5
55F
100
AcDbSymbolTableRecord
100
AcDbBlockTableRecord
  2
*D10
  0
BLOCK_RECORD
  5
560
100
AcDbSymbolTableRecord
100
AcDbBlockTableRecord
  2
*D11
  0
BLOCK_RECORD
  5
561
100
AcDbSymbolTableRecord
100
AcDbBlockTableRecord
  2
*D12
  0
BLOCK_RECORD
  5
562
100
AcDbSymbolTableRecord
100
AcDbBlockTableRecord
  2
D13
  0
BLOCK_RECORD
  5
563
100
AcDbSymbolTableRecord
100
AcDbBlockTableRecord
  2
D14
  0
BLOCK_RECORD
  5
564
100
AcDbSymbolTableRecord
100
AcDbBlockTableRecord
  2
*D15
  0
BLOCK_RECORD
  5
565
100
AcDbSymbolTableRecord
100
AcDbBlockTableRecord
  2
*D16
  0
BLOCK_RECORD
  5
566
100
AcDbSymbolTableRecord
100
AcDbBlockTableRecord
  2
*D17
  0
BLOCK_RECORD
  5
567
100
AcDbSymbolTableRecord
100
AcDbBlockTableRecord
  2
*D18
  0
BLOCK_RECORD
  5
568
100
AcDbSymbolTableRecord
100
AcDbBlockTableRecord
  2
*D19
  0
BLOCK_RECORD
  5
569
100
AcDbSymbolTableRecord
100
AcDbBlockTableRecord
  2
*D20
  0
BLOCK_RECORD
  5
56A
100
AcDbSymbolTableRecord
100
AcDbBlockTableRecord
  2
*D21
  0
BLOCK_RECORD
  5
56B
100
AcDbSymbolTableRecord
100
AcDbBlockTableRecord
  2
*D22
  0
BLOCK_RECORD
  5
56C
100
AcDbSymbolTableRecord
100
AcDbBlockTableRecord
  2
*D23
  0
BLOCK_RECORD
  5
56D
100
AcDbSymbolTableRecord
100
AcDbBlockTableRecord
  2
*D24
  0
BLOCK_RECORD
  5
56E
100
AcDbSymbolTableRecord
100
AcDbBlockTableRecord
  2
*D25
  0
BLOCK_RECORD
  5
56F
100
AcDbSymbolTableRecord
100
AcDbBlockTableRecord
  2
*D26
  0
BLOCK_RECORD
  5
570
100
AcDbSymbolTableRecord
100
AcDbBlockTableRecord
  2
*D27
  0
BLOCK_RECORD
  5
571
100
AcDbSymbolTableRecord
100
AcDbBlockTableRecord
  2
*D28
  0
BLOCK_RECORD
  5
572
100
AcDbSymbolTableRecord
100
AcDbBlockTableRecord
  2
*D29
  0
BLOCK_RECORD
  5
573
100
AcDbSymbolTableRecord
100
AcDbBlockTableRecord
  2
*D30
  0
BLOCK_RECORD
  5
574
100
AcDbSymbolTableRecord
100
AcDbBlockTableRecord
  2
*D31
  0
BLOCK_RECORD
  5
575
100
AcDbSymbolTableRecord
100
AcDbBlockTableRecord
  2
*D32
  0
BLOCK_RECORD
  5
576
100
AcDbSymbolTableRecord
100
AcDbBlockTableRecord
  2
*D33
  0
BLOCK_RECORD
  5
577
100
AcDbSymbolTableRecord
100
AcDbBlockTableRecord
  2
*D34
  0
BLOCK_RECORD
  5
578
100
AcDbSymbolTableRecord
100
AcDbBlockTableRecord
  2
*D35
  0
BLOCK_RECORD
  5
579
100
AcDbSymbolTableRecord
100
AcDbBlockTableRecord
  2
*D36
  0
BLOCK_RECORD
  5
57A
100
AcDbSymbolTableRecord
100
AcDbBlockTableRecord
  2
M0
  0
BLOCK_RECORD
  5
57B
100
AcDbSymbolTableRecord
100
AcDbBlockTableRecord
  2
M1
  0
BLOCK_RECORD
  5
57C
100
AcDbSymbolTableRecord
100
AcDbBlockTableRecord
  2
M2
  0
BLOCK_RECORD
  5
57D
100
AcDbSymbolTableRecord
100
AcDbBlockTableRecord
  2
M3
  0
BLOCK_RECORD
  5
57E
100
AcDbSymbolTableRecord
100
AcDbBlockTableRecord
  2
*X0
  0
BLOCK_RECORD
  5
57F
100
AcDbSymbolTableRecord
100
AcDbBlockTableRecord
  2
M4
  0
ENDTAB
  0
ENDSEC
  0
SECTION
  2
BLOCKS
  0
BLOCK
  5
580
100
AcDbEntity
  8
0
100
AcDbBlockBegin
  2
*MODEL_SPACE
 70
     0
 10
0.0
 20
0.0
 30
0.0
  3
*MODEL_SPACE
  1

  0
ENDBLK
  5
581
100
AcDbEntity
  8
0
100
AcDbBlockEnd
  0
BLOCK
  5
582
100
AcDbEntity
  8
0
100
AcDbBlockBegin
  2
*PAPER_SPACE
 70
     0
 10
0.0
 20
0.0
 30
0.0
  3
*PAPER_SPACE
  1

  0
ENDBLK
  5
583
100
AcDbEntity
  8
0
100
AcDbBlockEnd
  0
BLOCK
  5
2
100
AcDbEntity
  8
0
100
AcDbBlockBegin
  2
_NONE
 70
     0
 10
0.0
 20
0.0
 30
0.0
  3
_NONE
  1

  0
ENDBLK
  5
3
100
AcDbEntity
  8
0
100
AcDbBlockEnd
  0
BLOCK
  5
5
100
AcDbEntity
  8
0
100
AcDbBlockBegin
  2
_CLOSED
 70
     0
 10
0.0
 20
0.0
 30
0.0
  3
_CLOSED
  1

  0
LINE
  5
6
100
AcDbEntity
  8
0
  6
BYBLOCK
 62
     0
100
AcDbLine
 10
-1.0
 20
0.166667
 30
0.0
 11
0.0
 21
0.0
 31
0.0
  0
LINE
  5
7
100
AcDbEntity
  8
0
  6
BYBLOCK
 62
     0
100
AcDbLine
 10
0.0
 20
0.0
 30
0.0
 11
-1.0
 21
-0.166667
 31
0.0
  0
LINE
  5
8
100
AcDbEntity
  8
0
  6
BYBLOCK
 62
     0
100
AcDbLine
 10
-1.0
 20
0.166667
 30
0.0
 11
-1.0
 21
-0.166667
 31
0.0
  0
LINE
  5
9
100
AcDbEntity
  8
0
  6
BYBLOCK
 62
     0
100
AcDbLine
 10
0.0
 20
0.0
 30
0.0
 11
-1.0
 21
0.0
 31
0.0
  0
ENDBLK
  5
A
100
AcDbEntity
  8
0
100
AcDbBlockEnd
  0
BLOCK
  5
C
100
AcDbEntity
  8
0
100
AcDbBlockBegin
  2
_DOT
 70
     0
 10
0.0
 20
0.0
 30
0.0
  3
_DOT
  1

  0
POLYLINE
  5
D
100
AcDbEntity
  8
0
  6
BYBLOCK
 62
     0
100
AcDb2dPolyline
 66
     1
 10
0.0
 20
0.0
 30
0.0
 70
     1
 40
0.5
 41
0.5
  0
VERTEX
  5
E
100
AcDbEntity
  8
0
  6
BYBLOCK
 62
     0
100
AcDbVertex
100
AcDb2dVertex
 10
-0.25
 20
0.0
 30
0.0
 42
1.0
  0
VERTEX
  5
F
100
AcDbEntity
  8
0
  6
BYBLOCK
 62
     0
100
AcDbVertex
100
AcDb2dVertex
 10
0.25
 20
0.0
 30
0.0
 42
1.0
  0
SEQEND
  5
10
100
AcDbEntity
  8
0
  6
BYBLOCK
 62
     0
  0
LINE
  5
11
100
AcDbEntity
  8
0
  6
BYBLOCK
 62
     0
100
AcDbLine
 10
-0.5
 20
0.0
 30
0.0
 11
-1.0
 21
0.0
 31
0.0
  0
ENDBLK
  5
12
100
AcDbEntity
  8
0
100
AcDbBlockEnd
  0
BLOCK
  5
14
100
AcDbEntity
  8
0
100
AcDbBlockBegin
  2
_OPEN
 70
     0
 10
0.0
 20
0.0
 30
0.0
  3
_OPEN
  1

  0
LINE
  5
15
100
AcDbEntity
  8
0
  6
BYBLOCK
 62
     0
100
AcDbLine
 10
-1.0
 20
0.166667
 30
0.0
 11
0.0
 21
0.0
 31
0.0
  0
LINE
  5
16
100
AcDbEntity
  8
0
  6
BYBLOCK
 62
     0
100
AcDbLine
 10
0.0
 20
0.0
 30
0.0
 11
-1.0
 21
-0.166667
 31
0.0
  0
LINE
  5
17
100
AcDbEntity
  8
0
  6
BYBLOCK
 62
     0
100
AcDbLine
 10
0.0
 20
0.0
 30
0.0
 11
-1.0
 21
0.0
 31
0.0
  0
ENDBLK
  5
18
100
AcDbEntity
  8
0
100
AcDbBlockEnd
  0
BLOCK
  5
1A
100
AcDbEntity
  8
0
100
AcDbBlockBegin
  2
_ORIGIN
 70
     0
 10
0.0
 20
0.0
 30
0.0
  3
_ORIGIN
  1

  0
CIRCLE
  5
1B
100
AcDbEntity
  8
0
  6
BYBLOCK
 62
     0
100
AcDbCircle
 10
0.0
 20
0.0
 30
0.0
 40
0.5
  0
LINE
  5
1C
100
AcDbEntity
  8
0
  6
BYBLOCK
 62
     0
100
AcDbLine
 10
0.0
 20
0.0
 30
0.0
 11
-1.0
 21
0.0
 31
0.0
  0
ENDBLK
  5
1D
100
AcDbEntity
  8
0
100
AcDbBlockEnd
  0
BLOCK
  5
1F
100
AcDbEntity
  8
0
100
AcDbBlockBegin
  2
_OPEN30
 70
     0
 10
0.0
 20
0.0
 30
0.0
  3
_OPEN30
  1

  0
LINE
  5
20
100
AcDbEntity
  8
0
  6
BYBLOCK
 62
     0
100
AcDbLine
 10
-1.0
 20
0.267949
 30
0.0
 11
0.0
 21
0.0
 31
0.0
  0
LINE
  5
21
100
AcDbEntity
  8
0
  6
BYBLOCK
 62
     0
100
AcDbLine
 10
0.0
 20
0.0
 30
0.0
 11
-1.0
 21
-0.267949
 31
0.0
  0
LINE
  5
22
100
AcDbEntity
  8
0
  6
BYBLOCK
 62
     0
100
AcDbLine
 10
0.0
 20
0.0
 30
0.0
 11
-1.0
 21
0.0
 31
0.0
  0
ENDBLK
  5
23
100
AcDbEntity
  8
0
100
AcDbBlockEnd
  0
BLOCK
  5
25
100
AcDbEntity
  8
0
100
AcDbBlockBegin
  2
_BOXFILLED
 70
     0
 10
0.0
 20
0.0
 30
0.0
  3
_BOXFILLED
  1

  0
SOLID
  5
26
100
AcDbEntity
  8
0
  6
BYBLOCK
 62
     0
100
AcDbTrace
 10
-0.5
 20
0.5
 30
0.0
 11
0.5
 21
0.5
 31
0.0
 12
-0.5
 22
-0.5
 32
0.0
 13
0.5
 23
-0.5
 33
0.0
  0
LINE
  5
27
100
AcDbEntity
  8
0
  6
BYBLOCK
 62
     0
100
AcDbLine
 10
-0.5
 20
0.0
 30
0.0
 11
-1.0
 21
0.0
 31
0.0
  0
ENDBLK
  5
28
100
AcDbEntity
  8
0
100
AcDbBlockEnd
  0
BLOCK
  5
2A
100
AcDbEntity
  8
0
100
AcDbBlockBegin
  2
_BOXBLANK
 70
     0
 10
0.0
 20
0.0
 30
0.0
  3
_BOXBLANK
  1

  0
LINE
  5
2B
100
AcDbEntity
  8
0
  6
BYBLOCK
 62
     0
100
AcDbLine
 10
-0.5
 20
-0.5
 30
0.0
 11
0.5
 21
-0.5
 31
0.0
  0
LINE
  5
2C
100
AcDbEntity
  8
0
  6
BYBLOCK
 62
     0
100
AcDbLine
 10
0.5
 20
-0.5
 30
0.0
 11
0.5
 21
0.5
 31
0.0
  0
LINE
  5
2D
100
AcDbEntity
  8
0
  6
BYBLOCK
 62
     0
100
AcDbLine
 10
0.5
 20
0.5
 30
0.0
 11
-0.5
 21
0.5
 31
0.0
  0
LINE
  5
2E
100
AcDbEntity
  8
0
  6
BYBLOCK
 62
     0
100
AcDbLine
 10
-0.5
 20
0.5
 30
0.0
 11
-0.5
 21
-0.5
 31
0.0
  0
LINE
  5
2F
100
AcDbEntity
  8
0
  6
BYBLOCK
 62
     0
100
AcDbLine
 10
-0.5
 20
0.0
 30
0.0
 11
-1.0
 21
0.0
 31
0.0
  0
ENDBLK
  5
30
100
AcDbEntity
  8
0
100
AcDbBlockEnd
  0
BLOCK
  5
32
100
AcDbEntity
  8
0
100
AcDbBlockBegin
  2
_OBLIQUE
 70
     0
 10
0.0
 20
0.0
 30
0.0
  3
_OBLIQUE
  1

  0
LINE
  5
33
100
AcDbEntity
  8
0
  6
BYBLOCK
 62
     0
100
AcDbLine
 10
-0.5
 20
-0.5
 30
0.0
 11
0.5
 21
0.5
 31
0.0
  0
ENDBLK
  5
34
100
AcDbEntity
  8
0
100
AcDbBlockEnd
  0
BLOCK
  5
36
100
AcDbEntity
  8
0
100
AcDbBlockBegin
  2
_OPEN90
 70
     0
 10
0.0
 20
0.0
 30
0.0
  3
_OPEN90
  1

  0
LINE
  5
37
100
AcDbEntity
  8
0
  6
BYBLOCK
 62
     0
100
AcDbLine
 10
-0.5
 20
0.5
 30
0.0
 11
0.0
 21
0.0
 31
0.0
  0
LINE
  5
38
100
AcDbEntity
  8
0
  6
BYBLOCK
 62
     0
100
AcDbLine
 10
0.0
 20
0.0
 30
0.0
 11
-0.5
 21
-0.5
 31
0.0
  0
LINE
  5
39
100
AcDbEntity
  8
0
  6
BYBLOCK
 62
     0
100
AcDbLine
 10
0.0
 20
0.0
 30
0.0
 11
-1.0
 21
0.0
 31
0.0
  0
ENDBLK
  5
3A
100
AcDbEntity
  8
0
100
AcDbBlockEnd
  0
BLOCK
  5
3C
100
AcDbEntity
  8
0
100
AcDbBlockBegin
  2
_CLOSEDBLANK
 70
     0
 10
0.0
 20
0.0
 30
0.0
  3
_CLOSEDBLANK
  1

  0
LINE
  5
3D
100
AcDbEntity
  8
0
  6
BYBLOCK
 62
     0
100
AcDbLine
 10
-1.0
 20
0.1666666666666666
 30
0.0
 11
0.0
 21
0.0
 31
0.0
  0
LINE
  5
3E
100
AcDbEntity
  8
0
  6
BYBLOCK
 62
     0
100
AcDbLine
 10
0.0
 20
0.0
 30
0.0
 11
-1.0
 21
-0.1666666666666666
 31
0.0
  0
LINE
  5
3F
100
AcDbEntity
  8
0
  6
BYBLOCK
 62
     0
100
AcDbLine
 10
-1.0
 20
0.1666666666666666
 30
0.0
 11
-1.0
 21
-0.1666666666666666
 31
0.0
  0
ENDBLK
  5
40
100
AcDbEntity
  8
0
100
AcDbBlockEnd
  0
BLOCK
  5
42
100
AcDbEntity
  8
0
100
AcDbBlockBegin
  2
_DOTBLANK
 70
     0
 10
0.0
 20
0.0
 30
0.0
  3
_DOTBLANK
  1

  0
CIRCLE
  5
43
100
AcDbEntity
  8
0
  6
BYBLOCK
 62
     0
100
AcDbCircle
 10
0.0
 20
0.0
 30
0.0
 40
0.5
  0
LINE
  5
44
100
AcDbEntity
  8
0
  6
BYBLOCK
 62
     0
100
AcDbLine
 10
-0.5
 20
0.0
 30
0.0
 11
-1.0
 21
0.0
 31
0.0
  0
ENDBLK
  5
45
100
AcDbEntity
  8
0
100
AcDbBlockEnd
  0
BLOCK
  5
12A
100
AcDbEntity
  8
MAIN10
  6
CONTINUOUS
 62
3
100
AcDbBlockBegin
  2
*D0
 70
    65
 10
0.0
 20
0.0
 30
0.0
  0
LINE
  5
12B
100
AcDbEntity
  8
MAIN10
  6
BYBLOCK
 62
0
100
AcDbLine
 10
258.3542860532090
 20
163.8435028945821
 30
0.0000000000000000
 11
258.3542860532090
 21
137.6435029065030
 31
0.0000000000000000
  0
LINE
  5
12C
100
AcDbEntity
  8
MAIN10
  6
BYBLOCK
 62
0
100
AcDbLine
 10
256.3542860532090
 20
139.6435029065030
 30
0.0000000000000000
 11
175.3542860532091
 21
139.6435029065030
 31
0.0000000000000000
  0
INSERT
  5
12D
100
AcDbEntity
  8
MAIN10
  6
BYBLOCK
 62
0
100
AcDbBlockReference
  2
_OPEN
 10
258.3542860532090
 20
139.6435029065030
 30
0.0000000000000000
 41
2.000000000000000
 42
2.000000000000000
 43
2.000000000000000
 50
360.0000000000000
  0
INSERT
  5
12E
100
AcDbEntity
  8
MAIN10
  6
BYBLOCK
 62
0
100
AcDbBlockReference
  2
_OPEN
 10
173.3542860532091
 20
139.6435029065030
 30
0.0000000000000000
 41
2.000000000000000
 42
2.000000000000000
 43
2.000000000000000
 50
180.0000000000000
  0
LINE
  5
12F
100
AcDbEntity
  8
MAIN10
  6
BYBLOCK
 62
0
100
AcDbLine
 10
173.3542860532091
 20
163.8435028945822
 30
0.0000000000000000
 11
173.3542860532091
 21
137.6435029065030
 31
0.0000000000000000
  0
MTEXT
  5
130
100
AcDbEntity
  8
MAIN10
  6
BYBLOCK
 62
0
100
AcDbMText
 10
215.8542860532091
 20
141.6935028588193
 30
0.0000000000000000
 40
3.099999904632568
 41
0.0000000000000000
 71
     5
 72
     1
  1
\A1;85
 11
1.000000000000000
 21
0.0000000000000000
 31
0.0000000000000000
  7
STANDARD
  0
ENDBLK
  5
131
100
AcDbEntity
  8
MAIN10
  6
CONTINUOUS
 62
3
100
AcDbBlockEnd
  0
BLOCK
  5
133
100
AcDbEntity
  8
MAIN10
  6
CONTINUOUS
 62
3
100
AcDbBlockBegin
  2
*D1
 70
    65
 10
0.0
 20
0.0
 30
0.0
  0
LINE
  5
134
100
AcDbEntity
  8
MAIN10
  6
BYBLOCK
 62
0
100
AcDbLine
 10
173.3542860532091
 20
163.8435028945822
 30
0.0000000000000000
 11
173.3542860532091
 21
147.6435029065030
 31
0.0000000000000000
  0
LINE
  5
135
100
AcDbEntity
  8
MAIN10
  6
BYBLOCK
 62
0
100
AcDbLine
 10
173.3542860532091
 20
149.6435029065030
 30
0.0000000000000000
 11
178.3542860532092
 21
149.6435029065030
 31
0.0000000000000000
  0
INSERT
  5
136
100
AcDbEntity
  8
MAIN10
  6
BYBLOCK
 62
0
100
AcDbBlockReference
  2
_OPEN
 10
173.3542860532091
 20
149.6435029065030
 30
0.0000000000000000
 41
2.000000000000000
 42
2.000000000000000
 43
2.000000000000000
 50
0.0000000000000000
  0
INSERT
  5
137
100
AcDbEntity
  8
MAIN10
  6
BYBLOCK
 62
0
100
AcDbBlockReference
  2
_OPEN
 10
178.3542860532092
 20
149.6435029065030
 30
0.0000000000000000
 41
2.000000000000000
 42
2.000000000000000
 43
2.000000000000000
 50
180.0000000000000
  0
LINE
  5
138
100
AcDbEntity
  8
MAIN10
  6
BYBLOCK
 62
0
100
AcDbLine
 10
171.3542860532091
 20
149.6435029065030
 30
0.0000000000000000
 11
170.3542860532091
 21
149.6435029065030
 31
0.0000000000000000
  0
LINE
  5
139
100
AcDbEntity
  8
MAIN10
  6
BYBLOCK
 62
0
100
AcDbLine
 10
180.3542860532092
 20
149.6435029065030
 30
0.0000000000000000
 11
181.3542860532092
 21
149.6435029065030
 31
0.0000000000000000
  0
LINE
  5
13A
100
AcDbEntity
  8
MAIN10
  6
BYBLOCK
 62
0
100
AcDbLine
 10
178.3542860532092
 20
183.8435028945822
 30
0.0000000000000000
 11
178.3542860532092
 21
147.6435029065030
 31
0.0000000000000000
  0
MTEXT
  5
13B
100
AcDbEntity
  8
MAIN10
  6
BYBLOCK
 62
0
100
AcDbMText
 10
175.8542860532091
 20
151.6935028588193
 30
0.0000000000000000
 40
3.099999904632568
 41
0.0000000000000000
 71
     5
 72
     1
  1
\A1;5
 11
1.000000000000000
 21
0.0000000000000000
 31
0.0000000000000000
  7
STANDARD
  0
ENDBLK
  5
13C
100
AcDbEntity
  8
MAIN10
  6
CONTINUOUS
 62
3
100
AcDbBlockEnd
  0
BLOCK
  5
13E
100
AcDbEntity
  8
MAIN10
  6
CONTINUOUS
 62
3
100
AcDbBlockBegin
  2
*D2
 70
    65
 10
0.0
 20
0.0
 30
0.0
  0
LINE
  5
13F
100
AcDbEntity
  8
MAIN10
  6
BYBLOCK
 62
0
100
AcDbLine
 10
259.1542860651300
 20
212.9685029065031
 30
0.0000000000000000
 11
280.3542860532090
 21
212.9685029065031
 31
0.0000000000000000
  0
LINE
  5
140
100
AcDbEntity
  8
MAIN10
  6
BYBLOCK
 62
0
100
AcDbLine
 10
278.3542860532090
 20
210.9685029065031
 30
0.0000000000000000
 11
278.3542860532090
 21
194.9685029065031
 31
0.0000000000000000
  0
INSERT
  5
141
100
AcDbEntity
  8
MAIN10
  6
BYBLOCK
 62
0
100
AcDbBlockReference
  2
_OPEN
 10
278.3542860532090
 20
212.9685029065031
 30
0.0000000000000000
 41
2.000000000000000
 42
2.000000000000000
 43
2.000000000000000
 50
90.00000000000000
  0
INSERT
  5
142
100
AcDbEntity
  8
MAIN10
  6
BYBLOCK
 62
0
100
AcDbBlockReference
  2
_OPEN
 10
278.3542860532090
 20
192.9685029065031
 30
0.0000000000000000
 41
2.000000000000000
 42
2.000000000000000
 43
2.000000000000000
 50
270.0000000000000
  0
LINE
  5
143
100
AcDbEntity
  8
MAIN10
  6
BYBLOCK
 62
0
100
AcDbLine
 10
259.1542860651300
 20
192.9685029065031
 30
0.0000000000000000
 11
280.3542860532090
 21
192.9685029065031
 31
0.0000000000000000
  0
MTEXT
  5
144
100
AcDbEntity
  8
MAIN10
  6
BYBLOCK
 62
0
100
AcDbMText
 10
276.3042861008927
 20
202.9685029065031
 30
0.0000000000000000
 40
3.099999904632568
 41
0.0000000000000000
 71
     5
 72
     1
  1
\A1;\U+220520
 11
6.123233995736766e-017
 21
1.000000000000000
 31
0.0000000000000000
  7
STANDARD
  0
ENDBLK
  5
145
100
AcDbEntity
  8
MAIN10
  6
CONTINUOUS
 62
3
100
AcDbBlockEnd
  0
BLOCK
  5
147
100
AcDbEntity
  8
MAIN10
  6
CONTINUOUS
 62
3
100
AcDbBlockBegin
  2
*D3
 70
    65
 10
0.0
 20
0.0
 30
0.0
  0
LINE
  5
148
100
AcDbEntity
  8
MAIN10
  6
BYBLOCK
 62
0
100
AcDbLine
 10
243.3542860532091
 20
192.1685028945822
 30
0.0000000000000000
 11
243.3542860532091
 21
177.6435029065030
 31
0.0000000000000000
  0
LINE
  5
149
100
AcDbEntity
  8
MAIN10
  6
BYBLOCK
 62
0
100
AcDbLine
 10
245.3542860532091
 20
179.6435029065030
 30
0.0000000000000000
 11
256.3542860532090
 21
179.6435029065030
 31
0.0000000000000000
  0
INSERT
  5
14A
100
AcDbEntity
  8
MAIN10
  6
BYBLOCK
 62
0
100
AcDbBlockReference
  2
_OPEN
 10
243.3542860532091
 20
179.6435029065030
 30
0.0000000000000000
 41
2.000000000000000
 42
2.000000000000000
 43
2.000000000000000
 50
180.0000000000000
  0
INSERT
  5
14B
100
AcDbEntity
  8
MAIN10
  6
BYBLOCK
 62
0
100
AcDbBlockReference
  2
_OPEN
 10
258.3542860532090
 20
179.6435029065030
 30
0.0000000000000000
 41
2.000000000000000
 42
2.000000000000000
 43
2.000000000000000
 50
0.0000000000000000
  0
MTEXT
  5
14C
100
AcDbEntity
  8
MAIN10
  6
BYBLOCK
 62
0
100
AcDbMText
 10
250.8542860532090
 20
181.6935028588193
 30
0.0000000000000000
 40
3.099999904632568
 41
0.0000000000000000
 71
     5
 72
     1
  1
\A1;15
 11
1.000000000000000
 21
0.0000000000000000
 31
0.0000000000000000
  7
STANDARD
  0
ENDBLK
  5
14D
100
AcDbEntity
  8
MAIN10
  6
CONTINUOUS
 62
3
100
AcDbBlockEnd
  0
BLOCK
  5
14F
100
AcDbEntity
  8
MAIN10
  6
CONTINUOUS
 62
3
100
AcDbBlockBegin
  2
*D4
 70
    65
 10
0.0
 20
0.0
 30
0.0
  0
LINE
  5
150
100
AcDbEntity
  8
MAIN10
  6
BYBLOCK
 62
0
100
AcDbLine
 10
218.3542860532090
 20
207.7185029065031
 30
0.0000000000000000
 11
218.3542860532090
 21
198.2185029065031
 31
0.0000000000000000
  0
INSERT
  5
151
100
AcDbEntity
  8
MAIN10
  6
BYBLOCK
 62
0
100
AcDbBlockReference
  2
_OPEN
 10
218.3542860532090
 20
209.7185029065031
 30
0.0000000000000000
 41
2.000000000000000
 42
2.000000000000000
 43
2.000000000000000
 50
90.00000000000000
  0
INSERT
  5
152
100
AcDbEntity
  8
MAIN10
  6
BYBLOCK
 62
0
100
AcDbBlockReference
  2
_OPEN
 10
218.3542860532090
 20
196.2185029065031
 30
0.0000000000000000
 41
2.000000000000000
 42
2.000000000000000
 43
2.000000000000000
 50
270.0000000000000
  0
MTEXT
  5
153
100
AcDbEntity
  8
MAIN10
  6
BYBLOCK
 62
0
100
AcDbMText
 10
216.3042861008927
 20
202.9685029065031
 30
0.0000000000000000
 40
3.099999904632568
 41
0.0000000000000000
 71
     5
 72
     1
  1
\A1;\U+220513.5
 11
6.123233995736766e-017
 21
1.000000000000000
 31
0.0000000000000000
  7
STANDARD
  0
ENDBLK
  5
154
100
AcDbEntity
  8
MAIN10
  6
CONTINUOUS
 62
3
100
AcDbBlockEnd
  0
BLOCK
  5
156
100
AcDbEntity
  8
MAIN10
  6
CONTINUOUS
 62
3
100
AcDbBlockBegin
  2
*D5
 70
    65
 10
0.0
 20
0.0
 30
0.0
  0
LINE
  5
157
100
AcDbEntity
  8
MAIN10
  6
BYBLOCK
 62
0
100
AcDbLine
 10
176.3542860532092
 20
319.6435029065030
 30
0.0000000000000000
 11
74.35428605320919
 21
319.6435029065030
 31
0.0000000000000000
  0
INSERT
  5
158
100
AcDbEntity
  8
MAIN10
  6
BYBLOCK
 62
0
100
AcDbBlockReference
  2
_OPEN
 10
178.3542860532092
 20
319.6435029065030
 30
0.0000000000000000
 41
2.000000000000000
 42
2.000000000000000
 43
2.000000000000000
 50
360.0000000000000
  0
INSERT
  5
159
100
AcDbEntity
  8
MAIN10
  6
BYBLOCK
 62
0
100
AcDbBlockReference
  2
_OPEN
 10
72.35428605320919
 20
319.6435029065030
 30
0.0000000000000000
 41
2.000000000000000
 42
2.000000000000000
 43
2.000000000000000
 50
180.0000000000000
  0
LINE
  5
15A
100
AcDbEntity
  8
MAIN10
  6
BYBLOCK
 62
0
100
AcDbLine
 10
72.35428605320919
 20
287.4435029184238
 30
0.0000000000000000
 11
72.35428605320919
 21
321.6435029065030
 31
0.0000000000000000
  0
MTEXT
  5
15B
100
AcDbEntity
  8
MAIN10
  6
BYBLOCK
 62
0
100
AcDbMText
 10
125.3542860532092
 20
321.6935028588193
 30
0.0000000000000000
 40
3.099999904632568
 41
0.0000000000000000
 71
     5
 72
     1
  1
\A1;MIN 106
 11
1.000000000000000
 21
0.0000000000000000
 31
0.0000000000000000
  7
STANDARD
  0
ENDBLK
  5
15C
100
AcDbEntity
  8
MAIN10
  6
CONTINUOUS
 62
3
100
AcDbBlockEnd
  0
BLOCK
  5
15E
100
AcDbEntity
  8
MAIN10
  6
CONTINUOUS
 62
3
100
AcDbBlockBegin
  2
*D6
 70
    65
 10
0.0
 20
0.0
 30
0.0
  0
LINE
  5
15F
100
AcDbEntity
  8
MAIN10
  6
BYBLOCK
 62
0
100
AcDbLine
 10
72.35428605320919
 20
287.4435029184238
 30
0.0000000000000000
 11
72.35428605320919
 21
321.6435029065030
 31
0.0000000000000000
  0
LINE
  5
160
100
AcDbEntity
  8
MAIN10
  6
BYBLOCK
 62
0
100
AcDbLine
 10
70.35428605320919
 20
319.6435029065030
 30
0.0000000000000000
 11
38.35428605320928
 21
319.6435029065030
 31
0.0000000000000000
  0
INSERT
  5
161
100
AcDbEntity
  8
MAIN10
  6
BYBLOCK
 62
0
100
AcDbBlockReference
  2
_OPEN
 10
72.35428605320919
 20
319.6435029065030
 30
0.0000000000000000
 41
2.000000000000000
 42
2.000000000000000
 43
2.000000000000000
 50
360.0000000000000
  0
INSERT
  5
162
100
AcDbEntity
  8
MAIN10
  6
BYBLOCK
 62
0
100
AcDbBlockReference
  2
_OPEN
 10
36.35428605320928
 20
319.6435029065030
 30
0.0000000000000000
 41
2.000000000000000
 42
2.000000000000000
 43
2.000000000000000
 50
180.0000000000000
  0
LINE
  5
163
100
AcDbEntity
  8
MAIN10
  6
BYBLOCK
 62
0
100
AcDbLine
 10
36.35428605320928
 20
278.4435029184240
 30
0.0000000000000000
 11
36.35428605320928
 21
321.6435029065030
 31
0.0000000000000000
  0
MTEXT
  5
164
100
AcDbEntity
  8
MAIN10
  6
BYBLOCK
 62
0
100
AcDbMText
 10
54.35428605320925
 20
321.6935028588193
 30
0.0000000000000000
 40
3.099999904632568
 41
0.0000000000000000
 71
     5
 72
     1
  1
\A1;36
 11
1.000000000000000
 21
0.0000000000000000
 31
0.0000000000000000
  7
STANDARD
  0
ENDBLK
  5
165
100
AcDbEntity
  8
MAIN10
  6
CONTINUOUS
 62
3
100
AcDbBlockEnd
  0
BLOCK
  5
167
100
AcDbEntity
  8
MAIN10
  6
CONTINUOUS
 62
3
100
AcDbBlockBegin
  2
*D7
 70
    65
 10
0.0
 20
0.0
 30
0.0
  0
LINE
  5
168
100
AcDbEntity
  8
MAIN10
  6
BYBLOCK
 62
0
100
AcDbLine
 10
72.35428605320919
 20
287.4435029184238
 30
0.0000000000000000
 11
72.35428605320919
 21
301.6435029065030
 31
0.0000000000000000
  0
LINE
  5
169
100
AcDbEntity
  8
MAIN10
  6
BYBLOCK
 62
0
100
AcDbLine
 10
74.35428605320919
 20
299.6435029065030
 30
0.0000000000000000
 11
95.35428605320919
 21
299.6435029065030
 31
0.0000000000000000
  0
INSERT
  5
16A
100
AcDbEntity
  8
MAIN10
  6
BYBLOCK
 62
0
100
AcDbBlockReference
  2
_OPEN
 10
72.35428605320919
 20
299.6435029065030
 30
0.0000000000000000
 41
2.000000000000000
 42
2.000000000000000
 43
2.000000000000000
 50
180.0000000000000
  0
INSERT
  5
16B
100
AcDbEntity
  8
MAIN10
  6
BYBLOCK
 62
0
100
AcDbBlockReference
  2
_OPEN
 10
97.35428605320919
 20
299.6435029065030
 30
0.0000000000000000
 41
2.000000000000000
 42
2.000000000000000
 43
2.000000000000000
 50
0.0000000000000000
  0
LINE
  5
16C
100
AcDbEntity
  8
MAIN10
  6
BYBLOCK
 62
0
100
AcDbLine
 10
97.35428605320919
 20
289.4435029184240
 30
0.0000000000000000
 11
97.35428605320919
 21
301.6435029065030
 31
0.0000000000000000
  0
MTEXT
  5
16D
100
AcDbEntity
  8
MAIN10
  6
BYBLOCK
 62
0
100
AcDbMText
 10
84.85428605320919
 20
301.6935028588193
 30
0.0000000000000000
 40
3.099999904632568
 41
0.0000000000000000
 71
     5
 72
     1
  1
\A1;25
 11
1.000000000000000
 21
0.0000000000000000
 31
0.0000000000000000
  7
STANDARD
  0
ENDBLK
  5
16E
100
AcDbEntity
  8
MAIN10
  6
CONTINUOUS
 62
3
100
AcDbBlockEnd
  0
BLOCK
  5
170
100
AcDbEntity
  8
MAIN10
  6
CONTINUOUS
 62
3
100
AcDbBlockBegin
  2
*D8
 70
    65
 10
0.0
 20
0.0
 30
0.0
  0
LINE
  5
171
100
AcDbEntity
  8
MAIN10
  6
BYBLOCK
 62
0
100
AcDbLine
 10
177.5542860412884
 20
312.6435029065030
 30
0.0000000000000000
 11
119.1406476278302
 21
312.6435029065030
 31
0.0000000000000000
  0
LINE
  5
172
100
AcDbEntity
  8
MAIN10
  6
BYBLOCK
 62
0
100
AcDbLine
 10
121.1406476278302
 20
310.6435029065030
 30
0.0000000000000000
 11
121.1406476278302
 21
228.6435029065032
 31
0.0000000000000000
  0
INSERT
  5
173
100
AcDbEntity
  8
MAIN10
  6
BYBLOCK
 62
0
100
AcDbBlockReference
  2
_OPEN
 10
121.1406476278302
 20
312.6435029065030
 30
0.0000000000000000
 41
2.000000000000000
 42
2.000000000000000
 43
2.000000000000000
 50
90.00000000000000
  0
INSERT
  5
174
100
AcDbEntity
  8
MAIN10
  6
BYBLOCK
 62
0
100
AcDbBlockReference
  2
_OPEN
 10
121.1406476278302
 20
226.6435029065032
 30
0.0000000000000000
 41
2.000000000000000
 42
2.000000000000000
 43
2.000000000000000
 50
270.0000000000000
  0
LINE
  5
175
100
AcDbEntity
  8
MAIN10
  6
BYBLOCK
 62
0
100
AcDbLine
 10
177.5542860412882
 20
226.6435029065032
 30
0.0000000000000000
 11
119.1406476278302
 21
226.6435029065032
 31
0.0000000000000000
  0
MTEXT
  5
176
100
AcDbEntity
  8
MAIN10
  6
BYBLOCK
 62
0
100
AcDbMText
 10
119.0906476755139
 20
269.6435029065031
 30
0.0000000000000000
 40
3.099999904632568
 41
0.0000000000000000
 71
     5
 72
     1
  1
\A1;\U+220586
 11
6.123233995736766e-017
 21
1.000000000000000
 31
0.0000000000000000
  7
STANDARD
  0
ENDBLK
  5
177
100
AcDbEntity
  8
MAIN10
  6
CONTINUOUS
 62
3
100
AcDbBlockEnd
  0
BLOCK
  5
179
100
AcDbEntity
  8
MAIN10
  6
CONTINUOUS
 62
3
100
AcDbBlockBegin
  2
*D9
 70
    65
 10
0.0
 20
0.0
 30
0.0
  0
LINE
  5
17A
100
AcDbEntity
  8
MAIN10
  6
BYBLOCK
 62
0
100
AcDbLine
 10
192.0542860412883
 20
296.6435029065028
 30
0.0000000000000000
 11
135.7227348028036
 21
296.6435029065028
 31
0.0000000000000000
  0
LINE
  5
17B
100
AcDbEntity
  8
MAIN10
  6
BYBLOCK
 62
0
100
AcDbLine
 10
137.7227348028036
 20
294.6435029065028
 30
0.0000000000000000
 11
137.7227348028036
 21
244.6435029065034
 31
0.0000000000000000
  0
INSERT
  5
17C
100
AcDbEntity
  8
MAIN10
  6
BYBLOCK
 62
0
100
AcDbBlockReference
  2
_OPEN
 10
137.7227348028036
 20
296.6435029065028
 30
0.0000000000000000
 41
2.000000000000000
 42
2.000000000000000
 43
2.000000000000000
 50
90.00000000000000
  0
INSERT
  5
17D
100
AcDbEntity
  8
MAIN10
  6
BYBLOCK
 62
0
100
AcDbBlockReference
  2
_OPEN
 10
137.7227348028036
 20
242.6435029065034
 30
0.0000000000000000
 41
2.000000000000000
 42
2.000000000000000
 43
2.000000000000000
 50
270.0000000000000
  0
LINE
  5
17E
100
AcDbEntity
  8
MAIN10
  6
BYBLOCK
 62
0
100
AcDbLine
 10
192.0542860412884
 20
242.6435029065034
 30
0.0000000000000000
 11
135.7227348028036
 21
242.6435029065034
 31
0.0000000000000000
  0
MTEXT
  5
17F
100
AcDbEntity
  8
MAIN10
  6
BYBLOCK
 62
0
100
AcDbMText
 10
135.6727348504873
 20
269.6435029065031
 30
0.0000000000000000
 40
3.099999904632568
 41
0.0000000000000000
 71
     5
 72
     1
  1
\A1;\U+220554
 11
6.123233995736766e-017
 21
1.000000000000000
 31
0.0000000000000000
  7
STANDARD
  0
ENDBLK
  5
180
100
AcDbEntity
  8
MAIN10
  6
CONTINUOUS
 62
3
100
AcDbBlockEnd
  0
BLOCK
  5
182
100
AcDbEntity
  8
MAIN10
  6
CONTINUOUS
 62
3
100
AcDbBlockBegin
  2
*D10
 70
    65
 10
0.0
 20
0.0
 30
0.0
  0
LINE
  5
183
100
AcDbEntity
  8
MAIN10
  6
BYBLOCK
 62
0
100
AcDbLine
 10
154.1001196031392
 20
286.6435029065033
 30
0.0000000000000000
 11
154.1001196031392
 21
252.6435029065033
 31
0.0000000000000000
  0
INSERT
  5
184
100
AcDbEntity
  8
MAIN10
  6
BYBLOCK
 62
0
100
AcDbBlockReference
  2
_OPEN
 10
154.1001196031392
 20
288.6435029065033
 30
0.0000000000000000
 41
2.000000000000000
 42
2.000000000000000
 43
2.000000000000000
 50
90.00000000000000
  0
INSERT
  5
185
100
AcDbEntity
  8
MAIN10
  6
BYBLOCK
 62
0
100
AcDbBlockReference
  2
_OPEN
 10
154.1001196031392
 20
250.6435029065033
 30
0.0000000000000000
 41
2.000000000000000
 42
2.000000000000000
 43
2.000000000000000
 50
270.0000000000000
  0
MTEXT
  5
186
100
AcDbEntity
  8
MAIN10
  6
BYBLOCK
 62
0
100
AcDbMText
 10
152.0501196508229
 20
269.6435029065033
 30
0.0000000000000000
 40
3.099999904632568
 41
0.0000000000000000
 71
     5
 72
     1
  1
\A1;\U+220538
 11
6.123233995736766e-017
 21
1.000000000000000
 31
0.0000000000000000
  7
STANDARD
  0
ENDBLK
  5
187
100
AcDbEntity
  8
MAIN10
  6
CONTINUOUS
 62
3
100
AcDbBlockEnd
  0
BLOCK
  5
18C
100
AcDbEntity
  8
MAIN10
  6
CONTINUOUS
 62
3
100
AcDbBlockBegin
  2
*D11
 70
    65
 10
0.0
 20
0.0
 30
0.0
  0
LINE
  5
18D
100
AcDbEntity
  8
MAIN10
  6
BYBLOCK
 62
0
100
AcDbLine
 10
180.3542860532092
 20
234.6435029065030
 30
0.0000000000000000
 11
197.3542860532093
 21
234.6435029065030
 31
0.0000000000000000
  0
INSERT
  5
18E
100
AcDbEntity
  8
MAIN10
  6
BYBLOCK
 62
0
100
AcDbBlockReference
  2
_OPEN
 10
178.3542860532092
 20
234.6435029065030
 30
0.0000000000000000
 41
2.000000000000000
 42
2.000000000000000
 43
2.000000000000000
 50
180.0000000000000
  0
INSERT
  5
18F
100
AcDbEntity
  8
MAIN10
  6
BYBLOCK
 62
0
100
AcDbBlockReference
  2
_OPEN
 10
199.3542860532093
 20
234.6435029065030
 30
0.0000000000000000
 41
2.000000000000000
 42
2.000000000000000
 43
2.000000000000000
 50
0.0000000000000000
  0
MTEXT
  5
190
100
AcDbEntity
  8
MAIN10
  6
BYBLOCK
 62
0
100
AcDbMText
 10
188.8542860532092
 20
236.6935028588193
 30
0.0000000000000000
 40
3.099999904632568
 41
0.0000000000000000
 71
     5
 72
     1
  1
\A1;21
 11
1.000000000000000
 21
0.0000000000000000
 31
0.0000000000000000
  7
STANDARD
  0
ENDBLK
  5
191
100
AcDbEntity
  8
MAIN10
  6
CONTINUOUS
 62
3
100
AcDbBlockEnd
  0
BLOCK
  5
195
100
AcDbEntity
  8
MAIN10
  6
CONTINUOUS
 62
3
100
AcDbBlockBegin
  2
*D12
 70
    65
 10
0.0
 20
0.0
 30
0.0
  0
LINE
  5
196
100
AcDbEntity
  8
MAIN10
  6
BYBLOCK
 62
0
100
AcDbLine
 10
158.3542860532091
 20
196.1685028945822
 30
0.0000000000000000
 11
158.3542860532091
 21
171.9359127156217
 31
0.0000000000000000
  0
LINE
  5
197
100
AcDbEntity
  8
MAIN10
  6
BYBLOCK
 62
0
100
AcDbLine
 10
160.3542860532091
 20
173.9359127156217
 30
0.0000000000000000
 11
176.3542860532092
 21
173.9359127156217
 31
0.0000000000000000
  0
INSERT
  5
198
100
AcDbEntity
  8
MAIN10
  6
BYBLOCK
 62
0
100
AcDbBlockReference
  2
_OPEN
 10
158.3542860532091
 20
173.9359127156217
 30
0.0000000000000000
 41
2.000000000000000
 42
2.000000000000000
 43
2.000000000000000
 50
180.0000000000000
  0
INSERT
  5
199
100
AcDbEntity
  8
MAIN10
  6
BYBLOCK
 62
0
100
AcDbBlockReference
  2
_OPEN
 10
178.3542860532092
 20
173.9359127156217
 30
0.0000000000000000
 41
2.000000000000000
 42
2.000000000000000
 43
2.000000000000000
 50
0.0000000000000000
  0
LINE
  5
19A
100
AcDbEntity
  8
MAIN10
  6
BYBLOCK
 62
0
100
AcDbLine
 10
178.3542860532092
 20
183.8435028945822
 30
0.0000000000000000
 11
178.3542860532092
 21
171.9359127156217
 31
0.0000000000000000
  0
MTEXT
  5
19B
100
AcDbEntity
  8
MAIN10
  6
BYBLOCK
 62
0
100
AcDbMText
 10
168.3542860532091
 20
175.9859126679380
 30
0.0000000000000000
 40
3.099999904632568
 41
0.0000000000000000
 71
     5
 72
     1
  1
\A1;20
 11
1.000000000000000
 21
0.0000000000000000
 31
0.0000000000000000
  7
STANDARD
  0
ENDBLK
  5
19C
100
AcDbEntity
  8
MAIN10
  6
CONTINUOUS
 62
3
100
AcDbBlockEnd
  0
BLOCK
  5
1A0
100
AcDbEntity
  8
MAIN10
  6
CONTINUOUS
 62
3
100
AcDbBlockBegin
  2
D13
 70
    64
 10
0.0
 20
0.0
 30
0.0
  0
LINE
  5
1A1
100
AcDbEntity
  8
MAIN10
  6
BYBLOCK
 62
0
100
AcDbLine
 10
-4.915417147339923
 20
80.00000000000001
 30
0.0000000000000000
 11
-4.915417147339923
 21
105.0000000000000
 31
0.0000000000000000
  0
LINE
  5
1A2
100
AcDbEntity
  8
MAIN10
  6
BYBLOCK
 62
0
100
AcDbLine
 10
-5.515417171181781
 20
103.0000000000000
 30
0.0000000000000000
 11
-4.915417147339923
 21
105.0000000000000
 31
0.0000000000000000
  0
LINE
  5
1A3
100
AcDbEntity
  8
MAIN10
  6
BYBLOCK
 62
0
100
AcDbLine
 10
-4.915417147339923
 20
105.0000000000000
 30
0.0000000000000000
 11
-4.315417123498065
 21
103.0000000000000
 31
0.0000000000000000
  0
LINE
  5
1A4
100
AcDbEntity
  8
MAIN10
  6
BYBLOCK
 62
0
100
AcDbLine
 10
49.28458284073928
 20
105.0000000000000
 30
0.0000000000000000
 11
-6.915417147339923
 21
105.0000000000000
 31
0.0000000000000000
  0
MTEXT
  5
1A5
100
AcDbEntity
  8
MAIN10
  6
BYBLOCK
 62
0
100
AcDbMText
 10
-6.965417099656207
 20
86.45000000298025
 30
0.0000000000000000
 40
3.099999904632568
 41
0.0000000000000000
 71
     5
 72
     1
  1
\A1;\U+2205210
 11
6.123233995736766e-017
 21
1.000000000000000
 31
0.0000000000000000
  7
STANDARD
  0
ENDBLK
  5
1A6
100
AcDbEntity
  8
MAIN10
  6
CONTINUOUS
 62
3
100
AcDbBlockEnd
  0
BLOCK
  5
1A8
100
AcDbEntity
  8
MAIN10
  6
CONTINUOUS
 62
3
100
AcDbBlockBegin
  2
D14
 70
    64
 10
0.0
 20
0.0
 30
0.0
  0
LINE
  5
1A9
100
AcDbEntity
  8
MAIN10
  6
BYBLOCK
 62
0
100
AcDbLine
 10
5.913256735682438
 20
55.00981330871584
 30
0.0000000000000000
 11
5.913256735682438
 21
84.99999999999996
 31
0.0000000000000000
  0
LINE
  5
1AA
100
AcDbEntity
  8
MAIN10
  6
BYBLOCK
 62
0
100
AcDbLine
 10
5.313256711840580
 20
82.99999999999996
 30
0.0000000000000000
 11
5.913256735682438
 21
84.99999999999996
 31
0.0000000000000000
  0
LINE
  5
1AB
100
AcDbEntity
  8
MAIN10
  6
BYBLOCK
 62
0
100
AcDbLine
 10
5.913256735682438
 20
84.99999999999996
 30
0.0000000000000000
 11
6.513256759524296
 21
82.99999999999996
 31
0.0000000000000000
  0
LINE
  5
1AC
100
AcDbEntity
  8
MAIN10
  6
BYBLOCK
 62
0
100
AcDbLine
 10
40.11325672376168
 20
84.99999999999996
 30
0.0000000000000000
 11
3.913256735682438
 21
84.99999999999996
 31
0.0000000000000000
  0
MTEXT
  5
1AD
100
AcDbEntity
  8
MAIN10
  6
BYBLOCK
 62
0
100
AcDbMText
 10
3.863256783366154
 20
68.53481328360228
 30
0.0000000000000000
 40
3.099999904632568
 41
0.0000000000000000
 71
     5
 72
     1
  1
\A1;\U+2205170H6\H0.903226x;\S＋0.025^ 　0;
 11
6.123233995736766e-017
 21
1.000000000000000
 31
0.0000000000000000
  7
KNJYOKO
  0
ENDBLK
  5
1AE
100
AcDbEntity
  8
MAIN10
  6
CONTINUOUS
 62
3
100
AcDbBlockEnd
  0
BLOCK
  5
1B0
100
AcDbEntity
  8
MAIN10
  6
CONTINUOUS
 62
3
100
AcDbBlockBegin
  2
*D15
 70
    65
 10
0.0
 20
0.0
 30
0.0
  0
LINE
  5
1B1
100
AcDbEntity
  8
MAIN10
  6
BYBLOCK
 62
0
100
AcDbLine
 10
238.3542860532090
 20
280.1435029065030
 30
0.0000000000000000
 11
238.3542860532090
 21
259.1435029065030
 31
0.0000000000000000
  0
INSERT
  5
1B2
100
AcDbEntity
  8
MAIN10
  6
BYBLOCK
 62
0
100
AcDbBlockReference
  2
_OPEN
 10
238.3542860532090
 20
282.1435029065030
 30
0.0000000000000000
 41
2.000000000000000
 42
2.000000000000000
 43
2.000000000000000
 50
90.00000000000000
  0
INSERT
  5
1B3
100
AcDbEntity
  8
MAIN10
  6
BYBLOCK
 62
0
100
AcDbBlockReference
  2
_OPEN
 10
238.3542860532090
 20
257.1435029065030
 30
0.0000000000000000
 41
2.000000000000000
 42
2.000000000000000
 43
2.000000000000000
 50
270.0000000000000
  0
MTEXT
  5
1B4
100
AcDbEntity
  8
MAIN10
  6
BYBLOCK
 62
0
100
AcDbMText
 10
236.3042861008927
 20
269.6435029065030
 30
0.0000000000000000
 40
3.099999904632568
 41
0.0000000000000000
 71
     5
 72
     1
  1
\A1;\U+220525
 11
6.123233995736766e-017
 21
1.000000000000000
 31
0.0000000000000000
  7
STANDARD
  0
ENDBLK
  5
1B5
100
AcDbEntity
  8
MAIN10
  6
CONTINUOUS
 62
3
100
AcDbBlockEnd
  0
BLOCK
  5
1B9
100
AcDbEntity
  8
MAIN10
  6
CONTINUOUS
 62
3
100
AcDbBlockBegin
  2
*D16
 70
    65
 10
0.0
 20
0.0
 30
0.0
  0
LINE
  5
1BA
100
AcDbEntity
  8
MAIN10
  6
BYBLOCK
 62
0
100
AcDbLine
 10
301.1542860651301
 20
376.6935029065030
 30
0.0000000000000000
 11
345.3542860532090
 21
376.6935029065030
 31
0.0000000000000000
  0
LINE
  5
1BB
100
AcDbEntity
  8
MAIN10
  6
BYBLOCK
 62
0
100
AcDbLine
 10
343.3542860532090
 20
374.6935029065030
 30
0.0000000000000000
 11
343.3542860532090
 21
283.6935029065031
 31
0.0000000000000000
  0
INSERT
  5
1BC
100
AcDbEntity
  8
MAIN10
  6
BYBLOCK
 62
0
100
AcDbBlockReference
  2
_OPEN
 10
343.3542860532090
 20
376.6935029065030
 30
0.0000000000000000
 41
2.000000000000000
 42
2.000000000000000
 43
2.000000000000000
 50
90.00000000000000
  0
INSERT
  5
1BD
100
AcDbEntity
  8
MAIN10
  6
BYBLOCK
 62
0
100
AcDbBlockReference
  2
_OPEN
 10
343.3542860532090
 20
281.6935029065031
 30
0.0000000000000000
 41
2.000000000000000
 42
2.000000000000000
 43
2.000000000000000
 50
270.0000000000000
  0
LINE
  5
1BE
100
AcDbEntity
  8
MAIN10
  6
BYBLOCK
 62
0
100
AcDbLine
 10
301.1542860651301
 20
281.6935029065031
 30
0.0000000000000000
 11
345.3542860532090
 21
281.6935029065031
 31
0.0000000000000000
  0
MTEXT
  5
1BF
100
AcDbEntity
  8
MAIN10
  6
BYBLOCK
 62
0
100
AcDbMText
 10
341.3042861008927
 20
329.1935029065030
 30
0.0000000000000000
 40
3.099999904632568
 41
0.0000000000000000
 71
     5
 72
     1
  1
\A1;95
 11
6.123233995736766e-017
 21
1.000000000000000
 31
0.0000000000000000
  7
STANDARD
  0
ENDBLK
  5
1C0
100
AcDbEntity
  8
MAIN10
  6
CONTINUOUS
 62
3
100
AcDbBlockEnd
  0
BLOCK
  5
1C2
100
AcDbEntity
  8
MAIN10
  6
CONTINUOUS
 62
3
100
AcDbBlockBegin
  2
*D17
 70
    65
 10
0.0
 20
0.0
 30
0.0
  0
LINE
  5
1C3
100
AcDbEntity
  8
MAIN10
  6
BYBLOCK
 62
0
100
AcDbLine
 10
301.1542860651301
 20
376.6935029065030
 30
0.0000000000000000
 11
330.3542860532090
 21
376.6935029065030
 31
0.0000000000000000
  0
LINE
  5
1C4
100
AcDbEntity
  8
MAIN10
  6
BYBLOCK
 62
0
100
AcDbLine
 10
328.3542860532090
 20
374.6935029065030
 30
0.0000000000000000
 11
328.3542860532090
 21
354.6935029065030
 31
0.0000000000000000
  0
INSERT
  5
1C5
100
AcDbEntity
  8
MAIN10
  6
BYBLOCK
 62
0
100
AcDbBlockReference
  2
_OPEN
 10
328.3542860532090
 20
376.6935029065030
 30
0.0000000000000000
 41
2.000000000000000
 42
2.000000000000000
 43
2.000000000000000
 50
90.00000000000000
  0
INSERT
  5
1C6
100
AcDbEntity
  8
MAIN10
  6
BYBLOCK
 62
0
100
AcDbBlockReference
  2
_OPEN
 10
328.3542860532090
 20
352.6935029065030
 30
0.0000000000000000
 41
2.000000000000000
 42
2.000000000000000
 43
2.000000000000000
 50
270.0000000000000
  0
LINE
  5
1C7
100
AcDbEntity
  8
MAIN10
  6
BYBLOCK
 62
0
100
AcDbLine
 10
305.0869732435261
 20
352.6935029065030
 30
0.0000000000000000
 11
330.3542860532090
 21
352.6935029065030
 31
0.0000000000000000
  0
MTEXT
  5
1C8
100
AcDbEntity
  8
MAIN10
  6
BYBLOCK
 62
0
100
AcDbMText
 10
326.3042861008927
 20
364.6935029065030
 30
0.0000000000000000
 40
3.099999904632568
 41
0.0000000000000000
 71
     5
 72
     1
  1
\A1;24
 11
6.123233995736766e-017
 21
1.000000000000000
 31
0.0000000000000000
  7
STANDARD
  0
ENDBLK
  5
1C9
100
AcDbEntity
  8
MAIN10
  6
CONTINUOUS
 62
3
100
AcDbBlockEnd
  0
BLOCK
  5
1CB
100
AcDbEntity
  8
MAIN10
  6
CONTINUOUS
 62
3
100
AcDbBlockBegin
  2
*D18
 70
    65
 10
0.0
 20
0.0
 30
0.0
  0
LINE
  5
1CC
100
AcDbEntity
  8
MAIN10
  6
BYBLOCK
 62
0
100
AcDbLine
 10
305.0869732435261
 20
352.6935029065030
 30
0.0000000000000000
 11
330.3542860532090
 21
352.6935029065030
 31
0.0000000000000000
  0
LINE
  5
1CD
100
AcDbEntity
  8
MAIN10
  6
BYBLOCK
 62
0
100
AcDbLine
 10
328.3542860532090
 20
350.6935029065030
 30
0.0000000000000000
 11
328.3542860532090
 21
329.6935029065030
 31
0.0000000000000000
  0
INSERT
  5
1CE
100
AcDbEntity
  8
MAIN10
  6
BYBLOCK
 62
0
100
AcDbBlockReference
  2
_OPEN
 10
328.3542860532090
 20
352.6935029065030
 30
0.0000000000000000
 41
2.000000000000000
 42
2.000000000000000
 43
2.000000000000000
 50
90.00000000000000
  0
INSERT
  5
1CF
100
AcDbEntity
  8
MAIN10
  6
BYBLOCK
 62
0
100
AcDbBlockReference
  2
_OPEN
 10
328.3542860532090
 20
327.6935029065030
 30
0.0000000000000000
 41
2.000000000000000
 42
2.000000000000000
 43
2.000000000000000
 50
270.0000000000000
  0
LINE
  5
1D0
100
AcDbEntity
  8
MAIN10
  6
BYBLOCK
 62
0
100
AcDbLine
 10
305.0869732435262
 20
327.6935029065030
 30
0.0000000000000000
 11
330.3542860532090
 21
327.6935029065030
 31
0.0000000000000000
  0
MTEXT
  5
1D1
100
AcDbEntity
  8
MAIN10
  6
BYBLOCK
 62
0
100
AcDbMText
 10
326.3042861008927
 20
340.1935029065030
 30
0.0000000000000000
 40
3.099999904632568
 41
0.0000000000000000
 71
     5
 72
     1
  1
\A1;25
 11
6.123233995736766e-017
 21
1.000000000000000
 31
0.0000000000000000
  7
STANDARD
  0
ENDBLK
  5
1D2
100
AcDbEntity
  8
MAIN10
  6
CONTINUOUS
 62
3
100
AcDbBlockEnd
  0
BLOCK
  5
1D4
100
AcDbEntity
  8
MAIN10
  6
CONTINUOUS
 62
3
100
AcDbBlockBegin
  2
*D19
 70
    65
 10
0.0
 20
0.0
 30
0.0
  0
LINE
  5
1D5
100
AcDbEntity
  8
MAIN10
  6
BYBLOCK
 62
0
100
AcDbLine
 10
305.0869732435262
 20
327.6935029065030
 30
0.0000000000000000
 11
330.3542860532090
 21
327.6935029065030
 31
0.0000000000000000
  0
LINE
  5
1D6
100
AcDbEntity
  8
MAIN10
  6
BYBLOCK
 62
0
100
AcDbLine
 10
328.3542860532090
 20
325.6935029065030
 30
0.0000000000000000
 11
328.3542860532090
 21
283.6935029065031
 31
0.0000000000000000
  0
INSERT
  5
1D7
100
AcDbEntity
  8
MAIN10
  6
BYBLOCK
 62
0
100
AcDbBlockReference
  2
_OPEN
 10
328.3542860532090
 20
327.6935029065030
 30
0.0000000000000000
 41
2.000000000000000
 42
2.000000000000000
 43
2.000000000000000
 50
90.00000000000000
  0
INSERT
  5
1D8
100
AcDbEntity
  8
MAIN10
  6
BYBLOCK
 62
0
100
AcDbBlockReference
  2
_OPEN
 10
328.3542860532090
 20
281.6935029065031
 30
0.0000000000000000
 41
2.000000000000000
 42
2.000000000000000
 43
2.000000000000000
 50
270.0000000000000
  0
LINE
  5
1D9
100
AcDbEntity
  8
MAIN10
  6
BYBLOCK
 62
0
100
AcDbLine
 10
301.1542860651301
 20
281.6935029065031
 30
0.0000000000000000
 11
330.3542860532090
 21
281.6935029065031
 31
0.0000000000000000
  0
MTEXT
  5
1DA
100
AcDbEntity
  8
MAIN10
  6
BYBLOCK
 62
0
100
AcDbMText
 10
326.3042861008927
 20
304.6935029065030
 30
0.0000000000000000
 40
3.099999904632568
 41
0.0000000000000000
 71
     5
 72
     1
  1
\A1;46
 11
6.123233995736766e-017
 21
1.000000000000000
 31
0.0000000000000000
  7
STANDARD
  0
ENDBLK
  5
1DB
100
AcDbEntity
  8
MAIN10
  6
CONTINUOUS
 62
3
100
AcDbBlockEnd
  0
BLOCK
  5
1DD
100
AcDbEntity
  8
MAIN10
  6
CONTINUOUS
 62
3
100
AcDbBlockBegin
  2
*D20
 70
    65
 10
0.0
 20
0.0
 30
0.0
  0
LINE
  5
1DE
100
AcDbEntity
  8
MAIN10
  6
BYBLOCK
 62
0
100
AcDbLine
 10
305.0869732435262
 20
327.6935029065030
 30
0.0000000000000000
 11
315.3542860532090
 21
327.6935029065030
 31
0.0000000000000000
  0
LINE
  5
1DF
100
AcDbEntity
  8
MAIN10
  6
BYBLOCK
 62
0
100
AcDbLine
 10
313.3542860532090
 20
327.6935029065030
 30
0.0000000000000000
 11
313.3542860532090
 21
315.9435029065030
 31
0.0000000000000000
  0
INSERT
  5
1E0
100
AcDbEntity
  8
MAIN10
  6
BYBLOCK
 62
0
100
AcDbBlockReference
  2
_OPEN
 10
313.3542860532090
 20
327.6935029065030
 30
0.0000000000000000
 41
2.000000000000000
 42
2.000000000000000
 43
2.000000000000000
 50
270.0000000000000
  0
INSERT
  5
1E1
100
AcDbEntity
  8
MAIN10
  6
BYBLOCK
 62
0
100
AcDbBlockReference
  2
_OPEN
 10
313.3542860532090
 20
315.9435029065030
 30
0.0000000000000000
 41
2.000000000000000
 42
2.000000000000000
 43
2.000000000000000
 50
90.00000000000000
  0
LINE
  5
1E2
100
AcDbEntity
  8
MAIN10
  6
BYBLOCK
 62
0
100
AcDbLine
 10
313.3542860532090
 20
329.6935029065030
 30
0.0000000000000000
 11
313.3542860532090
 21
348.6430287396329
 31
0.0000000000000000
  0
LINE
  5
1E3
100
AcDbEntity
  8
MAIN10
  6
BYBLOCK
 62
0
100
AcDbLine
 10
313.3542860532090
 20
313.9435029065030
 30
0.0000000000000000
 11
313.3542860532090
 21
312.9435029065030
 31
0.0000000000000000
  0
LINE
  5
1E4
100
AcDbEntity
  8
MAIN10
  6
BYBLOCK
 62
0
100
AcDbLine
 10
263.1542860651300
 20
315.9435029065030
 30
0.0000000000000000
 11
315.3542860532090
 21
315.9435029065030
 31
0.0000000000000000
  0
MTEXT
  5
1E5
100
AcDbEntity
  8
MAIN10
  6
BYBLOCK
 62
0
100
AcDbMText
 10
311.3042861008927
 20
339.1930294349016
 30
0.0000000000000000
 40
3.099999904632568
 41
0.0000000000000000
 71
     5
 72
     1
  1
\A1;MAX 22.25
 11
6.123233995736766e-017
 21
1.000000000000000
 31
0.0000000000000000
  7
STANDARD
  0
ENDBLK
  5
1E6
100
AcDbEntity
  8
MAIN10
  6
CONTINUOUS
 62
3
100
AcDbBlockEnd
  0
BLOCK
  5
1E8
100
AcDbEntity
  8
MAIN10
  6
CONTINUOUS
 62
3
100
AcDbBlockBegin
  2
*D21
 70
    65
 10
0.0
 20
0.0
 30
0.0
  0
LINE
  5
1E9
100
AcDbEntity
  8
MAIN10
  6
BYBLOCK
 62
0
100
AcDbLine
 10
263.1542860651300
 20
315.9435029065030
 30
0.0000000000000000
 11
315.3542860532090
 21
315.9435029065030
 31
0.0000000000000000
  0
LINE
  5
1EA
100
AcDbEntity
  8
MAIN10
  6
BYBLOCK
 62
0
100
AcDbLine
 10
313.3542860532090
 20
313.9435029065030
 30
0.0000000000000000
 11
313.3542860532090
 21
271.6435029065030
 31
0.0000000000000000
  0
INSERT
  5
1EB
100
AcDbEntity
  8
MAIN10
  6
BYBLOCK
 62
0
100
AcDbBlockReference
  2
_OPEN
 10
313.3542860532090
 20
315.9435029065030
 30
0.0000000000000000
 41
2.000000000000000
 42
2.000000000000000
 43
2.000000000000000
 50
90.00000000000000
  0
INSERT
  5
1EC
100
AcDbEntity
  8
MAIN10
  6
BYBLOCK
 62
0
100
AcDbBlockReference
  2
_OPEN
 10
313.3542860532090
 20
269.6435029065030
 30
0.0000000000000000
 41
2.000000000000000
 42
2.000000000000000
 43
2.000000000000000
 50
270.0000000000000
  0
LINE
  5
1ED
100
AcDbEntity
  8
MAIN10
  6
BYBLOCK
 62
0
100
AcDbLine
 10
292.3119418533652
 20
269.6435029065030
 30
0.0000000000000000
 11
315.3542860532090
 21
269.6435029065030
 31
0.0000000000000000
  0
MTEXT
  5
1EE
100
AcDbEntity
  8
MAIN10
  6
BYBLOCK
 62
0
100
AcDbMText
 10
311.3042861008927
 20
292.7935029065030
 30
0.0000000000000000
 40
3.099999904632568
 41
0.0000000000000000
 71
     5
 72
     1
  1
\A1;MAX 46.3
 11
6.123233995736766e-017
 21
1.000000000000000
 31
0.0000000000000000
  7
STANDARD
  0
ENDBLK
  5
1EF
100
AcDbEntity
  8
MAIN10
  6
CONTINUOUS
 62
3
100
AcDbBlockEnd
  0
BLOCK
  5
1F1
100
AcDbEntity
  8
MAIN10
  6
CONTINUOUS
 62
3
100
AcDbBlockBegin
  2
*D22
 70
    65
 10
0.0
 20
0.0
 30
0.0
  0
LINE
  5
1F2
100
AcDbEntity
  8
MAIN10
  6
BYBLOCK
 62
0
100
AcDbLine
 10
300.3542860532091
 20
377.4935029184239
 30
0.0000000000000000
 11
300.3542860532091
 21
391.6435029065030
 31
0.0000000000000000
  0
LINE
  5
1F3
100
AcDbEntity
  8
MAIN10
  6
BYBLOCK
 62
0
100
AcDbLine
 10
298.3542860532091
 20
389.6435029065030
 30
0.0000000000000000
 11
260.3542860532091
 21
389.6435029065030
 31
0.0000000000000000
  0
INSERT
  5
1F4
100
AcDbEntity
  8
MAIN10
  6
BYBLOCK
 62
0
100
AcDbBlockReference
  2
_OPEN
 10
300.3542860532091
 20
389.6435029065030
 30
0.0000000000000000
 41
2.000000000000000
 42
2.000000000000000
 43
2.000000000000000
 50
360.0000000000000
  0
INSERT
  5
1F5
100
AcDbEntity
  8
MAIN10
  6
BYBLOCK
 62
0
100
AcDbBlockReference
  2
_OPEN
 10
258.3542860532091
 20
389.6435029065030
 30
0.0000000000000000
 41
2.000000000000000
 42
2.000000000000000
 43
2.000000000000000
 50
180.0000000000000
  0
LINE
  5
1F6
100
AcDbEntity
  8
MAIN10
  6
BYBLOCK
 62
0
100
AcDbLine
 10
258.3542860532091
 20
375.4435029184239
 30
0.0000000000000000
 11
258.3542860532091
 21
391.6435029065030
 31
0.0000000000000000
  0
MTEXT
  5
1F7
100
AcDbEntity
  8
MAIN10
  6
BYBLOCK
 62
0
100
AcDbMText
 10
279.3542860532091
 20
391.6935028588193
 30
0.0000000000000000
 40
3.099999904632568
 41
0.0000000000000000
 71
     5
 72
     1
  1
\A1;42
 11
1.000000000000000
 21
0.0000000000000000
 31
0.0000000000000000
  7
STANDARD
  0
ENDBLK
  5
1F8
100
AcDbEntity
  8
MAIN10
  6
CONTINUOUS
 62
3
100
AcDbBlockEnd
  0
BLOCK
  5
1FC
100
AcDbEntity
  8
MAIN10
  6
CONTINUOUS
 62
3
100
AcDbBlockBegin
  2
*D23
 70
    65
 10
0.0
 20
0.0
 30
0.0
  0
LINE
  5
1FD
100
AcDbEntity
  8
MAIN10
  6
BYBLOCK
 62
0
100
AcDbLine
 10
262.4222352575605
 20
90.05699353386552
 30
0.0000000000000000
 11
300.3542860532090
 21
90.05699353386552
 31
0.0000000000000000
  0
LINE
  5
1FE
100
AcDbEntity
  8
MAIN10
  6
BYBLOCK
 62
0
100
AcDbLine
 10
298.3542860532090
 20
88.05699353386552
 30
0.0000000000000000
 11
298.3542860532090
 21
57.05699353386549
 31
0.0000000000000000
  0
INSERT
  5
1FF
100
AcDbEntity
  8
MAIN10
  6
BYBLOCK
 62
0
100
AcDbBlockReference
  2
_OPEN
 10
298.3542860532090
 20
90.05699353386552
 30
0.0000000000000000
 41
2.000000000000000
 42
2.000000000000000
 43
2.000000000000000
 50
90.00000000000000
  0
INSERT
  5
200
100
AcDbEntity
  8
MAIN10
  6
BYBLOCK
 62
0
100
AcDbBlockReference
  2
_OPEN
 10
298.3542860532090
 20
55.05699353386549
 30
0.0000000000000000
 41
2.000000000000000
 42
2.000000000000000
 43
2.000000000000000
 50
270.0000000000000
  0
LINE
  5
201
100
AcDbEntity
  8
MAIN10
  6
BYBLOCK
 62
0
100
AcDbLine
 10
262.4222352575605
 20
55.05699353386549
 30
0.0000000000000000
 11
300.3542860532090
 21
55.05699353386549
 31
0.0000000000000000
  0
MTEXT
  5
202
100
AcDbEntity
  8
MAIN10
  6
BYBLOCK
 62
0
100
AcDbMText
 10
296.3042861008927
 20
72.55699353386552
 30
0.0000000000000000
 40
3.099999904632568
 41
0.0000000000000000
 71
     5
 72
     1
  1
\A1;35
 11
6.123233995736766e-017
 21
1.000000000000000
 31
0.0000000000000000
  7
STANDARD
  0
ENDBLK
  5
203
100
AcDbEntity
  8
MAIN10
  6
CONTINUOUS
 62
3
100
AcDbBlockEnd
  0
BLOCK
  5
205
100
AcDbEntity
  8
MAIN10
  6
CONTINUOUS
 62
3
100
AcDbBlockBegin
  2
*D24
 70
    65
 10
0.0
 20
0.0
 30
0.0
  0
LINE
  5
206
100
AcDbEntity
  8
MAIN10
  6
BYBLOCK
 62
0
100
AcDbLine
 10
267.1542860651298
 20
79.55699353386552
 30
0.0000000000000000
 11
285.3542860532090
 21
79.55699353386552
 31
0.0000000000000000
  0
LINE
  5
207
100
AcDbEntity
  8
MAIN10
  6
BYBLOCK
 62
0
100
AcDbLine
 10
283.3542860532090
 20
77.55699353386552
 30
0.0000000000000000
 11
283.3542860532090
 21
67.55699353386549
 31
0.0000000000000000
  0
INSERT
  5
208
100
AcDbEntity
  8
MAIN10
  6
BYBLOCK
 62
0
100
AcDbBlockReference
  2
_OPEN
 10
283.3542860532090
 20
79.55699353386552
 30
0.0000000000000000
 41
2.000000000000000
 42
2.000000000000000
 43
2.000000000000000
 50
90.00000000000000
  0
INSERT
  5
209
100
AcDbEntity
  8
MAIN10
  6
BYBLOCK
 62
0
100
AcDbBlockReference
  2
_OPEN
 10
283.3542860532090
 20
65.55699353386549
 30
0.0000000000000000
 41
2.000000000000000
 42
2.000000000000000
 43
2.000000000000000
 50
270.0000000000000
  0
LINE
  5
20A
100
AcDbEntity
  8
MAIN10
  6
BYBLOCK
 62
0
100
AcDbLine
 10
267.1542860651298
 20
65.55699353386549
 30
0.0000000000000000
 11
285.3542860532090
 21
65.55699353386549
 31
0.0000000000000000
  0
MTEXT
  5
20B
100
AcDbEntity
  8
MAIN10
  6
BYBLOCK
 62
0
100
AcDbMText
 10
281.3042861008927
 20
72.55699353386552
 30
0.0000000000000000
 40
3.099999904632568
 41
0.0000000000000000
 71
     5
 72
     1
  1
\A1;14
 11
6.123233995736766e-017
 21
1.000000000000000
 31
0.0000000000000000
  7
STANDARD
  0
ENDBLK
  5
20C
100
AcDbEntity
  8
MAIN10
  6
CONTINUOUS
 62
3
100
AcDbBlockEnd
  0
BLOCK
  5
20E
100
AcDbEntity
  8
MAIN10
  6
CONTINUOUS
 62
3
100
AcDbBlockBegin
  2
*D25
 70
    65
 10
0.0
 20
0.0
 30
0.0
  0
LINE
  5
20F
100
AcDbEntity
  8
MAIN10
  6
BYBLOCK
 62
0
100
AcDbLine
 10
266.3542860532089
 20
80.35699354578642
 30
0.0000000000000000
 11
266.3542860532089
 21
111.6435029065030
 31
0.0000000000000000
  0
LINE
  5
210
100
AcDbEntity
  8
MAIN10
  6
BYBLOCK
 62
0
100
AcDbLine
 10
266.3542860532089
 20
109.6435029065030
 30
0.0000000000000000
 11
264.3542860532089
 21
109.6435029065030
 31
0.0000000000000000
  0
INSERT
  5
211
100
AcDbEntity
  8
MAIN10
  6
BYBLOCK
 62
0
100
AcDbBlockReference
  2
_OPEN
 10
266.3542860532089
 20
109.6435029065030
 30
0.0000000000000000
 41
2.000000000000000
 42
2.000000000000000
 43
2.000000000000000
 50
180.0000000000000
  0
INSERT
  5
212
100
AcDbEntity
  8
MAIN10
  6
BYBLOCK
 62
0
100
AcDbBlockReference
  2
_DOT
 10
263.3542860532089
 20
109.6435029065030
 30
0.0000000000000000
 41
1.000000000000000
 42
1.000000000000000
 43
1.000000000000000
 50
180.0000000000000
  0
LINE
  5
213
100
AcDbEntity
  8
MAIN10
  6
BYBLOCK
 62
0
100
AcDbLine
 10
268.3542860532089
 20
109.6435029065030
 30
0.0000000000000000
 11
270.4909966969772
 21
109.6435029065030
 31
0.0000000000000000
  0
LINE
  5
214
100
AcDbEntity
  8
MAIN10
  6
BYBLOCK
 62
0
100
AcDbLine
 10
263.3542860532089
 20
89.85699354578617
 30
0.0000000000000000
 11
263.3542860532089
 21
111.6435029065030
 31
0.0000000000000000
  0
MTEXT
  5
215
100
AcDbEntity
  8
MAIN10
  6
BYBLOCK
 62
0
100
AcDbMText
 10
269.4409965451758
 20
111.6935028588193
 30
0.0000000000000000
 40
3.099999904632568
 41
0.0000000000000000
 71
     5
 72
     1
  1
\A1;3
 11
1.000000000000000
 21
0.0000000000000000
 31
0.0000000000000000
  7
STANDARD
  0
ENDBLK
  5
216
100
AcDbEntity
  8
MAIN10
  6
CONTINUOUS
 62
3
100
AcDbBlockEnd
  0
BLOCK
  5
218
100
AcDbEntity
  8
MAIN10
  6
CONTINUOUS
 62
3
100
AcDbBlockBegin
  2
*D26
 70
    65
 10
0.0
 20
0.0
 30
0.0
  0
LINE
  5
219
100
AcDbEntity
  8
MAIN10
  6
BYBLOCK
 62
0
100
AcDbLine
 10
263.3542860532089
 20
89.85699354578617
 30
0.0000000000000000
 11
263.3542860532089
 21
111.6435029065030
 31
0.0000000000000000
  0
LINE
  5
21A
100
AcDbEntity
  8
MAIN10
  6
BYBLOCK
 62
0
100
AcDbLine
 10
262.3542860532089
 20
109.6435029065030
 30
0.0000000000000000
 11
258.3542860532089
 21
109.6435029065030
 31
0.0000000000000000
  0
INSERT
  5
21B
100
AcDbEntity
  8
MAIN10
  6
BYBLOCK
 62
0
100
AcDbBlockReference
  2
_DOT
 10
263.3542860532089
 20
109.6435029065030
 30
0.0000000000000000
 41
1.000000000000000
 42
1.000000000000000
 43
1.000000000000000
 50
360.0000000000000
  0
INSERT
  5
21C
100
AcDbEntity
  8
MAIN10
  6
BYBLOCK
 62
0
100
AcDbBlockReference
  2
_OPEN
 10
258.3542860532089
 20
109.6435029065030
 30
0.0000000000000000
 41
2.000000000000000
 42
2.000000000000000
 43
2.000000000000000
 50
360.0000000000000
  0
LINE
  5
21D
100
AcDbEntity
  8
MAIN10
  6
BYBLOCK
 62
0
100
AcDbLine
 10
256.3542860532089
 20
109.6435029065030
 30
0.0000000000000000
 11
255.2846456551834
 21
109.6435029065030
 31
0.0000000000000000
  0
MTEXT
  5
21E
100
AcDbEntity
  8
MAIN10
  6
BYBLOCK
 62
0
100
AcDbMText
 10
256.3346457276913
 20
111.6935028588193
 30
0.0000000000000000
 40
3.099999904632568
 41
0.0000000000000000
 71
     5
 72
     1
  1
\A1;5
 11
1.000000000000000
 21
0.0000000000000000
 31
0.0000000000000000
  7
STANDARD
  0
ENDBLK
  5
21F
100
AcDbEntity
  8
MAIN10
  6
CONTINUOUS
 62
3
100
AcDbBlockEnd
  0
BLOCK
  5
221
100
AcDbEntity
  8
MAIN10
  6
CONTINUOUS
 62
3
100
AcDbBlockBegin
  2
*D27
 70
    65
 10
0.0
 20
0.0
 30
0.0
  0
LINE
  5
222
100
AcDbEntity
  8
MAIN10
  6
BYBLOCK
 62
0
100
AcDbLine
 10
441.1949624817243
 20
377.4935029184240
 30
0.0000000000000000
 11
441.1949624817243
 21
391.6435029065030
 31
0.0000000000000000
  0
LINE
  5
223
100
AcDbEntity
  8
MAIN10
  6
BYBLOCK
 62
0
100
AcDbLine
 10
443.1949624817243
 20
389.6435029065030
 30
0.0000000000000000
 11
474.1949624817243
 21
389.6435029065030
 31
0.0000000000000000
  0
INSERT
  5
224
100
AcDbEntity
  8
MAIN10
  6
BYBLOCK
 62
0
100
AcDbBlockReference
  2
_OPEN
 10
441.1949624817243
 20
389.6435029065030
 30
0.0000000000000000
 41
2.000000000000000
 42
2.000000000000000
 43
2.000000000000000
 50
180.0000000000000
  0
INSERT
  5
225
100
AcDbEntity
  8
MAIN10
  6
BYBLOCK
 62
0
100
AcDbBlockReference
  2
_OPEN
 10
476.1949624817243
 20
389.6435029065030
 30
0.0000000000000000
 41
2.000000000000000
 42
2.000000000000000
 43
2.000000000000000
 50
0.0000000000000000
  0
LINE
  5
226
100
AcDbEntity
  8
MAIN10
  6
BYBLOCK
 62
0
100
AcDbLine
 10
476.1949624817243
 20
377.4935029184239
 30
0.0000000000000000
 11
476.1949624817243
 21
391.6435029065030
 31
0.0000000000000000
  0
MTEXT
  5
227
100
AcDbEntity
  8
MAIN10
  6
BYBLOCK
 62
0
100
AcDbMText
 10
458.6949624817243
 20
391.6935028588193
 30
0.0000000000000000
 40
3.099999904632568
 41
0.0000000000000000
 71
     5
 72
     1
  1
\A1;35
 11
1.000000000000000
 21
0.0000000000000000
 31
0.0000000000000000
  7
STANDARD
  0
ENDBLK
  5
228
100
AcDbEntity
  8
MAIN10
  6
CONTINUOUS
 62
3
100
AcDbBlockEnd
  0
BLOCK
  5
22A
100
AcDbEntity
  8
MAIN10
  6
CONTINUOUS
 62
3
100
AcDbBlockBegin
  2
*D28
 70
    65
 10
0.0
 20
0.0
 30
0.0
  0
ARC
  5
22B
100
AcDbEntity
  8
MAIN10
  6
BYBLOCK
 62
0
100
AcDbCircle
 10
458.6949624817255
 20
269.6435029065030
 30
0.0000000000000000
 40
115.0005046094535
100
AcDbArc
 50
330.9964439670530
 51
359.0035560329468
  0
INSERT
  5
22C
100
AcDbEntity
  8
MAIN10
  6
BYBLOCK
 62
0
100
AcDbBlockReference
  2
_OPEN
 10
558.2883209215415
 20
212.1432506017760
 30
0.0000000000000000
 41
2.000000000000000
 42
2.000000000000000
 43
2.000000000000000
 50
239.9999999999999
  0
INSERT
  5
22D
100
AcDbEntity
  8
MAIN10
  6
BYBLOCK
 62
0
100
AcDbBlockReference
  2
_OPEN
 10
573.6954670911790
 20
269.6435029065030
 30
0.0000000000000000
 41
2.000000000000000
 42
2.000000000000000
 43
2.000000000000000
 50
90.00000000000000
  0
MTEXT
  5
22E
100
AcDbEntity
  8
MAIN10
  6
BYBLOCK
 62
0
100
AcDbMText
 10
567.7967720224381
 20
240.4097611472948
 30
0.0000000000000000
 40
3.099999904632568
 41
0.0000000000000000
 71
     5
 72
     1
  1
\A1;30\U+00B0
 11
0.2588190451025222
 21
0.9659258262890679
 31
0.0000000000000000
  7
STANDARD
  0
ENDBLK
  5
22F
100
AcDbEntity
  8
MAIN10
  6
CONTINUOUS
 62
3
100
AcDbBlockEnd
  0
BLOCK
  5
231
100
AcDbEntity
  8
MAIN10
  6
CONTINUOUS
 62
3
100
AcDbBlockBegin
  2
*D29
 70
    65
 10
0.0
 20
0.0
 30
0.0
  0
LINE
  5
232
100
AcDbEntity
  8
MAIN10
  6
BYBLOCK
 62
0
100
AcDbLine
 10
537.6202174568437
 20
290.7914612395059
 30
0.0000000000000000
 11
571.7087715728501
 21
299.9254617860341
 31
0.0000000000000000
  0
ARC
  5
233
100
AcDbEntity
  8
MAIN10
  6
BYBLOCK
 62
0
100
AcDbCircle
 10
458.6949624817255
 20
269.6435029065030
 30
0.0000000000000000
 40
115.0005046094535
100
AcDbArc
 50
0.9964439670532084
 51
14.00355603294637
  0
INSERT
  5
234
100
AcDbEntity
  8
MAIN10
  6
BYBLOCK
 62
0
100
AcDbBlockReference
  2
_OPEN
 10
573.6954670911790
 20
269.6435029065030
 30
0.0000000000000000
 41
2.000000000000000
 42
2.000000000000000
 43
2.000000000000000
 50
270.0000000000000
  0
INSERT
  5
235
100
AcDbEntity
  8
MAIN10
  6
BYBLOCK
 62
0
100
AcDbBlockReference
  2
_OPEN
 10
569.7769199202719
 20
299.4078236958291
 30
0.0000000000000000
 41
2.000000000000000
 42
2.000000000000000
 43
2.000000000000000
 50
104.9999999999996
  0
MTEXT
  5
236
100
AcDbEntity
  8
MAIN10
  6
BYBLOCK
 62
0
100
AcDbMText
 10
570.6791599136229
 20
284.3865021887320
 30
0.0000000000000000
 40
3.099999904632568
 41
0.0000000000000000
 71
     5
 72
     1
  1
\A1;15\U+00B0
 11
-0.1305261922200479
 21
0.9914448613738109
 31
0.0000000000000000
  7
STANDARD
  0
ENDBLK
  5
237
100
AcDbEntity
  8
MAIN10
  6
CONTINUOUS
 62
3
100
AcDbBlockEnd
  0
BLOCK
  5
239
100
AcDbEntity
  8
MAIN10
  6
CONTINUOUS
 62
3
100
AcDbBlockBegin
  2
*D30
 70
    65
 10
0.0
 20
0.0
 30
0.0
  0
LINE
  5
23A
100
AcDbEntity
  8
MAIN10
  6
BYBLOCK
 62
0
100
AcDbLine
 10
537.6202174568437
 20
290.7914612395059
 30
0.0000000000000000
 11
571.7087715728501
 21
299.9254617860341
 31
0.0000000000000000
  0
LINE
  5
23B
100
AcDbEntity
  8
MAIN10
  6
BYBLOCK
 62
0
100
AcDbLine
 10
530.7901402273151
 20
311.2676731851929
 30
0.0000000000000000
 11
560.0203717291107
 21
328.1437552112296
 31
0.0000000000000000
  0
ARC
  5
23C
100
AcDbEntity
  8
MAIN10
  6
BYBLOCK
 62
0
100
AcDbCircle
 10
458.6949624817255
 20
269.6435029065030
 30
0.0000000000000000
 40
115.0005046094535
100
AcDbArc
 50
15.99644396705279
 51
29.00355603294670
  0
INSERT
  5
23D
100
AcDbEntity
  8
MAIN10
  6
BYBLOCK
 62
0
100
AcDbBlockReference
  2
_OPEN
 10
569.7769199202719
 20
299.4078236958291
 30
0.0000000000000000
 41
2.000000000000000
 42
2.000000000000000
 43
2.000000000000000
 50
284.9999999999996
  0
INSERT
  5
23E
100
AcDbEntity
  8
MAIN10
  6
BYBLOCK
 62
0
100
AcDbBlockReference
  2
_OPEN
 10
558.2883209215418
 20
327.1437552112296
 30
0.0000000000000000
 41
2.000000000000000
 42
2.000000000000000
 43
2.000000000000000
 50
119.9999999999999
  0
MTEXT
  5
23F
100
AcDbEntity
  8
MAIN10
  6
BYBLOCK
 62
0
100
AcDbMText
 10
563.0476219212757
 20
312.8677897160649
 30
0.0000000000000000
 40
3.099999904632568
 41
0.0000000000000000
 71
     5
 72
     1
  1
\A1;15\U+00B0
 11
-0.3826834323650856
 21
0.9238795325112885
 31
0.0000000000000000
  7
STANDARD
  0
ENDBLK
  5
240
100
AcDbEntity
  8
MAIN10
  6
CONTINUOUS
 62
3
100
AcDbBlockEnd
  0
BLOCK
  5
242
100
AcDbEntity
  8
MAIN10
  6
CONTINUOUS
 62
3
100
AcDbBlockBegin
  2
*D31
 70
    65
 10
0.0
 20
0.0
 30
0.0
  0
LINE
  5
243
100
AcDbEntity
  8
MAIN10
  6
BYBLOCK
 62
0
100
AcDbLine
 10
530.7901402273151
 20
311.2676731851929
 30
0.0000000000000000
 11
560.0203717291107
 21
328.1437552112296
 31
0.0000000000000000
  0
LINE
  5
244
100
AcDbEntity
  8
MAIN10
  6
BYBLOCK
 62
0
100
AcDbLine
 10
516.4722591238410
 20
327.4207995486185
 30
0.0000000000000000
 11
541.4268126933181
 21
352.3753531180956
 31
0.0000000000000000
  0
ARC
  5
245
100
AcDbEntity
  8
MAIN10
  6
BYBLOCK
 62
0
100
AcDbCircle
 10
458.6949624817255
 20
269.6435029065030
 30
0.0000000000000000
 40
115.0005046094535
100
AcDbArc
 50
30.99644396705311
 51
44.00355603294679
  0
INSERT
  5
246
100
AcDbEntity
  8
MAIN10
  6
BYBLOCK
 62
0
100
AcDbBlockReference
  2
_OPEN
 10
558.2883209215418
 20
327.1437552112296
 30
0.0000000000000000
 41
2.000000000000000
 42
2.000000000000000
 43
2.000000000000000
 50
299.9999999999999
  0
INSERT
  5
247
100
AcDbEntity
  8
MAIN10
  6
BYBLOCK
 62
0
100
AcDbBlockReference
  2
_OPEN
 10
540.0125991309449
 20
350.9611395557224
 30
0.0000000000000000
 41
2.000000000000000
 42
2.000000000000000
 43
2.000000000000000
 50
135.0000000000000
  0
MTEXT
  5
248
100
AcDbEntity
  8
MAIN10
  6
BYBLOCK
 62
0
100
AcDbMText
 10
551.5573712585801
 20
340.8993353297178
 30
0.0000000000000000
 40
3.099999904632568
 41
0.0000000000000000
 71
     5
 72
     1
  1
\A1;15\U+00B0
 11
0.6087614290087199
 21
-0.7933533402912357
 31
0.0000000000000000
  7
STANDARD
  0
ENDBLK
  5
249
100
AcDbEntity
  8
MAIN10
  6
CONTINUOUS
 62
3
100
AcDbBlockEnd
  0
BLOCK
  5
24B
100
AcDbEntity
  8
MAIN10
  6
CONTINUOUS
 62
3
100
AcDbBlockBegin
  2
*D32
 70
    65
 10
0.0
 20
0.0
 30
0.0
  0
LINE
  5
24C
100
AcDbEntity
  8
MAIN10
  6
BYBLOCK
 62
0
100
AcDbLine
 10
516.4722591238410
 20
327.4207995486185
 30
0.0000000000000000
 11
541.4268126933181
 21
352.3753531180956
 31
0.0000000000000000
  0
ARC
  5
24D
100
AcDbEntity
  8
MAIN10
  6
BYBLOCK
 62
0
100
AcDbCircle
 10
458.6949624817255
 20
269.6435029065030
 30
0.0000000000000000
 40
115.0005046094535
100
AcDbArc
 50
45.99644396705320
 51
89.00355603294756
  0
INSERT
  5
24E
100
AcDbEntity
  8
MAIN10
  6
BYBLOCK
 62
0
100
AcDbBlockReference
  2
_OPEN
 10
540.0125991309449
 20
350.9611395557224
 30
0.0000000000000000
 41
2.000000000000000
 42
2.000000000000000
 43
2.000000000000000
 50
315.0000000000000
  0
INSERT
  5
24F
100
AcDbEntity
  8
MAIN10
  6
BYBLOCK
 62
0
100
AcDbBlockReference
  2
_OPEN
 10
458.6949624817240
 20
384.6440075159566
 30
0.0000000000000000
 41
2.000000000000000
 42
2.000000000000000
 43
2.000000000000000
 50
180.0000000000008
  0
MTEXT
  5
250
100
AcDbEntity
  8
MAIN10
  6
BYBLOCK
 62
0
100
AcDbMText
 10
503.4882513274885
 20
377.7840683412415
 30
0.0000000000000000
 40
3.099999904632568
 41
0.0000000000000000
 71
     5
 72
     1
  1
\A1;45\U+00B0
 11
0.9238795325112892
 21
-0.3826834323650838
 31
0.0000000000000000
  7
STANDARD
  0
ENDBLK
  5
251
100
AcDbEntity
  8
MAIN10
  6
CONTINUOUS
 62
3
100
AcDbBlockEnd
  0
BLOCK
  5
253
100
AcDbEntity
  8
MAIN10
  6
CONTINUOUS
 62
3
100
AcDbBlockBegin
  2
*D33
 70
    65
 10
0.0
 20
0.0
 30
0.0
  0
LINE
  5
254
100
AcDbEntity
  8
MAIN10
  6
BYBLOCK
 62
0
100
AcDbLine
 10
523.1775246362738
 20
264.6580437516514
 30
0.0000000000000000
 11
394.2124003271755
 21
274.6289620613548
 31
0.0000000000000000
  0
INSERT
  5
255
100
AcDbEntity
  8
MAIN10
  6
BYBLOCK
 62
0
100
AcDbBlockReference
  2
_OPEN
 10
525.1715737172031
 20
264.5038741604693
 30
0.0000000000000000
 41
2.000000000000000
 42
2.000000000000000
 43
2.000000000000000
 50
355.5789808230344
  0
INSERT
  5
256
100
AcDbEntity
  8
MAIN10
  6
BYBLOCK
 62
0
100
AcDbBlockReference
  2
_OPEN
 10
392.2183512462462
 20
274.7831316525369
 30
0.0000000000000000
 41
2.000000000000000
 42
2.000000000000000
 43
2.000000000000000
 50
175.5789808230344
  0
MTEXT
  5
257
100
AcDbEntity
  8
MAIN10
  6
BYBLOCK
 62
0
100
AcDbMText
 10
428.3051611609020
 20
274.0492034654259
 30
0.0000000000000000
 40
3.099999904632568
 41
0.0000000000000000
 71
     5
 72
     1
  1
\A1;\U+2205133.4
 11
0.9970245404646190
 21
-0.07708479559105948
 31
0.0000000000000000
  7
STANDARD
  0
ENDBLK
  5
258
100
AcDbEntity
  8
MAIN10
  6
CONTINUOUS
 62
3
100
AcDbBlockEnd
  0
BLOCK
  5
274
100
AcDbEntity
  8
MAIN10
  6
CONTINUOUS
 62
3
100
AcDbBlockBegin
  2
*D34
 70
    65
 10
0.0
 20
0.0
 30
0.0
  0
LINE
  5
275
100
AcDbEntity
  8
MAIN10
  6
BYBLOCK
 62
0
100
AcDbLine
 10
391.9669566465651
 20
299.2471046681624
 30
0.0000000000000000
 11
468.3326960883541
 21
265.3677625482428
 31
0.0000000000000000
  0
INSERT
  5
276
100
AcDbEntity
  8
MAIN10
  6
BYBLOCK
 62
0
100
AcDbBlockReference
  2
_OPEN
 10
390.1387921031361
 20
300.0581622506736
 30
0.0000000000000000
 41
2.000000000000000
 42
2.000000000000000
 43
2.000000000000000
 50
156.0757318357422
  0
MTEXT
  5
277
100
AcDbEntity
  8
MAIN10
  6
BYBLOCK
 62
0
100
AcDbMText
 10
435.0603822560783
 20
282.3715724283349
 30
0.0000000000000000
 40
3.099999904632568
 41
0.0000000000000000
 71
     5
 72
     1
  1
\A1;\U+2205150\H0.903226x;\U+00B10.2
 11
0.9140822717145138
 21
-0.4055287912556070
 31
0.0000000000000000
  7
STANDARD
  0
ENDBLK
  5
278
100
AcDbEntity
  8
MAIN10
  6
CONTINUOUS
 62
3
100
AcDbBlockEnd
  0
BLOCK
  5
27C
100
AcDbEntity
  8
MAIN10
  6
CONTINUOUS
 62
3
100
AcDbBlockBegin
  2
*D35
 70
    65
 10
0.0
 20
0.0
 30
0.0
  0
LINE
  5
27D
100
AcDbEntity
  8
MAIN10
  6
BYBLOCK
 62
0
100
AcDbLine
 10
258.3542860532090
 20
163.8435028945821
 30
0.0000000000000000
 11
258.3542860532090
 21
147.6435029065030
 31
0.0000000000000000
  0
LINE
  5
27E
100
AcDbEntity
  8
MAIN10
  6
BYBLOCK
 62
0
100
AcDbLine
 10
256.3542860532090
 20
149.6435029065030
 30
0.0000000000000000
 11
228.3542860532090
 21
149.6435029065030
 31
0.0000000000000000
  0
INSERT
  5
27F
100
AcDbEntity
  8
MAIN10
  6
BYBLOCK
 62
0
100
AcDbBlockReference
  2
_OPEN
 10
258.3542860532090
 20
149.6435029065030
 30
0.0000000000000000
 41
2.000000000000000
 42
2.000000000000000
 43
2.000000000000000
 50
360.0000000000000
  0
INSERT
  5
280
100
AcDbEntity
  8
MAIN10
  6
BYBLOCK
 62
0
100
AcDbBlockReference
  2
_OPEN
 10
226.3542860532090
 20
149.6435029065030
 30
0.0000000000000000
 41
2.000000000000000
 42
2.000000000000000
 43
2.000000000000000
 50
180.0000000000000
  0
LINE
  5
281
100
AcDbEntity
  8
MAIN10
  6
BYBLOCK
 62
0
100
AcDbLine
 10
226.3542860532090
 20
159.1319922491898
 30
0.0000000000000000
 11
226.3542860532090
 21
147.6435029065030
 31
0.0000000000000000
  0
MTEXT
  5
282
100
AcDbEntity
  8
MAIN10
  6
BYBLOCK
 62
0
100
AcDbMText
 10
242.3542860532090
 20
151.6935028588193
 30
0.0000000000000000
 40
3.099999904632568
 41
0.0000000000000000
 71
     5
 72
     1
  1
\A1;32
 11
1.000000000000000
 21
0.0000000000000000
 31
0.0000000000000000
  7
STANDARD
  0
ENDBLK
  5
283
100
AcDbEntity
  8
MAIN10
  6
CONTINUOUS
 62
3
100
AcDbBlockEnd
  0
BLOCK
  5
285
100
AcDbEntity
  8
MAIN10
  6
CONTINUOUS
 62
3
100
AcDbBlockBegin
  2
*D36
 70
    65
 10
0.0
 20
0.0
 30
0.0
  0
LINE
  5
286
100
AcDbEntity
  8
MAIN10
  6
BYBLOCK
 62
0
100
AcDbLine
 10
401.9713831362618
 20
367.8916243200075
 30
0.0000000000000000
 11
400.1947101769968
 21
370.9689121538881
 31
0.0000000000000000
  0
ARC
  5
287
100
AcDbEntity
  8
MAIN10
  6
BYBLOCK
 62
0
100
AcDbCircle
 10
458.6949624817239
 20
269.6435029065016
 30
0.0000000000000000
 40
115.0005046094550
100
AcDbArc
 50
90.99644396705318
 51
119.0035560329466
  0
INSERT
  5
288
100
AcDbEntity
  8
MAIN10
  6
BYBLOCK
 62
0
100
AcDbBlockReference
  2
_OPEN
 10
458.6949624817239
 20
384.6440075159566
 30
0.0000000000000000
 41
2.000000000000000
 42
2.000000000000000
 43
2.000000000000000
 50
360.0000000000000
  0
INSERT
  5
289
100
AcDbEntity
  8
MAIN10
  6
BYBLOCK
 62
0
100
AcDbBlockReference
  2
_OPEN
 10
401.1947101769968
 20
369.2368613463192
 30
0.0000000000000000
 41
2.000000000000000
 42
2.000000000000000
 43
2.000000000000000
 50
209.9999999999998
  0
MTEXT
  5
28A
100
AcDbEntity
  8
MAIN10
  6
BYBLOCK
 62
0
100
AcDbMText
 10
428.4000626622782
 20
382.7056082428829
 30
0.0000000000000000
 40
3.099999904632568
 41
0.0000000000000000
 71
     5
 72
     1
  1
\A1;30\U+00B0
 11
0.9659258262890688
 21
0.2588190451025192
 31
0.0000000000000000
  7
STANDARD
  0
ENDBLK
  5
28B
100
AcDbEntity
  8
MAIN10
  6
CONTINUOUS
 62
3
100
AcDbBlockEnd
  0
BLOCK
  5
28E
100
AcDbEntity
  8
MAIN0
  6
BYBLOCK
 62
3
100
AcDbBlockBegin
  2
M0
 70
    64
 10
0.0
 20
0.0
 30
0.0
  0
MTEXT
  5
28F
100
AcDbEntity
  8
MAIN0
  6
BYBLOCK
 62
0
100
AcDbMText
 10
45.73298608414282
 20
73.00008729720881
 30
0.0000000000000000
 40
3.100000381469727
 41
0.0000000000000000
 71
     1
 72
     1
  1
{\H0.95x;上記仕様は標準ソフトジョー付で許容最大入力時の場合\Pまた最大静的把握力、および許容最高回転速度については\Pソフトジョーの面上高さの１／２での実測値を示す}
 11
1.000000000000000
 21
0.0000000000000000
 31
0.0000000000000000
  7
KNJYOKO
  0
CIRCLE
  5
290
100
AcDbEntity
  8
MAIN0
  6
BYBLOCK
 62
0
100
AcDbCircle
 10
43.62965606957056
 20
71.37945462735397
 30
0.0000000000000000
 40
1.000000000000000
  0
POINT
  5
291
100
AcDbEntity
  8
MAIN0
  6
BYBLOCK
 62
0
100
AcDbPoint
 10
45.73298608414285
 20
69.90008691573902
 30
0.0000000000000000
  0
ENDBLK
  5
292
100
AcDbEntity
  8
MAIN0
  6
BYBLOCK
 62
3
100
AcDbBlockEnd
  0
BLOCK
  5
294
100
AcDbEntity
  8
MAIN0
  6
BYBLOCK
 62
3
100
AcDbBlockBegin
  2
M1
 70
    64
 10
0.0
 20
0.0
 30
0.0
  0
LINE
  5
295
100
AcDbEntity
  8
MAIN0
  6
BYBLOCK
 62
0
100
AcDbLine
 10
41.88295649394451
 20
169.7945896983128
 30
0.0000000000000000
 11
118.8829564939445
 21
169.7945896983128
 31
0.0000000000000000
  0
LINE
  5
296
100
AcDbEntity
  8
MAIN0
  6
BYBLOCK
 62
0
100
AcDbLine
 10
41.88295649394451
 20
159.7945896983128
 30
0.0000000000000000
 11
118.8829564939445
 21
159.7945896983128
 31
0.0000000000000000
  0
LINE
  5
297
100
AcDbEntity
  8
MAIN0
  6
BYBLOCK
 62
0
100
AcDbLine
 10
41.88295649394451
 20
74.79458969831282
 30
0.0000000000000000
 11
41.88295649394451
 21
169.7945896983128
 31
0.0000000000000000
  0
LINE
  5
298
100
AcDbEntity
  8
MAIN0
  6
BYBLOCK
 62
0
100
AcDbLine
 10
41.88295649394451
 20
152.7945896983130
 30
0.0000000000000000
 11
118.8829564939444
 21
152.7945896983130
 31
0.0000000000000000
  0
LINE
  5
299
100
AcDbEntity
  8
MAIN0
  6
BYBLOCK
 62
0
100
AcDbLine
 10
41.88295649394451
 20
145.7945896983130
 30
0.0000000000000000
 11
118.8829564939444
 21
145.7945896983130
 31
0.0000000000000000
  0
LINE
  5
29A
100
AcDbEntity
  8
MAIN0
  6
BYBLOCK
 62
0
100
AcDbLine
 10
41.88295649394451
 20
135.7945896983129
 30
0.0000000000000000
 11
118.8829564939444
 21
135.7945896983129
 31
0.0000000000000000
  0
LINE
  5
29B
100
AcDbEntity
  8
MAIN0
  6
BYBLOCK
 62
0
100
AcDbLine
 10
41.88295649394451
 20
125.7945896983128
 30
0.0000000000000000
 11
118.8829564939444
 21
125.7945896983128
 31
0.0000000000000000
  0
LINE
  5
29C
100
AcDbEntity
  8
MAIN0
  6
BYBLOCK
 62
0
100
AcDbLine
 10
41.88295649394451
 20
118.7945896983128
 30
0.0000000000000000
 11
118.8829564939444
 21
118.7945896983128
 31
0.0000000000000000
  0
LINE
  5
29D
100
AcDbEntity
  8
MAIN0
  6
BYBLOCK
 62
0
100
AcDbLine
 10
41.88295649394451
 20
111.7945896983128
 30
0.0000000000000000
 11
118.8829564939444
 21
111.7945896983128
 31
0.0000000000000000
  0
LINE
  5
29E
100
AcDbEntity
  8
MAIN0
  6
BYBLOCK
 62
0
100
AcDbLine
 10
41.88295649394451
 20
101.7945896983128
 30
0.0000000000000000
 11
118.8829564939444
 21
101.7945896983128
 31
0.0000000000000000
  0
LINE
  5
29F
100
AcDbEntity
  8
MAIN0
  6
BYBLOCK
 62
0
100
AcDbLine
 10
41.88295649394451
 20
91.79458969831282
 30
0.0000000000000000
 11
118.8829564939444
 21
91.79458969831282
 31
0.0000000000000000
  0
LINE
  5
2A0
100
AcDbEntity
  8
MAIN0
  6
BYBLOCK
 62
0
100
AcDbLine
 10
41.88295649394451
 20
84.79458969831282
 30
0.0000000000000000
 11
118.8829564939444
 21
84.79458969831282
 31
0.0000000000000000
  0
LINE
  5
2A1
100
AcDbEntity
  8
MAIN0
  6
BYBLOCK
 62
0
100
AcDbLine
 10
41.88295649394445
 20
74.79458969831271
 30
0.0000000000000000
 11
118.8829564939445
 21
74.79458969831248
 31
0.0000000000000000
  0
LINE
  5
2A2
100
AcDbEntity
  8
MAIN0
  6
BYBLOCK
 62
0
100
AcDbLine
 10
88.88295649394439
 20
74.79458969831259
 30
0.0000000000000000
 11
88.88295649394439
 21
159.7945896983128
 31
0.0000000000000000
  0
LINE
  5
2A3
100
AcDbEntity
  8
MAIN0
  6
BYBLOCK
 62
0
100
AcDbLine
 10
118.8829564939444
 20
74.79458969831248
 30
0.0000000000000000
 11
118.8829564939444
 21
169.7945896983128
 31
0.0000000000000000
  0
MTEXT
  5
2A4
100
AcDbEntity
  8
MAIN0
  6
BYBLOCK
 62
0
100
AcDbMText
 10
44.95646494805959
 20
156.0578841583210
 30
0.0000000000000000
 40
2.399999618530273
 41
0.0000000000000000
 71
     1
 72
     1
  1
{\H0.93x;プランジャストロ－ク}
 11
1.000000000000000
 21
0.0000000000000000
 31
0.0000000000000000
  7
KNJYOKO
  0
MTEXT
  5
2A5
100
AcDbEntity
  8
MAIN0
  6
BYBLOCK
 62
0
100
AcDbMText
 10
44.95646494805961
 20
149.0578841583212
 30
0.0000000000000000
 40
2.399999618530273
 41
0.0000000000000000
 71
     1
 72
     1
  1
{\H0.94x;ジョーストローク(直径で)}
 11
1.000000000000000
 21
0.0000000000000000
 31
0.0000000000000000
  7
KNJYOKO
  0
MTEXT
  5
2A6
100
AcDbEntity
  8
MAIN0
  6
BYBLOCK
 62
0
100
AcDbMText
 10
44.95646494805961
 20
140.0578841583212
 30
0.0000000000000000
 40
2.399999618530273
 41
0.0000000000000000
 71
     1
 72
     1
  1
{\H0.93x;許容最大入力　}
 11
1.000000000000000
 21
0.0000000000000000
 31
0.0000000000000000
  7
KNJYOKO
  0
MTEXT
  5
2A7
100
AcDbEntity
  8
MAIN0
  6
BYBLOCK
 62
0
100
AcDbMText
 10
44.95646494805960
 20
132.0578841583211
 30
0.0000000000000000
 40
2.399999618530273
 41
0.0000000000000000
 71
     1
 72
     1
  1
{\H0.93x;最大静的把握力　　}
 11
1.000000000000000
 21
0.0000000000000000
 31
0.0000000000000000
  7
KNJYOKO
  0
MTEXT
  5
2A8
100
AcDbEntity
  8
MAIN0
  6
BYBLOCK
 62
0
100
AcDbMText
 10
44.95646494805959
 20
122.0578841583211
 30
0.0000000000000000
 40
2.399999618530273
 41
0.0000000000000000
 71
     1
 72
     1
  1
{\H0.93x;許容最高回転速度　}
 11
1.000000000000000
 21
0.0000000000000000
 31
0.0000000000000000
  7
KNJYOKO
  0
MTEXT
  5
2A9
100
AcDbEntity
  8
MAIN0
  6
BYBLOCK
 62
0
100
AcDbMText
 10
44.95646494805959
 20
115.0578841583211
 30
0.0000000000000000
 40
2.399999618530273
 41
0.0000000000000000
 71
     1
 72
     1
  1
{\H0.89x;質量\P}
 11
1.000000000000000
 21
0.0000000000000000
 31
0.0000000000000000
  7
KNJYOKO
  0
MTEXT
  5
2AA
100
AcDbEntity
  8
MAIN0
  6
BYBLOCK
 62
0
100
AcDbMText
 10
45.03050063976319
 20
109.1035008269332
 30
0.0000000000000000
 40
2.499999046325684
 41
0.0000000000000000
 71
     1
 72
     1
  1
{\H0.75x;MOMENT OF INERTIA\P慣性モーメント}
 11
1.000000000000000
 21
0.0000000000000000
 31
0.0000000000000000
  7
KNJYOKO
  0
MTEXT
  5
2AB
100
AcDbEntity
  8
MAIN0
  6
BYBLOCK
 62
0
100
AcDbMText
 10
44.95646494805958
 20
95.05788415832103
 30
0.0000000000000000
 40
2.399999618530273
 41
0.0000000000000000
 71
     1
 72
     1
  1
{\H0.94x;最高回転時の動的把握力}
 11
1.000000000000000
 21
0.0000000000000000
 31
0.0000000000000000
  7
KNJYOKO
  0
MTEXT
  5
2AC
100
AcDbEntity
  8
MAIN0
  6
BYBLOCK
 62
0
100
AcDbMText
 10
44.95646494805958
 20
88.05788415832103
 30
0.0000000000000000
 40
2.399999618530273
 41
0.0000000000000000
 71
     1
 72
     1
  1
{\H0.93x;使用シリンダ}
 11
1.000000000000000
 21
0.0000000000000000
 31
0.0000000000000000
  7
KNJYOKO
  0
MTEXT
  5
2AD
100
AcDbEntity
  8
MAIN0
  6
BYBLOCK
 62
0
100
AcDbMText
 10
44.76653130360870
 20
79.17507969659836
 30
0.0000000000000000
 40
2.399999618530273
 41
0.0000000000000000
 71
     1
 72
     1
  1
{\H0.93x;許容最大油圧力}
 11
1.000000000000000
 21
0.0000000000000000
 31
0.0000000000000000
  7
KNJYOKO
  0
MTEXT
  5
2AE
100
AcDbEntity
  8
MAIN0
  6
BYBLOCK
 62
0
100
AcDbMText
 10
103.8829564939444
 20
156.5945889353733
 30
0.0000000000000000
 40
2.799999237060547
 41
0.0000000000000000
 71
     1
 72
     1
  1
{\H0.58x;　　　　ｍｍ}
 11
1.000000000000000
 21
0.0000000000000000
 31
0.0000000000000000
  7
KNJYOKO
  0
MTEXT
  5
2AF
100
AcDbEntity
  8
MAIN0
  6
BYBLOCK
 62
0
100
AcDbMText
 10
103.8829564939444
 20
149.5945889353733
 30
0.0000000000000000
 40
2.799999237060547
 41
0.0000000000000000
 71
     1
 72
     1
  1
{\H0.58x;　　　　ｍｍ}
 11
1.000000000000000
 21
0.0000000000000000
 31
0.0000000000000000
  7
KNJYOKO
  0
MTEXT
  5
2B0
100
AcDbEntity
  8
MAIN0
  6
BYBLOCK
 62
0
100
AcDbMText
 10
103.8829564939444
 20
115.5945889353731
 30
0.0000000000000000
 40
2.799999237060547
 41
0.0000000000000000
 71
     1
 72
     1
  1
{\H0.58x;　　　　ｋｇ}
 11
1.000000000000000
 21
0.0000000000000000
 31
0.0000000000000000
  7
KNJYOKO
  0
MTEXT
  5
2B1
100
AcDbEntity
  8
MAIN0
  6
BYBLOCK
 62
0
100
AcDbMText
 10
103.8829564939444
 20
122.5945889353731
 30
0.0000000000000000
 40
2.799999237060547
 41
0.0000000000000000
 71
     1
 72
     1
  1
{\H0.58x;　　ｍｉｎ}
 11
1.000000000000000
 21
0.0000000000000000
 31
0.0000000000000000
  7
KNJYOKO
  0
MTEXT
  5
2B2
100
AcDbEntity
  8
MAIN0
  6
BYBLOCK
 62
0
100
AcDbMText
 10
68.75439718991362
 20
164.1101787434265
 30
0.0000000000000000
 40
3.100000381469727
 41
0.0000000000000000
 71
     1
 72
     1
  1
{\H0.93x;仕　　　様}
 11
1.000000000000000
 21
0.0000000000000000
 31
0.0000000000000000
  7
KNJYOKO
  0
MTEXT
  5
2B3
100
AcDbEntity
  8
MAIN0
  6
BYBLOCK
 62
0
100
AcDbMText
 10
102.8829564939444
 20
139.0945889353731
 30
0.0000000000000000
 40
2.799999237060547
 41
0.0000000000000000
 71
     1
 72
     1
  1
{\H0.60x;　　　ｋｇｆ)}
 11
1.000000000000000
 21
0.0000000000000000
 31
0.0000000000000000
  7
KNJYOKO
  0
MTEXT
  5
2B4
100
AcDbEntity
  8
MAIN0
  6
BYBLOCK
 62
0
100
AcDbMText
 10
90.88295649394439
 20
139.0945889353731
 30
0.0000000000000000
 40
2.799999237060547
 41
0.0000000000000000
 71
     1
 72
     1
  1
{\H0.60x;(}
 11
1.000000000000000
 21
0.0000000000000000
 31
0.0000000000000000
  7
STANDARD
  0
MTEXT
  5
2B5
100
AcDbEntity
  8
MAIN0
  6
BYBLOCK
 62
0
100
AcDbMText
 10
103.8829564939444
 20
143.0945889353733
 30
0.0000000000000000
 40
2.799999237060547
 41
0.0000000000000000
 71
     1
 72
     1
  1
{\H0.58x;　　　　ｋＮ}
 11
1.000000000000000
 21
0.0000000000000000
 31
0.0000000000000000
  7
KNJYOKO
  0
MTEXT
  5
2B6
100
AcDbEntity
  8
MAIN0
  6
BYBLOCK
 62
0
100
AcDbMText
 10
102.8829564939444
 20
129.0945889353731
 30
0.0000000000000000
 40
2.799999237060547
 41
0.0000000000000000
 71
     1
 72
     1
  1
{\H0.60x;　　　ｋｇｆ)}
 11
1.000000000000000
 21
0.0000000000000000
 31
0.0000000000000000
  7
KNJYOKO
  0
MTEXT
  5
2B7
100
AcDbEntity
  8
MAIN0
  6
BYBLOCK
 62
0
100
AcDbMText
 10
90.88295649394439
 20
129.0945889353731
 30
0.0000000000000000
 40
2.799999237060547
 41
0.0000000000000000
 71
     1
 72
     1
  1
{\H0.60x;(}
 11
1.000000000000000
 21
0.0000000000000000
 31
0.0000000000000000
  7
STANDARD
  0
MTEXT
  5
2B8
100
AcDbEntity
  8
MAIN0
  6
BYBLOCK
 62
0
100
AcDbMText
 10
103.6625985992046
 20
105.3654134214312
 30
0.0000000000000000
 40
2.799999237060547
 41
0.0000000000000000
 71
     7
 72
     1
  1
　　ｋｇ・ｍ
 11
1.000000000000000
 21
0.0000000000000000
 31
0.0000000000000000
  7
KNJYOKO
  0
MTEXT
  5
2B9
100
AcDbEntity
  8
MAIN0
  6
BYBLOCK
 62
0
100
AcDbMText
 10
115.6625985992046
 20
106.7654130399615
 30
0.0000000000000000
 40
1.399999618530273
 41
0.0000000000000000
 71
     7
 72
     1
  1
2
 11
1.000000000000000
 21
0.0000000000000000
 31
0.0000000000000000
  7
STANDARD
  0
MTEXT
  5
2BA
100
AcDbEntity
  8
MAIN0
  6
BYBLOCK
 62
0
100
AcDbMText
 10
102.8829564939444
 20
95.09458893537314
 30
0.0000000000000000
 40
2.799999237060547
 41
0.0000000000000000
 71
     1
 72
     1
  1
{\H0.60x;　　　ｋｇｆ)}
 11
1.000000000000000
 21
0.0000000000000000
 31
0.0000000000000000
  7
KNJYOKO
  0
MTEXT
  5
2BB
100
AcDbEntity
  8
MAIN0
  6
BYBLOCK
 62
0
100
AcDbMText
 10
90.88295649394439
 20
95.09458893537314
 30
0.0000000000000000
 40
2.799999237060547
 41
0.0000000000000000
 71
     1
 72
     1
  1
{\H0.60x;(}
 11
1.000000000000000
 21
0.0000000000000000
 31
0.0000000000000000
  7
STANDARD
  0
MTEXT
  5
2BC
100
AcDbEntity
  8
MAIN0
  6
BYBLOCK
 62
0
100
AcDbMText
 10
102.8829564939444
 20
78.09458893537297
 30
0.0000000000000000
 40
2.799999237060547
 41
0.0000000000000000
 71
     1
 72
     1
  1
{\H0.62x;ｋｇｆ／ｃｍ )}
 11
1.000000000000000
 21
0.0000000000000000
 31
0.0000000000000000
  7
KNJYOKO
  0
MTEXT
  5
2BD
100
AcDbEntity
  8
MAIN0
  6
BYBLOCK
 62
0
100
AcDbMText
 10
114.9362523273101
 20
78.50499372653493
 30
0.0000000000000000
 40
2.000000000000000
 41
0.0000000000000000
 71
     1
 72
     1
  1
{\H0.81x;2}
 11
1.000000000000000
 21
0.0000000000000000
 31
0.0000000000000000
  7
STANDARD
  0
MTEXT
  5
2BE
100
AcDbEntity
  8
MAIN0
  6
BYBLOCK
 62
0
100
AcDbMText
 10
90.88295649394439
 20
78.09458893537297
 30
0.0000000000000000
 40
2.799999237060547
 41
0.0000000000000000
 71
     1
 72
     1
  1
{\H0.60x;(}
 11
1.000000000000000
 21
0.0000000000000000
 31
0.0000000000000000
  7
STANDARD
  0
MTEXT
  5
2BF
100
AcDbEntity
  8
MAIN0
  6
BYBLOCK
 62
0
100
AcDbMText
 10
103.8829564939444
 20
82.09458893537297
 30
0.0000000000000000
 40
2.799999237060547
 41
0.0000000000000000
 71
     1
 72
     1
  1
{\H0.58x;　　　ＭＰａ}
 11
1.000000000000000
 21
0.0000000000000000
 31
0.0000000000000000
  7
KNJYOKO
  0
MTEXT
  5
2C0
100
AcDbEntity
  8
MAIN0
  6
BYBLOCK
 62
0
100
AcDbMText
 10
103.8829564939444
 20
133.0945889353731
 30
0.0000000000000000
 40
2.799999237060547
 41
0.0000000000000000
 71
     1
 72
     1
  1
{\H0.58x;　　　　ｋＮ}
 11
1.000000000000000
 21
0.0000000000000000
 31
0.0000000000000000
  7
KNJYOKO
  0
MTEXT
  5
2C1
100
AcDbEntity
  8
MAIN0
  6
BYBLOCK
 62
0
100
AcDbMText
 10
103.8829564939444
 20
99.09458893537314
 30
0.0000000000000000
 40
2.799999237060547
 41
0.0000000000000000
 71
     1
 72
     1
  1
{\H0.58x;　　　　ｋＮ}
 11
1.000000000000000
 21
0.0000000000000000
 31
0.0000000000000000
  7
KNJYOKO
  0
MTEXT
  5
2C2
100
AcDbEntity
  8
MAIN0
  6
BYBLOCK
 62
0
100
AcDbMText
 10
114.0376247422643
 20
123.2641334882679
 30
0.0000000000000000
 40
2.000000000000000
 41
0.0000000000000000
 71
     1
 72
     1
  1
{\H0.88x;-1}
 11
1.000000000000000
 21
0.0000000000000000
 31
0.0000000000000000
  7
STANDARD
  0
MTEXT
  5
2C3
100
AcDbEntity
  8
MAIN0
  6
BYBLOCK
 62
0
100
AcDbMText
 10
44.95646494805959
 20
159.1578835861164
 30
0.0000000000000000
 40
2.499999046325684
 41
0.0000000000000000
 71
     1
 72
     1
  1
{\H0.75x;PLUNGER STROKE}
 11
1.000000000000000
 21
0.0000000000000000
 31
0.0000000000000000
  7
STANDARD
  0
MTEXT
  5
2C4
100
AcDbEntity
  8
MAIN0
  6
BYBLOCK
 62
0
100
AcDbMText
 10
44.95646494805961
 20
152.1578835861166
 30
0.0000000000000000
 40
2.499999046325684
 41
0.0000000000000000
 71
     1
 72
     1
  1
{\H0.75x;JAW STROKE (IN DIA)}
 11
1.000000000000000
 21
0.0000000000000000
 31
0.0000000000000000
  7
STANDARD
  0
MTEXT
  5
2C5
100
AcDbEntity
  8
MAIN0
  6
BYBLOCK
 62
0
100
AcDbMText
 10
44.95646494805961
 20
143.1578845397909
 30
0.0000000000000000
 40
2.500000000000000
 41
0.0000000000000000
 71
     1
 72
     1
  1
{\H0.63x;MAX PERMISSIBLE INPUT FORCE}
 11
1.000000000000000
 21
0.0000000000000000
 31
0.0000000000000000
  7
STANDARD
  0
MTEXT
  5
2C6
100
AcDbEntity
  8
MAIN0
  6
BYBLOCK
 62
0
100
AcDbMText
 10
44.95646494805960
 20
135.1578845397908
 30
0.0000000000000000
 40
2.500000000000000
 41
0.0000000000000000
 71
     1
 72
     1
  1
{\H0.63x;MAX STATIC GRIPPING FORCE}
 11
1.000000000000000
 21
0.0000000000000000
 31
0.0000000000000000
  7
STANDARD
  0
MTEXT
  5
2C7
100
AcDbEntity
  8
MAIN0
  6
BYBLOCK
 62
0
100
AcDbMText
 10
44.95646494805959
 20
125.1578835861165
 30
0.0000000000000000
 40
2.499999046325684
 41
0.0000000000000000
 71
     1
 72
     1
  1
{\H0.75x;MAX PERMISSIBLE SPEED}
 11
1.000000000000000
 21
0.0000000000000000
 31
0.0000000000000000
  7
STANDARD
  0
MTEXT
  5
2C8
100
AcDbEntity
  8
MAIN0
  6
BYBLOCK
 62
0
100
AcDbMText
 10
44.95646494805959
 20
118.1578835861165
 30
0.0000000000000000
 40
2.499999046325684
 41
0.0000000000000000
 71
     1
 72
     1
  1
{\H0.73x;MASS}
 11
1.000000000000000
 21
0.0000000000000000
 31
0.0000000000000000
  7
STANDARD
  0
MTEXT
  5
2C9
100
AcDbEntity
  8
MAIN0
  6
BYBLOCK
 62
0
100
AcDbMText
 10
45.03050063976319
 20
91.68159009308943
 30
0.0000000000000000
 40
2.499999046325684
 41
0.0000000000000000
 71
     1
 72
     1
  1
{\H0.75x;OPERATING CYLINDER}
 11
1.000000000000000
 21
0.0000000000000000
 31
0.0000000000000000
  7
STANDARD
  0
MTEXT
  5
2CA
100
AcDbEntity
  8
MAIN0
  6
BYBLOCK
 62
0
100
AcDbMText
 10
44.63454663553146
 20
82.83865101176464
 30
0.0000000000000000
 40
2.500000000000000
 41
0.0000000000000000
 71
     1
 72
     1
  1
{\H0.63x;MAX PERMISSIBLE OIL PRESS}
 11
1.000000000000000
 21
0.0000000000000000
 31
0.0000000000000000
  7
STANDARD
  0
MTEXT
  5
2CB
100
AcDbEntity
  8
MAIN0
  6
BYBLOCK
 62
0
100
AcDbMText
 10
44.89851597168595
 20
100.6565132324419
 30
0.0000000000000000
 40
2.500000000000000
 41
0.0000000000000000
 71
     1
 72
     1
  1
{\H0.63x;DYNAMIC GRIPPING FORCE}
 11
1.000000000000000
 21
0.0000000000000000
 31
0.0000000000000000
  7
STANDARD
  0
MTEXT
  5
2CC
100
AcDbEntity
  8
MAIN0
  6
BYBLOCK
 62
0
100
AcDbMText
 10
35.71168204012179
 20
97.97273984013020
 30
0.0000000000000000
 40
2.499999046325684
 41
0.0000000000000000
 71
     1
 72
     1
  1
{\H0.75x;            AT MAX SPEED}
 11
1.000000000000000
 21
0.0000000000000000
 31
0.0000000000000000
  7
STANDARD
  0
MTEXT
  5
2CD
100
AcDbEntity
  8
MAIN0
  6
BYBLOCK
 62
0
100
AcDbMText
 10
58.95120410089015
 20
168.1547142508948
 30
0.0000000000000000
 40
3.100000381469727
 41
0.0000000000000000
 71
     1
 72
     1
  1
{\H0.94x;SPECIFICATIONS}
 11
1.000000000000000
 21
0.0000000000000000
 31
0.0000000000000000
  7
STANDARD
  0
POINT
  5
2CE
100
AcDbEntity
  8
MAIN0
  6
BYBLOCK
 62
0
100
AcDbPoint
 10
90.88295649394439
 20
154.7945896983130
 30
0.0000000000000000
  0
POINT
  5
2CF
100
AcDbEntity
  8
MAIN0
  6
BYBLOCK
 62
0
100
AcDbPoint
 10
90.88295649394439
 20
147.7945896983130
 30
0.0000000000000000
  0
POINT
  5
2D0
100
AcDbEntity
  8
MAIN0
  6
BYBLOCK
 62
0
100
AcDbPoint
 10
90.88295649394439
 20
141.2945896983129
 30
0.0000000000000000
  0
POINT
  5
2D1
100
AcDbEntity
  8
MAIN0
  6
BYBLOCK
 62
0
100
AcDbPoint
 10
93.88295649394439
 20
136.7945896983129
 30
0.0000000000000000
  0
POINT
  5
2D2
100
AcDbEntity
  8
MAIN0
  6
BYBLOCK
 62
0
100
AcDbPoint
 10
90.88295649394439
 20
131.2945896983128
 30
0.0000000000000000
  0
POINT
  5
2D3
100
AcDbEntity
  8
MAIN0
  6
BYBLOCK
 62
0
100
AcDbPoint
 10
93.88295649394439
 20
126.7945896983128
 30
0.0000000000000000
  0
POINT
  5
2D4
100
AcDbEntity
  8
MAIN0
  6
BYBLOCK
 62
0
100
AcDbPoint
 10
90.88295649394439
 20
120.7945896983128
 30
0.0000000000000000
  0
POINT
  5
2D5
100
AcDbEntity
  8
MAIN0
  6
BYBLOCK
 62
0
100
AcDbPoint
 10
90.88295649394439
 20
113.7945896983128
 30
0.0000000000000000
  0
POINT
  5
2D6
100
AcDbEntity
  8
MAIN0
  6
BYBLOCK
 62
0
100
AcDbPoint
 10
90.88295649394439
 20
107.2945896983128
 30
0.0000000000000000
  0
POINT
  5
2D7
100
AcDbEntity
  8
MAIN0
  6
BYBLOCK
 62
0
100
AcDbPoint
 10
93.88295649394439
 20
102.7945896983128
 30
0.0000000000000000
  0
POINT
  5
2D8
100
AcDbEntity
  8
MAIN0
  6
BYBLOCK
 62
0
100
AcDbPoint
 10
93.88295649394439
 20
92.79458969831282
 30
0.0000000000000000
  0
POINT
  5
2D9
100
AcDbEntity
  8
MAIN0
  6
BYBLOCK
 62
0
100
AcDbPoint
 10
90.88295649394439
 20
97.29458969831282
 30
0.0000000000000000
  0
POINT
  5
2DA
100
AcDbEntity
  8
MAIN0
  6
BYBLOCK
 62
0
100
AcDbPoint
 10
90.88295649394439
 20
86.79458969831282
 30
0.0000000000000000
  0
POINT
  5
2DB
100
AcDbEntity
  8
MAIN0
  6
BYBLOCK
 62
0
100
AcDbPoint
 10
90.88295649394439
 20
80.29458969831259
 30
0.0000000000000000
  0
POINT
  5
2DC
100
AcDbEntity
  8
MAIN0
  6
BYBLOCK
 62
0
100
AcDbPoint
 10
93.88295649394439
 20
75.79458969831259
 30
0.0000000000000000
  0
ENDBLK
  5
2DD
100
AcDbEntity
  8
MAIN0
  6
BYBLOCK
 62
3
100
AcDbBlockEnd
  0
BLOCK
  5
2F8
100
AcDbEntity
  8
MAIN0
  6
BYBLOCK
 62
1
100
AcDbBlockBegin
  2
M2
 70
    64
 10
0.0
 20
0.0
 30
0.0
  0
MTEXT
  5
2F9
100
AcDbEntity
  8
MAIN0
  6
BYBLOCK
 62
0
100
AcDbMText
 10
38.95415004643212
 20
185.8761957070027
 30
0.0000000000000000
 40
6.000000000000000
 41
0.0000000000000000
 71
     1
 72
     1
  1
{\H0.80x;要注意}
 11
1.000000000000000
 21
0.0000000000000000
 31
0.0000000000000000
  7
KNJYOKO
  0
LINE
  5
2FA
100
AcDbEntity
  8
MAIN0
  6
BYBLOCK
 62
0
100
AcDbLine
 10
57.45415004643212
 20
187.3761957070027
 30
0.0000000000000000
 11
57.45415004643212
 21
178.3761957070027
 31
0.0000000000000000
  0
LINE
  5
2FB
100
AcDbEntity
  8
MAIN0
  6
BYBLOCK
 62
0
100
AcDbLine
 10
37.45415004643212
 20
178.3761957070027
 30
0.0000000000000000
 11
57.45415004643212
 21
178.3761957070027
 31
0.0000000000000000
  0
LINE
  5
2FC
100
AcDbEntity
  8
MAIN0
  6
BYBLOCK
 62
0
100
AcDbLine
 10
37.45415004643212
 20
187.3761957070027
 30
0.0000000000000000
 11
37.45415004643212
 21
178.3761957070027
 31
0.0000000000000000
  0
LINE
  5
2FD
100
AcDbEntity
  8
MAIN0
  6
BYBLOCK
 62
0
100
AcDbLine
 10
37.45415004643212
 20
187.3761957070027
 30
0.0000000000000000
 11
57.45415004643212
 21
187.3761957070027
 31
0.0000000000000000
  0
ENDBLK
  5
2FE
100
AcDbEntity
  8
MAIN0
  6
BYBLOCK
 62
1
100
AcDbBlockEnd
  0
BLOCK
  5
301
100
AcDbEntity
  8
MAIN0
  6
BYBLOCK
 62
1
100
AcDbBlockBegin
  2
M3
 70
    64
 10
0.0
 20
0.0
 30
0.0
  0
MTEXT
  5
302
100
AcDbEntity
  8
MAIN0
  6
BYBLOCK
 62
0
100
AcDbMText
 10
38.95415004643212
 20
200.7773826500569
 30
0.0000000000000000
 40
5.901186943054199
 41
0.0000000000000000
 71
     1
 72
     1
  1
{\H0.49x;NOTICE}
 11
1.000000000000000
 21
0.0000000000000000
 31
0.0000000000000000
  7
STANDARD
  0
LINE
  5
303
100
AcDbEntity
  8
MAIN0
  6
BYBLOCK
 62
0
100
AcDbLine
 10
57.45415004643212
 20
202.3761957070027
 30
0.0000000000000000
 11
57.45415004643212
 21
193.3761957070027
 31
0.0000000000000000
  0
LINE
  5
304
100
AcDbEntity
  8
MAIN0
  6
BYBLOCK
 62
0
100
AcDbLine
 10
37.45415004643212
 20
193.3761957070027
 30
0.0000000000000000
 11
57.45415004643212
 21
193.3761957070027
 31
0.0000000000000000
  0
LINE
  5
305
100
AcDbEntity
  8
MAIN0
  6
BYBLOCK
 62
0
100
AcDbLine
 10
37.45415004643212
 20
202.3761957070027
 30
0.0000000000000000
 11
37.45415004643212
 21
193.3761957070027
 31
0.0000000000000000
  0
LINE
  5
306
100
AcDbEntity
  8
MAIN0
  6
BYBLOCK
 62
0
100
AcDbLine
 10
37.45415004643212
 20
202.3761957070027
 30
0.0000000000000000
 11
57.45415004643212
 21
202.3761957070027
 31
0.0000000000000000
  0
ENDBLK
  5
307
100
AcDbEntity
  8
MAIN0
  6
BYBLOCK
 62
1
100
AcDbBlockEnd
  0
BLOCK
  5
30A
100
AcDbEntity
  8
MAIN0
  6
BYBLOCK
 62
3
100
AcDbBlockBegin
  2
*X0
 70
     1
 10
0.0
 20
0.0
 30
0.0
  0
LINE
  5
30B
100
AcDbEntity
  8
MAIN0
  6
BYBLOCK
 62
0
100
AcDbLine
 10
155.3542860532108
 20
214.3185970439133
 30
0.0000000000000000
 11
158.3542860532090
 21
217.3185970439120
 31
0.0000000000000000
  0
LINE
  5
30C
100
AcDbEntity
  8
MAIN0
  6
BYBLOCK
 62
0
100
AcDbLine
 10
170.6791919158006
 20
229.6435029065026
 30
0.0000000000000000
 11
173.6791919157997
 21
232.6435029065021
 31
0.0000000000000000
  0
LINE
  5
30D
100
AcDbEntity
  8
MAIN0
  6
BYBLOCK
 62
0
100
AcDbLine
 10
155.3542860532118
 20
217.1470241686609
 30
0.0000000000000000
 11
158.3542860532090
 21
220.1470241686582
 31
0.0000000000000000
  0
LINE
  5
30E
100
AcDbEntity
  8
MAIN0
  6
BYBLOCK
 62
0
100
AcDbLine
 10
167.8507647910530
 20
229.6435029065021
 30
0.0000000000000000
 11
170.8507647910544
 21
232.6435029065035
 31
0.0000000000000000
  0
LINE
  5
30F
100
AcDbEntity
  8
MAIN0
  6
BYBLOCK
 62
0
100
AcDbLine
 10
155.3542860532099
 20
219.9754512934057
 30
0.0000000000000000
 11
158.3542860532104
 21
222.9754512934062
 31
0.0000000000000000
  0
LINE
  5
310
100
AcDbEntity
  8
MAIN0
  6
BYBLOCK
 62
0
100
AcDbLine
 10
165.0223376663054
 20
229.6435029065012
 30
0.0000000000000000
 11
168.0223376663059
 21
232.6435029065017
 31
0.0000000000000000
  0
LINE
  5
311
100
AcDbEntity
  8
MAIN0
  6
BYBLOCK
 62
0
100
AcDbLine
 10
155.3542860532095
 20
222.8038784181520
 30
0.0000000000000000
 11
158.3542860532131
 21
225.8038784181556
 31
0.0000000000000000
  0
LINE
  5
312
100
AcDbEntity
  8
MAIN0
  6
BYBLOCK
 62
0
100
AcDbLine
 10
162.1939105415592
 20
229.6435029065017
 30
0.0000000000000000
 11
165.1939105415597
 21
232.6435029065021
 31
0.0000000000000000
  0
LINE
  5
313
100
AcDbEntity
  8
MAIN0
  6
BYBLOCK
 62
0
100
AcDbLine
 10
155.3542860532108
 20
225.6323055429000
 30
0.0000000000000000
 11
158.3542860532095
 21
228.6323055428986
 31
0.0000000000000000
  0
LINE
  5
314
100
AcDbEntity
  8
MAIN0
  6
BYBLOCK
 62
0
100
AcDbLine
 10
159.3654834168130
 20
229.6435029065021
 30
0.0000000000000000
 11
162.3654834168130
 21
232.6435029065021
 31
0.0000000000000000
  0
LINE
  5
315
100
AcDbEntity
  8
MAIN0
  6
BYBLOCK
 62
0
100
AcDbLine
 10
155.3542860532100
 20
228.4607326676462
 30
0.0000000000000000
 11
159.5370562920664
 21
232.6435029065021
 31
0.0000000000000000
  0
LINE
  5
316
100
AcDbEntity
  8
MAIN0
  6
BYBLOCK
 62
0
100
AcDbLine
 10
155.3542860532100
 20
231.2891597923924
 30
0.0000000000000000
 11
156.7086291673201
 21
232.6435029065026
 31
0.0000000000000000
  0
LINE
  5
317
100
AcDbEntity
  8
MAIN0
  6
BYBLOCK
 62
0
100
AcDbLine
 10
155.3542860532095
 20
211.4901699191657
 30
0.0000000000000000
 11
158.3542860532099
 21
214.4901699191657
 31
0.0000000000000000
  0
LINE
  5
318
100
AcDbEntity
  8
MAIN0
  6
BYBLOCK
 62
0
100
AcDbLine
 10
173.5076190405468
 20
229.6435029065021
 30
0.0000000000000000
 11
176.5076190405459
 21
232.6435029065017
 31
0.0000000000000000
  0
LINE
  5
319
100
AcDbEntity
  8
MAIN0
  6
BYBLOCK
 62
0
100
AcDbLine
 10
155.3542860532095
 20
208.6617427944186
 30
0.0000000000000000
 11
158.3542860532099
 21
211.6617427944191
 31
0.0000000000000000
  0
LINE
  5
31A
100
AcDbEntity
  8
MAIN0
  6
BYBLOCK
 62
0
100
AcDbLine
 10
175.3542860532058
 20
228.6617427944150
 30
0.0000000000000000
 11
178.3542860532063
 21
231.6617427944150
 31
0.0000000000000000
  0
LINE
  5
31B
100
AcDbEntity
  8
MAIN0
  6
BYBLOCK
 62
0
100
AcDbLine
 10
155.3542860532099
 20
205.8333156696724
 30
0.0000000000000000
 11
158.3542860532104
 21
208.8333156696724
 31
0.0000000000000000
  0
LINE
  5
31C
100
AcDbEntity
  8
MAIN0
  6
BYBLOCK
 62
0
100
AcDbLine
 10
175.3542860532063
 20
225.8333156696688
 30
0.0000000000000000
 11
178.3542860532054
 21
228.8333156696683
 31
0.0000000000000000
  0
LINE
  5
31D
100
AcDbEntity
  8
MAIN0
  6
BYBLOCK
 62
0
100
AcDbLine
 10
155.3542860532099
 20
203.0048885449257
 30
0.0000000000000000
 11
158.3542860532095
 21
206.0048885449253
 31
0.0000000000000000
  0
LINE
  5
31E
100
AcDbEntity
  8
MAIN0
  6
BYBLOCK
 62
0
100
AcDbLine
 10
175.3542860532054
 20
223.0048885449212
 30
0.0000000000000000
 11
178.3542860532081
 21
226.0048885449239
 31
0.0000000000000000
  0
LINE
  5
31F
100
AcDbEntity
  8
MAIN0
  6
BYBLOCK
 62
0
100
AcDbLine
 10
155.3542860532104
 20
200.1764614201800
 30
0.0000000000000000
 11
158.3542860532086
 21
203.1764614201777
 31
0.0000000000000000
  0
LINE
  5
320
100
AcDbEntity
  8
MAIN0
  6
BYBLOCK
 62
0
100
AcDbLine
 10
175.3542860532054
 20
220.1764614201745
 30
0.0000000000000000
 11
178.3542860532063
 21
223.1764614201754
 31
0.0000000000000000
  0
LINE
  5
321
100
AcDbEntity
  8
MAIN0
  6
BYBLOCK
 62
0
100
AcDbLine
 10
155.3542860532099
 20
197.3480342954324
 30
0.0000000000000000
 11
158.3542860532118
 21
200.3480342954342
 31
0.0000000000000000
  0
LINE
  5
322
100
AcDbEntity
  8
MAIN0
  6
BYBLOCK
 62
0
100
AcDbLine
 10
175.3542860532086
 20
217.3480342954310
 30
0.0000000000000000
 11
178.3542860532068
 21
220.3480342954292
 31
0.0000000000000000
  0
LINE
  5
323
100
AcDbEntity
  8
MAIN0
  6
BYBLOCK
 62
0
100
AcDbLine
 10
155.3542860532090
 20
194.5196071706848
 30
0.0000000000000000
 11
158.3542860532086
 21
197.5196071706844
 31
0.0000000000000000
  0
LINE
  5
324
100
AcDbEntity
  8
MAIN0
  6
BYBLOCK
 62
0
100
AcDbLine
 10
175.3542860532063
 20
214.5196071706821
 30
0.0000000000000000
 11
178.3542860532063
 21
217.5196071706816
 31
0.0000000000000000
  0
LINE
  5
325
100
AcDbEntity
  8
MAIN0
  6
BYBLOCK
 62
0
100
AcDbLine
 10
155.3542860532122
 20
191.6911800459413
 30
0.0000000000000000
 11
158.3542860532090
 21
194.6911800459382
 31
0.0000000000000000
  0
LINE
  5
326
100
AcDbEntity
  8
MAIN0
  6
BYBLOCK
 62
0
100
AcDbLine
 10
175.3542860532068
 20
211.6911800459354
 30
0.0000000000000000
 11
178.3542860532072
 21
214.6911800459363
 31
0.0000000000000000
  0
LINE
  5
327
100
AcDbEntity
  8
MAIN0
  6
BYBLOCK
 62
0
100
AcDbLine
 10
155.3542860532099
 20
188.8627529211924
 30
0.0000000000000000
 11
158.3542860532095
 21
191.8627529211919
 31
0.0000000000000000
  0
LINE
  5
328
100
AcDbEntity
  8
MAIN0
  6
BYBLOCK
 62
0
100
AcDbLine
 10
175.3542860532072
 20
208.8627529211892
 30
0.0000000000000000
 11
178.3542860532067
 21
211.8627529211897
 31
0.0000000000000000
  0
LINE
  5
329
100
AcDbEntity
  8
MAIN0
  6
BYBLOCK
 62
0
100
AcDbLine
 10
155.3542860532099
 20
186.0343257964457
 30
0.0000000000000000
 11
158.3542860532118
 21
189.0343257964476
 31
0.0000000000000000
  0
LINE
  5
32A
100
AcDbEntity
  8
MAIN0
  6
BYBLOCK
 62
0
100
AcDbLine
 10
175.3542860532077
 20
206.0343257964435
 30
0.0000000000000000
 11
178.3542860532072
 21
209.0343257964430
 31
0.0000000000000000
  0
LINE
  5
32B
100
AcDbEntity
  8
MAIN0
  6
BYBLOCK
 62
0
100
AcDbLine
 10
156.7918902880144
 20
184.6435029065040
 30
0.0000000000000000
 11
159.7918902880162
 21
187.6435029065053
 31
0.0000000000000000
  0
LINE
  5
32C
100
AcDbEntity
  8
MAIN0
  6
BYBLOCK
 62
0
100
AcDbLine
 10
175.3542860532063
 20
203.2058986716954
 30
0.0000000000000000
 11
178.3542860532054
 21
206.2058986716945
 31
0.0000000000000000
  0
LINE
  5
32D
100
AcDbEntity
  8
MAIN0
  6
BYBLOCK
 62
0
100
AcDbLine
 10
159.6203174127611
 20
184.6435029065030
 30
0.0000000000000000
 11
162.6203174127629
 21
187.6435029065053
 31
0.0000000000000000
  0
LINE
  5
32E
100
AcDbEntity
  8
MAIN0
  6
BYBLOCK
 62
0
100
AcDbLine
 10
175.3542860532049
 20
200.3774715469474
 30
0.0000000000000000
 11
178.3542860532081
 21
203.3774715469506
 31
0.0000000000000000
  0
LINE
  5
32F
100
AcDbEntity
  8
MAIN0
  6
BYBLOCK
 62
0
100
AcDbLine
 10
162.4487445375086
 20
184.6435029065044
 30
0.0000000000000000
 11
165.4487445375095
 21
187.6435029065053
 31
0.0000000000000000
  0
LINE
  5
330
100
AcDbEntity
  8
MAIN0
  6
BYBLOCK
 62
0
100
AcDbLine
 10
175.3542860532054
 20
197.5490444222012
 30
0.0000000000000000
 11
178.3542860532090
 21
200.5490444222044
 31
0.0000000000000000
  0
LINE
  5
331
100
AcDbEntity
  8
MAIN0
  6
BYBLOCK
 62
0
100
AcDbLine
 10
165.2771716622548
 20
184.6435029065040
 30
0.0000000000000000
 11
168.2771716622567
 21
187.6435029065062
 31
0.0000000000000000
  0
LINE
  5
332
100
AcDbEntity
  8
MAIN0
  6
BYBLOCK
 62
0
100
AcDbLine
 10
175.3542860532086
 20
194.7206172974577
 30
0.0000000000000000
 11
178.3542860532068
 21
197.7206172974559
 31
0.0000000000000000
  0
LINE
  5
333
100
AcDbEntity
  8
MAIN0
  6
BYBLOCK
 62
0
100
AcDbLine
 10
168.1055987870015
 20
184.6435029065040
 30
0.0000000000000000
 11
171.1055987870029
 21
187.6435029065053
 31
0.0000000000000000
  0
LINE
  5
334
100
AcDbEntity
  8
MAIN0
  6
BYBLOCK
 62
0
100
AcDbLine
 10
175.3542860532077
 20
191.8921901727101
 30
0.0000000000000000
 11
178.3542860532063
 21
194.8921901727088
 31
0.0000000000000000
  0
LINE
  5
335
100
AcDbEntity
  8
MAIN0
  6
BYBLOCK
 62
0
100
AcDbLine
 10
170.9340259117477
 20
184.6435029065030
 30
0.0000000000000000
 11
173.9340259117491
 21
187.6435029065053
 31
0.0000000000000000
  0
LINE
  5
336
100
AcDbEntity
  8
MAIN0
  6
BYBLOCK
 62
0
100
AcDbLine
 10
175.3542860532068
 20
189.0637630479625
 30
0.0000000000000000
 11
178.3542860532068
 21
192.0637630479625
 31
0.0000000000000000
  0
LINE
  5
337
100
AcDbEntity
  8
MAIN0
  6
BYBLOCK
 62
0
100
AcDbLine
 10
173.7624530364939
 20
184.6435029065026
 30
0.0000000000000000
 11
178.3542860532090
 21
189.2353359232181
 31
0.0000000000000000
  0
LINE
  5
338
100
AcDbEntity
  8
MAIN0
  6
BYBLOCK
 62
0
100
AcDbLine
 10
176.5908801612415
 20
184.6435029065040
 30
0.0000000000000000
 11
178.3542860532063
 21
186.4069087984688
 31
0.0000000000000000
  0
ENDBLK
  5
339
100
AcDbEntity
  8
MAIN0
  6
BYBLOCK
 62
3
100
AcDbBlockEnd
  0
BLOCK
  5
4D5
100
AcDbEntity
  8
WAKU0
  6
BYBLOCK
 62
3
100
AcDbBlockBegin
  2
M4
 70
    64
 10
0.0
 20
0.0
 30
0.0
  0
POINT
  5
4D6
100
AcDbEntity
  8
WAKU0
  6
BYBLOCK
 62
0
100
AcDbPoint
 10
272.0000000000000
 20
12.00000000000000
 30
0.0000000000000000
  0
POINT
  5
4D7
100
AcDbEntity
  8
WAKU0
  6
BYBLOCK
 62
0
100
AcDbPoint
 10
131.0000000000036
 20
12.00000000000001
 30
0.0000000000000000
  0
LINE
  5
4D8
100
AcDbEntity
  8
WAKU0
  6
BYBLOCK
 62
0
100
AcDbLine
 10
25.00000000000182
 20
12.00000000000001
 30
0.0000000000000000
 11
582.0000000000000
 21
12.00000000000000
 31
0.0000000000000000
  0
LINE
  5
4D9
100
AcDbEntity
  8
WAKU0
  6
BYBLOCK
 62
0
100
AcDbLine
 10
25.00000000000193
 20
409.9999999999965
 30
0.0000000000000000
 11
581.9999999999998
 21
409.9999999999964
 31
0.0000000000000000
  0
LINE
  5
4DA
100
AcDbEntity
  8
WAKU0
  6
BYBLOCK
 62
0
100
AcDbLine
 10
25.00000000000182
 20
12.00000000000001
 30
0.0000000000000000
 11
25.00000000000193
 21
409.9999999999965
 31
0.0000000000000000
  0
LINE
  5
4DB
100
AcDbEntity
  8
WAKU0
  6
BYBLOCK
 62
0
100
AcDbLine
 10
582.0000000000000
 20
12.00000000000000
 30
0.0000000000000000
 11
581.9999999999999
 21
409.9999999999964
 31
0.0000000000000000
  0
LINE
  5
4DC
100
AcDbEntity
  8
WAKU0
  6
BYBLOCK
 62
0
100
AcDbLine
 10
2.000000000001023
 20
417.9999999999968
 30
0.0000000000000000
 11
10.00000000000102
 21
417.9999999999968
 31
0.0000000000000000
  0
LINE
  5
4DD
100
AcDbEntity
  8
WAKU0
  6
BYBLOCK
 62
0
100
AcDbLine
 10
583.9999999999999
 20
417.9999999999964
 30
0.0000000000000000
 11
591.9999999999999
 21
417.9999999999964
 31
0.0000000000000000
  0
LINE
  5
4DE
100
AcDbEntity
  8
WAKU0
  6
BYBLOCK
 62
0
100
AcDbLine
 10
591.9999999999999
 20
409.9999999999963
 30
0.0000000000000000
 11
592.0000000000000
 21
417.9999999999963
 31
0.0000000000000000
  0
LINE
  5
4DF
100
AcDbEntity
  8
WAKU0
  6
BYBLOCK
 62
0
100
AcDbLine
 10
2.000000000001819
 20
409.9999999999964
 30
0.0000000000000000
 11
2.000000000001819
 21
417.9999999999964
 31
0.0000000000000000
  0
LINE
  5
4E0
100
AcDbEntity
  8
WAKU0
  6
BYBLOCK
 62
0
100
AcDbLine
 10
2.000000000001819
 20
2.000000000000043
 30
0.0000000000000000
 11
10.00000000000182
 21
2.000000000000043
 31
0.0000000000000000
  0
LINE
  5
4E1
100
AcDbEntity
  8
WAKU0
  6
BYBLOCK
 62
0
100
AcDbLine
 10
583.9999999999999
 20
2.000000000000004
 30
0.0000000000000000
 11
592.0000000000000
 21
2.000000000000004
 31
0.0000000000000000
  0
LINE
  5
4E2
100
AcDbEntity
  8
WAKU0
  6
BYBLOCK
 62
0
100
AcDbLine
 10
592.0000000000000
 20
10.00000000000007
 30
0.0000000000000000
 11
592.0000000000000
 21
2.000000000000078
 31
0.0000000000000000
  0
LINE
  5
4E3
100
AcDbEntity
  8
WAKU0
  6
BYBLOCK
 62
0
100
AcDbLine
 10
2.000000000001819
 20
2.000000000000101
 30
0.0000000000000000
 11
2.000000000001819
 21
10.00000000000007
 31
0.0000000000000000
  0
LINE
  5
4E4
100
AcDbEntity
  8
WAKU0
  6
BYBLOCK
 62
0
100
AcDbLine
 10
297.0000000000001
 20
-1.776356839400251e-015
 30
0.0000000000000000
 11
297.0000000000000
 21
12.00000000000001
 31
0.0000000000000000
  0
LINE
  5
4E5
100
AcDbEntity
  8
WAKU0
  6
BYBLOCK
 62
0
100
AcDbLine
 10
297.0000000000023
 20
409.9999999999980
 30
0.0000000000000000
 11
297.0000000000023
 21
419.9999999999980
 31
0.0000000000000000
  0
LINE
  5
4E6
100
AcDbEntity
  8
WAKU0
  6
BYBLOCK
 62
0
100
AcDbLine
 10
1.818989403545857e-012
 20
210.0000000000000
 30
0.0000000000000000
 11
25.00000000000182
 21
210.0000000000000
 31
0.0000000000000000
  0
LINE
  5
4E7
100
AcDbEntity
  8
WAKU0
  6
BYBLOCK
 62
0
100
AcDbLine
 10
581.9999999999999
 20
209.9999999999999
 30
0.0000000000000000
 11
593.9999999999999
 21
209.9999999999999
 31
0.0000000000000000
  0
LINE
  5
4E8
100
AcDbEntity
  8
WAKU0
  6
BYBLOCK
 62
0
100
AcDbLine
 10
227.0000000000036
 20
7.000000000000008
 30
0.0000000000000000
 11
366.9999999999999
 21
7.000000000000044
 31
0.0000000000000000
  0
LINE
  5
4E9
100
AcDbEntity
  8
WAKU0
  6
BYBLOCK
 62
0
100
AcDbLine
 10
21.00000000000102
 20
339.9999999999970
 30
0.0000000000000000
 11
25.00000000000102
 21
339.9999999999970
 31
0.0000000000000000
  0
LINE
  5
4EA
100
AcDbEntity
  8
WAKU0
  6
BYBLOCK
 62
0
100
AcDbLine
 10
581.9999999999999
 20
339.9999999999964
 30
0.0000000000000000
 11
585.9999999999999
 21
339.9999999999964
 31
0.0000000000000000
  0
LINE
  5
4EB
100
AcDbEntity
  8
WAKU0
  6
BYBLOCK
 62
0
100
AcDbLine
 10
21.00000000000193
 20
274.9999999999970
 30
0.0000000000000000
 11
25.00000000000193
 21
274.9999999999970
 31
0.0000000000000000
  0
LINE
  5
4EC
100
AcDbEntity
  8
WAKU0
  6
BYBLOCK
 62
0
100
AcDbLine
 10
581.9999999999999
 20
274.9999999999964
 30
0.0000000000000000
 11
585.9999999999999
 21
274.9999999999964
 31
0.0000000000000000
  0
LINE
  5
4ED
100
AcDbEntity
  8
WAKU0
  6
BYBLOCK
 62
0
100
AcDbLine
 10
21.00000000000011
 20
145.0000000000000
 30
0.0000000000000000
 11
25.00000000000011
 21
144.9999999999999
 31
0.0000000000000000
  0
LINE
  5
4EE
100
AcDbEntity
  8
WAKU0
  6
BYBLOCK
 62
0
100
AcDbLine
 10
582.0000000000000
 20
144.9999999999999
 30
0.0000000000000000
 11
586.0000000000000
 21
144.9999999999999
 31
0.0000000000000000
  0
LINE
  5
4EF
100
AcDbEntity
  8
WAKU0
  6
BYBLOCK
 62
0
100
AcDbLine
 10
21.00000000000193
 20
79.99999999999999
 30
0.0000000000000000
 11
25.00000000000193
 21
79.99999999999999
 31
0.0000000000000000
  0
LINE
  5
4F0
100
AcDbEntity
  8
WAKU0
  6
BYBLOCK
 62
0
100
AcDbLine
 10
582.0000000000000
 20
79.99999999999994
 30
0.0000000000000000
 11
585.9999999999999
 21
79.99999999999994
 31
0.0000000000000000
  0
LINE
  5
4F1
100
AcDbEntity
  8
WAKU0
  6
BYBLOCK
 62
0
100
AcDbLine
 10
367.0000000000000
 20
7.000000000000036
 30
0.0000000000000000
 11
366.9999999999999
 21
12.00000000000001
 31
0.0000000000000000
  0
LINE
  5
4F2
100
AcDbEntity
  8
WAKU0
  6
BYBLOCK
 62
0
100
AcDbLine
 10
366.9999999999999
 20
409.9999999999994
 30
0.0000000000000000
 11
366.9999999999999
 21
413.9999999999994
 31
0.0000000000000000
  0
LINE
  5
4F3
100
AcDbEntity
  8
WAKU0
  6
BYBLOCK
 62
0
100
AcDbLine
 10
227.0000000000036
 20
7.000000000000007
 30
0.0000000000000000
 11
227.0000000000036
 21
11.99999999999995
 31
0.0000000000000000
  0
LINE
  5
4F4
100
AcDbEntity
  8
WAKU0
  6
BYBLOCK
 62
0
100
AcDbLine
 10
227.0000000000036
 20
409.9999999999964
 30
0.0000000000000000
 11
227.0000000000036
 21
413.9999999999964
 31
0.0000000000000000
  0
LINE
  5
4F5
100
AcDbEntity
  8
WAKU0
  6
BYBLOCK
 62
0
100
AcDbLine
 10
237.0000000000036
 20
10.00000000000010
 30
0.0000000000000000
 11
237.0000000000036
 21
7.000000000000028
 31
0.0000000000000000
  0
LINE
  5
4F6
100
AcDbEntity
  8
WAKU0
  6
BYBLOCK
 62
0
100
AcDbLine
 10
247.0000000000036
 20
10.00000000000006
 30
0.0000000000000000
 11
247.0000000000036
 21
7.000000000000018
 31
0.0000000000000000
  0
LINE
  5
4F7
100
AcDbEntity
  8
WAKU0
  6
BYBLOCK
 62
0
100
AcDbLine
 10
257.0000000000000
 20
7.000000000000011
 30
0.0000000000000000
 11
257.0000000000000
 21
10.00000000000010
 31
0.0000000000000000
  0
LINE
  5
4F8
100
AcDbEntity
  8
WAKU0
  6
BYBLOCK
 62
0
100
AcDbLine
 10
267.0000000000000
 20
7.000000000000028
 30
0.0000000000000000
 11
267.0000000000000
 21
10.00000000000007
 31
0.0000000000000000
  0
LINE
  5
4F9
100
AcDbEntity
  8
WAKU0
  6
BYBLOCK
 62
0
100
AcDbLine
 10
277.0000000000000
 20
10.00000000000010
 30
0.0000000000000000
 11
277.0000000000000
 21
7.000000000000011
 31
0.0000000000000000
  0
LINE
  5
4FA
100
AcDbEntity
  8
WAKU0
  6
BYBLOCK
 62
0
100
AcDbLine
 10
287.0000000000000
 20
10.00000000000009
 30
0.0000000000000000
 11
287.0000000000000
 21
7.000000000000018
 31
0.0000000000000000
  0
LINE
  5
4FB
100
AcDbEntity
  8
WAKU0
  6
BYBLOCK
 62
0
100
AcDbLine
 10
307.0000000000000
 20
10.00000000000007
 30
0.0000000000000000
 11
307.0000000000000
 21
7.000000000000007
 31
0.0000000000000000
  0
LINE
  5
4FC
100
AcDbEntity
  8
WAKU0
  6
BYBLOCK
 62
0
100
AcDbLine
 10
317.0000000000000
 20
7.000000000000014
 30
0.0000000000000000
 11
317.0000000000000
 21
10.00000000000009
 31
0.0000000000000000
  0
LINE
  5
4FD
100
AcDbEntity
  8
WAKU0
  6
BYBLOCK
 62
0
100
AcDbLine
 10
326.9999999999999
 20
10.00000000000007
 30
0.0000000000000000
 11
326.9999999999999
 21
7.000000000000007
 31
0.0000000000000000
  0
LINE
  5
4FE
100
AcDbEntity
  8
WAKU0
  6
BYBLOCK
 62
0
100
AcDbLine
 10
337.0000000000000
 20
10.00000000000007
 30
0.0000000000000000
 11
336.9999999999999
 21
7.000000000000006
 31
0.0000000000000000
  0
LINE
  5
4FF
100
AcDbEntity
  8
WAKU0
  6
BYBLOCK
 62
0
100
AcDbLine
 10
346.9999999999999
 20
10.00000000000011
 30
0.0000000000000000
 11
346.9999999999999
 21
7.000000000000036
 31
0.0000000000000000
  0
LINE
  5
500
100
AcDbEntity
  8
WAKU0
  6
BYBLOCK
 62
0
100
AcDbLine
 10
356.9999999999999
 20
10.00000000000007
 30
0.0000000000000000
 11
356.9999999999999
 21
7.000000000000007
 31
0.0000000000000000
  0
LINE
  5
501
100
AcDbEntity
  8
WAKU0
  6
BYBLOCK
 62
0
100
AcDbLine
 10
506.9999999999999
 20
8.000000000000085
 30
0.0000000000000000
 11
506.9999999999999
 21
11.99999999999999
 31
0.0000000000000000
  0
LINE
  5
502
100
AcDbEntity
  8
WAKU0
  6
BYBLOCK
 62
0
100
AcDbLine
 10
506.9999999999999
 20
409.9999999999974
 30
0.0000000000000000
 11
507.0000000000000
 21
413.9999999999974
 31
0.0000000000000000
  0
LINE
  5
503
100
AcDbEntity
  8
WAKU0
  6
BYBLOCK
 62
0
100
AcDbLine
 10
437.0000000000000
 20
8.000000000000100
 30
0.0000000000000000
 11
436.9999999999999
 21
12.00000000000001
 31
0.0000000000000000
  0
LINE
  5
504
100
AcDbEntity
  8
WAKU0
  6
BYBLOCK
 62
0
100
AcDbLine
 10
436.9999999999999
 20
409.9999999999984
 30
0.0000000000000000
 11
436.9999999999999
 21
413.9999999999984
 31
0.0000000000000000
  0
LINE
  5
505
100
AcDbEntity
  8
WAKU0
  6
BYBLOCK
 62
0
100
AcDbLine
 10
157.0000000000036
 20
8.000000000000107
 30
0.0000000000000000
 11
157.0000000000036
 21
12.00000000000001
 31
0.0000000000000000
  0
LINE
  5
506
100
AcDbEntity
  8
WAKU0
  6
BYBLOCK
 62
0
100
AcDbLine
 10
157.0000000000036
 20
409.9999999999964
 30
0.0000000000000000
 11
157.0000000000036
 21
413.9999999999964
 31
0.0000000000000000
  0
LINE
  5
507
100
AcDbEntity
  8
WAKU0
  6
BYBLOCK
 62
0
100
AcDbLine
 10
87.00000000000364
 20
8.000000000000092
 30
0.0000000000000000
 11
87.00000000000364
 21
12.00000000000001
 31
0.0000000000000000
  0
LINE
  5
508
100
AcDbEntity
  8
WAKU0
  6
BYBLOCK
 62
0
100
AcDbLine
 10
87.00000000000364
 20
409.9999999999964
 30
0.0000000000000000
 11
87.00000000000364
 21
413.9999999999964
 31
0.0000000000000000
  0
MTEXT
  5
509
100
AcDbEntity
  8
WAKU0
  6
BYBLOCK
 62
0
100
AcDbMText
 10
56.00000000000182
 20
10.10000038146978
 30
0.0000000000000000
 40
3.100000381469727
 41
0.0000000000000000
 71
     1
 72
     1
  1
{\H0.81x;1}
 11
1.000000000000000
 21
0.0000000000000000
 31
0.0000000000000000
  7
STANDARD
  0
MTEXT
  5
50A
100
AcDbEntity
  8
WAKU0
  6
BYBLOCK
 62
0
100
AcDbMText
 10
122.0000000000036
 20
10.10000038146973
 30
0.0000000000000000
 40
3.100000381469727
 41
0.0000000000000000
 71
     1
 72
     1
  1
{\H0.81x;2}
 11
1.000000000000000
 21
0.0000000000000000
 31
0.0000000000000000
  7
STANDARD
  0
MTEXT
  5
50B
100
AcDbEntity
  8
WAKU0
  6
BYBLOCK
 62
0
100
AcDbMText
 10
192.0000000000036
 20
10.10000038146973
 30
0.0000000000000000
 40
3.100000381469727
 41
0.0000000000000000
 71
     1
 72
     1
  1
{\H0.81x;3}
 11
1.000000000000000
 21
0.0000000000000000
 31
0.0000000000000000
  7
STANDARD
  0
MTEXT
  5
50C
100
AcDbEntity
  8
WAKU0
  6
BYBLOCK
 62
0
100
AcDbMText
 10
401.9999999999998
 20
10.10000038146967
 30
0.0000000000000000
 40
3.100000381469727
 41
0.0000000000000000
 71
     1
 72
     1
  1
{\H0.81x;6}
 11
1.000000000000000
 21
0.0000000000000000
 31
0.0000000000000000
  7
STANDARD
  0
MTEXT
  5
50D
100
AcDbEntity
  8
WAKU0
  6
BYBLOCK
 62
0
100
AcDbMText
 10
471.9999999999998
 20
10.10000038146973
 30
0.0000000000000000
 40
3.100000381469727
 41
0.0000000000000000
 71
     1
 72
     1
  1
{\H0.81x;7}
 11
1.000000000000000
 21
0.0000000000000000
 31
0.0000000000000000
  7
STANDARD
  0
MTEXT
  5
50E
100
AcDbEntity
  8
WAKU0
  6
BYBLOCK
 62
0
100
AcDbMText
 10
544.4999999999999
 20
10.10000038146973
 30
0.0000000000000000
 40
3.100000381469727
 41
0.0000000000000000
 71
     1
 72
     1
  1
{\H0.81x;8}
 11
1.000000000000000
 21
0.0000000000000000
 31
0.0000000000000000
  7
STANDARD
  0
MTEXT
  5
50F
100
AcDbEntity
  8
WAKU0
  6
BYBLOCK
 62
0
100
AcDbMText
 10
56.00000000000182
 20
415.1000003814661
 30
0.0000000000000000
 40
3.100000381469727
 41
0.0000000000000000
 71
     1
 72
     1
  1
{\H0.81x;1}
 11
1.000000000000000
 21
0.0000000000000000
 31
0.0000000000000000
  7
STANDARD
  0
MTEXT
  5
510
100
AcDbEntity
  8
WAKU0
  6
BYBLOCK
 62
0
100
AcDbMText
 10
122.0000000000036
 20
415.1000003814661
 30
0.0000000000000000
 40
3.100000381469727
 41
0.0000000000000000
 71
     1
 72
     1
  1
{\H0.81x;2}
 11
1.000000000000000
 21
0.0000000000000000
 31
0.0000000000000000
  7
STANDARD
  0
MTEXT
  5
511
100
AcDbEntity
  8
WAKU0
  6
BYBLOCK
 62
0
100
AcDbMText
 10
192.0000000000036
 20
415.1000003814661
 30
0.0000000000000000
 40
3.100000381469727
 41
0.0000000000000000
 71
     1
 72
     1
  1
{\H0.81x;3}
 11
1.000000000000000
 21
0.0000000000000000
 31
0.0000000000000000
  7
STANDARD
  0
MTEXT
  5
512
100
AcDbEntity
  8
WAKU0
  6
BYBLOCK
 62
0
100
AcDbMText
 10
262.0000000000000
 20
415.1000003814661
 30
0.0000000000000000
 40
3.100000381469727
 41
0.0000000000000000
 71
     1
 72
     1
  1
{\H0.81x;4}
 11
1.000000000000000
 21
0.0000000000000000
 31
0.0000000000000000
  7
STANDARD
  0
MTEXT
  5
513
100
AcDbEntity
  8
WAKU0
  6
BYBLOCK
 62
0
100
AcDbMText
 10
331.9999999999998
 20
415.1000003814661
 30
0.0000000000000000
 40
3.100000381469727
 41
0.0000000000000000
 71
     1
 72
     1
  1
{\H0.81x;5}
 11
1.000000000000000
 21
0.0000000000000000
 31
0.0000000000000000
  7
STANDARD
  0
MTEXT
  5
514
100
AcDbEntity
  8
WAKU0
  6
BYBLOCK
 62
0
100
AcDbMText
 10
401.9999999999998
 20
415.1000003814661
 30
0.0000000000000000
 40
3.100000381469727
 41
0.0000000000000000
 71
     1
 72
     1
  1
{\H0.81x;6}
 11
1.000000000000000
 21
0.0000000000000000
 31
0.0000000000000000
  7
STANDARD
  0
MTEXT
  5
515
100
AcDbEntity
  8
WAKU0
  6
BYBLOCK
 62
0
100
AcDbMText
 10
471.9999999999998
 20
415.1000003814661
 30
0.0000000000000000
 40
3.100000381469727
 41
0.0000000000000000
 71
     1
 72
     1
  1
{\H0.81x;7}
 11
1.000000000000000
 21
0.0000000000000000
 31
0.0000000000000000
  7
STANDARD
  0
MTEXT
  5
516
100
AcDbEntity
  8
WAKU0
  6
BYBLOCK
 62
0
100
AcDbMText
 10
544.4999999999999
 20
415.1000003814661
 30
0.0000000000000000
 40
3.100000381469727
 41
0.0000000000000000
 71
     1
 72
     1
  1
{\H0.81x;8}
 11
1.000000000000000
 21
0.0000000000000000
 31
0.0000000000000000
  7
STANDARD
  0
MTEXT
  5
517
100
AcDbEntity
  8
WAKU0
  6
BYBLOCK
 62
0
100
AcDbMText
 10
21.00000000000182
 20
378.1000003814661
 30
0.0000000000000000
 40
3.100000381469727
 41
0.0000000000000000
 71
     1
 72
     1
  1
{\H0.81x;A}
 11
1.000000000000000
 21
0.0000000000000000
 31
0.0000000000000000
  7
STANDARD
  0
MTEXT
  5
518
100
AcDbEntity
  8
WAKU0
  6
BYBLOCK
 62
0
100
AcDbMText
 10
21.00000000000182
 20
313.1000003814661
 30
0.0000000000000000
 40
3.100000381469727
 41
0.0000000000000000
 71
     1
 72
     1
  1
{\H0.81x;B}
 11
1.000000000000000
 21
0.0000000000000000
 31
0.0000000000000000
  7
STANDARD
  0
MTEXT
  5
519
100
AcDbEntity
  8
WAKU0
  6
BYBLOCK
 62
0
100
AcDbMText
 10
21.00000000000182
 20
248.1000003814695
 30
0.0000000000000000
 40
3.100000381469727
 41
0.0000000000000000
 71
     1
 72
     1
  1
{\H0.81x;C}
 11
1.000000000000000
 21
0.0000000000000000
 31
0.0000000000000000
  7
STANDARD
  0
MTEXT
  5
51A
100
AcDbEntity
  8
WAKU0
  6
BYBLOCK
 62
0
100
AcDbMText
 10
21.00000000000182
 20
183.1000003814695
 30
0.0000000000000000
 40
3.100000381469727
 41
0.0000000000000000
 71
     1
 72
     1
  1
{\H0.81x;D}
 11
1.000000000000000
 21
0.0000000000000000
 31
0.0000000000000000
  7
STANDARD
  0
MTEXT
  5
51B
100
AcDbEntity
  8
WAKU0
  6
BYBLOCK
 62
0
100
AcDbMText
 10
21.00000000000182
 20
118.1000003814695
 30
0.0000000000000000
 40
3.100000381469727
 41
0.0000000000000000
 71
     1
 72
     1
  1
{\H0.81x;E}
 11
1.000000000000000
 21
0.0000000000000000
 31
0.0000000000000000
  7
STANDARD
  0
MTEXT
  5
51C
100
AcDbEntity
  8
WAKU0
  6
BYBLOCK
 62
0
100
AcDbMText
 10
21.00000000000182
 20
53.10000038146950
 30
0.0000000000000000
 40
3.100000381469727
 41
0.0000000000000000
 71
     1
 72
     1
  1
{\H0.81x;F}
 11
1.000000000000000
 21
0.0000000000000000
 31
0.0000000000000000
  7
STANDARD
  0
MTEXT
  5
51D
100
AcDbEntity
  8
WAKU0
  6
BYBLOCK
 62
0
100
AcDbMText
 10
584.9999999999998
 20
378.1000003814661
 30
0.0000000000000000
 40
3.100000381469727
 41
0.0000000000000000
 71
     1
 72
     1
  1
{\H0.81x;A}
 11
1.000000000000000
 21
0.0000000000000000
 31
0.0000000000000000
  7
STANDARD
  0
MTEXT
  5
51E
100
AcDbEntity
  8
WAKU0
  6
BYBLOCK
 62
0
100
AcDbMText
 10
584.9999999999998
 20
313.1000003814661
 30
0.0000000000000000
 40
3.100000381469727
 41
0.0000000000000000
 71
     1
 72
     1
  1
{\H0.81x;B}
 11
1.000000000000000
 21
0.0000000000000000
 31
0.0000000000000000
  7
STANDARD
  0
MTEXT
  5
51F
100
AcDbEntity
  8
WAKU0
  6
BYBLOCK
 62
0
100
AcDbMText
 10
584.9999999999998
 20
248.1000003814696
 30
0.0000000000000000
 40
3.100000381469727
 41
0.0000000000000000
 71
     1
 72
     1
  1
{\H0.81x;C}
 11
1.000000000000000
 21
0.0000000000000000
 31
0.0000000000000000
  7
STANDARD
  0
MTEXT
  5
520
100
AcDbEntity
  8
WAKU0
  6
BYBLOCK
 62
0
100
AcDbMText
 10
584.9999999999998
 20
183.1000003814696
 30
0.0000000000000000
 40
3.100000381469727
 41
0.0000000000000000
 71
     1
 72
     1
  1
{\H0.81x;D}
 11
1.000000000000000
 21
0.0000000000000000
 31
0.0000000000000000
  7
STANDARD
  0
MTEXT
  5
521
100
AcDbEntity
  8
WAKU0
  6
BYBLOCK
 62
0
100
AcDbMText
 10
584.9999999999998
 20
118.1000003814696
 30
0.0000000000000000
 40
3.100000381469727
 41
0.0000000000000000
 71
     1
 72
     1
  1
{\H0.81x;E}
 11
1.000000000000000
 21
0.0000000000000000
 31
0.0000000000000000
  7
STANDARD
  0
MTEXT
  5
522
100
AcDbEntity
  8
WAKU0
  6
BYBLOCK
 62
0
100
AcDbMText
 10
584.9999999999998
 20
53.10000038146950
 30
0.0000000000000000
 40
3.100000381469727
 41
0.0000000000000000
 71
     1
 72
     1
  1
{\H0.81x;F}
 11
1.000000000000000
 21
0.0000000000000000
 31
0.0000000000000000
  7
STANDARD
  0
ENDBLK
  5
523
100
AcDbEntity
  8
WAKU0
  6
BYBLOCK
 62
3
100
AcDbBlockEnd
  0
ENDSEC
  0
SECTION
  2
ENTITIES
  0
POINT
  5
46
100
AcDbEntity
  8
MAIN0
  6
CONTINUOUS
 62
3
100
AcDbPoint
 10
258.3542860532090
 20
269.6435029065030
 30
0.0000000000000000
  0
POINT
  5
47
100
AcDbEntity
  8
MAIN0
  6
CONTINUOUS
 62
3
100
AcDbPoint
 10
458.6949624817246
 20
269.6435029065031
 30
0.0000000000000000
  0
POINT
  5
48
100
AcDbEntity
  8
MAIN0
  6
CONTINUOUS
 62
3
100
AcDbPoint
 10
258.3542860532091
 20
315.9435029065030
 30
0.0000000000000000
  0
POINT
  5
49
100
AcDbEntity
  8
MAIN0
  6
CONTINUOUS
 62
3
100
AcDbPoint
 10
210.3542860532091
 20
374.6435029065030
 30
0.0000000000000000
  0
POINT
  5
4A
100
AcDbEntity
  8
MAIN0
  6
CONTINUOUS
 62
3
100
AcDbPoint
 10
263.3542860532091
 20
364.6935029065030
 30
0.0000000000000000
  0
POINT
  5
4B
100
AcDbEntity
  8
MAIN0
  6
CONTINUOUS
 62
3
100
AcDbPoint
 10
266.3542860532091
 20
358.6934959065030
 30
0.0000000000000000
  0
POINT
  5
4C
100
AcDbEntity
  8
MAIN0
  6
CONTINUOUS
 62
3
100
AcDbPoint
 10
266.3542860532091
 20
357.6935029065030
 30
0.0000000000000000
  0
POINT
  5
4D
100
AcDbEntity
  8
MAIN0
  6
CONTINUOUS
 62
3
100
AcDbPoint
 10
266.3542860532091
 20
347.6935029065030
 30
0.0000000000000000
  0
POINT
  5
4E
100
AcDbEntity
  8
MAIN0
  6
CONTINUOUS
 62
3
100
AcDbPoint
 10
266.3542860532091
 20
346.6935029065030
 30
0.0000000000000000
  0
POINT
  5
4F
100
AcDbEntity
  8
MAIN0
  6
CONTINUOUS
 62
3
100
AcDbPoint
 10
263.3542860532092
 20
316.6935029065030
 30
0.0000000000000000
  0
POINT
  5
50
100
AcDbEntity
  8
MAIN0
  6
CONTINUOUS
 62
3
100
AcDbPoint
 10
458.6949624817243
 20
375.1935029065031
 30
0.0000000000000000
  0
LINE
  5
51
100
AcDbEntity
  8
MAIN0
  6
CENTER
 62
12
100
AcDbLine
 10
223.3491798847339
 20
72.55699353386549
 30
0.0000000000000000
 11
270.6891745518312
 21
72.55699353386549
 31
0.0000000000000000
  0
LINE
  5
52
100
AcDbEntity
  8
MAIN0
  6
CONTINUOUS
 62
3
100
AcDbLine
 10
258.3542860532089
 20
26.74279798964619
 30
0.0000000000000000
 11
258.3542860532089
 21
55.05699353386530
 31
0.0000000000000000
  0
LINE
  5
53
100
AcDbEntity
  8
MAIN0
  6
CENTER
 62
12
100
AcDbLine
 10
343.1785679396958
 20
269.6435029065030
 30
0.0000000000000000
 11
576.2227850425526
 21
269.6435029065030
 31
0.0000000000000000
  0
LINE
  5
54
100
AcDbEntity
  8
MAIN0
  6
CONTINUOUS
 62
3
100
AcDbLine
 10
210.3542860532093
 20
375.9435029065030
 30
0.0000000000000000
 11
262.3542860532091
 21
375.9435029065030
 31
0.0000000000000000
  0
LINE
  5
55
100
AcDbEntity
  8
MAIN0
  6
CONTINUOUS
 62
3
100
AcDbLine
 10
210.3542860532091
 20
368.0327408213731
 30
0.0000000000000000
 11
210.3542860532091
 21
375.9435029065029
 31
0.0000000000000000
  0
LINE
  5
56
100
AcDbEntity
  8
MAIN0
  6
CONTINUOUS
 62
3
100
AcDbLine
 10
262.3542860532091
 20
375.9435029065029
 30
0.0000000000000000
 11
263.3542860532093
 21
375.3661526373131
 31
0.0000000000000000
  0
LINE
  5
57
100
AcDbEntity
  8
MAIN0
  6
CONTINUOUS
 62
3
100
AcDbLine
 10
262.3542860532091
 20
315.9435029065029
 30
0.0000000000000000
 11
263.3542860532090
 21
316.5208531756924
 31
0.0000000000000000
  0
LINE
  5
58
100
AcDbEntity
  8
MAIN0
  6
CONTINUOUS
 62
3
100
AcDbLine
 10
266.3542860532092
 20
316.6935029065030
 30
0.0000000000000000
 11
266.3542860532091
 21
364.6935029065030
 31
0.0000000000000000
  0
LINE
  5
59
100
AcDbEntity
  8
MAIN0
  6
HIDDEN
 62
12
100
AcDbLine
 10
244.7343227722240
 20
364.6935029065030
 30
0.0000000000000000
 11
263.3542860532091
 21
364.6935029065030
 31
0.0000000000000000
  0
LINE
  5
5A
100
AcDbEntity
  8
MAIN0
  6
CONTINUOUS
 62
3
100
AcDbLine
 10
263.3542860532091
 20
364.6935029065030
 30
0.0000000000000000
 11
266.3542860532091
 21
364.6935029065030
 31
0.0000000000000000
  0
LINE
  5
5B
100
AcDbEntity
  8
MAIN0
  6
HIDDEN
 62
12
100
AcDbLine
 10
245.0341336865291
 20
316.6935029065030
 30
0.0000000000000000
 11
263.3542860532092
 21
316.6935029065030
 31
0.0000000000000000
  0
LINE
  5
5C
100
AcDbEntity
  8
MAIN0
  6
CONTINUOUS
 62
3
100
AcDbLine
 10
263.3542860532092
 20
316.6935029065030
 30
0.0000000000000000
 11
266.3542860532092
 21
316.6935029065030
 31
0.0000000000000000
  0
LINE
  5
5D
100
AcDbEntity
  8
MAIN0
  6
CENTER
 62
12
100
AcDbLine
 10
201.3851271885755
 20
344.6435029065030
 30
0.0000000000000000
 11
175.8019942078923
 21
344.6435029065030
 31
0.0000000000000000
  0
LINE
  5
5E
100
AcDbEntity
  8
MAIN0
  6
CENTER
 62
12
100
AcDbLine
 10
412.6339664251625
 20
233.3234883236986
 30
0.0000000000000000
 11
404.4041390093868
 21
247.5779675453455
 31
0.0000000000000000
  0
LINE
  5
5F
100
AcDbEntity
  8
MAIN0
  6
CENTER
 62
12
100
AcDbLine
 10
382.4895887503447
 20
235.5350820190278
 30
0.0000000000000000
 11
390.9060078505336
 21
220.9574165197076
 31
0.0000000000000000
  0
LINE
  5
60
100
AcDbEntity
  8
MAIN0
  6
CENTER
 62
12
100
AcDbLine
 10
472.2823440383860
 20
218.9347045952157
 30
0.0000000000000000
 11
479.6358655755603
 21
191.4909886039293
 31
0.0000000000000000
  0
LINE
  5
61
100
AcDbEntity
  8
MAIN0
  6
CENTER
 62
12
100
AcDbLine
 10
445.1075809250617
 20
218.9347045952157
 30
0.0000000000000000
 11
437.7540593878875
 21
191.4909886039294
 31
0.0000000000000000
  0
LINE
  5
62
100
AcDbEntity
  8
MAIN0
  6
CENTER
 62
12
100
AcDbLine
 10
495.8163792363503
 20
306.7649196611279
 30
0.0000000000000000
 11
515.9065736904623
 21
326.8551141152399
 31
0.0000000000000000
  0
LINE
  5
63
100
AcDbEntity
  8
MAIN0
  6
CENTER
 62
12
100
AcDbLine
 10
509.4037607930126
 20
283.2308844631644
 30
0.0000000000000000
 11
536.8474767842977
 21
290.5844060003385
 31
0.0000000000000000
  0
LINE
  5
64
100
AcDbEntity
  8
MAIN0
  6
CENTER
 62
12
100
AcDbLine
 10
407.9861641704375
 20
283.2308844631658
 30
0.0000000000000000
 11
380.5424481791511
 21
290.5844060003401
 31
0.0000000000000000
  0
LINE
  5
65
100
AcDbEntity
  8
MAIN0
  6
CENTER
 62
12
100
AcDbLine
 10
421.5735457270998
 20
306.7649196611291
 30
0.0000000000000000
 11
401.4833512729877
 21
326.8551141152412
 31
0.0000000000000000
  0
LINE
  5
66
100
AcDbEntity
  8
MAIN0
  6
CONTINUOUS
 62
3
100
AcDbLine
 10
249.3542860532091
 20
214.6435029065030
 30
0.0000000000000000
 11
258.3542860532091
 21
214.6435029065030
 31
0.0000000000000000
  0
LINE
  5
67
100
AcDbEntity
  8
MAIN0
  6
CONTINUOUS
 62
3
100
AcDbLine
 10
222.0863368607778
 20
257.1435029065030
 30
0.0000000000000000
 11
258.3542860532092
 21
257.1435029065030
 31
0.0000000000000000
  0
LINE
  5
68
100
AcDbEntity
  8
MAIN0
  6
CONTINUOUS
 62
3
100
AcDbLine
 10
217.3542860532094
 20
255.1435029065030
 30
0.0000000000000000
 11
252.3542860532091
 21
255.1435029065030
 31
0.0000000000000000
  0
LINE
  5
69
100
AcDbEntity
  8
MAIN0
  6
CONTINUOUS
 62
3
100
AcDbLine
 10
253.3542860532091
 20
227.1435029065030
 30
0.0000000000000000
 11
253.3542860532091
 21
254.1435029065030
 31
0.0000000000000000
  0
LINE
  5
6A
100
AcDbEntity
  8
MAIN0
  6
CONTINUOUS
 62
3
100
AcDbLine
 10
249.3542860532092
 20
226.1435029065031
 30
0.0000000000000000
 11
252.3542860532091
 21
226.1435029065031
 31
0.0000000000000000
  0
LINE
  5
6B
100
AcDbEntity
  8
MAIN0
  6
CENTER
 62
12
100
AcDbLine
 10
237.0968627828235
 20
220.6435029065030
 30
0.0000000000000000
 11
261.6208857386455
 21
220.6435029065030
 31
0.0000000000000000
  0
LINE
  5
6C
100
AcDbEntity
  8
MAIN0
  6
CONTINUOUS
 62
3
100
AcDbLine
 10
220.3542860532091
 20
255.1435029065030
 30
0.0000000000000000
 11
220.3542860532091
 21
269.6435029065030
 31
0.0000000000000000
  0
LINE
  5
6D
100
AcDbEntity
  8
MAIN0
  6
CONTINUOUS
 62
3
100
AcDbLine
 10
220.3542860532092
 20
256.1435029065033
 30
0.0000000000000000
 11
222.0863368607778
 21
257.1435029065031
 31
0.0000000000000000
  0
LINE
  5
6E
100
AcDbEntity
  8
MAIN0
  6
CONTINUOUS
 62
3
100
AcDbLine
 10
222.0863368607776
 20
257.1435029065030
 30
0.0000000000000000
 11
222.0863368607776
 21
260.9597763139419
 31
0.0000000000000000
  0
LINE
  5
6F
100
AcDbEntity
  8
MAIN0
  6
CONTINUOUS
 62
3
100
AcDbLine
 10
222.0863368607778
 20
282.1435029065030
 30
0.0000000000000000
 11
258.3542860532092
 21
282.1435029065030
 31
0.0000000000000000
  0
LINE
  5
70
100
AcDbEntity
  8
MAIN0
  6
CONTINUOUS
 62
3
100
AcDbLine
 10
217.3542860532094
 20
284.1435029065030
 30
0.0000000000000000
 11
252.3542860532091
 21
284.1435029065030
 31
0.0000000000000000
  0
LINE
  5
71
100
AcDbEntity
  8
MAIN0
  6
CONTINUOUS
 62
3
100
AcDbLine
 10
253.3542860532091
 20
285.1435029065030
 30
0.0000000000000000
 11
253.3542860532091
 21
315.9435029065030
 31
0.0000000000000000
  0
LINE
  5
72
100
AcDbEntity
  8
MAIN0
  6
CONTINUOUS
 62
3
100
AcDbLine
 10
220.3542860532091
 20
284.1435029065030
 30
0.0000000000000000
 11
220.3542860532091
 21
269.6435029065030
 31
0.0000000000000000
  0
LINE
  5
73
100
AcDbEntity
  8
MAIN0
  6
CONTINUOUS
 62
3
100
AcDbLine
 10
220.3542860532092
 20
283.1435029065028
 30
0.0000000000000000
 11
222.0863368607778
 21
282.1435029065030
 31
0.0000000000000000
  0
LINE
  5
74
100
AcDbEntity
  8
MAIN0
  6
CONTINUOUS
 62
3
100
AcDbLine
 10
222.0863368607776
 20
282.1435029065030
 30
0.0000000000000000
 11
222.0863368607776
 21
278.3272294990641
 31
0.0000000000000000
  0
LINE
  5
75
100
AcDbEntity
  8
MAIN0
  6
CONTINUOUS
 62
3
100
AcDbLine
 10
253.3542860532092
 20
310.1435029065029
 30
0.0000000000000000
 11
253.8542860532087
 21
310.1435029065029
 31
0.0000000000000000
  0
LINE
  5
76
100
AcDbEntity
  8
MAIN0
  6
CONTINUOUS
 62
3
100
AcDbLine
 10
253.8542860532088
 20
310.1435029065028
 30
0.0000000000000000
 11
258.3542860532093
 21
307.5454266951492
 31
0.0000000000000000
  0
LINE
  5
77
100
AcDbEntity
  8
MAIN0
  6
CENTER
 62
12
100
AcDbLine
 10
358.3459570792775
 20
211.7069776244888
 30
0.0000000000000000
 11
458.6949624817255
 21
269.6435029065030
 31
0.0000000000000000
  0
LINE
  5
78
100
AcDbEntity
  8
MAIN0
  6
CENTER
 62
12
100
AcDbLine
 10
493.4171928303599
 20
289.6903919451513
 30
0.0000000000000000
 11
508.5791763695989
 21
298.4441672229796
 31
0.0000000000000000
  0
LINE
  5
79
100
AcDbEntity
  8
MAIN0
  6
CENTER
 62
12
100
AcDbLine
 10
518.7265516548843
 20
304.3027570755072
 30
0.0000000000000000
 11
530.0973198939637
 21
310.8676731792324
 31
0.0000000000000000
  0
LINE
  5
7A
100
AcDbEntity
  8
MAIN0
  6
CONTINUOUS
 62
3
100
AcDbLine
 10
263.3542860532089
 20
56.05699353386578
 30
0.0000000000000000
 11
263.3542860532089
 21
64.55699353386541
 31
0.0000000000000000
  0
LINE
  5
7B
100
AcDbEntity
  8
MAIN0
  6
CONTINUOUS
 62
12
100
AcDbLine
 10
262.3542860532089
 20
55.47964326467616
 30
0.0000000000000000
 11
262.3542860532089
 21
65.13434380305503
 31
0.0000000000000000
  0
LINE
  5
7C
100
AcDbEntity
  8
MAIN0
  6
CONTINUOUS
 62
3
100
AcDbLine
 10
244.1989259080149
 20
55.05699353386549
 30
0.0000000000000000
 11
261.6222352456396
 21
55.05699353386549
 31
0.0000000000000000
  0
LINE
  5
7D
100
AcDbEntity
  8
MAIN0
  6
CONTINUOUS
 62
3
100
AcDbLine
 10
261.6222352456396
 20
55.05699353386549
 30
0.0000000000000000
 11
263.3542860532089
 21
56.05699353386575
 31
0.0000000000000000
  0
LINE
  5
7E
100
AcDbEntity
  8
MAIN0
  6
CONTINUOUS
 62
3
100
AcDbLine
 10
258.3542860532089
 20
118.3711890780848
 30
0.0000000000000000
 11
258.3542860532089
 21
90.05699353386572
 31
0.0000000000000000
  0
LINE
  5
7F
100
AcDbEntity
  8
MAIN0
  6
CONTINUOUS
 62
3
100
AcDbLine
 10
263.3542860532089
 20
89.05699353386524
 30
0.0000000000000000
 11
263.3542860532089
 21
80.55699353386561
 31
0.0000000000000000
  0
LINE
  5
80
100
AcDbEntity
  8
MAIN0
  6
CONTINUOUS
 62
12
100
AcDbLine
 10
262.3542860532089
 20
89.63434380305483
 30
0.0000000000000000
 11
262.3542860532089
 21
79.97964326467599
 31
0.0000000000000000
  0
LINE
  5
81
100
AcDbEntity
  8
MAIN0
  6
CONTINUOUS
 62
3
100
AcDbLine
 10
244.1989259080149
 20
90.05699353386552
 30
0.0000000000000000
 11
261.6222352456396
 21
90.05699353386552
 31
0.0000000000000000
  0
LINE
  5
82
100
AcDbEntity
  8
MAIN0
  6
CONTINUOUS
 62
3
100
AcDbLine
 10
261.6222352456396
 20
90.05699353386552
 30
0.0000000000000000
 11
263.3542860532089
 21
89.05699353386532
 31
0.0000000000000000
  0
LINE
  5
83
100
AcDbEntity
  8
MAIN0
  6
CENTER
 62
12
100
AcDbLine
 10
563.2367324470044
 20
209.2862838754889
 30
0.0000000000000000
 11
458.6949624817256
 21
269.6435029065030
 31
0.0000000000000000
  0
LINE
  5
84
100
AcDbEntity
  8
MAIN0
  6
CENTER
 62
12
100
AcDbLine
 10
387.2762517250551
 20
310.8771147870431
 30
0.0000000000000000
 11
398.4065683142757
 21
304.4510235080907
 31
0.0000000000000000
  0
LINE
  5
85
100
AcDbEntity
  8
MAIN0
  6
CENTER
 62
12
100
AcDbLine
 10
408.0757978562022
 20
298.8684912292031
 30
0.0000000000000000
 11
423.6706236662767
 21
289.8648143497912
 31
0.0000000000000000
  0
LINE
  5
86
100
AcDbEntity
  8
MAIN0
  6
CONTINUOUS
 62
3
100
AcDbLine
 10
414.8709336284549
 20
264.5489474727304
 30
0.0000000000000000
 11
432.3709336284549
 21
234.2380583402750
 31
0.0000000000000000
  0
LINE
  5
87
100
AcDbEntity
  8
MAIN0
  6
CONTINUOUS
 62
3
100
AcDbLine
 10
417.1209336284552
 20
265.8479855784073
 30
0.0000000000000000
 11
434.6209336284551
 21
235.5370964459519
 31
0.0000000000000000
  0
LINE
  5
88
100
AcDbEntity
  8
MAIN0
  6
CONTINUOUS
 62
3
100
AcDbLine
 10
357.7614620594387
 20
231.8654538236766
 30
0.0000000000000000
 11
375.5114620594389
 21
201.1215519893283
 31
0.0000000000000000
  0
LINE
  5
89
100
AcDbEntity
  8
MAIN0
  6
CONTINUOUS
 62
3
100
AcDbLine
 10
357.8864620594387
 20
231.6489474727306
 30
0.0000000000000000
 11
417.1209336284552
 21
265.8479855784073
 31
0.0000000000000000
  0
LINE
  5
8A
100
AcDbEntity
  8
MAIN0
  6
CONTINUOUS
 62
3
100
AcDbLine
 10
375.3864620594386
 20
201.3380583402751
 30
0.0000000000000000
 11
434.6209336284551
 21
235.5370964459518
 31
0.0000000000000000
  0
LINE
  5
8B
100
AcDbEntity
  8
MAIN0
  6
CONTINUOUS
 62
3
100
AcDbLine
 10
355.6848558180973
 20
239.6154538236766
 30
0.0000000000000000
 11
357.7346314541180
 21
240.7988923389114
 31
0.0000000000000000
  0
LINE
  5
8C
100
AcDbEntity
  8
MAIN0
  6
CONTINUOUS
 62
3
100
AcDbLine
 10
355.6848558180974
 20
239.6154538236767
 30
0.0000000000000000
 11
357.7614620594387
 21
231.8654538236759
 31
0.0000000000000000
  0
LINE
  5
8D
100
AcDbEntity
  8
MAIN0
  6
CONTINUOUS
 62
3
100
AcDbLine
 10
381.1848558180973
 20
195.4481582306701
 30
0.0000000000000000
 11
383.2346314541179
 21
196.6315967459050
 31
0.0000000000000000
  0
LINE
  5
8E
100
AcDbEntity
  8
MAIN0
  6
CONTINUOUS
 62
3
100
AcDbLine
 10
381.1848558180972
 20
195.4481582306700
 30
0.0000000000000000
 11
375.5114620594379
 21
201.1215519893293
 31
0.0000000000000000
  0
LINE
  5
8F
100
AcDbEntity
  8
MAIN0
  6
CONTINUOUS
 62
3
100
AcDbLine
 10
363.1364620594387
 20
222.5556807329939
 30
0.0000000000000000
 11
415.0979862865050
 21
252.5556807329937
 31
0.0000000000000000
  0
LINE
  5
90
100
AcDbEntity
  8
MAIN0
  6
CONTINUOUS
 62
3
100
AcDbLine
 10
422.0979862865050
 20
240.4313250800116
 30
0.0000000000000000
 11
370.1364620594385
 21
210.4313250800117
 31
0.0000000000000000
  0
LINE
  5
91
100
AcDbEntity
  8
MAIN0
  6
CONTINUOUS
 62
3
100
AcDbLine
 10
427.3479862865050
 20
231.3380583402750
 30
0.0000000000000000
 11
422.0979862865050
 21
240.4313250800116
 31
0.0000000000000000
  0
LINE
  5
92
100
AcDbEntity
  8
MAIN0
  6
CONTINUOUS
 62
3
100
AcDbLine
 10
415.0979862865050
 20
252.5556807329938
 30
0.0000000000000000
 11
409.8479862865050
 21
261.6489474727304
 31
0.0000000000000000
  0
LINE
  5
93
100
AcDbEntity
  8
MAIN0
  6
CONTINUOUS
 62
3
100
AcDbLine
 10
420.7989481808272
 20
239.6813250800109
 30
0.0000000000000000
 11
425.6980484625680
 21
231.1958344806633
 31
0.0000000000000000
  0
LINE
  5
94
100
AcDbEntity
  8
MAIN0
  6
CONTINUOUS
 62
3
100
AcDbLine
 10
419.4999100751517
 20
238.9313250800116
 30
0.0000000000000000
 11
424.1204678291628
 21
230.9282842907580
 31
0.0000000000000000
  0
LINE
  5
95
100
AcDbEntity
  8
MAIN0
  6
CONTINUOUS
 62
3
100
AcDbLine
 10
418.2008719694750
 20
238.1813250800116
 30
0.0000000000000000
 11
422.6514982723585
 21
230.4726141979149
 31
0.0000000000000000
  0
LINE
  5
96
100
AcDbEntity
  8
MAIN0
  6
CONTINUOUS
 62
3
100
AcDbLine
 10
416.9018338637983
 20
237.4313250800116
 30
0.0000000000000000
 11
421.0819347485048
 21
230.1911779669365
 31
0.0000000000000000
  0
LINE
  5
97
100
AcDbEntity
  8
MAIN0
  6
CONTINUOUS
 62
3
100
AcDbLine
 10
415.6027957581217
 20
236.6813250800116
 30
0.0000000000000000
 11
419.5264570523331
 21
229.8853443667460
 31
0.0000000000000000
  0
LINE
  5
98
100
AcDbEntity
  8
MAIN0
  6
CONTINUOUS
 62
3
100
AcDbLine
 10
414.3037576524450
 20
235.9313250800116
 30
0.0000000000000000
 11
417.6302995044055
 21
230.1695855789118
 31
0.0000000000000000
  0
LINE
  5
99
100
AcDbEntity
  8
MAIN0
  6
CONTINUOUS
 62
3
100
AcDbLine
 10
371.4355001651153
 20
211.1813250800118
 30
0.0000000000000000
 11
376.1323169950611
 21
203.0461996967009
 31
0.0000000000000000
  0
LINE
  5
9A
100
AcDbEntity
  8
MAIN0
  6
CONTINUOUS
 62
3
100
AcDbLine
 10
372.7345382707919
 20
211.9313250800117
 30
0.0000000000000000
 11
376.9690356542800
 21
204.5969604672928
 31
0.0000000000000000
  0
LINE
  5
9B
100
AcDbEntity
  8
MAIN0
  6
CONTINUOUS
 62
3
100
AcDbLine
 10
374.0335763764686
 20
212.6813250800117
 30
0.0000000000000000
 11
377.6951836224899
 21
206.3392352925401
 31
0.0000000000000000
  0
LINE
  5
9C
100
AcDbEntity
  8
MAIN0
  6
CONTINUOUS
 62
3
100
AcDbLine
 10
375.3326144821452
 20
213.4313250800117
 30
0.0000000000000000
 11
378.4794146549499
 21
207.9809072994474
 31
0.0000000000000000
  0
LINE
  5
9D
100
AcDbEntity
  8
MAIN0
  6
CONTINUOUS
 62
3
100
AcDbLine
 10
376.6316525878219
 20
214.1813250800118
 30
0.0000000000000000
 11
379.3020563377773
 21
209.5560501083664
 31
0.0000000000000000
  0
LINE
  5
9E
100
AcDbEntity
  8
MAIN0
  6
CONTINUOUS
 62
3
100
AcDbLine
 10
377.9306906934986
 20
214.9313250800117
 30
0.0000000000000000
 11
379.9814570593827
 21
211.3792935398470
 31
0.0000000000000000
  0
LINE
  5
9F
100
AcDbEntity
  8
MAIN0
  6
CONTINUOUS
 62
3
100
AcDbLine
 10
413.7989481808273
 20
251.8056807329931
 30
0.0000000000000000
 11
408.8998478990886
 21
260.2911713323420
 31
0.0000000000000000
  0
LINE
  5
A0
100
AcDbEntity
  8
MAIN0
  6
CONTINUOUS
 62
3
100
AcDbLine
 10
412.4999100751517
 20
251.0556807329937
 30
0.0000000000000000
 11
407.8793523211406
 21
259.0587215222473
 31
0.0000000000000000
  0
LINE
  5
A1
100
AcDbEntity
  8
MAIN0
  6
CONTINUOUS
 62
3
100
AcDbLine
 10
411.2008719694751
 20
250.3056807329938
 30
0.0000000000000000
 11
406.7502456665915
 21
258.0143916150905
 31
0.0000000000000000
  0
LINE
  5
A2
100
AcDbEntity
  8
MAIN0
  6
CONTINUOUS
 62
3
100
AcDbLine
 10
409.9018338637983
 20
249.5556807329937
 30
0.0000000000000000
 11
405.7217329790919
 21
256.7958278460689
 31
0.0000000000000000
  0
LINE
  5
A3
100
AcDbEntity
  8
MAIN0
  6
CONTINUOUS
 62
3
100
AcDbLine
 10
408.6027957581217
 20
248.8056807329938
 30
0.0000000000000000
 11
404.6791344639104
 21
255.6016614462594
 31
0.0000000000000000
  0
LINE
  5
A4
100
AcDbEntity
  8
MAIN0
  6
CONTINUOUS
 62
3
100
AcDbLine
 10
407.3037576524451
 20
248.0556807329938
 30
0.0000000000000000
 11
403.9772158004846
 21
253.8174202340936
 31
0.0000000000000000
  0
LINE
  5
A5
100
AcDbEntity
  8
MAIN0
  6
CONTINUOUS
 62
3
100
AcDbLine
 10
364.4355001651153
 20
223.3056807329938
 30
0.0000000000000000
 11
359.7386833351694
 21
231.4408061163047
 31
0.0000000000000000
  0
LINE
  5
A6
100
AcDbEntity
  8
MAIN0
  6
CONTINUOUS
 62
3
100
AcDbLine
 10
365.7345382707920
 20
224.0556807329938
 30
0.0000000000000000
 11
361.5000408873038
 21
231.3900453457128
 31
0.0000000000000000
  0
LINE
  5
A7
100
AcDbEntity
  8
MAIN0
  6
CONTINUOUS
 62
3
100
AcDbLine
 10
367.0335763764686
 20
224.8056807329938
 30
0.0000000000000000
 11
363.3719691304471
 21
231.1477705204653
 31
0.0000000000000000
  0
LINE
  5
A8
100
AcDbEntity
  8
MAIN0
  6
CONTINUOUS
 62
3
100
AcDbLine
 10
368.3326144821453
 20
225.5556807329938
 30
0.0000000000000000
 11
365.1858143093406
 21
231.0060985135581
 31
0.0000000000000000
  0
LINE
  5
A9
100
AcDbEntity
  8
MAIN0
  6
CONTINUOUS
 62
3
100
AcDbLine
 10
369.6316525878219
 20
226.3056807329938
 30
0.0000000000000000
 11
366.9612488378665
 21
230.9309557046391
 31
0.0000000000000000
  0
LINE
  5
AA
100
AcDbEntity
  8
MAIN0
  6
CONTINUOUS
 62
3
100
AcDbLine
 10
370.9306906934986
 20
227.0556807329938
 30
0.0000000000000000
 11
368.8799243276145
 21
230.6077122731585
 31
0.0000000000000000
  0
LINE
  5
AB
100
AcDbEntity
  8
MAIN0
  6
CONTINUOUS
 62
3
100
AcDbLine
 10
419.9484672336670
 20
242.6544012913651
 30
0.0000000000000000
 11
415.9484672336670
 21
249.5826045216406
 31
0.0000000000000000
  0
LINE
  5
AC
100
AcDbEntity
  8
MAIN0
  6
CONTINUOUS
 62
3
100
AcDbLine
 10
372.8792478520138
 20
228.1806807329940
 30
0.0000000000000000
 11
379.8792478520139
 21
216.0563250800119
 31
0.0000000000000000
  0
LINE
  5
AD
100
AcDbEntity
  8
MAIN0
  6
CONTINUOUS
 62
3
100
AcDbLine
 10
419.9484672336669
 20
242.6544012913651
 30
0.0000000000000000
 11
418.8503910223136
 21
238.5563250800118
 31
0.0000000000000000
  0
LINE
  5
AE
100
AcDbEntity
  8
MAIN0
  6
CONTINUOUS
 62
3
100
AcDbLine
 10
415.9484672336669
 20
249.5826045216405
 30
0.0000000000000000
 11
411.8503910223136
 21
250.6806807329938
 31
0.0000000000000000
  0
LINE
  5
AF
100
AcDbEntity
  8
MAIN0
  6
CENTER
 62
12
100
AcDbLine
 10
504.7559585382854
 20
233.3234883236986
 30
0.0000000000000000
 11
512.9857859540612
 21
247.5779675453454
 31
0.0000000000000000
  0
LINE
  5
B0
100
AcDbEntity
  8
MAIN0
  6
CENTER
 62
12
100
AcDbLine
 10
534.9003362131032
 20
235.5350820190277
 30
0.0000000000000000
 11
526.4839171129142
 21
220.9574165197075
 31
0.0000000000000000
  0
LINE
  5
B1
100
AcDbEntity
  8
MAIN0
  6
CONTINUOUS
 62
3
100
AcDbLine
 10
502.5189913349929
 20
264.5489474727305
 30
0.0000000000000000
 11
485.0189913349930
 21
234.2380583402750
 31
0.0000000000000000
  0
LINE
  5
B2
100
AcDbEntity
  8
MAIN0
  6
CONTINUOUS
 62
3
100
AcDbLine
 10
500.2689913349926
 20
265.8479855784073
 30
0.0000000000000000
 11
482.7689913349927
 21
235.5370964459519
 31
0.0000000000000000
  0
LINE
  5
B3
100
AcDbEntity
  8
MAIN0
  6
CONTINUOUS
 62
3
100
AcDbLine
 10
559.6284629040072
 20
231.8654538236777
 30
0.0000000000000000
 11
541.8784629040068
 21
201.1215519893294
 31
0.0000000000000000
  0
LINE
  5
B4
100
AcDbEntity
  8
MAIN0
  6
CONTINUOUS
 62
3
100
AcDbLine
 10
559.5034629040073
 20
231.6489474727315
 30
0.0000000000000000
 11
500.2689913349926
 21
265.8479855784073
 31
0.0000000000000000
  0
LINE
  5
B5
100
AcDbEntity
  8
MAIN0
  6
CONTINUOUS
 62
3
100
AcDbLine
 10
542.0034629040074
 20
201.3380583402761
 30
0.0000000000000000
 11
482.7689913349927
 21
235.5370964459519
 31
0.0000000000000000
  0
LINE
  5
B6
100
AcDbEntity
  8
MAIN0
  6
CONTINUOUS
 62
3
100
AcDbLine
 10
561.7050691453496
 20
239.6154538236769
 30
0.0000000000000000
 11
559.6552935093268
 21
240.7988923389130
 31
0.0000000000000000
  0
LINE
  5
B7
100
AcDbEntity
  8
MAIN0
  6
CONTINUOUS
 62
3
100
AcDbLine
 10
561.7050691453483
 20
239.6154538236771
 30
0.0000000000000000
 11
559.6284629040069
 21
231.8654538236765
 31
0.0000000000000000
  0
LINE
  5
B8
100
AcDbEntity
  8
MAIN0
  6
CONTINUOUS
 62
3
100
AcDbLine
 10
536.2050691453482
 20
195.4481582306714
 30
0.0000000000000000
 11
534.1552935093287
 21
196.6315967459057
 31
0.0000000000000000
  0
LINE
  5
B9
100
AcDbEntity
  8
MAIN0
  6
CONTINUOUS
 62
3
100
AcDbLine
 10
536.2050691453504
 20
195.4481582306701
 30
0.0000000000000000
 11
541.8784629040097
 21
201.1215519893294
 31
0.0000000000000000
  0
LINE
  5
BA
100
AcDbEntity
  8
MAIN0
  6
CONTINUOUS
 62
3
100
AcDbLine
 10
554.2534629040073
 20
222.5556807329949
 30
0.0000000000000000
 11
502.2919386769427
 21
252.5556807329937
 31
0.0000000000000000
  0
LINE
  5
BB
100
AcDbEntity
  8
MAIN0
  6
CONTINUOUS
 62
3
100
AcDbLine
 10
495.2919386769427
 20
240.4313250800116
 30
0.0000000000000000
 11
547.2534629040073
 21
210.4313250800128
 31
0.0000000000000000
  0
LINE
  5
BC
100
AcDbEntity
  8
MAIN0
  6
CONTINUOUS
 62
3
100
AcDbLine
 10
490.0419386769428
 20
231.3380583402750
 30
0.0000000000000000
 11
495.2919386769427
 21
240.4313250800116
 31
0.0000000000000000
  0
LINE
  5
BD
100
AcDbEntity
  8
MAIN0
  6
CONTINUOUS
 62
3
100
AcDbLine
 10
502.2919386769427
 20
252.5556807329937
 30
0.0000000000000000
 11
507.5419386769426
 21
261.6489474727304
 31
0.0000000000000000
  0
LINE
  5
BE
100
AcDbEntity
  8
MAIN0
  6
CONTINUOUS
 62
3
100
AcDbLine
 10
496.5909767826205
 20
239.6813250800110
 30
0.0000000000000000
 11
491.6918765008797
 21
231.1958344806633
 31
0.0000000000000000
  0
LINE
  5
BF
100
AcDbEntity
  8
MAIN0
  6
CONTINUOUS
 62
3
100
AcDbLine
 10
497.8900148882960
 20
238.9313250800117
 30
0.0000000000000000
 11
493.2694571342850
 21
230.9282842907580
 31
0.0000000000000000
  0
LINE
  5
C0
100
AcDbEntity
  8
MAIN0
  6
CONTINUOUS
 62
3
100
AcDbLine
 10
499.1890529939727
 20
238.1813250800116
 30
0.0000000000000000
 11
494.7384266910892
 21
230.4726141979149
 31
0.0000000000000000
  0
LINE
  5
C1
100
AcDbEntity
  8
MAIN0
  6
CONTINUOUS
 62
3
100
AcDbLine
 10
500.4880910996494
 20
237.4313250800116
 30
0.0000000000000000
 11
496.3079902149430
 21
230.1911779669365
 31
0.0000000000000000
  0
LINE
  5
C2
100
AcDbEntity
  8
MAIN0
  6
CONTINUOUS
 62
3
100
AcDbLine
 10
501.7871292053260
 20
236.6813250800116
 30
0.0000000000000000
 11
497.8634679111146
 21
229.8853443667460
 31
0.0000000000000000
  0
LINE
  5
C3
100
AcDbEntity
  8
MAIN0
  6
CONTINUOUS
 62
3
100
AcDbLine
 10
503.0861673110027
 20
235.9313250800116
 30
0.0000000000000000
 11
499.7596254590422
 21
230.1695855789118
 31
0.0000000000000000
  0
LINE
  5
C4
100
AcDbEntity
  8
MAIN0
  6
CONTINUOUS
 62
3
100
AcDbLine
 10
545.9544247983305
 20
211.1813250800129
 30
0.0000000000000000
 11
541.2576079683847
 21
203.0461996967021
 31
0.0000000000000000
  0
LINE
  5
C5
100
AcDbEntity
  8
MAIN0
  6
CONTINUOUS
 62
3
100
AcDbLine
 10
544.6553866926540
 20
211.9313250800128
 30
0.0000000000000000
 11
540.4208893091659
 21
204.5969604672938
 31
0.0000000000000000
  0
LINE
  5
C6
100
AcDbEntity
  8
MAIN0
  6
CONTINUOUS
 62
3
100
AcDbLine
 10
543.3563485869768
 20
212.6813250800131
 30
0.0000000000000000
 11
539.6947413409555
 21
206.3392352925416
 31
0.0000000000000000
  0
LINE
  5
C7
100
AcDbEntity
  8
MAIN0
  6
CONTINUOUS
 62
3
100
AcDbLine
 10
542.0573104813007
 20
213.4313250800128
 30
0.0000000000000000
 11
538.9105103084960
 21
207.9809072994485
 31
0.0000000000000000
  0
LINE
  5
C8
100
AcDbEntity
  8
MAIN0
  6
CONTINUOUS
 62
3
100
AcDbLine
 10
540.7582723756235
 20
214.1813250800130
 30
0.0000000000000000
 11
538.0878686256681
 21
209.5560501083677
 31
0.0000000000000000
  0
LINE
  5
C9
100
AcDbEntity
  8
MAIN0
  6
CONTINUOUS
 62
3
100
AcDbLine
 10
539.4592342699472
 20
214.9313250800129
 30
0.0000000000000000
 11
537.4084679040631
 21
211.3792935398483
 31
0.0000000000000000
  0
LINE
  5
CA
100
AcDbEntity
  8
MAIN0
  6
CONTINUOUS
 62
3
100
AcDbLine
 10
503.5909767826205
 20
251.8056807329930
 30
0.0000000000000000
 11
508.4900770643592
 21
260.2911713323420
 31
0.0000000000000000
  0
LINE
  5
CB
100
AcDbEntity
  8
MAIN0
  6
CONTINUOUS
 62
3
100
AcDbLine
 10
504.8900148882960
 20
251.0556807329938
 30
0.0000000000000000
 11
509.5105726423071
 21
259.0587215222473
 31
0.0000000000000000
  0
LINE
  5
CC
100
AcDbEntity
  8
MAIN0
  6
CONTINUOUS
 62
3
100
AcDbLine
 10
506.1890529939727
 20
250.3056807329938
 30
0.0000000000000000
 11
510.6396792968563
 21
258.0143916150905
 31
0.0000000000000000
  0
LINE
  5
CD
100
AcDbEntity
  8
MAIN0
  6
CONTINUOUS
 62
3
100
AcDbLine
 10
507.4880910996494
 20
249.5556807329938
 30
0.0000000000000000
 11
511.6681919843558
 21
256.7958278460689
 31
0.0000000000000000
  0
LINE
  5
CE
100
AcDbEntity
  8
MAIN0
  6
CONTINUOUS
 62
3
100
AcDbLine
 10
508.7871292053260
 20
248.8056807329937
 30
0.0000000000000000
 11
512.7107904995373
 21
255.6016614462594
 31
0.0000000000000000
  0
LINE
  5
CF
100
AcDbEntity
  8
MAIN0
  6
CONTINUOUS
 62
3
100
AcDbLine
 10
510.0861673110027
 20
248.0556807329938
 30
0.0000000000000000
 11
513.4127091629632
 21
253.8174202340936
 31
0.0000000000000000
  0
LINE
  5
D0
100
AcDbEntity
  8
MAIN0
  6
CONTINUOUS
 62
3
100
AcDbLine
 10
552.9544247983309
 20
223.3056807329947
 30
0.0000000000000000
 11
557.6512416282768
 21
231.4408061163055
 31
0.0000000000000000
  0
LINE
  5
D1
100
AcDbEntity
  8
MAIN0
  6
CONTINUOUS
 62
3
100
AcDbLine
 10
551.6553866926540
 20
224.0556807329947
 30
0.0000000000000000
 11
555.8898840761422
 21
231.3900453457137
 31
0.0000000000000000
  0
LINE
  5
D2
100
AcDbEntity
  8
MAIN0
  6
CONTINUOUS
 62
3
100
AcDbLine
 10
550.3563485869781
 20
224.8056807329944
 30
0.0000000000000000
 11
554.0179558329996
 21
231.1477705204659
 31
0.0000000000000000
  0
LINE
  5
D3
100
AcDbEntity
  8
MAIN0
  6
CONTINUOUS
 62
3
100
AcDbLine
 10
549.0573104813008
 20
225.5556807329948
 30
0.0000000000000000
 11
552.2041106541055
 21
231.0060985135591
 31
0.0000000000000000
  0
LINE
  5
D4
100
AcDbEntity
  8
MAIN0
  6
CONTINUOUS
 62
3
100
AcDbLine
 10
547.7582723756245
 20
226.3056807329946
 30
0.0000000000000000
 11
550.4286761255800
 21
230.9309557046399
 31
0.0000000000000000
  0
LINE
  5
D5
100
AcDbEntity
  8
MAIN0
  6
CONTINUOUS
 62
3
100
AcDbLine
 10
546.4592342699471
 20
227.0556807329950
 30
0.0000000000000000
 11
548.5100006358312
 21
230.6077122731597
 31
0.0000000000000000
  0
LINE
  5
D6
100
AcDbEntity
  8
MAIN0
  6
CONTINUOUS
 62
3
100
AcDbLine
 10
497.4414577297808
 20
242.6544012913651
 30
0.0000000000000000
 11
501.4414577297808
 21
249.5826045216406
 31
0.0000000000000000
  0
LINE
  5
D7
100
AcDbEntity
  8
MAIN0
  6
CONTINUOUS
 62
3
100
AcDbLine
 10
544.5106771114324
 20
228.1806807329948
 30
0.0000000000000000
 11
537.5106771114324
 21
216.0563250800126
 31
0.0000000000000000
  0
LINE
  5
D8
100
AcDbEntity
  8
MAIN0
  6
CONTINUOUS
 62
3
100
AcDbLine
 10
497.4414577297810
 20
242.6544012913651
 30
0.0000000000000000
 11
498.5395339411342
 21
238.5563250800117
 31
0.0000000000000000
  0
LINE
  5
D9
100
AcDbEntity
  8
MAIN0
  6
CONTINUOUS
 62
3
100
AcDbLine
 10
501.4414577297808
 20
249.5826045216405
 30
0.0000000000000000
 11
505.5395339411342
 21
250.6806807329938
 31
0.0000000000000000
  0
LINE
  5
DA
100
AcDbEntity
  8
MAIN0
  6
CONTINUOUS
 62
3
100
AcDbLine
 10
433.1949624817252
 20
373.8668966651608
 30
0.0000000000000000
 11
433.1949624817252
 21
371.5000196346911
 31
0.0000000000000000
  0
LINE
  5
DB
100
AcDbEntity
  8
MAIN0
  6
CONTINUOUS
 62
3
100
AcDbLine
 10
433.1949624817252
 20
373.8668966651607
 30
0.0000000000000000
 11
440.9449624817258
 21
375.9435029065022
 31
0.0000000000000000
  0
LINE
  5
DC
100
AcDbEntity
  8
MAIN0
  6
CONTINUOUS
 62
3
100
AcDbLine
 10
484.1949624817252
 20
373.8668966651611
 30
0.0000000000000000
 11
484.1949624817252
 21
371.5000196346914
 31
0.0000000000000000
  0
LINE
  5
DD
100
AcDbEntity
  8
MAIN0
  6
CONTINUOUS
 62
3
100
AcDbLine
 10
484.1949624817252
 20
373.8668966651611
 30
0.0000000000000000
 11
476.4449624817246
 21
375.9435029065025
 31
0.0000000000000000
  0
LINE
  5
DE
100
AcDbEntity
  8
MAIN0
  6
CONTINUOUS
 62
3
100
AcDbLine
 10
178.3542860532092
 20
184.6435029065031
 30
0.0000000000000000
 11
178.3542860532092
 21
196.9685029065032
 31
0.0000000000000000
  0
LINE
  5
DF
100
AcDbEntity
  8
MAIN0
  6
CONTINUOUS
 62
3
100
AcDbLine
 10
178.3542860532092
 20
208.9685012594443
 30
0.0000000000000000
 11
178.3542860532092
 21
250.6435029065031
 31
0.0000000000000000
  0
LINE
  5
E0
100
AcDbEntity
  8
MAIN0
  6
CONTINUOUS
 62
3
100
AcDbLine
 10
252.8542860532091
 20
225.3935029065030
 30
0.0000000000000000
 11
258.3542860532091
 21
225.3935029065030
 31
0.0000000000000000
  0
LINE
  5
E1
100
AcDbEntity
  8
MAIN0
  6
CONTINUOUS
 62
3
100
AcDbLine
 10
249.3542860532091
 20
223.3935029065030
 30
0.0000000000000000
 11
252.8542860532091
 21
223.3935029065030
 31
0.0000000000000000
  0
LINE
  5
E2
100
AcDbEntity
  8
MAIN0
  6
CONTINUOUS
 62
3
100
AcDbLine
 10
252.8542860532091
 20
215.8935029065032
 30
0.0000000000000000
 11
252.8542860532091
 21
225.3935029065030
 31
0.0000000000000000
  0
LINE
  5
E3
100
AcDbEntity
  8
MAIN0
  6
CONTINUOUS
 62
3
100
AcDbLine
 10
252.8542860532091
 20
215.8935029065030
 30
0.0000000000000000
 11
258.3542860532091
 21
215.8935029065030
 31
0.0000000000000000
  0
LINE
  5
E4
100
AcDbEntity
  8
MAIN0
  6
CONTINUOUS
 62
3
100
AcDbLine
 10
249.3542860532091
 20
217.8935029065030
 30
0.0000000000000000
 11
252.8542860532091
 21
217.8935029065030
 31
0.0000000000000000
  0
LINE
  5
E5
100
AcDbEntity
  8
MAIN0
  6
CONTINUOUS
 62
3
100
AcDbLine
 10
249.3542860532091
 20
214.6435029065032
 30
0.0000000000000000
 11
249.3542860532091
 21
218.6435029065030
 31
0.0000000000000000
  0
LINE
  5
E6
100
AcDbEntity
  8
MAIN0
  6
CONTINUOUS
 62
3
100
AcDbLine
 10
249.3542860532091
 20
222.6435029065030
 30
0.0000000000000000
 11
249.3542860532091
 21
255.1435029065030
 31
0.0000000000000000
  0
LINE
  5
E7
100
AcDbEntity
  8
MAIN0
  6
CONTINUOUS
 62
3
100
AcDbLine
 10
212.3542860532093
 20
289.1435029065029
 30
0.0000000000000000
 11
217.3542860532093
 21
289.1435029065028
 31
0.0000000000000000
  0
LINE
  5
E8
100
AcDbEntity
  8
MAIN0
  6
CONTINUOUS
 62
3
100
AcDbLine
 10
212.3542860532093
 20
287.6435029065028
 30
0.0000000000000000
 11
212.3542860532093
 21
289.1435029065028
 31
0.0000000000000000
  0
LINE
  5
E9
100
AcDbEntity
  8
MAIN0
  6
CONTINUOUS
 62
3
100
AcDbLine
 10
212.3542860532093
 20
250.1435029065032
 30
0.0000000000000000
 11
217.3542860532093
 21
250.1435029065032
 31
0.0000000000000000
  0
LINE
  5
EA
100
AcDbEntity
  8
MAIN0
  6
CONTINUOUS
 62
3
100
AcDbLine
 10
212.3542860532093
 20
251.6435029065030
 30
0.0000000000000000
 11
212.3542860532093
 21
250.1435029065033
 31
0.0000000000000000
  0
LINE
  5
EB
100
AcDbEntity
  8
MAIN0
  6
CENTER
 62
12
100
AcDbLine
 10
175.0691781587322
 20
329.6435029065029
 30
0.0000000000000000
 11
210.0560638653363
 21
329.6435029065029
 31
0.0000000000000000
  0
LINE
  5
EC
100
AcDbEntity
  8
MAIN0
  6
CONTINUOUS
 62
3
100
AcDbLine
 10
178.3542860532093
 20
339.6435029065029
 30
0.0000000000000000
 11
192.3542860532093
 21
339.6435029065029
 31
0.0000000000000000
  0
LINE
  5
ED
100
AcDbEntity
  8
MAIN0
  6
CONTINUOUS
 62
3
100
AcDbLine
 10
192.3542860532093
 20
319.6435029065029
 30
0.0000000000000000
 11
192.3542860532093
 21
339.6435029065029
 31
0.0000000000000000
  0
LINE
  5
EE
100
AcDbEntity
  8
MAIN0
  6
CONTINUOUS
 62
3
100
AcDbLine
 10
178.3542860532093
 20
319.6435029065029
 30
0.0000000000000000
 11
192.3542860532093
 21
319.6435029065029
 31
0.0000000000000000
  0
ARC
  5
EF
100
AcDbEntity
  8
MAIN0
  6
CENTER
 62
12
100
AcDbCircle
 10
458.6949624817246
 20
269.6435029065031
 30
0.0000000000000000
 40
66.67499999999990
100
AcDbArc
 50
242.4941260939151
 51
296.6214293824000
  0
CIRCLE
  5
F0
100
AcDbEntity
  8
MAIN0
  6
CONTINUOUS
 62
3
100
AcDbCircle
 10
475.9517223139346
 20
205.2403984386794
 30
0.0000000000000000
 40
10.00000000000284
  0
CIRCLE
  5
F1
100
AcDbEntity
  8
MAIN0
  6
CONTINUOUS
 62
3
100
AcDbCircle
 10
475.9517223139346
 20
205.2403984386794
 30
0.0000000000000000
 40
6.750000000000146
  0
CIRCLE
  5
F2
100
AcDbEntity
  8
MAIN0
  6
CONTINUOUS
 62
3
100
AcDbCircle
 10
441.4382026495132
 20
205.2403984386794
 30
0.0000000000000000
 40
10.00000000000284
  0
CIRCLE
  5
F3
100
AcDbEntity
  8
MAIN0
  6
CONTINUOUS
 62
3
100
AcDbCircle
 10
441.4382026495132
 20
205.2403984386794
 30
0.0000000000000000
 40
6.750000000000146
  0
ARC
  5
F4
100
AcDbEntity
  8
MAIN0
  6
CENTER
 62
12
100
AcDbCircle
 10
458.6949624817246
 20
269.6435029065031
 30
0.0000000000000000
 40
66.67499999999990
100
AcDbArc
 50
352.7626137390244
 51
419.3151236249644
  0
CIRCLE
  5
F5
100
AcDbEntity
  8
MAIN0
  6
CONTINUOUS
 62
3
100
AcDbCircle
 10
505.8413071173381
 20
316.7898475421156
 30
0.0000000000000000
 40
10.00000000000284
  0
CIRCLE
  5
F6
100
AcDbEntity
  8
MAIN0
  6
CONTINUOUS
 62
3
100
AcDbCircle
 10
505.8413071173381
 20
316.7898475421156
 30
0.0000000000000000
 40
6.750000000000146
  0
CIRCLE
  5
F7
100
AcDbEntity
  8
MAIN0
  6
CONTINUOUS
 62
3
100
AcDbCircle
 10
523.0980669495488
 20
286.9002627387129
 30
0.0000000000000000
 40
10.00000000000284
  0
CIRCLE
  5
F8
100
AcDbEntity
  8
MAIN0
  6
CONTINUOUS
 62
3
100
AcDbCircle
 10
523.0980669495488
 20
286.9002627387129
 30
0.0000000000000000
 40
6.750000000000146
  0
ARC
  5
F9
100
AcDbEntity
  8
MAIN0
  6
CENTER
 62
12
100
AcDbCircle
 10
458.6949624817246
 20
269.6435029065031
 30
0.0000000000000000
 40
66.67499999999990
100
AcDbArc
 50
122.4941260939151
 51
176.6214293823997
  0
CIRCLE
  5
FA
100
AcDbEntity
  8
MAIN0
  6
CONTINUOUS
 62
3
100
AcDbCircle
 10
394.2918580139012
 20
286.9002627387142
 30
0.0000000000000000
 40
10.00000000000284
  0
CIRCLE
  5
FB
100
AcDbEntity
  8
MAIN0
  6
CONTINUOUS
 62
3
100
AcDbCircle
 10
394.2918580139012
 20
286.9002627387142
 30
0.0000000000000000
 40
6.750000000000146
  0
CIRCLE
  5
FC
100
AcDbEntity
  8
MAIN0
  6
CONTINUOUS
 62
3
100
AcDbCircle
 10
411.5486178461119
 20
316.7898475421168
 30
0.0000000000000000
 40
10.00000000000284
  0
CIRCLE
  5
FD
100
AcDbEntity
  8
MAIN0
  6
CONTINUOUS
 62
3
100
AcDbCircle
 10
411.5486178461119
 20
316.7898475421168
 30
0.0000000000000000
 40
6.750000000000146
  0
ARC
  5
FE
100
AcDbEntity
  8
MAIN0
  6
CONTINUOUS
 62
3
100
AcDbCircle
 10
252.3542860532091
 20
254.1435029065030
 30
0.0000000000000000
 40
1.000000000000000
100
AcDbArc
 50
0.0000000000000000
 51
89.99999999999970
  0
ARC
  5
FF
100
AcDbEntity
  8
MAIN0
  6
CONTINUOUS
 62
3
100
AcDbCircle
 10
252.3542860532091
 20
227.1435029065030
 30
0.0000000000000000
 40
1.000000000000000
100
AcDbArc
 50
269.9999999999999
 51
359.9999999999998
  0
ARC
  5
100
100
AcDbEntity
  8
MAIN0
  6
CONTINUOUS
 62
3
100
AcDbCircle
 10
252.3542860532091
 20
285.1435029065030
 30
0.0000000000000000
 40
1.000000000000000
100
AcDbArc
 50
269.9999999999999
 51
359.9999999999998
  0
ARC
  5
101
100
AcDbEntity
  8
MAIN0
  6
CENTER
 62
12
100
AcDbCircle
 10
458.6949624817246
 20
269.6435029065031
 30
0.0000000000000000
 40
48.99999999999898
100
AcDbArc
 50
259.7345258176534
 51
280.7075278690177
  0
ARC
  5
102
100
AcDbEntity
  8
MAIN0
  6
CONTINUOUS
 62
3
100
AcDbCircle
 10
458.6949624817246
 20
269.6435029065031
 30
0.0000000000000000
 40
54.99999999999886
100
AcDbArc
 50
228.5530045350210
 51
311.4469954649791
  0
CIRCLE
  5
103
100
AcDbEntity
  8
MAIN0
  6
CONTINUOUS
 62
3
100
AcDbCircle
 10
458.6949624817240
 20
220.6435029065041
 30
0.0000000000000000
 40
4.750000000000000
  0
ARC
  5
104
100
AcDbEntity
  8
MAIN0
  6
CONTINUOUS
 62
3
100
AcDbCircle
 10
458.6949624817246
 20
269.6435029065031
 30
0.0000000000000000
 40
104.9999999999996
100
AcDbArc
 50
339.5940682268604
 51
440.4059317731395
  0
ARC
  5
105
100
AcDbEntity
  8
MAIN0
  6
CENTER
 62
12
100
AcDbCircle
 10
458.6949624817246
 20
269.6435029065031
 30
0.0000000000000000
 40
48.99999999999898
100
AcDbArc
 50
19.73452581765347
 51
40.70752786901786
  0
ARC
  5
106
100
AcDbEntity
  8
MAIN0
  6
CONTINUOUS
 62
3
100
AcDbCircle
 10
458.6949624817246
 20
269.6435029065031
 30
0.0000000000000000
 40
54.99999999999886
100
AcDbArc
 50
348.5530045350212
 51
431.4469954649791
  0
CIRCLE
  5
107
100
AcDbEntity
  8
MAIN0
  6
CONTINUOUS
 62
3
100
AcDbCircle
 10
501.1302072671616
 20
294.1435029065019
 30
0.0000000000000000
 40
4.750000000000000
  0
ARC
  5
108
100
AcDbEntity
  8
MAIN0
  6
CONTINUOUS
 62
3
100
AcDbCircle
 10
458.6949624817246
 20
269.6435029065031
 30
0.0000000000000000
 40
12.49999999999987
100
AcDbArc
 50
105.4205707929873
 51
434.5794292070121
  0
ARC
  5
109
100
AcDbEntity
  8
MAIN0
  6
CONTINUOUS
 62
3
100
AcDbCircle
 10
458.6949624817246
 20
269.6435029065031
 30
0.0000000000000000
 40
104.9999999999996
100
AcDbArc
 50
99.59406822686054
 51
200.4059317731395
  0
ARC
  5
10A
100
AcDbEntity
  8
MAIN0
  6
CENTER
 62
12
100
AcDbCircle
 10
458.6949624817246
 20
269.6435029065031
 30
0.0000000000000000
 40
48.99999999999898
100
AcDbArc
 50
139.7345258176531
 51
160.7075278690176
  0
ARC
  5
10B
100
AcDbEntity
  8
MAIN0
  6
CONTINUOUS
 62
3
100
AcDbCircle
 10
458.6949624817246
 20
269.6435029065031
 30
0.0000000000000000
 40
54.99999999999886
100
AcDbArc
 50
108.5530045350211
 51
191.4469954649790
  0
CIRCLE
  5
10C
100
AcDbEntity
  8
MAIN0
  6
CONTINUOUS
 62
3
100
AcDbCircle
 10
416.2597176962883
 20
294.1435029065030
 30
0.0000000000000000
 40
4.750000000000000
  0
CIRCLE
  5
10D
100
AcDbEntity
  8
MAIN0
  6
CONTINUOUS
 62
12
100
AcDbCircle
 10
508.9677371714096
 20
240.6185029065030
 30
0.0000000000000000
 40
6.000000000000000
  0
CIRCLE
  5
10E
100
AcDbEntity
  8
MAIN0
  6
CONTINUOUS
 62
3
100
AcDbCircle
 10
508.9677371714096
 20
240.6185029065030
 30
0.0000000000000000
 40
5.099999999999998
  0
CIRCLE
  5
10F
100
AcDbEntity
  8
MAIN0
  6
CONTINUOUS
 62
12
100
AcDbCircle
 10
530.6183722660192
 20
228.1185029065030
 30
0.0000000000000000
 40
6.000000000000000
  0
CIRCLE
  5
110
100
AcDbEntity
  8
MAIN0
  6
CONTINUOUS
 62
3
100
AcDbCircle
 10
530.6183722660192
 20
228.1185029065030
 30
0.0000000000000000
 40
5.099999999999998
  0
ARC
  5
111
100
AcDbEntity
  8
MAIN0
  6
CONTINUOUS
 62
3
100
AcDbCircle
 10
458.6949624817246
 20
269.6435029065031
 30
0.0000000000000000
 40
70.00000000000000
100
AcDbArc
 50
344.4775121859290
 51
367.0841638109145
  0
ARC
  5
112
100
AcDbEntity
  8
MAIN0
  6
CONTINUOUS
 62
3
100
AcDbCircle
 10
458.6949624817246
 20
269.6435029065031
 30
0.0000000000000000
 40
60.00000000000000
100
AcDbArc
 50
346.9577633000031
 51
368.2509079124451
  0
ARC
  5
113
100
AcDbEntity
  8
MAIN0
  6
CONTINUOUS
 62
3
100
AcDbCircle
 10
458.6949624817246
 20
269.6435029065031
 30
0.0000000000000000
 40
60.00000000000000
100
AcDbArc
 50
21.74909208755328
 51
38.25090791244502
  0
ARC
  5
114
100
AcDbEntity
  8
MAIN0
  6
CONTINUOUS
 62
3
100
AcDbCircle
 10
458.6949624817246
 20
269.6435029065031
 30
0.0000000000000000
 40
60.00000000000000
100
AcDbArc
 50
51.74909208755381
 51
73.04223669999615
  0
ARC
  5
115
100
AcDbEntity
  8
MAIN0
  6
CONTINUOUS
 62
3
100
AcDbCircle
 10
458.6949624817246
 20
269.6435029065031
 30
0.0000000000000000
 40
70.00000000000000
100
AcDbArc
 50
22.91583618908395
 51
37.08416381091477
  0
ARC
  5
116
100
AcDbEntity
  8
MAIN0
  6
CONTINUOUS
 62
3
100
AcDbCircle
 10
458.6949624817246
 20
269.6435029065031
 30
0.0000000000000000
 40
70.00000000000000
100
AcDbArc
 50
52.91583618908407
 51
75.52248781407032
  0
ARC
  5
117
100
AcDbEntity
  8
MAIN0
  6
CONTINUOUS
 62
3
100
AcDbCircle
 10
458.6949624817246
 20
269.6435029065031
 30
0.0000000000000000
 40
70.00000000000000
100
AcDbArc
 50
104.4775121859302
 51
127.0841638109147
  0
ARC
  5
118
100
AcDbEntity
  8
MAIN0
  6
CONTINUOUS
 62
3
100
AcDbCircle
 10
458.6949624817246
 20
269.6435029065031
 30
0.0000000000000000
 40
60.00000000000000
100
AcDbArc
 50
106.9577633000044
 51
128.2509079124452
  0
ARC
  5
119
100
AcDbEntity
  8
MAIN0
  6
CONTINUOUS
 62
3
100
AcDbCircle
 10
458.6949624817246
 20
269.6435029065031
 30
0.0000000000000000
 40
60.00000000000000
100
AcDbArc
 50
141.7490920875535
 51
158.2509079124451
  0
ARC
  5
11A
100
AcDbEntity
  8
MAIN0
  6
CONTINUOUS
 62
3
100
AcDbCircle
 10
458.6949624817246
 20
269.6435029065031
 30
0.0000000000000000
 40
60.00000000000000
100
AcDbArc
 50
171.7490920875538
 51
193.0422366999961
  0
ARC
  5
11B
100
AcDbEntity
  8
MAIN0
  6
CONTINUOUS
 62
3
100
AcDbCircle
 10
458.6949624817246
 20
269.6435029065031
 30
0.0000000000000000
 40
70.00000000000000
100
AcDbArc
 50
142.9158361890841
 51
157.0841638109148
  0
ARC
  5
11C
100
AcDbEntity
  8
MAIN0
  6
CONTINUOUS
 62
3
100
AcDbCircle
 10
458.6949624817246
 20
269.6435029065031
 30
0.0000000000000000
 40
70.00000000000000
100
AcDbArc
 50
172.9158361890841
 51
195.5224878140703
  0
ARC
  5
11D
100
AcDbEntity
  8
MAIN0
  6
CONTINUOUS
 62
3
100
AcDbCircle
 10
458.6949624817246
 20
269.6435029065031
 30
0.0000000000000000
 40
70.00000000000000
100
AcDbArc
 50
224.4775121859302
 51
247.0841638109146
  0
ARC
  5
11E
100
AcDbEntity
  8
MAIN0
  6
CONTINUOUS
 62
3
100
AcDbCircle
 10
458.6949624817246
 20
269.6435029065031
 30
0.0000000000000000
 40
60.00000000000000
100
AcDbArc
 50
226.9577633000045
 51
248.2509079124453
  0
ARC
  5
11F
100
AcDbEntity
  8
MAIN0
  6
CONTINUOUS
 62
3
100
AcDbCircle
 10
458.6949624817246
 20
269.6435029065031
 30
0.0000000000000000
 40
60.00000000000000
100
AcDbArc
 50
261.7490920875534
 51
278.2509079124451
  0
ARC
  5
120
100
AcDbEntity
  8
MAIN0
  6
CONTINUOUS
 62
3
100
AcDbCircle
 10
458.6949624817246
 20
269.6435029065031
 30
0.0000000000000000
 40
60.00000000000000
100
AcDbArc
 50
291.7490920875538
 51
313.0422366999949
  0
ARC
  5
121
100
AcDbEntity
  8
MAIN0
  6
CONTINUOUS
 62
3
100
AcDbCircle
 10
458.6949624817246
 20
269.6435029065031
 30
0.0000000000000000
 40
70.00000000000000
100
AcDbArc
 50
262.9158361890840
 51
277.0841638109148
  0
ARC
  5
122
100
AcDbEntity
  8
MAIN0
  6
CONTINUOUS
 62
3
100
AcDbCircle
 10
458.6949624817246
 20
269.6435029065031
 30
0.0000000000000000
 40
70.00000000000000
100
AcDbArc
 50
292.9158361890841
 51
315.5224878140692
  0
ARC
  5
123
100
AcDbEntity
  8
MAIN0
  6
CONTINUOUS
 62
3
100
AcDbCircle
 10
247.8542860532091
 20
228.1435029065032
 30
0.0000000000000000
 40
1.500000000000000
100
AcDbArc
 50
269.9999999999999
 51
359.9999999999998
  0
MTEXT
  5
124
100
AcDbEntity
  8
MAIN0
  6
CONTINUOUS
 62
4
100
AcDbMText
 10
313.5757677172672
 20
284.3337639827026
 30
0.0000000000000000
 40
3.099999904632568
 41
0.0000000000000000
 71
     1
 72
     1
  1
{\H0.70x;{MIN 41.9}}
 11
6.123233995736766e-017
 21
1.000000000000000
 31
0.0000000000000000
  7
STANDARD
  0
MTEXT
  5
125
100
AcDbEntity
  8
MAIN0
  6
CONTINUOUS
 62
4
100
AcDbMText
 10
313.9712729100201
 20
329.9465566877395
 30
0.0000000000000000
 40
3.099999904632568
 41
0.0000000000000000
 71
     1
 72
     1
  1
{\H0.70x;{MIN 11.75}}
 11
6.123233995736766e-017
 21
1.000000000000000
 31
0.0000000000000000
  7
STANDARD
  0
MTEXT
  5
126
100
AcDbEntity
  8
MAIN0
  6
CONTINUOUS
 62
4
100
AcDbMText
 10
117.9867783822603
 20
319.4606466745352
 30
0.0000000000000000
 40
3.099999904632568
 41
0.0000000000000000
 71
     1
 72
     1
  1
{\H0.70x;{MAX 127}}
 11
1.000000000000000
 21
0.0000000000000000
 31
0.0000000000000000
  7
STANDARD
  0
MTEXT
  5
127
100
AcDbEntity
  8
MAIN0
  6
CONTINUOUS
 62
4
100
AcDbMText
 10
284.8038569225084
 20
65.97106457466907
 30
0.0000000000000000
 40
3.099999904632568
 41
0.0000000000000000
 71
     1
 72
     1
  1
{\H0.70x;{Ｈ８／ｈ８}}
 11
6.123233995736766e-017
 21
1.000000000000000
 31
0.0000000000000000
  7
KNJYOKO
  0
MTEXT
  5
128
100
AcDbEntity
  8
MAIN0
  6
CONTINUOUS
 62
4
100
AcDbMText
 10
180.7554964434102
 20
234.0223980983944
 30
0.0000000000000000
 40
3.099999904632568
 41
0.0000000000000000
 71
     1
 72
     1
  1
{\H0.89x;{ストローク\PSTROKE\P}
 11
1.000000000000000
 21
0.0000000000000000
 31
0.0000000000000000
  7
KNJYOKO
  0
SPLINE
  5
129
100
AcDbEntity
  8
MAIN0
  6
CONTINUOUS
 62
12
100
AcDbSpline
210
0.0000000000000000
220
0.0000000000000000
230
1.000000000000000
 70
     8
 71
     3
 72
    20
 73
    16
 74
     0
 42
1.000000000000000e-007
 43
1.000000000000000e-007
 12
-0.1783702245819256
 22
0.9771113987852118
 32
0.0000000000000000
 13
-1.008340866810855
 23
0.08858349762022044
 33
0.0000000000000000
 40
0.0000000000000000
 40
0.0000000000000000
 40
0.0000000000000000
 40
0.0000000000000000
 40
4.737989217889076
 40
18.36849651702937
 40
27.45329357234050
 40
37.90569237070008
 40
45.50883467270080
 40
53.87751102438017
 40
61.54011689196693
 40
68.19745154858657
 40
80.30550633116070
 40
89.14767774830921
 40
96.62484219861727
 40
101.9206199336699
 40
107.4385702891560
 40
107.4385702891560
 40
107.4385702891560
 40
107.4385702891560
 10
223.3233695214216
 20
284.3218372484390
 30
0.0000000000000000
 10
223.0416641211344
 20
285.8650183391460
 30
0.0000000000000000
 10
221.9495331714758
 20
291.8477074475918
 30
0.0000000000000000
 10
219.2848006269680
 20
301.3262039125891
 30
0.0000000000000000
 10
209.6063462975193
 20
307.4526973797883
 30
0.0000000000000000
 10
205.4044882153441
 20
316.0254687894330
 30
0.0000000000000000
 10
204.5287653298620
 20
324.6760164669595
 30
0.0000000000000000
 10
204.1135702539489
 20
333.0296587578537
 30
0.0000000000000000
 10
209.2741526462042
 20
338.9218502263437
 30
0.0000000000000000
 10
210.5552198601227
 20
348.7010999420231
 30
0.0000000000000000
 10
200.6598204286597
 20
354.0637702655733
 30
0.0000000000000000
 10
191.7006845802453
 20
355.6433992413687
 30
0.0000000000000000
 10
184.3231073630118
 20
356.1977160911529
 30
0.0000000000000000
 10
178.9447458667834
 20
359.3510556246282
 30
0.0000000000000000
 10
175.3101045480265
 20
359.6703615768195
 30
0.0000000000000000
 10
173.4554462665365
 20
359.8332946908807
 30
0.0000000000000000
  0
DIMENSION
  5
132
100
AcDbEntity
  8
MAIN10
  6
CONTINUOUS
 62
3
100
AcDbDimension
  2
*D0
 10
258.3542860532090
 20
139.6435029065030
 30
0.0000000000000000
 11
215.8542860532091
 21
140.1435029065030
 31
0.0000000000000000
 70
32
  3
MAIN001
100
AcDbAlignedDimension
 13
173.3542860532091
 23
164.6435029065031
 33
0.0000000000000000
 14
258.3542860532090
 24
164.6435029065030
 34
0.0000000000000000
100
AcDbRotatedDimension
1001
ACAD
1000
DSTYLE
1002
{
1070
   173
1070
     1
1070
     6
1000
_OPEN
1070
     7
1000
_OPEN
1070
    41
1040
2.000000
1002
}
  0
DIMENSION
  5
13D
100
AcDbEntity
  8
MAIN10
  6
CONTINUOUS
 62
3
100
AcDbDimension
  2
*D1
 10
173.3542860532091
 20
149.6435029065030
 30
0.0000000000000000
 11
175.8542860532091
 21
150.1435029065030
 31
0.0000000000000000
 70
32
  3
MAIN001
100
AcDbAlignedDimension
 13
178.3542860532092
 23
184.6435029065031
 33
0.0000000000000000
 14
173.3542860532091
 24
164.6435029065031
 34
0.0000000000000000
100
AcDbRotatedDimension
1001
ACAD
1000
DSTYLE
1002
{
1070
   173
1070
     1
1070
     6
1000
_OPEN
1070
     7
1000
_OPEN
1070
    41
1040
2.000000
1070
   287
1070
     0
1002
}
  0
DIMENSION
  5
146
100
AcDbEntity
  8
MAIN10
  6
CONTINUOUS
 62
3
100
AcDbDimension
  2
*D2
 10
278.3542860532090
 20
212.9685029065031
 30
0.0000000000000000
 11
277.8542860532090
 21
202.9685029065031
 31
0.0000000000000000
 70
32
  1
\A1;\U+220520
  3
MAIN001
100
AcDbAlignedDimension
 13
258.3542860532090
 23
192.9685029065031
 33
0.0000000000000000
 14
258.3542860532090
 24
212.9685029065031
 34
0.0000000000000000
 50
90.00000000000000
100
AcDbRotatedDimension
1001
ACAD
1000
DSTYLE
1002
{
1070
   173
1070
     1
1070
     6
1000
_OPEN
1070
     7
1000
_OPEN
1070
    41
1040
2.000000
1002
}
  0
DIMENSION
  5
14E
100
AcDbEntity
  8
MAIN10
  6
CONTINUOUS
 62
3
100
AcDbDimension
  2
*D3
 10
243.3542860532091
 20
179.6435029065030
 30
0.0000000000000000
 11
250.8542860532090
 21
180.1435029065030
 31
0.0000000000000000
 70
32
  3
MAIN001
100
AcDbAlignedDimension
 13
258.3542860532090
 23
164.6435029065030
 33
0.0000000000000000
 14
243.3542860532091
 24
192.9685029065031
 34
0.0000000000000000
100
AcDbRotatedDimension
1001
ACAD
1000
DSTYLE
1002
{
1070
   173
1070
     1
1070
     6
1000
_OPEN
1070
     7
1000
_OPEN
1070
    41
1040
2.000000
1002
}
  0
DIMENSION
  5
155
100
AcDbEntity
  8
MAIN10
  6
CONTINUOUS
 62
3
100
AcDbDimension
  2
*D4
 10
218.3542860532090
 20
209.7185029065031
 30
0.0000000000000000
 11
217.8542860532090
 21
202.9685029065031
 31
0.0000000000000000
 70
32
  1
\A1;\U+220513.5
  3
MAIN001
100
AcDbAlignedDimension
 13
243.3542860532090
 23
196.2185029065031
 33
0.0000000000000000
 14
243.3542860532090
 24
209.7185029065031
 34
0.0000000000000000
 50
90.00000000000000
100
AcDbRotatedDimension
1001
ACAD
1000
DSTYLE
1002
{
1070
   173
1070
     1
1070
     6
1000
_OPEN
1070
     7
1000
_OPEN
1070
    41
1040
2.000000
1002
}
  0
DIMENSION
  5
15D
100
AcDbEntity
  8
MAIN10
  6
CONTINUOUS
 62
3
100
AcDbDimension
  2
*D5
 10
178.3542860532092
 20
319.6435029065030
 30
0.0000000000000000
 11
125.3542860532092
 21
320.1435029065030
 31
0.0000000000000000
 70
32
  1
\A1;MIN 106
  3
MAIN001
100
AcDbAlignedDimension
 13
72.35428605320919
 23
286.6435029065029
 33
0.0000000000000000
 14
178.3542860532092
 24
288.6435029065029
 34
0.0000000000000000
100
AcDbRotatedDimension
1001
ACAD
1000
DSTYLE
1002
{
1070
   173
1070
     1
1070
     6
1000
_OPEN
1070
     7
1000
_OPEN
1070
    41
1040
2.000000
1002
}
  0
DIMENSION
  5
166
100
AcDbEntity
  8
MAIN10
  6
CONTINUOUS
 62
3
100
AcDbDimension
  2
*D6
 10
72.35428605320919
 20
319.6435029065030
 30
0.0000000000000000
 11
54.35428605320925
 21
320.1435029065030
 31
0.0000000000000000
 70
32
  3
MAIN001
100
AcDbAlignedDimension
 13
36.35428605320928
 23
277.6435029065030
 33
0.0000000000000000
 14
72.35428605320919
 24
286.6435029065029
 34
0.0000000000000000
100
AcDbRotatedDimension
1001
ACAD
1000
DSTYLE
1002
{
1070
   173
1070
     1
1070
     6
1000
_OPEN
1070
     7
1000
_OPEN
1070
    41
1040
2.000000
1002
}
  0
DIMENSION
  5
16F
100
AcDbEntity
  8
MAIN10
  6
CONTINUOUS
 62
3
100
AcDbDimension
  2
*D7
 10
72.35428605320919
 20
299.6435029065030
 30
0.0000000000000000
 11
84.85428605320919
 21
300.1435029065030
 31
0.0000000000000000
 70
32
  3
MAIN001
100
AcDbAlignedDimension
 13
97.35428605320919
 23
288.6435029065030
 33
0.0000000000000000
 14
72.35428605320919
 24
286.6435029065029
 34
0.0000000000000000
100
AcDbRotatedDimension
1001
ACAD
1000
DSTYLE
1002
{
1070
   173
1070
     1
1070
     6
1000
_OPEN
1070
     7
1000
_OPEN
1070
    41
1040
2.000000
1002
}
  0
DIMENSION
  5
178
100
AcDbEntity
  8
MAIN10
  6
CONTINUOUS
 62
3
100
AcDbDimension
  2
*D8
 10
121.1406476278302
 20
312.6435029065030
 30
0.0000000000000000
 11
120.6406476278302
 21
269.6435029065031
 31
0.0000000000000000
 70
32
  1
\A1;\U+220586
  3
MAIN001
100
AcDbAlignedDimension
 13
178.3542860532091
 23
226.6435029065032
 33
0.0000000000000000
 14
178.3542860532093
 24
312.6435029065030
 34
0.0000000000000000
 50
90.00000000000000
100
AcDbRotatedDimension
1001
ACAD
1000
DSTYLE
1002
{
1070
   173
1070
     1
1070
     6
1000
_OPEN
1070
     7
1000
_OPEN
1070
    41
1040
2.000000
1002
}
  0
DIMENSION
  5
181
100
AcDbEntity
  8
MAIN10
  6
CONTINUOUS
 62
3
100
AcDbDimension
  2
*D9
 10
137.7227348028036
 20
296.6435029065028
 30
0.0000000000000000
 11
137.2227348028036
 21
269.6435029065031
 31
0.0000000000000000
 70
32
  1
\A1;\U+220554
  3
MAIN001
100
AcDbAlignedDimension
 13
192.8542860532093
 23
242.6435029065034
 33
0.0000000000000000
 14
192.8542860532093
 24
296.6435029065028
 34
0.0000000000000000
 50
90.00000000000000
100
AcDbRotatedDimension
1001
ACAD
1000
DSTYLE
1002
{
1070
   173
1070
     1
1070
     6
1000
_OPEN
1070
     7
1000
_OPEN
1070
    41
1040
2.000000
1002
}
  0
DIMENSION
  5
188
100
AcDbEntity
  8
MAIN10
  6
CONTINUOUS
 62
3
100
AcDbDimension
  2
*D10
 10
154.1001196031392
 20
288.6435029065033
 30
0.0000000000000000
 11
153.6001196031392
 21
269.6435029065033
 31
0.0000000000000000
 70
32
  1
\A1;\U+220538
  3
MAIN001
100
AcDbAlignedDimension
 13
97.35428605320919
 23
250.6435029065033
 33
0.0000000000000000
 14
97.35428605320919
 24
288.6435029065030
 34
0.0000000000000000
 50
90.00000000000000
100
AcDbRotatedDimension
1001
ACAD
1000
DSTYLE
1002
{
1070
   173
1070
     1
1070
     6
1000
_OPEN
1070
     7
1000
_OPEN
1070
    41
1040
2.000000
1002
}
  0
LINE
  5
189
100
AcDbEntity
  8
MAIN0
  6
CENTER
 62
12
100
AcDbLine
 10
140.0401362397307
 20
269.6435029065030
 30
0.0000000000000000
 11
149.6045209038858
 21
269.6435029065030
 31
0.0000000000000000
  0
LINE
  5
18A
100
AcDbEntity
  8
MAIN0
  6
CENTER
 62
12
100
AcDbLine
 10
30.53059704273935
 20
269.6435029065030
 30
0.0000000000000000
 11
116.5368077420679
 21
269.6435029065030
 31
0.0000000000000000
  0
LINE
  5
18B
100
AcDbEntity
  8
MAIN0
  6
CENTER
 62
12
100
AcDbLine
 10
123.2697032005490
 20
269.6435029065030
 30
0.0000000000000000
 11
132.4410293175266
 21
269.6435029065030
 31
0.0000000000000000
  0
DIMENSION
  5
192
100
AcDbEntity
  8
MAIN10
  6
CONTINUOUS
 62
3
100
AcDbDimension
  2
*D11
 10
178.3542860532092
 20
234.6435029065030
 30
0.0000000000000000
 11
188.8542860532092
 21
235.1435029065030
 31
0.0000000000000000
 70
32
  3
MAIN001
100
AcDbAlignedDimension
 13
199.3542860532092
 23
228.1435029065032
 33
0.0000000000000000
 14
178.3542860532092
 24
250.6435029065031
 34
0.0000000000000000
100
AcDbRotatedDimension
1001
ACAD
1000
DSTYLE
1002
{
1070
   173
1070
     1
1070
     6
1000
_OPEN
1070
     7
1000
_OPEN
1070
    41
1040
2.000000
1002
}
  0
LEADER
  5
193
100
AcDbEntity
  8
MAIN0
  6
CONTINUOUS
 62
3
100
AcDbLeader
  3
MAIN001
 73
     0
 75
     1
 40
3.099999904632568
 41
7.989000247955325
 76
     3
 10
57.61814130373534
 20
259.6435029065034
 30
0.0000000000000000
 10
48.35428605320902
 20
244.6435029065030
 30
0.0000000000000000
 10
46.42728610899897
 20
244.6435029065030
 30
0.0000000000000000
340
194
213
0.0000000000000000
223
-0.5000000000000000
233
0.0000000000000000
1001
ACAD
1000
DSTYLE
1002
{
1070
   147
1040
0.0
1070
    77
1070
     1
1070
   173
1070
     1
1070
     6
1000
_OPEN
1070
     7
1000
_OPEN
1002
}
  0
MTEXT
  5
194
102
{ACAD_REACTORS
330
193
102
}
100
AcDbEntity
  8
MAIN0
  6
CONTINUOUS
 62
3
100
AcDbMText
 10
38.43828586104365
 20
248.2435028111356
 30
0.0000000000000000
 40
3.099999904632568
 41
0.0000000000000000
 71
     1
 72
     1
  1
{\H0.90x;{M20}}
 11
1.000000000000000
 21
0.0000000000000000
 31
0.0000000000000000
  7
STANDARD
  0
DIMENSION
  5
19D
100
AcDbEntity
  8
MAIN10
  6
CONTINUOUS
 62
3
100
AcDbDimension
  2
*D12
 10
158.3542860532091
 20
173.9359127156217
 30
0.0000000000000000
 11
168.3542860532091
 21
174.4359127156217
 31
0.0000000000000000
 70
32
  3
MAIN001
100
AcDbAlignedDimension
 13
178.3542860532092
 23
184.6435029065031
 33
0.0000000000000000
 14
158.3542860532091
 24
196.9685029065031
 34
0.0000000000000000
100
AcDbRotatedDimension
1001
ACAD
1000
DSTYLE
1002
{
1070
   173
1070
     1
1070
     6
1000
_OPEN
1070
     7
1000
_OPEN
1070
    41
1040
2.000000
1002
}
  0
LEADER
  5
19E
100
AcDbEntity
  8
MAIN0
  6
CONTINUOUS
 62
3
100
AcDbLeader
  3
MAIN001
 73
     0
 75
     1
 40
3.099999904632568
 41
13.56900041007995
 76
     3
 10
163.9437335242970
 20
196.9685029065032
 30
0.0000000000000000
 10
151.1566901822176
 20
173.9359127156217
 30
0.0000000000000000
 10
149.2296902380076
 20
173.9359127156217
 30
0.0000000000000000
340
19F
213
0.0000000000000000
223
-0.5000000000000000
233
0.0000000000000000
1001
ACAD
1000
DSTYLE
1002
{
1070
   147
1040
0.0
1070
    77
1070
     1
1070
   173
1070
     1
1070
     6
1000
_OPEN
1070
     7
1000
_OPEN
1002
}
  0
MTEXT
  5
19F
102
{ACAD_REACTORS
330
19E
102
}
100
AcDbEntity
  8
MAIN0
  6
CONTINUOUS
 62
3
100
AcDbMText
 10
135.6606898279276
 20
177.5359126202543
 30
0.0000000000000000
 40
3.099999904632568
 41
0.0000000000000000
 71
     1
 72
     1
  1
{\H0.92x;{6-M12}}
 11
1.000000000000000
 21
0.0000000000000000
 31
0.0000000000000000
  7
STANDARD
  0
INSERT
  5
1A7
100
AcDbEntity
  8
MAIN10
  6
CONTINUOUS
 62
3
100
AcDbBlockReference
  2
D13
 10
123.2697032005490
 20
269.6435029065030
 30
0.0000000000000000
 50
0.0000000000000000
  0
INSERT
  5
1AF
100
AcDbEntity
  8
MAIN10
  6
CONTINUOUS
 62
3
100
AcDbBlockReference
  2
D14
 10
132.4410293175266
 20
269.6435029065030
 30
0.0000000000000000
 50
0.0000000000000000
  0
DIMENSION
  5
1B6
100
AcDbEntity
  8
MAIN10
  6
CONTINUOUS
 62
3
100
AcDbDimension
  2
*D15
 10
238.3542860532090
 20
282.1435029065030
 30
0.0000000000000000
 11
237.8542860532090
 21
269.6435029065030
 31
0.0000000000000000
 70
32
  1
\A1;\U+220525
  3
MAIN001
100
AcDbAlignedDimension
 13
222.0863368607778
 23
257.1435029065030
 33
0.0000000000000000
 14
222.0863368607778
 24
282.1435029065030
 34
0.0000000000000000
 50
90.00000000000000
100
AcDbRotatedDimension
1001
ACAD
1000
DSTYLE
1002
{
1070
   173
1070
     1
1070
     6
1000
_OPEN
1070
     7
1000
_OPEN
1070
    41
1040
2.000000
1002
}
  0
LINE
  5
1B7
100
AcDbEntity
  8
MAIN0
  6
CENTER
 62
12
100
AcDbLine
 10
155.7624106541164
 20
269.6435029065030
 30
0.0000000000000000
 11
233.2542861485765
 21
269.6435029065030
 31
0.0000000000000000
  0
LINE
  5
1B8
100
AcDbEntity
  8
MAIN0
  6
CENTER
 62
12
100
AcDbLine
 10
239.3542860532090
 20
269.6435029065030
 30
0.0000000000000000
 11
291.5119418414443
 21
269.6435029065030
 31
0.0000000000000000
  0
DIMENSION
  5
1C1
100
AcDbEntity
  8
MAIN10
  6
CONTINUOUS
 62
3
100
AcDbDimension
  2
*D16
 10
343.3542860532090
 20
376.6935029065030
 30
0.0000000000000000
 11
342.8542860532090
 21
329.1935029065030
 31
0.0000000000000000
 70
32
  3
MAIN001
100
AcDbAlignedDimension
 13
300.3542860532091
 23
281.6935029065031
 33
0.0000000000000000
 14
300.3542860532091
 24
376.6935029065030
 34
0.0000000000000000
 50
90.00000000000000
100
AcDbRotatedDimension
1001
ACAD
1000
DSTYLE
1002
{
1070
   173
1070
     1
1070
     6
1000
_OPEN
1070
     7
1000
_OPEN
1070
    41
1040
2.000000
1002
}
  0
DIMENSION
  5
1CA
100
AcDbEntity
  8
MAIN10
  6
CONTINUOUS
 62
3
100
AcDbDimension
  2
*D17
 10
328.3542860532090
 20
376.6935029065030
 30
0.0000000000000000
 11
327.8542860532090
 21
364.6935029065030
 31
0.0000000000000000
 70
32
  3
MAIN001
100
AcDbAlignedDimension
 13
304.2869732316052
 23
352.6935029065030
 33
0.0000000000000000
 14
300.3542860532091
 24
376.6935029065030
 34
0.0000000000000000
 50
90.00000000000000
100
AcDbRotatedDimension
1001
ACAD
1000
DSTYLE
1002
{
1070
   173
1070
     1
1070
     6
1000
_OPEN
1070
     7
1000
_OPEN
1070
    41
1040
2.000000
1002
}
  0
DIMENSION
  5
1D3
100
AcDbEntity
  8
MAIN10
  6
CONTINUOUS
 62
3
100
AcDbDimension
  2
*D18
 10
328.3542860532090
 20
352.6935029065030
 30
0.0000000000000000
 11
327.8542860532090
 21
340.1935029065030
 31
0.0000000000000000
 70
32
  3
MAIN001
100
AcDbAlignedDimension
 13
304.2869732316053
 23
327.6935029065030
 33
0.0000000000000000
 14
304.2869732316052
 24
352.6935029065030
 34
0.0000000000000000
 50
90.00000000000000
100
AcDbRotatedDimension
1001
ACAD
1000
DSTYLE
1002
{
1070
   173
1070
     1
1070
     6
1000
_OPEN
1070
     7
1000
_OPEN
1070
    41
1040
2.000000
1002
}
  0
DIMENSION
  5
1DC
100
AcDbEntity
  8
MAIN10
  6
CONTINUOUS
 62
3
100
AcDbDimension
  2
*D19
 10
328.3542860532090
 20
327.6935029065030
 30
0.0000000000000000
 11
327.8542860532090
 21
304.6935029065030
 31
0.0000000000000000
 70
32
  3
MAIN001
100
AcDbAlignedDimension
 13
300.3542860532091
 23
281.6935029065031
 33
0.0000000000000000
 14
304.2869732316053
 24
327.6935029065030
 34
0.0000000000000000
 50
90.00000000000000
100
AcDbRotatedDimension
1001
ACAD
1000
DSTYLE
1002
{
1070
   173
1070
     1
1070
     6
1000
_OPEN
1070
     7
1000
_OPEN
1070
    41
1040
2.000000
1002
}
  0
DIMENSION
  5
1E7
100
AcDbEntity
  8
MAIN10
  6
CONTINUOUS
 62
3
100
AcDbDimension
  2
*D20
 10
313.3542860532090
 20
327.6935029065030
 30
0.0000000000000000
 11
312.8542860532090
 21
339.1930294349016
 31
0.0000000000000000
 70
160
  1
\A1;MAX 22.25
  3
MAIN001
100
AcDbAlignedDimension
 13
262.3542860532091
 23
315.9435029065030
 33
0.0000000000000000
 14
304.2869732316053
 24
327.6935029065030
 34
0.0000000000000000
 50
90.00000000000000
100
AcDbRotatedDimension
1001
ACAD
1000
DSTYLE
1002
{
1070
   173
1070
     1
1070
     6
1000
_OPEN
1070
     7
1000
_OPEN
1070
    41
1040
2.000000
1070
   287
1070
     0
1002
}
  0
DIMENSION
  5
1F0
100
AcDbEntity
  8
MAIN10
  6
CONTINUOUS
 62
3
100
AcDbDimension
  2
*D21
 10
313.3542860532090
 20
315.9435029065030
 30
0.0000000000000000
 11
312.8542860532090
 21
292.7935029065030
 31
0.0000000000000000
 70
32
  1
\A1;MAX 46.3
  3
MAIN001
100
AcDbAlignedDimension
 13
291.5119418414443
 23
269.6435029065030
 33
0.0000000000000000
 14
262.3542860532091
 24
315.9435029065030
 34
0.0000000000000000
 50
90.00000000000000
100
AcDbRotatedDimension
1001
ACAD
1000
DSTYLE
1002
{
1070
   173
1070
     1
1070
     6
1000
_OPEN
1070
     7
1000
_OPEN
1070
    41
1040
2.000000
1002
}
  0
DIMENSION
  5
1F9
100
AcDbEntity
  8
MAIN10
  6
CONTINUOUS
 62
3
100
AcDbDimension
  2
*D22
 10
300.3542860532091
 20
389.6435029065030
 30
0.0000000000000000
 11
279.3542860532091
 21
390.1435029065030
 31
0.0000000000000000
 70
32
  3
MAIN001
100
AcDbAlignedDimension
 13
258.3542860532091
 23
374.6435029065030
 33
0.0000000000000000
 14
300.3542860532091
 24
376.6935029065030
 34
0.0000000000000000
100
AcDbRotatedDimension
1001
ACAD
1000
DSTYLE
1002
{
1070
   173
1070
     1
1070
     6
1000
_OPEN
1070
     7
1000
_OPEN
1070
    41
1040
2.000000
1002
}
  0
LEADER
  5
1FA
100
AcDbEntity
  8
MAIN0
  6
CONTINUOUS
 62
3
100
AcDbLeader
  3
MAIN001
 73
     0
 74
     0
 75
     1
 40
3.099999904632568
 41
38.80100002682207
 76
     3
 10
263.3542860532091
 20
368.0543763892666
 30
0.0000000000000000
 10
308.3542860532090
 20
389.6435029065030
 30
0.0000000000000000
 10
310.1392860005483
 20
389.6435029065030
 30
0.0000000000000000
340
1FB
213
0.0000000000000000
223
-0.5000000000000000
233
0.0000000000000000
1001
ACAD
1000
DSTYLE
1002
{
1070
   147
1040
0.0
1070
    77
1070
     1
1070
   173
1070
     1
1070
     6
1000
_OPEN
1070
     7
1000
_OPEN
1002
}
  0
MTEXT
  5
1FB
102
{ACAD_REACTORS
330
1FA
102
}
100
AcDbEntity
  8
MAIN0
  6
CONTINUOUS
 62
3
100
AcDbMText
 10
310.1402860005483
 20
393.2435028111356
 30
0.0000000000000000
 40
3.099999904632568
 41
0.0000000000000000
 71
     1
 72
     1
  1
{\H0.69x;{セレーションピッチ　１．５\PSERRATION PITCH 1.5\P}
 11
1.000000000000000
 21
0.0000000000000000
 31
0.0000000000000000
  7
KNJYOKO
  0
DIMENSION
  5
204
100
AcDbEntity
  8
MAIN10
  6
CONTINUOUS
 62
3
100
AcDbDimension
  2
*D23
 10
298.3542860532090
 20
90.05699353386552
 30
0.0000000000000000
 11
297.8542860532090
 21
72.55699353386552
 31
0.0000000000000000
 70
32
  3
MAIN001
100
AcDbAlignedDimension
 13
261.6222352456396
 23
55.05699353386549
 33
0.0000000000000000
 14
261.6222352456396
 24
90.05699353386552
 34
0.0000000000000000
 50
90.00000000000000
100
AcDbRotatedDimension
1001
ACAD
1000
DSTYLE
1002
{
1070
   173
1070
     1
1070
     6
1000
_OPEN
1070
     7
1000
_OPEN
1070
    41
1040
2.000000
1002
}
  0
DIMENSION
  5
20D
100
AcDbEntity
  8
MAIN10
  6
CONTINUOUS
 62
3
100
AcDbDimension
  2
*D24
 10
283.3542860532090
 20
79.55699353386552
 30
0.0000000000000000
 11
282.8542860532090
 21
72.55699353386552
 31
0.0000000000000000
 70
32
  3
MAIN001
100
AcDbAlignedDimension
 13
266.3542860532089
 23
65.55699353386549
 33
0.0000000000000000
 14
266.3542860532089
 24
79.55699353386552
 34
0.0000000000000000
 50
90.00000000000000
100
AcDbRotatedDimension
1001
ACAD
1000
DSTYLE
1002
{
1070
   173
1070
     1
1070
     6
1000
_OPEN
1070
     7
1000
_OPEN
1070
    41
1040
2.000000
1002
}
  0
DIMENSION
  5
217
100
AcDbEntity
  8
MAIN10
  6
CONTINUOUS
 62
3
100
AcDbDimension
  2
*D25
 10
266.3542860532089
 20
109.6435029065030
 30
0.0000000000000000
 11
269.4409965451758
 21
110.1435029065030
 31
0.0000000000000000
 70
160
  3
MAIN001
100
AcDbAlignedDimension
 13
263.3542860532089
 23
89.05699353386524
 33
0.0000000000000000
 14
266.3542860532089
 24
79.55699353386549
 34
0.0000000000000000
100
AcDbRotatedDimension
1001
ACAD
1000
DSTYLE
1002
{
1070
   173
1070
     1
1070
     6
1000
_DOT
1070
     7
1000
_OPEN
1070
    41
1040
2.000000
1070
   287
1070
     0
1002
}
  0
DIMENSION
  5
220
100
AcDbEntity
  8
MAIN10
  6
CONTINUOUS
 62
3
100
AcDbDimension
  2
*D26
 10
263.3542860532089
 20
109.6435029065030
 30
0.0000000000000000
 11
256.3346457276913
 21
110.1435029065030
 31
0.0000000000000000
 70
160
  3
MAIN001
100
AcDbAlignedDimension
 13
258.3542860532089
 23
118.3711890780848
 33
0.0000000000000000
 14
263.3542860532089
 24
89.05699353386524
 34
0.0000000000000000
100
AcDbRotatedDimension
1001
ACAD
1000
DSTYLE
1002
{
1070
   173
1070
     1
1070
     6
1000
_OPEN
1070
     7
1000
_DOT
1070
    41
1040
2.000000
1070
   287
1070
     0
1002
}
  0
DIMENSION
  5
229
100
AcDbEntity
  8
MAIN10
  6
CONTINUOUS
 62
3
100
AcDbDimension
  2
*D27
 10
441.1949624817243
 20
389.6435029065030
 30
0.0000000000000000
 11
458.6949624817243
 21
390.1435029065030
 31
0.0000000000000000
 70
32
  3
MAIN001
100
AcDbAlignedDimension
 13
476.1949624817243
 23
376.6935029065030
 33
0.0000000000000000
 14
441.1949624817243
 24
376.6935029065031
 34
0.0000000000000000
100
AcDbRotatedDimension
1001
ACAD
1000
DSTYLE
1002
{
1070
   173
1070
     1
1070
     6
1000
_OPEN
1070
     7
1000
_OPEN
1070
    41
1040
2.000000
1002
}
  0
DIMENSION
  5
230
100
AcDbEntity
  8
MAIN10
  6
CONTINUOUS
 62
3
100
AcDbDimension
  2
*D28
 10
573.6954670911790
 20
269.6435029065030
 30
0.0000000000000000
 11
569.2939570071271
 21
240.0085916397273
 31
0.0000000000000000
 70
162
  3
MAIN001
100
AcDb2LineAngularDimension
 13
558.2883209215415
 23
212.1432506017760
 33
0.0000000000000000
 14
458.6949624817256
 24
269.6435029065030
 34
0.0000000000000000
 15
458.6949624817255
 25
269.6435029065030
 35
0.0000000000000000
 16
569.7769199202717
 26
239.8791821171761
 36
0.0000000000000000
1001
ACAD
1000
DSTYLE
1002
{
1070
   173
1070
     1
1070
     6
1000
_OPEN
1070
     7
1000
_OPEN
1070
    41
1040
2.000000
1002
}
  0
DIMENSION
  5
238
100
AcDbEntity
  8
MAIN10
  6
CONTINUOUS
 62
3
100
AcDbDimension
  2
*D29
 10
536.8474767842977
 20
290.5844060003385
 30
0.0000000000000000
 11
572.2158994014766
 21
284.5888177804491
 31
0.0000000000000000
 70
162
  3
MAIN001
100
AcDb2LineAngularDimension
 13
573.6954670911790
 23
269.6435029065030
 33
0.0000000000000000
 14
458.6949624817255
 24
269.6435029065030
 34
0.0000000000000000
 15
535.8815509580086
 25
290.3255869552360
 35
0.0000000000000000
 16
572.7116218321635
 26
284.6540808765591
 36
0.0000000000000000
1001
ACAD
1000
DSTYLE
1002
{
1070
   173
1070
     1
1070
     6
1000
_OPEN
1070
     7
1000
_OPEN
1070
    41
1040
2.000000
1002
}
  0
DIMENSION
  5
241
100
AcDbEntity
  8
MAIN10
  6
CONTINUOUS
 62
3
100
AcDbDimension
  2
*D30
 10
530.0973198939637
 20
310.8676731792324
 30
0.0000000000000000
 11
564.4796351526142
 21
313.4609490179831
 31
0.0000000000000000
 70
162
  3
MAIN001
100
AcDb2LineAngularDimension
 13
536.8474767842977
 23
290.5844060003385
 33
0.0000000000000000
 14
535.8815509580086
 24
290.3255869552360
 34
0.0000000000000000
 15
529.2312944901792
 25
310.3676731792324
 35
0.0000000000000000
 16
564.9415749188697
 26
313.6522907341656
 36
0.0000000000000000
1001
ACAD
1000
DSTYLE
1002
{
1070
   173
1070
     1
1070
     6
1000
_OPEN
1070
     7
1000
_OPEN
1070
    41
1040
2.000000
1002
}
  0
DIMENSION
  5
24A
100
AcDbEntity
  8
MAIN10
  6
CONTINUOUS
 62
3
100
AcDbDimension
  2
*D31
 10
515.9065736904624
 20
326.8551141152399
 30
0.0000000000000000
 11
550.3276736189587
 21
339.9557551437823
 31
0.0000000000000000
 70
162
  3
MAIN001
100
AcDb2LineAngularDimension
 13
530.0973198939637
 23
310.8676731792324
 33
0.0000000000000000
 14
529.2312944901792
 24
310.3676731792324
 34
0.0000000000000000
 15
515.1994669092758
 25
326.1480073340533
 35
0.0000000000000000
 16
549.9309969488131
 26
339.6513744292779
 36
0.0000000000000000
1001
ACAD
1000
DSTYLE
1002
{
1070
   173
1070
     1
1070
     6
1000
_OPEN
1070
     7
1000
_OPEN
1070
    41
1040
2.000000
1002
}
  0
DIMENSION
  5
252
100
AcDbEntity
  8
MAIN10
  6
CONTINUOUS
 62
3
100
AcDbDimension
  2
*D32
 10
458.6949624817240
 20
384.6440075159566
 30
0.0000000000000000
 11
502.8950920255703
 21
376.3520551099030
 31
0.0000000000000000
 70
162
  3
MAIN001
100
AcDb2LineAngularDimension
 13
515.9065736904624
 23
326.8551141152399
 33
0.0000000000000000
 14
515.1994669092758
 24
326.1480073340533
 34
0.0000000000000000
 15
458.6949624817255
 25
269.6435029065030
 35
0.0000000000000000
 16
502.7037503093878
 26
375.8901153436474
 36
0.0000000000000000
1001
ACAD
1000
DSTYLE
1002
{
1070
   173
1070
     1
1070
     6
1000
_OPEN
1070
     7
1000
_OPEN
1070
    41
1040
2.000000
1002
}
  0
DIMENSION
  5
259
100
AcDbEntity
  8
MAIN10
  6
CONTINUOUS
 62
3
100
AcDbDimension
  2
*D33
 10
525.1715737172031
 20
264.5038741604693
 30
0.0000000000000000
 11
428.1856797314116
 21
272.5038154752476
 31
0.0000000000000000
 70
163
  3
MAIN001
100
AcDbDiametricDimension
 15
392.2183512462462
 25
274.7831316525369
 35
0.0000000000000000
1001
ACAD
1000
DSTYLE
1002
{
1070
   287
1070
     2
1070
   173
1070
     1
1070
     6
1000
_OPEN
1070
     7
1000
_OPEN
1070
    41
1040
2.000000
1002
}
  0
LEADER
  5
25A
100
AcDbEntity
  8
MAIN0
  6
CONTINUOUS
 62
3
100
AcDbLeader
  3
MAIN001
 73
     0
 74
     0
 75
     1
 40
3.099999904632568
 41
36.56064585300743
 76
     3
 10
392.1706309905392
 20
309.6983954330945
 30
0.0000000000000000
 10
358.3542860532090
 20
364.6435029065030
 30
0.0000000000000000
 10
360.2792859974190
 20
364.6435029065030
 30
0.0000000000000000
340
25B
213
-0.6706447944289380
223
-0.5000000000000000
233
0.0000000000000000
1001
ACAD
1000
DSTYLE
1002
{
1070
   147
1040
0.0
1070
    77
1070
     1
1070
   173
1070
     1
1070
     6
1000
_OPEN
1070
     7
1000
_OPEN
1002
}
  0
MTEXT
  5
25B
102
{ACAD_REACTORS
330
25A
102
}
100
AcDbEntity
  8
MAIN0
  6
CONTINUOUS
 62
3
100
AcDbMText
 10
360.9499307918480
 20
368.2435028111356
 30
0.0000000000000000
 40
3.099999904632568
 41
0.0000000000000000
 71
     1
 72
     1
  1
{\H0.93x;{３－Ｍ６　ねじ深１２\P3-M6 DEPTH 12\P}
 11
1.000000000000000
 21
0.0000000000000000
 31
0.0000000000000000
  7
KNJYOKO
  0
LINE
  5
25C
100
AcDbEntity
  8
MAIN0
  6
HIDDEN
 62
3
100
AcDbLine
 10
556.1284629040076
 20
225.8032759971875
 30
0.0000000000000000
 11
512.6106863638398
 21
250.9282759971876
 31
0.0000000000000000
  0
LINE
  5
25D
100
AcDbEntity
  8
MAIN0
  6
HIDDEN
 62
3
100
AcDbLine
 10
545.3784629040076
 20
207.1837298158221
 30
0.0000000000000000
 11
501.8606863638398
 21
232.3087298158222
 31
0.0000000000000000
  0
LINE
  5
25E
100
AcDbEntity
  8
MAIN0
  6
HIDDEN
 62
3
100
AcDbLine
 10
554.4034629040077
 20
222.8154883541312
 30
0.0000000000000000
 11
506.1658479132145
 21
250.6654883541314
 31
0.0000000000000000
  0
LINE
  5
25F
100
AcDbEntity
  8
MAIN0
  6
HIDDEN
 62
3
100
AcDbLine
 10
547.1034629040076
 20
210.1715174588784
 30
0.0000000000000000
 11
498.8658479132145
 21
238.0215174588786
 31
0.0000000000000000
  0
POINT
  5
260
100
AcDbEntity
  8
MAIN0
  6
CONTINUOUS
 62
3
100
AcDbPoint
 10
503.6701449833068
 20
251.7599729510156
 30
0.0000000000000000
  0
ARC
  5
261
100
AcDbEntity
  8
MAIN0
  6
HIDDEN
 62
3
100
AcDbCircle
 10
507.2356863638398
 20
241.6185029065049
 30
0.0000000000000000
 40
10.74999999999997
100
AcDbArc
 50
59.99999999999993
 51
109.3706712166805
  0
POINT
  5
262
100
AcDbEntity
  8
MAIN0
  6
CONTINUOUS
 62
3
100
AcDbPoint
 10
504.2221088017445
 20
251.4412964918576
 30
0.0000000000000000
  0
ARC
  5
263
100
AcDbEntity
  8
MAIN0
  6
HIDDEN
 62
3
100
AcDbCircle
 10
502.5158479132145
 20
244.3435029065049
 30
0.0000000000000000
 40
7.300000000000012
100
AcDbArc
 50
59.99999999999999
 51
76.48297013805914
  0
POINT
  5
264
100
AcDbEntity
  8
MAIN0
  6
CONTINUOUS
 62
3
100
AcDbPoint
 10
496.6701449833088
 20
239.6356172980322
 30
0.0000000000000000
  0
ARC
  5
265
100
AcDbEntity
  8
MAIN0
  6
CONTINUOUS
 62
3
100
AcDbCircle
 10
507.2356863638398
 20
241.6185029065049
 30
0.0000000000000000
 40
10.74999999999997
100
AcDbArc
 50
109.3706712166805
 51
190.6293287833388
  0
ARC
  5
266
100
AcDbEntity
  8
MAIN0
  6
HIDDEN
 62
3
100
AcDbCircle
 10
507.2356863638398
 20
241.6185029065049
 30
0.0000000000000000
 40
10.74999999999997
100
AcDbArc
 50
190.6293287833388
 51
239.9999999999997
  0
POINT
  5
267
100
AcDbEntity
  8
MAIN0
  6
CONTINUOUS
 62
3
100
AcDbPoint
 10
497.2221088017526
 20
239.3169408388708
 30
0.0000000000000000
  0
ARC
  5
268
100
AcDbEntity
  8
MAIN0
  6
CONTINUOUS
 62
3
100
AcDbCircle
 10
502.5158479132145
 20
244.3435029065049
 30
0.0000000000000000
 40
7.300000000000012
100
AcDbArc
 50
76.48297013805914
 51
223.5170298620166
  0
ARC
  5
269
100
AcDbEntity
  8
MAIN0
  6
HIDDEN
 62
3
100
AcDbCircle
 10
502.5158479132145
 20
244.3435029065049
 30
0.0000000000000000
 40
7.300000000000012
100
AcDbArc
 50
223.5170298620166
 51
239.9999999999997
  0
LINE
  5
26A
100
AcDbEntity
  8
MAIN0
  6
HIDDEN
 62
3
100
AcDbLine
 10
361.2614620594403
 20
225.8032759971875
 30
0.0000000000000000
 11
404.7792385996081
 21
250.9282759971876
 31
0.0000000000000000
  0
LINE
  5
26B
100
AcDbEntity
  8
MAIN0
  6
HIDDEN
 62
3
100
AcDbLine
 10
362.9864620594402
 20
222.8154883541312
 30
0.0000000000000000
 11
411.2240770502334
 21
250.6654883541314
 31
0.0000000000000000
  0
ARC
  5
26C
100
AcDbEntity
  8
MAIN0
  6
HIDDEN
 62
3
100
AcDbCircle
 10
410.1542385996081
 20
241.6185029065049
 30
0.0000000000000000
 40
10.74999999999997
100
AcDbArc
 50
70.62932878331949
 51
120.0000000000001
  0
ARC
  5
26D
100
AcDbEntity
  8
MAIN0
  6
HIDDEN
 62
3
100
AcDbCircle
 10
414.8740770502334
 20
244.3435029065049
 30
0.0000000000000000
 40
7.300000000000012
100
AcDbArc
 50
103.5170298619409
 51
120.0000000000000
  0
ARC
  5
26E
100
AcDbEntity
  8
MAIN0
  6
CONTINUOUS
 62
3
100
AcDbCircle
 10
414.8740770502334
 20
244.3435029065049
 30
0.0000000000000000
 40
7.300000000000012
100
AcDbArc
 50
316.4829701379834
 51
463.5170298619409
  0
ARC
  5
26F
100
AcDbEntity
  8
MAIN0
  6
CONTINUOUS
 62
3
100
AcDbCircle
 10
410.1542385996081
 20
241.6185029065049
 30
0.0000000000000000
 40
10.74999999999997
100
AcDbArc
 50
349.3706712166613
 51
430.6293287833195
  0
ARC
  5
270
100
AcDbEntity
  8
MAIN0
  6
HIDDEN
 62
3
100
AcDbCircle
 10
414.8740770502334
 20
244.3435029065049
 30
0.0000000000000000
 40
7.300000000000012
100
AcDbArc
 50
300.0000000000003
 51
316.4829701379834
  0
ARC
  5
271
100
AcDbEntity
  8
MAIN0
  6
HIDDEN
 62
3
100
AcDbCircle
 10
410.1542385996081
 20
241.6185029065049
 30
0.0000000000000000
 40
10.74999999999997
100
AcDbArc
 50
300.0000000000003
 51
349.3706712166613
  0
LINE
  5
272
100
AcDbEntity
  8
MAIN0
  6
HIDDEN
 62
3
100
AcDbLine
 10
370.2864620594403
 20
210.1715174588784
 30
0.0000000000000000
 11
418.5240770502335
 21
238.0215174588786
 31
0.0000000000000000
  0
LINE
  5
273
100
AcDbEntity
  8
MAIN0
  6
HIDDEN
 62
3
100
AcDbLine
 10
372.0114620594403
 20
207.1837298158221
 30
0.0000000000000000
 11
415.5292385996082
 21
232.3087298158222
 31
0.0000000000000000
  0
DIMENSION
  5
279
100
AcDbEntity
  8
MAIN10
  6
CONTINUOUS
 62
3
100
AcDbDimension
  2
*D34
 10
390.1387921031361
 20
300.0581622506736
 30
0.0000000000000000
 11
431.5296014389998
 21
282.2422988617922
 31
0.0000000000000000
 70
163
  3
MAIN001
100
AcDbDiametricDimension
 15
527.2511328603132
 25
239.2288435623326
 35
0.0000000000000000
1001
ACAD
1000
DSTYLE
1002
{
1070
   287
1070
     2
1070
   173
1070
     1
1070
     6
1000
_OPEN
1070
     7
1000
_NONE
1070
    41
1040
2.000000
1070
   272
1070
     1
1070
    47
1040
0.200000
1070
    48
1040
0.200000
1070
    71
1070
     1
1002
}
  0
LEADER
  5
27A
100
AcDbEntity
  8
MAIN0
  6
CONTINUOUS
 62
3
100
AcDbLeader
  3
MAIN001
 73
     0
 74
     0
 75
     1
 40
3.099999904632568
 41
38.68100113964078
 76
     3
 10
231.3542860532093
 20
178.4279554307140
 30
0.0000000000000000
 10
263.9771070926105
 20
153.6829856543911
 30
0.0000000000000000
 10
265.9021070368206
 20
153.6829856543911
 30
0.0000000000000000
340
27B
213
0.0000000000000000
223
-0.5000000000000000
233
0.0000000000000000
1001
ACAD
1000
DSTYLE
1002
{
1070
   147
1040
0.0
1070
    77
1070
     1
1070
   173
1070
     1
1070
     6
1000
_OPEN
1070
     7
1000
_OPEN
1002
}
  0
MTEXT
  5
27B
102
{ACAD_REACTORS
330
27A
102
}
100
AcDbEntity
  8
MAIN0
  6
CONTINUOUS
 62
3
100
AcDbMText
 10
265.9031070368205
 20
157.2829855590237
 30
0.0000000000000000
 40
3.099999904632568
 41
0.0000000000000000
 71
     1
 72
     1
  1
{\H0.93x;{２－Ｍ１０　ねじ深２３\P2-M10 DEPTH 23\P}
 11
1.000000000000000
 21
0.0000000000000000
 31
0.0000000000000000
  7
KNJYOKO
  0
DIMENSION
  5
284
100
AcDbEntity
  8
MAIN10
  6
CONTINUOUS
 62
3
100
AcDbDimension
  2
*D35
 10
258.3542860532090
 20
149.6435029065030
 30
0.0000000000000000
 11
242.3542860532090
 21
150.1435029065030
 31
0.0000000000000000
 70
32
  3
MAIN001
100
AcDbAlignedDimension
 13
226.3542860532090
 23
159.9319922611107
 33
0.0000000000000000
 14
258.3542860532090
 24
164.6435029065030
 34
0.0000000000000000
100
AcDbRotatedDimension
1001
ACAD
1000
DSTYLE
1002
{
1070
   173
1070
     1
1070
     6
1000
_OPEN
1070
     7
1000
_OPEN
1070
    41
1040
2.000000
1002
}
  0
DIMENSION
  5
28C
100
AcDbEntity
  8
MAIN10
  6
CONTINUOUS
 62
3
100
AcDbDimension
  2
*D36
 10
402.3713831422222
 20
367.1988039866561
 30
0.0000000000000000
 11
428.8012321698457
 21
381.2084232581938
 31
0.0000000000000000
 70
162
  3
MAIN001
100
AcDb2LineAngularDimension
 13
458.6949624817239
 23
384.6440075159566
 33
0.0000000000000000
 14
458.6949624817239
 24
269.6435029065016
 34
0.0000000000000000
 15
402.8713831422222
 25
366.3327785828716
 35
0.0000000000000000
 16
428.9306416923969
 26
380.7254603450493
 36
0.0000000000000000
1001
ACAD
1000
DSTYLE
1002
{
1070
   173
1070
     1
1070
     6
1000
_OPEN
1070
     7
1000
_OPEN
1070
    41
1040
2.000000
1002
}
  0
POINT
  5
28D
100
AcDbEntity
  8
MAIN0
  6
CONTINUOUS
 62
3
100
AcDbPoint
 10
90.88295649394439
 20
105.2945896983128
 30
0.0000000000000000
  0
INSERT
  5
293
100
AcDbEntity
  8
MAIN0
  6
CONTINUOUS
 62
3
100
AcDbBlockReference
  2
M0
 10
0.0000000000000000
 20
0.0000000000000000
 30
0.0000000000000000
 50
0.0000000000000000
  0
INSERT
  5
2DE
100
AcDbEntity
  8
MAIN0
  6
CONTINUOUS
 62
3
100
AcDbBlockReference
  2
M1
 10
0.0000000000000000
 20
0.0000000000000000
 30
0.0000000000000000
 50
0.0000000000000000
  0
MTEXT
  5
2DF
100
AcDbEntity
  8
MAIN0
  6
CONTINUOUS
 62
4
100
AcDbMText
 10
90.88295649394439
 20
157.8945900797826
 30
0.0000000000000000
 40
3.100000381469727
 41
0.0000000000000000
 71
     1
 72
     1
  1
{\H0.88x;{21}}
 11
1.000000000000000
 21
0.0000000000000000
 31
0.0000000000000000
  7
STANDARD
  0
MTEXT
  5
2E0
100
AcDbEntity
  8
MAIN0
  6
CONTINUOUS
 62
4
100
AcDbMText
 10
90.88295649394439
 20
150.8945900797826
 30
0.0000000000000000
 40
3.100000381469727
 41
0.0000000000000000
 71
     1
 72
     1
  1
{\H0.90x;{8.8}}
 11
1.000000000000000
 21
0.0000000000000000
 31
0.0000000000000000
  7
STANDARD
  0
MTEXT
  5
2E1
100
AcDbEntity
  8
MAIN0
  6
CONTINUOUS
 62
4
100
AcDbMText
 10
90.88295649394439
 20
144.3945900797826
 30
0.0000000000000000
 40
3.100000381469727
 41
0.0000000000000000
 71
     1
 72
     1
  1
{\H0.88x;{25}}
 11
1.000000000000000
 21
0.0000000000000000
 31
0.0000000000000000
  7
STANDARD
  0
MTEXT
  5
2E2
100
AcDbEntity
  8
MAIN0
  6
CONTINUOUS
 62
4
100
AcDbMText
 10
93.88295649394439
 20
139.8945900797826
 30
0.0000000000000000
 40
3.100000381469727
 41
0.0000000000000000
 71
     1
 72
     1
  1
{\H0.91x;{2549}}
 11
1.000000000000000
 21
0.0000000000000000
 31
0.0000000000000000
  7
STANDARD
  0
MTEXT
  5
2E3
100
AcDbEntity
  8
MAIN0
  6
CONTINUOUS
 62
4
100
AcDbMText
 10
90.88295649394439
 20
134.3945900797826
 30
0.0000000000000000
 40
3.100000381469727
 41
0.0000000000000000
 71
     1
 72
     1
  1
{\H0.88x;{75}}
 11
1.000000000000000
 21
0.0000000000000000
 31
0.0000000000000000
  7
STANDARD
  0
MTEXT
  5
2E4
100
AcDbEntity
  8
MAIN0
  6
CONTINUOUS
 62
4
100
AcDbMText
 10
93.88295649394439
 20
129.8945900797826
 30
0.0000000000000000
 40
3.100000381469727
 41
0.0000000000000000
 71
     1
 72
     1
  1
{\H0.91x;{7648}}
 11
1.000000000000000
 21
0.0000000000000000
 31
0.0000000000000000
  7
STANDARD
  0
MTEXT
  5
2E5
100
AcDbEntity
  8
MAIN0
  6
CONTINUOUS
 62
4
100
AcDbMText
 10
90.88295649394439
 20
123.8945900797826
 30
0.0000000000000000
 40
3.100000381469727
 41
0.0000000000000000
 71
     1
 72
     1
  1
{\H0.91x;{4760}}
 11
1.000000000000000
 21
0.0000000000000000
 31
0.0000000000000000
  7
STANDARD
  0
MTEXT
  5
2E6
100
AcDbEntity
  8
MAIN0
  6
CONTINUOUS
 62
4
100
AcDbMText
 10
90.88295649394439
 20
116.8945900797826
 30
0.0000000000000000
 40
3.100000381469727
 41
0.0000000000000000
 71
     1
 72
     1
  1
{\H0.88x;{25}}
 11
1.000000000000000
 21
0.0000000000000000
 31
0.0000000000000000
  7
STANDARD
  0
MTEXT
  5
2E7
100
AcDbEntity
  8
MAIN0
  6
CONTINUOUS
 62
3
100
AcDbMText
 10
90.08295630320953
 20
108.3445898890479
 30
0.0000000000000000
 40
3.100000381469727
 41
0.0000000000000000
 71
     1
 72
     1
  1
{\H0.84x;{0.138}}
 11
1.000000000000000
 21
0.0000000000000000
 31
0.0000000000000000
  7
STANDARD
  0
MTEXT
  5
2E8
100
AcDbEntity
  8
MAIN0
  6
CONTINUOUS
 62
4
100
AcDbMText
 10
90.88295649394439
 20
100.3945900797826
 30
0.0000000000000000
 40
3.100000381469727
 41
0.0000000000000000
 71
     1
 72
     1
  1
{\H0.88x;{25}}
 11
1.000000000000000
 21
0.0000000000000000
 31
0.0000000000000000
  7
STANDARD
  0
MTEXT
  5
2E9
100
AcDbEntity
  8
MAIN0
  6
CONTINUOUS
 62
4
100
AcDbMText
 10
93.88295649394439
 20
95.89459007978255
 30
0.0000000000000000
 40
3.100000381469727
 41
0.0000000000000000
 71
     1
 72
     1
  1
{\H0.91x;{2549}}
 11
1.000000000000000
 21
0.0000000000000000
 31
0.0000000000000000
  7
STANDARD
  0
MTEXT
  5
2EA
100
AcDbEntity
  8
MAIN0
  6
CONTINUOUS
 62
4
100
AcDbMText
 10
90.88295649394439
 20
89.46747177839094
 30
0.0000000000000000
 40
2.672882080078125
 41
0.0000000000000000
 71
     1
 72
     1
  1
{\H0.93x;{Y1225R / RE}}
 11
1.000000000000000
 21
0.0000000000000000
 31
0.0000000000000000
  7
STANDARD
  0
MTEXT
  5
2EB
100
AcDbEntity
  8
MAIN0
  6
CONTINUOUS
 62
4
100
AcDbMText
 10
90.88295649394439
 20
83.39459007978238
 30
0.0000000000000000
 40
3.100000381469727
 41
0.0000000000000000
 71
     1
 72
     1
  1
{\H0.90x;{2.5}}
 11
1.000000000000000
 21
0.0000000000000000
 31
0.0000000000000000
  7
STANDARD
  0
MTEXT
  5
2EC
100
AcDbEntity
  8
MAIN0
  6
CONTINUOUS
 62
4
100
AcDbMText
 10
93.88295649394439
 20
78.19458931684292
 30
0.0000000000000000
 40
2.399999618530273
 41
0.0000000000000000
 71
     1
 72
     1
  1
{\H0.91x;{25.5}}
 11
1.000000000000000
 21
0.0000000000000000
 31
0.0000000000000000
  7
STANDARD
  0
LINE
  5
2ED
100
AcDbEntity
  8
MAIN0
  6
PHANTOM
 62
3
100
AcDbLine
 10
155.3542860532091
 20
184.6435029065030
 30
0.0000000000000000
 11
178.3542860532092
 21
184.6435029065030
 31
0.0000000000000000
  0
LINE
  5
2EE
100
AcDbEntity
  8
MAIN0
  6
PHANTOM
 62
3
100
AcDbLine
 10
155.3542860532092
 20
232.6435029065030
 30
0.0000000000000000
 11
178.3542860532092
 21
232.6435029065030
 31
0.0000000000000000
  0
LINE
  5
2EF
100
AcDbEntity
  8
MAIN0
  6
PHANTOM
 62
3
100
AcDbLine
 10
155.3542860532091
 20
184.6435029065030
 30
0.0000000000000000
 11
155.3542860532092
 21
237.8967157644245
 31
0.0000000000000000
  0
LINE
  5
2F0
100
AcDbEntity
  8
MAIN0
  6
CONTINUOUS
 62
3
100
AcDbLine
 10
175.3542860532092
 20
196.9685029065032
 30
0.0000000000000000
 11
178.3542860532092
 21
196.9685029065032
 31
0.0000000000000000
  0
LEADER
  5
2F1
100
AcDbEntity
  8
MAIN0
  6
CONTINUOUS
 62
3
100
AcDbLeader
  3
MAIN001
 73
     3
 74
     0
 75
     0
 76
     2
 10
178.3542860532092
 20
229.9415576173795
 30
0.0000000000000000
 10
187.3851555659226
 20
223.3912061003820
 30
0.0000000000000000
1001
ACAD
1000
DSTYLE
1002
{
1070
   173
1070
     1
1070
     6
1000
_OPEN
1070
     7
1000
_OPEN
1002
}
  0
LEADER
  5
2F2
100
AcDbEntity
  8
MAIN0
  6
CONTINUOUS
 62
3
100
AcDbLeader
  3
MAIN001
 73
     0
 75
     1
 40
3.099999904632568
 41
72.69900165700912
 76
     3
 10
187.3851555659226
 20
223.3912061003820
 30
0.0000000000000000
 10
134.0759520488194
 20
183.4958402622069
 30
0.0000000000000000
 10
132.1489521046094
 20
183.4958402622069
 30
0.0000000000000000
340
2F3
213
0.0000000000000000
223
-0.5000000000000000
233
0.0000000000000000
1001
ACAD
1000
DSTYLE
1002
{
1070
   147
1040
0.0
1070
    77
1070
     1
1070
   173
1070
     1
1070
     6
1000
_NONE
1070
     7
1000
_NONE
1002
}
  0
MTEXT
  5
2F3
102
{ACAD_REACTORS
330
2F2
102
}
100
AcDbEntity
  8
MAIN0
  6
CONTINUOUS
 62
3
100
AcDbMText
 10
59.44995044760026
 20
187.0958401668395
 30
0.0000000000000000
 40
3.099999904632568
 41
0.0000000000000000
 71
     1
 72
     1
  1
{\H0.94x;{プランジャストロークより長いストロークの\Pシリンダと組合わせる場合、バックプレートで\P引側ストロークを規制してください}}
 11
1.000000000000000
 21
0.0000000000000000
 31
0.0000000000000000
  7
KNJYOKO
  0
LEADER
  5
2F4
100
AcDbEntity
  8
MAIN0
  6
CONTINUOUS
 62
3
100
AcDbLeader
  3
MAIN001
 73
     0
 74
     0
 75
     1
 40
3.099999904632568
 41
20.50100047683714
 76
     3
 10
243.7810211061813
 20
248.0086842380705
 30
0.0000000000000000
 10
265.6886009887757
 20
227.0536072362118
 30
0.0000000000000000
 10
267.6136009329857
 20
227.0536072362118
 30
0.0000000000000000
340
2F5
213
0.0000000000000000
223
-0.5000000000000000
233
0.0000000000000000
1001
ACAD
1000
DSTYLE
1002
{
1070
   147
1040
0.0
1070
    77
1070
     1
1070
   173
1070
     1
1070
     6
1000
_DOT
1070
     7
1000
_DOT
1002
}
  0
MTEXT
  5
2F5
102
{ACAD_REACTORS
330
2F4
102
}
100
AcDbEntity
  8
MAIN0
  6
CONTINUOUS
 62
3
100
AcDbMText
 10
267.6146009329857
 20
230.6536071408443
 30
0.0000000000000000
 40
3.099999904632568
 41
0.0000000000000000
 71
     1
 72
     1
  1
{\H0.93x;{PLUNGER\Pプランジャー}}
 11
1.000000000000000
 21
0.0000000000000000
 31
0.0000000000000000
  7
KNJYOKO
  0
LEADER
  5
2F6
100
AcDbEntity
  8
MAIN0
  6
CONTINUOUS
 62
3
100
AcDbLeader
  3
MAIN001
 73
     0
 75
     1
 40
3.099999904632568
 41
27.51900081539154
 76
     3
 10
159.6778979912759
 20
224.5573209794218
 30
0.0000000000000000
 10
144.8727623247723
 20
213.5517281630828
 30
0.0000000000000000
 10
142.9457623805623
 20
213.5517281630828
 30
0.0000000000000000
340
2F7
213
0.0000000000000000
223
-0.5000000000000000
233
0.0000000000000000
1001
ACAD
1000
DSTYLE
1002
{
1070
   147
1040
0.0
1070
    77
1070
     1
1070
   173
1070
     1
1070
     6
1000
_DOT
1070
     7
1000
_DOT
1002
}
  0
MTEXT
  5
2F7
102
{ACAD_REACTORS
330
2F6
102
}
100
AcDbEntity
  8
MAIN0
  6
CONTINUOUS
 62
3
100
AcDbMText
 10
115.4267615651708
 20
217.1517280677154
 30
0.0000000000000000
 40
3.099999904632568
 41
0.0000000000000000
 71
     1
 72
     1
  1
{\H0.93x;{BACK PLATE\Pバックプレート}}
 11
1.000000000000000
 21
0.0000000000000000
 31
0.0000000000000000
  7
KNJYOKO
  0
INSERT
  5
2FF
100
AcDbEntity
  8
MAIN0
  6
CONTINUOUS
 62
1
100
AcDbBlockReference
  2
M2
 10
0.0000000000000000
 20
0.0000000000000000
 30
0.0000000000000000
 50
0.0000000000000000
  0
MTEXT
  5
300
100
AcDbEntity
  8
MAIN0
  6
CONTINUOUS
 62
3
100
AcDbMText
 10
59.86692066453816
 20
203.1260348313766
 30
0.0000000000000000
 40
3.741928339004517
 41
0.0000000000000000
 71
     1
 72
     1
  1
{\H0.43x;{IN CASE YOU USE CYLINDER WITH LONGER STROKE THAN\PPLUNGER STROKE, PROVIDE BACK PLATE WHICH HAS\PSTOPPER FACE RESTRICTS CYLINDER STOROKE. }}
 11
1.000000000000000
 21
0.0000000000000000
 31
0.0000000000000000
  7
STANDARD
  0
INSERT
  5
308
100
AcDbEntity
  8
MAIN0
  6
CONTINUOUS
 62
1
100
AcDbBlockReference
  2
M3
 10
0.0000000000000000
 20
0.0000000000000000
 30
0.0000000000000000
 50
0.0000000000000000
  0
ARC
  5
309
100
AcDbEntity
  8
MAIN0
  6
CONTINUOUS
 62
3
100
AcDbCircle
 10
458.6949624817246
 20
269.6435029065031
 30
0.0000000000000000
 40
104.9999999999996
100
AcDbArc
 50
219.5940682268604
 51
320.4059317731394
  0
INSERT
  5
33A
100
AcDbEntity
  8
MAIN0
  6
CONTINUOUS
 62
3
100
AcDbBlockReference
  2
*X0
 10
0.0000000000000000
 20
0.0000000000000000
 30
0.0000000000000000
 50
0.0000000000000000
  0
POINT
  5
33B
100
AcDbEntity
  8
MAIN0
  6
CONTINUOUS
 62
3
100
AcDbPoint
 10
217.3542860532093
 20
269.6435029065030
 30
0.0000000000000000
  0
POINT
  5
33C
100
AcDbEntity
  8
MAIN0
  6
CONTINUOUS
 62
3
100
AcDbPoint
 10
178.3542860532092
 20
269.6435029065030
 30
0.0000000000000000
  0
LINE
  5
33D
100
AcDbEntity
  8
MAIN0
  6
CONTINUOUS
 62
3
100
AcDbLine
 10
192.8542860532093
 20
296.6435029065028
 30
0.0000000000000000
 11
198.3542860532093
 21
296.6435029065028
 31
0.0000000000000000
  0
LINE
  5
33E
100
AcDbEntity
  8
MAIN0
  6
CONTINUOUS
 62
3
100
AcDbLine
 10
192.8542860532093
 20
242.6435029065034
 30
0.0000000000000000
 11
198.3542860532092
 21
242.6435029065034
 31
0.0000000000000000
  0
LINE
  5
33F
100
AcDbEntity
  8
MAIN0
  6
CONTINUOUS
 62
3
100
AcDbLine
 10
178.3542860532093
 20
312.6435029065030
 30
0.0000000000000000
 11
207.3497994750740
 21
312.6435029065030
 31
0.0000000000000000
  0
LINE
  5
340
100
AcDbEntity
  8
MAIN0
  6
CONTINUOUS
 62
3
100
AcDbLine
 10
173.3542860532092
 20
354.6435029065030
 30
0.0000000000000000
 11
178.3542860532093
 21
354.6435029065030
 31
0.0000000000000000
  0
LINE
  5
341
100
AcDbEntity
  8
MAIN0
  6
CONTINUOUS
 62
3
100
AcDbLine
 10
173.3542860532092
 20
184.6435029065031
 30
0.0000000000000000
 11
178.3542860532091
 21
184.6435029065031
 31
0.0000000000000000
  0
LINE
  5
342
100
AcDbEntity
  8
MAIN0
  6
CONTINUOUS
 62
3
100
AcDbLine
 10
173.3542860532091
 20
164.6435029065031
 30
0.0000000000000000
 11
258.3542860532090
 21
164.6435029065030
 31
0.0000000000000000
  0
LINE
  5
343
100
AcDbEntity
  8
MAIN0
  6
CONTINUOUS
 62
3
100
AcDbLine
 10
199.3542860532092
 20
228.1435029065032
 30
0.0000000000000000
 11
199.3542860532093
 21
241.6435029065035
 31
0.0000000000000000
  0
LINE
  5
344
100
AcDbEntity
  8
MAIN0
  6
CONTINUOUS
 62
3
100
AcDbLine
 10
199.3542860532092
 20
297.6435029065029
 30
0.0000000000000000
 11
199.3542860532092
 21
311.1435029065030
 31
0.0000000000000000
  0
LINE
  5
345
100
AcDbEntity
  8
MAIN0
  6
CONTINUOUS
 62
3
100
AcDbLine
 10
173.3542860532091
 20
294.6009118017528
 30
0.0000000000000000
 11
173.3542860532091
 21
374.6435029065030
 31
0.0000000000000000
  0
LINE
  5
346
100
AcDbEntity
  8
MAIN0
  6
CONTINUOUS
 62
3
100
AcDbLine
 10
178.3542860532092
 20
288.6435029065029
 30
0.0000000000000000
 11
178.3542860532093
 21
354.6435029065030
 31
0.0000000000000000
  0
LINE
  5
347
100
AcDbEntity
  8
MAIN0
  6
CONTINUOUS
 62
3
100
AcDbLine
 10
191.8542860532093
 20
243.6435029065034
 30
0.0000000000000000
 11
191.8542860532093
 21
251.6435029065032
 31
0.0000000000000000
  0
LINE
  5
348
100
AcDbEntity
  8
MAIN0
  6
CONTINUOUS
 62
3
100
AcDbLine
 10
191.8542860532093
 20
287.6435029065028
 30
0.0000000000000000
 11
191.8542860532093
 21
295.6435029065028
 31
0.0000000000000000
  0
LINE
  5
349
100
AcDbEntity
  8
MAIN0
  6
CONTINUOUS
 62
3
100
AcDbLine
 10
253.3542860532091
 20
315.9435029065030
 30
0.0000000000000000
 11
262.3542860532091
 21
315.9435029065030
 31
0.0000000000000000
  0
LINE
  5
34A
100
AcDbEntity
  8
MAIN0
  6
CONTINUOUS
 62
3
100
AcDbLine
 10
243.3542860532091
 20
212.9685029065031
 30
0.0000000000000000
 11
258.3542860532090
 21
212.9685029065031
 31
0.0000000000000000
  0
LINE
  5
34B
100
AcDbEntity
  8
MAIN0
  6
CONTINUOUS
 62
3
100
AcDbLine
 10
243.3542860532091
 20
192.9685029065031
 30
0.0000000000000000
 11
258.3542860532090
 21
192.9685029065031
 31
0.0000000000000000
  0
LINE
  5
34C
100
AcDbEntity
  8
MAIN0
  6
CONTINUOUS
 62
3
100
AcDbLine
 10
178.3542860532092
 20
209.7185029065031
 30
0.0000000000000000
 11
243.3542860532090
 21
209.7185029065031
 31
0.0000000000000000
  0
LINE
  5
34D
100
AcDbEntity
  8
MAIN0
  6
CONTINUOUS
 62
3
100
AcDbLine
 10
178.3542860532092
 20
196.2185029065031
 30
0.0000000000000000
 11
243.3542860532090
 21
196.2185029065031
 31
0.0000000000000000
  0
LINE
  5
34E
100
AcDbEntity
  8
MAIN0
  6
CONTINUOUS
 62
3
100
AcDbLine
 10
243.3542860532091
 20
192.9685029065031
 30
0.0000000000000000
 11
243.3542860532091
 21
212.9685029065031
 31
0.0000000000000000
  0
LINE
  5
34F
100
AcDbEntity
  8
MAIN0
  6
CENTER
 62
12
100
AcDbLine
 10
196.3542860532091
 20
237.5336370413921
 30
0.0000000000000000
 11
196.3542860532091
 21
253.2727582244968
 31
0.0000000000000000
  0
LINE
  5
350
100
AcDbEntity
  8
MAIN0
  6
CONTINUOUS
 62
3
100
AcDbLine
 10
258.3542860532090
 20
164.6435029065030
 30
0.0000000000000000
 11
258.3542860532091
 21
315.9435029065030
 31
0.0000000000000000
  0
LINE
  5
351
100
AcDbEntity
  8
MAIN0
  6
HIDDEN
 62
12
100
AcDbLine
 10
258.3542860532091
 20
315.9435029065030
 30
0.0000000000000000
 11
258.3542860532091
 21
374.6435029065030
 31
0.0000000000000000
  0
LINE
  5
352
100
AcDbEntity
  8
MAIN0
  6
CONTINUOUS
 62
3
100
AcDbLine
 10
173.3542860532091
 20
374.6435029065030
 30
0.0000000000000000
 11
210.3542860532091
 21
374.6435029065030
 31
0.0000000000000000
  0
LINE
  5
353
100
AcDbEntity
  8
MAIN0
  6
HIDDEN
 62
12
100
AcDbLine
 10
210.3542860532091
 20
374.6435029065030
 30
0.0000000000000000
 11
258.3542860532091
 21
374.6435029065030
 31
0.0000000000000000
  0
LINE
  5
354
100
AcDbEntity
  8
MAIN0
  6
CONTINUOUS
 62
3
100
AcDbLine
 10
178.3542860532091
 20
226.6435029065032
 30
0.0000000000000000
 11
249.3542860532091
 21
226.6435029065032
 31
0.0000000000000000
  0
LINE
  5
355
100
AcDbEntity
  8
MAIN0
  6
CONTINUOUS
 62
3
100
AcDbLine
 10
173.3542860532091
 20
164.6435029065031
 30
0.0000000000000000
 11
173.3542860532091
 21
196.9685029065032
 31
0.0000000000000000
  0
LINE
  5
356
100
AcDbEntity
  8
MAIN0
  6
CONTINUOUS
 62
3
100
AcDbLine
 10
173.3542860532091
 20
208.9685016712091
 30
0.0000000000000000
 11
173.3542860532091
 21
237.8967157644245
 31
0.0000000000000000
  0
LINE
  5
357
100
AcDbEntity
  8
MAIN0
  6
CONTINUOUS
 62
3
100
AcDbLine
 10
192.8542860532093
 20
296.6435029065030
 30
0.0000000000000000
 11
191.8542860532093
 21
295.6435029065030
 31
0.0000000000000000
  0
LINE
  5
358
100
AcDbEntity
  8
MAIN0
  6
CONTINUOUS
 62
3
100
AcDbLine
 10
192.8542860532094
 20
242.6435029065033
 30
0.0000000000000000
 11
191.8542860532094
 21
243.6435029065033
 31
0.0000000000000000
  0
ARC
  5
359
100
AcDbEntity
  8
MAIN0
  6
CONTINUOUS
 62
3
100
AcDbCircle
 10
198.3542860532091
 20
241.6435029065035
 30
0.0000000000000000
 40
1.000000000000000
100
AcDbArc
 50
0.0000000000000000
 51
89.99999999999970
  0
ARC
  5
35A
100
AcDbEntity
  8
MAIN0
  6
CONTINUOUS
 62
3
100
AcDbCircle
 10
198.3542860532093
 20
297.6435029065028
 30
0.0000000000000000
 40
1.000000000000000
100
AcDbArc
 50
269.9999999999999
 51
359.9999999999998
  0
ARC
  5
35B
100
AcDbEntity
  8
MAIN0
  6
CONTINUOUS
 62
3
100
AcDbCircle
 10
200.8542860532093
 20
311.1435029065029
 30
0.0000000000000000
 40
1.500000000000000
100
AcDbArc
 50
89.99999999999970
 51
179.9999999999998
  0
ARC
  5
35C
100
AcDbEntity
  8
MAIN0
  6
CONTINUOUS
 62
3
100
AcDbCircle
 10
200.8542860532091
 20
228.1435029065032
 30
0.0000000000000000
 40
1.500000000000000
100
AcDbArc
 50
179.9999999999998
 51
269.9999999999999
  0
LINE
  5
35D
100
AcDbEntity
  8
MAIN0
  6
CENTER
 62
12
100
AcDbLine
 10
150.9065033993604
 20
202.9685029065031
 30
0.0000000000000000
 11
213.2542861485765
 21
202.9685029065031
 31
0.0000000000000000
  0
LINE
  5
35E
100
AcDbEntity
  8
MAIN0
  6
CENTER
 62
12
100
AcDbLine
 10
219.3542860532090
 20
202.9685029065031
 30
0.0000000000000000
 11
264.5284992868733
 21
202.9685029065031
 31
0.0000000000000000
  0
POINT
  5
35F
100
AcDbEntity
  8
MAIN0
  6
CONTINUOUS
 62
3
100
AcDbPoint
 10
263.3542860532091
 20
375.1935029065030
 30
0.0000000000000000
  0
LINE
  5
360
100
AcDbEntity
  8
MAIN0
  6
CONTINUOUS
 62
3
100
AcDbLine
 10
277.3542890532091
 20
361.6935029065030
 30
0.0000000000000000
 11
288.6542540532092
 21
361.6934959065030
 31
0.0000000000000000
  0
LINE
  5
361
100
AcDbEntity
  8
MAIN0
  6
CONTINUOUS
 62
3
100
AcDbLine
 10
288.6542430532090
 20
343.6934959065030
 30
0.0000000000000000
 11
277.3542820532090
 21
343.6935029065030
 31
0.0000000000000000
  0
LINE
  5
362
100
AcDbEntity
  8
MAIN0
  6
CONTINUOUS
 62
3
100
AcDbLine
 10
288.6542920532090
 20
361.6934959065029
 30
0.0000000000000000
 11
288.6542810532089
 21
343.6934959065030
 31
0.0000000000000000
  0
LINE
  5
363
100
AcDbEntity
  8
MAIN0
  6
CONTINUOUS
 62
3
100
AcDbLine
 10
289.3542240532091
 20
344.9059439065030
 30
0.0000000000000000
 11
288.6542810532091
 21
343.6934959065030
 31
0.0000000000000000
  0
LINE
  5
364
100
AcDbEntity
  8
MAIN0
  6
CONTINUOUS
 62
3
100
AcDbLine
 10
289.3542360532092
 20
360.4811699065029
 30
0.0000000000000000
 11
288.6542920532091
 21
361.6934959065029
 31
0.0000000000000000
  0
LINE
  5
365
100
AcDbEntity
  8
MAIN0
  6
CONTINUOUS
 62
3
100
AcDbLine
 10
289.3542860532090
 20
344.9060513034996
 30
0.0000000000000000
 11
289.3542860532091
 21
360.4810833048605
 31
0.0000000000000000
  0
LINE
  5
366
100
AcDbEntity
  8
MAIN0
  6
CONTINUOUS
 62
3
100
AcDbLine
 10
272.3542860532091
 20
346.6935029065030
 30
0.0000000000000000
 11
272.3542860532092
 21
358.6935029065030
 31
0.0000000000000000
  0
LINE
  5
367
100
AcDbEntity
  8
MAIN0
  6
HIDDEN
 62
12
100
AcDbLine
 10
246.3189192523413
 20
358.6934959065030
 30
0.0000000000000000
 11
266.3542860532091
 21
358.6934959065030
 31
0.0000000000000000
  0
LINE
  5
368
100
AcDbEntity
  8
MAIN0
  6
CONTINUOUS
 62
3
100
AcDbLine
 10
266.3542860532091
 20
358.6934959065030
 30
0.0000000000000000
 11
277.3542860532090
 21
358.6934959065030
 31
0.0000000000000000
  0
LINE
  5
369
100
AcDbEntity
  8
MAIN0
  6
HIDDEN
 62
12
100
AcDbLine
 10
246.3189162158518
 20
357.6935029065030
 30
0.0000000000000000
 11
266.3542860532091
 21
357.6935029065030
 31
0.0000000000000000
  0
LINE
  5
36A
100
AcDbEntity
  8
MAIN0
  6
CONTINUOUS
 62
12
100
AcDbLine
 10
266.3542860532091
 20
357.6935029065030
 30
0.0000000000000000
 11
272.3542860532092
 21
357.6935029065030
 31
0.0000000000000000
  0
LINE
  5
36B
100
AcDbEntity
  8
MAIN0
  6
HIDDEN
 62
12
100
AcDbLine
 10
246.3189162158517
 20
347.6935029065030
 30
0.0000000000000000
 11
266.3542860532091
 21
347.6935029065030
 31
0.0000000000000000
  0
LINE
  5
36C
100
AcDbEntity
  8
MAIN0
  6
CONTINUOUS
 62
12
100
AcDbLine
 10
266.3542860532091
 20
347.6935029065030
 30
0.0000000000000000
 11
272.3542860532091
 21
347.6935029065030
 31
0.0000000000000000
  0
LINE
  5
36D
100
AcDbEntity
  8
MAIN0
  6
HIDDEN
 62
12
100
AcDbLine
 10
246.3189162158517
 20
346.6935029065030
 30
0.0000000000000000
 11
266.3542860532091
 21
346.6935029065030
 31
0.0000000000000000
  0
LINE
  5
36E
100
AcDbEntity
  8
MAIN0
  6
CONTINUOUS
 62
3
100
AcDbLine
 10
266.3542860532091
 20
346.6935029065030
 30
0.0000000000000000
 11
277.3542860532090
 21
346.6935029065030
 31
0.0000000000000000
  0
LINE
  5
36F
100
AcDbEntity
  8
MAIN0
  6
CONTINUOUS
 62
3
100
AcDbLine
 10
277.3542890532091
 20
336.6935029065030
 30
0.0000000000000000
 11
288.6542540532092
 21
336.6934959065030
 31
0.0000000000000000
  0
LINE
  5
370
100
AcDbEntity
  8
MAIN0
  6
CONTINUOUS
 62
3
100
AcDbLine
 10
288.6542430532090
 20
318.6934959065029
 30
0.0000000000000000
 11
277.3542820532089
 21
318.6935029065029
 31
0.0000000000000000
  0
LINE
  5
371
100
AcDbEntity
  8
MAIN0
  6
CONTINUOUS
 62
3
100
AcDbLine
 10
288.6542920532091
 20
336.6934959065030
 30
0.0000000000000000
 11
288.6542810532091
 21
318.6934959065030
 31
0.0000000000000000
  0
LINE
  5
372
100
AcDbEntity
  8
MAIN0
  6
CONTINUOUS
 62
3
100
AcDbLine
 10
289.3542240532091
 20
319.9059439065030
 30
0.0000000000000000
 11
288.6542810532091
 21
318.6934959065030
 31
0.0000000000000000
  0
LINE
  5
373
100
AcDbEntity
  8
MAIN0
  6
CONTINUOUS
 62
3
100
AcDbLine
 10
289.3542360532092
 20
335.4811699065029
 30
0.0000000000000000
 11
288.6542920532092
 21
336.6934959065030
 31
0.0000000000000000
  0
LINE
  5
374
100
AcDbEntity
  8
MAIN0
  6
CONTINUOUS
 62
3
100
AcDbLine
 10
289.3542860532090
 20
319.9060513034996
 30
0.0000000000000000
 11
289.3542860532090
 21
335.4810833048605
 31
0.0000000000000000
  0
LINE
  5
375
100
AcDbEntity
  8
MAIN0
  6
CONTINUOUS
 62
3
100
AcDbLine
 10
272.3542860532091
 20
321.6935029065029
 30
0.0000000000000000
 11
272.3542860532092
 21
333.6935029065030
 31
0.0000000000000000
  0
LINE
  5
376
100
AcDbEntity
  8
MAIN0
  6
HIDDEN
 62
12
100
AcDbLine
 10
246.3189192523413
 20
333.6934959065030
 30
0.0000000000000000
 11
266.3542860532091
 21
333.6934959065030
 31
0.0000000000000000
  0
LINE
  5
377
100
AcDbEntity
  8
MAIN0
  6
CONTINUOUS
 62
3
100
AcDbLine
 10
266.3542860532091
 20
333.6934959065030
 30
0.0000000000000000
 11
277.3542860532090
 21
333.6934959065030
 31
0.0000000000000000
  0
LINE
  5
378
100
AcDbEntity
  8
MAIN0
  6
HIDDEN
 62
12
100
AcDbLine
 10
246.3189162158518
 20
332.6935029065030
 30
0.0000000000000000
 11
266.3542860532092
 21
332.6935029065030
 31
0.0000000000000000
  0
LINE
  5
379
100
AcDbEntity
  8
MAIN0
  6
CONTINUOUS
 62
12
100
AcDbLine
 10
266.3542860532092
 20
332.6935029065030
 30
0.0000000000000000
 11
272.3542860532092
 21
332.6935029065030
 31
0.0000000000000000
  0
LINE
  5
37A
100
AcDbEntity
  8
MAIN0
  6
HIDDEN
 62
12
100
AcDbLine
 10
246.3189162158518
 20
322.6935029065030
 30
0.0000000000000000
 11
266.3542860532092
 21
322.6935029065030
 31
0.0000000000000000
  0
LINE
  5
37B
100
AcDbEntity
  8
MAIN0
  6
CONTINUOUS
 62
12
100
AcDbLine
 10
266.3542860532092
 20
322.6935029065030
 30
0.0000000000000000
 11
272.3542860532092
 21
322.6935029065030
 31
0.0000000000000000
  0
LINE
  5
37C
100
AcDbEntity
  8
MAIN0
  6
HIDDEN
 62
12
100
AcDbLine
 10
246.3189162158518
 20
321.6935029065030
 30
0.0000000000000000
 11
266.3542860532092
 21
321.6935029065030
 31
0.0000000000000000
  0
LINE
  5
37D
100
AcDbEntity
  8
MAIN0
  6
CONTINUOUS
 62
3
100
AcDbLine
 10
266.3542860532092
 20
321.6935029065030
 30
0.0000000000000000
 11
277.3542860532090
 21
321.6935029065030
 31
0.0000000000000000
  0
LINE
  5
37E
100
AcDbEntity
  8
MAIN0
  6
CONTINUOUS
 62
3
100
AcDbLine
 10
243.3542860532091
 20
196.9685029065031
 30
0.0000000000000000
 11
158.3542860532091
 21
196.9685029065032
 31
0.0000000000000000
  0
LINE
  5
37F
100
AcDbEntity
  8
MAIN0
  6
CONTINUOUS
 62
3
100
AcDbLine
 10
158.3542860532091
 20
196.9685029065031
 30
0.0000000000000000
 11
158.3542860532091
 21
208.9685029065031
 31
0.0000000000000000
  0
LINE
  5
380
100
AcDbEntity
  8
MAIN0
  6
CONTINUOUS
 62
3
100
AcDbLine
 10
158.3542860532091
 20
208.9685029065032
 30
0.0000000000000000
 11
243.3542860532091
 21
208.9684959065031
 31
0.0000000000000000
  0
LINE
  5
381
100
AcDbEntity
  8
MAIN0
  6
CONTINUOUS
 62
12
100
AcDbLine
 10
188.3542860532091
 20
197.9685029065032
 30
0.0000000000000000
 11
158.3542860532091
 21
197.9685029065032
 31
0.0000000000000000
  0
LINE
  5
382
100
AcDbEntity
  8
MAIN0
  6
CONTINUOUS
 62
12
100
AcDbLine
 10
188.3542860532091
 20
207.9685029065032
 30
0.0000000000000000
 11
158.3542860532091
 21
207.9685029065032
 31
0.0000000000000000
  0
LINE
  5
383
100
AcDbEntity
  8
MAIN0
  6
CONTINUOUS
 62
3
100
AcDbLine
 10
243.3542890532090
 20
211.9685029065031
 30
0.0000000000000000
 11
254.6542540532091
 21
211.9684959065031
 31
0.0000000000000000
  0
LINE
  5
384
100
AcDbEntity
  8
MAIN0
  6
CONTINUOUS
 62
3
100
AcDbLine
 10
254.6542430532091
 20
193.9684959065031
 30
0.0000000000000000
 11
243.3542820532090
 21
193.9685029065031
 31
0.0000000000000000
  0
LINE
  5
385
100
AcDbEntity
  8
MAIN0
  6
CONTINUOUS
 62
3
100
AcDbLine
 10
254.6542920532091
 20
211.9684959065031
 30
0.0000000000000000
 11
254.6542810532091
 21
193.9684959065031
 31
0.0000000000000000
  0
LINE
  5
386
100
AcDbEntity
  8
MAIN0
  6
CONTINUOUS
 62
3
100
AcDbLine
 10
255.3542240532090
 20
195.1809439065031
 30
0.0000000000000000
 11
254.6542810532090
 21
193.9684959065031
 31
0.0000000000000000
  0
LINE
  5
387
100
AcDbEntity
  8
MAIN0
  6
CONTINUOUS
 62
3
100
AcDbLine
 10
255.3542360532091
 20
210.7561699065032
 30
0.0000000000000000
 11
254.6542920532091
 21
211.9684959065031
 31
0.0000000000000000
  0
LINE
  5
388
100
AcDbEntity
  8
MAIN0
  6
CONTINUOUS
 62
3
100
AcDbLine
 10
255.3542860532091
 20
195.1810513034997
 30
0.0000000000000000
 11
255.3542860532091
 21
210.7560833048607
 31
0.0000000000000000
  0
LINE
  5
389
100
AcDbEntity
  8
MAIN0
  6
CONTINUOUS
 62
3
100
AcDbLine
 10
188.3542860532091
 20
196.9685029065031
 30
0.0000000000000000
 11
188.3542860532091
 21
208.9685029065031
 31
0.0000000000000000
  0
LINE
  5
38A
100
AcDbEntity
  8
MAIN0
  6
CONTINUOUS
 62
12
100
AcDbLine
 10
190.3542860532093
 20
347.6435029065028
 30
0.0000000000000000
 11
178.6542860532093
 21
347.6435029065028
 31
0.0000000000000000
  0
LINE
  5
38B
100
AcDbEntity
  8
MAIN0
  6
CONTINUOUS
 62
12
100
AcDbLine
 10
190.3542860532093
 20
341.6435029065029
 30
0.0000000000000000
 11
178.6542860532093
 21
341.6435029065029
 31
0.0000000000000000
  0
LINE
  5
38C
100
AcDbEntity
  8
MAIN0
  6
CONTINUOUS
 62
3
100
AcDbLine
 10
179.1542860532092
 20
347.1435029065029
 30
0.0000000000000000
 11
178.3542860532093
 21
347.9435029065030
 31
0.0000000000000000
  0
LINE
  5
38D
100
AcDbEntity
  8
MAIN0
  6
CONTINUOUS
 62
3
100
AcDbLine
 10
179.1542860532093
 20
342.1435029065029
 30
0.0000000000000000
 11
178.3542860532093
 21
341.3435029065030
 31
0.0000000000000000
  0
LINE
  5
38E
100
AcDbEntity
  8
MAIN0
  6
CONTINUOUS
 62
3
100
AcDbLine
 10
195.3542860532093
 20
347.1435029065029
 30
0.0000000000000000
 11
179.1542860532092
 21
347.1435029065029
 31
0.0000000000000000
  0
LINE
  5
38F
100
AcDbEntity
  8
MAIN0
  6
CONTINUOUS
 62
3
100
AcDbLine
 10
195.3542860532093
 20
342.1435029065029
 30
0.0000000000000000
 11
179.1542860532092
 21
342.1435029065029
 31
0.0000000000000000
  0
LINE
  5
390
100
AcDbEntity
  8
MAIN0
  6
CONTINUOUS
 62
3
100
AcDbLine
 10
190.3542860532093
 20
347.6435029065028
 30
0.0000000000000000
 11
190.3542860532093
 21
341.6435029065028
 31
0.0000000000000000
  0
LINE
  5
391
100
AcDbEntity
  8
MAIN0
  6
CONTINUOUS
 62
3
100
AcDbLine
 10
195.3542860532093
 20
347.1435029065029
 30
0.0000000000000000
 11
195.3542860532093
 21
342.1435029065029
 31
0.0000000000000000
  0
LINE
  5
392
100
AcDbEntity
  8
MAIN0
  6
CONTINUOUS
 62
3
100
AcDbLine
 10
196.7976617261833
 20
344.6435029065027
 30
0.0000000000000000
 11
195.3542860532093
 21
347.1435029065029
 31
0.0000000000000000
  0
LINE
  5
393
100
AcDbEntity
  8
MAIN0
  6
CONTINUOUS
 62
3
100
AcDbLine
 10
196.7976617261833
 20
344.6435029065025
 30
0.0000000000000000
 11
195.3542860532092
 21
342.1435029065028
 31
0.0000000000000000
  0
LINE
  5
394
100
AcDbEntity
  8
MAIN0
  6
CONTINUOUS
 62
3
100
AcDbLine
 10
179.1542860532092
 20
347.1435029065029
 30
0.0000000000000000
 11
179.1542860532093
 21
342.1435029065029
 31
0.0000000000000000
  0
LINE
  5
395
100
AcDbEntity
  8
MAIN0
  6
CENTER
 62
12
100
AcDbLine
 10
458.6949624817239
 20
151.4533441917234
 30
0.0000000000000000
 11
458.6949624817239
 21
387.3142395634996
 31
0.0000000000000000
  0
LINE
  5
396
100
AcDbEntity
  8
MAIN0
  6
CONTINUOUS
 62
3
100
AcDbLine
 10
441.1949624817243
 20
376.6935029065031
 30
0.0000000000000000
 11
441.1949624817244
 21
288.3330310021837
 31
0.0000000000000000
  0
LINE
  5
397
100
AcDbEntity
  8
MAIN0
  6
CONTINUOUS
 62
3
100
AcDbLine
 10
452.6949624817244
 20
281.6935029065031
 30
0.0000000000000000
 11
464.6949624817244
 21
281.6935029065031
 31
0.0000000000000000
  0
LINE
  5
398
100
AcDbEntity
  8
MAIN0
  6
CONTINUOUS
 62
3
100
AcDbLine
 10
441.1949624817244
 20
376.6935029065030
 30
0.0000000000000000
 11
476.1949624817243
 21
376.6935029065030
 31
0.0000000000000000
  0
LINE
  5
399
100
AcDbEntity
  8
MAIN0
  6
CONTINUOUS
 62
3
100
AcDbLine
 10
476.1949624817243
 20
288.3330310021838
 30
0.0000000000000000
 11
464.6949624817243
 21
281.6935029065031
 31
0.0000000000000000
  0
LINE
  5
39A
100
AcDbEntity
  8
MAIN0
  6
CONTINUOUS
 62
3
100
AcDbLine
 10
441.1949624817243
 20
288.3330310021838
 30
0.0000000000000000
 11
452.6949624817244
 21
281.6935029065031
 31
0.0000000000000000
  0
LINE
  5
39B
100
AcDbEntity
  8
MAIN0
  6
CENTER
 62
12
100
AcDbLine
 10
444.1565062891440
 20
327.6935029065030
 30
0.0000000000000000
 11
472.5411061786827
 21
327.6935029065030
 31
0.0000000000000000
  0
LINE
  5
39C
100
AcDbEntity
  8
MAIN0
  6
CENTER
 62
12
100
AcDbLine
 10
444.5026625369550
 20
352.6935029065031
 30
0.0000000000000000
 11
471.9353415963035
 21
352.6935029065031
 31
0.0000000000000000
  0
LINE
  5
39D
100
AcDbEntity
  8
MAIN0
  6
CONTINUOUS
 62
3
100
AcDbLine
 10
461.5817154817243
 20
347.6935029065031
 30
0.0000000000000000
 11
464.4684644817243
 21
352.6935029065031
 31
0.0000000000000000
  0
LINE
  5
39E
100
AcDbEntity
  8
MAIN0
  6
CONTINUOUS
 62
3
100
AcDbLine
 10
464.4684644817243
 20
352.6935029065031
 30
0.0000000000000000
 11
461.5817114817241
 21
357.6935029065032
 31
0.0000000000000000
  0
LINE
  5
39F
100
AcDbEntity
  8
MAIN0
  6
CONTINUOUS
 62
3
100
AcDbLine
 10
461.5817114817243
 20
357.6935029065031
 30
0.0000000000000000
 11
455.8082094817243
 21
357.6935029065031
 31
0.0000000000000000
  0
LINE
  5
3A0
100
AcDbEntity
  8
MAIN0
  6
CONTINUOUS
 62
3
100
AcDbLine
 10
455.8082094817243
 20
357.6935029065031
 30
0.0000000000000000
 11
452.9214594817242
 21
352.6934959065031
 31
0.0000000000000000
  0
LINE
  5
3A1
100
AcDbEntity
  8
MAIN0
  6
CONTINUOUS
 62
3
100
AcDbLine
 10
452.9214594817242
 20
352.6934959065032
 30
0.0000000000000000
 11
455.8082164817243
 21
347.6934959065031
 31
0.0000000000000000
  0
LINE
  5
3A2
100
AcDbEntity
  8
MAIN0
  6
CONTINUOUS
 62
3
100
AcDbLine
 10
455.8082164817243
 20
347.6934959065031
 30
0.0000000000000000
 11
461.5817154817243
 21
347.6935029065031
 31
0.0000000000000000
  0
LINE
  5
3A3
100
AcDbEntity
  8
MAIN0
  6
CONTINUOUS
 62
3
100
AcDbLine
 10
461.5817154817243
 20
322.6935029065030
 30
0.0000000000000000
 11
464.4684644817243
 21
327.6935029065030
 31
0.0000000000000000
  0
LINE
  5
3A4
100
AcDbEntity
  8
MAIN0
  6
CONTINUOUS
 62
3
100
AcDbLine
 10
464.4684644817243
 20
327.6935029065031
 30
0.0000000000000000
 11
461.5817114817243
 21
332.6935029065031
 31
0.0000000000000000
  0
LINE
  5
3A5
100
AcDbEntity
  8
MAIN0
  6
CONTINUOUS
 62
3
100
AcDbLine
 10
461.5817114817243
 20
332.6935029065030
 30
0.0000000000000000
 11
455.8082094817243
 21
332.6935029065030
 31
0.0000000000000000
  0
LINE
  5
3A6
100
AcDbEntity
  8
MAIN0
  6
CONTINUOUS
 62
3
100
AcDbLine
 10
455.8082094817243
 20
332.6935029065030
 30
0.0000000000000000
 11
452.9214594817242
 21
327.6934959065030
 31
0.0000000000000000
  0
LINE
  5
3A7
100
AcDbEntity
  8
MAIN0
  6
CONTINUOUS
 62
3
100
AcDbLine
 10
452.9214594817242
 20
327.6934959065030
 30
0.0000000000000000
 11
455.8082164817242
 21
322.6934959065031
 31
0.0000000000000000
  0
LINE
  5
3A8
100
AcDbEntity
  8
MAIN0
  6
CONTINUOUS
 62
3
100
AcDbLine
 10
455.8082164817243
 20
322.6934959065030
 30
0.0000000000000000
 11
461.5817154817243
 21
322.6935029065029
 31
0.0000000000000000
  0
CIRCLE
  5
3A9
100
AcDbEntity
  8
MAIN0
  6
CONTINUOUS
 62
3
100
AcDbCircle
 10
458.6949624817244
 20
327.6935029065030
 30
0.0000000000000000
 40
9.499999999999776
  0
CIRCLE
  5
3AA
100
AcDbEntity
  8
MAIN0
  6
CONTINUOUS
 62
3
100
AcDbCircle
 10
458.6949624817243
 20
352.6935029065031
 30
0.0000000000000000
 40
9.499999999999872
  0
CIRCLE
  5
3AB
100
AcDbEntity
  8
MAIN0
  6
CONTINUOUS
 62
3
100
AcDbCircle
 10
458.6949624817243
 20
352.6935029065031
 30
0.0000000000000000
 40
9.000000000000000
  0
CIRCLE
  5
3AC
100
AcDbEntity
  8
MAIN0
  6
CONTINUOUS
 62
3
100
AcDbCircle
 10
458.6949624817243
 20
327.6935029065030
 30
0.0000000000000000
 40
9.000000000000000
  0
LINE
  5
3AD
100
AcDbEntity
  8
MAIN0
  6
CONTINUOUS
 62
3
100
AcDbLine
 10
476.1949624817244
 20
288.3330310021837
 30
0.0000000000000000
 11
476.1949624817243
 21
376.6935029065030
 31
0.0000000000000000
  0
ARC
  5
3AE
100
AcDbEntity
  8
MAIN0
  6
CENTER
 62
12
100
AcDbCircle
 10
458.6949624817246
 20
269.6435029065031
 30
0.0000000000000000
 40
75.00000000000000
100
AcDbArc
 50
264.6387016397986
 51
275.4059735269088
  0
CIRCLE
  5
3AF
100
AcDbEntity
  8
MAIN0
  6
HIDDEN
 62
12
100
AcDbCircle
 10
458.6949624817240
 20
194.6435029065031
 30
0.0000000000000000
 40
3.000000000000000
  0
CIRCLE
  5
3B0
100
AcDbEntity
  8
MAIN0
  6
HIDDEN
 62
12
100
AcDbCircle
 10
458.6949624817240
 20
194.6435029065031
 30
0.0000000000000000
 40
2.500000000000000
  0
ARC
  5
3B1
100
AcDbEntity
  8
MAIN0
  6
CENTER
 62
12
100
AcDbCircle
 10
458.6949624817246
 20
269.6435029065031
 30
0.0000000000000000
 40
75.00000000000000
100
AcDbArc
 50
24.63870163979861
 51
35.40597352690882
  0
CIRCLE
  5
3B2
100
AcDbEntity
  8
MAIN0
  6
HIDDEN
 62
12
100
AcDbCircle
 10
523.6468677655578
 20
307.1435029065025
 30
0.0000000000000000
 40
3.000000000000000
  0
CIRCLE
  5
3B3
100
AcDbEntity
  8
MAIN0
  6
HIDDEN
 62
12
100
AcDbCircle
 10
523.6468677655578
 20
307.1435029065025
 30
0.0000000000000000
 40
2.500000000000000
  0
ARC
  5
3B4
100
AcDbEntity
  8
MAIN0
  6
CENTER
 62
12
100
AcDbCircle
 10
458.6949624817246
 20
269.6435029065031
 30
0.0000000000000000
 40
75.00000000000000
100
AcDbArc
 50
144.6387016397985
 51
158.1557396275294
  0
CIRCLE
  5
3B5
100
AcDbEntity
  8
MAIN0
  6
HIDDEN
 62
12
100
AcDbCircle
 10
393.7430571978920
 20
307.1435029065036
 30
0.0000000000000000
 40
3.000000000000000
  0
CIRCLE
  5
3B6
100
AcDbEntity
  8
MAIN0
  6
HIDDEN
 62
12
100
AcDbCircle
 10
393.7430571978920
 20
307.1435029065036
 30
0.0000000000000000
 40
2.500000000000000
  0
LINE
  5
3B7
100
AcDbEntity
  8
MAIN0
  6
CONTINUOUS
 62
3
100
AcDbLine
 10
460.6949624817240
 20
221.7982039065040
 30
0.0000000000000000
 11
458.6949624817240
 21
222.9529049065040
 31
0.0000000000000000
  0
LINE
  5
3B8
100
AcDbEntity
  8
MAIN0
  6
CONTINUOUS
 62
3
100
AcDbLine
 10
458.6949624817241
 20
222.9529049065041
 30
0.0000000000000000
 11
456.6949624817241
 21
221.7982039065041
 31
0.0000000000000000
  0
LINE
  5
3B9
100
AcDbEntity
  8
MAIN0
  6
CONTINUOUS
 62
3
100
AcDbLine
 10
456.6949624817240
 20
221.7982039065041
 30
0.0000000000000000
 11
456.6949624817240
 21
219.4888019065041
 31
0.0000000000000000
  0
LINE
  5
3BA
100
AcDbEntity
  8
MAIN0
  6
CONTINUOUS
 62
3
100
AcDbLine
 10
456.6949624817240
 20
219.4888019065040
 30
0.0000000000000000
 11
458.6949624817240
 21
218.3341019065040
 31
0.0000000000000000
  0
LINE
  5
3BB
100
AcDbEntity
  8
MAIN0
  6
CONTINUOUS
 62
3
100
AcDbLine
 10
458.6949624817240
 20
218.3341019065041
 30
0.0000000000000000
 11
460.6949624817240
 21
219.4888049065041
 31
0.0000000000000000
  0
LINE
  5
3BC
100
AcDbEntity
  8
MAIN0
  6
CONTINUOUS
 62
3
100
AcDbLine
 10
460.6949624817240
 20
219.4888049065041
 30
0.0000000000000000
 11
460.6949624817240
 21
221.7982039065041
 31
0.0000000000000000
  0
CIRCLE
  5
3BD
100
AcDbEntity
  8
MAIN0
  6
CONTINUOUS
 62
3
100
AcDbCircle
 10
458.6949624817240
 20
220.6435029065041
 30
0.0000000000000000
 40
4.249999999999996
  0
LINE
  5
3BE
100
AcDbEntity
  8
MAIN0
  6
CONTINUOUS
 62
3
100
AcDbLine
 10
499.1302068673862
 20
295.2982032140708
 30
0.0000000000000000
 11
499.1302064676110
 21
292.9888019065021
 31
0.0000000000000000
  0
LINE
  5
3BF
100
AcDbEntity
  8
MAIN0
  6
CONTINUOUS
 62
3
100
AcDbLine
 10
499.1302064676110
 20
292.9888019065020
 30
0.0000000000000000
 11
501.1302068673863
 21
291.8341015989332
 31
0.0000000000000000
  0
LINE
  5
3C0
100
AcDbEntity
  8
MAIN0
  6
CONTINUOUS
 62
3
100
AcDbLine
 10
501.1302068673863
 20
291.8341015989332
 30
0.0000000000000000
 11
503.1302076669368
 21
292.9888025989332
 31
0.0000000000000000
  0
LINE
  5
3C1
100
AcDbEntity
  8
MAIN0
  6
CONTINUOUS
 62
3
100
AcDbLine
 10
503.1302076669368
 20
292.9888025989330
 30
0.0000000000000000
 11
503.1302072006868
 21
295.2982034065020
 31
0.0000000000000000
  0
LINE
  5
3C2
100
AcDbEntity
  8
MAIN0
  6
CONTINUOUS
 62
3
100
AcDbLine
 10
503.1302072006867
 20
295.2982034065021
 30
0.0000000000000000
 11
501.1302050688606
 21
296.4529027140710
 31
0.0000000000000000
  0
LINE
  5
3C3
100
AcDbEntity
  8
MAIN0
  6
CONTINUOUS
 62
3
100
AcDbLine
 10
501.1302050688606
 20
296.4529027140709
 30
0.0000000000000000
 11
499.1302068673862
 21
295.2982032140710
 31
0.0000000000000000
  0
CIRCLE
  5
3C4
100
AcDbEntity
  8
MAIN0
  6
CONTINUOUS
 62
3
100
AcDbCircle
 10
501.1302072671616
 20
294.1435029065019
 30
0.0000000000000000
 40
4.249999999999996
  0
LINE
  5
3C5
100
AcDbEntity
  8
MAIN0
  6
CONTINUOUS
 62
3
100
AcDbLine
 10
416.2597180960635
 20
291.8341015989343
 30
0.0000000000000000
 11
418.2597184958388
 21
292.9888019065032
 31
0.0000000000000000
  0
LINE
  5
3C6
100
AcDbEntity
  8
MAIN0
  6
CONTINUOUS
 62
3
100
AcDbLine
 10
418.2597184958389
 20
292.9888019065029
 30
0.0000000000000000
 11
418.2597180960636
 21
295.2982032140719
 31
0.0000000000000000
  0
LINE
  5
3C7
100
AcDbEntity
  8
MAIN0
  6
CONTINUOUS
 62
3
100
AcDbLine
 10
418.2597180960635
 20
295.2982032140720
 30
0.0000000000000000
 11
416.2597172965129
 21
296.4529042140720
 31
0.0000000000000000
  0
LINE
  5
3C8
100
AcDbEntity
  8
MAIN0
  6
CONTINUOUS
 62
3
100
AcDbLine
 10
416.2597172965129
 20
296.4529042140720
 30
0.0000000000000000
 11
414.2597177627631
 21
295.2982034065031
 31
0.0000000000000000
  0
LINE
  5
3C9
100
AcDbEntity
  8
MAIN0
  6
CONTINUOUS
 62
3
100
AcDbLine
 10
414.2597177627631
 20
295.2982034065030
 30
0.0000000000000000
 11
414.2597198945892
 21
292.9888010989342
 31
0.0000000000000000
  0
LINE
  5
3CA
100
AcDbEntity
  8
MAIN0
  6
CONTINUOUS
 62
3
100
AcDbLine
 10
414.2597198945891
 20
292.9888010989342
 30
0.0000000000000000
 11
416.2597180960636
 21
291.8341015989342
 31
0.0000000000000000
  0
CIRCLE
  5
3CB
100
AcDbEntity
  8
MAIN0
  6
CONTINUOUS
 62
3
100
AcDbCircle
 10
416.2597176962883
 20
294.1435029065030
 30
0.0000000000000000
 40
4.249999999999996
  0
CIRCLE
  5
3CC
100
AcDbEntity
  8
MAIN0
  6
CONTINUOUS
 62
12
100
AcDbCircle
 10
408.4221877920382
 20
240.6185029065030
 30
0.0000000000000000
 40
6.000000000000000
  0
CIRCLE
  5
3CD
100
AcDbEntity
  8
MAIN0
  6
CONTINUOUS
 62
3
100
AcDbCircle
 10
408.4221877920382
 20
240.6185029065030
 30
0.0000000000000000
 40
5.099999999999998
  0
CIRCLE
  5
3CE
100
AcDbEntity
  8
MAIN0
  6
CONTINUOUS
 62
12
100
AcDbCircle
 10
386.7715526974271
 20
228.1185029065030
 30
0.0000000000000000
 40
6.000000000000000
  0
CIRCLE
  5
3CF
100
AcDbEntity
  8
MAIN0
  6
CONTINUOUS
 62
3
100
AcDbCircle
 10
386.7715526974271
 20
228.1185029065030
 30
0.0000000000000000
 40
5.099999999999998
  0
LINE
  5
3D0
100
AcDbEntity
  8
MAIN0
  6
CONTINUOUS
 62
3
100
AcDbLine
 10
252.8542860532091
 20
218.1435029065030
 30
0.0000000000000000
 11
240.8542860532093
 21
218.1435029065030
 31
0.0000000000000000
  0
LINE
  5
3D1
100
AcDbEntity
  8
MAIN0
  6
CONTINUOUS
 62
3
100
AcDbLine
 10
240.8542860532093
 20
218.1435029065030
 30
0.0000000000000000
 11
240.8542860532093
 21
223.1435029065030
 31
0.0000000000000000
  0
LINE
  5
3D2
100
AcDbEntity
  8
MAIN0
  6
CONTINUOUS
 62
3
100
AcDbLine
 10
240.8542860532093
 20
223.1435029065030
 30
0.0000000000000000
 11
252.8542860532091
 21
223.1435029065030
 31
0.0000000000000000
  0
LINE
  5
3D3
100
AcDbEntity
  8
MAIN0
  6
CONTINUOUS
 62
12
100
AcDbLine
 10
252.8542860532091
 20
218.6435029065030
 30
0.0000000000000000
 11
240.8542860532093
 21
218.6435029065030
 31
0.0000000000000000
  0
LINE
  5
3D4
100
AcDbEntity
  8
MAIN0
  6
CONTINUOUS
 62
12
100
AcDbLine
 10
252.8542860532091
 20
222.6435029065030
 30
0.0000000000000000
 11
240.8542860532092
 21
222.6435029065030
 31
0.0000000000000000
  0
LINE
  5
3D5
100
AcDbEntity
  8
MAIN0
  6
CONTINUOUS
 62
3
100
AcDbLine
 10
252.8542880532091
 20
224.8935019065031
 30
0.0000000000000000
 11
257.5544370532091
 21
224.8934989065031
 31
0.0000000000000000
  0
LINE
  5
3D6
100
AcDbEntity
  8
MAIN0
  6
CONTINUOUS
 62
3
100
AcDbLine
 10
257.5542790532091
 20
216.3935009065031
 30
0.0000000000000000
 11
252.8542840532091
 21
216.3935029065031
 31
0.0000000000000000
  0
LINE
  5
3D7
100
AcDbEntity
  8
MAIN0
  6
CONTINUOUS
 62
3
100
AcDbLine
 10
257.5542850532091
 20
224.8934989065030
 30
0.0000000000000000
 11
257.5542790532091
 21
216.3935009065031
 31
0.0000000000000000
  0
LINE
  5
3D8
100
AcDbEntity
  8
MAIN0
  6
CONTINUOUS
 62
3
100
AcDbLine
 10
257.8542570532092
 20
224.3739999065031
 30
0.0000000000000000
 11
257.5542850532091
 21
224.8934989065031
 31
0.0000000000000000
  0
LINE
  5
3D9
100
AcDbEntity
  8
MAIN0
  6
CONTINUOUS
 62
3
100
AcDbLine
 10
257.8542530532089
 20
216.9130329065032
 30
0.0000000000000000
 11
257.5542790532089
 21
216.3935009065031
 31
0.0000000000000000
  0
LINE
  5
3DA
100
AcDbEntity
  8
MAIN0
  6
CONTINUOUS
 62
3
100
AcDbLine
 10
257.8542860532091
 20
216.9130900599764
 30
0.0000000000000000
 11
257.8542860532091
 21
224.3739496835790
 31
0.0000000000000000
  0
LINE
  5
3DB
100
AcDbEntity
  8
MAIN0
  6
CONTINUOUS
 62
3
100
AcDbLine
 10
193.8542860532091
 20
242.6435029065035
 30
0.0000000000000000
 11
193.8542860532091
 21
250.6435029065033
 31
0.0000000000000000
  0
LINE
  5
3DC
100
AcDbEntity
  8
MAIN0
  6
CONTINUOUS
 62
3
100
AcDbLine
 10
198.8542860532091
 20
242.5095283102880
 30
0.0000000000000000
 11
198.8542860532091
 21
250.6435029065033
 31
0.0000000000000000
  0
LINE
  5
3DD
100
AcDbEntity
  8
MAIN0
  6
CONTINUOUS
 62
12
100
AcDbLine
 10
194.2872860532091
 20
242.6435029065035
 30
0.0000000000000000
 11
194.2872860532091
 21
250.6435029065033
 31
0.0000000000000000
  0
LINE
  5
3DE
100
AcDbEntity
  8
MAIN0
  6
CONTINUOUS
 62
12
100
AcDbLine
 10
198.4212860532091
 20
242.6435029065035
 30
0.0000000000000000
 11
198.4212860532091
 21
250.6435029065033
 31
0.0000000000000000
  0
LINE
  5
3DF
100
AcDbEntity
  8
MAIN0
  6
CONTINUOUS
 62
3
100
AcDbLine
 10
195.0542860532093
 20
250.6435029065033
 30
0.0000000000000000
 11
197.6542860532091
 21
250.6435029065033
 31
0.0000000000000000
  0
LINE
  5
3E0
100
AcDbEntity
  8
MAIN0
  6
CONTINUOUS
 62
3
100
AcDbLine
 10
194.7203114569935
 20
244.6435029065031
 30
0.0000000000000000
 11
197.9882606494248
 21
244.6435029065031
 31
0.0000000000000000
  0
LINE
  5
3E1
100
AcDbEntity
  8
MAIN0
  6
CONTINUOUS
 62
3
100
AcDbLine
 10
193.8542860532091
 20
249.4435029065032
 30
0.0000000000000000
 11
198.8542860532091
 21
249.4435029065032
 31
0.0000000000000000
  0
LINE
  5
3E2
100
AcDbEntity
  8
MAIN0
  6
CONTINUOUS
 62
3
100
AcDbLine
 10
193.8542860532091
 20
245.1435029065031
 30
0.0000000000000000
 11
198.8542860532091
 21
245.1435029065031
 31
0.0000000000000000
  0
LINE
  5
3E3
100
AcDbEntity
  8
MAIN0
  6
CONTINUOUS
 62
3
100
AcDbLine
 10
193.8542860532093
 20
249.4435029065028
 30
0.0000000000000000
 11
195.0542860532094
 21
250.6435029065030
 31
0.0000000000000000
  0
LINE
  5
3E4
100
AcDbEntity
  8
MAIN0
  6
CONTINUOUS
 62
3
100
AcDbLine
 10
197.6542860532092
 20
250.6435029065030
 30
0.0000000000000000
 11
198.8542860532093
 21
249.4435029065029
 31
0.0000000000000000
  0
LINE
  5
3E5
100
AcDbEntity
  8
MAIN0
  6
CONTINUOUS
 62
3
100
AcDbLine
 10
193.8542860532091
 20
245.1435029065030
 30
0.0000000000000000
 11
194.7203114569935
 21
244.6435029065030
 31
0.0000000000000000
  0
LINE
  5
3E6
100
AcDbEntity
  8
MAIN0
  6
CONTINUOUS
 62
3
100
AcDbLine
 10
198.8542860532091
 20
245.1435029065030
 30
0.0000000000000000
 11
197.9882606494248
 21
244.6435029065030
 31
0.0000000000000000
  0
LINE
  5
3E7
100
AcDbEntity
  8
MAIN0
  6
CONTINUOUS
 62
3
100
AcDbLine
 10
192.3542860532093
 20
335.6435029065029
 30
0.0000000000000000
 11
206.7557362569440
 21
335.6435029065029
 31
0.0000000000000000
  0
LINE
  5
3E8
100
AcDbEntity
  8
MAIN0
  6
CONTINUOUS
 62
3
100
AcDbLine
 10
192.3542860532093
 20
323.6435099065029
 30
0.0000000000000000
 11
204.8085235518419
 21
323.6435099065029
 31
0.0000000000000000
  0
LINE
  5
3E9
100
AcDbEntity
  8
MAIN0
  6
CONTINUOUS
 62
12
100
AcDbLine
 10
192.3542860532093
 20
334.6435029065029
 30
0.0000000000000000
 11
206.2276682613297
 21
334.6435029065029
 31
0.0000000000000000
  0
LINE
  5
3EA
100
AcDbEntity
  8
MAIN0
  6
CONTINUOUS
 62
12
100
AcDbLine
 10
192.3542860532093
 20
324.6435029065029
 30
0.0000000000000000
 11
204.7755255298436
 21
324.6435029065029
 31
0.0000000000000000
  0
LINE
  5
3EB
100
AcDbEntity
  8
MAIN0
  6
CONTINUOUS
 62
3
100
AcDbLine
 10
192.3542830532093
 20
320.6435029065029
 30
0.0000000000000000
 11
181.0543180532092
 21
320.6435099065030
 31
0.0000000000000000
  0
LINE
  5
3EC
100
AcDbEntity
  8
MAIN0
  6
CONTINUOUS
 62
3
100
AcDbLine
 10
181.0543290532093
 20
338.6435099065029
 30
0.0000000000000000
 11
192.3542900532093
 21
338.6435029065029
 31
0.0000000000000000
  0
LINE
  5
3ED
100
AcDbEntity
  8
MAIN0
  6
CONTINUOUS
 62
3
100
AcDbLine
 10
181.0542800532093
 20
320.6435099065029
 30
0.0000000000000000
 11
181.0542910532092
 21
338.6435099065030
 31
0.0000000000000000
  0
LINE
  5
3EE
100
AcDbEntity
  8
MAIN0
  6
CONTINUOUS
 62
3
100
AcDbLine
 10
180.3543480532092
 20
337.4310619065029
 30
0.0000000000000000
 11
181.0542910532091
 21
338.6435099065028
 31
0.0000000000000000
  0
LINE
  5
3EF
100
AcDbEntity
  8
MAIN0
  6
CONTINUOUS
 62
3
100
AcDbLine
 10
180.3543360532092
 20
321.8558359065030
 30
0.0000000000000000
 11
181.0542800532093
 21
320.6435099065030
 31
0.0000000000000000
  0
LINE
  5
3F0
100
AcDbEntity
  8
MAIN0
  6
CONTINUOUS
 62
3
100
AcDbLine
 10
180.3542860532093
 20
337.4309545095063
 30
0.0000000000000000
 11
180.3542860532093
 21
321.8559225081453
 31
0.0000000000000000
  0
LINE
  5
3F1
100
AcDbEntity
  8
MAIN0
  6
CONTINUOUS
 62
3
100
AcDbLine
 10
240.3542860532089
 20
79.80846539644170
 30
0.0000000000000000
 11
240.3542860532089
 21
65.30552167128934
 31
0.0000000000000000
  0
LINE
  5
3F2
100
AcDbEntity
  8
MAIN0
  6
CONTINUOUS
 62
3
100
AcDbLine
 10
249.1542860532089
 20
83.30699353386552
 30
0.0000000000000000
 11
243.8528141906327
 21
83.30699353386552
 31
0.0000000000000000
  0
LINE
  5
3F3
100
AcDbEntity
  8
MAIN0
  6
CONTINUOUS
 62
3
100
AcDbLine
 10
249.1542860532089
 20
61.80699353386552
 30
0.0000000000000000
 11
243.8528141906320
 21
61.80699353386552
 31
0.0000000000000000
  0
LINE
  5
3F4
100
AcDbEntity
  8
MAIN0
  6
CONTINUOUS
 62
3
100
AcDbLine
 10
250.3542860532089
 20
82.05699353386586
 30
0.0000000000000000
 11
250.3542860532089
 21
80.45699353605210
 31
0.0000000000000000
  0
LINE
  5
3F5
100
AcDbEntity
  8
MAIN0
  6
CONTINUOUS
 62
3
100
AcDbLine
 10
250.3542860532089
 20
64.65699353167901
 30
0.0000000000000000
 11
250.3542860532089
 21
63.05699353386535
 31
0.0000000000000000
  0
ARC
  5
3F6
100
AcDbEntity
  8
MAIN0
  6
CONTINUOUS
 62
3
100
AcDbCircle
 10
249.1542860532089
 20
82.10699353386553
 30
0.0000000000000000
 40
1.200000000000000
100
AcDbArc
 50
0.0000000000000000
 51
90.00000000000000
  0
ARC
  5
3F7
100
AcDbEntity
  8
MAIN0
  6
CONTINUOUS
 62
3
100
AcDbCircle
 10
249.1542860532089
 20
63.00699353386551
 30
0.0000000000000000
 40
1.200000000000000
100
AcDbArc
 50
270.0000000000000
 51
360.0000000000000
  0
LINE
  5
3F8
100
AcDbEntity
  8
MAIN0
  6
HIDDEN
 62
4
100
AcDbLine
 10
493.9680931596970
 20
208.5486484302390
 30
0.0000000000000000
 11
498.8755704478086
 21
208.5486484302389
 31
0.0000000000000000
  0
LINE
  5
3F9
100
AcDbEntity
  8
MAIN0
  6
HIDDEN
 62
4
100
AcDbLine
 10
493.9680931596970
 20
208.5486484302391
 30
0.0000000000000000
 11
491.5143545156409
 21
204.2986484302390
 31
0.0000000000000000
  0
LINE
  5
3FA
100
AcDbEntity
  8
MAIN0
  6
HIDDEN
 62
4
100
AcDbLine
 10
491.5143545156410
 20
204.2986484302389
 30
0.0000000000000000
 11
498.8755704478087
 21
208.5486484302389
 31
0.0000000000000000
  0
LINE
  5
3FB
100
AcDbEntity
  8
MAIN0
  6
HIDDEN
 62
4
100
AcDbLine
 10
514.0005704478089
 20
182.3513799657594
 30
0.0000000000000000
 11
498.8755704478087
 21
208.5486484302390
 31
0.0000000000000000
  0
LINE
  5
3FC
100
AcDbEntity
  8
MAIN0
  6
HIDDEN
 62
4
100
AcDbLine
 10
506.6393545156408
 20
178.1013799657600
 30
0.0000000000000000
 11
491.5143545156411
 21
204.2986484302389
 31
0.0000000000000000
  0
LINE
  5
3FD
100
AcDbEntity
  8
MAIN0
  6
HIDDEN
 62
4
100
AcDbLine
 10
495.3648354628027
 20
196.1294197961789
 30
0.0000000000000000
 11
504.0250895006471
 21
201.1294197961789
 31
0.0000000000000000
  0
LINE
  5
3FE
100
AcDbEntity
  8
MAIN0
  6
HIDDEN
 62
12
100
AcDbLine
 10
506.3648354628024
 20
177.0768609129218
 30
0.0000000000000000
 11
495.3648354628026
 21
196.1294197961790
 31
0.0000000000000000
  0
LINE
  5
3FF
100
AcDbEntity
  8
MAIN0
  6
HIDDEN
 62
12
100
AcDbLine
 10
515.0250895006473
 20
182.0768609129210
 30
0.0000000000000000
 11
504.0250895006471
 21
201.1294197961789
 31
0.0000000000000000
  0
LINE
  5
400
100
AcDbEntity
  8
MAIN0
  6
HIDDEN
 62
4
100
AcDbLine
 10
514.0005704478089
 20
182.3513799657594
 30
0.0000000000000000
 11
516.2060507760123
 21
181.7604232928948
 31
0.0000000000000000
  0
LINE
  5
401
100
AcDbEntity
  8
MAIN0
  6
HIDDEN
 62
4
100
AcDbLine
 10
506.0483978427756
 20
175.8958996375565
 30
0.0000000000000000
 11
506.6393545156411
 21
178.1013799657625
 31
0.0000000000000000
  0
LINE
  5
402
100
AcDbEntity
  8
MAIN0
  6
CENTER
 62
12
100
AcDbLine
 10
515.0185418212259
 20
172.0882018263501
 30
0.0000000000000000
 11
492.3826320282479
 21
211.2947476633337
 31
0.0000000000000000
  0
LINE
  5
403
100
AcDbEntity
  8
MAIN0
  6
HIDDEN
 62
3
100
AcDbLine
 10
514.0005704478087
 20
182.3513799657596
 30
0.0000000000000000
 11
506.6393545156411
 21
178.1013799657626
 31
0.0000000000000000
  0
POINT
  5
404
100
AcDbEntity
  8
MAIN0
  6
CONTINUOUS
 62
3
100
AcDbPoint
 10
511.1949624817246
 20
178.7108355091370
 30
0.0000000000000000
  0
LINE
  5
405
100
AcDbEntity
  8
MAIN0
  6
HIDDEN
 62
4
100
AcDbLine
 10
226.3542860532093
 20
199.0972415505590
 30
0.0000000000000000
 11
222.1042860532090
 21
196.6435029065031
 31
0.0000000000000000
  0
LINE
  5
406
100
AcDbEntity
  8
MAIN0
  6
HIDDEN
 62
4
100
AcDbLine
 10
226.3542860532093
 20
199.0972415505590
 30
0.0000000000000000
 11
230.6042860532091
 21
196.6435029065031
 31
0.0000000000000000
  0
LINE
  5
407
100
AcDbEntity
  8
MAIN0
  6
HIDDEN
 62
4
100
AcDbLine
 10
222.1042860532093
 20
196.6435029065032
 30
0.0000000000000000
 11
230.6042860532091
 21
196.6435029065032
 31
0.0000000000000000
  0
LINE
  5
408
100
AcDbEntity
  8
MAIN0
  6
CENTER
 62
12
100
AcDbLine
 10
226.3542860532090
 20
159.9319922611107
 30
0.0000000000000000
 11
226.3542860532090
 21
203.2012075831373
 31
0.0000000000000000
  0
LINE
  5
409
100
AcDbEntity
  8
MAIN0
  6
HIDDEN
 62
4
100
AcDbLine
 10
222.1042860532092
 20
196.6435029065032
 30
0.0000000000000000
 11
222.1042860532092
 21
165.8435029065030
 31
0.0000000000000000
  0
LINE
  5
40A
100
AcDbEntity
  8
MAIN0
  6
HIDDEN
 62
4
100
AcDbLine
 10
230.6042860532092
 20
196.6435029065030
 30
0.0000000000000000
 11
230.6042860532092
 21
165.8435029065031
 31
0.0000000000000000
  0
LINE
  5
40B
100
AcDbEntity
  8
MAIN0
  6
HIDDEN
 62
4
100
AcDbLine
 10
221.3542860532093
 20
187.6435029065032
 30
0.0000000000000000
 11
231.3542860532092
 21
187.6435029065032
 31
0.0000000000000000
  0
LINE
  5
40C
100
AcDbEntity
  8
MAIN0
  6
HIDDEN
 62
12
100
AcDbLine
 10
231.3542860532093
 20
187.6435029065032
 30
0.0000000000000000
 11
231.3542860532092
 21
165.0935029065031
 31
0.0000000000000000
  0
LINE
  5
40D
100
AcDbEntity
  8
MAIN0
  6
HIDDEN
 62
12
100
AcDbLine
 10
221.3542860532093
 20
187.6435029065032
 30
0.0000000000000000
 11
221.3542860532092
 21
165.0935029065031
 31
0.0000000000000000
  0
LINE
  5
40E
100
AcDbEntity
  8
MAIN0
  6
HIDDEN
 62
4
100
AcDbLine
 10
222.1042860532091
 20
165.8435029065029
 30
0.0000000000000000
 11
220.9042860532090
 21
164.6435029065030
 31
0.0000000000000000
  0
LINE
  5
40F
100
AcDbEntity
  8
MAIN0
  6
HIDDEN
 62
4
100
AcDbLine
 10
222.1042860532092
 20
165.8435029065030
 30
0.0000000000000000
 11
230.6042860532092
 21
165.8435029065031
 31
0.0000000000000000
  0
LINE
  5
410
100
AcDbEntity
  8
MAIN0
  6
HIDDEN
 62
4
100
AcDbLine
 10
230.6042860532091
 20
165.8435029065031
 30
0.0000000000000000
 11
231.8042860532089
 21
164.6435029065031
 31
0.0000000000000000
  0
LINE
  5
411
100
AcDbEntity
  8
MAIN0
  6
HIDDEN
 62
4
100
AcDbLine
 10
423.4218318037508
 20
330.7383573827672
 30
0.0000000000000000
 11
418.5143545156392
 21
330.7383573827673
 31
0.0000000000000000
  0
LINE
  5
412
100
AcDbEntity
  8
MAIN0
  6
HIDDEN
 62
4
100
AcDbLine
 10
423.4218318037509
 20
330.7383573827671
 30
0.0000000000000000
 11
425.8755704478070
 21
334.9883573827672
 31
0.0000000000000000
  0
LINE
  5
413
100
AcDbEntity
  8
MAIN0
  6
HIDDEN
 62
4
100
AcDbLine
 10
425.8755704478069
 20
334.9883573827673
 30
0.0000000000000000
 11
418.5143545156392
 21
330.7383573827673
 31
0.0000000000000000
  0
LINE
  5
414
100
AcDbEntity
  8
MAIN0
  6
HIDDEN
 62
4
100
AcDbLine
 10
403.3893545156392
 20
356.9356258472469
 30
0.0000000000000000
 11
418.5143545156392
 21
330.7383573827673
 31
0.0000000000000000
  0
LINE
  5
415
100
AcDbEntity
  8
MAIN0
  6
HIDDEN
 62
4
100
AcDbLine
 10
410.7505704478073
 20
361.1856258472462
 30
0.0000000000000000
 11
425.8755704478069
 21
334.9883573827673
 31
0.0000000000000000
  0
LINE
  5
416
100
AcDbEntity
  8
MAIN0
  6
HIDDEN
 62
4
100
AcDbLine
 10
422.0250895006453
 20
343.1575860168273
 30
0.0000000000000000
 11
413.3648354628009
 21
338.1575860168273
 31
0.0000000000000000
  0
LINE
  5
417
100
AcDbEntity
  8
MAIN0
  6
HIDDEN
 62
12
100
AcDbLine
 10
411.0250895006457
 20
362.2101449000845
 30
0.0000000000000000
 11
422.0250895006453
 21
343.1575860168272
 31
0.0000000000000000
  0
LINE
  5
418
100
AcDbEntity
  8
MAIN0
  6
HIDDEN
 62
12
100
AcDbLine
 10
402.3648354628009
 20
357.2101449000852
 30
0.0000000000000000
 11
413.3648354628009
 21
338.1575860168273
 31
0.0000000000000000
  0
LINE
  5
419
100
AcDbEntity
  8
MAIN0
  6
HIDDEN
 62
4
100
AcDbLine
 10
403.3893545156391
 20
356.9356258472468
 30
0.0000000000000000
 11
401.1838741874357
 21
357.5265825201115
 31
0.0000000000000000
  0
LINE
  5
41A
100
AcDbEntity
  8
MAIN0
  6
HIDDEN
 62
4
100
AcDbLine
 10
411.3415271206723
 20
363.3911061754497
 30
0.0000000000000000
 11
410.7505704478068
 21
361.1856258472437
 31
0.0000000000000000
  0
LINE
  5
41B
100
AcDbEntity
  8
MAIN0
  6
CENTER
 62
12
100
AcDbLine
 10
402.3713831422222
 20
367.1988039866561
 30
0.0000000000000000
 11
425.0072929351999
 21
327.9922581496725
 31
0.0000000000000000
  0
LINE
  5
41C
100
AcDbEntity
  8
MAIN0
  6
HIDDEN
 62
3
100
AcDbLine
 10
403.3893545156392
 20
356.9356258472467
 30
0.0000000000000000
 11
410.7505704478069
 21
361.1856258472436
 31
0.0000000000000000
  0
POINT
  5
41D
100
AcDbEntity
  8
MAIN0
  6
CONTINUOUS
 62
3
100
AcDbPoint
 10
406.1949624817235
 20
360.5761703038692
 30
0.0000000000000000
  0
MTEXT
  5
41E
100
AcDbEntity
  8
MAIN0
  6
CONTINUOUS
 62
3
100
AcDbMText
 10
27.85428605320902
 20
61.74350281113561
 30
0.0000000000000000
 40
3.099999904632568
 41
0.0000000000000000
 71
     1
 72
     1
  3
{\H0.93x;{ABOVE SPECS：WITH STD SOFT BLANK TOP JAWS\P             AT MAX PERMISSIBLE INPUT FORCE.\P             MAX. STATIC GRIPPING FORCE AND\P             MAX. PERMISSIBLE SPEED ARE\P             ACTUAL VALUE AT 1/2 HEIGHT\P             OF STD SOFT
  1
 BLANK TOP JAWS\P             FROM CHUCK SURFACE.}}
 11
1.000000000000000
 21
0.0000000000000000
 31
0.0000000000000000
  7
KNJYOKO
  0
LINE
  5
41F
100
AcDbEntity
  8
MAIN0
  6
CONTINUOUS
 62
3
100
AcDbLine
 10
262.3542860532091
 20
376.1161526373134
 30
0.0000000000000000
 11
262.3542860532092
 21
302.2708531756928
 31
0.0000000000000000
  0
LINE
  5
420
100
AcDbEntity
  8
MAIN0
  6
CONTINUOUS
 62
3
100
AcDbLine
 10
277.3542860532090
 20
362.1935029065030
 30
0.0000000000000000
 11
277.3542860532090
 21
343.1935029065030
 31
0.0000000000000000
  0
LINE
  5
421
100
AcDbEntity
  8
MAIN0
  6
CONTINUOUS
 62
3
100
AcDbLine
 10
264.3542860532092
 20
301.6935029065030
 30
0.0000000000000000
 11
264.3542860532092
 21
281.6935029065031
 31
0.0000000000000000
  0
LINE
  5
422
100
AcDbEntity
  8
MAIN0
  6
CONTINUOUS
 62
3
100
AcDbLine
 10
263.3542860532093
 20
301.6935029065029
 30
0.0000000000000000
 11
264.3542860532092
 21
301.6935029065029
 31
0.0000000000000000
  0
LINE
  5
423
100
AcDbEntity
  8
MAIN0
  6
CONTINUOUS
 62
3
100
AcDbLine
 10
300.3542860532091
 20
281.6935029065030
 30
0.0000000000000000
 11
300.3542860532091
 21
376.6935029065030
 31
0.0000000000000000
  0
LINE
  5
424
100
AcDbEntity
  8
MAIN0
  6
CONTINUOUS
 62
3
100
AcDbLine
 10
264.3542860532092
 20
281.6935029065031
 30
0.0000000000000000
 11
300.3542860532091
 21
281.6935029065031
 31
0.0000000000000000
  0
LINE
  5
425
100
AcDbEntity
  8
MAIN0
  6
CONTINUOUS
 62
3
100
AcDbLine
 10
263.3542860532091
 20
376.6935029065030
 30
0.0000000000000000
 11
300.3542860532091
 21
376.6935029065030
 31
0.0000000000000000
  0
LINE
  5
426
100
AcDbEntity
  8
MAIN0
  6
CONTINUOUS
 62
3
100
AcDbLine
 10
277.3542860532090
 20
343.1935029065030
 30
0.0000000000000000
 11
300.3542860532091
 21
343.1935029065030
 31
0.0000000000000000
  0
LINE
  5
427
100
AcDbEntity
  8
MAIN0
  6
CONTINUOUS
 62
3
100
AcDbLine
 10
277.3542860532090
 20
362.1935029065030
 30
0.0000000000000000
 11
300.3542860532091
 21
362.1935029065030
 31
0.0000000000000000
  0
LINE
  5
428
100
AcDbEntity
  8
MAIN0
  6
CONTINUOUS
 62
3
100
AcDbLine
 10
267.3542860532092
 20
359.1935029065029
 30
0.0000000000000000
 11
277.3542860532090
 21
359.1935029065029
 31
0.0000000000000000
  0
LINE
  5
429
100
AcDbEntity
  8
MAIN0
  6
CONTINUOUS
 62
3
100
AcDbLine
 10
267.3542860532091
 20
346.1935029065030
 30
0.0000000000000000
 11
277.3542860532090
 21
346.1935029065030
 31
0.0000000000000000
  0
LINE
  5
42A
100
AcDbEntity
  8
MAIN0
  6
CONTINUOUS
 62
3
100
AcDbLine
 10
277.3542860532090
 20
337.1935029065030
 30
0.0000000000000000
 11
277.3542860532090
 21
318.1935029065030
 31
0.0000000000000000
  0
LINE
  5
42B
100
AcDbEntity
  8
MAIN0
  6
CONTINUOUS
 62
3
100
AcDbLine
 10
277.3542860532090
 20
318.1935029065030
 30
0.0000000000000000
 11
300.3542860532091
 21
318.1935029065030
 31
0.0000000000000000
  0
LINE
  5
42C
100
AcDbEntity
  8
MAIN0
  6
CONTINUOUS
 62
3
100
AcDbLine
 10
277.3542860532090
 20
337.1935029065030
 30
0.0000000000000000
 11
300.3542860532091
 21
337.1935029065030
 31
0.0000000000000000
  0
LINE
  5
42D
100
AcDbEntity
  8
MAIN0
  6
CONTINUOUS
 62
3
100
AcDbLine
 10
267.3542860532092
 20
334.1935029065029
 30
0.0000000000000000
 11
277.3542860532090
 21
334.1935029065029
 31
0.0000000000000000
  0
LINE
  5
42E
100
AcDbEntity
  8
MAIN0
  6
CONTINUOUS
 62
3
100
AcDbLine
 10
267.3542860532092
 20
321.1935029065030
 30
0.0000000000000000
 11
277.3542860532090
 21
321.1935029065030
 31
0.0000000000000000
  0
LINE
  5
42F
100
AcDbEntity
  8
MAIN0
  6
CENTER
 62
12
100
AcDbLine
 10
240.4216057775633
 20
352.6935029065030
 30
0.0000000000000000
 11
304.2869732316052
 21
352.6935029065030
 31
0.0000000000000000
  0
LINE
  5
430
100
AcDbEntity
  8
MAIN0
  6
CONTINUOUS
 62
12
100
AcDbLine
 10
263.3542860532091
 20
376.6935029065030
 30
0.0000000000000000
 11
263.3542860532092
 21
301.6935029065030
 31
0.0000000000000000
  0
LINE
  5
431
100
AcDbEntity
  8
MAIN0
  6
CONTINUOUS
 62
3
100
AcDbLine
 10
262.3542860532091
 20
302.2708531756926
 30
0.0000000000000000
 11
263.3542860532092
 21
301.6935029065028
 31
0.0000000000000000
  0
LINE
  5
432
100
AcDbEntity
  8
MAIN0
  6
CONTINUOUS
 62
3
100
AcDbLine
 10
263.3542860532091
 20
376.6935029065030
 30
0.0000000000000000
 11
262.3542860532091
 21
376.1161526373134
 31
0.0000000000000000
  0
LINE
  5
433
100
AcDbEntity
  8
MAIN0
  6
CONTINUOUS
 62
3
100
AcDbLine
 10
267.3542860532091
 20
358.6934979065030
 30
0.0000000000000000
 11
267.3542860532091
 21
376.6935029065030
 31
0.0000000000000000
  0
LINE
  5
434
100
AcDbEntity
  8
MAIN0
  6
CONTINUOUS
 62
3
100
AcDbLine
 10
267.3542860532092
 20
281.6935029065031
 30
0.0000000000000000
 11
267.3542860532091
 21
321.6935029065029
 31
0.0000000000000000
  0
LINE
  5
435
100
AcDbEntity
  8
MAIN0
  6
CONTINUOUS
 62
3
100
AcDbLine
 10
267.3542860532091
 20
333.6934979065029
 30
0.0000000000000000
 11
267.3542860532091
 21
346.6935029065030
 31
0.0000000000000000
  0
LINE
  5
436
100
AcDbEntity
  8
MAIN0
  6
CENTER
 62
12
100
AcDbLine
 10
240.4216057775636
 20
327.6935029065030
 30
0.0000000000000000
 11
304.2869732316053
 21
327.6935029065030
 31
0.0000000000000000
  0
LINE
  5
437
100
AcDbEntity
  8
MAIN0
  6
CONTINUOUS
 62
3
100
AcDbLine
 10
250.3542860532089
 20
65.55699353386552
 30
0.0000000000000000
 11
266.3542860532089
 21
65.55699353386552
 31
0.0000000000000000
  0
LINE
  5
438
100
AcDbEntity
  8
MAIN0
  6
CONTINUOUS
 62
3
100
AcDbLine
 10
250.3542860532089
 20
63.00699353386551
 30
0.0000000000000000
 11
250.3542860532089
 21
65.55699353386552
 31
0.0000000000000000
  0
LINE
  5
439
100
AcDbEntity
  8
MAIN0
  6
CONTINUOUS
 62
3
100
AcDbLine
 10
249.8542860532089
 20
62.55699353386538
 30
0.0000000000000000
 11
244.3542860532089
 21
62.55699353386541
 31
0.0000000000000000
  0
LINE
  5
43A
100
AcDbEntity
  8
MAIN0
  6
CONTINUOUS
 62
3
100
AcDbLine
 10
249.8542860532089
 20
62.55699353386538
 30
0.0000000000000000
 11
250.3542860532090
 21
63.05699353386538
 31
0.0000000000000000
  0
LINE
  5
43B
100
AcDbEntity
  8
MAIN0
  6
CONTINUOUS
 62
3
100
AcDbLine
 10
244.3542860532090
 20
62.55699353386541
 30
0.0000000000000000
 11
240.8542860532090
 21
66.05699353386544
 31
0.0000000000000000
  0
LINE
  5
43C
100
AcDbEntity
  8
MAIN0
  6
CONTINUOUS
 62
3
100
AcDbLine
 10
261.6222352456398
 20
65.55699353386558
 30
0.0000000000000000
 11
263.3542860532089
 21
64.55699353386547
 31
0.0000000000000000
  0
LINE
  5
43D
100
AcDbEntity
  8
MAIN0
  6
CONTINUOUS
 62
3
100
AcDbLine
 10
250.3542860532089
 20
79.55699353386558
 30
0.0000000000000000
 11
266.3542860532089
 21
79.55699353386558
 31
0.0000000000000000
  0
LINE
  5
43E
100
AcDbEntity
  8
MAIN0
  6
CONTINUOUS
 62
3
100
AcDbLine
 10
250.3542860532089
 20
82.10699353386553
 30
0.0000000000000000
 11
250.3542860532089
 21
79.55699353386558
 31
0.0000000000000000
  0
LINE
  5
43F
100
AcDbEntity
  8
MAIN0
  6
CONTINUOUS
 62
3
100
AcDbLine
 10
249.8542860532089
 20
82.55699353386572
 30
0.0000000000000000
 11
244.3542860532089
 21
82.55699353386569
 31
0.0000000000000000
  0
LINE
  5
440
100
AcDbEntity
  8
MAIN0
  6
CONTINUOUS
 62
3
100
AcDbLine
 10
249.8542860532089
 20
82.55699353386581
 30
0.0000000000000000
 11
250.3542860532089
 21
82.05699353386581
 31
0.0000000000000000
  0
LINE
  5
441
100
AcDbEntity
  8
MAIN0
  6
CONTINUOUS
 62
3
100
AcDbLine
 10
244.3542860532089
 20
82.55699353386581
 30
0.0000000000000000
 11
240.8542860532089
 21
79.05699353386578
 31
0.0000000000000000
  0
LINE
  5
442
100
AcDbEntity
  8
MAIN0
  6
CONTINUOUS
 62
3
100
AcDbLine
 10
240.8542860532090
 20
66.05699353386535
 30
0.0000000000000000
 11
240.8542860532090
 21
79.05699353386586
 31
0.0000000000000000
  0
LINE
  5
443
100
AcDbEntity
  8
MAIN0
  6
CONTINUOUS
 62
3
100
AcDbLine
 10
266.3542860532089
 20
65.55699353386558
 30
0.0000000000000000
 11
266.3542860532089
 21
79.55699353386558
 31
0.0000000000000000
  0
CIRCLE
  5
444
100
AcDbEntity
  8
MAIN0
  6
CONTINUOUS
 62
3
100
AcDbCircle
 10
98.91313178002113
 20
254.6435029065031
 30
0.0000000000000000
 40
2.349999999999994
  0
LINE
  5
445
100
AcDbEntity
  8
MAIN0
  6
CONTINUOUS
 62
3
100
AcDbLine
 10
101.2631317800211
 20
256.6435029065030
 30
0.0000000000000000
 11
101.2631317800211
 21
252.6435029065030
 31
0.0000000000000000
  0
LINE
  5
446
100
AcDbEntity
  8
MAIN0
  6
CONTINUOUS
 62
3
100
AcDbLine
 10
102.3722472073399
 20
256.6435029065030
 30
0.0000000000000000
 11
101.2631317800211
 21
252.6435029065030
 31
0.0000000000000000
  0
LINE
  5
447
100
AcDbEntity
  8
MAIN0
  6
CONTINUOUS
 62
3
100
AcDbLine
 10
102.3722472073399
 20
256.6435029065030
 30
0.0000000000000000
 11
102.3722472073399
 21
252.6435029065030
 31
0.0000000000000000
  0
LINE
  5
448
100
AcDbEntity
  8
MAIN0
  6
CONTINUOUS
 62
3
100
AcDbLine
 10
103.4813626346587
 20
256.6435029065031
 30
0.0000000000000000
 11
102.3722472073399
 21
252.6435029065030
 31
0.0000000000000000
  0
LINE
  5
449
100
AcDbEntity
  8
MAIN0
  6
CONTINUOUS
 62
3
100
AcDbLine
 10
103.4813626346587
 20
256.6435029065030
 30
0.0000000000000000
 11
103.4813626346587
 21
252.6435029065030
 31
0.0000000000000000
  0
LINE
  5
44A
100
AcDbEntity
  8
MAIN0
  6
CONTINUOUS
 62
3
100
AcDbLine
 10
104.5904780619775
 20
256.6435029065030
 30
0.0000000000000000
 11
103.4813626346588
 21
252.6435029065031
 31
0.0000000000000000
  0
LINE
  5
44B
100
AcDbEntity
  8
MAIN0
  6
CONTINUOUS
 62
3
100
AcDbLine
 10
104.5904780619775
 20
256.6435029065030
 30
0.0000000000000000
 11
104.5904780619775
 21
252.6435029065030
 31
0.0000000000000000
  0
LINE
  5
44C
100
AcDbEntity
  8
MAIN0
  6
CONTINUOUS
 62
3
100
AcDbLine
 10
105.6995934892964
 20
256.6435029065030
 30
0.0000000000000000
 11
104.5904780619775
 21
252.6435029065031
 31
0.0000000000000000
  0
LINE
  5
44D
100
AcDbEntity
  8
MAIN0
  6
CONTINUOUS
 62
3
100
AcDbLine
 10
105.6995934892963
 20
256.6435029065030
 30
0.0000000000000000
 11
105.6995934892963
 21
252.6435029065030
 31
0.0000000000000000
  0
LINE
  5
44E
100
AcDbEntity
  8
MAIN0
  6
CONTINUOUS
 62
3
100
AcDbLine
 10
106.8087089166152
 20
256.6435029065030
 30
0.0000000000000000
 11
105.6995934892964
 21
252.6435029065031
 31
0.0000000000000000
  0
LINE
  5
44F
100
AcDbEntity
  8
MAIN0
  6
CONTINUOUS
 62
3
100
AcDbLine
 10
106.8087089166151
 20
256.6435029065030
 30
0.0000000000000000
 11
106.8087089166151
 21
252.6435029065030
 31
0.0000000000000000
  0
LINE
  5
450
100
AcDbEntity
  8
MAIN0
  6
CONTINUOUS
 62
3
100
AcDbLine
 10
107.9178243439340
 20
256.6435029065030
 30
0.0000000000000000
 11
106.8087089166152
 21
252.6435029065030
 31
0.0000000000000000
  0
LINE
  5
451
100
AcDbEntity
  8
MAIN0
  6
CONTINUOUS
 62
3
100
AcDbLine
 10
107.9178243439339
 20
256.6435029065030
 30
0.0000000000000000
 11
107.9178243439339
 21
252.6435029065030
 31
0.0000000000000000
  0
LINE
  5
452
100
AcDbEntity
  8
MAIN0
  6
CONTINUOUS
 62
3
100
AcDbLine
 10
109.0269397712528
 20
256.6435029065031
 30
0.0000000000000000
 11
107.9178243439340
 21
252.6435029065030
 31
0.0000000000000000
  0
LINE
  5
453
100
AcDbEntity
  8
MAIN0
  6
CONTINUOUS
 62
3
100
AcDbLine
 10
109.0269397712528
 20
256.6435029065030
 30
0.0000000000000000
 11
109.0269397712528
 21
252.6435029065030
 31
0.0000000000000000
  0
LINE
  5
454
100
AcDbEntity
  8
MAIN0
  6
CONTINUOUS
 62
3
100
AcDbLine
 10
110.1360551985716
 20
256.6435029065030
 30
0.0000000000000000
 11
109.0269397712528
 21
252.6435029065030
 31
0.0000000000000000
  0
LINE
  5
455
100
AcDbEntity
  8
MAIN0
  6
CONTINUOUS
 62
3
100
AcDbLine
 10
110.1360551985716
 20
256.6435029065030
 30
0.0000000000000000
 11
110.1360551985716
 21
252.6435029065030
 31
0.0000000000000000
  0
LINE
  5
456
100
AcDbEntity
  8
MAIN0
  6
CONTINUOUS
 62
3
100
AcDbLine
 10
111.2451706258904
 20
256.6435029065030
 30
0.0000000000000000
 11
110.1360551985716
 21
252.6435029065030
 31
0.0000000000000000
  0
LINE
  5
457
100
AcDbEntity
  8
MAIN0
  6
CONTINUOUS
 62
3
100
AcDbLine
 10
111.2451706258904
 20
256.6435029065030
 30
0.0000000000000000
 11
111.2451706258904
 21
252.6435029065030
 31
0.0000000000000000
  0
LINE
  5
458
100
AcDbEntity
  8
MAIN0
  6
CONTINUOUS
 62
3
100
AcDbLine
 10
112.3542860532092
 20
256.6435029065030
 30
0.0000000000000000
 11
111.2451706258904
 21
252.6435029065030
 31
0.0000000000000000
  0
LINE
  5
459
100
AcDbEntity
  8
MAIN0
  6
CONTINUOUS
 62
3
100
AcDbLine
 10
81.35428605320919
 20
252.2435029065030
 30
0.0000000000000000
 11
81.35428605320919
 21
258.1435029065027
 31
0.0000000000000000
  0
LINE
  5
45A
100
AcDbEntity
  8
MAIN0
  6
CONTINUOUS
 62
3
100
AcDbLine
 10
89.35428605320922
 20
258.1435029065027
 30
0.0000000000000000
 11
89.35428605320922
 21
252.2435029065029
 31
0.0000000000000000
  0
LINE
  5
45B
100
AcDbEntity
  8
MAIN0
  6
CONTINUOUS
 62
12
100
AcDbLine
 10
82.03078605320920
 20
251.8529254493960
 30
0.0000000000000000
 11
82.03078605320920
 21
258.8200029065026
 31
0.0000000000000000
  0
LINE
  5
45C
100
AcDbEntity
  8
MAIN0
  6
CONTINUOUS
 62
12
100
AcDbLine
 10
88.67778605320919
 20
258.8200029065027
 30
0.0000000000000000
 11
88.67778605320919
 21
251.8529254493961
 31
0.0000000000000000
  0
LINE
  5
45D
100
AcDbEntity
  8
MAIN0
  6
CONTINUOUS
 62
3
100
AcDbLine
 10
82.85428605320928
 20
259.6435029065028
 30
0.0000000000000000
 11
87.85428605320911
 21
259.6435029065028
 31
0.0000000000000000
  0
LINE
  5
45E
100
AcDbEntity
  8
MAIN0
  6
CONTINUOUS
 62
3
100
AcDbLine
 10
82.39351653775046
 20
251.6435029065029
 30
0.0000000000000000
 11
88.31505556866790
 21
251.6435029065029
 31
0.0000000000000000
  0
LINE
  5
45F
100
AcDbEntity
  8
MAIN0
  6
CONTINUOUS
 62
3
100
AcDbLine
 10
89.35428605320914
 20
258.1435029065027
 30
0.0000000000000000
 11
81.35428605320925
 21
258.1435029065028
 31
0.0000000000000000
  0
LINE
  5
460
100
AcDbEntity
  8
MAIN0
  6
CONTINUOUS
 62
3
100
AcDbLine
 10
81.35428605320914
 20
252.2435029065028
 30
0.0000000000000000
 11
89.35428605320922
 21
252.2435029065028
 31
0.0000000000000000
  0
LINE
  5
461
100
AcDbEntity
  8
MAIN0
  6
CONTINUOUS
 62
3
100
AcDbLine
 10
81.35428605320919
 20
258.1435029065027
 30
0.0000000000000000
 11
82.85428605320928
 21
259.6435029065028
 31
0.0000000000000000
  0
LINE
  5
462
100
AcDbEntity
  8
MAIN0
  6
CONTINUOUS
 62
3
100
AcDbLine
 10
87.85428605320919
 20
259.6435029065028
 30
0.0000000000000000
 11
89.35428605320925
 21
258.1435029065027
 31
0.0000000000000000
  0
LINE
  5
463
100
AcDbEntity
  8
MAIN0
  6
CONTINUOUS
 62
3
100
AcDbLine
 10
82.39351653775046
 20
251.6435029065028
 30
0.0000000000000000
 11
81.35428605320919
 21
252.2435029065028
 31
0.0000000000000000
  0
LINE
  5
464
100
AcDbEntity
  8
MAIN0
  6
CONTINUOUS
 62
3
100
AcDbLine
 10
88.31505556866790
 20
251.6435029065028
 30
0.0000000000000000
 11
89.35428605320965
 21
252.2435029065029
 31
0.0000000000000000
  0
LINE
  5
465
100
AcDbEntity
  8
MAIN0
  6
CONTINUOUS
 62
3
100
AcDbLine
 10
74.35428605320922
 20
288.6435029065030
 30
0.0000000000000000
 11
72.35428605320925
 21
286.6435029065030
 31
0.0000000000000000
  0
LINE
  5
466
100
AcDbEntity
  8
MAIN0
  6
CONTINUOUS
 62
3
100
AcDbLine
 10
74.35428605320925
 20
250.6435029065033
 30
0.0000000000000000
 11
72.35428605320928
 21
252.6435029065033
 31
0.0000000000000000
  0
LINE
  5
467
100
AcDbEntity
  8
MAIN0
  6
CONTINUOUS
 62
3
100
AcDbLine
 10
74.35428605320919
 20
288.6435029065028
 30
0.0000000000000000
 11
97.35428605320919
 21
288.6435029065028
 31
0.0000000000000000
  0
LINE
  5
468
100
AcDbEntity
  8
MAIN0
  6
CONTINUOUS
 62
3
100
AcDbLine
 10
74.35428605320922
 20
250.6435029065034
 30
0.0000000000000000
 11
97.35428605320919
 21
250.6435029065033
 31
0.0000000000000000
  0
LINE
  5
469
100
AcDbEntity
  8
MAIN0
  6
CONTINUOUS
 62
3
100
AcDbLine
 10
97.35428605320919
 20
278.6435029065030
 30
0.0000000000000000
 11
97.35428605320919
 21
288.6435029065030
 31
0.0000000000000000
  0
LINE
  5
46A
100
AcDbEntity
  8
MAIN0
  6
CONTINUOUS
 62
3
100
AcDbLine
 10
72.35428605320922
 20
252.6435029065035
 30
0.0000000000000000
 11
72.35428605320922
 21
260.6435029065034
 31
0.0000000000000000
  0
LINE
  5
46B
100
AcDbEntity
  8
MAIN0
  6
CONTINUOUS
 62
3
100
AcDbLine
 10
72.35428605320922
 20
278.6435029065030
 30
0.0000000000000000
 11
72.35428605320919
 21
286.6435029065029
 31
0.0000000000000000
  0
LINE
  5
46C
100
AcDbEntity
  8
MAIN0
  6
CENTER
 62
12
100
AcDbLine
 10
85.35428605320919
 20
247.9127390767169
 30
0.0000000000000000
 11
85.35428605320919
 21
262.5377431825399
 31
0.0000000000000000
  0
LINE
  5
46D
100
AcDbEntity
  8
MAIN0
  6
CONTINUOUS
 62
12
100
AcDbLine
 10
89.35428605320919
 20
250.6435029065030
 30
0.0000000000000000
 11
89.35428605320919
 21
252.2435029065030
 31
0.0000000000000000
  0
LINE
  5
46E
100
AcDbEntity
  8
MAIN0
  6
CONTINUOUS
 62
12
100
AcDbLine
 10
81.35428605320914
 20
250.6435029065030
 30
0.0000000000000000
 11
81.35428605320914
 21
252.2435029065030
 31
0.0000000000000000
  0
LINE
  5
46F
100
AcDbEntity
  8
MAIN0
  6
CONTINUOUS
 62
3
100
AcDbLine
 10
88.67778605320916
 20
250.6435029065030
 30
0.0000000000000000
 11
88.67778605320916
 21
251.8529254493960
 31
0.0000000000000000
  0
LINE
  5
470
100
AcDbEntity
  8
MAIN0
  6
CONTINUOUS
 62
3
100
AcDbLine
 10
82.03078605320920
 20
250.6435029065030
 30
0.0000000000000000
 11
82.03078605320920
 21
251.8529254493960
 31
0.0000000000000000
  0
LINE
  5
471
100
AcDbEntity
  8
MAIN0
  6
CONTINUOUS
 62
3
100
AcDbLine
 10
96.19958551482989
 20
254.6435029065032
 30
0.0000000000000000
 11
97.35428605320922
 21
256.6435029065033
 31
0.0000000000000000
  0
LINE
  5
472
100
AcDbEntity
  8
MAIN0
  6
CONTINUOUS
 62
3
100
AcDbLine
 10
96.19958551482989
 20
254.6435029065032
 30
0.0000000000000000
 11
97.35428605320919
 21
252.6435029065031
 31
0.0000000000000000
  0
LINE
  5
473
100
AcDbEntity
  8
MAIN0
  6
CONTINUOUS
 62
3
100
AcDbLine
 10
97.35428605320919
 20
250.6435029065034
 30
0.0000000000000000
 11
97.35428605320919
 21
252.6435029065032
 31
0.0000000000000000
  0
LINE
  5
474
100
AcDbEntity
  8
MAIN0
  6
CONTINUOUS
 62
3
100
AcDbLine
 10
97.35428605320919
 20
256.6435029065033
 30
0.0000000000000000
 11
97.35428605320919
 21
260.6435029065034
 31
0.0000000000000000
  0
LINE
  5
475
100
AcDbEntity
  8
MAIN0
  6
CONTINUOUS
 62
3
100
AcDbLine
 10
38.35428605320928
 20
279.6435029065030
 30
0.0000000000000000
 11
126.3542860532092
 21
279.6435029065030
 31
0.0000000000000000
  0
LINE
  5
476
100
AcDbEntity
  8
MAIN0
  6
CONTINUOUS
 62
3
100
AcDbLine
 10
38.35428605320922
 20
259.6435029065034
 30
0.0000000000000000
 11
126.3542860532092
 21
259.6435029065034
 31
0.0000000000000000
  0
LINE
  5
477
100
AcDbEntity
  8
MAIN0
  6
CONTINUOUS
 62
3
100
AcDbLine
 10
36.35428605320922
 20
261.6435029065034
 30
0.0000000000000000
 11
36.35428605320928
 21
277.6435029065030
 31
0.0000000000000000
  0
LINE
  5
478
100
AcDbEntity
  8
MAIN0
  6
CONTINUOUS
 62
3
100
AcDbLine
 10
101.3542860532092
 20
279.6435029065030
 30
0.0000000000000000
 11
101.3542860532092
 21
259.6435029065034
 31
0.0000000000000000
  0
LINE
  5
479
100
AcDbEntity
  8
MAIN0
  6
CONTINUOUS
 62
12
100
AcDbLine
 10
37.35428605320934
 20
278.6435029065030
 30
0.0000000000000000
 11
101.3542860532093
 21
278.6435029065030
 31
0.0000000000000000
  0
LINE
  5
47A
100
AcDbEntity
  8
MAIN0
  6
CONTINUOUS
 62
12
100
AcDbLine
 10
37.35428605320925
 20
260.6435029065034
 30
0.0000000000000000
 11
101.3542860532093
 21
260.6435029065034
 31
0.0000000000000000
  0
LINE
  5
47B
100
AcDbEntity
  8
MAIN0
  6
CONTINUOUS
 62
3
100
AcDbLine
 10
38.35428605320931
 20
279.6435029065030
 30
0.0000000000000000
 11
36.35428605320931
 21
277.6435029065030
 31
0.0000000000000000
  0
LINE
  5
47C
100
AcDbEntity
  8
MAIN0
  6
CONTINUOUS
 62
3
100
AcDbLine
 10
38.35428605320925
 20
259.6435029065034
 30
0.0000000000000000
 11
36.35428605320925
 21
261.6435029065034
 31
0.0000000000000000
  0
LINE
  5
47D
100
AcDbEntity
  8
MAIN0
  6
CONTINUOUS
 62
3
100
AcDbLine
 10
38.35428605320928
 20
279.6435029065030
 30
0.0000000000000000
 11
38.35428605320922
 21
259.6435029065034
 31
0.0000000000000000
  0
LINE
  5
47E
100
AcDbEntity
  8
MAIN0
  6
CONTINUOUS
 62
3
100
AcDbLine
 10
126.3542860532092
 20
283.1435029065030
 30
0.0000000000000000
 11
144.8542860532092
 21
283.1435029065030
 31
0.0000000000000000
  0
LINE
  5
47F
100
AcDbEntity
  8
MAIN0
  6
CONTINUOUS
 62
3
100
AcDbLine
 10
126.3542860532092
 20
256.1435029065030
 30
0.0000000000000000
 11
144.8542860532092
 21
256.1435029065030
 31
0.0000000000000000
  0
LINE
  5
480
100
AcDbEntity
  8
MAIN0
  6
CONTINUOUS
 62
3
100
AcDbLine
 10
146.3542860532092
 20
258.7415791178565
 30
0.0000000000000000
 11
146.3542860532092
 21
280.5454266951497
 31
0.0000000000000000
  0
LINE
  5
481
100
AcDbEntity
  8
MAIN0
  6
CONTINUOUS
 62
3
100
AcDbLine
 10
144.8542860532092
 20
256.1435029065030
 30
0.0000000000000000
 11
144.8542860532092
 21
283.1435029065030
 31
0.0000000000000000
  0
LINE
  5
482
100
AcDbEntity
  8
MAIN0
  6
CONTINUOUS
 62
3
100
AcDbLine
 10
144.8542860532092
 20
283.1435029065030
 30
0.0000000000000000
 11
146.3542860532092
 21
280.5454266951497
 31
0.0000000000000000
  0
LINE
  5
483
100
AcDbEntity
  8
MAIN0
  6
CONTINUOUS
 62
3
100
AcDbLine
 10
144.8542860532092
 20
256.1435029065030
 30
0.0000000000000000
 11
146.3542860532092
 21
258.7415791178565
 31
0.0000000000000000
  0
LINE
  5
484
100
AcDbEntity
  8
MAIN0
  6
CONTINUOUS
 62
3
100
AcDbLine
 10
126.3542860532092
 20
283.6435029065030
 30
0.0000000000000000
 11
217.3542860532093
 21
283.6435029065030
 31
0.0000000000000000
  0
LINE
  5
485
100
AcDbEntity
  8
MAIN0
  6
CONTINUOUS
 62
3
100
AcDbLine
 10
126.3542860532092
 20
255.6435029065032
 30
0.0000000000000000
 11
217.3542860532093
 21
255.6435029065032
 31
0.0000000000000000
  0
LINE
  5
486
100
AcDbEntity
  8
MAIN0
  6
CONTINUOUS
 62
3
100
AcDbLine
 10
217.3542860532093
 20
250.1435029065033
 30
0.0000000000000000
 11
217.3542860532093
 21
289.1435029065028
 31
0.0000000000000000
  0
LINE
  5
487
100
AcDbEntity
  8
MAIN0
  6
CONTINUOUS
 62
3
100
AcDbLine
 10
126.3542860532092
 20
255.6435029065032
 30
0.0000000000000000
 11
126.3542860532092
 21
283.6435029065030
 31
0.0000000000000000
  0
LINE
  5
488
100
AcDbEntity
  8
MAIN0
  6
CONTINUOUS
 62
12
100
AcDbLine
 10
190.3542860532093
 20
287.6435029065030
 30
0.0000000000000000
 11
217.3542860532093
 21
287.6435029065030
 31
0.0000000000000000
  0
LINE
  5
489
100
AcDbEntity
  8
MAIN0
  6
CONTINUOUS
 62
12
100
AcDbLine
 10
190.3542860532093
 20
251.6435029065033
 30
0.0000000000000000
 11
217.3542860532093
 21
251.6435029065033
 31
0.0000000000000000
  0
LINE
  5
48A
100
AcDbEntity
  8
MAIN0
  6
CONTINUOUS
 62
3
100
AcDbLine
 10
190.3542860532093
 20
250.6435029065030
 30
0.0000000000000000
 11
190.3542860532093
 21
251.6435029065030
 31
0.0000000000000000
  0
LINE
  5
48B
100
AcDbEntity
  8
MAIN0
  6
CONTINUOUS
 62
3
100
AcDbLine
 10
190.3542860532093
 20
287.6435029065030
 30
0.0000000000000000
 11
190.3542860532093
 21
288.6435029065030
 31
0.0000000000000000
  0
LINE
  5
48C
100
AcDbEntity
  8
MAIN0
  6
CONTINUOUS
 62
3
100
AcDbLine
 10
97.35428605320919
 20
288.6435029065030
 30
0.0000000000000000
 11
217.3542860532093
 21
288.6435029065030
 31
0.0000000000000000
  0
LINE
  5
48D
100
AcDbEntity
  8
MAIN0
  6
CONTINUOUS
 62
3
100
AcDbLine
 10
97.35428605320919
 20
250.6435029065033
 30
0.0000000000000000
 11
217.3542860532092
 21
250.6435029065031
 31
0.0000000000000000
  0
LINE
  5
48E
100
AcDbEntity
  8
MAIN0
  6
CONTINUOUS
 62
3
100
AcDbLine
 10
112.3542860532092
 20
252.1435029065030
 30
0.0000000000000000
 11
112.3542860532092
 21
257.1435029065028
 31
0.0000000000000000
  0
LINE
  5
48F
100
AcDbEntity
  8
MAIN0
  6
CENTER
 62
12
100
AcDbLine
 10
115.3724336600878
 20
254.6435029065030
 30
0.0000000000000000
 11
94.17054935875638
 21
254.6435029065030
 31
0.0000000000000000
  0
LINE
  5
490
100
AcDbEntity
  8
MAIN0
  6
CONTINUOUS
 62
3
100
AcDbLine
 10
97.35428605320922
 20
257.1435029065028
 30
0.0000000000000000
 11
112.3542860532092
 21
257.1435029065028
 31
0.0000000000000000
  0
LINE
  5
491
100
AcDbEntity
  8
MAIN0
  6
CONTINUOUS
 62
3
100
AcDbLine
 10
97.35428605320922
 20
252.1435029065028
 30
0.0000000000000000
 11
112.3542860532092
 21
252.1435029065028
 31
0.0000000000000000
  0
LINE
  5
492
100
AcDbEntity
  8
MAIN0
  6
CONTINUOUS
 62
3
100
AcDbLine
 10
112.3542860532092
 20
257.1435029065030
 30
0.0000000000000000
 11
113.7976617261833
 21
254.6435029065031
 31
0.0000000000000000
  0
LINE
  5
493
100
AcDbEntity
  8
MAIN0
  6
CONTINUOUS
 62
3
100
AcDbLine
 10
112.3542860532092
 20
252.1435029065032
 30
0.0000000000000000
 11
113.7976617261832
 21
254.6435029065031
 31
0.0000000000000000
  0
LINE
  5
494
100
AcDbEntity
  8
MAIN0
  6
CONTINUOUS
 62
3
100
AcDbLine
 10
240.5300219844968
 20
64.88125760257748
 30
0.0000000000000000
 11
243.4285501219199
 21
61.98272946515368
 31
0.0000000000000000
  0
LINE
  5
495
100
AcDbEntity
  8
MAIN0
  6
CONTINUOUS
 62
3
100
AcDbLine
 10
240.5300219844970
 20
80.23272946515360
 30
0.0000000000000000
 11
243.4285501219209
 21
83.13125760257748
 31
0.0000000000000000
  0
ARC
  5
496
100
AcDbEntity
  8
MAIN0
  6
CONTINUOUS
 62
3
100
AcDbCircle
 10
243.8528141906327
 20
82.70699353386556
 30
0.0000000000000000
 40
0.6000000000000000
100
AcDbArc
 50
90.00000000000000
 51
135.0000000000010
  0
ARC
  5
497
100
AcDbEntity
  8
MAIN0
  6
CONTINUOUS
 62
3
100
AcDbCircle
 10
243.8528141906320
 20
62.40699353386555
 30
0.0000000000000000
 40
0.6000000000000000
100
AcDbArc
 50
224.9999999999928
 51
270.0000000000000
  0
LINE
  5
498
100
AcDbEntity
  8
MAIN0
  6
CONTINUOUS
 62
3
100
AcDbLine
 10
250.9542860553952
 20
79.85699353386565
 30
0.0000000000000000
 11
257.3542860532089
 21
79.85699353386565
 31
0.0000000000000000
  0
LINE
  5
499
100
AcDbEntity
  8
MAIN0
  6
CONTINUOUS
 62
3
100
AcDbLine
 10
250.9542860553952
 20
65.25699353386551
 30
0.0000000000000000
 11
257.3542860532089
 21
65.25699353386551
 31
0.0000000000000000
  0
LINE
  5
49A
100
AcDbEntity
  8
MAIN0
  6
CONTINUOUS
 62
3
100
AcDbLine
 10
250.3542860532089
 20
64.65699353167904
 30
0.0000000000000000
 11
250.9542860553952
 21
65.25699353386546
 31
0.0000000000000000
  0
LINE
  5
49B
100
AcDbEntity
  8
MAIN0
  6
CONTINUOUS
 62
3
100
AcDbLine
 10
250.3542860532088
 20
80.45699353605221
 30
0.0000000000000000
 11
250.9542860553952
 21
79.85699353386571
 31
0.0000000000000000
  0
LINE
  5
49C
100
AcDbEntity
  8
MAIN0
  6
CONTINUOUS
 62
3
100
AcDbLine
 10
257.3542860532089
 20
79.85699353386565
 30
0.0000000000000000
 11
257.3542860532089
 21
79.55699353386552
 31
0.0000000000000000
  0
LINE
  5
49D
100
AcDbEntity
  8
MAIN0
  6
CONTINUOUS
 62
3
100
AcDbLine
 10
257.3542860532089
 20
65.25699353386551
 30
0.0000000000000000
 11
257.3542860532089
 21
65.55699353386564
 31
0.0000000000000000
  0
ARC
  5
49E
100
AcDbEntity
  8
MAIN0
  6
CONTINUOUS
 62
3
100
AcDbCircle
 10
240.9542860532089
 20
79.80846539644170
 30
0.0000000000000000
 40
0.6000000000000000
100
AcDbArc
 50
135.0000000000000
 51
180.0000000000000
  0
ARC
  5
49F
100
AcDbEntity
  8
MAIN0
  6
CONTINUOUS
 62
3
100
AcDbCircle
 10
240.9542860532089
 20
65.30552167128934
 30
0.0000000000000000
 40
0.6000000000000000
100
AcDbArc
 50
180.0000000000000
 51
224.9999999999928
  0
LINE
  5
4A0
100
AcDbEntity
  8
MAIN0
  6
CONTINUOUS
 62
3
100
AcDbLine
 10
261.6222352456712
 20
65.55699353386552
 30
0.0000000000000000
 11
257.3542860532089
 21
65.55699353386552
 31
0.0000000000000000
  0
LINE
  5
4A1
100
AcDbEntity
  8
MAIN0
  6
CONTINUOUS
 62
3
100
AcDbLine
 10
261.6222352456713
 20
79.55699353386552
 30
0.0000000000000000
 11
257.3542860532089
 21
79.55699353386552
 31
0.0000000000000000
  0
LINE
  5
4A2
100
AcDbEntity
  8
MAIN0
  6
CONTINUOUS
 62
3
100
AcDbLine
 10
250.3542860532089
 20
82.10699353386553
 30
0.0000000000000000
 11
250.3542860532089
 21
80.45699353605210
 31
0.0000000000000000
  0
LINE
  5
4A3
100
AcDbEntity
  8
MAIN0
  6
CONTINUOUS
 62
3
100
AcDbLine
 10
250.3542860532089
 20
64.65699353167901
 30
0.0000000000000000
 11
250.3542860532089
 21
63.00699353386551
 31
0.0000000000000000
  0
LINE
  5
4A4
100
AcDbEntity
  8
MAIN0
  6
CONTINUOUS
 62
3
100
AcDbLine
 10
263.3542860532089
 20
80.55699353384770
 30
0.0000000000000000
 11
261.6222352456714
 21
79.55699353386555
 31
0.0000000000000000
  0
LINE
  5
4A5
100
AcDbEntity
  8
WAKU0
  6
CONTINUOUS
 62
3
100
AcDbLine
 10
412.0000000000000
 20
51.00000000000000
 30
0.0000000000000000
 11
582.0000000000000
 21
51.00000000000000
 31
0.0000000000000000
  0
LINE
  5
4A6
100
AcDbEntity
  8
WAKU0
  6
CONTINUOUS
 62
3
100
AcDbLine
 10
412.0000000000000
 20
51.00000000000000
 30
0.0000000000000000
 11
412.0000000000000
 21
12.00000000000000
 31
0.0000000000000000
  0
LINE
  5
4A7
100
AcDbEntity
  8
WAKU0
  6
CONTINUOUS
 62
3
100
AcDbLine
 10
484.0000000000000
 20
51.00000000000000
 30
0.0000000000000000
 11
484.0000000000000
 21
12.00000000000000
 31
0.0000000000000000
  0
LINE
  5
4A8
100
AcDbEntity
  8
WAKU0
  6
CONTINUOUS
 62
3
100
AcDbLine
 10
504.0000000000000
 20
51.00000000000000
 30
0.0000000000000000
 11
504.0000000000000
 21
12.00000000000000
 31
0.0000000000000000
  0
LINE
  5
4A9
100
AcDbEntity
  8
WAKU0
  6
CONTINUOUS
 62
3
100
AcDbLine
 10
516.0000000000000
 20
51.00000000000000
 30
0.0000000000000000
 11
516.0000000000000
 21
12.00000000000000
 31
0.0000000000000000
  0
LINE
  5
4AA
100
AcDbEntity
  8
WAKU0
  6
CONTINUOUS
 62
3
100
AcDbLine
 10
516.0000000000000
 20
37.00000000000000
 30
0.0000000000000000
 11
582.0000000000000
 21
37.00000000000000
 31
0.0000000000000000
  0
LINE
  5
4AB
100
AcDbEntity
  8
WAKU0
  6
CONTINUOUS
 62
3
100
AcDbLine
 10
504.0000000000000
 20
23.00000000000000
 30
0.0000000000000000
 11
582.0000000000000
 21
23.00000000000000
 31
0.0000000000000000
  0
LINE
  5
4AC
100
AcDbEntity
  8
WAKU0
  6
CONTINUOUS
 62
3
100
AcDbLine
 10
547.0000000000000
 20
51.00000000000000
 30
0.0000000000000000
 11
547.0000000000000
 21
44.00000000000000
 31
0.0000000000000000
  0
LINE
  5
4AD
100
AcDbEntity
  8
WAKU0
  6
CONTINUOUS
 62
3
100
AcDbLine
 10
559.0000000000000
 20
51.00000000000000
 30
0.0000000000000000
 11
559.0000000000000
 21
44.00000000000000
 31
0.0000000000000000
  0
LINE
  5
4AE
100
AcDbEntity
  8
WAKU0
  6
CONTINUOUS
 62
3
100
AcDbLine
 10
484.0000000000000
 20
31.50000000000000
 30
0.0000000000000000
 11
504.0000000000000
 21
31.50000000000000
 31
0.0000000000000000
  0
LINE
  5
4AF
100
AcDbEntity
  8
WAKU0
  6
CONTINUOUS
 62
3
100
AcDbLine
 10
504.0000000000000
 20
44.00000000000000
 30
0.0000000000000000
 11
582.0000000000000
 21
44.00000000000000
 31
0.0000000000000000
  0
LINE
  5
4B0
100
AcDbEntity
  8
WAKU0
  6
CONTINUOUS
 62
3
100
AcDbLine
 10
412.0000000000000
 20
37.00000000000000
 30
0.0000000000000000
 11
484.0000000000000
 21
37.00000000000000
 31
0.0000000000000000
  0
LINE
  5
4B1
100
AcDbEntity
  8
WAKU0
  6
CONTINUOUS
 62
3
100
AcDbLine
 10
412.0000000000000
 20
23.00000000000000
 30
0.0000000000000000
 11
484.0000000000000
 21
23.00000000000000
 31
0.0000000000000000
  0
LINE
  5
4B2
100
AcDbEntity
  8
WAKU0
  6
CONTINUOUS
 62
3
100
AcDbLine
 10
460.0000000000000
 20
37.00000000000000
 30
0.0000000000000000
 11
460.0000000000000
 21
12.00000000000000
 31
0.0000000000000000
  0
LINE
  5
4B3
100
AcDbEntity
  8
WAKU0
  6
CONTINUOUS
 62
3
100
AcDbLine
 10
436.0000000000000
 20
37.00000000000000
 30
0.0000000000000000
 11
436.0000000000000
 21
23.00000000000000
 31
0.0000000000000000
  0
LINE
  5
4B4
100
AcDbEntity
  8
WAKU0
  6
CONTINUOUS
 62
3
100
AcDbLine
 10
472.0000000000000
 20
26.00000000000000
 30
0.0000000000000000
 11
472.0000000000000
 21
23.00000000000000
 31
0.0000000000000000
  0
LINE
  5
4B5
100
AcDbEntity
  8
WAKU0
  6
CONTINUOUS
 62
3
100
AcDbLine
 10
448.0000000000000
 20
26.00000000000000
 30
0.0000000000000000
 11
448.0000000000000
 21
23.00000000000000
 31
0.0000000000000000
  0
LINE
  5
4B6
100
AcDbEntity
  8
WAKU0
  6
CONTINUOUS
 62
3
100
AcDbLine
 10
424.0000000000000
 20
26.00000000000000
 30
0.0000000000000000
 11
424.0000000000000
 21
23.00000000000000
 31
0.0000000000000000
  0
LINE
  5
4B7
100
AcDbEntity
  8
WAKU0
  6
CONTINUOUS
 62
3
100
AcDbLine
 10
430.0000000000000
 20
51.00000000000000
 30
0.0000000000000000
 11
430.0000000000000
 21
37.00000000000000
 31
0.0000000000000000
  0
LINE
  5
4B8
100
AcDbEntity
  8
WAKU0
  6
CONTINUOUS
 62
3
100
AcDbLine
 10
412.0000000000000
 20
45.00000000000000
 30
0.0000000000000000
 11
484.0000000000000
 21
45.00000000000000
 31
0.0000000000000000
  0
LINE
  5
4B9
100
AcDbEntity
  8
WAKU0
  6
HIDDEN
 62
3
100
AcDbLine
 10
532.5000000000000
 20
23.00000000000000
 30
0.0000000000000000
 11
532.5000000000000
 21
12.00000000000000
 31
0.0000000000000000
  0
LINE
  5
4BA
100
AcDbEntity
  8
WAKU0
  6
HIDDEN
 62
3
100
AcDbLine
 10
544.9000000000000
 20
23.00000000000000
 30
0.0000000000000000
 11
544.9000000000000
 21
12.00000000000000
 31
0.0000000000000000
  0
MTEXT
  5
4BB
100
AcDbEntity
  8
WAKU0
  6
CONTINUOUS
 62
3
100
AcDbMText
 10
516.4820000243485
 20
49.04999995231628
 30
0.0000000000000000
 40
3.099999904632568
 41
0.0000000000000000
 71
     1
 72
     1
  1
{\H0.91x;{N-08}}
 11
1.000000000000000
 21
0.0000000000000000
 31
0.0000000000000000
  7
STANDARD
  0
MTEXT
  5
4BC
100
AcDbEntity
  8
WAKU0
  6
CONTINUOUS
 62
3
100
AcDbMText
 10
516.4659999916852
 20
43.50000000000000
 30
0.0000000000000000
 40
3.000000000000000
 41
0.0000000000000000
 71
     1
 72
     1
  1
{\H0.94x;{パワーチャック　８\PＰＯＷＥＲ　ＣＨＵＣＫ　８}}
 11
1.000000000000000
 21
0.0000000000000000
 31
0.0000000000000000
  7
KNJYOKO
  0
MTEXT
  5
4BD
100
AcDbEntity
  8
WAKU0
  6
CONTINUOUS
 62
3
100
AcDbMText
 10
516.4820000243485
 20
34.23333326975504
 30
0.0000000000000000
 40
3.099999904632568
 41
0.0000000000000000
 71
     1
 72
     1
  1
{\H0.94x;{Ｎ－０８　ガイケイ\PＮ－０８　ＯＵＴＳＩＤＥ　ＶＩＥＷ}}
 11
1.000000000000000
 21
0.0000000000000000
 31
0.0000000000000000
  7
KNJYOKO
  0
MTEXT
  5
4BE
100
AcDbEntity
  8
WAKU0
  6
CONTINUOUS
 62
3
100
AcDbMText
 10
490.0049998760223
 20
39.29999995231628
 30
0.0000000000000000
 40
3.099999904632568
 41
0.0000000000000000
 71
     1
 72
     1
  1
{\H0.90x;{1:1}}
 11
1.000000000000000
 21
0.0000000000000000
 31
0.0000000000000000
  7
STANDARD
  0
MTEXT
  5
4BF
100
AcDbEntity
  8
WAKU0
  6
CONTINUOUS
 62
3
100
AcDbMText
 10
546.4000001549721
 20
20.15000009536743
 30
0.0000000000000000
 40
5.300000190734863
 41
0.0000000000000000
 71
     1
 72
     1
  1
{\H0.90x;{8312}}
 11
1.000000000000000
 21
0.0000000000000000
 31
0.0000000000000000
  7
STANDARD
  0
MTEXT
  5
4C0
100
AcDbEntity
  8
WAKU0
  6
CONTINUOUS
 62
3
100
AcDbMText
 10
534.3000000834466
 20
20.15000009536743
 30
0.0000000000000000
 40
5.300000190734863
 41
0.0000000000000000
 71
     1
 72
     1
  1
{\H0.87x;{21}}
 11
1.000000000000000
 21
0.0000000000000000
 31
0.0000000000000000
  7
STANDARD
  0
MTEXT
  5
4C1
100
AcDbEntity
  8
WAKU0
  6
CONTINUOUS
 62
3
100
AcDbMText
 10
517.5000001192093
 20
20.15000009536743
 30
0.0000000000000000
 40
5.300000190734863
 41
0.0000000000000000
 71
     1
 72
     1
  1
{\H0.89x;{61P}}
 11
1.000000000000000
 21
0.0000000000000000
 31
0.0000000000000000
  7
STANDARD
  0
MTEXT
  5
4C2
100
AcDbEntity
  8
WAKU0
  6
CONTINUOUS
 62
3
100
AcDbMText
 10
572.0000000476837
 20
20.15000009536743
 30
0.0000000000000000
 40
5.300000190734863
 41
0.0000000000000000
 71
     1
 72
     1
  1
{\H0.81x;{7}}
 11
1.000000000000000
 21
0.0000000000000000
 31
0.0000000000000000
  7
STANDARD
  0
MTEXT
  5
4C3
100
AcDbEntity
  8
WAKU0
  6
CONTINUOUS
 62
3
100
AcDbMText
 10
572.0000000819564
 20
44.84999990463257
 30
0.0000000000000000
 40
5.300000190734863
 41
0.0000000000000000
 71
     7
 72
     1
  1
{\H0.81x;{ }}
 11
1.000000000000000
 21
0.0000000000000000
 31
0.0000000000000000
  7
STANDARD
  0
MTEXT
  5
4C4
100
AcDbEntity
  8
WAKU0
  6
CONTINUOUS
 62
3
100
AcDbMText
 10
461.3850002884865
 20
33.00000000000000
 30
0.0000000000000000
 40
3.000000000000000
 41
0.0000000000000000
 71
     7
 72
     1
  1
{\H0.93x;{DRAWN BY}}
 11
1.000000000000000
 21
0.0000000000000000
 31
0.0000000000000000
  7
STANDARD
  0
MTEXT
  5
4C5
100
AcDbEntity
  8
WAKU0
  6
CONTINUOUS
 62
3
100
AcDbMText
 10
441.2149997949600
 20
32.95000004768372
 30
0.0000000000000000
 40
3.099999904632568
 41
0.0000000000000000
 71
     7
 72
     1
  1
{\H0.92x;{CHIEF}}
 11
1.000000000000000
 21
0.0000000000000000
 31
0.0000000000000000
  7
STANDARD
  0
MTEXT
  5
4C6
100
AcDbEntity
  8
WAKU0
  6
CONTINUOUS
 62
3
100
AcDbMText
 10
414.4249997138977
 20
32.95000004768372
 30
0.0000000000000000
 40
3.099999904632568
 41
0.0000000000000000
 71
     7
 72
     1
  1
{\H0.92x;{MANAGER}}
 11
1.000000000000000
 21
0.0000000000000000
 31
0.0000000000000000
  7
STANDARD
  0
MTEXT
  5
4C7
100
AcDbEntity
  8
WAKU0
  6
CONTINUOUS
 62
3
100
AcDbMText
 10
416.6599994301796
 20
18.13333336512248
 30
0.0000000000000000
 40
3.099999904632568
 41
0.0000000000000000
 71
     7
 72
     1
  1
{\H0.93x;{KITAGAWA IRON\PWORKS CO.,LTD.}}
 11
1.000000000000000
 21
0.0000000000000000
 31
0.0000000000000000
  7
STANDARD
  0
MTEXT
  5
4C8
100
AcDbEntity
  8
WAKU0
  6
CONTINUOUS
 62
3
100
AcDbMText
 10
413.0850002169609
 20
46.50000000000000
 30
0.0000000000000000
 40
3.000000000000000
 41
0.0000000000000000
 71
     7
 72
     1
  1
{\H0.92x;{CAREER}}
 11
1.000000000000000
 21
0.0000000000000000
 31
0.0000000000000000
  7
STANDARD
  0
MTEXT
  5
4C9
100
AcDbEntity
  8
WAKU0
  6
CONTINUOUS
 62
3
100
AcDbMText
 10
466.6099998354912
 20
18.95000004768372
 30
0.0000000000000000
 40
3.099999904632568
 41
0.0000000000000000
 71
     7
 72
     1
  1
{\H0.91x;{DATE}}
 11
1.000000000000000
 21
0.0000000000000000
 31
0.0000000000000000
  7
STANDARD
  0
MTEXT
  5
4CA
100
AcDbEntity
  8
WAKU0
  6
CONTINUOUS
 62
3
100
AcDbMText
 10
485.9000002145767
 20
26.50000000000000
 30
0.0000000000000000
 40
3.000000000000000
 41
0.0000000000000000
 71
     7
 72
     1
  1
{\H0.63x;{3RD ANGLE}}
 11
1.000000000000000
 21
0.0000000000000000
 31
0.0000000000000000
  7
STANDARD
  0
MTEXT
  5
4CB
100
AcDbEntity
  8
WAKU0
  6
CONTINUOUS
 62
3
100
AcDbMText
 10
487.2149997949600
 20
45.95000004768372
 30
0.0000000000000000
 40
3.099999904632568
 41
0.0000000000000000
 71
     7
 72
     1
  1
{\H0.92x;{SCALE}}
 11
1.000000000000000
 21
0.0000000000000000
 31
0.0000000000000000
  7
STANDARD
  0
MTEXT
  5
4CC
100
AcDbEntity
  8
WAKU0
  6
CONTINUOUS
 62
3
100
AcDbMText
 10
577.7000000476837
 20
46.00000000000000
 30
0.0000000000000000
 40
3.000000000000000
 41
0.0000000000000000
 71
     7
 72
     1
  1
{\H0.63x;{kg}}
 11
1.000000000000000
 21
0.0000000000000000
 31
0.0000000000000000
  7
STANDARD
  0
MTEXT
  5
4CD
100
AcDbEntity
  8
WAKU0
  6
CONTINUOUS
 62
3
100
AcDbMText
 10
547.6000001430512
 20
46.00000000000000
 30
0.0000000000000000
 40
3.000000000000000
 41
0.0000000000000000
 71
     7
 72
     1
  1
{\H0.63x;{WEIGHT}}
 11
1.000000000000000
 21
0.0000000000000000
 31
0.0000000000000000
  7
STANDARD
  0
MTEXT
  5
4CE
100
AcDbEntity
  8
WAKU0
  6
CONTINUOUS
 62
3
100
AcDbMText
 10
506.0049998760223
 20
18.13333336512248
 30
0.0000000000000000
 40
3.099999904632568
 41
0.0000000000000000
 71
     7
 72
     1
  1
{\H0.90x;{DRW\PNO.}}
 11
1.000000000000000
 21
0.0000000000000000
 31
0.0000000000000000
  7
STANDARD
  0
MTEXT
  5
4CF
100
AcDbEntity
  8
WAKU0
  6
CONTINUOUS
 62
3
100
AcDbMText
 10
504.6099998354912
 20
31.95000004768372
 30
0.0000000000000000
 40
3.099999904632568
 41
0.0000000000000000
 71
     7
 72
     1
  1
{\H0.91x;{NAME}}
 11
1.000000000000000
 21
0.0000000000000000
 31
0.0000000000000000
  7
STANDARD
  0
MTEXT
  5
4D0
100
AcDbEntity
  8
WAKU0
  6
CONTINUOUS
 62
3
100
AcDbMText
 10
504.6099998354912
 20
45.95000004768372
 30
0.0000000000000000
 40
3.099999904632568
 41
0.0000000000000000
 71
     7
 72
     1
  1
{\H0.91x;{TYPE}}
 11
1.000000000000000
 21
0.0000000000000000
 31
0.0000000000000000
  7
STANDARD
  0
LINE
  5
4D1
100
AcDbEntity
  8
WAKU0
  6
HIDDEN
 62
3
100
AcDbLine
 10
579.1599564743885
 20
13.84999990463257
 30
0.0000000000000000
 11
568.9400436209789
 21
13.84999990463257
 31
0.0000000000000000
  0
LINE
  5
4D2
100
AcDbEntity
  8
WAKU0
  6
HIDDEN
 62
3
100
AcDbLine
 10
579.1599564743885
 20
13.84999990463250
 30
0.0000000000000000
 11
574.0500000476851
 21
22.70070406014901
 31
0.0000000000000000
  0
LINE
  5
4D3
100
AcDbEntity
  8
WAKU0
  6
HIDDEN
 62
3
100
AcDbLine
 10
574.0500000476851
 20
22.70070406014902
 30
0.0000000000000000
 11
568.9400436209789
 21
13.84999990463248
 31
0.0000000000000000
  0
POINT
  5
4D4
100
AcDbEntity
  8
WAKU0
  6
CONTINUOUS
 62
3
100
AcDbPoint
 10
442.0000000000000
 20
51.00000000000000
 30
0.0000000000000000
  0
INSERT
  5
524
100
AcDbEntity
  8
WAKU0
  6
CONTINUOUS
 62
3
100
AcDbBlockReference
  2
M4
 10
0.0000000000000000
 20
0.0000000000000000
 30
0.0000000000000000
 50
0.0000000000000000
  0
LINE
  5
525
100
AcDbEntity
  8
WAKU0
  6
CONTINUOUS
 62
3
100
AcDbLine
 10
502.4713877753800
 20
15.78041421262812
 30
0.0000000000000000
 11
502.4713877753800
 21
21.78041421262815
 31
0.0000000000000000
  0
LINE
  5
526
100
AcDbEntity
  8
WAKU0
  6
CONTINUOUS
 62
3
100
AcDbLine
 10
495.9336941228225
 20
17.28041421262811
 30
0.0000000000000000
 11
495.9336941228225
 21
20.28041421262824
 31
0.0000000000000000
  0
LINE
  5
527
100
AcDbEntity
  8
WAKU0
  6
CENTER
 62
12
100
AcDbLine
 10
485.4321805514995
 20
18.78041421262813
 30
0.0000000000000000
 11
503.2765788964694
 21
18.78041421262813
 31
0.0000000000000000
  0
LINE
  5
528
100
AcDbEntity
  8
WAKU0
  6
CENTER
 62
12
100
AcDbLine
 10
489.4474565857986
 20
14.55921662918448
 30
0.0000000000000000
 11
489.4474565857986
 21
22.89865102149943
 31
0.0000000000000000
  0
LINE
  5
529
100
AcDbEntity
  8
WAKU0
  6
CONTINUOUS
 62
3
100
AcDbLine
 10
495.9336941228225
 20
20.28041421262797
 30
0.0000000000000000
 11
502.4713877753800
 21
21.78041421262795
 31
0.0000000000000000
  0
LINE
  5
52A
100
AcDbEntity
  8
WAKU0
  6
CONTINUOUS
 62
3
100
AcDbLine
 10
495.9336941228225
 20
17.28041421262811
 30
0.0000000000000000
 11
502.4713877753799
 21
15.78041421262812
 31
0.0000000000000000
  0
CIRCLE
  5
52B
100
AcDbEntity
  8
WAKU0
  6
CONTINUOUS
 62
3
100
AcDbCircle
 10
489.4474565857986
 20
18.78041421262813
 30
0.0000000000000000
 40
1.499999999999972
  0
CIRCLE
  5
52C
100
AcDbEntity
  8
WAKU0
  6
CONTINUOUS
 62
3
100
AcDbCircle
 10
489.4474565857986
 20
18.78041421262813
 30
0.0000000000000000
 40
2.999999999999979
  0
ENDSEC
  0
SECTION
  2
OBJECTS
  0
DICTIONARY
  5
584
100
AcDbDictionary
  3
ACAD_GROUP
350
585
  3
ACAD_MLINESTYLE
350
586
  0
DICTIONARY
  5
585
102
{ACAD_REACTORS
330
584
102
}
100
AcDbDictionary
  0
DICTIONARY
  5
586
102
{ACAD_REACTORS
330
584
102
}
100
AcDbDictionary
  3
STANDARD
350
587
  0
MLINESTYLE
  5
587
102
{ACAD_REACTORS
330
586
102
}
100
AcDbMlineStyle
  2
STANDARD
 70
     0
  3

 62
   256
 51
90.00
 52
90.00
 71
     2
 49
0.50
 62
   256
  6
BYLAYER
 49
-0.50
 62
   256
  6
BYLAYER
  0
ENDSEC
  0
EOF
