  0
SECTION
  2
HEADER
  9
$ACADVER
  1
AC1014
  9
$DWGCODEPAGE
  3
ANSI_932
  9
$LTSCALE
 40
20.0
  9
$FILLMODE
 70
     1
  9
$CLAYER
  8
0
  9
$PDMODE
 70
     0
  9
$SPLFRAME
 70
     0
  9
$SPLINETYPE
 70
     6
  9
$SPLINESEGS
 70
     8
  9
$DIMASZ
 40
2.000000
  9
$DIMEXE
 40
2.000000
  9
$DIMEXO
 40
0.800000
  9
$DIMTAD
 70
     1
  9
$DIMTIH
 70
     0
  9
$DIMTOH
 70
     0
  9
$DIMTVP
 40
0.500000
  9
$DIMTXT
 40
3.100000
  9
$EXTMIN
 10
0.000000
 20
0.000000
 30
0.000000
  9
$EXTMAX
 10
420.000000
 20
594.000000
 30
0.000000
  9
$MEASUREMENT
 70
  1
  9
$LIMMIN
 10
0.000000
 20
0.000000
  9
$LIMMAX
 10
420.000000
 20
594.000000
  9
$HANDLING
 70
     1
  9
$HANDSEED
  5
4A5
  9
$DIMBLK
  1
_OPEN
  9
$DIMDEC
 70
     3
  9
$DIMAUNIT
 70
     1
  9
$DIMZIN
 70
     8
  9
$DIMTOFL
 70
     1
  0
ENDSEC
  0
SECTION
  2
CLASSES
  0
ENDSEC
  0
SECTION
  2
TABLES
  0
TABLE
  2
VPORT
  5
454
100
AcDbSymbolTable
 70
     1
  0
VPORT
  5
455
100
AcDbSymbolTableRecord
100
AcDbViewportTableRecord
  2
*ACTIVE
 70
     0
 12
297.000000
 22
210.000000
 40
420.000000
 41
1.414286
  0
ENDTAB
  0
TABLE
  2
LTYPE
  5
456
100
AcDbSymbolTable
 70
     5
  0
LTYPE
  5
457
100
AcDbSymbolTableRecord
100
AcDbLinetypeTableRecord
  2
BYBLOCK
 70
     0
  3

 72
    65
 73
     0
 40
0.0
  0
LTYPE
  5
458
100
AcDbSymbolTableRecord
100
AcDbLinetypeTableRecord
  2
BYLAYER
 70
     0
  3

 72
    65
 73
     0
 40
0.0
  0
LTYPE
  5
459
100
AcDbSymbolTableRecord
100
AcDbLinetypeTableRecord
  2
CONTINUOUS
 70
     0
  3
Solid line (NEC CAE2D for Win R14.2 : 2021.08.20)
 72
    65
 73
     0
 40
0.0
  0
LTYPE
  5
45A
100
AcDbSymbolTableRecord
100
AcDbLinetypeTableRecord
  2
DASHED
 70
     0
  3
__ __ __ __ __ __ __ __ __ __ __ __ __ _
 72
    65
 73
     2
 40
0.75
 49
0.5
 74
     0
 49
-0.25
 74
     0
  0
LTYPE
  5
45B
100
AcDbSymbolTableRecord
100
AcDbLinetypeTableRecord
  2
HIDDEN
 70
     0
  3
__ __ __ __ __ __ __ __ __ __ __ __ __ __
 72
    65
 73
     2
 40
0.375
 49
0.25
 74
     0
 49
-0.125
 74
     0
  0
LTYPE
  5
45C
100
AcDbSymbolTableRecord
100
AcDbLinetypeTableRecord
  2
CENTER
 70
     0
  3
____ _ ____ _ ____ _ ____ _ ____ _ ____
 72
    65
 73
     4
 40
2.0
 49
1.25
 74
     0
 49
-0.25
 74
     0
 49
0.25
 74
     0
 49
-0.25
 74
     0
  0
LTYPE
  5
45D
100
AcDbSymbolTableRecord
100
AcDbLinetypeTableRecord
  2
PHANTOM
 70
     0
  3
______  __  __  ______  __  __  ______ 
 72
    65
 73
     6
 40
2.5
 49
1.25
 74
     0
 49
-0.25
 74
     0
 49
0.25
 74
     0
 49
-0.25
 74
     0
 49
0.25
 74
     0
 49
-0.25
 74
     0
  0
ENDTAB
  0
TABLE
  2
LAYER
  5
45E
100
AcDbSymbolTable
 70
    11
  0
LAYER
  5
45F
100
AcDbSymbolTableRecord
100
AcDbLayerTableRecord
  2
0
 70
     0
 62
     7
  6
CONTINUOUS
  0
LAYER
  5
460
100
AcDbSymbolTableRecord
100
AcDbLayerTableRecord
  2
MAIN0
 70
     0
 62
     7
  6
CONTINUOUS
  0
LAYER
  5
461
100
AcDbSymbolTableRecord
100
AcDbLayerTableRecord
  2
MAIN1
 70
     0
 62
     7
  6
CONTINUOUS
  0
LAYER
  5
462
100
AcDbSymbolTableRecord
100
AcDbLayerTableRecord
  2
MAIN2
 70
     0
 62
     7
  6
CONTINUOUS
  0
LAYER
  5
463
100
AcDbSymbolTableRecord
100
AcDbLayerTableRecord
  2
MAIN3
 70
     0
 62
     7
  6
CONTINUOUS
  0
LAYER
  5
464
100
AcDbSymbolTableRecord
100
AcDbLayerTableRecord
  2
MAIN5
 70
     0
 62
     7
  6
CONTINUOUS
  0
LAYER
  5
465
100
AcDbSymbolTableRecord
100
AcDbLayerTableRecord
  2
MAIN6
 70
     0
 62
     7
  6
CONTINUOUS
  0
LAYER
  5
466
100
AcDbSymbolTableRecord
100
AcDbLayerTableRecord
  2
MAIN10
 70
     0
 62
     7
  6
CONTINUOUS
  0
LAYER
  5
467
100
AcDbSymbolTableRecord
100
AcDbLayerTableRecord
  2
MAIN1023
 70
     0
 62
    16
  6
CONTINUOUS
  0
LAYER
  5
468
100
AcDbSymbolTableRecord
100
AcDbLayerTableRecord
  2
WAKU0
 70
     0
 62
     7
  6
CONTINUOUS
  0
LAYER
  5
469
100
AcDbSymbolTableRecord
100
AcDbLayerTableRecord
  2
WAKU1023
 70
     0
 62
    16
  6
CONTINUOUS
  0
ENDTAB
  0
TABLE
  2
STYLE
  5
46A
100
AcDbSymbolTable
 70
     4
  0
STYLE
  5
46B
100
AcDbSymbolTableRecord
100
AcDbTextStyleTableRecord
  2
STANDARD
 70
    64
 40
0.0
 41
1.0
 50
0.0
 71
     0
 42
3.099999904632568
  3
TXT
  4

  0
STYLE
  5
46C
100
AcDbSymbolTableRecord
100
AcDbTextStyleTableRecord
  2
ANKTATE
 70
    68
 40
0.0
 41
1.0
 50
0.0
 71
     0
 42
3.099999904632568
  3
TXT
  4

  0
STYLE
  5
1B9
100
AcDbSymbolTableRecord
100
AcDbTextStyleTableRecord
  2
KNJYOKO
 70
    64
 40
0.0
 41
1.0
 50
0.0
 71
     0
 42
3.099999904632568
  3
TXT
  4
BIGFONT
  0
STYLE
  5
46D
100
AcDbSymbolTableRecord
100
AcDbTextStyleTableRecord
  2
KNJTATE
 70
    68
 40
0.0
 41
1.0
 50
0.0
 71
     0
 42
3.099999904632568
  3
TXT
  4
BIGFONT
  0
ENDTAB
  0
TABLE
  2
VIEW
  5
46E
100
AcDbSymbolTable
 70
     0
  0
ENDTAB
  0
TABLE
  2
UCS
  5
46F
100
AcDbSymbolTable
 70
     0
  0
ENDTAB
  0
TABLE
  2
APPID
  5
470
100
AcDbSymbolTable
 70
     1
  0
APPID
  5
471
100
AcDbSymbolTableRecord
100
AcDbRegAppTableRecord
  2
ACAD
 70
     0
  0
ENDTAB
  0
TABLE
  2
DIMSTYLE
  5
472
100
AcDbSymbolTable
 70
     1
  0
DIMSTYLE
105
473
100
AcDbSymbolTableRecord
100
AcDbDimStyleTableRecord
  2
STANDARD
 70
     0
 41
2.000000
 44
2.000000
 42
0.800000
145
0.661290
140
3.100000
144
1.000000
146
0.903226
340
46B
  0
DIMSTYLE
105
474
100
AcDbSymbolTableRecord
100
AcDbDimStyleTableRecord
  2
MAIN001
 70
     0
 41
2.000000
 44
2.000000
 42
0.800000
145
0.661290
140
3.100000
144
1.000000
146
0.903226
 77
     1
 73
     0
 74
     0
271
     3
275
     1
 78
     8
172
     1
340
46B
  0
DIMSTYLE
105
475
100
AcDbSymbolTableRecord
100
AcDbDimStyleTableRecord
  2
WAKU002
 70
     0
 41
2.000000
 44
2.000000
 42
0.800000
145
0.661290
140
3.100000
144
1.000000
146
0.903226
 77
     1
 73
     0
 74
     0
271
     3
275
     1
 78
     8
172
     1
340
46B
  0
ENDTAB
  0
TABLE
  2
BLOCK_RECORD
  5
476
100
AcDbSymbolTable
 70
    48
  0
BLOCK_RECORD
  5
477
100
AcDbSymbolTableRecord
100
AcDbBlockTableRecord
  2
*MODEL_SPACE
  0
BLOCK_RECORD
  5
478
100
AcDbSymbolTableRecord
100
AcDbBlockTableRecord
  2
*PAPER_SPACE
  0
BLOCK_RECORD
  5
1
100
AcDbSymbolTableRecord
100
AcDbBlockTableRecord
  2
_NONE
  0
BLOCK_RECORD
  5
4
100
AcDbSymbolTableRecord
100
AcDbBlockTableRecord
  2
_CLOSED
  0
BLOCK_RECORD
  5
B
100
AcDbSymbolTableRecord
100
AcDbBlockTableRecord
  2
_DOT
  0
BLOCK_RECORD
  5
13
100
AcDbSymbolTableRecord
100
AcDbBlockTableRecord
  2
_OPEN
  0
BLOCK_RECORD
  5
19
100
AcDbSymbolTableRecord
100
AcDbBlockTableRecord
  2
_ORIGIN
  0
BLOCK_RECORD
  5
1E
100
AcDbSymbolTableRecord
100
AcDbBlockTableRecord
  2
_OPEN30
  0
BLOCK_RECORD
  5
24
100
AcDbSymbolTableRecord
100
AcDbBlockTableRecord
  2
_BOXFILLED
  0
BLOCK_RECORD
  5
29
100
AcDbSymbolTableRecord
100
AcDbBlockTableRecord
  2
_BOXBLANK
  0
BLOCK_RECORD
  5
31
100
AcDbSymbolTableRecord
100
AcDbBlockTableRecord
  2
_OBLIQUE
  0
BLOCK_RECORD
  5
35
100
AcDbSymbolTableRecord
100
AcDbBlockTableRecord
  2
_OPEN90
  0
BLOCK_RECORD
  5
3B
100
AcDbSymbolTableRecord
100
AcDbBlockTableRecord
  2
_CLOSEDBLANK
  0
BLOCK_RECORD
  5
41
100
AcDbSymbolTableRecord
100
AcDbBlockTableRecord
  2
_DOTBLANK
  0
BLOCK_RECORD
  5
479
100
AcDbSymbolTableRecord
100
AcDbBlockTableRecord
  2
*D0
  0
BLOCK_RECORD
  5
47A
100
AcDbSymbolTableRecord
100
AcDbBlockTableRecord
  2
*D1
  0
BLOCK_RECORD
  5
47B
100
AcDbSymbolTableRecord
100
AcDbBlockTableRecord
  2
*D2
  0
BLOCK_RECORD
  5
47C
100
AcDbSymbolTableRecord
100
AcDbBlockTableRecord
  2
*D3
  0
BLOCK_RECORD
  5
47D
100
AcDbSymbolTableRecord
100
AcDbBlockTableRecord
  2
*D4
  0
BLOCK_RECORD
  5
47E
100
AcDbSymbolTableRecord
100
AcDbBlockTableRecord
  2
*D5
  0
BLOCK_RECORD
  5
47F
100
AcDbSymbolTableRecord
100
AcDbBlockTableRecord
  2
*D6
  0
BLOCK_RECORD
  5
480
100
AcDbSymbolTableRecord
100
AcDbBlockTableRecord
  2
*D7
  0
BLOCK_RECORD
  5
481
100
AcDbSymbolTableRecord
100
AcDbBlockTableRecord
  2
*D8
  0
BLOCK_RECORD
  5
482
100
AcDbSymbolTableRecord
100
AcDbBlockTableRecord
  2
*D9
  0
BLOCK_RECORD
  5
483
100
AcDbSymbolTableRecord
100
AcDbBlockTableRecord
  2
*D10
  0
BLOCK_RECORD
  5
484
100
AcDbSymbolTableRecord
100
AcDbBlockTableRecord
  2
*D11
  0
BLOCK_RECORD
  5
485
100
AcDbSymbolTableRecord
100
AcDbBlockTableRecord
  2
*D12
  0
BLOCK_RECORD
  5
486
100
AcDbSymbolTableRecord
100
AcDbBlockTableRecord
  2
*D13
  0
BLOCK_RECORD
  5
487
100
AcDbSymbolTableRecord
100
AcDbBlockTableRecord
  2
*D14
  0
BLOCK_RECORD
  5
488
100
AcDbSymbolTableRecord
100
AcDbBlockTableRecord
  2
*D15
  0
BLOCK_RECORD
  5
489
100
AcDbSymbolTableRecord
100
AcDbBlockTableRecord
  2
*D16
  0
BLOCK_RECORD
  5
48A
100
AcDbSymbolTableRecord
100
AcDbBlockTableRecord
  2
*D17
  0
BLOCK_RECORD
  5
48B
100
AcDbSymbolTableRecord
100
AcDbBlockTableRecord
  2
*D18
  0
BLOCK_RECORD
  5
48C
100
AcDbSymbolTableRecord
100
AcDbBlockTableRecord
  2
*D19
  0
BLOCK_RECORD
  5
48D
100
AcDbSymbolTableRecord
100
AcDbBlockTableRecord
  2
*D20
  0
BLOCK_RECORD
  5
48E
100
AcDbSymbolTableRecord
100
AcDbBlockTableRecord
  2
*D21
  0
BLOCK_RECORD
  5
48F
100
AcDbSymbolTableRecord
100
AcDbBlockTableRecord
  2
*D22
  0
BLOCK_RECORD
  5
490
100
AcDbSymbolTableRecord
100
AcDbBlockTableRecord
  2
*D23
  0
BLOCK_RECORD
  5
491
100
AcDbSymbolTableRecord
100
AcDbBlockTableRecord
  2
*D24
  0
BLOCK_RECORD
  5
492
100
AcDbSymbolTableRecord
100
AcDbBlockTableRecord
  2
*D25
  0
BLOCK_RECORD
  5
493
100
AcDbSymbolTableRecord
100
AcDbBlockTableRecord
  2
*D26
  0
BLOCK_RECORD
  5
494
100
AcDbSymbolTableRecord
100
AcDbBlockTableRecord
  2
*D27
  0
BLOCK_RECORD
  5
495
100
AcDbSymbolTableRecord
100
AcDbBlockTableRecord
  2
*D28
  0
BLOCK_RECORD
  5
496
100
AcDbSymbolTableRecord
100
AcDbBlockTableRecord
  2
*D29
  0
BLOCK_RECORD
  5
497
100
AcDbSymbolTableRecord
100
AcDbBlockTableRecord
  2
*D30
  0
BLOCK_RECORD
  5
498
100
AcDbSymbolTableRecord
100
AcDbBlockTableRecord
  2
*D31
  0
BLOCK_RECORD
  5
499
100
AcDbSymbolTableRecord
100
AcDbBlockTableRecord
  2
*D32
  0
BLOCK_RECORD
  5
49A
100
AcDbSymbolTableRecord
100
AcDbBlockTableRecord
  2
*D33
  0
BLOCK_RECORD
  5
49B
100
AcDbSymbolTableRecord
100
AcDbBlockTableRecord
  2
*D34
  0
BLOCK_RECORD
  5
49C
100
AcDbSymbolTableRecord
100
AcDbBlockTableRecord
  2
*D35
  0
ENDTAB
  0
ENDSEC
  0
SECTION
  2
BLOCKS
  0
BLOCK
  5
49D
100
AcDbEntity
  8
0
100
AcDbBlockBegin
  2
*MODEL_SPACE
 70
     0
 10
0.0
 20
0.0
 30
0.0
  3
*MODEL_SPACE
  1

  0
ENDBLK
  5
49E
100
AcDbEntity
  8
0
100
AcDbBlockEnd
  0
BLOCK
  5
49F
100
AcDbEntity
  8
0
100
AcDbBlockBegin
  2
*PAPER_SPACE
 70
     0
 10
0.0
 20
0.0
 30
0.0
  3
*PAPER_SPACE
  1

  0
ENDBLK
  5
4A0
100
AcDbEntity
  8
0
100
AcDbBlockEnd
  0
BLOCK
  5
2
100
AcDbEntity
  8
0
100
AcDbBlockBegin
  2
_NONE
 70
     0
 10
0.0
 20
0.0
 30
0.0
  3
_NONE
  1

  0
ENDBLK
  5
3
100
AcDbEntity
  8
0
100
AcDbBlockEnd
  0
BLOCK
  5
5
100
AcDbEntity
  8
0
100
AcDbBlockBegin
  2
_CLOSED
 70
     0
 10
0.0
 20
0.0
 30
0.0
  3
_CLOSED
  1

  0
LINE
  5
6
100
AcDbEntity
  8
0
  6
BYBLOCK
 62
     0
100
AcDbLine
 10
-1.0
 20
0.166667
 30
0.0
 11
0.0
 21
0.0
 31
0.0
  0
LINE
  5
7
100
AcDbEntity
  8
0
  6
BYBLOCK
 62
     0
100
AcDbLine
 10
0.0
 20
0.0
 30
0.0
 11
-1.0
 21
-0.166667
 31
0.0
  0
LINE
  5
8
100
AcDbEntity
  8
0
  6
BYBLOCK
 62
     0
100
AcDbLine
 10
-1.0
 20
0.166667
 30
0.0
 11
-1.0
 21
-0.166667
 31
0.0
  0
LINE
  5
9
100
AcDbEntity
  8
0
  6
BYBLOCK
 62
     0
100
AcDbLine
 10
0.0
 20
0.0
 30
0.0
 11
-1.0
 21
0.0
 31
0.0
  0
ENDBLK
  5
A
100
AcDbEntity
  8
0
100
AcDbBlockEnd
  0
BLOCK
  5
C
100
AcDbEntity
  8
0
100
AcDbBlockBegin
  2
_DOT
 70
     0
 10
0.0
 20
0.0
 30
0.0
  3
_DOT
  1

  0
POLYLINE
  5
D
100
AcDbEntity
  8
0
  6
BYBLOCK
 62
     0
100
AcDb2dPolyline
 66
     1
 10
0.0
 20
0.0
 30
0.0
 70
     1
 40
0.5
 41
0.5
  0
VERTEX
  5
E
100
AcDbEntity
  8
0
  6
BYBLOCK
 62
     0
100
AcDbVertex
100
AcDb2dVertex
 10
-0.25
 20
0.0
 30
0.0
 42
1.0
  0
VERTEX
  5
F
100
AcDbEntity
  8
0
  6
BYBLOCK
 62
     0
100
AcDbVertex
100
AcDb2dVertex
 10
0.25
 20
0.0
 30
0.0
 42
1.0
  0
SEQEND
  5
10
100
AcDbEntity
  8
0
  6
BYBLOCK
 62
     0
  0
LINE
  5
11
100
AcDbEntity
  8
0
  6
BYBLOCK
 62
     0
100
AcDbLine
 10
-0.5
 20
0.0
 30
0.0
 11
-1.0
 21
0.0
 31
0.0
  0
ENDBLK
  5
12
100
AcDbEntity
  8
0
100
AcDbBlockEnd
  0
BLOCK
  5
14
100
AcDbEntity
  8
0
100
AcDbBlockBegin
  2
_OPEN
 70
     0
 10
0.0
 20
0.0
 30
0.0
  3
_OPEN
  1

  0
LINE
  5
15
100
AcDbEntity
  8
0
  6
BYBLOCK
 62
     0
100
AcDbLine
 10
-1.0
 20
0.166667
 30
0.0
 11
0.0
 21
0.0
 31
0.0
  0
LINE
  5
16
100
AcDbEntity
  8
0
  6
BYBLOCK
 62
     0
100
AcDbLine
 10
0.0
 20
0.0
 30
0.0
 11
-1.0
 21
-0.166667
 31
0.0
  0
LINE
  5
17
100
AcDbEntity
  8
0
  6
BYBLOCK
 62
     0
100
AcDbLine
 10
0.0
 20
0.0
 30
0.0
 11
-1.0
 21
0.0
 31
0.0
  0
ENDBLK
  5
18
100
AcDbEntity
  8
0
100
AcDbBlockEnd
  0
BLOCK
  5
1A
100
AcDbEntity
  8
0
100
AcDbBlockBegin
  2
_ORIGIN
 70
     0
 10
0.0
 20
0.0
 30
0.0
  3
_ORIGIN
  1

  0
CIRCLE
  5
1B
100
AcDbEntity
  8
0
  6
BYBLOCK
 62
     0
100
AcDbCircle
 10
0.0
 20
0.0
 30
0.0
 40
0.5
  0
LINE
  5
1C
100
AcDbEntity
  8
0
  6
BYBLOCK
 62
     0
100
AcDbLine
 10
0.0
 20
0.0
 30
0.0
 11
-1.0
 21
0.0
 31
0.0
  0
ENDBLK
  5
1D
100
AcDbEntity
  8
0
100
AcDbBlockEnd
  0
BLOCK
  5
1F
100
AcDbEntity
  8
0
100
AcDbBlockBegin
  2
_OPEN30
 70
     0
 10
0.0
 20
0.0
 30
0.0
  3
_OPEN30
  1

  0
LINE
  5
20
100
AcDbEntity
  8
0
  6
BYBLOCK
 62
     0
100
AcDbLine
 10
-1.0
 20
0.267949
 30
0.0
 11
0.0
 21
0.0
 31
0.0
  0
LINE
  5
21
100
AcDbEntity
  8
0
  6
BYBLOCK
 62
     0
100
AcDbLine
 10
0.0
 20
0.0
 30
0.0
 11
-1.0
 21
-0.267949
 31
0.0
  0
LINE
  5
22
100
AcDbEntity
  8
0
  6
BYBLOCK
 62
     0
100
AcDbLine
 10
0.0
 20
0.0
 30
0.0
 11
-1.0
 21
0.0
 31
0.0
  0
ENDBLK
  5
23
100
AcDbEntity
  8
0
100
AcDbBlockEnd
  0
BLOCK
  5
25
100
AcDbEntity
  8
0
100
AcDbBlockBegin
  2
_BOXFILLED
 70
     0
 10
0.0
 20
0.0
 30
0.0
  3
_BOXFILLED
  1

  0
SOLID
  5
26
100
AcDbEntity
  8
0
  6
BYBLOCK
 62
     0
100
AcDbTrace
 10
-0.5
 20
0.5
 30
0.0
 11
0.5
 21
0.5
 31
0.0
 12
-0.5
 22
-0.5
 32
0.0
 13
0.5
 23
-0.5
 33
0.0
  0
LINE
  5
27
100
AcDbEntity
  8
0
  6
BYBLOCK
 62
     0
100
AcDbLine
 10
-0.5
 20
0.0
 30
0.0
 11
-1.0
 21
0.0
 31
0.0
  0
ENDBLK
  5
28
100
AcDbEntity
  8
0
100
AcDbBlockEnd
  0
BLOCK
  5
2A
100
AcDbEntity
  8
0
100
AcDbBlockBegin
  2
_BOXBLANK
 70
     0
 10
0.0
 20
0.0
 30
0.0
  3
_BOXBLANK
  1

  0
LINE
  5
2B
100
AcDbEntity
  8
0
  6
BYBLOCK
 62
     0
100
AcDbLine
 10
-0.5
 20
-0.5
 30
0.0
 11
0.5
 21
-0.5
 31
0.0
  0
LINE
  5
2C
100
AcDbEntity
  8
0
  6
BYBLOCK
 62
     0
100
AcDbLine
 10
0.5
 20
-0.5
 30
0.0
 11
0.5
 21
0.5
 31
0.0
  0
LINE
  5
2D
100
AcDbEntity
  8
0
  6
BYBLOCK
 62
     0
100
AcDbLine
 10
0.5
 20
0.5
 30
0.0
 11
-0.5
 21
0.5
 31
0.0
  0
LINE
  5
2E
100
AcDbEntity
  8
0
  6
BYBLOCK
 62
     0
100
AcDbLine
 10
-0.5
 20
0.5
 30
0.0
 11
-0.5
 21
-0.5
 31
0.0
  0
LINE
  5
2F
100
AcDbEntity
  8
0
  6
BYBLOCK
 62
     0
100
AcDbLine
 10
-0.5
 20
0.0
 30
0.0
 11
-1.0
 21
0.0
 31
0.0
  0
ENDBLK
  5
30
100
AcDbEntity
  8
0
100
AcDbBlockEnd
  0
BLOCK
  5
32
100
AcDbEntity
  8
0
100
AcDbBlockBegin
  2
_OBLIQUE
 70
     0
 10
0.0
 20
0.0
 30
0.0
  3
_OBLIQUE
  1

  0
LINE
  5
33
100
AcDbEntity
  8
0
  6
BYBLOCK
 62
     0
100
AcDbLine
 10
-0.5
 20
-0.5
 30
0.0
 11
0.5
 21
0.5
 31
0.0
  0
ENDBLK
  5
34
100
AcDbEntity
  8
0
100
AcDbBlockEnd
  0
BLOCK
  5
36
100
AcDbEntity
  8
0
100
AcDbBlockBegin
  2
_OPEN90
 70
     0
 10
0.0
 20
0.0
 30
0.0
  3
_OPEN90
  1

  0
LINE
  5
37
100
AcDbEntity
  8
0
  6
BYBLOCK
 62
     0
100
AcDbLine
 10
-0.5
 20
0.5
 30
0.0
 11
0.0
 21
0.0
 31
0.0
  0
LINE
  5
38
100
AcDbEntity
  8
0
  6
BYBLOCK
 62
     0
100
AcDbLine
 10
0.0
 20
0.0
 30
0.0
 11
-0.5
 21
-0.5
 31
0.0
  0
LINE
  5
39
100
AcDbEntity
  8
0
  6
BYBLOCK
 62
     0
100
AcDbLine
 10
0.0
 20
0.0
 30
0.0
 11
-1.0
 21
0.0
 31
0.0
  0
ENDBLK
  5
3A
100
AcDbEntity
  8
0
100
AcDbBlockEnd
  0
BLOCK
  5
3C
100
AcDbEntity
  8
0
100
AcDbBlockBegin
  2
_CLOSEDBLANK
 70
     0
 10
0.0
 20
0.0
 30
0.0
  3
_CLOSEDBLANK
  1

  0
LINE
  5
3D
100
AcDbEntity
  8
0
  6
BYBLOCK
 62
     0
100
AcDbLine
 10
-1.0
 20
0.1666666666666666
 30
0.0
 11
0.0
 21
0.0
 31
0.0
  0
LINE
  5
3E
100
AcDbEntity
  8
0
  6
BYBLOCK
 62
     0
100
AcDbLine
 10
0.0
 20
0.0
 30
0.0
 11
-1.0
 21
-0.1666666666666666
 31
0.0
  0
LINE
  5
3F
100
AcDbEntity
  8
0
  6
BYBLOCK
 62
     0
100
AcDbLine
 10
-1.0
 20
0.1666666666666666
 30
0.0
 11
-1.0
 21
-0.1666666666666666
 31
0.0
  0
ENDBLK
  5
40
100
AcDbEntity
  8
0
100
AcDbBlockEnd
  0
BLOCK
  5
42
100
AcDbEntity
  8
0
100
AcDbBlockBegin
  2
_DOTBLANK
 70
     0
 10
0.0
 20
0.0
 30
0.0
  3
_DOTBLANK
  1

  0
CIRCLE
  5
43
100
AcDbEntity
  8
0
  6
BYBLOCK
 62
     0
100
AcDbCircle
 10
0.0
 20
0.0
 30
0.0
 40
0.5
  0
LINE
  5
44
100
AcDbEntity
  8
0
  6
BYBLOCK
 62
     0
100
AcDbLine
 10
-0.5
 20
0.0
 30
0.0
 11
-1.0
 21
0.0
 31
0.0
  0
ENDBLK
  5
45
100
AcDbEntity
  8
0
100
AcDbBlockEnd
  0
BLOCK
  5
E3
100
AcDbEntity
  8
MAIN10
  6
CONTINUOUS
 62
12
100
AcDbBlockBegin
  2
*D0
 70
    65
 10
0.0
 20
0.0
 30
0.0
  0
LINE
  5
E4
100
AcDbEntity
  8
MAIN10
  6
BYBLOCK
 62
0
100
AcDbLine
 10
237.2719437323458
 20
359.8732411221789
 30
0.0000000000000000
 11
237.2719437323458
 21
387.4703409849021
 31
0.0000000000000000
  0
LINE
  5
E5
100
AcDbEntity
  8
MAIN10
  6
BYBLOCK
 62
0
100
AcDbLine
 10
239.1826159201510
 20
385.4703409849021
 30
0.0000000000000000
 11
258.6912715445405
 21
385.4703409849021
 31
0.0000000000000000
  0
INSERT
  5
E6
100
AcDbEntity
  8
MAIN10
  6
BYBLOCK
 62
0
100
AcDbBlockReference
  2
_OPEN
 10
237.2719437323458
 20
385.4703409849021
 30
0.0000000000000000
 41
1.910672187805176
 42
1.910672187805176
 43
1.910672187805176
 50
180.0000000000000
  0
INSERT
  5
E7
100
AcDbEntity
  8
MAIN10
  6
BYBLOCK
 62
0
100
AcDbBlockReference
  2
_OPEN
 10
260.6019437323457
 20
385.4703409849021
 30
0.0000000000000000
 41
1.910672187805176
 42
1.910672187805176
 43
1.910672187805176
 50
0.0000000000000000
  0
LINE
  5
E8
100
AcDbEntity
  8
MAIN10
  6
BYBLOCK
 62
0
100
AcDbLine
 10
260.6019437323457
 20
349.4732411221790
 30
0.0000000000000000
 11
260.6019437323457
 21
387.4703409849021
 31
0.0000000000000000
  0
MTEXT
  5
E9
100
AcDbEntity
  8
MAIN10
  6
BYBLOCK
 62
0
100
AcDbMText
 10
248.9369437323458
 20
387.5203409372184
 30
0.0000000000000000
 40
3.099999904632568
 41
0.0000000000000000
 71
     5
 72
     1
  1
\A1;23.33
 11
1.000000000000000
 21
0.0000000000000000
 31
0.0000000000000000
  7
STANDARD
  0
ENDBLK
  5
EA
100
AcDbEntity
  8
MAIN10
  6
CONTINUOUS
 62
12
100
AcDbBlockEnd
  0
BLOCK
  5
EC
100
AcDbEntity
  8
MAIN10
  6
CONTINUOUS
 62
12
100
AcDbBlockBegin
  2
*D1
 70
    65
 10
0.0
 20
0.0
 30
0.0
  0
LINE
  5
ED
100
AcDbEntity
  8
MAIN10
  6
BYBLOCK
 62
0
100
AcDbLine
 10
260.6019437323457
 20
349.4732411221790
 30
0.0000000000000000
 11
260.6019437323457
 21
387.4703409849021
 31
0.0000000000000000
  0
LINE
  5
EE
100
AcDbEntity
  8
MAIN10
  6
BYBLOCK
 62
0
100
AcDbLine
 10
262.5126159201509
 20
385.4703409849021
 30
0.0000000000000000
 11
312.8612715445407
 21
385.4703409849021
 31
0.0000000000000000
  0
INSERT
  5
EF
100
AcDbEntity
  8
MAIN10
  6
BYBLOCK
 62
0
100
AcDbBlockReference
  2
_OPEN
 10
260.6019437323457
 20
385.4703409849021
 30
0.0000000000000000
 41
1.910672187805176
 42
1.910672187805176
 43
1.910672187805176
 50
180.0000000000000
  0
INSERT
  5
F0
100
AcDbEntity
  8
MAIN10
  6
BYBLOCK
 62
0
100
AcDbBlockReference
  2
_OPEN
 10
314.7719437323459
 20
385.4703409849021
 30
0.0000000000000000
 41
1.910672187805176
 42
1.910672187805176
 43
1.910672187805176
 50
0.0000000000000000
  0
LINE
  5
F1
100
AcDbEntity
  8
MAIN10
  6
BYBLOCK
 62
0
100
AcDbLine
 10
314.7719437323459
 20
349.7732411221790
 30
0.0000000000000000
 11
314.7719437323459
 21
387.4703409849021
 31
0.0000000000000000
  0
MTEXT
  5
F2
100
AcDbEntity
  8
MAIN10
  6
BYBLOCK
 62
0
100
AcDbMText
 10
287.6869437323458
 20
387.5203409372184
 30
0.0000000000000000
 40
3.099999904632568
 41
0.0000000000000000
 71
     5
 72
     1
  1
\A1;54.17
 11
1.000000000000000
 21
0.0000000000000000
 31
0.0000000000000000
  7
STANDARD
  0
ENDBLK
  5
F3
100
AcDbEntity
  8
MAIN10
  6
CONTINUOUS
 62
12
100
AcDbBlockEnd
  0
BLOCK
  5
F5
100
AcDbEntity
  8
MAIN10
  6
CONTINUOUS
 62
12
100
AcDbBlockBegin
  2
*D2
 70
    65
 10
0.0
 20
0.0
 30
0.0
  0
LINE
  5
F6
100
AcDbEntity
  8
MAIN10
  6
BYBLOCK
 62
0
100
AcDbLine
 10
535.8089747305086
 20
208.2100940268433
 30
0.0000000000000000
 11
542.9196503222699
 21
204.1047435598197
 31
0.0000000000000000
  0
ARC
  5
F7
100
AcDbEntity
  8
MAIN10
  6
BYBLOCK
 62
0
100
AcDbCircle
 10
444.2473181340483
 20
261.0732411102581
 30
0.0000000000000000
 40
111.9369951008796
100
AcDbArc
 50
330.9779917023463
 51
359.0220082976533
  0
INSERT
  5
F8
100
AcDbEntity
  8
MAIN10
  6
BYBLOCK
 62
0
100
AcDbBlockReference
  2
_OPEN
 10
541.1875995147042
 20
205.1047435598180
 30
0.0000000000000000
 41
1.910672187805176
 42
1.910672187805176
 43
1.910672187805176
 50
239.9999999999999
  0
INSERT
  5
F9
100
AcDbEntity
  8
MAIN10
  6
BYBLOCK
 62
0
100
AcDbBlockReference
  2
_OPEN
 10
556.1843132349279
 20
261.0732411102577
 30
0.0000000000000000
 41
1.910672187805176
 42
1.910672187805176
 43
1.910672187805176
 50
89.99999999999977
  0
MTEXT
  5
FA
100
AcDbEntity
  8
MAIN10
  6
BYBLOCK
 62
0
100
AcDbMText
 10
550.3900047213472
 20
232.6323939567212
 30
0.0000000000000000
 40
3.099999904632568
 41
0.0000000000000000
 71
     5
 72
     1
  1
\A1;30\U+00B0
 11
0.2588190451025240
 21
0.9659258262890674
 31
0.0000000000000000
  7
STANDARD
  0
ENDBLK
  5
FB
100
AcDbEntity
  8
MAIN10
  6
CONTINUOUS
 62
12
100
AcDbBlockEnd
  0
BLOCK
  5
FD
100
AcDbEntity
  8
MAIN0
  6
CONTINUOUS
 62
12
100
AcDbBlockBegin
  2
*D3
 70
    65
 10
0.0
 20
0.0
 30
0.0
  0
LINE
  5
FE
100
AcDbEntity
  8
MAIN10
  6
BYBLOCK
 62
0
100
AcDbLine
 10
516.0389762929433
 20
302.5221742738659
 30
0.0000000000000000
 11
542.9196503222727
 21
318.0417386606978
 31
0.0000000000000000
  0
ARC
  5
FF
100
AcDbEntity
  8
MAIN10
  6
BYBLOCK
 62
0
100
AcDbCircle
 10
444.2473181340482
 20
261.0732411102581
 30
0.0000000000000000
 40
111.9369951008798
100
AcDbArc
 50
0.9779917023465240
 51
29.02200829765350
  0
INSERT
  5
100
100
AcDbEntity
  8
MAIN10
  6
BYBLOCK
 62
0
100
AcDbBlockReference
  2
_OPEN
 10
556.1843132349280
 20
261.0732411102581
 30
0.0000000000000000
 41
1.910672187805176
 42
1.910672187805176
 43
1.910672187805176
 50
270.0000000000000
  0
INSERT
  5
101
100
AcDbEntity
  8
MAIN10
  6
BYBLOCK
 62
0
100
AcDbBlockReference
  2
_OPEN
 10
541.1875995147044
 20
317.0417386606981
 30
0.0000000000000000
 41
1.910672187805176
 42
1.910672187805176
 43
1.910672187805176
 50
120.0000000000000
  0
MTEXT
  5
102
100
AcDbEntity
  8
MAIN10
  6
BYBLOCK
 62
0
100
AcDbMText
 10
550.3900047213473
 20
289.5140882637946
 30
0.0000000000000000
 40
3.099999904632568
 41
0.0000000000000000
 71
     5
 72
     1
  1
\A1;30\U+00B0
 11
-0.2588190451025209
 21
0.9659258262890683
 31
0.0000000000000000
  7
STANDARD
  0
ENDBLK
  5
103
100
AcDbEntity
  8
MAIN0
  6
CONTINUOUS
 62
12
100
AcDbBlockEnd
  0
BLOCK
  5
105
100
AcDbEntity
  8
MAIN10
  6
CONTINUOUS
 62
12
100
AcDbBlockBegin
  2
*D4
 70
    65
 10
0.0
 20
0.0
 30
0.0
  0
LINE
  5
106
100
AcDbEntity
  8
MAIN10
  6
BYBLOCK
 62
0
100
AcDbLine
 10
237.4719437442667
 20
184.3982411102581
 30
0.0000000000000000
 11
263.3378725803286
 21
184.3982411102581
 31
0.0000000000000000
  0
LINE
  5
107
100
AcDbEntity
  8
MAIN10
  6
BYBLOCK
 62
0
100
AcDbLine
 10
261.3378725803286
 20
186.3089132980633
 30
0.0000000000000000
 11
261.3378725803286
 21
202.4875689224531
 31
0.0000000000000000
  0
INSERT
  5
108
100
AcDbEntity
  8
MAIN10
  6
BYBLOCK
 62
0
100
AcDbBlockReference
  2
_OPEN
 10
261.3378725803286
 20
184.3982411102581
 30
0.0000000000000000
 41
1.910672187805176
 42
1.910672187805176
 43
1.910672187805176
 50
270.0000000000000
  0
INSERT
  5
109
100
AcDbEntity
  8
MAIN10
  6
BYBLOCK
 62
0
100
AcDbBlockReference
  2
_OPEN
 10
261.3378725803286
 20
204.3982411102583
 30
0.0000000000000000
 41
1.910672187805176
 42
1.910672187805176
 43
1.910672187805176
 50
90.00000000000000
  0
LINE
  5
10A
100
AcDbEntity
  8
MAIN10
  6
BYBLOCK
 62
0
100
AcDbLine
 10
237.4719437442667
 20
204.3982411102583
 30
0.0000000000000000
 11
263.3378725803286
 21
204.3982411102583
 31
0.0000000000000000
  0
MTEXT
  5
10B
100
AcDbEntity
  8
MAIN10
  6
BYBLOCK
 62
0
100
AcDbMText
 10
259.2878726280123
 20
194.3982411102582
 30
0.0000000000000000
 40
3.099999904632568
 41
0.0000000000000000
 71
     5
 72
     1
  1
\A1;\U+220520
 11
6.123233995736766e-017
 21
1.000000000000000
 31
0.0000000000000000
  7
STANDARD
  0
ENDBLK
  5
10C
100
AcDbEntity
  8
MAIN10
  6
CONTINUOUS
 62
12
100
AcDbBlockEnd
  0
BLOCK
  5
10E
100
AcDbEntity
  8
MAIN10
  6
CONTINUOUS
 62
12
100
AcDbBlockBegin
  2
*D5
 70
    65
 10
0.0
 20
0.0
 30
0.0
  0
LINE
  5
10F
100
AcDbEntity
  8
MAIN10
  6
BYBLOCK
 62
0
100
AcDbLine
 10
265.6019437323458
 20
79.99563833294491
 30
0.0000000000000000
 11
287.5604464182662
 21
79.99563833294491
 31
0.0000000000000000
  0
LINE
  5
110
100
AcDbEntity
  8
MAIN10
  6
BYBLOCK
 62
0
100
AcDbLine
 10
285.5604464182662
 20
81.90631052075008
 30
0.0000000000000000
 11
285.5604464182662
 21
122.5349661451398
 31
0.0000000000000000
  0
INSERT
  5
111
100
AcDbEntity
  8
MAIN10
  6
BYBLOCK
 62
0
100
AcDbBlockReference
  2
_OPEN
 10
285.5604464182662
 20
79.99563833294491
 30
0.0000000000000000
 41
1.910672187805176
 42
1.910672187805176
 43
1.910672187805176
 50
270.0000000000000
  0
INSERT
  5
112
100
AcDbEntity
  8
MAIN10
  6
BYBLOCK
 62
0
100
AcDbBlockReference
  2
_OPEN
 10
285.5604464182662
 20
124.4456383329450
 30
0.0000000000000000
 41
1.910672187805176
 42
1.910672187805176
 43
1.910672187805176
 50
90.00000000000000
  0
LINE
  5
113
100
AcDbEntity
  8
MAIN10
  6
BYBLOCK
 62
0
100
AcDbLine
 10
265.6019437323456
 20
124.4456383329450
 30
0.0000000000000000
 11
287.5604464182662
 21
124.4456383329450
 31
0.0000000000000000
  0
MTEXT
  5
114
100
AcDbEntity
  8
MAIN10
  6
BYBLOCK
 62
0
100
AcDbMText
 10
283.5104464659499
 20
102.2206383329449
 30
0.0000000000000000
 40
3.099999904632568
 41
0.0000000000000000
 71
     5
 72
     1
  1
\A1;44.45h7
 11
6.123233995736766e-017
 21
1.000000000000000
 31
0.0000000000000000
  7
STANDARD
  0
ENDBLK
  5
115
100
AcDbEntity
  8
MAIN10
  6
CONTINUOUS
 62
12
100
AcDbBlockEnd
  0
BLOCK
  5
117
100
AcDbEntity
  8
MAIN10
  6
CONTINUOUS
 62
12
100
AcDbBlockBegin
  2
*D6
 70
    65
 10
0.0
 20
0.0
 30
0.0
  0
LINE
  5
118
100
AcDbEntity
  8
MAIN10
  6
BYBLOCK
 62
0
100
AcDbLine
 10
199.0170332124438
 20
189.5589132980634
 30
0.0000000000000000
 11
199.0170332124438
 21
199.2375689224531
 31
0.0000000000000000
  0
INSERT
  5
119
100
AcDbEntity
  8
MAIN10
  6
BYBLOCK
 62
0
100
AcDbBlockReference
  2
_OPEN
 10
199.0170332124438
 20
187.6482411102582
 30
0.0000000000000000
 41
1.910672187805176
 42
1.910672187805176
 43
1.910672187805176
 50
270.0000000000000
  0
INSERT
  5
11A
100
AcDbEntity
  8
MAIN10
  6
BYBLOCK
 62
0
100
AcDbBlockReference
  2
_OPEN
 10
199.0170332124438
 20
201.1482411102583
 30
0.0000000000000000
 41
1.910672187805176
 42
1.910672187805176
 43
1.910672187805176
 50
90.00000000000000
  0
MTEXT
  5
11B
100
AcDbEntity
  8
MAIN10
  6
BYBLOCK
 62
0
100
AcDbMText
 10
196.9670332601275
 20
194.3982411102582
 30
0.0000000000000000
 40
3.099999904632568
 41
0.0000000000000000
 71
     5
 72
     1
  1
\A1;\U+220513.5
 11
6.123233995736766e-017
 21
1.000000000000000
 31
0.0000000000000000
  7
STANDARD
  0
ENDBLK
  5
11C
100
AcDbEntity
  8
MAIN10
  6
CONTINUOUS
 62
12
100
AcDbBlockEnd
  0
BLOCK
  5
11E
100
AcDbEntity
  8
MAIN10
  6
CONTINUOUS
 62
12
100
AcDbBlockBegin
  2
*D7
 70
    65
 10
0.0
 20
0.0
 30
0.0
  0
LINE
  5
11F
100
AcDbEntity
  8
MAIN10
  6
BYBLOCK
 62
0
100
AcDbLine
 10
415.7473181342310
 20
348.9732411102581
 30
0.0000000000000000
 11
415.7473181342310
 21
387.4703409849021
 31
0.0000000000000000
  0
LINE
  5
120
100
AcDbEntity
  8
MAIN10
  6
BYBLOCK
 62
0
100
AcDbLine
 10
417.6579903220362
 20
385.4703409849021
 30
0.0000000000000000
 11
470.8366459464259
 21
385.4703409849021
 31
0.0000000000000000
  0
INSERT
  5
121
100
AcDbEntity
  8
MAIN10
  6
BYBLOCK
 62
0
100
AcDbBlockReference
  2
_OPEN
 10
415.7473181342310
 20
385.4703409849021
 30
0.0000000000000000
 41
1.910672187805176
 42
1.910672187805176
 43
1.910672187805176
 50
180.0000000000000
  0
INSERT
  5
122
100
AcDbEntity
  8
MAIN10
  6
BYBLOCK
 62
0
100
AcDbBlockReference
  2
_OPEN
 10
472.7473181342310
 20
385.4703409849021
 30
0.0000000000000000
 41
1.910672187805176
 42
1.910672187805176
 43
1.910672187805176
 50
0.0000000000000000
  0
LINE
  5
123
100
AcDbEntity
  8
MAIN10
  6
BYBLOCK
 62
0
100
AcDbLine
 10
472.7473181342310
 20
348.9732411102580
 30
0.0000000000000000
 11
472.7473181342310
 21
387.4703409849021
 31
0.0000000000000000
  0
MTEXT
  5
124
100
AcDbEntity
  8
MAIN10
  6
BYBLOCK
 62
0
100
AcDbMText
 10
444.2473181342310
 20
387.5203409372184
 30
0.0000000000000000
 40
3.099999904632568
 41
0.0000000000000000
 71
     5
 72
     1
  1
\A1;57
 11
1.000000000000000
 21
0.0000000000000000
 31
0.0000000000000000
  7
STANDARD
  0
ENDBLK
  5
125
100
AcDbEntity
  8
MAIN10
  6
CONTINUOUS
 62
12
100
AcDbBlockEnd
  0
BLOCK
  5
127
100
AcDbEntity
  8
MAIN10
  6
CONTINUOUS
 62
12
100
AcDbBlockBegin
  2
*D8
 70
    65
 10
0.0
 20
0.0
 30
0.0
  0
LINE
  5
128
100
AcDbEntity
  8
MAIN10
  6
BYBLOCK
 62
0
100
AcDbLine
 10
260.6019437323457
 20
349.4732411221790
 30
0.0000000000000000
 11
260.6019437323457
 21
376.9275966375078
 31
0.0000000000000000
  0
LINE
  5
129
100
AcDbEntity
  8
MAIN10
  6
BYBLOCK
 62
0
100
AcDbLine
 10
262.5126159201509
 20
374.9275966375078
 30
0.0000000000000000
 11
288.0912715445406
 21
374.9275966375078
 31
0.0000000000000000
  0
INSERT
  5
12A
100
AcDbEntity
  8
MAIN10
  6
BYBLOCK
 62
0
100
AcDbBlockReference
  2
_OPEN
 10
260.6019437323457
 20
374.9275966375078
 30
0.0000000000000000
 41
1.910672187805176
 42
1.910672187805176
 43
1.910672187805176
 50
180.0000000000000
  0
INSERT
  5
12B
100
AcDbEntity
  8
MAIN10
  6
BYBLOCK
 62
0
100
AcDbBlockReference
  2
_OPEN
 10
290.0019437323458
 20
374.9275966375078
 30
0.0000000000000000
 41
1.910672187805176
 42
1.910672187805176
 43
1.910672187805176
 50
0.0000000000000000
  0
LINE
  5
12C
100
AcDbEntity
  8
MAIN10
  6
BYBLOCK
 62
0
100
AcDbLine
 10
290.0019437323458
 20
322.0232411221788
 30
0.0000000000000000
 11
290.0019437323458
 21
376.9275966375078
 31
0.0000000000000000
  0
MTEXT
  5
12D
100
AcDbEntity
  8
MAIN10
  6
BYBLOCK
 62
0
100
AcDbMText
 10
275.3019437323458
 20
376.9775965898240
 30
0.0000000000000000
 40
3.099999904632568
 41
0.0000000000000000
 71
     5
 72
     1
  1
\A1;29.4
 11
1.000000000000000
 21
0.0000000000000000
 31
0.0000000000000000
  7
STANDARD
  0
ENDBLK
  5
12E
100
AcDbEntity
  8
MAIN10
  6
CONTINUOUS
 62
12
100
AcDbBlockEnd
  0
BLOCK
  5
130
100
AcDbEntity
  8
MAIN10
  6
CONTINUOUS
 62
12
100
AcDbBlockBegin
  2
*D9
 70
    65
 10
0.0
 20
0.0
 30
0.0
  0
LINE
  5
131
100
AcDbEntity
  8
MAIN10
  6
BYBLOCK
 62
0
100
AcDbLine
 10
435.7116718374657
 20
242.8874270167003
 30
0.0000000000000000
 11
452.7829644306329
 21
279.2590552038158
 31
0.0000000000000000
  0
INSERT
  5
132
100
AcDbEntity
  8
MAIN10
  6
BYBLOCK
 62
0
100
AcDbBlockReference
  2
_OPEN
 10
434.8998566221292
 20
241.1577957654216
 30
0.0000000000000000
 41
1.910672187805176
 42
1.910672187805176
 43
1.910672187805176
 50
244.8566399142023
  0
INSERT
  5
133
100
AcDbEntity
  8
MAIN10
  6
BYBLOCK
 62
0
100
AcDbBlockReference
  2
_OPEN
 10
453.5947796459694
 20
280.9886864550946
 30
0.0000000000000000
 41
1.910672187805176
 42
1.910672187805176
 43
1.910672187805176
 50
64.85663991420228
  0
MTEXT
  5
134
100
AcDbEntity
  8
MAIN10
  6
BYBLOCK
 62
0
100
AcDbMText
 10
438.3443836077229
 20
253.3214503545932
 30
0.0000000000000000
 40
3.100000381469727
 41
0.0000000000000000
 71
     5
 72
     1
  1
\A1;\U+220544
 11
0.4248846141781891
 21
0.9052475156743880
 31
0.0000000000000000
  7
STANDARD
  0
ENDBLK
  5
135
100
AcDbEntity
  8
MAIN10
  6
CONTINUOUS
 62
12
100
AcDbBlockEnd
  0
BLOCK
  5
137
100
AcDbEntity
  8
MAIN10
  6
CONTINUOUS
 62
12
100
AcDbBlockBegin
  2
*D10
 70
    65
 10
0.0
 20
0.0
 30
0.0
  0
LINE
  5
138
100
AcDbEntity
  8
MAIN10
  6
BYBLOCK
 62
0
100
AcDbLine
 10
460.6420329772573
 20
222.4532508981043
 30
0.0000000000000000
 11
526.8393069434017
 21
242.5432313224113
 31
0.0000000000000000
  0
INSERT
  5
139
100
AcDbEntity
  8
MAIN10
  6
BYBLOCK
 62
0
100
AcDbBlockReference
  2
_OPEN
 10
458.8137047286950
 20
221.8983779173588
 30
0.0000000000000000
 41
1.910672187805176
 42
1.910672187805176
 43
1.910672187805176
 50
196.8823367054130
  0
INSERT
  5
13A
100
AcDbEntity
  8
MAIN10
  6
BYBLOCK
 62
0
100
AcDbBlockReference
  2
_OPEN
 10
528.6676351919639
 20
243.0981043031569
 30
0.0000000000000000
 41
1.910672187805176
 42
1.910672187805176
 43
1.910672187805176
 50
16.88233670541295
  0
MTEXT
  5
13B
100
AcDbEntity
  8
MAIN10
  6
BYBLOCK
 62
0
100
AcDbMText
 10
510.2813628786713
 20
239.6604459754876
 30
0.0000000000000000
 40
3.099999904632568
 41
0.0000000000000000
 71
     5
 72
     1
  1
\A1;\U+220573
 11
0.9569031570310890
 21
0.2904072107643596
 31
0.0000000000000000
  7
STANDARD
  0
ENDBLK
  5
13C
100
AcDbEntity
  8
MAIN10
  6
CONTINUOUS
 62
12
100
AcDbBlockEnd
  0
BLOCK
  5
13E
100
AcDbEntity
  8
MAIN10
  6
CONTINUOUS
 62
12
100
AcDbBlockBegin
  2
*D11
 70
    65
 10
0.0
 20
0.0
 30
0.0
  0
LINE
  5
13F
100
AcDbEntity
  8
MAIN10
  6
BYBLOCK
 62
0
100
AcDbLine
 10
221.2719437323458
 20
205.1982411221791
 30
0.0000000000000000
 11
221.2719437323458
 21
211.5890292410154
 31
0.0000000000000000
  0
LINE
  5
140
100
AcDbEntity
  8
MAIN10
  6
BYBLOCK
 62
0
100
AcDbLine
 10
223.1826159201510
 20
209.5890292410154
 30
0.0000000000000000
 11
235.3612715445406
 21
209.5890292410154
 31
0.0000000000000000
  0
INSERT
  5
141
100
AcDbEntity
  8
MAIN10
  6
BYBLOCK
 62
0
100
AcDbBlockReference
  2
_OPEN
 10
221.2719437323458
 20
209.5890292410154
 30
0.0000000000000000
 41
1.910672187805176
 42
1.910672187805176
 43
1.910672187805176
 50
180.0000000000000
  0
INSERT
  5
142
100
AcDbEntity
  8
MAIN10
  6
BYBLOCK
 62
0
100
AcDbBlockReference
  2
_OPEN
 10
237.2719437323458
 20
209.5890292410154
 30
0.0000000000000000
 41
1.910672187805176
 42
1.910672187805176
 43
1.910672187805176
 50
0.0000000000000000
  0
MTEXT
  5
143
100
AcDbEntity
  8
MAIN10
  6
BYBLOCK
 62
0
100
AcDbMText
 10
229.2719437323458
 20
211.6390291933317
 30
0.0000000000000000
 40
3.099999904632568
 41
0.0000000000000000
 71
     5
 72
     1
  1
\A1;16
 11
1.000000000000000
 21
0.0000000000000000
 31
0.0000000000000000
  7
STANDARD
  0
ENDBLK
  5
144
100
AcDbEntity
  8
MAIN10
  6
CONTINUOUS
 62
12
100
AcDbBlockEnd
  0
BLOCK
  5
146
100
AcDbEntity
  8
MAIN10
  6
CONTINUOUS
 62
12
100
AcDbBlockBegin
  2
*D12
 70
    65
 10
0.0
 20
0.0
 30
0.0
  0
LINE
  5
147
100
AcDbEntity
  8
MAIN10
  6
BYBLOCK
 62
0
100
AcDbLine
 10
212.2722050882901
 20
172.7083364385816
 30
0.0000000000000000
 11
212.2722050882901
 21
143.3186278460520
 31
0.0000000000000000
  0
LINE
  5
148
100
AcDbEntity
  8
MAIN10
  6
BYBLOCK
 62
0
100
AcDbLine
 10
214.1828772760953
 20
145.3186278460520
 30
0.0000000000000000
 11
235.3612715445406
 21
145.3186278460520
 31
0.0000000000000000
  0
INSERT
  5
149
100
AcDbEntity
  8
MAIN10
  6
BYBLOCK
 62
0
100
AcDbBlockReference
  2
_OPEN
 10
212.2722050882901
 20
145.3186278460520
 30
0.0000000000000000
 41
1.910672187805176
 42
1.910672187805176
 43
1.910672187805176
 50
180.0000000000000
  0
INSERT
  5
14A
100
AcDbEntity
  8
MAIN10
  6
BYBLOCK
 62
0
100
AcDbBlockReference
  2
_OPEN
 10
237.2719437323458
 20
145.3186278460520
 30
0.0000000000000000
 41
1.910672187805176
 42
1.910672187805176
 43
1.910672187805176
 50
0.0000000000000000
  0
LINE
  5
14B
100
AcDbEntity
  8
MAIN10
  6
BYBLOCK
 62
0
100
AcDbLine
 10
237.2719437323458
 20
163.0732411102582
 30
0.0000000000000000
 11
237.2719437323458
 21
143.3186278460520
 31
0.0000000000000000
  0
MTEXT
  5
14C
100
AcDbEntity
  8
MAIN10
  6
BYBLOCK
 62
0
100
AcDbMText
 10
224.7720744103180
 20
147.3686277983683
 30
0.0000000000000000
 40
3.099999904632568
 41
0.0000000000000000
 71
     5
 72
     1
  1
\A1;25
 11
1.000000000000000
 21
0.0000000000000000
 31
0.0000000000000000
  7
STANDARD
  0
ENDBLK
  5
14D
100
AcDbEntity
  8
MAIN10
  6
CONTINUOUS
 62
12
100
AcDbBlockEnd
  0
BLOCK
  5
14F
100
AcDbEntity
  8
MAIN10
  6
CONTINUOUS
 62
12
100
AcDbBlockBegin
  2
*D13
 70
    65
 10
0.0
 20
0.0
 30
0.0
  0
LINE
  5
150
100
AcDbEntity
  8
MAIN10
  6
BYBLOCK
 62
0
100
AcDbLine
 10
516.0389762929433
 20
302.5221742738659
 30
0.0000000000000000
 11
542.9196503222727
 21
318.0417386606978
 31
0.0000000000000000
  0
LINE
  5
151
100
AcDbEntity
  8
MAIN10
  6
BYBLOCK
 62
0
100
AcDbLine
 10
502.9062631013337
 20
319.7321860775425
 30
0.0000000000000000
 11
524.8129399978981
 21
341.6388629741068
 31
0.0000000000000000
  0
ARC
  5
152
100
AcDbEntity
  8
MAIN10
  6
BYBLOCK
 62
0
100
AcDbCircle
 10
444.2473181340511
 20
261.0732411102598
 30
0.0000000000000000
 40
111.9369951008764
100
AcDbArc
 50
30.97799170234658
 51
44.02200829765345
  0
INSERT
  5
153
100
AcDbEntity
  8
MAIN10
  6
BYBLOCK
 62
0
100
AcDbBlockReference
  2
_OPEN
 10
541.1875995147043
 20
317.0417386606981
 30
0.0000000000000000
 41
1.910672187805176
 42
1.910672187805176
 43
1.910672187805176
 50
300.0000000000000
  0
INSERT
  5
154
100
AcDbEntity
  8
MAIN10
  6
BYBLOCK
 62
0
100
AcDbBlockReference
  2
_OPEN
 10
523.3987264355261
 20
340.2246494117348
 30
0.0000000000000000
 41
1.910672187805176
 42
1.910672187805176
 43
1.910672187805176
 50
135.0000000000000
  0
MTEXT
  5
155
100
AcDbEntity
  8
MAIN10
  6
BYBLOCK
 62
0
100
AcDbMText
 10
534.6792814092620
 20
330.4641271072513
 30
0.0000000000000000
 40
3.099999904632568
 41
0.0000000000000000
 71
     5
 72
     1
  1
\A1;15\U+00B0
 11
0.6087614290087205
 21
-0.7933533402912352
 31
0.0000000000000000
  7
STANDARD
  0
ENDBLK
  5
156
100
AcDbEntity
  8
MAIN10
  6
CONTINUOUS
 62
12
100
AcDbBlockEnd
  0
BLOCK
  5
158
100
AcDbEntity
  8
MAIN10
  6
CONTINUOUS
 62
12
100
AcDbBlockBegin
  2
*D14
 70
    65
 10
0.0
 20
0.0
 30
0.0
  0
LINE
  5
159
100
AcDbEntity
  8
MAIN10
  6
BYBLOCK
 62
0
100
AcDbLine
 10
502.9062631013337
 20
319.7321860775425
 30
0.0000000000000000
 11
524.8129399978981
 21
341.6388629741068
 31
0.0000000000000000
  0
LINE
  5
15A
100
AcDbEntity
  8
MAIN10
  6
BYBLOCK
 62
0
100
AcDbLine
 10
444.2473181340494
 20
366.4176751540640
 30
0.0000000000000000
 11
444.2473181340494
 21
375.0102362111368
 31
0.0000000000000000
  0
ARC
  5
15B
100
AcDbEntity
  8
MAIN10
  6
BYBLOCK
 62
0
100
AcDbCircle
 10
444.2473181340494
 20
261.0732411102582
 30
0.0000000000000000
 40
111.9369951008787
100
AcDbArc
 50
45.97799170234651
 51
89.02200829765316
  0
INSERT
  5
15C
100
AcDbEntity
  8
MAIN10
  6
BYBLOCK
 62
0
100
AcDbBlockReference
  2
_OPEN
 10
523.3987264355261
 20
340.2246494117348
 30
0.0000000000000000
 41
1.910672187805176
 42
1.910672187805176
 43
1.910672187805176
 50
315.0000000000000
  0
INSERT
  5
15D
100
AcDbEntity
  8
MAIN10
  6
BYBLOCK
 62
0
100
AcDbBlockReference
  2
_OPEN
 10
444.2473181340500
 20
373.0102362111369
 30
0.0000000000000000
 41
1.910672187805176
 42
1.910672187805176
 43
1.910672187805176
 50
179.9999999999997
  0
MTEXT
  5
15E
100
AcDbEntity
  8
MAIN10
  6
BYBLOCK
 62
0
100
AcDbMText
 10
487.8682526459888
 20
366.3834928123702
 30
0.0000000000000000
 40
3.099999904632568
 41
0.0000000000000000
 71
     5
 72
     1
  1
\A1;45\U+00B0
 11
0.9238795325112855
 21
-0.3826834323650928
 31
0.0000000000000000
  7
STANDARD
  0
ENDBLK
  5
15F
100
AcDbEntity
  8
MAIN10
  6
CONTINUOUS
 62
12
100
AcDbBlockEnd
  0
BLOCK
  5
16A
100
AcDbEntity
  8
MAIN10
  6
CONTINUOUS
 62
3
100
AcDbBlockBegin
  2
*D15
 70
    65
 10
0.0
 20
0.0
 30
0.0
  0
LINE
  5
16B
100
AcDbEntity
  8
MAIN10
  6
BYBLOCK
 62
0
100
AcDbLine
 10
237.2719437323458
 20
162.2732410983372
 30
0.0000000000000000
 11
237.2719437323458
 21
151.3105450399953
 31
0.0000000000000000
  0
LINE
  5
16C
100
AcDbEntity
  8
MAIN10
  6
BYBLOCK
 62
0
100
AcDbLine
 10
235.2719437323458
 20
153.3105450399953
 30
0.0000000000000000
 11
219.2719437323458
 21
153.3105450399953
 31
0.0000000000000000
  0
INSERT
  5
16D
100
AcDbEntity
  8
MAIN10
  6
BYBLOCK
 62
0
100
AcDbBlockReference
  2
_OPEN
 10
237.2719437323458
 20
153.3105450399953
 30
0.0000000000000000
 41
2.000000000000000
 42
2.000000000000000
 43
2.000000000000000
 50
360.0000000000000
  0
INSERT
  5
16E
100
AcDbEntity
  8
MAIN10
  6
BYBLOCK
 62
0
100
AcDbBlockReference
  2
_OPEN
 10
217.2719437323458
 20
153.3105450399953
 30
0.0000000000000000
 41
2.000000000000000
 42
2.000000000000000
 43
2.000000000000000
 50
180.0000000000000
  0
MTEXT
  5
16F
100
AcDbEntity
  8
MAIN10
  6
BYBLOCK
 62
0
100
AcDbMText
 10
227.2719437323458
 20
155.3605449923116
 30
0.0000000000000000
 40
3.099999904632568
 41
0.0000000000000000
 71
     5
 72
     1
  1
\A1;20
 11
1.000000000000000
 21
0.0000000000000000
 31
0.0000000000000000
  7
STANDARD
  0
ENDBLK
  5
170
100
AcDbEntity
  8
MAIN10
  6
CONTINUOUS
 62
3
100
AcDbBlockEnd
  0
BLOCK
  5
1B3
100
AcDbEntity
  8
MAIN10
  6
CONTINUOUS
 62
3
100
AcDbBlockBegin
  2
*D16
 70
    65
 10
0.0
 20
0.0
 30
0.0
  0
LINE
  5
1B4
100
AcDbEntity
  8
MAIN10
  6
BYBLOCK
 62
0
100
AcDbLine
 10
444.2473181340493
 20
261.0732411102581
 30
0.0000000000000000
 11
382.7794743855588
 21
281.1869133237343
 31
0.0000000000000000
  0
INSERT
  5
1B5
100
AcDbEntity
  8
MAIN10
  6
BYBLOCK
 62
0
100
AcDbBlockReference
  2
_OPEN
 10
380.8786520044691
 20
281.8089055066017
 30
0.0000000000000000
 41
2.000000000000000
 42
2.000000000000000
 43
2.000000000000000
 50
161.8807301671656
  0
MTEXT
  5
1B6
100
AcDbEntity
  8
MAIN10
  6
BYBLOCK
 62
0
100
AcDbMText
 10
401.5632949743631
 20
277.1973824020494
 30
0.0000000000000000
 40
3.099999904632568
 41
0.0000000000000000
 71
     5
 72
     1
  1
\A1;Ｒ66.675\H0.903226x;\U+00B10.152
 11
0.9504111905448854
 21
-0.3109960914337244
 31
0.0000000000000000
  7
KNJYOKO
  0
ENDBLK
  5
1B7
100
AcDbEntity
  8
MAIN10
  6
CONTINUOUS
 62
3
100
AcDbBlockEnd
  0
BLOCK
  5
1BA
100
AcDbEntity
  8
MAIN10
  6
CONTINUOUS
 62
3
100
AcDbBlockBegin
  2
*D17
 70
    65
 10
0.0
 20
0.0
 30
0.0
  0
LINE
  5
1BB
100
AcDbEntity
  8
MAIN10
  6
BYBLOCK
 62
0
100
AcDbLine
 10
444.2473181340494
 20
261.0732411102581
 30
0.0000000000000000
 11
488.4560741371508
 21
319.1644271255070
 31
0.0000000000000000
  0
INSERT
  5
1BC
100
AcDbEntity
  8
MAIN10
  6
BYBLOCK
 62
0
100
AcDbBlockReference
  2
_OPEN
 10
489.6672729317563
 20
320.7559664683905
 30
0.0000000000000000
 41
2.000000000000000
 42
2.000000000000000
 43
2.000000000000000
 50
52.72801360372748
  0
MTEXT
  5
1BD
100
AcDbEntity
  8
MAIN10
  6
BYBLOCK
 62
0
100
AcDbMText
 10
465.3259677477765
 20
292.1560825293645
 30
0.0000000000000000
 40
3.099999904632568
 41
0.0000000000000000
 71
     5
 72
     1
  1
\A1;Ｒ75\H0.903226x;\U+00B10.1
 11
0.6055993973027588
 21
0.7957696714417655
 31
0.0000000000000000
  7
KNJYOKO
  0
ENDBLK
  5
1BE
100
AcDbEntity
  8
MAIN10
  6
CONTINUOUS
 62
3
100
AcDbBlockEnd
  0
BLOCK
  5
1C0
100
AcDbEntity
  8
MAIN10
  6
CONTINUOUS
 62
3
100
AcDbBlockBegin
  2
*D18
 70
    65
 10
0.0
 20
0.0
 30
0.0
  0
LINE
  5
1C1
100
AcDbEntity
  8
MAIN10
  6
BYBLOCK
 62
0
100
AcDbLine
 10
233.1757942825917
 20
247.1732411102581
 30
0.0000000000000000
 11
233.1757942825917
 21
274.9732411102580
 31
0.0000000000000000
  0
INSERT
  5
1C2
100
AcDbEntity
  8
MAIN10
  6
BYBLOCK
 62
0
100
AcDbBlockReference
  2
_OPEN
 10
233.1757942825917
 20
245.1732411102581
 30
0.0000000000000000
 41
2.000000000000000
 42
2.000000000000000
 43
2.000000000000000
 50
270.0000000000000
  0
INSERT
  5
1C3
100
AcDbEntity
  8
MAIN10
  6
BYBLOCK
 62
0
100
AcDbBlockReference
  2
_OPEN
 10
233.1757942825917
 20
276.9732411102580
 30
0.0000000000000000
 41
2.000000000000000
 42
2.000000000000000
 43
2.000000000000000
 50
90.00000000000000
  0
MTEXT
  5
1C4
100
AcDbEntity
  8
MAIN10
  6
BYBLOCK
 62
0
100
AcDbMText
 10
231.1257943302754
 20
261.0732412890720
 30
0.0000000000000000
 40
3.099999904632568
 41
0.0000000000000000
 71
     5
 72
     1
  1
\A1;\U+220531.8\H0.903226x;\S+0.02^  0   ;
 11
6.123233995736766e-017
 21
1.000000000000000
 31
0.0000000000000000
  7
STANDARD
  0
ENDBLK
  5
1C5
100
AcDbEntity
  8
MAIN10
  6
CONTINUOUS
 62
3
100
AcDbBlockEnd
  0
BLOCK
  5
1C7
100
AcDbEntity
  8
MAIN10
  6
CONTINUOUS
 62
3
100
AcDbBlockBegin
  2
*D19
 70
    65
 10
0.0
 20
0.0
 30
0.0
  0
LINE
  5
1C8
100
AcDbEntity
  8
MAIN10
  6
BYBLOCK
 62
0
100
AcDbLine
 10
235.2719437323458
 20
301.4033629220279
 30
0.0000000000000000
 11
227.1039923939007
 21
301.4033629220279
 31
0.0000000000000000
  0
INSERT
  5
1C9
100
AcDbEntity
  8
MAIN10
  6
BYBLOCK
 62
0
100
AcDbBlockReference
  2
_OPEN
 10
237.2719437323458
 20
301.4033629220279
 30
0.0000000000000000
 41
2.000000000000000
 42
2.000000000000000
 43
2.000000000000000
 50
360.0000000000000
  0
INSERT
  5
1CA
100
AcDbEntity
  8
MAIN10
  6
BYBLOCK
 62
0
100
AcDbBlockReference
  2
_OPEN
 10
225.1039923939007
 20
301.4033629220279
 30
0.0000000000000000
 41
2.000000000000000
 42
2.000000000000000
 43
2.000000000000000
 50
180.0000000000000
  0
LINE
  5
1CB
100
AcDbEntity
  8
MAIN10
  6
BYBLOCK
 62
0
100
AcDbLine
 10
225.1039923939007
 20
301.4033629220279
 30
0.0000000000000000
 11
210.4405431064862
 21
301.4033629220279
 31
0.0000000000000000
  0
LINE
  5
1CC
100
AcDbEntity
  8
MAIN10
  6
BYBLOCK
 62
0
100
AcDbLine
 10
225.1039923939007
 20
273.9732411221789
 30
0.0000000000000000
 11
225.1039923939007
 21
303.4033629220279
 31
0.0000000000000000
  0
MTEXT
  5
1CD
100
AcDbEntity
  8
MAIN10
  6
BYBLOCK
 62
0
100
AcDbMText
 10
217.2905432284701
 20
303.4533628743442
 30
0.0000000000000000
 40
3.099999904632568
 41
0.0000000000000000
 71
     5
 72
     1
  1
\A1;MIN 4.3
 11
1.000000000000000
 21
0.0000000000000000
 31
0.0000000000000000
  7
STANDARD
  0
ENDBLK
  5
1CE
100
AcDbEntity
  8
MAIN10
  6
CONTINUOUS
 62
3
100
AcDbBlockEnd
  0
BLOCK
  5
1D4
100
AcDbEntity
  8
MAIN10
  6
CONTINUOUS
 62
3
100
AcDbBlockBegin
  2
*D20
 70
    65
 10
0.0
 20
0.0
 30
0.0
  0
LINE
  5
1D5
100
AcDbEntity
  8
MAIN10
  6
BYBLOCK
 62
0
100
AcDbLine
 10
302.6592966105080
 20
347.9732411102581
 30
0.0000000000000000
 11
302.6592966105080
 21
320.2232411102579
 31
0.0000000000000000
  0
INSERT
  5
1D6
100
AcDbEntity
  8
MAIN10
  6
BYBLOCK
 62
0
100
AcDbBlockReference
  2
_OPEN
 10
302.6592966105080
 20
349.9732411102581
 30
0.0000000000000000
 41
2.000000000000000
 42
2.000000000000000
 43
2.000000000000000
 50
90.00000000000000
  0
INSERT
  5
1D7
100
AcDbEntity
  8
MAIN10
  6
BYBLOCK
 62
0
100
AcDbBlockReference
  2
_OPEN
 10
302.6592966105080
 20
318.2232411102579
 30
0.0000000000000000
 41
2.000000000000000
 42
2.000000000000000
 43
2.000000000000000
 50
270.0000000000000
  0
LINE
  5
1D8
100
AcDbEntity
  8
MAIN10
  6
BYBLOCK
 62
0
100
AcDbLine
 10
293.8019437442665
 20
318.2232411102579
 30
0.0000000000000000
 11
304.6592966105080
 21
318.2232411102579
 31
0.0000000000000000
  0
MTEXT
  5
1D9
100
AcDbEntity
  8
MAIN10
  6
BYBLOCK
 62
0
100
AcDbMText
 10
300.6092966581917
 20
334.0982411102580
 30
0.0000000000000000
 40
3.099999904632568
 41
0.0000000000000000
 71
     5
 72
     1
  1
\A1;31.75
 11
6.123233995736766e-017
 21
1.000000000000000
 31
0.0000000000000000
  7
STANDARD
  0
ENDBLK
  5
1DA
100
AcDbEntity
  8
MAIN10
  6
CONTINUOUS
 62
3
100
AcDbBlockEnd
  0
BLOCK
  5
1DC
100
AcDbEntity
  8
MAIN10
  6
CONTINUOUS
 62
3
100
AcDbBlockBegin
  2
*D21
 70
    65
 10
0.0
 20
0.0
 30
0.0
  0
LINE
  5
1DD
100
AcDbEntity
  8
MAIN10
  6
BYBLOCK
 62
0
100
AcDbLine
 10
293.8019437442665
 20
318.2232411102579
 30
0.0000000000000000
 11
304.6592966105080
 21
318.2232411102579
 31
0.0000000000000000
  0
LINE
  5
1DE
100
AcDbEntity
  8
MAIN10
  6
BYBLOCK
 62
0
100
AcDbLine
 10
302.6592966105080
 20
316.2232411102579
 30
0.0000000000000000
 11
302.6592966105080
 21
263.0732411102581
 31
0.0000000000000000
  0
INSERT
  5
1DF
100
AcDbEntity
  8
MAIN10
  6
BYBLOCK
 62
0
100
AcDbBlockReference
  2
_OPEN
 10
302.6592966105080
 20
318.2232411102579
 30
0.0000000000000000
 41
2.000000000000000
 42
2.000000000000000
 43
2.000000000000000
 50
90.00000000000000
  0
INSERT
  5
1E0
100
AcDbEntity
  8
MAIN10
  6
BYBLOCK
 62
0
100
AcDbBlockReference
  2
_OPEN
 10
302.6592966105080
 20
261.0732411102581
 30
0.0000000000000000
 41
2.000000000000000
 42
2.000000000000000
 43
2.000000000000000
 50
270.0000000000000
  0
MTEXT
  5
1E1
100
AcDbEntity
  8
MAIN10
  6
BYBLOCK
 62
0
100
AcDbMText
 10
300.6092966581917
 20
283.9813825235712
 30
0.0000000000000000
 40
3.099999904632568
 41
0.0000000000000000
 71
     5
 72
     1
  1
\A1;57.15
 11
6.123233995736766e-017
 21
1.000000000000000
 31
0.0000000000000000
  7
STANDARD
  0
ENDBLK
  5
1E2
100
AcDbEntity
  8
MAIN10
  6
CONTINUOUS
 62
3
100
AcDbBlockEnd
  0
BLOCK
  5
1E4
100
AcDbEntity
  8
MAIN10
  6
CONTINUOUS
 62
3
100
AcDbBlockBegin
  2
*D22
 70
    65
 10
0.0
 20
0.0
 30
0.0
  0
LINE
  5
1E5
100
AcDbEntity
  8
MAIN10
  6
BYBLOCK
 62
0
100
AcDbLine
 10
314.5719437442667
 20
349.9732411102581
 30
0.0000000000000000
 11
328.6946115451797
 21
349.9732411102581
 31
0.0000000000000000
  0
LINE
  5
1E6
100
AcDbEntity
  8
MAIN10
  6
BYBLOCK
 62
0
100
AcDbLine
 10
326.6946115451797
 20
347.9732411102581
 30
0.0000000000000000
 11
326.6946115451797
 21
336.9732411102580
 31
0.0000000000000000
  0
INSERT
  5
1E7
100
AcDbEntity
  8
MAIN10
  6
BYBLOCK
 62
0
100
AcDbBlockReference
  2
_OPEN
 10
326.6946115451797
 20
349.9732411102581
 30
0.0000000000000000
 41
2.000000000000000
 42
2.000000000000000
 43
2.000000000000000
 50
90.00000000000000
  0
INSERT
  5
1E8
100
AcDbEntity
  8
MAIN10
  6
BYBLOCK
 62
0
100
AcDbBlockReference
  2
_OPEN
 10
326.6946115451797
 20
334.9732411102580
 30
0.0000000000000000
 41
2.000000000000000
 42
2.000000000000000
 43
2.000000000000000
 50
270.0000000000000
  0
LINE
  5
1E9
100
AcDbEntity
  8
MAIN10
  6
BYBLOCK
 62
0
100
AcDbLine
 10
320.2525432744518
 20
334.9732411102580
 30
0.0000000000000000
 11
328.6946115451797
 21
334.9732411102580
 31
0.0000000000000000
  0
MTEXT
  5
1EA
100
AcDbEntity
  8
MAIN10
  6
BYBLOCK
 62
0
100
AcDbMText
 10
324.6446115928634
 20
342.4732411102580
 30
0.0000000000000000
 40
3.099999904632568
 41
0.0000000000000000
 71
     5
 72
     1
  1
\A1;15
 11
6.123233995736766e-017
 21
1.000000000000000
 31
0.0000000000000000
  7
STANDARD
  0
ENDBLK
  5
1EB
100
AcDbEntity
  8
MAIN10
  6
CONTINUOUS
 62
3
100
AcDbBlockEnd
  0
BLOCK
  5
1ED
100
AcDbEntity
  8
MAIN10
  6
CONTINUOUS
 62
3
100
AcDbBlockBegin
  2
*D23
 70
    65
 10
0.0
 20
0.0
 30
0.0
  0
LINE
  5
1EE
100
AcDbEntity
  8
MAIN10
  6
BYBLOCK
 62
0
100
AcDbLine
 10
320.2525432744518
 20
334.9732411102580
 30
0.0000000000000000
 11
328.6946115451797
 21
334.9732411102580
 31
0.0000000000000000
  0
LINE
  5
1EF
100
AcDbEntity
  8
MAIN10
  6
BYBLOCK
 62
0
100
AcDbLine
 10
326.6946115451797
 20
332.9732411102580
 30
0.0000000000000000
 11
326.6946115451797
 21
302.8332411102580
 31
0.0000000000000000
  0
INSERT
  5
1F0
100
AcDbEntity
  8
MAIN10
  6
BYBLOCK
 62
0
100
AcDbBlockReference
  2
_OPEN
 10
326.6946115451797
 20
334.9732411102580
 30
0.0000000000000000
 41
2.000000000000000
 42
2.000000000000000
 43
2.000000000000000
 50
90.00000000000000
  0
INSERT
  5
1F1
100
AcDbEntity
  8
MAIN10
  6
BYBLOCK
 62
0
100
AcDbBlockReference
  2
_OPEN
 10
326.6946115451797
 20
300.8332411102580
 30
0.0000000000000000
 41
2.000000000000000
 42
2.000000000000000
 43
2.000000000000000
 50
270.0000000000000
  0
LINE
  5
1F2
100
AcDbEntity
  8
MAIN10
  6
BYBLOCK
 62
0
100
AcDbLine
 10
320.9656386482142
 20
300.8332411102580
 30
0.0000000000000000
 11
328.6946115451797
 21
300.8332411102580
 31
0.0000000000000000
  0
MTEXT
  5
1F3
100
AcDbEntity
  8
MAIN10
  6
BYBLOCK
 62
0
100
AcDbMText
 10
324.6446115928634
 20
317.9032411102580
 30
0.0000000000000000
 40
3.099999904632568
 41
0.0000000000000000
 71
     5
 72
     1
  1
\A1;34.14
 11
6.123233995736766e-017
 21
1.000000000000000
 31
0.0000000000000000
  7
STANDARD
  0
ENDBLK
  5
1F4
100
AcDbEntity
  8
MAIN10
  6
CONTINUOUS
 62
3
100
AcDbBlockEnd
  0
BLOCK
  5
1F6
100
AcDbEntity
  8
MAIN10
  6
CONTINUOUS
 62
3
100
AcDbBlockBegin
  2
*D24
 70
    65
 10
0.0
 20
0.0
 30
0.0
  0
LINE
  5
1F7
100
AcDbEntity
  8
MAIN10
  6
BYBLOCK
 62
0
100
AcDbLine
 10
314.5719437442667
 20
349.9732411102581
 30
0.0000000000000000
 11
338.3708621728378
 21
349.9732411102581
 31
0.0000000000000000
  0
LINE
  5
1F8
100
AcDbEntity
  8
MAIN10
  6
BYBLOCK
 62
0
100
AcDbLine
 10
336.3708621728378
 20
347.9732411102581
 30
0.0000000000000000
 11
336.3708621728378
 21
277.9732411102580
 31
0.0000000000000000
  0
INSERT
  5
1F9
100
AcDbEntity
  8
MAIN10
  6
BYBLOCK
 62
0
100
AcDbBlockReference
  2
_OPEN
 10
336.3708621728378
 20
349.9732411102581
 30
0.0000000000000000
 41
2.000000000000000
 42
2.000000000000000
 43
2.000000000000000
 50
90.00000000000000
  0
INSERT
  5
1FA
100
AcDbEntity
  8
MAIN10
  6
BYBLOCK
 62
0
100
AcDbBlockReference
  2
_OPEN
 10
336.3708621728378
 20
275.9732411102580
 30
0.0000000000000000
 41
2.000000000000000
 42
2.000000000000000
 43
2.000000000000000
 50
270.0000000000000
  0
LINE
  5
1FB
100
AcDbEntity
  8
MAIN10
  6
BYBLOCK
 62
0
100
AcDbLine
 10
314.5719437442668
 20
275.9732411102580
 30
0.0000000000000000
 11
338.3708621728378
 21
275.9732411102580
 31
0.0000000000000000
  0
MTEXT
  5
1FC
100
AcDbEntity
  8
MAIN10
  6
BYBLOCK
 62
0
100
AcDbMText
 10
334.3208622205215
 20
312.9732411102580
 30
0.0000000000000000
 40
3.099999904632568
 41
0.0000000000000000
 71
     5
 72
     1
  1
\A1;74
 11
6.123233995736766e-017
 21
1.000000000000000
 31
0.0000000000000000
  7
STANDARD
  0
ENDBLK
  5
1FD
100
AcDbEntity
  8
MAIN10
  6
CONTINUOUS
 62
3
100
AcDbBlockEnd
  0
BLOCK
  5
203
100
AcDbEntity
  8
MAIN10
  6
CONTINUOUS
 62
3
100
AcDbBlockBegin
  2
*D25
 70
    65
 10
0.0
 20
0.0
 30
0.0
  0
LINE
  5
204
100
AcDbEntity
  8
MAIN10
  6
BYBLOCK
 62
0
100
AcDbLine
 10
266.4019437442667
 20
109.3406383329449
 30
0.0000000000000000
 11
278.5759372380040
 21
109.3406383329449
 31
0.0000000000000000
  0
LINE
  5
205
100
AcDbEntity
  8
MAIN10
  6
BYBLOCK
 62
0
100
AcDbLine
 10
276.5759372380040
 20
107.3406383329449
 30
0.0000000000000000
 11
276.5759372380040
 21
97.10063833294490
 31
0.0000000000000000
  0
INSERT
  5
206
100
AcDbEntity
  8
MAIN10
  6
BYBLOCK
 62
0
100
AcDbBlockReference
  2
_OPEN
 10
276.5759372380040
 20
109.3406383329449
 30
0.0000000000000000
 41
2.000000000000000
 42
2.000000000000000
 43
2.000000000000000
 50
90.00000000000000
  0
INSERT
  5
207
100
AcDbEntity
  8
MAIN10
  6
BYBLOCK
 62
0
100
AcDbBlockReference
  2
_OPEN
 10
276.5759372380040
 20
95.10063833294490
 30
0.0000000000000000
 41
2.000000000000000
 42
2.000000000000000
 43
2.000000000000000
 50
270.0000000000000
  0
LINE
  5
208
100
AcDbEntity
  8
MAIN10
  6
BYBLOCK
 62
0
100
AcDbLine
 10
266.4019437442667
 20
95.10063833294490
 30
0.0000000000000000
 11
278.5759372380040
 21
95.10063833294490
 31
0.0000000000000000
  0
MTEXT
  5
209
100
AcDbEntity
  8
MAIN10
  6
BYBLOCK
 62
0
100
AcDbMText
 10
274.5259372856878
 20
102.2206383329449
 30
0.0000000000000000
 40
3.099999904632568
 41
0.0000000000000000
 71
     5
 72
     1
  1
\A1;14.24
 11
6.123233995736766e-017
 21
1.000000000000000
 31
0.0000000000000000
  7
STANDARD
  0
ENDBLK
  5
20A
100
AcDbEntity
  8
MAIN10
  6
CONTINUOUS
 62
3
100
AcDbBlockEnd
  0
BLOCK
  5
35C
100
AcDbEntity
  8
MAIN10
  6
CONTINUOUS
 62
12
100
AcDbBlockBegin
  2
*D26
 70
    65
 10
0.0
 20
0.0
 30
0.0
  0
LINE
  5
35D
100
AcDbEntity
  8
MAIN10
  6
BYBLOCK
 62
0
100
AcDbLine
 10
127.5239923819799
 20
245.1732411102582
 30
0.0000000000000000
 11
83.78366498794489
 21
245.1732411102582
 31
0.0000000000000000
  0
LINE
  5
35E
100
AcDbEntity
  8
MAIN10
  6
BYBLOCK
 62
0
100
AcDbLine
 10
85.78366498794489
 20
247.0839132980634
 30
0.0000000000000000
 11
85.78366498794489
 21
275.0625689224531
 31
0.0000000000000000
  0
INSERT
  5
35F
100
AcDbEntity
  8
MAIN10
  6
BYBLOCK
 62
0
100
AcDbBlockReference
  2
_OPEN
 10
85.78366498794489
 20
245.1732411102582
 30
0.0000000000000000
 41
1.910672187805176
 42
1.910672187805176
 43
1.910672187805176
 50
270.0000000000000
  0
INSERT
  5
360
100
AcDbEntity
  8
MAIN10
  6
BYBLOCK
 62
0
100
AcDbBlockReference
  2
_OPEN
 10
85.78366498794489
 20
276.9732411102582
 30
0.0000000000000000
 41
1.910672187805176
 42
1.910672187805176
 43
1.910672187805176
 50
90.00000000000000
  0
LINE
  5
361
100
AcDbEntity
  8
MAIN10
  6
BYBLOCK
 62
0
100
AcDbLine
 10
127.5239923819799
 20
276.9732411102582
 30
0.0000000000000000
 11
83.78366498794489
 21
276.9732411102582
 31
0.0000000000000000
  0
MTEXT
  5
362
100
AcDbEntity
  8
MAIN10
  6
BYBLOCK
 62
0
100
AcDbMText
 10
83.73366503562860
 20
261.0732411102582
 30
0.0000000000000000
 40
3.099999904632568
 41
0.0000000000000000
 71
     5
 72
     1
  1
\A1;\U+220531.8
 11
6.123233995736766e-017
 21
1.000000000000000
 31
0.0000000000000000
  7
STANDARD
  0
ENDBLK
  5
363
100
AcDbEntity
  8
MAIN10
  6
CONTINUOUS
 62
12
100
AcDbBlockEnd
  0
BLOCK
  5
365
100
AcDbEntity
  8
MAIN10
  6
CONTINUOUS
 62
12
100
AcDbBlockBegin
  2
*D27
 70
    65
 10
0.0
 20
0.0
 30
0.0
  0
LINE
  5
366
100
AcDbEntity
  8
MAIN10
  6
BYBLOCK
 62
0
100
AcDbLine
 10
149.4719437204249
 20
161.0732411102582
 30
0.0000000000000000
 11
47.99442749343550
 21
161.0732411102582
 31
0.0000000000000000
  0
LINE
  5
367
100
AcDbEntity
  8
MAIN10
  6
BYBLOCK
 62
0
100
AcDbLine
 10
49.99442749343550
 20
162.9839132980634
 30
0.0000000000000000
 11
49.99442749343550
 21
359.1625689224529
 31
0.0000000000000000
  0
INSERT
  5
368
100
AcDbEntity
  8
MAIN10
  6
BYBLOCK
 62
0
100
AcDbBlockReference
  2
_OPEN
 10
49.99442749343550
 20
161.0732411102582
 30
0.0000000000000000
 41
1.910672187805176
 42
1.910672187805176
 43
1.910672187805176
 50
270.0000000000000
  0
INSERT
  5
369
100
AcDbEntity
  8
MAIN10
  6
BYBLOCK
 62
0
100
AcDbBlockReference
  2
_OPEN
 10
49.99442749343550
 20
361.0732411102580
 30
0.0000000000000000
 41
1.910672187805176
 42
1.910672187805176
 43
1.910672187805176
 50
90.00000000000000
  0
LINE
  5
36A
100
AcDbEntity
  8
MAIN10
  6
BYBLOCK
 62
0
100
AcDbLine
 10
149.4719437204250
 20
361.0732411102580
 30
0.0000000000000000
 11
47.99442749343550
 21
361.0732411102580
 31
0.0000000000000000
  0
MTEXT
  5
36B
100
AcDbEntity
  8
MAIN10
  6
BYBLOCK
 62
0
100
AcDbMText
 10
47.94442754111921
 20
261.0732411102581
 30
0.0000000000000000
 40
3.099999904632568
 41
0.0000000000000000
 71
     5
 72
     1
  1
\A1;\U+2205200
 11
6.123233995736766e-017
 21
1.000000000000000
 31
0.0000000000000000
  7
STANDARD
  0
ENDBLK
  5
36C
100
AcDbEntity
  8
MAIN10
  6
CONTINUOUS
 62
12
100
AcDbBlockEnd
  0
BLOCK
  5
36E
100
AcDbEntity
  8
MAIN10
  6
CONTINUOUS
 62
12
100
AcDbBlockBegin
  2
*D28
 70
    65
 10
0.0
 20
0.0
 30
0.0
  0
LINE
  5
36F
100
AcDbEntity
  8
MAIN10
  6
BYBLOCK
 62
0
100
AcDbLine
 10
149.4719437204249
 20
346.0732411102581
 30
0.0000000000000000
 11
59.92416152321786
 21
346.0732411102581
 31
0.0000000000000000
  0
LINE
  5
370
100
AcDbEntity
  8
MAIN10
  6
BYBLOCK
 62
0
100
AcDbLine
 10
61.92416152321786
 20
344.1625689224529
 30
0.0000000000000000
 11
61.92416152321786
 21
177.9839132980633
 31
0.0000000000000000
  0
INSERT
  5
371
100
AcDbEntity
  8
MAIN10
  6
BYBLOCK
 62
0
100
AcDbBlockReference
  2
_OPEN
 10
61.92416152321786
 20
346.0732411102581
 30
0.0000000000000000
 41
1.910672187805176
 42
1.910672187805176
 43
1.910672187805176
 50
90.00000000000000
  0
INSERT
  5
372
100
AcDbEntity
  8
MAIN10
  6
BYBLOCK
 62
0
100
AcDbBlockReference
  2
_OPEN
 10
61.92416152321786
 20
176.0732411102582
 30
0.0000000000000000
 41
1.910672187805176
 42
1.910672187805176
 43
1.910672187805176
 50
270.0000000000000
  0
LINE
  5
373
100
AcDbEntity
  8
MAIN10
  6
BYBLOCK
 62
0
100
AcDbLine
 10
149.4719437204250
 20
176.0732411102582
 30
0.0000000000000000
 11
59.92416152321786
 21
176.0732411102582
 31
0.0000000000000000
  0
MTEXT
  5
374
100
AcDbEntity
  8
MAIN10
  6
BYBLOCK
 62
0
100
AcDbMText
 10
59.87416157090158
 20
261.0732411102581
 30
0.0000000000000000
 40
3.099999904632568
 41
0.0000000000000000
 71
     5
 72
     1
  1
\A1;\U+2205170H6
 11
6.123233995736766e-017
 21
1.000000000000000
 31
0.0000000000000000
  7
STANDARD
  0
ENDBLK
  5
375
100
AcDbEntity
  8
MAIN10
  6
CONTINUOUS
 62
12
100
AcDbBlockEnd
  0
BLOCK
  5
377
100
AcDbEntity
  8
MAIN10
  6
CONTINUOUS
 62
12
100
AcDbBlockBegin
  2
*D29
 70
    65
 10
0.0
 20
0.0
 30
0.0
  0
LINE
  5
378
100
AcDbEntity
  8
MAIN10
  6
BYBLOCK
 62
0
100
AcDbLine
 10
139.9719437204249
 20
286.0732411102579
 30
0.0000000000000000
 11
71.74137794723006
 21
286.0732411102579
 31
0.0000000000000000
  0
LINE
  5
379
100
AcDbEntity
  8
MAIN10
  6
BYBLOCK
 62
0
100
AcDbLine
 10
73.74137794723006
 20
284.1625689224529
 30
0.0000000000000000
 11
73.74137794723006
 21
237.9839132980635
 31
0.0000000000000000
  0
INSERT
  5
37A
100
AcDbEntity
  8
MAIN10
  6
BYBLOCK
 62
0
100
AcDbBlockReference
  2
_OPEN
 10
73.74137794723006
 20
286.0732411102581
 30
0.0000000000000000
 41
1.910672187805176
 42
1.910672187805176
 43
1.910672187805176
 50
90.00000000000000
  0
INSERT
  5
37B
100
AcDbEntity
  8
MAIN10
  6
BYBLOCK
 62
0
100
AcDbBlockReference
  2
_OPEN
 10
73.74137794723006
 20
236.0732411102583
 30
0.0000000000000000
 41
1.910672187805176
 42
1.910672187805176
 43
1.910672187805176
 50
270.0000000000000
  0
LINE
  5
37C
100
AcDbEntity
  8
MAIN10
  6
BYBLOCK
 62
0
100
AcDbLine
 10
139.9719437204249
 20
236.0732411102583
 30
0.0000000000000000
 11
71.74137794723006
 21
236.0732411102584
 31
0.0000000000000000
  0
MTEXT
  5
37D
100
AcDbEntity
  8
MAIN10
  6
BYBLOCK
 62
0
100
AcDbMText
 10
71.69137799491378
 20
261.0732411102582
 30
0.0000000000000000
 40
3.099999904632568
 41
0.0000000000000000
 71
     5
 72
     1
  1
\A1;\U+220550
 11
6.123233995736766e-017
 21
1.000000000000000
 31
0.0000000000000000
  7
STANDARD
  0
ENDBLK
  5
37E
100
AcDbEntity
  8
MAIN10
  6
CONTINUOUS
 62
12
100
AcDbBlockEnd
  0
BLOCK
  5
380
100
AcDbEntity
  8
MAIN10
  6
CONTINUOUS
 62
12
100
AcDbBlockBegin
  2
*D30
 70
    65
 10
0.0
 20
0.0
 30
0.0
  0
LINE
  5
381
100
AcDbEntity
  8
MAIN10
  6
BYBLOCK
 62
0
100
AcDbLine
 10
126.3239923939008
 20
245.5279416367159
 30
0.0000000000000000
 11
126.3239923939008
 21
134.2165298806029
 31
0.0000000000000000
  0
LINE
  5
382
100
AcDbEntity
  8
MAIN10
  6
BYBLOCK
 62
0
100
AcDbLine
 10
128.2346645817060
 20
136.2165298806029
 30
0.0000000000000000
 11
147.3612715445406
 21
136.2165298806029
 31
0.0000000000000000
  0
INSERT
  5
383
100
AcDbEntity
  8
MAIN10
  6
BYBLOCK
 62
0
100
AcDbBlockReference
  2
_OPEN
 10
126.3239923939008
 20
136.2165298806029
 30
0.0000000000000000
 41
1.910672187805176
 42
1.910672187805176
 43
1.910672187805176
 50
180.0000000000000
  0
INSERT
  5
384
100
AcDbEntity
  8
MAIN10
  6
BYBLOCK
 62
0
100
AcDbBlockReference
  2
_OPEN
 10
149.2719437323458
 20
136.2165298806029
 30
0.0000000000000000
 41
1.910672187805176
 42
1.910672187805176
 43
1.910672187805176
 50
0.0000000000000000
  0
LINE
  5
385
100
AcDbEntity
  8
MAIN10
  6
BYBLOCK
 62
0
100
AcDbLine
 10
149.2719437323458
 20
162.0732411102582
 30
0.0000000000000000
 11
149.2719437323458
 21
134.2165298806029
 31
0.0000000000000000
  0
MTEXT
  5
386
100
AcDbEntity
  8
MAIN10
  6
BYBLOCK
 62
0
100
AcDbMText
 10
137.7979680631233
 20
138.2665298329192
 30
0.0000000000000000
 40
3.099999904632568
 41
0.0000000000000000
 71
     5
 72
     1
  1
\A1;MAX 29.3
 11
1.000000000000000
 21
0.0000000000000000
 31
0.0000000000000000
  7
STANDARD
  0
ENDBLK
  5
387
100
AcDbEntity
  8
MAIN10
  6
CONTINUOUS
 62
12
100
AcDbBlockEnd
  0
BLOCK
  5
389
100
AcDbEntity
  8
MAIN10
  6
CONTINUOUS
 62
12
100
AcDbBlockBegin
  2
*D31
 70
    65
 10
0.0
 20
0.0
 30
0.0
  0
LINE
  5
38A
100
AcDbEntity
  8
MAIN10
  6
BYBLOCK
 62
0
100
AcDbLine
 10
149.2719437323458
 20
162.0732411102582
 30
0.0000000000000000
 11
149.2719437323458
 21
134.2165298806029
 31
0.0000000000000000
  0
LINE
  5
38B
100
AcDbEntity
  8
MAIN10
  6
BYBLOCK
 62
0
100
AcDbLine
 10
151.1826159201510
 20
136.2165298806029
 30
0.0000000000000000
 11
235.3612715445408
 21
136.2165298806029
 31
0.0000000000000000
  0
INSERT
  5
38C
100
AcDbEntity
  8
MAIN10
  6
BYBLOCK
 62
0
100
AcDbBlockReference
  2
_OPEN
 10
149.2719437323458
 20
136.2165298806029
 30
0.0000000000000000
 41
1.910672187805176
 42
1.910672187805176
 43
1.910672187805176
 50
180.0000000000000
  0
INSERT
  5
38D
100
AcDbEntity
  8
MAIN10
  6
BYBLOCK
 62
0
100
AcDbBlockReference
  2
_OPEN
 10
237.2719437323460
 20
136.2165298806029
 30
0.0000000000000000
 41
1.910672187805176
 42
1.910672187805176
 43
1.910672187805176
 50
0.0000000000000000
  0
LINE
  5
38E
100
AcDbEntity
  8
MAIN10
  6
BYBLOCK
 62
0
100
AcDbLine
 10
237.2719437323460
 20
162.2732410983373
 30
0.0000000000000000
 11
237.2719437323460
 21
134.2165298806029
 31
0.0000000000000000
  0
MTEXT
  5
38F
100
AcDbEntity
  8
MAIN10
  6
BYBLOCK
 62
0
100
AcDbMText
 10
193.2719437323459
 20
138.2665298329192
 30
0.0000000000000000
 40
3.099999904632568
 41
0.0000000000000000
 71
     5
 72
     1
  1
\A1;88
 11
1.000000000000000
 21
0.0000000000000000
 31
0.0000000000000000
  7
STANDARD
  0
ENDBLK
  5
390
100
AcDbEntity
  8
MAIN10
  6
CONTINUOUS
 62
12
100
AcDbBlockEnd
  0
BLOCK
  5
392
100
AcDbEntity
  8
MAIN10
  6
CONTINUOUS
 62
12
100
AcDbBlockBegin
  2
*D32
 70
    65
 10
0.0
 20
0.0
 30
0.0
  0
LINE
  5
393
100
AcDbEntity
  8
MAIN10
  6
BYBLOCK
 62
0
100
AcDbLine
 10
139.7719437323458
 20
285.8732411221790
 30
0.0000000000000000
 11
139.7719437323458
 21
303.4033629220279
 31
0.0000000000000000
  0
LINE
  5
394
100
AcDbEntity
  8
MAIN10
  6
BYBLOCK
 62
0
100
AcDbLine
 10
141.6826159201510
 20
301.4033629220279
 30
0.0000000000000000
 11
152.3612715445406
 21
301.4033629220279
 31
0.0000000000000000
  0
INSERT
  5
395
100
AcDbEntity
  8
MAIN10
  6
BYBLOCK
 62
0
100
AcDbBlockReference
  2
_OPEN
 10
139.7719437323458
 20
301.4033629220279
 30
0.0000000000000000
 41
1.910672187805176
 42
1.910672187805176
 43
1.910672187805176
 50
180.0000000000000
  0
INSERT
  5
396
100
AcDbEntity
  8
MAIN10
  6
BYBLOCK
 62
0
100
AcDbBlockReference
  2
_OPEN
 10
154.2719437323458
 20
301.4033629220279
 30
0.0000000000000000
 41
1.910672187805176
 42
1.910672187805176
 43
1.910672187805176
 50
0.0000000000000000
  0
MTEXT
  5
397
100
AcDbEntity
  8
MAIN10
  6
BYBLOCK
 62
0
100
AcDbMText
 10
144.4926761828025
 20
303.4533628743442
 30
0.0000000000000000
 40
3.099999904632568
 41
0.0000000000000000
 71
     5
 72
     1
  1
\A1;14.5
 11
1.000000000000000
 21
0.0000000000000000
 31
0.0000000000000000
  7
STANDARD
  0
ENDBLK
  5
398
100
AcDbEntity
  8
MAIN10
  6
CONTINUOUS
 62
12
100
AcDbBlockEnd
  0
BLOCK
  5
39A
100
AcDbEntity
  8
MAIN0
  6
CONTINUOUS
 62
12
100
AcDbBlockBegin
  2
*D33
 70
    65
 10
0.0
 20
0.0
 30
0.0
  0
LINE
  5
39B
100
AcDbEntity
  8
MAIN10
  6
BYBLOCK
 62
0
100
AcDbLine
 10
149.2719437323458
 20
219.5832720414021
 30
0.0000000000000000
 11
154.2719437323458
 21
219.5832720414021
 31
0.0000000000000000
  0
INSERT
  5
39C
100
AcDbEntity
  8
MAIN10
  6
BYBLOCK
 62
0
100
AcDbBlockReference
  2
_OPEN
 10
149.2719437323458
 20
219.5832720414021
 30
0.0000000000000000
 41
1.910672187805176
 42
1.910672187805176
 43
1.910672187805176
 50
0.0000000000000000
  0
INSERT
  5
39D
100
AcDbEntity
  8
MAIN10
  6
BYBLOCK
 62
0
100
AcDbBlockReference
  2
_OPEN
 10
154.2719437323458
 20
219.5832720414021
 30
0.0000000000000000
 41
1.910672187805176
 42
1.910672187805176
 43
1.910672187805176
 50
180.0000000000000
  0
LINE
  5
39E
100
AcDbEntity
  8
MAIN10
  6
BYBLOCK
 62
0
100
AcDbLine
 10
147.3612715445406
 20
219.5832720414021
 30
0.0000000000000000
 11
146.2719437323458
 21
219.5832720414021
 31
0.0000000000000000
  0
LINE
  5
39F
100
AcDbEntity
  8
MAIN10
  6
BYBLOCK
 62
0
100
AcDbLine
 10
156.1826159201510
 20
219.5832720414021
 30
0.0000000000000000
 11
157.2719437323458
 21
219.5832720414021
 31
0.0000000000000000
  0
MTEXT
  5
3A0
100
AcDbEntity
  8
MAIN10
  6
BYBLOCK
 62
0
100
AcDbMText
 10
151.7719437323458
 20
221.6332719937184
 30
0.0000000000000000
 40
3.099999904632568
 41
0.0000000000000000
 71
     5
 72
     1
  1
\A1;5
 11
1.000000000000000
 21
0.0000000000000000
 31
0.0000000000000000
  7
STANDARD
  0
ENDBLK
  5
3A1
100
AcDbEntity
  8
MAIN0
  6
CONTINUOUS
 62
12
100
AcDbBlockEnd
  0
BLOCK
  5
3A3
100
AcDbEntity
  8
MAIN10
  6
CONTINUOUS
 62
12
100
AcDbBlockBegin
  2
*D34
 70
    65
 10
0.0
 20
0.0
 30
0.0
  0
LINE
  5
3A4
100
AcDbEntity
  8
MAIN10
  6
BYBLOCK
 62
0
100
AcDbLine
 10
136.2719437323460
 20
201.1982411221790
 30
0.0000000000000000
 11
136.2719437323460
 21
210.6664442996872
 31
0.0000000000000000
  0
LINE
  5
3A5
100
AcDbEntity
  8
MAIN10
  6
BYBLOCK
 62
0
100
AcDbLine
 10
138.1826159201512
 20
208.6664442996872
 30
0.0000000000000000
 11
152.3612715445406
 21
208.6664442996872
 31
0.0000000000000000
  0
INSERT
  5
3A6
100
AcDbEntity
  8
MAIN10
  6
BYBLOCK
 62
0
100
AcDbBlockReference
  2
_OPEN
 10
136.2719437323460
 20
208.6664442996872
 30
0.0000000000000000
 41
1.910672187805176
 42
1.910672187805176
 43
1.910672187805176
 50
180.0000000000000
  0
INSERT
  5
3A7
100
AcDbEntity
  8
MAIN10
  6
BYBLOCK
 62
0
100
AcDbBlockReference
  2
_OPEN
 10
154.2719437323458
 20
208.6664442996872
 30
0.0000000000000000
 41
1.910672187805176
 42
1.910672187805176
 43
1.910672187805176
 50
0.0000000000000000
  0
MTEXT
  5
3A8
100
AcDbEntity
  8
MAIN10
  6
BYBLOCK
 62
0
100
AcDbMText
 10
145.2719437323459
 20
210.7164442520035
 30
0.0000000000000000
 40
3.099999904632568
 41
0.0000000000000000
 71
     5
 72
     1
  1
\A1;18
 11
1.000000000000000
 21
0.0000000000000000
 31
0.0000000000000000
  7
STANDARD
  0
ENDBLK
  5
3A9
100
AcDbEntity
  8
MAIN10
  6
CONTINUOUS
 62
12
100
AcDbBlockEnd
  0
BLOCK
  5
3AD
100
AcDbEntity
  8
MAIN10
  6
CONTINUOUS
 62
12
100
AcDbBlockBegin
  2
*D35
 70
    65
 10
0.0
 20
0.0
 30
0.0
  0
LINE
  5
3AE
100
AcDbEntity
  8
MAIN10
  6
BYBLOCK
 62
0
100
AcDbLine
 10
97.10399239390083
 20
252.7687986472974
 30
0.0000000000000000
 11
97.10399239390083
 21
222.1976268431720
 31
0.0000000000000000
  0
LINE
  5
3AF
100
AcDbEntity
  8
MAIN10
  6
BYBLOCK
 62
0
100
AcDbLine
 10
99.01466458170600
 20
224.1976268431720
 30
0.0000000000000000
 11
124.4133202060956
 21
224.1976268431720
 31
0.0000000000000000
  0
INSERT
  5
3B0
100
AcDbEntity
  8
MAIN10
  6
BYBLOCK
 62
0
100
AcDbBlockReference
  2
_OPEN
 10
97.10399239390083
 20
224.1976268431720
 30
0.0000000000000000
 41
1.910672187805176
 42
1.910672187805176
 43
1.910672187805176
 50
180.0000000000000
  0
INSERT
  5
3B1
100
AcDbEntity
  8
MAIN10
  6
BYBLOCK
 62
0
100
AcDbBlockReference
  2
_OPEN
 10
126.3239923939008
 20
224.1976268431720
 30
0.0000000000000000
 41
1.910672187805176
 42
1.910672187805176
 43
1.910672187805176
 50
0.0000000000000000
  0
LINE
  5
3B2
100
AcDbEntity
  8
MAIN10
  6
BYBLOCK
 62
0
100
AcDbLine
 10
126.3239923939008
 20
245.5279416367159
 30
0.0000000000000000
 11
126.3239923939008
 21
222.1976268431720
 31
0.0000000000000000
  0
MTEXT
  5
3B3
100
AcDbEntity
  8
MAIN10
  6
BYBLOCK
 62
0
100
AcDbMText
 10
111.7139923939008
 20
226.2476267954883
 30
0.0000000000000000
 40
3.099999904632568
 41
0.0000000000000000
 71
     5
 72
     1
  1
\A1;29.2
 11
1.000000000000000
 21
0.0000000000000000
 31
0.0000000000000000
  7
STANDARD
  0
ENDBLK
  5
3B4
100
AcDbEntity
  8
MAIN10
  6
CONTINUOUS
 62
12
100
AcDbBlockEnd
  0
ENDSEC
  0
SECTION
  2
ENTITIES
  0
LINE
  5
46
100
AcDbEntity
  8
MAIN0
  6
CONTINUOUS
 62
3
100
AcDbLine
 10
466.4723181340494
 20
349.9732411102581
 30
0.0000000000000000
 11
422.0223181340493
 21
349.9732411102581
 31
0.0000000000000000
  0
LINE
  5
47
100
AcDbEntity
  8
MAIN0
  6
CONTINUOUS
 62
3
100
AcDbLine
 10
515.1714229592742
 20
194.4619706319022
 30
0.0000000000000000
 11
460.1114795576833
 21
226.2508437763760
 31
0.0000000000000000
  0
LINE
  5
48
100
AcDbEntity
  8
MAIN0
  6
CONTINUOUS
 62
3
100
AcDbLine
 10
433.6081567104129
 20
235.3008092459216
 30
0.0000000000000000
 11
416.6081567104129
 21
264.7456729745928
 31
0.0000000000000000
  0
LINE
  5
49
100
AcDbEntity
  8
MAIN0
  6
CONTINUOUS
 62
3
100
AcDbLine
 10
351.0982133088245
 20
232.9567998301206
 30
0.0000000000000000
 11
406.1581567104125
 21
264.7456729745928
 31
0.0000000000000000
  0
LINE
  5
4A
100
AcDbEntity
  8
MAIN0
  6
CONTINUOUS
 62
3
100
AcDbLine
 10
373.3232133088244
 20
194.4619706319023
 30
0.0000000000000000
 11
428.3831567103804
 21
226.2508437763560
 31
0.0000000000000000
  0
LINE
  5
4B
100
AcDbEntity
  8
MAIN0
  6
CONTINUOUS
 62
3
100
AcDbLine
 10
510.1244765304840
 20
197.3758265111498
 30
0.0000000000000000
 11
517.6769765304838
 21
210.4571402353134
 31
0.0000000000000000
  0
LINE
  5
4C
100
AcDbEntity
  8
MAIN0
  6
CONTINUOUS
 62
3
100
AcDbLine
 10
524.7969765304840
 20
222.7893419852036
 30
0.0000000000000000
 11
532.3494765304841
 21
235.8706557093680
 31
0.0000000000000000
  0
LINE
  5
4D
100
AcDbEntity
  8
MAIN0
  6
CONTINUOUS
 62
3
100
AcDbLine
 10
378.3701597376121
 20
197.3758265111484
 30
0.0000000000000000
 11
370.8176597376123
 21
210.4571402353120
 31
0.0000000000000000
  0
LINE
  5
4E
100
AcDbEntity
  8
MAIN0
  6
CONTINUOUS
 62
3
100
AcDbLine
 10
363.6976597376123
 20
222.7893419852024
 30
0.0000000000000000
 11
356.1451597376122
 21
235.8706557093667
 31
0.0000000000000000
  0
LINE
  5
4F
100
AcDbEntity
  8
MAIN0
  6
CONTINUOUS
 62
3
100
AcDbLine
 10
436.7729272973903
 20
232.0192657949787
 30
0.0000000000000000
 11
415.3486420117619
 21
269.1272164255376
 31
0.0000000000000000
  0
LINE
  5
50
100
AcDbEntity
  8
MAIN0
  6
CONTINUOUS
 62
3
100
AcDbLine
 10
473.1459942563367
 20
269.1272164255375
 30
0.0000000000000000
 11
451.7217089707082
 21
232.0192657949787
 31
0.0000000000000000
  0
LINE
  5
51
100
AcDbEntity
  8
MAIN0
  6
CENTER
 62
4
100
AcDbLine
 10
416.9744569533598
 20
276.8192348545004
 30
0.0000000000000000
 11
431.8702958550812
 21
268.2191182547863
 31
0.0000000000000000
  0
LINE
  5
52
100
AcDbEntity
  8
MAIN0
  6
CENTER
 62
4
100
AcDbLine
 10
456.4316623202037
 20
268.1078755060333
 30
0.0000000000000000
 11
471.3139291836521
 21
276.7001562857973
 31
0.0000000000000000
  0
LINE
  5
53
100
AcDbEntity
  8
MAIN0
  6
CONTINUOUS
 62
3
100
AcDbLine
 10
238.2719437323458
 20
282.0732411102579
 30
0.0000000000000000
 11
237.2719437323458
 21
282.0732411102579
 31
0.0000000000000000
  0
LINE
  5
54
100
AcDbEntity
  8
MAIN0
  6
CENTER
 62
4
100
AcDbLine
 10
248.8238825623717
 20
239.0732411102581
 30
0.0000000000000000
 11
221.7968208478546
 21
239.0732411102581
 31
0.0000000000000000
  0
LINE
  5
55
100
AcDbEntity
  8
MAIN0
  6
CONTINUOUS
 62
3
100
AcDbLine
 10
238.2719437323458
 20
231.0732411102581
 30
0.0000000000000000
 11
237.2719437323458
 21
231.0732411102581
 31
0.0000000000000000
  0
LINE
  5
56
100
AcDbEntity
  8
MAIN0
  6
CONTINUOUS
 62
3
100
AcDbLine
 10
237.2719437323458
 20
243.5732411102583
 30
0.0000000000000000
 11
238.2719437323458
 21
243.5732411102583
 31
0.0000000000000000
  0
LINE
  5
57
100
AcDbEntity
  8
MAIN0
  6
CONTINUOUS
 62
3
100
AcDbLine
 10
237.2719437323458
 20
234.5732411102583
 30
0.0000000000000000
 11
238.2719437323458
 21
234.5732411102583
 31
0.0000000000000000
  0
LINE
  5
58
100
AcDbEntity
  8
MAIN0
  6
CONTINUOUS
 62
3
100
AcDbLine
 10
460.7998770173070
 20
273.5166167832322
 30
0.0000000000000000
 11
460.7998770173070
 21
270.6298654372840
 31
0.0000000000000000
  0
LINE
  5
59
100
AcDbEntity
  8
MAIN0
  6
CONTINUOUS
 62
3
100
AcDbLine
 10
463.2998770173070
 20
269.1864897643100
 30
0.0000000000000000
 11
460.7998770173070
 21
270.6298654372840
 31
0.0000000000000000
  0
LINE
  5
5A
100
AcDbEntity
  8
MAIN0
  6
CONTINUOUS
 62
3
100
AcDbLine
 10
463.2998770173068
 20
274.9599924562062
 30
0.0000000000000000
 11
460.7998770173070
 21
273.5166167832322
 31
0.0000000000000000
  0
LINE
  5
5B
100
AcDbEntity
  8
MAIN0
  6
CONTINUOUS
 62
3
100
AcDbLine
 10
465.7998770173069
 20
270.6298654372840
 30
0.0000000000000000
 11
465.7998770173068
 21
273.5166167832321
 31
0.0000000000000000
  0
LINE
  5
5C
100
AcDbEntity
  8
MAIN0
  6
CONTINUOUS
 62
3
100
AcDbLine
 10
465.7998770173069
 20
273.5166167832321
 30
0.0000000000000000
 11
463.2998770173069
 21
274.9599924562061
 31
0.0000000000000000
  0
LINE
  5
5D
100
AcDbEntity
  8
MAIN0
  6
CONTINUOUS
 62
3
100
AcDbLine
 10
465.7998770173068
 20
270.6298654372840
 30
0.0000000000000000
 11
463.2998770173069
 21
269.1864897643100
 31
0.0000000000000000
  0
LINE
  5
5E
100
AcDbEntity
  8
MAIN0
  6
CONTINUOUS
 62
3
100
AcDbLine
 10
425.1947592507916
 20
269.1864897643100
 30
0.0000000000000000
 11
427.6947592507916
 21
270.6298654372841
 31
0.0000000000000000
  0
LINE
  5
5F
100
AcDbEntity
  8
MAIN0
  6
CONTINUOUS
 62
3
100
AcDbLine
 10
427.6947592507917
 20
273.5166167832322
 30
0.0000000000000000
 11
427.6947592507917
 21
270.6298654372841
 31
0.0000000000000000
  0
LINE
  5
60
100
AcDbEntity
  8
MAIN0
  6
CONTINUOUS
 62
3
100
AcDbLine
 10
422.6947592507917
 20
270.6298654372840
 30
0.0000000000000000
 11
425.1947592507916
 21
269.1864897643100
 31
0.0000000000000000
  0
LINE
  5
61
100
AcDbEntity
  8
MAIN0
  6
CONTINUOUS
 62
3
100
AcDbLine
 10
425.1947592507917
 20
274.9599924562062
 30
0.0000000000000000
 11
422.6947592507917
 21
273.5166167832321
 31
0.0000000000000000
  0
LINE
  5
62
100
AcDbEntity
  8
MAIN0
  6
CONTINUOUS
 62
3
100
AcDbLine
 10
422.6947592507918
 20
273.5166167832321
 30
0.0000000000000000
 11
422.6947592507918
 21
270.6298654372840
 31
0.0000000000000000
  0
LINE
  5
63
100
AcDbEntity
  8
MAIN0
  6
CONTINUOUS
 62
3
100
AcDbLine
 10
425.1947592507917
 20
274.9599924562062
 30
0.0000000000000000
 11
427.6947592507916
 21
273.5166167832322
 31
0.0000000000000000
  0
LINE
  5
64
100
AcDbEntity
  8
MAIN0
  6
CONTINUOUS
 62
3
100
AcDbLine
 10
259.5712364336844
 20
291.2782097170813
 30
0.0000000000000000
 11
247.4712364336847
 21
291.2782097170814
 31
0.0000000000000000
  0
LINE
  5
65
100
AcDbEntity
  8
MAIN0
  6
CONTINUOUS
 62
3
100
AcDbLine
 10
247.0712364336847
 20
344.4782097170815
 30
0.0000000000000000
 11
259.9712364336846
 21
344.4782097170815
 31
0.0000000000000000
  0
LINE
  5
66
100
AcDbEntity
  8
MAIN0
  6
CONTINUOUS
 62
12
100
AcDbLine
 10
259.9712364336845
 20
294.8332411102580
 30
0.0000000000000000
 11
247.4312364336847
 21
294.8332411102580
 31
0.0000000000000000
  0
LINE
  5
67
100
AcDbEntity
  8
MAIN0
  6
CONTINUOUS
 62
12
100
AcDbLine
 10
259.9712364336847
 20
340.9732410920127
 30
0.0000000000000000
 11
247.3811736655771
 21
340.9732410920128
 31
0.0000000000000000
  0
LINE
  5
68
100
AcDbEntity
  8
MAIN0
  6
CONTINUOUS
 62
12
100
AcDbLine
 10
259.9712364336846
 20
328.9732411102580
 30
0.0000000000000000
 11
247.3712364336848
 21
328.9732411102580
 31
0.0000000000000000
  0
LINE
  5
69
100
AcDbEntity
  8
MAIN0
  6
CONTINUOUS
 62
3
100
AcDbLine
 10
247.0712364336847
 20
344.4782097170815
 30
0.0000000000000000
 11
247.0712364336846
 21
291.6782097170815
 31
0.0000000000000000
  0
LINE
  5
6A
100
AcDbEntity
  8
MAIN0
  6
CONTINUOUS
 62
12
100
AcDbLine
 10
247.3211736473320
 20
306.8332411102580
 30
0.0000000000000000
 11
259.9712364336845
 21
306.8332411102579
 31
0.0000000000000000
  0
LINE
  5
6B
100
AcDbEntity
  8
MAIN0
  6
CONTINUOUS
 62
3
100
AcDbLine
 10
259.9712364336846
 20
291.6782097170815
 30
0.0000000000000000
 11
259.5712364336846
 21
291.2782097170816
 31
0.0000000000000000
  0
LINE
  5
6C
100
AcDbEntity
  8
MAIN0
  6
HIDDEN
 62
4
100
AcDbLine
 10
252.5019437323458
 20
291.2782097170814
 30
0.0000000000000000
 11
252.5019437323458
 21
344.4782097170815
 31
0.0000000000000000
  0
LINE
  5
6D
100
AcDbEntity
  8
MAIN0
  6
CONTINUOUS
 62
3
100
AcDbLine
 10
259.9712364336847
 20
341.2831783239051
 30
0.0000000000000000
 11
259.6712364336848
 21
340.9831783239052
 31
0.0000000000000000
  0
LINE
  5
6E
100
AcDbEntity
  8
MAIN0
  6
CONTINUOUS
 62
3
100
AcDbLine
 10
247.0712364336845
 20
291.6782097170814
 30
0.0000000000000000
 11
247.4712364336845
 21
291.2782097170814
 31
0.0000000000000000
  0
LINE
  5
6F
100
AcDbEntity
  8
MAIN0
  6
CONTINUOUS
 62
3
100
AcDbLine
 10
259.9712364336846
 20
328.6732411102579
 30
0.0000000000000000
 11
259.6712364336846
 21
328.9732411102580
 31
0.0000000000000000
  0
LINE
  5
70
100
AcDbEntity
  8
MAIN0
  6
CONTINUOUS
 62
3
100
AcDbLine
 10
247.0712364336847
 20
328.6732411102579
 30
0.0000000000000000
 11
247.7719437323458
 21
329.3739484089190
 31
0.0000000000000000
  0
LINE
  5
71
100
AcDbEntity
  8
MAIN0
  6
CONTINUOUS
 62
3
100
AcDbLine
 10
247.0712364336847
 20
341.2831783239052
 30
0.0000000000000000
 11
247.7719437323459
 21
340.5824710252441
 31
0.0000000000000000
  0
LINE
  5
72
100
AcDbEntity
  8
MAIN0
  6
CONTINUOUS
 62
3
100
AcDbLine
 10
247.0712364336847
 20
307.0831783239053
 30
0.0000000000000000
 11
247.7719437323459
 21
306.3824710252441
 31
0.0000000000000000
  0
LINE
  5
73
100
AcDbEntity
  8
MAIN0
  6
CONTINUOUS
 62
3
100
AcDbLine
 10
247.0712364336847
 20
294.4732411102580
 30
0.0000000000000000
 11
247.7719437323459
 21
295.1739484089192
 31
0.0000000000000000
  0
LINE
  5
74
100
AcDbEntity
  8
MAIN0
  6
CONTINUOUS
 62
3
100
AcDbLine
 10
259.9712364336846
 20
294.4732411102580
 30
0.0000000000000000
 11
259.6112364336846
 21
294.8332411102580
 31
0.0000000000000000
  0
LINE
  5
75
100
AcDbEntity
  8
MAIN0
  6
CONTINUOUS
 62
3
100
AcDbLine
 10
259.9712364336847
 20
307.0831783239051
 30
0.0000000000000000
 11
259.7212950377646
 21
306.8332369279850
 31
0.0000000000000000
  0
LINE
  5
76
100
AcDbEntity
  8
MAIN0
  6
CENTER
 62
4
100
AcDbLine
 10
270.8081153889931
 20
102.2206383329449
 30
0.0000000000000000
 11
217.1279066909899
 21
102.2206383329450
 31
0.0000000000000000
  0
LINE
  5
77
100
AcDbEntity
  8
MAIN0
  6
CONTINUOUS
 62
3
100
AcDbLine
 10
252.5019437323458
 20
95.20508078398470
 30
0.0000000000000000
 11
259.5019437323458
 21
95.20508078398470
 31
0.0000000000000000
  0
LINE
  5
78
100
AcDbEntity
  8
MAIN0
  6
CONTINUOUS
 62
3
100
AcDbLine
 10
259.9019437323457
 20
102.3250807839847
 30
0.0000000000000000
 11
259.9019437323457
 21
95.60508078398468
 31
0.0000000000000000
  0
LINE
  5
79
100
AcDbEntity
  8
MAIN0
  6
CONTINUOUS
 62
3
100
AcDbLine
 10
247.0019437323458
 20
102.3250807839847
 30
0.0000000000000000
 11
247.0019437323458
 21
94.27508078398472
 31
0.0000000000000000
  0
LINE
  5
7A
100
AcDbEntity
  8
MAIN0
  6
DASHED
 62
4
100
AcDbLine
 10
259.9019437323457
 20
96.32011217716121
 30
0.0000000000000000
 11
247.0019437323458
 21
96.32011217716124
 31
0.0000000000000000
  0
LINE
  5
7B
100
AcDbEntity
  8
MAIN0
  6
DASHED
 62
4
100
AcDbLine
 10
259.9019437323457
 20
97.22011217716118
 30
0.0000000000000000
 11
247.0019437323458
 21
97.22011217716121
 31
0.0000000000000000
  0
LINE
  5
7C
100
AcDbEntity
  8
MAIN0
  6
DASHED
 62
4
100
AcDbLine
 10
259.9019437323457
 20
107.4300493908084
 30
0.0000000000000000
 11
247.0019437323458
 21
107.4300493908085
 31
0.0000000000000000
  0
LINE
  5
7D
100
AcDbEntity
  8
MAIN0
  6
DASHED
 62
4
100
AcDbLine
 10
247.0019437323458
 20
108.3300493908084
 30
0.0000000000000000
 11
259.9019437323458
 21
108.3300493908084
 31
0.0000000000000000
  0
LINE
  5
7E
100
AcDbEntity
  8
MAIN0
  6
CONTINUOUS
 62
3
100
AcDbLine
 10
259.9019437323457
 20
102.3250807839847
 30
0.0000000000000000
 11
259.9019437323457
 21
108.8850807839848
 31
0.0000000000000000
  0
LINE
  5
7F
100
AcDbEntity
  8
MAIN0
  6
CONTINUOUS
 62
3
100
AcDbLine
 10
247.0019437323458
 20
102.3250807839847
 30
0.0000000000000000
 11
247.0019437323458
 21
110.3750807839847
 31
0.0000000000000000
  0
LINE
  5
80
100
AcDbEntity
  8
MAIN0
  6
CONTINUOUS
 62
3
100
AcDbLine
 10
259.9019437323458
 20
95.60508078398470
 30
0.0000000000000000
 11
259.5019437323459
 21
95.20508078398470
 31
0.0000000000000000
  0
LINE
  5
81
100
AcDbEntity
  8
MAIN0
  6
CONTINUOUS
 62
3
100
AcDbLine
 10
252.5019437323458
 20
109.2850807839849
 30
0.0000000000000000
 11
252.5019437323458
 21
110.3750807839847
 31
0.0000000000000000
  0
LINE
  5
82
100
AcDbEntity
  8
MAIN0
  6
CONTINUOUS
 62
3
100
AcDbLine
 10
252.5019437323458
 20
94.27508078398472
 30
0.0000000000000000
 11
252.5019437323458
 21
95.20508078398476
 31
0.0000000000000000
  0
LINE
  5
83
100
AcDbEntity
  8
MAIN0
  6
CONTINUOUS
 62
3
100
AcDbLine
 10
260.6019437323458
 20
82.99563833294491
 30
0.0000000000000000
 11
241.6119437323459
 21
82.99563833294491
 31
0.0000000000000000
  0
LINE
  5
84
100
AcDbEntity
  8
MAIN0
  6
CONTINUOUS
 62
3
100
AcDbLine
 10
260.6019437323456
 20
121.4456383329450
 30
0.0000000000000000
 11
241.6119437323459
 21
121.4456383329450
 31
0.0000000000000000
  0
LINE
  5
85
100
AcDbEntity
  8
MAIN0
  6
CONTINUOUS
 62
3
100
AcDbLine
 10
241.6119437323459
 20
102.2206383329609
 30
0.0000000000000000
 11
241.6119437323459
 21
80.39563833294491
 31
0.0000000000000000
  0
LINE
  5
86
100
AcDbEntity
  8
MAIN0
  6
CONTINUOUS
 62
3
100
AcDbLine
 10
241.6119437323459
 20
102.2206383329289
 30
0.0000000000000000
 11
241.6119437323459
 21
124.0456383329450
 31
0.0000000000000000
  0
LINE
  5
87
100
AcDbEntity
  8
MAIN0
  6
CONTINUOUS
 62
3
100
AcDbLine
 10
252.5019437323458
 20
109.2850807839847
 30
0.0000000000000000
 11
259.5019437323458
 21
109.2850807839848
 31
0.0000000000000000
  0
LINE
  5
88
100
AcDbEntity
  8
MAIN0
  6
CONTINUOUS
 62
3
100
AcDbLine
 10
259.5019437323459
 20
109.2850807839848
 30
0.0000000000000000
 11
259.9019437323458
 21
108.8850807839849
 31
0.0000000000000000
  0
LINE
  5
89
100
AcDbEntity
  8
MAIN0
  6
CENTER
 62
4
100
AcDbLine
 10
332.4659584998063
 20
261.0732411102581
 30
0.0000000000000000
 11
560.6461043912013
 21
261.0732411102581
 31
0.0000000000000000
  0
LINE
  5
8A
100
AcDbEntity
  8
MAIN0
  6
CENTER
 62
4
100
AcDbLine
 10
404.8113121538246
 20
249.8584071155975
 30
0.0000000000000000
 11
414.7824886710164
 21
232.5878227765837
 31
0.0000000000000000
  0
LINE
  5
8B
100
AcDbEntity
  8
MAIN0
  6
CENTER
 62
4
100
AcDbLine
 10
375.9663486357497
 20
231.5393494713741
 30
0.0000000000000000
 11
385.0028545992850
 21
215.8876620196319
 31
0.0000000000000000
  0
LINE
  5
8C
100
AcDbEntity
  8
MAIN0
  6
CENTER
 62
4
100
AcDbLine
 10
474.0178341460763
 20
233.1172874106320
 30
0.0000000000000000
 11
483.0696681745999
 21
248.7955238497156
 31
0.0000000000000000
  0
LINE
  5
8D
100
AcDbEntity
  8
MAIN0
  6
CENTER
 62
4
100
AcDbLine
 10
504.0454486337152
 20
216.8466413333138
 30
0.0000000000000000
 11
512.9256519793997
 21
232.2276047095826
 31
0.0000000000000000
  0
LINE
  5
8E
100
AcDbEntity
  8
MAIN0
  6
CONTINUOUS
 62
3
100
AcDbLine
 10
466.4723181340493
 20
349.9732411102581
 30
0.0000000000000000
 11
466.4723181340493
 21
355.8009528687504
 31
0.0000000000000000
  0
LINE
  5
8F
100
AcDbEntity
  8
MAIN0
  6
CONTINUOUS
 62
3
100
AcDbLine
 10
422.0223181340493
 20
349.9732411102581
 30
0.0000000000000000
 11
422.0223181340493
 21
355.8009528687504
 31
0.0000000000000000
  0
LINE
  5
90
100
AcDbEntity
  8
MAIN0
  6
CONTINUOUS
 62
3
100
AcDbLine
 10
368.4607994584276
 20
225.5393419852028
 30
0.0000000000000000
 11
375.5807994584275
 21
213.2071402353124
 31
0.0000000000000000
  0
LINE
  5
91
100
AcDbEntity
  8
MAIN0
  6
CONTINUOUS
 62
3
100
AcDbLine
 10
414.5333509397597
 20
252.1393419852029
 30
0.0000000000000000
 11
421.6533509397596
 21
239.8071402353125
 31
0.0000000000000000
  0
LINE
  5
92
100
AcDbEntity
  8
MAIN0
  6
CONTINUOUS
 62
3
100
AcDbLine
 10
520.0338368096698
 20
225.5393419852035
 30
0.0000000000000000
 11
512.9138368096698
 21
213.2071402353132
 31
0.0000000000000000
  0
LINE
  5
93
100
AcDbEntity
  8
MAIN0
  6
CONTINUOUS
 62
3
100
AcDbLine
 10
473.9612853283391
 20
252.1393419852029
 30
0.0000000000000000
 11
466.8412853283390
 21
239.8071402353125
 31
0.0000000000000000
  0
LINE
  5
94
100
AcDbEntity
  8
MAIN0
  6
CONTINUOUS
 62
3
100
AcDbLine
 10
471.8864795576858
 20
264.7456729745927
 30
0.0000000000000000
 11
454.8864795576856
 21
235.3008092459216
 31
0.0000000000000000
  0
LINE
  5
95
100
AcDbEntity
  8
MAIN0
  6
CONTINUOUS
 62
3
100
AcDbLine
 10
150.2719437323459
 20
161.0732411102582
 30
0.0000000000000000
 11
235.2719437323458
 21
161.0732411102582
 31
0.0000000000000000
  0
LINE
  5
96
100
AcDbEntity
  8
MAIN0
  6
CONTINUOUS
 62
3
100
AcDbLine
 10
150.2719437323458
 20
361.0732411102580
 30
0.0000000000000000
 11
235.2719437323458
 21
361.0732411102580
 31
0.0000000000000000
  0
LINE
  5
97
100
AcDbEntity
  8
MAIN0
  6
CONTINUOUS
 62
3
100
AcDbLine
 10
482.3364795576860
 20
264.7456729745927
 30
0.0000000000000000
 11
537.3964229592738
 21
232.9567998301207
 31
0.0000000000000000
  0
LINE
  5
98
100
AcDbEntity
  8
MAIN0
  6
CONTINUOUS
 62
3
100
AcDbLine
 10
513.2742905948164
 20
263.3314645049648
 30
0.0000000000000000
 11
506.1522080660059
 21
250.9956557093665
 31
0.0000000000000000
  0
LINE
  5
99
100
AcDbEntity
  8
MAIN0
  6
CONTINUOUS
 62
3
100
AcDbLine
 10
510.6762143834631
 20
264.8314645049647
 30
0.0000000000000000
 11
503.5541318546526
 21
252.4956557093665
 31
0.0000000000000000
  0
LINE
  5
9A
100
AcDbEntity
  8
MAIN0
  6
CONTINUOUS
 62
3
100
AcDbLine
 10
211.3719437323457
 20
276.9732411102580
 30
0.0000000000000000
 11
236.2719437323458
 21
276.9732411102580
 31
0.0000000000000000
  0
LINE
  5
9B
100
AcDbEntity
  8
MAIN0
  6
CONTINUOUS
 62
3
100
AcDbLine
 10
236.2719437323459
 20
245.1732411102581
 30
0.0000000000000000
 11
211.3719437323460
 21
245.1732411102581
 31
0.0000000000000000
  0
LINE
  5
9C
100
AcDbEntity
  8
MAIN0
  6
CONTINUOUS
 62
3
100
AcDbLine
 10
236.2719437323459
 20
245.1732411102581
 30
0.0000000000000000
 11
237.2719437323459
 21
244.1732411102581
 31
0.0000000000000000
  0
LINE
  5
9D
100
AcDbEntity
  8
MAIN0
  6
CONTINUOUS
 62
3
100
AcDbLine
 10
128.3239923939007
 20
276.9732411102581
 30
0.0000000000000000
 11
151.9243319105612
 21
276.9732411102581
 31
0.0000000000000000
  0
LINE
  5
9E
100
AcDbEntity
  8
MAIN0
  6
CONTINUOUS
 62
3
100
AcDbLine
 10
201.5039923939008
 20
276.9732411102581
 30
0.0000000000000000
 11
224.1039923939007
 21
276.9732411102581
 31
0.0000000000000000
  0
LINE
  5
9F
100
AcDbEntity
  8
MAIN0
  6
CONTINUOUS
 62
3
100
AcDbLine
 10
128.3239923939007
 20
245.1732411102582
 30
0.0000000000000000
 11
160.6353975020301
 21
245.1732411102582
 31
0.0000000000000000
  0
LINE
  5
A0
100
AcDbEntity
  8
MAIN0
  6
CONTINUOUS
 62
3
100
AcDbLine
 10
201.5039923939008
 20
245.1732411102582
 30
0.0000000000000000
 11
224.1039923939007
 21
245.1732411102582
 31
0.0000000000000000
  0
LINE
  5
A1
100
AcDbEntity
  8
MAIN0
  6
CONTINUOUS
 62
3
100
AcDbLine
 10
225.1039923939007
 20
246.1732411102582
 30
0.0000000000000000
 11
225.1039923939007
 21
275.9732411102581
 31
0.0000000000000000
  0
LINE
  5
A2
100
AcDbEntity
  8
MAIN0
  6
CONTINUOUS
 62
3
100
AcDbLine
 10
224.1039923939007
 20
245.1732411102583
 30
0.0000000000000000
 11
225.1039923939007
 21
246.1732411102583
 31
0.0000000000000000
  0
LINE
  5
A3
100
AcDbEntity
  8
MAIN0
  6
CONTINUOUS
 62
3
100
AcDbLine
 10
224.1039923939008
 20
276.9732411102580
 30
0.0000000000000000
 11
225.1039923939008
 21
275.9732411102580
 31
0.0000000000000000
  0
LINE
  5
A4
100
AcDbEntity
  8
MAIN0
  6
CONTINUOUS
 62
3
100
AcDbLine
 10
126.3239923939006
 20
246.3279416486368
 30
0.0000000000000000
 11
128.3239923938992
 21
245.1732411102584
 31
0.0000000000000000
  0
LINE
  5
A5
100
AcDbEntity
  8
MAIN0
  6
CONTINUOUS
 62
3
100
AcDbLine
 10
126.3239923939007
 20
275.8185405718789
 30
0.0000000000000000
 11
128.3239923939005
 21
276.9732411102581
 31
0.0000000000000000
  0
LINE
  5
A6
100
AcDbEntity
  8
MAIN0
  6
PHANTOM
 62
12
100
AcDbLine
 10
98.70399239390079
 20
270.1776835612978
 30
0.0000000000000000
 11
97.10399239390077
 21
268.5776835612979
 31
0.0000000000000000
  0
LINE
  5
A7
100
AcDbEntity
  8
MAIN0
  6
PHANTOM
 62
12
100
AcDbLine
 10
98.59954994286099
 20
270.0732411102580
 30
0.0000000000000000
 11
207.1039923939009
 21
270.0732411102580
 31
0.0000000000000000
  0
LINE
  5
A8
100
AcDbEntity
  8
MAIN0
  6
CONTINUOUS
 62
3
100
AcDbLine
 10
207.1039923939009
 20
270.5732411102580
 30
0.0000000000000000
 11
126.3239923939007
 21
270.5732411102580
 31
0.0000000000000000
  0
LINE
  5
A9
100
AcDbEntity
  8
MAIN0
  6
PHANTOM
 62
12
100
AcDbLine
 10
97.59954994286099
 20
269.0732411102580
 30
0.0000000000000000
 11
137.1039923939007
 21
269.0732411102580
 31
0.0000000000000000
  0
LINE
  5
AA
100
AcDbEntity
  8
MAIN0
  6
PHANTOM
 62
12
100
AcDbLine
 10
207.1039923939009
 20
274.5732411102580
 30
0.0000000000000000
 11
223.7039923939007
 21
274.5732411102580
 31
0.0000000000000000
  0
LINE
  5
AB
100
AcDbEntity
  8
MAIN0
  6
PHANTOM
 62
12
100
AcDbLine
 10
223.7039923939008
 20
274.5732411102579
 30
0.0000000000000000
 11
225.1039923939007
 21
273.1732411102580
 31
0.0000000000000000
  0
LINE
  5
AC
100
AcDbEntity
  8
MAIN0
  6
PHANTOM
 62
12
100
AcDbLine
 10
98.59954994286099
 20
252.0732411102581
 30
0.0000000000000000
 11
207.1039923939009
 21
252.0732411102581
 31
0.0000000000000000
  0
LINE
  5
AD
100
AcDbEntity
  8
MAIN0
  6
CONTINUOUS
 62
3
100
AcDbLine
 10
207.1039923939009
 20
251.5732411102581
 30
0.0000000000000000
 11
126.3239923939007
 21
251.5732411102581
 31
0.0000000000000000
  0
LINE
  5
AE
100
AcDbEntity
  8
MAIN0
  6
PHANTOM
 62
12
100
AcDbLine
 10
207.1039923939009
 20
247.5732411102582
 30
0.0000000000000000
 11
223.7039923939007
 21
247.5732411102582
 31
0.0000000000000000
  0
LINE
  5
AF
100
AcDbEntity
  8
MAIN0
  6
PHANTOM
 62
12
100
AcDbLine
 10
223.7039923939008
 20
247.5732411102582
 30
0.0000000000000000
 11
225.1039923939008
 21
248.9732411102582
 31
0.0000000000000000
  0
LINE
  5
B0
100
AcDbEntity
  8
MAIN0
  6
PHANTOM
 62
12
100
AcDbLine
 10
223.7039923939006
 20
248.0732411102582
 30
0.0000000000000000
 11
223.7039923939006
 21
274.0732411102580
 31
0.0000000000000000
  0
LINE
  5
B1
100
AcDbEntity
  8
MAIN0
  6
CONTINUOUS
 62
3
100
AcDbLine
 10
207.1039923939009
 20
246.8232411102581
 30
0.0000000000000000
 11
207.1039923939009
 21
275.3232411102581
 31
0.0000000000000000
  0
LINE
  5
B2
100
AcDbEntity
  8
MAIN0
  6
PHANTOM
 62
12
100
AcDbLine
 10
98.70399239390076
 20
251.9687986592183
 30
0.0000000000000000
 11
97.10399239390071
 21
253.5687986592183
 31
0.0000000000000000
  0
LINE
  5
B3
100
AcDbEntity
  8
MAIN0
  6
PHANTOM
 62
12
100
AcDbLine
 10
97.59954994286099
 20
253.0732411102581
 30
0.0000000000000000
 11
137.1039923939007
 21
253.0732411102581
 31
0.0000000000000000
  0
LINE
  5
B4
100
AcDbEntity
  8
MAIN0
  6
PHANTOM
 62
12
100
AcDbLine
 10
137.1039923939007
 20
251.9687986592183
 30
0.0000000000000000
 11
137.1039923939007
 21
270.1776835612978
 31
0.0000000000000000
  0
LINE
  5
B5
100
AcDbEntity
  8
MAIN0
  6
PHANTOM
 62
12
100
AcDbLine
 10
97.10399239390071
 20
253.5687986592183
 30
0.0000000000000000
 11
97.10399239390071
 21
268.5776835612978
 31
0.0000000000000000
  0
LINE
  5
B6
100
AcDbEntity
  8
MAIN0
  6
CONTINUOUS
 62
3
100
AcDbLine
 10
236.2719437323459
 20
276.9732411102581
 30
0.0000000000000000
 11
237.2719437323459
 21
277.9732411102581
 31
0.0000000000000000
  0
LINE
  5
B7
100
AcDbEntity
  8
MAIN0
  6
CONTINUOUS
 62
3
100
AcDbLine
 10
126.3239923939007
 20
246.3279416486368
 30
0.0000000000000000
 11
126.3239923939007
 21
275.8185405718789
 31
0.0000000000000000
  0
LINE
  5
B8
100
AcDbEntity
  8
MAIN0
  6
CONTINUOUS
 62
3
100
AcDbLine
 10
290.0019437323458
 20
315.2232411102579
 30
0.0000000000000000
 11
290.0019437323458
 21
321.2232411102579
 31
0.0000000000000000
  0
LINE
  5
B9
100
AcDbEntity
  8
MAIN0
  6
CONTINUOUS
 62
3
100
AcDbLine
 10
293.0019437323456
 20
318.2232411102579
 30
0.0000000000000000
 11
287.0019437323464
 21
318.2232411102579
 31
0.0000000000000000
  0
LINE
  5
BA
100
AcDbEntity
  8
MAIN0
  6
CONTINUOUS
 62
3
100
AcDbLine
 10
292.1232640759056
 20
320.3445614538178
 30
0.0000000000000000
 11
287.8806233887860
 21
316.1019207666981
 31
0.0000000000000000
  0
LINE
  5
BB
100
AcDbEntity
  8
MAIN0
  6
CONTINUOUS
 62
3
100
AcDbLine
 10
292.1232640759044
 20
316.1019207666991
 30
0.0000000000000000
 11
287.8806233887872
 21
320.3445614538163
 31
0.0000000000000000
  0
LINE
  5
BC
100
AcDbEntity
  8
MAIN0
  6
CONTINUOUS
 62
3
100
AcDbLine
 10
238.2719437323458
 20
231.0732411102583
 30
0.0000000000000000
 11
238.2719437323458
 21
282.0732411102579
 31
0.0000000000000000
  0
LINE
  5
BD
100
AcDbEntity
  8
MAIN0
  6
CENTER
 62
12
100
AcDbLine
 10
240.4539842871880
 20
173.5083364505026
 30
0.0000000000000000
 11
207.8600980948694
 21
173.5083364505026
 31
0.0000000000000000
  0
LINE
  5
BE
100
AcDbEntity
  8
MAIN0
  6
CONTINUOUS
 62
3
100
AcDbLine
 10
237.2719437323458
 20
242.3966586102582
 30
0.0000000000000000
 11
237.2719437323458
 21
359.0732411102580
 31
0.0000000000000000
  0
ARC
  5
BF
100
AcDbEntity
  8
MAIN0
  6
CONTINUOUS
 62
3
100
AcDbCircle
 10
444.2473181340494
 20
261.0732411102582
 30
0.0000000000000000
 40
97.29999999999996
100
AcDbArc
 50
76.82366578211256
 51
103.1763342178860
  0
ARC
  5
C0
100
AcDbEntity
  8
MAIN0
  6
CONTINUOUS
 62
3
100
AcDbCircle
 10
444.2473181340498
 20
261.0732411102572
 30
0.0000000000000000
 40
97.29999999999996
100
AcDbArc
 50
316.8236657821133
 51
343.1763342178867
  0
ARC
  5
C1
100
AcDbEntity
  8
MAIN0
  6
CONTINUOUS
 62
3
100
AcDbCircle
 10
444.2473181340488
 20
261.0732411102572
 30
0.0000000000000000
 40
97.29999999999996
100
AcDbArc
 50
196.8236657821128
 51
223.1763342178863
  0
ARC
  5
C2
100
AcDbEntity
  8
MAIN0
  6
CONTINUOUS
 62
3
100
AcDbCircle
 10
444.2473181340494
 20
261.0732411102581
 30
0.0000000000000000
 40
30.00000000000000
100
AcDbArc
 50
255.5729959991941
 51
284.4270040008055
  0
ARC
  5
C3
100
AcDbEntity
  8
MAIN0
  6
CONTINUOUS
 62
3
100
AcDbCircle
 10
444.2473181340494
 20
261.0732411102581
 30
0.0000000000000000
 40
30.00000000000000
100
AcDbArc
 50
15.57299599919432
 51
37.20182855131657
  0
ARC
  5
C4
100
AcDbEntity
  8
MAIN0
  6
CENTER
 62
4
100
AcDbCircle
 10
444.2473181340494
 20
261.0732411102581
 30
0.0000000000000000
 40
22.00000000000000
100
AcDbArc
 50
240.1185522123317
 51
295.4318682610366
  0
ARC
  5
C5
100
AcDbEntity
  8
MAIN0
  6
CENTER
 62
4
100
AcDbCircle
 10
444.2473181340494
 20
261.0732411102581
 30
0.0000000000000000
 40
22.00000000000000
100
AcDbArc
 50
8.735820371442733
 51
68.67492234553833
  0
ARC
  5
C6
100
AcDbEntity
  8
MAIN0
  6
CENTER
 62
4
100
AcDbCircle
 10
444.2473181340494
 20
261.0732411102581
 30
0.0000000000000000
 40
22.00000000000000
100
AcDbArc
 50
129.0612462214805
 51
171.8219631815680
  0
ARC
  5
C7
100
AcDbEntity
  8
MAIN0
  6
CONTINUOUS
 62
3
100
AcDbCircle
 10
463.2998770173069
 20
272.0732411102581
 30
0.0000000000000000
 40
7.000000000000000
100
AcDbArc
 50
146.1415633405447
 51
419.3441637666828
  0
ARC
  5
C8
100
AcDbEntity
  8
MAIN0
  6
CONTINUOUS
 62
3
100
AcDbCircle
 10
425.1947592507917
 20
272.0732411102581
 30
0.0000000000000000
 40
7.000000000000000
100
AcDbArc
 50
120.6558362311454
 51
393.8584366594551
  0
ARC
  5
C9
100
AcDbEntity
  8
MAIN0
  6
CONTINUOUS
 62
3
100
AcDbCircle
 10
249.7519437323458
 20
94.27508078398469
 30
0.0000000000000000
 40
2.750000000000000
100
AcDbArc
 50
179.9999999999998
 51
359.9999999999998
  0
ARC
  5
CA
100
AcDbEntity
  8
MAIN0
  6
CONTINUOUS
 62
3
100
AcDbCircle
 10
249.7519437323458
 20
110.3750807839847
 30
0.0000000000000000
 40
2.750000000000000
100
AcDbArc
 50
359.9999999999998
 51
539.9999999999999
  0
CIRCLE
  5
CB
100
AcDbEntity
  8
MAIN0
  6
CONTINUOUS
 62
12
100
AcDbCircle
 10
380.2480407943797
 20
224.1232411102577
 30
0.0000000000000000
 40
6.000000000000000
  0
CIRCLE
  5
CC
100
AcDbEntity
  8
MAIN0
  6
CONTINUOUS
 62
12
100
AcDbCircle
 10
409.8141480795804
 20
241.1932411102578
 30
0.0000000000000000
 40
6.000000000000000
  0
CIRCLE
  5
CD
100
AcDbEntity
  8
MAIN0
  6
CONTINUOUS
 62
3
100
AcDbCircle
 10
380.2480407943797
 20
224.1232411102577
 30
0.0000000000000000
 40
5.000000000000000
  0
CIRCLE
  5
CE
100
AcDbEntity
  8
MAIN0
  6
CONTINUOUS
 62
3
100
AcDbCircle
 10
409.8141480795804
 20
241.1932411102578
 30
0.0000000000000000
 40
5.000000000000000
  0
CIRCLE
  5
CF
100
AcDbEntity
  8
MAIN0
  6
CONTINUOUS
 62
12
100
AcDbCircle
 10
508.2465954737154
 20
224.1232411102577
 30
0.0000000000000000
 40
6.000000000000000
  0
CIRCLE
  5
D0
100
AcDbEntity
  8
MAIN0
  6
CONTINUOUS
 62
12
100
AcDbCircle
 10
478.6804881885183
 20
241.1932411102578
 30
0.0000000000000000
 40
6.000000000000000
  0
CIRCLE
  5
D1
100
AcDbEntity
  8
MAIN0
  6
CONTINUOUS
 62
3
100
AcDbCircle
 10
508.2465954737154
 20
224.1232411102577
 30
0.0000000000000000
 40
5.000000000000000
  0
CIRCLE
  5
D2
100
AcDbEntity
  8
MAIN0
  6
CONTINUOUS
 62
3
100
AcDbCircle
 10
478.6804881885183
 20
241.1932411102578
 30
0.0000000000000000
 40
5.000000000000000
  0
ARC
  5
D3
100
AcDbEntity
  8
MAIN0
  6
CONTINUOUS
 62
3
100
AcDbCircle
 10
518.6117971369777
 20
249.2740282143805
 30
0.0000000000000000
 40
5.500000000000000
100
AcDbArc
 50
270.5028527719697
 51
569.4971472280308
  0
ARC
  5
D4
100
AcDbEntity
  8
MAIN0
  6
CONTINUOUS
 62
3
100
AcDbCircle
 10
518.6117971369777
 20
249.2740282143806
 30
0.0000000000000000
 40
4.999999999999996
100
AcDbArc
 50
261.7339412926618
 51
581.3992577300921
  0
ARC
  5
D5
100
AcDbEntity
  8
MAIN0
  6
CONTINUOUS
 62
3
100
AcDbCircle
 10
468.8695427836784
 20
215.7224540061357
 30
0.0000000000000000
 40
5.500000000000000
100
AcDbArc
 50
90.50285277197401
 51
389.4971472280249
  0
ARC
  5
D6
100
AcDbEntity
  8
MAIN0
  6
CONTINUOUS
 62
3
100
AcDbCircle
 10
396.8466605200927
 20
202.5713196024635
 30
0.0000000000000000
 40
5.500000000000000
100
AcDbArc
 50
150.5028527719813
 51
449.4971472280188
  0
ARC
  5
D7
100
AcDbEntity
  8
MAIN0
  6
CONTINUOUS
 62
3
100
AcDbCircle
 10
396.8466605200935
 20
202.5713196024632
 30
0.0000000000000000
 40
4.999999999999996
100
AcDbArc
 50
138.6007422698988
 51
299.9999999999993
  0
ARC
  5
D8
100
AcDbEntity
  8
MAIN0
  6
CONTINUOUS
 62
3
100
AcDbCircle
 10
396.8466605200935
 20
202.5713196024632
 30
0.0000000000000000
 40
4.999999999999996
100
AcDbArc
 50
-60.00000000000034
 51
101.3992577301010
  0
ARC
  5
D9
100
AcDbEntity
  8
MAIN0
  6
CONTINUOUS
 62
3
100
AcDbCircle
 10
369.8828391311181
 20
249.2740282143796
 30
0.0000000000000000
 40
5.500000000000000
100
AcDbArc
 50
330.5028527719811
 51
629.4971472280187
  0
ARC
  5
DA
100
AcDbEntity
  8
MAIN0
  6
CONTINUOUS
 62
3
100
AcDbCircle
 10
369.8828391311182
 20
249.2740282143804
 30
0.0000000000000000
 40
4.999999999999996
100
AcDbArc
 50
120.0000000000007
 51
281.3992577301013
  0
ARC
  5
DB
100
AcDbEntity
  8
MAIN0
  6
CONTINUOUS
 62
3
100
AcDbCircle
 10
369.8828391311182
 20
249.2740282143804
 30
0.0000000000000000
 40
4.999999999999996
100
AcDbArc
 50
318.6007422698984
 51
480.0000000000006
  0
ARC
  5
DC
100
AcDbEntity
  8
MAIN0
  6
CONTINUOUS
 62
3
100
AcDbCircle
 10
392.6612720954455
 20
262.4251626180518
 30
0.0000000000000000
 40
5.500000000000000
100
AcDbArc
 50
-29.49714722801857
 51
269.4971472280189
  0
ARC
  5
DD
100
AcDbEntity
  8
MAIN0
  6
CONTINUOUS
 62
3
100
AcDbCircle
 10
392.6612720954447
 20
262.4251626180522
 30
0.0000000000000000
 40
4.999999999999996
100
AcDbArc
 50
-41.39925773010127
 51
119.9999999999991
  0
ARC
  5
DE
100
AcDbEntity
  8
MAIN0
  6
CONTINUOUS
 62
3
100
AcDbCircle
 10
392.6612720954447
 20
262.4251626180522
 30
0.0000000000000000
 40
4.999999999999996
100
AcDbArc
 50
119.9999999999995
 51
281.3992577301016
  0
ARC
  5
DF
100
AcDbEntity
  8
MAIN0
  6
CONTINUOUS
 62
3
100
AcDbCircle
 10
444.2473181340494
 20
261.0732411102581
 30
0.0000000000000000
 40
30.00000000000000
100
AcDbArc
 50
142.5847907417933
 51
164.4270040008057
  0
ARC
  5
E0
100
AcDbEntity
  8
MAIN0
  6
CONTINUOUS
 62
3
100
AcDbCircle
 10
444.2473181340494
 20
261.0732411102581
 30
0.0000000000000000
 40
30.00000000000000
100
AcDbArc
 50
15.57299599919437
 51
37.41520925771137
  0
ARC
  5
E1
100
AcDbEntity
  8
MAIN0
  6
CONTINUOUS
 62
3
100
AcDbCircle
 10
444.2473181340494
 20
261.0732411102581
 30
0.0000000000000000
 40
30.00000000000000
100
AcDbArc
 50
255.5729959991941
 51
284.4270040008055
  0
CIRCLE
  5
E2
100
AcDbEntity
  8
MAIN0
  6
DASHED
 62
4
100
AcDbCircle
 10
444.2473181340494
 20
261.0732411102581
 30
0.0000000000000000
 40
15.89999999999987
  0
DIMENSION
  5
EB
100
AcDbEntity
  8
MAIN10
  6
CONTINUOUS
 62
12
100
AcDbDimension
  2
*D0
 10
237.2719437323458
 20
385.4703409849021
 30
0.0000000000000000
 11
248.9369437323458
 21
385.9703409849021
 31
0.0000000000000000
 70
32
  3
MAIN001
100
AcDbAlignedDimension
 13
260.6019437323457
 23
349.4732411221790
 33
0.0000000000000000
 14
237.2719437323458
 24
359.8732411221789
 34
0.0000000000000000
100
AcDbRotatedDimension
1001
ACAD
1000
DSTYLE
1002
{
1070
   173
1070
     1
1070
     6
1000
_OPEN
1070
     7
1000
_OPEN
1070
    41
1040
1.910672
1002
}
  0
DIMENSION
  5
F4
100
AcDbEntity
  8
MAIN10
  6
CONTINUOUS
 62
12
100
AcDbDimension
  2
*D1
 10
260.6019437323457
 20
385.4703409849021
 30
0.0000000000000000
 11
287.6869437323458
 21
385.9703409849021
 31
0.0000000000000000
 70
32
  3
MAIN001
100
AcDbAlignedDimension
 13
314.7719437323459
 23
349.7732411221790
 33
0.0000000000000000
 14
260.6019437323457
 24
349.4732411221790
 34
0.0000000000000000
100
AcDbRotatedDimension
1001
ACAD
1000
DSTYLE
1002
{
1070
   173
1070
     1
1070
     6
1000
_OPEN
1070
     7
1000
_OPEN
1070
    41
1040
1.910672
1002
}
  0
DIMENSION
  5
FC
100
AcDbEntity
  8
MAIN10
  6
CONTINUOUS
 62
12
100
AcDbDimension
  2
*D2
 10
349.2089388332255
 20
261.0732411102581
 30
0.0000000000000000
 11
551.8871897060362
 21
232.2312244491538
 31
0.0000000000000000
 70
162
  3
MAIN001
100
AcDb2LineAngularDimension
 13
535.8089747305086
 23
208.2100940268433
 33
0.0000000000000000
 14
534.9429493267242
 24
208.7100940268433
 34
0.0000000000000000
 15
444.2473181340483
 25
261.0732411102581
 35
0.0000000000000000
 16
552.3701526191808
 26
232.1018149266025
 36
0.0000000000000000
1001
ACAD
1000
DSTYLE
1002
{
1070
   173
1070
     1
1070
     6
1000
_OPEN
1070
     7
1000
_OPEN
1070
    41
1040
1.910672
1002
}
  0
DIMENSION
  5
104
100
AcDbEntity
  8
MAIN0
  6
CONTINUOUS
 62
12
100
AcDbDimension
  2
*D3
 10
516.0389762929433
 20
302.5221742738659
 30
0.0000000000000000
 11
551.8871897060365
 21
289.9152577713621
 31
0.0000000000000000
 70
162
  3
MAIN001
100
AcDb2LineAngularDimension
 13
349.2089388332255
 23
261.0732411102581
 33
0.0000000000000000
 14
444.2473181340483
 24
261.0732411102581
 34
0.0000000000000000
 15
515.1729508891588
 25
302.0221742738659
 35
0.0000000000000000
 16
552.3701526191809
 26
290.0446672939134
 36
0.0000000000000000
1001
ACAD
1000
DSTYLE
1002
{
1070
   173
1070
     1
1070
     6
1000
_OPEN
1070
     7
1000
_OPEN
1070
    41
1040
1.910672
1002
}
  0
DIMENSION
  5
10D
100
AcDbEntity
  8
MAIN10
  6
CONTINUOUS
 62
12
100
AcDbDimension
  2
*D4
 10
261.3378725803286
 20
184.3982411102581
 30
0.0000000000000000
 11
260.8378725803286
 21
194.3982411102582
 31
0.0000000000000000
 70
32
  1
\A1;\U+220520
  3
MAIN001
100
AcDbAlignedDimension
 13
237.4719437442667
 23
204.3982411102583
 33
0.0000000000000000
 14
237.4719437442667
 24
184.3982411102581
 34
0.0000000000000000
 50
90.00000000000000
100
AcDbRotatedDimension
1001
ACAD
1000
DSTYLE
1002
{
1070
   173
1070
     1
1070
     6
1000
_OPEN
1070
     7
1000
_OPEN
1070
    41
1040
1.910672
1002
}
  0
DIMENSION
  5
116
100
AcDbEntity
  8
MAIN10
  6
CONTINUOUS
 62
12
100
AcDbDimension
  2
*D5
 10
285.5604464182662
 20
79.99563833294491
 30
0.0000000000000000
 11
285.0604464182662
 21
102.2206383329449
 31
0.0000000000000000
 70
32
  1
\A1;44.45h7
  3
MAIN001
100
AcDbAlignedDimension
 13
265.6019437323456
 23
124.4456383329450
 33
0.0000000000000000
 14
265.6019437323458
 24
79.99563833294491
 34
0.0000000000000000
 50
90.00000000000000
100
AcDbRotatedDimension
1001
ACAD
1000
DSTYLE
1002
{
1070
   173
1070
     1
1070
     6
1000
_OPEN
1070
     7
1000
_OPEN
1070
    41
1040
1.910672
1002
}
  0
DIMENSION
  5
11D
100
AcDbEntity
  8
MAIN10
  6
CONTINUOUS
 62
12
100
AcDbDimension
  2
*D6
 10
199.0170332124438
 20
187.6482411102582
 30
0.0000000000000000
 11
198.5170332124438
 21
194.3982411102582
 31
0.0000000000000000
 70
32
  1
\A1;\U+220513.5
  3
MAIN001
100
AcDbAlignedDimension
 13
193.7841031268281
 23
201.1482411102582
 33
0.0000000000000000
 14
195.3331143823506
 24
187.6482411102582
 34
0.0000000000000000
 50
90.00000000000000
100
AcDbRotatedDimension
1001
ACAD
1000
DSTYLE
1002
{
1070
   173
1070
     1
1070
     6
1000
_OPEN
1070
     7
1000
_OPEN
1070
    41
1040
1.910672
1002
}
  0
DIMENSION
  5
126
100
AcDbEntity
  8
MAIN10
  6
CONTINUOUS
 62
12
100
AcDbDimension
  2
*D7
 10
415.7473181342310
 20
385.4703409849021
 30
0.0000000000000000
 11
444.2473181342310
 21
385.9703409849021
 31
0.0000000000000000
 70
32
  3
MAIN001
100
AcDbAlignedDimension
 13
472.7473181342310
 23
348.9732411102580
 33
0.0000000000000000
 14
415.7473181342310
 24
348.9732411102581
 34
0.0000000000000000
100
AcDbRotatedDimension
1001
ACAD
1000
DSTYLE
1002
{
1070
   173
1070
     1
1070
     6
1000
_OPEN
1070
     7
1000
_OPEN
1070
    41
1040
1.910672
1002
}
  0
DIMENSION
  5
12F
100
AcDbEntity
  8
MAIN10
  6
CONTINUOUS
 62
12
100
AcDbDimension
  2
*D8
 10
260.6019437323457
 20
374.9275966375078
 30
0.0000000000000000
 11
275.3019437323458
 21
375.4275966375078
 31
0.0000000000000000
 70
32
  3
MAIN001
100
AcDbAlignedDimension
 13
290.0019437323458
 23
322.0232411221788
 33
0.0000000000000000
 14
260.6019437323457
 24
349.4732411221790
 34
0.0000000000000000
100
AcDbRotatedDimension
1001
ACAD
1000
DSTYLE
1002
{
1070
   173
1070
     1
1070
     6
1000
_OPEN
1070
     7
1000
_OPEN
1070
    41
1040
1.910672
1002
}
  0
DIMENSION
  5
136
100
AcDbEntity
  8
MAIN10
  6
CONTINUOUS
 62
12
100
AcDbDimension
  2
*D9
 10
434.8998566221292
 20
241.1577957654216
 30
0.0000000000000000
 11
439.7475174296804
 21
252.6628791215767
 31
0.0000000000000000
 70
163
  3
MAIN001
100
AcDbDiametricDimension
 15
453.5947796459694
 25
280.9886864550946
 35
0.0000000000000000
1001
ACAD
1000
DSTYLE
1002
{
1070
   287
1070
     2
1070
   173
1070
     1
1070
     6
1000
_OPEN
1070
     7
1000
_OPEN
1070
    41
1040
1.910672
1002
}
  0
DIMENSION
  5
13D
100
AcDbEntity
  8
MAIN10
  6
CONTINUOUS
 62
12
100
AcDbDimension
  2
*D10
 10
458.8137047286950
 20
221.8983779173588
 30
0.0000000000000000
 11
510.7314940415084
 21
238.1772461277181
 31
0.0000000000000000
 70
163
  3
MAIN001
100
AcDbDiametricDimension
 15
528.6676351919639
 25
243.0981043031569
 35
0.0000000000000000
1001
ACAD
1000
DSTYLE
1002
{
1070
   287
1070
     2
1070
   173
1070
     1
1070
     6
1000
_OPEN
1070
     7
1000
_OPEN
1070
    41
1040
1.910672
1002
}
  0
DIMENSION
  5
145
100
AcDbEntity
  8
MAIN10
  6
CONTINUOUS
 62
12
100
AcDbDimension
  2
*D11
 10
221.2719437323458
 20
209.5890292410154
 30
0.0000000000000000
 11
229.2719437323458
 21
210.0890292410154
 31
0.0000000000000000
 70
32
  3
MAIN001
100
AcDbAlignedDimension
 13
237.2719437323458
 23
163.0732411102582
 33
0.0000000000000000
 14
221.2719437323458
 24
205.1982411221791
 34
0.0000000000000000
100
AcDbRotatedDimension
1001
ACAD
1000
DSTYLE
1002
{
1070
   173
1070
     1
1070
     6
1000
_OPEN
1070
     7
1000
_OPEN
1070
    41
1040
1.910672
1002
}
  0
DIMENSION
  5
14E
100
AcDbEntity
  8
MAIN10
  6
CONTINUOUS
 62
12
100
AcDbDimension
  2
*D12
 10
212.2722050882901
 20
145.3186278460520
 30
0.0000000000000000
 11
224.7720744103180
 21
145.8186278460520
 31
0.0000000000000000
 70
32
  3
MAIN001
100
AcDbAlignedDimension
 13
237.2719437323458
 23
163.0732411102582
 33
0.0000000000000000
 14
212.2722050882901
 24
172.7083364385816
 34
0.0000000000000000
100
AcDbRotatedDimension
1001
ACAD
1000
DSTYLE
1002
{
1070
   173
1070
     1
1070
     6
1000
_OPEN
1070
     7
1000
_OPEN
1070
    41
1040
1.910672
1002
}
  0
DIMENSION
  5
157
100
AcDbEntity
  8
MAIN10
  6
CONTINUOUS
 62
12
100
AcDbDimension
  2
*D13
 10
502.9062631013337
 20
319.7321860775425
 30
0.0000000000000000
 11
533.4495837696405
 21
329.5205469213158
 31
0.0000000000000000
 70
162
  3
MAIN001
100
AcDb2LineAngularDimension
 13
516.0389762929433
 23
302.5221742738659
 33
0.0000000000000000
 14
515.1729508891589
 24
302.0221742738659
 34
0.0000000000000000
 15
502.1991563201472
 25
319.0250792963560
 35
0.0000000000000000
 16
533.0529070994950
 26
329.2161662068115
 36
0.0000000000000000
1001
ACAD
1000
DSTYLE
1002
{
1070
   173
1070
     1
1070
     6
1000
_OPEN
1070
     7
1000
_OPEN
1070
    41
1040
1.910672
1002
}
  0
DIMENSION
  5
160
100
AcDbEntity
  8
MAIN10
  6
CONTINUOUS
 62
12
100
AcDbDimension
  2
*D14
 10
444.2473181340494
 20
366.4176751540640
 30
0.0000000000000000
 11
487.2750933440707
 21
364.9514795810317
 31
0.0000000000000000
 70
162
  3
MAIN001
100
AcDb2LineAngularDimension
 13
502.9062631013337
 23
319.7321860775425
 33
0.0000000000000000
 14
502.1991563201472
 24
319.0250792963560
 34
0.0000000000000000
 15
444.2473181340494
 25
365.4176751540640
 35
0.0000000000000000
 16
487.0837516278882
 26
364.4895398147760
 36
0.0000000000000000
1001
ACAD
1000
DSTYLE
1002
{
1070
   173
1070
     1
1070
     6
1000
_OPEN
1070
     7
1000
_OPEN
1070
    41
1040
1.910672
1002
}
  0
LINE
  5
161
100
AcDbEntity
  8
MAIN0
  6
CONTINUOUS
 62
3
100
AcDbLine
 10
406.1581567104126
 20
264.7456729745928
 30
0.0000000000000000
 11
416.6081567104129
 21
264.7456729745928
 31
0.0000000000000000
  0
LINE
  5
162
100
AcDbEntity
  8
MAIN0
  6
CONTINUOUS
 62
3
100
AcDbLine
 10
428.3831567103804
 20
226.2508437763560
 30
0.0000000000000000
 11
433.6081567104129
 21
235.3008092459216
 31
0.0000000000000000
  0
LINE
  5
163
100
AcDbEntity
  8
MAIN0
  6
CONTINUOUS
 62
3
100
AcDbLine
 10
471.8864795576858
 20
264.7456729745927
 30
0.0000000000000000
 11
482.3364795576859
 21
264.7456729745927
 31
0.0000000000000000
  0
LINE
  5
164
100
AcDbEntity
  8
MAIN0
  6
CONTINUOUS
 62
3
100
AcDbLine
 10
454.8864795576856
 20
235.3008092459216
 30
0.0000000000000000
 11
460.1114795576833
 21
226.2508437763760
 31
0.0000000000000000
  0
LINE
  5
165
100
AcDbEntity
  8
MAIN0
  6
CONTINUOUS
 62
3
100
AcDbLine
 10
207.1039923939009
 20
275.3232411102581
 30
0.0000000000000000
 11
225.1039923939007
 21
275.3232411102581
 31
0.0000000000000000
  0
LINE
  5
166
100
AcDbEntity
  8
MAIN0
  6
CONTINUOUS
 62
3
100
AcDbLine
 10
207.1039923939009
 20
246.8232411102581
 30
0.0000000000000000
 11
225.1039923939007
 21
246.8232411102581
 31
0.0000000000000000
  0
LINE
  5
167
100
AcDbEntity
  8
MAIN0
  6
CENTER
 62
3
100
AcDbLine
 10
217.2719437323458
 20
153.1747334641961
 30
0.0000000000000000
 11
217.2719437323458
 21
190.0052981612923
 31
0.0000000000000000
  0
LEADER
  5
168
100
AcDbEntity
  8
MAIN0
  6
CONTINUOUS
 62
3
100
AcDbLeader
  3
MAIN001
 73
     0
 75
     1
 40
3.099999904632568
 41
63.78900186920168
 76
     3
 10
353.3041952137268
 20
256.0732411102584
 30
0.0000000000000000
 10
339.3409076133053
 20
239.5685352993093
 30
0.0000000000000000
 10
337.4139076690952
 20
239.5685352993093
 30
0.0000000000000000
340
169
213
0.0000000000000000
223
-0.5000000000000000
233
0.0000000000000000
1001
ACAD
1000
DSTYLE
1002
{
1070
   147
1040
0.0
1070
    77
1070
     1
1070
   173
1070
     1
1070
     6
1000
_OPEN
1070
     7
1000
_OPEN
1002
}
  0
MTEXT
  5
169
102
{ACAD_REACTORS
330
168
102
}
100
AcDbEntity
  8
MAIN0
  6
CONTINUOUS
 62
3
100
AcDbMText
 10
273.6249057998936
 20
243.1685352039419
 30
0.0000000000000000
 40
3.099999904632568
 41
0.0000000000000000
 71
     1
 72
     1
  1
{\H0.94x;{2-M10 ネジ深20 アイボルト用\P2-M10 DEPTH 20 EYE BOLT}}
 11
1.000000000000000
 21
0.0000000000000000
 31
0.0000000000000000
  7
KNJYOKO
  0
DIMENSION
  5
171
100
AcDbEntity
  8
MAIN10
  6
CONTINUOUS
 62
3
100
AcDbDimension
  2
*D15
 10
237.2719437323458
 20
153.3105450399953
 30
0.0000000000000000
 11
227.2719437323458
 21
153.8105450399953
 31
0.0000000000000000
 70
32
  3
MAIN001
100
AcDbAlignedDimension
 13
217.2719437323458
 23
153.1747334641961
 33
0.0000000000000000
 14
237.2719437323458
 24
163.0732411102582
 34
0.0000000000000000
100
AcDbRotatedDimension
1001
ACAD
1000
DSTYLE
1002
{
1070
   173
1070
     1
1070
     6
1000
_OPEN
1070
     7
1000
_OPEN
1070
    41
1040
2.000000
1002
}
  0
LEADER
  5
172
100
AcDbEntity
  8
MAIN3
  6
CONTINUOUS
 62
3
100
AcDbLeader
  3
MAIN001
 73
     0
 74
     0
 75
     0
 40
0.0000000000000000
 41
0.0000000000000000
 76
     4
 10
270.8315186591401
 20
244.0825732210583
 30
0.0000000000000000
 10
275.3315186591401
 20
244.0825732210583
 30
0.0000000000000000
 10
273.0815186591402
 20
247.9796875380883
 30
0.0000000000000000
 10
270.8315186591402
 20
244.0825732210583
 30
0.0000000000000000
340
173
213
-1.469999999999970
223
-0.3000000000000114
233
0.0000000000000000
1001
ACAD
1000
DSTYLE
1002
{
1070
   147
1040
0.0
1070
    77
1070
     0
1070
   173
1070
     1
1070
     6
1000
_NONE
1070
     7
1000
_NONE
1002
}
  0
MTEXT
  5
173
102
{ACAD_REACTORS
330
172
102
}
100
AcDbEntity
  8
MAIN3
  6
CONTINUOUS
 62
3
100
AcDbMText
 10
272.3015186591401
 20
246.3825732210584
 30
0.0000000000000000
 40
2.000000000000000
 41
0.0000000000000000
 71
     1
 72
     1
  1
{\H0.82x;{3}}
 11
1.000000000000000
 21
0.0000000000000000
 31
0.0000000000000000
  7
STANDARD
  0
LINE
  5
174
100
AcDbEntity
  8
MAIN0
  6
CONTINUOUS
 62
3
100
AcDbLine
 10
305.2142248578678
 20
34.02803032488205
 30
0.0000000000000000
 11
305.2142248578700
 21
126.0280303254171
 31
0.0000000000000000
  0
LINE
  5
175
100
AcDbEntity
  8
MAIN0
  6
CONTINUOUS
 62
3
100
AcDbLine
 10
352.2142248578699
 20
34.02803032473463
 30
0.0000000000000000
 11
352.2142248578699
 21
116.0280303254172
 31
0.0000000000000000
  0
LINE
  5
176
100
AcDbEntity
  8
MAIN0
  6
CONTINUOUS
 62
3
100
AcDbLine
 10
382.2142248578679
 20
34.02803032464095
 30
0.0000000000000000
 11
382.2142248578700
 21
126.0280303254174
 31
0.0000000000000000
  0
LINE
  5
177
100
AcDbEntity
  8
MAIN0
  6
CONTINUOUS
 62
3
100
AcDbLine
 10
382.2142248578704
 20
126.0280303254172
 30
0.0000000000000000
 11
305.2142248578699
 21
126.0280303254172
 31
0.0000000000000000
  0
LINE
  5
178
100
AcDbEntity
  8
MAIN0
  6
CONTINUOUS
 62
3
100
AcDbLine
 10
382.2142248578702
 20
116.0280303254172
 30
0.0000000000000000
 11
305.2142248578696
 21
116.0280303254172
 31
0.0000000000000000
  0
LINE
  5
179
100
AcDbEntity
  8
MAIN0
  6
CONTINUOUS
 62
3
100
AcDbLine
 10
382.2142248578700
 20
109.0280303254172
 30
0.0000000000000000
 11
305.2142248578695
 21
109.0280303254172
 31
0.0000000000000000
  0
LINE
  5
17A
100
AcDbEntity
  8
MAIN0
  6
CONTINUOUS
 62
3
100
AcDbLine
 10
382.2142248578699
 20
102.0280303248744
 30
0.0000000000000000
 11
305.2142248578695
 21
102.0280303247536
 31
0.0000000000000000
  0
LINE
  5
17B
100
AcDbEntity
  8
MAIN0
  6
CONTINUOUS
 62
3
100
AcDbLine
 10
382.2142248578693
 20
92.02803032409739
 30
0.0000000000000000
 11
305.2142248578689
 21
92.02803032421812
 31
0.0000000000000000
  0
LINE
  5
17C
100
AcDbEntity
  8
MAIN0
  6
CONTINUOUS
 62
3
100
AcDbLine
 10
382.2142248578693
 20
82.02803032541721
 30
0.0000000000000000
 11
305.2142248578688
 21
82.02803032541721
 31
0.0000000000000000
  0
LINE
  5
17D
100
AcDbEntity
  8
MAIN0
  6
CONTINUOUS
 62
3
100
AcDbLine
 10
382.2142248578691
 20
75.02803032541721
 30
0.0000000000000000
 11
305.2142248578687
 21
75.02803032541721
 31
0.0000000000000000
  0
LINE
  5
17E
100
AcDbEntity
  8
MAIN0
  6
CONTINUOUS
 62
3
100
AcDbLine
 10
382.2142248578688
 20
68.02803032355456
 30
0.0000000000000000
 11
305.2142248578684
 21
68.02803032355456
 31
0.0000000000000000
  0
LINE
  5
17F
100
AcDbEntity
  8
MAIN0
  6
CONTINUOUS
 62
3
100
AcDbLine
 10
382.2142248578688
 20
61.02803032541721
 30
0.0000000000000000
 11
305.2142248578683
 21
61.02803032541721
 31
0.0000000000000000
  0
LINE
  5
180
100
AcDbEntity
  8
MAIN0
  6
CONTINUOUS
 62
3
100
AcDbLine
 10
382.2142248578684
 20
51.02803032355456
 30
0.0000000000000000
 11
305.2142248578681
 21
51.02803032355456
 31
0.0000000000000000
  0
LINE
  5
181
100
AcDbEntity
  8
MAIN0
  6
CONTINUOUS
 62
3
100
AcDbLine
 10
382.2142248578684
 20
44.02803032541721
 30
0.0000000000000000
 11
305.2142248578679
 21
44.02803032541721
 31
0.0000000000000000
  0
LINE
  5
182
100
AcDbEntity
  8
MAIN0
  6
CONTINUOUS
 62
3
100
AcDbLine
 10
382.2142248578681
 20
34.02803032464070
 30
0.0000000000000000
 11
305.2142248578676
 21
34.02803032488217
 31
0.0000000000000000
  0
MTEXT
  5
183
100
AcDbEntity
  8
MAIN0
  6
CONTINUOUS
 62
3
100
AcDbMText
 10
322.2824724648156
 20
124.3881548777322
 30
0.0000000000000000
 40
3.100000381469727
 41
0.0000000000000000
 71
     1
 72
     1
  1
{\H0.94x;{SPECIFICATIONS}}
 11
1.000000000000000
 21
0.0000000000000000
 31
0.0000000000000000
  7
STANDARD
  0
MTEXT
  5
184
100
AcDbEntity
  8
MAIN0
  6
CONTINUOUS
 62
3
100
AcDbMText
 10
332.0856655538390
 20
120.3436193702640
 30
0.0000000000000000
 40
3.100000381469727
 41
0.0000000000000000
 71
     1
 72
     1
  1
{\H0.93x;{仕　　　様}}
 11
1.000000000000000
 21
0.0000000000000000
 31
0.0000000000000000
  7
KNJYOKO
  0
MTEXT
  5
185
100
AcDbEntity
  8
MAIN0
  6
CONTINUOUS
 62
3
100
AcDbMText
 10
308.2877333119850
 20
115.3913242129539
 30
0.0000000000000000
 40
2.499999046325684
 41
0.0000000000000000
 71
     1
 72
     1
  1
{\H0.75x;{PLUNGER STROKE}}
 11
1.000000000000000
 21
0.0000000000000000
 31
0.0000000000000000
  7
STANDARD
  0
MTEXT
  5
186
100
AcDbEntity
  8
MAIN0
  6
CONTINUOUS
 62
3
100
AcDbMText
 10
308.2877333119850
 20
112.2913247851585
 30
0.0000000000000000
 40
2.399999618530273
 41
0.0000000000000000
 71
     1
 72
     1
  1
{\H0.93x;{プランジャストロ－ク}}
 11
1.000000000000000
 21
0.0000000000000000
 31
0.0000000000000000
  7
KNJYOKO
  0
MTEXT
  5
187
100
AcDbEntity
  8
MAIN0
  6
CONTINUOUS
 62
3
100
AcDbMText
 10
308.2877333119850
 20
108.3913242129540
 30
0.0000000000000000
 40
2.499999046325684
 41
0.0000000000000000
 71
     1
 72
     1
  1
{\H0.75x;{JAW STROKE (IN DIA)}}
 11
1.000000000000000
 21
0.0000000000000000
 31
0.0000000000000000
  7
STANDARD
  0
MTEXT
  5
188
100
AcDbEntity
  8
MAIN0
  6
CONTINUOUS
 62
3
100
AcDbMText
 10
308.2877333119850
 20
105.2913247851586
 30
0.0000000000000000
 40
2.399999618530273
 41
0.0000000000000000
 71
     1
 72
     1
  1
{\H0.94x;{ジョーストローク(直径で)}}
 11
1.000000000000000
 21
0.0000000000000000
 31
0.0000000000000000
  7
KNJYOKO
  0
MTEXT
  5
189
100
AcDbEntity
  8
MAIN0
  6
CONTINUOUS
 62
3
100
AcDbMText
 10
308.2877333119850
 20
99.39132516662829
 30
0.0000000000000000
 40
2.500000000000000
 41
0.0000000000000000
 71
     1
 72
     1
  1
{\H0.63x;{MAX PERMISSIBLE INPUT FORCE}}
 11
1.000000000000000
 21
0.0000000000000000
 31
0.0000000000000000
  7
STANDARD
  0
MTEXT
  5
18A
100
AcDbEntity
  8
MAIN0
  6
CONTINUOUS
 62
3
100
AcDbMText
 10
308.2877333119850
 20
96.29132478515857
 30
0.0000000000000000
 40
2.399999618530273
 41
0.0000000000000000
 71
     1
 72
     1
  1
{\H0.93x;{許容最大入力　}}
 11
1.000000000000000
 21
0.0000000000000000
 31
0.0000000000000000
  7
KNJYOKO
  0
MTEXT
  5
18B
100
AcDbEntity
  8
MAIN0
  6
CONTINUOUS
 62
3
100
AcDbMText
 10
308.2877333119847
 20
89.39132516609317
 30
0.0000000000000000
 40
2.500000000000000
 41
0.0000000000000000
 71
     1
 72
     1
  1
{\H0.63x;{MAX STATIC GRIPPING FORCE}}
 11
1.000000000000000
 21
0.0000000000000000
 31
0.0000000000000000
  7
STANDARD
  0
MTEXT
  5
18C
100
AcDbEntity
  8
MAIN0
  6
CONTINUOUS
 62
3
100
AcDbMText
 10
308.2877333119847
 20
86.29132478462344
 30
0.0000000000000000
 40
2.399999618530273
 41
0.0000000000000000
 71
     1
 72
     1
  1
{\H0.93x;{最大静的把握力　　}}
 11
1.000000000000000
 21
0.0000000000000000
 31
0.0000000000000000
  7
KNJYOKO
  0
MTEXT
  5
18D
100
AcDbEntity
  8
MAIN0
  6
CONTINUOUS
 62
3
100
AcDbMText
 10
308.2877333119850
 20
81.39132421295386
 30
0.0000000000000000
 40
2.499999046325684
 41
0.0000000000000000
 71
     1
 72
     1
  1
{\H0.75x;{MAX PERMISSIBLE SPEED}}
 11
1.000000000000000
 21
0.0000000000000000
 31
0.0000000000000000
  7
STANDARD
  0
MTEXT
  5
18E
100
AcDbEntity
  8
MAIN0
  6
CONTINUOUS
 62
3
100
AcDbMText
 10
308.2877333119850
 20
78.29132478515845
 30
0.0000000000000000
 40
2.399999618530273
 41
0.0000000000000000
 71
     1
 72
     1
  1
{\H0.93x;{許容最高回転速度　}}
 11
1.000000000000000
 21
0.0000000000000000
 31
0.0000000000000000
  7
KNJYOKO
  0
MTEXT
  5
18F
100
AcDbEntity
  8
MAIN0
  6
CONTINUOUS
 62
3
100
AcDbMText
 10
308.2877333119850
 20
74.39132421295386
 30
0.0000000000000000
 40
2.499999046325684
 41
0.0000000000000000
 71
     1
 72
     1
  1
{\H0.73x;{MASS}}
 11
1.000000000000000
 21
0.0000000000000000
 31
0.0000000000000000
  7
STANDARD
  0
MTEXT
  5
190
100
AcDbEntity
  8
MAIN0
  6
CONTINUOUS
 62
3
100
AcDbMText
 10
308.2877333119850
 20
71.29132478515845
 30
0.0000000000000000
 40
2.399999618530273
 41
0.0000000000000000
 71
     1
 72
     1
  1
{\H0.89x;{質量}}
 11
1.000000000000000
 21
0.0000000000000000
 31
0.0000000000000000
  7
KNJYOKO
  0
MTEXT
  5
191
100
AcDbEntity
  8
MAIN0
  6
CONTINUOUS
 62
3
100
AcDbMText
 10
308.3617690036887
 20
50.41503071992685
 30
0.0000000000000000
 40
2.499999046325684
 41
0.0000000000000000
 71
     1
 72
     1
  1
{\H0.75x;{OPERATING CYLINDER}}
 11
1.000000000000000
 21
0.0000000000000000
 31
0.0000000000000000
  7
STANDARD
  0
MTEXT
  5
192
100
AcDbEntity
  8
MAIN0
  6
CONTINUOUS
 62
3
100
AcDbMText
 10
308.2877333119851
 20
47.29132478515845
 30
0.0000000000000000
 40
2.399999618530273
 41
0.0000000000000000
 71
     1
 72
     1
  1
{\H0.93x;{適合シリンダ}}
 11
1.000000000000000
 21
0.0000000000000000
 31
0.0000000000000000
  7
KNJYOKO
  0
MTEXT
  5
193
100
AcDbEntity
  8
MAIN0
  6
CONTINUOUS
 62
3
100
AcDbMText
 10
307.9658149994569
 20
42.07209163860199
 30
0.0000000000000000
 40
2.500000000000000
 41
0.0000000000000000
 71
     1
 72
     1
  1
{\H0.63x;{MAX PERMISSIBLE OIL PRESS}}
 11
1.000000000000000
 21
0.0000000000000000
 31
0.0000000000000000
  7
STANDARD
  0
MTEXT
  5
194
100
AcDbEntity
  8
MAIN0
  6
CONTINUOUS
 62
3
100
AcDbMText
 10
308.0977996675342
 20
38.40852032343577
 30
0.0000000000000000
 40
2.399999618530273
 41
0.0000000000000000
 71
     1
 72
     1
  1
{\H0.93x;{許容最大油圧力}}
 11
1.000000000000000
 21
0.0000000000000000
 31
0.0000000000000000
  7
KNJYOKO
  0
MTEXT
  5
195
100
AcDbEntity
  8
MAIN0
  6
CONTINUOUS
 62
3
100
AcDbMText
 10
367.2142248578699
 20
112.8280295622106
 30
0.0000000000000000
 40
2.799999237060547
 41
0.0000000000000000
 71
     1
 72
     1
  1
{\H0.58x;{　　　　ｍｍ}}
 11
1.000000000000000
 21
0.0000000000000000
 31
0.0000000000000000
  7
KNJYOKO
  0
MTEXT
  5
196
100
AcDbEntity
  8
MAIN0
  6
CONTINUOUS
 62
3
100
AcDbMText
 10
367.2142248578699
 20
105.8280295622106
 30
0.0000000000000000
 40
2.799999237060547
 41
0.0000000000000000
 71
     1
 72
     1
  1
{\H0.58x;{　　　　ｍｍ}}
 11
1.000000000000000
 21
0.0000000000000000
 31
0.0000000000000000
  7
KNJYOKO
  0
MTEXT
  5
197
100
AcDbEntity
  8
MAIN0
  6
CONTINUOUS
 62
3
100
AcDbMText
 10
367.2142248578699
 20
99.32802956221059
 30
0.0000000000000000
 40
2.799999237060547
 41
0.0000000000000000
 71
     1
 72
     1
  1
{\H0.58x;{　　　　ｋＮ}}
 11
1.000000000000000
 21
0.0000000000000000
 31
0.0000000000000000
  7
KNJYOKO
  0
MTEXT
  5
198
100
AcDbEntity
  8
MAIN0
  6
CONTINUOUS
 62
3
100
AcDbMText
 10
366.2142248578699
 20
95.32802956221059
 30
0.0000000000000000
 40
2.799999237060547
 41
0.0000000000000000
 71
     1
 72
     1
  1
{\H0.60x;{　　　ｋｇｆ)}}
 11
1.000000000000000
 21
0.0000000000000000
 31
0.0000000000000000
  7
KNJYOKO
  0
MTEXT
  5
199
100
AcDbEntity
  8
MAIN0
  6
CONTINUOUS
 62
3
100
AcDbMText
 10
354.2142248578699
 20
95.32802956221059
 30
0.0000000000000000
 40
2.799999237060547
 41
0.0000000000000000
 71
     1
 72
     1
  1
{\H0.60x;{(}}
 11
1.000000000000000
 21
0.0000000000000000
 31
0.0000000000000000
  7
STANDARD
  0
MTEXT
  5
19A
100
AcDbEntity
  8
MAIN0
  6
CONTINUOUS
 62
3
100
AcDbMText
 10
367.2142248578699
 20
89.32802956221059
 30
0.0000000000000000
 40
2.799999237060547
 41
0.0000000000000000
 71
     1
 72
     1
  1
{\H0.58x;{　　　　ｋＮ}}
 11
1.000000000000000
 21
0.0000000000000000
 31
0.0000000000000000
  7
KNJYOKO
  0
MTEXT
  5
19B
100
AcDbEntity
  8
MAIN0
  6
CONTINUOUS
 62
3
100
AcDbMText
 10
354.2142248578699
 20
85.32802956221059
 30
0.0000000000000000
 40
2.799999237060547
 41
0.0000000000000000
 71
     1
 72
     1
  1
{\H0.60x;{(}}
 11
1.000000000000000
 21
0.0000000000000000
 31
0.0000000000000000
  7
STANDARD
  0
MTEXT
  5
19C
100
AcDbEntity
  8
MAIN0
  6
CONTINUOUS
 62
3
100
AcDbMText
 10
366.2142248578699
 20
85.32802956221059
 30
0.0000000000000000
 40
2.799999237060547
 41
0.0000000000000000
 71
     1
 72
     1
  1
{\H0.60x;{　　　ｋｇｆ)}}
 11
1.000000000000000
 21
0.0000000000000000
 31
0.0000000000000000
  7
KNJYOKO
  0
MTEXT
  5
19D
100
AcDbEntity
  8
MAIN0
  6
CONTINUOUS
 62
3
100
AcDbMText
 10
377.3688931061899
 20
79.49757411510524
 30
0.0000000000000000
 40
2.000000000000000
 41
0.0000000000000000
 71
     1
 72
     1
  1
{\H0.88x;{-1}}
 11
1.000000000000000
 21
0.0000000000000000
 31
0.0000000000000000
  7
STANDARD
  0
MTEXT
  5
19E
100
AcDbEntity
  8
MAIN0
  6
CONTINUOUS
 62
3
100
AcDbMText
 10
367.2142248578699
 20
78.82802956221059
 30
0.0000000000000000
 40
2.799999237060547
 41
0.0000000000000000
 71
     1
 72
     1
  1
{\H0.58x;{　　ｍｉｎ}}
 11
1.000000000000000
 21
0.0000000000000000
 31
0.0000000000000000
  7
KNJYOKO
  0
MTEXT
  5
19F
100
AcDbEntity
  8
MAIN0
  6
CONTINUOUS
 62
3
100
AcDbMText
 10
367.2142248578699
 20
71.82802956221059
 30
0.0000000000000000
 40
2.799999237060547
 41
0.0000000000000000
 71
     1
 72
     1
  1
{\H0.58x;{　　　　ｋｇ}}
 11
1.000000000000000
 21
0.0000000000000000
 31
0.0000000000000000
  7
KNJYOKO
  0
MTEXT
  5
1A0
100
AcDbEntity
  8
MAIN0
  6
CONTINUOUS
 62
3
100
AcDbMText
 10
367.2142248578699
 20
41.32802956221036
 30
0.0000000000000000
 40
2.799999237060547
 41
0.0000000000000000
 71
     1
 72
     1
  1
{\H0.58x;{　　　ＭＰａ}}
 11
1.000000000000000
 21
0.0000000000000000
 31
0.0000000000000000
  7
KNJYOKO
  0
MTEXT
  5
1A1
100
AcDbEntity
  8
MAIN0
  6
CONTINUOUS
 62
3
100
AcDbMText
 10
378.2675206912358
 20
37.73843435337227
 30
0.0000000000000000
 40
2.000000000000000
 41
0.0000000000000000
 71
     1
 72
     1
  1
{\H0.81x;{2}}
 11
1.000000000000000
 21
0.0000000000000000
 31
0.0000000000000000
  7
STANDARD
  0
MTEXT
  5
1A2
100
AcDbEntity
  8
MAIN0
  6
CONTINUOUS
 62
3
100
AcDbMText
 10
354.2142248578699
 20
37.32802956221036
 30
0.0000000000000000
 40
2.799999237060547
 41
0.0000000000000000
 71
     1
 72
     1
  1
{\H0.60x;{(}}
 11
1.000000000000000
 21
0.0000000000000000
 31
0.0000000000000000
  7
STANDARD
  0
MTEXT
  5
1A3
100
AcDbEntity
  8
MAIN0
  6
CONTINUOUS
 62
3
100
AcDbMText
 10
366.2142248578699
 20
37.32802956221036
 30
0.0000000000000000
 40
2.799999237060547
 41
0.0000000000000000
 71
     1
 72
     1
  1
{\H0.62x;{ｋｇｆ／ｃｍ )}}
 11
1.000000000000000
 21
0.0000000000000000
 31
0.0000000000000000
  7
KNJYOKO
  0
MTEXT
  5
1A4
100
AcDbEntity
  8
MAIN0
  6
CONTINUOUS
 62
3
100
AcDbMText
 10
308.2877333119851
 20
64.29132478702110
 30
0.0000000000000000
 40
2.399999618530273
 41
0.0000000000000000
 71
     1
 72
     1
  1
{\H0.93x;{慣性モーメント}}
 11
1.000000000000000
 21
0.0000000000000000
 31
0.0000000000000000
  7
KNJYOKO
  0
MTEXT
  5
1A5
100
AcDbEntity
  8
MAIN0
  6
CONTINUOUS
 62
4
100
AcDbMText
 10
371.8296038722634
 20
65.10007076698850
 30
0.0000000000000000
 40
2.799999237060547
 41
0.0000000000000000
 71
     1
 72
     1
  1
{\H0.57x;{ｋｇ・ｍ}}
 11
1.000000000000000
 21
0.0000000000000000
 31
0.0000000000000000
  7
KNJYOKO
  0
MTEXT
  5
1A6
100
AcDbEntity
  8
MAIN0
  6
CONTINUOUS
 62
4
100
AcDbMText
 10
379.7610250323564
 20
66.48035397027530
 30
0.0000000000000000
 40
1.714285731315613
 41
0.0000000000000000
 71
     1
 72
     1
  1
{\H0.81x;{2}}
 11
1.000000000000000
 21
0.0000000000000000
 31
0.0000000000000000
  7
STANDARD
  0
MTEXT
  5
1A7
100
AcDbEntity
  8
MAIN0
  6
CONTINUOUS
 62
3
100
AcDbMText
 10
308.2877333119851
 20
67.39132421481651
 30
0.0000000000000000
 40
2.499999046325684
 41
0.0000000000000000
 71
     1
 72
     1
  1
{\H0.75x;{MOMENT OF INERTIA}}
 11
1.000000000000000
 21
0.0000000000000000
 31
0.0000000000000000
  7
STANDARD
  0
MTEXT
  5
1A8
100
AcDbEntity
  8
MAIN0
  6
CONTINUOUS
 62
3
100
AcDbMText
 10
354.2142248578699
 20
114.1280302297828
 30
0.0000000000000000
 40
3.099999904632568
 41
0.0000000000000000
 71
     1
 72
     1
  1
{\H0.81x;{14.2}}
 11
1.000000000000000
 21
0.0000000000000000
 31
0.0000000000000000
  7
STANDARD
  0
MTEXT
  5
1A9
100
AcDbEntity
  8
MAIN0
  6
CONTINUOUS
 62
3
100
AcDbMText
 10
354.2142248578699
 20
107.1280302297828
 30
0.0000000000000000
 40
3.099999904632568
 41
0.0000000000000000
 71
     1
 72
     1
  1
{\H0.76x;{9.5}}
 11
1.000000000000000
 21
0.0000000000000000
 31
0.0000000000000000
  7
STANDARD
  0
MTEXT
  5
1AA
100
AcDbEntity
  8
MAIN0
  6
CONTINUOUS
 62
3
100
AcDbMText
 10
354.2142248578699
 20
80.12803023164571
 30
0.0000000000000000
 40
3.099999904632568
 41
0.0000000000000000
 71
     1
 72
     1
  1
{\H0.91x;{3700}}
 11
1.000000000000000
 21
0.0000000000000000
 31
0.0000000000000000
  7
STANDARD
  0
MTEXT
  5
1AB
100
AcDbEntity
  8
MAIN0
  6
CONTINUOUS
 62
3
100
AcDbMText
 10
354.2142248578699
 20
73.12803022978306
 30
0.0000000000000000
 40
3.099999904632568
 41
0.0000000000000000
 71
     1
 72
     1
  1
{\H0.81x;{23.5}}
 11
1.000000000000000
 21
0.0000000000000000
 31
0.0000000000000000
  7
STANDARD
  0
MTEXT
  5
1AC
100
AcDbEntity
  8
MAIN0
  6
CONTINUOUS
 62
3
100
AcDbMText
 10
354.2142248578699
 20
66.12803023164571
 30
0.0000000000000000
 40
3.099999904632568
 41
0.0000000000000000
 71
     1
 72
     1
  1
{\H0.84x;{0.110}}
 11
1.000000000000000
 21
0.0000000000000000
 31
0.0000000000000000
  7
STANDARD
  0
MTEXT
  5
1AD
100
AcDbEntity
  8
MAIN0
  6
CONTINUOUS
 62
3
100
AcDbMText
 10
354.2142248578699
 20
48.72583382246461
 30
0.0000000000000000
 40
2.697803497314453
 41
0.0000000000000000
 71
     1
 72
     1
  1
{\H0.93x;{Y1225R / RE}}
 11
1.000000000000000
 21
0.0000000000000000
 31
0.0000000000000000
  7
STANDARD
  0
LEADER
  5
1AE
100
AcDbEntity
  8
MAIN0
  6
CONTINUOUS
 62
3
100
AcDbLeader
  3
MAIN001
 73
     0
 75
     1
 40
3.099999904632568
 41
35.88900105857849
 76
     3
 10
231.5756563679183
 20
235.0732411102585
 30
0.0000000000000000
 10
224.3118887301337
 20
222.1908741072394
 30
0.0000000000000000
 10
222.3848887859237
 20
222.1908741072394
 30
0.0000000000000000
340
1AF
213
0.0000000000000000
223
-0.5000000000000000
233
0.0000000000000000
1001
ACAD
1000
DSTYLE
1002
{
1070
   147
1040
0.0
1070
    77
1070
     1
1070
   173
1070
     1
1070
     6
1000
_OPEN
1070
     7
1000
_OPEN
1002
}
  0
MTEXT
  5
1AF
102
{ACAD_REACTORS
330
1AE
102
}
100
AcDbEntity
  8
MAIN0
  6
CONTINUOUS
 62
3
100
AcDbMText
 10
186.4958877273452
 20
225.7908740118720
 30
0.0000000000000000
 40
3.099999904632568
 41
0.0000000000000000
 71
     1
 72
     1
  1
{\H0.93x;{3-M8 ネジ深14\P3-M8 DEPTH 14}}
 11
1.000000000000000
 21
0.0000000000000000
 31
0.0000000000000000
  7
KNJYOKO
  0
LEADER
  5
1B0
100
AcDbEntity
  8
MAIN0
  6
CONTINUOUS
 62
3
100
AcDbLeader
  3
MAIN001
 73
     0
 74
     0
 75
     1
 40
3.099999904632568
 41
58.21100170707703
 76
     3
 10
229.0195368304159
 20
148.6305334804717
 30
0.0000000000000000
 10
246.5233748393939
 20
151.3900236600838
 30
0.0000000000000000
 10
248.4483747836040
 20
151.3900236600838
 30
0.0000000000000000
340
1B1
213
-0.001000000000004775
223
-0.5000000000000000
233
0.0000000000000000
1001
ACAD
1000
DSTYLE
1002
{
1070
   147
1040
0.0
1070
    77
1070
     1
1070
   173
1070
     1
1070
     6
1000
_OPEN
1070
     7
1000
_OPEN
1002
}
  0
MTEXT
  5
1B1
102
{ACAD_REACTORS
330
1B0
102
}
100
AcDbEntity
  8
MAIN0
  6
CONTINUOUS
 62
3
100
AcDbMText
 10
248.4493747836040
 20
154.9900235647164
 30
0.0000000000000000
 40
3.099999904632568
 41
0.0000000000000000
 71
     1
 72
     1
  1
{\H0.94x;{表面追加加工深さ限度\PPOSSIBLE DEPTH\PFOR TAPPING OR BORING}}
 11
1.000000000000000
 21
0.0000000000000000
 31
0.0000000000000000
  7
KNJYOKO
  0
MTEXT
  5
1B2
100
AcDbEntity
  8
MAIN0
  6
CONTINUOUS
 62
3
100
AcDbMText
 10
129.9479681584770
 20
135.7165297852355
 30
0.0000000000000000
 40
3.099999904632568
 41
0.0000000000000000
 71
     1
 72
     1
  1
{\H0.66x;{MIN 15.1}}
 11
1.000000000000000
 21
0.0000000000000000
 31
0.0000000000000000
  7
STANDARD
  0
DIMENSION
  5
1B8
100
AcDbEntity
  8
MAIN10
  6
CONTINUOUS
 62
3
100
AcDbDimension
  2
*D16
 10
444.2473181340493
 20
261.0732411102581
 30
0.0000000000000000
 11
396.3529553075929
 21
277.2714506788033
 31
0.0000000000000000
 70
164
  3
MAIN001
100
AcDbRadialDimension
 15
380.8786520044691
 25
281.8089055066017
 35
0.0000000000000000
1001
ACAD
1000
DSTYLE
1002
{
1070
   173
1070
     1
1070
     6
1000
_OPEN
1070
     7
1000
_OPEN
1070
    41
1040
2.000000
1070
   272
1070
     3
1070
    47
1040
0.152000
1070
    48
1040
0.152000
1070
    71
1070
     1
1070
   340
1005
1B9
1002
}
  0
DIMENSION
  5
1BF
100
AcDbEntity
  8
MAIN10
  6
CONTINUOUS
 62
3
100
AcDbDimension
  2
*D17
 10
444.2473181340494
 20
261.0732411102581
 30
0.0000000000000000
 11
464.6366325584057
 21
288.6908347123723
 31
0.0000000000000000
 70
164
  3
MAIN001
100
AcDbRadialDimension
 15
489.6672729317563
 25
320.7559664683905
 35
0.0000000000000000
1001
ACAD
1000
DSTYLE
1002
{
1070
   173
1070
     1
1070
     6
1000
_OPEN
1070
     7
1000
_OPEN
1070
    41
1040
2.000000
1070
   272
1070
     1
1070
    47
1040
0.100000
1070
    48
1040
0.100000
1070
    71
1070
     1
1070
   340
1005
1B9
1002
}
  0
DIMENSION
  5
1C6
100
AcDbEntity
  8
MAIN10
  6
CONTINUOUS
 62
3
100
AcDbDimension
  2
*D18
 10
233.1757942825917
 20
245.1732411102581
 30
0.0000000000000000
 11
232.6757942825917
 21
256.5732409873235
 31
0.0000000000000000
 70
32
  1
\A1;\U+220531.8\H0.903226x;\S+0.02^  0   ;
  3
MAIN001
100
AcDbAlignedDimension
 13
211.3719437323457
 23
276.9732411102580
 33
0.0000000000000000
 14
236.2719437323459
 24
245.1732411102581
 34
0.0000000000000000
 50
90.00000000000000
100
AcDbRotatedDimension
1001
ACAD
1000
DSTYLE
1002
{
1070
   173
1070
     1
1070
     6
1000
_OPEN
1070
     7
1000
_OPEN
1070
    41
1040
2.000000
1002
}
  0
DIMENSION
  5
1CF
100
AcDbEntity
  8
MAIN10
  6
CONTINUOUS
 62
3
100
AcDbDimension
  2
*D19
 10
237.2719437323458
 20
301.4033629220279
 30
0.0000000000000000
 11
217.2905432284701
 21
301.9033629220279
 31
0.0000000000000000
 70
160
  1
\A1;MIN 4.3
  3
MAIN001
100
AcDbAlignedDimension
 13
225.1039923939007
 23
273.1732411102580
 33
0.0000000000000000
 14
237.2719437323458
 24
242.3966586102582
 34
0.0000000000000000
100
AcDbRotatedDimension
1001
ACAD
1000
DSTYLE
1002
{
1070
   173
1070
     1
1070
     6
1000
_OPEN
1070
     7
1000
_OPEN
1070
    41
1040
2.000000
1002
}
  0
LEADER
  5
1D0
100
AcDbEntity
  8
MAIN0
  6
CONTINUOUS
 62
3
100
AcDbLeader
  3
MAIN001
 73
     0
 75
     1
 40
3.099999904632568
 41
7.989000247955318
 76
     3
 10
111.4934966784070
 20
270.0732411102580
 30
0.0000000000000000
 10
98.13285732396412
 20
296.0085184453504
 30
0.0000000000000000
 10
96.20585737975407
 20
296.0085184453504
 30
0.0000000000000000
340
1D1
213
0.0000000000000000
223
-0.5000000000000000
233
0.0000000000000000
1001
ACAD
1000
DSTYLE
1002
{
1070
   147
1040
0.0
1070
    77
1070
     1
1070
   173
1070
     1
1070
     6
1000
_OPEN
1070
     7
1000
_OPEN
1002
}
  0
MTEXT
  5
1D1
102
{ACAD_REACTORS
330
1D0
102
}
100
AcDbEntity
  8
MAIN0
  6
CONTINUOUS
 62
3
100
AcDbMText
 10
88.21685713179875
 20
299.6085183499830
 30
0.0000000000000000
 40
3.099999904632568
 41
0.0000000000000000
 71
     1
 72
     1
  1
{\H0.90x;{M18}}
 11
1.000000000000000
 21
0.0000000000000000
 31
0.0000000000000000
  7
STANDARD
  0
LINE
  5
1D2
100
AcDbEntity
  8
MAIN0
  6
CENTER
 62
4
100
AcDbLine
 10
93.66280061516378
 20
261.0732411102581
 30
0.0000000000000000
 11
228.0757943779591
 21
261.0732411102581
 31
0.0000000000000000
  0
LINE
  5
1D3
100
AcDbEntity
  8
MAIN0
  6
CENTER
 62
4
100
AcDbLine
 10
234.1757942825917
 20
261.0732411102581
 30
0.0000000000000000
 11
307.6870066820596
 21
261.0732411102581
 31
0.0000000000000000
  0
DIMENSION
  5
1DB
100
AcDbEntity
  8
MAIN10
  6
CONTINUOUS
 62
3
100
AcDbDimension
  2
*D20
 10
302.6592966105080
 20
349.9732411102581
 30
0.0000000000000000
 11
302.1592966105080
 21
334.0982411102580
 31
0.0000000000000000
 70
32
  3
MAIN001
100
AcDbAlignedDimension
 13
293.0019437323456
 23
318.2232411102579
 33
0.0000000000000000
 14
313.7719437323458
 24
349.9732411102581
 34
0.0000000000000000
 50
90.00000000000000
100
AcDbRotatedDimension
1001
ACAD
1000
DSTYLE
1002
{
1070
   173
1070
     1
1070
     6
1000
_OPEN
1070
     7
1000
_OPEN
1070
    41
1040
2.000000
1002
}
  0
DIMENSION
  5
1E3
100
AcDbEntity
  8
MAIN10
  6
CONTINUOUS
 62
3
100
AcDbDimension
  2
*D21
 10
302.6592966105080
 20
318.2232411102579
 30
0.0000000000000000
 11
302.1592966105080
 21
283.9813825235712
 31
0.0000000000000000
 70
160
  3
MAIN001
100
AcDbAlignedDimension
 13
307.6870066820596
 23
261.0732411102581
 33
0.0000000000000000
 14
293.0019437323456
 24
318.2232411102579
 34
0.0000000000000000
 50
90.00000000000000
100
AcDbRotatedDimension
1001
ACAD
1000
DSTYLE
1002
{
1070
   173
1070
     1
1070
     6
1000
_OPEN
1070
     7
1000
_OPEN
1070
    41
1040
2.000000
1002
}
  0
DIMENSION
  5
1EC
100
AcDbEntity
  8
MAIN10
  6
CONTINUOUS
 62
3
100
AcDbDimension
  2
*D22
 10
326.6946115451797
 20
349.9732411102581
 30
0.0000000000000000
 11
326.1946115451797
 21
342.4732411102580
 31
0.0000000000000000
 70
32
  3
MAIN001
100
AcDbAlignedDimension
 13
319.4525432625309
 23
334.9732411102580
 33
0.0000000000000000
 14
313.7719437323458
 24
349.9732411102581
 34
0.0000000000000000
 50
90.00000000000000
100
AcDbRotatedDimension
1001
ACAD
1000
DSTYLE
1002
{
1070
   173
1070
     1
1070
     6
1000
_OPEN
1070
     7
1000
_OPEN
1070
    41
1040
2.000000
1002
}
  0
DIMENSION
  5
1F5
100
AcDbEntity
  8
MAIN10
  6
CONTINUOUS
 62
3
100
AcDbDimension
  2
*D23
 10
326.6946115451797
 20
334.9732411102580
 30
0.0000000000000000
 11
326.1946115451797
 21
317.9032411102580
 31
0.0000000000000000
 70
32
  3
MAIN001
100
AcDbAlignedDimension
 13
320.1656386362932
 23
300.8332411102580
 33
0.0000000000000000
 14
319.4525432625309
 24
334.9732411102580
 34
0.0000000000000000
 50
90.00000000000000
100
AcDbRotatedDimension
1001
ACAD
1000
DSTYLE
1002
{
1070
   173
1070
     1
1070
     6
1000
_OPEN
1070
     7
1000
_OPEN
1070
    41
1040
2.000000
1002
}
  0
DIMENSION
  5
1FE
100
AcDbEntity
  8
MAIN10
  6
CONTINUOUS
 62
3
100
AcDbDimension
  2
*D24
 10
336.3708621728378
 20
349.9732411102581
 30
0.0000000000000000
 11
335.8708621728378
 21
312.9732411102580
 31
0.0000000000000000
 70
32
  3
MAIN001
100
AcDbAlignedDimension
 13
313.7719437323459
 23
275.9732411102580
 33
0.0000000000000000
 14
313.7719437323458
 24
349.9732411102581
 34
0.0000000000000000
 50
90.00000000000000
100
AcDbRotatedDimension
1001
ACAD
1000
DSTYLE
1002
{
1070
   173
1070
     1
1070
     6
1000
_OPEN
1070
     7
1000
_OPEN
1070
    41
1040
2.000000
1002
}
  0
SPLINE
  5
1FF
100
AcDbEntity
  8
MAIN0
  6
CONTINUOUS
 62
3
100
AcDbSpline
210
0.0000000000000000
220
0.0000000000000000
230
1.000000000000000
 70
     8
 71
     3
 72
    16
 73
    12
 74
     0
 42
1.000000000000000e-007
 43
1.000000000000000e-007
 12
-0.9663478180791714
 22
-0.2766039354348777
 32
0.0000000000000000
 13
-1.030335396428757
 23
0.2722409820391647
 33
0.0000000000000000
 40
0.0000000000000000
 40
0.0000000000000000
 40
0.0000000000000000
 40
0.0000000000000000
 40
12.44540472667514
 40
27.87911683707576
 40
41.27961142577185
 40
52.39051149103270
 40
59.72041115626876
 40
66.26548005851421
 40
77.33560535694672
 40
80.57736141607703
 40
100.4091566908315
 40
100.4091566908315
 40
100.4091566908315
 40
100.4091566908315
 10
237.2719437323458
 20
283.2183836610732
 30
0.0000000000000000
 10
233.2630804981010
 20
282.0709010192471
 30
0.0000000000000000
 10
224.2827725896069
 20
279.5004098747191
 30
0.0000000000000000
 10
209.9356160830965
 20
281.8554495698591
 30
0.0000000000000000
 10
198.2529773298487
 20
274.3732755734751
 30
0.0000000000000000
 10
187.6108600756004
 20
272.5115855431141
 30
0.0000000000000000
 10
179.2286983699644
 20
273.4729675752372
 30
0.0000000000000000
 10
171.2972111924640
 20
274.6486400920546
 30
0.0000000000000000
 10
162.6651876965977
 20
271.6678892098013
 30
0.0000000000000000
 10
156.5727445041247
 20
282.1797098784359
 30
0.0000000000000000
 10
148.6482456172523
 20
284.2735653031918
 30
0.0000000000000000
 10
141.8371120684829
 20
286.0732411102580
 30
0.0000000000000000
  0
SPLINE
  5
200
100
AcDbEntity
  8
MAIN0
  6
CONTINUOUS
 62
3
100
AcDbSpline
210
0.0000000000000000
220
0.0000000000000000
230
1.000000000000000
 70
     8
 71
     3
 72
    19
 73
    15
 74
     0
 42
1.000000000000000e-007
 43
1.000000000000000e-007
 12
-0.9977227991619557
 22
0.1087178013368373
 32
0.0000000000000000
 13
-0.9517506045946362
 23
-0.2676967397004972
 33
0.0000000000000000
 40
0.0000000000000000
 40
0.0000000000000000
 40
0.0000000000000000
 40
0.0000000000000000
 40
12.98939737823610
 40
24.90746517402747
 40
34.50831429140978
 40
40.52448243222525
 40
47.70758947478837
 40
54.30846552814931
 40
66.44227619207895
 40
76.05880271790963
 40
79.97630166888459
 40
83.52915835157097
 40
94.85142630743792
 40
105.6213574848049
 40
105.6213574848049
 40
105.6213574848049
 40
105.6213574848049
 10
237.2719437323458
 20
228.5456459693517
 30
0.0000000000000000
 10
232.9520044284656
 20
229.0163722105692
 30
0.0000000000000000
 10
224.6684224706457
 20
229.9190004941005
 30
0.0000000000000000
 10
213.8565261515214
 20
234.3313848174587
 30
0.0000000000000000
 10
206.4824013282070
 20
239.9778153017249
 30
0.0000000000000000
 10
201.4217222278333
 20
245.5861925141615
 30
0.0000000000000000
 10
195.7507152600106
 20
249.5474960680402
 30
0.0000000000000000
 10
186.8452597736592
 20
249.5180658201320
 30
0.0000000000000000
 10
177.5597832407925
 20
247.3952078919603
 30
0.0000000000000000
 10
169.2787867304685
 20
247.1976901638972
 30
0.0000000000000000
 10
163.0454506481633
 20
248.3353261136103
 30
0.0000000000000000
 10
159.1406400707338
 20
242.5920669412890
 30
0.0000000000000000
 10
150.1974611961400
 20
241.0026785597330
 30
0.0000000000000000
 10
143.1887065688464
 20
239.0313419994728
 30
0.0000000000000000
 10
139.7719437323459
 20
238.0703168451462
 30
0.0000000000000000
  0
LINE
  5
201
100
AcDbEntity
  8
MAIN0
  6
CONTINUOUS
 62
3
100
AcDbLine
 10
265.6019437323457
 20
109.3406383329449
 30
0.0000000000000000
 11
252.5019437323458
 21
109.3406383329449
 31
0.0000000000000000
  0
LINE
  5
202
100
AcDbEntity
  8
MAIN0
  6
CONTINUOUS
 62
3
100
AcDbLine
 10
265.6019437323457
 20
95.10063833294490
 30
0.0000000000000000
 11
252.5019437323458
 21
95.10063833294493
 31
0.0000000000000000
  0
DIMENSION
  5
20B
100
AcDbEntity
  8
MAIN10
  6
CONTINUOUS
 62
3
100
AcDbDimension
  2
*D25
 10
276.5759372380040
 20
109.3406383329449
 30
0.0000000000000000
 11
276.0759372380040
 21
102.2206383329449
 31
0.0000000000000000
 70
32
  3
MAIN001
100
AcDbAlignedDimension
 13
265.6019437323457
 23
95.10063833294490
 33
0.0000000000000000
 14
265.6019437323457
 24
109.3406383329449
 34
0.0000000000000000
 50
90.00000000000000
100
AcDbRotatedDimension
1001
ACAD
1000
DSTYLE
1002
{
1070
   173
1070
     1
1070
     6
1000
_OPEN
1070
     7
1000
_OPEN
1070
    41
1040
2.000000
1002
}
  0
LINE
  5
20C
100
AcDbEntity
  8
MAIN0
  6
CONTINUOUS
 62
3
100
AcDbLine
 10
421.5481567104129
 20
256.1893419852025
 30
0.0000000000000000
 11
356.6489536806637
 21
218.7197696457845
 31
0.0000000000000000
  0
LINE
  5
20D
100
AcDbEntity
  8
MAIN0
  6
CONTINUOUS
 62
3
100
AcDbLine
 10
428.6681567104128
 20
243.8571402353121
 30
0.0000000000000000
 11
363.7689536806637
 21
206.3875678958941
 31
0.0000000000000000
  0
LINE
  5
20E
100
AcDbEntity
  8
MAIN0
  6
CONTINUOUS
 62
3
100
AcDbLine
 10
466.9464795576830
 20
256.1893419852040
 30
0.0000000000000000
 11
531.8456825874349
 21
218.7197696457844
 31
0.0000000000000000
  0
LINE
  5
20F
100
AcDbEntity
  8
MAIN0
  6
CONTINUOUS
 62
3
100
AcDbLine
 10
459.8264795576858
 20
243.8571402353120
 30
0.0000000000000000
 11
524.7256825874349
 21
206.3875678958941
 31
0.0000000000000000
  0
LINE
  5
210
100
AcDbEntity
  8
MAIN0
  6
CONTINUOUS
 62
3
100
AcDbLine
 10
437.1273181340494
 20
349.9732411102581
 30
0.0000000000000000
 11
437.1273181340494
 21
358.1123857890938
 31
0.0000000000000000
  0
LINE
  5
211
100
AcDbEntity
  8
MAIN0
  6
CONTINUOUS
 62
3
100
AcDbLine
 10
451.3673181340494
 20
349.9732411102581
 30
0.0000000000000000
 11
451.3673181340494
 21
358.1123857890938
 31
0.0000000000000000
  0
MTEXT
  5
212
100
AcDbEntity
  8
MAIN0
  6
CONTINUOUS
 62
3
100
AcDbMText
 10
357.2142248578699
 20
37.82803027746621
 30
0.0000000000000000
 40
2.799999952316284
 41
0.0000000000000000
 71
     1
 72
     1
  1
{\H0.58x;{29.0}}
 11
1.000000000000000
 21
0.0000000000000000
 31
0.0000000000000000
  7
STANDARD
  0
MTEXT
  5
213
100
AcDbEntity
  8
MAIN0
  6
CONTINUOUS
 62
3
100
AcDbMText
 10
354.2142248578699
 20
42.62803022978250
 30
0.0000000000000000
 40
3.099999904632568
 41
0.0000000000000000
 71
     1
 72
     1
  1
{\H0.81x;{2.84}}
 11
1.000000000000000
 21
0.0000000000000000
 31
0.0000000000000000
  7
STANDARD
  0
MTEXT
  5
214
100
AcDbEntity
  8
MAIN0
  6
CONTINUOUS
 62
3
100
AcDbMText
 10
357.2142248578699
 20
85.82803027746655
 30
0.0000000000000000
 40
2.799999952316284
 41
0.0000000000000000
 71
     1
 72
     1
  1
{\H0.91x;{8878}}
 11
1.000000000000000
 21
0.0000000000000000
 31
0.0000000000000000
  7
STANDARD
  0
MTEXT
  5
215
100
AcDbEntity
  8
MAIN0
  6
CONTINUOUS
 62
3
100
AcDbMText
 10
354.2142248578699
 20
90.62803022978284
 30
0.0000000000000000
 40
3.099999904632568
 41
0.0000000000000000
 71
     1
 72
     1
  1
{\H0.88x;{87}}
 11
1.000000000000000
 21
0.0000000000000000
 31
0.0000000000000000
  7
STANDARD
  0
MTEXT
  5
216
100
AcDbEntity
  8
MAIN0
  6
CONTINUOUS
 62
3
100
AcDbMText
 10
357.2142248578699
 20
95.82803027746655
 30
0.0000000000000000
 40
2.799999952316284
 41
0.0000000000000000
 71
     1
 72
     1
  1
{\H0.91x;{2959}}
 11
1.000000000000000
 21
0.0000000000000000
 31
0.0000000000000000
  7
STANDARD
  0
MTEXT
  5
217
100
AcDbEntity
  8
MAIN0
  6
CONTINUOUS
 62
3
100
AcDbMText
 10
354.2142248578699
 20
100.6280302297828
 30
0.0000000000000000
 40
3.099999904632568
 41
0.0000000000000000
 71
     1
 72
     1
  1
{\H0.88x;{29}}
 11
1.000000000000000
 21
0.0000000000000000
 31
0.0000000000000000
  7
STANDARD
  0
LINE
  5
218
100
AcDbEntity
  8
MAIN0
  6
CONTINUOUS
 62
3
100
AcDbLine
 10
259.9712364336846
 20
340.9732368405055
 30
0.0000000000000000
 11
259.9712364336846
 21
344.4782097170815
 31
0.0000000000000000
  0
LINE
  5
219
100
AcDbEntity
  8
MAIN0
  6
CONTINUOUS
 62
3
100
AcDbLine
 10
260.6019437323457
 20
340.9732366197579
 30
0.0000000000000000
 11
260.6019437323457
 21
348.6732411102581
 31
0.0000000000000000
  0
LINE
  5
21A
100
AcDbEntity
  8
MAIN0
  6
CONTINUOUS
 62
3
100
AcDbLine
 10
259.9712364336845
 20
291.6782097170815
 30
0.0000000000000000
 11
259.9712364336845
 21
294.8332411102580
 31
0.0000000000000000
  0
LINE
  5
21B
100
AcDbEntity
  8
MAIN0
  6
CONTINUOUS
 62
3
100
AcDbLine
 10
259.9712364336845
 20
306.8332368405055
 30
0.0000000000000000
 11
259.9712364336846
 21
328.9732411102580
 31
0.0000000000000000
  0
LINE
  5
21C
100
AcDbEntity
  8
MAIN0
  6
CONTINUOUS
 62
3
100
AcDbLine
 10
260.6019437323457
 20
284.1732411102535
 30
0.0000000000000000
 11
260.6019437323457
 21
294.8332411102580
 31
0.0000000000000000
  0
LINE
  5
21D
100
AcDbEntity
  8
MAIN0
  6
CONTINUOUS
 62
3
100
AcDbLine
 10
260.6019437323457
 20
306.8332366197579
 30
0.0000000000000000
 11
260.6019437323457
 21
328.9732411102580
 31
0.0000000000000000
  0
LINE
  5
21E
100
AcDbEntity
  8
MAIN0
  6
CENTER
 62
4
100
AcDbLine
 10
449.2632841508085
 20
258.1772717802355
 30
0.0000000000000000
 11
535.1161543971568
 21
208.6100940328041
 31
0.0000000000000000
  0
LINE
  5
21F
100
AcDbEntity
  8
MAIN0
  6
CENTER
 62
4
100
AcDbLine
 10
515.3461559595919
 20
302.1221742679054
 30
0.0000000000000000
 11
487.3306370805512
 21
285.9474069016042
 31
0.0000000000000000
  0
LINE
  5
220
100
AcDbEntity
  8
MAIN0
  6
CENTER
 62
4
100
AcDbLine
 10
403.5940211846462
 20
318.2232411102580
 30
0.0000000000000000
 11
486.6746341018883
 21
318.2232411102580
 31
0.0000000000000000
  0
LINE
  5
221
100
AcDbEntity
  8
MAIN0
  6
CENTER
 62
4
100
AcDbLine
 10
515.9347854010741
 20
270.9395766826764
 30
0.0000000000000000
 11
472.5270119764102
 21
195.7551076677204
 31
0.0000000000000000
  0
LINE
  5
222
100
AcDbEntity
  8
MAIN0
  6
CONTINUOUS
 62
3
100
AcDbLine
 10
235.2719437323458
 20
161.0732411102582
 30
0.0000000000000000
 11
237.2719437323458
 21
163.0732411102582
 31
0.0000000000000000
  0
LINE
  5
223
100
AcDbEntity
  8
MAIN0
  6
CONTINUOUS
 62
3
100
AcDbLine
 10
235.2719437323459
 20
361.0732411102580
 30
0.0000000000000000
 11
237.2719437323458
 21
359.0732411102580
 31
0.0000000000000000
  0
LINE
  5
224
100
AcDbEntity
  8
MAIN0
  6
CENTER
 62
4
100
AcDbLine
 10
439.2313521172900
 20
258.1772717802356
 30
0.0000000000000000
 11
353.3784818709399
 21
208.6100940328032
 31
0.0000000000000000
  0
LINE
  5
225
100
AcDbEntity
  8
MAIN0
  6
CENTER
 62
4
100
AcDbLine
 10
373.1484803085056
 20
302.1221742679060
 30
0.0000000000000000
 11
401.1639991875474
 21
285.9474069016042
 31
0.0000000000000000
  0
LINE
  5
226
100
AcDbEntity
  8
MAIN0
  6
CENTER
 62
4
100
AcDbLine
 10
372.5598508670243
 20
270.9395766826763
 30
0.0000000000000000
 11
415.9676242916883
 21
195.7551076677204
 31
0.0000000000000000
  0
LINE
  5
227
100
AcDbEntity
  8
MAIN0
  6
CONTINUOUS
 62
3
100
AcDbLine
 10
237.2719437323458
 20
69.59796774368135
 30
0.0000000000000000
 11
237.2719437323458
 21
132.0523553837392
 31
0.0000000000000000
  0
LINE
  5
228
100
AcDbEntity
  8
MAIN0
  6
CONTINUOUS
 62
3
100
AcDbLine
 10
237.2719437323458
 20
163.0732411102582
 30
0.0000000000000000
 11
237.2719437323458
 21
235.7498236102582
 31
0.0000000000000000
  0
CIRCLE
  5
229
100
AcDbEntity
  8
MAIN0
  6
CONTINUOUS
 62
3
100
AcDbCircle
 10
444.2473181340494
 20
194.3982411102581
 30
0.0000000000000000
 40
10.00000000000000
  0
CIRCLE
  5
22A
100
AcDbEntity
  8
MAIN0
  6
CONTINUOUS
 62
3
100
AcDbCircle
 10
444.2473181340494
 20
194.3982411102581
 30
0.0000000000000000
 40
6.750000000000000
  0
ARC
  5
22B
100
AcDbEntity
  8
MAIN0
  6
CENTER
 62
4
100
AcDbCircle
 10
444.2473181340492
 20
261.0732411102581
 30
0.0000000000000000
 40
66.67499999999996
100
AcDbArc
 50
253.6154699146798
 51
284.0582213725871
  0
ARC
  5
22C
100
AcDbEntity
  8
MAIN0
  6
CENTER
 62
4
100
AcDbCircle
 10
444.2473181340492
 20
261.0732411102581
 30
0.0000000000000000
 40
66.67499999999996
100
AcDbArc
 50
14.05770551007189
 51
42.69199304407671
  0
CIRCLE
  5
22D
100
AcDbEntity
  8
MAIN0
  6
CONTINUOUS
 62
3
100
AcDbCircle
 10
501.9895619313747
 20
294.4107411102580
 30
0.0000000000000000
 40
10.00000000000000
  0
CIRCLE
  5
22E
100
AcDbEntity
  8
MAIN0
  6
CONTINUOUS
 62
3
100
AcDbCircle
 10
501.9895619313747
 20
294.4107411102580
 30
0.0000000000000000
 40
6.750000000000000
  0
CIRCLE
  5
22F
100
AcDbEntity
  8
MAIN0
  6
CONTINUOUS
 62
3
100
AcDbCircle
 10
444.2473181340494
 20
261.0732411102581
 30
0.0000000000000000
 40
99.99999999999989
  0
ARC
  5
230
100
AcDbEntity
  8
MAIN0
  6
CENTER
 62
4
100
AcDbCircle
 10
444.2473181340494
 20
261.0732411102581
 30
0.0000000000000000
 40
66.67499999999996
100
AcDbArc
 50
137.3080069559230
 51
165.9422944899279
  0
CIRCLE
  5
231
100
AcDbEntity
  8
MAIN0
  6
CONTINUOUS
 62
3
100
AcDbCircle
 10
386.5050743367218
 20
294.4107411102580
 30
0.0000000000000000
 40
10.00000000000000
  0
CIRCLE
  5
232
100
AcDbEntity
  8
MAIN0
  6
CONTINUOUS
 62
3
100
AcDbCircle
 10
386.5050743367218
 20
294.4107411102580
 30
0.0000000000000000
 40
6.750000000000000
  0
LINE
  5
233
100
AcDbEntity
  8
MAIN0
  6
CENTER
 62
4
100
AcDbLine
 10
132.8393916069840
 20
194.3982411102581
 30
0.0000000000000000
 11
193.9170333078112
 21
194.3982411102581
 31
0.0000000000000000
  0
LINE
  5
234
100
AcDbEntity
  8
MAIN0
  6
CENTER
 62
4
100
AcDbLine
 10
200.0170332124438
 20
194.3982411102581
 30
0.0000000000000000
 11
240.1772637000503
 21
194.3982411102581
 31
0.0000000000000000
  0
LINE
  5
235
100
AcDbEntity
  8
MAIN0
  6
CONTINUOUS
 62
3
100
AcDbLine
 10
151.8719437323456
 20
245.1732411102581
 30
0.0000000000000000
 11
140.7719437323457
 21
245.1732411102581
 31
0.0000000000000000
  0
LINE
  5
236
100
AcDbEntity
  8
MAIN0
  6
CONTINUOUS
 62
3
100
AcDbLine
 10
159.4578414466833
 20
276.9732411102581
 30
0.0000000000000000
 11
140.7719437323457
 21
276.9732411102581
 31
0.0000000000000000
  0
LINE
  5
237
100
AcDbEntity
  8
MAIN0
  6
CONTINUOUS
 62
3
100
AcDbLine
 10
154.8719437323460
 20
201.1482411102581
 30
0.0000000000000000
 11
163.0278510730521
 21
201.1482411102581
 31
0.0000000000000000
  0
LINE
  5
238
100
AcDbEntity
  8
MAIN0
  6
CONTINUOUS
 62
3
100
AcDbLine
 10
154.8719437323459
 20
187.6482411102581
 30
0.0000000000000000
 11
163.0495898427006
 21
187.6482411102581
 31
0.0000000000000000
  0
LINE
  5
239
100
AcDbEntity
  8
MAIN0
  6
CONTINUOUS
 62
3
100
AcDbLine
 10
140.7719437323457
 20
276.9732411102581
 30
0.0000000000000000
 11
139.7719437323457
 21
277.9732411102581
 31
0.0000000000000000
  0
LINE
  5
23A
100
AcDbEntity
  8
MAIN0
  6
CONTINUOUS
 62
3
100
AcDbLine
 10
140.7719437323458
 20
245.1732411102580
 30
0.0000000000000000
 11
139.7719437323457
 21
244.1732411102580
 31
0.0000000000000000
  0
LINE
  5
23B
100
AcDbEntity
  8
MAIN0
  6
CENTER
 62
4
100
AcDbLine
 10
410.6517855035629
 20
301.8376050161422
 30
0.0000000000000000
 11
423.0537072317977
 21
307.8864264038453
 31
0.0000000000000000
  0
LINE
  5
23C
100
AcDbEntity
  8
MAIN0
  6
CENTER
 62
4
100
AcDbLine
 10
478.5863017980641
 20
334.9714825014289
 30
0.0000000000000000
 11
465.4140998963280
 21
328.5469703707830
 31
0.0000000000000000
  0
LINE
  5
23D
100
AcDbEntity
  8
MAIN0
  6
CENTER
 62
4
100
AcDbLine
 10
410.5035828808459
 20
334.6811604531839
 30
0.0000000000000000
 11
422.8814481992610
 21
328.6440721605137
 31
0.0000000000000000
  0
LINE
  5
23E
100
AcDbEntity
  8
MAIN0
  6
CENTER
 62
4
100
AcDbLine
 10
477.8082541674149
 20
301.8544789040111
 30
0.0000000000000000
 11
465.1137903431599
 21
308.0459826054707
 31
0.0000000000000000
  0
LINE
  5
23F
100
AcDbEntity
  8
MAIN0
  6
CONTINUOUS
 62
3
100
AcDbLine
 10
472.7473181340492
 20
319.7232411102580
 30
0.0000000000000000
 11
480.7164831916704
 21
319.7232411102580
 31
0.0000000000000000
  0
LINE
  5
240
100
AcDbEntity
  8
MAIN0
  6
CONTINUOUS
 62
3
100
AcDbLine
 10
472.7473181340492
 20
316.7232411102580
 30
0.0000000000000000
 11
480.7164831916703
 21
316.7232411102580
 31
0.0000000000000000
  0
LINE
  5
241
100
AcDbEntity
  8
MAIN0
  6
CONTINUOUS
 62
3
100
AcDbLine
 10
407.7781530764285
 20
319.7232411102580
 30
0.0000000000000000
 11
415.7473181340492
 21
319.7232411102580
 31
0.0000000000000000
  0
LINE
  5
242
100
AcDbEntity
  8
MAIN0
  6
CONTINUOUS
 62
3
100
AcDbLine
 10
407.7781530764285
 20
316.7232411102580
 30
0.0000000000000000
 11
415.7473181340492
 21
316.7232411102580
 31
0.0000000000000000
  0
ARC
  5
243
100
AcDbEntity
  8
MAIN0
  6
CONTINUOUS
 62
3
100
AcDbCircle
 10
417.2834967450743
 20
305.0721067065857
 30
0.0000000000000000
 40
5.500000000000000
100
AcDbArc
 50
106.2187413797578
 51
253.7812586202418
  0
ARC
  5
244
100
AcDbEntity
  8
MAIN0
  6
CONTINUOUS
 62
3
100
AcDbCircle
 10
471.2111395230243
 20
305.0721067065855
 30
0.0000000000000000
 40
5.500000000000000
100
AcDbArc
 50
286.2187413797586
 51
433.7812586202412
  0
ARC
  5
245
100
AcDbEntity
  8
MAIN0
  6
CONTINUOUS
 62
3
100
AcDbCircle
 10
471.2111395230244
 20
331.3743755139304
 30
0.0000000000000000
 40
5.500000000000000
100
AcDbArc
 50
286.2187413797578
 51
433.7812586202419
  0
ARC
  5
246
100
AcDbEntity
  8
MAIN0
  6
CONTINUOUS
 62
3
100
AcDbCircle
 10
417.2834967450743
 20
331.3743755139302
 30
0.0000000000000000
 40
5.500000000000000
100
AcDbArc
 50
106.2187413797578
 51
253.7812586202416
  0
ARC
  5
247
100
AcDbEntity
  8
MAIN0
  6
CENTER
 62
4
100
AcDbCircle
 10
444.2473181340494
 20
318.2232411102580
 30
0.0000000000000000
 40
30.00000000000000
100
AcDbArc
 50
328.6662840431030
 51
346.9403959983396
  0
ARC
  5
248
100
AcDbEntity
  8
MAIN0
  6
CENTER
 62
4
100
AcDbCircle
 10
444.2473181340494
 20
318.2232411102580
 30
0.0000000000000000
 40
30.00000000000000
100
AcDbArc
 50
191.9635053710392
 51
223.0580759734131
  0
ARC
  5
249
100
AcDbEntity
  8
MAIN0
  6
CENTER
 62
4
100
AcDbCircle
 10
444.2473181340494
 20
318.2232411102580
 30
0.0000000000000000
 40
30.00000000000000
100
AcDbArc
 50
12.19530260889478
 51
42.28613037570111
  0
ARC
  5
24A
100
AcDbEntity
  8
MAIN0
  6
CENTER
 62
4
100
AcDbCircle
 10
444.2473181340494
 20
318.2232411102580
 30
0.0000000000000000
 40
30.00000000000000
100
AcDbArc
 50
140.7323219181943
 51
167.1059422223488
  0
ARC
  5
24B
100
AcDbEntity
  8
MAIN0
  6
CONTINUOUS
 62
3
100
AcDbCircle
 10
444.2473181340494
 20
318.2232411102580
 30
0.0000000000000000
 40
36.50000000000000
100
AcDbArc
 50
141.3358911407601
 51
218.6641088592395
  0
ARC
  5
24C
100
AcDbEntity
  8
MAIN0
  6
CONTINUOUS
 62
3
100
AcDbCircle
 10
444.2473181340494
 20
318.2232411102580
 30
0.0000000000000000
 40
36.50000000000000
100
AcDbArc
 50
321.3358911407599
 51
398.6641088592399
  0
LINE
  5
24D
100
AcDbEntity
  8
MAIN0
  6
CENTER
 62
4
100
AcDbLine
 10
425.7421097376836
 20
211.5964744456458
 30
0.0000000000000000
 11
414.3027158888606
 21
219.3124430241918
 31
0.0000000000000000
  0
LINE
  5
24E
100
AcDbEntity
  8
MAIN0
  6
CENTER
 62
4
100
AcDbLine
 10
363.0800719622932
 20
253.8625526078484
 30
0.0000000000000000
 11
375.2299636252219
 21
245.6673472024901
 31
0.0000000000000000
  0
LINE
  5
24F
100
AcDbEntity
  8
MAIN0
  6
CENTER
 62
4
100
AcDbLine
 10
397.3728576899613
 20
195.0463494909445
 30
0.0000000000000000
 11
396.4121968570958
 21
208.7844394476495
 31
0.0000000000000000
  0
LINE
  5
250
100
AcDbEntity
  8
MAIN0
  6
CENTER
 62
4
100
AcDbLine
 10
392.1492621902024
 20
269.7472453930606
 30
0.0000000000000000
 11
393.1344946092404
 21
255.6577653831036
 31
0.0000000000000000
  0
LINE
  5
251
100
AcDbEntity
  8
MAIN0
  6
CONTINUOUS
 62
3
100
AcDbLine
 10
375.2203456732815
 20
263.3314645049657
 30
0.0000000000000000
 11
382.3424282020920
 21
250.9956557093670
 31
0.0000000000000000
  0
LINE
  5
252
100
AcDbEntity
  8
MAIN0
  6
CONTINUOUS
 62
3
100
AcDbLine
 10
377.8184218846349
 20
264.8314645049656
 30
0.0000000000000000
 11
384.9405044134454
 21
252.4956557093670
 31
0.0000000000000000
  0
LINE
  5
253
100
AcDbEntity
  8
MAIN0
  6
CONTINUOUS
 62
3
100
AcDbLine
 10
404.5674282020921
 20
212.5008265111488
 30
0.0000000000000000
 11
411.6895107309025
 21
200.1650177155507
 31
0.0000000000000000
  0
LINE
  5
254
100
AcDbEntity
  8
MAIN0
  6
CONTINUOUS
 62
3
100
AcDbLine
 10
407.1655044134454
 20
214.0008265111488
 30
0.0000000000000000
 11
414.2875869422558
 21
201.6650177155507
 31
0.0000000000000000
  0
ARC
  5
255
100
AcDbEntity
  8
MAIN0
  6
CONTINUOUS
 62
3
100
AcDbCircle
 10
419.6250934844200
 20
215.7224540061358
 30
0.0000000000000000
 40
5.500000000000000
100
AcDbArc
 50
150.5028527719809
 51
449.4971472280185
  0
ARC
  5
256
100
AcDbEntity
  8
MAIN0
  6
CENTER
 62
4
100
AcDbCircle
 10
394.7539663077687
 20
232.4982411102583
 30
0.0000000000000000
 40
30.00000000000000
100
AcDbArc
 50
79.94381438236057
 51
106.9403959983396
  0
ARC
  5
257
100
AcDbEntity
  8
MAIN0
  6
CENTER
 62
4
100
AcDbCircle
 10
394.7539663077687
 20
232.4982411102583
 30
0.0000000000000000
 40
30.00000000000000
100
AcDbArc
 50
311.9635053710395
 51
343.0580759734134
  0
ARC
  5
258
100
AcDbEntity
  8
MAIN0
  6
CENTER
 62
4
100
AcDbCircle
 10
394.7539663077687
 20
232.4982411102583
 30
0.0000000000000000
 40
30.00000000000000
100
AcDbArc
 50
132.1953026088945
 51
162.2861303757008
  0
ARC
  5
259
100
AcDbEntity
  8
MAIN0
  6
CENTER
 62
4
100
AcDbCircle
 10
394.7539663077687
 20
232.4982411102583
 30
0.0000000000000000
 40
30.00000000000000
100
AcDbArc
 50
260.7323219181944
 51
287.1059422223489
  0
ARC
  5
25A
100
AcDbEntity
  8
MAIN0
  6
CONTINUOUS
 62
3
100
AcDbCircle
 10
394.7539663077687
 20
232.4982411102583
 30
0.0000000000000000
 40
36.50000000000000
100
AcDbArc
 50
62.06642619742233
 51
172.4896949330752
  0
ARC
  5
25B
100
AcDbEntity
  8
MAIN0
  6
CONTINUOUS
 62
3
100
AcDbCircle
 10
394.7539663077687
 20
232.4982411102583
 30
0.0000000000000000
 40
36.50000000000000
100
AcDbArc
 50
247.5103050669254
 51
357.9335738025960
  0
ARC
  5
25C
100
AcDbEntity
  8
MAIN0
  6
CONTINUOUS
 62
3
100
AcDbCircle
 10
394.7539663077687
 20
232.4982411102583
 30
0.0000000000000000
 40
36.50000000000000
100
AcDbArc
 50
13.79595206221461
 51
22.05904251493780
  0
ARC
  5
25D
100
AcDbEntity
  8
MAIN0
  6
CONTINUOUS
 62
3
100
AcDbCircle
 10
394.7539663077687
 20
232.4982411102583
 30
0.0000000000000000
 40
36.50000000000000
100
AcDbArc
 50
37.94095748506218
 51
46.20404793778501
  0
LINE
  5
25E
100
AcDbEntity
  8
MAIN0
  6
CENTER
 62
4
100
AcDbLine
 10
496.3480591609006
 20
269.7856438689861
 30
0.0000000000000000
 11
495.3855312814886
 21
256.0208539027372
 31
0.0000000000000000
  0
LINE
  5
25F
100
AcDbEntity
  8
MAIN0
  6
CENTER
 62
4
100
AcDbLine
 10
491.0755806417893
 20
194.3856882214970
 30
0.0000000000000000
 11
492.0978908805968
 21
209.0054057575011
 31
0.0000000000000000
  0
LINE
  5
260
100
AcDbEntity
  8
MAIN0
  6
CENTER
 62
4
100
AcDbLine
 10
524.8655138313407
 20
253.4922133866456
 30
0.0000000000000000
 11
513.4483093457910
 21
245.7912117226109
 31
0.0000000000000000
  0
LINE
  5
261
100
AcDbEntity
  8
MAIN0
  6
CENTER
 62
4
100
AcDbLine
 10
462.7844380445306
 20
211.6179990337024
 30
0.0000000000000000
 11
474.4936694497474
 21
219.5159753421999
 31
0.0000000000000000
  0
LINE
  5
262
100
AcDbEntity
  8
MAIN0
  6
CONTINUOUS
 62
3
100
AcDbLine
 10
476.8051255371959
 20
200.1650177155505
 30
0.0000000000000000
 11
483.9272080660063
 21
212.5008265111488
 31
0.0000000000000000
  0
LINE
  5
263
100
AcDbEntity
  8
MAIN0
  6
CONTINUOUS
 62
3
100
AcDbLine
 10
474.2070493258425
 20
201.6650177155505
 30
0.0000000000000000
 11
481.3291318546529
 21
214.0008265111488
 31
0.0000000000000000
  0
ARC
  5
264
100
AcDbEntity
  8
MAIN0
  6
CONTINUOUS
 62
3
100
AcDbCircle
 10
495.8333641726522
 20
262.4251626180526
 30
0.0000000000000000
 40
5.500000000000000
100
AcDbArc
 50
270.5028527719689
 51
569.4971472280299
  0
ARC
  5
265
100
AcDbEntity
  8
MAIN0
  6
CONTINUOUS
 62
3
100
AcDbCircle
 10
468.8695427836784
 20
215.7224540061359
 30
0.0000000000000000
 40
5.500000000000000
100
AcDbArc
 50
29.49714722802087
 51
33.99999999999992
  0
ARC
  5
266
100
AcDbEntity
  8
MAIN0
  6
CONTINUOUS
 62
3
100
AcDbCircle
 10
491.6479757480061
 20
202.5713196024633
 30
0.0000000000000000
 40
5.500000000000000
100
AcDbArc
 50
90.50285277197482
 51
389.4971472280255
  0
ARC
  5
267
100
AcDbEntity
  8
MAIN0
  6
CENTER
 62
4
100
AcDbCircle
 10
493.7406699603262
 20
232.4982411102581
 30
0.0000000000000000
 40
30.00000000000000
100
AcDbArc
 50
199.9438143823601
 51
226.9403959983395
  0
ARC
  5
268
100
AcDbEntity
  8
MAIN0
  6
CENTER
 62
4
100
AcDbCircle
 10
493.7406699603262
 20
232.4982411102581
 30
0.0000000000000000
 40
30.00000000000000
100
AcDbArc
 50
71.96350537103892
 51
103.0580759734124
  0
ARC
  5
269
100
AcDbEntity
  8
MAIN0
  6
CENTER
 62
4
100
AcDbCircle
 10
493.7406699603262
 20
232.4982411102581
 30
0.0000000000000000
 40
30.00000000000000
100
AcDbArc
 50
252.1953026088945
 51
282.2861303757009
  0
ARC
  5
26A
100
AcDbEntity
  8
MAIN0
  6
CENTER
 62
4
100
AcDbCircle
 10
493.7406699603262
 20
232.4982411102581
 30
0.0000000000000000
 40
30.00000000000000
100
AcDbArc
 50
20.73232191819426
 51
47.10594222234867
  0
ARC
  5
26B
100
AcDbEntity
  8
MAIN0
  6
CONTINUOUS
 62
3
100
AcDbCircle
 10
493.7406699603262
 20
232.4982411102581
 30
0.0000000000000000
 40
36.50000000000000
100
AcDbArc
 50
182.0664261974137
 51
292.4896949330750
  0
ARC
  5
26C
100
AcDbEntity
  8
MAIN0
  6
CONTINUOUS
 62
3
100
AcDbCircle
 10
493.7406699603262
 20
232.4982411102581
 30
0.0000000000000000
 40
36.50000000000000
100
AcDbArc
 50
7.510305066925310
 51
117.9335738025737
  0
ARC
  5
26D
100
AcDbEntity
  8
MAIN0
  6
CONTINUOUS
 62
3
100
AcDbCircle
 10
493.7406699603262
 20
232.4982411102581
 30
0.0000000000000000
 40
36.50000000000000
100
AcDbArc
 50
133.7959520622146
 51
142.0590425149370
  0
ARC
  5
26E
100
AcDbEntity
  8
MAIN0
  6
CONTINUOUS
 62
3
100
AcDbCircle
 10
493.7406699603262
 20
232.4982411102581
 30
0.0000000000000000
 40
36.50000000000000
100
AcDbArc
 50
157.9409574850626
 51
166.2040479377855
  0
LINE
  5
26F
100
AcDbEntity
  8
MAIN0
  6
CONTINUOUS
 62
3
100
AcDbLine
 10
472.7473181342310
 20
333.3742133348645
 30
0.0000000000000000
 11
473.7111395230244
 21
332.8177495139304
 31
0.0000000000000000
  0
LINE
  5
270
100
AcDbEntity
  8
MAIN0
  6
CONTINUOUS
 62
3
100
AcDbLine
 10
472.7473181342310
 20
329.3745357320011
 30
0.0000000000000000
 11
473.7111425230244
 21
329.9310005139304
 31
0.0000000000000000
  0
LINE
  5
271
100
AcDbEntity
  8
MAIN0
  6
CONTINUOUS
 62
3
100
AcDbLine
 10
473.7111425230244
 20
329.9310005139304
 30
0.0000000000000000
 11
473.7111395230244
 21
332.8177495139304
 31
0.0000000000000000
  0
ARC
  5
272
100
AcDbEntity
  8
MAIN0
  6
CONTINUOUS
 62
3
100
AcDbCircle
 10
471.2111395230244
 20
331.3743755139304
 30
0.0000000000000000
 40
4.999999999999996
100
AcDbArc
 50
0.0000000000000000
 51
72.10727901007131
  0
ARC
  5
273
100
AcDbEntity
  8
MAIN0
  6
CONTINUOUS
 62
3
100
AcDbCircle
 10
471.2111395230244
 20
331.3743755139304
 30
0.0000000000000000
 40
4.999999999999996
100
AcDbArc
 50
287.8927209899283
 51
359.9999999999998
  0
LINE
  5
274
100
AcDbEntity
  8
MAIN0
  6
CONTINUOUS
 62
3
100
AcDbLine
 10
414.7834967450742
 20
332.8177495139305
 30
0.0000000000000000
 11
415.7473181340492
 21
333.3742133349695
 31
0.0000000000000000
  0
LINE
  5
275
100
AcDbEntity
  8
MAIN0
  6
CONTINUOUS
 62
3
100
AcDbLine
 10
414.7834937450742
 20
329.9310005139304
 30
0.0000000000000000
 11
415.7473181340494
 21
329.3745357318961
 31
0.0000000000000000
  0
LINE
  5
276
100
AcDbEntity
  8
MAIN0
  6
CONTINUOUS
 62
3
100
AcDbLine
 10
414.7834937450742
 20
329.9310005139304
 30
0.0000000000000000
 11
414.7834967450743
 21
332.8177495139304
 31
0.0000000000000000
  0
ARC
  5
277
100
AcDbEntity
  8
MAIN0
  6
CONTINUOUS
 62
3
100
AcDbCircle
 10
417.2834967450742
 20
331.3743755139304
 30
0.0000000000000000
 40
4.999999999999996
100
AcDbArc
 50
179.9999999999998
 51
252.1072790100717
  0
ARC
  5
278
100
AcDbEntity
  8
MAIN0
  6
CONTINUOUS
 62
3
100
AcDbCircle
 10
417.2834967450742
 20
331.3743755139304
 30
0.0000000000000000
 40
4.999999999999996
100
AcDbArc
 50
107.8927209899281
 51
179.9999999999998
  0
LINE
  5
279
100
AcDbEntity
  8
MAIN0
  6
CONTINUOUS
 62
3
100
AcDbLine
 10
414.7834967450743
 20
303.6287327065856
 30
0.0000000000000000
 11
415.7473181340493
 21
303.0722688855466
 31
0.0000000000000000
  0
LINE
  5
27A
100
AcDbEntity
  8
MAIN0
  6
CONTINUOUS
 62
3
100
AcDbLine
 10
414.7834937450742
 20
306.5154817065857
 30
0.0000000000000000
 11
415.7473181340493
 21
307.0719464886199
 31
0.0000000000000000
  0
LINE
  5
27B
100
AcDbEntity
  8
MAIN0
  6
CONTINUOUS
 62
3
100
AcDbLine
 10
414.7834937450742
 20
306.5154817065856
 30
0.0000000000000000
 11
414.7834967450743
 21
303.6287327065855
 31
0.0000000000000000
  0
ARC
  5
27C
100
AcDbEntity
  8
MAIN0
  6
CONTINUOUS
 62
3
100
AcDbCircle
 10
417.2834967450742
 20
305.0721067065856
 30
0.0000000000000000
 40
4.999999999999996
100
AcDbArc
 50
179.9999999999998
 51
252.1072790100719
  0
ARC
  5
27D
100
AcDbEntity
  8
MAIN0
  6
CONTINUOUS
 62
3
100
AcDbCircle
 10
417.2834967450742
 20
305.0721067065856
 30
0.0000000000000000
 40
4.999999999999996
100
AcDbArc
 50
107.8927209899273
 51
179.9999999999998
  0
LINE
  5
27E
100
AcDbEntity
  8
MAIN0
  6
CONTINUOUS
 62
3
100
AcDbLine
 10
472.7473181340494
 20
303.0722688855466
 30
0.0000000000000000
 11
473.7111395230244
 21
303.6287327065856
 31
0.0000000000000000
  0
LINE
  5
27F
100
AcDbEntity
  8
MAIN0
  6
CONTINUOUS
 62
3
100
AcDbLine
 10
472.7473181340494
 20
307.0719464886198
 30
0.0000000000000000
 11
473.7111425230244
 21
306.5154817065856
 31
0.0000000000000000
  0
LINE
  5
280
100
AcDbEntity
  8
MAIN0
  6
CONTINUOUS
 62
3
100
AcDbLine
 10
473.7111425230244
 20
306.5154817065856
 30
0.0000000000000000
 11
473.7111395230244
 21
303.6287327065856
 31
0.0000000000000000
  0
ARC
  5
281
100
AcDbEntity
  8
MAIN0
  6
CONTINUOUS
 62
3
100
AcDbCircle
 10
471.2111395230244
 20
305.0721067065856
 30
0.0000000000000000
 40
4.999999999999996
100
AcDbArc
 50
8.905553108097847e-014
 51
72.10727901007131
  0
ARC
  5
282
100
AcDbEntity
  8
MAIN0
  6
CONTINUOUS
 62
3
100
AcDbCircle
 10
471.2111395230244
 20
305.0721067065856
 30
0.0000000000000000
 40
4.999999999999996
100
AcDbArc
 50
287.8927209899285
 51
359.9999999999998
  0
LINE
  5
283
100
AcDbEntity
  8
MAIN0
  6
CONTINUOUS
 62
3
100
AcDbLine
 10
495.8333656214920
 20
265.3119131275133
 30
0.0000000000000000
 11
493.3333627402030
 21
263.8685391180522
 31
0.0000000000000000
  0
LINE
  5
284
100
AcDbEntity
  8
MAIN0
  6
CONTINUOUS
 62
3
100
AcDbLine
 10
493.3333627402008
 20
263.8685391180523
 30
0.0000000000000000
 11
493.3333656214898
 21
260.9817861085912
 31
0.0000000000000000
  0
LINE
  5
285
100
AcDbEntity
  8
MAIN0
  6
CONTINUOUS
 62
3
100
AcDbLine
 10
493.3333656214919
 20
260.9817861085912
 30
0.0000000000000000
 11
495.8333670539429
 21
259.5384096085912
 31
0.0000000000000000
  0
LINE
  5
286
100
AcDbEntity
  8
MAIN0
  6
CONTINUOUS
 62
3
100
AcDbLine
 10
495.8333670539430
 20
259.5384096085912
 30
0.0000000000000000
 11
498.3333662390795
 21
260.9817892161285
 31
0.0000000000000000
  0
LINE
  5
287
100
AcDbEntity
  8
MAIN0
  6
CONTINUOUS
 62
3
100
AcDbLine
 10
498.3333662390764
 20
260.9817892161285
 30
0.0000000000000000
 11
498.3333650898383
 21
263.8685412255896
 31
0.0000000000000000
  0
LINE
  5
288
100
AcDbEntity
  8
MAIN0
  6
CONTINUOUS
 62
3
100
AcDbLine
 10
498.3333650898413
 20
263.8685412255896
 30
0.0000000000000000
 11
495.8333656214920
 21
265.3119131275134
 31
0.0000000000000000
  0
ARC
  5
289
100
AcDbEntity
  8
MAIN0
  6
CONTINUOUS
 62
3
100
AcDbCircle
 10
495.8333641726522
 20
262.4251626180523
 30
0.0000000000000000
 40
4.999999999999996
100
AcDbArc
 50
258.6007422699078
 51
578.2660587073381
  0
LINE
  5
28A
100
AcDbEntity
  8
MAIN0
  6
CONTINUOUS
 62
3
100
AcDbLine
 10
466.3695442325166
 20
214.2790774966737
 30
0.0000000000000000
 11
466.3695413512277
 21
217.1658305061349
 31
0.0000000000000000
  0
LINE
  5
28B
100
AcDbEntity
  8
MAIN0
  6
CONTINUOUS
 62
3
100
AcDbLine
 10
466.3695413512277
 20
217.1658305061348
 30
0.0000000000000000
 11
468.8695442325167
 21
218.6092045155958
 31
0.0000000000000000
  0
LINE
  5
28C
100
AcDbEntity
  8
MAIN0
  6
CONTINUOUS
 62
3
100
AcDbLine
 10
468.8695442325167
 20
218.6092045155958
 30
0.0000000000000000
 11
471.3695456649675
 21
217.1658280155958
 31
0.0000000000000000
  0
LINE
  5
28D
100
AcDbEntity
  8
MAIN0
  6
CONTINUOUS
 62
3
100
AcDbLine
 10
471.3695456649676
 20
217.1658280155959
 30
0.0000000000000000
 11
471.3695418501042
 21
214.2790754080586
 31
0.0000000000000000
  0
LINE
  5
28E
100
AcDbEntity
  8
MAIN0
  6
CONTINUOUS
 62
3
100
AcDbLine
 10
471.3695418501041
 20
214.2790754080585
 30
0.0000000000000000
 11
468.8695407008659
 21
212.8357003985975
 31
0.0000000000000000
  0
LINE
  5
28F
100
AcDbEntity
  8
MAIN0
  6
CONTINUOUS
 62
3
100
AcDbLine
 10
468.8695407008659
 20
212.8357003985975
 30
0.0000000000000000
 11
466.3695442325167
 21
214.2790774966737
 31
0.0000000000000000
  0
ARC
  5
290
100
AcDbEntity
  8
MAIN0
  6
CONTINUOUS
 62
3
100
AcDbCircle
 10
468.8695427836786
 20
215.7224540061347
 30
0.0000000000000000
 40
4.999999999999996
100
AcDbArc
 50
239.9999999999995
 51
401.3992577301080
  0
ARC
  5
291
100
AcDbEntity
  8
MAIN0
  6
CONTINUOUS
 62
3
100
AcDbCircle
 10
468.8695427836786
 20
215.7224540061347
 30
0.0000000000000000
 40
4.999999999999996
100
AcDbArc
 50
78.60074226989192
 51
239.9999999999995
  0
LINE
  5
292
100
AcDbEntity
  8
MAIN0
  6
CONTINUOUS
 62
3
100
AcDbLine
 10
491.6479742991670
 20
199.6845690930019
 30
0.0000000000000000
 11
494.1479771804560
 21
201.1279431024630
 31
0.0000000000000000
  0
LINE
  5
293
100
AcDbEntity
  8
MAIN0
  6
CONTINUOUS
 62
3
100
AcDbLine
 10
494.1479771804526
 20
201.1279431024630
 30
0.0000000000000000
 11
494.1479742991636
 21
204.0146961119242
 31
0.0000000000000000
  0
LINE
  5
294
100
AcDbEntity
  8
MAIN0
  6
CONTINUOUS
 62
3
100
AcDbLine
 10
494.1479742991669
 20
204.0146961119241
 30
0.0000000000000000
 11
491.6479728667160
 21
205.4580726119240
 31
0.0000000000000000
  0
LINE
  5
295
100
AcDbEntity
  8
MAIN0
  6
CONTINUOUS
 62
3
100
AcDbLine
 10
491.6479728667160
 20
205.4580726119240
 30
0.0000000000000000
 11
489.1479736815796
 21
204.0146930043867
 31
0.0000000000000000
  0
LINE
  5
296
100
AcDbEntity
  8
MAIN0
  6
CONTINUOUS
 62
3
100
AcDbLine
 10
489.1479736815796
 20
204.0146930043868
 30
0.0000000000000000
 11
489.1479748308178
 21
201.1279409949257
 31
0.0000000000000000
  0
LINE
  5
297
100
AcDbEntity
  8
MAIN0
  6
CONTINUOUS
 62
3
100
AcDbLine
 10
489.1479748308178
 20
201.1279409949256
 30
0.0000000000000000
 11
491.6479742991671
 21
199.6845690930019
 31
0.0000000000000000
  0
ARC
  5
298
100
AcDbEntity
  8
MAIN0
  6
CONTINUOUS
 62
3
100
AcDbCircle
 10
491.6479757480051
 20
202.5713196024630
 30
0.0000000000000000
 40
4.999999999999996
100
AcDbArc
 50
240.0000000000003
 51
401.3992577301106
  0
ARC
  5
299
100
AcDbEntity
  8
MAIN0
  6
CONTINUOUS
 62
3
100
AcDbCircle
 10
491.6479757480051
 20
202.5713196024630
 30
0.0000000000000000
 40
4.999999999999996
100
AcDbArc
 50
78.60074226988948
 51
240.0000000000001
  0
LINE
  5
29A
100
AcDbEntity
  8
MAIN0
  6
CONTINUOUS
 62
3
100
AcDbLine
 10
521.1117956881396
 20
250.7174047238416
 30
0.0000000000000000
 11
521.1117985694286
 21
247.8306517143805
 31
0.0000000000000000
  0
LINE
  5
29B
100
AcDbEntity
  8
MAIN0
  6
CONTINUOUS
 62
3
100
AcDbLine
 10
521.1117985694312
 20
247.8306517143805
 30
0.0000000000000000
 11
518.6117956881423
 21
246.3872777049194
 31
0.0000000000000000
  0
LINE
  5
29C
100
AcDbEntity
  8
MAIN0
  6
CONTINUOUS
 62
3
100
AcDbLine
 10
518.6117956881423
 20
246.3872777049194
 30
0.0000000000000000
 11
516.1117942556914
 21
247.8306542049194
 31
0.0000000000000000
  0
LINE
  5
29D
100
AcDbEntity
  8
MAIN0
  6
CONTINUOUS
 62
3
100
AcDbLine
 10
516.1117942556907
 20
247.8306542049194
 30
0.0000000000000000
 11
516.1117980705542
 21
250.7174068124567
 31
0.0000000000000000
  0
LINE
  5
29E
100
AcDbEntity
  8
MAIN0
  6
CONTINUOUS
 62
3
100
AcDbLine
 10
516.1117980705548
 20
250.7174068124567
 30
0.0000000000000000
 11
518.6117992197931
 21
252.1607818219177
 31
0.0000000000000000
  0
LINE
  5
29F
100
AcDbEntity
  8
MAIN0
  6
CONTINUOUS
 62
3
100
AcDbLine
 10
518.6117992197931
 20
252.1607818219178
 30
0.0000000000000000
 11
521.1117956881424
 21
250.7174047238416
 31
0.0000000000000000
  0
LINE
  5
2A0
100
AcDbEntity
  8
MAIN0
  6
CONTINUOUS
 62
3
100
AcDbLine
 10
367.3828405799562
 20
250.7174047238416
 30
0.0000000000000000
 11
367.3828376986672
 21
247.8306517143805
 31
0.0000000000000000
  0
LINE
  5
2A1
100
AcDbEntity
  8
MAIN0
  6
CONTINUOUS
 62
3
100
AcDbLine
 10
367.3828376986671
 20
247.8306517143805
 30
0.0000000000000000
 11
369.8828405799562
 21
246.3872777049194
 31
0.0000000000000000
  0
LINE
  5
2A2
100
AcDbEntity
  8
MAIN0
  6
CONTINUOUS
 62
3
100
AcDbLine
 10
369.8828405799562
 20
246.3872777049195
 30
0.0000000000000000
 11
372.3828420124071
 21
247.8306542049195
 31
0.0000000000000000
  0
LINE
  5
2A3
100
AcDbEntity
  8
MAIN0
  6
CONTINUOUS
 62
3
100
AcDbLine
 10
372.3828420124072
 20
247.8306542049194
 30
0.0000000000000000
 11
372.3828381975437
 21
250.7174068124567
 31
0.0000000000000000
  0
LINE
  5
2A4
100
AcDbEntity
  8
MAIN0
  6
CONTINUOUS
 62
3
100
AcDbLine
 10
372.3828381975436
 20
250.7174068124567
 30
0.0000000000000000
 11
369.8828370483055
 21
252.1607818219178
 31
0.0000000000000000
  0
LINE
  5
2A5
100
AcDbEntity
  8
MAIN0
  6
CONTINUOUS
 62
3
100
AcDbLine
 10
369.8828370483055
 20
252.1607818219178
 30
0.0000000000000000
 11
367.3828405799561
 21
250.7174047238416
 31
0.0000000000000000
  0
LINE
  5
2A6
100
AcDbEntity
  8
MAIN0
  6
CONTINUOUS
 62
3
100
AcDbLine
 10
392.6612706466066
 20
265.3119131275133
 30
0.0000000000000000
 11
395.1612735278955
 21
263.8685391180522
 31
0.0000000000000000
  0
LINE
  5
2A7
100
AcDbEntity
  8
MAIN0
  6
CONTINUOUS
 62
3
100
AcDbLine
 10
395.1612735278955
 20
263.8685391180522
 30
0.0000000000000000
 11
395.1612706466065
 21
260.9817861085911
 31
0.0000000000000000
  0
LINE
  5
2A8
100
AcDbEntity
  8
MAIN0
  6
CONTINUOUS
 62
3
100
AcDbLine
 10
395.1612706466065
 20
260.9817861085912
 30
0.0000000000000000
 11
392.6612692141556
 21
259.5384096085912
 31
0.0000000000000000
  0
LINE
  5
2A9
100
AcDbEntity
  8
MAIN0
  6
CONTINUOUS
 62
3
100
AcDbLine
 10
392.6612692141556
 20
259.5384096085911
 30
0.0000000000000000
 11
390.1612700290191
 21
260.9817892161285
 31
0.0000000000000000
  0
LINE
  5
2AA
100
AcDbEntity
  8
MAIN0
  6
CONTINUOUS
 62
3
100
AcDbLine
 10
390.1612700290191
 20
260.9817892161285
 30
0.0000000000000000
 11
390.1612711782573
 21
263.8685412255895
 31
0.0000000000000000
  0
LINE
  5
2AB
100
AcDbEntity
  8
MAIN0
  6
CONTINUOUS
 62
3
100
AcDbLine
 10
390.1612711782573
 20
263.8685412255895
 30
0.0000000000000000
 11
392.6612706466066
 21
265.3119131275133
 31
0.0000000000000000
  0
LINE
  5
2AC
100
AcDbEntity
  8
MAIN0
  6
CONTINUOUS
 62
3
100
AcDbLine
 10
422.1250920355818
 20
214.2790774966737
 30
0.0000000000000000
 11
422.1250949168708
 21
217.1658305061349
 31
0.0000000000000000
  0
LINE
  5
2AD
100
AcDbEntity
  8
MAIN0
  6
CONTINUOUS
 62
3
100
AcDbLine
 10
422.1250949168707
 20
217.1658305061348
 30
0.0000000000000000
 11
419.6250920355818
 21
218.6092045155959
 31
0.0000000000000000
  0
LINE
  5
2AE
100
AcDbEntity
  8
MAIN0
  6
CONTINUOUS
 62
3
100
AcDbLine
 10
419.6250920355817
 20
218.6092045155959
 30
0.0000000000000000
 11
417.1250906031308
 21
217.1658280155959
 31
0.0000000000000000
  0
LINE
  5
2AF
100
AcDbEntity
  8
MAIN0
  6
CONTINUOUS
 62
3
100
AcDbLine
 10
417.1250906031308
 20
217.1658280155959
 30
0.0000000000000000
 11
417.1250944179943
 21
214.2790754080586
 31
0.0000000000000000
  0
LINE
  5
2B0
100
AcDbEntity
  8
MAIN0
  6
CONTINUOUS
 62
3
100
AcDbLine
 10
417.1250944179943
 20
214.2790754080586
 30
0.0000000000000000
 11
419.6250955672325
 21
212.8357003985975
 31
0.0000000000000000
  0
LINE
  5
2B1
100
AcDbEntity
  8
MAIN0
  6
CONTINUOUS
 62
3
100
AcDbLine
 10
419.6250955672325
 20
212.8357003985976
 30
0.0000000000000000
 11
422.1250920355818
 21
214.2790774966737
 31
0.0000000000000000
  0
ARC
  5
2B2
100
AcDbEntity
  8
MAIN0
  6
CONTINUOUS
 62
3
100
AcDbCircle
 10
419.6250934844198
 20
215.7224540061349
 30
0.0000000000000000
 40
4.999999999999996
100
AcDbArc
 50
300.0000000000005
 51
461.3992577301012
  0
ARC
  5
2B3
100
AcDbEntity
  8
MAIN0
  6
CONTINUOUS
 62
3
100
AcDbCircle
 10
419.6250934844198
 20
215.7224540061349
 30
0.0000000000000000
 40
4.999999999999996
100
AcDbArc
 50
138.6007422698984
 51
300.0000000000005
  0
LINE
  5
2B4
100
AcDbEntity
  8
MAIN0
  6
CONTINUOUS
 62
3
100
AcDbLine
 10
396.8466619689314
 20
199.6845690930020
 30
0.0000000000000000
 11
394.3466590876425
 21
201.1279431024631
 31
0.0000000000000000
  0
LINE
  5
2B5
100
AcDbEntity
  8
MAIN0
  6
CONTINUOUS
 62
3
100
AcDbLine
 10
394.3466590876425
 20
201.1279431024632
 30
0.0000000000000000
 11
394.3466619689315
 21
204.0146961119243
 31
0.0000000000000000
  0
LINE
  5
2B6
100
AcDbEntity
  8
MAIN0
  6
CONTINUOUS
 62
3
100
AcDbLine
 10
394.3466619689314
 20
204.0146961119242
 30
0.0000000000000000
 11
396.8466634013823
 21
205.4580726119242
 31
0.0000000000000000
  0
LINE
  5
2B7
100
AcDbEntity
  8
MAIN0
  6
CONTINUOUS
 62
3
100
AcDbLine
 10
396.8466634013823
 20
205.4580726119241
 30
0.0000000000000000
 11
399.3466625865189
 21
204.0146930043868
 31
0.0000000000000000
  0
LINE
  5
2B8
100
AcDbEntity
  8
MAIN0
  6
CONTINUOUS
 62
3
100
AcDbLine
 10
399.3466625865190
 20
204.0146930043870
 30
0.0000000000000000
 11
399.3466614372808
 21
201.1279409949258
 31
0.0000000000000000
  0
LINE
  5
2B9
100
AcDbEntity
  8
MAIN0
  6
CONTINUOUS
 62
3
100
AcDbLine
 10
399.3466614372807
 20
201.1279409949258
 30
0.0000000000000000
 11
396.8466619689314
 21
199.6845690930020
 31
0.0000000000000000
  0
LINE
  5
2BA
100
AcDbEntity
  8
MAIN0
  6
CONTINUOUS
 62
3
100
AcDbLine
 10
446.7473181340492
 20
240.5166167832321
 30
0.0000000000000000
 11
444.2473181340492
 21
241.9599924562061
 31
0.0000000000000000
  0
LINE
  5
2BB
100
AcDbEntity
  8
MAIN0
  6
CONTINUOUS
 62
3
100
AcDbLine
 10
441.7473181340493
 20
240.5166167832321
 30
0.0000000000000000
 11
444.2473181340492
 21
241.9599924562061
 31
0.0000000000000000
  0
LINE
  5
2BC
100
AcDbEntity
  8
MAIN0
  6
CONTINUOUS
 62
3
100
AcDbLine
 10
446.7473181340494
 20
237.6298654372843
 30
0.0000000000000000
 11
446.7473181340494
 21
240.5166167832322
 31
0.0000000000000000
  0
LINE
  5
2BD
100
AcDbEntity
  8
MAIN0
  6
CONTINUOUS
 62
3
100
AcDbLine
 10
441.7473181340493
 20
237.6298654372841
 30
0.0000000000000000
 11
444.2473181340494
 21
236.1864897643100
 31
0.0000000000000000
  0
LINE
  5
2BE
100
AcDbEntity
  8
MAIN0
  6
CONTINUOUS
 62
3
100
AcDbLine
 10
444.2473181340492
 20
236.1864897643101
 30
0.0000000000000000
 11
446.7473181340492
 21
237.6298654372841
 31
0.0000000000000000
  0
LINE
  5
2BF
100
AcDbEntity
  8
MAIN0
  6
CONTINUOUS
 62
3
100
AcDbLine
 10
441.7473181340494
 20
237.6298654372843
 30
0.0000000000000000
 11
441.7473181340494
 21
240.5166167832322
 31
0.0000000000000000
  0
CIRCLE
  5
2C0
100
AcDbEntity
  8
MAIN0
  6
CONTINUOUS
 62
3
100
AcDbCircle
 10
444.2473181340494
 20
239.0732411102581
 30
0.0000000000000000
 40
7.000000000000000
  0
LINE
  5
2C1
100
AcDbEntity
  8
MAIN0
  6
CONTINUOUS
 62
3
100
AcDbLine
 10
240.6119437323459
 20
102.2206383329289
 30
0.0000000000000000
 11
240.6119437323459
 21
124.0456383329450
 31
0.0000000000000000
  0
LINE
  5
2C2
100
AcDbEntity
  8
MAIN0
  6
CONTINUOUS
 62
3
100
AcDbLine
 10
241.0119437323458
 20
124.4456383329450
 30
0.0000000000000000
 11
265.6019437323456
 21
124.4456383329450
 31
0.0000000000000000
  0
LINE
  5
2C3
100
AcDbEntity
  8
MAIN0
  6
CONTINUOUS
 62
3
100
AcDbLine
 10
246.0019437323458
 20
109.4206383329449
 30
0.0000000000000000
 11
246.5019437323458
 21
109.4206383329449
 31
0.0000000000000000
  0
LINE
  5
2C4
100
AcDbEntity
  8
MAIN0
  6
CONTINUOUS
 62
3
100
AcDbLine
 10
265.6019437323457
 20
109.3406383329449
 30
0.0000000000000000
 11
265.6019437323457
 21
124.4456383329449
 31
0.0000000000000000
  0
LINE
  5
2C5
100
AcDbEntity
  8
MAIN0
  6
CONTINUOUS
 62
3
100
AcDbLine
 10
260.6019437323457
 20
109.3406383329449
 30
0.0000000000000000
 11
260.6019437323456
 21
124.4456383329450
 31
0.0000000000000000
  0
LINE
  5
2C6
100
AcDbEntity
  8
MAIN0
  6
CONTINUOUS
 62
3
100
AcDbLine
 10
246.0019437323458
 20
102.2206383329449
 30
0.0000000000000000
 11
246.0019437323458
 21
109.4206383329449
 31
0.0000000000000000
  0
LINE
  5
2C7
100
AcDbEntity
  8
MAIN0
  6
CONTINUOUS
 62
3
100
AcDbLine
 10
252.5019437323458
 20
109.3656383329449
 30
0.0000000000000000
 11
252.5019437323458
 21
110.5706381222798
 31
0.0000000000000000
  0
LINE
  5
2C8
100
AcDbEntity
  8
MAIN0
  6
CONTINUOUS
 62
3
100
AcDbLine
 10
246.5019437323458
 20
109.4206383329449
 30
0.0000000000000000
 11
246.5019437323458
 21
110.5706377870093
 31
0.0000000000000000
  0
LINE
  5
2C9
100
AcDbEntity
  8
MAIN0
  6
CONTINUOUS
 62
3
100
AcDbLine
 10
240.6119437323459
 20
124.0456383329450
 30
0.0000000000000000
 11
241.0119437323459
 21
124.4456383329450
 31
0.0000000000000000
  0
LINE
  5
2CA
100
AcDbEntity
  8
MAIN0
  6
CONTINUOUS
 62
3
100
AcDbLine
 10
240.6119437323459
 20
102.2206383329609
 30
0.0000000000000000
 11
240.6119437323459
 21
80.39563833294491
 31
0.0000000000000000
  0
LINE
  5
2CB
100
AcDbEntity
  8
MAIN0
  6
CONTINUOUS
 62
3
100
AcDbLine
 10
241.0119437323458
 20
79.99563833294491
 30
0.0000000000000000
 11
265.6019437323458
 21
79.99563833294491
 31
0.0000000000000000
  0
LINE
  5
2CC
100
AcDbEntity
  8
MAIN0
  6
CONTINUOUS
 62
3
100
AcDbLine
 10
246.0019437323458
 20
95.02063833294494
 30
0.0000000000000000
 11
246.5019437323458
 21
95.02063833294494
 31
0.0000000000000000
  0
LINE
  5
2CD
100
AcDbEntity
  8
MAIN0
  6
CONTINUOUS
 62
3
100
AcDbLine
 10
265.6019437323457
 20
95.10063833294487
 30
0.0000000000000000
 11
265.6019437323457
 21
79.99563833294499
 31
0.0000000000000000
  0
LINE
  5
2CE
100
AcDbEntity
  8
MAIN0
  6
CONTINUOUS
 62
3
100
AcDbLine
 10
260.6019437323457
 20
95.10063833294493
 30
0.0000000000000000
 11
260.6019437323457
 21
79.99563833294494
 31
0.0000000000000000
  0
LINE
  5
2CF
100
AcDbEntity
  8
MAIN0
  6
CONTINUOUS
 62
3
100
AcDbLine
 10
246.0019437323458
 20
102.2206383329450
 30
0.0000000000000000
 11
246.0019437323458
 21
95.02063833294500
 31
0.0000000000000000
  0
LINE
  5
2D0
100
AcDbEntity
  8
MAIN0
  6
CONTINUOUS
 62
3
100
AcDbLine
 10
252.5019437323458
 20
95.07563833294495
 30
0.0000000000000000
 11
252.5019437323458
 21
93.87063854361006
 31
0.0000000000000000
  0
LINE
  5
2D1
100
AcDbEntity
  8
MAIN0
  6
CONTINUOUS
 62
3
100
AcDbLine
 10
246.5019437323458
 20
95.02063833294494
 30
0.0000000000000000
 11
246.5019437323458
 21
93.87063887888056
 31
0.0000000000000000
  0
LINE
  5
2D2
100
AcDbEntity
  8
MAIN0
  6
CONTINUOUS
 62
3
100
AcDbLine
 10
240.6119437323458
 20
80.39563833294491
 30
0.0000000000000000
 11
241.0119437323458
 21
79.99563833294491
 31
0.0000000000000000
  0
ARC
  5
2D3
100
AcDbEntity
  8
MAIN0
  6
CONTINUOUS
 62
3
100
AcDbCircle
 10
249.5019437323458
 20
110.5706383329450
 30
0.0000000000000000
 40
2.999999999999972
100
AcDbArc
 50
1.272221872585407e-014
 51
179.9999999999998
  0
ARC
  5
2D4
100
AcDbEntity
  8
MAIN0
  6
CONTINUOUS
 62
3
100
AcDbCircle
 10
236.1119437323459
 20
123.3906383329450
 30
0.0000000000000000
 40
4.500000000000000
100
AcDbArc
 50
284.9382440979771
 51
359.9999999999998
  0
ARC
  5
2D5
100
AcDbEntity
  8
MAIN0
  6
CONTINUOUS
 62
3
100
AcDbCircle
 10
249.5019437323458
 20
93.87063833294485
 30
0.0000000000000000
 40
2.999999999999972
100
AcDbArc
 50
179.9999999999998
 51
360.0000000000000
  0
ARC
  5
2D6
100
AcDbEntity
  8
MAIN0
  6
CONTINUOUS
 62
3
100
AcDbCircle
 10
236.1119437323459
 20
81.05063833294491
 30
0.0000000000000000
 40
4.500000000000000
100
AcDbArc
 50
2.544443745170813e-014
 51
75.06175590202226
  0
LINE
  5
2D7
100
AcDbEntity
  8
MAIN0
  6
CONTINUOUS
 62
3
100
AcDbLine
 10
314.7719437323458
 20
348.9732411102581
 30
0.0000000000000000
 11
314.7719437323459
 21
276.9732411102580
 31
0.0000000000000000
  0
LINE
  5
2D8
100
AcDbEntity
  8
MAIN0
  6
CONTINUOUS
 62
3
100
AcDbLine
 10
267.7719437323459
 20
294.0832411102580
 30
0.0000000000000000
 11
261.2019437323457
 21
294.0832411102580
 31
0.0000000000000000
  0
LINE
  5
2D9
100
AcDbEntity
  8
MAIN0
  6
CONTINUOUS
 62
3
100
AcDbLine
 10
267.7719437323458
 20
307.5832411102580
 30
0.0000000000000000
 11
261.2019437323459
 21
307.5832411102580
 31
0.0000000000000000
  0
LINE
  5
2DA
100
AcDbEntity
  8
MAIN0
  6
CONTINUOUS
 62
3
100
AcDbLine
 10
314.1719437323458
 20
290.8332411102580
 30
0.0000000000000000
 11
267.7719437323458
 21
290.8332411102579
 31
0.0000000000000000
  0
LINE
  5
2DB
100
AcDbEntity
  8
MAIN0
  6
CONTINUOUS
 62
3
100
AcDbLine
 10
267.7719437323458
 20
310.8332411102579
 30
0.0000000000000000
 11
314.1719437323459
 21
310.8332411102580
 31
0.0000000000000000
  0
LINE
  5
2DC
100
AcDbEntity
  8
MAIN0
  6
CONTINUOUS
 62
3
100
AcDbLine
 10
267.7719437323458
 20
290.8332411102579
 30
0.0000000000000000
 11
267.7719437323458
 21
310.8332411102579
 31
0.0000000000000000
  0
LINE
  5
2DD
100
AcDbEntity
  8
MAIN0
  6
CONTINUOUS
 62
3
100
AcDbLine
 10
267.7719437323458
 20
328.2232411102579
 30
0.0000000000000000
 11
261.2019437323456
 21
328.2232411102579
 31
0.0000000000000000
  0
LINE
  5
2DE
100
AcDbEntity
  8
MAIN0
  6
CONTINUOUS
 62
3
100
AcDbLine
 10
267.7719437323458
 20
341.7232411102579
 30
0.0000000000000000
 11
261.2019437323456
 21
341.7232411102579
 31
0.0000000000000000
  0
LINE
  5
2DF
100
AcDbEntity
  8
MAIN0
  6
CONTINUOUS
 62
3
100
AcDbLine
 10
314.1719437323458
 20
324.9732411102579
 30
0.0000000000000000
 11
267.7719437323458
 21
324.9732411102579
 31
0.0000000000000000
  0
LINE
  5
2E0
100
AcDbEntity
  8
MAIN0
  6
CONTINUOUS
 62
3
100
AcDbLine
 10
267.7719437323458
 20
344.9732411102579
 30
0.0000000000000000
 11
314.1719437323458
 21
344.9732411102579
 31
0.0000000000000000
  0
LINE
  5
2E1
100
AcDbEntity
  8
MAIN0
  6
CONTINUOUS
 62
3
100
AcDbLine
 10
267.7719437323459
 20
324.9732411102580
 30
0.0000000000000000
 11
267.7719437323458
 21
344.9732411102580
 31
0.0000000000000000
  0
LINE
  5
2E2
100
AcDbEntity
  8
MAIN0
  6
CONTINUOUS
 62
3
100
AcDbLine
 10
257.3019437323458
 20
278.6982411104908
 30
0.0000000000000000
 11
258.3019437323458
 21
277.6982411104908
 31
0.0000000000000000
  0
LINE
  5
2E3
100
AcDbEntity
  8
MAIN0
  6
CONTINUOUS
 62
3
100
AcDbLine
 10
314.7719437323458
 20
276.9732411102580
 30
0.0000000000000000
 11
313.7719437323458
 21
275.9732411102580
 31
0.0000000000000000
  0
LINE
  5
2E4
100
AcDbEntity
  8
MAIN0
  6
CONTINUOUS
 62
3
100
AcDbLine
 10
314.7719437323458
 20
348.9732411102580
 30
0.0000000000000000
 11
313.7719437323458
 21
349.9732411102580
 31
0.0000000000000000
  0
LINE
  5
2E5
100
AcDbEntity
  8
MAIN0
  6
HIDDEN
 62
4
100
AcDbLine
 10
257.3019437323459
 20
348.9732411102580
 30
0.0000000000000000
 11
258.3019437323459
 21
349.9732411102580
 31
0.0000000000000000
  0
LINE
  5
2E6
100
AcDbEntity
  8
MAIN0
  6
CONTINUOUS
 62
3
100
AcDbLine
 10
260.6019437323459
 20
327.6232411102577
 30
0.0000000000000000
 11
261.2019437323460
 21
328.2232411102577
 31
0.0000000000000000
  0
LINE
  5
2E7
100
AcDbEntity
  8
MAIN0
  6
CONTINUOUS
 62
3
100
AcDbLine
 10
260.6019437323459
 20
342.3232411102579
 30
0.0000000000000000
 11
261.2019437323459
 21
341.7232411102579
 31
0.0000000000000000
  0
LINE
  5
2E8
100
AcDbEntity
  8
MAIN0
  6
CONTINUOUS
 62
3
100
AcDbLine
 10
260.6019437323459
 20
308.1832411102579
 30
0.0000000000000000
 11
261.2019437323459
 21
307.5832411102580
 31
0.0000000000000000
  0
LINE
  5
2E9
100
AcDbEntity
  8
MAIN0
  6
CONTINUOUS
 62
3
100
AcDbLine
 10
260.6019437323458
 20
293.4832411102580
 30
0.0000000000000000
 11
261.2019437323459
 21
294.0832411102579
 31
0.0000000000000000
  0
LINE
  5
2EA
100
AcDbEntity
  8
MAIN0
  6
CONTINUOUS
 62
3
100
AcDbLine
 10
314.7719437323458
 20
345.5732411102579
 30
0.0000000000000000
 11
314.1719437323458
 21
344.9732411102580
 31
0.0000000000000000
  0
LINE
  5
2EB
100
AcDbEntity
  8
MAIN0
  6
CONTINUOUS
 62
3
100
AcDbLine
 10
314.7719437323458
 20
324.3732411102579
 30
0.0000000000000000
 11
314.1719437323458
 21
324.9732411102580
 31
0.0000000000000000
  0
LINE
  5
2EC
100
AcDbEntity
  8
MAIN0
  6
CONTINUOUS
 62
3
100
AcDbLine
 10
314.7719437323458
 20
311.4332411102581
 30
0.0000000000000000
 11
314.1719437323458
 21
310.8332411102581
 31
0.0000000000000000
  0
LINE
  5
2ED
100
AcDbEntity
  8
MAIN0
  6
CONTINUOUS
 62
3
100
AcDbLine
 10
314.7719437323459
 20
290.2332411102581
 30
0.0000000000000000
 11
314.1719437323458
 21
290.8332411102580
 31
0.0000000000000000
  0
LINE
  5
2EE
100
AcDbEntity
  8
MAIN0
  6
HIDDEN
 62
4
100
AcDbLine
 10
257.3019437323458
 20
344.0103507877054
 30
0.0000000000000000
 11
257.3019437323458
 21
348.9732411102580
 31
0.0000000000000000
  0
LINE
  5
2EF
100
AcDbEntity
  8
MAIN0
  6
CONTINUOUS
 62
3
100
AcDbLine
 10
257.3019437323458
 20
278.6982411104908
 30
0.0000000000000000
 11
257.3019437323458
 21
283.1732411102580
 31
0.0000000000000000
  0
LINE
  5
2F0
100
AcDbEntity
  8
MAIN0
  6
HIDDEN
 62
4
100
AcDbLine
 10
257.3019437323458
 20
283.1732411102581
 30
0.0000000000000000
 11
257.3019437323457
 21
344.0103507877053
 31
0.0000000000000000
  0
LINE
  5
2F1
100
AcDbEntity
  8
MAIN0
  6
CENTER
 62
12
100
AcDbLine
 10
244.6268013099900
 20
300.8332411102580
 30
0.0000000000000000
 11
320.1656386362932
 21
300.8332411102580
 31
0.0000000000000000
  0
LINE
  5
2F2
100
AcDbEntity
  8
MAIN0
  6
CENTER
 62
12
100
AcDbLine
 10
245.1237952665184
 20
334.9732411102580
 30
0.0000000000000000
 11
297.5592967058754
 21
334.9732411102580
 31
0.0000000000000000
  0
LINE
  5
2F3
100
AcDbEntity
  8
MAIN0
  6
CENTER
 62
12
100
AcDbLine
 10
303.6592966105080
 20
334.9732411102580
 30
0.0000000000000000
 11
319.4525432625309
 21
334.9732411102580
 31
0.0000000000000000
  0
LINE
  5
2F4
100
AcDbEntity
  8
MAIN0
  6
HIDDEN
 62
4
100
AcDbLine
 10
258.3019437323457
 20
349.9732411102580
 30
0.0000000000000000
 11
260.6019437323457
 21
349.9732411102581
 31
0.0000000000000000
  0
LINE
  5
2F5
100
AcDbEntity
  8
MAIN0
  6
CONTINUOUS
 62
3
100
AcDbLine
 10
260.6019437323457
 20
349.9732411102581
 30
0.0000000000000000
 11
313.7719437323458
 21
349.9732411102581
 31
0.0000000000000000
  0
LINE
  5
2F6
100
AcDbEntity
  8
MAIN0
  6
CONTINUOUS
 62
3
100
AcDbLine
 10
258.3019437323458
 20
277.6982411104909
 30
0.0000000000000000
 11
260.6019437323457
 21
277.6982411104909
 31
0.0000000000000000
  0
LINE
  5
2F7
100
AcDbEntity
  8
MAIN0
  6
CONTINUOUS
 62
3
100
AcDbLine
 10
260.6019437323457
 20
275.9732411102580
 30
0.0000000000000000
 11
313.7719437323459
 21
275.9732411102580
 31
0.0000000000000000
  0
LINE
  5
2F8
100
AcDbEntity
  8
MAIN0
  6
CONTINUOUS
 62
3
100
AcDbLine
 10
260.6019437323457
 20
340.9732366197580
 30
0.0000000000000000
 11
260.6019437323457
 21
349.9732411102580
 31
0.0000000000000000
  0
LINE
  5
2F9
100
AcDbEntity
  8
MAIN0
  6
CONTINUOUS
 62
3
100
AcDbLine
 10
260.6019437323457
 20
275.9732411102579
 30
0.0000000000000000
 11
260.6019437323457
 21
294.8332411102580
 31
0.0000000000000000
  0
LINE
  5
2FA
100
AcDbEntity
  8
MAIN0
  6
CONTINUOUS
 62
3
100
AcDbLine
 10
260.6019437323457
 20
306.8332366197579
 30
0.0000000000000000
 11
260.6019437323457
 21
328.9732411102580
 31
0.0000000000000000
  0
LINE
  5
2FB
100
AcDbEntity
  8
MAIN0
  6
CONTINUOUS
 62
3
100
AcDbLine
 10
267.7719437323456
 20
328.9732411102580
 30
0.0000000000000000
 11
247.7719437323458
 21
328.9732411102580
 31
0.0000000000000000
  0
LINE
  5
2FC
100
AcDbEntity
  8
MAIN0
  6
CONTINUOUS
 62
3
100
AcDbLine
 10
247.7719437323458
 20
328.9732411102580
 30
0.0000000000000000
 11
247.7719437323459
 21
340.9732411102580
 31
0.0000000000000000
  0
LINE
  5
2FD
100
AcDbEntity
  8
MAIN0
  6
CONTINUOUS
 62
3
100
AcDbLine
 10
247.7719437323459
 20
340.9732411102580
 30
0.0000000000000000
 11
267.7719437323456
 21
340.9732341102580
 31
0.0000000000000000
  0
LINE
  5
2FE
100
AcDbEntity
  8
MAIN0
  6
CONTINUOUS
 62
12
100
AcDbLine
 10
267.7719437323456
 20
329.9732411102580
 30
0.0000000000000000
 11
247.7719437323458
 21
329.9732411102580
 31
0.0000000000000000
  0
LINE
  5
2FF
100
AcDbEntity
  8
MAIN0
  6
CONTINUOUS
 62
12
100
AcDbLine
 10
267.7719437323456
 20
339.9732411102580
 30
0.0000000000000000
 11
247.7719437323459
 21
339.9732411102580
 31
0.0000000000000000
  0
LINE
  5
300
100
AcDbEntity
  8
MAIN0
  6
CONTINUOUS
 62
3
100
AcDbLine
 10
267.7719467323457
 20
343.9732411102580
 30
0.0000000000000000
 11
279.0719117323458
 21
343.9732341102580
 31
0.0000000000000000
  0
LINE
  5
301
100
AcDbEntity
  8
MAIN0
  6
CONTINUOUS
 62
3
100
AcDbLine
 10
279.0719007323458
 20
325.9732341102580
 30
0.0000000000000000
 11
267.7719397323456
 21
325.9732411102580
 31
0.0000000000000000
  0
LINE
  5
302
100
AcDbEntity
  8
MAIN0
  6
CONTINUOUS
 62
3
100
AcDbLine
 10
279.0719497323458
 20
343.9732341102580
 30
0.0000000000000000
 11
279.0719387323458
 21
325.9732341102580
 31
0.0000000000000000
  0
LINE
  5
303
100
AcDbEntity
  8
MAIN0
  6
CONTINUOUS
 62
3
100
AcDbLine
 10
279.7718817323458
 20
327.1856821102580
 30
0.0000000000000000
 11
279.0719387323458
 21
325.9732341102580
 31
0.0000000000000000
  0
LINE
  5
304
100
AcDbEntity
  8
MAIN0
  6
CONTINUOUS
 62
3
100
AcDbLine
 10
279.7718937323458
 20
342.7609081102580
 30
0.0000000000000000
 11
279.0719497323458
 21
343.9732341102580
 31
0.0000000000000000
  0
LINE
  5
305
100
AcDbEntity
  8
MAIN0
  6
CONTINUOUS
 62
3
100
AcDbLine
 10
279.7719437323458
 20
327.1857895072546
 30
0.0000000000000000
 11
279.7719437323458
 21
342.7608215086155
 31
0.0000000000000000
  0
LINE
  5
306
100
AcDbEntity
  8
MAIN0
  6
CONTINUOUS
 62
3
100
AcDbLine
 10
267.7719437323459
 20
294.8332411102580
 30
0.0000000000000000
 11
247.7719437323459
 21
294.8332411102580
 31
0.0000000000000000
  0
LINE
  5
307
100
AcDbEntity
  8
MAIN0
  6
CONTINUOUS
 62
3
100
AcDbLine
 10
247.7719437323459
 20
294.8332411102580
 30
0.0000000000000000
 11
247.7719437323459
 21
306.8332411102580
 31
0.0000000000000000
  0
LINE
  5
308
100
AcDbEntity
  8
MAIN0
  6
CONTINUOUS
 62
3
100
AcDbLine
 10
247.7719437323459
 20
306.8332411102580
 30
0.0000000000000000
 11
267.7719437323457
 21
306.8332341102579
 31
0.0000000000000000
  0
LINE
  5
309
100
AcDbEntity
  8
MAIN0
  6
CONTINUOUS
 62
12
100
AcDbLine
 10
267.7719437323459
 20
295.8332411102580
 30
0.0000000000000000
 11
247.7719437323459
 21
295.8332411102580
 31
0.0000000000000000
  0
LINE
  5
30A
100
AcDbEntity
  8
MAIN0
  6
CONTINUOUS
 62
12
100
AcDbLine
 10
267.7719437323459
 20
305.8332411102580
 30
0.0000000000000000
 11
247.7719437323459
 21
305.8332411102580
 31
0.0000000000000000
  0
LINE
  5
30B
100
AcDbEntity
  8
MAIN0
  6
CONTINUOUS
 62
3
100
AcDbLine
 10
267.7719467323458
 20
309.8332411102580
 30
0.0000000000000000
 11
279.0719117323458
 21
309.8332341102580
 31
0.0000000000000000
  0
LINE
  5
30C
100
AcDbEntity
  8
MAIN0
  6
CONTINUOUS
 62
3
100
AcDbLine
 10
279.0719007323459
 20
291.8332341102579
 30
0.0000000000000000
 11
267.7719397323457
 21
291.8332411102580
 31
0.0000000000000000
  0
LINE
  5
30D
100
AcDbEntity
  8
MAIN0
  6
CONTINUOUS
 62
3
100
AcDbLine
 10
279.0719497323458
 20
309.8332341102580
 30
0.0000000000000000
 11
279.0719387323459
 21
291.8332341102578
 31
0.0000000000000000
  0
LINE
  5
30E
100
AcDbEntity
  8
MAIN0
  6
CONTINUOUS
 62
3
100
AcDbLine
 10
279.7718817323458
 20
293.0456821102581
 30
0.0000000000000000
 11
279.0719387323458
 21
291.8332341102581
 31
0.0000000000000000
  0
LINE
  5
30F
100
AcDbEntity
  8
MAIN0
  6
CONTINUOUS
 62
3
100
AcDbLine
 10
279.7718937323459
 20
308.6209081102580
 30
0.0000000000000000
 11
279.0719497323460
 21
309.8332341102579
 31
0.0000000000000000
  0
LINE
  5
310
100
AcDbEntity
  8
MAIN0
  6
CONTINUOUS
 62
3
100
AcDbLine
 10
279.7719437323458
 20
293.0457895072546
 30
0.0000000000000000
 11
279.7719437323459
 21
308.6208215086155
 31
0.0000000000000000
  0
LINE
  5
311
100
AcDbEntity
  8
MAIN0
  6
CENTER
 62
4
100
AcDbLine
 10
444.2473181340494
 20
152.7703720750604
 30
0.0000000000000000
 11
444.2473181340494
 21
365.6176751421431
 31
0.0000000000000000
  0
LINE
  5
312
100
AcDbEntity
  8
MAIN0
  6
CONTINUOUS
 62
3
100
AcDbLine
 10
472.7473181342310
 20
348.9732411102581
 30
0.0000000000000000
 11
472.7473181342311
 21
283.9732411102580
 31
0.0000000000000000
  0
LINE
  5
313
100
AcDbEntity
  8
MAIN0
  6
CONTINUOUS
 62
3
100
AcDbLine
 10
415.7473181342311
 20
283.9732411102579
 30
0.0000000000000000
 11
415.7473181342310
 21
348.9732411102581
 31
0.0000000000000000
  0
LINE
  5
314
100
AcDbEntity
  8
MAIN0
  6
CONTINUOUS
 62
3
100
AcDbLine
 10
423.7473181342311
 20
275.9732411102580
 30
0.0000000000000000
 11
464.7473181342311
 21
275.9732411102580
 31
0.0000000000000000
  0
LINE
  5
315
100
AcDbEntity
  8
MAIN0
  6
CONTINUOUS
 62
3
100
AcDbLine
 10
416.7473181342310
 20
349.9732411102581
 30
0.0000000000000000
 11
471.7473181342310
 21
349.9732411102581
 31
0.0000000000000000
  0
LINE
  5
316
100
AcDbEntity
  8
MAIN0
  6
CENTER
 62
4
100
AcDbLine
 10
457.4822179669477
 20
300.8332411102580
 30
0.0000000000000000
 11
429.2477750036787
 21
300.8332411102580
 31
0.0000000000000000
  0
LINE
  5
317
100
AcDbEntity
  8
MAIN0
  6
CENTER
 62
4
100
AcDbLine
 10
427.9872904715320
 20
334.9732411102580
 30
0.0000000000000000
 11
457.7343098665865
 21
334.9732411102580
 31
0.0000000000000000
  0
LINE
  5
318
100
AcDbEntity
  8
MAIN0
  6
CONTINUOUS
 62
3
100
AcDbLine
 10
472.7473181342311
 20
283.9732411102580
 30
0.0000000000000000
 11
464.7473181342311
 21
275.9732411102580
 31
0.0000000000000000
  0
LINE
  5
319
100
AcDbEntity
  8
MAIN0
  6
CONTINUOUS
 62
3
100
AcDbLine
 10
415.7473181342310
 20
283.9732411102581
 30
0.0000000000000000
 11
423.7473181342311
 21
275.9732411102580
 31
0.0000000000000000
  0
LINE
  5
31A
100
AcDbEntity
  8
MAIN0
  6
CONTINUOUS
 62
3
100
AcDbLine
 10
472.7473181342310
 20
348.9732411102581
 30
0.0000000000000000
 11
471.7473181342310
 21
349.9732411102581
 31
0.0000000000000000
  0
LINE
  5
31B
100
AcDbEntity
  8
MAIN0
  6
CONTINUOUS
 62
3
100
AcDbLine
 10
415.7473181342310
 20
348.9732411102581
 30
0.0000000000000000
 11
416.7473181342310
 21
349.9732411102581
 31
0.0000000000000000
  0
CIRCLE
  5
31C
100
AcDbEntity
  8
MAIN0
  6
CONTINUOUS
 62
3
100
AcDbCircle
 10
444.2473181340494
 20
300.8332411102580
 30
0.0000000000000000
 40
10.00000000000000
  0
CIRCLE
  5
31D
100
AcDbEntity
  8
MAIN0
  6
CONTINUOUS
 62
3
100
AcDbCircle
 10
444.2473181340494
 20
334.9732411102580
 30
0.0000000000000000
 40
10.00000000000000
  0
LINE
  5
31E
100
AcDbEntity
  8
MAIN0
  6
CONTINUOUS
 62
3
100
AcDbLine
 10
449.2473181340493
 20
337.8599941102580
 30
0.0000000000000000
 11
444.2473181340493
 21
340.7467431102580
 31
0.0000000000000000
  0
LINE
  5
31F
100
AcDbEntity
  8
MAIN0
  6
CONTINUOUS
 62
3
100
AcDbLine
 10
444.2473181340492
 20
340.7467431102580
 30
0.0000000000000000
 11
439.2473181340493
 21
337.8599901102580
 31
0.0000000000000000
  0
LINE
  5
320
100
AcDbEntity
  8
MAIN0
  6
CONTINUOUS
 62
3
100
AcDbLine
 10
439.2473181340494
 20
337.8599901102580
 30
0.0000000000000000
 11
439.2473181340494
 21
332.0864881102580
 31
0.0000000000000000
  0
LINE
  5
321
100
AcDbEntity
  8
MAIN0
  6
CONTINUOUS
 62
3
100
AcDbLine
 10
439.2473181340494
 20
332.0864881102580
 30
0.0000000000000000
 11
444.2473251340493
 21
329.1997381102580
 31
0.0000000000000000
  0
LINE
  5
322
100
AcDbEntity
  8
MAIN0
  6
CONTINUOUS
 62
3
100
AcDbLine
 10
444.2473251340493
 20
329.1997381102580
 30
0.0000000000000000
 11
449.2473251340492
 21
332.0864951102580
 31
0.0000000000000000
  0
LINE
  5
323
100
AcDbEntity
  8
MAIN0
  6
CONTINUOUS
 62
3
100
AcDbLine
 10
449.2473251340493
 20
332.0864951102580
 30
0.0000000000000000
 11
449.2473181340494
 21
337.8599941102580
 31
0.0000000000000000
  0
CIRCLE
  5
324
100
AcDbEntity
  8
MAIN0
  6
CONTINUOUS
 62
3
100
AcDbCircle
 10
444.2473181340494
 20
334.9732411102580
 30
0.0000000000000000
 40
9.000000000000000
  0
LINE
  5
325
100
AcDbEntity
  8
MAIN0
  6
CONTINUOUS
 62
3
100
AcDbLine
 10
449.2473181340494
 20
303.7199941102580
 30
0.0000000000000000
 11
444.2473181340494
 21
306.6067431102580
 31
0.0000000000000000
  0
LINE
  5
326
100
AcDbEntity
  8
MAIN0
  6
CONTINUOUS
 62
3
100
AcDbLine
 10
444.2473181340492
 20
306.6067431102580
 30
0.0000000000000000
 11
439.2473181340492
 21
303.7199901102580
 31
0.0000000000000000
  0
LINE
  5
327
100
AcDbEntity
  8
MAIN0
  6
CONTINUOUS
 62
3
100
AcDbLine
 10
439.2473181340494
 20
303.7199901102580
 30
0.0000000000000000
 11
439.2473181340494
 21
297.9464881102580
 31
0.0000000000000000
  0
LINE
  5
328
100
AcDbEntity
  8
MAIN0
  6
CONTINUOUS
 62
3
100
AcDbLine
 10
439.2473181340494
 20
297.9464881102580
 30
0.0000000000000000
 11
444.2473251340493
 21
295.0597381102580
 31
0.0000000000000000
  0
LINE
  5
329
100
AcDbEntity
  8
MAIN0
  6
CONTINUOUS
 62
3
100
AcDbLine
 10
444.2473251340493
 20
295.0597381102581
 30
0.0000000000000000
 11
449.2473251340493
 21
297.9464951102581
 31
0.0000000000000000
  0
LINE
  5
32A
100
AcDbEntity
  8
MAIN0
  6
CONTINUOUS
 62
3
100
AcDbLine
 10
449.2473251340493
 20
297.9464951102580
 30
0.0000000000000000
 11
449.2473181340494
 21
303.7199941102580
 31
0.0000000000000000
  0
CIRCLE
  5
32B
100
AcDbEntity
  8
MAIN0
  6
CONTINUOUS
 62
3
100
AcDbCircle
 10
444.2473181340494
 20
300.8332411102580
 30
0.0000000000000000
 40
9.000000000000000
  0
LINE
  5
32C
100
AcDbEntity
  8
MAIN0
  6
CENTER
 62
12
100
AcDbLine
 10
221.7259437323458
 20
168.5083364505024
 30
0.0000000000000000
 11
236.8219437323458
 21
168.5083364505024
 31
0.0000000000000000
  0
LINE
  5
32D
100
AcDbEntity
  8
MAIN0
  6
CENTER
 62
12
100
AcDbLine
 10
221.7259437323458
 20
178.5083364505024
 30
0.0000000000000000
 11
236.8219437323458
 21
178.5083364505024
 31
0.0000000000000000
  0
LINE
  5
32E
100
AcDbEntity
  8
MAIN0
  6
CENTER
 62
12
100
AcDbLine
 10
236.0719437323459
 20
169.2583364505024
 30
0.0000000000000000
 11
237.2719437323459
 21
168.0583364505023
 31
0.0000000000000000
  0
LINE
  5
32F
100
AcDbEntity
  8
MAIN0
  6
CENTER
 62
12
100
AcDbLine
 10
236.0719437323457
 20
177.7583364505025
 30
0.0000000000000000
 11
237.2719437323458
 21
178.9583364505024
 31
0.0000000000000000
  0
LINE
  5
330
100
AcDbEntity
  8
MAIN0
  6
CENTER
 62
12
100
AcDbLine
 10
214.7259437323458
 20
169.2583364505024
 30
0.0000000000000000
 11
236.0719437323459
 21
169.2583364505024
 31
0.0000000000000000
  0
LINE
  5
331
100
AcDbEntity
  8
MAIN0
  6
CENTER
 62
12
100
AcDbLine
 10
214.7259437323460
 20
177.7583364505024
 30
0.0000000000000000
 11
236.0719437323458
 21
177.7583364505024
 31
0.0000000000000000
  0
LINE
  5
332
100
AcDbEntity
  8
MAIN0
  6
CENTER
 62
12
100
AcDbLine
 10
221.7259437323458
 20
168.5083364505024
 30
0.0000000000000000
 11
221.7259437323458
 21
178.5083364505024
 31
0.0000000000000000
  0
LINE
  5
333
100
AcDbEntity
  8
MAIN0
  6
CENTER
 62
12
100
AcDbLine
 10
214.7259437323459
 20
169.2583364505024
 30
0.0000000000000000
 11
214.7259437323459
 21
177.7583364505024
 31
0.0000000000000000
  0
LINE
  5
334
100
AcDbEntity
  8
MAIN0
  6
CENTER
 62
12
100
AcDbLine
 10
212.2722050882899
 20
173.5083364505027
 30
0.0000000000000000
 11
214.7259437323458
 21
169.2583364505024
 31
0.0000000000000000
  0
LINE
  5
335
100
AcDbEntity
  8
MAIN0
  6
CENTER
 62
12
100
AcDbLine
 10
212.2722050882898
 20
173.5083364505027
 30
0.0000000000000000
 11
214.7259437323457
 21
177.7583364505025
 31
0.0000000000000000
  0
LINE
  5
336
100
AcDbEntity
  8
MAIN0
  6
CENTER
 62
12
100
AcDbLine
 10
236.0719437323459
 20
169.2583364505024
 30
0.0000000000000000
 11
236.0719437323458
 21
177.7583364505024
 31
0.0000000000000000
  0
LINE
  5
337
100
AcDbEntity
  8
MAIN0
  6
CONTINUOUS
 62
3
100
AcDbLine
 10
154.8719437323459
 20
201.1482411102582
 30
0.0000000000000000
 11
154.2719437323460
 21
201.7482411102581
 31
0.0000000000000000
  0
LINE
  5
338
100
AcDbEntity
  8
MAIN0
  6
CONTINUOUS
 62
3
100
AcDbLine
 10
154.8719437323459
 20
187.6482411102582
 30
0.0000000000000000
 11
154.2719437323459
 21
187.0482411102582
 31
0.0000000000000000
  0
LINE
  5
339
100
AcDbEntity
  8
MAIN0
  6
CONTINUOUS
 62
3
100
AcDbLine
 10
139.7719437323459
 20
237.0732411102582
 30
0.0000000000000000
 11
139.7719437323459
 21
245.1732411102581
 31
0.0000000000000000
  0
LINE
  5
33A
100
AcDbEntity
  8
MAIN0
  6
CONTINUOUS
 62
3
100
AcDbLine
 10
139.7719437323458
 20
276.9732411102581
 30
0.0000000000000000
 11
139.7719437323458
 21
285.0732411102581
 31
0.0000000000000000
  0
LINE
  5
33B
100
AcDbEntity
  8
MAIN0
  6
CONTINUOUS
 62
3
100
AcDbLine
 10
149.2719437323458
 20
162.0732411102582
 30
0.0000000000000000
 11
149.2719437323458
 21
232.2768370425142
 31
0.0000000000000000
  0
LINE
  5
33C
100
AcDbEntity
  8
MAIN0
  6
CONTINUOUS
 62
3
100
AcDbLine
 10
154.2719437323458
 20
178.0732411102582
 30
0.0000000000000000
 11
154.2719437323458
 21
232.5926864953385
 31
0.0000000000000000
  0
LINE
  5
33D
100
AcDbEntity
  8
MAIN0
  6
CONTINUOUS
 62
3
100
AcDbLine
 10
150.2719437323458
 20
176.0732411102582
 30
0.0000000000000000
 11
152.6719437323459
 21
176.0732411102582
 31
0.0000000000000000
  0
LINE
  5
33E
100
AcDbEntity
  8
MAIN0
  6
CONTINUOUS
 62
3
100
AcDbLine
 10
140.7719437323459
 20
236.0732411102582
 30
0.0000000000000000
 11
152.6719437323459
 21
236.0732411102582
 31
0.0000000000000000
  0
LINE
  5
33F
100
AcDbEntity
  8
MAIN0
  6
CONTINUOUS
 62
3
100
AcDbLine
 10
150.2719437323459
 20
176.0732411102582
 30
0.0000000000000000
 11
149.2719437323459
 21
175.0732411102582
 31
0.0000000000000000
  0
LINE
  5
340
100
AcDbEntity
  8
MAIN0
  6
CONTINUOUS
 62
3
100
AcDbLine
 10
140.7719437323459
 20
236.0732411102581
 30
0.0000000000000000
 11
139.7719437323459
 21
237.0732411102581
 31
0.0000000000000000
  0
LINE
  5
341
100
AcDbEntity
  8
MAIN0
  6
CONTINUOUS
 62
3
100
AcDbLine
 10
150.2719437323458
 20
161.0732411102582
 30
0.0000000000000000
 11
149.2719437323459
 21
162.0732411102582
 31
0.0000000000000000
  0
LINE
  5
342
100
AcDbEntity
  8
MAIN0
  6
CONTINUOUS
 62
3
100
AcDbLine
 10
154.6719437323459
 20
227.0373926968704
 30
0.0000000000000000
 11
154.6719437323459
 21
234.0732411102583
 31
0.0000000000000000
  0
LINE
  5
343
100
AcDbEntity
  8
MAIN0
  6
CONTINUOUS
 62
3
100
AcDbLine
 10
154.2719437323460
 20
226.0732411102584
 30
0.0000000000000000
 11
154.5815523988886
 21
226.6679938250422
 31
0.0000000000000000
  0
LINE
  5
344
100
AcDbEntity
  8
MAIN0
  6
CONTINUOUS
 62
3
100
AcDbLine
 10
153.6324347958314
 20
175.5732411102582
 30
0.0000000000000000
 11
153.8719437323459
 21
175.5732411102581
 31
0.0000000000000000
  0
LINE
  5
345
100
AcDbEntity
  8
MAIN0
  6
CONTINUOUS
 62
3
100
AcDbLine
 10
154.5815523988885
 20
177.4784883954746
 30
0.0000000000000000
 11
154.2719437323458
 21
178.0732411102582
 31
0.0000000000000000
  0
LINE
  5
346
100
AcDbEntity
  8
MAIN0
  6
CONTINUOUS
 62
3
100
AcDbLine
 10
153.6324347958314
 20
175.5732411102581
 30
0.0000000000000000
 11
152.6719437323459
 21
176.0732411102581
 31
0.0000000000000000
  0
LINE
  5
347
100
AcDbEntity
  8
MAIN0
  6
CONTINUOUS
 62
3
100
AcDbLine
 10
154.6719437323459
 20
177.1090895048865
 30
0.0000000000000000
 11
154.6719437323459
 21
176.3732411102582
 31
0.0000000000000000
  0
LINE
  5
348
100
AcDbEntity
  8
MAIN0
  6
CONTINUOUS
 62
3
100
AcDbLine
 10
149.2719437323458
 20
360.0732411102581
 30
0.0000000000000000
 11
149.2719437323458
 21
289.8696451780022
 31
0.0000000000000000
  0
LINE
  5
349
100
AcDbEntity
  8
MAIN0
  6
CONTINUOUS
 62
3
100
AcDbLine
 10
154.2719437323458
 20
344.0732411102581
 30
0.0000000000000000
 11
154.2719437323458
 21
289.5537957251779
 31
0.0000000000000000
  0
LINE
  5
34A
100
AcDbEntity
  8
MAIN0
  6
CONTINUOUS
 62
3
100
AcDbLine
 10
150.2719437323458
 20
346.0732411102581
 30
0.0000000000000000
 11
152.6719437323459
 21
346.0732411102581
 31
0.0000000000000000
  0
LINE
  5
34B
100
AcDbEntity
  8
MAIN0
  6
CONTINUOUS
 62
3
100
AcDbLine
 10
140.7719437323459
 20
286.0732411102580
 30
0.0000000000000000
 11
152.6719437323459
 21
286.0732411102580
 31
0.0000000000000000
  0
LINE
  5
34C
100
AcDbEntity
  8
MAIN0
  6
CONTINUOUS
 62
3
100
AcDbLine
 10
150.2719437323459
 20
346.0732411102581
 30
0.0000000000000000
 11
149.2719437323459
 21
347.0732411102581
 31
0.0000000000000000
  0
LINE
  5
34D
100
AcDbEntity
  8
MAIN0
  6
CONTINUOUS
 62
3
100
AcDbLine
 10
140.7719437323459
 20
286.0732411102581
 30
0.0000000000000000
 11
139.7719437323459
 21
285.0732411102581
 31
0.0000000000000000
  0
LINE
  5
34E
100
AcDbEntity
  8
MAIN0
  6
CONTINUOUS
 62
3
100
AcDbLine
 10
150.2719437323458
 20
361.0732411102581
 30
0.0000000000000000
 11
149.2719437323458
 21
360.0732411102581
 31
0.0000000000000000
  0
LINE
  5
34F
100
AcDbEntity
  8
MAIN0
  6
CONTINUOUS
 62
3
100
AcDbLine
 10
154.6719437323459
 20
295.1090895236459
 30
0.0000000000000000
 11
154.6719437323459
 21
288.0732411102579
 31
0.0000000000000000
  0
LINE
  5
350
100
AcDbEntity
  8
MAIN0
  6
CONTINUOUS
 62
3
100
AcDbLine
 10
154.2719437323460
 20
296.0732411102578
 30
0.0000000000000000
 11
154.5815523988886
 21
295.4784883954740
 31
0.0000000000000000
  0
LINE
  5
351
100
AcDbEntity
  8
MAIN0
  6
CONTINUOUS
 62
3
100
AcDbLine
 10
153.6324347958314
 20
346.5732411102581
 30
0.0000000000000000
 11
153.8719437323459
 21
346.5732411102581
 31
0.0000000000000000
  0
LINE
  5
352
100
AcDbEntity
  8
MAIN0
  6
CONTINUOUS
 62
3
100
AcDbLine
 10
154.5815523988884
 20
344.6679938250417
 30
0.0000000000000000
 11
154.2719437323458
 21
344.0732411102580
 31
0.0000000000000000
  0
LINE
  5
353
100
AcDbEntity
  8
MAIN0
  6
CONTINUOUS
 62
3
100
AcDbLine
 10
153.6324347958314
 20
346.5732411102581
 30
0.0000000000000000
 11
152.6719437323459
 21
346.0732411102582
 31
0.0000000000000000
  0
LINE
  5
354
100
AcDbEntity
  8
MAIN0
  6
CONTINUOUS
 62
3
100
AcDbLine
 10
154.6719437323459
 20
345.0373927156297
 30
0.0000000000000000
 11
154.6719437323459
 21
345.7732411102581
 31
0.0000000000000000
  0
ARC
  5
355
100
AcDbEntity
  8
MAIN0
  6
CONTINUOUS
 62
3
100
AcDbCircle
 10
153.8719437323458
 20
176.3732411102582
 30
0.0000000000000000
 40
0.7999999999999999
100
AcDbArc
 50
269.9999999999999
 51
359.9999999999998
  0
ARC
  5
356
100
AcDbEntity
  8
MAIN0
  6
CONTINUOUS
 62
3
100
AcDbCircle
 10
153.8719437323458
 20
177.1090895048865
 30
0.0000000000000000
 40
0.7999999999999999
100
AcDbArc
 50
0.0000000000000000
 51
27.50000000000168
  0
ARC
  5
357
100
AcDbEntity
  8
MAIN0
  6
CONTINUOUS
 62
3
100
AcDbCircle
 10
152.6719437323459
 20
234.0732411102583
 30
0.0000000000000000
 40
2.000000000000000
100
AcDbArc
 50
0.0000000000000000
 51
89.99999999999970
  0
ARC
  5
358
100
AcDbEntity
  8
MAIN0
  6
CONTINUOUS
 62
3
100
AcDbCircle
 10
153.8719437323459
 20
295.1090895048860
 30
0.0000000000000000
 40
0.7999999999999999
100
AcDbArc
 50
359.9999999999998
 51
387.4999999999992
  0
ARC
  5
359
100
AcDbEntity
  8
MAIN0
  6
CONTINUOUS
 62
3
100
AcDbCircle
 10
153.8719437323458
 20
345.7732411102581
 30
0.0000000000000000
 40
0.7999999999999999
100
AcDbArc
 50
359.9999999999998
 51
449.9999999999999
  0
ARC
  5
35A
100
AcDbEntity
  8
MAIN0
  6
CONTINUOUS
 62
3
100
AcDbCircle
 10
153.8719437323458
 20
345.0373927156298
 30
0.0000000000000000
 40
0.7999999999999999
100
AcDbArc
 50
332.4999999999981
 51
359.9999999999998
  0
ARC
  5
35B
100
AcDbEntity
  8
MAIN0
  6
CONTINUOUS
 62
3
100
AcDbCircle
 10
152.6719437323459
 20
288.0732411102581
 30
0.0000000000000000
 40
2.000000000000000
100
AcDbArc
 50
269.9999999999999
 51
359.9999999999998
  0
DIMENSION
  5
364
100
AcDbEntity
  8
MAIN10
  6
CONTINUOUS
 62
12
100
AcDbDimension
  2
*D26
 10
85.78366498794489
 20
245.1732411102582
 30
0.0000000000000000
 11
85.28366498794489
 21
261.0732411102582
 31
0.0000000000000000
 70
32
  1
\A1;\U+220531.8
  3
MAIN001
100
AcDbAlignedDimension
 13
127.5239923819799
 23
276.9732411102582
 33
0.0000000000000000
 14
127.5239923819799
 24
245.1732411102582
 34
0.0000000000000000
 50
90.00000000000000
100
AcDbRotatedDimension
1001
ACAD
1000
DSTYLE
1002
{
1070
   173
1070
     1
1070
     6
1000
_OPEN
1070
     7
1000
_OPEN
1070
    41
1040
1.910672
1002
}
  0
DIMENSION
  5
36D
100
AcDbEntity
  8
MAIN10
  6
CONTINUOUS
 62
12
100
AcDbDimension
  2
*D27
 10
49.99442749343550
 20
161.0732411102582
 30
0.0000000000000000
 11
49.49442749343550
 21
261.0732411102581
 31
0.0000000000000000
 70
32
  1
\A1;\U+2205200
  3
MAIN001
100
AcDbAlignedDimension
 13
149.4719437204250
 23
361.0732411102580
 33
0.0000000000000000
 14
149.4719437204249
 24
161.0732411102582
 34
0.0000000000000000
 50
90.00000000000000
100
AcDbRotatedDimension
1001
ACAD
1000
DSTYLE
1002
{
1070
   173
1070
     1
1070
     6
1000
_OPEN
1070
     7
1000
_OPEN
1070
    41
1040
1.910672
1002
}
  0
DIMENSION
  5
376
100
AcDbEntity
  8
MAIN10
  6
CONTINUOUS
 62
12
100
AcDbDimension
  2
*D28
 10
61.92416152321786
 20
346.0732411102581
 30
0.0000000000000000
 11
61.42416152321786
 21
261.0732411102581
 31
0.0000000000000000
 70
32
  1
\A1;\U+2205170H6
  3
MAIN001
100
AcDbAlignedDimension
 13
149.4719437204250
 23
176.0732411102582
 33
0.0000000000000000
 14
149.4719437204249
 24
346.0732411102581
 34
0.0000000000000000
 50
90.00000000000000
100
AcDbRotatedDimension
1001
ACAD
1000
DSTYLE
1002
{
1070
   173
1070
     1
1070
     6
1000
_OPEN
1070
     7
1000
_OPEN
1070
    41
1040
1.910672
1002
}
  0
DIMENSION
  5
37F
100
AcDbEntity
  8
MAIN10
  6
CONTINUOUS
 62
12
100
AcDbDimension
  2
*D29
 10
73.74137794723006
 20
286.0732411102581
 30
0.0000000000000000
 11
73.24137794723006
 21
261.0732411102582
 31
0.0000000000000000
 70
32
  1
\A1;\U+220550
  3
MAIN001
100
AcDbAlignedDimension
 13
139.9719437204249
 23
236.0732411102583
 33
0.0000000000000000
 14
139.9719437204249
 24
286.0732411102579
 34
0.0000000000000000
 50
90.00000000000000
100
AcDbRotatedDimension
1001
ACAD
1000
DSTYLE
1002
{
1070
   173
1070
     1
1070
     6
1000
_OPEN
1070
     7
1000
_OPEN
1070
    41
1040
1.910672
1002
}
  0
DIMENSION
  5
388
100
AcDbEntity
  8
MAIN10
  6
CONTINUOUS
 62
12
100
AcDbDimension
  2
*D30
 10
126.3239923939008
 20
136.2165298806029
 30
0.0000000000000000
 11
137.7979680631233
 21
136.7165298806029
 31
0.0000000000000000
 70
32
  1
\A1;MAX 29.3
  3
MAIN001
100
AcDbAlignedDimension
 13
149.2719437323458
 23
162.0732411102582
 33
0.0000000000000000
 14
126.3239923939008
 24
245.5279416367159
 34
0.0000000000000000
100
AcDbRotatedDimension
1001
ACAD
1000
DSTYLE
1002
{
1070
   173
1070
     1
1070
     6
1000
_OPEN
1070
     7
1000
_OPEN
1070
    41
1040
1.910672
1002
}
  0
DIMENSION
  5
391
100
AcDbEntity
  8
MAIN10
  6
CONTINUOUS
 62
12
100
AcDbDimension
  2
*D31
 10
149.2719437323458
 20
136.2165298806029
 30
0.0000000000000000
 11
193.2719437323459
 21
136.7165298806029
 31
0.0000000000000000
 70
32
  3
MAIN001
100
AcDbAlignedDimension
 13
237.2719437323460
 23
162.2732410983373
 33
0.0000000000000000
 14
149.2719437323458
 24
162.0732411102582
 34
0.0000000000000000
100
AcDbRotatedDimension
1001
ACAD
1000
DSTYLE
1002
{
1070
   173
1070
     1
1070
     6
1000
_OPEN
1070
     7
1000
_OPEN
1070
    41
1040
1.910672
1002
}
  0
DIMENSION
  5
399
100
AcDbEntity
  8
MAIN10
  6
CONTINUOUS
 62
12
100
AcDbDimension
  2
*D32
 10
139.7719437323458
 20
301.4033629220279
 30
0.0000000000000000
 11
144.4926761828025
 21
301.9033629220279
 31
0.0000000000000000
 70
160
  3
MAIN001
100
AcDbAlignedDimension
 13
154.2719437323458
 23
344.0732411102581
 33
0.0000000000000000
 14
139.7719437323458
 24
285.8732411221790
 34
0.0000000000000000
100
AcDbRotatedDimension
1001
ACAD
1000
DSTYLE
1002
{
1070
   173
1070
     1
1070
     6
1000
_OPEN
1070
     7
1000
_OPEN
1070
    41
1040
1.910672
1002
}
  0
DIMENSION
  5
3A2
100
AcDbEntity
  8
MAIN0
  6
CONTINUOUS
 62
12
100
AcDbDimension
  2
*D33
 10
149.2719437323458
 20
219.5832720414021
 30
0.0000000000000000
 11
151.7719437323458
 21
220.0832720414021
 31
0.0000000000000000
 70
32
  3
MAIN001
100
AcDbAlignedDimension
 13
154.2719437323459
 23
178.0732411102582
 33
0.0000000000000000
 14
149.2719437323459
 24
162.0732411102582
 34
0.0000000000000000
100
AcDbRotatedDimension
1001
ACAD
1000
DSTYLE
1002
{
1070
   173
1070
     1
1070
     6
1000
_OPEN
1070
     7
1000
_OPEN
1070
    41
1040
1.910672
1070
   287
1070
     0
1002
}
  0
DIMENSION
  5
3AA
100
AcDbEntity
  8
MAIN10
  6
CONTINUOUS
 62
12
100
AcDbDimension
  2
*D34
 10
136.2719437323460
 20
208.6664442996872
 30
0.0000000000000000
 11
145.2719437323459
 21
209.1664442996872
 31
0.0000000000000000
 70
32
  3
MAIN001
100
AcDbAlignedDimension
 13
154.2719437323458
 23
178.0732411102582
 33
0.0000000000000000
 14
136.2719437323460
 24
201.1982411221790
 34
0.0000000000000000
100
AcDbRotatedDimension
1001
ACAD
1000
DSTYLE
1002
{
1070
   173
1070
     1
1070
     6
1000
_OPEN
1070
     7
1000
_OPEN
1070
    41
1040
1.910672
1002
}
  0
LEADER
  5
3AB
100
AcDbEntity
  8
MAIN10
  6
CONTINUOUS
 62
12
100
AcDbLeader
  3
MAIN001
 73
     0
 75
     1
 40
3.099999904632568
 41
13.56900041007995
 76
     3
 10
141.0173445034075
 20
200.3982408841663
 30
0.0000000000000000
 10
119.0939942065559
 20
213.0556930795921
 30
0.0000000000000000
 10
117.1669942623458
 20
213.0556930795921
 30
0.0000000000000000
340
3AC
213
0.0000000000000000
223
-0.5000000000000000
233
0.0000000000000000
1001
ACAD
1000
DSTYLE
1002
{
1070
   147
1040
0.0
1070
    77
1070
     1
1070
   173
1070
     1
1070
     6
1000
_OPEN
1070
     7
1000
_OPEN
1002
}
  0
MTEXT
  5
3AC
102
{ACAD_REACTORS
330
3AB
102
}
100
AcDbEntity
  8
MAIN10
  6
CONTINUOUS
 62
4
100
AcDbMText
 10
103.5979938522659
 20
216.6556929842247
 30
0.0000000000000000
 40
3.099999904632568
 41
0.0000000000000000
 71
     1
 72
     1
  1
{\H0.92x;{3-M12}}
 11
1.000000000000000
 21
0.0000000000000000
 31
0.0000000000000000
  7
STANDARD
  0
DIMENSION
  5
3B5
100
AcDbEntity
  8
MAIN10
  6
CONTINUOUS
 62
12
100
AcDbDimension
  2
*D35
 10
97.10399239390083
 20
224.1976268431720
 30
0.0000000000000000
 11
111.7139923939008
 21
224.6976268431720
 31
0.0000000000000000
 70
32
  1
\A1;29.2
  3
MAIN001
100
AcDbAlignedDimension
 13
126.3239923939008
 23
245.5279416367159
 33
0.0000000000000000
 14
97.10399239390083
 24
252.7687986472974
 34
0.0000000000000000
100
AcDbRotatedDimension
1001
ACAD
1000
DSTYLE
1002
{
1070
   173
1070
     1
1070
     6
1000
_OPEN
1070
     7
1000
_OPEN
1070
    41
1040
1.910672
1002
}
  0
LINE
  5
3B6
100
AcDbEntity
  8
MAIN0
  6
CENTER
 62
12
100
AcDbLine
 10
221.2719437323458
 20
188.3982411102582
 30
0.0000000000000000
 11
136.2719437323459
 21
188.3982411102582
 31
0.0000000000000000
  0
LINE
  5
3B7
100
AcDbEntity
  8
MAIN0
  6
CENTER
 62
12
100
AcDbLine
 10
136.2719437323459
 20
188.3982411102582
 30
0.0000000000000000
 11
136.2719437323459
 21
200.3982411102582
 31
0.0000000000000000
  0
LINE
  5
3B8
100
AcDbEntity
  8
MAIN0
  6
CENTER
 62
12
100
AcDbLine
 10
136.2719437323459
 20
200.3982411102582
 30
0.0000000000000000
 11
221.2719437323458
 21
200.3982341102582
 31
0.0000000000000000
  0
LINE
  5
3B9
100
AcDbEntity
  8
MAIN0
  6
CENTER
 62
12
100
AcDbLine
 10
166.2719437323459
 20
189.3982411102582
 30
0.0000000000000000
 11
136.2719437323459
 21
189.3982411102582
 31
0.0000000000000000
  0
LINE
  5
3BA
100
AcDbEntity
  8
MAIN0
  6
CENTER
 62
12
100
AcDbLine
 10
166.2719437323459
 20
199.3982411102583
 30
0.0000000000000000
 11
136.2719437323459
 21
199.3982411102583
 31
0.0000000000000000
  0
LINE
  5
3BB
100
AcDbEntity
  8
MAIN0
  6
CENTER
 62
12
100
AcDbLine
 10
221.2719467323458
 20
203.3982411102582
 30
0.0000000000000000
 11
232.5719117323458
 21
203.3982341102582
 31
0.0000000000000000
  0
LINE
  5
3BC
100
AcDbEntity
  8
MAIN0
  6
CENTER
 62
12
100
AcDbLine
 10
232.5719007323458
 20
185.3982341102582
 30
0.0000000000000000
 11
221.2719397323458
 21
185.3982411102582
 31
0.0000000000000000
  0
LINE
  5
3BD
100
AcDbEntity
  8
MAIN0
  6
CENTER
 62
12
100
AcDbLine
 10
232.5719497323458
 20
203.3982341102583
 30
0.0000000000000000
 11
232.5719387323458
 21
185.3982341102582
 31
0.0000000000000000
  0
LINE
  5
3BE
100
AcDbEntity
  8
MAIN0
  6
CENTER
 62
12
100
AcDbLine
 10
233.2718817323458
 20
186.6106821102582
 30
0.0000000000000000
 11
232.5719387323458
 21
185.3982341102582
 31
0.0000000000000000
  0
LINE
  5
3BF
100
AcDbEntity
  8
MAIN0
  6
CENTER
 62
12
100
AcDbLine
 10
233.2718937323458
 20
202.1859081102582
 30
0.0000000000000000
 11
232.5719497323458
 21
203.3982341102583
 31
0.0000000000000000
  0
LINE
  5
3C0
100
AcDbEntity
  8
MAIN0
  6
CENTER
 62
12
100
AcDbLine
 10
233.2719437323459
 20
186.6107895072548
 30
0.0000000000000000
 11
233.2719437323459
 21
202.1858215086157
 31
0.0000000000000000
  0
LINE
  5
3C1
100
AcDbEntity
  8
MAIN0
  6
CENTER
 62
12
100
AcDbLine
 10
166.2719437323459
 20
188.3982411102582
 30
0.0000000000000000
 11
166.2719437323459
 21
200.3982411102582
 31
0.0000000000000000
  0
LEADER
  5
3C2
100
AcDbEntity
  8
MAIN10
  6
CONTINUOUS
 62
12
100
AcDbLeader
  3
MAIN001
 73
     0
 74
     0
 75
     1
 40
3.100000381469727
 41
36.00100190734861
 76
     3
 10
498.5481815082594
 20
316.8251730603590
 30
0.0000000000000000
 10
519.6725526630348
 20
355.6824112775963
 30
0.0000000000000000
 10
521.6075531627602
 20
355.6824112775963
 30
0.0000000000000000
340
3C3
213
0.0000000000000000
223
-0.5000000000000000
233
0.0000000000000000
1001
ACAD
1000
DSTYLE
1002
{
1070
   147
1040
0.0
1070
    77
1070
     1
1070
   173
1070
     1
1070
     6
1000
_OPEN
1070
     7
1000
_OPEN
1002
}
  0
MTEXT
  5
3C3
102
{ACAD_REACTORS
330
3C2
102
}
100
AcDbEntity
  8
MAIN10
  6
CONTINUOUS
 62
4
100
AcDbMText
 10
521.6085531627601
 20
359.2824116590660
 30
0.0000000000000000
 40
3.100000381469727
 41
0.0000000000000000
 71
     1
 72
     1
  1
{\H0.94x;{3-M6 ネジ深13\P3-M6 DEPTH 13}}
 11
1.000000000000000
 21
0.0000000000000000
 31
0.0000000000000000
  7
KNJYOKO
  0
ARC
  5
3C4
100
AcDbEntity
  8
MAIN0
  6
CONTINUOUS
 62
3
100
AcDbCircle
 10
238.2719437323456
 20
236.4732411102581
 30
0.0000000000000000
 40
4.399999999999999
100
AcDbArc
 50
269.9999999999928
 51
359.9999999999934
  0
LINE
  5
3C5
100
AcDbEntity
  8
MAIN0
  6
CONTINUOUS
 62
3
100
AcDbLine
 10
242.6719437323456
 20
236.4732411102578
 30
0.0000000000000000
 11
242.6719437323460
 21
241.6732411102578
 31
0.0000000000000000
  0
ARC
  5
3C6
100
AcDbEntity
  8
MAIN0
  6
CONTINUOUS
 62
3
100
AcDbCircle
 10
238.2719437323460
 20
241.6732411102581
 30
0.0000000000000000
 40
4.400000000000000
100
AcDbArc
 50
0.0000000000000000
 51
89.99999999999639
  0
LINE
  5
3C7
100
AcDbEntity
  8
MAIN0
  6
CONTINUOUS
 62
3
100
AcDbLine
 10
238.2719437323455
 20
235.0732411102581
 30
0.0000000000000000
 11
226.2719437323455
 21
235.0732411102589
 31
0.0000000000000000
  0
LINE
  5
3C8
100
AcDbEntity
  8
MAIN0
  6
CONTINUOUS
 62
3
100
AcDbLine
 10
226.2719437323455
 20
235.0732411102589
 30
0.0000000000000000
 11
226.2719437323461
 21
243.0732411102589
 31
0.0000000000000000
  0
LINE
  5
3C9
100
AcDbEntity
  8
MAIN0
  6
CONTINUOUS
 62
3
100
AcDbLine
 10
226.2719437323461
 20
243.0732411102589
 30
0.0000000000000000
 11
238.2719437323461
 21
243.0732411102581
 31
0.0000000000000000
  0
LINE
  5
3CA
100
AcDbEntity
  8
MAIN0
  6
CONTINUOUS
 62
3
100
AcDbLine
 10
238.2719437323456
 20
235.7498236102581
 30
0.0000000000000000
 11
226.2719437323456
 21
235.7498236102589
 31
0.0000000000000000
  0
LINE
  5
3CB
100
AcDbEntity
  8
MAIN0
  6
CONTINUOUS
 62
3
100
AcDbLine
 10
238.2719437323460
 20
242.3966586102581
 30
0.0000000000000000
 11
226.2719437323460
 21
242.3966586102588
 31
0.0000000000000000
  0
LINE
  5
3CC
100
AcDbEntity
  8
MAIN0
  6
HIDDEN
 62
12
100
AcDbLine
 10
221.5219437323461
 20
162.8232411102578
 30
0.0000000000000000
 11
221.5219437323461
 21
170.9462953302395
 31
0.0000000000000000
  0
LINE
  5
3CD
100
AcDbEntity
  8
MAIN0
  6
HIDDEN
 62
12
100
AcDbLine
 10
213.0219437323460
 20
162.8232411102584
 30
0.0000000000000000
 11
213.0219437323461
 21
186.2343306464985
 31
0.0000000000000000
  0
LINE
  5
3CE
100
AcDbEntity
  8
MAIN0
  6
HIDDEN
 62
12
100
AcDbLine
 10
212.2719437323462
 20
162.0732411102585
 30
0.0000000000000000
 11
212.2719437323462
 21
181.0732411102582
 31
0.0000000000000000
  0
LINE
  5
3CF
100
AcDbEntity
  8
MAIN0
  6
HIDDEN
 62
12
100
AcDbLine
 10
222.2719437323460
 20
162.0732411102575
 30
0.0000000000000000
 11
222.2719437323460
 21
169.8788377981791
 31
0.0000000000000000
  0
LINE
  5
3D0
100
AcDbEntity
  8
MAIN0
  6
HIDDEN
 62
12
100
AcDbLine
 10
221.5219437323461
 20
162.8232411102577
 30
0.0000000000000000
 11
223.1364673876848
 21
161.2087174549193
 31
0.0000000000000000
  0
LINE
  5
3D1
100
AcDbEntity
  8
MAIN0
  6
HIDDEN
 62
12
100
AcDbLine
 10
211.4074200770072
 20
161.2087174549199
 30
0.0000000000000000
 11
213.0219437323476
 21
162.8232411102603
 31
0.0000000000000000
  0
LINE
  5
3D2
100
AcDbEntity
  8
MAIN0
  6
HIDDEN
 62
3
100
AcDbLine
 10
221.5219437323461
 20
162.8232411102578
 30
0.0000000000000000
 11
213.0219437323476
 21
162.8232411102604
 31
0.0000000000000000
  0
LINE
  5
3D3
100
AcDbEntity
  8
MAIN0
  6
HIDDEN
 62
3
100
AcDbLine
 10
212.2719437323462
 20
181.0732411102582
 30
0.0000000000000000
 11
218.9345731298733
 21
181.0732411102582
 31
0.0000000000000000
  0
LINE
  5
3D4
100
AcDbEntity
  8
MAIN0
  6
HIDDEN
 62
12
100
AcDbLine
 10
374.7010567781052
 20
261.0732411102584
 30
0.0000000000000000
 11
372.2473181340492
 21
265.3232411102582
 31
0.0000000000000000
  0
LINE
  5
3D5
100
AcDbEntity
  8
MAIN0
  6
HIDDEN
 62
12
100
AcDbLine
 10
374.7010567781052
 20
261.0732411102583
 30
0.0000000000000000
 11
372.2473181340494
 21
256.8232411102583
 31
0.0000000000000000
  0
LINE
  5
3D6
100
AcDbEntity
  8
MAIN0
  6
HIDDEN
 62
12
100
AcDbLine
 10
372.2473181340494
 20
256.8232411102583
 30
0.0000000000000000
 11
372.2473181340494
 21
265.3232411102583
 31
0.0000000000000000
  0
LINE
  5
3D7
100
AcDbEntity
  8
MAIN0
  6
HIDDEN
 62
12
100
AcDbLine
 10
345.9973181340491
 20
265.3232411102583
 30
0.0000000000000000
 11
372.2473181340495
 21
265.3232411102584
 31
0.0000000000000000
  0
LINE
  5
3D8
100
AcDbEntity
  8
MAIN0
  6
HIDDEN
 62
12
100
AcDbLine
 10
345.9973181340498
 20
256.8232411102582
 30
0.0000000000000000
 11
372.2473181340494
 21
256.8232411102583
 31
0.0000000000000000
  0
LINE
  5
3D9
100
AcDbEntity
  8
MAIN0
  6
HIDDEN
 62
12
100
AcDbLine
 10
364.2473181340492
 20
256.0732411102582
 30
0.0000000000000000
 11
364.2473181340492
 21
266.0732411102583
 31
0.0000000000000000
  0
LINE
  5
3DA
100
AcDbEntity
  8
MAIN0
  6
HIDDEN
 62
12
100
AcDbLine
 10
345.2473181340499
 20
256.0732411102583
 30
0.0000000000000000
 11
364.2473181340495
 21
256.0732411102584
 31
0.0000000000000000
  0
LINE
  5
3DB
100
AcDbEntity
  8
MAIN0
  6
HIDDEN
 62
12
100
AcDbLine
 10
345.2473181340488
 20
266.0732411102582
 30
0.0000000000000000
 11
364.2473181340492
 21
266.0732411102582
 31
0.0000000000000000
  0
LINE
  5
3DC
100
AcDbEntity
  8
MAIN0
  6
HIDDEN
 62
12
100
AcDbLine
 10
345.9973181340490
 20
265.3232411102582
 30
0.0000000000000000
 11
344.3827944787105
 21
266.9377647655969
 31
0.0000000000000000
  0
LINE
  5
3DD
100
AcDbEntity
  8
MAIN0
  6
HIDDEN
 62
12
100
AcDbLine
 10
344.3827944787111
 20
255.2087174549193
 30
0.0000000000000000
 11
345.9973181340516
 21
256.8232411102598
 31
0.0000000000000000
  0
LINE
  5
3DE
100
AcDbEntity
  8
MAIN0
  6
HIDDEN
 62
3
100
AcDbLine
 10
345.9973181340491
 20
265.3232411102583
 30
0.0000000000000000
 11
345.9973181340517
 21
256.8232411102598
 31
0.0000000000000000
  0
LINE
  5
3DF
100
AcDbEntity
  8
MAIN0
  6
HIDDEN
 62
12
100
AcDbLine
 10
513.7935794899936
 20
261.0732411102584
 30
0.0000000000000000
 11
516.2473181340495
 21
265.3232411102582
 31
0.0000000000000000
  0
LINE
  5
3E0
100
AcDbEntity
  8
MAIN0
  6
HIDDEN
 62
12
100
AcDbLine
 10
513.7935794899935
 20
261.0732411102583
 30
0.0000000000000000
 11
516.2473181340492
 21
256.8232411102582
 31
0.0000000000000000
  0
LINE
  5
3E1
100
AcDbEntity
  8
MAIN0
  6
HIDDEN
 62
12
100
AcDbLine
 10
516.2473181340495
 20
256.8232411102583
 30
0.0000000000000000
 11
516.2473181340495
 21
265.3232411102583
 31
0.0000000000000000
  0
LINE
  5
3E2
100
AcDbEntity
  8
MAIN0
  6
HIDDEN
 62
12
100
AcDbLine
 10
542.4973181340496
 20
265.3232411102583
 30
0.0000000000000000
 11
516.2473181340494
 21
265.3232411102584
 31
0.0000000000000000
  0
LINE
  5
3E3
100
AcDbEntity
  8
MAIN0
  6
HIDDEN
 62
12
100
AcDbLine
 10
542.4973181340490
 20
256.8232411102582
 30
0.0000000000000000
 11
516.2473181340495
 21
256.8232411102583
 31
0.0000000000000000
  0
LINE
  5
3E4
100
AcDbEntity
  8
MAIN0
  6
HIDDEN
 62
12
100
AcDbLine
 10
524.2473181340496
 20
256.0732411102582
 30
0.0000000000000000
 11
524.2473181340496
 21
266.0732411102583
 31
0.0000000000000000
  0
LINE
  5
3E5
100
AcDbEntity
  8
MAIN0
  6
HIDDEN
 62
12
100
AcDbLine
 10
543.2473181340489
 20
256.0732411102583
 30
0.0000000000000000
 11
524.2473181340494
 21
256.0732411102584
 31
0.0000000000000000
  0
LINE
  5
3E6
100
AcDbEntity
  8
MAIN0
  6
HIDDEN
 62
12
100
AcDbLine
 10
543.2473181340499
 20
266.0732411102582
 30
0.0000000000000000
 11
524.2473181340496
 21
266.0732411102582
 31
0.0000000000000000
  0
LINE
  5
3E7
100
AcDbEntity
  8
MAIN0
  6
HIDDEN
 62
12
100
AcDbLine
 10
542.4973181340496
 20
265.3232411102582
 30
0.0000000000000000
 11
544.1118417893880
 21
266.9377647655969
 31
0.0000000000000000
  0
LINE
  5
3E8
100
AcDbEntity
  8
MAIN0
  6
HIDDEN
 62
12
100
AcDbLine
 10
544.1118417893874
 20
255.2087174549193
 30
0.0000000000000000
 11
542.4973181340470
 21
256.8232411102598
 31
0.0000000000000000
  0
LINE
  5
3E9
100
AcDbEntity
  8
MAIN0
  6
HIDDEN
 62
3
100
AcDbLine
 10
542.4973181340496
 20
265.3232411102583
 30
0.0000000000000000
 11
542.4973181340470
 21
256.8232411102598
 31
0.0000000000000000
  0
LINE
  5
3EA
100
AcDbEntity
  8
MAIN0
  6
CONTINUOUS
 62
3
100
AcDbLine
 10
241.6652780742866
 20
283.1732411102580
 30
0.0000000000000000
 11
259.6019437323457
 21
283.1732411102580
 31
0.0000000000000000
  0
LINE
  5
3EB
100
AcDbEntity
  8
MAIN0
  6
CONTINUOUS
 62
3
100
AcDbLine
 10
261.6019437323457
 20
349.9732411102581
 30
0.0000000000000000
 11
265.2019437323459
 21
349.9732411102581
 31
0.0000000000000000
  0
LINE
  5
3EC
100
AcDbEntity
  8
MAIN0
  6
CONTINUOUS
 62
3
100
AcDbLine
 10
241.9862631691850
 20
358.3732411102582
 30
0.0000000000000000
 11
264.6019437323457
 21
358.3732411102582
 31
0.0000000000000000
  0
LINE
  5
3ED
100
AcDbEntity
  8
MAIN0
  6
CONTINUOUS
 62
3
100
AcDbLine
 10
265.6019437323461
 20
357.3732411102582
 30
0.0000000000000000
 11
265.6019437323461
 21
350.3732411102581
 31
0.0000000000000000
  0
LINE
  5
3EE
100
AcDbEntity
  8
MAIN0
  6
CONTINUOUS
 62
3
100
AcDbLine
 10
260.3019437323459
 20
349.3316190780408
 30
0.0000000000000000
 11
260.3019437323458
 21
349.2495357483494
 31
0.0000000000000000
  0
LINE
  5
3EF
100
AcDbEntity
  8
MAIN0
  6
CONTINUOUS
 62
3
100
AcDbLine
 10
260.3019437323459
 20
349.2495357483494
 30
0.0000000000000000
 11
260.6019437323458
 21
348.6732411102582
 31
0.0000000000000000
  0
LINE
  5
3F0
100
AcDbEntity
  8
MAIN0
  6
CONTINUOUS
 62
3
100
AcDbLine
 10
261.4713426229340
 20
350.0412277445834
 30
0.0000000000000000
 11
261.6019437323459
 21
349.9732411102580
 31
0.0000000000000000
  0
LINE
  5
3F1
100
AcDbEntity
  8
MAIN0
  6
CONTINUOUS
 62
3
100
AcDbLine
 10
265.6019437323459
 20
350.3732411102581
 30
0.0000000000000000
 11
265.2019437323460
 21
349.9732411102581
 31
0.0000000000000000
  0
LINE
  5
3F2
100
AcDbEntity
  8
MAIN0
  6
CONTINUOUS
 62
3
100
AcDbLine
 10
260.6019437323461
 20
284.1732411102582
 30
0.0000000000000000
 11
259.6019437323461
 21
283.1732411102581
 31
0.0000000000000000
  0
LINE
  5
3F3
100
AcDbEntity
  8
MAIN0
  6
CONTINUOUS
 62
3
100
AcDbLine
 10
265.6019437323460
 20
357.3732411102583
 30
0.0000000000000000
 11
264.6019437323460
 21
358.3732411102583
 31
0.0000000000000000
  0
ARC
  5
3F4
100
AcDbEntity
  8
MAIN0
  6
CONTINUOUS
 62
3
100
AcDbCircle
 10
261.1019437323457
 20
349.3316190780407
 30
0.0000000000000000
 40
0.7999999999999999
100
AcDbArc
 50
62.50000000000038
 51
179.9999999999999
  0
ARC
  5
3F5
100
AcDbEntity
  8
MAIN0
  6
CONTINUOUS
 62
3
100
AcDbCircle
 10
235.4496878993971
 20
340.0232411102580
 30
0.0000000000000000
 40
4.000000000000000
100
AcDbArc
 50
297.1012261653349
 51
354.9999999999916
  0
LINE
  5
3F6
100
AcDbEntity
  8
MAIN0
  6
CONTINUOUS
 62
3
100
AcDbLine
 10
240.9781255444362
 20
357.3187195628796
 30
0.0000000000000000
 11
239.4344666917683
 21
339.6746181392659
 31
0.0000000000000000
  0
ARC
  5
3F7
100
AcDbEntity
  8
MAIN0
  6
CONTINUOUS
 62
3
100
AcDbCircle
 10
235.4496878993972
 20
296.4232411102581
 30
0.0000000000000000
 40
4.000000000000000
100
AcDbArc
 50
5.000000000008340
 51
62.89877383466575
  0
LINE
  5
3F8
100
AcDbEntity
  8
MAIN0
  6
CONTINUOUS
 62
3
100
AcDbLine
 10
240.5334554148238
 20
284.2103654965832
 30
0.0000000000000000
 11
239.4344666917685
 21
296.7718640812501
 31
0.0000000000000000
  0
LINE
  5
3F9
100
AcDbEntity
  8
MAIN0
  6
CONTINUOUS
 62
3
100
AcDbLine
 10
240.8478894111861
 20
357.3301137481204
 30
0.0000000000000000
 11
241.9862631691850
 21
358.3732411102582
 31
0.0000000000000000
  0
LINE
  5
3FA
100
AcDbEntity
  8
MAIN0
  6
CONTINUOUS
 62
3
100
AcDbLine
 10
240.5781223315389
 20
284.1694358083498
 30
0.0000000000000000
 11
241.6652780742866
 21
283.1732411102581
 31
0.0000000000000000
  0
LINE
  5
3FB
100
AcDbEntity
  8
MAIN0
  6
CONTINUOUS
 62
3
100
AcDbLine
 10
246.5019437323460
 20
283.1732411102581
 30
0.0000000000000000
 11
246.5019437323460
 21
358.3732411102582
 31
0.0000000000000000
  0
LINE
  5
3FC
100
AcDbEntity
  8
MAIN0
  6
CONTINUOUS
 62
3
100
AcDbLine
 10
246.0019437323460
 20
283.1732411102581
 30
0.0000000000000000
 11
246.0019437323460
 21
358.3732411102582
 31
0.0000000000000000
  0
LINE
  5
3FD
100
AcDbEntity
  8
MAIN0
  6
CONTINUOUS
 62
3
100
AcDbLine
 10
252.5019437323460
 20
283.1732411102580
 30
0.0000000000000000
 11
252.5019437323460
 21
291.2782097170814
 31
0.0000000000000000
  0
LINE
  5
3FE
100
AcDbEntity
  8
MAIN0
  6
CONTINUOUS
 62
3
100
AcDbLine
 10
252.5019437323460
 20
344.4782097170815
 30
0.0000000000000000
 11
252.5019437323460
 21
358.3732411102582
 31
0.0000000000000000
  0
LINE
  5
3FF
100
AcDbEntity
  8
MAIN0
  6
CONTINUOUS
 62
3
100
AcDbLine
 10
260.6019437323458
 20
340.9732366197580
 30
0.0000000000000000
 11
260.6019437323457
 21
348.6732411102581
 31
0.0000000000000000
  0
LINE
  5
400
100
AcDbEntity
  8
MAIN0
  6
CONTINUOUS
 62
3
100
AcDbLine
 10
260.6019437323458
 20
284.1732411102580
 30
0.0000000000000000
 11
260.6019437323458
 21
294.8332411102580
 31
0.0000000000000000
  0
LINE
  5
401
100
AcDbEntity
  8
MAIN0
  6
CONTINUOUS
 62
3
100
AcDbLine
 10
260.6019437323458
 20
306.8332366197579
 30
0.0000000000000000
 11
260.6019437323458
 21
328.9732411102580
 31
0.0000000000000000
  0
LINE
  5
402
100
AcDbEntity
  8
MAIN0
  6
CONTINUOUS
 62
3
100
AcDbLine
 10
221.2719437323458
 20
184.3982411102581
 30
0.0000000000000000
 11
236.6719437323458
 21
184.3982411102581
 31
0.0000000000000000
  0
LINE
  5
403
100
AcDbEntity
  8
MAIN0
  6
CONTINUOUS
 62
3
100
AcDbLine
 10
236.6719437323458
 20
204.3982411102583
 30
0.0000000000000000
 11
221.2719437323460
 21
204.3982411102582
 31
0.0000000000000000
  0
LINE
  5
404
100
AcDbEntity
  8
MAIN0
  6
CONTINUOUS
 62
3
100
AcDbLine
 10
195.3331143823505
 20
187.6482411102582
 30
0.0000000000000000
 11
221.2719437323458
 21
187.6482411102582
 31
0.0000000000000000
  0
LINE
  5
405
100
AcDbEntity
  8
MAIN0
  6
CONTINUOUS
 62
3
100
AcDbLine
 10
193.7841031268281
 20
201.1482411102583
 30
0.0000000000000000
 11
221.2719437323458
 21
201.1482411102583
 31
0.0000000000000000
  0
LINE
  5
406
100
AcDbEntity
  8
MAIN0
  6
CONTINUOUS
 62
3
100
AcDbLine
 10
221.2719437323458
 20
184.3982411102581
 30
0.0000000000000000
 11
221.2719437323458
 21
204.3982411102581
 31
0.0000000000000000
  0
LINE
  5
407
100
AcDbEntity
  8
MAIN0
  6
CONTINUOUS
 62
3
100
AcDbLine
 10
237.2719437323458
 20
183.7982411102583
 30
0.0000000000000000
 11
236.6719437323458
 21
184.3982411102583
 31
0.0000000000000000
  0
LINE
  5
408
100
AcDbEntity
  8
MAIN0
  6
CONTINUOUS
 62
3
100
AcDbLine
 10
237.2719437323459
 20
204.9982411102583
 30
0.0000000000000000
 11
236.6719437323458
 21
204.3982411102582
 31
0.0000000000000000
  0
LINE
  5
409
100
AcDbEntity
  8
MAIN0
  6
CENTER
 62
12
100
AcDbLine
 10
364.8904498220913
 20
282.3368498883102
 30
0.0000000000000000
 11
378.1804020433883
 21
278.7758179231655
 31
0.0000000000000000
  0
LINE
  5
40A
100
AcDbEntity
  8
MAIN0
  6
CENTER
 62
12
100
AcDbLine
 10
465.5109269121015
 20
181.7163727983001
 30
0.0000000000000000
 11
461.9498949469568
 21
195.0063250195970
 31
0.0000000000000000
  0
LINE
  5
40B
100
AcDbEntity
  8
MAIN0
  6
CENTER
 62
12
100
AcDbLine
 10
151.8126109081247
 20
336.0732411102580
 30
0.0000000000000000
 11
169.2996276746142
 21
336.0732411102580
 31
0.0000000000000000
  0
LINE
  5
40C
100
AcDbEntity
  8
MAIN0
  6
HIDDEN
 62
4
100
AcDbLine
 10
155.0719437323459
 20
333.5732411102582
 30
0.0000000000000000
 11
154.2719437323460
 21
332.7732411102580
 31
0.0000000000000000
  0
LINE
  5
40D
100
AcDbEntity
  8
MAIN0
  6
HIDDEN
 62
4
100
AcDbLine
 10
155.0719437323460
 20
338.5732411102582
 30
0.0000000000000000
 11
154.2719437323460
 21
339.3732411102581
 31
0.0000000000000000
  0
LINE
  5
40E
100
AcDbEntity
  8
MAIN0
  6
HIDDEN
 62
4
100
AcDbLine
 10
155.0719437323459
 20
333.5732411102581
 30
0.0000000000000000
 11
155.0719437323460
 21
338.5732411102581
 31
0.0000000000000000
  0
LINE
  5
40F
100
AcDbEntity
  8
MAIN0
  6
HIDDEN
 62
4
100
AcDbLine
 10
154.5719437323459
 20
339.0732411102582
 30
0.0000000000000000
 11
165.3841000288764
 21
339.0732411102582
 31
0.0000000000000000
  0
LINE
  5
410
100
AcDbEntity
  8
MAIN0
  6
HIDDEN
 62
4
100
AcDbLine
 10
155.0719437323459
 20
338.5732411102582
 30
0.0000000000000000
 11
165.2220506010570
 21
338.5732411102582
 31
0.0000000000000000
  0
LINE
  5
411
100
AcDbEntity
  8
MAIN0
  6
HIDDEN
 62
4
100
AcDbLine
 10
155.0719437323459
 20
333.5732411102582
 30
0.0000000000000000
 11
165.4135925290672
 21
333.5732411102582
 31
0.0000000000000000
  0
LINE
  5
412
100
AcDbEntity
  8
MAIN0
  6
HIDDEN
 62
4
100
AcDbLine
 10
154.5719437323459
 20
333.0732411102582
 30
0.0000000000000000
 11
165.2662362435999
 21
333.0732411102582
 31
0.0000000000000000
  0
ARC
  5
413
100
AcDbEntity
  8
MAIN0
  6
CENTER
 62
12
100
AcDbCircle
 10
444.2473181340494
 20
261.0732411102581
 30
0.0000000000000000
 40
75.00000000000000
100
AcDbArc
 50
159.6149896497837
 51
169.9620268706144
  0
CIRCLE
  5
414
100
AcDbEntity
  8
MAIN0
  6
HIDDEN
 62
4
100
AcDbCircle
 10
371.8028811623693
 20
280.4846694929470
 30
0.0000000000000000
 40
2.999999999999993
  0
CIRCLE
  5
415
100
AcDbEntity
  8
MAIN0
  6
HIDDEN
 62
4
100
AcDbCircle
 10
371.8028811623693
 20
280.4846694929470
 30
0.0000000000000000
 40
2.499999999999993
  0
ARC
  5
416
100
AcDbEntity
  8
MAIN0
  6
CENTER
 62
12
100
AcDbCircle
 10
444.2473181340494
 20
261.0732411102581
 30
0.0000000000000000
 40
75.00000000000000
100
AcDbArc
 50
279.6149896497836
 51
289.9620268706145
  0
CIRCLE
  5
417
100
AcDbEntity
  8
MAIN0
  6
HIDDEN
 62
4
100
AcDbCircle
 10
463.6587465167385
 20
188.6288041385780
 30
0.0000000000000000
 40
2.999999999999993
  0
CIRCLE
  5
418
100
AcDbEntity
  8
MAIN0
  6
HIDDEN
 62
4
100
AcDbCircle
 10
463.6587465167385
 20
188.6288041385780
 30
0.0000000000000000
 40
2.499999999999993
  0
LINE
  5
419
100
AcDbEntity
  8
MAIN0
  6
CENTER
 62
12
100
AcDbLine
 10
502.3405776679552
 20
319.1665006441640
 30
0.0000000000000000
 11
492.6116574118030
 21
309.4375803880117
 31
0.0000000000000000
  0
ARC
  5
41A
100
AcDbEntity
  8
MAIN0
  6
CENTER
 62
12
100
AcDbCircle
 10
444.2473181340494
 20
261.0732411102581
 30
0.0000000000000000
 40
75.00000000000000
100
AcDbArc
 50
40.35519378054943
 51
54.32070734911640
  0
CIRCLE
  5
41B
100
AcDbEntity
  8
MAIN0
  6
HIDDEN
 62
4
100
AcDbCircle
 10
497.2803267230402
 20
314.1062496992491
 30
0.0000000000000000
 40
2.999999999999993
  0
CIRCLE
  5
41C
100
AcDbEntity
  8
MAIN0
  6
HIDDEN
 62
4
100
AcDbCircle
 10
497.2803267230402
 20
314.1062496992491
 30
0.0000000000000000
 40
2.499999999999993
  0
LINE
  5
41D
100
AcDbEntity
  8
WAKU0
  6
CONTINUOUS
 62
3
100
AcDbLine
 10
412.0000000000000
 20
51.00000000000000
 30
0.0000000000000000
 11
582.0000000000000
 21
51.00000000000000
 31
0.0000000000000000
  0
LINE
  5
41E
100
AcDbEntity
  8
WAKU0
  6
CONTINUOUS
 62
3
100
AcDbLine
 10
412.0000000000000
 20
51.00000000000000
 30
0.0000000000000000
 11
412.0000000000000
 21
12.00000000000000
 31
0.0000000000000000
  0
LINE
  5
41F
100
AcDbEntity
  8
WAKU0
  6
CONTINUOUS
 62
3
100
AcDbLine
 10
484.0000000000000
 20
51.00000000000000
 30
0.0000000000000000
 11
484.0000000000000
 21
12.00000000000000
 31
0.0000000000000000
  0
LINE
  5
420
100
AcDbEntity
  8
WAKU0
  6
CONTINUOUS
 62
3
100
AcDbLine
 10
504.0000000000000
 20
51.00000000000000
 30
0.0000000000000000
 11
504.0000000000000
 21
12.00000000000000
 31
0.0000000000000000
  0
LINE
  5
421
100
AcDbEntity
  8
WAKU0
  6
CONTINUOUS
 62
3
100
AcDbLine
 10
516.0000000000000
 20
51.00000000000000
 30
0.0000000000000000
 11
516.0000000000000
 21
12.00000000000000
 31
0.0000000000000000
  0
LINE
  5
422
100
AcDbEntity
  8
WAKU0
  6
CONTINUOUS
 62
3
100
AcDbLine
 10
516.0000000000000
 20
37.00000000000000
 30
0.0000000000000000
 11
582.0000000000000
 21
37.00000000000000
 31
0.0000000000000000
  0
LINE
  5
423
100
AcDbEntity
  8
WAKU0
  6
CONTINUOUS
 62
3
100
AcDbLine
 10
504.0000000000000
 20
23.00000000000000
 30
0.0000000000000000
 11
582.0000000000000
 21
23.00000000000000
 31
0.0000000000000000
  0
LINE
  5
424
100
AcDbEntity
  8
WAKU0
  6
CONTINUOUS
 62
3
100
AcDbLine
 10
547.0000000000000
 20
51.00000000000000
 30
0.0000000000000000
 11
547.0000000000000
 21
44.00000000000000
 31
0.0000000000000000
  0
LINE
  5
425
100
AcDbEntity
  8
WAKU0
  6
CONTINUOUS
 62
3
100
AcDbLine
 10
559.0000000000000
 20
51.00000000000000
 30
0.0000000000000000
 11
559.0000000000000
 21
44.00000000000000
 31
0.0000000000000000
  0
LINE
  5
426
100
AcDbEntity
  8
WAKU0
  6
CONTINUOUS
 62
3
100
AcDbLine
 10
484.0000000000000
 20
31.50000000000000
 30
0.0000000000000000
 11
504.0000000000000
 21
31.50000000000000
 31
0.0000000000000000
  0
LINE
  5
427
100
AcDbEntity
  8
WAKU0
  6
CONTINUOUS
 62
3
100
AcDbLine
 10
504.0000000000000
 20
44.00000000000000
 30
0.0000000000000000
 11
582.0000000000000
 21
44.00000000000000
 31
0.0000000000000000
  0
LINE
  5
428
100
AcDbEntity
  8
WAKU0
  6
CONTINUOUS
 62
3
100
AcDbLine
 10
412.0000000000000
 20
37.00000000000000
 30
0.0000000000000000
 11
484.0000000000000
 21
37.00000000000000
 31
0.0000000000000000
  0
LINE
  5
429
100
AcDbEntity
  8
WAKU0
  6
CONTINUOUS
 62
3
100
AcDbLine
 10
412.0000000000000
 20
23.00000000000000
 30
0.0000000000000000
 11
484.0000000000000
 21
23.00000000000000
 31
0.0000000000000000
  0
LINE
  5
42A
100
AcDbEntity
  8
WAKU0
  6
CONTINUOUS
 62
3
100
AcDbLine
 10
460.0000000000000
 20
37.00000000000000
 30
0.0000000000000000
 11
460.0000000000000
 21
12.00000000000000
 31
0.0000000000000000
  0
LINE
  5
42B
100
AcDbEntity
  8
WAKU0
  6
CONTINUOUS
 62
3
100
AcDbLine
 10
436.0000000000000
 20
37.00000000000000
 30
0.0000000000000000
 11
436.0000000000000
 21
23.00000000000000
 31
0.0000000000000000
  0
LINE
  5
42C
100
AcDbEntity
  8
WAKU0
  6
CONTINUOUS
 62
3
100
AcDbLine
 10
472.0000000000000
 20
26.00000000000000
 30
0.0000000000000000
 11
472.0000000000000
 21
23.00000000000000
 31
0.0000000000000000
  0
LINE
  5
42D
100
AcDbEntity
  8
WAKU0
  6
CONTINUOUS
 62
3
100
AcDbLine
 10
448.0000000000000
 20
26.00000000000000
 30
0.0000000000000000
 11
448.0000000000000
 21
23.00000000000000
 31
0.0000000000000000
  0
LINE
  5
42E
100
AcDbEntity
  8
WAKU0
  6
CONTINUOUS
 62
3
100
AcDbLine
 10
424.0000000000000
 20
26.00000000000000
 30
0.0000000000000000
 11
424.0000000000000
 21
23.00000000000000
 31
0.0000000000000000
  0
LINE
  5
42F
100
AcDbEntity
  8
WAKU0
  6
CONTINUOUS
 62
3
100
AcDbLine
 10
430.0000000000000
 20
51.00000000000000
 30
0.0000000000000000
 11
430.0000000000000
 21
37.00000000000000
 31
0.0000000000000000
  0
LINE
  5
430
100
AcDbEntity
  8
WAKU0
  6
CONTINUOUS
 62
3
100
AcDbLine
 10
412.0000000000000
 20
45.00000000000000
 30
0.0000000000000000
 11
484.0000000000000
 21
45.00000000000000
 31
0.0000000000000000
  0
LINE
  5
431
100
AcDbEntity
  8
WAKU0
  6
HIDDEN
 62
3
100
AcDbLine
 10
532.5000000000000
 20
23.00000000000000
 30
0.0000000000000000
 11
532.5000000000000
 21
12.00000000000000
 31
0.0000000000000000
  0
LINE
  5
432
100
AcDbEntity
  8
WAKU0
  6
HIDDEN
 62
3
100
AcDbLine
 10
544.9000000000000
 20
23.00000000000000
 30
0.0000000000000000
 11
544.9000000000000
 21
12.00000000000000
 31
0.0000000000000000
  0
MTEXT
  5
433
100
AcDbEntity
  8
WAKU0
  6
CONTINUOUS
 62
3
100
AcDbMText
 10
516.4820000243485
 20
49.04999995231628
 30
0.0000000000000000
 40
3.099999904632568
 41
0.0000000000000000
 71
     1
 72
     1
  1
{\H0.92x;{PW-08}}
 11
1.000000000000000
 21
0.0000000000000000
 31
0.0000000000000000
  7
STANDARD
  0
MTEXT
  5
434
100
AcDbEntity
  8
WAKU0
  6
CONTINUOUS
 62
3
100
AcDbMText
 10
528.9650003314018
 20
43.50000000000000
 30
0.0000000000000000
 40
3.000000000000000
 41
0.0000000000000000
 71
     1
 72
     1
  1
{\H0.94x;{パワーウイング　８\PＰＯＷＥＲ　ＷＩＮＧ　８}}
 11
1.000000000000000
 21
0.0000000000000000
 31
0.0000000000000000
  7
KNJYOKO
  0
MTEXT
  5
435
100
AcDbEntity
  8
WAKU0
  6
CONTINUOUS
 62
3
100
AcDbMText
 10
517.8699992895126
 20
34.23333326975504
 30
0.0000000000000000
 40
3.099999904632568
 41
0.0000000000000000
 71
     1
 72
     1
  1
{\H0.94x;{ＰＷ－０８　ガイケイ\PＰＷ－０８　ＯＵＴＳＩＤＥ　ＶＩＥＷ}}
 11
1.000000000000000
 21
0.0000000000000000
 31
0.0000000000000000
  7
KNJYOKO
  0
MTEXT
  5
436
100
AcDbEntity
  8
WAKU0
  6
CONTINUOUS
 62
3
100
AcDbMText
 10
490.0049998760223
 20
39.29999995231628
 30
0.0000000000000000
 40
3.099999904632568
 41
0.0000000000000000
 71
     1
 72
     1
  1
{\H0.90x;{1:1}}
 11
1.000000000000000
 21
0.0000000000000000
 31
0.0000000000000000
  7
STANDARD
  0
MTEXT
  5
437
100
AcDbEntity
  8
WAKU0
  6
CONTINUOUS
 62
3
100
AcDbMText
 10
546.4000001549721
 20
20.15000009536743
 30
0.0000000000000000
 40
5.300000190734863
 41
0.0000000000000000
 71
     1
 72
     1
  1
{\H0.90x;{9252}}
 11
1.000000000000000
 21
0.0000000000000000
 31
0.0000000000000000
  7
STANDARD
  0
MTEXT
  5
438
100
AcDbEntity
  8
WAKU0
  6
CONTINUOUS
 62
3
100
AcDbMText
 10
534.3000000834466
 20
20.15000009536743
 30
0.0000000000000000
 40
5.300000190734863
 41
0.0000000000000000
 71
     1
 72
     1
  1
{\H0.87x;{21}}
 11
1.000000000000000
 21
0.0000000000000000
 31
0.0000000000000000
  7
STANDARD
  0
MTEXT
  5
439
100
AcDbEntity
  8
WAKU0
  6
CONTINUOUS
 62
3
100
AcDbMText
 10
517.5000001192093
 20
20.15000009536743
 30
0.0000000000000000
 40
5.300000190734863
 41
0.0000000000000000
 71
     1
 72
     1
  1
{\H0.89x;{61P}}
 11
1.000000000000000
 21
0.0000000000000000
 31
0.0000000000000000
  7
STANDARD
  0
MTEXT
  5
43A
100
AcDbEntity
  8
WAKU0
  6
CONTINUOUS
 62
3
100
AcDbMText
 10
572.0000000476837
 20
20.15000009536743
 30
0.0000000000000000
 40
5.300000190734863
 41
0.0000000000000000
 71
     1
 72
     1
  1
{\H0.81x;{6}}
 11
1.000000000000000
 21
0.0000000000000000
 31
0.0000000000000000
  7
STANDARD
  0
MTEXT
  5
43B
100
AcDbEntity
  8
WAKU0
  6
CONTINUOUS
 62
3
100
AcDbMText
 10
572.0000000819564
 20
44.84999990463257
 30
0.0000000000000000
 40
5.300000190734863
 41
0.0000000000000000
 71
     7
 72
     1
  1
{\H0.81x;{ }}
 11
1.000000000000000
 21
0.0000000000000000
 31
0.0000000000000000
  7
STANDARD
  0
MTEXT
  5
43C
100
AcDbEntity
  8
WAKU0
  6
CONTINUOUS
 62
3
100
AcDbMText
 10
461.3850002884865
 20
33.00000000000000
 30
0.0000000000000000
 40
3.000000000000000
 41
0.0000000000000000
 71
     7
 72
     1
  1
{\H0.93x;{DRAWN BY}}
 11
1.000000000000000
 21
0.0000000000000000
 31
0.0000000000000000
  7
STANDARD
  0
MTEXT
  5
43D
100
AcDbEntity
  8
WAKU0
  6
CONTINUOUS
 62
3
100
AcDbMText
 10
441.2149997949600
 20
32.95000004768372
 30
0.0000000000000000
 40
3.099999904632568
 41
0.0000000000000000
 71
     7
 72
     1
  1
{\H0.92x;{CHIEF}}
 11
1.000000000000000
 21
0.0000000000000000
 31
0.0000000000000000
  7
STANDARD
  0
MTEXT
  5
43E
100
AcDbEntity
  8
WAKU0
  6
CONTINUOUS
 62
3
100
AcDbMText
 10
414.4249997138977
 20
32.95000004768372
 30
0.0000000000000000
 40
3.099999904632568
 41
0.0000000000000000
 71
     7
 72
     1
  1
{\H0.92x;{MANAGER}}
 11
1.000000000000000
 21
0.0000000000000000
 31
0.0000000000000000
  7
STANDARD
  0
MTEXT
  5
43F
100
AcDbEntity
  8
WAKU0
  6
CONTINUOUS
 62
3
100
AcDbMText
 10
416.6599994301796
 20
18.13333336512248
 30
0.0000000000000000
 40
3.099999904632568
 41
0.0000000000000000
 71
     7
 72
     1
  1
{\H0.93x;{KITAGAWA IRON\PWORKS CO.,LTD.}}
 11
1.000000000000000
 21
0.0000000000000000
 31
0.0000000000000000
  7
STANDARD
  0
MTEXT
  5
440
100
AcDbEntity
  8
WAKU0
  6
CONTINUOUS
 62
3
100
AcDbMText
 10
413.0850002169609
 20
46.50000000000000
 30
0.0000000000000000
 40
3.000000000000000
 41
0.0000000000000000
 71
     7
 72
     1
  1
{\H0.92x;{CAREER}}
 11
1.000000000000000
 21
0.0000000000000000
 31
0.0000000000000000
  7
STANDARD
  0
MTEXT
  5
441
100
AcDbEntity
  8
WAKU0
  6
CONTINUOUS
 62
3
100
AcDbMText
 10
466.6099998354912
 20
18.95000004768372
 30
0.0000000000000000
 40
3.099999904632568
 41
0.0000000000000000
 71
     7
 72
     1
  1
{\H0.91x;{DATE}}
 11
1.000000000000000
 21
0.0000000000000000
 31
0.0000000000000000
  7
STANDARD
  0
MTEXT
  5
442
100
AcDbEntity
  8
WAKU0
  6
CONTINUOUS
 62
3
100
AcDbMText
 10
485.9000002145767
 20
26.50000000000000
 30
0.0000000000000000
 40
3.000000000000000
 41
0.0000000000000000
 71
     7
 72
     1
  1
{\H0.63x;{3RD ANGLE}}
 11
1.000000000000000
 21
0.0000000000000000
 31
0.0000000000000000
  7
STANDARD
  0
MTEXT
  5
443
100
AcDbEntity
  8
WAKU0
  6
CONTINUOUS
 62
3
100
AcDbMText
 10
487.2149997949600
 20
45.95000004768372
 30
0.0000000000000000
 40
3.099999904632568
 41
0.0000000000000000
 71
     7
 72
     1
  1
{\H0.92x;{SCALE}}
 11
1.000000000000000
 21
0.0000000000000000
 31
0.0000000000000000
  7
STANDARD
  0
MTEXT
  5
444
100
AcDbEntity
  8
WAKU0
  6
CONTINUOUS
 62
3
100
AcDbMText
 10
577.7000000476837
 20
46.00000000000000
 30
0.0000000000000000
 40
3.000000000000000
 41
0.0000000000000000
 71
     7
 72
     1
  1
{\H0.63x;{kg}}
 11
1.000000000000000
 21
0.0000000000000000
 31
0.0000000000000000
  7
STANDARD
  0
MTEXT
  5
445
100
AcDbEntity
  8
WAKU0
  6
CONTINUOUS
 62
3
100
AcDbMText
 10
547.6000001430512
 20
46.00000000000000
 30
0.0000000000000000
 40
3.000000000000000
 41
0.0000000000000000
 71
     7
 72
     1
  1
{\H0.63x;{WEIGHT}}
 11
1.000000000000000
 21
0.0000000000000000
 31
0.0000000000000000
  7
STANDARD
  0
MTEXT
  5
446
100
AcDbEntity
  8
WAKU0
  6
CONTINUOUS
 62
3
100
AcDbMText
 10
506.0049998760223
 20
18.13333336512248
 30
0.0000000000000000
 40
3.099999904632568
 41
0.0000000000000000
 71
     7
 72
     1
  1
{\H0.90x;{DRW\PNO.}}
 11
1.000000000000000
 21
0.0000000000000000
 31
0.0000000000000000
  7
STANDARD
  0
MTEXT
  5
447
100
AcDbEntity
  8
WAKU0
  6
CONTINUOUS
 62
3
100
AcDbMText
 10
504.6099998354912
 20
31.95000004768372
 30
0.0000000000000000
 40
3.099999904632568
 41
0.0000000000000000
 71
     7
 72
     1
  1
{\H0.91x;{NAME}}
 11
1.000000000000000
 21
0.0000000000000000
 31
0.0000000000000000
  7
STANDARD
  0
MTEXT
  5
448
100
AcDbEntity
  8
WAKU0
  6
CONTINUOUS
 62
3
100
AcDbMText
 10
504.6099998354912
 20
45.95000004768372
 30
0.0000000000000000
 40
3.099999904632568
 41
0.0000000000000000
 71
     7
 72
     1
  1
{\H0.91x;{TYPE}}
 11
1.000000000000000
 21
0.0000000000000000
 31
0.0000000000000000
  7
STANDARD
  0
LINE
  5
449
100
AcDbEntity
  8
WAKU0
  6
HIDDEN
 62
3
100
AcDbLine
 10
579.1599564743885
 20
13.84999990463257
 30
0.0000000000000000
 11
568.9400436209789
 21
13.84999990463257
 31
0.0000000000000000
  0
LINE
  5
44A
100
AcDbEntity
  8
WAKU0
  6
HIDDEN
 62
3
100
AcDbLine
 10
579.1599564743885
 20
13.84999990463250
 30
0.0000000000000000
 11
574.0500000476851
 21
22.70070406014901
 31
0.0000000000000000
  0
LINE
  5
44B
100
AcDbEntity
  8
WAKU0
  6
HIDDEN
 62
3
100
AcDbLine
 10
574.0500000476851
 20
22.70070406014902
 30
0.0000000000000000
 11
568.9400436209789
 21
13.84999990463248
 31
0.0000000000000000
  0
LINE
  5
44C
100
AcDbEntity
  8
WAKU0
  6
CONTINUOUS
 62
3
100
AcDbLine
 10
502.4713877753800
 20
15.78041421262812
 30
0.0000000000000000
 11
502.4713877753800
 21
21.78041421262815
 31
0.0000000000000000
  0
LINE
  5
44D
100
AcDbEntity
  8
WAKU0
  6
CONTINUOUS
 62
3
100
AcDbLine
 10
495.9336941228225
 20
17.28041421262811
 30
0.0000000000000000
 11
495.9336941228225
 21
20.28041421262824
 31
0.0000000000000000
  0
LINE
  5
44E
100
AcDbEntity
  8
WAKU0
  6
CENTER
 62
12
100
AcDbLine
 10
485.4321805514995
 20
18.78041421262813
 30
0.0000000000000000
 11
503.2765788964694
 21
18.78041421262813
 31
0.0000000000000000
  0
LINE
  5
44F
100
AcDbEntity
  8
WAKU0
  6
CENTER
 62
12
100
AcDbLine
 10
489.4474565857986
 20
14.55921662918448
 30
0.0000000000000000
 11
489.4474565857986
 21
22.89865102149943
 31
0.0000000000000000
  0
LINE
  5
450
100
AcDbEntity
  8
WAKU0
  6
CONTINUOUS
 62
3
100
AcDbLine
 10
495.9336941228225
 20
20.28041421262797
 30
0.0000000000000000
 11
502.4713877753800
 21
21.78041421262795
 31
0.0000000000000000
  0
LINE
  5
451
100
AcDbEntity
  8
WAKU0
  6
CONTINUOUS
 62
3
100
AcDbLine
 10
495.9336941228225
 20
17.28041421262811
 30
0.0000000000000000
 11
502.4713877753799
 21
15.78041421262812
 31
0.0000000000000000
  0
CIRCLE
  5
452
100
AcDbEntity
  8
WAKU0
  6
CONTINUOUS
 62
3
100
AcDbCircle
 10
489.4474565857986
 20
18.78041421262813
 30
0.0000000000000000
 40
1.499999999999972
  0
CIRCLE
  5
453
100
AcDbEntity
  8
WAKU0
  6
CONTINUOUS
 62
3
100
AcDbCircle
 10
489.4474565857986
 20
18.78041421262813
 30
0.0000000000000000
 40
2.999999999999979
  0
ENDSEC
  0
SECTION
  2
OBJECTS
  0
DICTIONARY
  5
4A1
100
AcDbDictionary
  3
ACAD_GROUP
350
4A2
  3
ACAD_MLINESTYLE
350
4A3
  0
DICTIONARY
  5
4A2
102
{ACAD_REACTORS
330
4A1
102
}
100
AcDbDictionary
  0
DICTIONARY
  5
4A3
102
{ACAD_REACTORS
330
4A1
102
}
100
AcDbDictionary
  3
STANDARD
350
4A4
  0
MLINESTYLE
  5
4A4
102
{ACAD_REACTORS
330
4A3
102
}
100
AcDbMlineStyle
  2
STANDARD
 70
     0
  3

 62
   256
 51
90.00
 52
90.00
 71
     2
 49
0.50
 62
   256
  6
BYLAYER
 49
-0.50
 62
   256
  6
BYLAYER
  0
ENDSEC
  0
EOF
