  0
SECTION
  2
HEADER
  9
$ACADVER
  1
AC1014
  9
$DWGCODEPAGE
  3
ANSI_932
  9
$LTSCALE
 40
20.0
  9
$FILLMODE
 70
     1
  9
$CLAYER
  8
0
  9
$PDMODE
 70
     0
  9
$SPLFRAME
 70
     0
  9
$SPLINETYPE
 70
     6
  9
$SPLINESEGS
 70
     8
  9
$DIMASZ
 40
2.000000
  9
$DIMEXE
 40
2.000000
  9
$DIMEXO
 40
0.800000
  9
$DIMTAD
 70
     1
  9
$DIMTIH
 70
     0
  9
$DIMTOH
 70
     0
  9
$DIMTVP
 40
0.500000
  9
$DIMTXT
 40
3.100000
  9
$EXTMIN
 10
0.000000
 20
0.000000
 30
0.000000
  9
$EXTMAX
 10
297.000000
 20
420.000000
 30
0.000000
  9
$MEASUREMENT
 70
  1
  9
$LIMMIN
 10
0.000000
 20
0.000000
  9
$LIMMAX
 10
297.000000
 20
420.000000
  9
$HANDLING
 70
     1
  9
$HANDSEED
  5
558
  9
$DIMBLK
  1
_OPEN
  9
$DIMDEC
 70
     3
  9
$DIMAUNIT
 70
     1
  9
$DIMZIN
 70
     8
  9
$DIMTOFL
 70
     1
  0
ENDSEC
  0
SECTION
  2
CLASSES
  0
ENDSEC
  0
SECTION
  2
TABLES
  0
TABLE
  2
VPORT
  5
507
100
AcDbSymbolTable
 70
     1
  0
VPORT
  5
508
100
AcDbSymbolTableRecord
100
AcDbViewportTableRecord
  2
*ACTIVE
 70
     0
 12
428.540381
 22
209.067022
 40
394.134043
 41
1.901021
  0
ENDTAB
  0
TABLE
  2
LTYPE
  5
509
100
AcDbSymbolTable
 70
     4
  0
LTYPE
  5
50A
100
AcDbSymbolTableRecord
100
AcDbLinetypeTableRecord
  2
BYBLOCK
 70
     0
  3

 72
    65
 73
     0
 40
0.0
  0
LTYPE
  5
50B
100
AcDbSymbolTableRecord
100
AcDbLinetypeTableRecord
  2
BYLAYER
 70
     0
  3

 72
    65
 73
     0
 40
0.0
  0
LTYPE
  5
50C
100
AcDbSymbolTableRecord
100
AcDbLinetypeTableRecord
  2
CONTINUOUS
 70
     0
  3
Solid line (NEC CAE2D for Win R14.2 : 2020.02.05)
 72
    65
 73
     0
 40
0.0
  0
LTYPE
  5
50D
100
AcDbSymbolTableRecord
100
AcDbLinetypeTableRecord
  2
HIDDEN
 70
     0
  3
__ __ __ __ __ __ __ __ __ __ __ __ __ __
 72
    65
 73
     2
 40
0.375
 49
0.25
 74
     0
 49
-0.125
 74
     0
  0
LTYPE
  5
50E
100
AcDbSymbolTableRecord
100
AcDbLinetypeTableRecord
  2
CENTER
 70
     0
  3
____ _ ____ _ ____ _ ____ _ ____ _ ____
 72
    65
 73
     4
 40
2.0
 49
1.25
 74
     0
 49
-0.25
 74
     0
 49
0.25
 74
     0
 49
-0.25
 74
     0
  0
LTYPE
  5
50F
100
AcDbSymbolTableRecord
100
AcDbLinetypeTableRecord
  2
PHANTOM
 70
     0
  3
______  __  __  ______  __  __  ______ 
 72
    65
 73
     6
 40
2.5
 49
1.25
 74
     0
 49
-0.25
 74
     0
 49
0.25
 74
     0
 49
-0.25
 74
     0
 49
0.25
 74
     0
 49
-0.25
 74
     0
  0
ENDTAB
  0
TABLE
  2
LAYER
  5
510
100
AcDbSymbolTable
 70
    26
  0
LAYER
  5
511
100
AcDbSymbolTableRecord
100
AcDbLayerTableRecord
  2
0
 70
     0
 62
     7
  6
CONTINUOUS
  0
LAYER
  5
512
100
AcDbSymbolTableRecord
100
AcDbLayerTableRecord
  2
DXF0
 70
     0
 62
     7
  6
CONTINUOUS
  0
LAYER
  5
513
100
AcDbSymbolTableRecord
100
AcDbLayerTableRecord
  2
MAIN0
 70
     0
 62
     7
  6
CONTINUOUS
  0
LAYER
  5
514
100
AcDbSymbolTableRecord
100
AcDbLayerTableRecord
  2
MAIN1
 70
     0
 62
     7
  6
CONTINUOUS
  0
LAYER
  5
515
100
AcDbSymbolTableRecord
100
AcDbLayerTableRecord
  2
MAIN2
 70
     0
 62
     7
  6
CONTINUOUS
  0
LAYER
  5
516
100
AcDbSymbolTableRecord
100
AcDbLayerTableRecord
  2
MAIN3
 70
     0
 62
     7
  6
CONTINUOUS
  0
LAYER
  5
517
100
AcDbSymbolTableRecord
100
AcDbLayerTableRecord
  2
MAIN4
 70
     0
 62
     7
  6
CONTINUOUS
  0
LAYER
  5
518
100
AcDbSymbolTableRecord
100
AcDbLayerTableRecord
  2
MAIN1023
 70
     0
 62
     8
  6
CONTINUOUS
  0
LAYER
  5
519
100
AcDbSymbolTableRecord
100
AcDbLayerTableRecord
  2
A0
 70
     0
 62
     7
  6
CONTINUOUS
  0
LAYER
  5
51A
100
AcDbSymbolTableRecord
100
AcDbLayerTableRecord
  2
A1
 70
     0
 62
     7
  6
CONTINUOUS
  0
LAYER
  5
51B
100
AcDbSymbolTableRecord
100
AcDbLayerTableRecord
  2
A2
 70
     0
 62
     7
  6
CONTINUOUS
  0
LAYER
  5
51C
100
AcDbSymbolTableRecord
100
AcDbLayerTableRecord
  2
A3
 70
     0
 62
     7
  6
CONTINUOUS
  0
LAYER
  5
51D
100
AcDbSymbolTableRecord
100
AcDbLayerTableRecord
  2
A4
 70
     0
 62
     7
  6
CONTINUOUS
  0
LAYER
  5
51E
100
AcDbSymbolTableRecord
100
AcDbLayerTableRecord
  2
A5
 70
     0
 62
     7
  6
CONTINUOUS
  0
LAYER
  5
51F
100
AcDbSymbolTableRecord
100
AcDbLayerTableRecord
  2
A6
 70
     0
 62
     7
  6
CONTINUOUS
  0
LAYER
  5
520
100
AcDbSymbolTableRecord
100
AcDbLayerTableRecord
  2
A8
 70
     0
 62
     7
  6
CONTINUOUS
  0
LAYER
  5
521
100
AcDbSymbolTableRecord
100
AcDbLayerTableRecord
  2
A9
 70
     0
 62
     7
  6
CONTINUOUS
  0
LAYER
  5
522
100
AcDbSymbolTableRecord
100
AcDbLayerTableRecord
  2
A10
 70
     0
 62
     7
  6
CONTINUOUS
  0
LAYER
  5
523
100
AcDbSymbolTableRecord
100
AcDbLayerTableRecord
  2
A1023
 70
     0
 62
     8
  6
CONTINUOUS
  0
LAYER
  5
524
100
AcDbSymbolTableRecord
100
AcDbLayerTableRecord
  2
AIR-DIAGRAM0
 70
     0
 62
     7
  6
CONTINUOUS
  0
LAYER
  5
525
100
AcDbSymbolTableRecord
100
AcDbLayerTableRecord
  2
AIR-DIAGRAM1
 70
     0
 62
     7
  6
CONTINUOUS
  0
LAYER
  5
526
100
AcDbSymbolTableRecord
100
AcDbLayerTableRecord
  2
AIR-DIAGRAM2
 70
     0
 62
     7
  6
CONTINUOUS
  0
LAYER
  5
527
100
AcDbSymbolTableRecord
100
AcDbLayerTableRecord
  2
AIR-DIAGRAM1023
 70
     0
 62
     8
  6
CONTINUOUS
  0
LAYER
  5
528
100
AcDbSymbolTableRecord
100
AcDbLayerTableRecord
  2
WAKU0
 70
     0
 62
     7
  6
CONTINUOUS
  0
LAYER
  5
529
100
AcDbSymbolTableRecord
100
AcDbLayerTableRecord
  2
WAKU1023
 70
     0
 62
     8
  6
CONTINUOUS
  0
LAYER
  5
52A
100
AcDbSymbolTableRecord
100
AcDbLayerTableRecord
  2
DXF1023
 70
     0
 62
    16
  6
CONTINUOUS
  0
ENDTAB
  0
TABLE
  2
STYLE
  5
52B
100
AcDbSymbolTable
 70
     4
  0
STYLE
  5
52C
100
AcDbSymbolTableRecord
100
AcDbTextStyleTableRecord
  2
STANDARD
 70
    64
 40
0.0
 41
1.0
 50
0.0
 71
     0
 42
3.000000000000000
  3
TXT
  4

  0
STYLE
  5
52D
100
AcDbSymbolTableRecord
100
AcDbTextStyleTableRecord
  2
ANKTATE
 70
    68
 40
0.0
 41
1.0
 50
0.0
 71
     0
 42
3.000000000000000
  3
TXT
  4

  0
STYLE
  5
74
100
AcDbSymbolTableRecord
100
AcDbTextStyleTableRecord
  2
KNJYOKO
 70
    64
 40
0.0
 41
1.0
 50
0.0
 71
     0
 42
3.000000000000000
  3
TXT
  4
BIGFONT
  0
STYLE
  5
52E
100
AcDbSymbolTableRecord
100
AcDbTextStyleTableRecord
  2
KNJTATE
 70
    68
 40
0.0
 41
1.0
 50
0.0
 71
     0
 42
3.000000000000000
  3
TXT
  4
BIGFONT
  0
ENDTAB
  0
TABLE
  2
VIEW
  5
52F
100
AcDbSymbolTable
 70
     0
  0
ENDTAB
  0
TABLE
  2
UCS
  5
530
100
AcDbSymbolTable
 70
     0
  0
ENDTAB
  0
TABLE
  2
APPID
  5
531
100
AcDbSymbolTable
 70
     1
  0
APPID
  5
532
100
AcDbSymbolTableRecord
100
AcDbRegAppTableRecord
  2
ACAD
 70
     0
  0
ENDTAB
  0
TABLE
  2
DIMSTYLE
  5
533
100
AcDbSymbolTable
 70
     2
  0
DIMSTYLE
105
534
100
AcDbSymbolTableRecord
100
AcDbDimStyleTableRecord
  2
STANDARD
 70
     0
 41
2.000000
 44
2.000000
 42
0.800000
145
0.661290
140
3.100000
144
1.000000
146
0.903226
340
52C
  0
DIMSTYLE
105
535
100
AcDbSymbolTableRecord
100
AcDbDimStyleTableRecord
  2
DXF001
 70
     0
 41
2.000000
 44
2.000000
 42
0.800000
145
0.661290
140
3.100000
144
1.000000
146
0.903226
 77
     1
 73
     0
 74
     0
271
     3
275
     1
 78
     8
172
     1
340
52C
  0
ENDTAB
  0
TABLE
  2
BLOCK_RECORD
  5
536
100
AcDbSymbolTable
 70
    34
  0
BLOCK_RECORD
  5
537
100
AcDbSymbolTableRecord
100
AcDbBlockTableRecord
  2
*MODEL_SPACE
  0
BLOCK_RECORD
  5
538
100
AcDbSymbolTableRecord
100
AcDbBlockTableRecord
  2
*PAPER_SPACE
  0
BLOCK_RECORD
  5
1
100
AcDbSymbolTableRecord
100
AcDbBlockTableRecord
  2
_NONE
  0
BLOCK_RECORD
  5
4
100
AcDbSymbolTableRecord
100
AcDbBlockTableRecord
  2
_CLOSED
  0
BLOCK_RECORD
  5
B
100
AcDbSymbolTableRecord
100
AcDbBlockTableRecord
  2
_DOT
  0
BLOCK_RECORD
  5
13
100
AcDbSymbolTableRecord
100
AcDbBlockTableRecord
  2
_OPEN
  0
BLOCK_RECORD
  5
19
100
AcDbSymbolTableRecord
100
AcDbBlockTableRecord
  2
_ORIGIN
  0
BLOCK_RECORD
  5
1E
100
AcDbSymbolTableRecord
100
AcDbBlockTableRecord
  2
_OPEN30
  0
BLOCK_RECORD
  5
24
100
AcDbSymbolTableRecord
100
AcDbBlockTableRecord
  2
_BOXFILLED
  0
BLOCK_RECORD
  5
29
100
AcDbSymbolTableRecord
100
AcDbBlockTableRecord
  2
_BOXBLANK
  0
BLOCK_RECORD
  5
31
100
AcDbSymbolTableRecord
100
AcDbBlockTableRecord
  2
_OBLIQUE
  0
BLOCK_RECORD
  5
35
100
AcDbSymbolTableRecord
100
AcDbBlockTableRecord
  2
_OPEN90
  0
BLOCK_RECORD
  5
3B
100
AcDbSymbolTableRecord
100
AcDbBlockTableRecord
  2
_CLOSEDBLANK
  0
BLOCK_RECORD
  5
41
100
AcDbSymbolTableRecord
100
AcDbBlockTableRecord
  2
_DOTBLANK
  0
BLOCK_RECORD
  5
539
100
AcDbSymbolTableRecord
100
AcDbBlockTableRecord
  2
*D0
  0
BLOCK_RECORD
  5
53A
100
AcDbSymbolTableRecord
100
AcDbBlockTableRecord
  2
*D1
  0
BLOCK_RECORD
  5
53B
100
AcDbSymbolTableRecord
100
AcDbBlockTableRecord
  2
*D2
  0
BLOCK_RECORD
  5
53C
100
AcDbSymbolTableRecord
100
AcDbBlockTableRecord
  2
*D3
  0
BLOCK_RECORD
  5
53D
100
AcDbSymbolTableRecord
100
AcDbBlockTableRecord
  2
*D4
  0
BLOCK_RECORD
  5
53E
100
AcDbSymbolTableRecord
100
AcDbBlockTableRecord
  2
*D5
  0
BLOCK_RECORD
  5
53F
100
AcDbSymbolTableRecord
100
AcDbBlockTableRecord
  2
*D6
  0
BLOCK_RECORD
  5
540
100
AcDbSymbolTableRecord
100
AcDbBlockTableRecord
  2
*D7
  0
BLOCK_RECORD
  5
541
100
AcDbSymbolTableRecord
100
AcDbBlockTableRecord
  2
*D8
  0
BLOCK_RECORD
  5
542
100
AcDbSymbolTableRecord
100
AcDbBlockTableRecord
  2
*D9
  0
BLOCK_RECORD
  5
543
100
AcDbSymbolTableRecord
100
AcDbBlockTableRecord
  2
*D10
  0
BLOCK_RECORD
  5
544
100
AcDbSymbolTableRecord
100
AcDbBlockTableRecord
  2
*D11
  0
BLOCK_RECORD
  5
545
100
AcDbSymbolTableRecord
100
AcDbBlockTableRecord
  2
*D12
  0
BLOCK_RECORD
  5
546
100
AcDbSymbolTableRecord
100
AcDbBlockTableRecord
  2
*D13
  0
BLOCK_RECORD
  5
547
100
AcDbSymbolTableRecord
100
AcDbBlockTableRecord
  2
*D14
  0
BLOCK_RECORD
  5
548
100
AcDbSymbolTableRecord
100
AcDbBlockTableRecord
  2
*D15
  0
BLOCK_RECORD
  5
549
100
AcDbSymbolTableRecord
100
AcDbBlockTableRecord
  2
*D16
  0
BLOCK_RECORD
  5
54A
100
AcDbSymbolTableRecord
100
AcDbBlockTableRecord
  2
*D17
  0
BLOCK_RECORD
  5
54B
100
AcDbSymbolTableRecord
100
AcDbBlockTableRecord
  2
*D18
  0
BLOCK_RECORD
  5
54C
100
AcDbSymbolTableRecord
100
AcDbBlockTableRecord
  2
*D19
  0
BLOCK_RECORD
  5
54D
100
AcDbSymbolTableRecord
100
AcDbBlockTableRecord
  2
*D20
  0
BLOCK_RECORD
  5
54E
100
AcDbSymbolTableRecord
100
AcDbBlockTableRecord
  2
*X0
  0
ENDTAB
  0
ENDSEC
  0
SECTION
  2
BLOCKS
  0
BLOCK
  5
54F
100
AcDbEntity
  8
0
100
AcDbBlockBegin
  2
*MODEL_SPACE
 70
     0
 10
0.0
 20
0.0
 30
0.0
  3
*MODEL_SPACE
  1

  0
ENDBLK
  5
550
100
AcDbEntity
  8
0
100
AcDbBlockEnd
  0
BLOCK
  5
551
100
AcDbEntity
  8
0
100
AcDbBlockBegin
  2
*PAPER_SPACE
 70
     0
 10
0.0
 20
0.0
 30
0.0
  3
*PAPER_SPACE
  1

  0
ENDBLK
  5
552
100
AcDbEntity
  8
0
100
AcDbBlockEnd
  0
BLOCK
  5
2
100
AcDbEntity
  8
0
100
AcDbBlockBegin
  2
_NONE
 70
     0
 10
0.0
 20
0.0
 30
0.0
  3
_NONE
  1

  0
ENDBLK
  5
3
100
AcDbEntity
  8
0
100
AcDbBlockEnd
  0
BLOCK
  5
5
100
AcDbEntity
  8
0
100
AcDbBlockBegin
  2
_CLOSED
 70
     0
 10
0.0
 20
0.0
 30
0.0
  3
_CLOSED
  1

  0
LINE
  5
6
100
AcDbEntity
  8
0
  6
BYBLOCK
 62
     0
100
AcDbLine
 10
-1.0
 20
0.166667
 30
0.0
 11
0.0
 21
0.0
 31
0.0
  0
LINE
  5
7
100
AcDbEntity
  8
0
  6
BYBLOCK
 62
     0
100
AcDbLine
 10
0.0
 20
0.0
 30
0.0
 11
-1.0
 21
-0.166667
 31
0.0
  0
LINE
  5
8
100
AcDbEntity
  8
0
  6
BYBLOCK
 62
     0
100
AcDbLine
 10
-1.0
 20
0.166667
 30
0.0
 11
-1.0
 21
-0.166667
 31
0.0
  0
LINE
  5
9
100
AcDbEntity
  8
0
  6
BYBLOCK
 62
     0
100
AcDbLine
 10
0.0
 20
0.0
 30
0.0
 11
-1.0
 21
0.0
 31
0.0
  0
ENDBLK
  5
A
100
AcDbEntity
  8
0
100
AcDbBlockEnd
  0
BLOCK
  5
C
100
AcDbEntity
  8
0
100
AcDbBlockBegin
  2
_DOT
 70
     0
 10
0.0
 20
0.0
 30
0.0
  3
_DOT
  1

  0
POLYLINE
  5
D
100
AcDbEntity
  8
0
  6
BYBLOCK
 62
     0
100
AcDb2dPolyline
 66
     1
 10
0.0
 20
0.0
 30
0.0
 70
     1
 40
0.5
 41
0.5
  0
VERTEX
  5
E
100
AcDbEntity
  8
0
  6
BYBLOCK
 62
     0
100
AcDbVertex
100
AcDb2dVertex
 10
-0.25
 20
0.0
 30
0.0
 42
1.0
  0
VERTEX
  5
F
100
AcDbEntity
  8
0
  6
BYBLOCK
 62
     0
100
AcDbVertex
100
AcDb2dVertex
 10
0.25
 20
0.0
 30
0.0
 42
1.0
  0
SEQEND
  5
10
100
AcDbEntity
  8
0
  6
BYBLOCK
 62
     0
  0
LINE
  5
11
100
AcDbEntity
  8
0
  6
BYBLOCK
 62
     0
100
AcDbLine
 10
-0.5
 20
0.0
 30
0.0
 11
-1.0
 21
0.0
 31
0.0
  0
ENDBLK
  5
12
100
AcDbEntity
  8
0
100
AcDbBlockEnd
  0
BLOCK
  5
14
100
AcDbEntity
  8
0
100
AcDbBlockBegin
  2
_OPEN
 70
     0
 10
0.0
 20
0.0
 30
0.0
  3
_OPEN
  1

  0
LINE
  5
15
100
AcDbEntity
  8
0
  6
BYBLOCK
 62
     0
100
AcDbLine
 10
-1.0
 20
0.166667
 30
0.0
 11
0.0
 21
0.0
 31
0.0
  0
LINE
  5
16
100
AcDbEntity
  8
0
  6
BYBLOCK
 62
     0
100
AcDbLine
 10
0.0
 20
0.0
 30
0.0
 11
-1.0
 21
-0.166667
 31
0.0
  0
LINE
  5
17
100
AcDbEntity
  8
0
  6
BYBLOCK
 62
     0
100
AcDbLine
 10
0.0
 20
0.0
 30
0.0
 11
-1.0
 21
0.0
 31
0.0
  0
ENDBLK
  5
18
100
AcDbEntity
  8
0
100
AcDbBlockEnd
  0
BLOCK
  5
1A
100
AcDbEntity
  8
0
100
AcDbBlockBegin
  2
_ORIGIN
 70
     0
 10
0.0
 20
0.0
 30
0.0
  3
_ORIGIN
  1

  0
CIRCLE
  5
1B
100
AcDbEntity
  8
0
  6
BYBLOCK
 62
     0
100
AcDbCircle
 10
0.0
 20
0.0
 30
0.0
 40
0.5
  0
LINE
  5
1C
100
AcDbEntity
  8
0
  6
BYBLOCK
 62
     0
100
AcDbLine
 10
0.0
 20
0.0
 30
0.0
 11
-1.0
 21
0.0
 31
0.0
  0
ENDBLK
  5
1D
100
AcDbEntity
  8
0
100
AcDbBlockEnd
  0
BLOCK
  5
1F
100
AcDbEntity
  8
0
100
AcDbBlockBegin
  2
_OPEN30
 70
     0
 10
0.0
 20
0.0
 30
0.0
  3
_OPEN30
  1

  0
LINE
  5
20
100
AcDbEntity
  8
0
  6
BYBLOCK
 62
     0
100
AcDbLine
 10
-1.0
 20
0.267949
 30
0.0
 11
0.0
 21
0.0
 31
0.0
  0
LINE
  5
21
100
AcDbEntity
  8
0
  6
BYBLOCK
 62
     0
100
AcDbLine
 10
0.0
 20
0.0
 30
0.0
 11
-1.0
 21
-0.267949
 31
0.0
  0
LINE
  5
22
100
AcDbEntity
  8
0
  6
BYBLOCK
 62
     0
100
AcDbLine
 10
0.0
 20
0.0
 30
0.0
 11
-1.0
 21
0.0
 31
0.0
  0
ENDBLK
  5
23
100
AcDbEntity
  8
0
100
AcDbBlockEnd
  0
BLOCK
  5
25
100
AcDbEntity
  8
0
100
AcDbBlockBegin
  2
_BOXFILLED
 70
     0
 10
0.0
 20
0.0
 30
0.0
  3
_BOXFILLED
  1

  0
SOLID
  5
26
100
AcDbEntity
  8
0
  6
BYBLOCK
 62
     0
100
AcDbTrace
 10
-0.5
 20
0.5
 30
0.0
 11
0.5
 21
0.5
 31
0.0
 12
-0.5
 22
-0.5
 32
0.0
 13
0.5
 23
-0.5
 33
0.0
  0
LINE
  5
27
100
AcDbEntity
  8
0
  6
BYBLOCK
 62
     0
100
AcDbLine
 10
-0.5
 20
0.0
 30
0.0
 11
-1.0
 21
0.0
 31
0.0
  0
ENDBLK
  5
28
100
AcDbEntity
  8
0
100
AcDbBlockEnd
  0
BLOCK
  5
2A
100
AcDbEntity
  8
0
100
AcDbBlockBegin
  2
_BOXBLANK
 70
     0
 10
0.0
 20
0.0
 30
0.0
  3
_BOXBLANK
  1

  0
LINE
  5
2B
100
AcDbEntity
  8
0
  6
BYBLOCK
 62
     0
100
AcDbLine
 10
-0.5
 20
-0.5
 30
0.0
 11
0.5
 21
-0.5
 31
0.0
  0
LINE
  5
2C
100
AcDbEntity
  8
0
  6
BYBLOCK
 62
     0
100
AcDbLine
 10
0.5
 20
-0.5
 30
0.0
 11
0.5
 21
0.5
 31
0.0
  0
LINE
  5
2D
100
AcDbEntity
  8
0
  6
BYBLOCK
 62
     0
100
AcDbLine
 10
0.5
 20
0.5
 30
0.0
 11
-0.5
 21
0.5
 31
0.0
  0
LINE
  5
2E
100
AcDbEntity
  8
0
  6
BYBLOCK
 62
     0
100
AcDbLine
 10
-0.5
 20
0.5
 30
0.0
 11
-0.5
 21
-0.5
 31
0.0
  0
LINE
  5
2F
100
AcDbEntity
  8
0
  6
BYBLOCK
 62
     0
100
AcDbLine
 10
-0.5
 20
0.0
 30
0.0
 11
-1.0
 21
0.0
 31
0.0
  0
ENDBLK
  5
30
100
AcDbEntity
  8
0
100
AcDbBlockEnd
  0
BLOCK
  5
32
100
AcDbEntity
  8
0
100
AcDbBlockBegin
  2
_OBLIQUE
 70
     0
 10
0.0
 20
0.0
 30
0.0
  3
_OBLIQUE
  1

  0
LINE
  5
33
100
AcDbEntity
  8
0
  6
BYBLOCK
 62
     0
100
AcDbLine
 10
-0.5
 20
-0.5
 30
0.0
 11
0.5
 21
0.5
 31
0.0
  0
ENDBLK
  5
34
100
AcDbEntity
  8
0
100
AcDbBlockEnd
  0
BLOCK
  5
36
100
AcDbEntity
  8
0
100
AcDbBlockBegin
  2
_OPEN90
 70
     0
 10
0.0
 20
0.0
 30
0.0
  3
_OPEN90
  1

  0
LINE
  5
37
100
AcDbEntity
  8
0
  6
BYBLOCK
 62
     0
100
AcDbLine
 10
-0.5
 20
0.5
 30
0.0
 11
0.0
 21
0.0
 31
0.0
  0
LINE
  5
38
100
AcDbEntity
  8
0
  6
BYBLOCK
 62
     0
100
AcDbLine
 10
0.0
 20
0.0
 30
0.0
 11
-0.5
 21
-0.5
 31
0.0
  0
LINE
  5
39
100
AcDbEntity
  8
0
  6
BYBLOCK
 62
     0
100
AcDbLine
 10
0.0
 20
0.0
 30
0.0
 11
-1.0
 21
0.0
 31
0.0
  0
ENDBLK
  5
3A
100
AcDbEntity
  8
0
100
AcDbBlockEnd
  0
BLOCK
  5
3C
100
AcDbEntity
  8
0
100
AcDbBlockBegin
  2
_CLOSEDBLANK
 70
     0
 10
0.0
 20
0.0
 30
0.0
  3
_CLOSEDBLANK
  1

  0
LINE
  5
3D
100
AcDbEntity
  8
0
  6
BYBLOCK
 62
     0
100
AcDbLine
 10
-1.0
 20
0.1666666666666666
 30
0.0
 11
0.0
 21
0.0
 31
0.0
  0
LINE
  5
3E
100
AcDbEntity
  8
0
  6
BYBLOCK
 62
     0
100
AcDbLine
 10
0.0
 20
0.0
 30
0.0
 11
-1.0
 21
-0.1666666666666666
 31
0.0
  0
LINE
  5
3F
100
AcDbEntity
  8
0
  6
BYBLOCK
 62
     0
100
AcDbLine
 10
-1.0
 20
0.1666666666666666
 30
0.0
 11
-1.0
 21
-0.1666666666666666
 31
0.0
  0
ENDBLK
  5
40
100
AcDbEntity
  8
0
100
AcDbBlockEnd
  0
BLOCK
  5
42
100
AcDbEntity
  8
0
100
AcDbBlockBegin
  2
_DOTBLANK
 70
     0
 10
0.0
 20
0.0
 30
0.0
  3
_DOTBLANK
  1

  0
CIRCLE
  5
43
100
AcDbEntity
  8
0
  6
BYBLOCK
 62
     0
100
AcDbCircle
 10
0.0
 20
0.0
 30
0.0
 40
0.5
  0
LINE
  5
44
100
AcDbEntity
  8
0
  6
BYBLOCK
 62
     0
100
AcDbLine
 10
-0.5
 20
0.0
 30
0.0
 11
-1.0
 21
0.0
 31
0.0
  0
ENDBLK
  5
45
100
AcDbEntity
  8
0
100
AcDbBlockEnd
  0
BLOCK
  5
6B
100
AcDbEntity
  8
MAIN0
  6
CONTINUOUS
 62
3
100
AcDbBlockBegin
  2
*D0
 70
    65
 10
0.0
 20
0.0
 30
0.0
  0
LINE
  5
6C
100
AcDbEntity
  8
MAIN0
  6
BYBLOCK
 62
0
100
AcDbLine
 10
111.4359822200343
 20
324.3534091400843
 30
0.0000000000000000
 11
92.54087819907068
 21
324.3534091400843
 31
0.0000000000000000
  0
LINE
  5
6D
100
AcDbEntity
  8
MAIN0
  6
BYBLOCK
 62
0
100
AcDbLine
 10
94.54087819907068
 20
322.3534091400843
 30
0.0000000000000000
 11
94.54087819907068
 21
216.3534091400844
 31
0.0000000000000000
  0
INSERT
  5
6E
100
AcDbEntity
  8
MAIN0
  6
BYBLOCK
 62
0
100
AcDbBlockReference
  2
_OPEN
 10
94.54087819907068
 20
324.3534091400843
 30
0.0000000000000000
 41
2.000000000000000
 42
2.000000000000000
 43
2.000000000000000
 50
90.00000000000000
  0
INSERT
  5
6F
100
AcDbEntity
  8
MAIN0
  6
BYBLOCK
 62
0
100
AcDbBlockReference
  2
_OPEN
 10
94.54087819907068
 20
214.3534091400844
 30
0.0000000000000000
 41
2.000000000000000
 42
2.000000000000000
 43
2.000000000000000
 50
270.0000000000000
  0
LINE
  5
70
100
AcDbEntity
  8
MAIN0
  6
BYBLOCK
 62
0
100
AcDbLine
 10
111.4359822200336
 20
214.3534091400844
 30
0.0000000000000000
 11
92.54087819907068
 21
214.3534091400844
 31
0.0000000000000000
  0
MTEXT
  5
71
100
AcDbEntity
  8
MAIN0
  6
BYBLOCK
 62
0
100
AcDbMText
 10
92.49087824675441
 20
269.3534091214579
 30
0.0000000000000000
 40
3.099999904632568
 41
0.0000000000000000
 71
     5
 72
     1
  1
\A1;\U+2205110H7\S＋0.035^ 　0;
 11
6.123233995736766e-017
 21
1.000000000000000
 31
0.0000000000000000
  7
KNJYOKO
  0
ENDBLK
  5
72
100
AcDbEntity
  8
MAIN0
  6
CONTINUOUS
 62
3
100
AcDbBlockEnd
  0
BLOCK
  5
9B
100
AcDbEntity
  8
MAIN0
  6
CONTINUOUS
 62
3
100
AcDbBlockBegin
  2
*D1
 70
    65
 10
0.0
 20
0.0
 30
0.0
  0
LINE
  5
9C
100
AcDbEntity
  8
MAIN0
  6
BYBLOCK
 62
0
100
AcDbLine
 10
97.23598223179414
 20
187.0534091282443
 30
0.0000000000000000
 11
97.23598223179414
 21
167.3534091400844
 31
0.0000000000000000
  0
LINE
  5
9D
100
AcDbEntity
  8
MAIN0
  6
BYBLOCK
 62
0
100
AcDbLine
 10
99.23598223179414
 20
169.3534091400844
 30
0.0000000000000000
 11
110.2359822319528
 21
169.3534091400844
 31
0.0000000000000000
  0
INSERT
  5
9E
100
AcDbEntity
  8
MAIN0
  6
BYBLOCK
 62
0
100
AcDbBlockReference
  2
_OPEN
 10
97.23598223179414
 20
169.3534091400844
 30
0.0000000000000000
 41
2.000000000000000
 42
2.000000000000000
 43
2.000000000000000
 50
180.0000000000000
  0
INSERT
  5
9F
100
AcDbEntity
  8
MAIN0
  6
BYBLOCK
 62
0
100
AcDbBlockReference
  2
_OPEN
 10
112.2359822319528
 20
169.3534091400844
 30
0.0000000000000000
 41
2.000000000000000
 42
2.000000000000000
 43
2.000000000000000
 50
0.0000000000000000
  0
LINE
  5
A0
100
AcDbEntity
  8
MAIN0
  6
BYBLOCK
 62
0
100
AcDbLine
 10
112.2359822319528
 20
177.3033845355497
 30
0.0000000000000000
 11
112.2359822319528
 21
167.3534091400844
 31
0.0000000000000000
  0
MTEXT
  5
A1
100
AcDbEntity
  8
MAIN0
  6
BYBLOCK
 62
0
100
AcDbMText
 10
104.7359822318735
 20
171.4034090924007
 30
0.0000000000000000
 40
3.099999904632568
 41
0.0000000000000000
 71
     5
 72
     1
  1
\A1;15
 11
1.000000000000000
 21
0.0000000000000000
 31
0.0000000000000000
  7
STANDARD
  0
ENDBLK
  5
A2
100
AcDbEntity
  8
MAIN0
  6
CONTINUOUS
 62
3
100
AcDbBlockEnd
  0
BLOCK
  5
A6
100
AcDbEntity
  8
MAIN0
  6
CONTINUOUS
 62
3
100
AcDbBlockBegin
  2
*D2
 70
    65
 10
0.0
 20
0.0
 30
0.0
  0
LINE
  5
A7
100
AcDbEntity
  8
MAIN0
  6
BYBLOCK
 62
0
100
AcDbLine
 10
119.2359822319552
 20
323.5534091281635
 30
0.0000000000000000
 11
119.2359822319552
 21
306.3534091400843
 31
0.0000000000000000
  0
LINE
  5
A8
100
AcDbEntity
  8
MAIN0
  6
BYBLOCK
 62
0
100
AcDbLine
 10
117.2359822319552
 20
308.3534091400843
 30
0.0000000000000000
 11
114.2359822319546
 21
308.3534091400843
 31
0.0000000000000000
  0
INSERT
  5
A9
100
AcDbEntity
  8
MAIN0
  6
BYBLOCK
 62
0
100
AcDbBlockReference
  2
_OPEN
 10
119.2359822319552
 20
308.3534091400843
 30
0.0000000000000000
 41
2.000000000000000
 42
2.000000000000000
 43
2.000000000000000
 50
360.0000000000000
  0
INSERT
  5
AA
100
AcDbEntity
  8
MAIN0
  6
BYBLOCK
 62
0
100
AcDbBlockReference
  2
_OPEN
 10
112.2359822319546
 20
308.3534091400843
 30
0.0000000000000000
 41
2.000000000000000
 42
2.000000000000000
 43
2.000000000000000
 50
180.0000000000000
  0
LINE
  5
AB
100
AcDbEntity
  8
MAIN0
  6
BYBLOCK
 62
0
100
AcDbLine
 10
112.2359822319546
 20
358.5534337207770
 30
0.0000000000000000
 11
112.2359822319546
 21
306.3534091400843
 31
0.0000000000000000
  0
MTEXT
  5
AC
100
AcDbEntity
  8
MAIN0
  6
BYBLOCK
 62
0
100
AcDbMText
 10
115.7359822319549
 20
310.4034090924006
 30
0.0000000000000000
 40
3.099999904632568
 41
0.0000000000000000
 71
     5
 72
     1
  1
\A1;7
 11
1.000000000000000
 21
0.0000000000000000
 31
0.0000000000000000
  7
STANDARD
  0
ENDBLK
  5
AD
100
AcDbEntity
  8
MAIN0
  6
CONTINUOUS
 62
3
100
AcDbBlockEnd
  0
BLOCK
  5
BE
100
AcDbEntity
  8
MAIN0
  6
CONTINUOUS
 62
3
100
AcDbBlockBegin
  2
*D3
 70
    65
 10
0.0
 20
0.0
 30
0.0
  0
LINE
  5
BF
100
AcDbEntity
  8
MAIN0
  6
BYBLOCK
 62
0
100
AcDbLine
 10
420.0891930811884
 20
358.9029114284205
 30
0.0000000000000000
 11
420.0891930811884
 21
402.9405978619377
 31
0.0000000000000000
  0
LINE
  5
C0
100
AcDbEntity
  8
MAIN0
  6
BYBLOCK
 62
0
100
AcDbLine
 10
422.0891930811884
 20
400.9405978619377
 30
0.0000000000000000
 11
449.0891930811884
 21
400.9405978619377
 31
0.0000000000000000
  0
INSERT
  5
C1
100
AcDbEntity
  8
MAIN0
  6
BYBLOCK
 62
0
100
AcDbBlockReference
  2
_OPEN
 10
420.0891930811884
 20
400.9405978619377
 30
0.0000000000000000
 41
2.000000000000000
 42
2.000000000000000
 43
2.000000000000000
 50
180.0000000000000
  0
INSERT
  5
C2
100
AcDbEntity
  8
MAIN0
  6
BYBLOCK
 62
0
100
AcDbBlockReference
  2
_OPEN
 10
451.0891930811884
 20
400.9405978619377
 30
0.0000000000000000
 41
2.000000000000000
 42
2.000000000000000
 43
2.000000000000000
 50
0.0000000000000000
  0
LINE
  5
C3
100
AcDbEntity
  8
MAIN0
  6
BYBLOCK
 62
0
100
AcDbLine
 10
451.0891930811884
 20
358.9029114284205
 30
0.0000000000000000
 11
451.0891930811884
 21
402.9405978619377
 31
0.0000000000000000
  0
MTEXT
  5
C4
100
AcDbEntity
  8
MAIN0
  6
BYBLOCK
 62
0
100
AcDbMText
 10
435.5891930811884
 20
402.9905978142540
 30
0.0000000000000000
 40
3.099999904632568
 41
0.0000000000000000
 71
     5
 72
     1
  1
\A1;31
 11
1.000000000000000
 21
0.0000000000000000
 31
0.0000000000000000
  7
STANDARD
  0
ENDBLK
  5
C5
100
AcDbEntity
  8
MAIN0
  6
CONTINUOUS
 62
3
100
AcDbBlockEnd
  0
BLOCK
  5
E6
100
AcDbEntity
  8
MAIN0
  6
CONTINUOUS
 62
3
100
AcDbBlockBegin
  2
*D4
 70
    65
 10
0.0
 20
0.0
 30
0.0
  0
LINE
  5
E7
100
AcDbEntity
  8
MAIN0
  6
BYBLOCK
 62
0
100
AcDbLine
 10
402.9859885910030
 20
147.6765934931530
 30
0.0000000000000000
 11
401.6421893866131
 21
142.6614665871966
 31
0.0000000000000000
  0
LINE
  5
E8
100
AcDbEntity
  8
MAIN0
  6
BYBLOCK
 62
0
100
AcDbLine
 10
435.5891930811885
 20
146.0533845355512
 30
0.0000000000000000
 11
435.5891930811885
 21
138.1922587651997
 31
0.0000000000000000
  0
ARC
  5
E9
100
AcDbEntity
  8
MAIN0
  6
BYBLOCK
 62
0
100
AcDbCircle
 10
435.5891930811885
 20
269.3534091401571
 30
0.0000000000000000
 40
129.1611503749573
100
AcDbArc
 50
255.8871983463652
 51
269.1128016536435
  0
INSERT
  5
EA
100
AcDbEntity
  8
MAIN0
  6
BYBLOCK
 62
0
100
AcDbBlockReference
  2
_OPEN
 10
402.1598274768178
 20
144.5933182397748
 30
0.0000000000000000
 41
2.000000000000000
 42
2.000000000000000
 43
2.000000000000000
 50
165.0000000000086
  0
INSERT
  5
EB
100
AcDbEntity
  8
MAIN0
  6
BYBLOCK
 62
0
100
AcDbBlockReference
  2
_OPEN
 10
435.5891930811885
 20
140.1922587651997
 30
0.0000000000000000
 41
2.000000000000000
 42
2.000000000000000
 43
2.000000000000000
 50
360.0000000000000
  0
MTEXT
  5
EC
100
AcDbEntity
  8
MAIN0
  6
BYBLOCK
 62
0
100
AcDbMText
 10
418.9978586278201
 20
143.3297122303150
 30
0.0000000000000000
 40
3.099999904632568
 41
0.0000000000000000
 71
     5
 72
     1
  1
\A1;15\U+00B0
 11
0.9914448613738199
 21
-0.1305261922199795
 31
0.0000000000000000
  7
STANDARD
  0
ENDBLK
  5
ED
100
AcDbEntity
  8
MAIN0
  6
CONTINUOUS
 62
3
100
AcDbBlockEnd
  0
BLOCK
  5
EF
100
AcDbEntity
  8
MAIN0
  6
CONTINUOUS
 62
3
100
AcDbBlockBegin
  2
*D5
 70
    65
 10
0.0
 20
0.0
 30
0.0
  0
LINE
  5
F0
100
AcDbEntity
  8
MAIN0
  6
BYBLOCK
 62
0
100
AcDbLine
 10
435.5891930811885
 20
146.0533845355512
 30
0.0000000000000000
 11
435.5891930811885
 21
138.1922587651989
 31
0.0000000000000000
  0
LINE
  5
F1
100
AcDbEntity
  8
MAIN0
  6
BYBLOCK
 62
0
100
AcDbLine
 10
468.1923975713742
 20
147.6765934931529
 30
0.0000000000000000
 11
469.5361967757643
 21
142.6614665871995
 31
0.0000000000000000
  0
ARC
  5
F2
100
AcDbEntity
  8
MAIN0
  6
BYBLOCK
 62
0
100
AcDbCircle
 10
435.5891930811885
 20
269.3534091400506
 30
0.0000000000000000
 40
129.1611503748518
100
AcDbArc
 50
270.8871983463572
 51
284.1128016536467
  0
INSERT
  5
F3
100
AcDbEntity
  8
MAIN0
  6
BYBLOCK
 62
0
100
AcDbBlockReference
  2
_OPEN
 10
435.5891930811885
 20
140.1922587651989
 30
0.0000000000000000
 41
2.000000000000000
 42
2.000000000000000
 43
2.000000000000000
 50
180.0000000000000
  0
INSERT
  5
F4
100
AcDbEntity
  8
MAIN0
  6
BYBLOCK
 62
0
100
AcDbBlockReference
  2
_OPEN
 10
469.0185586855592
 20
144.5933182397776
 30
0.0000000000000000
 41
2.000000000000000
 42
2.000000000000000
 43
2.000000000000000
 50
15.00000000000387
  0
MTEXT
  5
F5
100
AcDbEntity
  8
MAIN0
  6
BYBLOCK
 62
0
100
AcDbMText
 10
452.1805275345564
 20
143.3297122303149
 30
0.0000000000000000
 40
3.099999904632568
 41
0.0000000000000000
 71
     5
 72
     1
  1
\A1;15\U+00B0
 11
0.9914448613738062
 21
0.1305261922200840
 31
0.0000000000000000
  7
STANDARD
  0
ENDBLK
  5
F6
100
AcDbEntity
  8
MAIN0
  6
CONTINUOUS
 62
3
100
AcDbBlockEnd
  0
BLOCK
  5
FD
100
AcDbEntity
  8
MAIN0
  6
CONTINUOUS
 62
3
100
AcDbBlockBegin
  2
*D6
 70
    65
 10
0.0
 20
0.0
 30
0.0
  0
LINE
  5
FE
100
AcDbEntity
  8
MAIN0
  6
BYBLOCK
 62
0
100
AcDbLine
 10
258.1141204603530
 20
323.1029114165149
 30
0.0000000000000000
 11
270.2359822319552
 21
323.1029114165149
 31
0.0000000000000000
  0
LINE
  5
FF
100
AcDbEntity
  8
MAIN0
  6
BYBLOCK
 62
0
100
AcDbLine
 10
268.2359822319552
 20
323.1029114165149
 30
0.0000000000000000
 11
268.2359822319552
 21
313.8529114164329
 31
0.0000000000000000
  0
INSERT
  5
100
100
AcDbEntity
  8
MAIN0
  6
BYBLOCK
 62
0
100
AcDbBlockReference
  2
_OPEN
 10
268.2359822319552
 20
323.1029114165149
 30
0.0000000000000000
 41
2.000000000000000
 42
2.000000000000000
 43
2.000000000000000
 50
270.0000000000000
  0
INSERT
  5
101
100
AcDbEntity
  8
MAIN0
  6
BYBLOCK
 62
0
100
AcDbBlockReference
  2
_OPEN
 10
268.2359822319552
 20
313.8529114164329
 30
0.0000000000000000
 41
2.000000000000000
 42
2.000000000000000
 43
2.000000000000000
 50
90.00000000000000
  0
LINE
  5
102
100
AcDbEntity
  8
MAIN0
  6
BYBLOCK
 62
0
100
AcDbLine
 10
268.2359822319552
 20
325.1029114165149
 30
0.0000000000000000
 11
268.2359822319552
 21
334.7504038252674
 31
0.0000000000000000
  0
LINE
  5
103
100
AcDbEntity
  8
MAIN0
  6
BYBLOCK
 62
0
100
AcDbLine
 10
268.2359822319552
 20
311.8529114164329
 30
0.0000000000000000
 11
268.2359822319552
 21
310.8529114164329
 31
0.0000000000000000
  0
LINE
  5
104
100
AcDbEntity
  8
MAIN0
  6
BYBLOCK
 62
0
100
AcDbLine
 10
220.9859822432587
 20
313.8529114164329
 30
0.0000000000000000
 11
270.2359822319552
 21
313.8529114164329
 31
0.0000000000000000
  0
MTEXT
  5
105
100
AcDbEntity
  8
MAIN0
  6
BYBLOCK
 62
0
100
AcDbMText
 10
266.1859822796389
 20
323.7798485104323
 30
0.0000000000000000
 40
3.099999904632568
 41
0.0000000000000000
 71
     5
 72
     1
  1
\A1;MAX 9.25
 11
6.123233995736766e-017
 21
1.000000000000000
 31
0.0000000000000000
  7
STANDARD
  0
ENDBLK
  5
106
100
AcDbEntity
  8
MAIN0
  6
CONTINUOUS
 62
3
100
AcDbBlockEnd
  0
BLOCK
  5
108
100
AcDbEntity
  8
MAIN0
  6
CONTINUOUS
 62
3
100
AcDbBlockBegin
  2
*D7
 70
    65
 10
0.0
 20
0.0
 30
0.0
  0
LINE
  5
109
100
AcDbEntity
  8
MAIN0
  6
BYBLOCK
 62
0
100
AcDbLine
 10
220.9859822432587
 20
313.8529114164329
 30
0.0000000000000000
 11
270.2359822319552
 21
313.8529114164329
 31
0.0000000000000000
  0
LINE
  5
10A
100
AcDbEntity
  8
MAIN0
  6
BYBLOCK
 62
0
100
AcDbLine
 10
268.2359822319552
 20
311.8529114164329
 30
0.0000000000000000
 11
268.2359822319552
 21
271.3534091400833
 31
0.0000000000000000
  0
INSERT
  5
10B
100
AcDbEntity
  8
MAIN0
  6
BYBLOCK
 62
0
100
AcDbBlockReference
  2
_OPEN
 10
268.2359822319552
 20
313.8529114164329
 30
0.0000000000000000
 41
2.000000000000000
 42
2.000000000000000
 43
2.000000000000000
 50
90.00000000000000
  0
INSERT
  5
10C
100
AcDbEntity
  8
MAIN0
  6
BYBLOCK
 62
0
100
AcDbBlockReference
  2
_OPEN
 10
268.2359822319552
 20
269.3534091400833
 30
0.0000000000000000
 41
2.000000000000000
 42
2.000000000000000
 43
2.000000000000000
 50
270.0000000000000
  0
LINE
  5
10D
100
AcDbEntity
  8
MAIN0
  6
BYBLOCK
 62
0
100
AcDbLine
 10
221.7120353968474
 20
269.3534091400833
 30
0.0000000000000000
 11
270.2359822319552
 21
269.3534091400833
 31
0.0000000000000000
  0
MTEXT
  5
10E
100
AcDbEntity
  8
MAIN0
  6
BYBLOCK
 62
0
100
AcDbMText
 10
266.1859822796389
 20
295.9464110952002
 30
0.0000000000000000
 40
3.099999904632568
 41
0.0000000000000000
 71
     5
 72
     1
  1
\A1;MAX 44.5
 11
6.123233995736766e-017
 21
1.000000000000000
 31
0.0000000000000000
  7
STANDARD
  0
ENDBLK
  5
10F
100
AcDbEntity
  8
MAIN0
  6
CONTINUOUS
 62
3
100
AcDbBlockEnd
  0
BLOCK
  5
111
100
AcDbEntity
  8
MAIN0
  6
CONTINUOUS
 62
3
100
AcDbBlockBegin
  2
*D8
 70
    65
 10
0.0
 20
0.0
 30
0.0
  0
LINE
  5
112
100
AcDbEntity
  8
MAIN0
  6
BYBLOCK
 62
0
100
AcDbLine
 10
258.1141204603532
 20
343.1029114165149
 30
0.0000000000000000
 11
280.2359822319570
 21
343.1029114165149
 31
0.0000000000000000
  0
LINE
  5
113
100
AcDbEntity
  8
MAIN0
  6
BYBLOCK
 62
0
100
AcDbLine
 10
278.2359822319570
 20
341.1029114165149
 30
0.0000000000000000
 11
278.2359822319570
 21
325.1029114165149
 31
0.0000000000000000
  0
INSERT
  5
114
100
AcDbEntity
  8
MAIN0
  6
BYBLOCK
 62
0
100
AcDbBlockReference
  2
_OPEN
 10
278.2359822319570
 20
343.1029114165149
 30
0.0000000000000000
 41
2.000000000000000
 42
2.000000000000000
 43
2.000000000000000
 50
90.00000000000000
  0
INSERT
  5
115
100
AcDbEntity
  8
MAIN0
  6
BYBLOCK
 62
0
100
AcDbBlockReference
  2
_OPEN
 10
278.2359822319570
 20
323.1029114165149
 30
0.0000000000000000
 41
2.000000000000000
 42
2.000000000000000
 43
2.000000000000000
 50
270.0000000000000
  0
LINE
  5
116
100
AcDbEntity
  8
MAIN0
  6
BYBLOCK
 62
0
100
AcDbLine
 10
258.1141204603530
 20
323.1029114165149
 30
0.0000000000000000
 11
280.2359822319570
 21
323.1029114165149
 31
0.0000000000000000
  0
MTEXT
  5
117
100
AcDbEntity
  8
MAIN0
  6
BYBLOCK
 62
0
100
AcDbMText
 10
276.1859822796407
 20
333.1029114165149
 30
0.0000000000000000
 40
3.099999904632568
 41
0.0000000000000000
 71
     5
 72
     1
  1
\A1;20
 11
6.123233995736766e-017
 21
1.000000000000000
 31
0.0000000000000000
  7
STANDARD
  0
ENDBLK
  5
118
100
AcDbEntity
  8
MAIN0
  6
CONTINUOUS
 62
3
100
AcDbBlockEnd
  0
BLOCK
  5
11A
100
AcDbEntity
  8
MAIN0
  6
CONTINUOUS
 62
3
100
AcDbBlockBegin
  2
*D9
 70
    65
 10
0.0
 20
0.0
 30
0.0
  0
LINE
  5
11B
100
AcDbEntity
  8
MAIN0
  6
BYBLOCK
 62
0
100
AcDbLine
 10
258.1141204603530
 20
323.1029114165149
 30
0.0000000000000000
 11
280.2359822319570
 21
323.1029114165149
 31
0.0000000000000000
  0
LINE
  5
11C
100
AcDbEntity
  8
MAIN0
  6
BYBLOCK
 62
0
100
AcDbLine
 10
278.2359822319570
 20
321.1029114165149
 30
0.0000000000000000
 11
278.2359822319570
 21
288.1029114165152
 31
0.0000000000000000
  0
INSERT
  5
11D
100
AcDbEntity
  8
MAIN0
  6
BYBLOCK
 62
0
100
AcDbBlockReference
  2
_OPEN
 10
278.2359822319570
 20
323.1029114165149
 30
0.0000000000000000
 41
2.000000000000000
 42
2.000000000000000
 43
2.000000000000000
 50
90.00000000000000
  0
INSERT
  5
11E
100
AcDbEntity
  8
MAIN0
  6
BYBLOCK
 62
0
100
AcDbBlockReference
  2
_OPEN
 10
278.2359822319570
 20
286.1029114165152
 30
0.0000000000000000
 41
2.000000000000000
 42
2.000000000000000
 43
2.000000000000000
 50
270.0000000000000
  0
LINE
  5
11F
100
AcDbEntity
  8
MAIN0
  6
BYBLOCK
 62
0
100
AcDbLine
 10
253.2350203491163
 20
286.1029114165152
 30
0.0000000000000000
 11
280.2359822319570
 21
286.1029114165152
 31
0.0000000000000000
  0
MTEXT
  5
120
100
AcDbEntity
  8
MAIN0
  6
BYBLOCK
 62
0
100
AcDbMText
 10
276.1859822796407
 20
304.6029114165149
 30
0.0000000000000000
 40
3.099999904632568
 41
0.0000000000000000
 71
     5
 72
     1
  1
\A1;37
 11
6.123233995736766e-017
 21
1.000000000000000
 31
0.0000000000000000
  7
STANDARD
  0
ENDBLK
  5
121
100
AcDbEntity
  8
MAIN0
  6
CONTINUOUS
 62
3
100
AcDbBlockEnd
  0
BLOCK
  5
123
100
AcDbEntity
  8
MAIN0
  6
CONTINUOUS
 62
3
100
AcDbBlockBegin
  2
*D10
 70
    65
 10
0.0
 20
0.0
 30
0.0
  0
LINE
  5
124
100
AcDbEntity
  8
MAIN0
  6
BYBLOCK
 62
0
100
AcDbLine
 10
253.2350203491436
 20
358.1029114165148
 30
0.0000000000000000
 11
290.2359822319570
 21
358.1029114165148
 31
0.0000000000000000
  0
LINE
  5
125
100
AcDbEntity
  8
MAIN0
  6
BYBLOCK
 62
0
100
AcDbLine
 10
288.2359822319570
 20
356.1029114165148
 30
0.0000000000000000
 11
288.2359822319570
 21
288.1029114165152
 31
0.0000000000000000
  0
INSERT
  5
126
100
AcDbEntity
  8
MAIN0
  6
BYBLOCK
 62
0
100
AcDbBlockReference
  2
_OPEN
 10
288.2359822319570
 20
358.1029114165148
 30
0.0000000000000000
 41
2.000000000000000
 42
2.000000000000000
 43
2.000000000000000
 50
90.00000000000000
  0
INSERT
  5
127
100
AcDbEntity
  8
MAIN0
  6
BYBLOCK
 62
0
100
AcDbBlockReference
  2
_OPEN
 10
288.2359822319570
 20
286.1029114165152
 30
0.0000000000000000
 41
2.000000000000000
 42
2.000000000000000
 43
2.000000000000000
 50
270.0000000000000
  0
LINE
  5
128
100
AcDbEntity
  8
MAIN0
  6
BYBLOCK
 62
0
100
AcDbLine
 10
253.2350203491163
 20
286.1029114165152
 30
0.0000000000000000
 11
290.2359822319570
 21
286.1029114165152
 31
0.0000000000000000
  0
MTEXT
  5
129
100
AcDbEntity
  8
MAIN0
  6
BYBLOCK
 62
0
100
AcDbMText
 10
286.1859822796407
 20
322.1029114165150
 30
0.0000000000000000
 40
3.099999904632568
 41
0.0000000000000000
 71
     5
 72
     1
  1
\A1;72
 11
6.123233995736766e-017
 21
1.000000000000000
 31
0.0000000000000000
  7
STANDARD
  0
ENDBLK
  5
12A
100
AcDbEntity
  8
MAIN0
  6
CONTINUOUS
 62
3
100
AcDbBlockEnd
  0
BLOCK
  5
12C
100
AcDbEntity
  8
MAIN0
  6
CONTINUOUS
 62
3
100
AcDbBlockBegin
  2
*D11
 70
    65
 10
0.0
 20
0.0
 30
0.0
  0
LINE
  5
12D
100
AcDbEntity
  8
MAIN0
  6
BYBLOCK
 62
0
100
AcDbLine
 10
216.2359822319554
 20
353.6529114283551
 30
0.0000000000000000
 11
216.2359822319554
 21
371.6034091400833
 31
0.0000000000000000
  0
LINE
  5
12E
100
AcDbEntity
  8
MAIN0
  6
BYBLOCK
 62
0
100
AcDbLine
 10
218.2359822319554
 20
369.6034091400833
 30
0.0000000000000000
 11
250.4350203372229
 21
369.6034091400833
 31
0.0000000000000000
  0
INSERT
  5
12F
100
AcDbEntity
  8
MAIN0
  6
BYBLOCK
 62
0
100
AcDbBlockReference
  2
_OPEN
 10
216.2359822319554
 20
369.6034091400833
 30
0.0000000000000000
 41
2.000000000000000
 42
2.000000000000000
 43
2.000000000000000
 50
180.0000000000000
  0
INSERT
  5
130
100
AcDbEntity
  8
MAIN0
  6
BYBLOCK
 62
0
100
AcDbBlockReference
  2
_OPEN
 10
252.4350203372229
 20
369.6034091400833
 30
0.0000000000000000
 41
2.000000000000000
 42
2.000000000000000
 43
2.000000000000000
 50
0.0000000000000000
  0
LINE
  5
131
100
AcDbEntity
  8
MAIN0
  6
BYBLOCK
 62
0
100
AcDbLine
 10
252.4350203372229
 20
358.9029114284359
 30
0.0000000000000000
 11
252.4350203372229
 21
371.6034091400833
 31
0.0000000000000000
  0
MTEXT
  5
132
100
AcDbEntity
  8
MAIN0
  6
BYBLOCK
 62
0
100
AcDbMText
 10
235.9803644594195
 20
371.6534090923996
 30
0.0000000000000000
 40
3.099999904632568
 41
0.0000000000000000
 71
     5
 72
     1
  1
\A1;36
 11
1.000000000000000
 21
0.0000000000000000
 31
0.0000000000000000
  7
STANDARD
  0
ENDBLK
  5
133
100
AcDbEntity
  8
MAIN0
  6
CONTINUOUS
 62
3
100
AcDbBlockEnd
  0
BLOCK
  5
193
100
AcDbEntity
  8
MAIN0
  6
CONTINUOUS
 62
3
100
AcDbBlockBegin
  2
*D12
 70
    65
 10
0.0
 20
0.0
 30
0.0
  0
LINE
  5
194
100
AcDbEntity
  8
MAIN0
  6
BYBLOCK
 62
0
100
AcDbLine
 10
112.5359822200337
 20
379.6034337326972
 30
0.0000000000000000
 11
73.53341511336311
 21
379.6034337326972
 31
0.0000000000000000
  0
LINE
  5
195
100
AcDbEntity
  8
MAIN0
  6
BYBLOCK
 62
0
100
AcDbLine
 10
75.53341511336311
 20
377.6034337326972
 30
0.0000000000000000
 11
75.53341511336309
 21
161.1033845474715
 31
0.0000000000000000
  0
INSERT
  5
196
100
AcDbEntity
  8
MAIN0
  6
BYBLOCK
 62
0
100
AcDbBlockReference
  2
_OPEN
 10
75.53341511336311
 20
379.6034337326972
 30
0.0000000000000000
 41
2.000000000000000
 42
2.000000000000000
 43
2.000000000000000
 50
90.00000000000000
  0
INSERT
  5
197
100
AcDbEntity
  8
MAIN0
  6
BYBLOCK
 62
0
100
AcDbBlockReference
  2
_OPEN
 10
75.53341511336309
 20
159.1033845474715
 30
0.0000000000000000
 41
2.000000000000000
 42
2.000000000000000
 43
2.000000000000000
 50
270.0000000000000
  0
LINE
  5
198
100
AcDbEntity
  8
MAIN0
  6
BYBLOCK
 62
0
100
AcDbLine
 10
112.5359822200317
 20
159.1033845474715
 30
0.0000000000000000
 11
73.53341511336309
 21
159.1033845474715
 31
0.0000000000000000
  0
MTEXT
  5
199
100
AcDbEntity
  8
MAIN0
  6
BYBLOCK
 62
0
100
AcDbMText
 10
73.48341516104682
 20
269.3534091400843
 30
0.0000000000000000
 40
3.099999904632568
 41
0.0000000000000000
 71
     5
 72
     1
  1
\A1;\U+2205220.5
 11
6.123233995736766e-017
 21
1.000000000000000
 31
0.0000000000000000
  7
STANDARD
  0
ENDBLK
  5
19A
100
AcDbEntity
  8
MAIN0
  6
CONTINUOUS
 62
3
100
AcDbBlockEnd
  0
BLOCK
  5
19C
100
AcDbEntity
  8
MAIN0
  6
CONTINUOUS
 62
3
100
AcDbBlockBegin
  2
*D13
 70
    65
 10
0.0
 20
0.0
 30
0.0
  0
LINE
  5
19D
100
AcDbEntity
  8
MAIN0
  6
BYBLOCK
 62
0
100
AcDbLine
 10
165.7359822200336
 20
386.8534091400838
 30
0.0000000000000000
 11
63.70196053758308
 21
386.8534091400838
 31
0.0000000000000000
  0
LINE
  5
19E
100
AcDbEntity
  8
MAIN0
  6
BYBLOCK
 62
0
100
AcDbLine
 10
65.70196053758309
 20
384.8534091400838
 30
0.0000000000000000
 11
65.70196053758308
 21
153.8534091400838
 31
0.0000000000000000
  0
INSERT
  5
19F
100
AcDbEntity
  8
MAIN0
  6
BYBLOCK
 62
0
100
AcDbBlockReference
  2
_OPEN
 10
65.70196053758309
 20
386.8534091400838
 30
0.0000000000000000
 41
2.000000000000000
 42
2.000000000000000
 43
2.000000000000000
 50
90.00000000000000
  0
INSERT
  5
1A0
100
AcDbEntity
  8
MAIN0
  6
BYBLOCK
 62
0
100
AcDbBlockReference
  2
_OPEN
 10
65.70196053758308
 20
151.8534091400838
 30
0.0000000000000000
 41
2.000000000000000
 42
2.000000000000000
 43
2.000000000000000
 50
270.0000000000000
  0
LINE
  5
1A1
100
AcDbEntity
  8
MAIN0
  6
BYBLOCK
 62
0
100
AcDbLine
 10
165.7359822200315
 20
151.8534091400838
 30
0.0000000000000000
 11
63.70196053758307
 21
151.8534091400838
 31
0.0000000000000000
  0
MTEXT
  5
1A2
100
AcDbEntity
  8
MAIN0
  6
BYBLOCK
 62
0
100
AcDbMText
 10
63.65196058526681
 20
269.3534091400838
 30
0.0000000000000000
 40
3.099999904632568
 41
0.0000000000000000
 71
     5
 72
     1
  1
\A1;\U+2205235
 11
6.123233995736766e-017
 21
1.000000000000000
 31
0.0000000000000000
  7
STANDARD
  0
ENDBLK
  5
1A3
100
AcDbEntity
  8
MAIN0
  6
CONTINUOUS
 62
3
100
AcDbBlockEnd
  0
BLOCK
  5
1AE
100
AcDbEntity
  8
MAIN0
  6
CONTINUOUS
 62
3
100
AcDbBlockBegin
  2
*D14
 70
    65
 10
0.0
 20
0.0
 30
0.0
  0
LINE
  5
1AF
100
AcDbEntity
  8
MAIN0
  6
BYBLOCK
 62
0
100
AcDbLine
 10
112.2359822319546
 20
361.4034337446188
 30
0.0000000000000000
 11
112.2359822319546
 21
404.5340434323717
 31
0.0000000000000000
  0
LINE
  5
1B0
100
AcDbEntity
  8
MAIN0
  6
BYBLOCK
 62
0
100
AcDbLine
 10
114.2359822319546
 20
402.5340434323717
 30
0.0000000000000000
 11
214.2359822319554
 21
402.5340434323717
 31
0.0000000000000000
  0
INSERT
  5
1B1
100
AcDbEntity
  8
MAIN0
  6
BYBLOCK
 62
0
100
AcDbBlockReference
  2
_OPEN
 10
112.2359822319546
 20
402.5340434323717
 30
0.0000000000000000
 41
2.000000000000000
 42
2.000000000000000
 43
2.000000000000000
 50
180.0000000000000
  0
INSERT
  5
1B2
100
AcDbEntity
  8
MAIN0
  6
BYBLOCK
 62
0
100
AcDbBlockReference
  2
_OPEN
 10
216.2359822319554
 20
402.5340434323717
 30
0.0000000000000000
 41
2.000000000000000
 42
2.000000000000000
 43
2.000000000000000
 50
0.0000000000000000
  0
LINE
  5
1B3
100
AcDbEntity
  8
MAIN0
  6
BYBLOCK
 62
0
100
AcDbLine
 10
216.2359822319554
 20
353.6529114283551
 30
0.0000000000000000
 11
216.2359822319554
 21
404.5340434323717
 31
0.0000000000000000
  0
MTEXT
  5
1B4
100
AcDbEntity
  8
MAIN0
  6
BYBLOCK
 62
0
100
AcDbMText
 10
164.2359822319541
 20
404.5840433846880
 30
0.0000000000000000
 40
3.099999904632568
 41
0.0000000000000000
 71
     5
 72
     1
  1
\A1;104
 11
1.000000000000000
 21
0.0000000000000000
 31
0.0000000000000000
  7
STANDARD
  0
ENDBLK
  5
1B5
100
AcDbEntity
  8
MAIN0
  6
CONTINUOUS
 62
3
100
AcDbBlockEnd
  0
BLOCK
  5
1BC
100
AcDbEntity
  8
MAIN0
  6
CONTINUOUS
 62
3
100
AcDbBlockBegin
  2
*D15
 70
    65
 10
0.0
 20
0.0
 30
0.0
  0
LINE
  5
1BD
100
AcDbEntity
  8
MAIN0
  6
BYBLOCK
 62
0
100
AcDbLine
 10
112.2359822319528
 20
177.3033845355497
 30
0.0000000000000000
 11
112.2359822319528
 21
138.5991765203397
 31
0.0000000000000000
  0
LINE
  5
1BE
100
AcDbEntity
  8
MAIN0
  6
BYBLOCK
 62
0
100
AcDbLine
 10
114.2359822319528
 20
140.5991765203397
 30
0.0000000000000000
 11
149.2359822319542
 21
140.5991765203397
 31
0.0000000000000000
  0
INSERT
  5
1BF
100
AcDbEntity
  8
MAIN0
  6
BYBLOCK
 62
0
100
AcDbBlockReference
  2
_OPEN
 10
112.2359822319528
 20
140.5991765203397
 30
0.0000000000000000
 41
2.000000000000000
 42
2.000000000000000
 43
2.000000000000000
 50
180.0000000000000
  0
INSERT
  5
1C0
100
AcDbEntity
  8
MAIN0
  6
BYBLOCK
 62
0
100
AcDbBlockReference
  2
_OPEN
 10
151.2359822319542
 20
140.5991765203397
 30
0.0000000000000000
 41
2.000000000000000
 42
2.000000000000000
 43
2.000000000000000
 50
0.0000000000000000
  0
LINE
  5
1C1
100
AcDbEntity
  8
MAIN0
  6
BYBLOCK
 62
0
100
AcDbLine
 10
151.2359822319542
 20
147.2724338997313
 30
0.0000000000000000
 11
151.2359822319542
 21
138.5991765203397
 31
0.0000000000000000
  0
MTEXT
  5
1C2
100
AcDbEntity
  8
MAIN0
  6
BYBLOCK
 62
0
100
AcDbMText
 10
131.7359822319535
 20
142.6491764726560
 30
0.0000000000000000
 40
3.099999904632568
 41
0.0000000000000000
 71
     5
 72
     1
  1
\A1;39
 11
1.000000000000000
 21
0.0000000000000000
 31
0.0000000000000000
  7
STANDARD
  0
ENDBLK
  5
1C3
100
AcDbEntity
  8
MAIN0
  6
CONTINUOUS
 62
3
100
AcDbBlockEnd
  0
BLOCK
  5
1C5
100
AcDbEntity
  8
MAIN0
  6
CONTINUOUS
 62
3
100
AcDbBlockBegin
  2
*D16
 70
    65
 10
0.0
 20
0.0
 30
0.0
  0
LINE
  5
1C6
100
AcDbEntity
  8
MAIN0
  6
BYBLOCK
 62
0
100
AcDbLine
 10
112.2359822319546
 20
361.4034337446188
 30
0.0000000000000000
 11
112.2359822319546
 21
396.0403883222003
 31
0.0000000000000000
  0
LINE
  5
1C7
100
AcDbEntity
  8
MAIN0
  6
BYBLOCK
 62
0
100
AcDbLine
 10
114.2359822319546
 20
394.0403883222003
 30
0.0000000000000000
 11
149.2359822319554
 21
394.0403883222003
 31
0.0000000000000000
  0
INSERT
  5
1C8
100
AcDbEntity
  8
MAIN0
  6
BYBLOCK
 62
0
100
AcDbBlockReference
  2
_OPEN
 10
112.2359822319546
 20
394.0403883222003
 30
0.0000000000000000
 41
2.000000000000000
 42
2.000000000000000
 43
2.000000000000000
 50
180.0000000000000
  0
INSERT
  5
1C9
100
AcDbEntity
  8
MAIN0
  6
BYBLOCK
 62
0
100
AcDbBlockReference
  2
_OPEN
 10
151.2359822319554
 20
394.0403883222003
 30
0.0000000000000000
 41
2.000000000000000
 42
2.000000000000000
 43
2.000000000000000
 50
0.0000000000000000
  0
LINE
  5
1CA
100
AcDbEntity
  8
MAIN0
  6
BYBLOCK
 62
0
100
AcDbLine
 10
151.2359822319554
 20
388.4057363740045
 30
0.0000000000000000
 11
151.2359822319554
 21
396.0403883222003
 31
0.0000000000000000
  0
MTEXT
  5
1CB
100
AcDbEntity
  8
MAIN0
  6
BYBLOCK
 62
0
100
AcDbMText
 10
131.7359822319541
 20
396.0903882745166
 30
0.0000000000000000
 40
3.099999904632568
 41
0.0000000000000000
 71
     5
 72
     1
  1
\A1;39
 11
1.000000000000000
 21
0.0000000000000000
 31
0.0000000000000000
  7
STANDARD
  0
ENDBLK
  5
1CC
100
AcDbEntity
  8
MAIN0
  6
CONTINUOUS
 62
3
100
AcDbBlockEnd
  0
BLOCK
  5
388
100
AcDbEntity
  8
MAIN0
  6
CONTINUOUS
 62
3
100
AcDbBlockBegin
  2
*D17
 70
    65
 10
0.0
 20
0.0
 30
0.0
  0
LINE
  5
389
100
AcDbEntity
  8
MAIN0
  6
BYBLOCK
 62
0
100
AcDbLine
 10
127.1359822438756
 20
259.3534091400842
 30
0.0000000000000000
 11
156.4459411021749
 21
259.3534091400842
 31
0.0000000000000000
  0
LINE
  5
38A
100
AcDbEntity
  8
MAIN0
  6
BYBLOCK
 62
0
100
AcDbLine
 10
154.4459411021749
 20
261.3534091400842
 30
0.0000000000000000
 11
154.4459411021749
 21
277.3534091400842
 31
0.0000000000000000
  0
INSERT
  5
38B
100
AcDbEntity
  8
MAIN0
  6
BYBLOCK
 62
0
100
AcDbBlockReference
  2
_OPEN
 10
154.4459411021749
 20
259.3534091400842
 30
0.0000000000000000
 41
2.000000000000000
 42
2.000000000000000
 43
2.000000000000000
 50
270.0000000000000
  0
INSERT
  5
38C
100
AcDbEntity
  8
MAIN0
  6
BYBLOCK
 62
0
100
AcDbBlockReference
  2
_OPEN
 10
154.4459411021749
 20
279.3534091400842
 30
0.0000000000000000
 41
2.000000000000000
 42
2.000000000000000
 43
2.000000000000000
 50
90.00000000000000
  0
LINE
  5
38D
100
AcDbEntity
  8
MAIN0
  6
BYBLOCK
 62
0
100
AcDbLine
 10
127.1359822438756
 20
279.3534091400842
 30
0.0000000000000000
 11
156.4459411021749
 21
279.3534091400842
 31
0.0000000000000000
  0
MTEXT
  5
38E
100
AcDbEntity
  8
MAIN0
  6
BYBLOCK
 62
0
100
AcDbMText
 10
152.3959411498586
 20
269.3534091400834
 30
0.0000000000000000
 40
3.099999904632568
 41
0.0000000000000000
 71
     5
 72
     1
  1
\A1;\U+220520
 11
6.123233995736766e-017
 21
1.000000000000000
 31
0.0000000000000000
  7
STANDARD
  0
ENDBLK
  5
38F
100
AcDbEntity
  8
MAIN0
  6
CONTINUOUS
 62
3
100
AcDbBlockEnd
  0
BLOCK
  5
391
100
AcDbEntity
  8
MAIN0
  6
CONTINUOUS
 62
3
100
AcDbBlockBegin
  2
*D18
 70
    65
 10
0.0
 20
0.0
 30
0.0
  0
LINE
  5
392
100
AcDbEntity
  8
MAIN0
  6
BYBLOCK
 62
0
100
AcDbLine
 10
96.32160848103962
 20
81.18351666385411
 30
0.0000000000000000
 11
96.32160848103962
 21
69.99192710800620
 31
0.0000000000000000
  0
LINE
  5
393
100
AcDbEntity
  8
MAIN0
  6
BYBLOCK
 62
0
100
AcDbLine
 10
96.32160848103962
 20
71.99192710800620
 30
0.0000000000000000
 11
101.3216084810396
 21
71.99192710800620
 31
0.0000000000000000
  0
INSERT
  5
394
100
AcDbEntity
  8
MAIN0
  6
BYBLOCK
 62
0
100
AcDbBlockReference
  2
_OPEN
 10
96.32160848103962
 20
71.99192710800620
 30
0.0000000000000000
 41
2.000000000000000
 42
2.000000000000000
 43
2.000000000000000
 50
0.0000000000000000
  0
INSERT
  5
395
100
AcDbEntity
  8
MAIN0
  6
BYBLOCK
 62
0
100
AcDbBlockReference
  2
_OPEN
 10
101.3216084810396
 20
71.99192710800620
 30
0.0000000000000000
 41
2.000000000000000
 42
2.000000000000000
 43
2.000000000000000
 50
180.0000000000000
  0
LINE
  5
396
100
AcDbEntity
  8
MAIN0
  6
BYBLOCK
 62
0
100
AcDbLine
 10
94.32160848103962
 20
71.99192710800620
 30
0.0000000000000000
 11
90.67215484105549
 21
71.99192710800620
 31
0.0000000000000000
  0
LINE
  5
397
100
AcDbEntity
  8
MAIN0
  6
BYBLOCK
 62
0
100
AcDbLine
 10
103.3216084810396
 20
71.99192710800620
 30
0.0000000000000000
 11
104.3216084810396
 21
71.99192710800620
 31
0.0000000000000000
  0
LINE
  5
398
100
AcDbEntity
  8
MAIN0
  6
BYBLOCK
 62
0
100
AcDbLine
 10
101.3216084810396
 20
91.44192709608510
 30
0.0000000000000000
 11
101.3216084810396
 21
69.99192710800620
 31
0.0000000000000000
  0
MTEXT
  5
399
100
AcDbEntity
  8
MAIN0
  6
BYBLOCK
 62
0
100
AcDbMText
 10
91.87771058477659
 20
74.04192706032249
 30
0.0000000000000000
 40
3.099999904632568
 41
0.0000000000000000
 71
     5
 72
     1
  1
\A1;5
 11
1.000000000000000
 21
0.0000000000000000
 31
0.0000000000000000
  7
STANDARD
  0
ENDBLK
  5
39A
100
AcDbEntity
  8
MAIN0
  6
CONTINUOUS
 62
3
100
AcDbBlockEnd
  0
BLOCK
  5
39C
100
AcDbEntity
  8
MAIN0
  6
CONTINUOUS
 62
3
100
AcDbBlockBegin
  2
*D19
 70
    65
 10
0.0
 20
0.0
 30
0.0
  0
LINE
  5
39D
100
AcDbEntity
  8
MAIN0
  6
BYBLOCK
 62
0
100
AcDbLine
 10
101.3216084810396
 20
91.44192709608510
 30
0.0000000000000000
 11
101.3216084810396
 21
69.99192710800620
 31
0.0000000000000000
  0
LINE
  5
39E
100
AcDbEntity
  8
MAIN0
  6
BYBLOCK
 62
0
100
AcDbLine
 10
101.3216084810396
 20
71.99192710800620
 30
0.0000000000000000
 11
104.3216084810396
 21
71.99192710800620
 31
0.0000000000000000
  0
INSERT
  5
39F
100
AcDbEntity
  8
MAIN0
  6
BYBLOCK
 62
0
100
AcDbBlockReference
  2
_OPEN
 10
101.3216084810396
 20
71.99192710800620
 30
0.0000000000000000
 41
2.000000000000000
 42
2.000000000000000
 43
2.000000000000000
 50
0.0000000000000000
  0
INSERT
  5
3A0
100
AcDbEntity
  8
MAIN0
  6
BYBLOCK
 62
0
100
AcDbBlockReference
  2
_OPEN
 10
104.3216084810396
 20
71.99192710800620
 30
0.0000000000000000
 41
2.000000000000000
 42
2.000000000000000
 43
2.000000000000000
 50
180.0000000000000
  0
LINE
  5
3A1
100
AcDbEntity
  8
MAIN0
  6
BYBLOCK
 62
0
100
AcDbLine
 10
99.32160848103960
 20
71.99192710800620
 30
0.0000000000000000
 11
98.32160848103960
 21
71.99192710800620
 31
0.0000000000000000
  0
LINE
  5
3A2
100
AcDbEntity
  8
MAIN0
  6
BYBLOCK
 62
0
100
AcDbLine
 10
106.3216084810396
 20
71.99192710800620
 30
0.0000000000000000
 11
110.1006364198824
 21
71.99192710800620
 31
0.0000000000000000
  0
LINE
  5
3A3
100
AcDbEntity
  8
MAIN0
  6
BYBLOCK
 62
0
100
AcDbLine
 10
104.3216084810396
 20
99.94192709608517
 30
0.0000000000000000
 11
104.3216084810396
 21
69.99192710800620
 31
0.0000000000000000
  0
MTEXT
  5
3A4
100
AcDbEntity
  8
MAIN0
  6
BYBLOCK
 62
0
100
AcDbMText
 10
108.8950810172299
 20
74.04192706032248
 30
0.0000000000000000
 40
3.099999904632568
 41
0.0000000000000000
 71
     5
 72
     1
  1
\A1;3
 11
1.000000000000000
 21
0.0000000000000000
 31
0.0000000000000000
  7
STANDARD
  0
ENDBLK
  5
3A5
100
AcDbEntity
  8
MAIN0
  6
CONTINUOUS
 62
3
100
AcDbBlockEnd
  0
BLOCK
  5
3A7
100
AcDbEntity
  8
MAIN0
  6
CONTINUOUS
 62
3
100
AcDbBlockBegin
  2
*D20
 70
    65
 10
0.0
 20
0.0
 30
0.0
  0
LINE
  5
3A8
100
AcDbEntity
  8
MAIN0
  6
BYBLOCK
 62
0
100
AcDbLine
 10
105.1216084929606
 20
100.7419271080061
 30
0.0000000000000000
 11
120.3216084810398
 21
100.7419271080061
 31
0.0000000000000000
  0
LINE
  5
3A9
100
AcDbEntity
  8
MAIN0
  6
BYBLOCK
 62
0
100
AcDbLine
 10
118.3216084810398
 20
100.7419271080061
 30
0.0000000000000000
 11
118.3216084810398
 21
112.7419271080061
 31
0.0000000000000000
  0
INSERT
  5
3AA
100
AcDbEntity
  8
MAIN0
  6
BYBLOCK
 62
0
100
AcDbBlockReference
  2
_OPEN
 10
118.3216084810398
 20
100.7419271080061
 30
0.0000000000000000
 41
2.000000000000000
 42
2.000000000000000
 43
2.000000000000000
 50
90.00000000000000
  0
INSERT
  5
3AB
100
AcDbEntity
  8
MAIN0
  6
BYBLOCK
 62
0
100
AcDbBlockReference
  2
_OPEN
 10
118.3216084810398
 20
112.7419271080061
 30
0.0000000000000000
 41
2.000000000000000
 42
2.000000000000000
 43
2.000000000000000
 50
270.0000000000000
  0
LINE
  5
3AC
100
AcDbEntity
  8
MAIN0
  6
BYBLOCK
 62
0
100
AcDbLine
 10
118.3216084810398
 20
98.74192710800608
 30
0.0000000000000000
 11
118.3216084810398
 21
97.74192710800608
 31
0.0000000000000000
  0
LINE
  5
3AD
100
AcDbEntity
  8
MAIN0
  6
BYBLOCK
 62
0
100
AcDbLine
 10
118.3216084810398
 20
114.7419271080061
 30
0.0000000000000000
 11
118.3216084810398
 21
118.0932159034773
 31
0.0000000000000000
  0
LINE
  5
3AE
100
AcDbEntity
  8
MAIN0
  6
BYBLOCK
 62
0
100
AcDbLine
 10
105.1216084929606
 20
112.7419271080061
 30
0.0000000000000000
 11
120.3216084810398
 21
112.7419271080061
 31
0.0000000000000000
  0
MTEXT
  5
3AF
100
AcDbEntity
  8
MAIN0
  6
BYBLOCK
 62
0
100
AcDbMText
 10
116.2716085287235
 20
108.5176605639029
 30
0.0000000000000000
 40
3.099999904632568
 41
0.0000000000000000
 71
     5
 72
     1
  1
\A1;12H8/h8
 11
6.123233995736766e-017
 21
1.000000000000000
 31
0.0000000000000000
  7
STANDARD
  0
ENDBLK
  5
3B0
100
AcDbEntity
  8
MAIN0
  6
CONTINUOUS
 62
3
100
AcDbBlockEnd
  0
BLOCK
  5
4E0
100
AcDbEntity
  8
AIR-DIAGRAM0
  6
BYBLOCK
 62
3
100
AcDbBlockBegin
  2
*X0
 70
     1
 10
0.0
 20
0.0
 30
0.0
  0
LINE
  5
4E1
100
AcDbEntity
  8
AIR-DIAGRAM0
  6
BYBLOCK
 62
0
100
AcDbLine
 10
303.3743497808295
 20
43.15905430413613
 30
0.0000000000000000
 11
303.3854491359670
 21
43.17015365927364
 31
0.0000000000000000
  0
ENDBLK
  5
4E2
100
AcDbEntity
  8
AIR-DIAGRAM0
  6
BYBLOCK
 62
3
100
AcDbBlockEnd
  0
ENDSEC
  0
SECTION
  2
ENTITIES
  0
LEADER
  5
46
100
AcDbEntity
  8
MAIN0
  6
CONTINUOUS
 62
3
100
AcDbLeader
  3
DXF001
 73
     0
 74
     0
 75
     1
 40
3.000000000000000
 41
33.11599911546705
 76
     3
 10
221.4850203370813
 20
346.9241254026634
 30
0.0000000000000000
 10
233.7096549477985
 20
379.6034091400833
 30
0.0000000000000000
 10
235.5736549501827
 20
379.6034091400833
 30
0.0000000000000000
340
47
213
0.1840000023841810
223
-0.5000000000000000
233
0.0000000000000000
1001
ACAD
1000
DSTYLE
1002
{
1070
   147
1040
0.0
1070
    77
1070
     1
1070
   173
1070
     1
1070
     6
1000
_OPEN
1070
     7
1000
_OPEN
1002
}
  0
MTEXT
  5
47
102
{ACAD_REACTORS
330
46
102
}
100
AcDbEntity
  8
MAIN0
  6
CONTINUOUS
 62
3
100
AcDbMText
 10
235.3896549477985
 20
383.1034091400833
 30
0.0000000000000000
 40
3.000000000000000
 41
0.0000000000000000
 71
     1
 72
     1
  1
{\H0.94x;{セレーションピッチ 1.5\PSERRATION PITCH 1.5}}
 11
1.000000000000000
 21
0.0000000000000000
 31
0.0000000000000000
  7
KNJYOKO
  0
LINE
  5
48
100
AcDbEntity
  8
MAIN0
  6
CONTINUOUS
 62
3
100
AcDbLine
 10
140.7359822319548
 20
283.1977460333327
 30
0.0000000000000000
 11
140.7359822319548
 21
281.8534091400841
 31
0.0000000000000000
  0
LINE
  5
49
100
AcDbEntity
  8
MAIN0
  6
CONTINUOUS
 62
3
100
AcDbLine
 10
143.2359822319545
 20
255.2342128353145
 30
0.0000000000000000
 11
143.2359822319545
 21
256.8534091400840
 31
0.0000000000000000
  0
LINE
  5
4A
100
AcDbEntity
  8
MAIN0
  6
CONTINUOUS
 62
3
100
AcDbLine
 10
140.7359822319546
 20
255.2951714870189
 30
0.0000000000000000
 11
140.7359822319546
 21
256.8534091400841
 31
0.0000000000000000
  0
SPLINE
  5
4B
100
AcDbEntity
  8
MAIN0
  6
CONTINUOUS
 62
3
100
AcDbSpline
210
0.0000000000000000
220
0.0000000000000000
230
1.000000000000000
 70
     8
 71
     3
 72
    12
 73
     8
 74
     0
 42
1.000000000000000e-007
 43
1.000000000000000e-007
 12
0.9120321377394305
 22
-0.5284136490016635
 32
0.0000000000000000
 13
0.7887947399004247
 23
-0.6786916090723594
 33
0.0000000000000000
 40
0.0000000000000000
 40
0.0000000000000000
 40
0.0000000000000000
 40
0.0000000000000000
 40
1.377844702463306
 40
2.719239018476900
 40
4.494461858773729
 40
5.631665381415042
 40
6.467722892428664
 40
6.467722892428664
 40
6.467722892428664
 40
6.467722892428664
 10
90.19476581507240
 20
132.9186956710228
 30
0.0000000000000000
 10
90.61364536489259
 20
132.6760050220274
 30
0.0000000000000000
 10
91.44032315657466
 20
132.1970440179402
 30
0.0000000000000000
 10
92.99821680907485
 20
132.9147383787648
 30
0.0000000000000000
 10
94.21172299606144
 20
131.7089436043800
 30
0.0000000000000000
 10
95.55484226214651
 20
132.1474069993850
 30
0.0000000000000000
 10
96.10178249871751
 20
131.8021350176914
 30
0.0000000000000000
 10
96.32160842103144
 20
131.6129932785491
 30
0.0000000000000000
  0
LINE
  5
4C
100
AcDbEntity
  8
MAIN0
  6
CONTINUOUS
 62
3
100
AcDbLine
 10
112.2359822319528
 20
178.1033845474706
 30
0.0000000000000000
 11
112.2359822319546
 21
360.6034337326979
 31
0.0000000000000000
  0
LINE
  5
4D
100
AcDbEntity
  8
MAIN0
  6
HIDDEN
 62
3
100
AcDbLine
 10
144.9512322319544
 20
162.2533845474716
 30
0.0000000000000000
 11
144.6574822319544
 21
152.8533845474717
 31
0.0000000000000000
  0
LINE
  5
4E
100
AcDbEntity
  8
MAIN0
  6
HIDDEN
 62
3
100
AcDbLine
 10
145.5134822319544
 20
152.8533845474716
 30
0.0000000000000000
 11
145.8072322319543
 21
162.2533845474715
 31
0.0000000000000000
  0
LINE
  5
4F
100
AcDbEntity
  8
MAIN0
  6
HIDDEN
 62
3
100
AcDbLine
 10
156.9584822319543
 20
152.8533845474715
 30
0.0000000000000000
 11
156.6647322319543
 21
162.2533845474719
 31
0.0000000000000000
  0
LINE
  5
50
100
AcDbEntity
  8
MAIN0
  6
HIDDEN
 62
3
100
AcDbLine
 10
157.8144822319542
 20
152.8533845474716
 30
0.0000000000000000
 11
157.5207322319542
 21
162.2533845474720
 31
0.0000000000000000
  0
LINE
  5
51
100
AcDbEntity
  8
MAIN0
  6
HIDDEN
 62
3
100
AcDbLine
 10
157.5207322319540
 20
162.2533845474715
 30
0.0000000000000000
 11
144.9512322319542
 21
162.2533845474715
 31
0.0000000000000000
  0
LINE
  5
52
100
AcDbEntity
  8
MAIN0
  6
HIDDEN
 62
3
100
AcDbLine
 10
156.6359822319541
 20
162.2533845474715
 30
0.0000000000000000
 11
156.6359822319541
 21
167.8533845474714
 31
0.0000000000000000
  0
LINE
  5
53
100
AcDbEntity
  8
MAIN0
  6
HIDDEN
 62
3
100
AcDbLine
 10
156.6359822319541
 20
167.8533845474714
 30
0.0000000000000000
 11
145.8359822319541
 21
167.8533845474714
 31
0.0000000000000000
  0
LINE
  5
54
100
AcDbEntity
  8
MAIN0
  6
HIDDEN
 62
3
100
AcDbLine
 10
151.2359822264167
 20
170.9710760017535
 30
0.0000000000000000
 11
156.6359822319542
 21
167.8533845449027
 31
0.0000000000000000
  0
LINE
  5
55
100
AcDbEntity
  8
MAIN0
  6
HIDDEN
 62
3
100
AcDbLine
 10
151.2359822264162
 20
170.9710760017535
 30
0.0000000000000000
 11
145.8359822319541
 21
167.8533845513024
 31
0.0000000000000000
  0
LINE
  5
56
100
AcDbEntity
  8
MAIN0
  6
HIDDEN
 62
3
100
AcDbLine
 10
145.8359822319545
 20
162.2533845474715
 30
0.0000000000000000
 11
145.8359822319545
 21
167.8533845474714
 31
0.0000000000000000
  0
LINE
  5
57
100
AcDbEntity
  8
MAIN0
  6
CONTINUOUS
 62
3
100
AcDbLine
 10
166.5359822319539
 20
152.8533845474714
 30
0.0000000000000000
 11
135.9359822319650
 21
152.8533845474714
 31
0.0000000000000000
  0
LINE
  5
58
100
AcDbEntity
  8
MAIN0
  6
CENTER
 62
3
100
AcDbLine
 10
151.2359822319542
 20
148.0724339116522
 30
0.0000000000000000
 11
151.2359822319542
 21
179.3534091400844
 31
0.0000000000000000
  0
LINE
  5
59
100
AcDbEntity
  8
MAIN0
  6
CONTINUOUS
 62
3
100
AcDbLine
 10
135.9359822319252
 20
255.0694047807577
 30
0.0000000000000000
 11
135.9359822319650
 21
152.8533845474714
 31
0.0000000000000000
  0
LINE
  5
5A
100
AcDbEntity
  8
MAIN0
  6
CONTINUOUS
 62
3
100
AcDbLine
 10
166.5359822319538
 20
253.2566517565010
 30
0.0000000000000000
 11
166.5359822319538
 21
152.8533845474714
 31
0.0000000000000000
  0
LINE
  5
5B
100
AcDbEntity
  8
MAIN0
  6
CENTER
 62
3
100
AcDbLine
 10
151.2359822319554
 20
387.6057363620836
 30
0.0000000000000000
 11
151.2359822319554
 21
358.7311881805853
 31
0.0000000000000000
  0
LINE
  5
5C
100
AcDbEntity
  8
MAIN0
  6
CONTINUOUS
 62
3
100
AcDbLine
 10
166.5359822319550
 20
385.8534337326968
 30
0.0000000000000000
 11
135.9359822319655
 21
385.8534337326968
 31
0.0000000000000000
  0
LINE
  5
5D
100
AcDbEntity
  8
MAIN0
  6
CONTINUOUS
 62
3
100
AcDbLine
 10
166.5359822319545
 20
386.8534091400838
 30
0.0000000000000000
 11
166.5359822319545
 21
385.8534337326968
 31
0.0000000000000000
  0
LINE
  5
5E
100
AcDbEntity
  8
MAIN0
  6
CONTINUOUS
 62
3
100
AcDbLine
 10
135.9359822319255
 20
283.3360756022037
 30
0.0000000000000000
 11
135.9359822319661
 21
385.8534337326968
 31
0.0000000000000000
  0
LINE
  5
5F
100
AcDbEntity
  8
MAIN0
  6
CONTINUOUS
 62
3
100
AcDbLine
 10
166.5359822319550
 20
285.5185493550886
 30
0.0000000000000000
 11
166.5359822319550
 21
385.8534337326968
 31
0.0000000000000000
  0
LINE
  5
60
100
AcDbEntity
  8
MAIN0
  6
HIDDEN
 62
3
100
AcDbLine
 10
155.6359822315844
 20
385.8534337326983
 30
0.0000000000000000
 11
154.6359822315847
 21
384.8534337326979
 31
0.0000000000000000
  0
LINE
  5
61
100
AcDbEntity
  8
MAIN0
  6
HIDDEN
 62
3
100
AcDbLine
 10
154.6359822315849
 20
384.8534337326977
 30
0.0000000000000000
 11
147.8359822315849
 21
384.8534337326955
 31
0.0000000000000000
  0
LINE
  5
62
100
AcDbEntity
  8
MAIN0
  6
HIDDEN
 62
3
100
AcDbLine
 10
147.8359822315847
 20
384.8534337326955
 30
0.0000000000000000
 11
146.8359822315844
 21
385.8534337326951
 31
0.0000000000000000
  0
LINE
  5
63
100
AcDbEntity
  8
MAIN0
  6
HIDDEN
 62
3
100
AcDbLine
 10
155.2359822315844
 20
385.4534337326980
 30
0.0000000000000000
 11
155.2359822315880
 21
373.8534337326980
 31
0.0000000000000000
  0
LINE
  5
64
100
AcDbEntity
  8
MAIN0
  6
HIDDEN
 62
3
100
AcDbLine
 10
155.2359822315884
 20
373.8534337326978
 30
0.0000000000000000
 11
147.2359822315884
 21
373.8534337326953
 31
0.0000000000000000
  0
LINE
  5
65
100
AcDbEntity
  8
MAIN0
  6
HIDDEN
 62
3
100
AcDbLine
 10
147.2359822315880
 20
373.8534337326954
 30
0.0000000000000000
 11
147.2359822315844
 21
385.4534337326954
 31
0.0000000000000000
  0
LINE
  5
66
100
AcDbEntity
  8
MAIN0
  6
HIDDEN
 62
3
100
AcDbLine
 10
154.6359822315848
 20
384.8534337326977
 30
0.0000000000000000
 11
154.6359822315898
 21
368.8534337326977
 31
0.0000000000000000
  0
LINE
  5
67
100
AcDbEntity
  8
MAIN0
  6
HIDDEN
 62
3
100
AcDbLine
 10
154.6359822315902
 20
368.8534337326977
 30
0.0000000000000000
 11
147.8359822315902
 21
368.8534337326955
 31
0.0000000000000000
  0
LINE
  5
68
100
AcDbEntity
  8
MAIN0
  6
HIDDEN
 62
3
100
AcDbLine
 10
147.8359822315896
 20
368.8534337326955
 30
0.0000000000000000
 11
147.8359822315846
 21
384.8534337326956
 31
0.0000000000000000
  0
LINE
  5
69
100
AcDbEntity
  8
MAIN0
  6
HIDDEN
 62
3
100
AcDbLine
 10
154.6359822315903
 20
368.8534337326979
 30
0.0000000000000000
 11
151.2359822315909
 21
366.8904428174520
 31
0.0000000000000000
  0
LINE
  5
6A
100
AcDbEntity
  8
MAIN0
  6
HIDDEN
 62
3
100
AcDbLine
 10
151.2359822315904
 20
366.8904428174520
 30
0.0000000000000000
 11
147.8359822315898
 21
368.8534337326956
 31
0.0000000000000000
  0
DIMENSION
  5
73
100
AcDbEntity
  8
MAIN0
  6
CONTINUOUS
 62
3
100
AcDbDimension
  2
*D0
 10
94.54087819907068
 20
324.3534091400843
 30
0.0000000000000000
 11
94.04087819907069
 21
269.3534091214579
 31
0.0000000000000000
 70
160
  1
\A1;\U+2205110H7\S＋0.035^ 　0;
  3
DXF001
100
AcDbAlignedDimension
 13
112.2359822319545
 23
214.3534091400844
 33
0.0000000000000000
 14
112.2359822319552
 24
324.3534091400843
 34
0.0000000000000000
 50
90.00000000000000
100
AcDbRotatedDimension
1001
ACAD
1000
DSTYLE
1002
{
1070
   173
1070
     1
1070
     6
1000
_OPEN
1070
     7
1000
_OPEN
1070
    41
1040
2.000000
1070
   340
1005
74
1002
}
  0
LINE
  5
75
100
AcDbEntity
  8
MAIN0
  6
CONTINUOUS
 62
3
100
AcDbLine
 10
112.2359822319529
 20
178.1033845474707
 30
0.0000000000000000
 11
112.7359822319529
 21
178.1033845474714
 31
0.0000000000000000
  0
LINE
  5
76
100
AcDbEntity
  8
MAIN0
  6
CONTINUOUS
 62
3
100
AcDbLine
 10
112.7359822319527
 20
159.7033845474714
 30
0.0000000000000000
 11
112.7359822319527
 21
178.1033845474714
 31
0.0000000000000000
  0
LINE
  5
77
100
AcDbEntity
  8
MAIN0
  6
CONTINUOUS
 62
3
100
AcDbLine
 10
112.2359822319546
 20
360.6034337326979
 30
0.0000000000000000
 11
112.7359822319546
 21
360.6034337326972
 31
0.0000000000000000
  0
LINE
  5
78
100
AcDbEntity
  8
MAIN0
  6
CONTINUOUS
 62
3
100
AcDbLine
 10
112.7359822319548
 20
379.0034337326973
 30
0.0000000000000000
 11
112.7359822319544
 21
360.6034337326972
 31
0.0000000000000000
  0
LINE
  5
79
100
AcDbEntity
  8
MAIN0
  6
CONTINUOUS
 62
3
100
AcDbLine
 10
459.0891930811885
 20
367.5788916418261
 30
0.0000000000000000
 11
459.0891930811885
 21
351.3004450415778
 31
0.0000000000000000
  0
LINE
  5
7A
100
AcDbEntity
  8
MAIN0
  6
CONTINUOUS
 62
3
100
AcDbLine
 10
412.0891930811885
 20
367.5788916418261
 30
0.0000000000000000
 11
412.0891930811885
 21
351.3004450415778
 31
0.0000000000000000
  0
LINE
  5
7B
100
AcDbEntity
  8
MAIN0
  6
CENTER
 62
3
100
AcDbLine
 10
542.5496306741190
 20
207.5997717033592
 30
0.0000000000000000
 11
429.6624902918943
 21
272.7751925908793
 31
0.0000000000000000
  0
MTEXT
  5
7C
100
AcDbEntity
  8
MAIN0
  6
CONTINUOUS
 62
3
100
AcDbMText
 10
506.5637110593454
 20
248.5106842743234
 30
0.0000000000000000
 40
5.000000000000000
 41
0.0000000000000000
 71
     1
 72
     1
  1
{\H0.82x;{1}}
 11
0.5000000000000026
 21
0.8660254037844372
 31
0.0000000000000000
  7
STANDARD
  0
LINE
  5
7D
100
AcDbEntity
  8
MAIN0
  6
CONTINUOUS
 62
3
100
AcDbLine
 10
463.0394060238593
 20
239.3744463695253
 30
0.0000000000000000
 11
466.4201464158711
 21
240.2803130273842
 31
0.0000000000000000
  0
LINE
  5
7E
100
AcDbEntity
  8
MAIN0
  6
CONTINUOUS
 62
3
100
AcDbLine
 10
465.1827095487945
 20
238.1370095024488
 30
0.0000000000000000
 11
464.2768428909358
 21
241.5177498944606
 31
0.0000000000000000
  0
LINE
  5
7F
100
AcDbEntity
  8
MAIN0
  6
CONTINUOUS
 62
3
100
AcDbLine
 10
475.2768428909125
 20
260.5703087776111
 30
0.0000000000000000
 11
476.1827095487621
 21
257.1895683855968
 31
0.0000000000000000
  0
LINE
  5
80
100
AcDbEntity
  8
MAIN0
  6
CONTINUOUS
 62
3
100
AcDbLine
 10
477.4201464158441
 20
259.3328719105289
 30
0.0000000000000000
 11
474.0394060238301
 21
258.4270052526791
 31
0.0000000000000000
  0
LINE
  5
81
100
AcDbEntity
  8
MAIN0
  6
CENTER
 62
3
100
AcDbLine
 10
477.5914251647669
 20
293.6034091400271
 30
0.0000000000000000
 11
466.7661076174528
 21
287.3534091400418
 31
0.0000000000000000
  0
ARC
  5
82
100
AcDbEntity
  8
MAIN0
  6
CENTER
 62
3
100
AcDbCircle
 10
435.5891930811885
 20
269.3534091400844
 30
0.0000000000000000
 40
42.24999999999987
100
AcDbArc
 50
21.52186024710489
 51
38.47813975273862
  0
ARC
  5
83
100
AcDbEntity
  8
MAIN0
  6
CENTER
 62
3
100
AcDbCircle
 10
435.5891930811885
 20
269.3534091400844
 30
0.0000000000000000
 40
42.24999999999987
100
AcDbArc
 50
141.5218602471048
 51
158.4781397527385
  0
LINE
  5
84
100
AcDbEntity
  8
MAIN0
  6
CENTER
 62
3
100
AcDbLine
 10
393.5869609976764
 20
293.6034091401418
 30
0.0000000000000000
 11
404.4122785449735
 21
287.3534091401270
 31
0.0000000000000000
  0
ARC
  5
85
100
AcDbEntity
  8
MAIN0
  6
CENTER
 62
3
100
AcDbCircle
 10
435.5891930811885
 20
269.3534091400844
 30
0.0000000000000000
 40
42.24999999999987
100
AcDbArc
 50
261.5218602471047
 51
278.4781397527384
  0
LINE
  5
86
100
AcDbEntity
  8
MAIN0
  6
CENTER
 62
3
100
AcDbLine
 10
92.23598223179414
 20
191.8534091400844
 30
0.0000000000000000
 11
119.0430314739829
 21
191.8534091400844
 31
0.0000000000000000
  0
LINE
  5
87
100
AcDbEntity
  8
MAIN0
  6
CONTINUOUS
 62
3
100
AcDbLine
 10
112.2359822319529
 20
187.8534091401652
 30
0.0000000000000000
 11
97.23598223179414
 21
187.8534091401652
 31
0.0000000000000000
  0
LINE
  5
88
100
AcDbEntity
  8
MAIN0
  6
CONTINUOUS
 62
3
100
AcDbLine
 10
112.2359822319529
 20
188.5299916401652
 30
0.0000000000000000
 11
97.23598223179414
 21
188.5299916401652
 31
0.0000000000000000
  0
LINE
  5
89
100
AcDbEntity
  8
MAIN0
  6
CONTINUOUS
 62
3
100
AcDbLine
 10
97.23598223179414
 20
187.8534091401652
 30
0.0000000000000000
 11
97.23598223179414
 21
195.8534091401652
 31
0.0000000000000000
  0
LINE
  5
8A
100
AcDbEntity
  8
MAIN0
  6
CONTINUOUS
 62
3
100
AcDbLine
 10
112.2359822319530
 20
195.1768266401652
 30
0.0000000000000000
 11
97.23598223179414
 21
195.1768266401652
 31
0.0000000000000000
  0
LINE
  5
8B
100
AcDbEntity
  8
MAIN0
  6
CONTINUOUS
 62
3
100
AcDbLine
 10
97.23598223179414
 20
195.8534091401652
 30
0.0000000000000000
 11
112.2359822319530
 21
195.8534091401652
 31
0.0000000000000000
  0
LINE
  5
8C
100
AcDbEntity
  8
MAIN0
  6
CONTINUOUS
 62
3
100
AcDbLine
 10
195.0359822319542
 20
354.6034337326967
 30
0.0000000000000000
 11
214.7359822319557
 21
354.6034337326965
 31
0.0000000000000000
  0
ARC
  5
8D
100
AcDbEntity
  8
MAIN0
  6
CONTINUOUS
 62
3
100
AcDbCircle
 10
396.8391930811864
 20
202.2364403467878
 30
0.0000000000000000
 40
7.000000000000000
100
AcDbArc
 50
329.9999999999998
 51
509.9999999999997
  0
LINE
  5
8E
100
AcDbEntity
  8
MAIN0
  6
CONTINUOUS
 62
3
100
AcDbLine
 10
387.0459409596634
 20
199.2740301009783
 30
0.0000000000000000
 11
390.7770152546954
 21
205.7364403467878
 31
0.0000000000000000
  0
LINE
  5
8F
100
AcDbEntity
  8
MAIN0
  6
CONTINUOUS
 62
3
100
AcDbLine
 10
399.1702966126455
 20
192.2740301009783
 30
0.0000000000000000
 11
402.9013709076776
 21
198.7364403467878
 31
0.0000000000000000
  0
CIRCLE
  5
90
100
AcDbEntity
  8
MAIN0
  6
CONTINUOUS
 62
3
100
AcDbCircle
 10
396.8391930811864
 20
202.2364403467878
 30
0.0000000000000000
 40
6.500000000000000
  0
LINE
  5
91
100
AcDbEntity
  8
MAIN0
  6
CONTINUOUS
 62
3
100
AcDbLine
 10
398.5712438887553
 20
205.2364403467878
 30
0.0000000000000000
 11
395.1071422736176
 21
205.2364403467878
 31
0.0000000000000000
  0
LINE
  5
92
100
AcDbEntity
  8
MAIN0
  6
CONTINUOUS
 62
3
100
AcDbLine
 10
395.1071422736176
 20
205.2364403467877
 30
0.0000000000000000
 11
393.3750914660487
 21
202.2364403467877
 31
0.0000000000000000
  0
LINE
  5
93
100
AcDbEntity
  8
MAIN0
  6
CONTINUOUS
 62
3
100
AcDbLine
 10
393.3750914660486
 20
202.2364403467878
 30
0.0000000000000000
 11
395.1071422736175
 21
199.2364403467878
 31
0.0000000000000000
  0
LINE
  5
94
100
AcDbEntity
  8
MAIN0
  6
CONTINUOUS
 62
3
100
AcDbLine
 10
395.1071422736176
 20
199.2364403467878
 30
0.0000000000000000
 11
398.5712438887553
 21
199.2364403467878
 31
0.0000000000000000
  0
LINE
  5
95
100
AcDbEntity
  8
MAIN0
  6
CONTINUOUS
 62
3
100
AcDbLine
 10
398.5712438887554
 20
199.2364403467878
 30
0.0000000000000000
 11
400.3032946963242
 21
202.2364403467877
 31
0.0000000000000000
  0
LINE
  5
96
100
AcDbEntity
  8
MAIN0
  6
CONTINUOUS
 62
3
100
AcDbLine
 10
400.3032946963242
 20
202.2364403467878
 30
0.0000000000000000
 11
398.5712438887554
 21
205.2364403467878
 31
0.0000000000000000
  0
LINE
  5
97
100
AcDbEntity
  8
MAIN0
  6
CENTER
 62
3
100
AcDbLine
 10
391.7676320261119
 20
193.4522389257112
 30
0.0000000000000000
 11
401.8662337309482
 21
210.9435301638893
 31
0.0000000000000000
  0
LINE
  5
98
100
AcDbEntity
  8
MAIN0
  6
CENTER
 62
3
100
AcDbLine
 10
461.7500622111987
 20
201.2020150466090
 30
0.0000000000000000
 11
454.9410711698379
 21
218.9400431500563
 31
0.0000000000000000
  0
LINE
  5
99
100
AcDbEntity
  8
MAIN0
  6
CENTER
 62
3
100
AcDbLine
 10
409.0699560016329
 20
200.2684346201118
 30
0.0000000000000000
 11
415.8789470429938
 21
218.0064627235592
 31
0.0000000000000000
  0
LINE
  5
9A
100
AcDbEntity
  8
MAIN0
  6
CENTER
 62
3
100
AcDbLine
 10
435.5891930811885
 20
146.8533845474721
 30
0.0000000000000000
 11
435.5891930811885
 21
391.8534337326968
 31
0.0000000000000000
  0
DIMENSION
  5
A3
100
AcDbEntity
  8
MAIN0
  6
CONTINUOUS
 62
3
100
AcDbDimension
  2
*D1
 10
97.23598223179414
 20
169.3534091400844
 30
0.0000000000000000
 11
104.7359822318735
 21
169.8534091400844
 31
0.0000000000000000
 70
160
  3
DXF001
100
AcDbAlignedDimension
 13
112.2359822319528
 23
178.1033845474706
 33
0.0000000000000000
 14
97.23598223179414
 24
187.8534091401652
 34
0.0000000000000000
100
AcDbRotatedDimension
1001
ACAD
1000
DSTYLE
1002
{
1070
   173
1070
     1
1070
     6
1000
_OPEN
1070
     7
1000
_OPEN
1070
    41
1040
2.000000
1002
}
  0
LEADER
  5
A4
100
AcDbEntity
  8
MAIN0
  6
CONTINUOUS
 62
3
100
AcDbLeader
  3
DXF001
 73
     0
 75
     1
 40
3.000000000000000
 41
25.01399933004380
 76
     3
 10
103.0957708849584
 20
187.8534091401652
 30
0.0000000000000000
 10
84.89238857295482
 20
144.4597265005951
 30
0.0000000000000000
 10
83.02638857057063
 20
144.4597265005951
 30
0.0000000000000000
340
A5
213
0.0000000000000000
223
-0.5000000000000000
233
0.0000000000000000
1001
ACAD
1000
DSTYLE
1002
{
1070
   147
1040
0.0
1070
    77
1070
     1
1070
   173
1070
     1
1070
     6
1000
_OPEN
1070
     7
1000
_OPEN
1002
}
  0
MTEXT
  5
A5
102
{ACAD_REACTORS
330
A4
102
}
100
AcDbEntity
  8
MAIN0
  6
CONTINUOUS
 62
3
100
AcDbMText
 10
58.01238924052684
 20
147.9597265005951
 30
0.0000000000000000
 40
3.000000000000000
 41
0.0000000000000000
 71
     1
 72
     1
  1
{\H0.93x;{六角穴付ボルト\PM8X110（6本）\PHEX SOCKET\PHEAD CAP SCREW}}
 11
1.000000000000000
 21
0.0000000000000000
 31
0.0000000000000000
  7
KNJYOKO
  0
DIMENSION
  5
AE
100
AcDbEntity
  8
MAIN0
  6
CONTINUOUS
 62
3
100
AcDbDimension
  2
*D2
 10
119.2359822319552
 20
308.3534091400843
 30
0.0000000000000000
 11
115.7359822319549
 21
308.8534091400843
 31
0.0000000000000000
 70
160
  3
DXF001
100
AcDbAlignedDimension
 13
112.2359822319546
 23
359.3534337326979
 33
0.0000000000000000
 14
119.2359822319552
 24
324.3534091400844
 34
0.0000000000000000
100
AcDbRotatedDimension
1001
ACAD
1000
DSTYLE
1002
{
1070
   173
1070
     1
1070
     6
1000
_OPEN
1070
     7
1000
_OPEN
1070
    41
1040
2.000000
1002
}
  0
MTEXT
  5
AF
100
AcDbEntity
  8
MAIN0
  6
CONTINUOUS
 62
3
100
AcDbMText
 10
269.5776629957882
 20
315.6238909273093
 30
0.0000000000000000
 40
3.099999904632568
 41
0.0000000000000000
 71
     1
 72
     1
  1
{\H0.93x;{MIN 4.75}}
 11
6.123233995736766e-017
 21
1.000000000000000
 31
0.0000000000000000
  7
STANDARD
  0
MTEXT
  5
B0
100
AcDbEntity
  8
MAIN0
  6
CONTINUOUS
 62
3
100
AcDbMText
 10
269.0964062033640
 20
288.2867917976526
 30
0.0000000000000000
 40
3.099999904632568
 41
0.0000000000000000
 71
     1
 72
     1
  1
{\H0.93x;{MIN 41.9}}
 11
6.123233995736766e-017
 21
1.000000000000000
 31
0.0000000000000000
  7
STANDARD
  0
LINE
  5
B1
100
AcDbEntity
  8
MAIN0
  6
HIDDEN
 62
3
100
AcDbLine
 10
319.1693114659452
 20
273.6732661623434
 30
0.0000000000000000
 11
320.0891684885750
 21
272.7534091397142
 31
0.0000000000000000
  0
LINE
  5
B2
100
AcDbEntity
  8
MAIN0
  6
HIDDEN
 62
3
100
AcDbLine
 10
320.0891684885752
 20
272.7534091397140
 30
0.0000000000000000
 11
320.0891684885773
 21
265.9534091397140
 31
0.0000000000000000
  0
LINE
  5
B3
100
AcDbEntity
  8
MAIN0
  6
HIDDEN
 62
3
100
AcDbLine
 10
320.0891684885772
 20
265.9534091397138
 30
0.0000000000000000
 11
319.1693114659718
 21
265.0335521171077
 31
0.0000000000000000
  0
LINE
  5
B4
100
AcDbEntity
  8
MAIN0
  6
HIDDEN
 62
3
100
AcDbLine
 10
319.4891684885747
 20
273.3534091397137
 30
0.0000000000000000
 11
331.0891684885748
 21
273.3534091397173
 31
0.0000000000000000
  0
LINE
  5
B5
100
AcDbEntity
  8
MAIN0
  6
HIDDEN
 62
3
100
AcDbLine
 10
331.0891684885751
 20
273.3534091397175
 30
0.0000000000000000
 11
331.0891684885776
 21
265.3534091397175
 31
0.0000000000000000
  0
LINE
  5
B6
100
AcDbEntity
  8
MAIN0
  6
HIDDEN
 62
3
100
AcDbLine
 10
331.0891684885773
 20
265.3534091397173
 30
0.0000000000000000
 11
319.4891684885774
 21
265.3534091397137
 31
0.0000000000000000
  0
LINE
  5
B7
100
AcDbEntity
  8
MAIN0
  6
HIDDEN
 62
3
100
AcDbLine
 10
320.0891684885752
 20
272.7534091397138
 30
0.0000000000000000
 11
336.0891684885752
 21
272.7534091397188
 31
0.0000000000000000
  0
LINE
  5
B8
100
AcDbEntity
  8
MAIN0
  6
HIDDEN
 62
3
100
AcDbLine
 10
336.0891684885751
 20
272.7534091397193
 30
0.0000000000000000
 11
336.0891684885773
 21
265.9534091397194
 31
0.0000000000000000
  0
LINE
  5
B9
100
AcDbEntity
  8
MAIN0
  6
HIDDEN
 62
3
100
AcDbLine
 10
336.0891684885773
 20
265.9534091397188
 30
0.0000000000000000
 11
320.0891684885773
 21
265.9534091397139
 31
0.0000000000000000
  0
LINE
  5
BA
100
AcDbEntity
  8
MAIN0
  6
HIDDEN
 62
3
100
AcDbLine
 10
336.0891684885750
 20
272.7534091397195
 30
0.0000000000000000
 11
338.0521594038208
 21
269.3534091397201
 31
0.0000000000000000
  0
LINE
  5
BB
100
AcDbEntity
  8
MAIN0
  6
HIDDEN
 62
3
100
AcDbLine
 10
338.0521594038210
 20
269.3534091397196
 30
0.0000000000000000
 11
336.0891684885772
 21
265.9534091397190
 31
0.0000000000000000
  0
LEADER
  5
BC
100
AcDbEntity
  8
MAIN0
  6
CONTINUOUS
 62
3
100
AcDbLeader
  3
DXF001
 73
     0
 75
     1
 40
3.000000000000000
 41
23.21399937772753
 76
     3
 10
324.5956041207312
 20
265.3534091397153
 30
0.0000000000000000
 10
312.5392959283304
 20
238.1006671347500
 30
0.0000000000000000
 10
310.6732959259462
 20
238.1006671347500
 30
0.0000000000000000
340
BD
213
0.0000000000000000
223
-0.5000000000000000
233
0.0000000000000000
1001
ACAD
1000
DSTYLE
1002
{
1070
   147
1040
0.0
1070
    77
1070
     1
1070
   173
1070
     1
1070
     6
1000
_OPEN
1070
     7
1000
_OPEN
1002
}
  0
MTEXT
  5
BD
102
{ACAD_REACTORS
330
BC
102
}
100
AcDbEntity
  8
MAIN0
  6
CONTINUOUS
 62
3
100
AcDbMText
 10
287.4592965482187
 20
241.6006671347500
 30
0.0000000000000000
 40
3.000000000000000
 41
0.0000000000000000
 71
     1
 72
     1
  1
{\H0.93x;{4-M8 ねじ深12\P4-M8 DEPTH 12}}
 11
1.000000000000000
 21
0.0000000000000000
 31
0.0000000000000000
  7
KNJYOKO
  0
DIMENSION
  5
C6
100
AcDbEntity
  8
MAIN0
  6
CONTINUOUS
 62
3
100
AcDbDimension
  2
*D3
 10
420.0891930811884
 20
400.9405978619377
 30
0.0000000000000000
 11
435.5891930811884
 21
401.4405978619377
 31
0.0000000000000000
 70
160
  3
DXF001
100
AcDbAlignedDimension
 13
451.0891930811884
 23
358.1029114164996
 33
0.0000000000000000
 14
420.0891930811884
 24
358.1029114164996
 34
0.0000000000000000
100
AcDbRotatedDimension
1001
ACAD
1000
DSTYLE
1002
{
1070
   173
1070
     1
1070
     6
1000
_OPEN
1070
     7
1000
_OPEN
1070
    41
1040
2.000000
1002
}
  0
LINE
  5
C7
100
AcDbEntity
  8
MAIN0
  6
HIDDEN
 62
3
100
AcDbLine
 10
552.0090746964316
 20
265.0335521178254
 30
0.0000000000000000
 11
551.0892176738020
 21
265.9534091404545
 31
0.0000000000000000
  0
LINE
  5
C8
100
AcDbEntity
  8
MAIN0
  6
HIDDEN
 62
3
100
AcDbLine
 10
551.0892176738017
 20
265.9534091404544
 30
0.0000000000000000
 11
551.0892176737997
 21
272.7534091404544
 31
0.0000000000000000
  0
LINE
  5
C9
100
AcDbEntity
  8
MAIN0
  6
HIDDEN
 62
3
100
AcDbLine
 10
551.0892176737997
 20
272.7534091404546
 30
0.0000000000000000
 11
552.0090746964054
 21
273.6732661630605
 31
0.0000000000000000
  0
LINE
  5
CA
100
AcDbEntity
  8
MAIN0
  6
HIDDEN
 62
3
100
AcDbLine
 10
551.6892176738020
 20
265.3534091404547
 30
0.0000000000000000
 11
540.0892176738021
 21
265.3534091404512
 31
0.0000000000000000
  0
LINE
  5
CB
100
AcDbEntity
  8
MAIN0
  6
HIDDEN
 62
3
100
AcDbLine
 10
540.0892176738018
 20
265.3534091404509
 30
0.0000000000000000
 11
540.0892176737993
 21
273.3534091404509
 31
0.0000000000000000
  0
LINE
  5
CC
100
AcDbEntity
  8
MAIN0
  6
HIDDEN
 62
3
100
AcDbLine
 10
540.0892176737996
 20
273.3534091404511
 30
0.0000000000000000
 11
551.6892176737995
 21
273.3534091404547
 31
0.0000000000000000
  0
LINE
  5
CD
100
AcDbEntity
  8
MAIN0
  6
HIDDEN
 62
3
100
AcDbLine
 10
551.0892176738018
 20
265.9534091404546
 30
0.0000000000000000
 11
535.0892176738017
 21
265.9534091404497
 31
0.0000000000000000
  0
LINE
  5
CE
100
AcDbEntity
  8
MAIN0
  6
HIDDEN
 62
3
100
AcDbLine
 10
535.0892176738018
 20
265.9534091404491
 30
0.0000000000000000
 11
535.0892176737997
 21
272.7534091404490
 31
0.0000000000000000
  0
LINE
  5
CF
100
AcDbEntity
  8
MAIN0
  6
HIDDEN
 62
3
100
AcDbLine
 10
535.0892176737996
 20
272.7534091404496
 30
0.0000000000000000
 11
551.0892176737998
 21
272.7534091404546
 31
0.0000000000000000
  0
LINE
  5
D0
100
AcDbEntity
  8
MAIN0
  6
HIDDEN
 62
3
100
AcDbLine
 10
535.0892176738018
 20
265.9534091404489
 30
0.0000000000000000
 11
533.1262267585560
 21
269.3534091404483
 31
0.0000000000000000
  0
LINE
  5
D1
100
AcDbEntity
  8
MAIN0
  6
HIDDEN
 62
3
100
AcDbLine
 10
533.1262267585560
 20
269.3534091404488
 30
0.0000000000000000
 11
535.0892176737996
 21
272.7534091404494
 31
0.0000000000000000
  0
LINE
  5
D2
100
AcDbEntity
  8
MAIN0
  6
CENTER
 62
3
100
AcDbLine
 10
467.9853423322067
 20
148.4493341656989
 30
0.0000000000000000
 11
459.5299611182077
 21
180.0052464537061
 31
0.0000000000000000
  0
LINE
  5
D3
100
AcDbEntity
  8
MAIN0
  6
HIDDEN
 62
3
100
AcDbLine
 10
472.0423273305214
 20
158.7034249403562
 30
0.0000000000000000
 11
469.3793215134749
 21
167.5293423835937
 31
0.0000000000000000
  0
LINE
  5
D4
100
AcDbEntity
  8
MAIN0
  6
HIDDEN
 62
3
100
AcDbLine
 10
469.3793215134749
 20
167.5293423835937
 30
0.0000000000000000
 11
457.2381168399343
 21
164.2761163961775
 31
0.0000000000000000
  0
LINE
  5
D5
100
AcDbEntity
  8
MAIN0
  6
HIDDEN
 62
3
100
AcDbLine
 10
457.2381168399346
 20
164.2761163961777
 30
0.0000000000000000
 11
459.3448448735652
 21
155.3011447701064
 31
0.0000000000000000
  0
LINE
  5
D6
100
AcDbEntity
  8
MAIN0
  6
HIDDEN
 62
3
100
AcDbLine
 10
471.2285413316179
 20
158.4386362002969
 30
0.0000000000000000
 11
468.5524890061714
 21
167.3077932809861
 31
0.0000000000000000
  0
LINE
  5
D7
100
AcDbEntity
  8
MAIN0
  6
HIDDEN
 62
3
100
AcDbLine
 10
460.1819985918892
 20
155.4787239940308
 30
0.0000000000000000
 11
458.0649493472379
 21
164.4976654987854
 31
0.0000000000000000
  0
LINE
  5
D8
100
AcDbEntity
  8
MAIN0
  6
HIDDEN
 62
3
100
AcDbLine
 10
468.5247186386657
 20
167.3003522334394
 30
0.0000000000000000
 11
467.0753319860916
 21
172.7095368606581
 31
0.0000000000000000
  0
LINE
  5
D9
100
AcDbEntity
  8
MAIN0
  6
HIDDEN
 62
3
100
AcDbLine
 10
456.6433330621696
 20
169.9142911735509
 30
0.0000000000000000
 11
458.0927197147437
 21
164.5051065463322
 31
0.0000000000000000
  0
LINE
  5
DA
100
AcDbEntity
  8
MAIN0
  6
CENTER
 62
3
100
AcDbLine
 10
403.1930438301700
 20
148.4493341656989
 30
0.0000000000000000
 11
411.6484250441689
 21
180.0052464537060
 31
0.0000000000000000
  0
LINE
  5
DB
100
AcDbEntity
  8
MAIN0
  6
HIDDEN
 62
3
100
AcDbLine
 10
399.1390264175659
 20
158.7024473268488
 30
0.0000000000000000
 11
401.7731827443919
 21
167.4327498009648
 31
0.0000000000000000
  0
LINE
  5
DC
100
AcDbEntity
  8
MAIN0
  6
HIDDEN
 62
3
100
AcDbLine
 10
401.7731827443918
 20
167.4327498009649
 30
0.0000000000000000
 11
413.9143874179321
 21
164.1795238135488
 31
0.0000000000000000
  0
LINE
  5
DD
100
AcDbEntity
  8
MAIN0
  6
HIDDEN
 62
3
100
AcDbLine
 10
413.9143874179322
 20
164.1795238135488
 30
0.0000000000000000
 11
411.8304824774450
 21
155.3017819248292
 31
0.0000000000000000
  0
LINE
  5
DE
100
AcDbEntity
  8
MAIN0
  6
HIDDEN
 62
3
100
AcDbLine
 10
399.9528190473451
 20
158.4376805632952
 30
0.0000000000000000
 11
402.6000152516952
 21
167.2112006983573
 31
0.0000000000000000
  0
LINE
  5
DF
100
AcDbEntity
  8
MAIN0
  6
HIDDEN
 62
3
100
AcDbLine
 10
410.9933340048667
 20
155.4793834964034
 30
0.0000000000000000
 11
413.0875549106288
 21
164.4010729161565
 31
0.0000000000000000
  0
LINE
  5
E0
100
AcDbEntity
  8
MAIN0
  6
HIDDEN
 62
3
100
AcDbLine
 10
402.6277856192010
 20
167.2037596508105
 30
0.0000000000000000
 11
404.0771722717751
 21
172.6129442780292
 31
0.0000000000000000
  0
LINE
  5
E1
100
AcDbEntity
  8
MAIN0
  6
HIDDEN
 62
3
100
AcDbLine
 10
414.5091711956970
 20
169.8176985909220
 30
0.0000000000000000
 11
413.0597845431229
 21
164.4085139637033
 31
0.0000000000000000
  0
LEADER
  5
E2
100
AcDbEntity
  8
MAIN0
  6
CONTINUOUS
 62
3
100
AcDbLeader
  3
DXF001
 73
     0
 75
     1
 40
3.000000000000000
 41
12.41399966382988
 76
     3
 10
400.8092086602685
 20
164.5252995487612
 30
0.0000000000000000
 10
382.4599227093190
 20
154.7885917716007
 30
0.0000000000000000
 10
380.5939227069349
 20
154.7885917716007
 30
0.0000000000000000
340
E3
213
0.0000000000000000
223
-0.5000000000000000
233
0.0000000000000000
1001
ACAD
1000
DSTYLE
1002
{
1070
   147
1040
0.0
1070
    77
1070
     1
1070
   173
1070
     1
1070
     6
1000
_OPEN
1070
     7
1000
_OPEN
1002
}
  0
MTEXT
  5
E3
102
{ACAD_REACTORS
330
E2
102
}
100
AcDbEntity
  8
MAIN0
  6
CONTINUOUS
 62
3
100
AcDbMText
 10
368.1799230431050
 20
158.2885917716007
 30
0.0000000000000000
 40
3.000000000000000
 41
0.0000000000000000
 71
     1
 72
     1
  1
{\H0.92x;{2-Rc1/4}}
 11
1.000000000000000
 21
0.0000000000000000
 31
0.0000000000000000
  7
STANDARD
  0
MTEXT
  5
E4
100
AcDbEntity
  8
MAIN0
  6
CONTINUOUS
 62
3
100
AcDbMText
 10
384.5656462290745
 20
154.8282576431639
 30
0.0000000000000000
 40
4.000000000000000
 41
0.0000000000000000
 71
     1
 72
     1
  1
{\H0.92x;{A (開）\P(OPEN)}}
 11
1.000000000000000
 21
0.0000000000000000
 31
0.0000000000000000
  7
KNJYOKO
  0
MTEXT
  5
E5
100
AcDbEntity
  8
MAIN0
  6
CONTINUOUS
 62
3
100
AcDbMText
 10
468.6063159348723
 20
154.7498188076139
 30
0.0000000000000000
 40
4.000000000000000
 41
0.0000000000000000
 71
     1
 72
     1
  1
{\H0.92x;{B (閉）\P(CLOSE)}}
 11
1.000000000000000
 21
0.0000000000000000
 31
0.0000000000000000
  7
KNJYOKO
  0
DIMENSION
  5
EE
100
AcDbEntity
  8
MAIN0
  6
CONTINUOUS
 62
3
100
AcDbDimension
  2
*D4
 10
435.5891930811885
 20
146.8533845474721
 30
0.0000000000000000
 11
418.7955430361031
 21
141.7929727424613
 31
0.0000000000000000
 70
162
  3
DXF001
100
AcDb2LineAngularDimension
 13
403.1930438301703
 23
148.4493341656989
 33
0.0000000000000000
 14
403.4518628752726
 24
149.4152599919880
 34
0.0000000000000000
 15
435.5891930811885
 25
147.8533845474721
 35
0.0000000000000000
 16
418.7302799399935
 26
141.2972503117744
 36
0.0000000000000000
1001
ACAD
1000
DSTYLE
1002
{
1070
   173
1070
     1
1070
     6
1000
_OPEN
1070
     7
1000
_OPEN
1070
    41
1040
2.000000
1002
}
  0
DIMENSION
  5
F7
100
AcDbEntity
  8
MAIN0
  6
CONTINUOUS
 62
3
100
AcDbDimension
  2
*D5
 10
467.9853423322068
 20
148.4493341656989
 30
0.0000000000000000
 11
452.3828431262735
 21
141.7929727424613
 31
0.0000000000000000
 70
162
  3
DXF001
100
AcDb2LineAngularDimension
 13
435.5891930811885
 23
146.8533845474721
 33
0.0000000000000000
 14
435.5891930811885
 24
147.8533845474721
 34
0.0000000000000000
 15
467.7265232871042
 25
149.4152599919880
 35
0.0000000000000000
 16
452.4481062223838
 26
141.2972503117744
 36
0.0000000000000000
1001
ACAD
1000
DSTYLE
1002
{
1070
   173
1070
     1
1070
     6
1000
_OPEN
1070
     7
1000
_OPEN
1070
    41
1040
2.000000
1002
}
  0
MTEXT
  5
F8
100
AcDbEntity
  8
MAIN0
  6
CONTINUOUS
 62
3
100
AcDbMText
 10
418.1522633099484
 20
341.2400094398182
 30
0.0000000000000000
 40
5.000000000000000
 41
0.0000000000000000
 71
     1
 72
     1
  1
{\H0.82x;{3}}
 11
-1.000000000000000
 21
-1.209802949635453e-015
 31
0.0000000000000000
  7
STANDARD
  0
ARC
  5
F9
100
AcDbEntity
  8
MAIN0
  6
CENTER
 62
3
100
AcDbCircle
 10
435.5891930811885
 20
269.3534091400844
 30
0.0000000000000000
 40
69.99999999999999
100
AcDbArc
 50
7.221204105826916
 51
22.77879589373109
  0
MTEXT
  5
FA
100
AcDbEntity
  8
MAIN0
  6
CONTINUOUS
 62
3
100
AcDbMText
 10
206.7054446004283
 20
373.2712821924566
 30
0.0000000000000000
 40
5.000000000000000
 41
0.0000000000000000
 71
     1
 72
     1
  1
{\H0.82x;{C}}
 11
1.000000000000000
 21
0.0000000000000000
 31
0.0000000000000000
  7
STANDARD
  0
LINE
  5
FB
100
AcDbEntity
  8
MAIN0
  6
CONTINUOUS
 62
3
100
AcDbLine
 10
75.16056303381879
 20
59.75420205866922
 30
0.0000000000000000
 11
125.4061314618273
 21
59.75420205866922
 31
0.0000000000000000
  0
MTEXT
  5
FC
100
AcDbEntity
  8
MAIN0
  6
CONTINUOUS
 62
3
100
AcDbMText
 10
75.72547563562398
 20
65.15604553022374
 30
0.0000000000000000
 40
5.000000000000000
 41
0.0000000000000000
 71
     1
 72
     1
  1
{\H0.93x;{  Ｃより見る\PVIEW FROM C}}
 11
1.000000000000000
 21
0.0000000000000000
 31
0.0000000000000000
  7
KNJYOKO
  0
DIMENSION
  5
107
100
AcDbEntity
  8
MAIN0
  6
CONTINUOUS
 62
3
100
AcDbDimension
  2
*D6
 10
268.2359822319552
 20
323.1029114165149
 30
0.0000000000000000
 11
267.7359822319552
 21
323.7798485104323
 31
0.0000000000000000
 70
160
  1
\A1;MAX 9.25
  3
DXF001
100
AcDbAlignedDimension
 13
220.1859822313378
 23
313.8529114164329
 33
0.0000000000000000
 14
257.3141204484321
 24
323.1029114165149
 34
0.0000000000000000
 50
90.00000000000000
100
AcDbRotatedDimension
1001
ACAD
1000
DSTYLE
1002
{
1070
   173
1070
     1
1070
     6
1000
_OPEN
1070
     7
1000
_OPEN
1070
    41
1040
2.000000
1070
   287
1070
     0
1002
}
  0
DIMENSION
  5
110
100
AcDbEntity
  8
MAIN0
  6
CONTINUOUS
 62
3
100
AcDbDimension
  2
*D7
 10
268.2359822319552
 20
313.8529114164329
 30
0.0000000000000000
 11
267.7359822319552
 21
295.9464110952002
 31
0.0000000000000000
 70
160
  1
\A1;MAX 44.5
  3
DXF001
100
AcDbAlignedDimension
 13
220.9120353849265
 23
269.3534091400833
 33
0.0000000000000000
 14
220.1859822313378
 24
313.8529114164329
 34
0.0000000000000000
 50
90.00000000000000
100
AcDbRotatedDimension
1001
ACAD
1000
DSTYLE
1002
{
1070
   173
1070
     1
1070
     6
1000
_OPEN
1070
     7
1000
_OPEN
1070
    41
1040
2.000000
1002
}
  0
DIMENSION
  5
119
100
AcDbEntity
  8
MAIN0
  6
CONTINUOUS
 62
3
100
AcDbDimension
  2
*D8
 10
278.2359822319570
 20
343.1029114165149
 30
0.0000000000000000
 11
277.7359822319570
 21
333.1029114165149
 31
0.0000000000000000
 70
160
  3
DXF001
100
AcDbAlignedDimension
 13
257.3141204484321
 23
323.1029114165149
 33
0.0000000000000000
 14
257.3141204484322
 24
343.1029114165149
 34
0.0000000000000000
 50
90.00000000000000
100
AcDbRotatedDimension
1001
ACAD
1000
DSTYLE
1002
{
1070
   173
1070
     1
1070
     6
1000
_OPEN
1070
     7
1000
_OPEN
1070
    41
1040
2.000000
1002
}
  0
DIMENSION
  5
122
100
AcDbEntity
  8
MAIN0
  6
CONTINUOUS
 62
3
100
AcDbDimension
  2
*D9
 10
278.2359822319570
 20
323.1029114165149
 30
0.0000000000000000
 11
277.7359822319570
 21
304.6029114165149
 31
0.0000000000000000
 70
160
  3
DXF001
100
AcDbAlignedDimension
 13
252.4350203371954
 23
286.1029114165152
 33
0.0000000000000000
 14
257.3141204484321
 24
323.1029114165149
 34
0.0000000000000000
 50
90.00000000000000
100
AcDbRotatedDimension
1001
ACAD
1000
DSTYLE
1002
{
1070
   173
1070
     1
1070
     6
1000
_OPEN
1070
     7
1000
_OPEN
1070
    41
1040
2.000000
1002
}
  0
DIMENSION
  5
12B
100
AcDbEntity
  8
MAIN0
  6
CONTINUOUS
 62
3
100
AcDbDimension
  2
*D10
 10
288.2359822319570
 20
358.1029114165148
 30
0.0000000000000000
 11
287.7359822319570
 21
322.1029114165150
 31
0.0000000000000000
 70
160
  3
DXF001
100
AcDbAlignedDimension
 13
252.4350203371954
 23
286.1029114165152
 33
0.0000000000000000
 14
252.4350203372227
 24
358.1029114165148
 34
0.0000000000000000
 50
90.00000000000000
100
AcDbRotatedDimension
1001
ACAD
1000
DSTYLE
1002
{
1070
   173
1070
     1
1070
     6
1000
_OPEN
1070
     7
1000
_OPEN
1070
    41
1040
2.000000
1002
}
  0
DIMENSION
  5
134
100
AcDbEntity
  8
MAIN0
  6
CONTINUOUS
 62
3
100
AcDbDimension
  2
*D11
 10
216.2359822319554
 20
369.6034091400833
 30
0.0000000000000000
 11
235.9803644594195
 21
370.1034091400833
 31
0.0000000000000000
 70
160
  1
\A1;36
  3
DXF001
100
AcDbAlignedDimension
 13
252.4350203372229
 23
358.1029114165150
 33
0.0000000000000000
 14
216.2359822319554
 24
352.8529114164342
 34
0.0000000000000000
100
AcDbRotatedDimension
1001
ACAD
1000
DSTYLE
1002
{
1070
   173
1070
     1
1070
     6
1000
_OPEN
1070
     7
1000
_OPEN
1070
    41
1040
2.000000
1002
}
  0
LINE
  5
135
100
AcDbEntity
  8
MAIN0
  6
CONTINUOUS
 62
3
100
AcDbLine
 10
194.0359822319534
 20
171.1033845474715
 30
0.0000000000000000
 11
195.0359822319530
 21
172.1033845474709
 31
0.0000000000000000
  0
LINE
  5
136
100
AcDbEntity
  8
MAIN0
  6
CONTINUOUS
 62
3
100
AcDbLine
 10
181.5359822319532
 20
171.1033845474691
 30
0.0000000000000000
 11
174.5295641731956
 21
151.8534091400838
 31
0.0000000000000000
  0
LINE
  5
137
100
AcDbEntity
  8
MAIN0
  6
CONTINUOUS
 62
3
100
AcDbLine
 10
195.0359822319530
 20
172.1033845474714
 30
0.0000000000000000
 11
195.0359822319530
 21
254.9543474719924
 31
0.0000000000000000
  0
LINE
  5
138
100
AcDbEntity
  8
MAIN0
  6
CONTINUOUS
 62
3
100
AcDbLine
 10
113.3359822319525
 20
159.1033845474715
 30
0.0000000000000000
 11
112.7359822319526
 21
159.7033845474714
 31
0.0000000000000000
  0
LINE
  5
139
100
AcDbEntity
  8
MAIN0
  6
CONTINUOUS
 62
3
100
AcDbLine
 10
113.3359822319526
 20
159.1033845474715
 30
0.0000000000000000
 11
128.2359822319527
 21
159.1033845474715
 31
0.0000000000000000
  0
LINE
  5
13A
100
AcDbEntity
  8
MAIN0
  6
CONTINUOUS
 62
3
100
AcDbLine
 10
113.3359822319547
 20
379.6034337326973
 30
0.0000000000000000
 11
112.7359822319548
 21
379.0034337326974
 31
0.0000000000000000
  0
LINE
  5
13B
100
AcDbEntity
  8
MAIN0
  6
CONTINUOUS
 62
3
100
AcDbLine
 10
113.3359822319546
 20
379.6034337326971
 30
0.0000000000000000
 11
128.2359822319548
 21
379.6034337326969
 31
0.0000000000000000
  0
LINE
  5
13C
100
AcDbEntity
  8
MAIN0
  6
CONTINUOUS
 62
3
100
AcDbLine
 10
181.5359822319539
 20
367.6034337326969
 30
0.0000000000000000
 11
194.0359822319540
 21
367.6034337326969
 31
0.0000000000000000
  0
LINE
  5
13D
100
AcDbEntity
  8
MAIN0
  6
CONTINUOUS
 62
3
100
AcDbLine
 10
195.0359822319542
 20
366.6034337326969
 30
0.0000000000000000
 11
195.0359822319542
 21
284.1024650049274
 31
0.0000000000000000
  0
LINE
  5
13E
100
AcDbEntity
  8
MAIN0
  6
CONTINUOUS
 62
3
100
AcDbLine
 10
194.0359822319545
 20
367.6034337326964
 30
0.0000000000000000
 11
195.0359822319543
 21
366.6034337326969
 31
0.0000000000000000
  0
LINE
  5
13F
100
AcDbEntity
  8
MAIN0
  6
CONTINUOUS
 62
3
100
AcDbLine
 10
181.5359822319541
 20
367.6034337326964
 30
0.0000000000000000
 11
174.5295641731958
 21
386.8534091400838
 31
0.0000000000000000
  0
ARC
  5
140
100
AcDbEntity
  8
MAIN0
  6
CONTINUOUS
 62
3
100
AcDbCircle
 10
435.5891930811885
 20
269.3534091400844
 30
0.0000000000000000
 40
98.25002459261232
100
AcDbArc
 50
103.8384841678581
 51
196.1615158321418
  0
ARC
  5
141
100
AcDbEntity
  8
MAIN0
  6
CONTINUOUS
 62
3
100
AcDbCircle
 10
435.5891930811885
 20
269.3534091400844
 30
0.0000000000000000
 40
98.25002459261232
100
AcDbArc
 50
223.8384841678580
 51
316.1615158321417
  0
ARC
  5
142
100
AcDbEntity
  8
MAIN0
  6
CONTINUOUS
 62
3
100
AcDbCircle
 10
435.5891930811885
 20
269.3534091400844
 30
0.0000000000000000
 40
98.25002459261232
100
AcDbArc
 50
343.8384841678579
 51
436.1615158321420
  0
ARC
  5
143
100
AcDbEntity
  8
MAIN0
  6
CONTINUOUS
 62
3
100
AcDbCircle
 10
435.5891930811885
 20
269.3534091400844
 30
0.0000000000000000
 40
85.25002459261016
100
AcDbArc
 50
100.4756786402741
 51
439.5243213597260
  0
ARC
  5
144
100
AcDbEntity
  8
MAIN0
  6
CENTER
 62
3
100
AcDbCircle
 10
435.5891930811885
 20
269.3534091400844
 30
0.0000000000000000
 40
77.50000000000325
100
AcDbArc
 50
233.2131063272831
 51
246.7868936727163
  0
ARC
  5
145
100
AcDbEntity
  8
MAIN0
  6
CONTINUOUS
 62
3
100
AcDbCircle
 10
513.0891930811918
 20
269.3534091400838
 30
0.0000000000000000
 40
7.000000000000000
100
AcDbArc
 50
89.99999999999959
 51
269.9999999999995
  0
LINE
  5
146
100
AcDbEntity
  8
MAIN0
  6
CONTINUOUS
 62
3
100
AcDbLine
 10
520.5513416712554
 20
262.3534091400838
 30
0.0000000000000000
 11
513.0891930811916
 21
262.3534091400838
 31
0.0000000000000000
  0
LINE
  5
147
100
AcDbEntity
  8
MAIN0
  6
CONTINUOUS
 62
3
100
AcDbLine
 10
520.5513416712556
 20
276.3534091400838
 30
0.0000000000000000
 11
513.0891930811918
 21
276.3534091400838
 31
0.0000000000000000
  0
CIRCLE
  5
148
100
AcDbEntity
  8
MAIN0
  6
CONTINUOUS
 62
3
100
AcDbCircle
 10
513.0891930811918
 20
269.3534091400838
 30
0.0000000000000000
 40
6.500000000000000
  0
LINE
  5
149
100
AcDbEntity
  8
MAIN0
  6
CONTINUOUS
 62
3
100
AcDbLine
 10
509.6250914660540
 20
269.3534091400837
 30
0.0000000000000000
 11
511.3571422736227
 21
266.3534091400838
 31
0.0000000000000000
  0
LINE
  5
14A
100
AcDbEntity
  8
MAIN0
  6
CONTINUOUS
 62
3
100
AcDbLine
 10
511.3571422736228
 20
266.3534091400838
 30
0.0000000000000000
 11
514.8212438887606
 21
266.3534091400838
 31
0.0000000000000000
  0
LINE
  5
14B
100
AcDbEntity
  8
MAIN0
  6
CONTINUOUS
 62
3
100
AcDbLine
 10
514.8212438887606
 20
266.3534091400838
 30
0.0000000000000000
 11
516.5532946963294
 21
269.3534091400837
 31
0.0000000000000000
  0
LINE
  5
14C
100
AcDbEntity
  8
MAIN0
  6
CONTINUOUS
 62
3
100
AcDbLine
 10
516.5532946963293
 20
269.3534091400838
 30
0.0000000000000000
 11
514.8212438887605
 21
272.3534091400837
 31
0.0000000000000000
  0
LINE
  5
14D
100
AcDbEntity
  8
MAIN0
  6
CONTINUOUS
 62
3
100
AcDbLine
 10
514.8212438887606
 20
272.3534091400838
 30
0.0000000000000000
 11
511.3571422736229
 21
272.3534091400838
 31
0.0000000000000000
  0
LINE
  5
14E
100
AcDbEntity
  8
MAIN0
  6
CONTINUOUS
 62
3
100
AcDbLine
 10
511.3571422736229
 20
272.3534091400837
 30
0.0000000000000000
 11
509.6250914660541
 21
269.3534091400838
 31
0.0000000000000000
  0
ARC
  5
14F
100
AcDbEntity
  8
MAIN0
  6
CENTER
 62
3
100
AcDbCircle
 10
435.5891930811885
 20
269.3534091400844
 30
0.0000000000000000
 40
77.50000000000325
100
AcDbArc
 50
353.2131063272829
 51
366.7868936727162
  0
ARC
  5
150
100
AcDbEntity
  8
MAIN0
  6
CONTINUOUS
 62
3
100
AcDbCircle
 10
474.3391930811907
 20
336.4703779333809
 30
0.0000000000000000
 40
7.000000000000000
100
AcDbArc
 50
149.9999999999995
 51
329.9999999999994
  0
LINE
  5
151
100
AcDbEntity
  8
MAIN0
  6
CONTINUOUS
 62
3
100
AcDbLine
 10
484.1324452027137
 20
339.4327881791904
 30
0.0000000000000000
 11
480.4013709076818
 21
332.9703779333810
 31
0.0000000000000000
  0
LINE
  5
152
100
AcDbEntity
  8
MAIN0
  6
CONTINUOUS
 62
3
100
AcDbLine
 10
472.0080895497317
 20
346.4327881791904
 30
0.0000000000000000
 11
468.2770152546997
 21
339.9703779333810
 31
0.0000000000000000
  0
CIRCLE
  5
153
100
AcDbEntity
  8
MAIN0
  6
CONTINUOUS
 62
3
100
AcDbCircle
 10
474.3391930811907
 20
336.4703779333809
 30
0.0000000000000000
 40
6.500000000000000
  0
LINE
  5
154
100
AcDbEntity
  8
MAIN0
  6
CONTINUOUS
 62
3
100
AcDbLine
 10
472.6071422736218
 20
333.4703779333809
 30
0.0000000000000000
 11
476.0712438887595
 21
333.4703779333809
 31
0.0000000000000000
  0
LINE
  5
155
100
AcDbEntity
  8
MAIN0
  6
CONTINUOUS
 62
3
100
AcDbLine
 10
476.0712438887595
 20
333.4703779333809
 30
0.0000000000000000
 11
477.8032946963284
 21
336.4703779333810
 31
0.0000000000000000
  0
LINE
  5
156
100
AcDbEntity
  8
MAIN0
  6
CONTINUOUS
 62
3
100
AcDbLine
 10
477.8032946963285
 20
336.4703779333809
 30
0.0000000000000000
 11
476.0712438887596
 21
339.4703779333809
 31
0.0000000000000000
  0
LINE
  5
157
100
AcDbEntity
  8
MAIN0
  6
CONTINUOUS
 62
3
100
AcDbLine
 10
476.0712438887596
 20
339.4703779333809
 30
0.0000000000000000
 11
472.6071422736218
 21
339.4703779333809
 31
0.0000000000000000
  0
LINE
  5
158
100
AcDbEntity
  8
MAIN0
  6
CONTINUOUS
 62
3
100
AcDbLine
 10
472.6071422736218
 20
339.4703779333809
 30
0.0000000000000000
 11
470.8750914660529
 21
336.4703779333809
 31
0.0000000000000000
  0
LINE
  5
159
100
AcDbEntity
  8
MAIN0
  6
CONTINUOUS
 62
3
100
AcDbLine
 10
470.8750914660529
 20
336.4703779333810
 30
0.0000000000000000
 11
472.6071422736218
 21
333.4703779333810
 31
0.0000000000000000
  0
LINE
  5
15A
100
AcDbEntity
  8
MAIN0
  6
CENTER
 62
3
100
AcDbLine
 10
479.4107541362653
 20
345.2545793544574
 30
0.0000000000000000
 11
469.3121524314288
 21
327.7632881162795
 31
0.0000000000000000
  0
ARC
  5
15B
100
AcDbEntity
  8
MAIN0
  6
CENTER
 62
3
100
AcDbCircle
 10
435.5891930811885
 20
269.3534091400844
 30
0.0000000000000000
 40
77.50000000000325
100
AcDbArc
 50
53.21310632728287
 51
66.78689367271609
  0
ARC
  5
15C
100
AcDbEntity
  8
MAIN0
  6
CONTINUOUS
 62
3
100
AcDbCircle
 10
396.8391930811875
 20
336.4703779333817
 30
0.0000000000000000
 40
7.000000000000000
100
AcDbArc
 50
209.9999999999995
 51
389.9999999999993
  0
LINE
  5
15D
100
AcDbEntity
  8
MAIN0
  6
CONTINUOUS
 62
3
100
AcDbLine
 10
399.1702966126467
 20
346.4327881791911
 30
0.0000000000000000
 11
402.9013709076785
 21
339.9703779333814
 31
0.0000000000000000
  0
LINE
  5
15E
100
AcDbEntity
  8
MAIN0
  6
CONTINUOUS
 62
3
100
AcDbLine
 10
387.0459409596646
 20
339.4327881791913
 30
0.0000000000000000
 11
390.7770152546964
 21
332.9703779333818
 31
0.0000000000000000
  0
CIRCLE
  5
15F
100
AcDbEntity
  8
MAIN0
  6
CONTINUOUS
 62
3
100
AcDbCircle
 10
396.8391930811875
 20
336.4703779333817
 30
0.0000000000000000
 40
6.500000000000000
  0
LINE
  5
160
100
AcDbEntity
  8
MAIN0
  6
CONTINUOUS
 62
3
100
AcDbLine
 10
398.5712438887564
 20
333.4703779333817
 30
0.0000000000000000
 11
400.3032946963252
 21
336.4703779333815
 31
0.0000000000000000
  0
LINE
  5
161
100
AcDbEntity
  8
MAIN0
  6
CONTINUOUS
 62
3
100
AcDbLine
 10
400.3032946963253
 20
336.4703779333815
 30
0.0000000000000000
 11
398.5712438887564
 21
339.4703779333817
 31
0.0000000000000000
  0
LINE
  5
162
100
AcDbEntity
  8
MAIN0
  6
CONTINUOUS
 62
3
100
AcDbLine
 10
398.5712438887564
 20
339.4703779333817
 30
0.0000000000000000
 11
395.1071422736187
 21
339.4703779333817
 31
0.0000000000000000
  0
LINE
  5
163
100
AcDbEntity
  8
MAIN0
  6
CONTINUOUS
 62
3
100
AcDbLine
 10
395.1071422736187
 20
339.4703779333817
 30
0.0000000000000000
 11
393.3750914660498
 21
336.4703779333817
 31
0.0000000000000000
  0
LINE
  5
164
100
AcDbEntity
  8
MAIN0
  6
CONTINUOUS
 62
3
100
AcDbLine
 10
393.3750914660499
 20
336.4703779333818
 30
0.0000000000000000
 11
395.1071422736187
 21
333.4703779333817
 31
0.0000000000000000
  0
LINE
  5
165
100
AcDbEntity
  8
MAIN0
  6
CONTINUOUS
 62
3
100
AcDbLine
 10
395.1071422736186
 20
333.4703779333817
 30
0.0000000000000000
 11
398.5712438887563
 21
333.4703779333816
 31
0.0000000000000000
  0
LINE
  5
166
100
AcDbEntity
  8
MAIN0
  6
CENTER
 62
3
100
AcDbLine
 10
391.7676320261131
 20
345.2545793544581
 30
0.0000000000000000
 11
401.8662337309492
 21
327.7632881162800
 31
0.0000000000000000
  0
ARC
  5
167
100
AcDbEntity
  8
MAIN0
  6
CENTER
 62
3
100
AcDbCircle
 10
435.5891930811885
 20
269.3534091400844
 30
0.0000000000000000
 40
77.50000000000325
100
AcDbArc
 50
113.2131063272828
 51
126.7868936727160
  0
ARC
  5
168
100
AcDbEntity
  8
MAIN0
  6
CONTINUOUS
 62
3
100
AcDbCircle
 10
358.0891930811852
 20
269.3534091400853
 30
0.0000000000000000
 40
7.000000000000000
100
AcDbArc
 50
269.9999999999994
 51
449.9999999999993
  0
LINE
  5
169
100
AcDbEntity
  8
MAIN0
  6
CONTINUOUS
 62
3
100
AcDbLine
 10
350.6270444911215
 20
276.3534091400853
 30
0.0000000000000000
 11
358.0891930811853
 21
276.3534091400853
 31
0.0000000000000000
  0
LINE
  5
16A
100
AcDbEntity
  8
MAIN0
  6
CONTINUOUS
 62
3
100
AcDbLine
 10
350.6270444911213
 20
262.3534091400853
 30
0.0000000000000000
 11
358.0891930811852
 21
262.3534091400853
 31
0.0000000000000000
  0
CIRCLE
  5
16B
100
AcDbEntity
  8
MAIN0
  6
CONTINUOUS
 62
3
100
AcDbCircle
 10
358.0891930811852
 20
269.3534091400853
 30
0.0000000000000000
 40
6.500000000000000
  0
LINE
  5
16C
100
AcDbEntity
  8
MAIN0
  6
CONTINUOUS
 62
3
100
AcDbLine
 10
361.5532946963231
 20
269.3534091400853
 30
0.0000000000000000
 11
359.8212438887542
 21
272.3534091400853
 31
0.0000000000000000
  0
LINE
  5
16D
100
AcDbEntity
  8
MAIN0
  6
CONTINUOUS
 62
3
100
AcDbLine
 10
359.8212438887541
 20
272.3534091400853
 30
0.0000000000000000
 11
356.3571422736164
 21
272.3534091400853
 31
0.0000000000000000
  0
LINE
  5
16E
100
AcDbEntity
  8
MAIN0
  6
CONTINUOUS
 62
3
100
AcDbLine
 10
356.3571422736163
 20
272.3534091400854
 30
0.0000000000000000
 11
354.6250914660474
 21
269.3534091400853
 31
0.0000000000000000
  0
LINE
  5
16F
100
AcDbEntity
  8
MAIN0
  6
CONTINUOUS
 62
3
100
AcDbLine
 10
354.6250914660474
 20
269.3534091400853
 30
0.0000000000000000
 11
356.3571422736163
 21
266.3534091400853
 31
0.0000000000000000
  0
LINE
  5
170
100
AcDbEntity
  8
MAIN0
  6
CONTINUOUS
 62
3
100
AcDbLine
 10
356.3571422736163
 20
266.3534091400853
 30
0.0000000000000000
 11
359.8212438887541
 21
266.3534091400853
 31
0.0000000000000000
  0
LINE
  5
171
100
AcDbEntity
  8
MAIN0
  6
CONTINUOUS
 62
3
100
AcDbLine
 10
359.8212438887541
 20
266.3534091400852
 30
0.0000000000000000
 11
361.5532946963231
 21
269.3534091400853
 31
0.0000000000000000
  0
ARC
  5
172
100
AcDbEntity
  8
MAIN0
  6
CENTER
 62
3
100
AcDbCircle
 10
435.5891930811885
 20
269.3534091400844
 30
0.0000000000000000
 40
77.50000000000325
100
AcDbArc
 50
173.2131063272828
 51
186.7868936727159
  0
ARC
  5
173
100
AcDbEntity
  8
MAIN0
  6
CONTINUOUS
 62
3
100
AcDbCircle
 10
474.3391930811892
 20
202.2364403467871
 30
0.0000000000000000
 40
7.000000000000000
100
AcDbArc
 50
29.99999999999926
 51
209.9999999999993
  0
LINE
  5
174
100
AcDbEntity
  8
MAIN0
  6
CONTINUOUS
 62
3
100
AcDbLine
 10
472.0080895497299
 20
192.2740301009777
 30
0.0000000000000000
 11
468.2770152546981
 21
198.7364403467872
 31
0.0000000000000000
  0
LINE
  5
175
100
AcDbEntity
  8
MAIN0
  6
CONTINUOUS
 62
3
100
AcDbLine
 10
484.1324452027122
 20
199.2740301009775
 30
0.0000000000000000
 11
480.4013709076804
 21
205.7364403467871
 31
0.0000000000000000
  0
CIRCLE
  5
176
100
AcDbEntity
  8
MAIN0
  6
CONTINUOUS
 62
3
100
AcDbCircle
 10
474.3391930811892
 20
202.2364403467871
 30
0.0000000000000000
 40
6.500000000000000
  0
LINE
  5
177
100
AcDbEntity
  8
MAIN0
  6
CONTINUOUS
 62
3
100
AcDbLine
 10
472.6071422736203
 20
205.2364403467871
 30
0.0000000000000000
 11
470.8750914660515
 21
202.2364403467872
 31
0.0000000000000000
  0
LINE
  5
178
100
AcDbEntity
  8
MAIN0
  6
CONTINUOUS
 62
3
100
AcDbLine
 10
470.8750914660515
 20
202.2364403467872
 30
0.0000000000000000
 11
472.6071422736202
 21
199.2364403467872
 31
0.0000000000000000
  0
LINE
  5
179
100
AcDbEntity
  8
MAIN0
  6
CONTINUOUS
 62
3
100
AcDbLine
 10
472.6071422736203
 20
199.2364403467871
 30
0.0000000000000000
 11
476.0712438887580
 21
199.2364403467871
 31
0.0000000000000000
  0
LINE
  5
17A
100
AcDbEntity
  8
MAIN0
  6
CONTINUOUS
 62
3
100
AcDbLine
 10
476.0712438887580
 20
199.2364403467871
 30
0.0000000000000000
 11
477.8032946963268
 21
202.2364403467871
 31
0.0000000000000000
  0
LINE
  5
17B
100
AcDbEntity
  8
MAIN0
  6
CONTINUOUS
 62
3
100
AcDbLine
 10
477.8032946963269
 20
202.2364403467871
 30
0.0000000000000000
 11
476.0712438887581
 21
205.2364403467871
 31
0.0000000000000000
  0
LINE
  5
17C
100
AcDbEntity
  8
MAIN0
  6
CONTINUOUS
 62
3
100
AcDbLine
 10
476.0712438887581
 20
205.2364403467871
 30
0.0000000000000000
 11
472.6071422736204
 21
205.2364403467871
 31
0.0000000000000000
  0
LINE
  5
17D
100
AcDbEntity
  8
MAIN0
  6
CENTER
 62
3
100
AcDbLine
 10
479.4107541362635
 20
193.4522389257105
 30
0.0000000000000000
 11
469.3121524314274
 21
210.9435301638887
 31
0.0000000000000000
  0
ARC
  5
17E
100
AcDbEntity
  8
MAIN0
  6
CENTER
 62
3
100
AcDbCircle
 10
435.5891930811885
 20
269.3534091400844
 30
0.0000000000000000
 40
77.50000000000325
100
AcDbArc
 50
293.2131063272826
 51
306.7868936727160
  0
LINE
  5
17F
100
AcDbEntity
  8
MAIN0
  6
CENTER
 62
3
100
AcDbLine
 10
313.0891684885762
 20
269.3534091400844
 30
0.0000000000000000
 11
558.0892176738008
 21
269.3534091400844
 31
0.0000000000000000
  0
ARC
  5
180
100
AcDbEntity
  8
MAIN0
  6
CENTER
 62
3
100
AcDbCircle
 10
435.5891930811885
 20
269.3534091400844
 30
0.0000000000000000
 40
63.50002459261015
100
AcDbArc
 50
241.4825346339954
 51
298.2599985262617
  0
ARC
  5
181
100
AcDbEntity
  8
MAIN0
  6
CONTINUOUS
 62
3
100
AcDbCircle
 10
435.5891930811885
 20
269.3534091400844
 30
0.0000000000000000
 40
100.9975020121783
100
AcDbArc
 50
76.54515154192049
 51
103.4548484580795
  0
LINE
  5
182
100
AcDbEntity
  8
MAIN0
  6
CONTINUOUS
 62
3
100
AcDbLine
 10
362.2734299356961
 20
199.8890709002793
 30
0.0000000000000000
 11
376.3709782256597
 21
208.0282942004036
 31
0.0000000000000000
  0
ARC
  5
183
100
AcDbEntity
  8
MAIN0
  6
CONTINUOUS
 62
3
100
AcDbCircle
 10
435.5891930811885
 20
269.3534091400844
 30
0.0000000000000000
 40
100.9975020121783
100
AcDbArc
 50
196.5451515419204
 51
223.4548484580794
  0
LINE
  5
184
100
AcDbEntity
  8
MAIN0
  6
CONTINUOUS
 62
3
100
AcDbLine
 10
338.7734299356963
 20
240.5922648781481
 30
0.0000000000000000
 11
352.8709782256598
 21
248.7314881782722
 31
0.0000000000000000
  0
LINE
  5
185
100
AcDbEntity
  8
MAIN0
  6
CONTINUOUS
 62
3
100
AcDbLine
 10
532.4049562266805
 20
240.5922648781476
 30
0.0000000000000000
 11
518.3074079367170
 21
248.7314881782718
 31
0.0000000000000000
  0
ARC
  5
186
100
AcDbEntity
  8
MAIN0
  6
CONTINUOUS
 62
3
100
AcDbCircle
 10
435.5891930811885
 20
269.3534091400844
 30
0.0000000000000000
 40
100.9975020121783
100
AcDbArc
 50
316.5451515419202
 51
343.4548484580793
  0
LINE
  5
187
100
AcDbEntity
  8
MAIN0
  6
CONTINUOUS
 62
3
100
AcDbLine
 10
508.9049562266803
 20
199.8890709002790
 30
0.0000000000000000
 11
494.8074079367169
 21
208.0282942004032
 31
0.0000000000000000
  0
LINE
  5
188
100
AcDbEntity
  8
MAIN0
  6
CONTINUOUS
 62
3
100
AcDbLine
 10
438.5891930811885
 20
160.8533845475254
 30
0.0000000000000000
 11
432.5891930811885
 21
160.8533845475230
 31
0.0000000000000000
  0
LINE
  5
189
100
AcDbEntity
  8
MAIN0
  6
CONTINUOUS
 62
3
100
AcDbLine
 10
432.5891930811885
 20
151.8917132558516
 30
0.0000000000000000
 11
432.5891930811885
 21
160.8533845475230
 31
0.0000000000000000
  0
LINE
  5
18A
100
AcDbEntity
  8
MAIN0
  6
CONTINUOUS
 62
3
100
AcDbLine
 10
438.5891930811885
 20
151.8917132558516
 30
0.0000000000000000
 11
438.5891930811885
 21
160.8533845475254
 31
0.0000000000000000
  0
LINE
  5
18B
100
AcDbEntity
  8
MAIN0
  6
CONTINUOUS
 62
3
100
AcDbLine
 10
129.9106580950850
 20
385.8534091400841
 30
0.0000000000000000
 11
134.9359822319545
 21
385.8534091400841
 31
0.0000000000000000
  0
LINE
  5
18C
100
AcDbEntity
  8
MAIN0
  6
CONTINUOUS
 62
3
100
AcDbLine
 10
134.9359822316256
 20
283.4306270948950
 30
0.0000000000000000
 11
134.9359822319594
 21
385.8534091400844
 31
0.0000000000000000
  0
LINE
  5
18D
100
AcDbEntity
  8
MAIN0
  6
CONTINUOUS
 62
3
100
AcDbLine
 10
166.5359822319545
 20
386.8534091400838
 30
0.0000000000000000
 11
174.5295641731958
 21
386.8534091400837
 31
0.0000000000000000
  0
LINE
  5
18E
100
AcDbEntity
  8
MAIN0
  6
CONTINUOUS
 62
3
100
AcDbLine
 10
129.9106580950827
 20
152.8534091400842
 30
0.0000000000000000
 11
134.9359822319524
 21
152.8534091400841
 31
0.0000000000000000
  0
LINE
  5
18F
100
AcDbEntity
  8
MAIN0
  6
CONTINUOUS
 62
3
100
AcDbLine
 10
134.9359822316283
 20
254.9511718502946
 30
0.0000000000000000
 11
134.9359822319572
 21
152.8534091400838
 31
0.0000000000000000
  0
LINE
  5
190
100
AcDbEntity
  8
MAIN0
  6
CONTINUOUS
 62
3
100
AcDbLine
 10
134.9359822319524
 20
154.3534091400841
 30
0.0000000000000000
 11
135.9359822319634
 21
154.3534091400841
 31
0.0000000000000000
  0
LINE
  5
191
100
AcDbEntity
  8
MAIN0
  6
CONTINUOUS
 62
3
100
AcDbLine
 10
166.5359822319523
 20
151.8534091400838
 30
0.0000000000000000
 11
166.5359822319523
 21
152.8533845474709
 31
0.0000000000000000
  0
LINE
  5
192
100
AcDbEntity
  8
MAIN0
  6
CONTINUOUS
 62
3
100
AcDbLine
 10
166.5359822319523
 20
151.8534091400838
 30
0.0000000000000000
 11
174.5295641731956
 21
151.8534091400838
 31
0.0000000000000000
  0
DIMENSION
  5
19B
100
AcDbEntity
  8
MAIN0
  6
CONTINUOUS
 62
3
100
AcDbDimension
  2
*D12
 10
75.53341511336311
 20
379.6034337326972
 30
0.0000000000000000
 11
75.03341511336311
 21
269.3534091400843
 31
0.0000000000000000
 70
160
  1
\A1;\U+2205220.5
  3
DXF001
100
AcDbAlignedDimension
 13
113.3359822319526
 23
159.1033845474715
 33
0.0000000000000000
 14
113.3359822319546
 24
379.6034337326972
 34
0.0000000000000000
 50
90.00000000000000
100
AcDbRotatedDimension
1001
ACAD
1000
DSTYLE
1002
{
1070
   173
1070
     1
1070
     6
1000
_OPEN
1070
     7
1000
_OPEN
1070
    41
1040
2.000000
1002
}
  0
DIMENSION
  5
1A4
100
AcDbEntity
  8
MAIN0
  6
CONTINUOUS
 62
3
100
AcDbDimension
  2
*D13
 10
65.70196053758309
 20
386.8534091400838
 30
0.0000000000000000
 11
65.20196053758309
 21
269.3534091400838
 31
0.0000000000000000
 70
160
  1
\A1;\U+2205235
  3
DXF001
100
AcDbAlignedDimension
 13
166.5359822319524
 23
151.8534091400838
 33
0.0000000000000000
 14
166.5359822319545
 24
386.8534091400838
 34
0.0000000000000000
 50
90.00000000000000
100
AcDbRotatedDimension
1001
ACAD
1000
DSTYLE
1002
{
1070
   173
1070
     1
1070
     6
1000
_OPEN
1070
     7
1000
_OPEN
1070
    41
1040
2.000000
1002
}
  0
CIRCLE
  5
1A5
100
AcDbEntity
  8
MAIN0
  6
CONTINUOUS
 62
3
100
AcDbCircle
 10
435.5891930811885
 20
269.3534091400844
 30
0.0000000000000000
 40
117.5000000000000
  0
CIRCLE
  5
1A6
100
AcDbEntity
  8
MAIN0
  6
HIDDEN
 62
3
100
AcDbCircle
 10
435.5891930811885
 20
269.3534091400844
 30
0.0000000000000000
 40
116.5000000000000
  0
LINE
  5
1A7
100
AcDbEntity
  8
MAIN0
  6
CONTINUOUS
 62
3
100
AcDbLine
 10
129.9106580950826
 20
152.8534091400845
 30
0.0000000000000000
 11
128.2359822319527
 21
159.1033845474719
 31
0.0000000000000000
  0
LINE
  5
1A8
100
AcDbEntity
  8
MAIN0
  6
CONTINUOUS
 62
3
100
AcDbLine
 10
129.9106580950849
 20
385.8534091400837
 30
0.0000000000000000
 11
128.2359822319549
 21
379.6034337326963
 31
0.0000000000000000
  0
SPLINE
  5
1A9
100
AcDbEntity
  8
MAIN0
  6
CONTINUOUS
 62
3
100
AcDbSpline
210
0.0000000000000000
220
0.0000000000000000
230
1.000000000000000
 70
     8
 71
     3
 72
    14
 73
    10
 74
     0
 42
1.000000000000000e-007
 43
1.000000000000000e-007
 12
1.175370071708059
 22
0.1150590827260203
 32
0.0000000000000000
 13
0.9779422772586699
 23
-0.2549678735125696
 33
0.0000000000000000
 40
0.0000000000000000
 40
0.0000000000000000
 40
0.0000000000000000
 40
0.0000000000000000
 40
10.21694800818932
 40
25.90502627900560
 40
52.66097753544202
 40
68.65254871828427
 40
90.77056447978090
 40
118.9556792555352
 40
143.8148178552366
 40
143.8148178552366
 40
143.8148178552366
 40
143.8148178552366
 10
112.2359822319531
 20
207.1788604621193
 30
0.0000000000000000
 10
116.2388805362941
 20
207.5707113508132
 30
0.0000000000000000
 10
126.3882114013454
 20
208.5642475380317
 30
0.0000000000000000
 10
118.9720286628196
 20
230.0868756659096
 30
0.0000000000000000
 10
119.8201872035496
 20
253.5386191016329
 30
0.0000000000000000
 10
144.4814149133455
 20
256.3597963872870
 30
0.0000000000000000
 10
165.4397508412289
 20
251.2449052090878
 30
0.0000000000000000
 10
190.9409753805010
 20
257.3304092405707
 30
0.0000000000000000
 10
208.2323813609941
 20
252.8222157455033
 30
0.0000000000000000
 10
216.3359822319544
 20
250.7094551767966
 30
0.0000000000000000
  0
SPLINE
  5
1AA
100
AcDbEntity
  8
MAIN0
  6
CONTINUOUS
 62
3
100
AcDbSpline
210
0.0000000000000000
220
0.0000000000000000
230
1.000000000000000
 70
     8
 71
     3
 72
    14
 73
    10
 74
     0
 42
1.000000000000000e-007
 43
1.000000000000000e-007
 12
1.180361316618932
 22
-0.1549004370532714
 32
0.0000000000000000
 13
0.9960016809711050
 23
0.09656344681459927
 33
0.0000000000000000
 40
0.0000000000000000
 40
0.0000000000000000
 40
0.0000000000000000
 40
0.0000000000000000
 40
11.63778085510972
 40
33.28112810930790
 40
52.49937734519942
 40
68.15568156807936
 40
93.95950167555614
 40
118.1509404716432
 40
143.8783438321261
 40
143.8783438321261
 40
143.8783438321261
 40
143.8783438321261
 10
112.2359822319543
 20
329.9599322763422
 30
0.0000000000000000
 10
116.8149110095076
 20
329.3590331627466
 30
0.0000000000000000
 10
129.9094964073959
 20
327.6406127328273
 30
0.0000000000000000
 10
117.3821785652278
 20
305.8085973120560
 30
0.0000000000000000
 10
122.1303246567881
 20
284.4083041424019
 30
0.0000000000000000
 10
144.9692754869071
 20
282.1567497835035
 30
0.0000000000000000
 10
165.6971613450179
 20
287.1081942738977
 30
0.0000000000000000
 10
191.2213863339088
 20
283.0824199985561
 30
0.0000000000000000
 10
207.7944699006005
 20
284.6891984850998
 30
0.0000000000000000
 10
216.3359822319547
 20
285.5173074004590
 30
0.0000000000000000
  0
LINE
  5
1AB
100
AcDbEntity
  8
MAIN0
  6
CONTINUOUS
 62
3
100
AcDbLine
 10
216.2359822319547
 20
221.3534091400834
 30
0.0000000000000000
 11
216.3339533277267
 21
221.3534091400834
 31
0.0000000000000000
  0
LINE
  5
1AC
100
AcDbEntity
  8
MAIN0
  6
CONTINUOUS
 62
3
100
AcDbLine
 10
181.5359822319540
 20
171.1033845474714
 30
0.0000000000000000
 11
181.5359822322155
 21
254.5830373180018
 31
0.0000000000000000
  0
LINE
  5
1AD
100
AcDbEntity
  8
MAIN0
  6
CONTINUOUS
 62
3
100
AcDbLine
 10
134.9359822319545
 20
384.3534091400841
 30
0.0000000000000000
 11
135.9359822319656
 21
384.3534091400841
 31
0.0000000000000000
  0
DIMENSION
  5
1B6
100
AcDbEntity
  8
MAIN0
  6
CONTINUOUS
 62
3
100
AcDbDimension
  2
*D14
 10
112.2359822319546
 20
402.5340434323717
 30
0.0000000000000000
 11
164.2359822319541
 21
403.0340434323717
 31
0.0000000000000000
 70
160
  3
DXF001
100
AcDbAlignedDimension
 13
216.2359822319554
 23
352.8529114164342
 33
0.0000000000000000
 14
112.2359822319546
 24
360.6034337326979
 34
0.0000000000000000
100
AcDbRotatedDimension
1001
ACAD
1000
DSTYLE
1002
{
1070
   173
1070
     1
1070
     6
1000
_OPEN
1070
     7
1000
_OPEN
1070
    41
1040
2.000000
1002
}
  0
LINE
  5
1B7
100
AcDbEntity
  8
MAIN0
  6
CONTINUOUS
 62
3
100
AcDbLine
 10
174.5295641731956
 20
151.8534091400838
 30
0.0000000000000000
 11
174.5295641823738
 21
253.8314680896465
 31
0.0000000000000000
  0
LINE
  5
1B8
100
AcDbEntity
  8
MAIN0
  6
CONTINUOUS
 62
3
100
AcDbLine
 10
174.5295641731958
 20
386.8534091400837
 30
0.0000000000000000
 11
174.5295642343200
 21
285.3234639526632
 31
0.0000000000000000
  0
LINE
  5
1B9
100
AcDbEntity
  8
MAIN0
  6
CONTINUOUS
 62
3
100
AcDbLine
 10
128.2359822319527
 20
159.1033845474715
 30
0.0000000000000000
 11
128.2359824570092
 21
253.1211679801561
 31
0.0000000000000000
  0
LINE
  5
1BA
100
AcDbEntity
  8
MAIN0
  6
CONTINUOUS
 62
3
100
AcDbLine
 10
128.2359822319549
 20
379.6034337326964
 30
0.0000000000000000
 11
128.2359822708207
 21
285.0809698876605
 31
0.0000000000000000
  0
LINE
  5
1BB
100
AcDbEntity
  8
MAIN0
  6
CONTINUOUS
 62
3
100
AcDbLine
 10
181.5359822319540
 20
171.1033845474714
 30
0.0000000000000000
 11
194.0359822319531
 21
171.1033845474714
 31
0.0000000000000000
  0
DIMENSION
  5
1C4
100
AcDbEntity
  8
MAIN0
  6
CONTINUOUS
 62
3
100
AcDbDimension
  2
*D15
 10
112.2359822319528
 20
140.5991765203397
 30
0.0000000000000000
 11
131.7359822319535
 21
141.0991765203397
 31
0.0000000000000000
 70
160
  3
DXF001
100
AcDbAlignedDimension
 13
151.2359822319542
 23
148.0724339116522
 33
0.0000000000000000
 14
112.2359822319528
 24
178.1033845474706
 34
0.0000000000000000
100
AcDbRotatedDimension
1001
ACAD
1000
DSTYLE
1002
{
1070
   173
1070
     1
1070
     6
1000
_OPEN
1070
     7
1000
_OPEN
1070
    41
1040
2.000000
1002
}
  0
DIMENSION
  5
1CD
100
AcDbEntity
  8
MAIN0
  6
CONTINUOUS
 62
3
100
AcDbDimension
  2
*D16
 10
112.2359822319546
 20
394.0403883222003
 30
0.0000000000000000
 11
131.7359822319541
 21
394.5403883222003
 31
0.0000000000000000
 70
160
  3
DXF001
100
AcDbAlignedDimension
 13
151.2359822319554
 23
387.6057363620836
 33
0.0000000000000000
 14
112.2359822319546
 24
360.6034337326979
 34
0.0000000000000000
100
AcDbRotatedDimension
1001
ACAD
1000
DSTYLE
1002
{
1070
   173
1070
     1
1070
     6
1000
_OPEN
1070
     7
1000
_OPEN
1070
    41
1040
2.000000
1002
}
  0
LINE
  5
1CE
100
AcDbEntity
  8
MAIN0
  6
CONTINUOUS
 62
3
100
AcDbLine
 10
181.5359822319541
 20
367.6034337326964
 30
0.0000000000000000
 11
181.5359822362942
 21
284.7752817402162
 31
0.0000000000000000
  0
MTEXT
  5
1CF
100
AcDbEntity
  8
MAIN0
  6
CONTINUOUS
 62
3
100
AcDbMText
 10
486.7862397447597
 20
296.0304615756151
 30
0.0000000000000000
 40
5.000000000000000
 41
0.0000000000000000
 71
     1
 72
     1
  1
{\H0.93x;{KITAGAWA}}
 11
-0.7071067811862972
 21
0.7071067811867978
 31
0.0000000000000000
  7
STANDARD
  0
MTEXT
  5
1D0
100
AcDbEntity
  8
MAIN0
  6
CONTINUOUS
 62
3
100
AcDbMText
 10
484.5956333753487
 20
308.9957504769046
 30
0.0000000000000000
 40
3.099999904632568
 41
0.0000000000000000
 71
     1
 72
     1
  1
{\H0.92x;{NRC06}}
 11
-0.7071067811862957
 21
0.7071067811867995
 31
0.0000000000000000
  7
STANDARD
  0
LINE
  5
1D1
100
AcDbEntity
  8
MAIN0
  6
HIDDEN
 62
3
100
AcDbLine
 10
439.9090501034477
 20
385.7732907553276
 30
0.0000000000000000
 11
438.9891930808186
 21
384.8534337326978
 31
0.0000000000000000
  0
LINE
  5
1D2
100
AcDbEntity
  8
MAIN0
  6
HIDDEN
 62
3
100
AcDbLine
 10
438.9891930808186
 20
384.8534337326977
 30
0.0000000000000000
 11
432.1891930808187
 21
384.8534337326956
 31
0.0000000000000000
  0
LINE
  5
1D3
100
AcDbEntity
  8
MAIN0
  6
HIDDEN
 62
3
100
AcDbLine
 10
432.1891930808185
 20
384.8534337326956
 30
0.0000000000000000
 11
431.2693360582125
 21
385.7732907553011
 31
0.0000000000000000
  0
LINE
  5
1D4
100
AcDbEntity
  8
MAIN0
  6
HIDDEN
 62
3
100
AcDbLine
 10
439.5891930808184
 20
385.4534337326979
 30
0.0000000000000000
 11
439.5891930808219
 21
373.8534337326980
 31
0.0000000000000000
  0
LINE
  5
1D5
100
AcDbEntity
  8
MAIN0
  6
HIDDEN
 62
3
100
AcDbLine
 10
439.5891930808222
 20
373.8534337326978
 30
0.0000000000000000
 11
431.5891930808221
 21
373.8534337326953
 31
0.0000000000000000
  0
LINE
  5
1D6
100
AcDbEntity
  8
MAIN0
  6
HIDDEN
 62
3
100
AcDbLine
 10
431.5891930808219
 20
373.8534337326956
 30
0.0000000000000000
 11
431.5891930808184
 21
385.4534337326955
 31
0.0000000000000000
  0
LINE
  5
1D7
100
AcDbEntity
  8
MAIN0
  6
HIDDEN
 62
3
100
AcDbLine
 10
438.9891930808184
 20
384.8534337326979
 30
0.0000000000000000
 11
438.9891930808234
 21
368.8534337326977
 31
0.0000000000000000
  0
LINE
  5
1D8
100
AcDbEntity
  8
MAIN0
  6
HIDDEN
 62
3
100
AcDbLine
 10
438.9891930808240
 20
368.8534337326977
 30
0.0000000000000000
 11
432.1891930808240
 21
368.8534337326956
 31
0.0000000000000000
  0
LINE
  5
1D9
100
AcDbEntity
  8
MAIN0
  6
HIDDEN
 62
3
100
AcDbLine
 10
432.1891930808234
 20
368.8534337326955
 30
0.0000000000000000
 11
432.1891930808185
 21
384.8534337326958
 31
0.0000000000000000
  0
LINE
  5
1DA
100
AcDbEntity
  8
MAIN0
  6
HIDDEN
 62
3
100
AcDbLine
 10
438.9891930808241
 20
368.8534337326977
 30
0.0000000000000000
 11
435.5891930808247
 21
366.8904428174520
 31
0.0000000000000000
  0
LINE
  5
1DB
100
AcDbEntity
  8
MAIN0
  6
HIDDEN
 62
3
100
AcDbLine
 10
435.5891930808242
 20
366.8904428174519
 30
0.0000000000000000
 11
432.1891930808237
 21
368.8534337326956
 31
0.0000000000000000
  0
LINE
  5
1DC
100
AcDbEntity
  8
MAIN0
  6
HIDDEN
 62
3
100
AcDbLine
 10
431.2693360589295
 20
152.9335275248412
 30
0.0000000000000000
 11
432.1891930815585
 21
153.8533845474709
 31
0.0000000000000000
  0
LINE
  5
1DD
100
AcDbEntity
  8
MAIN0
  6
HIDDEN
 62
3
100
AcDbLine
 10
432.1891930815586
 20
153.8533845474711
 30
0.0000000000000000
 11
438.9891930815585
 21
153.8533845474732
 31
0.0000000000000000
  0
LINE
  5
1DE
100
AcDbEntity
  8
MAIN0
  6
HIDDEN
 62
3
100
AcDbLine
 10
438.9891930815587
 20
153.8533845474733
 30
0.0000000000000000
 11
439.9090501041647
 21
152.9335275248678
 31
0.0000000000000000
  0
LINE
  5
1DF
100
AcDbEntity
  8
MAIN0
  6
HIDDEN
 62
3
100
AcDbLine
 10
431.5891930815589
 20
153.2533845474709
 30
0.0000000000000000
 11
431.5891930815553
 21
164.8533845474708
 31
0.0000000000000000
  0
LINE
  5
1E0
100
AcDbEntity
  8
MAIN0
  6
HIDDEN
 62
3
100
AcDbLine
 10
431.5891930815551
 20
164.8533845474710
 30
0.0000000000000000
 11
439.5891930815551
 21
164.8533845474735
 31
0.0000000000000000
  0
LINE
  5
1E1
100
AcDbEntity
  8
MAIN0
  6
HIDDEN
 62
3
100
AcDbLine
 10
439.5891930815553
 20
164.8533845474733
 30
0.0000000000000000
 11
439.5891930815589
 21
153.2533845474734
 31
0.0000000000000000
  0
LINE
  5
1E2
100
AcDbEntity
  8
MAIN0
  6
HIDDEN
 62
3
100
AcDbLine
 10
432.1891930815588
 20
153.8533845474710
 30
0.0000000000000000
 11
432.1891930815538
 21
169.8533845474711
 31
0.0000000000000000
  0
LINE
  5
1E3
100
AcDbEntity
  8
MAIN0
  6
HIDDEN
 62
3
100
AcDbLine
 10
432.1891930815532
 20
169.8533845474711
 30
0.0000000000000000
 11
438.9891930815532
 21
169.8533845474732
 31
0.0000000000000000
  0
LINE
  5
1E4
100
AcDbEntity
  8
MAIN0
  6
HIDDEN
 62
3
100
AcDbLine
 10
438.9891930815538
 20
169.8533845474733
 30
0.0000000000000000
 11
438.9891930815587
 21
153.8533845474731
 31
0.0000000000000000
  0
LINE
  5
1E5
100
AcDbEntity
  8
MAIN0
  6
HIDDEN
 62
3
100
AcDbLine
 10
432.1891930815531
 20
169.8533845474710
 30
0.0000000000000000
 11
435.5891930815524
 21
171.8163754627169
 31
0.0000000000000000
  0
LINE
  5
1E6
100
AcDbEntity
  8
MAIN0
  6
HIDDEN
 62
3
100
AcDbLine
 10
435.5891930815528
 20
171.8163754627169
 30
0.0000000000000000
 11
438.9891930815535
 21
169.8533845474732
 31
0.0000000000000000
  0
MTEXT
  5
1E7
100
AcDbEntity
  8
MAIN0
  6
CONTINUOUS
 62
3
100
AcDbMText
 10
489.1421169041886
 20
312.8829279829515
 30
0.0000000000000000
 40
3.099999904632568
 41
0.0000000000000000
 71
     1
 72
     1
  1
{\H0.92x;{JAPAN}}
 11
-0.7071067811865456
 21
0.7071067811865495
 31
0.0000000000000000
  7
STANDARD
  0
LINE
  5
1E8
100
AcDbEntity
  8
MAIN0
  6
CONTINUOUS
 62
3
100
AcDbLine
 10
469.7999069397205
 20
269.8091037062038
 30
0.0000000000000000
 11
482.7902879964871
 21
262.3091037062038
 31
0.0000000000000000
  0
LINE
  5
1E9
100
AcDbEntity
  8
MAIN0
  6
CONTINUOUS
 62
3
100
AcDbLine
 10
474.0841990832444
 20
254.2297153732488
 30
0.0000000000000000
 11
477.1152879964900
 21
252.4797153732488
 31
0.0000000000000000
  0
LINE
  5
1EA
100
AcDbEntity
  8
MAIN0
  6
CONTINUOUS
 62
3
100
AcDbLine
 10
474.0841990832441
 20
254.2297153732489
 30
0.0000000000000000
 11
467.9341990832475
 21
243.5776029066984
 31
0.0000000000000000
  0
LINE
  5
1EB
100
AcDbEntity
  8
MAIN0
  6
CONTINUOUS
 62
3
100
AcDbLine
 10
482.7902879964869
 20
262.3091037062040
 30
0.0000000000000000
 11
477.1152879964899
 21
252.4797153732490
 31
0.0000000000000000
  0
LINE
  5
1EC
100
AcDbEntity
  8
MAIN0
  6
CONTINUOUS
 62
3
100
AcDbLine
 10
469.7999069397204
 20
269.8091037062040
 30
0.0000000000000000
 11
452.2999069397294
 21
239.4982145737434
 31
0.0000000000000000
  0
CIRCLE
  5
1ED
100
AcDbEntity
  8
MAIN0
  6
CONTINUOUS
 62
3
100
AcDbCircle
 10
475.7297762198371
 20
258.8799385816040
 30
0.0000000000000000
 40
3.150000000000000
  0
LINE
  5
1EE
100
AcDbEntity
  8
MAIN0
  6
CENTER
 62
3
100
AcDbLine
 10
473.1547762198372
 20
254.4199077521141
 30
0.0000000000000000
 11
478.3047762198373
 21
263.3399694110939
 31
0.0000000000000000
  0
LINE
  5
1EF
100
AcDbEntity
  8
MAIN0
  6
CENTER
 62
3
100
AcDbLine
 10
480.1898070493270
 20
256.3049385816040
 30
0.0000000000000000
 11
471.2697453903472
 21
261.4549385816040
 31
0.0000000000000000
  0
LINE
  5
1F0
100
AcDbEntity
  8
MAIN0
  6
CONTINUOUS
 62
3
100
AcDbLine
 10
452.2999069397204
 20
239.4982145737486
 30
0.0000000000000000
 11
465.2902879964871
 21
231.9982145737486
 31
0.0000000000000000
  0
LINE
  5
1F1
100
AcDbEntity
  8
MAIN0
  6
CONTINUOUS
 62
3
100
AcDbLine
 10
467.9341990832444
 20
243.5776029067002
 30
0.0000000000000000
 11
470.9652879964900
 21
241.8276029067002
 31
0.0000000000000000
  0
LINE
  5
1F2
100
AcDbEntity
  8
MAIN0
  6
CONTINUOUS
 62
3
100
AcDbLine
 10
465.2902879964869
 20
231.9982145737485
 30
0.0000000000000000
 11
470.9652879964899
 21
241.8276029067002
 31
0.0000000000000000
  0
CIRCLE
  5
1F3
100
AcDbEntity
  8
MAIN0
  6
CONTINUOUS
 62
3
100
AcDbCircle
 10
464.7297762198371
 20
239.8273796983464
 30
0.0000000000000000
 40
3.150000000000000
  0
LINE
  5
1F4
100
AcDbEntity
  8
MAIN0
  6
CENTER
 62
3
100
AcDbLine
 10
467.3047762198373
 20
244.2874105278364
 30
0.0000000000000000
 11
462.1547762198372
 21
235.3673488688566
 31
0.0000000000000000
  0
LINE
  5
1F5
100
AcDbEntity
  8
MAIN0
  6
CENTER
 62
3
100
AcDbLine
 10
469.1898070493270
 20
237.2523796983465
 30
0.0000000000000000
 11
460.2697453903475
 21
242.4023796983465
 31
0.0000000000000000
  0
LINE
  5
1F6
100
AcDbEntity
  8
MAIN0
  6
CONTINUOUS
 62
3
100
AcDbLine
 10
408.1389801385175
 20
239.3744463695253
 30
0.0000000000000000
 11
404.7582397465057
 21
240.2803130273842
 31
0.0000000000000000
  0
LINE
  5
1F7
100
AcDbEntity
  8
MAIN0
  6
CONTINUOUS
 62
3
100
AcDbLine
 10
405.9956766135824
 20
238.1370095024488
 30
0.0000000000000000
 11
406.9015432714411
 21
241.5177498944606
 31
0.0000000000000000
  0
LINE
  5
1F8
100
AcDbEntity
  8
MAIN0
  6
CONTINUOUS
 62
3
100
AcDbLine
 10
395.9015432714645
 20
260.5703087776111
 30
0.0000000000000000
 11
394.9956766136148
 21
257.1895683855967
 31
0.0000000000000000
  0
LINE
  5
1F9
100
AcDbEntity
  8
MAIN0
  6
CONTINUOUS
 62
3
100
AcDbLine
 10
393.7582397465326
 20
259.3328719105290
 30
0.0000000000000000
 11
397.1389801385469
 21
258.4270052526792
 31
0.0000000000000000
  0
LINE
  5
1FA
100
AcDbEntity
  8
MAIN0
  6
CONTINUOUS
 62
3
100
AcDbLine
 10
401.3784792226566
 20
269.8091037062038
 30
0.0000000000000000
 11
388.3880981658900
 21
262.3091037062038
 31
0.0000000000000000
  0
LINE
  5
1FB
100
AcDbEntity
  8
MAIN0
  6
CONTINUOUS
 62
3
100
AcDbLine
 10
397.0941870791324
 20
254.2297153732488
 30
0.0000000000000000
 11
394.0630981658869
 21
252.4797153732488
 31
0.0000000000000000
  0
LINE
  5
1FC
100
AcDbEntity
  8
MAIN0
  6
CONTINUOUS
 62
3
100
AcDbLine
 10
397.0941870791326
 20
254.2297153732488
 30
0.0000000000000000
 11
403.2441870791294
 21
243.5776029066984
 31
0.0000000000000000
  0
LINE
  5
1FD
100
AcDbEntity
  8
MAIN0
  6
CONTINUOUS
 62
3
100
AcDbLine
 10
388.3880981658900
 20
262.3091037062040
 30
0.0000000000000000
 11
394.0630981658870
 21
252.4797153732489
 31
0.0000000000000000
  0
LINE
  5
1FE
100
AcDbEntity
  8
MAIN0
  6
CONTINUOUS
 62
3
100
AcDbLine
 10
401.3784792226567
 20
269.8091037062040
 30
0.0000000000000000
 11
418.8784792226475
 21
239.4982145737434
 31
0.0000000000000000
  0
CIRCLE
  5
1FF
100
AcDbEntity
  8
MAIN0
  6
CONTINUOUS
 62
3
100
AcDbCircle
 10
395.4486099425399
 20
258.8799385816040
 30
0.0000000000000000
 40
3.150000000000000
  0
LINE
  5
200
100
AcDbEntity
  8
MAIN0
  6
CENTER
 62
3
100
AcDbLine
 10
398.0236099425397
 20
254.4199077521141
 30
0.0000000000000000
 11
392.8736099425398
 21
263.3399694110939
 31
0.0000000000000000
  0
LINE
  5
201
100
AcDbEntity
  8
MAIN0
  6
CENTER
 62
3
100
AcDbLine
 10
390.9885791130499
 20
256.3049385816040
 30
0.0000000000000000
 11
399.9086407720296
 21
261.4549385816039
 31
0.0000000000000000
  0
LINE
  5
202
100
AcDbEntity
  8
MAIN0
  6
CONTINUOUS
 62
3
100
AcDbLine
 10
418.8784792226564
 20
239.4982145737486
 30
0.0000000000000000
 11
405.8880981658898
 21
231.9982145737486
 31
0.0000000000000000
  0
LINE
  5
203
100
AcDbEntity
  8
MAIN0
  6
CONTINUOUS
 62
3
100
AcDbLine
 10
403.2441870791325
 20
243.5776029067002
 30
0.0000000000000000
 11
400.2130981658869
 21
241.8276029067002
 31
0.0000000000000000
  0
LINE
  5
204
100
AcDbEntity
  8
MAIN0
  6
CONTINUOUS
 62
3
100
AcDbLine
 10
405.8880981658900
 20
231.9982145737485
 30
0.0000000000000000
 11
400.2130981658870
 21
241.8276029067002
 31
0.0000000000000000
  0
CIRCLE
  5
205
100
AcDbEntity
  8
MAIN0
  6
CONTINUOUS
 62
3
100
AcDbCircle
 10
406.4486099425399
 20
239.8273796983464
 30
0.0000000000000000
 40
3.150000000000000
  0
LINE
  5
206
100
AcDbEntity
  8
MAIN0
  6
CENTER
 62
3
100
AcDbLine
 10
403.8736099425396
 20
244.2874105278363
 30
0.0000000000000000
 11
409.0236099425397
 21
235.3673488688565
 31
0.0000000000000000
  0
LINE
  5
207
100
AcDbEntity
  8
MAIN0
  6
CENTER
 62
3
100
AcDbLine
 10
401.9885791130498
 20
237.2523796983465
 30
0.0000000000000000
 11
410.9086407720295
 21
242.4023796983465
 31
0.0000000000000000
  0
MTEXT
  5
208
100
AcDbEntity
  8
MAIN0
  6
CONTINUOUS
 62
3
100
AcDbMText
 10
382.0516048742715
 20
218.3090359825256
 30
0.0000000000000000
 40
5.000000000000000
 41
0.0000000000000000
 71
     1
 72
     1
  1
{\H0.82x;{2}}
 11
0.4999999999999993
 21
-0.8660254037844390
 31
0.0000000000000000
  7
STANDARD
  0
CIRCLE
  5
209
100
AcDbEntity
  8
MAIN0
  6
CONTINUOUS
 62
3
100
AcDbCircle
 10
503.2040009214931
 20
287.4707422970001
 30
0.0000000000000000
 40
7.500000000000000
  0
CIRCLE
  5
20A
100
AcDbEntity
  8
MAIN0
  6
CONTINUOUS
 62
3
100
AcDbCircle
 10
435.5891930811885
 20
205.8533845474743
 30
0.0000000000000000
 40
9.450000000561232
  0
CIRCLE
  5
20B
100
AcDbEntity
  8
MAIN0
  6
CONTINUOUS
 62
3
100
AcDbCircle
 10
435.5891930811885
 20
210.8533845466880
 30
0.0000000000000000
 40
1.549999999997439
  0
CIRCLE
  5
20C
100
AcDbEntity
  8
MAIN0
  6
CONTINUOUS
 62
3
100
AcDbCircle
 10
435.5891930811885
 20
200.8533845482604
 30
0.0000000000000000
 40
1.549999998426074
  0
ARC
  5
20D
100
AcDbEntity
  8
MAIN0
  6
CENTER
 62
3
100
AcDbCircle
 10
435.5891930811885
 20
205.8533845474743
 30
0.0000000000000000
 40
4.999999999213856
100
AcDbArc
 50
236.7011390990730
 51
301.6293282772189
  0
ARC
  5
20E
100
AcDbEntity
  8
MAIN0
  6
CENTER
 62
3
100
AcDbCircle
 10
435.5891930811885
 20
205.8533845474743
 30
0.0000000000000000
 40
4.999999999213856
100
AcDbArc
 50
57.91159588878349
 51
122.2843268465874
  0
CIRCLE
  5
20F
100
AcDbEntity
  8
MAIN0
  6
CONTINUOUS
 62
3
100
AcDbCircle
 10
458.3455666905183
 20
210.0710290983327
 30
0.0000000000000000
 40
7.500000000000256
  0
CIRCLE
  5
210
100
AcDbEntity
  8
MAIN0
  6
CONTINUOUS
 62
3
100
AcDbCircle
 10
458.3455666905183
 20
210.0710290983327
 30
0.0000000000000000
 40
7.000000000000000
  0
LINE
  5
211
100
AcDbEntity
  8
MAIN0
  6
CONTINUOUS
 62
3
100
AcDbLine
 10
456.5288752046204
 20
207.8276019480998
 30
0.0000000000000000
 11
455.4943560439280
 21
210.5226165008421
 31
0.0000000000000000
  0
LINE
  5
212
100
AcDbEntity
  8
MAIN0
  6
CONTINUOUS
 62
3
100
AcDbLine
 10
461.1967773371081
 20
209.6194416958229
 30
0.0000000000000000
 11
460.1622581764154
 21
212.3144562485653
 31
0.0000000000000000
  0
LINE
  5
213
100
AcDbEntity
  8
MAIN0
  6
CONTINUOUS
 62
3
100
AcDbLine
 10
459.3800858512111
 20
207.3760145455901
 30
0.0000000000000000
 11
456.5288752046209
 21
207.8276019480999
 31
0.0000000000000000
  0
LINE
  5
214
100
AcDbEntity
  8
MAIN0
  6
CONTINUOUS
 62
3
100
AcDbLine
 10
460.1622581764157
 20
212.3144562485652
 30
0.0000000000000000
 11
457.3110475298258
 21
212.7660436510749
 31
0.0000000000000000
  0
LINE
  5
215
100
AcDbEntity
  8
MAIN0
  6
CONTINUOUS
 62
3
100
AcDbLine
 10
461.1967773371081
 20
209.6194416958230
 30
0.0000000000000000
 11
459.3800858512107
 21
207.3760145455902
 31
0.0000000000000000
  0
LINE
  5
216
100
AcDbEntity
  8
MAIN0
  6
CONTINUOUS
 62
3
100
AcDbLine
 10
457.3110475298258
 20
212.7660436510749
 30
0.0000000000000000
 11
455.4943560439283
 21
210.5226165008418
 31
0.0000000000000000
  0
CIRCLE
  5
217
100
AcDbEntity
  8
MAIN0
  6
CONTINUOUS
 62
3
100
AcDbCircle
 10
412.8328194718587
 20
210.0710290983327
 30
0.0000000000000000
 40
7.500000000000256
  0
CIRCLE
  5
218
100
AcDbEntity
  8
MAIN0
  6
CONTINUOUS
 62
3
100
AcDbCircle
 10
412.8328194718587
 20
210.0710290983327
 30
0.0000000000000000
 40
7.000000000000000
  0
LINE
  5
219
100
AcDbEntity
  8
MAIN0
  6
CONTINUOUS
 62
3
100
AcDbLine
 10
414.6495109577563
 20
207.8276019480999
 30
0.0000000000000000
 11
415.6840301184489
 21
210.5226165008423
 31
0.0000000000000000
  0
LINE
  5
21A
100
AcDbEntity
  8
MAIN0
  6
CONTINUOUS
 62
3
100
AcDbLine
 10
409.9816088252688
 20
209.6194416958228
 30
0.0000000000000000
 11
411.0161279859615
 21
212.3144562485653
 31
0.0000000000000000
  0
LINE
  5
21B
100
AcDbEntity
  8
MAIN0
  6
CONTINUOUS
 62
3
100
AcDbLine
 10
411.7983003111659
 20
207.3760145455901
 30
0.0000000000000000
 11
414.6495109577561
 21
207.8276019480998
 31
0.0000000000000000
  0
LINE
  5
21C
100
AcDbEntity
  8
MAIN0
  6
CONTINUOUS
 62
3
100
AcDbLine
 10
411.0161279859610
 20
212.3144562485652
 30
0.0000000000000000
 11
413.8673386325508
 21
212.7660436510749
 31
0.0000000000000000
  0
LINE
  5
21D
100
AcDbEntity
  8
MAIN0
  6
CONTINUOUS
 62
3
100
AcDbLine
 10
409.9816088252687
 20
209.6194416958231
 30
0.0000000000000000
 11
411.7983003111662
 21
207.3760145455903
 31
0.0000000000000000
  0
LINE
  5
21E
100
AcDbEntity
  8
MAIN0
  6
CONTINUOUS
 62
3
100
AcDbLine
 10
413.8673386325510
 20
212.7660436510749
 30
0.0000000000000000
 11
415.6840301184488
 21
210.5226165008420
 31
0.0000000000000000
  0
LINE
  5
21F
100
AcDbEntity
  8
MAIN0
  6
CONTINUOUS
 62
3
100
AcDbLine
 10
218.3359822319550
 20
313.7529114164331
 30
0.0000000000000000
 11
216.3359822319550
 21
313.7529114164331
 31
0.0000000000000000
  0
LINE
  5
220
100
AcDbEntity
  8
MAIN0
  6
CONTINUOUS
 62
3
100
AcDbLine
 10
218.3359822319550
 20
298.7529114164331
 30
0.0000000000000000
 11
216.3359822319550
 21
298.7529114164331
 31
0.0000000000000000
  0
LINE
  5
221
100
AcDbEntity
  8
MAIN0
  6
CONTINUOUS
 62
3
100
AcDbLine
 10
218.3359822319550
 20
313.7529114164329
 30
0.0000000000000000
 11
218.3359822319549
 21
298.7529114164329
 31
0.0000000000000000
  0
LINE
  5
222
100
AcDbEntity
  8
MAIN0
  6
CONTINUOUS
 62
3
100
AcDbLine
 10
151.2359411021749
 20
283.9939645792763
 30
0.0000000000000000
 11
151.2359411021749
 21
281.8534091400838
 31
0.0000000000000000
  0
LINE
  5
223
100
AcDbEntity
  8
MAIN0
  6
CONTINUOUS
 62
3
100
AcDbLine
 10
201.2359411021749
 20
282.1034091400834
 30
0.0000000000000000
 11
201.2359411021749
 21
281.8534091400836
 31
0.0000000000000000
  0
LINE
  5
224
100
AcDbEntity
  8
MAIN0
  6
CONTINUOUS
 62
3
100
AcDbLine
 10
184.2359411021749
 20
282.1034091400836
 30
0.0000000000000000
 11
184.2359411021749
 21
281.8534091400838
 31
0.0000000000000000
  0
LINE
  5
225
100
AcDbEntity
  8
MAIN0
  6
CONTINUOUS
 62
3
100
AcDbLine
 10
201.2359411021749
 20
282.1034091400835
 30
0.0000000000000000
 11
184.2359411021749
 21
282.1034091400837
 31
0.0000000000000000
  0
LINE
  5
226
100
AcDbEntity
  8
MAIN0
  6
CONTINUOUS
 62
3
100
AcDbLine
 10
171.2359411021750
 20
284.8534091400838
 30
0.0000000000000000
 11
171.2359411021750
 21
281.8534091400836
 31
0.0000000000000000
  0
LINE
  5
227
100
AcDbEntity
  8
MAIN0
  6
CONTINUOUS
 62
3
100
AcDbLine
 10
175.9359411021750
 20
284.8534091400837
 30
0.0000000000000000
 11
175.9359411021750
 21
281.8534091400835
 31
0.0000000000000000
  0
LINE
  5
228
100
AcDbEntity
  8
MAIN0
  6
CONTINUOUS
 62
3
100
AcDbLine
 10
175.9359411021749
 20
284.8534091400837
 30
0.0000000000000000
 11
171.2359411021749
 21
284.8534091400838
 31
0.0000000000000000
  0
ELLIPSE
  5
229
100
AcDbEntity
  8
MAIN0
  6
CONTINUOUS
 62
3
100
AcDbEllipse
 10
173.5859411021750
 20
283.3534091400837
 30
0.0000000000000000
 11
-2.350000000000000
 21
0.0000000000000000
 31
0.0000000000000000
210
0.0000000000000000
220
0.0000000000000000
230
1.000000000000000
 40
0.6382978723404255
 41
0.0000000000000000
 42
6.283185307179586
  0
LINE
  5
22A
100
AcDbEntity
  8
MAIN0
  6
CONTINUOUS
 62
3
100
AcDbLine
 10
211.2359411021746
 20
252.0209234769461
 30
0.0000000000000000
 11
211.2359411021747
 21
256.8534091400832
 31
0.0000000000000000
  0
LINE
  5
22B
100
AcDbEntity
  8
MAIN0
  6
CONTINUOUS
 62
3
100
AcDbLine
 10
151.2359411021745
 20
254.4909603267259
 30
0.0000000000000000
 11
151.2359411021745
 21
256.8534091400838
 31
0.0000000000000000
  0
LINE
  5
22C
100
AcDbEntity
  8
MAIN0
  6
CONTINUOUS
 62
3
100
AcDbLine
 10
201.2359411021747
 20
256.6034091400835
 30
0.0000000000000000
 11
201.2359411021747
 21
256.8534091400832
 31
0.0000000000000000
  0
LINE
  5
22D
100
AcDbEntity
  8
MAIN0
  6
CONTINUOUS
 62
3
100
AcDbLine
 10
184.2359411021747
 20
256.6034091400837
 30
0.0000000000000000
 11
184.2359411021747
 21
256.8534091400833
 31
0.0000000000000000
  0
LINE
  5
22E
100
AcDbEntity
  8
MAIN0
  6
CONTINUOUS
 62
3
100
AcDbLine
 10
201.2359411021747
 20
256.6034091400834
 30
0.0000000000000000
 11
184.2359411021747
 21
256.6034091400835
 31
0.0000000000000000
  0
LINE
  5
22F
100
AcDbEntity
  8
MAIN0
  6
CONTINUOUS
 62
3
100
AcDbLine
 10
171.2359411021748
 20
253.8534091400836
 30
0.0000000000000000
 11
171.2359411021748
 21
256.8534091400836
 31
0.0000000000000000
  0
LINE
  5
230
100
AcDbEntity
  8
MAIN0
  6
CONTINUOUS
 62
3
100
AcDbLine
 10
175.9359411021748
 20
253.9802778337630
 30
0.0000000000000000
 11
175.9359411021748
 21
256.8534091400836
 31
0.0000000000000000
  0
LINE
  5
231
100
AcDbEntity
  8
MAIN0
  6
CONTINUOUS
 62
3
100
AcDbLine
 10
174.7411662954361
 20
253.8534091400837
 30
0.0000000000000000
 11
171.2359411021747
 21
253.8534091400837
 31
0.0000000000000000
  0
ELLIPSE
  5
232
100
AcDbEntity
  8
MAIN0
  6
CONTINUOUS
 62
3
100
AcDbEllipse
 10
173.5859411021747
 20
255.3534091400836
 30
0.0000000000000000
 11
2.350000000000000
 21
0.0000000000000000
 31
0.0000000000000000
210
0.0000000000000000
220
0.0000000000000000
230
1.000000000000000
 40
0.6382978723404255
 41
0.0000000000000000
 42
6.283185307179586
  0
LINE
  5
233
100
AcDbEntity
  8
MAIN0
  6
CONTINUOUS
 62
3
100
AcDbLine
 10
211.2359411021750
 20
281.8534091400833
 30
0.0000000000000000
 11
211.2359411021750
 21
285.0318242056897
 31
0.0000000000000000
  0
LINE
  5
234
100
AcDbEntity
  8
MAIN0
  6
CONTINUOUS
 62
3
100
AcDbLine
 10
151.2359411021749
 20
281.8534091400838
 30
0.0000000000000000
 11
184.2359411021749
 21
281.8534091400835
 31
0.0000000000000000
  0
LINE
  5
235
100
AcDbEntity
  8
MAIN0
  6
CONTINUOUS
 62
3
100
AcDbLine
 10
201.2359411021749
 20
281.8534091400834
 30
0.0000000000000000
 11
211.2359411021749
 21
281.8534091400833
 31
0.0000000000000000
  0
LINE
  5
236
100
AcDbEntity
  8
MAIN0
  6
CONTINUOUS
 62
3
100
AcDbLine
 10
184.2359411021745
 20
256.8534091400835
 30
0.0000000000000000
 11
151.2359411021747
 21
256.8534091400838
 31
0.0000000000000000
  0
LINE
  5
237
100
AcDbEntity
  8
MAIN0
  6
CONTINUOUS
 62
3
100
AcDbLine
 10
211.2359411021747
 20
256.8534091400833
 30
0.0000000000000000
 11
201.2359411021747
 21
256.8534091400834
 31
0.0000000000000000
  0
LINE
  5
238
100
AcDbEntity
  8
MAIN0
  6
CONTINUOUS
 62
3
100
AcDbLine
 10
252.4350203372229
 20
358.1029114165150
 30
0.0000000000000000
 11
252.4350203371959
 21
286.1029114165150
 31
0.0000000000000000
  0
LINE
  5
239
100
AcDbEntity
  8
MAIN0
  6
CONTINUOUS
 62
3
100
AcDbLine
 10
221.4850203374993
 20
358.1029114165173
 30
0.0000000000000000
 11
252.4350203372226
 21
358.1029114165148
 31
0.0000000000000000
  0
LINE
  5
23A
100
AcDbEntity
  8
MAIN0
  6
CONTINUOUS
 62
3
100
AcDbLine
 10
222.4350203371954
 20
286.1029114165176
 30
0.0000000000000000
 11
252.4350203371954
 21
286.1029114165152
 31
0.0000000000000000
  0
LINE
  5
23B
100
AcDbEntity
  8
MAIN0
  6
CONTINUOUS
 62
3
100
AcDbLine
 10
221.7350203372075
 20
301.1029114165178
 30
0.0000000000000000
 11
222.4350203372010
 21
301.1029114165177
 31
0.0000000000000000
  0
LINE
  5
23C
100
AcDbEntity
  8
MAIN0
  6
CONTINUOUS
 62
3
100
AcDbLine
 10
222.4350203372013
 20
301.1029114165175
 30
0.0000000000000000
 11
222.4350203371956
 21
286.1029114165175
 31
0.0000000000000000
  0
LINE
  5
23D
100
AcDbEntity
  8
MAIN0
  6
HIDDEN
 62
3
100
AcDbLine
 10
225.4350203372227
 20
358.1029114165160
 30
0.0000000000000000
 11
225.4350203371956
 21
286.1029114165176
 31
0.0000000000000000
  0
LINE
  5
23E
100
AcDbEntity
  8
MAIN0
  6
HIDDEN
 62
3
100
AcDbLine
 10
232.4350203372204
 20
351.6029114165151
 30
0.0000000000000000
 11
232.4350203372140
 21
334.6029114165151
 31
0.0000000000000000
  0
LINE
  5
23F
100
AcDbEntity
  8
MAIN0
  6
HIDDEN
 62
3
100
AcDbLine
 10
225.8350203372193
 20
348.6029114165152
 30
0.0000000000000000
 11
232.4350203372188
 21
348.6029114165150
 31
0.0000000000000000
  0
LINE
  5
240
100
AcDbEntity
  8
MAIN0
  6
HIDDEN
 62
3
100
AcDbLine
 10
232.4350203372203
 20
351.6029114165150
 30
0.0000000000000000
 11
251.8350203372176
 21
351.6029114165150
 31
0.0000000000000000
  0
LINE
  5
241
100
AcDbEntity
  8
MAIN0
  6
HIDDEN
 62
3
100
AcDbLine
 10
232.4350203372207
 20
334.6029114165153
 30
0.0000000000000000
 11
251.8350203372163
 21
334.6029114165153
 31
0.0000000000000000
  0
LINE
  5
242
100
AcDbEntity
  8
MAIN0
  6
HIDDEN
 62
3
100
AcDbLine
 10
225.8350203372157
 20
337.6029114165154
 30
0.0000000000000000
 11
232.4350203372195
 21
337.6029114165153
 31
0.0000000000000000
  0
LINE
  5
243
100
AcDbEntity
  8
MAIN0
  6
HIDDEN
 62
3
100
AcDbLine
 10
232.4350203372129
 20
331.6029114165150
 30
0.0000000000000000
 11
232.4350203372065
 21
314.6029114165153
 31
0.0000000000000000
  0
LINE
  5
244
100
AcDbEntity
  8
MAIN0
  6
HIDDEN
 62
3
100
AcDbLine
 10
225.8350203372119
 20
328.6029114165152
 30
0.0000000000000000
 11
232.4350203372116
 21
328.6029114165150
 31
0.0000000000000000
  0
LINE
  5
245
100
AcDbEntity
  8
MAIN0
  6
HIDDEN
 62
3
100
AcDbLine
 10
232.4350203372125
 20
331.6029114165150
 30
0.0000000000000000
 11
251.8350203372176
 21
331.6029114165150
 31
0.0000000000000000
  0
LINE
  5
246
100
AcDbEntity
  8
MAIN0
  6
HIDDEN
 62
3
100
AcDbLine
 10
232.4350203372130
 20
314.6029114165156
 30
0.0000000000000000
 11
251.8350203372163
 21
314.6029114165156
 31
0.0000000000000000
  0
LINE
  5
247
100
AcDbEntity
  8
MAIN0
  6
HIDDEN
 62
3
100
AcDbLine
 10
225.8350203372083
 20
317.6029114165157
 30
0.0000000000000000
 11
232.4350203372119
 21
317.6029114165156
 31
0.0000000000000000
  0
LINE
  5
248
100
AcDbEntity
  8
MAIN0
  6
PHANTOM
 62
3
100
AcDbLine
 10
220.1850203370837
 20
352.8523560660044
 30
0.0000000000000000
 11
220.1850203370703
 21
301.8534667664654
 31
0.0000000000000000
  0
LINE
  5
249
100
AcDbEntity
  8
MAIN0
  6
CONTINUOUS
 62
3
100
AcDbLine
 10
220.1859822313936
 20
301.8529114165186
 30
0.0000000000000000
 11
221.4850203370709
 21
301.1029114165183
 31
0.0000000000000000
  0
LINE
  5
24A
100
AcDbEntity
  8
MAIN0
  6
CENTER
 62
3
100
AcDbLine
 10
221.4850203370835
 20
353.6023560666457
 30
0.0000000000000000
 11
221.4850203370699
 21
301.1029114165190
 31
0.0000000000000000
  0
LINE
  5
24B
100
AcDbEntity
  8
MAIN0
  6
PHANTOM
 62
3
100
AcDbLine
 10
224.4350203372160
 20
352.1029114165151
 30
0.0000000000000000
 11
221.4850203370831
 21
352.1029114165151
 31
0.0000000000000000
  0
LINE
  5
24C
100
AcDbEntity
  8
MAIN0
  6
PHANTOM
 62
3
100
AcDbLine
 10
224.4350203372160
 20
315.6029114165152
 30
0.0000000000000000
 11
221.4850203370736
 21
315.6029114165152
 31
0.0000000000000000
  0
LINE
  5
24D
100
AcDbEntity
  8
MAIN0
  6
PHANTOM
 62
3
100
AcDbLine
 10
224.4350203372162
 20
352.1029114165149
 30
0.0000000000000000
 11
224.4350203372160
 21
315.6029114165149
 31
0.0000000000000000
  0
LINE
  5
24E
100
AcDbEntity
  8
MAIN0
  6
HIDDEN
 62
3
100
AcDbLine
 10
232.4350203372165
 20
338.9148104165148
 30
0.0000000000000000
 11
216.3359822319569
 21
338.9148104165158
 31
0.0000000000000000
  0
LINE
  5
24F
100
AcDbEntity
  8
MAIN0
  6
HIDDEN
 62
3
100
AcDbLine
 10
232.4350203372164
 20
338.1029114165148
 30
0.0000000000000000
 11
216.3359822319569
 21
338.1029114165157
 31
0.0000000000000000
  0
LINE
  5
250
100
AcDbEntity
  8
MAIN0
  6
HIDDEN
 62
3
100
AcDbLine
 10
232.4350203372170
 20
347.2910124165148
 30
0.0000000000000000
 11
216.3359822319570
 21
347.2910124165158
 31
0.0000000000000000
  0
LINE
  5
251
100
AcDbEntity
  8
MAIN0
  6
HIDDEN
 62
3
100
AcDbLine
 10
216.3359822319570
 20
348.1029114165157
 30
0.0000000000000000
 11
232.4350203372171
 21
348.1029114165148
 31
0.0000000000000000
  0
LINE
  5
252
100
AcDbEntity
  8
MAIN0
  6
HIDDEN
 62
3
100
AcDbLine
 10
241.4350203372174
 20
351.1029114165142
 30
0.0000000000000000
 11
232.4350203372174
 21
351.1029114165148
 31
0.0000000000000000
  0
LINE
  5
253
100
AcDbEntity
  8
MAIN0
  6
HIDDEN
 62
3
100
AcDbLine
 10
241.4350203372164
 20
335.1029114165139
 30
0.0000000000000000
 11
241.4350203372174
 21
351.1029114165139
 31
0.0000000000000000
  0
LINE
  5
254
100
AcDbEntity
  8
MAIN0
  6
HIDDEN
 62
3
100
AcDbLine
 10
242.4350203372167
 20
336.8349622240830
 30
0.0000000000000000
 11
242.4350203372175
 21
349.3708606089454
 31
0.0000000000000000
  0
LINE
  5
255
100
AcDbEntity
  8
MAIN0
  6
HIDDEN
 62
3
100
AcDbLine
 10
242.4350203372173
 20
349.3708606089452
 30
0.0000000000000000
 11
241.4350203372175
 21
351.1029114165142
 31
0.0000000000000000
  0
LINE
  5
256
100
AcDbEntity
  8
MAIN0
  6
HIDDEN
 62
3
100
AcDbLine
 10
241.4350203372164
 20
335.1029114165141
 30
0.0000000000000000
 11
242.4350203372166
 21
336.8349622240829
 31
0.0000000000000000
  0
LINE
  5
257
100
AcDbEntity
  8
MAIN0
  6
HIDDEN
 62
3
100
AcDbLine
 10
232.4350203372164
 20
335.1029114165148
 30
0.0000000000000000
 11
241.4350203372164
 21
335.1029114165142
 31
0.0000000000000000
  0
LINE
  5
258
100
AcDbEntity
  8
MAIN0
  6
HIDDEN
 62
3
100
AcDbLine
 10
252.4350203372164
 20
334.0029114165146
 30
0.0000000000000000
 11
251.8350203372164
 21
334.6029114165146
 31
0.0000000000000000
  0
LINE
  5
259
100
AcDbEntity
  8
MAIN0
  6
HIDDEN
 62
3
100
AcDbLine
 10
251.8350203372177
 20
351.6029114165148
 30
0.0000000000000000
 11
252.4350203372178
 21
352.2029114165148
 31
0.0000000000000000
  0
LINE
  5
25A
100
AcDbEntity
  8
MAIN0
  6
HIDDEN
 62
3
100
AcDbLine
 10
251.8350203372178
 20
331.6029114165152
 30
0.0000000000000000
 11
252.4350203372177
 21
332.2029114165150
 31
0.0000000000000000
  0
LINE
  5
25B
100
AcDbEntity
  8
MAIN0
  6
HIDDEN
 62
3
100
AcDbLine
 10
252.4350203372169
 20
314.0029114165150
 30
0.0000000000000000
 11
251.8350203372169
 21
314.6029114165152
 31
0.0000000000000000
  0
LINE
  5
25C
100
AcDbEntity
  8
MAIN0
  6
HIDDEN
 62
3
100
AcDbLine
 10
232.4350203372165
 20
318.1029114165148
 30
0.0000000000000000
 11
216.3359822319567
 21
318.1029114165157
 31
0.0000000000000000
  0
LINE
  5
25D
100
AcDbEntity
  8
MAIN0
  6
HIDDEN
 62
3
100
AcDbLine
 10
232.4350203372166
 20
318.9148104165148
 30
0.0000000000000000
 11
216.3359822319567
 21
318.9148104165158
 31
0.0000000000000000
  0
LINE
  5
25E
100
AcDbEntity
  8
MAIN0
  6
HIDDEN
 62
3
100
AcDbLine
 10
232.4350203372171
 20
327.2910124165148
 30
0.0000000000000000
 11
216.3359822319568
 21
327.2910124165158
 31
0.0000000000000000
  0
LINE
  5
25F
100
AcDbEntity
  8
MAIN0
  6
HIDDEN
 62
3
100
AcDbLine
 10
216.3359822319568
 20
328.1029114165157
 30
0.0000000000000000
 11
232.4350203372172
 21
328.1029114165148
 31
0.0000000000000000
  0
LINE
  5
260
100
AcDbEntity
  8
MAIN0
  6
HIDDEN
 62
3
100
AcDbLine
 10
241.4350203372173
 20
331.1029114165142
 30
0.0000000000000000
 11
232.4350203372173
 21
331.1029114165148
 31
0.0000000000000000
  0
LINE
  5
261
100
AcDbEntity
  8
MAIN0
  6
HIDDEN
 62
3
100
AcDbLine
 10
241.4350203372165
 20
315.1029114165139
 30
0.0000000000000000
 11
241.4350203372175
 21
331.1029114165139
 31
0.0000000000000000
  0
LINE
  5
262
100
AcDbEntity
  8
MAIN0
  6
HIDDEN
 62
3
100
AcDbLine
 10
242.4350203372173
 20
329.3708606089451
 30
0.0000000000000000
 11
241.4350203372174
 21
331.1029114165141
 31
0.0000000000000000
  0
LINE
  5
263
100
AcDbEntity
  8
MAIN0
  6
HIDDEN
 62
3
100
AcDbLine
 10
242.4350203372165
 20
316.8349622240830
 30
0.0000000000000000
 11
242.4350203372173
 21
329.3708606089454
 31
0.0000000000000000
  0
LINE
  5
264
100
AcDbEntity
  8
MAIN0
  6
HIDDEN
 62
3
100
AcDbLine
 10
232.4350203372163
 20
315.1029114165148
 30
0.0000000000000000
 11
241.4350203372163
 21
315.1029114165142
 31
0.0000000000000000
  0
LINE
  5
265
100
AcDbEntity
  8
MAIN0
  6
HIDDEN
 62
3
100
AcDbLine
 10
241.4350203372164
 20
315.1029114165141
 30
0.0000000000000000
 11
242.4350203372165
 21
316.8349622240830
 31
0.0000000000000000
  0
LINE
  5
266
100
AcDbEntity
  8
MAIN0
  6
CENTER
 62
3
100
AcDbLine
 10
212.2045967143367
 20
323.1029114165153
 30
0.0000000000000000
 11
257.3141204484321
 21
323.1029114165149
 31
0.0000000000000000
  0
LINE
  5
267
100
AcDbEntity
  8
MAIN0
  6
HIDDEN
 62
3
100
AcDbLine
 10
225.8350203372171
 20
337.6029114165165
 30
0.0000000000000000
 11
225.4350203372170
 21
337.2029114165166
 31
0.0000000000000000
  0
LINE
  5
268
100
AcDbEntity
  8
MAIN0
  6
HIDDEN
 62
3
100
AcDbLine
 10
225.8350203372177
 20
348.6029114165165
 30
0.0000000000000000
 11
225.4350203372177
 21
349.0029114165166
 31
0.0000000000000000
  0
LINE
  5
269
100
AcDbEntity
  8
MAIN0
  6
HIDDEN
 62
3
100
AcDbLine
 10
225.8350203372095
 20
317.6029114165168
 30
0.0000000000000000
 11
225.4350203372092
 21
317.2029114165165
 31
0.0000000000000000
  0
LINE
  5
26A
100
AcDbEntity
  8
MAIN0
  6
HIDDEN
 62
3
100
AcDbLine
 10
225.8350203372109
 20
328.6029114165173
 30
0.0000000000000000
 11
225.4350203372109
 21
329.0029114165174
 31
0.0000000000000000
  0
LINE
  5
26B
100
AcDbEntity
  8
MAIN0
  6
CENTER
 62
3
100
AcDbLine
 10
212.2045967143369
 20
343.1029114165153
 30
0.0000000000000000
 11
257.3141204484323
 21
343.1029114165149
 31
0.0000000000000000
  0
LINE
  5
26C
100
AcDbEntity
  8
MAIN0
  6
CONTINUOUS
 62
3
100
AcDbLine
 10
221.4850203374983
 20
358.1029114165165
 30
0.0000000000000000
 11
220.1859822316800
 21
357.3529114164339
 31
0.0000000000000000
  0
LINE
  5
26D
100
AcDbEntity
  8
MAIN0
  6
CONTINUOUS
 62
3
100
AcDbLine
 10
220.1859822316798
 20
357.3529114164343
 30
0.0000000000000000
 11
221.4850203373599
 21
356.6029114164319
 31
0.0000000000000000
  0
LINE
  5
26E
100
AcDbEntity
  8
MAIN0
  6
CONTINUOUS
 62
3
100
AcDbLine
 10
221.4850203373597
 20
356.6029114164318
 30
0.0000000000000000
 11
220.1859822316158
 21
355.8529114163921
 31
0.0000000000000000
  0
LINE
  5
26F
100
AcDbEntity
  8
MAIN0
  6
CONTINUOUS
 62
3
100
AcDbLine
 10
220.1859822316155
 20
355.8529114163919
 30
0.0000000000000000
 11
221.4850203372220
 21
355.1029114164318
 31
0.0000000000000000
  0
LINE
  5
270
100
AcDbEntity
  8
MAIN0
  6
CONTINUOUS
 62
3
100
AcDbLine
 10
221.4850203372225
 20
355.1029114164323
 30
0.0000000000000000
 11
220.1859822314780
 21
354.3529114163920
 31
0.0000000000000000
  0
LINE
  5
271
100
AcDbEntity
  8
MAIN0
  6
CONTINUOUS
 62
3
100
AcDbLine
 10
220.1859822314773
 20
354.3529114163920
 30
0.0000000000000000
 11
221.4850203370837
 21
353.6029114164321
 31
0.0000000000000000
  0
LINE
  5
272
100
AcDbEntity
  8
MAIN0
  6
PHANTOM
 62
3
100
AcDbLine
 10
492.8648423574978
 20
316.0224566985943
 30
0.0000000000000000
 11
495.6932694822440
 21
318.8508838233405
 31
0.0000000000000000
  0
LINE
  5
273
100
AcDbEntity
  8
MAIN0
  6
PHANTOM
 62
3
100
AcDbLine
 10
485.0866677644493
 20
329.4574855411427
 30
0.0000000000000000
 11
495.6932694822439
 21
318.8508838233406
 31
0.0000000000000000
  0
LINE
  5
274
100
AcDbEntity
  8
MAIN0
  6
PHANTOM
 62
3
100
AcDbLine
 10
482.2582406397031
 20
326.6290584163962
 30
0.0000000000000000
 11
492.8648423574975
 21
316.0224566985943
 31
0.0000000000000000
  0
LINE
  5
275
100
AcDbEntity
  8
MAIN0
  6
PHANTOM
 62
3
100
AcDbLine
 10
482.2582406397031
 20
326.6290584163962
 30
0.0000000000000000
 11
485.0866677644492
 21
329.4574855411423
 31
0.0000000000000000
  0
LINE
  5
276
100
AcDbEntity
  8
MAIN0
  6
CENTER
 62
3
100
AcDbLine
 10
473.4079362601487
 20
307.1721523190438
 30
0.0000000000000000
 11
495.6771935607039
 21
329.4414096195990
 31
0.0000000000000000
  0
LINE
  5
277
100
AcDbEntity
  8
MAIN0
  6
CONTINUOUS
 62
3
100
AcDbLine
 10
505.2247268636569
 20
290.9707422970002
 30
0.0000000000000000
 11
501.1832749793295
 21
290.9707422970002
 31
0.0000000000000000
  0
LINE
  5
278
100
AcDbEntity
  8
MAIN0
  6
CONTINUOUS
 62
3
100
AcDbLine
 10
501.1832749793293
 20
283.9707422970002
 30
0.0000000000000000
 11
505.2247268636569
 21
283.9707422970002
 31
0.0000000000000000
  0
LINE
  5
279
100
AcDbEntity
  8
MAIN0
  6
CONTINUOUS
 62
3
100
AcDbLine
 10
507.2454528058204
 20
287.4707422970001
 30
0.0000000000000000
 11
505.2247268636569
 21
290.9707422970000
 31
0.0000000000000000
  0
LINE
  5
27A
100
AcDbEntity
  8
MAIN0
  6
CONTINUOUS
 62
3
100
AcDbLine
 10
501.1832749793295
 20
290.9707422970004
 30
0.0000000000000000
 11
499.1625490371657
 21
287.4707422970001
 31
0.0000000000000000
  0
LINE
  5
27B
100
AcDbEntity
  8
MAIN0
  6
CONTINUOUS
 62
3
100
AcDbLine
 10
499.1625490371657
 20
287.4707422970000
 30
0.0000000000000000
 11
501.1832749793294
 21
283.9707422970001
 31
0.0000000000000000
  0
LINE
  5
27C
100
AcDbEntity
  8
MAIN0
  6
CONTINUOUS
 62
3
100
AcDbLine
 10
505.2247268636569
 20
283.9707422970001
 30
0.0000000000000000
 11
507.2454528058206
 21
287.4707422970000
 31
0.0000000000000000
  0
CIRCLE
  5
27D
100
AcDbEntity
  8
MAIN0
  6
CONTINUOUS
 62
3
100
AcDbCircle
 10
503.2040009214931
 20
287.4707422970001
 30
0.0000000000000000
 40
2.154065922853398
  0
CIRCLE
  5
27E
100
AcDbEntity
  8
MAIN0
  6
CONTINUOUS
 62
3
100
AcDbCircle
 10
503.2040009214931
 20
287.4707422970001
 30
0.0000000000000000
 40
3.299999999999997
  0
CIRCLE
  5
27F
100
AcDbEntity
  8
MAIN0
  6
CONTINUOUS
 62
3
100
AcDbCircle
 10
503.2040009214931
 20
287.4707422970001
 30
0.0000000000000000
 40
0.9914283891267653
  0
LINE
  5
280
100
AcDbEntity
  8
MAIN0
  6
CONTINUOUS
 62
3
100
AcDbLine
 10
220.1859822313378
 20
313.8529114164329
 30
0.0000000000000000
 11
216.3359822319550
 21
313.8529114164329
 31
0.0000000000000000
  0
LINE
  5
281
100
AcDbEntity
  8
MAIN0
  6
CONTINUOUS
 62
3
100
AcDbLine
 10
220.1850203369356
 20
316.8529114163488
 30
0.0000000000000000
 11
221.4840584427535
 21
317.6029114164311
 31
0.0000000000000000
  0
LINE
  5
282
100
AcDbEntity
  8
MAIN0
  6
CONTINUOUS
 62
3
100
AcDbLine
 10
221.4840584427536
 20
317.6029114164315
 30
0.0000000000000000
 11
220.1850203370743
 21
318.3529114164332
 31
0.0000000000000000
  0
LINE
  5
283
100
AcDbEntity
  8
MAIN0
  6
CONTINUOUS
 62
3
100
AcDbLine
 10
220.1850203370745
 20
318.3529114164331
 30
0.0000000000000000
 11
221.4840584428193
 21
319.1029114164733
 31
0.0000000000000000
  0
LINE
  5
284
100
AcDbEntity
  8
MAIN0
  6
CONTINUOUS
 62
3
100
AcDbLine
 10
221.4840584428198
 20
319.1029114164734
 30
0.0000000000000000
 11
220.1850203372127
 21
319.8529114164332
 31
0.0000000000000000
  0
LINE
  5
285
100
AcDbEntity
  8
MAIN0
  6
CONTINUOUS
 62
3
100
AcDbLine
 10
216.3359822319548
 20
298.7529114164331
 30
0.0000000000000000
 11
216.3359822319550
 21
313.8529114164330
 31
0.0000000000000000
  0
LINE
  5
286
100
AcDbEntity
  8
MAIN0
  6
HIDDEN
 62
3
100
AcDbLine
 10
181.7359822319552
 20
352.8529114164345
 30
0.0000000000000000
 11
216.2359822319554
 21
352.8529114164342
 31
0.0000000000000000
  0
LINE
  5
287
100
AcDbEntity
  8
MAIN0
  6
CONTINUOUS
 62
3
100
AcDbLine
 10
216.2359822319554
 20
352.8529114164342
 30
0.0000000000000000
 11
220.1859822316781
 21
352.8529114164342
 31
0.0000000000000000
  0
LINE
  5
288
100
AcDbEntity
  8
MAIN0
  6
CENTER
 62
3
100
AcDbLine
 10
503.2456273284735
 20
239.0387907152271
 30
0.0000000000000000
 11
495.8147802688388
 21
226.1681860646661
 31
0.0000000000000000
  0
LINE
  5
289
100
AcDbEntity
  8
MAIN0
  6
CONTINUOUS
 62
3
100
AcDbLine
 10
510.2523622316098
 20
233.1748115626837
 30
0.0000000000000000
 11
504.2523622316094
 21
222.7825067172708
 31
0.0000000000000000
  0
LINE
  5
28A
100
AcDbEntity
  8
MAIN0
  6
CONTINUOUS
 62
3
100
AcDbLine
 10
474.3744858012104
 20
240.0325067171758
 30
0.0000000000000000
 11
473.6424349935898
 21
242.7645575249344
 31
0.0000000000000000
  0
LINE
  5
28B
100
AcDbEntity
  8
MAIN0
  6
CONTINUOUS
 62
3
100
AcDbLine
 10
480.3744858010971
 20
250.4248115626544
 30
0.0000000000000000
 11
477.6424349935126
 21
249.6927607550775
 31
0.0000000000000000
  0
LINE
  5
28C
100
AcDbEntity
  8
MAIN0
  6
CENTER
 62
3
100
AcDbLine
 10
367.9327588339033
 20
239.0387907152271
 30
0.0000000000000000
 11
375.3636058935381
 21
226.1681860646661
 31
0.0000000000000000
  0
LINE
  5
28D
100
AcDbEntity
  8
MAIN0
  6
CONTINUOUS
 62
3
100
AcDbLine
 10
360.9260239307670
 20
233.1748115626837
 30
0.0000000000000000
 11
366.9260239307675
 21
222.7825067172708
 31
0.0000000000000000
  0
LINE
  5
28E
100
AcDbEntity
  8
MAIN0
  6
CONTINUOUS
 62
3
100
AcDbLine
 10
396.8039003611664
 20
240.0325067171758
 30
0.0000000000000000
 11
397.5359511687871
 21
242.7645575249344
 31
0.0000000000000000
  0
LINE
  5
28F
100
AcDbEntity
  8
MAIN0
  6
CONTINUOUS
 62
3
100
AcDbLine
 10
390.8039003612796
 20
250.4248115626544
 30
0.0000000000000000
 11
393.5359511688641
 21
249.6927607550775
 31
0.0000000000000000
  0
LINE
  5
290
100
AcDbEntity
  8
MAIN0
  6
CONTINUOUS
 62
3
100
AcDbLine
 10
89.32160848103843
 20
112.7419271080060
 30
0.0000000000000000
 11
103.9216084810385
 21
112.7419271080060
 31
0.0000000000000000
  0
LINE
  5
291
100
AcDbEntity
  8
MAIN0
  6
CONTINUOUS
 62
3
100
AcDbLine
 10
84.82160848103820
 20
115.2419271080060
 30
0.0000000000000000
 11
88.72160848103817
 21
115.2419271080060
 31
0.0000000000000000
  0
LINE
  5
292
100
AcDbEntity
  8
MAIN0
  6
CONTINUOUS
 62
3
100
AcDbLine
 10
81.82160848103848
 20
112.2419271080059
 30
0.0000000000000000
 11
81.82160848103945
 21
101.2419271080060
 31
0.0000000000000000
  0
LINE
  5
293
100
AcDbEntity
  8
MAIN0
  6
CONTINUOUS
 62
3
100
AcDbLine
 10
104.3216084810385
 20
112.3419271080062
 30
0.0000000000000000
 11
104.3216084810396
 21
101.1419271080061
 31
0.0000000000000000
  0
LINE
  5
294
100
AcDbEntity
  8
MAIN0
  6
HIDDEN
 62
3
100
AcDbLine
 10
104.3216084810385
 20
111.7419271080060
 30
0.0000000000000000
 11
81.82160848103854
 21
111.7419271080060
 31
0.0000000000000000
  0
LINE
  5
295
100
AcDbEntity
  8
MAIN0
  6
HIDDEN
 62
3
100
AcDbLine
 10
81.82160848103854
 20
110.9919271080060
 30
0.0000000000000000
 11
104.3216084810385
 21
110.9919271080060
 31
0.0000000000000000
  0
LINE
  5
296
100
AcDbEntity
  8
MAIN0
  6
HIDDEN
 62
3
100
AcDbLine
 10
104.3216084810395
 20
101.7419271080060
 30
0.0000000000000000
 11
81.82160848103945
 21
101.7419271080060
 31
0.0000000000000000
  0
LINE
  5
297
100
AcDbEntity
  8
MAIN0
  6
HIDDEN
 62
3
100
AcDbLine
 10
104.3216084810393
 20
102.4919271080060
 30
0.0000000000000000
 11
81.82160848103933
 21
102.4919271080060
 31
0.0000000000000000
  0
LINE
  5
298
100
AcDbEntity
  8
MAIN0
  6
CONTINUOUS
 62
3
100
AcDbLine
 10
89.32160848103843
 20
100.7419271080060
 30
0.0000000000000000
 11
103.9216084810395
 21
100.7419271080060
 31
0.0000000000000000
  0
LINE
  5
299
100
AcDbEntity
  8
MAIN0
  6
CONTINUOUS
 62
3
100
AcDbLine
 10
84.82160848103979
 20
98.24192710800597
 30
0.0000000000000000
 11
88.72160848103977
 21
98.24192710800597
 31
0.0000000000000000
  0
LINE
  5
29A
100
AcDbEntity
  8
MAIN0
  6
CONTINUOUS
 62
3
100
AcDbLine
 10
104.3216084810387
 20
112.3419271080061
 30
0.0000000000000000
 11
103.9216084810386
 21
112.7419271080061
 31
0.0000000000000000
  0
LINE
  5
29B
100
AcDbEntity
  8
MAIN0
  6
CONTINUOUS
 62
3
100
AcDbLine
 10
104.3216084810396
 20
101.1419271080062
 30
0.0000000000000000
 11
103.9216084810396
 21
100.7419271080061
 31
0.0000000000000000
  0
LINE
  5
29C
100
AcDbEntity
  8
MAIN0
  6
CONTINUOUS
 62
3
100
AcDbLine
 10
89.32160848103825
 20
114.6419271080060
 30
0.0000000000000000
 11
89.32160848103843
 21
112.7419271080060
 31
0.0000000000000000
  0
LINE
  5
29D
100
AcDbEntity
  8
MAIN0
  6
CONTINUOUS
 62
3
100
AcDbLine
 10
89.32160848103956
 20
100.7419271080060
 30
0.0000000000000000
 11
89.32160848103973
 21
98.84192710800602
 31
0.0000000000000000
  0
LINE
  5
29E
100
AcDbEntity
  8
MAIN0
  6
CONTINUOUS
 62
3
100
AcDbLine
 10
84.82160848103979
 20
98.24192710800600
 30
0.0000000000000000
 11
81.82160848103951
 21
101.2419271080060
 31
0.0000000000000000
  0
LINE
  5
29F
100
AcDbEntity
  8
MAIN0
  6
CONTINUOUS
 62
3
100
AcDbLine
 10
84.82160848103831
 20
115.2419271080060
 30
0.0000000000000000
 11
81.82160848103860
 21
112.2419271080060
 31
0.0000000000000000
  0
LINE
  5
2A0
100
AcDbEntity
  8
MAIN0
  6
CONTINUOUS
 62
3
100
AcDbLine
 10
89.32160848103985
 20
98.84192710800613
 30
0.0000000000000000
 11
88.72160848103982
 21
98.24192710800605
 31
0.0000000000000000
  0
LINE
  5
2A1
100
AcDbEntity
  8
MAIN0
  6
CONTINUOUS
 62
3
100
AcDbLine
 10
88.72160848103829
 20
115.2419271080061
 30
0.0000000000000000
 11
89.32160848103831
 21
114.6419271080061
 31
0.0000000000000000
  0
LINE
  5
2A2
100
AcDbEntity
  8
MAIN0
  6
CONTINUOUS
 62
3
100
AcDbLine
 10
514.4018812844604
 20
238.8619893891729
 30
0.0000000000000000
 11
501.4018812844604
 21
216.3453288907775
 31
0.0000000000000000
  0
LINE
  5
2A3
100
AcDbEntity
  8
MAIN0
  6
HIDDEN
 62
3
100
AcDbLine
 10
471.6292119338660
 20
266.4435528986456
 30
0.0000000000000000
 11
471.3560068531090
 21
266.3703478178887
 31
0.0000000000000000
  0
LINE
  5
2A4
100
AcDbEntity
  8
MAIN0
  6
HIDDEN
 62
3
100
AcDbLine
 10
456.1292119338614
 20
239.5967653813307
 30
0.0000000000000000
 11
456.0560068531045
 21
239.8699704620876
 31
0.0000000000000000
  0
LINE
  5
2A5
100
AcDbEntity
  8
MAIN0
  6
HIDDEN
 62
3
100
AcDbLine
 10
475.2817000084581
 20
264.1038478178921
 30
0.0000000000000000
 11
459.9817000084528
 21
237.6034704620912
 31
0.0000000000000000
  0
LINE
  5
2A6
100
AcDbEntity
  8
MAIN0
  6
HIDDEN
 62
3
100
AcDbLine
 10
459.9817000084530
 20
237.6034704620911
 30
0.0000000000000000
 11
460.0549050892099
 21
237.3302653813342
 31
0.0000000000000000
  0
LINE
  5
2A7
100
AcDbEntity
  8
MAIN0
  6
HIDDEN
 62
3
100
AcDbLine
 10
475.2817000084581
 20
264.1038478178922
 30
0.0000000000000000
 11
475.5549050892150
 21
264.1770528986492
 31
0.0000000000000000
  0
LINE
  5
2A8
100
AcDbEntity
  8
MAIN0
  6
CONTINUOUS
 62
3
100
AcDbLine
 10
504.9018812844602
 20
222.4075067172687
 30
0.0000000000000000
 11
471.4733006983930
 21
241.7075067172617
 31
0.0000000000000000
  0
LINE
  5
2A9
100
AcDbEntity
  8
MAIN0
  6
CONTINUOUS
 62
3
100
AcDbLine
 10
510.9018812844603
 20
232.7998115626820
 30
0.0000000000000000
 11
477.4733006983926
 21
252.0998115626753
 31
0.0000000000000000
  0
LINE
  5
2AA
100
AcDbEntity
  8
MAIN0
  6
CONTINUOUS
 62
3
100
AcDbLine
 10
481.8768905368787
 20
260.5270528986276
 30
0.0000000000000000
 11
477.3268905368790
 21
252.6462217241892
 31
0.0000000000000000
  0
LINE
  5
2AB
100
AcDbEntity
  8
MAIN0
  6
CONTINUOUS
 62
3
100
AcDbLine
 10
470.9268905368792
 20
241.5610965557479
 30
0.0000000000000000
 11
466.3768905368794
 21
233.6802653813095
 31
0.0000000000000000
  0
LINE
  5
2AC
100
AcDbEntity
  8
MAIN0
  6
CONTINUOUS
 62
3
100
AcDbLine
 10
501.4018812844597
 20
216.3453288907769
 30
0.0000000000000000
 11
499.3638626117223
 21
214.6352281741484
 31
0.0000000000000000
  0
LINE
  5
2AD
100
AcDbEntity
  8
MAIN0
  6
CONTINUOUS
 62
3
100
AcDbLine
 10
470.9268905368792
 20
241.5610965557476
 30
0.0000000000000000
 11
471.4733006983930
 21
241.7075067172614
 31
0.0000000000000000
  0
LINE
  5
2AE
100
AcDbEntity
  8
MAIN0
  6
CONTINUOUS
 62
3
100
AcDbLine
 10
477.3268905368791
 20
252.6462217241890
 30
0.0000000000000000
 11
477.4733006983929
 21
252.0998115626753
 31
0.0000000000000000
  0
LINE
  5
2AF
100
AcDbEntity
  8
MAIN0
  6
HIDDEN
 62
3
100
AcDbLine
 10
456.0560068531045
 20
239.8699704620874
 30
0.0000000000000000
 11
471.3560068531092
 21
266.3703478178887
 31
0.0000000000000000
  0
LINE
  5
2B0
100
AcDbEntity
  8
MAIN0
  6
HIDDEN
 62
3
100
AcDbLine
 10
471.6292119338659
 20
266.4435528986455
 30
0.0000000000000000
 11
481.7902879964875
 21
260.5770528986348
 31
0.0000000000000000
  0
LINE
  5
2B1
100
AcDbEntity
  8
MAIN0
  6
CONTINUOUS
 62
3
100
AcDbLine
 10
481.7902879964873
 20
260.5770528986348
 30
0.0000000000000000
 11
515.9373164713639
 21
240.8622568166390
 31
0.0000000000000000
  0
LINE
  5
2B2
100
AcDbEntity
  8
MAIN0
  6
HIDDEN
 62
3
100
AcDbLine
 10
456.1292119338615
 20
239.5967653813305
 30
0.0000000000000000
 11
466.2902879964874
 21
233.7302653813171
 31
0.0000000000000000
  0
LINE
  5
2B3
100
AcDbEntity
  8
MAIN0
  6
CONTINUOUS
 62
3
100
AcDbLine
 10
466.2902879964876
 20
233.7302653813171
 30
0.0000000000000000
 11
500.4373164713294
 21
214.0154692993414
 31
0.0000000000000000
  0
ARC
  5
2B4
100
AcDbEntity
  8
MAIN0
  6
CONTINUOUS
 62
3
100
AcDbCircle
 10
475.2527235617870
 20
246.4536591399751
 30
0.0000000000000000
 40
6.300000000000000
100
AcDbArc
 50
70.08086300043702
 51
111.0575587309933
  0
ARC
  5
2B5
100
AcDbEntity
  8
MAIN0
  6
HIDDEN
 62
3
100
AcDbCircle
 10
475.2527235617870
 20
246.4536591399751
 30
0.0000000000000000
 40
6.300000000000000
100
AcDbArc
 50
111.0575587309933
 51
188.9424412690414
  0
ARC
  5
2B6
100
AcDbEntity
  8
MAIN0
  6
CONTINUOUS
 62
3
100
AcDbCircle
 10
475.2527235617870
 20
246.4536591399751
 30
0.0000000000000000
 40
6.300000000000000
100
AcDbArc
 50
188.9424412690414
 51
229.9191369995683
  0
LINE
  5
2B7
100
AcDbEntity
  8
MAIN0
  6
CENTER
 62
3
100
AcDbLine
 10
485.9251192527848
 20
249.0387907152271
 30
0.0000000000000000
 11
478.4942721931502
 21
236.1681860646661
 31
0.0000000000000000
  0
LINE
  5
2B8
100
AcDbEntity
  8
MAIN0
  6
CONTINUOUS
 62
3
100
AcDbLine
 10
477.6424349935127
 20
249.6927607550774
 30
0.0000000000000000
 11
473.6424349935898
 21
242.7645575249345
 31
0.0000000000000000
  0
LINE
  5
2B9
100
AcDbEntity
  8
MAIN0
  6
CONTINUOUS
 62
3
100
AcDbLine
 10
504.2523622316096
 20
222.7825067172706
 30
0.0000000000000000
 11
474.3744858012104
 21
240.0325067171760
 31
0.0000000000000000
  0
LINE
  5
2BA
100
AcDbEntity
  8
MAIN0
  6
CONTINUOUS
 62
3
100
AcDbLine
 10
510.2523622316101
 20
233.1748115626837
 30
0.0000000000000000
 11
480.3744858010972
 21
250.4248115626546
 31
0.0000000000000000
  0
CIRCLE
  5
2BB
100
AcDbEntity
  8
MAIN0
  6
CONTINUOUS
 62
3
100
AcDbCircle
 10
499.4581335975753
 20
232.4786591399625
 30
0.0000000000000000
 40
5.000000000000000
  0
CIRCLE
  5
2BC
100
AcDbEntity
  8
MAIN0
  6
CONTINUOUS
 62
3
100
AcDbCircle
 10
499.4581335975753
 20
232.4786591399625
 30
0.0000000000000000
 40
4.250000000000000
  0
LINE
  5
2BD
100
AcDbEntity
  8
MAIN0
  6
CONTINUOUS
 62
3
100
AcDbLine
 10
514.4018812844606
 20
238.8619893891738
 30
0.0000000000000000
 11
514.8638626117224
 21
241.4820156914671
 31
0.0000000000000000
  0
LINE
  5
2BE
100
AcDbEntity
  8
MAIN0
  6
CONTINUOUS
 62
3
100
AcDbLine
 10
356.7765048779165
 20
238.8619893891729
 30
0.0000000000000000
 11
369.7765048779165
 21
216.3453288907775
 31
0.0000000000000000
  0
LINE
  5
2BF
100
AcDbEntity
  8
MAIN0
  6
HIDDEN
 62
3
100
AcDbLine
 10
399.5491742285111
 20
266.4435528986456
 30
0.0000000000000000
 11
399.8223793092681
 21
266.3703478178887
 31
0.0000000000000000
  0
LINE
  5
2C0
100
AcDbEntity
  8
MAIN0
  6
HIDDEN
 62
3
100
AcDbLine
 10
415.0491742285158
 20
239.5967653813308
 30
0.0000000000000000
 11
415.1223793092726
 21
239.8699704620876
 31
0.0000000000000000
  0
LINE
  5
2C1
100
AcDbEntity
  8
MAIN0
  6
HIDDEN
 62
3
100
AcDbLine
 10
395.8966861539186
 20
264.1038478178921
 30
0.0000000000000000
 11
411.1966861539239
 21
237.6034704620911
 31
0.0000000000000000
  0
LINE
  5
2C2
100
AcDbEntity
  8
MAIN0
  6
HIDDEN
 62
3
100
AcDbLine
 10
411.1966861539240
 20
237.6034704620911
 30
0.0000000000000000
 11
411.1234810731671
 21
237.3302653813342
 31
0.0000000000000000
  0
LINE
  5
2C3
100
AcDbEntity
  8
MAIN0
  6
HIDDEN
 62
3
100
AcDbLine
 10
395.8966861539188
 20
264.1038478178922
 30
0.0000000000000000
 11
395.6234810731619
 21
264.1770528986492
 31
0.0000000000000000
  0
LINE
  5
2C4
100
AcDbEntity
  8
MAIN0
  6
CONTINUOUS
 62
3
100
AcDbLine
 10
366.2765048779166
 20
222.4075067172688
 30
0.0000000000000000
 11
399.7050854639840
 21
241.7075067172618
 31
0.0000000000000000
  0
LINE
  5
2C5
100
AcDbEntity
  8
MAIN0
  6
CONTINUOUS
 62
3
100
AcDbLine
 10
360.2765048779166
 20
232.7998115626820
 30
0.0000000000000000
 11
393.7050854639845
 21
252.0998115626753
 31
0.0000000000000000
  0
LINE
  5
2C6
100
AcDbEntity
  8
MAIN0
  6
CONTINUOUS
 62
3
100
AcDbLine
 10
389.3014956254984
 20
260.5270528986276
 30
0.0000000000000000
 11
393.8514956254982
 21
252.6462217241892
 31
0.0000000000000000
  0
LINE
  5
2C7
100
AcDbEntity
  8
MAIN0
  6
CONTINUOUS
 62
3
100
AcDbLine
 10
400.2514956254976
 20
241.5610965557479
 30
0.0000000000000000
 11
404.8014956254974
 21
233.6802653813095
 31
0.0000000000000000
  0
LINE
  5
2C8
100
AcDbEntity
  8
MAIN0
  6
CONTINUOUS
 62
3
100
AcDbLine
 10
369.7765048779172
 20
216.3453288907769
 30
0.0000000000000000
 11
371.8145235506546
 21
214.6352281741483
 31
0.0000000000000000
  0
LINE
  5
2C9
100
AcDbEntity
  8
MAIN0
  6
CONTINUOUS
 62
3
100
AcDbLine
 10
400.2514956254976
 20
241.5610965557476
 30
0.0000000000000000
 11
399.7050854639838
 21
241.7075067172614
 31
0.0000000000000000
  0
LINE
  5
2CA
100
AcDbEntity
  8
MAIN0
  6
CONTINUOUS
 62
3
100
AcDbLine
 10
393.8514956254978
 20
252.6462217241889
 30
0.0000000000000000
 11
393.7050854639840
 21
252.0998115626752
 31
0.0000000000000000
  0
LINE
  5
2CB
100
AcDbEntity
  8
MAIN0
  6
HIDDEN
 62
3
100
AcDbLine
 10
415.1223793092721
 20
239.8699704620873
 30
0.0000000000000000
 11
399.8223793092675
 21
266.3703478178887
 31
0.0000000000000000
  0
LINE
  5
2CC
100
AcDbEntity
  8
MAIN0
  6
HIDDEN
 62
3
100
AcDbLine
 10
399.5491742285109
 20
266.4435528986456
 30
0.0000000000000000
 11
389.3880981658896
 21
260.5770528986349
 31
0.0000000000000000
  0
LINE
  5
2CD
100
AcDbEntity
  8
MAIN0
  6
CONTINUOUS
 62
3
100
AcDbLine
 10
389.3880981658896
 20
260.5770528986348
 30
0.0000000000000000
 11
355.2410696910131
 21
240.8622568166391
 31
0.0000000000000000
  0
LINE
  5
2CE
100
AcDbEntity
  8
MAIN0
  6
HIDDEN
 62
3
100
AcDbLine
 10
415.0491742285155
 20
239.5967653813304
 30
0.0000000000000000
 11
404.8880981658895
 21
233.7302653813171
 31
0.0000000000000000
  0
LINE
  5
2CF
100
AcDbEntity
  8
MAIN0
  6
CONTINUOUS
 62
3
100
AcDbLine
 10
404.8880981658895
 20
233.7302653813172
 30
0.0000000000000000
 11
370.7410696910476
 21
214.0154692993415
 31
0.0000000000000000
  0
ARC
  5
2D0
100
AcDbEntity
  8
MAIN0
  6
CONTINUOUS
 62
3
100
AcDbCircle
 10
395.9256626005899
 20
246.4536591399751
 30
0.0000000000000000
 40
6.300000000000000
100
AcDbArc
 50
68.94244126900668
 51
109.9191369995630
  0
ARC
  5
2D1
100
AcDbEntity
  8
MAIN0
  6
HIDDEN
 62
3
100
AcDbCircle
 10
395.9256626005899
 20
246.4536591399751
 30
0.0000000000000000
 40
6.300000000000000
100
AcDbArc
 50
351.0575587309587
 51
428.9424412690067
  0
ARC
  5
2D2
100
AcDbEntity
  8
MAIN0
  6
CONTINUOUS
 62
3
100
AcDbCircle
 10
395.9256626005899
 20
246.4536591399751
 30
0.0000000000000000
 40
6.300000000000000
100
AcDbArc
 50
310.0808630004316
 51
351.0575587309587
  0
LINE
  5
2D3
100
AcDbEntity
  8
MAIN0
  6
CENTER
 62
3
100
AcDbLine
 10
385.2532669095921
 20
249.0387907152271
 30
0.0000000000000000
 11
392.6841139692267
 21
236.1681860646661
 31
0.0000000000000000
  0
LINE
  5
2D4
100
AcDbEntity
  8
MAIN0
  6
CONTINUOUS
 62
3
100
AcDbLine
 10
393.5359511688642
 20
249.6927607550776
 30
0.0000000000000000
 11
397.5359511687872
 21
242.7645575249347
 31
0.0000000000000000
  0
LINE
  5
2D5
100
AcDbEntity
  8
MAIN0
  6
CONTINUOUS
 62
3
100
AcDbLine
 10
366.9260239307671
 20
222.7825067172705
 30
0.0000000000000000
 11
396.8039003611663
 21
240.0325067171759
 31
0.0000000000000000
  0
LINE
  5
2D6
100
AcDbEntity
  8
MAIN0
  6
CONTINUOUS
 62
3
100
AcDbLine
 10
360.9260239307670
 20
233.1748115626836
 30
0.0000000000000000
 11
390.8039003612798
 21
250.4248115626546
 31
0.0000000000000000
  0
CIRCLE
  5
2D7
100
AcDbEntity
  8
MAIN0
  6
CONTINUOUS
 62
3
100
AcDbCircle
 10
371.7202525648016
 20
232.4786591399625
 30
0.0000000000000000
 40
5.000000000000000
  0
CIRCLE
  5
2D8
100
AcDbEntity
  8
MAIN0
  6
CONTINUOUS
 62
3
100
AcDbCircle
 10
371.7202525648016
 20
232.4786591399625
 30
0.0000000000000000
 40
4.250000000000000
  0
LINE
  5
2D9
100
AcDbEntity
  8
MAIN0
  6
CONTINUOUS
 62
3
100
AcDbLine
 10
356.7765048779162
 20
238.8619893891739
 30
0.0000000000000000
 11
356.3145235506544
 21
241.4820156914671
 31
0.0000000000000000
  0
LINE
  5
2DA
100
AcDbEntity
  8
MAIN0
  6
CONTINUOUS
 62
3
100
AcDbLine
 10
220.1859822316813
 20
357.3529114164330
 30
0.0000000000000000
 11
221.4850203374993
 21
356.6029114163504
 31
0.0000000000000000
  0
LINE
  5
2DB
100
AcDbEntity
  8
MAIN0
  6
CONTINUOUS
 62
3
100
AcDbLine
 10
221.4850203374995
 20
356.6029114163507
 30
0.0000000000000000
 11
220.1859822318195
 21
355.8529114163484
 31
0.0000000000000000
  0
LINE
  5
2DC
100
AcDbEntity
  8
MAIN0
  6
CONTINUOUS
 62
3
100
AcDbLine
 10
220.1859822318200
 20
355.8529114163484
 30
0.0000000000000000
 11
221.4850203375645
 21
355.1029114163085
 31
0.0000000000000000
  0
LINE
  5
2DD
100
AcDbEntity
  8
MAIN0
  6
CONTINUOUS
 62
3
100
AcDbLine
 10
221.4850203375638
 20
355.1029114163083
 30
0.0000000000000000
 11
220.1859822319570
 21
354.3529114163483
 31
0.0000000000000000
  0
LINE
  5
2DE
100
AcDbEntity
  8
MAIN0
  6
CONTINUOUS
 62
3
100
AcDbLine
 10
220.1859822319575
 20
354.3529114163488
 30
0.0000000000000000
 11
221.4850203377021
 21
353.6029114163085
 31
0.0000000000000000
  0
LINE
  5
2DF
100
AcDbEntity
  8
MAIN0
  6
CONTINUOUS
 62
3
100
AcDbLine
 10
221.4850203377022
 20
353.6029114163083
 30
0.0000000000000000
 11
220.1859822320957
 21
352.8529114163484
 31
0.0000000000000000
  0
LINE
  5
2E0
100
AcDbEntity
  8
MAIN0
  6
CONTINUOUS
 62
3
100
AcDbLine
 10
61.82160848103683
 20
91.44192710800604
 30
0.0000000000000000
 11
61.82160848103723
 21
122.0419271080061
 31
0.0000000000000000
  0
LINE
  5
2E1
100
AcDbEntity
  8
MAIN0
  6
CONTINUOUS
 62
3
100
AcDbLine
 10
62.02160848103677
 20
91.24192710800597
 30
0.0000000000000000
 11
66.32160848103678
 21
91.24192710800597
 31
0.0000000000000000
  0
LINE
  5
2E2
100
AcDbEntity
  8
MAIN0
  6
CONTINUOUS
 62
3
100
AcDbLine
 10
62.02160848103716
 20
122.2419271080060
 30
0.0000000000000000
 11
66.32160848103729
 21
122.2419271080060
 31
0.0000000000000000
  0
LINE
  5
2E3
100
AcDbEntity
  8
MAIN0
  6
CONTINUOUS
 62
3
100
AcDbLine
 10
101.3216084810390
 20
121.7419271080060
 30
0.0000000000000000
 11
101.3216084810390
 21
113.2419271080058
 31
0.0000000000000000
  0
LINE
  5
2E4
100
AcDbEntity
  8
MAIN0
  6
CONTINUOUS
 62
3
100
AcDbLine
 10
66.52160848103728
 20
129.2419271080060
 30
0.0000000000000000
 11
80.12160848103736
 21
129.2419271080060
 31
0.0000000000000000
  0
LINE
  5
2E5
100
AcDbEntity
  8
MAIN0
  6
CONTINUOUS
 62
3
100
AcDbLine
 10
80.32160848103689
 20
84.44192710800576
 30
0.0000000000000000
 11
80.32160848103695
 21
91.24192710800597
 31
0.0000000000000000
  0
LINE
  5
2E6
100
AcDbEntity
  8
MAIN0
  6
CONTINUOUS
 62
3
100
AcDbLine
 10
80.32160848103735
 20
122.2419271080060
 30
0.0000000000000000
 11
80.32160848103740
 21
129.0419271080058
 31
0.0000000000000000
  0
LINE
  5
2E7
100
AcDbEntity
  8
MAIN0
  6
CONTINUOUS
 62
3
100
AcDbLine
 10
66.32160848103678
 20
84.44192710800587
 30
0.0000000000000000
 11
66.32160848103683
 21
91.24192710800594
 31
0.0000000000000000
  0
LINE
  5
2E8
100
AcDbEntity
  8
MAIN0
  6
CONTINUOUS
 62
3
100
AcDbLine
 10
66.32160848103723
 20
122.2419271080060
 30
0.0000000000000000
 11
66.32160848103740
 21
129.0419271080061
 31
0.0000000000000000
  0
LINE
  5
2E9
100
AcDbEntity
  8
MAIN0
  6
PHANTOM
 62
3
100
AcDbLine
 10
100.3216084810390
 20
122.2419271080059
 30
0.0000000000000000
 11
100.3216084810390
 21
112.7419271080060
 31
0.0000000000000000
  0
LINE
  5
2EA
100
AcDbEntity
  8
MAIN0
  6
CONTINUOUS
 62
3
100
AcDbLine
 10
100.4555830772553
 20
122.2419271080060
 30
0.0000000000000000
 11
101.3216084810392
 21
121.7419271080063
 31
0.0000000000000000
  0
LINE
  5
2EB
100
AcDbEntity
  8
MAIN0
  6
CONTINUOUS
 62
3
100
AcDbLine
 10
100.4555830772547
 20
112.7419271080069
 30
0.0000000000000000
 11
101.3216084810391
 21
113.2419271080061
 31
0.0000000000000000
  0
LINE
  5
2EC
100
AcDbEntity
  8
MAIN0
  6
CONTINUOUS
 62
3
100
AcDbLine
 10
101.3216084810391
 20
91.74192710800600
 30
0.0000000000000000
 11
101.3216084810391
 21
100.2419271080062
 31
0.0000000000000000
  0
LINE
  5
2ED
100
AcDbEntity
  8
MAIN0
  6
CONTINUOUS
 62
3
100
AcDbLine
 10
84.32160848100978
 20
97.49192710800597
 30
0.0000000000000000
 11
88.12160848103895
 21
97.49192710800597
 31
0.0000000000000000
  0
LINE
  5
2EE
100
AcDbEntity
  8
MAIN0
  6
PHANTOM
 62
3
100
AcDbLine
 10
100.3216084810391
 20
91.24192710800617
 30
0.0000000000000000
 11
100.3216084810391
 21
100.7419271080069
 31
0.0000000000000000
  0
LINE
  5
2EF
100
AcDbEntity
  8
MAIN0
  6
CONTINUOUS
 62
3
100
AcDbLine
 10
100.4555830772549
 20
91.24192710800597
 30
0.0000000000000000
 11
101.3216084810388
 21
91.74192710800581
 31
0.0000000000000000
  0
LINE
  5
2F0
100
AcDbEntity
  8
MAIN0
  6
CONTINUOUS
 62
3
100
AcDbLine
 10
100.4555830772524
 20
100.7419271080069
 30
0.0000000000000000
 11
101.3216084810392
 21
100.2419271080062
 31
0.0000000000000000
  0
LINE
  5
2F1
100
AcDbEntity
  8
MAIN0
  6
CONTINUOUS
 62
3
100
AcDbLine
 10
80.32160848103678
 20
84.44192710800603
 30
0.0000000000000000
 11
80.12160848103672
 21
84.24192710800602
 31
0.0000000000000000
  0
LINE
  5
2F2
100
AcDbEntity
  8
MAIN0
  6
CONTINUOUS
 62
3
100
AcDbLine
 10
66.52160848103669
 20
84.24192710800604
 30
0.0000000000000000
 11
66.32160848103671
 21
84.44192710800603
 31
0.0000000000000000
  0
LINE
  5
2F3
100
AcDbEntity
  8
MAIN0
  6
CONTINUOUS
 62
3
100
AcDbLine
 10
66.52160848103719
 20
129.2419271080062
 30
0.0000000000000000
 11
66.32160848103723
 21
129.0419271080062
 31
0.0000000000000000
  0
LINE
  5
2F4
100
AcDbEntity
  8
MAIN0
  6
CONTINUOUS
 62
3
100
AcDbLine
 10
80.32160848103733
 20
129.0419271080060
 30
0.0000000000000000
 11
80.12160848103729
 21
129.2419271080060
 31
0.0000000000000000
  0
LINE
  5
2F5
100
AcDbEntity
  8
MAIN0
  6
CONTINUOUS
 62
3
100
AcDbLine
 10
62.02160848103716
 20
122.2419271080061
 30
0.0000000000000000
 11
61.82160848103717
 21
122.0419271080061
 31
0.0000000000000000
  0
LINE
  5
2F6
100
AcDbEntity
  8
MAIN0
  6
CONTINUOUS
 62
3
100
AcDbLine
 10
62.02160848103683
 20
91.24192710800595
 30
0.0000000000000000
 11
61.82160848103679
 21
91.44192710800600
 31
0.0000000000000000
  0
LINE
  5
2F7
100
AcDbEntity
  8
MAIN0
  6
CONTINUOUS
 62
3
100
AcDbLine
 10
81.49734441229798
 20
100.0661911767425
 30
0.0000000000000000
 11
83.89587254974582
 21
97.66766303929438
 31
0.0000000000000000
  0
LINE
  5
2F8
100
AcDbEntity
  8
MAIN0
  6
CONTINUOUS
 62
3
100
AcDbLine
 10
81.32160848100864
 20
112.9919271080058
 30
0.0000000000000000
 11
81.32160848100978
 21
100.4919271080058
 31
0.0000000000000000
  0
LINE
  5
2F9
100
AcDbEntity
  8
MAIN0
  6
CONTINUOUS
 62
3
100
AcDbLine
 10
89.92160848136518
 20
100.4419271080061
 30
0.0000000000000000
 11
89.32160848103909
 21
99.84192710768014
 31
0.0000000000000000
  0
ARC
  5
2FA
100
AcDbEntity
  8
MAIN0
  6
CONTINUOUS
 62
3
100
AcDbCircle
 10
88.12160848103900
 20
98.69192710800604
 30
0.0000000000000000
 40
1.200000000000000
100
AcDbArc
 50
270.0000000000000
 51
360.0000000000000
  0
ARC
  5
2FB
100
AcDbEntity
  8
MAIN0
  6
CONTINUOUS
 62
3
100
AcDbCircle
 10
84.32013661845747
 20
98.09192710800602
 30
0.0000000000000000
 40
0.6000000000000000
100
AcDbArc
 50
224.9999999999962
 51
270.0000000000000
  0
ARC
  5
2FC
100
AcDbEntity
  8
MAIN0
  6
CONTINUOUS
 62
3
100
AcDbCircle
 10
81.92160848100974
 20
100.4904552454541
 30
0.0000000000000000
 40
0.6000000000000000
100
AcDbArc
 50
180.0000000000000
 51
224.9999999999962
  0
LINE
  5
2FD
100
AcDbEntity
  8
MAIN0
  6
CONTINUOUS
 62
3
100
AcDbLine
 10
84.32160848100853
 20
115.9919271080060
 30
0.0000000000000000
 11
88.12160848103895
 21
115.9919271080060
 31
0.0000000000000000
  0
LINE
  5
2FE
100
AcDbEntity
  8
MAIN0
  6
CONTINUOUS
 62
3
100
AcDbLine
 10
81.49734441229793
 20
113.4176630392700
 30
0.0000000000000000
 11
83.89587254974566
 21
115.8161911767180
 31
0.0000000000000000
  0
LINE
  5
2FF
100
AcDbEntity
  8
MAIN0
  6
CONTINUOUS
 62
3
100
AcDbLine
 10
89.92160848136517
 20
113.0419271080062
 30
0.0000000000000000
 11
89.32160848103911
 21
113.6419271083322
 31
0.0000000000000000
  0
ARC
  5
300
100
AcDbEntity
  8
MAIN0
  6
CONTINUOUS
 62
3
100
AcDbCircle
 10
88.12160848103900
 20
114.7919271080061
 30
0.0000000000000000
 40
1.200000000000000
100
AcDbArc
 50
0.0000000000000000
 51
90.00000000000000
  0
ARC
  5
301
100
AcDbEntity
  8
MAIN0
  6
CONTINUOUS
 62
3
100
AcDbCircle
 10
84.32013661845747
 20
115.3919271080061
 30
0.0000000000000000
 40
0.6000000000000000
100
AcDbArc
 50
90.00000000000000
 51
135.0000000000038
  0
ARC
  5
302
100
AcDbEntity
  8
MAIN0
  6
CONTINUOUS
 62
3
100
AcDbCircle
 10
81.92160848100974
 20
112.9933989705579
 30
0.0000000000000000
 40
0.6000000000000000
100
AcDbArc
 50
135.0000000000038
 51
180.0000000000000
  0
LINE
  5
303
100
AcDbEntity
  8
MAIN0
  6
CONTINUOUS
 62
3
100
AcDbLine
 10
76.82160848109641
 20
84.24192710800597
 30
0.0000000000000000
 11
80.12160848103679
 21
84.24192710800597
 31
0.0000000000000000
  0
LINE
  5
304
100
AcDbEntity
  8
MAIN0
  6
CONTINUOUS
 62
3
100
AcDbLine
 10
66.52160848103665
 20
84.24192710800597
 30
0.0000000000000000
 11
73.82160848109822
 21
84.24192710800597
 31
0.0000000000000000
  0
LINE
  5
305
100
AcDbEntity
  8
MAIN0
  6
CONTINUOUS
 62
3
100
AcDbLine
 10
73.82160848109822
 20
84.24192710800597
 30
0.0000000000000000
 11
76.82160848109641
 21
84.24192710800597
 31
0.0000000000000000
  0
LINE
  5
306
100
AcDbEntity
  8
MAIN0
  6
CONTINUOUS
 62
3
100
AcDbLine
 10
80.32160848103735
 20
122.2419271080060
 30
0.0000000000000000
 11
100.4555830772554
 21
122.2419271080060
 31
0.0000000000000000
  0
LINE
  5
307
100
AcDbEntity
  8
MAIN0
  6
CONTINUOUS
 62
3
100
AcDbLine
 10
80.32160848103700
 20
91.24192710800597
 30
0.0000000000000000
 11
100.4555830772549
 21
91.24192710800597
 31
0.0000000000000000
  0
LINE
  5
308
100
AcDbEntity
  8
MAIN0
  6
CONTINUOUS
 62
3
100
AcDbLine
 10
100.4555830772547
 20
112.7419271080068
 30
0.0000000000000000
 11
97.42160848103902
 21
112.7419271080068
 31
0.0000000000000000
  0
LINE
  5
309
100
AcDbEntity
  8
MAIN0
  6
CONTINUOUS
 62
3
100
AcDbLine
 10
97.42160848103902
 20
113.0419271080065
 30
0.0000000000000000
 11
97.42160848103902
 21
112.7419271080068
 31
0.0000000000000000
  0
LINE
  5
30A
100
AcDbEntity
  8
MAIN0
  6
CONTINUOUS
 62
3
100
AcDbLine
 10
100.4555830772523
 20
100.7419271080067
 30
0.0000000000000000
 11
97.42160848103868
 21
100.7419271080067
 31
0.0000000000000000
  0
LINE
  5
30B
100
AcDbEntity
  8
MAIN0
  6
CONTINUOUS
 62
3
100
AcDbLine
 10
97.42160848103868
 20
100.4419271080052
 30
0.0000000000000000
 11
97.42160848103868
 21
100.7419271080048
 31
0.0000000000000000
  0
LINE
  5
30C
100
AcDbEntity
  8
MAIN0
  6
CONTINUOUS
 62
3
100
AcDbLine
 10
89.92160848136456
 20
113.0419271080067
 30
0.0000000000000000
 11
97.42160848103919
 21
113.0419271080064
 31
0.0000000000000000
  0
LINE
  5
30D
100
AcDbEntity
  8
MAIN0
  6
CONTINUOUS
 62
3
100
AcDbLine
 10
89.92160848136416
 20
100.4419271080052
 30
0.0000000000000000
 11
97.42160848103873
 21
100.4419271080053
 31
0.0000000000000000
  0
LINE
  5
30E
100
AcDbEntity
  8
MAIN0
  6
CONTINUOUS
 62
3
100
AcDbLine
 10
89.32160848103899
 20
99.84192710767997
 30
0.0000000000000000
 11
89.32160848103899
 21
98.69192710800604
 31
0.0000000000000000
  0
LINE
  5
30F
100
AcDbEntity
  8
MAIN0
  6
CONTINUOUS
 62
3
100
AcDbLine
 10
89.32160848103899
 20
114.7919271080061
 30
0.0000000000000000
 11
89.32160848103899
 21
113.6419271083323
 31
0.0000000000000000
  0
CIRCLE
  5
310
100
AcDbEntity
  8
MAIN0
  6
CONTINUOUS
 62
3
100
AcDbCircle
 10
482.1376255218866
 20
242.4786591399625
 30
0.0000000000000000
 40
5.000000000000000
  0
CIRCLE
  5
311
100
AcDbEntity
  8
MAIN0
  6
CONTINUOUS
 62
3
100
AcDbCircle
 10
482.1376255218866
 20
242.4786591399625
 30
0.0000000000000000
 40
4.250000000000000
  0
CIRCLE
  5
312
100
AcDbEntity
  8
MAIN0
  6
CONTINUOUS
 62
3
100
AcDbCircle
 10
389.0407606404904
 20
242.4786591399625
 30
0.0000000000000000
 40
5.000000000000000
  0
CIRCLE
  5
313
100
AcDbEntity
  8
MAIN0
  6
CONTINUOUS
 62
3
100
AcDbCircle
 10
389.0407606404904
 20
242.4786591399625
 30
0.0000000000000000
 40
4.250000000000000
  0
LINE
  5
314
100
AcDbEntity
  8
MAIN0
  6
CONTINUOUS
 62
3
100
AcDbLine
 10
143.2359822319548
 20
283.2776749375350
 30
0.0000000000000000
 11
143.2359822319548
 21
281.8534091400841
 31
0.0000000000000000
  0
LINE
  5
315
100
AcDbEntity
  8
MAIN0
  6
CONTINUOUS
 62
3
100
AcDbLine
 10
126.3359822319547
 20
281.3915289247310
 30
0.0000000000000000
 11
126.3359822319545
 21
257.3152893554373
 31
0.0000000000000000
  0
LINE
  5
316
100
AcDbEntity
  8
MAIN0
  6
CONTINUOUS
 62
3
100
AcDbLine
 10
127.1359822319600
 20
281.8534091400844
 30
0.0000000000000000
 11
126.3359822319548
 21
281.3915289247310
 31
0.0000000000000000
  0
LINE
  5
317
100
AcDbEntity
  8
MAIN0
  6
CONTINUOUS
 62
3
100
AcDbLine
 10
135.2359822319548
 20
283.3993350603826
 30
0.0000000000000000
 11
135.2359822319548
 21
281.8534091400841
 31
0.0000000000000000
  0
LINE
  5
318
100
AcDbEntity
  8
MAIN0
  6
CONTINUOUS
 62
3
100
AcDbLine
 10
133.2359822319549
 20
283.6610026350227
 30
0.0000000000000000
 11
133.2359822319549
 21
281.8534091400842
 31
0.0000000000000000
  0
LINE
  5
319
100
AcDbEntity
  8
MAIN0
  6
CONTINUOUS
 62
3
100
AcDbLine
 10
129.1359822319548
 20
284.3534091400842
 30
0.0000000000000000
 11
129.1359822319549
 21
281.8534091400842
 31
0.0000000000000000
  0
LINE
  5
31A
100
AcDbEntity
  8
MAIN0
  6
CONTINUOUS
 62
3
100
AcDbLine
 10
126.3359822319546
 20
257.3152893554373
 30
0.0000000000000000
 11
126.3359822319547
 21
281.3655123895036
 31
0.0000000000000000
  0
LINE
  5
31B
100
AcDbEntity
  8
MAIN0
  6
CONTINUOUS
 62
3
100
AcDbLine
 10
130.2092060031289
 20
284.3534091400841
 30
0.0000000000000000
 11
129.1359822319548
 21
284.3534091400841
 31
0.0000000000000000
  0
ELLIPSE
  5
31C
100
AcDbEntity
  8
MAIN0
  6
CONTINUOUS
 62
3
100
AcDbEllipse
 10
131.1859822319549
 20
283.1034091400842
 30
0.0000000000000000
 11
-2.050000000000000
 21
0.0000000000000000
 31
0.0000000000000000
210
0.0000000000000000
220
0.0000000000000000
230
1.000000000000000
 40
0.6097560975609757
 41
5.063999709548319
 42
3.619114138052315
  0
ARC
  5
31D
100
AcDbEntity
  8
MAIN0
  6
CONTINUOUS
 62
3
100
AcDbCircle
 10
212.3359822319549
 20
282.2534091400834
 30
0.0000000000000000
 40
0.4000000000000000
100
AcDbArc
 50
269.9999999994183
 51
359.9999999999898
  0
LINE
  5
31E
100
AcDbEntity
  8
MAIN0
  6
CONTINUOUS
 62
3
100
AcDbLine
 10
127.1359822319597
 20
256.8534091400842
 30
0.0000000000000000
 11
126.3359822319546
 21
257.3152893554374
 31
0.0000000000000000
  0
LINE
  5
31F
100
AcDbEntity
  8
MAIN0
  6
CONTINUOUS
 62
3
100
AcDbLine
 10
135.2359822319544
 20
254.9896940060420
 30
0.0000000000000000
 11
135.2359822319544
 21
256.8534091400841
 31
0.0000000000000000
  0
LINE
  5
320
100
AcDbEntity
  8
MAIN0
  6
CONTINUOUS
 62
3
100
AcDbLine
 10
212.3359822319550
 20
256.8534091400833
 30
0.0000000000000000
 11
119.2359822319548
 21
256.8534091400842
 31
0.0000000000000000
  0
LINE
  5
321
100
AcDbEntity
  8
MAIN0
  6
CONTINUOUS
 62
3
100
AcDbLine
 10
216.2359822319554
 20
352.8529114164342
 30
0.0000000000000000
 11
216.2359822319552
 21
313.8529114164329
 31
0.0000000000000000
  0
LINE
  5
322
100
AcDbEntity
  8
MAIN0
  6
CONTINUOUS
 62
3
100
AcDbLine
 10
214.7359822319556
 20
354.6034337326964
 30
0.0000000000000000
 11
216.2359822319552
 21
353.1034337326968
 31
0.0000000000000000
  0
LINE
  5
323
100
AcDbEntity
  8
MAIN0
  6
CONTINUOUS
 62
3
100
AcDbLine
 10
212.7359822319550
 20
251.6416359803250
 30
0.0000000000000000
 11
212.7359822319550
 21
256.4588484373210
 31
0.0000000000000000
  0
LINE
  5
324
100
AcDbEntity
  8
MAIN0
  6
CONTINUOUS
 62
3
100
AcDbLine
 10
212.7359822319549
 20
282.2534091400833
 30
0.0000000000000000
 11
212.7359822319549
 21
285.1714393001522
 31
0.0000000000000000
  0
LINE
  5
325
100
AcDbEntity
  8
MAIN0
  6
CONTINUOUS
 62
3
100
AcDbLine
 10
126.3359822319547
 20
279.3534091400842
 30
0.0000000000000000
 11
216.3359822319546
 21
279.3534091400842
 31
0.0000000000000000
  0
LINE
  5
326
100
AcDbEntity
  8
MAIN0
  6
CONTINUOUS
 62
3
100
AcDbLine
 10
217.8359822319550
 20
269.3534091400834
 30
0.0000000000000000
 11
217.8359822319553
 21
282.8534091400844
 31
0.0000000000000000
  0
LINE
  5
327
100
AcDbEntity
  8
MAIN0
  6
CONTINUOUS
 62
3
100
AcDbLine
 10
208.3359822319550
 20
269.3534091400834
 30
0.0000000000000000
 11
208.3359822319552
 21
278.9534091400843
 31
0.0000000000000000
  0
LINE
  5
328
100
AcDbEntity
  8
MAIN0
  6
CONTINUOUS
 62
3
100
AcDbLine
 10
217.1359822319548
 20
282.8534091400842
 30
0.0000000000000000
 11
217.8359822319552
 21
282.8534091400842
 31
0.0000000000000000
  0
LINE
  5
329
100
AcDbEntity
  8
MAIN0
  6
CONTINUOUS
 62
3
100
AcDbLine
 10
210.3359822319551
 20
277.5534091400843
 30
0.0000000000000000
 11
210.3359822319551
 21
279.3534091400843
 31
0.0000000000000000
  0
LINE
  5
32A
100
AcDbEntity
  8
MAIN0
  6
CONTINUOUS
 62
3
100
AcDbLine
 10
213.5359822319552
 20
277.5534091400843
 30
0.0000000000000000
 11
213.5359822319552
 21
279.3534091400843
 31
0.0000000000000000
  0
LINE
  5
32B
100
AcDbEntity
  8
MAIN0
  6
CONTINUOUS
 62
3
100
AcDbLine
 10
210.4642644092744
 20
277.3534091400842
 30
0.0000000000000000
 11
213.3359822319551
 21
277.3534091400842
 31
0.0000000000000000
  0
ARC
  5
32C
100
AcDbEntity
  8
MAIN0
  6
CONTINUOUS
 62
3
100
AcDbCircle
 10
210.5359822319551
 20
277.5534091400843
 30
0.0000000000000000
 40
0.2000000000000000
100
AcDbArc
 50
179.9999999999964
 51
270.0000000005678
  0
LINE
  5
32D
100
AcDbEntity
  8
MAIN0
  6
CONTINUOUS
 62
3
100
AcDbLine
 10
216.3359822319546
 20
281.4677684940280
 30
0.0000000000000000
 11
217.1359822319546
 21
282.8534091400843
 31
0.0000000000000000
  0
ARC
  5
32E
100
AcDbEntity
  8
MAIN0
  6
CONTINUOUS
 62
3
100
AcDbCircle
 10
213.3359822319551
 20
277.5534091400843
 30
0.0000000000000000
 40
0.2000000000000000
100
AcDbArc
 50
270.0000000005678
 51
359.9999999999934
  0
LINE
  5
32F
100
AcDbEntity
  8
MAIN0
  6
CONTINUOUS
 62
3
100
AcDbLine
 10
208.3359822319552
 20
278.9534091400844
 30
0.0000000000000000
 11
208.7359822319553
 21
279.3534091400842
 31
0.0000000000000000
  0
LINE
  5
330
100
AcDbEntity
  8
MAIN0
  6
CONTINUOUS
 62
3
100
AcDbLine
 10
215.9359822319548
 20
279.3534091400842
 30
0.0000000000000000
 11
216.3359822319548
 21
279.7534091400842
 31
0.0000000000000000
  0
ELLIPSE
  5
331
100
AcDbEntity
  8
MAIN0
  6
CONTINUOUS
 62
3
100
AcDbEllipse
 10
211.9359822319551
 20
278.3534091400842
 30
0.0000000000000000
 11
1.600000000000000
 21
0.0000000000000000
 31
0.0000000000000000
210
0.0000000000000000
220
0.0000000000000000
230
1.000000000000000
 40
0.6250000000000000
 41
0.0000000000000000
 42
6.283185307179586
  0
LINE
  5
332
100
AcDbEntity
  8
MAIN0
  6
CONTINUOUS
 62
3
100
AcDbLine
 10
217.8359822319550
 20
269.3534091400833
 30
0.0000000000000000
 11
217.8359822319550
 21
255.8534091400825
 31
0.0000000000000000
  0
LINE
  5
333
100
AcDbEntity
  8
MAIN0
  6
CONTINUOUS
 62
3
100
AcDbLine
 10
208.3359822319550
 20
269.3534091400834
 30
0.0000000000000000
 11
208.3359822319550
 21
259.7534091400827
 31
0.0000000000000000
  0
LINE
  5
334
100
AcDbEntity
  8
MAIN0
  6
CONTINUOUS
 62
3
100
AcDbLine
 10
217.1359822319545
 20
255.8534091400825
 30
0.0000000000000000
 11
217.8359822319549
 21
255.8534091400825
 31
0.0000000000000000
  0
LINE
  5
335
100
AcDbEntity
  8
MAIN0
  6
CONTINUOUS
 62
3
100
AcDbLine
 10
210.3359822319549
 20
261.1534091400826
 30
0.0000000000000000
 11
210.3359822319549
 21
259.3534091400826
 31
0.0000000000000000
  0
LINE
  5
336
100
AcDbEntity
  8
MAIN0
  6
CONTINUOUS
 62
3
100
AcDbLine
 10
213.5359822319549
 20
261.1534091400825
 30
0.0000000000000000
 11
213.5359822319549
 21
259.3534091400826
 31
0.0000000000000000
  0
LINE
  5
337
100
AcDbEntity
  8
MAIN0
  6
CONTINUOUS
 62
3
100
AcDbLine
 10
210.4642644092742
 20
261.3534091400826
 30
0.0000000000000000
 11
213.3359822319549
 21
261.3534091400825
 31
0.0000000000000000
  0
ARC
  5
338
100
AcDbEntity
  8
MAIN0
  6
CONTINUOUS
 62
3
100
AcDbCircle
 10
210.5359822319549
 20
261.1534091400826
 30
0.0000000000000000
 40
0.2000000000000000
100
AcDbArc
 50
89.99999999943105
 51
180.0000000000025
  0
LINE
  5
339
100
AcDbEntity
  8
MAIN0
  6
CONTINUOUS
 62
3
100
AcDbLine
 10
216.3359822319544
 20
257.2390497861387
 30
0.0000000000000000
 11
217.1359822319543
 21
255.8534091400824
 31
0.0000000000000000
  0
ARC
  5
33A
100
AcDbEntity
  8
MAIN0
  6
CONTINUOUS
 62
3
100
AcDbCircle
 10
213.3359822319550
 20
261.1534091400825
 30
0.0000000000000000
 40
0.2000000000000000
100
AcDbArc
 50
5.546887364472373e-012
 51
89.99999999943105
  0
LINE
  5
33B
100
AcDbEntity
  8
MAIN0
  6
CONTINUOUS
 62
3
100
AcDbLine
 10
208.3359822319549
 20
259.7534091400827
 30
0.0000000000000000
 11
208.7359822319550
 21
259.3534091400827
 31
0.0000000000000000
  0
LINE
  5
33C
100
AcDbEntity
  8
MAIN0
  6
CONTINUOUS
 62
3
100
AcDbLine
 10
215.9359822319547
 20
259.3534091400825
 30
0.0000000000000000
 11
216.3359822319545
 21
258.9534091400827
 31
0.0000000000000000
  0
ELLIPSE
  5
33D
100
AcDbEntity
  8
MAIN0
  6
CONTINUOUS
 62
3
100
AcDbEllipse
 10
211.9359822319549
 20
260.3534091400826
 30
0.0000000000000000
 11
1.600000000000000
 21
0.0000000000000000
 31
0.0000000000000000
210
0.0000000000000000
220
0.0000000000000000
230
1.000000000000000
 40
0.6250000000000000
 41
0.0000000000000000
 42
6.283185307179586
  0
LINE
  5
33E
100
AcDbEntity
  8
MAIN0
  6
CONTINUOUS
 62
3
100
AcDbLine
 10
217.8359822319550
 20
269.3534091400834
 30
0.0000000000000000
 11
217.8359822319553
 21
282.8534091400844
 31
0.0000000000000000
  0
LINE
  5
33F
100
AcDbEntity
  8
MAIN0
  6
CONTINUOUS
 62
3
100
AcDbLine
 10
208.3359822319550
 20
269.3534091400834
 30
0.0000000000000000
 11
208.3359822319552
 21
278.9534091400843
 31
0.0000000000000000
  0
LINE
  5
340
100
AcDbEntity
  8
MAIN0
  6
CONTINUOUS
 62
3
100
AcDbLine
 10
217.1359822319548
 20
282.8534091400842
 30
0.0000000000000000
 11
217.8359822319552
 21
282.8534091400842
 31
0.0000000000000000
  0
LINE
  5
341
100
AcDbEntity
  8
MAIN0
  6
CONTINUOUS
 62
3
100
AcDbLine
 10
210.3359822319551
 20
277.5534091400843
 30
0.0000000000000000
 11
210.3359822319551
 21
279.3534091400843
 31
0.0000000000000000
  0
LINE
  5
342
100
AcDbEntity
  8
MAIN0
  6
CONTINUOUS
 62
3
100
AcDbLine
 10
213.5359822319552
 20
277.5534091400843
 30
0.0000000000000000
 11
213.5359822319552
 21
279.3534091400843
 31
0.0000000000000000
  0
LINE
  5
343
100
AcDbEntity
  8
MAIN0
  6
CONTINUOUS
 62
3
100
AcDbLine
 10
210.4642644092744
 20
277.3534091400842
 30
0.0000000000000000
 11
213.3359822319551
 21
277.3534091400842
 31
0.0000000000000000
  0
ARC
  5
344
100
AcDbEntity
  8
MAIN0
  6
CONTINUOUS
 62
3
100
AcDbCircle
 10
210.5359822319551
 20
277.5534091400843
 30
0.0000000000000000
 40
0.2000000000000000
100
AcDbArc
 50
179.9999999999964
 51
270.0000000005678
  0
LINE
  5
345
100
AcDbEntity
  8
MAIN0
  6
CONTINUOUS
 62
3
100
AcDbLine
 10
216.3359822319546
 20
281.4677684940280
 30
0.0000000000000000
 11
217.1359822319546
 21
282.8534091400843
 31
0.0000000000000000
  0
ARC
  5
346
100
AcDbEntity
  8
MAIN0
  6
CONTINUOUS
 62
3
100
AcDbCircle
 10
213.3359822319551
 20
277.5534091400843
 30
0.0000000000000000
 40
0.2000000000000000
100
AcDbArc
 50
270.0000000005678
 51
359.9999999999934
  0
LINE
  5
347
100
AcDbEntity
  8
MAIN0
  6
CONTINUOUS
 62
3
100
AcDbLine
 10
208.3359822319552
 20
278.9534091400844
 30
0.0000000000000000
 11
208.7359822319553
 21
279.3534091400842
 31
0.0000000000000000
  0
LINE
  5
348
100
AcDbEntity
  8
MAIN0
  6
CONTINUOUS
 62
3
100
AcDbLine
 10
215.9359822319548
 20
279.3534091400842
 30
0.0000000000000000
 11
216.3359822319548
 21
279.7534091400842
 31
0.0000000000000000
  0
ELLIPSE
  5
349
100
AcDbEntity
  8
MAIN0
  6
CONTINUOUS
 62
3
100
AcDbEllipse
 10
211.9359822319551
 20
278.3534091400842
 30
0.0000000000000000
 11
1.600000000000000
 21
0.0000000000000000
 31
0.0000000000000000
210
0.0000000000000000
220
0.0000000000000000
230
1.000000000000000
 40
0.6250000000000000
 41
0.0000000000000000
 42
6.283185307179586
  0
LINE
  5
34A
100
AcDbEntity
  8
MAIN0
  6
CONTINUOUS
 62
3
100
AcDbLine
 10
126.3359822319547
 20
259.3534091400842
 30
0.0000000000000000
 11
216.3359822319544
 21
259.3534091400825
 31
0.0000000000000000
  0
ARC
  5
34B
100
AcDbEntity
  8
MAIN0
  6
CONTINUOUS
 62
3
100
AcDbCircle
 10
212.3359822319550
 20
256.4534091400834
 30
0.0000000000000000
 40
0.4000000000000000
100
AcDbArc
 50
0.0000000000000000
 51
89.99999999942553
  0
LINE
  5
34C
100
AcDbEntity
  8
MAIN0
  6
CONTINUOUS
 62
3
100
AcDbLine
 10
216.3359822319542
 20
221.3534091400833
 30
0.0000000000000000
 11
216.3359822319545
 21
259.3534091400825
 31
0.0000000000000000
  0
LINE
  5
34D
100
AcDbEntity
  8
MAIN0
  6
CENTER
 62
3
100
AcDbLine
 10
53.91188558443025
 20
106.7419271080061
 30
0.0000000000000000
 11
107.1938413684328
 21
106.7419271080061
 31
0.0000000000000000
  0
LINE
  5
34E
100
AcDbEntity
  8
MAIN0
  6
CONTINUOUS
 62
3
100
AcDbLine
 10
96.32160848103962
 20
91.24192710800608
 30
0.0000000000000000
 11
96.32160848103962
 21
81.98351667577509
 31
0.0000000000000000
  0
LINE
  5
34F
100
AcDbEntity
  8
MAIN0
  6
CONTINUOUS
 62
3
100
AcDbLine
 10
96.32160848103985
 20
131.6129932785491
 30
0.0000000000000000
 11
96.32160848103985
 21
122.2419271080061
 31
0.0000000000000000
  0
LINE
  5
350
100
AcDbEntity
  8
MAIN0
  6
PHANTOM
 62
3
100
AcDbLine
 10
100.3216084810397
 20
121.8192773771959
 30
0.0000000000000000
 11
100.3216084810396
 21
113.1645768388172
 31
0.0000000000000000
  0
LINE
  5
351
100
AcDbEntity
  8
MAIN0
  6
PHANTOM
 62
3
100
AcDbLine
 10
100.3216084810399
 20
91.66457683881629
 30
0.0000000000000000
 11
100.3216084810399
 21
100.3192773771949
 31
0.0000000000000000
  0
SPLINE
  5
352
100
AcDbEntity
  8
MAIN0
  6
CONTINUOUS
 62
3
100
AcDbSpline
210
0.0000000000000000
220
0.0000000000000000
230
1.000000000000000
 70
     8
 71
     3
 72
    10
 73
     6
 74
     0
 42
1.000000000000000e-007
 43
1.000000000000000e-007
 12
-0.9493655079074017
 22
-0.3715351203537978
 32
0.0000000000000000
 13
-0.9826108496681059
 23
-0.2287616611012027
 33
0.0000000000000000
 40
0.0000000000000000
 40
0.0000000000000000
 40
0.0000000000000000
 40
0.0000000000000000
 40
1.869231956714330
 40
3.889389605560871
 40
6.384939262287395
 40
6.384939262287395
 40
6.384939262287395
 40
6.384939262287395
 10
96.21347814346029
 20
81.99415463523081
 30
0.0000000000000000
 10
95.62195002813269
 20
81.76265952856181
 30
0.0000000000000000
 10
94.39113258202156
 20
81.28097791682689
 30
0.0000000000000000
 10
92.22929853377900
 20
81.70632830755136
 30
0.0000000000000000
 10
90.75023753631842
 20
81.36198807279476
 30
0.0000000000000000
 10
89.93285281345675
 20
81.17169271118365
 30
0.0000000000000000
  0
LINE
  5
353
100
AcDbEntity
  8
MAIN0
  6
CONTINUOUS
 62
3
100
AcDbLine
 10
216.2359822319547
 20
221.3534091400834
 30
0.0000000000000000
 11
216.2359822319547
 21
186.1033845474865
 31
0.0000000000000000
  0
LINE
  5
354
100
AcDbEntity
  8
MAIN0
  6
CONTINUOUS
 62
3
100
AcDbLine
 10
420.0891930811884
 20
358.1029114164996
 30
0.0000000000000000
 11
451.0891930811885
 21
358.1029114164996
 31
0.0000000000000000
  0
LINE
  5
355
100
AcDbEntity
  8
MAIN0
  6
CENTER
 62
3
100
AcDbLine
 10
422.2817508982958
 20
343.1029114164998
 30
0.0000000000000000
 11
449.1729164772395
 21
343.1029114164998
 31
0.0000000000000000
  0
LINE
  5
356
100
AcDbEntity
  8
MAIN0
  6
CENTER
 62
3
100
AcDbLine
 10
421.2115020502589
 20
323.1029114164999
 30
0.0000000000000000
 11
450.0191528016474
 21
323.1029114164999
 31
0.0000000000000000
  0
LINE
  5
357
100
AcDbEntity
  8
MAIN0
  6
HIDDEN
 62
3
100
AcDbLine
 10
422.5891930811888
 20
352.8529114165002
 30
0.0000000000000000
 11
448.5891930811886
 21
352.8529114165002
 31
0.0000000000000000
  0
LINE
  5
358
100
AcDbEntity
  8
MAIN0
  6
CONTINUOUS
 62
3
100
AcDbLine
 10
420.0891930811884
 20
358.1029114164996
 30
0.0000000000000000
 11
420.0891930811884
 21
291.5877389737843
 31
0.0000000000000000
  0
LINE
  5
359
100
AcDbEntity
  8
MAIN0
  6
CONTINUOUS
 62
3
100
AcDbLine
 10
451.0891930811884
 20
358.1029114164996
 30
0.0000000000000000
 11
451.0891930811885
 21
291.5877389737839
 31
0.0000000000000000
  0
LINE
  5
35A
100
AcDbEntity
  8
MAIN0
  6
HIDDEN
 62
3
100
AcDbLine
 10
413.0891930811885
 20
349.3951941909636
 30
0.0000000000000000
 11
413.0891930811885
 21
318.6029114164999
 31
0.0000000000000000
  0
LINE
  5
35B
100
AcDbEntity
  8
MAIN0
  6
HIDDEN
 62
3
100
AcDbLine
 10
458.0891930811884
 20
349.3951941909779
 30
0.0000000000000000
 11
458.0891930811884
 21
318.6029114164999
 31
0.0000000000000000
  0
LINE
  5
35C
100
AcDbEntity
  8
MAIN0
  6
CONTINUOUS
 62
3
100
AcDbLine
 10
418.0891930811884
 20
313.7529114164952
 30
0.0000000000000000
 11
418.0891930811884
 21
298.7529114164952
 31
0.0000000000000000
  0
LINE
  5
35D
100
AcDbEntity
  8
MAIN0
  6
CONTINUOUS
 62
3
100
AcDbLine
 10
453.0891930811884
 20
313.7529114164953
 30
0.0000000000000000
 11
453.0891930811884
 21
298.7529114164953
 31
0.0000000000000000
  0
CIRCLE
  5
35E
100
AcDbEntity
  8
MAIN0
  6
CONTINUOUS
 62
3
100
AcDbCircle
 10
398.9996197713247
 20
290.4784091401340
 30
0.0000000000000000
 40
4.250000000000000
  0
LINE
  5
35F
100
AcDbEntity
  8
MAIN0
  6
CONTINUOUS
 62
3
100
AcDbLine
 10
396.9996197713247
 20
289.3237086017547
 30
0.0000000000000000
 11
398.9996197713248
 21
288.1690080633754
 31
0.0000000000000000
  0
LINE
  5
360
100
AcDbEntity
  8
MAIN0
  6
CONTINUOUS
 62
3
100
AcDbLine
 10
398.9996197713247
 20
288.1690080633754
 30
0.0000000000000000
 11
400.9996197713247
 21
289.3237086017546
 31
0.0000000000000000
  0
LINE
  5
361
100
AcDbEntity
  8
MAIN0
  6
CONTINUOUS
 62
3
100
AcDbLine
 10
400.9996197713247
 20
289.3237086017546
 30
0.0000000000000000
 11
400.9996197713247
 21
291.6331096785132
 31
0.0000000000000000
  0
LINE
  5
362
100
AcDbEntity
  8
MAIN0
  6
CONTINUOUS
 62
3
100
AcDbLine
 10
400.9996197713248
 20
291.6331096785133
 30
0.0000000000000000
 11
398.9996197713246
 21
292.7878102168926
 31
0.0000000000000000
  0
LINE
  5
363
100
AcDbEntity
  8
MAIN0
  6
CONTINUOUS
 62
3
100
AcDbLine
 10
398.9996197713246
 20
292.7878102168924
 30
0.0000000000000000
 11
396.9996197713246
 21
291.6331096785131
 31
0.0000000000000000
  0
LINE
  5
364
100
AcDbEntity
  8
MAIN0
  6
CONTINUOUS
 62
3
100
AcDbLine
 10
396.9996197713247
 20
291.6331096785132
 30
0.0000000000000000
 11
396.9996197713247
 21
289.3237086017546
 31
0.0000000000000000
  0
CIRCLE
  5
365
100
AcDbEntity
  8
MAIN0
  6
CONTINUOUS
 62
3
100
AcDbCircle
 10
435.5891930811310
 20
227.1034091400842
 30
0.0000000000000000
 40
4.250000000000000
  0
LINE
  5
366
100
AcDbEntity
  8
MAIN0
  6
CONTINUOUS
 62
3
100
AcDbLine
 10
437.5891930811310
 20
225.9487086017050
 30
0.0000000000000000
 11
437.5891930811310
 21
228.2581096784635
 31
0.0000000000000000
  0
LINE
  5
367
100
AcDbEntity
  8
MAIN0
  6
CONTINUOUS
 62
3
100
AcDbLine
 10
437.5891930811310
 20
228.2581096784635
 30
0.0000000000000000
 11
435.5891930811310
 21
229.4128102168427
 31
0.0000000000000000
  0
LINE
  5
368
100
AcDbEntity
  8
MAIN0
  6
CONTINUOUS
 62
3
100
AcDbLine
 10
435.5891930811309
 20
229.4128102168426
 30
0.0000000000000000
 11
433.5891930811309
 21
228.2581096784634
 31
0.0000000000000000
  0
LINE
  5
369
100
AcDbEntity
  8
MAIN0
  6
CONTINUOUS
 62
3
100
AcDbLine
 10
433.5891930811311
 20
228.2581096784635
 30
0.0000000000000000
 11
433.5891930811311
 21
225.9487086017050
 31
0.0000000000000000
  0
LINE
  5
36A
100
AcDbEntity
  8
MAIN0
  6
CONTINUOUS
 62
3
100
AcDbLine
 10
433.5891930811309
 20
225.9487086017049
 30
0.0000000000000000
 11
435.5891930811309
 21
224.7940080633257
 31
0.0000000000000000
  0
LINE
  5
36B
100
AcDbEntity
  8
MAIN0
  6
CONTINUOUS
 62
3
100
AcDbLine
 10
435.5891930811309
 20
224.7940080633256
 30
0.0000000000000000
 11
437.5891930811309
 21
225.9487086017049
 31
0.0000000000000000
  0
LINE
  5
36C
100
AcDbEntity
  8
MAIN0
  6
CONTINUOUS
 62
3
100
AcDbLine
 10
429.5891930811891
 20
286.1029114164996
 30
0.0000000000000000
 11
441.5891930811885
 21
286.1029114164996
 31
0.0000000000000000
  0
LINE
  5
36D
100
AcDbEntity
  8
MAIN0
  6
CONTINUOUS
 62
3
100
AcDbLine
 10
441.5891930811883
 20
286.1029114164996
 30
0.0000000000000000
 11
451.0891930811884
 21
291.5877389737840
 31
0.0000000000000000
  0
LINE
  5
36E
100
AcDbEntity
  8
MAIN0
  6
CONTINUOUS
 62
3
100
AcDbLine
 10
420.0891930811887
 20
291.5877389737844
 30
0.0000000000000000
 11
429.5891930811891
 21
286.1029114164996
 31
0.0000000000000000
  0
LINE
  5
36F
100
AcDbEntity
  8
MAIN0
  6
CONTINUOUS
 62
3
100
AcDbLine
 10
451.0891930811885
 20
298.7529114164953
 30
0.0000000000000000
 11
453.0891930811884
 21
298.7529114164953
 31
0.0000000000000000
  0
LINE
  5
370
100
AcDbEntity
  8
MAIN0
  6
CONTINUOUS
 62
3
100
AcDbLine
 10
418.0891930811885
 20
298.7529114164952
 30
0.0000000000000000
 11
420.0891930811884
 21
298.7529114164952
 31
0.0000000000000000
  0
CIRCLE
  5
371
100
AcDbEntity
  8
MAIN0
  6
CONTINUOUS
 62
3
100
AcDbCircle
 10
435.5891930811884
 20
343.1029114164998
 30
0.0000000000000000
 40
8.500000000000000
  0
LINE
  5
372
100
AcDbEntity
  8
MAIN0
  6
CONTINUOUS
 62
3
100
AcDbLine
 10
418.0891930811884
 20
313.7529114164952
 30
0.0000000000000000
 11
420.0891930811884
 21
313.7529114164952
 31
0.0000000000000000
  0
LINE
  5
373
100
AcDbEntity
  8
MAIN0
  6
CONTINUOUS
 62
3
100
AcDbLine
 10
451.0891930811884
 20
313.7529114164953
 30
0.0000000000000000
 11
453.0891930811884
 21
313.7529114164953
 31
0.0000000000000000
  0
CIRCLE
  5
374
100
AcDbEntity
  8
MAIN0
  6
CONTINUOUS
 62
3
100
AcDbCircle
 10
435.5891930811884
 20
323.1029114164998
 30
0.0000000000000000
 40
8.000000000000000
  0
LINE
  5
375
100
AcDbEntity
  8
MAIN0
  6
CONTINUOUS
 62
3
100
AcDbLine
 10
435.5891930811883
 20
327.7217135700167
 30
0.0000000000000000
 11
431.5891930811883
 21
325.4123124932582
 31
0.0000000000000000
  0
LINE
  5
376
100
AcDbEntity
  8
MAIN0
  6
CONTINUOUS
 62
3
100
AcDbLine
 10
431.5891930811884
 20
325.4123124932582
 30
0.0000000000000000
 11
431.5891930811884
 21
320.7935103397413
 31
0.0000000000000000
  0
LINE
  5
377
100
AcDbEntity
  8
MAIN0
  6
CONTINUOUS
 62
3
100
AcDbLine
 10
431.5891930811886
 20
320.7935103397413
 30
0.0000000000000000
 11
435.5891930811885
 21
318.4841092629828
 31
0.0000000000000000
  0
LINE
  5
378
100
AcDbEntity
  8
MAIN0
  6
CONTINUOUS
 62
3
100
AcDbLine
 10
435.5891930811883
 20
318.4841092629828
 30
0.0000000000000000
 11
439.5891930811883
 21
320.7935103397413
 31
0.0000000000000000
  0
LINE
  5
379
100
AcDbEntity
  8
MAIN0
  6
CONTINUOUS
 62
3
100
AcDbLine
 10
439.5891930811884
 20
320.7935103397413
 30
0.0000000000000000
 11
439.5891930811884
 21
325.4123124932582
 31
0.0000000000000000
  0
LINE
  5
37A
100
AcDbEntity
  8
MAIN0
  6
CONTINUOUS
 62
3
100
AcDbLine
 10
439.5891930811885
 20
325.4123124932582
 30
0.0000000000000000
 11
435.5891930811886
 21
327.7217135700167
 31
0.0000000000000000
  0
CIRCLE
  5
37B
100
AcDbEntity
  8
MAIN0
  6
CONTINUOUS
 62
3
100
AcDbCircle
 10
435.5891930811884
 20
323.1029114164998
 30
0.0000000000000000
 40
8.500000000000000
  0
ARC
  5
37C
100
AcDbEntity
  8
MAIN0
  6
CONTINUOUS
 62
3
100
AcDbCircle
 10
435.5891930811885
 20
269.3534091400842
 30
0.0000000000000000
 40
48.00000000000000
100
AcDbArc
 50
108.8394045472719
 51
191.1605954527179
  0
CIRCLE
  5
37D
100
AcDbEntity
  8
MAIN0
  6
CONTINUOUS
 62
3
100
AcDbCircle
 10
435.5891930811885
 20
269.3534091400842
 30
0.0000000000000000
 40
13.50000000000000
  0
ARC
  5
37E
100
AcDbEntity
  8
MAIN0
  6
CONTINUOUS
 62
3
100
AcDbCircle
 10
435.5891930811885
 20
269.3534091400842
 30
0.0000000000000000
 40
48.00000000000000
100
AcDbArc
 50
228.8394045472688
 51
311.1605954527179
  0
ARC
  5
37F
100
AcDbEntity
  8
MAIN0
  6
CONTINUOUS
 62
3
100
AcDbCircle
 10
435.5891930811885
 20
269.3534091400842
 30
0.0000000000000000
 40
48.00000000000000
100
AcDbArc
 50
348.8394045472689
 51
431.1605954527180
  0
LINE
  5
380
100
AcDbEntity
  8
MAIN0
  6
CONTINUOUS
 62
3
100
AcDbLine
 10
133.2359822319547
 20
254.6782092420908
 30
0.0000000000000000
 11
133.2359822319547
 21
256.8534091400841
 31
0.0000000000000000
  0
LINE
  5
381
100
AcDbEntity
  8
MAIN0
  6
CONTINUOUS
 62
3
100
AcDbLine
 10
129.1359822319545
 20
254.3534091400842
 30
0.0000000000000000
 11
129.1359822319546
 21
256.8534091400842
 31
0.0000000000000000
  0
LINE
  5
382
100
AcDbEntity
  8
MAIN0
  6
CONTINUOUS
 62
3
100
AcDbLine
 10
131.7568618841811
 20
254.3534091400842
 30
0.0000000000000000
 11
129.1359822319545
 21
254.3534091400842
 31
0.0000000000000000
  0
ELLIPSE
  5
383
100
AcDbEntity
  8
MAIN0
  6
CONTINUOUS
 62
3
100
AcDbEllipse
 10
131.1859822319547
 20
255.6034091400842
 30
0.0000000000000000
 11
-2.050000000000000
 21
0.0000000000000000
 31
0.0000000000000000
210
0.0000000000000000
220
0.0000000000000000
230
1.000000000000000
 40
0.6097560975609757
 41
0.0000000000000000
 42
6.283185307179586
  0
LINE
  5
384
100
AcDbEntity
  8
MAIN0
  6
CONTINUOUS
 62
3
100
AcDbLine
 10
119.2359822319550
 20
281.8534091400842
 30
0.0000000000000000
 11
212.3359822319508
 21
281.8534091400833
 31
0.0000000000000000
  0
LINE
  5
385
100
AcDbEntity
  8
MAIN0
  6
CONTINUOUS
 62
3
100
AcDbLine
 10
119.2359822319545
 20
214.3534091400843
 30
0.0000000000000000
 11
119.2359822319552
 21
324.3534091400844
 31
0.0000000000000000
  0
LINE
  5
386
100
AcDbEntity
  8
MAIN0
  6
CONTINUOUS
 62
3
100
AcDbLine
 10
119.2359822319552
 20
324.3534091400842
 30
0.0000000000000000
 11
112.2359822319552
 21
324.3534091400843
 31
0.0000000000000000
  0
LINE
  5
387
100
AcDbEntity
  8
MAIN0
  6
CONTINUOUS
 62
3
100
AcDbLine
 10
119.2359822319545
 20
214.3534091400843
 30
0.0000000000000000
 11
112.2359822319545
 21
214.3534091400844
 31
0.0000000000000000
  0
DIMENSION
  5
390
100
AcDbEntity
  8
MAIN0
  6
CONTINUOUS
 62
3
100
AcDbDimension
  2
*D17
 10
154.4459411021749
 20
259.3534091400842
 30
0.0000000000000000
 11
153.9459411021749
 21
269.3534091400834
 31
0.0000000000000000
 70
160
  1
\A1;\U+220520
  3
DXF001
100
AcDbAlignedDimension
 13
126.3359822319547
 23
279.3534091400842
 33
0.0000000000000000
 14
126.3359822319547
 24
259.3534091400842
 34
0.0000000000000000
 50
90.00000000000000
100
AcDbRotatedDimension
1001
ACAD
1000
DSTYLE
1002
{
1070
   173
1070
     1
1070
     6
1000
_OPEN
1070
     7
1000
_OPEN
1070
    41
1040
2.000000
1002
}
  0
DIMENSION
  5
39B
100
AcDbEntity
  8
MAIN0
  6
CONTINUOUS
 62
3
100
AcDbDimension
  2
*D18
 10
96.32160848103962
 20
71.99192710800620
 30
0.0000000000000000
 11
91.87771058477659
 21
72.49192710800621
 31
0.0000000000000000
 70
160
  3
DXF001
100
AcDbAlignedDimension
 13
101.3216084810396
 23
92.24192710800602
 33
0.0000000000000000
 14
96.32160848103962
 24
81.98351667577504
 34
0.0000000000000000
100
AcDbRotatedDimension
1001
ACAD
1000
DSTYLE
1002
{
1070
   173
1070
     1
1070
     6
1000
_OPEN
1070
     7
1000
_OPEN
1070
    41
1040
2.000000
1070
   287
1070
     0
1002
}
  0
DIMENSION
  5
3A6
100
AcDbEntity
  8
MAIN0
  6
CONTINUOUS
 62
3
100
AcDbDimension
  2
*D19
 10
101.3216084810396
 20
71.99192710800620
 30
0.0000000000000000
 11
108.8950810172299
 21
72.49192710800620
 31
0.0000000000000000
 70
160
  3
DXF001
100
AcDbAlignedDimension
 13
104.3216084810396
 23
100.7419271080061
 33
0.0000000000000000
 14
101.3216084810396
 24
92.24192710800602
 34
0.0000000000000000
100
AcDbRotatedDimension
1001
ACAD
1000
DSTYLE
1002
{
1070
   173
1070
     1
1070
     6
1000
_OPEN
1070
     7
1000
_OPEN
1070
    41
1040
2.000000
1070
   287
1070
     0
1002
}
  0
DIMENSION
  5
3B1
100
AcDbEntity
  8
MAIN0
  6
CONTINUOUS
 62
3
100
AcDbDimension
  2
*D20
 10
118.3216084810398
 20
100.7419271080061
 30
0.0000000000000000
 11
117.8216084810398
 21
108.5176605639029
 31
0.0000000000000000
 70
160
  1
\A1;12H8/h8
  3
DXF001
100
AcDbAlignedDimension
 13
104.3216084810397
 23
112.7419271080061
 33
0.0000000000000000
 14
104.3216084810397
 24
100.7419271080061
 34
0.0000000000000000
 50
90.00000000000000
100
AcDbRotatedDimension
1001
ACAD
1000
DSTYLE
1002
{
1070
   173
1070
     1
1070
     6
1000
_OPEN
1070
     7
1000
_OPEN
1070
    41
1040
2.000000
1070
   287
1070
     0
1002
}
  0
LINE
  5
3B2
100
AcDbEntity
  8
MAIN0
  6
CENTER
 62
3
100
AcDbLine
 10
328.6287554882578
 20
207.5997717033592
 30
0.0000000000000000
 11
441.5158958704826
 21
272.7751925908793
 31
0.0000000000000000
  0
LINE
  5
3B3
100
AcDbEntity
  8
MAIN0
  6
CONTINUOUS
 62
3
100
AcDbLine
 10
214.2359822319548
 20
184.1033845474867
 30
0.0000000000000000
 11
216.2359822319548
 21
186.1033845474866
 31
0.0000000000000000
  0
LINE
  5
3B4
100
AcDbEntity
  8
MAIN0
  6
CONTINUOUS
 62
3
100
AcDbLine
 10
214.2359822319547
 20
184.1033845474866
 30
0.0000000000000000
 11
195.0359822319530
 21
184.1033845474868
 31
0.0000000000000000
  0
LINE
  5
3B5
100
AcDbEntity
  8
MAIN0
  6
HIDDEN
 62
3
100
AcDbLine
 10
413.0891930811885
 20
349.3951941909637
 30
0.0000000000000000
 11
422.5891930811887
 21
352.8529114165002
 31
0.0000000000000000
  0
LINE
  5
3B6
100
AcDbEntity
  8
MAIN0
  6
HIDDEN
 62
3
100
AcDbLine
 10
448.5891930811888
 20
352.8529114165000
 30
0.0000000000000000
 11
458.0891930811886
 21
349.3951941909780
 31
0.0000000000000000
  0
LINE
  5
3B7
100
AcDbEntity
  8
MAIN0
  6
CENTER
 62
3
100
AcDbLine
 10
105.0019525649752
 20
269.3534091400844
 30
0.0000000000000000
 11
149.3459411975423
 21
269.3534091400840
 31
0.0000000000000000
  0
LINE
  5
3B8
100
AcDbEntity
  8
MAIN0
  6
CENTER
 62
3
100
AcDbLine
 10
155.4459411021749
 20
269.3534091400839
 30
0.0000000000000000
 11
220.9120353849265
 21
269.3534091400833
 31
0.0000000000000000
  0
LINE
  5
3B9
100
AcDbEntity
  8
MAIN0
  6
CONTINUOUS
 62
3
100
AcDbLine
 10
216.3359822319547
 20
279.3534091400843
 30
0.0000000000000000
 11
216.3359822319549
 21
303.9534091400834
 31
0.0000000000000000
  0
CIRCLE
  5
3BA
100
AcDbEntity
  8
MAIN0
  6
CONTINUOUS
 62
3
100
AcDbCircle
 10
472.1787663911097
 20
290.4784091400344
 30
0.0000000000000000
 40
4.250000000000000
  0
LINE
  5
3BB
100
AcDbEntity
  8
MAIN0
  6
CONTINUOUS
 62
3
100
AcDbLine
 10
472.1787663911098
 20
292.7878102167929
 30
0.0000000000000000
 11
470.1787663911097
 21
291.6331096784136
 31
0.0000000000000000
  0
LINE
  5
3BC
100
AcDbEntity
  8
MAIN0
  6
CONTINUOUS
 62
3
100
AcDbLine
 10
470.1787663911097
 20
291.6331096784137
 30
0.0000000000000000
 11
470.1787663911097
 21
289.3237086016552
 31
0.0000000000000000
  0
LINE
  5
3BD
100
AcDbEntity
  8
MAIN0
  6
CONTINUOUS
 62
3
100
AcDbLine
 10
470.1787663911098
 20
289.3237086016551
 30
0.0000000000000000
 11
472.1787663911097
 21
288.1690080632758
 31
0.0000000000000000
  0
LINE
  5
3BE
100
AcDbEntity
  8
MAIN0
  6
CONTINUOUS
 62
3
100
AcDbLine
 10
472.1787663911096
 20
288.1690080632758
 30
0.0000000000000000
 11
474.1787663911097
 21
289.3237086016551
 31
0.0000000000000000
  0
LINE
  5
3BF
100
AcDbEntity
  8
MAIN0
  6
CONTINUOUS
 62
3
100
AcDbLine
 10
474.1787663911097
 20
289.3237086016552
 30
0.0000000000000000
 11
474.1787663911097
 21
291.6331096784137
 31
0.0000000000000000
  0
LINE
  5
3C0
100
AcDbEntity
  8
MAIN0
  6
CONTINUOUS
 62
3
100
AcDbLine
 10
474.1787663911098
 20
291.6331096784136
 30
0.0000000000000000
 11
472.1787663911098
 21
292.7878102167929
 31
0.0000000000000000
  0
CIRCLE
  5
3C1
100
AcDbEntity
  8
MAIN0
  6
CONTINUOUS
 62
3
100
AcDbCircle
 10
435.5891930811884
 20
343.1029114164998
 30
0.0000000000000000
 40
8.000000000000000
  0
LINE
  5
3C2
100
AcDbEntity
  8
MAIN0
  6
CONTINUOUS
 62
3
100
AcDbLine
 10
435.5891930811882
 20
347.7217135700167
 30
0.0000000000000000
 11
431.5891930811883
 21
345.4123124932582
 31
0.0000000000000000
  0
LINE
  5
3C3
100
AcDbEntity
  8
MAIN0
  6
CONTINUOUS
 62
3
100
AcDbLine
 10
431.5891930811884
 20
345.4123124932582
 30
0.0000000000000000
 11
431.5891930811884
 21
340.7935103397413
 31
0.0000000000000000
  0
LINE
  5
3C4
100
AcDbEntity
  8
MAIN0
  6
CONTINUOUS
 62
3
100
AcDbLine
 10
431.5891930811885
 20
340.7935103397413
 30
0.0000000000000000
 11
435.5891930811885
 21
338.4841092629827
 31
0.0000000000000000
  0
LINE
  5
3C5
100
AcDbEntity
  8
MAIN0
  6
CONTINUOUS
 62
3
100
AcDbLine
 10
435.5891930811883
 20
338.4841092629829
 30
0.0000000000000000
 11
439.5891930811883
 21
340.7935103397414
 31
0.0000000000000000
  0
LINE
  5
3C6
100
AcDbEntity
  8
MAIN0
  6
CONTINUOUS
 62
3
100
AcDbLine
 10
439.5891930811884
 20
340.7935103397413
 30
0.0000000000000000
 11
439.5891930811884
 21
345.4123124932582
 31
0.0000000000000000
  0
LINE
  5
3C7
100
AcDbEntity
  8
MAIN0
  6
CONTINUOUS
 62
3
100
AcDbLine
 10
439.5891930811886
 20
345.4123124932582
 30
0.0000000000000000
 11
435.5891930811886
 21
347.7217135700168
 31
0.0000000000000000
  0
MTEXT
  5
3C8
100
AcDbEntity
  8
A0
  6
CONTINUOUS
 62
3
100
AcDbMText
 10
727.0892603480070
 20
212.0081558777292
 30
0.0000000000000000
 40
4.599999904632568
 41
0.0000000000000000
 71
     1
 72
     1
  1
{\H0.93x;{   15}}
 11
1.000000000000000
 21
0.0000000000000000
 31
0.0000000000000000
  7
STANDARD
  0
MTEXT
  5
3C9
100
AcDbEntity
  8
A0
  6
CONTINUOUS
 62
3
100
AcDbMText
 10
726.1919326018988
 20
201.6876350548309
 30
0.0000000000000000
 40
4.599999904632568
 41
0.0000000000000000
 71
     1
 72
     1
  1
{\H0.94x;{    5.2}}
 11
1.000000000000000
 21
0.0000000000000000
 31
0.0000000000000000
  7
STANDARD
  0
MTEXT
  5
3CA
100
AcDbEntity
  8
A0
  6
CONTINUOUS
 62
3
100
AcDbMText
 10
727.0069064360712
 20
192.1281054265653
 30
0.0000000000000000
 40
4.599999904632568
 41
0.0000000000000000
 71
     1
 72
     1
  1
{\H0.93x;{   21}}
 11
1.000000000000000
 21
0.0000000000000000
 31
0.0000000000000000
  7
STANDARD
  0
MTEXT
  5
3CB
100
AcDbEntity
  8
A0
  6
CONTINUOUS
 62
3
100
AcDbMText
 10
653.0467210243456
 20
194.3012496234193
 30
0.0000000000000000
 40
4.599999904632568
 41
0.0000000000000000
 71
     1
 72
     1
  1
{\H0.93x;{静的把握力}}
 11
1.000000000000000
 21
0.0000000000000000
 31
0.0000000000000000
  7
KNJYOKO
  0
MTEXT
  5
3CC
100
AcDbEntity
  8
A0
  6
CONTINUOUS
 62
3
100
AcDbMText
 10
653.0467210243456
 20
183.9413175548573
 30
0.0000000000000000
 40
4.599999904632568
 41
0.0000000000000000
 71
     1
 72
     1
  1
{\H0.94x;{最高使用エア圧力}}
 11
1.000000000000000
 21
0.0000000000000000
 31
0.0000000000000000
  7
KNJYOKO
  0
MTEXT
  5
3CD
100
AcDbEntity
  8
A0
  6
CONTINUOUS
 62
3
100
AcDbMText
 10
651.5015507076668
 20
173.4336669819055
 30
0.0000000000000000
 40
4.599999904632568
 41
0.0000000000000000
 71
     1
 72
     1
  1
{\H0.94x;{質量（標準ソフトジョー付）}}
 11
1.000000000000000
 21
0.0000000000000000
 31
0.0000000000000000
  7
KNJYOKO
  0
MTEXT
  5
3CE
100
AcDbEntity
  8
A0
  6
CONTINUOUS
 62
3
100
AcDbMText
 10
726.5508637003420
 20
171.2643886069117
 30
0.0000000000000000
 40
4.599999904632568
 41
0.0000000000000000
 71
     1
 72
     1
  1
{\H0.93x;{   22}}
 11
1.000000000000000
 21
0.0000000000000000
 31
0.0000000000000000
  7
STANDARD
  0
MTEXT
  5
3CF
100
AcDbEntity
  8
A0
  6
CONTINUOUS
 62
3
100
AcDbMText
 10
651.5015507076338
 20
162.9336669819055
 30
0.0000000000000000
 40
4.599999904632568
 41
0.0000000000000000
 71
     1
 72
     1
  1
{\H0.94x;{使用最高回転速度}}
 11
1.000000000000000
 21
0.0000000000000000
 31
0.0000000000000000
  7
KNJYOKO
  0
MTEXT
  5
3D0
100
AcDbEntity
  8
A0
  6
CONTINUOUS
 62
3
100
AcDbMText
 10
726.5508637003414
 20
157.5190034234636
 30
0.0000000000000000
 40
4.599999904632568
 41
0.0000000000000000
 71
     7
 72
     1
  1
{\H0.94x;{  72 min}}
 11
1.000000000000000
 21
0.0000000000000000
 31
0.0000000000000000
  7
STANDARD
  0
MTEXT
  5
3D1
100
AcDbEntity
  8
A0
  6
CONTINUOUS
 62
3
100
AcDbMText
 10
759.8408646754734
 20
159.8440033519380
 30
0.0000000000000000
 40
2.319999933242798
 41
0.0000000000000000
 71
     7
 72
     1
  1
{\H0.88x;{-1}}
 11
1.000000000000000
 21
0.0000000000000000
 31
0.0000000000000000
  7
STANDARD
  0
LINE
  5
3D2
100
AcDbEntity
  8
A0
  6
CONTINUOUS
 62
3
100
AcDbLine
 10
651.0508637003421
 20
153.1143887497623
 30
0.0000000000000000
 11
768.8093236978721
 21
153.1143887499438
 31
0.0000000000000000
  0
LINE
  5
3D3
100
AcDbEntity
  8
A0
  6
CONTINUOUS
 62
3
100
AcDbLine
 10
651.0508637003422
 20
163.6143887496543
 30
0.0000000000000000
 11
768.8093236978682
 21
163.6143887495938
 31
0.0000000000000000
  0
LINE
  5
3D4
100
AcDbEntity
  8
A0
  6
CONTINUOUS
 62
3
100
AcDbLine
 10
651.0508637003419
 20
174.1144148653633
 30
0.0000000000000000
 11
768.8093236978643
 21
174.1144148653633
 31
0.0000000000000000
  0
LINE
  5
3D5
100
AcDbEntity
  8
A0
  6
CONTINUOUS
 62
3
100
AcDbLine
 10
651.0508637003419
 20
184.6144148653633
 30
0.0000000000000000
 11
768.8093236978605
 21
184.6144148653633
 31
0.0000000000000000
  0
MTEXT
  5
3D6
100
AcDbEntity
  8
A0
  6
CONTINUOUS
 62
3
100
AcDbMText
 10
736.5782420148501
 20
183.6851036676383
 30
0.0000000000000000
 40
4.599999904632568
 41
0.0000000000000000
 71
     1
 72
     1
  1
{\H0.93x;{0.7MPa\P}
 11
1.000000000000000
 21
0.0000000000000000
 31
0.0000000000000000
  7
STANDARD
  0
MTEXT
  5
3D7
100
AcDbEntity
  8
A0
  6
CONTINUOUS
 62
3
100
AcDbMText
 10
758.5508637003420
 20
170.8143876055537
 30
0.0000000000000000
 40
4.199999809265137
 41
0.0000000000000000
 71
     1
 72
     1
  1
{\H0.89x;{Kg}}
 11
1.000000000000000
 21
0.0000000000000000
 31
0.0000000000000000
  7
STANDARD
  0
LINE
  5
3D8
100
AcDbEntity
  8
A0
  6
CONTINUOUS
 62
3
100
AcDbLine
 10
702.7366625046403
 20
142.6143887498434
 30
0.0000000000000000
 11
768.8093236978759
 21
142.6143887499438
 31
0.0000000000000000
  0
LINE
  5
3D9
100
AcDbEntity
  8
A0
  6
CONTINUOUS
 62
3
100
AcDbLine
 10
651.0508637003750
 20
132.1143887497623
 30
0.0000000000000000
 11
768.8093236978798
 21
132.1143887499438
 31
0.0000000000000000
  0
LINE
  5
3DA
100
AcDbEntity
  8
A0
  6
CONTINUOUS
 62
3
100
AcDbLine
 10
651.0508637003914
 20
121.6143887497623
 30
0.0000000000000000
 11
768.8093236978837
 21
121.6143887499438
 31
0.0000000000000000
  0
MTEXT
  5
3DB
100
AcDbEntity
  8
A0
  6
CONTINUOUS
 62
3
100
AcDbMText
 10
652.8117220041376
 20
145.2643886069098
 30
0.0000000000000000
 40
4.599999904632568
 41
0.0000000000000000
 71
     1
 72
     1
  1
{\H0.92x;{把握径}}
 11
1.000000000000000
 21
0.0000000000000000
 31
0.0000000000000000
  7
KNJYOKO
  0
MTEXT
  5
3DC
100
AcDbEntity
  8
A0
  6
CONTINUOUS
 62
3
100
AcDbMText
 10
706.6670615211806
 20
152.2147450690304
 30
0.0000000000000000
 40
4.599999904632568
 41
0.0000000000000000
 71
     1
 72
     1
  1
{\H0.90x;{最大}}
 11
1.000000000000000
 21
0.0000000000000000
 31
0.0000000000000000
  7
KNJYOKO
  0
MTEXT
  5
3DD
100
AcDbEntity
  8
A0
  6
CONTINUOUS
 62
3
100
AcDbMText
 10
706.6670615211806
 20
141.7147450690304
 30
0.0000000000000000
 40
4.599999904632568
 41
0.0000000000000000
 71
     1
 72
     1
  1
{\H0.90x;{最小}}
 11
1.000000000000000
 21
0.0000000000000000
 31
0.0000000000000000
  7
KNJYOKO
  0
MTEXT
  5
3DE
100
AcDbEntity
  8
A0
  6
CONTINUOUS
 62
3
100
AcDbMText
 10
758.7554930070003
 20
148.5206165771319
 30
0.0000000000000000
 40
4.199999809265137
 41
0.0000000000000000
 71
     1
 72
     1
  1
{\H0.89x;{mm}}
 11
1.000000000000000
 21
0.0000000000000000
 31
0.0000000000000000
  7
STANDARD
  0
MTEXT
  5
3DF
100
AcDbEntity
  8
A0
  6
CONTINUOUS
 62
3
100
AcDbMText
 10
758.7554930070169
 20
138.0206165771319
 30
0.0000000000000000
 40
4.199999809265137
 41
0.0000000000000000
 71
     1
 72
     1
  1
{\H0.89x;{mm}}
 11
1.000000000000000
 21
0.0000000000000000
 31
0.0000000000000000
  7
STANDARD
  0
MTEXT
  5
3E0
100
AcDbEntity
  8
A0
  6
CONTINUOUS
 62
3
100
AcDbMText
 10
739.0144052435376
 20
149.8679453245982
 30
0.0000000000000000
 40
4.599999904632568
 41
0.0000000000000000
 71
     1
 72
     1
  1
{\H0.91x;{165}}
 11
1.000000000000000
 21
0.0000000000000000
 31
0.0000000000000000
  7
STANDARD
  0
MTEXT
  5
3E1
100
AcDbEntity
  8
A0
  6
CONTINUOUS
 62
3
100
AcDbMText
 10
743.3215511690976
 20
139.4589979812619
 30
0.0000000000000000
 40
4.599999904632568
 41
0.0000000000000000
 71
     1
 72
     1
  1
{\H0.89x;{23}}
 11
1.000000000000000
 21
0.0000000000000000
 31
0.0000000000000000
  7
STANDARD
  0
MTEXT
  5
3E2
100
AcDbEntity
  8
A0
  6
CONTINUOUS
 62
3
100
AcDbMText
 10
651.5015507076010
 20
131.4336408663045
 30
0.0000000000000000
 40
4.599999904632568
 41
0.0000000000000000
 71
     1
 72
     1
  1
{\H0.94x;{回転抵抗トルク}}
 11
1.000000000000000
 21
0.0000000000000000
 31
0.0000000000000000
  7
KNJYOKO
  0
MTEXT
  5
3E3
100
AcDbEntity
  8
A0
  6
CONTINUOUS
 62
3
100
AcDbMText
 10
758.9393118658352
 20
127.7984339848721
 30
0.0000000000000000
 40
4.199999809265137
 41
0.0000000000000000
 71
     1
 72
     1
  1
{\H0.89x;{Nm}}
 11
1.000000000000000
 21
0.0000000000000000
 31
0.0000000000000000
  7
STANDARD
  0
MTEXT
  5
3E4
100
AcDbEntity
  8
A0
  6
CONTINUOUS
 62
3
100
AcDbMText
 10
743.3772718044806
 20
128.8165105569291
 30
0.0000000000000000
 40
4.599999904632568
 41
0.0000000000000000
 71
     1
 72
     1
  1
{\H0.89x;{10}}
 11
1.000000000000000
 21
0.0000000000000000
 31
0.0000000000000000
  7
STANDARD
  0
MTEXT
  5
3E5
100
AcDbEntity
  8
A0
  6
CONTINUOUS
 62
3
100
AcDbMText
 10
651.5015507076663
 20
215.4337192132156
 30
0.0000000000000000
 40
4.599999904632568
 41
0.0000000000000000
 71
     1
 72
     1
  1
{\H0.94x;{プランジャストロ－ク}}
 11
1.000000000000000
 21
0.0000000000000000
 31
0.0000000000000000
  7
KNJYOKO
  0
MTEXT
  5
3E6
100
AcDbEntity
  8
A0
  6
CONTINUOUS
 62
3
100
AcDbMText
 10
651.5015507076661
 20
204.9337192132464
 30
0.0000000000000000
 40
4.599999904632568
 41
0.0000000000000000
 71
     1
 72
     1
  1
{\H0.94x;{ジョ－ストロ－ク}}
 11
1.000000000000000
 21
0.0000000000000000
 31
0.0000000000000000
  7
KNJYOKO
  0
MTEXT
  5
3E7
100
AcDbEntity
  8
A0
  6
CONTINUOUS
 62
3
100
AcDbMText
 10
651.5015507076663
 20
209.5337193562667
 30
0.0000000000000000
 40
3.750000000000000
 41
0.0000000000000000
 71
     1
 72
     1
  1
{\H0.94x;{Plunger stroke}}
 11
1.000000000000000
 21
0.0000000000000000
 31
0.0000000000000000
  7
STANDARD
  0
MTEXT
  5
3E8
100
AcDbEntity
  8
A0
  6
CONTINUOUS
 62
3
100
AcDbMText
 10
651.5015507076661
 20
199.0337193562976
 30
0.0000000000000000
 40
3.750000000000000
 41
0.0000000000000000
 71
     1
 72
     1
  1
{\H0.93x;{Jaw stroke}}
 11
1.000000000000000
 21
0.0000000000000000
 31
0.0000000000000000
  7
STANDARD
  0
MTEXT
  5
3E9
100
AcDbEntity
  8
A0
  6
CONTINUOUS
 62
3
100
AcDbMText
 10
652.9494151198102
 20
140.3157562903498
 30
0.0000000000000000
 40
3.750000000000000
 41
0.0000000000000000
 71
     1
 72
     1
  1
{\H0.94x;{Gripping diameter}}
 11
1.000000000000000
 21
0.0000000000000000
 31
0.0000000000000000
  7
STANDARD
  0
MTEXT
  5
3EA
100
AcDbEntity
  8
A0
  6
CONTINUOUS
 62
3
100
AcDbMText
 10
707.6379665894610
 20
146.5171009339796
 30
0.0000000000000000
 40
3.000000000000000
 41
0.0000000000000000
 71
     1
 72
     1
  1
{\H0.91x;{Max.}}
 11
1.000000000000000
 21
0.0000000000000000
 31
0.0000000000000000
  7
STANDARD
  0
MTEXT
  5
3EB
100
AcDbEntity
  8
A0
  6
CONTINUOUS
 62
3
100
AcDbMText
 10
707.4314423199821
 20
135.8811598656004
 30
0.0000000000000000
 40
3.000000000000000
 41
0.0000000000000000
 71
     1
 72
     1
  1
{\H0.91x;{Min.}}
 11
1.000000000000000
 21
0.0000000000000000
 31
0.0000000000000000
  7
STANDARD
  0
MTEXT
  5
3EC
100
AcDbEntity
  8
A0
  6
CONTINUOUS
 62
3
100
AcDbMText
 10
651.5015507076338
 20
157.0336671249567
 30
0.0000000000000000
 40
3.750000000000000
 41
0.0000000000000000
 71
     1
 72
     1
  1
{\H0.94x;{MAX Permissible speed}}
 11
1.000000000000000
 21
0.0000000000000000
 31
0.0000000000000000
  7
STANDARD
  0
MTEXT
  5
3ED
100
AcDbEntity
  8
A0
  6
CONTINUOUS
 62
3
100
AcDbMText
 10
651.5015507076665
 20
178.0336932405885
 30
0.0000000000000000
 40
3.750000000000000
 41
0.0000000000000000
 71
     1
 72
     1
  1
{\H0.94x;{MAX Permissible air press}}
 11
1.000000000000000
 21
0.0000000000000000
 31
0.0000000000000000
  7
STANDARD
  0
MTEXT
  5
3EE
100
AcDbEntity
  8
A0
  6
CONTINUOUS
 62
3
100
AcDbMText
 10
651.5015507076010
 20
125.5336410093557
 30
0.0000000000000000
 40
3.750000000000000
 41
0.0000000000000000
 71
     1
 72
     1
  1
{\H0.94x;{MAX Rotation resistance torque}}
 11
1.000000000000000
 21
0.0000000000000000
 31
0.0000000000000000
  7
STANDARD
  0
MTEXT
  5
3EF
100
AcDbEntity
  8
A0
  6
CONTINUOUS
 62
3
100
AcDbMText
 10
651.5015507076668
 20
167.5336671249567
 30
0.0000000000000000
 40
3.750000000000000
 41
0.0000000000000000
 71
     1
 72
     1
  1
{\H0.94x;{Mass(with standard soft jaw)}}
 11
1.000000000000000
 21
0.0000000000000000
 31
0.0000000000000000
  7
STANDARD
  0
MTEXT
  5
3F0
100
AcDbEntity
  8
A0
  6
CONTINUOUS
 62
3
100
AcDbMText
 10
684.2604867745077
 20
190.3875852747851
 30
0.0000000000000000
 40
3.000000000000000
 41
0.0000000000000000
 71
     7
 72
     1
  1
{\H0.94x;{[エア圧 0.6MPa(6.0Kgf/cm}}
 11
1.000000000000000
 21
0.0000000000000000
 31
0.0000000000000000
  7
KNJYOKO
  0
MTEXT
  5
3F1
100
AcDbEntity
  8
A0
  6
CONTINUOUS
 62
3
100
AcDbMText
 10
722.9604882899558
 20
191.8875852747851
 30
0.0000000000000000
 40
1.500000000000000
 41
0.0000000000000000
 71
     7
 72
     1
  1
{\H0.82x;{2}}
 11
1.000000000000000
 21
0.0000000000000000
 31
0.0000000000000000
  7
STANDARD
  0
MTEXT
  5
3F2
100
AcDbEntity
  8
A0
  6
CONTINUOUS
 62
3
100
AcDbMText
 10
723.8604883257186
 20
190.3875852747851
 30
0.0000000000000000
 40
3.000000000000000
 41
0.0000000000000000
 71
     7
 72
     1
  1
{\H0.88x;{)]}}
 11
1.000000000000000
 21
0.0000000000000000
 31
0.0000000000000000
  7
STANDARD
  0
MTEXT
  5
3F3
100
AcDbEntity
  8
A0
  6
CONTINUOUS
 62
3
100
AcDbMText
 10
651.5015507076668
 20
188.5336932405577
 30
0.0000000000000000
 40
3.750000000000000
 41
0.0000000000000000
 71
     1
 72
     1
  1
{\H0.94x;{Static gripping force(AIR 0.6MPa)}}
 11
1.000000000000000
 21
0.0000000000000000
 31
0.0000000000000000
  7
STANDARD
  0
LINE
  5
3F4
100
AcDbEntity
  8
A0
  6
CONTINUOUS
 62
3
100
AcDbLine
 10
727.4007708119514
 20
121.6143887498800
 30
0.0000000000000000
 11
727.4007708119514
 21
216.1144148653321
 31
0.0000000000000000
  0
LINE
  5
3F5
100
AcDbEntity
  8
A0
  6
CONTINUOUS
 62
3
100
AcDbLine
 10
768.8093236978837
 20
121.6143887499438
 30
0.0000000000000000
 11
768.8093236978449
 21
226.6144148653322
 31
0.0000000000000000
  0
MTEXT
  5
3F6
100
AcDbEntity
  8
A0
  6
CONTINUOUS
 62
3
100
AcDbMText
 10
737.6141404416553
 20
175.1504810055054
 30
0.0000000000000000
 40
3.750000000000000
 41
0.0000000000000000
 71
     7
 72
     1
  1
{\H0.93x;{(7.0Kgf/cm}}
 11
1.000000000000000
 21
0.0000000000000000
 31
0.0000000000000000
  7
STANDARD
  0
MTEXT
  5
3F7
100
AcDbEntity
  8
A0
  6
CONTINUOUS
 62
3
100
AcDbMText
 10
760.1141404416553
 20
177.0254810055054
 30
0.0000000000000000
 40
1.879999995231628
 41
0.0000000000000000
 71
     7
 72
     1
  1
{\H0.81x;{2}}
 11
1.000000000000000
 21
0.0000000000000000
 31
0.0000000000000000
  7
STANDARD
  0
MTEXT
  5
3F8
100
AcDbEntity
  8
A0
  6
CONTINUOUS
 62
3
100
AcDbMText
 10
761.2391404416553
 20
175.1504810055054
 30
0.0000000000000000
 40
3.750000000000000
 41
0.0000000000000000
 71
     7
 72
     1
  1
{\H0.82x;{)}}
 11
1.000000000000000
 21
0.0000000000000000
 31
0.0000000000000000
  7
STANDARD
  0
MTEXT
  5
3F9
100
AcDbEntity
  8
A0
  6
CONTINUOUS
 62
3
100
AcDbMText
 10
671.6688757123925
 20
224.9503372902341
 30
0.0000000000000000
 40
7.500000000000000
 41
0.0000000000000000
 71
     1
 72
     1
  1
{\H0.93x;{仕　様   SPECIFICATION}}
 11
1.000000000000000
 21
0.0000000000000000
 31
0.0000000000000000
  7
KNJYOKO
  0
LINE
  5
3FA
100
AcDbEntity
  8
AIR-DIAGRAM0
  6
CONTINUOUS
 62
3
100
AcDbLine
 10
307.2987619050397
 20
157.3404266796804
 30
0.0000000000000000
 11
309.7763423850483
 21
157.4033223436117
 31
0.0000000000000000
  0
LINE
  5
3FB
100
AcDbEntity
  8
AIR-DIAGRAM0
  6
CONTINUOUS
 62
3
100
AcDbLine
 10
307.2987619050397
 20
157.3404266796804
 30
0.0000000000000000
 11
308.6230534486303
 21
155.4950361362043
 31
0.0000000000000000
  0
LINE
  5
3FC
100
AcDbEntity
  8
AIR-DIAGRAM0
  6
CONTINUOUS
 62
3
100
AcDbLine
 10
294.9699376565625
 20
157.3404266796804
 30
0.0000000000000000
 11
292.8002168636540
 21
157.3955070417165
 31
0.0000000000000000
  0
LINE
  5
3FD
100
AcDbEntity
  8
AIR-DIAGRAM0
  6
CONTINUOUS
 62
3
100
AcDbLine
 10
294.9699376565625
 20
157.3404266796803
 30
0.0000000000000000
 11
293.8102687488126
 21
155.7244365706407
 31
0.0000000000000000
  0
LINE
  5
3FE
100
AcDbEntity
  8
AIR-DIAGRAM0
  6
CONTINUOUS
 62
3
100
AcDbLine
 10
303.3743497808320
 20
41.52858883228861
 30
0.0000000000000000
 11
303.8537784057763
 21
42.35898356929259
 31
0.0000000000000000
  0
LINE
  5
3FF
100
AcDbEntity
  8
AIR-DIAGRAM0
  6
CONTINUOUS
 62
3
100
AcDbLine
 10
301.1343497808321
 20
65.34640340429316
 30
0.0000000000000000
 11
301.1343497808321
 21
60.18649546769328
 31
0.0000000000000000
  0
MTEXT
  5
400
100
AcDbEntity
  8
AIR-DIAGRAM0
  6
CONTINUOUS
 62
3
100
AcDbMText
 10
312.9632175279830
 20
65.11234773617429
 30
0.0000000000000000
 40
3.000000000000000
 41
0.0000000000000000
 71
     1
 72
     1
  1
{\H0.94x;{AIR LUBRICATOR UNIT\Pwith AUTO DRAIN　FILTER\Pオートドレン付エアルブリケータユニット\P(参考相当品)}}
 11
1.000000000000000
 21
0.0000000000000000
 31
0.0000000000000000
  7
KNJYOKO
  0
MTEXT
  5
401
100
AcDbEntity
  8
AIR-DIAGRAM0
  6
CONTINUOUS
 62
3
100
AcDbMText
 10
313.0324271630627
 20
49.29628056520441
 30
0.0000000000000000
 40
3.000000000000000
 41
0.0000000000000000
 71
     1
 72
     1
  1
{\H0.93x;{AC30A-02CG(SMC)}}
 11
1.000000000000000
 21
0.0000000000000000
 31
0.0000000000000000
  7
STANDARD
  0
LINE
  5
402
100
AcDbEntity
  8
AIR-DIAGRAM0
  6
CONTINUOUS
 62
4
100
AcDbLine
 10
298.3343497808326
 20
54.29833384739546
 30
0.0000000000000000
 11
303.9343497808325
 21
54.29833384739546
 31
0.0000000000000000
  0
LINE
  5
403
100
AcDbEntity
  8
AIR-DIAGRAM0
  6
CONTINUOUS
 62
4
100
AcDbLine
 10
301.7963150692648
 20
52.15838011964586
 30
0.0000000000000000
 11
301.1343497808331
 21
54.29833384739599
 31
0.0000000000000000
  0
LINE
  5
404
100
AcDbEntity
  8
AIR-DIAGRAM0
  6
CONTINUOUS
 62
4
100
AcDbLine
 10
300.4723844924017
 20
52.15838011964549
 30
0.0000000000000000
 11
301.1343497808332
 21
54.29833384739568
 31
0.0000000000000000
  0
LINE
  5
405
100
AcDbEntity
  8
AIR-DIAGRAM0
  6
CONTINUOUS
 62
4
100
AcDbLine
 10
303.9343497808320
 20
48.69833384739544
 30
0.0000000000000000
 11
303.9343497808320
 21
54.29833384739546
 31
0.0000000000000000
  0
LINE
  5
406
100
AcDbEntity
  8
AIR-DIAGRAM0
  6
CONTINUOUS
 62
4
100
AcDbLine
 10
298.3343497808326
 20
48.69833384739544
 30
0.0000000000000000
 11
298.3343497808326
 21
54.29833384739546
 31
0.0000000000000000
  0
LINE
  5
407
100
AcDbEntity
  8
AIR-DIAGRAM0
  6
CONTINUOUS
 62
4
100
AcDbLine
 10
298.3343497808326
 20
48.69833384739544
 30
0.0000000000000000
 11
303.9343497808325
 21
48.69833384739544
 31
0.0000000000000000
  0
LINE
  5
408
100
AcDbEntity
  8
AIR-DIAGRAM0
  6
HIDDEN
 62
4
100
AcDbLine
 10
303.9343497808324
 20
51.49833384739559
 30
0.0000000000000000
 11
306.7343497808321
 21
51.49833384739559
 31
0.0000000000000000
  0
LINE
  5
409
100
AcDbEntity
  8
AIR-DIAGRAM0
  6
HIDDEN
 62
4
100
AcDbLine
 10
306.7343497808321
 20
51.49833384739559
 30
0.0000000000000000
 11
306.7343497808321
 21
58.21833384739563
 31
0.0000000000000000
  0
LINE
  5
40A
100
AcDbEntity
  8
AIR-DIAGRAM0
  6
CONTINUOUS
 62
4
100
AcDbLine
 10
295.7943497808325
 20
55.30848849067991
 30
0.0000000000000000
 11
292.4343497808324
 21
61.12817920411202
 31
0.0000000000000000
  0
LINE
  5
40B
100
AcDbEntity
  8
AIR-DIAGRAM0
  6
CONTINUOUS
 62
4
100
AcDbLine
 10
292.9310478885018
 20
58.94394226874106
 30
0.0000000000000000
 11
292.4343497808321
 21
61.12817920411172
 31
0.0000000000000000
  0
LINE
  5
40C
100
AcDbEntity
  8
AIR-DIAGRAM0
  6
CONTINUOUS
 62
4
100
AcDbLine
 10
297.1745518061879
 20
42.35898356929178
 30
0.0000000000000000
 11
301.1343497808323
 21
38.39918559464724
 31
0.0000000000000000
  0
LINE
  5
40D
100
AcDbEntity
  8
AIR-DIAGRAM0
  6
CONTINUOUS
 62
4
100
AcDbLine
 10
301.1343497808329
 20
38.39918559464735
 30
0.0000000000000000
 11
305.0941477554775
 21
42.35898356929192
 31
0.0000000000000000
  0
LINE
  5
40E
100
AcDbEntity
  8
AIR-DIAGRAM0
  6
CONTINUOUS
 62
4
100
AcDbLine
 10
297.1745518061881
 20
42.35898356929199
 30
0.0000000000000000
 11
301.1343497808327
 21
46.31878154393654
 31
0.0000000000000000
  0
LINE
  5
40F
100
AcDbEntity
  8
AIR-DIAGRAM0
  6
CONTINUOUS
 62
4
100
AcDbLine
 10
301.1343497808330
 20
46.31878154393635
 30
0.0000000000000000
 11
305.0941477554776
 21
42.35898356929164
 31
0.0000000000000000
  0
LINE
  5
410
100
AcDbEntity
  8
AIR-DIAGRAM0
  6
HIDDEN
 62
4
100
AcDbLine
 10
297.1745518061882
 20
42.35898356929218
 30
0.0000000000000000
 11
303.3743497808320
 21
42.35898356929218
 31
0.0000000000000000
  0
LINE
  5
411
100
AcDbEntity
  8
AIR-DIAGRAM0
  6
CONTINUOUS
 62
4
100
AcDbLine
 10
301.1343497808324
 20
36.19898356936565
 30
0.0000000000000000
 11
301.1343497808324
 21
38.39918559464734
 31
0.0000000000000000
  0
LINE
  5
412
100
AcDbEntity
  8
AIR-DIAGRAM0
  6
CONTINUOUS
 62
4
100
AcDbLine
 10
303.3743497808320
 20
40.63918559464688
 30
0.0000000000000000
 11
303.3743497808320
 21
44.07878154393670
 31
0.0000000000000000
  0
LINE
  5
413
100
AcDbEntity
  8
AIR-DIAGRAM0
  6
CONTINUOUS
 62
4
100
AcDbLine
 10
294.0776054009128
 20
59.60590755717323
 30
0.0000000000000000
 11
292.4343497808325
 21
61.12817920411217
 31
0.0000000000000000
  0
LINE
  5
414
100
AcDbEntity
  8
AIR-DIAGRAM0
  6
CONTINUOUS
 62
4
100
AcDbLine
 10
298.0343497808324
 20
58.21833384739563
 30
0.0000000000000000
 11
301.1343497808324
 21
58.21833384739563
 31
0.0000000000000000
  0
CIRCLE
  5
415
100
AcDbEntity
  8
AIR-DIAGRAM0
  6
CONTINUOUS
 62
4
100
AcDbCircle
 10
301.1343497808324
 20
58.21833384739563
 30
0.0000000000000000
 40
0.5000000000000000
  0
LINE
  5
416
100
AcDbEntity
  8
AIR-DIAGRAM0
  6
HIDDEN
 62
4
100
AcDbLine
 10
301.1343497808324
 20
58.21833384739563
 30
0.0000000000000000
 11
306.7343497808324
 21
58.21833384739563
 31
0.0000000000000000
  0
LINE
  5
417
100
AcDbEntity
  8
AIR-DIAGRAM0
  6
CONTINUOUS
 62
4
100
AcDbLine
 10
298.3343497808323
 20
52.61833384739589
 30
0.0000000000000000
 11
297.7341435897865
 21
50.37833384739585
 31
0.0000000000000000
  0
LINE
  5
418
100
AcDbEntity
  8
AIR-DIAGRAM0
  6
CONTINUOUS
 62
4
100
AcDbLine
 10
297.1339373987408
 20
52.61833384739624
 30
0.0000000000000000
 11
297.7341435897869
 21
50.37833384739605
 31
0.0000000000000000
  0
LINE
  5
419
100
AcDbEntity
  8
AIR-DIAGRAM0
  6
CONTINUOUS
 62
4
100
AcDbLine
 10
297.1339373987407
 20
52.61833384739660
 30
0.0000000000000000
 11
296.5337312076948
 21
50.37833384739626
 31
0.0000000000000000
  0
LINE
  5
41A
100
AcDbEntity
  8
AIR-DIAGRAM0
  6
CONTINUOUS
 62
4
100
AcDbLine
 10
295.9335250166502
 20
52.61833384739636
 30
0.0000000000000000
 11
296.5337312076961
 21
50.37833384739618
 31
0.0000000000000000
  0
CIRCLE
  5
41B
100
AcDbEntity
  8
AIR-DIAGRAM0
  6
CONTINUOUS
 62
4
100
AcDbCircle
 10
294.1143497808324
 20
58.21833384739563
 30
0.0000000000000000
 40
3.919999999999999
  0
LINE
  5
41C
100
AcDbEntity
  8
AIR-DIAGRAM0
  6
CONTINUOUS
 62
3
100
AcDbLine
 10
299.5177690270579
 20
33.39898356929128
 30
0.0000000000000000
 11
301.1343497808325
 21
36.19898356936572
 31
0.0000000000000000
  0
LINE
  5
41D
100
AcDbEntity
  8
AIR-DIAGRAM0
  6
CONTINUOUS
 62
3
100
AcDbLine
 10
302.7509305346051
 20
33.39898356929342
 30
0.0000000000000000
 11
301.1343497808322
 21
36.19898356936555
 31
0.0000000000000000
  0
LINE
  5
41E
100
AcDbEntity
  8
AIR-DIAGRAM0
  6
CONTINUOUS
 62
3
100
AcDbLine
 10
299.5177690270583
 20
33.39898356929075
 30
0.0000000000000000
 11
302.7509305346057
 21
33.39898356929331
 31
0.0000000000000000
  0
LINE
  5
41F
100
AcDbEntity
  8
AIR-DIAGRAM0
  6
CONTINUOUS
 62
3
100
AcDbLine
 10
305.0941477554778
 20
42.35898356929232
 30
0.0000000000000000
 11
307.2943497808320
 21
42.35898356929232
 31
0.0000000000000000
  0
LINE
  5
420
100
AcDbEntity
  8
AIR-DIAGRAM0
  6
CONTINUOUS
 62
4
100
AcDbLine
 10
301.1343497808324
 20
46.31878154393638
 30
0.0000000000000000
 11
301.1343497808324
 21
47.91918559464710
 31
0.0000000000000000
  0
LINE
  5
421
100
AcDbEntity
  8
AIR-DIAGRAM0
  6
CONTINUOUS
 62
4
100
AcDbLine
 10
301.1343497808321
 20
46.49813182203908
 30
0.0000000000000000
 11
301.1343497808321
 21
60.18649546769328
 31
0.0000000000000000
  0
LINE
  5
422
100
AcDbEntity
  8
AIR-DIAGRAM0
  6
CONTINUOUS
 62
4
100
AcDbLine
 10
301.1343497808322
 20
75.86282194902169
 30
0.0000000000000000
 11
301.1343497808322
 21
85.88184772293552
 31
0.0000000000000000
  0
LINE
  5
423
100
AcDbEntity
  8
AIR-DIAGRAM0
  6
PHANTOM
 62
3
100
AcDbLine
 10
270.4850817317054
 20
122.2512234169788
 30
0.0000000000000000
 11
332.0846693856680
 21
122.2512234169788
 31
0.0000000000000000
  0
LINE
  5
424
100
AcDbEntity
  8
AIR-DIAGRAM0
  6
PHANTOM
 62
3
100
AcDbLine
 10
270.4850817317054
 20
74.16931913767782
 30
0.0000000000000000
 11
332.0846693856814
 21
74.16931913767782
 31
0.0000000000000000
  0
LINE
  5
425
100
AcDbEntity
  8
AIR-DIAGRAM0
  6
PHANTOM
 62
3
100
AcDbLine
 10
270.4850817317054
 20
30.53627788273458
 30
0.0000000000000000
 11
332.0846693856934
 21
30.53627788273458
 31
0.0000000000000000
  0
LINE
  5
426
100
AcDbEntity
  8
AIR-DIAGRAM0
  6
PHANTOM
 62
3
100
AcDbLine
 10
270.4850817317054
 20
30.53627788273458
 30
0.0000000000000000
 11
270.4850817317054
 21
51.96852851339104
 31
0.0000000000000000
  0
LINE
  5
427
100
AcDbEntity
  8
AIR-DIAGRAM0
  6
PHANTOM
 62
3
100
AcDbLine
 10
270.4850817317054
 20
63.06578879794291
 30
0.0000000000000000
 11
270.4850817317054
 21
122.2512234169788
 31
0.0000000000000000
  0
LINE
  5
428
100
AcDbEntity
  8
AIR-DIAGRAM0
  6
PHANTOM
 62
3
100
AcDbLine
 10
332.0846693856934
 20
30.53627788273458
 30
0.0000000000000000
 11
332.0846693856907
 21
40.23661192400284
 31
0.0000000000000000
  0
LINE
  5
429
100
AcDbEntity
  8
AIR-DIAGRAM0
  6
CONTINUOUS
 62
4
100
AcDbLine
 10
297.1745518061878
 20
69.30620137893831
 30
0.0000000000000000
 11
301.1343497808324
 21
73.26599935358286
 31
0.0000000000000000
  0
LINE
  5
42A
100
AcDbEntity
  8
AIR-DIAGRAM0
  6
CONTINUOUS
 62
4
100
AcDbLine
 10
297.1745518061875
 20
69.30620137893816
 30
0.0000000000000000
 11
301.1343497808321
 21
65.34640340429360
 31
0.0000000000000000
  0
LINE
  5
42B
100
AcDbEntity
  8
AIR-DIAGRAM0
  6
CONTINUOUS
 62
4
100
AcDbLine
 10
301.1343497808326
 20
65.34640340429368
 30
0.0000000000000000
 11
305.0941477554771
 21
69.30620137893823
 31
0.0000000000000000
  0
LINE
  5
42C
100
AcDbEntity
  8
AIR-DIAGRAM0
  6
CONTINUOUS
 62
4
100
AcDbLine
 10
301.1343497808326
 20
73.26599935358264
 30
0.0000000000000000
 11
305.0941477554773
 21
69.30620137893790
 31
0.0000000000000000
  0
LINE
  5
42D
100
AcDbEntity
  8
AIR-DIAGRAM0
  6
CONTINUOUS
 62
3
100
AcDbLine
 10
297.1745518061135
 20
69.30620137886395
 30
0.0000000000000000
 11
298.8943497808320
 21
69.30620137886362
 31
0.0000000000000000
  0
MTEXT
  5
42E
100
AcDbEntity
  8
AIR-DIAGRAM0
  6
CONTINUOUS
 62
3
100
AcDbMText
 10
321.1483210749207
 20
89.91971894892825
 30
0.0000000000000000
 40
3.000000000000000
 41
0.0000000000000000
 71
     1
 72
     1
  1
{\H0.93x;{SIRENCER\Pサイレンサ\PAN200-02}}
 11
1.000000000000000
 21
0.0000000000000000
 31
0.0000000000000000
  7
KNJYOKO
  0
LINE
  5
42F
100
AcDbEntity
  8
AIR-DIAGRAM0
  6
PHANTOM
 62
3
100
AcDbLine
 10
332.0846693856831
 20
67.47432431933871
 30
0.0000000000000000
 11
332.0846693856799
 21
79.10149986842914
 31
0.0000000000000000
  0
MTEXT
  5
430
100
AcDbEntity
  8
AIR-DIAGRAM0
  6
CONTINUOUS
 62
3
100
AcDbMText
 10
279.6262520737446
 20
139.3026638934082
 30
0.0000000000000000
 40
3.099999904632568
 41
0.0000000000000000
 71
     1
 72
     1
  1
{\H0.92x;{A(開)\P(OPEN)}}
 11
1.000000000000000
 21
-2.021286199229721e-015
 31
0.0000000000000000
  7
KNJYOKO
  0
MTEXT
  5
431
100
AcDbEntity
  8
AIR-DIAGRAM0
  6
CONTINUOUS
 62
3
100
AcDbMText
 10
306.1146542207138
 20
139.4996926653835
 30
0.0000000000000000
 40
3.099999904632568
 41
0.0000000000000000
 71
     1
 72
     1
  1
{\H0.92x;{B(閉)\P(CLOSE)}}
 11
1.000000000000000
 21
-2.021286199229721e-015
 31
0.0000000000000000
  7
KNJYOKO
  0
MTEXT
  5
432
100
AcDbEntity
  8
AIR-DIAGRAM0
  6
CONTINUOUS
 62
4
100
AcDbMText
 10
329.3332083686424
 20
106.6395482230392
 30
0.0000000000000000
 40
3.000000000000000
 41
0.0000000000000000
 71
     1
 72
     1
  1
{\H0.93x;{VFS34**(SMC)}}
 11
1.000000000000000
 21
0.0000000000000000
 31
0.0000000000000000
  7
STANDARD
  0
MTEXT
  5
433
100
AcDbEntity
  8
AIR-DIAGRAM0
  6
CONTINUOUS
 62
4
100
AcDbMText
 10
329.0581353376840
 20
114.7671561721359
 30
0.0000000000000000
 40
3.000000000000000
 41
0.0000000000000000
 71
     1
 72
     1
  1
{\H0.94x;{ソレノイドバルブ(参考相当品)\PSOLENOID VALVE}}
 11
1.000000000000000
 21
0.0000000000000000
 31
0.0000000000000000
  7
KNJYOKO
  0
LINE
  5
434
100
AcDbEntity
  8
AIR-DIAGRAM0
  6
PHANTOM
 62
3
100
AcDbLine
 10
332.0846693856763
 20
92.00049324872633
 30
0.0000000000000000
 11
332.0846693856743
 21
99.25431301033444
 31
0.0000000000000000
  0
LINE
  5
435
100
AcDbEntity
  8
AIR-DIAGRAM0
  6
PHANTOM
 62
3
100
AcDbLine
 10
332.0846693856697
 20
115.9832204924568
 30
0.0000000000000000
 11
332.0846693856680
 21
122.2512234169788
 31
0.0000000000000000
  0
MTEXT
  5
436
100
AcDbEntity
  8
AIR-DIAGRAM0
  6
CONTINUOUS
 62
3
100
AcDbMText
 10
281.7667977712883
 20
27.65080379821195
 30
0.0000000000000000
 40
5.000000000000000
 41
0.0000000000000000
 71
     1
 72
     1
  1
{\H0.94x;{　　エアー回路図\PＡＩＲ　ＤＩＡＧＲＡＭ\P}
 11
1.000000000000000
 21
0.0000000000000000
 31
0.0000000000000000
  7
KNJYOKO
  0
LINE
  5
437
100
AcDbEntity
  8
AIR-DIAGRAM0
  6
CONTINUOUS
 62
3
100
AcDbLine
 10
280.7203881427706
 20
22.34361552354121
 30
0.0000000000000000
 11
322.0510149173859
 21
22.34361552354526
 31
0.0000000000000000
  0
ELLIPSE
  5
438
100
AcDbEntity
  8
AIR-DIAGRAM0
  6
CONTINUOUS
 62
3
100
AcDbEllipse
 10
301.1343497808011
 20
153.7586735803432
 30
0.0000000000000000
 11
10.50000000000000
 21
0.0000000000000000
 31
0.0000000000000000
210
0.0000000000000000
220
0.0000000000000000
230
1.000000000000000
 40
0.4213826500238096
 41
0.0000000000000000
 42
6.283185307179586
  0
MTEXT
  5
439
100
AcDbEntity
  8
AIR-DIAGRAM0
  6
CONTINUOUS
 62
3
100
AcDbMText
 10
328.7691172219768
 20
103.0378436120776
 30
0.0000000000000000
 40
3.000000000000000
 41
0.0000000000000000
 71
     1
 72
     1
  1
{\H0.93x;{(OR EQUIVALANT)}}
 11
1.000000000000000
 21
0.0000000000000000
 31
0.0000000000000000
  7
STANDARD
  0
MTEXT
  5
43A
100
AcDbEntity
  8
AIR-DIAGRAM0
  6
CONTINUOUS
 62
3
100
AcDbMText
 10
312.4873604779439
 20
45.51909313116927
 30
0.0000000000000000
 40
3.000000000000000
 41
0.0000000000000000
 71
     1
 72
     1
  1
{\H0.93x;{(OR EQUIVALANT)}}
 11
1.000000000000000
 21
0.0000000000000000
 31
0.0000000000000000
  7
STANDARD
  0
LEADER
  5
43B
100
AcDbEntity
  8
AIR-DIAGRAM0
  6
CONTINUOUS
 62
3
100
AcDbLeader
  3
DXF001
 73
     0
 75
     1
 40
3.000000000000000
 41
28.61399923467633
 76
     3
 10
268.8427575813073
 20
55.34554854508589
 30
0.0000000000000000
 10
256.5377193133515
 20
41.28382905564871
 30
0.0000000000000000
 10
254.6717193109673
 20
41.28382905564871
 30
0.0000000000000000
340
43C
213
0.0000000000000000
223
-0.5000000000000000
233
0.0000000000000000
1001
ACAD
1000
DSTYLE
1002
{
1070
   147
1040
0.0
1070
    77
1070
     1
1070
   173
1070
     1
1070
     6
1000
_OPEN
1070
     7
1000
_OPEN
1002
}
  0
MTEXT
  5
43C
102
{ACAD_REACTORS
330
43B
102
}
100
AcDbEntity
  8
AIR-DIAGRAM0
  6
CONTINUOUS
 62
3
100
AcDbMText
 10
226.0577200762909
 20
44.78382905564871
 30
0.0000000000000000
 40
3.000000000000000
 41
0.0000000000000000
 71
     1
 72
     1
  1
{\H0.93x;{最高使用エア圧力　\PMAX Permissible \Pair press\PMAX 0.7MPa\P(7.0kgf/cm2)}}
 11
1.000000000000000
 21
0.0000000000000000
 31
0.0000000000000000
  7
KNJYOKO
  0
LINE
  5
43D
100
AcDbEntity
  8
AIR-DIAGRAM0
  6
CONTINUOUS
 62
3
100
AcDbLine
 10
307.1343497808206
 20
106.0882580389550
 30
0.0000000000000000
 11
295.1343497808206
 21
106.0882580389550
 31
0.0000000000000000
  0
LINE
  5
43E
100
AcDbEntity
  8
AIR-DIAGRAM0
  6
CONTINUOUS
 62
3
100
AcDbLine
 10
295.1343497808213
 20
106.0882580389564
 30
0.0000000000000000
 11
295.1343497808103
 21
115.0882580389564
 31
0.0000000000000000
  0
LINE
  5
43F
100
AcDbEntity
  8
AIR-DIAGRAM0
  6
CONTINUOUS
 62
3
100
AcDbLine
 10
307.1343497808125
 20
115.0882580389550
 30
0.0000000000000000
 11
295.1343497808098
 21
115.0882580389550
 31
0.0000000000000000
  0
LINE
  5
440
100
AcDbEntity
  8
AIR-DIAGRAM0
  6
CONTINUOUS
 62
3
100
AcDbLine
 10
307.1343497808211
 20
106.0882580389541
 30
0.0000000000000000
 11
307.1343497808130
 21
115.0882580389541
 31
0.0000000000000000
  0
LINE
  5
441
100
AcDbEntity
  8
AIR-DIAGRAM0
  6
CONTINUOUS
 62
3
100
AcDbLine
 10
295.1343497808207
 20
106.0882580389550
 30
0.0000000000000000
 11
283.1343497808180
 21
106.0882580389550
 31
0.0000000000000000
  0
LINE
  5
442
100
AcDbEntity
  8
AIR-DIAGRAM0
  6
CONTINUOUS
 62
3
100
AcDbLine
 10
283.1343497808184
 20
106.0882580389541
 30
0.0000000000000000
 11
283.1343497808102
 21
115.0882580389541
 31
0.0000000000000000
  0
LINE
  5
443
100
AcDbEntity
  8
AIR-DIAGRAM0
  6
CONTINUOUS
 62
3
100
AcDbLine
 10
295.1343497808098
 20
115.0882580389550
 30
0.0000000000000000
 11
283.1343497808098
 21
115.0882580389550
 31
0.0000000000000000
  0
LINE
  5
444
100
AcDbEntity
  8
AIR-DIAGRAM0
  6
CONTINUOUS
 62
3
100
AcDbLine
 10
319.1343497808234
 20
106.0882580389550
 30
0.0000000000000000
 11
307.1343497808207
 21
106.0882580389550
 31
0.0000000000000000
  0
LINE
  5
445
100
AcDbEntity
  8
AIR-DIAGRAM0
  6
CONTINUOUS
 62
3
100
AcDbLine
 10
319.1343497808125
 20
115.0882580389550
 30
0.0000000000000000
 11
307.1343497808125
 21
115.0882580389550
 31
0.0000000000000000
  0
LINE
  5
446
100
AcDbEntity
  8
AIR-DIAGRAM0
  6
CONTINUOUS
 62
3
100
AcDbLine
 10
319.1343497808240
 20
106.0882580389563
 30
0.0000000000000000
 11
319.1343497808131
 21
115.0882580389563
 31
0.0000000000000000
  0
LINE
  5
447
100
AcDbEntity
  8
AIR-DIAGRAM0
  6
CONTINUOUS
 62
3
100
AcDbLine
 10
301.9973588802328
 20
108.3382580389551
 30
0.0000000000000000
 11
300.2713406814106
 21
108.3382580389551
 31
0.0000000000000000
  0
LINE
  5
448
100
AcDbEntity
  8
AIR-DIAGRAM0
  6
CONTINUOUS
 62
3
100
AcDbLine
 10
301.1343497808330
 20
73.26599935358229
 30
0.0000000000000000
 11
301.1343497808217
 21
108.3382580389551
 31
0.0000000000000000
  0
LINE
  5
449
100
AcDbEntity
  8
AIR-DIAGRAM0
  6
CONTINUOUS
 62
3
100
AcDbLine
 10
283.1343497808152
 20
107.7233704690514
 30
0.0000000000000000
 11
277.1343497808152
 21
107.7233704690514
 31
0.0000000000000000
  0
LINE
  5
44A
100
AcDbEntity
  8
AIR-DIAGRAM0
  6
CONTINUOUS
 62
3
100
AcDbLine
 10
277.1343497808172
 20
107.7233704690509
 30
0.0000000000000000
 11
277.1343497808149
 21
109.9733704690514
 31
0.0000000000000000
  0
LINE
  5
44B
100
AcDbEntity
  8
AIR-DIAGRAM0
  6
CONTINUOUS
 62
3
100
AcDbLine
 10
283.1343497808152
 20
109.9733704690514
 30
0.0000000000000000
 11
277.1343497808152
 21
109.9733704690514
 31
0.0000000000000000
  0
LINE
  5
44C
100
AcDbEntity
  8
AIR-DIAGRAM0
  6
CONTINUOUS
 62
3
100
AcDbLine
 10
278.6343497808148
 20
112.5714466803999
 30
0.0000000000000000
 11
277.1343497808144
 21
109.9733704690462
 31
0.0000000000000000
  0
LINE
  5
44D
100
AcDbEntity
  8
AIR-DIAGRAM0
  6
CONTINUOUS
 62
3
100
AcDbLine
 10
280.1343497808148
 20
109.9733704690460
 30
0.0000000000000000
 11
278.6343497808147
 21
112.5714466803995
 31
0.0000000000000000
  0
LINE
  5
44E
100
AcDbEntity
  8
AIR-DIAGRAM0
  6
CONTINUOUS
 62
3
100
AcDbLine
 10
281.6343497808080
 20
112.5714466804025
 30
0.0000000000000000
 11
283.1343497808128
 21
109.9733704690515
 31
0.0000000000000000
  0
LINE
  5
44F
100
AcDbEntity
  8
AIR-DIAGRAM0
  6
CONTINUOUS
 62
3
100
AcDbLine
 10
280.1343497808123
 20
109.9733704690460
 30
0.0000000000000000
 11
281.6343497808077
 21
112.5714466804022
 31
0.0000000000000000
  0
LINE
  5
450
100
AcDbEntity
  8
AIR-DIAGRAM0
  6
CONTINUOUS
 62
3
100
AcDbLine
 10
280.7838688336321
 20
107.7233704690513
 30
0.0000000000000000
 11
279.4848307279522
 21
109.9733704690513
 31
0.0000000000000000
  0
LINE
  5
451
100
AcDbEntity
  8
AIR-DIAGRAM0
  6
CONTINUOUS
 62
3
100
AcDbLine
 10
298.5093497808131
 20
101.0882580389551
 30
0.0000000000000000
 11
298.5093497808242
 21
143.8382580389550
 31
0.0000000000000000
  0
LINE
  5
452
100
AcDbEntity
  8
AIR-DIAGRAM0
  6
CONTINUOUS
 62
3
100
AcDbLine
 10
298.5093497808160
 20
106.0882580389550
 30
0.0000000000000000
 11
297.5904115445753
 21
109.0939695751874
 31
0.0000000000000000
  0
LINE
  5
453
100
AcDbEntity
  8
AIR-DIAGRAM0
  6
CONTINUOUS
 62
3
100
AcDbLine
 10
298.5093497808157
 20
106.0882580389549
 30
0.0000000000000000
 11
299.4282880170539
 21
109.0939695751800
 31
0.0000000000000000
  0
LINE
  5
454
100
AcDbEntity
  8
AIR-DIAGRAM0
  6
CONTINUOUS
 62
3
100
AcDbLine
 10
303.7593497808131
 20
101.0882580388907
 30
0.0000000000000000
 11
303.7593497808242
 21
143.8382580389550
 31
0.0000000000000000
  0
LINE
  5
455
100
AcDbEntity
  8
AIR-DIAGRAM0
  6
CONTINUOUS
 62
3
100
AcDbLine
 10
303.7593497808159
 20
106.0882580389550
 30
0.0000000000000000
 11
302.8404115445753
 21
109.0939695751874
 31
0.0000000000000000
  0
LINE
  5
456
100
AcDbEntity
  8
AIR-DIAGRAM0
  6
CONTINUOUS
 62
3
100
AcDbLine
 10
303.7593497808157
 20
106.0882580389550
 30
0.0000000000000000
 11
304.6782880170539
 21
109.0939695751802
 31
0.0000000000000000
  0
LINE
  5
457
100
AcDbEntity
  8
AIR-DIAGRAM0
  6
CONTINUOUS
 62
3
100
AcDbLine
 10
319.1343497808286
 20
107.7233704690700
 30
0.0000000000000000
 11
325.1343497808285
 21
107.7233704690763
 31
0.0000000000000000
  0
LINE
  5
458
100
AcDbEntity
  8
AIR-DIAGRAM0
  6
CONTINUOUS
 62
3
100
AcDbLine
 10
325.1343497808268
 20
107.7233704690759
 30
0.0000000000000000
 11
325.1343497808267
 21
109.9733704690766
 31
0.0000000000000000
  0
LINE
  5
459
100
AcDbEntity
  8
AIR-DIAGRAM0
  6
CONTINUOUS
 62
3
100
AcDbLine
 10
319.1343497808264
 20
109.9733704690700
 30
0.0000000000000000
 11
325.1343497808263
 21
109.9733704690763
 31
0.0000000000000000
  0
LINE
  5
45A
100
AcDbEntity
  8
AIR-DIAGRAM0
  6
CONTINUOUS
 62
3
100
AcDbLine
 10
323.6343497808243
 20
112.5714466804234
 30
0.0000000000000000
 11
325.1343497808275
 21
109.9733704690712
 31
0.0000000000000000
  0
LINE
  5
45B
100
AcDbEntity
  8
AIR-DIAGRAM0
  6
CONTINUOUS
 62
3
100
AcDbLine
 10
322.1343497808268
 20
109.9733704690678
 30
0.0000000000000000
 11
323.6343497808242
 21
112.5714466804229
 31
0.0000000000000000
  0
LINE
  5
45C
100
AcDbEntity
  8
AIR-DIAGRAM0
  6
CONTINUOUS
 62
3
100
AcDbLine
 10
320.6343497808310
 20
112.5714466804231
 30
0.0000000000000000
 11
319.1343497808287
 21
109.9733704690704
 31
0.0000000000000000
  0
LINE
  5
45D
100
AcDbEntity
  8
AIR-DIAGRAM0
  6
CONTINUOUS
 62
3
100
AcDbLine
 10
322.1343497808296
 20
109.9733704690681
 30
0.0000000000000000
 11
320.6343497808314
 21
112.5714466804229
 31
0.0000000000000000
  0
LINE
  5
45E
100
AcDbEntity
  8
AIR-DIAGRAM0
  6
CONTINUOUS
 62
3
100
AcDbLine
 10
321.4848307280117
 20
107.7233704690726
 30
0.0000000000000000
 11
322.7838688336893
 21
109.9733704690740
 31
0.0000000000000000
  0
LINE
  5
45F
100
AcDbEntity
  8
AIR-DIAGRAM0
  6
CONTINUOUS
 62
3
100
AcDbLine
 10
286.5093497808183
 20
106.0882580389550
 30
0.0000000000000000
 11
286.5093497808171
 21
108.3382580389486
 31
0.0000000000000000
  0
LINE
  5
460
100
AcDbEntity
  8
AIR-DIAGRAM0
  6
CONTINUOUS
 62
3
100
AcDbLine
 10
287.3723588802283
 20
108.3382580389486
 30
0.0000000000000000
 11
285.6463406814061
 21
108.3382580389486
 31
0.0000000000000000
  0
LINE
  5
461
100
AcDbEntity
  8
AIR-DIAGRAM0
  6
CONTINUOUS
 62
3
100
AcDbLine
 10
315.7593497808272
 20
106.0882580389706
 30
0.0000000000000000
 11
315.7593497808261
 21
108.3382580389641
 31
0.0000000000000000
  0
LINE
  5
462
100
AcDbEntity
  8
AIR-DIAGRAM0
  6
CONTINUOUS
 62
3
100
AcDbLine
 10
314.8963406814150
 20
108.3382580389629
 30
0.0000000000000000
 11
316.6223588802372
 21
108.3382580389648
 31
0.0000000000000000
  0
LINE
  5
463
100
AcDbEntity
  8
AIR-DIAGRAM0
  6
CONTINUOUS
 62
3
100
AcDbLine
 10
290.5093497808130
 20
92.71325803902968
 30
0.0000000000000000
 11
290.5093497808130
 21
80.71325803902974
 31
0.0000000000000000
  0
LINE
  5
464
100
AcDbEntity
  8
AIR-DIAGRAM0
  6
CONTINUOUS
 62
3
100
AcDbLine
 10
296.5093497808130
 20
92.71325803902971
 30
0.0000000000000000
 11
296.5093497808130
 21
80.71325803902973
 31
0.0000000000000000
  0
LINE
  5
465
100
AcDbEntity
  8
AIR-DIAGRAM0
  6
CONTINUOUS
 62
3
100
AcDbLine
 10
296.5093497808130
 20
92.71325803902981
 30
0.0000000000000000
 11
290.5093497808130
 21
92.71325803902981
 31
0.0000000000000000
  0
LINE
  5
466
100
AcDbEntity
  8
AIR-DIAGRAM0
  6
CONTINUOUS
 62
3
100
AcDbLine
 10
296.5093497808130
 20
80.71325803902981
 30
0.0000000000000000
 11
290.5093497808130
 21
80.71325803902981
 31
0.0000000000000000
  0
LINE
  5
467
100
AcDbEntity
  8
AIR-DIAGRAM0
  6
CONTINUOUS
 62
3
100
AcDbLine
 10
296.5093497808127
 20
80.71325803851241
 30
0.0000000000000000
 11
293.5093497808126
 21
77.71325803850661
 31
0.0000000000000000
  0
LINE
  5
468
100
AcDbEntity
  8
AIR-DIAGRAM0
  6
CONTINUOUS
 62
3
100
AcDbLine
 10
290.5093497808130
 20
80.71325803851214
 30
0.0000000000000000
 11
293.5093497808128
 21
77.71325803850662
 31
0.0000000000000000
  0
LINE
  5
469
100
AcDbEntity
  8
AIR-DIAGRAM0
  6
CONTINUOUS
 62
3
100
AcDbLine
 10
293.5093497808130
 20
90.71325803902981
 30
0.0000000000000000
 11
290.5093497808130
 21
90.71325803902981
 31
0.0000000000000000
  0
LINE
  5
46A
100
AcDbEntity
  8
AIR-DIAGRAM0
  6
CONTINUOUS
 62
3
100
AcDbLine
 10
293.5093497808130
 20
82.71325803902981
 30
0.0000000000000000
 11
290.5093497808130
 21
82.71325803902981
 31
0.0000000000000000
  0
LINE
  5
46B
100
AcDbEntity
  8
AIR-DIAGRAM0
  6
CONTINUOUS
 62
3
100
AcDbLine
 10
296.5093497808130
 20
86.71325803902981
 30
0.0000000000000000
 11
293.5093497808130
 21
86.71325803902981
 31
0.0000000000000000
  0
LINE
  5
46C
100
AcDbEntity
  8
AIR-DIAGRAM0
  6
CONTINUOUS
 62
3
100
AcDbLine
 10
305.7593497808130
 20
92.71325803902970
 30
0.0000000000000000
 11
305.7593497808130
 21
80.71325803902977
 31
0.0000000000000000
  0
LINE
  5
46D
100
AcDbEntity
  8
AIR-DIAGRAM0
  6
CONTINUOUS
 62
3
100
AcDbLine
 10
311.7593497808130
 20
92.71325803902968
 30
0.0000000000000000
 11
311.7593497808130
 21
80.71325803902968
 31
0.0000000000000000
  0
LINE
  5
46E
100
AcDbEntity
  8
AIR-DIAGRAM0
  6
CONTINUOUS
 62
3
100
AcDbLine
 10
311.7593497808130
 20
92.71325803902971
 30
0.0000000000000000
 11
305.7593497808130
 21
92.71325803902977
 31
0.0000000000000000
  0
LINE
  5
46F
100
AcDbEntity
  8
AIR-DIAGRAM0
  6
CONTINUOUS
 62
3
100
AcDbLine
 10
311.7593497808130
 20
80.71325803902971
 30
0.0000000000000000
 11
305.7593497808130
 21
80.71325803902977
 31
0.0000000000000000
  0
LINE
  5
470
100
AcDbEntity
  8
AIR-DIAGRAM0
  6
CONTINUOUS
 62
3
100
AcDbLine
 10
311.7593497808130
 20
80.71325803851264
 30
0.0000000000000000
 11
308.7593497808128
 21
77.71325803850681
 31
0.0000000000000000
  0
LINE
  5
471
100
AcDbEntity
  8
AIR-DIAGRAM0
  6
CONTINUOUS
 62
3
100
AcDbLine
 10
305.7593497808131
 20
80.71325803851245
 30
0.0000000000000000
 11
308.7593497808128
 21
77.71325803850708
 31
0.0000000000000000
  0
LINE
  5
472
100
AcDbEntity
  8
AIR-DIAGRAM0
  6
CONTINUOUS
 62
3
100
AcDbLine
 10
308.7593497808131
 20
90.71325803902974
 30
0.0000000000000000
 11
305.7593497808130
 21
90.71325803902980
 31
0.0000000000000000
  0
LINE
  5
473
100
AcDbEntity
  8
AIR-DIAGRAM0
  6
CONTINUOUS
 62
3
100
AcDbLine
 10
308.7593497808130
 20
82.71325803902974
 30
0.0000000000000000
 11
305.7593497808130
 21
82.71325803902980
 31
0.0000000000000000
  0
LINE
  5
474
100
AcDbEntity
  8
AIR-DIAGRAM0
  6
CONTINUOUS
 62
3
100
AcDbLine
 10
311.7593497808131
 20
86.71325803902970
 30
0.0000000000000000
 11
308.7593497808131
 21
86.71325803902970
 31
0.0000000000000000
  0
MTEXT
  5
475
100
AcDbEntity
  8
AIR-DIAGRAM0
  6
CONTINUOUS
 62
3
100
AcDbMText
 10
310.7929633572171
 20
97.31526850688032
 30
0.0000000000000000
 40
3.099999904632568
 41
0.0000000000000000
 71
     1
 72
     1
  1
{\H0.91x;{EXH2}}
 11
1.000000000000000
 21
0.0000000000000000
 31
0.0000000000000000
  7
STANDARD
  0
MTEXT
  5
476
100
AcDbEntity
  8
AIR-DIAGRAM0
  6
CONTINUOUS
 62
3
100
AcDbMText
 10
281.3922124536141
 20
97.49237571171629
 30
0.0000000000000000
 40
3.099999904632568
 41
0.0000000000000000
 71
     1
 72
     1
  1
{\H0.91x;{EXH1}}
 11
1.000000000000000
 21
0.0000000000000000
 31
0.0000000000000000
  7
STANDARD
  0
MTEXT
  5
477
100
AcDbEntity
  8
AIR-DIAGRAM0
  6
CONTINUOUS
 62
3
100
AcDbMText
 10
275.0644846717030
 20
119.0364328327437
 30
0.0000000000000000
 40
3.099999904632568
 41
0.0000000000000000
 71
     1
 72
     1
  1
{\H0.91x;{SOL1}}
 11
1.000000000000000
 21
0.0000000000000000
 31
0.0000000000000000
  7
STANDARD
  0
MTEXT
  5
478
100
AcDbEntity
  8
AIR-DIAGRAM0
  6
CONTINUOUS
 62
3
100
AcDbMText
 10
316.6328065072240
 20
119.2228388551921
 30
0.0000000000000000
 40
3.099999904632568
 41
0.0000000000000000
 71
     1
 72
     1
  1
{\H0.91x;{SOL2}}
 11
1.000000000000000
 21
0.0000000000000000
 31
0.0000000000000000
  7
STANDARD
  0
LINE
  5
479
100
AcDbEntity
  8
AIR-DIAGRAM0
  6
PHANTOM
 62
3
100
AcDbLine
 10
319.3843497808244
 20
147.2090056889844
 30
0.0000000000000000
 11
283.3843497808244
 21
147.2090056889870
 31
0.0000000000000000
  0
LINE
  5
47A
100
AcDbEntity
  8
AIR-DIAGRAM0
  6
PHANTOM
 62
3
100
AcDbLine
 10
319.3843497808241
 20
187.2954996949343
 30
0.0000000000000000
 11
283.3843497808241
 21
187.2954996949370
 31
0.0000000000000000
  0
LINE
  5
47B
100
AcDbEntity
  8
AIR-DIAGRAM0
  6
PHANTOM
 62
3
100
AcDbLine
 10
283.3843497808241
 20
147.2090056889870
 30
0.0000000000000000
 11
283.3843497808242
 21
187.2954996949370
 31
0.0000000000000000
  0
LINE
  5
47C
100
AcDbEntity
  8
AIR-DIAGRAM0
  6
PHANTOM
 62
3
100
AcDbLine
 10
319.3843497808241
 20
147.2090056889844
 30
0.0000000000000000
 11
319.3843497808242
 21
187.2954996949343
 31
0.0000000000000000
  0
LINE
  5
47D
100
AcDbEntity
  8
AIR-DIAGRAM0
  6
CONTINUOUS
 62
3
100
AcDbLine
 10
299.6343497808005
 20
162.8382580389550
 30
0.0000000000000000
 11
299.6343497807950
 21
167.8382580389549
 31
0.0000000000000000
  0
LINE
  5
47E
100
AcDbEntity
  8
AIR-DIAGRAM0
  6
CONTINUOUS
 62
3
100
AcDbLine
 10
294.6343497808005
 20
162.8382580389553
 30
0.0000000000000000
 11
294.6343497807950
 21
167.8382580389549
 31
0.0000000000000000
  0
LINE
  5
47F
100
AcDbEntity
  8
AIR-DIAGRAM0
  6
CONTINUOUS
 62
3
100
AcDbLine
 10
299.6343497807997
 20
162.8382580389553
 30
0.0000000000000000
 11
294.6343497807997
 21
162.8382580389553
 31
0.0000000000000000
  0
LINE
  5
480
100
AcDbEntity
  8
AIR-DIAGRAM0
  6
CONTINUOUS
 62
3
100
AcDbLine
 10
299.6343497807943
 20
167.8382580389552
 30
0.0000000000000000
 11
294.6343497807943
 21
167.8382580389553
 31
0.0000000000000000
  0
LINE
  5
481
100
AcDbEntity
  8
AIR-DIAGRAM0
  6
CONTINUOUS
 62
3
100
AcDbLine
 10
307.6343497808005
 20
162.8382580389553
 30
0.0000000000000000
 11
307.6343497807950
 21
167.8382580389546
 31
0.0000000000000000
  0
LINE
  5
482
100
AcDbEntity
  8
AIR-DIAGRAM0
  6
CONTINUOUS
 62
3
100
AcDbLine
 10
302.6343497808005
 20
162.8382580389546
 30
0.0000000000000000
 11
302.6343497807950
 21
167.8382580389546
 31
0.0000000000000000
  0
LINE
  5
483
100
AcDbEntity
  8
AIR-DIAGRAM0
  6
CONTINUOUS
 62
3
100
AcDbLine
 10
307.6343497807998
 20
162.8382580389553
 30
0.0000000000000000
 11
302.6343497807998
 21
162.8382580389553
 31
0.0000000000000000
  0
LINE
  5
484
100
AcDbEntity
  8
AIR-DIAGRAM0
  6
CONTINUOUS
 62
3
100
AcDbLine
 10
307.6343497807943
 20
167.8382580389553
 30
0.0000000000000000
 11
302.6343497807943
 21
167.8382580389553
 31
0.0000000000000000
  0
CIRCLE
  5
485
100
AcDbEntity
  8
AIR-DIAGRAM0
  6
CONTINUOUS
 62
3
100
AcDbCircle
 10
297.1412339622607
 20
165.9515879760384
 30
0.0000000000000000
 40
0.9393980633231109
  0
LINE
  5
486
100
AcDbEntity
  8
AIR-DIAGRAM0
  6
CONTINUOUS
 62
3
100
AcDbLine
 10
297.1554610548799
 20
164.6000456555957
 30
0.0000000000000000
 11
295.5478364946277
 21
166.2076702158516
 31
0.0000000000000000
  0
LINE
  5
487
100
AcDbEntity
  8
AIR-DIAGRAM0
  6
CONTINUOUS
 62
3
100
AcDbLine
 10
297.1554610548822
 20
164.6000456555935
 30
0.0000000000000000
 11
298.6492710451131
 21
166.0938556458263
 31
0.0000000000000000
  0
LINE
  5
488
100
AcDbEntity
  8
AIR-DIAGRAM0
  6
CONTINUOUS
 62
3
100
AcDbLine
 10
297.1343497807959
 20
166.8909608143830
 30
0.0000000000000000
 11
297.1343497807873
 21
173.8382580389550
 31
0.0000000000000000
  0
CIRCLE
  5
489
100
AcDbEntity
  8
AIR-DIAGRAM0
  6
CONTINUOUS
 62
3
100
AcDbCircle
 10
305.1274655993316
 20
165.9515879760475
 30
0.0000000000000000
 40
0.9393980633231109
  0
LINE
  5
48A
100
AcDbEntity
  8
AIR-DIAGRAM0
  6
CONTINUOUS
 62
3
100
AcDbLine
 10
305.1132385067161
 20
164.6000456556038
 30
0.0000000000000000
 11
306.7208630669671
 21
166.2076702158638
 31
0.0000000000000000
  0
LINE
  5
48B
100
AcDbEntity
  8
AIR-DIAGRAM0
  6
CONTINUOUS
 62
3
100
AcDbLine
 10
305.1132385067132
 20
164.6000456556045
 30
0.0000000000000000
 11
303.6194285164814
 21
166.0938556458309
 31
0.0000000000000000
  0
LINE
  5
48C
100
AcDbEntity
  8
AIR-DIAGRAM0
  6
CONTINUOUS
 62
3
100
AcDbLine
 10
305.1343497807939
 20
166.8909608143912
 30
0.0000000000000000
 11
305.1343497807844
 21
173.8382580389549
 31
0.0000000000000000
  0
LINE
  5
48D
100
AcDbEntity
  8
AIR-DIAGRAM0
  6
CENTER
 62
3
100
AcDbLine
 10
298.6343497808009
 20
161.3012832233983
 30
0.0000000000000000
 11
298.6343497807991
 21
162.8382580389555
 31
0.0000000000000000
  0
LINE
  5
48E
100
AcDbEntity
  8
AIR-DIAGRAM0
  6
CENTER
 62
3
100
AcDbLine
 10
303.6343497807974
 20
160.3012832234000
 30
0.0000000000000000
 11
303.6343497807956
 21
162.8382580389626
 31
0.0000000000000000
  0
LINE
  5
48F
100
AcDbEntity
  8
AIR-DIAGRAM0
  6
CENTER
 62
3
100
AcDbLine
 10
297.1343497808015
 20
160.3012832233953
 30
0.0000000000000000
 11
303.6343497807961
 21
160.3012832234008
 31
0.0000000000000000
  0
CIRCLE
  5
490
100
AcDbEntity
  8
AIR-DIAGRAM0
  6
CENTER
 62
3
100
AcDbCircle
 10
297.1343497808015
 20
160.3012832233953
 30
0.0000000000000000
 40
0.5000000000000000
  0
ARC
  5
491
100
AcDbEntity
  8
AIR-DIAGRAM0
  6
CENTER
 62
3
100
AcDbCircle
 10
303.6343497807943
 20
161.3012832233999
 30
0.0000000000000000
 40
0.4761701236253962
100
AcDbArc
 50
179.9999999999999
 51
359.9999999999999
  0
LINE
  5
492
100
AcDbEntity
  8
AIR-DIAGRAM0
  6
CONTINUOUS
 62
3
100
AcDbLine
 10
304.1105199044218
 20
161.3012832234035
 30
0.0000000000000000
 11
305.1343497808016
 21
161.3012832234035
 31
0.0000000000000000
  0
CIRCLE
  5
493
100
AcDbEntity
  8
AIR-DIAGRAM0
  6
CONTINUOUS
 62
3
100
AcDbCircle
 10
305.1343497808016
 20
161.3012832234035
 30
0.0000000000000000
 40
0.5000000000000000
  0
LINE
  5
494
100
AcDbEntity
  8
AIR-DIAGRAM0
  6
CENTER
 62
3
100
AcDbLine
 10
298.6343497808016
 20
161.3012832233982
 30
0.0000000000000000
 11
303.1581796571686
 21
161.3012832234000
 31
0.0000000000000000
  0
LINE
  5
495
100
AcDbEntity
  8
AIR-DIAGRAM0
  6
CONTINUOUS
 62
3
100
AcDbLine
 10
305.1343497808040
 20
143.8382580389550
 30
0.0000000000000000
 11
303.7593497808241
 21
143.8382580389550
 31
0.0000000000000000
  0
LINE
  5
496
100
AcDbEntity
  8
AIR-DIAGRAM0
  6
CONTINUOUS
 62
3
100
AcDbLine
 10
298.5093497808241
 20
143.8382580389550
 30
0.0000000000000000
 11
297.1343497808040
 21
143.8382580389550
 31
0.0000000000000000
  0
LINE
  5
497
100
AcDbEntity
  8
AIR-DIAGRAM0
  6
CONTINUOUS
 62
3
100
AcDbLine
 10
297.1343497808041
 20
143.8382580389550
 30
0.0000000000000000
 11
297.1343497807983
 21
164.6211569296814
 31
0.0000000000000000
  0
LINE
  5
498
100
AcDbEntity
  8
AIR-DIAGRAM0
  6
CONTINUOUS
 62
3
100
AcDbLine
 10
305.1343497808038
 20
143.8382580389550
 30
0.0000000000000000
 11
305.1343497807980
 21
164.6000456556037
 31
0.0000000000000000
  0
LINE
  5
499
100
AcDbEntity
  8
AIR-DIAGRAM0
  6
CONTINUOUS
 62
3
100
AcDbLine
 10
311.1343497807843
 20
173.8382580389550
 30
0.0000000000000000
 11
291.1343497807873
 21
173.8382580389550
 31
0.0000000000000000
  0
LINE
  5
49A
100
AcDbEntity
  8
AIR-DIAGRAM0
  6
CONTINUOUS
 62
3
100
AcDbLine
 10
311.1343497807758
 20
181.8382580389550
 30
0.0000000000000000
 11
291.1343497807796
 21
181.8382580389550
 31
0.0000000000000000
  0
LINE
  5
49B
100
AcDbEntity
  8
AIR-DIAGRAM0
  6
CONTINUOUS
 62
3
100
AcDbLine
 10
291.1343497807872
 20
173.8382580389551
 30
0.0000000000000000
 11
291.1343497807795
 21
181.8382580389551
 31
0.0000000000000000
  0
LINE
  5
49C
100
AcDbEntity
  8
AIR-DIAGRAM0
  6
CONTINUOUS
 62
3
100
AcDbLine
 10
311.1343497807842
 20
173.8382580389550
 30
0.0000000000000000
 11
311.1343497807758
 21
181.8382580389550
 31
0.0000000000000000
  0
LINE
  5
49D
100
AcDbEntity
  8
AIR-DIAGRAM0
  6
CONTINUOUS
 62
3
100
AcDbLine
 10
301.1343497807842
 20
173.8382580389445
 30
0.0000000000000000
 11
301.1343497807758
 21
181.8382580389445
 31
0.0000000000000000
  0
LINE
  5
49E
100
AcDbEntity
  8
AIR-DIAGRAM0
  6
CONTINUOUS
 62
3
100
AcDbLine
 10
317.1343497807800
 20
177.8382580389549
 30
0.0000000000000000
 11
301.1343497807799
 21
177.8382580389549
 31
0.0000000000000000
  0
MTEXT
  5
49F
100
AcDbEntity
  8
AIR-DIAGRAM0
  6
CONTINUOUS
 62
3
100
AcDbMText
 10
285.8312325986165
 20
197.7615249727596
 30
0.0000000000000000
 40
3.099999904632568
 41
0.0000000000000000
 71
     1
 72
     1
  1
{\H0.93x;{ ロータリチャック\PROTARY CHUCK}}
 11
1.000000000000000
 21
0.0000000000000000
 31
0.0000000000000000
  7
KNJYOKO
  0
LEADER
  5
4A0
100
AcDbEntity
  8
AIR-DIAGRAM0
  6
CONTINUOUS
 62
3
100
AcDbLeader
  3
DXF001
 73
     3
 74
     0
 75
     0
 76
     2
 10
291.7593497808182
 20
106.0882580389486
 30
0.0000000000000000
 10
291.7593497808101
 20
115.0882580389551
 30
0.0000000000000000
1001
ACAD
1000
DSTYLE
1002
{
1070
   173
1070
     1
1070
     6
1000
_OPEN
1070
     7
1000
_OPEN
1002
}
  0
LEADER
  5
4A1
100
AcDbEntity
  8
AIR-DIAGRAM0
  6
CONTINUOUS
 62
3
100
AcDbLeader
  3
DXF001
 73
     3
 74
     0
 75
     0
 76
     2
 10
286.5093497808128
 20
115.0882580389486
 30
0.0000000000000000
 10
289.5093497808163
 20
106.0882580389550
 30
0.0000000000000000
1001
ACAD
1000
DSTYLE
1002
{
1070
   173
1070
     1
1070
     6
1000
_OPEN
1070
     7
1000
_OPEN
1002
}
  0
LEADER
  5
4A2
100
AcDbEntity
  8
AIR-DIAGRAM0
  6
CONTINUOUS
 62
3
100
AcDbLeader
  3
DXF001
 73
     3
 74
     0
 75
     0
 76
     2
 10
310.5093497808273
 20
106.0882580389584
 30
0.0000000000000000
 10
310.5093497808261
 20
115.0882580389551
 30
0.0000000000000000
1001
ACAD
1000
DSTYLE
1002
{
1070
   173
1070
     1
1070
     6
1000
_OPEN
1070
     7
1000
_OPEN
1002
}
  0
LEADER
  5
4A3
100
AcDbEntity
  8
AIR-DIAGRAM0
  6
CONTINUOUS
 62
3
100
AcDbLeader
  3
DXF001
 73
     3
 74
     0
 75
     0
 76
     2
 10
315.7593497808231
 20
115.0882580389639
 30
0.0000000000000000
 10
312.7593497808253
 20
106.0882580389553
 30
0.0000000000000000
1001
ACAD
1000
DSTYLE
1002
{
1070
   173
1070
     1
1070
     6
1000
_OPEN
1070
     7
1000
_OPEN
1002
}
  0
LINE
  5
4A4
100
AcDbEntity
  8
AIR-DIAGRAM0
  6
CONTINUOUS
 62
3
100
AcDbLine
 10
293.5093497808130
 20
92.71325803902973
 30
0.0000000000000000
 11
293.5093497808130
 21
101.0882580389549
 31
0.0000000000000000
  0
LINE
  5
4A5
100
AcDbEntity
  8
AIR-DIAGRAM0
  6
CONTINUOUS
 62
3
100
AcDbLine
 10
293.5093497808131
 20
101.0882580389550
 30
0.0000000000000000
 11
298.5093497808131
 21
101.0882580389550
 31
0.0000000000000000
  0
LINE
  5
4A6
100
AcDbEntity
  8
AIR-DIAGRAM0
  6
CONTINUOUS
 62
3
100
AcDbLine
 10
308.7593497808131
 20
92.71325803902975
 30
0.0000000000000000
 11
308.7593497808131
 21
101.0882580388750
 31
0.0000000000000000
  0
LINE
  5
4A7
100
AcDbEntity
  8
AIR-DIAGRAM0
  6
CONTINUOUS
 62
3
100
AcDbLine
 10
303.7593497808131
 20
101.0882580388907
 30
0.0000000000000000
 11
308.7593497808131
 21
101.0882580388750
 31
0.0000000000000000
  0
LEADER
  5
4A8
100
AcDbEntity
  8
AIR-DIAGRAM0
  6
CONTINUOUS
 62
3
100
AcDbLeader
  3
DXF001
 73
     0
 74
     0
 75
     1
 40
3.000000000000000
 41
23.21599937772754
 76
     3
 10
324.0277134974015
 20
122.0882580389552
 30
0.0000000000000000
 10
327.8824397492275
 20
132.0893688438567
 30
0.0000000000000000
 10
329.7464397516117
 20
132.0893688438567
 30
0.0000000000000000
340
4A9
213
0.1840000023841526
223
-0.5000000000000000
233
0.0000000000000000
1001
ACAD
1000
DSTYLE
1002
{
1070
   147
1040
0.0
1070
    77
1070
     1
1070
   173
1070
     1
1070
     6
1000
_OPEN
1070
     7
1000
_OPEN
1002
}
  0
MTEXT
  5
4A9
102
{ACAD_REACTORS
330
4A8
102
}
100
AcDbEntity
  8
AIR-DIAGRAM0
  6
CONTINUOUS
 62
3
100
AcDbMText
 10
329.5624397492275
 20
135.5893688438567
 30
0.0000000000000000
 40
3.000000000000000
 41
0.0000000000000000
 71
     1
 72
     1
  1
{\H0.94x;{客先にて手配願います。\PCUSTOMER MUST\PPREPARE}}
 11
1.000000000000000
 21
0.0000000000000000
 31
0.0000000000000000
  7
KNJYOKO
  0
LINE
  5
4AA
100
AcDbEntity
  8
WAKU0
  6
CONTINUOUS
 62
3
100
AcDbLine
 10
412.0000000000000
 20
51.00000000000000
 30
0.0000000000000000
 11
582.0000000000000
 21
51.00000000000000
 31
0.0000000000000000
  0
LINE
  5
4AB
100
AcDbEntity
  8
WAKU0
  6
CONTINUOUS
 62
3
100
AcDbLine
 10
412.0000000000000
 20
51.00000000000000
 30
0.0000000000000000
 11
412.0000000000000
 21
12.00000000000000
 31
0.0000000000000000
  0
LINE
  5
4AC
100
AcDbEntity
  8
WAKU0
  6
CONTINUOUS
 62
3
100
AcDbLine
 10
484.0000000000000
 20
51.00000000000000
 30
0.0000000000000000
 11
484.0000000000000
 21
12.00000000000000
 31
0.0000000000000000
  0
LINE
  5
4AD
100
AcDbEntity
  8
WAKU0
  6
CONTINUOUS
 62
3
100
AcDbLine
 10
504.0000000000000
 20
51.00000000000000
 30
0.0000000000000000
 11
504.0000000000000
 21
12.00000000000000
 31
0.0000000000000000
  0
LINE
  5
4AE
100
AcDbEntity
  8
WAKU0
  6
CONTINUOUS
 62
3
100
AcDbLine
 10
516.0000000000000
 20
51.00000000000000
 30
0.0000000000000000
 11
516.0000000000000
 21
12.00000000000000
 31
0.0000000000000000
  0
LINE
  5
4AF
100
AcDbEntity
  8
WAKU0
  6
CONTINUOUS
 62
3
100
AcDbLine
 10
516.0000000000000
 20
37.00000000000000
 30
0.0000000000000000
 11
582.0000000000000
 21
37.00000000000000
 31
0.0000000000000000
  0
LINE
  5
4B0
100
AcDbEntity
  8
WAKU0
  6
CONTINUOUS
 62
3
100
AcDbLine
 10
504.0000000000000
 20
23.00000000000000
 30
0.0000000000000000
 11
582.0000000000000
 21
23.00000000000000
 31
0.0000000000000000
  0
LINE
  5
4B1
100
AcDbEntity
  8
WAKU0
  6
CONTINUOUS
 62
3
100
AcDbLine
 10
547.0000000000000
 20
51.00000000000000
 30
0.0000000000000000
 11
547.0000000000000
 21
44.00000000000000
 31
0.0000000000000000
  0
LINE
  5
4B2
100
AcDbEntity
  8
WAKU0
  6
CONTINUOUS
 62
3
100
AcDbLine
 10
559.0000000000000
 20
51.00000000000000
 30
0.0000000000000000
 11
559.0000000000000
 21
44.00000000000000
 31
0.0000000000000000
  0
LINE
  5
4B3
100
AcDbEntity
  8
WAKU0
  6
CONTINUOUS
 62
3
100
AcDbLine
 10
484.0000000000000
 20
31.50000000000000
 30
0.0000000000000000
 11
504.0000000000000
 21
31.50000000000000
 31
0.0000000000000000
  0
LINE
  5
4B4
100
AcDbEntity
  8
WAKU0
  6
CONTINUOUS
 62
3
100
AcDbLine
 10
504.0000000000000
 20
44.00000000000000
 30
0.0000000000000000
 11
582.0000000000000
 21
44.00000000000000
 31
0.0000000000000000
  0
LINE
  5
4B5
100
AcDbEntity
  8
WAKU0
  6
CONTINUOUS
 62
3
100
AcDbLine
 10
412.0000000000000
 20
37.00000000000000
 30
0.0000000000000000
 11
484.0000000000000
 21
37.00000000000000
 31
0.0000000000000000
  0
LINE
  5
4B6
100
AcDbEntity
  8
WAKU0
  6
CONTINUOUS
 62
3
100
AcDbLine
 10
412.0000000000000
 20
23.00000000000000
 30
0.0000000000000000
 11
484.0000000000000
 21
23.00000000000000
 31
0.0000000000000000
  0
LINE
  5
4B7
100
AcDbEntity
  8
WAKU0
  6
CONTINUOUS
 62
3
100
AcDbLine
 10
460.0000000000000
 20
37.00000000000000
 30
0.0000000000000000
 11
460.0000000000000
 21
12.00000000000000
 31
0.0000000000000000
  0
LINE
  5
4B8
100
AcDbEntity
  8
WAKU0
  6
CONTINUOUS
 62
3
100
AcDbLine
 10
436.0000000000000
 20
37.00000000000000
 30
0.0000000000000000
 11
436.0000000000000
 21
23.00000000000000
 31
0.0000000000000000
  0
LINE
  5
4B9
100
AcDbEntity
  8
WAKU0
  6
CONTINUOUS
 62
3
100
AcDbLine
 10
472.0000000000000
 20
26.00000000000000
 30
0.0000000000000000
 11
472.0000000000000
 21
23.00000000000000
 31
0.0000000000000000
  0
LINE
  5
4BA
100
AcDbEntity
  8
WAKU0
  6
CONTINUOUS
 62
3
100
AcDbLine
 10
448.0000000000000
 20
26.00000000000000
 30
0.0000000000000000
 11
448.0000000000000
 21
23.00000000000000
 31
0.0000000000000000
  0
LINE
  5
4BB
100
AcDbEntity
  8
WAKU0
  6
CONTINUOUS
 62
3
100
AcDbLine
 10
424.0000000000000
 20
26.00000000000000
 30
0.0000000000000000
 11
424.0000000000000
 21
23.00000000000000
 31
0.0000000000000000
  0
LINE
  5
4BC
100
AcDbEntity
  8
WAKU0
  6
CONTINUOUS
 62
3
100
AcDbLine
 10
430.0000000000000
 20
51.00000000000000
 30
0.0000000000000000
 11
430.0000000000000
 21
37.00000000000000
 31
0.0000000000000000
  0
LINE
  5
4BD
100
AcDbEntity
  8
WAKU0
  6
CONTINUOUS
 62
3
100
AcDbLine
 10
412.0000000000000
 20
45.00000000000000
 30
0.0000000000000000
 11
484.0000000000000
 21
45.00000000000000
 31
0.0000000000000000
  0
LINE
  5
4BE
100
AcDbEntity
  8
WAKU0
  6
HIDDEN
 62
3
100
AcDbLine
 10
532.5000000000000
 20
23.00000000000000
 30
0.0000000000000000
 11
532.5000000000000
 21
12.00000000000000
 31
0.0000000000000000
  0
LINE
  5
4BF
100
AcDbEntity
  8
WAKU0
  6
HIDDEN
 62
3
100
AcDbLine
 10
544.9000000000000
 20
23.00000000000000
 30
0.0000000000000000
 11
544.9000000000000
 21
12.00000000000000
 31
0.0000000000000000
  0
MTEXT
  5
4C0
100
AcDbEntity
  8
WAKU0
  6
CONTINUOUS
 62
3
100
AcDbMText
 10
516.4820000243485
 20
49.04999995231628
 30
0.0000000000000000
 40
3.099999904632568
 41
0.0000000000000000
 71
     1
 72
     1
  1
{\H0.92x;{NRC06}}
 11
1.000000000000000
 21
0.0000000000000000
 31
0.0000000000000000
  7
STANDARD
  0
MTEXT
  5
4C1
100
AcDbEntity
  8
WAKU0
  6
CONTINUOUS
 62
3
100
AcDbMText
 10
524.8299994468689
 20
42.04999995231628
 30
0.0000000000000000
 40
3.099999904632568
 41
0.0000000000000000
 71
     1
 72
     1
  1
{\H0.94x;{ＲＯＴＡＲＹ　ＣＨＵＣＫ　６}}
 11
1.000000000000000
 21
0.0000000000000000
 31
0.0000000000000000
  7
KNJYOKO
  0
MTEXT
  5
4C2
100
AcDbEntity
  8
WAKU0
  6
CONTINUOUS
 62
3
100
AcDbMText
 10
526.5699994862080
 20
34.23333326975504
 30
0.0000000000000000
 40
3.099999904632568
 41
0.0000000000000000
 71
     1
 72
     1
  1
{\H0.94x;{ＮＲＣ０６　ガイケイ\P　ＯＵＴＳＩＤＥ　ＶＩＥＷ}}
 11
1.000000000000000
 21
0.0000000000000000
 31
0.0000000000000000
  7
KNJYOKO
  0
MTEXT
  5
4C3
100
AcDbEntity
  8
WAKU0
  6
CONTINUOUS
 62
3
100
AcDbMText
 10
490.0049998760223
 20
39.29999995231628
 30
0.0000000000000000
 40
3.099999904632568
 41
0.0000000000000000
 71
     1
 72
     1
  1
{\H0.90x;{1:1}}
 11
1.000000000000000
 21
0.0000000000000000
 31
0.0000000000000000
  7
STANDARD
  0
MTEXT
  5
4C4
100
AcDbEntity
  8
WAKU0
  6
CONTINUOUS
 62
3
100
AcDbMText
 10
546.4000001549721
 20
20.15000009536743
 30
0.0000000000000000
 40
5.300000190734863
 41
0.0000000000000000
 71
     1
 72
     1
  1
{\H0.90x;{2637}}
 11
1.000000000000000
 21
0.0000000000000000
 31
0.0000000000000000
  7
STANDARD
  0
MTEXT
  5
4C5
100
AcDbEntity
  8
WAKU0
  6
CONTINUOUS
 62
3
100
AcDbMText
 10
534.3000000834466
 20
20.15000009536743
 30
0.0000000000000000
 40
5.300000190734863
 41
0.0000000000000000
 71
     1
 72
     1
  1
{\H0.87x;{24}}
 11
1.000000000000000
 21
0.0000000000000000
 31
0.0000000000000000
  7
STANDARD
  0
MTEXT
  5
4C6
100
AcDbEntity
  8
WAKU0
  6
CONTINUOUS
 62
3
100
AcDbMText
 10
517.5000001192093
 20
20.15000009536743
 30
0.0000000000000000
 40
5.300000190734863
 41
0.0000000000000000
 71
     1
 72
     1
  1
{\H0.89x;{61P}}
 11
1.000000000000000
 21
0.0000000000000000
 31
0.0000000000000000
  7
STANDARD
  0
MTEXT
  5
4C7
100
AcDbEntity
  8
WAKU0
  6
CONTINUOUS
 62
3
100
AcDbMText
 10
572.0000000476837
 20
20.15000009536743
 30
0.0000000000000000
 40
5.300000190734863
 41
0.0000000000000000
 71
     1
 72
     1
  1
{\H0.81x;{5}}
 11
1.000000000000000
 21
0.0000000000000000
 31
0.0000000000000000
  7
STANDARD
  0
MTEXT
  5
4C8
100
AcDbEntity
  8
WAKU0
  6
CONTINUOUS
 62
3
100
AcDbMText
 10
461.3850002884865
 20
33.00000000000000
 30
0.0000000000000000
 40
3.000000000000000
 41
0.0000000000000000
 71
     7
 72
     1
  1
{\H0.93x;{DRAWN BY}}
 11
1.000000000000000
 21
0.0000000000000000
 31
0.0000000000000000
  7
STANDARD
  0
MTEXT
  5
4C9
100
AcDbEntity
  8
WAKU0
  6
CONTINUOUS
 62
3
100
AcDbMText
 10
441.2149997949600
 20
32.95000004768372
 30
0.0000000000000000
 40
3.099999904632568
 41
0.0000000000000000
 71
     7
 72
     1
  1
{\H0.92x;{CHIEF}}
 11
1.000000000000000
 21
0.0000000000000000
 31
0.0000000000000000
  7
STANDARD
  0
MTEXT
  5
4CA
100
AcDbEntity
  8
WAKU0
  6
CONTINUOUS
 62
3
100
AcDbMText
 10
414.4249997138977
 20
32.95000004768372
 30
0.0000000000000000
 40
3.099999904632568
 41
0.0000000000000000
 71
     7
 72
     1
  1
{\H0.92x;{MANAGER}}
 11
1.000000000000000
 21
0.0000000000000000
 31
0.0000000000000000
  7
STANDARD
  0
MTEXT
  5
4CB
100
AcDbEntity
  8
WAKU0
  6
CONTINUOUS
 62
3
100
AcDbMText
 10
416.6599994301796
 20
18.13333336512248
 30
0.0000000000000000
 40
3.099999904632568
 41
0.0000000000000000
 71
     7
 72
     1
  1
{\H0.93x;{KITAGAWA IRON\PWORKS CO.,LTD.}}
 11
1.000000000000000
 21
0.0000000000000000
 31
0.0000000000000000
  7
STANDARD
  0
MTEXT
  5
4CC
100
AcDbEntity
  8
WAKU0
  6
CONTINUOUS
 62
3
100
AcDbMText
 10
413.0850002169609
 20
46.50000000000000
 30
0.0000000000000000
 40
3.000000000000000
 41
0.0000000000000000
 71
     7
 72
     1
  1
{\H0.92x;{CAREER}}
 11
1.000000000000000
 21
0.0000000000000000
 31
0.0000000000000000
  7
STANDARD
  0
MTEXT
  5
4CD
100
AcDbEntity
  8
WAKU0
  6
CONTINUOUS
 62
3
100
AcDbMText
 10
466.6099998354912
 20
18.95000004768372
 30
0.0000000000000000
 40
3.099999904632568
 41
0.0000000000000000
 71
     7
 72
     1
  1
{\H0.91x;{DATE}}
 11
1.000000000000000
 21
0.0000000000000000
 31
0.0000000000000000
  7
STANDARD
  0
MTEXT
  5
4CE
100
AcDbEntity
  8
WAKU0
  6
CONTINUOUS
 62
3
100
AcDbMText
 10
485.9000002145767
 20
26.50000000000000
 30
0.0000000000000000
 40
3.000000000000000
 41
0.0000000000000000
 71
     7
 72
     1
  1
{\H0.93x;{3RD ANGLE}}
 11
1.000000000000000
 21
0.0000000000000000
 31
0.0000000000000000
  7
STANDARD
  0
MTEXT
  5
4CF
100
AcDbEntity
  8
WAKU0
  6
CONTINUOUS
 62
3
100
AcDbMText
 10
487.2149997949600
 20
45.95000004768372
 30
0.0000000000000000
 40
3.099999904632568
 41
0.0000000000000000
 71
     7
 72
     1
  1
{\H0.92x;{SCALE}}
 11
1.000000000000000
 21
0.0000000000000000
 31
0.0000000000000000
  7
STANDARD
  0
MTEXT
  5
4D0
100
AcDbEntity
  8
WAKU0
  6
CONTINUOUS
 62
3
100
AcDbMText
 10
577.7000000476837
 20
46.00000000000000
 30
0.0000000000000000
 40
3.000000000000000
 41
0.0000000000000000
 71
     7
 72
     1
  1
{\H0.88x;{kg}}
 11
1.000000000000000
 21
0.0000000000000000
 31
0.0000000000000000
  7
STANDARD
  0
MTEXT
  5
4D1
100
AcDbEntity
  8
WAKU0
  6
CONTINUOUS
 62
3
100
AcDbMText
 10
547.6000001430512
 20
46.00000000000000
 30
0.0000000000000000
 40
3.000000000000000
 41
0.0000000000000000
 71
     7
 72
     1
  1
{\H0.92x;{WEIGHT}}
 11
1.000000000000000
 21
0.0000000000000000
 31
0.0000000000000000
  7
STANDARD
  0
MTEXT
  5
4D2
100
AcDbEntity
  8
WAKU0
  6
CONTINUOUS
 62
3
100
AcDbMText
 10
506.0049998760223
 20
18.13333336512248
 30
0.0000000000000000
 40
3.099999904632568
 41
0.0000000000000000
 71
     7
 72
     1
  1
{\H0.90x;{DRW\PNO.}}
 11
1.000000000000000
 21
0.0000000000000000
 31
0.0000000000000000
  7
STANDARD
  0
MTEXT
  5
4D3
100
AcDbEntity
  8
WAKU0
  6
CONTINUOUS
 62
3
100
AcDbMText
 10
504.6099998354912
 20
31.95000004768372
 30
0.0000000000000000
 40
3.099999904632568
 41
0.0000000000000000
 71
     7
 72
     1
  1
{\H0.91x;{NAME}}
 11
1.000000000000000
 21
0.0000000000000000
 31
0.0000000000000000
  7
STANDARD
  0
MTEXT
  5
4D4
100
AcDbEntity
  8
WAKU0
  6
CONTINUOUS
 62
3
100
AcDbMText
 10
504.6099998354912
 20
45.95000004768372
 30
0.0000000000000000
 40
3.099999904632568
 41
0.0000000000000000
 71
     7
 72
     1
  1
{\H0.91x;{TYPE}}
 11
1.000000000000000
 21
0.0000000000000000
 31
0.0000000000000000
  7
STANDARD
  0
LINE
  5
4D5
100
AcDbEntity
  8
WAKU0
  6
HIDDEN
 62
3
100
AcDbLine
 10
579.1599564743885
 20
13.84999990463257
 30
0.0000000000000000
 11
568.9400436209789
 21
13.84999990463257
 31
0.0000000000000000
  0
LINE
  5
4D6
100
AcDbEntity
  8
WAKU0
  6
HIDDEN
 62
3
100
AcDbLine
 10
579.1599564743887
 20
13.84999990463248
 30
0.0000000000000000
 11
574.0500000476852
 21
22.70070406014901
 31
0.0000000000000000
  0
LINE
  5
4D7
100
AcDbEntity
  8
WAKU0
  6
HIDDEN
 62
3
100
AcDbLine
 10
574.0500000476851
 20
22.70070406014904
 30
0.0000000000000000
 11
568.9400436209789
 21
13.84999990463248
 31
0.0000000000000000
  0
LINE
  5
4D8
100
AcDbEntity
  8
WAKU0
  6
CONTINUOUS
 62
3
100
AcDbLine
 10
502.4713877753800
 20
15.78041421262812
 30
0.0000000000000000
 11
502.4713877753800
 21
21.78041421262815
 31
0.0000000000000000
  0
LINE
  5
4D9
100
AcDbEntity
  8
WAKU0
  6
CONTINUOUS
 62
3
100
AcDbLine
 10
495.9336941228225
 20
17.28041421262811
 30
0.0000000000000000
 11
495.9336941228225
 21
20.28041421262824
 31
0.0000000000000000
  0
LINE
  5
4DA
100
AcDbEntity
  8
WAKU0
  6
CENTER
 62
12
100
AcDbLine
 10
485.4321805514995
 20
18.78041421262813
 30
0.0000000000000000
 11
503.2765788964694
 21
18.78041421262813
 31
0.0000000000000000
  0
LINE
  5
4DB
100
AcDbEntity
  8
WAKU0
  6
CENTER
 62
12
100
AcDbLine
 10
489.4474565857986
 20
14.55921662918448
 30
0.0000000000000000
 11
489.4474565857986
 21
22.89865102149943
 31
0.0000000000000000
  0
LINE
  5
4DC
100
AcDbEntity
  8
WAKU0
  6
CONTINUOUS
 62
3
100
AcDbLine
 10
495.9336941228224
 20
20.28041421262799
 30
0.0000000000000000
 11
502.4713877753799
 21
21.78041421262795
 31
0.0000000000000000
  0
LINE
  5
4DD
100
AcDbEntity
  8
WAKU0
  6
CONTINUOUS
 62
3
100
AcDbLine
 10
495.9336941228226
 20
17.28041421262810
 30
0.0000000000000000
 11
502.4713877753800
 21
15.78041421262812
 31
0.0000000000000000
  0
CIRCLE
  5
4DE
100
AcDbEntity
  8
WAKU0
  6
CONTINUOUS
 62
3
100
AcDbCircle
 10
489.4474565857986
 20
18.78041421262813
 30
0.0000000000000000
 40
1.499999999999972
  0
CIRCLE
  5
4DF
100
AcDbEntity
  8
WAKU0
  6
CONTINUOUS
 62
3
100
AcDbCircle
 10
489.4474565857986
 20
18.78041421262813
 30
0.0000000000000000
 40
2.999999999999979
  0
INSERT
  5
4E3
100
AcDbEntity
  8
AIR-DIAGRAM0
  6
CONTINUOUS
 62
3
100
AcDbBlockReference
  2
*X0
 10
0.0000000000000000
 20
0.0000000000000000
 30
0.0000000000000000
 50
0.0000000000000000
  0
LINE
  5
4E4
100
AcDbEntity
  8
MAIN0
  6
CONTINUOUS
 62
2
100
AcDbLine
 10
200.2359822319553
 20
360.8534091400833
 30
0.0000000000000000
 11
206.2359822319553
 21
360.8534091400833
 31
0.0000000000000000
  0
LINE
  5
4E5
100
AcDbEntity
  8
MAIN0
  6
CONTINUOUS
 62
2
100
AcDbLine
 10
203.2359822319553
 20
360.8534091400833
 30
0.0000000000000000
 11
203.2359822319553
 21
372.8534091400833
 31
0.0000000000000000
  0
LINE
  5
4E6
100
AcDbEntity
  8
MAIN0
  6
CONTINUOUS
 62
2
100
AcDbLine
 10
203.2359822319551
 20
360.8534091400832
 30
0.0000000000000000
 11
201.9418870064425
 21
365.6830382715285
 31
0.0000000000000000
  0
LINE
  5
4E7
100
AcDbEntity
  8
MAIN0
  6
CONTINUOUS
 62
2
100
AcDbLine
 10
203.2359822319555
 20
360.8534091400833
 30
0.0000000000000000
 11
204.5300774574682
 21
365.6830382715287
 31
0.0000000000000000
  0
LINE
  5
4E8
100
AcDbEntity
  8
MAIN0
  6
CONTINUOUS
 62
3
100
AcDbLine
 10
84.99830394891902
 20
276.9784086073914
 30
0.0000000000000000
 11
84.99830394891822
 21
191.8534091400845
 31
0.0000000000000000
  0
LINE
  5
4E9
100
AcDbEntity
  8
MAIN0
  6
CONTINUOUS
 62
3
100
AcDbLine
 10
85.59830397276014
 20
193.8534091400845
 30
0.0000000000000000
 11
84.99830394891825
 21
191.8534091400845
 31
0.0000000000000000
  0
LINE
  5
4EA
100
AcDbEntity
  8
MAIN0
  6
CONTINUOUS
 62
3
100
AcDbLine
 10
84.99830394891822
 20
191.8534091400845
 30
0.0000000000000000
 11
84.39830392507638
 21
193.8534091400845
 31
0.0000000000000000
  0
LINE
  5
4EB
100
AcDbEntity
  8
MAIN0
  6
CONTINUOUS
 62
3
100
AcDbLine
 10
91.43598221987324
 20
191.8534091400844
 30
0.0000000000000000
 11
82.99830394891822
 21
191.8534091400845
 31
0.0000000000000000
  0
MTEXT
  5
4EC
100
AcDbEntity
  8
MAIN0
  6
CONTINUOUS
 62
3
100
AcDbMText
 10
82.94830399660199
 20
269.3534090506776
 30
0.0000000000000000
 40
3.099999904632568
 41
0.0000000000000000
 71
     5
 72
     1
  1
{\H0.93x;{\U+2205155\U+00B10.2}}
 11
6.123233995736766e-017
 21
1.000000000000000
 31
0.0000000000000000
  7
STANDARD
  0
LINE
  5
4ED
100
AcDbEntity
  8
MAIN0
  6
CONTINUOUS
 62
3
100
AcDbLine
 10
236.7404248623337
 20
206.1972273175061
 30
0.0000000000000000
 11
236.7404248623334
 21
171.1033845474710
 31
0.0000000000000000
  0
LINE
  5
4EE
100
AcDbEntity
  8
MAIN0
  6
CONTINUOUS
 62
3
100
AcDbLine
 10
237.3404248861753
 20
173.1033845474710
 30
0.0000000000000000
 11
236.7404248623334
 21
171.1033845474710
 31
0.0000000000000000
  0
LINE
  5
4EF
100
AcDbEntity
  8
MAIN0
  6
CONTINUOUS
 62
3
100
AcDbLine
 10
236.7404248623333
 20
171.1033845474710
 30
0.0000000000000000
 11
236.1404248384915
 21
173.1033845474710
 31
0.0000000000000000
  0
LINE
  5
4F0
100
AcDbEntity
  8
MAIN0
  6
CONTINUOUS
 62
3
100
AcDbLine
 10
194.8359822438741
 20
171.1033845474713
 30
0.0000000000000000
 11
238.7404248623334
 21
171.1033845474709
 31
0.0000000000000000
  0
MTEXT
  5
4F1
100
AcDbEntity
  8
MAIN0
  6
CONTINUOUS
 62
3
100
AcDbMText
 10
234.6904249100174
 20
200.1472272158467
 30
0.0000000000000000
 40
3.099999904632568
 41
0.0000000000000000
 71
     5
 72
     1
  1
{\H0.92x;{\U+2205196.5}}
 11
6.123233995736766e-017
 21
1.000000000000000
 31
0.0000000000000000
  7
STANDARD
  0
LINE
  5
4F2
100
AcDbEntity
  8
MAIN0
  6
CONTINUOUS
 62
3
100
AcDbLine
 10
226.8417757143778
 20
214.6908701348049
 30
0.0000000000000000
 11
226.8417757143776
 21
184.1033845474864
 31
0.0000000000000000
  0
LINE
  5
4F3
100
AcDbEntity
  8
MAIN0
  6
CONTINUOUS
 62
3
100
AcDbLine
 10
227.4417757382195
 20
186.1033845474865
 30
0.0000000000000000
 11
226.8417757143776
 21
184.1033845474865
 31
0.0000000000000000
  0
LINE
  5
4F4
100
AcDbEntity
  8
MAIN0
  6
CONTINUOUS
 62
3
100
AcDbLine
 10
226.8417757143775
 20
184.1033845474864
 30
0.0000000000000000
 11
226.2417756905357
 21
186.1033845474864
 31
0.0000000000000000
  0
LINE
  5
4F5
100
AcDbEntity
  8
MAIN0
  6
CONTINUOUS
 62
3
100
AcDbLine
 10
215.0359822438756
 20
184.1033845474865
 30
0.0000000000000000
 11
228.8417757143776
 21
184.1033845474864
 31
0.0000000000000000
  0
MTEXT
  5
4F6
100
AcDbEntity
  8
MAIN0
  6
CONTINUOUS
 62
3
100
AcDbMText
 10
224.7917757620615
 20
208.6408703215766
 30
0.0000000000000000
 40
3.099999904632568
 41
0.0000000000000000
 71
     5
 72
     1
  1
{\H0.92x;{\U+2205170.5}}
 11
6.123233995736766e-017
 21
1.000000000000000
 31
0.0000000000000000
  7
STANDARD
  0
LINE
  5
4F7
100
AcDbEntity
  8
A0
  6
CONTINUOUS
 62
3
100
AcDbLine
 10
651.0508637003424
 20
226.6144148653322
 30
0.0000000000000000
 11
768.8093236978450
 21
226.6144148653322
 31
0.0000000000000000
  0
LINE
  5
4F8
100
AcDbEntity
  8
A0
  6
CONTINUOUS
 62
3
100
AcDbLine
 10
651.0508637003424
 20
216.1144148653322
 30
0.0000000000000000
 11
768.8093236978489
 21
216.1144148653322
 31
0.0000000000000000
  0
LINE
  5
4F9
100
AcDbEntity
  8
A0
  6
CONTINUOUS
 62
3
100
AcDbLine
 10
651.0508637003422
 20
121.6143887497624
 30
0.0000000000000000
 11
651.0508637003422
 21
226.6144148653322
 31
0.0000000000000000
  0
LINE
  5
4FA
100
AcDbEntity
  8
A0
  6
CONTINUOUS
 62
3
100
AcDbLine
 10
651.0508637003424
 20
205.6144148653322
 30
0.0000000000000000
 11
768.8093236978527
 21
205.6144148653322
 31
0.0000000000000000
  0
LINE
  5
4FB
100
AcDbEntity
  8
A0
  6
CONTINUOUS
 62
3
100
AcDbLine
 10
651.0508637003424
 20
195.1144148653325
 30
0.0000000000000000
 11
768.8093236978567
 21
195.1144148653325
 31
0.0000000000000000
  0
MTEXT
  5
4FC
100
AcDbEntity
  8
A0
  6
CONTINUOUS
 62
3
100
AcDbMText
 10
744.0508637003420
 20
211.3144137209227
 30
0.0000000000000000
 40
4.199999809265137
 41
0.0000000000000000
 71
     1
 72
     1
  1
{\H0.93x;{　　　　ｍｍ}}
 11
1.000000000000000
 21
0.0000000000000000
 31
0.0000000000000000
  7
KNJYOKO
  0
MTEXT
  5
4FD
100
AcDbEntity
  8
A0
  6
CONTINUOUS
 62
3
100
AcDbMText
 10
744.0508637003420
 20
200.8144137209230
 30
0.0000000000000000
 40
4.199999809265137
 41
0.0000000000000000
 71
     1
 72
     1
  1
{\H0.93x;{　　　　ｍｍ}}
 11
1.000000000000000
 21
0.0000000000000000
 31
0.0000000000000000
  7
KNJYOKO
  0
MTEXT
  5
4FE
100
AcDbEntity
  8
A0
  6
CONTINUOUS
 62
3
100
AcDbMText
 10
744.0508637003420
 20
191.0644137209230
 30
0.0000000000000000
 40
4.199999809265137
 41
0.0000000000000000
 71
     1
 72
     1
  1
{\H0.93x;{　　　　ｋＮ}}
 11
1.000000000000000
 21
0.0000000000000000
 31
0.0000000000000000
  7
KNJYOKO
  0
MTEXT
  5
4FF
100
AcDbEntity
  8
AIR-DIAGRAM0
  6
CONTINUOUS
 62
1
100
AcDbMText
 10
270.0332528515559
 20
61.18845373578100
 30
0.0000000000000000
 40
3.000000000000000
 41
0.0000000000000000
 71
     1
 72
     1
  1
{\H0.92x;{NOTICE\P要注意}}
 11
1.000000000000000
 21
-1.130435886617454e-013
 31
0.0000000000000000
  7
KNJYOKO
  0
LINE
  5
500
100
AcDbEntity
  8
AIR-DIAGRAM0
  6
CONTINUOUS
 62
1
100
AcDbLine
 10
269.0382877285911
 20
61.46360060879954
 30
0.0000000000000000
 11
281.0382877285912
 21
61.46360060879954
 31
0.0000000000000000
  0
LINE
  5
501
100
AcDbEntity
  8
AIR-DIAGRAM0
  6
CONTINUOUS
 62
1
100
AcDbLine
 10
269.0382877285911
 20
61.46360060879954
 30
0.0000000000000000
 11
269.0382877285911
 21
54.46360060879954
 31
0.0000000000000000
  0
LINE
  5
502
100
AcDbEntity
  8
AIR-DIAGRAM0
  6
CONTINUOUS
 62
1
100
AcDbLine
 10
269.0382877285911
 20
54.46360060879954
 30
0.0000000000000000
 11
281.0382877285912
 21
54.46360060879954
 31
0.0000000000000000
  0
LINE
  5
503
100
AcDbEntity
  8
AIR-DIAGRAM0
  6
CONTINUOUS
 62
1
100
AcDbLine
 10
281.0382877285909
 20
64.96360060879988
 30
0.0000000000000000
 11
288.0382877285907
 21
57.96360060879971
 31
0.0000000000000000
  0
LINE
  5
504
100
AcDbEntity
  8
AIR-DIAGRAM0
  6
CONTINUOUS
 62
1
100
AcDbLine
 10
281.0382877285912
 20
50.96360060880004
 30
0.0000000000000000
 11
288.0382877285912
 21
57.96360060879961
 31
0.0000000000000000
  0
LINE
  5
505
100
AcDbEntity
  8
AIR-DIAGRAM0
  6
CONTINUOUS
 62
1
100
AcDbLine
 10
281.0382877285912
 20
54.46360060879954
 30
0.0000000000000000
 11
281.0382877285912
 21
50.96360060879999
 31
0.0000000000000000
  0
LINE
  5
506
100
AcDbEntity
  8
AIR-DIAGRAM0
  6
CONTINUOUS
 62
1
100
AcDbLine
 10
281.0382877285912
 20
64.96360060879971
 30
0.0000000000000000
 11
281.0382877285912
 21
61.46360060879954
 31
0.0000000000000000
  0
ENDSEC
  0
SECTION
  2
OBJECTS
  0
DICTIONARY
  5
553
100
AcDbDictionary
  3
ACAD_GROUP
350
554
  3
ACAD_MLINESTYLE
350
555
  3
DWGPROPS
350
556
  0
DICTIONARY
  5
554
102
{ACAD_REACTORS
330
553
102
}
100
AcDbDictionary
  0
DICTIONARY
  5
555
102
{ACAD_REACTORS
330
553
102
}
100
AcDbDictionary
  3
STANDARD
350
557
  0
MLINESTYLE
  5
557
102
{ACAD_REACTORS
330
555
102
}
100
AcDbMlineStyle
  2
STANDARD
 70
     0
  3

 62
   256
 51
90.00
 52
90.00
 71
     2
 49
0.50
 62
   256
  6
BYLAYER
 49
-0.50
 62
   256
  6
BYLAYER
  0
XRECORD
  5
556
102
{ACAD_REACTORS
330
553
102
}
100
AcDbXrecord
280
     1
  1
DWGPROPS COOKIE
  2
ＮＲＣ０６　ガイケイ
  3

  4

  6
ロータリチャック　６
  7

  8

  9

300
=
301
=
302
=
303
=
304
=
305
=
306
=
307
=
308
=
309
=
 40
0.000000
 41
0.000000
 42
0.000000
  1

 90
        0
  0
ENDSEC
  0
EOF
