  0
SECTION
  2
HEADER
  9
$ACADVER
  1
AC1014
  9
$DWGCODEPAGE
  3
ANSI_932
  9
$LTSCALE
 40
20.0
  9
$FILLMODE
 70
     1
  9
$CLAYER
  8
0
  9
$PDMODE
 70
     0
  9
$SPLFRAME
 70
     0
  9
$SPLINETYPE
 70
     6
  9
$SPLINESEGS
 70
     8
  9
$DIMASZ
 40
2.000000
  9
$DIMEXE
 40
2.000000
  9
$DIMEXO
 40
0.800000
  9
$DIMTAD
 70
     1
  9
$DIMTIH
 70
     0
  9
$DIMTOH
 70
     0
  9
$DIMTVP
 40
0.500000
  9
$DIMTXT
 40
3.100000
  9
$EXTMIN
 10
0.000000
 20
0.000000
 30
0.000000
  9
$EXTMAX
 10
420.000000
 20
594.000000
 30
0.000000
  9
$MEASUREMENT
 70
  1
  9
$LIMMIN
 10
0.000000
 20
0.000000
  9
$LIMMAX
 10
420.000000
 20
594.000000
  9
$HANDLING
 70
     1
  9
$HANDSEED
  5
5E2
  9
$DIMBLK
  1
_OPEN
  9
$DIMDEC
 70
     3
  9
$DIMAUNIT
 70
     1
  9
$DIMZIN
 70
     8
  9
$DIMTOFL
 70
     1
  0
ENDSEC
  0
SECTION
  2
CLASSES
  0
ENDSEC
  0
SECTION
  2
TABLES
  0
TABLE
  2
VPORT
  5
576
100
AcDbSymbolTable
 70
     1
  0
VPORT
  5
577
100
AcDbSymbolTableRecord
100
AcDbViewportTableRecord
  2
*ACTIVE
 70
     0
 12
297.000000
 22
210.000000
 40
420.000000
 41
1.414286
  0
ENDTAB
  0
TABLE
  2
LTYPE
  5
578
100
AcDbSymbolTable
 70
     4
  0
LTYPE
  5
579
100
AcDbSymbolTableRecord
100
AcDbLinetypeTableRecord
  2
BYBLOCK
 70
     0
  3

 72
    65
 73
     0
 40
0.0
  0
LTYPE
  5
57A
100
AcDbSymbolTableRecord
100
AcDbLinetypeTableRecord
  2
BYLAYER
 70
     0
  3

 72
    65
 73
     0
 40
0.0
  0
LTYPE
  5
57B
100
AcDbSymbolTableRecord
100
AcDbLinetypeTableRecord
  2
CONTINUOUS
 70
     0
  3
Solid line (NEC CAE2D for Win R12.1 : 2018.11.16)
 72
    65
 73
     0
 40
0.0
  0
LTYPE
  5
57C
100
AcDbSymbolTableRecord
100
AcDbLinetypeTableRecord
  2
HIDDEN
 70
     0
  3
__ __ __ __ __ __ __ __ __ __ __ __ __ __
 72
    65
 73
     2
 40
0.375
 49
0.25
 74
     0
 49
-0.125
 74
     0
  0
LTYPE
  5
57D
100
AcDbSymbolTableRecord
100
AcDbLinetypeTableRecord
  2
CENTER
 70
     0
  3
____ _ ____ _ ____ _ ____ _ ____ _ ____
 72
    65
 73
     4
 40
2.0
 49
1.25
 74
     0
 49
-0.25
 74
     0
 49
0.25
 74
     0
 49
-0.25
 74
     0
  0
LTYPE
  5
57E
100
AcDbSymbolTableRecord
100
AcDbLinetypeTableRecord
  2
PHANTOM
 70
     0
  3
______  __  __  ______  __  __  ______ 
 72
    65
 73
     6
 40
2.5
 49
1.25
 74
     0
 49
-0.25
 74
     0
 49
0.25
 74
     0
 49
-0.25
 74
     0
 49
0.25
 74
     0
 49
-0.25
 74
     0
  0
ENDTAB
  0
TABLE
  2
LAYER
  5
57F
100
AcDbSymbolTable
 70
    15
  0
LAYER
  5
580
100
AcDbSymbolTableRecord
100
AcDbLayerTableRecord
  2
0
 70
     0
 62
     7
  6
CONTINUOUS
  0
LAYER
  5
581
100
AcDbSymbolTableRecord
100
AcDbLayerTableRecord
  2
MAIN0
 70
     0
 62
     7
  6
CONTINUOUS
  0
LAYER
  5
582
100
AcDbSymbolTableRecord
100
AcDbLayerTableRecord
  2
MAIN1
 70
     0
 62
     7
  6
CONTINUOUS
  0
LAYER
  5
583
100
AcDbSymbolTableRecord
100
AcDbLayerTableRecord
  2
MAIN2
 70
     0
 62
     5
  6
CONTINUOUS
  0
LAYER
  5
584
100
AcDbSymbolTableRecord
100
AcDbLayerTableRecord
  2
MAIN3
 70
     0
 62
    14
  6
CONTINUOUS
  0
LAYER
  5
585
100
AcDbSymbolTableRecord
100
AcDbLayerTableRecord
  2
MAIN4
 70
     0
 62
     9
  6
CONTINUOUS
  0
LAYER
  5
586
100
AcDbSymbolTableRecord
100
AcDbLayerTableRecord
  2
MAIN5
 70
     0
 62
     9
  6
CONTINUOUS
  0
LAYER
  5
587
100
AcDbSymbolTableRecord
100
AcDbLayerTableRecord
  2
MAIN6
 70
     0
 62
    10
  6
CONTINUOUS
  0
LAYER
  5
588
100
AcDbSymbolTableRecord
100
AcDbLayerTableRecord
  2
MAIN7
 70
     0
 62
     7
  6
CONTINUOUS
  0
LAYER
  5
589
100
AcDbSymbolTableRecord
100
AcDbLayerTableRecord
  2
MAIN8
 70
     0
 62
    12
  6
CONTINUOUS
  0
LAYER
  5
58A
100
AcDbSymbolTableRecord
100
AcDbLayerTableRecord
  2
MAIN9
 70
     0
 62
     8
  6
CONTINUOUS
  0
LAYER
  5
58B
100
AcDbSymbolTableRecord
100
AcDbLayerTableRecord
  2
MAIN10
 70
     0
 62
     7
  6
CONTINUOUS
  0
LAYER
  5
58C
100
AcDbSymbolTableRecord
100
AcDbLayerTableRecord
  2
MAIN1023
 70
     0
 62
    16
  6
CONTINUOUS
  0
LAYER
  5
58D
100
AcDbSymbolTableRecord
100
AcDbLayerTableRecord
  2
WAKU0
 70
     0
 62
     7
  6
CONTINUOUS
  0
LAYER
  5
58E
100
AcDbSymbolTableRecord
100
AcDbLayerTableRecord
  2
WAKU1023
 70
     0
 62
    16
  6
CONTINUOUS
  0
ENDTAB
  0
TABLE
  2
STYLE
  5
58F
100
AcDbSymbolTable
 70
     4
  0
STYLE
  5
590
100
AcDbSymbolTableRecord
100
AcDbTextStyleTableRecord
  2
STANDARD
 70
    64
 40
0.0
 41
1.0
 50
0.0
 71
     0
 42
3.099999904632568
  3
TXT
  4

  0
STYLE
  5
591
100
AcDbSymbolTableRecord
100
AcDbTextStyleTableRecord
  2
ANKTATE
 70
    68
 40
0.0
 41
1.0
 50
0.0
 71
     0
 42
3.099999904632568
  3
TXT
  4

  0
STYLE
  5
35E
100
AcDbSymbolTableRecord
100
AcDbTextStyleTableRecord
  2
KNJYOKO
 70
    64
 40
0.0
 41
1.0
 50
0.0
 71
     0
 42
3.099999904632568
  3
TXT
  4
BIGFONT
  0
STYLE
  5
592
100
AcDbSymbolTableRecord
100
AcDbTextStyleTableRecord
  2
KNJTATE
 70
    68
 40
0.0
 41
1.0
 50
0.0
 71
     0
 42
3.099999904632568
  3
TXT
  4
BIGFONT
  0
ENDTAB
  0
TABLE
  2
VIEW
  5
593
100
AcDbSymbolTable
 70
     0
  0
ENDTAB
  0
TABLE
  2
UCS
  5
594
100
AcDbSymbolTable
 70
     0
  0
ENDTAB
  0
TABLE
  2
APPID
  5
595
100
AcDbSymbolTable
 70
     1
  0
APPID
  5
596
100
AcDbSymbolTableRecord
100
AcDbRegAppTableRecord
  2
ACAD
 70
     0
  0
ENDTAB
  0
TABLE
  2
DIMSTYLE
  5
597
100
AcDbSymbolTable
 70
     1
  0
DIMSTYLE
105
598
100
AcDbSymbolTableRecord
100
AcDbDimStyleTableRecord
  2
STANDARD
 70
     0
 41
2.000000
 44
2.000000
 42
0.800000
145
0.661290
140
3.100000
144
1.000000
146
0.903226
340
590
  0
DIMSTYLE
105
599
100
AcDbSymbolTableRecord
100
AcDbDimStyleTableRecord
  2
MAIN001
 70
     0
 41
2.000000
 44
2.000000
 42
0.800000
145
0.661290
140
3.100000
144
1.000000
146
0.903226
 77
     1
 73
     0
 74
     0
271
     3
275
     1
 78
     8
172
     1
340
590
  0
DIMSTYLE
105
59A
100
AcDbSymbolTableRecord
100
AcDbDimStyleTableRecord
  2
WAKU002
 70
     0
 41
2.000000
 44
2.000000
 42
0.800000
145
0.661290
140
3.100000
144
1.000000
146
0.903226
 77
     1
 73
     0
 74
     0
271
     3
275
     1
 78
     8
172
     1
340
590
  0
ENDTAB
  0
TABLE
  2
BLOCK_RECORD
  5
59B
100
AcDbSymbolTable
 70
    71
  0
BLOCK_RECORD
  5
59C
100
AcDbSymbolTableRecord
100
AcDbBlockTableRecord
  2
*MODEL_SPACE
  0
BLOCK_RECORD
  5
59D
100
AcDbSymbolTableRecord
100
AcDbBlockTableRecord
  2
*PAPER_SPACE
  0
BLOCK_RECORD
  5
1
100
AcDbSymbolTableRecord
100
AcDbBlockTableRecord
  2
_NONE
  0
BLOCK_RECORD
  5
4
100
AcDbSymbolTableRecord
100
AcDbBlockTableRecord
  2
_CLOSED
  0
BLOCK_RECORD
  5
B
100
AcDbSymbolTableRecord
100
AcDbBlockTableRecord
  2
_DOT
  0
BLOCK_RECORD
  5
13
100
AcDbSymbolTableRecord
100
AcDbBlockTableRecord
  2
_OPEN
  0
BLOCK_RECORD
  5
19
100
AcDbSymbolTableRecord
100
AcDbBlockTableRecord
  2
_ORIGIN
  0
BLOCK_RECORD
  5
1E
100
AcDbSymbolTableRecord
100
AcDbBlockTableRecord
  2
_OPEN30
  0
BLOCK_RECORD
  5
24
100
AcDbSymbolTableRecord
100
AcDbBlockTableRecord
  2
_BOXFILLED
  0
BLOCK_RECORD
  5
29
100
AcDbSymbolTableRecord
100
AcDbBlockTableRecord
  2
_BOXBLANK
  0
BLOCK_RECORD
  5
31
100
AcDbSymbolTableRecord
100
AcDbBlockTableRecord
  2
_OBLIQUE
  0
BLOCK_RECORD
  5
35
100
AcDbSymbolTableRecord
100
AcDbBlockTableRecord
  2
_OPEN90
  0
BLOCK_RECORD
  5
3B
100
AcDbSymbolTableRecord
100
AcDbBlockTableRecord
  2
_CLOSEDBLANK
  0
BLOCK_RECORD
  5
41
100
AcDbSymbolTableRecord
100
AcDbBlockTableRecord
  2
_DOTBLANK
  0
BLOCK_RECORD
  5
59E
100
AcDbSymbolTableRecord
100
AcDbBlockTableRecord
  2
*D0
  0
BLOCK_RECORD
  5
59F
100
AcDbSymbolTableRecord
100
AcDbBlockTableRecord
  2
*D1
  0
BLOCK_RECORD
  5
5A0
100
AcDbSymbolTableRecord
100
AcDbBlockTableRecord
  2
*D2
  0
BLOCK_RECORD
  5
5A1
100
AcDbSymbolTableRecord
100
AcDbBlockTableRecord
  2
*D3
  0
BLOCK_RECORD
  5
5A2
100
AcDbSymbolTableRecord
100
AcDbBlockTableRecord
  2
*D4
  0
BLOCK_RECORD
  5
5A3
100
AcDbSymbolTableRecord
100
AcDbBlockTableRecord
  2
*D5
  0
BLOCK_RECORD
  5
5A4
100
AcDbSymbolTableRecord
100
AcDbBlockTableRecord
  2
M0
  0
BLOCK_RECORD
  5
5A5
100
AcDbSymbolTableRecord
100
AcDbBlockTableRecord
  2
M1
  0
BLOCK_RECORD
  5
5A6
100
AcDbSymbolTableRecord
100
AcDbBlockTableRecord
  2
*D6
  0
BLOCK_RECORD
  5
5A7
100
AcDbSymbolTableRecord
100
AcDbBlockTableRecord
  2
*D7
  0
BLOCK_RECORD
  5
5A8
100
AcDbSymbolTableRecord
100
AcDbBlockTableRecord
  2
*D8
  0
BLOCK_RECORD
  5
5A9
100
AcDbSymbolTableRecord
100
AcDbBlockTableRecord
  2
*D9
  0
BLOCK_RECORD
  5
5AA
100
AcDbSymbolTableRecord
100
AcDbBlockTableRecord
  2
D10
  0
BLOCK_RECORD
  5
5AB
100
AcDbSymbolTableRecord
100
AcDbBlockTableRecord
  2
*D11
  0
BLOCK_RECORD
  5
5AC
100
AcDbSymbolTableRecord
100
AcDbBlockTableRecord
  2
*D12
  0
BLOCK_RECORD
  5
5AD
100
AcDbSymbolTableRecord
100
AcDbBlockTableRecord
  2
*D13
  0
BLOCK_RECORD
  5
5AE
100
AcDbSymbolTableRecord
100
AcDbBlockTableRecord
  2
*D14
  0
BLOCK_RECORD
  5
5AF
100
AcDbSymbolTableRecord
100
AcDbBlockTableRecord
  2
*D15
  0
BLOCK_RECORD
  5
5B0
100
AcDbSymbolTableRecord
100
AcDbBlockTableRecord
  2
*D16
  0
BLOCK_RECORD
  5
5B1
100
AcDbSymbolTableRecord
100
AcDbBlockTableRecord
  2
*D17
  0
BLOCK_RECORD
  5
5B2
100
AcDbSymbolTableRecord
100
AcDbBlockTableRecord
  2
*D18
  0
BLOCK_RECORD
  5
5B3
100
AcDbSymbolTableRecord
100
AcDbBlockTableRecord
  2
*D19
  0
BLOCK_RECORD
  5
5B4
100
AcDbSymbolTableRecord
100
AcDbBlockTableRecord
  2
*D20
  0
BLOCK_RECORD
  5
5B5
100
AcDbSymbolTableRecord
100
AcDbBlockTableRecord
  2
*D21
  0
BLOCK_RECORD
  5
5B6
100
AcDbSymbolTableRecord
100
AcDbBlockTableRecord
  2
*D22
  0
BLOCK_RECORD
  5
5B7
100
AcDbSymbolTableRecord
100
AcDbBlockTableRecord
  2
*D23
  0
BLOCK_RECORD
  5
5B8
100
AcDbSymbolTableRecord
100
AcDbBlockTableRecord
  2
*D24
  0
BLOCK_RECORD
  5
5B9
100
AcDbSymbolTableRecord
100
AcDbBlockTableRecord
  2
*D25
  0
BLOCK_RECORD
  5
5BA
100
AcDbSymbolTableRecord
100
AcDbBlockTableRecord
  2
*D26
  0
BLOCK_RECORD
  5
5BB
100
AcDbSymbolTableRecord
100
AcDbBlockTableRecord
  2
*D27
  0
BLOCK_RECORD
  5
5BC
100
AcDbSymbolTableRecord
100
AcDbBlockTableRecord
  2
*D28
  0
BLOCK_RECORD
  5
5BD
100
AcDbSymbolTableRecord
100
AcDbBlockTableRecord
  2
*D29
  0
BLOCK_RECORD
  5
5BE
100
AcDbSymbolTableRecord
100
AcDbBlockTableRecord
  2
*D30
  0
BLOCK_RECORD
  5
5BF
100
AcDbSymbolTableRecord
100
AcDbBlockTableRecord
  2
*D31
  0
BLOCK_RECORD
  5
5C0
100
AcDbSymbolTableRecord
100
AcDbBlockTableRecord
  2
*D32
  0
BLOCK_RECORD
  5
5C1
100
AcDbSymbolTableRecord
100
AcDbBlockTableRecord
  2
*D33
  0
BLOCK_RECORD
  5
5C2
100
AcDbSymbolTableRecord
100
AcDbBlockTableRecord
  2
*D34
  0
BLOCK_RECORD
  5
5C3
100
AcDbSymbolTableRecord
100
AcDbBlockTableRecord
  2
*D35
  0
BLOCK_RECORD
  5
5C4
100
AcDbSymbolTableRecord
100
AcDbBlockTableRecord
  2
D36
  0
BLOCK_RECORD
  5
5C5
100
AcDbSymbolTableRecord
100
AcDbBlockTableRecord
  2
D37
  0
BLOCK_RECORD
  5
5C6
100
AcDbSymbolTableRecord
100
AcDbBlockTableRecord
  2
*D38
  0
BLOCK_RECORD
  5
5C7
100
AcDbSymbolTableRecord
100
AcDbBlockTableRecord
  2
*D39
  0
BLOCK_RECORD
  5
5C8
100
AcDbSymbolTableRecord
100
AcDbBlockTableRecord
  2
*D40
  0
BLOCK_RECORD
  5
5C9
100
AcDbSymbolTableRecord
100
AcDbBlockTableRecord
  2
*D41
  0
BLOCK_RECORD
  5
5CA
100
AcDbSymbolTableRecord
100
AcDbBlockTableRecord
  2
*D42
  0
BLOCK_RECORD
  5
5CB
100
AcDbSymbolTableRecord
100
AcDbBlockTableRecord
  2
*D43
  0
BLOCK_RECORD
  5
5CC
100
AcDbSymbolTableRecord
100
AcDbBlockTableRecord
  2
*D44
  0
BLOCK_RECORD
  5
5CD
100
AcDbSymbolTableRecord
100
AcDbBlockTableRecord
  2
*D45
  0
BLOCK_RECORD
  5
5CE
100
AcDbSymbolTableRecord
100
AcDbBlockTableRecord
  2
*D46
  0
BLOCK_RECORD
  5
5CF
100
AcDbSymbolTableRecord
100
AcDbBlockTableRecord
  2
*D47
  0
BLOCK_RECORD
  5
5D0
100
AcDbSymbolTableRecord
100
AcDbBlockTableRecord
  2
*D48
  0
BLOCK_RECORD
  5
5D1
100
AcDbSymbolTableRecord
100
AcDbBlockTableRecord
  2
*D49
  0
BLOCK_RECORD
  5
5D2
100
AcDbSymbolTableRecord
100
AcDbBlockTableRecord
  2
*D50
  0
BLOCK_RECORD
  5
5D3
100
AcDbSymbolTableRecord
100
AcDbBlockTableRecord
  2
*D51
  0
BLOCK_RECORD
  5
5D4
100
AcDbSymbolTableRecord
100
AcDbBlockTableRecord
  2
*D52
  0
BLOCK_RECORD
  5
5D5
100
AcDbSymbolTableRecord
100
AcDbBlockTableRecord
  2
*D53
  0
BLOCK_RECORD
  5
5D6
100
AcDbSymbolTableRecord
100
AcDbBlockTableRecord
  2
*D54
  0
BLOCK_RECORD
  5
5D7
100
AcDbSymbolTableRecord
100
AcDbBlockTableRecord
  2
*D55
  0
BLOCK_RECORD
  5
5D8
100
AcDbSymbolTableRecord
100
AcDbBlockTableRecord
  2
*X0
  0
ENDTAB
  0
ENDSEC
  0
SECTION
  2
BLOCKS
  0
BLOCK
  5
5D9
100
AcDbEntity
  8
0
100
AcDbBlockBegin
  2
*MODEL_SPACE
 70
     0
 10
0.0
 20
0.0
 30
0.0
  3
*MODEL_SPACE
  1

  0
ENDBLK
  5
5DA
100
AcDbEntity
  8
0
100
AcDbBlockEnd
  0
BLOCK
  5
5DB
100
AcDbEntity
  8
0
100
AcDbBlockBegin
  2
*PAPER_SPACE
 70
     0
 10
0.0
 20
0.0
 30
0.0
  3
*PAPER_SPACE
  1

  0
ENDBLK
  5
5DC
100
AcDbEntity
  8
0
100
AcDbBlockEnd
  0
BLOCK
  5
2
100
AcDbEntity
  8
0
100
AcDbBlockBegin
  2
_NONE
 70
     0
 10
0.0
 20
0.0
 30
0.0
  3
_NONE
  1

  0
ENDBLK
  5
3
100
AcDbEntity
  8
0
100
AcDbBlockEnd
  0
BLOCK
  5
5
100
AcDbEntity
  8
0
100
AcDbBlockBegin
  2
_CLOSED
 70
     0
 10
0.0
 20
0.0
 30
0.0
  3
_CLOSED
  1

  0
LINE
  5
6
100
AcDbEntity
  8
0
  6
BYBLOCK
 62
     0
100
AcDbLine
 10
-1.0
 20
0.166667
 30
0.0
 11
0.0
 21
0.0
 31
0.0
  0
LINE
  5
7
100
AcDbEntity
  8
0
  6
BYBLOCK
 62
     0
100
AcDbLine
 10
0.0
 20
0.0
 30
0.0
 11
-1.0
 21
-0.166667
 31
0.0
  0
LINE
  5
8
100
AcDbEntity
  8
0
  6
BYBLOCK
 62
     0
100
AcDbLine
 10
-1.0
 20
0.166667
 30
0.0
 11
-1.0
 21
-0.166667
 31
0.0
  0
LINE
  5
9
100
AcDbEntity
  8
0
  6
BYBLOCK
 62
     0
100
AcDbLine
 10
0.0
 20
0.0
 30
0.0
 11
-1.0
 21
0.0
 31
0.0
  0
ENDBLK
  5
A
100
AcDbEntity
  8
0
100
AcDbBlockEnd
  0
BLOCK
  5
C
100
AcDbEntity
  8
0
100
AcDbBlockBegin
  2
_DOT
 70
     0
 10
0.0
 20
0.0
 30
0.0
  3
_DOT
  1

  0
POLYLINE
  5
D
100
AcDbEntity
  8
0
  6
BYBLOCK
 62
     0
100
AcDb2dPolyline
 66
     1
 10
0.0
 20
0.0
 30
0.0
 70
     1
 40
0.5
 41
0.5
  0
VERTEX
  5
E
100
AcDbEntity
  8
0
  6
BYBLOCK
 62
     0
100
AcDbVertex
100
AcDb2dVertex
 10
-0.25
 20
0.0
 30
0.0
 42
1.0
  0
VERTEX
  5
F
100
AcDbEntity
  8
0
  6
BYBLOCK
 62
     0
100
AcDbVertex
100
AcDb2dVertex
 10
0.25
 20
0.0
 30
0.0
 42
1.0
  0
SEQEND
  5
10
100
AcDbEntity
  8
0
  6
BYBLOCK
 62
     0
  0
LINE
  5
11
100
AcDbEntity
  8
0
  6
BYBLOCK
 62
     0
100
AcDbLine
 10
-0.5
 20
0.0
 30
0.0
 11
-1.0
 21
0.0
 31
0.0
  0
ENDBLK
  5
12
100
AcDbEntity
  8
0
100
AcDbBlockEnd
  0
BLOCK
  5
14
100
AcDbEntity
  8
0
100
AcDbBlockBegin
  2
_OPEN
 70
     0
 10
0.0
 20
0.0
 30
0.0
  3
_OPEN
  1

  0
LINE
  5
15
100
AcDbEntity
  8
0
  6
BYBLOCK
 62
     0
100
AcDbLine
 10
-1.0
 20
0.166667
 30
0.0
 11
0.0
 21
0.0
 31
0.0
  0
LINE
  5
16
100
AcDbEntity
  8
0
  6
BYBLOCK
 62
     0
100
AcDbLine
 10
0.0
 20
0.0
 30
0.0
 11
-1.0
 21
-0.166667
 31
0.0
  0
LINE
  5
17
100
AcDbEntity
  8
0
  6
BYBLOCK
 62
     0
100
AcDbLine
 10
0.0
 20
0.0
 30
0.0
 11
-1.0
 21
0.0
 31
0.0
  0
ENDBLK
  5
18
100
AcDbEntity
  8
0
100
AcDbBlockEnd
  0
BLOCK
  5
1A
100
AcDbEntity
  8
0
100
AcDbBlockBegin
  2
_ORIGIN
 70
     0
 10
0.0
 20
0.0
 30
0.0
  3
_ORIGIN
  1

  0
CIRCLE
  5
1B
100
AcDbEntity
  8
0
  6
BYBLOCK
 62
     0
100
AcDbCircle
 10
0.0
 20
0.0
 30
0.0
 40
0.5
  0
LINE
  5
1C
100
AcDbEntity
  8
0
  6
BYBLOCK
 62
     0
100
AcDbLine
 10
0.0
 20
0.0
 30
0.0
 11
-1.0
 21
0.0
 31
0.0
  0
ENDBLK
  5
1D
100
AcDbEntity
  8
0
100
AcDbBlockEnd
  0
BLOCK
  5
1F
100
AcDbEntity
  8
0
100
AcDbBlockBegin
  2
_OPEN30
 70
     0
 10
0.0
 20
0.0
 30
0.0
  3
_OPEN30
  1

  0
LINE
  5
20
100
AcDbEntity
  8
0
  6
BYBLOCK
 62
     0
100
AcDbLine
 10
-1.0
 20
0.267949
 30
0.0
 11
0.0
 21
0.0
 31
0.0
  0
LINE
  5
21
100
AcDbEntity
  8
0
  6
BYBLOCK
 62
     0
100
AcDbLine
 10
0.0
 20
0.0
 30
0.0
 11
-1.0
 21
-0.267949
 31
0.0
  0
LINE
  5
22
100
AcDbEntity
  8
0
  6
BYBLOCK
 62
     0
100
AcDbLine
 10
0.0
 20
0.0
 30
0.0
 11
-1.0
 21
0.0
 31
0.0
  0
ENDBLK
  5
23
100
AcDbEntity
  8
0
100
AcDbBlockEnd
  0
BLOCK
  5
25
100
AcDbEntity
  8
0
100
AcDbBlockBegin
  2
_BOXFILLED
 70
     0
 10
0.0
 20
0.0
 30
0.0
  3
_BOXFILLED
  1

  0
SOLID
  5
26
100
AcDbEntity
  8
0
  6
BYBLOCK
 62
     0
100
AcDbTrace
 10
-0.5
 20
0.5
 30
0.0
 11
0.5
 21
0.5
 31
0.0
 12
-0.5
 22
-0.5
 32
0.0
 13
0.5
 23
-0.5
 33
0.0
  0
LINE
  5
27
100
AcDbEntity
  8
0
  6
BYBLOCK
 62
     0
100
AcDbLine
 10
-0.5
 20
0.0
 30
0.0
 11
-1.0
 21
0.0
 31
0.0
  0
ENDBLK
  5
28
100
AcDbEntity
  8
0
100
AcDbBlockEnd
  0
BLOCK
  5
2A
100
AcDbEntity
  8
0
100
AcDbBlockBegin
  2
_BOXBLANK
 70
     0
 10
0.0
 20
0.0
 30
0.0
  3
_BOXBLANK
  1

  0
LINE
  5
2B
100
AcDbEntity
  8
0
  6
BYBLOCK
 62
     0
100
AcDbLine
 10
-0.5
 20
-0.5
 30
0.0
 11
0.5
 21
-0.5
 31
0.0
  0
LINE
  5
2C
100
AcDbEntity
  8
0
  6
BYBLOCK
 62
     0
100
AcDbLine
 10
0.5
 20
-0.5
 30
0.0
 11
0.5
 21
0.5
 31
0.0
  0
LINE
  5
2D
100
AcDbEntity
  8
0
  6
BYBLOCK
 62
     0
100
AcDbLine
 10
0.5
 20
0.5
 30
0.0
 11
-0.5
 21
0.5
 31
0.0
  0
LINE
  5
2E
100
AcDbEntity
  8
0
  6
BYBLOCK
 62
     0
100
AcDbLine
 10
-0.5
 20
0.5
 30
0.0
 11
-0.5
 21
-0.5
 31
0.0
  0
LINE
  5
2F
100
AcDbEntity
  8
0
  6
BYBLOCK
 62
     0
100
AcDbLine
 10
-0.5
 20
0.0
 30
0.0
 11
-1.0
 21
0.0
 31
0.0
  0
ENDBLK
  5
30
100
AcDbEntity
  8
0
100
AcDbBlockEnd
  0
BLOCK
  5
32
100
AcDbEntity
  8
0
100
AcDbBlockBegin
  2
_OBLIQUE
 70
     0
 10
0.0
 20
0.0
 30
0.0
  3
_OBLIQUE
  1

  0
LINE
  5
33
100
AcDbEntity
  8
0
  6
BYBLOCK
 62
     0
100
AcDbLine
 10
-0.5
 20
-0.5
 30
0.0
 11
0.5
 21
0.5
 31
0.0
  0
ENDBLK
  5
34
100
AcDbEntity
  8
0
100
AcDbBlockEnd
  0
BLOCK
  5
36
100
AcDbEntity
  8
0
100
AcDbBlockBegin
  2
_OPEN90
 70
     0
 10
0.0
 20
0.0
 30
0.0
  3
_OPEN90
  1

  0
LINE
  5
37
100
AcDbEntity
  8
0
  6
BYBLOCK
 62
     0
100
AcDbLine
 10
-0.5
 20
0.5
 30
0.0
 11
0.0
 21
0.0
 31
0.0
  0
LINE
  5
38
100
AcDbEntity
  8
0
  6
BYBLOCK
 62
     0
100
AcDbLine
 10
0.0
 20
0.0
 30
0.0
 11
-0.5
 21
-0.5
 31
0.0
  0
LINE
  5
39
100
AcDbEntity
  8
0
  6
BYBLOCK
 62
     0
100
AcDbLine
 10
0.0
 20
0.0
 30
0.0
 11
-1.0
 21
0.0
 31
0.0
  0
ENDBLK
  5
3A
100
AcDbEntity
  8
0
100
AcDbBlockEnd
  0
BLOCK
  5
3C
100
AcDbEntity
  8
0
100
AcDbBlockBegin
  2
_CLOSEDBLANK
 70
     0
 10
0.0
 20
0.0
 30
0.0
  3
_CLOSEDBLANK
  1

  0
LINE
  5
3D
100
AcDbEntity
  8
0
  6
BYBLOCK
 62
     0
100
AcDbLine
 10
-1.0
 20
0.1666666666666666
 30
0.0
 11
0.0
 21
0.0
 31
0.0
  0
LINE
  5
3E
100
AcDbEntity
  8
0
  6
BYBLOCK
 62
     0
100
AcDbLine
 10
0.0
 20
0.0
 30
0.0
 11
-1.0
 21
-0.1666666666666666
 31
0.0
  0
LINE
  5
3F
100
AcDbEntity
  8
0
  6
BYBLOCK
 62
     0
100
AcDbLine
 10
-1.0
 20
0.1666666666666666
 30
0.0
 11
-1.0
 21
-0.1666666666666666
 31
0.0
  0
ENDBLK
  5
40
100
AcDbEntity
  8
0
100
AcDbBlockEnd
  0
BLOCK
  5
42
100
AcDbEntity
  8
0
100
AcDbBlockBegin
  2
_DOTBLANK
 70
     0
 10
0.0
 20
0.0
 30
0.0
  3
_DOTBLANK
  1

  0
CIRCLE
  5
43
100
AcDbEntity
  8
0
  6
BYBLOCK
 62
     0
100
AcDbCircle
 10
0.0
 20
0.0
 30
0.0
 40
0.5
  0
LINE
  5
44
100
AcDbEntity
  8
0
  6
BYBLOCK
 62
     0
100
AcDbLine
 10
-0.5
 20
0.0
 30
0.0
 11
-1.0
 21
0.0
 31
0.0
  0
ENDBLK
  5
45
100
AcDbEntity
  8
0
100
AcDbBlockEnd
  0
BLOCK
  5
46
100
AcDbEntity
  8
MAIN0
  6
CONTINUOUS
 62
3
100
AcDbBlockBegin
  2
*D0
 70
    65
 10
0.0
 20
0.0
 30
0.0
  0
LINE
  5
47
100
AcDbEntity
  8
MAIN0
  6
BYBLOCK
 62
0
100
AcDbLine
 10
65.75183884392182
 20
385.4895825759391
 30
0.0000000000000000
 11
65.75183884392182
 21
398.2300202157559
 31
0.0000000000000000
  0
LINE
  5
48
100
AcDbEntity
  8
MAIN0
  6
BYBLOCK
 62
0
100
AcDbLine
 10
67.75183884392182
 20
396.2300202157559
 30
0.0000000000000000
 11
219.2518388439358
 21
396.2300202157559
 31
0.0000000000000000
  0
INSERT
  5
49
100
AcDbEntity
  8
MAIN0
  6
BYBLOCK
 62
0
100
AcDbBlockReference
  2
_OPEN
 10
65.75183884392182
 20
396.2300202157559
 30
0.0000000000000000
 41
2.000000000000000
 42
2.000000000000000
 43
2.000000000000000
 50
180.0000000000000
  0
INSERT
  5
4A
100
AcDbEntity
  8
MAIN0
  6
BYBLOCK
 62
0
100
AcDbBlockReference
  2
_OPEN
 10
221.2518388439358
 20
396.2300202157559
 30
0.0000000000000000
 41
2.000000000000000
 42
2.000000000000000
 43
2.000000000000000
 50
0.0000000000000000
  0
LINE
  5
4B
100
AcDbEntity
  8
MAIN0
  6
BYBLOCK
 62
0
100
AcDbLine
 10
221.2518388439358
 20
364.8895825759378
 30
0.0000000000000000
 11
221.2518388439358
 21
398.2300202157559
 31
0.0000000000000000
  0
MTEXT
  5
4C
100
AcDbEntity
  8
MAIN0
  6
BYBLOCK
 62
0
100
AcDbMText
 10
143.5018388439288
 20
398.2800201680722
 30
0.0000000000000000
 40
3.099999904632568
 41
0.0000000000000000
 71
     5
 72
     1
  1
\A1;155.5
 11
1.000000000000000
 21
0.0000000000000000
 31
0.0000000000000000
  7
STANDARD
  0
ENDBLK
  5
4D
100
AcDbEntity
  8
MAIN0
  6
CONTINUOUS
 62
3
100
AcDbBlockEnd
  0
BLOCK
  5
4F
100
AcDbEntity
  8
MAIN0
  6
CONTINUOUS
 62
3
100
AcDbBlockBegin
  2
*D1
 70
    65
 10
0.0
 20
0.0
 30
0.0
  0
LINE
  5
50
100
AcDbEntity
  8
MAIN0
  6
BYBLOCK
 62
0
100
AcDbLine
 10
221.2518388439358
 20
364.8895825759378
 30
0.0000000000000000
 11
221.2518388439358
 21
398.2300202157559
 31
0.0000000000000000
  0
LINE
  5
51
100
AcDbEntity
  8
MAIN0
  6
BYBLOCK
 62
0
100
AcDbLine
 10
223.2518388439358
 20
396.2300202157559
 30
0.0000000000000000
 11
236.2518388439358
 21
396.2300202157559
 31
0.0000000000000000
  0
INSERT
  5
52
100
AcDbEntity
  8
MAIN0
  6
BYBLOCK
 62
0
100
AcDbBlockReference
  2
_OPEN
 10
221.2518388439358
 20
396.2300202157559
 30
0.0000000000000000
 41
2.000000000000000
 42
2.000000000000000
 43
2.000000000000000
 50
180.0000000000000
  0
INSERT
  5
53
100
AcDbEntity
  8
MAIN0
  6
BYBLOCK
 62
0
100
AcDbBlockReference
  2
_OPEN
 10
238.2518388439358
 20
396.2300202157559
 30
0.0000000000000000
 41
2.000000000000000
 42
2.000000000000000
 43
2.000000000000000
 50
0.0000000000000000
  0
LINE
  5
54
100
AcDbEntity
  8
MAIN0
  6
BYBLOCK
 62
0
100
AcDbLine
 10
238.2518388439358
 20
396.2300202157559
 30
0.0000000000000000
 11
254.2175838161648
 21
396.2300202157559
 31
0.0000000000000000
  0
LINE
  5
55
100
AcDbEntity
  8
MAIN0
  6
BYBLOCK
 62
0
100
AcDbLine
 10
238.2518388439358
 20
359.9458071885244
 30
0.0000000000000000
 11
238.2518388439358
 21
398.2300202157559
 31
0.0000000000000000
  0
MTEXT
  5
56
100
AcDbEntity
  8
MAIN0
  6
BYBLOCK
 62
0
100
AcDbMText
 10
247.9175834557608
 20
398.2800201680722
 30
0.0000000000000000
 40
3.099999904632568
 41
0.0000000000000000
 71
     5
 72
     1
  1
\A1;MAX 17
 11
1.000000000000000
 21
0.0000000000000000
 31
0.0000000000000000
  7
STANDARD
  0
ENDBLK
  5
57
100
AcDbEntity
  8
MAIN0
  6
CONTINUOUS
 62
3
100
AcDbBlockEnd
  0
BLOCK
  5
59
100
AcDbEntity
  8
MAIN0
  6
CONTINUOUS
 62
3
100
AcDbBlockBegin
  2
*D2
 70
    65
 10
0.0
 20
0.0
 30
0.0
  0
LINE
  5
5A
100
AcDbEntity
  8
MAIN0
  6
BYBLOCK
 62
0
100
AcDbLine
 10
240.0000000000000
 20
315.7895825641984
 30
0.0000000000000000
 11
240.0000000000000
 21
294.2895825641985
 31
0.0000000000000000
  0
INSERT
  5
5B
100
AcDbEntity
  8
MAIN0
  6
BYBLOCK
 62
0
100
AcDbBlockReference
  2
_OPEN
 10
240.0000000000000
 20
317.7895825641984
 30
0.0000000000000000
 41
2.000000000000000
 42
2.000000000000000
 43
2.000000000000000
 50
90.00000000000000
  0
INSERT
  5
5C
100
AcDbEntity
  8
MAIN0
  6
BYBLOCK
 62
0
100
AcDbBlockReference
  2
_OPEN
 10
240.0000000000000
 20
292.2895825641985
 30
0.0000000000000000
 41
2.000000000000000
 42
2.000000000000000
 43
2.000000000000000
 50
270.0000000000000
  0
LINE
  5
5D
100
AcDbEntity
  8
MAIN0
  6
BYBLOCK
 62
0
100
AcDbLine
 10
203.0518388558567
 20
292.2895825641985
 30
0.0000000000000000
 11
242.0000000000000
 21
292.2895825641985
 31
0.0000000000000000
  0
MTEXT
  5
5E
100
AcDbEntity
  8
MAIN0
  6
BYBLOCK
 62
0
100
AcDbMText
 10
237.9500000476837
 20
305.0395825641984
 30
0.0000000000000000
 40
3.099999904632568
 41
0.0000000000000000
 71
     5
 72
     1
  1
\A1;25.5
 11
6.123233995736766e-017
 21
1.000000000000000
 31
0.0000000000000000
  7
STANDARD
  0
ENDBLK
  5
5F
100
AcDbEntity
  8
MAIN0
  6
CONTINUOUS
 62
3
100
AcDbBlockEnd
  0
BLOCK
  5
61
100
AcDbEntity
  8
MAIN0
  6
CONTINUOUS
 62
3
100
AcDbBlockBegin
  2
*D3
 70
    65
 10
0.0
 20
0.0
 30
0.0
  0
LINE
  5
62
100
AcDbEntity
  8
MAIN0
  6
BYBLOCK
 62
0
100
AcDbLine
 10
203.0518388558567
 20
292.2895825641985
 30
0.0000000000000000
 11
242.0000000000000
 21
292.2895825641985
 31
0.0000000000000000
  0
LINE
  5
63
100
AcDbEntity
  8
MAIN0
  6
BYBLOCK
 62
0
100
AcDbLine
 10
240.0000000000000
 20
290.2895825641985
 30
0.0000000000000000
 11
240.0000000000000
 21
265.7895825641984
 31
0.0000000000000000
  0
INSERT
  5
64
100
AcDbEntity
  8
MAIN0
  6
BYBLOCK
 62
0
100
AcDbBlockReference
  2
_OPEN
 10
240.0000000000000
 20
292.2895825641985
 30
0.0000000000000000
 41
2.000000000000000
 42
2.000000000000000
 43
2.000000000000000
 50
90.00000000000000
  0
INSERT
  5
65
100
AcDbEntity
  8
MAIN0
  6
BYBLOCK
 62
0
100
AcDbBlockReference
  2
_OPEN
 10
240.0000000000000
 20
263.7895825641984
 30
0.0000000000000000
 41
2.000000000000000
 42
2.000000000000000
 43
2.000000000000000
 50
270.0000000000000
  0
LINE
  5
66
100
AcDbEntity
  8
MAIN0
  6
BYBLOCK
 62
0
100
AcDbLine
 10
234.0518388558567
 20
263.7895825641984
 30
0.0000000000000000
 11
242.0000000000000
 21
263.7895825641984
 31
0.0000000000000000
  0
MTEXT
  5
67
100
AcDbEntity
  8
MAIN0
  6
BYBLOCK
 62
0
100
AcDbMText
 10
237.9500000476837
 20
278.0395825641984
 30
0.0000000000000000
 40
3.099999904632568
 41
0.0000000000000000
 71
     5
 72
     1
  1
\A1;28.5
 11
6.123233995736766e-017
 21
1.000000000000000
 31
0.0000000000000000
  7
STANDARD
  0
ENDBLK
  5
68
100
AcDbEntity
  8
MAIN0
  6
CONTINUOUS
 62
3
100
AcDbBlockEnd
  0
BLOCK
  5
6A
100
AcDbEntity
  8
MAIN0
  6
CONTINUOUS
 62
3
100
AcDbBlockBegin
  2
*D4
 70
    65
 10
0.0
 20
0.0
 30
0.0
  0
LINE
  5
6B
100
AcDbEntity
  8
MAIN0
  6
BYBLOCK
 62
0
100
AcDbLine
 10
234.0518388558567
 20
263.7895825641984
 30
0.0000000000000000
 11
252.0000000000000
 21
263.7895825641970
 31
0.0000000000000000
  0
LINE
  5
6C
100
AcDbEntity
  8
MAIN0
  6
BYBLOCK
 62
0
100
AcDbLine
 10
250.0000000000000
 20
263.7895825641972
 30
0.0000000000000000
 11
250.0000000000000
 21
261.2895825640170
 31
0.0000000000000000
  0
INSERT
  5
6D
100
AcDbEntity
  8
MAIN0
  6
BYBLOCK
 62
0
100
AcDbBlockReference
  2
_OPEN
 10
250.0000000000000
 20
263.7895825641972
 30
0.0000000000000000
 41
2.000000000000000
 42
2.000000000000000
 43
2.000000000000000
 50
270.0000000000000
  0
INSERT
  5
6E
100
AcDbEntity
  8
MAIN0
  6
BYBLOCK
 62
0
100
AcDbBlockReference
  2
_OPEN
 10
250.0000000000000
 20
261.2895825640170
 30
0.0000000000000000
 41
2.000000000000000
 42
2.000000000000000
 43
2.000000000000000
 50
90.00000000000000
  0
LINE
  5
6F
100
AcDbEntity
  8
MAIN0
  6
BYBLOCK
 62
0
100
AcDbLine
 10
250.0000000000000
 20
265.7895825641972
 30
0.0000000000000000
 11
250.0000000000000
 21
266.7895825641972
 31
0.0000000000000000
  0
LINE
  5
70
100
AcDbEntity
  8
MAIN0
  6
BYBLOCK
 62
0
100
AcDbLine
 10
250.0000000000000
 20
259.2895825640170
 30
0.0000000000000000
 11
250.0000000000000
 21
242.2251828447787
 31
0.0000000000000000
  0
LINE
  5
71
100
AcDbEntity
  8
MAIN0
  6
BYBLOCK
 62
0
100
AcDbLine
 10
194.5262490584381
 20
261.2895825640170
 30
0.0000000000000000
 11
252.0000000000000
 21
261.2895825640170
 31
0.0000000000000000
  0
MTEXT
  5
72
100
AcDbEntity
  8
MAIN0
  6
BYBLOCK
 62
0
100
AcDbMText
 10
247.9500000476837
 20
250.1251837986389
 30
0.0000000000000000
 40
3.099999904632568
 41
0.0000000000000000
 71
     5
 72
     1
  1
\A1;MAX 3.75
 11
6.123233995736766e-017
 21
1.000000000000000
 31
0.0000000000000000
  7
STANDARD
  0
ENDBLK
  5
73
100
AcDbEntity
  8
MAIN0
  6
CONTINUOUS
 62
3
100
AcDbBlockEnd
  0
BLOCK
  5
77
100
AcDbEntity
  8
MAIN0
  6
CONTINUOUS
 62
3
100
AcDbBlockBegin
  2
*D5
 70
    65
 10
0.0
 20
0.0
 30
0.0
  0
LINE
  5
78
100
AcDbEntity
  8
MAIN0
  6
BYBLOCK
 62
0
100
AcDbLine
 10
424.2518388443754
 20
264.5895825759365
 30
0.0000000000000000
 11
424.2518388443754
 21
279.2529951246573
 31
0.0000000000000000
  0
LINE
  5
79
100
AcDbEntity
  8
MAIN0
  6
BYBLOCK
 62
0
100
AcDbLine
 10
424.2518388443754
 20
277.2529951246573
 30
0.0000000000000000
 11
425.2518388443119
 21
277.2529951246573
 31
0.0000000000000000
  0
INSERT
  5
7A
100
AcDbEntity
  8
MAIN0
  6
BYBLOCK
 62
0
100
AcDbBlockReference
  2
_OPEN
 10
424.2518388443754
 20
277.2529951246573
 30
0.0000000000000000
 41
2.000000000000000
 42
2.000000000000000
 43
2.000000000000000
 50
0.0000000000000000
  0
INSERT
  5
7B
100
AcDbEntity
  8
MAIN0
  6
BYBLOCK
 62
0
100
AcDbBlockReference
  2
_OPEN
 10
425.2518388443119
 20
277.2529951246573
 30
0.0000000000000000
 41
2.000000000000000
 42
2.000000000000000
 43
2.000000000000000
 50
180.0000000000000
  0
LINE
  5
7C
100
AcDbEntity
  8
MAIN0
  6
BYBLOCK
 62
0
100
AcDbLine
 10
422.2518388443754
 20
277.2529951246573
 30
0.0000000000000000
 11
421.2518388443754
 21
277.2529951246573
 31
0.0000000000000000
  0
LINE
  5
7D
100
AcDbEntity
  8
MAIN0
  6
BYBLOCK
 62
0
100
AcDbLine
 10
427.2518388443119
 20
277.2529951246573
 30
0.0000000000000000
 11
429.7600509338505
 21
277.2529951246573
 31
0.0000000000000000
  0
LINE
  5
7E
100
AcDbEntity
  8
MAIN0
  6
BYBLOCK
 62
0
100
AcDbLine
 10
425.2518388443119
 20
264.5895825759366
 30
0.0000000000000000
 11
425.2518388443119
 21
279.2529951246573
 31
0.0000000000000000
  0
MTEXT
  5
7F
100
AcDbEntity
  8
MAIN0
  6
BYBLOCK
 62
0
100
AcDbMText
 10
428.7100508365178
 20
279.3029950769736
 30
0.0000000000000000
 40
3.099999904632568
 41
0.0000000000000000
 71
     5
 72
     1
  1
\A1;1
 11
1.000000000000000
 21
0.0000000000000000
 31
0.0000000000000000
  7
STANDARD
  0
ENDBLK
  5
80
100
AcDbEntity
  8
MAIN0
  6
CONTINUOUS
 62
3
100
AcDbBlockEnd
  0
BLOCK
  5
E0
100
AcDbEntity
  8
MAIN0
  6
BYBLOCK
 62
3
100
AcDbBlockBegin
  2
M0
 70
    64
 10
0.0
 20
0.0
 30
0.0
  0
LINE
  5
E1
100
AcDbEntity
  8
MAIN0
  6
BYBLOCK
 62
0
100
AcDbLine
 10
300.2532101919442
 20
70.61796494934526
 30
0.0000000000000000
 11
366.3211006016746
 21
70.61796494934526
 31
0.0000000000000000
  0
LINE
  5
E2
100
AcDbEntity
  8
MAIN0
  6
BYBLOCK
 62
0
100
AcDbLine
 10
300.2532101919442
 20
65.61796494934526
 30
0.0000000000000000
 11
366.3211006016746
 21
65.61796494934526
 31
0.0000000000000000
  0
LINE
  5
E3
100
AcDbEntity
  8
MAIN0
  6
BYBLOCK
 62
0
100
AcDbLine
 10
300.2532101919442
 20
60.61796494934538
 30
0.0000000000000000
 11
366.3211006016746
 21
60.61796494934538
 31
0.0000000000000000
  0
MTEXT
  5
E4
100
AcDbEntity
  8
MAIN0
  6
BYBLOCK
 62
0
100
AcDbMText
 10
301.2532101919442
 20
74.21796485397789
 30
0.0000000000000000
 40
3.099999904632568
 41
0.0000000000000000
 71
     1
 72
     1
  1
{\H0.88x;1.}
 11
1.000000000000000
 21
0.0000000000000000
 31
0.0000000000000000
  7
STANDARD
  0
MTEXT
  5
E5
100
AcDbEntity
  8
MAIN0
  6
BYBLOCK
 62
0
100
AcDbMText
 10
301.2532101919442
 20
64.21796485397795
 30
0.0000000000000000
 40
3.099999904632568
 41
0.0000000000000000
 71
     1
 72
     1
  1
{\H0.88x;2.}
 11
1.000000000000000
 21
0.0000000000000000
 31
0.0000000000000000
  7
STANDARD
  0
MTEXT
  5
E6
100
AcDbEntity
  8
MAIN0
  6
BYBLOCK
 62
0
100
AcDbMText
 10
301.7532101919442
 20
84.61796494934561
 30
0.0000000000000000
 40
6.000000000000000
 41
0.0000000000000000
 71
     1
 72
     1
  1
{\H0.80x;要注意}
 11
1.000000000000000
 21
0.0000000000000000
 31
0.0000000000000000
  7
KNJYOKO
  0
LINE
  5
E7
100
AcDbEntity
  8
MAIN0
  6
BYBLOCK
 62
0
100
AcDbLine
 10
320.2532101919442
 20
86.11796494934561
 30
0.0000000000000000
 11
320.2532101919442
 21
77.11796494934561
 31
0.0000000000000000
  0
LINE
  5
E8
100
AcDbEntity
  8
MAIN0
  6
BYBLOCK
 62
0
100
AcDbLine
 10
300.2532101919442
 20
77.11796494934561
 30
0.0000000000000000
 11
320.2532101919442
 21
77.11796494934561
 31
0.0000000000000000
  0
LINE
  5
E9
100
AcDbEntity
  8
MAIN0
  6
BYBLOCK
 62
0
100
AcDbLine
 10
300.2532101919442
 20
86.11796494934561
 30
0.0000000000000000
 11
300.2532101919442
 21
77.11796494934561
 31
0.0000000000000000
  0
LINE
  5
EA
100
AcDbEntity
  8
MAIN0
  6
BYBLOCK
 62
0
100
AcDbLine
 10
300.2532101919442
 20
86.11796494934561
 30
0.0000000000000000
 11
320.2532101919442
 21
86.11796494934561
 31
0.0000000000000000
  0
ENDBLK
  5
EB
100
AcDbEntity
  8
MAIN0
  6
BYBLOCK
 62
3
100
AcDbBlockEnd
  0
BLOCK
  5
ED
100
AcDbEntity
  8
MAIN0
  6
BYBLOCK
 62
3
100
AcDbBlockBegin
  2
M1
 70
    64
 10
0.0
 20
0.0
 30
0.0
  0
LINE
  5
EE
100
AcDbEntity
  8
MAIN0
  6
BYBLOCK
 62
0
100
AcDbLine
 10
371.8662204714854
 20
70.61796494934526
 30
0.0000000000000000
 11
462.8341835435320
 21
70.61796494934526
 31
0.0000000000000000
  0
LINE
  5
EF
100
AcDbEntity
  8
MAIN0
  6
BYBLOCK
 62
0
100
AcDbLine
 10
371.8662204714854
 20
65.61796494934526
 30
0.0000000000000000
 11
462.8341835435320
 21
65.61796494934526
 31
0.0000000000000000
  0
LINE
  5
F0
100
AcDbEntity
  8
MAIN0
  6
BYBLOCK
 62
0
100
AcDbLine
 10
371.8662204714854
 20
60.61796494934538
 30
0.0000000000000000
 11
462.8341835435320
 21
60.61796494934538
 31
0.0000000000000000
  0
MTEXT
  5
F1
100
AcDbEntity
  8
MAIN0
  6
BYBLOCK
 62
0
100
AcDbMText
 10
372.8662204714855
 20
74.21796485397789
 30
0.0000000000000000
 40
3.099999904632568
 41
0.0000000000000000
 71
     1
 72
     1
  1
{\H0.88x;1.}
 11
1.000000000000000
 21
0.0000000000000000
 31
0.0000000000000000
  7
STANDARD
  0
MTEXT
  5
F2
100
AcDbEntity
  8
MAIN0
  6
BYBLOCK
 62
0
100
AcDbMText
 10
372.8662204714855
 20
64.21796485397795
 30
0.0000000000000000
 40
3.099999904632568
 41
0.0000000000000000
 71
     1
 72
     1
  1
{\H0.88x;2.}
 11
1.000000000000000
 21
0.0000000000000000
 31
0.0000000000000000
  7
STANDARD
  0
MTEXT
  5
F3
100
AcDbEntity
  8
MAIN0
  6
BYBLOCK
 62
0
100
AcDbMText
 10
373.3662204714855
 20
82.61796494934561
 30
0.0000000000000000
 40
4.000000000000000
 41
0.0000000000000000
 71
     1
 72
     1
  1
{\H0.63x;CAUTION}
 11
1.000000000000000
 21
0.0000000000000000
 31
0.0000000000000000
  7
STANDARD
  0
LINE
  5
F4
100
AcDbEntity
  8
MAIN0
  6
BYBLOCK
 62
0
100
AcDbLine
 10
391.8662204714854
 20
86.11796494934561
 30
0.0000000000000000
 11
391.8662204714854
 21
77.11796494934561
 31
0.0000000000000000
  0
LINE
  5
F5
100
AcDbEntity
  8
MAIN0
  6
BYBLOCK
 62
0
100
AcDbLine
 10
371.8662204714854
 20
77.11796494934561
 30
0.0000000000000000
 11
391.8662204714854
 21
77.11796494934561
 31
0.0000000000000000
  0
LINE
  5
F6
100
AcDbEntity
  8
MAIN0
  6
BYBLOCK
 62
0
100
AcDbLine
 10
371.8662204714854
 20
86.11796494934561
 30
0.0000000000000000
 11
371.8662204714854
 21
77.11796494934561
 31
0.0000000000000000
  0
LINE
  5
F7
100
AcDbEntity
  8
MAIN0
  6
BYBLOCK
 62
0
100
AcDbLine
 10
371.8662204714854
 20
86.11796494934561
 30
0.0000000000000000
 11
391.8662204714854
 21
86.11796494934561
 31
0.0000000000000000
  0
ENDBLK
  5
F8
100
AcDbEntity
  8
MAIN0
  6
BYBLOCK
 62
3
100
AcDbBlockEnd
  0
BLOCK
  5
101
100
AcDbEntity
  8
MAIN0
  6
CONTINUOUS
 62
3
100
AcDbBlockBegin
  2
*D6
 70
    65
 10
0.0
 20
0.0
 30
0.0
  0
LINE
  5
102
100
AcDbEntity
  8
MAIN0
  6
BYBLOCK
 62
0
100
AcDbLine
 10
229.2518388439358
 20
343.0808600966215
 30
0.0000000000000000
 11
233.2518388439358
 21
343.0808600966215
 31
0.0000000000000000
  0
INSERT
  5
103
100
AcDbEntity
  8
MAIN0
  6
BYBLOCK
 62
0
100
AcDbBlockReference
  2
_OPEN
 10
229.2518388439358
 20
343.0808600966215
 30
0.0000000000000000
 41
2.000000000000000
 42
2.000000000000000
 43
2.000000000000000
 50
0.0000000000000000
  0
INSERT
  5
104
100
AcDbEntity
  8
MAIN0
  6
BYBLOCK
 62
0
100
AcDbBlockReference
  2
_OPEN
 10
233.2518388439358
 20
343.0808600966215
 30
0.0000000000000000
 41
2.000000000000000
 42
2.000000000000000
 43
2.000000000000000
 50
180.0000000000000
  0
LINE
  5
105
100
AcDbEntity
  8
MAIN0
  6
BYBLOCK
 62
0
100
AcDbLine
 10
227.2518388439358
 20
343.0808600966215
 30
0.0000000000000000
 11
226.2518388439358
 21
343.0808600966215
 31
0.0000000000000000
  0
LINE
  5
106
100
AcDbEntity
  8
MAIN0
  6
BYBLOCK
 62
0
100
AcDbLine
 10
235.2518388439358
 20
343.0808600966215
 30
0.0000000000000000
 11
236.2518388439358
 21
343.0808600966215
 31
0.0000000000000000
  0
LINE
  5
107
100
AcDbEntity
  8
MAIN0
  6
BYBLOCK
 62
0
100
AcDbLine
 10
233.2518388439358
 20
346.4895825520969
 30
0.0000000000000000
 11
233.2518388439358
 21
341.0808600966215
 31
0.0000000000000000
  0
MTEXT
  5
108
100
AcDbEntity
  8
MAIN0
  6
BYBLOCK
 62
0
100
AcDbMText
 10
231.2518388439358
 20
345.1308600489378
 30
0.0000000000000000
 40
3.099999904632568
 41
0.0000000000000000
 71
     5
 72
     1
  1
\A1;4
 11
1.000000000000000
 21
0.0000000000000000
 31
0.0000000000000000
  7
STANDARD
  0
ENDBLK
  5
109
100
AcDbEntity
  8
MAIN0
  6
CONTINUOUS
 62
3
100
AcDbBlockEnd
  0
BLOCK
  5
2A7
100
AcDbEntity
  8
MAIN0
  6
CONTINUOUS
 62
3
100
AcDbBlockBegin
  2
*D7
 70
    65
 10
0.0
 20
0.0
 30
0.0
  0
LINE
  5
2A8
100
AcDbEntity
  8
MAIN0
  6
BYBLOCK
 62
0
100
AcDbLine
 10
177.7518388439359
 20
270.0000000000000
 30
0.0000000000000000
 11
183.7518388439358
 21
270.0000000000000
 31
0.0000000000000000
  0
INSERT
  5
2A9
100
AcDbEntity
  8
MAIN0
  6
BYBLOCK
 62
0
100
AcDbBlockReference
  2
_OPEN
 10
177.7518388439359
 20
270.0000000000000
 30
0.0000000000000000
 41
2.000000000000000
 42
2.000000000000000
 43
2.000000000000000
 50
0.0000000000000000
  0
INSERT
  5
2AA
100
AcDbEntity
  8
MAIN0
  6
BYBLOCK
 62
0
100
AcDbBlockReference
  2
_OPEN
 10
183.7518388439358
 20
270.0000000000000
 30
0.0000000000000000
 41
2.000000000000000
 42
2.000000000000000
 43
2.000000000000000
 50
180.0000000000000
  0
LINE
  5
2AB
100
AcDbEntity
  8
MAIN0
  6
BYBLOCK
 62
0
100
AcDbLine
 10
175.7518388439359
 20
270.0000000000000
 30
0.0000000000000000
 11
174.7518388439359
 21
270.0000000000000
 31
0.0000000000000000
  0
LINE
  5
2AC
100
AcDbEntity
  8
MAIN0
  6
BYBLOCK
 62
0
100
AcDbLine
 10
185.7518388439358
 20
270.0000000000000
 30
0.0000000000000000
 11
196.9028503109158
 21
270.0000000000000
 31
0.0000000000000000
  0
MTEXT
  5
2AD
100
AcDbEntity
  8
MAIN0
  6
BYBLOCK
 62
0
100
AcDbMText
 10
191.6528501217198
 20
272.0499999523163
 30
0.0000000000000000
 40
3.099999904632568
 41
0.0000000000000000
 71
     5
 72
     1
  1
\A1;MIN 6
 11
1.000000000000000
 21
0.0000000000000000
 31
0.0000000000000000
  7
STANDARD
  0
ENDBLK
  5
2AE
100
AcDbEntity
  8
MAIN0
  6
CONTINUOUS
 62
3
100
AcDbBlockEnd
  0
BLOCK
  5
2B0
100
AcDbEntity
  8
MAIN0
  6
CONTINUOUS
 62
3
100
AcDbBlockBegin
  2
*D8
 70
    65
 10
0.0
 20
0.0
 30
0.0
  0
LINE
  5
2B1
100
AcDbEntity
  8
MAIN0
  6
BYBLOCK
 62
0
100
AcDbLine
 10
166.4642682630714
 20
281.7895825640157
 30
0.0000000000000000
 11
166.4642682630714
 21
240.7895825640185
 31
0.0000000000000000
  0
INSERT
  5
2B2
100
AcDbEntity
  8
MAIN0
  6
BYBLOCK
 62
0
100
AcDbBlockReference
  2
_OPEN
 10
166.4642682630714
 20
283.7895825640157
 30
0.0000000000000000
 41
2.000000000000000
 42
2.000000000000000
 43
2.000000000000000
 50
90.00000000000000
  0
INSERT
  5
2B3
100
AcDbEntity
  8
MAIN0
  6
BYBLOCK
 62
0
100
AcDbBlockReference
  2
_OPEN
 10
166.4642682630714
 20
238.7895825640185
 30
0.0000000000000000
 41
2.000000000000000
 42
2.000000000000000
 43
2.000000000000000
 50
270.0000000000000
  0
MTEXT
  5
2B4
100
AcDbEntity
  8
MAIN0
  6
BYBLOCK
 62
0
100
AcDbMText
 10
164.4142683107552
 20
261.2895825640171
 30
0.0000000000000000
 40
3.099999904632568
 41
0.0000000000000000
 71
     5
 72
     1
  1
\A1;\U+220545
 11
6.123233995736766e-017
 21
1.000000000000000
 31
0.0000000000000000
  7
STANDARD
  0
ENDBLK
  5
2B5
100
AcDbEntity
  8
MAIN0
  6
CONTINUOUS
 62
3
100
AcDbBlockEnd
  0
BLOCK
  5
2BA
100
AcDbEntity
  8
MAIN0
  6
CONTINUOUS
 62
3
100
AcDbBlockBegin
  2
*D9
 70
    65
 10
0.0
 20
0.0
 30
0.0
  0
LINE
  5
2BB
100
AcDbEntity
  8
MAIN0
  6
BYBLOCK
 62
0
100
AcDbLine
 10
170.7518388439359
 20
275.4718860257756
 30
0.0000000000000000
 11
143.5518388440833
 21
275.4718860257756
 31
0.0000000000000000
  0
INSERT
  5
2BC
100
AcDbEntity
  8
MAIN0
  6
BYBLOCK
 62
0
100
AcDbBlockReference
  2
_OPEN
 10
172.7518388439359
 20
275.4718860257756
 30
0.0000000000000000
 41
2.000000000000000
 42
2.000000000000000
 43
2.000000000000000
 50
360.0000000000000
  0
INSERT
  5
2BD
100
AcDbEntity
  8
MAIN0
  6
BYBLOCK
 62
0
100
AcDbBlockReference
  2
_OPEN
 10
141.5518388440833
 20
275.4718860257756
 30
0.0000000000000000
 41
2.000000000000000
 42
2.000000000000000
 43
2.000000000000000
 50
180.0000000000000
  0
MTEXT
  5
2BE
100
AcDbEntity
  8
MAIN0
  6
BYBLOCK
 62
0
100
AcDbMText
 10
154.6582079472424
 20
277.5218859780919
 30
0.0000000000000000
 40
3.099999904632568
 41
0.0000000000000000
 71
     5
 72
     1
  1
\A1;31.2
 11
1.000000000000000
 21
0.0000000000000000
 31
0.0000000000000000
  7
STANDARD
  0
ENDBLK
  5
2BF
100
AcDbEntity
  8
MAIN0
  6
CONTINUOUS
 62
3
100
AcDbBlockEnd
  0
BLOCK
  5
2C1
100
AcDbEntity
  8
MAIN0
  6
CONTINUOUS
 62
3
100
AcDbBlockBegin
  2
D10
 70
    64
 10
0.0
 20
0.0
 30
0.0
  0
LINE
  5
2C2
100
AcDbEntity
  8
MAIN0
  6
BYBLOCK
 62
0
100
AcDbLine
 10
66.42533364211258
 20
3.034484977748207
 30
0.0000000000000000
 11
66.42533364211326
 21
77.00000000000273
 31
0.0000000000000000
  0
LINE
  5
2C3
100
AcDbEntity
  8
MAIN0
  6
BYBLOCK
 62
0
100
AcDbLine
 10
65.82533361827139
 20
75.00000000000273
 30
0.0000000000000000
 11
66.42533364211326
 21
77.00000000000273
 31
0.0000000000000000
  0
LINE
  5
2C4
100
AcDbEntity
  8
MAIN0
  6
BYBLOCK
 62
0
100
AcDbLine
 10
66.42533364211326
 20
77.00000000000273
 30
0.0000000000000000
 11
67.02533366595510
 21
75.00000000000273
 31
0.0000000000000000
  0
LINE
  5
2C5
100
AcDbEntity
  8
MAIN0
  6
BYBLOCK
 62
0
100
AcDbLine
 10
40.32558980933951
 20
76.99999999999977
 30
0.0000000000000000
 11
68.42533364211326
 21
77.00000000000296
 31
0.0000000000000000
  0
MTEXT
  5
2C6
100
AcDbEntity
  8
MAIN0
  6
BYBLOCK
 62
0
100
AcDbMText
 10
64.37533368979652
 20
28.25232438997125
 30
0.0000000000000000
 40
3.099999904632568
 41
0.0000000000000000
 71
     5
 72
     1
  1
\A1;\U+2205154H6
 11
6.123233995736766e-017
 21
1.000000000000000
 31
0.0000000000000000
  7
STANDARD
  0
ENDBLK
  5
2C7
100
AcDbEntity
  8
MAIN0
  6
CONTINUOUS
 62
3
100
AcDbBlockEnd
  0
BLOCK
  5
2C9
100
AcDbEntity
  8
MAIN0
  6
CONTINUOUS
 62
3
100
AcDbBlockBegin
  2
*D11
 70
    65
 10
0.0
 20
0.0
 30
0.0
  0
LINE
  5
2CA
100
AcDbEntity
  8
MAIN0
  6
BYBLOCK
 62
0
100
AcDbLine
 10
234.0518388558567
 20
338.2895825640167
 30
0.0000000000000000
 11
252.0000000000000
 21
338.2895825640167
 31
0.0000000000000000
  0
LINE
  5
2CB
100
AcDbEntity
  8
MAIN0
  6
BYBLOCK
 62
0
100
AcDbLine
 10
250.0000000000000
 20
336.2895825640167
 30
0.0000000000000000
 11
250.0000000000000
 21
265.7895825641984
 31
0.0000000000000000
  0
INSERT
  5
2CC
100
AcDbEntity
  8
MAIN0
  6
BYBLOCK
 62
0
100
AcDbBlockReference
  2
_OPEN
 10
250.0000000000000
 20
338.2895825640167
 30
0.0000000000000000
 41
2.000000000000000
 42
2.000000000000000
 43
2.000000000000000
 50
90.00000000000000
  0
INSERT
  5
2CD
100
AcDbEntity
  8
MAIN0
  6
BYBLOCK
 62
0
100
AcDbBlockReference
  2
_OPEN
 10
250.0000000000000
 20
263.7895825641984
 30
0.0000000000000000
 41
2.000000000000000
 42
2.000000000000000
 43
2.000000000000000
 50
270.0000000000000
  0
LINE
  5
2CE
100
AcDbEntity
  8
MAIN0
  6
BYBLOCK
 62
0
100
AcDbLine
 10
234.0518388558567
 20
263.7895825641984
 30
0.0000000000000000
 11
252.0000000000000
 21
263.7895825641984
 31
0.0000000000000000
  0
MTEXT
  5
2CF
100
AcDbEntity
  8
MAIN0
  6
BYBLOCK
 62
0
100
AcDbMText
 10
247.9500000476837
 20
301.0395825641076
 30
0.0000000000000000
 40
3.099999904632568
 41
0.0000000000000000
 71
     5
 72
     1
  1
\A1;74.5
 11
6.123233995736766e-017
 21
1.000000000000000
 31
0.0000000000000000
  7
STANDARD
  0
ENDBLK
  5
2D0
100
AcDbEntity
  8
MAIN0
  6
CONTINUOUS
 62
3
100
AcDbBlockEnd
  0
BLOCK
  5
2D2
100
AcDbEntity
  8
MAIN0
  6
CONTINUOUS
 62
3
100
AcDbBlockBegin
  2
*D12
 70
    65
 10
0.0
 20
0.0
 30
0.0
  0
LINE
  5
2D3
100
AcDbEntity
  8
MAIN0
  6
BYBLOCK
 62
0
100
AcDbLine
 10
234.0518388558567
 20
338.2895825640171
 30
0.0000000000000000
 11
242.0000000000000
 21
338.2895825640212
 31
0.0000000000000000
  0
LINE
  5
2D4
100
AcDbEntity
  8
MAIN0
  6
BYBLOCK
 62
0
100
AcDbLine
 10
240.0000000000000
 20
336.2895825640201
 30
0.0000000000000000
 11
240.0000000000000
 21
319.7895825641984
 31
0.0000000000000000
  0
INSERT
  5
2D5
100
AcDbEntity
  8
MAIN0
  6
BYBLOCK
 62
0
100
AcDbBlockReference
  2
_OPEN
 10
240.0000000000000
 20
338.2895825640201
 30
0.0000000000000000
 41
2.000000000000000
 42
2.000000000000000
 43
2.000000000000000
 50
90.00000000000000
  0
INSERT
  5
2D6
100
AcDbEntity
  8
MAIN0
  6
BYBLOCK
 62
0
100
AcDbBlockReference
  2
_OPEN
 10
240.0000000000000
 20
317.7895825641984
 30
0.0000000000000000
 41
2.000000000000000
 42
2.000000000000000
 43
2.000000000000000
 50
270.0000000000000
  0
MTEXT
  5
2D7
100
AcDbEntity
  8
MAIN0
  6
BYBLOCK
 62
0
100
AcDbMText
 10
237.9500000476837
 20
328.0395825641093
 30
0.0000000000000000
 40
3.099999904632568
 41
0.0000000000000000
 71
     5
 72
     1
  1
\A1;20.5
 11
6.123233995736766e-017
 21
1.000000000000000
 31
0.0000000000000000
  7
STANDARD
  0
ENDBLK
  5
2D8
100
AcDbEntity
  8
MAIN0
  6
CONTINUOUS
 62
3
100
AcDbBlockEnd
  0
BLOCK
  5
2DA
100
AcDbEntity
  8
MAIN0
  6
CONTINUOUS
 62
3
100
AcDbBlockBegin
  2
*D13
 70
    65
 10
0.0
 20
0.0
 30
0.0
  0
LINE
  5
2DB
100
AcDbEntity
  8
MAIN0
  6
BYBLOCK
 62
0
100
AcDbLine
 10
65.55183883200078
 20
385.2895825640182
 30
0.0000000000000000
 11
39.59754252544479
 21
385.2895825640182
 31
0.0000000000000000
  0
LINE
  5
2DC
100
AcDbEntity
  8
MAIN0
  6
BYBLOCK
 62
0
100
AcDbLine
 10
41.59754252544479
 20
383.2895825640182
 30
0.0000000000000000
 11
41.59754252544479
 21
139.2895825640181
 31
0.0000000000000000
  0
INSERT
  5
2DD
100
AcDbEntity
  8
MAIN0
  6
BYBLOCK
 62
0
100
AcDbBlockReference
  2
_OPEN
 10
41.59754252544479
 20
385.2895825640182
 30
0.0000000000000000
 41
2.000000000000000
 42
2.000000000000000
 43
2.000000000000000
 50
90.00000000000000
  0
INSERT
  5
2DE
100
AcDbEntity
  8
MAIN0
  6
BYBLOCK
 62
0
100
AcDbBlockReference
  2
_OPEN
 10
41.59754252544479
 20
137.2895825640181
 30
0.0000000000000000
 41
2.000000000000000
 42
2.000000000000000
 43
2.000000000000000
 50
270.0000000000000
  0
LINE
  5
2DF
100
AcDbEntity
  8
MAIN0
  6
BYBLOCK
 62
0
100
AcDbLine
 10
65.55183883200078
 20
137.2895825640181
 30
0.0000000000000000
 11
39.59754252544479
 21
137.2895825640181
 31
0.0000000000000000
  0
MTEXT
  5
2E0
100
AcDbEntity
  8
MAIN0
  6
BYBLOCK
 62
0
100
AcDbMText
 10
39.54754257312851
 20
261.2895824932376
 30
0.0000000000000000
 40
3.099999904632568
 41
0.0000000000000000
 71
     5
 72
     1
  1
\A1;\U+2205248h7
 11
6.123233995736766e-017
 21
1.000000000000000
 31
0.0000000000000000
  7
STANDARD
  0
ENDBLK
  5
2E1
100
AcDbEntity
  8
MAIN0
  6
CONTINUOUS
 62
3
100
AcDbBlockEnd
  0
BLOCK
  5
2E3
100
AcDbEntity
  8
MAIN0
  6
CONTINUOUS
 62
3
100
AcDbBlockBegin
  2
*D14
 70
    65
 10
0.0
 20
0.0
 30
0.0
  0
LINE
  5
2E4
100
AcDbEntity
  8
MAIN0
  6
BYBLOCK
 62
0
100
AcDbLine
 10
65.75183884392185
 20
137.0895825520973
 30
0.0000000000000000
 11
65.75183884392185
 21
112.7659445799845
 31
0.0000000000000000
  0
LINE
  5
2E5
100
AcDbEntity
  8
MAIN0
  6
BYBLOCK
 62
0
100
AcDbLine
 10
67.75183884392185
 20
114.7659445799845
 30
0.0000000000000000
 11
78.75183884392190
 21
114.7659445799845
 31
0.0000000000000000
  0
INSERT
  5
2E6
100
AcDbEntity
  8
MAIN0
  6
BYBLOCK
 62
0
100
AcDbBlockReference
  2
_OPEN
 10
65.75183884392185
 20
114.7659445799845
 30
0.0000000000000000
 41
2.000000000000000
 42
2.000000000000000
 43
2.000000000000000
 50
180.0000000000000
  0
INSERT
  5
2E7
100
AcDbEntity
  8
MAIN0
  6
BYBLOCK
 62
0
100
AcDbBlockReference
  2
_OPEN
 10
80.75183884392190
 20
114.7659445799845
 30
0.0000000000000000
 41
2.000000000000000
 42
2.000000000000000
 43
2.000000000000000
 50
0.0000000000000000
  0
LINE
  5
2E8
100
AcDbEntity
  8
MAIN0
  6
BYBLOCK
 62
0
100
AcDbLine
 10
80.75183884392190
 20
134.9895825520971
 30
0.0000000000000000
 11
80.75183884392190
 21
112.7659445799845
 31
0.0000000000000000
  0
MTEXT
  5
2E9
100
AcDbEntity
  8
MAIN0
  6
BYBLOCK
 62
0
100
AcDbMText
 10
73.25183884392187
 20
116.8159445323008
 30
0.0000000000000000
 40
3.099999904632568
 41
0.0000000000000000
 71
     5
 72
     1
  1
\A1;15
 11
1.000000000000000
 21
0.0000000000000000
 31
0.0000000000000000
  7
STANDARD
  0
ENDBLK
  5
2EA
100
AcDbEntity
  8
MAIN0
  6
CONTINUOUS
 62
3
100
AcDbBlockEnd
  0
BLOCK
  5
2EC
100
AcDbEntity
  8
MAIN0
  6
CONTINUOUS
 62
3
100
AcDbBlockBegin
  2
*D15
 70
    65
 10
0.0
 20
0.0
 30
0.0
  0
LINE
  5
2ED
100
AcDbEntity
  8
MAIN0
  6
BYBLOCK
 62
0
100
AcDbLine
 10
80.75183884392190
 20
134.9895825520971
 30
0.0000000000000000
 11
80.75183884392190
 21
112.7659445799845
 31
0.0000000000000000
  0
LINE
  5
2EE
100
AcDbEntity
  8
MAIN0
  6
BYBLOCK
 62
0
100
AcDbLine
 10
82.75183884392190
 20
114.7659445799845
 30
0.0000000000000000
 11
108.7518242725048
 21
114.7659445799845
 31
0.0000000000000000
  0
INSERT
  5
2EF
100
AcDbEntity
  8
MAIN0
  6
BYBLOCK
 62
0
100
AcDbBlockReference
  2
_OPEN
 10
80.75183884392190
 20
114.7659445799845
 30
0.0000000000000000
 41
2.000000000000000
 42
2.000000000000000
 43
2.000000000000000
 50
180.0000000000000
  0
INSERT
  5
2F0
100
AcDbEntity
  8
MAIN0
  6
BYBLOCK
 62
0
100
AcDbBlockReference
  2
_OPEN
 10
110.7518242725048
 20
114.7659445799845
 30
0.0000000000000000
 41
2.000000000000000
 42
2.000000000000000
 43
2.000000000000000
 50
0.0000000000000000
  0
LINE
  5
2F1
100
AcDbEntity
  8
MAIN0
  6
BYBLOCK
 62
0
100
AcDbLine
 10
110.7518242725048
 20
134.9895825520968
 30
0.0000000000000000
 11
110.7518242725048
 21
112.7659445799845
 31
0.0000000000000000
  0
MTEXT
  5
2F2
100
AcDbEntity
  8
MAIN0
  6
BYBLOCK
 62
0
100
AcDbMText
 10
95.75183155821335
 20
116.8159445323008
 30
0.0000000000000000
 40
3.099999904632568
 41
0.0000000000000000
 71
     5
 72
     1
  1
\A1;30
 11
1.000000000000000
 21
0.0000000000000000
 31
0.0000000000000000
  7
STANDARD
  0
ENDBLK
  5
2F3
100
AcDbEntity
  8
MAIN0
  6
CONTINUOUS
 62
3
100
AcDbBlockEnd
  0
BLOCK
  5
2F5
100
AcDbEntity
  8
MAIN0
  6
CONTINUOUS
 62
3
100
AcDbBlockBegin
  2
*D16
 70
    65
 10
0.0
 20
0.0
 30
0.0
  0
LINE
  5
2F6
100
AcDbEntity
  8
MAIN0
  6
BYBLOCK
 62
0
100
AcDbLine
 10
65.75183884392185
 20
137.0895825520973
 30
0.0000000000000000
 11
65.75183884392185
 21
130.6529686039105
 31
0.0000000000000000
  0
LINE
  5
2F7
100
AcDbEntity
  8
MAIN0
  6
BYBLOCK
 62
0
100
AcDbLine
 10
67.75183884392185
 20
132.6529686039105
 30
0.0000000000000000
 11
182.2518388439358
 21
132.6529686039105
 31
0.0000000000000000
  0
INSERT
  5
2F8
100
AcDbEntity
  8
MAIN0
  6
BYBLOCK
 62
0
100
AcDbBlockReference
  2
_OPEN
 10
65.75183884392185
 20
132.6529686039105
 30
0.0000000000000000
 41
2.000000000000000
 42
2.000000000000000
 43
2.000000000000000
 50
180.0000000000000
  0
INSERT
  5
2F9
100
AcDbEntity
  8
MAIN0
  6
BYBLOCK
 62
0
100
AcDbBlockReference
  2
_OPEN
 10
184.2518388439358
 20
132.6529686039105
 30
0.0000000000000000
 41
2.000000000000000
 42
2.000000000000000
 43
2.000000000000000
 50
0.0000000000000000
  0
LINE
  5
2FA
100
AcDbEntity
  8
MAIN0
  6
BYBLOCK
 62
0
100
AcDbLine
 10
184.2518388439358
 20
155.4564188251807
 30
0.0000000000000000
 11
184.2518388439358
 21
130.6529686039105
 31
0.0000000000000000
  0
MTEXT
  5
2FB
100
AcDbEntity
  8
MAIN0
  6
BYBLOCK
 62
0
100
AcDbMText
 10
132.0751553780354
 20
134.7029685562268
 30
0.0000000000000000
 40
3.099999904632568
 41
0.0000000000000000
 71
     5
 72
     1
  1
\A1;118.5
 11
1.000000000000000
 21
0.0000000000000000
 31
0.0000000000000000
  7
STANDARD
  0
ENDBLK
  5
2FC
100
AcDbEntity
  8
MAIN0
  6
CONTINUOUS
 62
3
100
AcDbBlockEnd
  0
BLOCK
  5
306
100
AcDbEntity
  8
MAIN0
  6
CONTINUOUS
 62
3
100
AcDbBlockBegin
  2
*D17
 70
    65
 10
0.0
 20
0.0
 30
0.0
  0
LINE
  5
307
100
AcDbEntity
  8
MAIN0
  6
BYBLOCK
 62
0
100
AcDbLine
 10
512.1451254307796
 20
173.8962959768864
 30
0.0000000000000000
 11
522.1278088524850
 21
163.9136125551484
 31
0.0000000000000000
  0
LINE
  5
308
100
AcDbEntity
  8
MAIN0
  6
BYBLOCK
 62
0
100
AcDbLine
 10
531.8554316107945
 20
199.4532944491194
 30
0.0000000000000000
 11
544.0125587089948
 21
192.4343738464180
 31
0.0000000000000000
  0
ARC
  5
309
100
AcDbEntity
  8
MAIN0
  6
BYBLOCK
 62
0
100
AcDbCircle
 10
424.7518388437552
 20
261.2895825641947
 30
0.0000000000000000
 40
135.7104174358053
100
AcDbArc
 50
315.8443829234240
 51
329.1556170765435
  0
INSERT
  5
30A
100
AcDbEntity
  8
MAIN0
  6
BYBLOCK
 62
0
100
AcDbBlockReference
  2
_OPEN
 10
520.7135952901143
 20
165.3278261175238
 30
0.0000000000000000
 41
2.000000000000000
 42
2.000000000000000
 43
2.000000000000000
 50
224.9999999999070
  0
INSERT
  5
30B
100
AcDbEntity
  8
MAIN0
  6
BYBLOCK
 62
0
100
AcDbBlockReference
  2
_OPEN
 10
542.2805079014249
 20
193.4343738464162
 30
0.0000000000000000
 41
2.000000000000000
 42
2.000000000000000
 43
2.000000000000000
 50
60.00000000006054
  0
MTEXT
  5
30C
100
AcDbEntity
  8
MAIN0
  6
BYBLOCK
 62
0
100
AcDbMText
 10
530.7917775189791
 20
179.9222758150136
 30
0.0000000000000000
 40
3.099999904632568
 41
0.0000000000000000
 71
     5
 72
     1
  1
\A1;15\U+00B0
 11
0.6087614290089463
 21
0.7933533402910621
 31
0.0000000000000000
  7
STANDARD
  0
ENDBLK
  5
30D
100
AcDbEntity
  8
MAIN0
  6
CONTINUOUS
 62
3
100
AcDbBlockEnd
  0
BLOCK
  5
30F
100
AcDbEntity
  8
MAIN0
  6
CONTINUOUS
 62
3
100
AcDbBlockBegin
  2
*D18
 70
    65
 10
0.0
 20
0.0
 30
0.0
  0
LINE
  5
310
100
AcDbEntity
  8
MAIN0
  6
BYBLOCK
 62
0
100
AcDbLine
 10
531.8554316107945
 20
199.4532944491194
 30
0.0000000000000000
 11
544.0125587089948
 21
192.4343738464180
 31
0.0000000000000000
  0
LINE
  5
311
100
AcDbEntity
  8
MAIN0
  6
BYBLOCK
 62
0
100
AcDbLine
 10
556.7991976129271
 20
261.2895825640474
 30
0.0000000000000000
 11
562.4622562795605
 21
261.2895825642751
 31
0.0000000000000000
  0
ARC
  5
312
100
AcDbEntity
  8
MAIN0
  6
BYBLOCK
 62
0
100
AcDbCircle
 10
424.7518388437552
 20
261.2895825641947
 30
0.0000000000000000
 40
135.7104174358053
100
AcDbArc
 50
330.8443829235776
 51
359.1556170764829
  0
INSERT
  5
313
100
AcDbEntity
  8
MAIN0
  6
BYBLOCK
 62
0
100
AcDbBlockReference
  2
_OPEN
 10
542.2805079014249
 20
193.4343738464162
 30
0.0000000000000000
 41
2.000000000000000
 42
2.000000000000000
 43
2.000000000000000
 50
240.0000000000605
  0
INSERT
  5
314
100
AcDbEntity
  8
MAIN0
  6
BYBLOCK
 62
0
100
AcDbBlockReference
  2
_OPEN
 10
560.4622562795605
 20
261.2895825641946
 30
0.0000000000000000
 41
2.000000000000000
 42
2.000000000000000
 43
2.000000000000000
 50
90.00000000000000
  0
MTEXT
  5
315
100
AcDbEntity
  8
MAIN0
  6
BYBLOCK
 62
0
100
AcDbMText
 10
553.8578880619738
 20
226.6957210115506
 30
0.0000000000000000
 40
3.099999904632568
 41
0.0000000000000000
 71
     5
 72
     1
  1
\A1;30\U+00B0\H0.903226x;\U+00B10.2\U+00B0
 11
0.2588190451020109
 21
0.9659258262892049
 31
0.0000000000000000
  7
STANDARD
  0
ENDBLK
  5
316
100
AcDbEntity
  8
MAIN0
  6
CONTINUOUS
 62
3
100
AcDbBlockEnd
  0
BLOCK
  5
318
100
AcDbEntity
  8
MAIN0
  6
CONTINUOUS
 62
3
100
AcDbBlockBegin
  2
*D19
 70
    65
 10
0.0
 20
0.0
 30
0.0
  0
LINE
  5
319
100
AcDbEntity
  8
MAIN0
  6
BYBLOCK
 62
0
100
AcDbLine
 10
556.7991976129271
 20
261.2895825640474
 30
0.0000000000000000
 11
562.4622562795605
 21
261.2895825642751
 31
0.0000000000000000
  0
LINE
  5
31A
100
AcDbEntity
  8
MAIN0
  6
BYBLOCK
 62
0
100
AcDbLine
 10
512.3971054598517
 20
348.9348491802145
 30
0.0000000000000000
 11
522.1278088526859
 21
358.6655525730404
 31
0.0000000000000000
  0
ARC
  5
31B
100
AcDbEntity
  8
MAIN0
  6
BYBLOCK
 62
0
100
AcDbCircle
 10
424.7518388437552
 20
261.2895825641947
 30
0.0000000000000000
 40
135.7104174358053
100
AcDbArc
 50
0.8443829235170508
 51
44.15561707645794
  0
INSERT
  5
31C
100
AcDbEntity
  8
MAIN0
  6
BYBLOCK
 62
0
100
AcDbBlockReference
  2
_OPEN
 10
560.4622562795605
 20
261.2895825641947
 30
0.0000000000000000
 41
2.000000000000000
 42
2.000000000000000
 43
2.000000000000000
 50
270.0000000000000
  0
INSERT
  5
31D
100
AcDbEntity
  8
MAIN0
  6
BYBLOCK
 62
0
100
AcDbBlockReference
  2
_OPEN
 10
520.7135952903121
 20
357.2513390106678
 30
0.0000000000000000
 41
2.000000000000000
 42
2.000000000000000
 43
2.000000000000000
 50
134.9999999999750
  0
MTEXT
  5
31E
100
AcDbEntity
  8
MAIN0
  6
BYBLOCK
 62
0
100
AcDbMText
 10
548.2379628636757
 20
312.4392098981002
 30
0.0000000000000000
 40
3.099999904632568
 41
0.0000000000000000
 71
     5
 72
     1
  1
\A1;45\U+00B0
 11
-0.3826834323648881
 21
0.9238795325113703
 31
0.0000000000000000
  7
STANDARD
  0
ENDBLK
  5
31F
100
AcDbEntity
  8
MAIN0
  6
CONTINUOUS
 62
3
100
AcDbBlockEnd
  0
BLOCK
  5
321
100
AcDbEntity
  8
MAIN0
  6
CONTINUOUS
 62
3
100
AcDbBlockBegin
  2
*D20
 70
    65
 10
0.0
 20
0.0
 30
0.0
  0
LINE
  5
322
100
AcDbEntity
  8
MAIN0
  6
BYBLOCK
 62
0
100
AcDbLine
 10
512.3971054598517
 20
348.9348491802145
 30
0.0000000000000000
 11
522.1278088526859
 21
358.6655525730404
 31
0.0000000000000000
  0
LINE
  5
323
100
AcDbEntity
  8
MAIN0
  6
BYBLOCK
 62
0
100
AcDbLine
 10
486.4878579120860
 20
368.2195042472415
 30
0.0000000000000000
 11
493.6070475618236
 21
380.5503024292659
 31
0.0000000000000000
  0
ARC
  5
324
100
AcDbEntity
  8
MAIN0
  6
BYBLOCK
 62
0
100
AcDbCircle
 10
424.7518388437552
 20
261.2895825641947
 30
0.0000000000000000
 40
135.7104174358053
100
AcDbArc
 50
45.84438292349203
 51
59.15561707640335
  0
INSERT
  5
325
100
AcDbEntity
  8
MAIN0
  6
BYBLOCK
 62
0
100
AcDbBlockReference
  2
_OPEN
 10
520.7135952903121
 20
357.2513390106678
 30
0.0000000000000000
 41
2.000000000000000
 42
2.000000000000000
 43
2.000000000000000
 50
314.9999999999750
  0
INSERT
  5
326
100
AcDbEntity
  8
MAIN0
  6
BYBLOCK
 62
0
100
AcDbBlockReference
  2
_OPEN
 10
492.6070475618212
 20
378.8182516216984
 30
0.0000000000000000
 41
2.000000000000000
 42
2.000000000000000
 43
2.000000000000000
 50
149.9999999999204
  0
MTEXT
  5
327
100
AcDbEntity
  8
MAIN0
  6
BYBLOCK
 62
0
100
AcDbMText
 10
500.7618902074784
 20
376.1825966713790
 30
0.0000000000000000
 40
3.099999904632568
 41
0.0000000000000000
 71
     5
 72
     1
  1
\A1;15\U+00B0
 11
0.8340059959566500
 21
-0.5517553794104378
 31
0.0000000000000000
  7
STANDARD
  0
ENDBLK
  5
328
100
AcDbEntity
  8
MAIN0
  6
CONTINUOUS
 62
3
100
AcDbBlockEnd
  0
BLOCK
  5
32A
100
AcDbEntity
  8
MAIN0
  6
CONTINUOUS
 62
3
100
AcDbBlockBegin
  2
*D21
 70
    65
 10
0.0
 20
0.0
 30
0.0
  0
LINE
  5
32B
100
AcDbEntity
  8
MAIN0
  6
BYBLOCK
 62
0
100
AcDbLine
 10
486.4878579120860
 20
368.2195042472415
 30
0.0000000000000000
 11
493.6070475618236
 21
380.5503024292659
 31
0.0000000000000000
  0
LINE
  5
32C
100
AcDbEntity
  8
MAIN0
  6
BYBLOCK
 62
0
100
AcDbLine
 10
424.7518388439359
 20
393.5878083739915
 30
0.0000000000000000
 11
424.7518388439434
 21
399.0000000000000
 31
0.0000000000000000
  0
ARC
  5
32D
100
AcDbEntity
  8
MAIN0
  6
BYBLOCK
 62
0
100
AcDbCircle
 10
424.7518388437552
 20
261.2895825641947
 30
0.0000000000000000
 40
135.7104174358053
100
AcDbArc
 50
60.84438292343744
 51
89.15561707640467
  0
INSERT
  5
32E
100
AcDbEntity
  8
MAIN0
  6
BYBLOCK
 62
0
100
AcDbBlockReference
  2
_OPEN
 10
492.6070475618212
 20
378.8182516216984
 30
0.0000000000000000
 41
2.000000000000000
 42
2.000000000000000
 43
2.000000000000000
 50
329.9999999999204
  0
INSERT
  5
32F
100
AcDbEntity
  8
MAIN0
  6
BYBLOCK
 62
0
100
AcDbBlockReference
  2
_OPEN
 10
424.7518388439406
 20
397.0000000000000
 30
0.0000000000000000
 41
2.000000000000000
 42
2.000000000000000
 43
2.000000000000000
 50
179.9999999999218
  0
MTEXT
  5
330
100
AcDbEntity
  8
MAIN0
  6
BYBLOCK
 62
0
100
AcDbMText
 10
460.4068585252569
 20
394.3559275596938
 30
0.0000000000000000
 40
3.099999904632568
 41
0.0000000000000000
 71
     5
 72
     1
  1
\A1;30\U+00B0
 11
0.9659258262887115
 21
-0.2588190451038522
 31
0.0000000000000000
  7
STANDARD
  0
ENDBLK
  5
331
100
AcDbEntity
  8
MAIN0
  6
CONTINUOUS
 62
3
100
AcDbBlockEnd
  0
BLOCK
  5
335
100
AcDbEntity
  8
MAIN0
  6
CONTINUOUS
 62
3
100
AcDbBlockBegin
  2
*D22
 70
    65
 10
0.0
 20
0.0
 30
0.0
  0
LINE
  5
336
100
AcDbEntity
  8
MAIN0
  6
BYBLOCK
 62
0
100
AcDbLine
 10
528.7452534064728
 20
198.3457181061667
 30
0.0000000000000000
 11
555.9387420471602
 21
164.7045642581999
 31
0.0000000000000000
  0
INSERT
  5
337
100
AcDbEntity
  8
MAIN0
  6
BYBLOCK
 62
0
100
AcDbBlockReference
  2
_OPEN
 10
527.4879696558340
 20
199.9011079513116
 30
0.0000000000000000
 41
2.000000000000000
 42
2.000000000000000
 43
2.000000000000000
 50
128.9499934872821
  0
LINE
  5
338
100
AcDbEntity
  8
MAIN0
  6
BYBLOCK
 62
0
100
AcDbLine
 10
555.9387420471602
 20
164.7045642581999
 30
0.0000000000000000
 11
573.1387420575910
 21
164.7045642581999
 31
0.0000000000000000
  0
MTEXT
  5
339
100
AcDbEntity
  8
MAIN0
  6
BYBLOCK
 62
0
100
AcDbMText
 10
564.5387420523756
 20
166.7545642105162
 30
0.0000000000000000
 40
3.099999904632568
 41
0.0000000000000000
 71
     5
 72
     1
  1
\A1;2-\U+220510H7
 11
1.000000000000000
 21
0.0000000000000000
 31
0.0000000000000000
  7
STANDARD
  0
ENDBLK
  5
33A
100
AcDbEntity
  8
MAIN0
  6
CONTINUOUS
 62
3
100
AcDbBlockEnd
  0
BLOCK
  5
33C
100
AcDbEntity
  8
MAIN0
  6
CONTINUOUS
 62
3
100
AcDbBlockBegin
  2
*D23
 70
    65
 10
0.0
 20
0.0
 30
0.0
  0
LINE
  5
33D
100
AcDbEntity
  8
MAIN0
  6
BYBLOCK
 62
0
100
AcDbLine
 10
513.0060708659735
 20
345.4579489256054
 30
0.0000000000000000
 11
542.9596399295401
 21
357.7688622556367
 31
0.0000000000000000
  0
INSERT
  5
33E
100
AcDbEntity
  8
MAIN0
  6
BYBLOCK
 62
0
100
AcDbBlockReference
  2
_OPEN
 10
511.1562169497821
 20
344.6976591856041
 30
0.0000000000000000
 41
2.000000000000000
 42
2.000000000000000
 43
2.000000000000000
 50
202.3426565258793
  0
LINE
  5
33F
100
AcDbEntity
  8
MAIN0
  6
BYBLOCK
 62
0
100
AcDbLine
 10
542.9596399295401
 20
357.7688622556367
 30
0.0000000000000000
 11
555.9596399369907
 21
357.7688622556367
 31
0.0000000000000000
  0
MTEXT
  5
340
100
AcDbEntity
  8
MAIN0
  6
BYBLOCK
 62
0
100
AcDbMText
 10
549.4596399332654
 20
359.8188622079530
 30
0.0000000000000000
 40
3.099999904632568
 41
0.0000000000000000
 71
     5
 72
     1
  1
\A1;4-\U+220511
 11
1.000000000000000
 21
0.0000000000000000
 31
0.0000000000000000
  7
STANDARD
  0
ENDBLK
  5
341
100
AcDbEntity
  8
MAIN0
  6
CONTINUOUS
 62
3
100
AcDbBlockEnd
  0
BLOCK
  5
343
100
AcDbEntity
  8
MAIN0
  6
CONTINUOUS
 62
3
100
AcDbBlockBegin
  2
*D24
 70
    65
 10
0.0
 20
0.0
 30
0.0
  0
LINE
  5
344
100
AcDbEntity
  8
MAIN0
  6
BYBLOCK
 62
0
100
AcDbLine
 10
401.2518388439351
 20
130.1363176680027
 30
0.0000000000000000
 11
401.2518388439351
 21
120.5224413098444
 31
0.0000000000000000
  0
LINE
  5
345
100
AcDbEntity
  8
MAIN0
  6
BYBLOCK
 62
0
100
AcDbLine
 10
403.2518388439351
 20
122.5224413098444
 30
0.0000000000000000
 11
422.7518388439349
 21
122.5224413098444
 31
0.0000000000000000
  0
INSERT
  5
346
100
AcDbEntity
  8
MAIN0
  6
BYBLOCK
 62
0
100
AcDbBlockReference
  2
_OPEN
 10
401.2518388439351
 20
122.5224413098444
 30
0.0000000000000000
 41
2.000000000000000
 42
2.000000000000000
 43
2.000000000000000
 50
180.0000000000000
  0
INSERT
  5
347
100
AcDbEntity
  8
MAIN0
  6
BYBLOCK
 62
0
100
AcDbBlockReference
  2
_OPEN
 10
424.7518388439349
 20
122.5224413098444
 30
0.0000000000000000
 41
2.000000000000000
 42
2.000000000000000
 43
2.000000000000000
 50
0.0000000000000000
  0
LINE
  5
348
100
AcDbEntity
  8
MAIN0
  6
BYBLOCK
 62
0
100
AcDbLine
 10
424.7518388439349
 20
133.1998871780276
 30
0.0000000000000000
 11
424.7518388439349
 21
120.5224413098444
 31
0.0000000000000000
  0
MTEXT
  5
349
100
AcDbEntity
  8
MAIN0
  6
BYBLOCK
 62
0
100
AcDbMText
 10
413.0018388439351
 20
124.5724412621607
 30
0.0000000000000000
 40
3.099999904632568
 41
0.0000000000000000
 71
     5
 72
     1
  1
\A1;23.5
 11
1.000000000000000
 21
0.0000000000000000
 31
0.0000000000000000
  7
STANDARD
  0
ENDBLK
  5
34A
100
AcDbEntity
  8
MAIN0
  6
CONTINUOUS
 62
3
100
AcDbBlockEnd
  0
BLOCK
  5
34C
100
AcDbEntity
  8
MAIN0
  6
CONTINUOUS
 62
3
100
AcDbBlockBegin
  2
*D25
 70
    65
 10
0.0
 20
0.0
 30
0.0
  0
LINE
  5
34D
100
AcDbEntity
  8
MAIN0
  6
BYBLOCK
 62
0
100
AcDbLine
 10
424.7518388439349
 20
133.1998871780276
 30
0.0000000000000000
 11
424.7518388439349
 21
120.5224413098444
 31
0.0000000000000000
  0
LINE
  5
34E
100
AcDbEntity
  8
MAIN0
  6
BYBLOCK
 62
0
100
AcDbLine
 10
426.7518388439349
 20
122.5224413098444
 30
0.0000000000000000
 11
446.2518388439348
 21
122.5224413098444
 31
0.0000000000000000
  0
INSERT
  5
34F
100
AcDbEntity
  8
MAIN0
  6
BYBLOCK
 62
0
100
AcDbBlockReference
  2
_OPEN
 10
424.7518388439349
 20
122.5224413098444
 30
0.0000000000000000
 41
2.000000000000000
 42
2.000000000000000
 43
2.000000000000000
 50
180.0000000000000
  0
INSERT
  5
350
100
AcDbEntity
  8
MAIN0
  6
BYBLOCK
 62
0
100
AcDbBlockReference
  2
_OPEN
 10
448.2518388439348
 20
122.5224413098444
 30
0.0000000000000000
 41
2.000000000000000
 42
2.000000000000000
 43
2.000000000000000
 50
0.0000000000000000
  0
LINE
  5
351
100
AcDbEntity
  8
MAIN0
  6
BYBLOCK
 62
0
100
AcDbLine
 10
448.2518388439348
 20
130.1363176680027
 30
0.0000000000000000
 11
448.2518388439348
 21
120.5224413098444
 31
0.0000000000000000
  0
MTEXT
  5
352
100
AcDbEntity
  8
MAIN0
  6
BYBLOCK
 62
0
100
AcDbMText
 10
436.5018388439348
 20
124.5724412621607
 30
0.0000000000000000
 40
3.099999904632568
 41
0.0000000000000000
 71
     5
 72
     1
  1
\A1;23.5
 11
1.000000000000000
 21
0.0000000000000000
 31
0.0000000000000000
  7
STANDARD
  0
ENDBLK
  5
353
100
AcDbEntity
  8
MAIN0
  6
CONTINUOUS
 62
3
100
AcDbBlockEnd
  0
BLOCK
  5
358
100
AcDbEntity
  8
MAIN0
  6
CONTINUOUS
 62
3
100
AcDbBlockBegin
  2
*D26
 70
    65
 10
0.0
 20
0.0
 30
0.0
  0
LINE
  5
359
100
AcDbEntity
  8
MAIN0
  6
BYBLOCK
 62
0
100
AcDbLine
 10
424.7518388439348
 20
261.2895825640147
 30
0.0000000000000000
 11
393.5529592461036
 21
189.8009127495607
 31
0.0000000000000000
  0
INSERT
  5
35A
100
AcDbEntity
  8
MAIN0
  6
BYBLOCK
 62
0
100
AcDbBlockReference
  2
_OPEN
 10
392.7529879743643
 20
187.9678699338055
 30
0.0000000000000000
 41
2.000000000000000
 42
2.000000000000000
 43
2.000000000000000
 50
246.4227194897605
  0
MTEXT
  5
35B
100
AcDbEntity
  8
MAIN0
  6
BYBLOCK
 62
0
100
AcDbMText
 10
396.5240395732427
 20
201.7339879618392
 30
0.0000000000000000
 40
3.099999904632568
 41
0.0000000000000000
 71
     5
 72
     1
  1
\A1;Ｒ80
 11
0.3999856358696320
 21
0.9165214078776154
 31
0.0000000000000000
  7
KNJYOKO
  0
ENDBLK
  5
35C
100
AcDbEntity
  8
MAIN0
  6
CONTINUOUS
 62
3
100
AcDbBlockEnd
  0
BLOCK
  5
363
100
AcDbEntity
  8
MAIN0
  6
CONTINUOUS
 62
3
100
AcDbBlockBegin
  2
*D27
 70
    65
 10
0.0
 20
0.0
 30
0.0
  0
LINE
  5
364
100
AcDbEntity
  8
MAIN0
  6
BYBLOCK
 62
0
100
AcDbLine
 10
383.9518388320140
 20
135.7895825640154
 30
0.0000000000000000
 11
290.9619593397428
 21
135.7895825640154
 31
0.0000000000000000
  0
LINE
  5
365
100
AcDbEntity
  8
MAIN0
  6
BYBLOCK
 62
0
100
AcDbLine
 10
292.9619593397428
 20
137.7895825640154
 30
0.0000000000000000
 11
292.9619593397428
 21
259.2895825640153
 31
0.0000000000000000
  0
INSERT
  5
366
100
AcDbEntity
  8
MAIN0
  6
BYBLOCK
 62
0
100
AcDbBlockReference
  2
_OPEN
 10
292.9619593397428
 20
135.7895825640154
 30
0.0000000000000000
 41
2.000000000000000
 42
2.000000000000000
 43
2.000000000000000
 50
270.0000000000000
  0
INSERT
  5
367
100
AcDbEntity
  8
MAIN0
  6
BYBLOCK
 62
0
100
AcDbBlockReference
  2
_OPEN
 10
292.9619593397428
 20
261.2895825640153
 30
0.0000000000000000
 41
2.000000000000000
 42
2.000000000000000
 43
2.000000000000000
 50
90.00000000000000
  0
MTEXT
  5
368
100
AcDbEntity
  8
MAIN0
  6
BYBLOCK
 62
0
100
AcDbMText
 10
290.9119593874265
 20
198.5395825640153
 30
0.0000000000000000
 40
3.099999904632568
 41
0.0000000000000000
 71
     5
 72
     1
  1
\A1;125.5
 11
6.123233995736766e-017
 21
1.000000000000000
 31
0.0000000000000000
  7
STANDARD
  0
ENDBLK
  5
369
100
AcDbEntity
  8
MAIN0
  6
CONTINUOUS
 62
3
100
AcDbBlockEnd
  0
BLOCK
  5
36B
100
AcDbEntity
  8
MAIN0
  6
CONTINUOUS
 62
3
100
AcDbBlockBegin
  2
*D28
 70
    65
 10
0.0
 20
0.0
 30
0.0
  0
LINE
  5
36C
100
AcDbEntity
  8
MAIN0
  6
BYBLOCK
 62
0
100
AcDbLine
 10
65.75183884392185
 20
137.0895825520973
 30
0.0000000000000000
 11
65.75183884392185
 21
120.3135274736405
 31
0.0000000000000000
  0
LINE
  5
36D
100
AcDbEntity
  8
MAIN0
  6
BYBLOCK
 62
0
100
AcDbLine
 10
67.75183884392185
 20
122.3135274736405
 30
0.0000000000000000
 11
93.75182427250451
 21
122.3135274736405
 31
0.0000000000000000
  0
INSERT
  5
36E
100
AcDbEntity
  8
MAIN0
  6
BYBLOCK
 62
0
100
AcDbBlockReference
  2
_OPEN
 10
65.75183884392185
 20
122.3135274736405
 30
0.0000000000000000
 41
2.000000000000000
 42
2.000000000000000
 43
2.000000000000000
 50
180.0000000000000
  0
INSERT
  5
36F
100
AcDbEntity
  8
MAIN0
  6
BYBLOCK
 62
0
100
AcDbBlockReference
  2
_OPEN
 10
95.75182427250451
 20
122.3135274736405
 30
0.0000000000000000
 41
2.000000000000000
 42
2.000000000000000
 43
2.000000000000000
 50
0.0000000000000000
  0
LINE
  5
370
100
AcDbEntity
  8
MAIN0
  6
BYBLOCK
 62
0
100
AcDbLine
 10
95.75182427250451
 20
131.4898425489922
 30
0.0000000000000000
 11
95.75182427250451
 21
120.3135274736405
 31
0.0000000000000000
  0
MTEXT
  5
371
100
AcDbEntity
  8
MAIN0
  6
BYBLOCK
 62
0
100
AcDbMText
 10
87.60418870648363
 20
124.3635274259568
 30
0.0000000000000000
 40
3.099999904632568
 41
0.0000000000000000
 71
     5
 72
     1
  1
\A1;30
 11
1.000000000000000
 21
0.0000000000000000
 31
0.0000000000000000
  7
STANDARD
  0
ENDBLK
  5
372
100
AcDbEntity
  8
MAIN0
  6
CONTINUOUS
 62
3
100
AcDbBlockEnd
  0
BLOCK
  5
391
100
AcDbEntity
  8
MAIN0
  6
CONTINUOUS
 62
3
100
AcDbBlockBegin
  2
*D29
 70
    65
 10
0.0
 20
0.0
 30
0.0
  0
LINE
  5
392
100
AcDbEntity
  8
MAIN0
  6
BYBLOCK
 62
0
100
AcDbLine
 10
183.5518388560520
 20
288.7895825640180
 30
0.0000000000000000
 11
202.0000000000000
 21
288.7895825640179
 31
0.0000000000000000
  0
LINE
  5
393
100
AcDbEntity
  8
MAIN0
  6
BYBLOCK
 62
0
100
AcDbLine
 10
200.0000000000000
 20
286.7895825640179
 30
0.0000000000000000
 11
200.0000000000000
 21
235.7895825640183
 31
0.0000000000000000
  0
INSERT
  5
394
100
AcDbEntity
  8
MAIN0
  6
BYBLOCK
 62
0
100
AcDbBlockReference
  2
_OPEN
 10
200.0000000000000
 20
288.7895825640179
 30
0.0000000000000000
 41
2.000000000000000
 42
2.000000000000000
 43
2.000000000000000
 50
90.00000000000000
  0
INSERT
  5
395
100
AcDbEntity
  8
MAIN0
  6
BYBLOCK
 62
0
100
AcDbBlockReference
  2
_OPEN
 10
200.0000000000000
 20
233.7895825640183
 30
0.0000000000000000
 41
2.000000000000000
 42
2.000000000000000
 43
2.000000000000000
 50
270.0000000000000
  0
LINE
  5
396
100
AcDbEntity
  8
MAIN0
  6
BYBLOCK
 62
0
100
AcDbLine
 10
182.7624423688716
 20
233.7895825640183
 30
0.0000000000000000
 11
202.0000000000000
 21
233.7895825640183
 31
0.0000000000000000
  0
MTEXT
  5
397
100
AcDbEntity
  8
MAIN0
  6
BYBLOCK
 62
0
100
AcDbMText
 10
197.9500000476837
 20
248.6657669238064
 30
0.0000000000000000
 40
3.099999904632568
 41
0.0000000000000000
 71
     5
 72
     1
  1
\A1;\U+220555\H0.903226x;\S+0.01^  0   ;
 11
6.123233995736766e-017
 21
1.000000000000000
 31
0.0000000000000000
  7
STANDARD
  0
ENDBLK
  5
398
100
AcDbEntity
  8
MAIN0
  6
CONTINUOUS
 62
3
100
AcDbBlockEnd
  0
BLOCK
  5
39B
100
AcDbEntity
  8
MAIN0
  6
CONTINUOUS
 62
3
100
AcDbBlockBegin
  2
*D30
 70
    65
 10
0.0
 20
0.0
 30
0.0
  0
LINE
  5
39C
100
AcDbEntity
  8
MAIN0
  6
BYBLOCK
 62
0
100
AcDbLine
 10
117.3518388559055
 20
278.7895825640182
 30
0.0000000000000000
 11
127.4752072641115
 21
278.7895825640182
 31
0.0000000000000000
  0
LINE
  5
39D
100
AcDbEntity
  8
MAIN0
  6
BYBLOCK
 62
0
100
AcDbLine
 10
125.4752072641115
 20
276.7895825640182
 30
0.0000000000000000
 11
125.4752072641115
 21
245.7895825640177
 31
0.0000000000000000
  0
INSERT
  5
39E
100
AcDbEntity
  8
MAIN0
  6
BYBLOCK
 62
0
100
AcDbBlockReference
  2
_OPEN
 10
125.4752072641115
 20
278.7895825640182
 30
0.0000000000000000
 41
2.000000000000000
 42
2.000000000000000
 43
2.000000000000000
 50
90.00000000000000
  0
INSERT
  5
39F
100
AcDbEntity
  8
MAIN0
  6
BYBLOCK
 62
0
100
AcDbBlockReference
  2
_OPEN
 10
125.4752072641115
 20
243.7895825640177
 30
0.0000000000000000
 41
2.000000000000000
 42
2.000000000000000
 43
2.000000000000000
 50
270.0000000000000
  0
LINE
  5
3A0
100
AcDbEntity
  8
MAIN0
  6
BYBLOCK
 62
0
100
AcDbLine
 10
117.3518388559022
 20
243.7895825640177
 30
0.0000000000000000
 11
127.4752072641115
 21
243.7895825640177
 31
0.0000000000000000
  0
MTEXT
  5
3A1
100
AcDbEntity
  8
MAIN0
  6
BYBLOCK
 62
0
100
AcDbMText
 10
123.4252073117953
 20
261.2895825640180
 30
0.0000000000000000
 40
3.099999904632568
 41
0.0000000000000000
 71
     5
 72
     1
  1
\A1;\U+220535
 11
6.123233995736766e-017
 21
1.000000000000000
 31
0.0000000000000000
  7
STANDARD
  0
ENDBLK
  5
3A2
100
AcDbEntity
  8
MAIN0
  6
CONTINUOUS
 62
3
100
AcDbBlockEnd
  0
BLOCK
  5
3A4
100
AcDbEntity
  8
MAIN0
  6
CONTINUOUS
 62
3
100
AcDbBlockBegin
  2
*D31
 70
    65
 10
0.0
 20
0.0
 30
0.0
  0
LINE
  5
3A5
100
AcDbEntity
  8
MAIN0
  6
BYBLOCK
 62
0
100
AcDbLine
 10
170.7518388439359
 20
268.9182234991116
 30
0.0000000000000000
 11
118.5518388440833
 21
268.9182234991116
 31
0.0000000000000000
  0
INSERT
  5
3A6
100
AcDbEntity
  8
MAIN0
  6
BYBLOCK
 62
0
100
AcDbBlockReference
  2
_OPEN
 10
172.7518388439359
 20
268.9182234991116
 30
0.0000000000000000
 41
2.000000000000000
 42
2.000000000000000
 43
2.000000000000000
 50
360.0000000000000
  0
INSERT
  5
3A7
100
AcDbEntity
  8
MAIN0
  6
BYBLOCK
 62
0
100
AcDbBlockReference
  2
_OPEN
 10
116.5518388440833
 20
268.9182234991116
 30
0.0000000000000000
 41
2.000000000000000
 42
2.000000000000000
 43
2.000000000000000
 50
180.0000000000000
  0
MTEXT
  5
3A8
100
AcDbEntity
  8
MAIN0
  6
BYBLOCK
 62
0
100
AcDbMText
 10
154.7482155219361
 20
270.9682234514279
 30
0.0000000000000000
 40
3.099999904632568
 41
0.0000000000000000
 71
     5
 72
     1
  1
\A1;56.2
 11
1.000000000000000
 21
0.0000000000000000
 31
0.0000000000000000
  7
STANDARD
  0
ENDBLK
  5
3A9
100
AcDbEntity
  8
MAIN0
  6
CONTINUOUS
 62
3
100
AcDbBlockEnd
  0
BLOCK
  5
3AB
100
AcDbEntity
  8
MAIN0
  6
CONTINUOUS
 62
3
100
AcDbBlockBegin
  2
*D32
 70
    65
 10
0.0
 20
0.0
 30
0.0
  0
LINE
  5
3AC
100
AcDbEntity
  8
MAIN0
  6
BYBLOCK
 62
0
100
AcDbLine
 10
102.9978612635303
 20
269.2895825640175
 30
0.0000000000000000
 11
102.9978612635303
 21
253.2895825640177
 31
0.0000000000000000
  0
INSERT
  5
3AD
100
AcDbEntity
  8
MAIN0
  6
BYBLOCK
 62
0
100
AcDbBlockReference
  2
_OPEN
 10
102.9978612635303
 20
271.2895825640175
 30
0.0000000000000000
 41
2.000000000000000
 42
2.000000000000000
 43
2.000000000000000
 50
90.00000000000000
  0
INSERT
  5
3AE
100
AcDbEntity
  8
MAIN0
  6
BYBLOCK
 62
0
100
AcDbBlockReference
  2
_OPEN
 10
102.9978612635303
 20
251.2895825640177
 30
0.0000000000000000
 41
2.000000000000000
 42
2.000000000000000
 43
2.000000000000000
 50
270.0000000000000
  0
MTEXT
  5
3AF
100
AcDbEntity
  8
MAIN0
  6
BYBLOCK
 62
0
100
AcDbMText
 10
100.9478613112140
 20
261.2895825640176
 30
0.0000000000000000
 40
3.099999904632568
 41
0.0000000000000000
 71
     5
 72
     1
  1
\A1;\U+220520
 11
6.123233995736766e-017
 21
1.000000000000000
 31
0.0000000000000000
  7
STANDARD
  0
ENDBLK
  5
3B0
100
AcDbEntity
  8
MAIN0
  6
CONTINUOUS
 62
3
100
AcDbBlockEnd
  0
BLOCK
  5
3B2
100
AcDbEntity
  8
MAIN0
  6
CONTINUOUS
 62
3
100
AcDbBlockBegin
  2
*D33
 70
    65
 10
0.0
 20
0.0
 30
0.0
  0
LINE
  5
3B3
100
AcDbEntity
  8
MAIN0
  6
BYBLOCK
 62
0
100
AcDbLine
 10
184.2518388439358
 20
183.5324360946099
 30
0.0000000000000000
 11
183.2518388439359
 21
183.5324360946099
 31
0.0000000000000000
  0
INSERT
  5
3B4
100
AcDbEntity
  8
MAIN0
  6
BYBLOCK
 62
0
100
AcDbBlockReference
  2
_OPEN
 10
184.2518388439358
 20
183.5324360946099
 30
0.0000000000000000
 41
2.000000000000000
 42
2.000000000000000
 43
2.000000000000000
 50
180.0000000000000
  0
INSERT
  5
3B5
100
AcDbEntity
  8
MAIN0
  6
BYBLOCK
 62
0
100
AcDbBlockReference
  2
_OPEN
 10
183.2518388439359
 20
183.5324360946099
 30
0.0000000000000000
 41
2.000000000000000
 42
2.000000000000000
 43
2.000000000000000
 50
360.0000000000000
  0
LINE
  5
3B6
100
AcDbEntity
  8
MAIN0
  6
BYBLOCK
 62
0
100
AcDbLine
 10
186.2518388439358
 20
183.5324360946099
 30
0.0000000000000000
 11
187.2518388439358
 21
183.5324360946099
 31
0.0000000000000000
  0
LINE
  5
3B7
100
AcDbEntity
  8
MAIN0
  6
BYBLOCK
 62
0
100
AcDbLine
 10
181.2518388439359
 20
183.5324360946099
 30
0.0000000000000000
 11
179.0982329059781
 21
183.5324360946099
 31
0.0000000000000000
  0
LINE
  5
3B8
100
AcDbEntity
  8
MAIN0
  6
BYBLOCK
 62
0
100
AcDbLine
 10
183.2518388439359
 20
200.4895825521553
 30
0.0000000000000000
 11
183.2518388439359
 21
181.5324360946099
 31
0.0000000000000000
  0
MTEXT
  5
3B9
100
AcDbEntity
  8
MAIN0
  6
BYBLOCK
 62
0
100
AcDbMText
 10
180.1482330392531
 20
185.5824360469262
 30
0.0000000000000000
 40
3.099999904632568
 41
0.0000000000000000
 71
     5
 72
     1
  1
\A1;1
 11
1.000000000000000
 21
0.0000000000000000
 31
0.0000000000000000
  7
STANDARD
  0
ENDBLK
  5
3BA
100
AcDbEntity
  8
MAIN0
  6
CONTINUOUS
 62
3
100
AcDbBlockEnd
  0
BLOCK
  5
3BC
100
AcDbEntity
  8
MAIN0
  6
CONTINUOUS
 62
3
100
AcDbBlockBegin
  2
*D34
 70
    65
 10
0.0
 20
0.0
 30
0.0
  0
LINE
  5
3BD
100
AcDbEntity
  8
MAIN0
  6
BYBLOCK
 62
0
100
AcDbLine
 10
183.7518388439358
 20
205.4895825522172
 30
0.0000000000000000
 11
183.7518388439358
 21
187.3772705313826
 31
0.0000000000000000
  0
LINE
  5
3BE
100
AcDbEntity
  8
MAIN0
  6
BYBLOCK
 62
0
100
AcDbLine
 10
183.7518388439358
 20
189.3772705313826
 30
0.0000000000000000
 11
184.2518388439358
 21
189.3772705313826
 31
0.0000000000000000
  0
INSERT
  5
3BF
100
AcDbEntity
  8
MAIN0
  6
BYBLOCK
 62
0
100
AcDbBlockReference
  2
_OPEN
 10
183.7518388439358
 20
189.3772705313826
 30
0.0000000000000000
 41
2.000000000000000
 42
2.000000000000000
 43
2.000000000000000
 50
0.0000000000000000
  0
INSERT
  5
3C0
100
AcDbEntity
  8
MAIN0
  6
BYBLOCK
 62
0
100
AcDbBlockReference
  2
_OPEN
 10
184.2518388439358
 20
189.3772705313826
 30
0.0000000000000000
 41
2.000000000000000
 42
2.000000000000000
 43
2.000000000000000
 50
180.0000000000000
  0
LINE
  5
3C1
100
AcDbEntity
  8
MAIN0
  6
BYBLOCK
 62
0
100
AcDbLine
 10
181.7518388439358
 20
189.3772705313826
 30
0.0000000000000000
 11
180.7518388439358
 21
189.3772705313826
 31
0.0000000000000000
  0
LINE
  5
3C2
100
AcDbEntity
  8
MAIN0
  6
BYBLOCK
 62
0
100
AcDbLine
 10
186.2518388439358
 20
189.3772705313826
 30
0.0000000000000000
 11
191.9528090168179
 21
189.3772705313826
 31
0.0000000000000000
  0
MTEXT
  5
3C3
100
AcDbEntity
  8
MAIN0
  6
BYBLOCK
 62
0
100
AcDbMText
 10
189.3028090404629
 20
191.4272704836989
 30
0.0000000000000000
 40
3.099999904632568
 41
0.0000000000000000
 71
     5
 72
     1
  1
\A1;0.5
 11
1.000000000000000
 21
0.0000000000000000
 31
0.0000000000000000
  7
STANDARD
  0
ENDBLK
  5
3C4
100
AcDbEntity
  8
MAIN0
  6
CONTINUOUS
 62
3
100
AcDbBlockEnd
  0
BLOCK
  5
3C6
100
AcDbEntity
  8
MAIN0
  6
CONTINUOUS
 62
3
100
AcDbBlockBegin
  2
*D35
 70
    65
 10
0.0
 20
0.0
 30
0.0
  0
LINE
  5
3C7
100
AcDbEntity
  8
MAIN0
  6
BYBLOCK
 62
0
100
AcDbLine
 10
166.7518388439358
 20
210.4895825520962
 30
0.0000000000000000
 11
166.7518388439358
 21
193.8237824608325
 31
0.0000000000000000
  0
LINE
  5
3C8
100
AcDbEntity
  8
MAIN0
  6
BYBLOCK
 62
0
100
AcDbLine
 10
168.7518388439358
 20
195.8237824608325
 30
0.0000000000000000
 11
181.7518388439358
 21
195.8237824608325
 31
0.0000000000000000
  0
INSERT
  5
3C9
100
AcDbEntity
  8
MAIN0
  6
BYBLOCK
 62
0
100
AcDbBlockReference
  2
_OPEN
 10
166.7518388439358
 20
195.8237824608325
 30
0.0000000000000000
 41
2.000000000000000
 42
2.000000000000000
 43
2.000000000000000
 50
180.0000000000000
  0
INSERT
  5
3CA
100
AcDbEntity
  8
MAIN0
  6
BYBLOCK
 62
0
100
AcDbBlockReference
  2
_OPEN
 10
183.7518388439358
 20
195.8237824608325
 30
0.0000000000000000
 41
2.000000000000000
 42
2.000000000000000
 43
2.000000000000000
 50
0.0000000000000000
  0
LINE
  5
3CB
100
AcDbEntity
  8
MAIN0
  6
BYBLOCK
 62
0
100
AcDbLine
 10
183.7518388439358
 20
205.4895825522172
 30
0.0000000000000000
 11
183.7518388439358
 21
193.8237824608325
 31
0.0000000000000000
  0
MTEXT
  5
3CC
100
AcDbEntity
  8
MAIN0
  6
BYBLOCK
 62
0
100
AcDbMText
 10
175.2518388439358
 20
197.8737824131488
 30
0.0000000000000000
 40
3.099999904632568
 41
0.0000000000000000
 71
     5
 72
     1
  1
\A1;17
 11
1.000000000000000
 21
0.0000000000000000
 31
0.0000000000000000
  7
STANDARD
  0
ENDBLK
  5
3CD
100
AcDbEntity
  8
MAIN0
  6
CONTINUOUS
 62
3
100
AcDbBlockEnd
  0
BLOCK
  5
3D1
100
AcDbEntity
  8
MAIN0
  6
CONTINUOUS
 62
3
100
AcDbBlockBegin
  2
D36
 70
    64
 10
0.0
 20
0.0
 30
0.0
  0
LINE
  5
3D2
100
AcDbEntity
  8
MAIN0
  6
BYBLOCK
 62
0
100
AcDbLine
 10
16.27375095348310
 20
-17.83958412171157
 30
0.0000000000000000
 11
16.27375095348276
 21
-54.99999999987929
 31
0.0000000000000000
  0
LINE
  5
3D3
100
AcDbEntity
  8
MAIN0
  6
BYBLOCK
 62
0
100
AcDbLine
 10
16.87375097732464
 20
-52.99999999987919
 30
0.0000000000000000
 11
16.27375095348276
 21
-54.99999999987918
 31
0.0000000000000000
  0
LINE
  5
3D4
100
AcDbEntity
  8
MAIN0
  6
BYBLOCK
 62
0
100
AcDbLine
 10
16.27375095348276
 20
-54.99999999987918
 30
0.0000000000000000
 11
15.67375092964092
 21
-52.99999999987917
 31
0.0000000000000000
  0
LINE
  5
3D5
100
AcDbEntity
  8
MAIN0
  6
BYBLOCK
 62
0
100
AcDbLine
 10
-9.174410190661007
 20
-54.99999999987881
 30
0.0000000000000000
 11
18.27375095348276
 21
-54.99999999987921
 31
0.0000000000000000
  0
MTEXT
  5
3D6
100
AcDbEntity
  8
MAIN0
  6
BYBLOCK
 62
0
100
AcDbMText
 10
14.22375100116670
 20
-31.28958256401711
 30
0.0000000000000000
 40
3.099999904632568
 41
0.0000000000000000
 71
     5
 72
     1
  1
\A1;\U+2205110
 11
6.123233995736766e-017
 21
1.000000000000000
 31
0.0000000000000000
  7
STANDARD
  0
ENDBLK
  5
3D7
100
AcDbEntity
  8
MAIN0
  6
CONTINUOUS
 62
3
100
AcDbBlockEnd
  0
BLOCK
  5
3D9
100
AcDbEntity
  8
MAIN0
  6
CONTINUOUS
 62
3
100
AcDbBlockBegin
  2
D37
 70
    64
 10
0.0
 20
0.0
 30
0.0
  0
LINE
  5
3DA
100
AcDbEntity
  8
MAIN0
  6
BYBLOCK
 62
0
100
AcDbLine
 10
36.27375095348296
 20
-6.839582743688595
 30
0.0000000000000000
 11
36.27375095348256
 21
-59.99999999991908
 31
0.0000000000000000
  0
LINE
  5
3DB
100
AcDbEntity
  8
MAIN0
  6
BYBLOCK
 62
0
100
AcDbLine
 10
36.87375097732443
 20
-57.99999999991909
 30
0.0000000000000000
 11
36.27375095348256
 21
-59.99999999991908
 31
0.0000000000000000
  0
LINE
  5
3DC
100
AcDbEntity
  8
MAIN0
  6
BYBLOCK
 62
0
100
AcDbLine
 10
36.27375095348256
 20
-59.99999999991908
 30
0.0000000000000000
 11
35.67375092964072
 21
-57.99999999991908
 31
0.0000000000000000
  0
LINE
  5
3DD
100
AcDbEntity
  8
MAIN0
  6
BYBLOCK
 62
0
100
AcDbLine
 10
-8.674410190660353
 20
-59.99999999991869
 30
0.0000000000000000
 11
38.27375095348256
 21
-59.99999999991911
 31
0.0000000000000000
  0
MTEXT
  5
3DE
100
AcDbEntity
  8
MAIN0
  6
BYBLOCK
 62
0
100
AcDbMText
 10
34.22375100116665
 20
-11.28958256401691
 30
0.0000000000000000
 40
3.099999904632568
 41
0.0000000000000000
 71
     5
 72
     1
  1
\A1;\U+2205120
 11
6.123233995736766e-017
 21
1.000000000000000
 31
0.0000000000000000
  7
STANDARD
  0
ENDBLK
  5
3DF
100
AcDbEntity
  8
MAIN0
  6
CONTINUOUS
 62
3
100
AcDbBlockEnd
  0
BLOCK
  5
3E3
100
AcDbEntity
  8
MAIN0
  6
CONTINUOUS
 62
3
100
AcDbBlockBegin
  2
*D38
 70
    65
 10
0.0
 20
0.0
 30
0.0
  0
LINE
  5
3E4
100
AcDbEntity
  8
MAIN0
  6
BYBLOCK
 62
0
100
AcDbLine
 10
64.95183883200082
 20
188.2895825640177
 30
0.0000000000000000
 11
49.81635712114397
 21
188.2895825640177
 31
0.0000000000000000
  0
LINE
  5
3E5
100
AcDbEntity
  8
MAIN0
  6
BYBLOCK
 62
0
100
AcDbLine
 10
51.81635712114397
 20
186.2895825640177
 30
0.0000000000000000
 11
51.81635712114397
 21
176.2895825640177
 31
0.0000000000000000
  0
INSERT
  5
3E6
100
AcDbEntity
  8
MAIN0
  6
BYBLOCK
 62
0
100
AcDbBlockReference
  2
_OPEN
 10
51.81635712114397
 20
188.2895825640177
 30
0.0000000000000000
 41
2.000000000000000
 42
2.000000000000000
 43
2.000000000000000
 50
90.00000000000000
  0
INSERT
  5
3E7
100
AcDbEntity
  8
MAIN0
  6
BYBLOCK
 62
0
100
AcDbBlockReference
  2
_OPEN
 10
51.81635712114397
 20
174.2895825640177
 30
0.0000000000000000
 41
2.000000000000000
 42
2.000000000000000
 43
2.000000000000000
 50
270.0000000000000
  0
LINE
  5
3E8
100
AcDbEntity
  8
MAIN0
  6
BYBLOCK
 62
0
100
AcDbLine
 10
64.95183883200083
 20
174.2895825640177
 30
0.0000000000000000
 11
49.81635712114397
 21
174.2895825640177
 31
0.0000000000000000
  0
MTEXT
  5
3E9
100
AcDbEntity
  8
MAIN0
  6
BYBLOCK
 62
0
100
AcDbMText
 10
49.76635716882768
 20
181.2895825640177
 30
0.0000000000000000
 40
3.099999904632568
 41
0.0000000000000000
 71
     5
 72
     1
  1
\A1;\U+220514
 11
6.123233995736766e-017
 21
1.000000000000000
 31
0.0000000000000000
  7
STANDARD
  0
ENDBLK
  5
3EA
100
AcDbEntity
  8
MAIN0
  6
CONTINUOUS
 62
3
100
AcDbBlockEnd
  0
BLOCK
  5
3F0
100
AcDbEntity
  8
MAIN0
  6
CONTINUOUS
 62
3
100
AcDbBlockBegin
  2
*D39
 70
    65
 10
0.0
 20
0.0
 30
0.0
  0
LINE
  5
3F1
100
AcDbEntity
  8
MAIN0
  6
BYBLOCK
 62
0
100
AcDbLine
 10
409.2518388439351
 20
297.3123763766278
 30
0.0000000000000000
 11
440.2518388439348
 21
297.3123763766278
 31
0.0000000000000000
  0
INSERT
  5
3F2
100
AcDbEntity
  8
MAIN0
  6
BYBLOCK
 62
0
100
AcDbBlockReference
  2
_OPEN
 10
407.2518388439351
 20
297.3123763766278
 30
0.0000000000000000
 41
2.000000000000000
 42
2.000000000000000
 43
2.000000000000000
 50
180.0000000000000
  0
INSERT
  5
3F3
100
AcDbEntity
  8
MAIN0
  6
BYBLOCK
 62
0
100
AcDbBlockReference
  2
_OPEN
 10
442.2518388439348
 20
297.3123763766278
 30
0.0000000000000000
 41
2.000000000000000
 42
2.000000000000000
 43
2.000000000000000
 50
0.0000000000000000
  0
MTEXT
  5
3F4
100
AcDbEntity
  8
MAIN0
  6
BYBLOCK
 62
0
100
AcDbMText
 10
424.7518388439349
 20
299.3623763289441
 30
0.0000000000000000
 40
3.099999904632568
 41
0.0000000000000000
 71
     5
 72
     1
  1
\A1;35
 11
1.000000000000000
 21
0.0000000000000000
 31
0.0000000000000000
  7
STANDARD
  0
ENDBLK
  5
3F5
100
AcDbEntity
  8
MAIN0
  6
CONTINUOUS
 62
3
100
AcDbBlockEnd
  0
BLOCK
  5
3FE
100
AcDbEntity
  8
MAIN0
  6
CONTINUOUS
 62
3
100
AcDbBlockBegin
  2
*D40
 70
    65
 10
0.0
 20
0.0
 30
0.0
  0
LINE
  5
3FF
100
AcDbEntity
  8
MAIN0
  6
BYBLOCK
 62
0
100
AcDbLine
 10
181.7518388439359
 20
300.0131578414643
 30
0.0000000000000000
 11
116.2518388439220
 21
300.0131578414643
 31
0.0000000000000000
  0
INSERT
  5
400
100
AcDbEntity
  8
MAIN0
  6
BYBLOCK
 62
0
100
AcDbBlockReference
  2
_OPEN
 10
183.7518388439359
 20
300.0131578414643
 30
0.0000000000000000
 41
2.000000000000000
 42
2.000000000000000
 43
2.000000000000000
 50
360.0000000000000
  0
INSERT
  5
401
100
AcDbEntity
  8
MAIN0
  6
BYBLOCK
 62
0
100
AcDbBlockReference
  2
_OPEN
 10
114.2518388439220
 20
300.0131578414643
 30
0.0000000000000000
 41
2.000000000000000
 42
2.000000000000000
 43
2.000000000000000
 50
180.0000000000000
  0
LINE
  5
402
100
AcDbEntity
  8
MAIN0
  6
BYBLOCK
 62
0
100
AcDbLine
 10
114.2518388439220
 20
279.0122323067660
 30
0.0000000000000000
 11
114.2518388439220
 21
302.0131578414643
 31
0.0000000000000000
  0
MTEXT
  5
403
100
AcDbEntity
  8
MAIN0
  6
BYBLOCK
 62
0
100
AcDbMText
 10
149.0018388439289
 20
302.0631577937806
 30
0.0000000000000000
 40
3.099999904632568
 41
0.0000000000000000
 71
     5
 72
     1
  1
\A1;69.5
 11
1.000000000000000
 21
0.0000000000000000
 31
0.0000000000000000
  7
STANDARD
  0
ENDBLK
  5
404
100
AcDbEntity
  8
MAIN0
  6
CONTINUOUS
 62
3
100
AcDbBlockEnd
  0
BLOCK
  5
406
100
AcDbEntity
  8
MAIN0
  6
CONTINUOUS
 62
3
100
AcDbBlockBegin
  2
*D41
 70
    65
 10
0.0
 20
0.0
 30
0.0
  0
LINE
  5
407
100
AcDbEntity
  8
MAIN0
  6
BYBLOCK
 62
0
100
AcDbLine
 10
114.2518388439220
 20
279.0122323067660
 30
0.0000000000000000
 11
114.2518388439220
 21
302.0131578414643
 31
0.0000000000000000
  0
LINE
  5
408
100
AcDbEntity
  8
MAIN0
  6
BYBLOCK
 62
0
100
AcDbLine
 10
112.2518388439220
 20
300.0131578414643
 30
0.0000000000000000
 11
86.25183884383608
 21
300.0131578414643
 31
0.0000000000000000
  0
INSERT
  5
409
100
AcDbEntity
  8
MAIN0
  6
BYBLOCK
 62
0
100
AcDbBlockReference
  2
_OPEN
 10
114.2518388439220
 20
300.0131578414643
 30
0.0000000000000000
 41
2.000000000000000
 42
2.000000000000000
 43
2.000000000000000
 50
360.0000000000000
  0
INSERT
  5
40A
100
AcDbEntity
  8
MAIN0
  6
BYBLOCK
 62
0
100
AcDbBlockReference
  2
_OPEN
 10
84.25183884383608
 20
300.0131578414643
 30
0.0000000000000000
 41
2.000000000000000
 42
2.000000000000000
 43
2.000000000000000
 50
180.0000000000000
  0
LINE
  5
40B
100
AcDbEntity
  8
MAIN0
  6
BYBLOCK
 62
0
100
AcDbLine
 10
84.25183884383608
 20
272.0895825759387
 30
0.0000000000000000
 11
84.25183884383608
 21
302.0131578414643
 31
0.0000000000000000
  0
MTEXT
  5
40C
100
AcDbEntity
  8
MAIN0
  6
BYBLOCK
 62
0
100
AcDbMText
 10
99.25183884387903
 20
302.0631577937806
 30
0.0000000000000000
 40
3.099999904632568
 41
0.0000000000000000
 71
     5
 72
     1
  1
\A1;30
 11
1.000000000000000
 21
0.0000000000000000
 31
0.0000000000000000
  7
STANDARD
  0
ENDBLK
  5
40D
100
AcDbEntity
  8
MAIN0
  6
CONTINUOUS
 62
3
100
AcDbBlockEnd
  0
BLOCK
  5
416
100
AcDbEntity
  8
MAIN0
  6
CONTINUOUS
 62
3
100
AcDbBlockBegin
  2
*D42
 70
    65
 10
0.0
 20
0.0
 30
0.0
  0
LINE
  5
417
100
AcDbEntity
  8
MAIN0
  6
BYBLOCK
 62
0
100
AcDbLine
 10
386.7518388439349
 20
114.6705747366541
 30
0.0000000000000000
 11
462.7518388439348
 21
114.6705747366541
 31
0.0000000000000000
  0
INSERT
  5
418
100
AcDbEntity
  8
MAIN0
  6
BYBLOCK
 62
0
100
AcDbBlockReference
  2
_OPEN
 10
384.7518388439349
 20
114.6705747366541
 30
0.0000000000000000
 41
2.000000000000000
 42
2.000000000000000
 43
2.000000000000000
 50
180.0000000000000
  0
INSERT
  5
419
100
AcDbEntity
  8
MAIN0
  6
BYBLOCK
 62
0
100
AcDbBlockReference
  2
_OPEN
 10
464.7518388439348
 20
114.6705747366541
 30
0.0000000000000000
 41
2.000000000000000
 42
2.000000000000000
 43
2.000000000000000
 50
0.0000000000000000
  0
MTEXT
  5
41A
100
AcDbEntity
  8
MAIN0
  6
BYBLOCK
 62
0
100
AcDbMText
 10
424.7518388439348
 20
116.7205746889704
 30
0.0000000000000000
 40
3.099999904632568
 41
0.0000000000000000
 71
     5
 72
     1
  1
\A1;80
 11
1.000000000000000
 21
0.0000000000000000
 31
0.0000000000000000
  7
STANDARD
  0
ENDBLK
  5
41B
100
AcDbEntity
  8
MAIN0
  6
CONTINUOUS
 62
3
100
AcDbBlockEnd
  0
BLOCK
  5
41D
100
AcDbEntity
  8
MAIN0
  6
CONTINUOUS
 62
3
100
AcDbBlockBegin
  2
*D43
 70
    65
 10
0.0
 20
0.0
 30
0.0
  0
LINE
  5
41E
100
AcDbEntity
  8
MAIN0
  6
BYBLOCK
 62
0
100
AcDbLine
 10
290.6398967942367
 20
261.2895825640153
 30
0.0000000000000000
 11
280.8692997706952
 21
261.2895825640153
 31
0.0000000000000000
  0
LINE
  5
41F
100
AcDbEntity
  8
MAIN0
  6
BYBLOCK
 62
0
100
AcDbLine
 10
282.8692997706952
 20
259.2895825640153
 30
0.0000000000000000
 11
282.8692997706952
 21
102.7895825640154
 31
0.0000000000000000
  0
INSERT
  5
420
100
AcDbEntity
  8
MAIN0
  6
BYBLOCK
 62
0
100
AcDbBlockReference
  2
_OPEN
 10
282.8692997706952
 20
261.2895825640153
 30
0.0000000000000000
 41
2.000000000000000
 42
2.000000000000000
 43
2.000000000000000
 50
90.00000000000000
  0
INSERT
  5
421
100
AcDbEntity
  8
MAIN0
  6
BYBLOCK
 62
0
100
AcDbBlockReference
  2
_OPEN
 10
282.8692997706952
 20
100.7895825640154
 30
0.0000000000000000
 41
2.000000000000000
 42
2.000000000000000
 43
2.000000000000000
 50
270.0000000000000
  0
LINE
  5
422
100
AcDbEntity
  8
MAIN0
  6
BYBLOCK
 62
0
100
AcDbLine
 10
383.9518388320138
 20
100.7895825640154
 30
0.0000000000000000
 11
280.8692997706952
 21
100.7895825640154
 31
0.0000000000000000
  0
MTEXT
  5
423
100
AcDbEntity
  8
MAIN0
  6
BYBLOCK
 62
0
100
AcDbMText
 10
280.8192998183789
 20
181.0395825640153
 30
0.0000000000000000
 40
3.099999904632568
 41
0.0000000000000000
 71
     5
 72
     1
  1
\A1;（160.5）
 11
6.123233995736766e-017
 21
1.000000000000000
 31
0.0000000000000000
  7
KNJYOKO
  0
ENDBLK
  5
424
100
AcDbEntity
  8
MAIN0
  6
CONTINUOUS
 62
3
100
AcDbBlockEnd
  0
BLOCK
  5
426
100
AcDbEntity
  8
MAIN0
  6
CONTINUOUS
 62
3
100
AcDbBlockBegin
  2
*D44
 70
    65
 10
0.0
 20
0.0
 30
0.0
  0
LINE
  5
427
100
AcDbEntity
  8
MAIN0
  6
BYBLOCK
 62
0
100
AcDbLine
 10
204.2518388439357
 20
285.7244725535240
 30
0.0000000000000000
 11
231.2518388439357
 21
285.7244725535240
 31
0.0000000000000000
  0
INSERT
  5
428
100
AcDbEntity
  8
MAIN0
  6
BYBLOCK
 62
0
100
AcDbBlockReference
  2
_OPEN
 10
202.2518388439357
 20
285.7244725535240
 30
0.0000000000000000
 41
2.000000000000000
 42
2.000000000000000
 43
2.000000000000000
 50
180.0000000000000
  0
INSERT
  5
429
100
AcDbEntity
  8
MAIN0
  6
BYBLOCK
 62
0
100
AcDbBlockReference
  2
_OPEN
 10
233.2518388439357
 20
285.7244725535240
 30
0.0000000000000000
 41
2.000000000000000
 42
2.000000000000000
 43
2.000000000000000
 50
0.0000000000000000
  0
MTEXT
  5
42A
100
AcDbEntity
  8
MAIN0
  6
BYBLOCK
 62
0
100
AcDbMText
 10
217.7518388439357
 20
287.7744725058403
 30
0.0000000000000000
 40
3.099999904632568
 41
0.0000000000000000
 71
     5
 72
     1
  1
\A1;31
 11
1.000000000000000
 21
0.0000000000000000
 31
0.0000000000000000
  7
STANDARD
  0
ENDBLK
  5
42B
100
AcDbEntity
  8
MAIN0
  6
CONTINUOUS
 62
3
100
AcDbBlockEnd
  0
BLOCK
  5
43F
100
AcDbEntity
  8
MAIN0
  6
CONTINUOUS
 62
3
100
AcDbBlockBegin
  2
*D45
 70
    65
 10
0.0
 20
0.0
 30
0.0
  0
LINE
  5
440
100
AcDbEntity
  8
MAIN0
  6
BYBLOCK
 62
0
100
AcDbLine
 10
179.0518388558567
 20
156.2395825640170
 30
0.0000000000000000
 11
271.9671235375344
 21
156.2395825640170
 31
0.0000000000000000
  0
LINE
  5
441
100
AcDbEntity
  8
MAIN0
  6
BYBLOCK
 62
0
100
AcDbLine
 10
269.9671235375344
 20
158.2395825640170
 30
0.0000000000000000
 11
269.9671235375344
 21
364.3395825640174
 31
0.0000000000000000
  0
INSERT
  5
442
100
AcDbEntity
  8
MAIN0
  6
BYBLOCK
 62
0
100
AcDbBlockReference
  2
_OPEN
 10
269.9671235375344
 20
156.2395825640170
 30
0.0000000000000000
 41
2.000000000000000
 42
2.000000000000000
 43
2.000000000000000
 50
270.0000000000000
  0
INSERT
  5
443
100
AcDbEntity
  8
MAIN0
  6
BYBLOCK
 62
0
100
AcDbBlockReference
  2
_OPEN
 10
269.9671235375344
 20
366.3395825640174
 30
0.0000000000000000
 41
2.000000000000000
 42
2.000000000000000
 43
2.000000000000000
 50
90.00000000000000
  0
LINE
  5
444
100
AcDbEntity
  8
MAIN0
  6
BYBLOCK
 62
0
100
AcDbLine
 10
179.0518388558587
 20
366.3395825640173
 30
0.0000000000000000
 11
271.9671235375344
 21
366.3395825640174
 31
0.0000000000000000
  0
MTEXT
  5
445
100
AcDbEntity
  8
MAIN0
  6
BYBLOCK
 62
0
100
AcDbMText
 10
267.9171235852181
 20
261.2895825230390
 30
0.0000000000000000
 40
3.099999904632568
 41
0.0000000000000000
 71
     5
 72
     1
  1
\A1;\U+2205210.1\H0.903226x;\S 0^ -0.1;
 11
6.123233995736766e-017
 21
1.000000000000000
 31
0.0000000000000000
  7
STANDARD
  0
ENDBLK
  5
446
100
AcDbEntity
  8
MAIN0
  6
CONTINUOUS
 62
3
100
AcDbBlockEnd
  0
BLOCK
  5
448
100
AcDbEntity
  8
MAIN0
  6
CONTINUOUS
 62
3
100
AcDbBlockBegin
  2
*D46
 70
    65
 10
0.0
 20
0.0
 30
0.0
  0
LINE
  5
449
100
AcDbEntity
  8
MAIN0
  6
BYBLOCK
 62
0
100
AcDbLine
 10
64.95183883200073
 20
326.2895825640181
 30
0.0000000000000000
 11
49.81635712114397
 21
326.2895825640181
 31
0.0000000000000000
  0
LINE
  5
44A
100
AcDbEntity
  8
MAIN0
  6
BYBLOCK
 62
0
100
AcDbLine
 10
51.81635712114397
 20
324.2895825640181
 30
0.0000000000000000
 11
51.81635712114397
 21
198.2895825640181
 31
0.0000000000000000
  0
INSERT
  5
44B
100
AcDbEntity
  8
MAIN0
  6
BYBLOCK
 62
0
100
AcDbBlockReference
  2
_OPEN
 10
51.81635712114397
 20
326.2895825640181
 30
0.0000000000000000
 41
2.000000000000000
 42
2.000000000000000
 43
2.000000000000000
 50
90.00000000000000
  0
INSERT
  5
44C
100
AcDbEntity
  8
MAIN0
  6
BYBLOCK
 62
0
100
AcDbBlockReference
  2
_OPEN
 10
51.81635712114397
 20
196.2895825640181
 30
0.0000000000000000
 41
2.000000000000000
 42
2.000000000000000
 43
2.000000000000000
 50
270.0000000000000
  0
LINE
  5
44D
100
AcDbEntity
  8
MAIN0
  6
BYBLOCK
 62
0
100
AcDbLine
 10
64.95183883198884
 20
196.2895825640181
 30
0.0000000000000000
 11
49.81635712114397
 21
196.2895825640181
 31
0.0000000000000000
  0
MTEXT
  5
44E
100
AcDbEntity
  8
MAIN0
  6
BYBLOCK
 62
0
100
AcDbMText
 10
49.76635716882768
 20
261.2895825640181
 30
0.0000000000000000
 40
3.099999904632568
 41
0.0000000000000000
 71
     5
 72
     1
  1
\A1;\U+2205130
 11
6.123233995736766e-017
 21
1.000000000000000
 31
0.0000000000000000
  7
STANDARD
  0
ENDBLK
  5
44F
100
AcDbEntity
  8
MAIN0
  6
CONTINUOUS
 62
3
100
AcDbBlockEnd
  0
BLOCK
  5
451
100
AcDbEntity
  8
MAIN0
  6
CONTINUOUS
 62
3
100
AcDbBlockBegin
  2
*D47
 70
    65
 10
0.0
 20
0.0
 30
0.0
  0
LINE
  5
452
100
AcDbEntity
  8
MAIN0
  6
BYBLOCK
 62
0
100
AcDbLine
 10
65.75183884392182
 20
301.5260590352230
 30
0.0000000000000000
 11
66.25183884671191
 21
301.5260590352230
 31
0.0000000000000000
  0
INSERT
  5
453
100
AcDbEntity
  8
MAIN0
  6
BYBLOCK
 62
0
100
AcDbBlockReference
  2
_OPEN
 10
65.75183884392182
 20
301.5260590352230
 30
0.0000000000000000
 41
2.000000000000000
 42
2.000000000000000
 43
2.000000000000000
 50
0.0000000000000000
  0
INSERT
  5
454
100
AcDbEntity
  8
MAIN0
  6
BYBLOCK
 62
0
100
AcDbBlockReference
  2
_OPEN
 10
66.25183884671191
 20
301.5260590352230
 30
0.0000000000000000
 41
2.000000000000000
 42
2.000000000000000
 43
2.000000000000000
 50
180.0000000000000
  0
LINE
  5
455
100
AcDbEntity
  8
MAIN0
  6
BYBLOCK
 62
0
100
AcDbLine
 10
63.75183884392182
 20
301.5260590352230
 30
0.0000000000000000
 11
57.37840286980072
 21
301.5260590352230
 31
0.0000000000000000
  0
LINE
  5
456
100
AcDbEntity
  8
MAIN0
  6
BYBLOCK
 62
0
100
AcDbLine
 10
68.25183884671191
 20
301.5260590352230
 30
0.0000000000000000
 11
69.25183884671191
 21
301.5260590352230
 31
0.0000000000000000
  0
MTEXT
  5
457
100
AcDbEntity
  8
MAIN0
  6
BYBLOCK
 62
0
100
AcDbMText
 10
60.02840286537395
 20
303.5760589875393
 30
0.0000000000000000
 40
3.099999904632568
 41
0.0000000000000000
 71
     5
 72
     1
  1
\A1;0.5
 11
1.000000000000000
 21
0.0000000000000000
 31
0.0000000000000000
  7
STANDARD
  0
ENDBLK
  5
458
100
AcDbEntity
  8
MAIN0
  6
CONTINUOUS
 62
3
100
AcDbBlockEnd
  0
BLOCK
  5
46C
100
AcDbEntity
  8
MAIN0
  6
CONTINUOUS
 62
3
100
AcDbBlockBegin
  2
*D48
 70
    65
 10
0.0
 20
0.0
 30
0.0
  0
LINE
  5
46D
100
AcDbEntity
  8
MAIN0
  6
BYBLOCK
 62
0
100
AcDbLine
 10
424.7518388439349
 20
393.5878083739915
 30
0.0000000000000000
 11
424.7518388439349
 21
399.0000000000000
 31
0.0000000000000000
  0
LINE
  5
46E
100
AcDbEntity
  8
MAIN0
  6
BYBLOCK
 62
0
100
AcDbLine
 10
337.3021215446589
 20
348.7392998630120
 30
0.0000000000000000
 11
327.3758688347644
 21
358.6655525728749
 31
0.0000000000000000
  0
ARC
  5
46F
100
AcDbEntity
  8
MAIN0
  6
BYBLOCK
 62
0
100
AcDbCircle
 10
424.7518388439349
 20
261.2895825640147
 30
0.0000000000000000
 40
135.7104174359853
100
AcDbArc
 50
90.84438292351597
 51
134.1556170765754
  0
INSERT
  5
470
100
AcDbEntity
  8
MAIN0
  6
BYBLOCK
 62
0
100
AcDbBlockReference
  2
_OPEN
 10
424.7518388439349
 20
397.0000000000000
 30
0.0000000000000000
 41
2.000000000000000
 42
2.000000000000000
 43
2.000000000000000
 50
360.0000000000000
  0
INSERT
  5
471
100
AcDbEntity
  8
MAIN0
  6
BYBLOCK
 62
0
100
AcDbBlockReference
  2
_OPEN
 10
328.7900823971398
 20
357.2513390105041
 30
0.0000000000000000
 41
2.000000000000000
 42
2.000000000000000
 43
2.000000000000000
 50
225.0000000000913
  0
MTEXT
  5
472
100
AcDbEntity
  8
MAIN0
  6
BYBLOCK
 62
0
100
AcDbMText
 10
372.0332094736308
 20
388.5636125792365
 30
0.0000000000000000
 40
3.099999904632568
 41
0.0000000000000000
 71
     5
 72
     1
  1
\A1;45\U+00B0
 11
0.9238795325109818
 21
0.3826834323658260
 31
0.0000000000000000
  7
STANDARD
  0
ENDBLK
  5
473
100
AcDbEntity
  8
MAIN0
  6
CONTINUOUS
 62
3
100
AcDbBlockEnd
  0
BLOCK
  5
475
100
AcDbEntity
  8
MAIN0
  6
CONTINUOUS
 62
3
100
AcDbBlockBegin
  2
*D49
 70
    65
 10
0.0
 20
0.0
 30
0.0
  0
LINE
  5
476
100
AcDbEntity
  8
MAIN0
  6
BYBLOCK
 62
0
100
AcDbLine
 10
529.8962590459066
 20
219.8933158194019
 30
0.0000000000000000
 11
319.6074186419629
 21
302.6858493086287
 31
0.0000000000000000
  0
INSERT
  5
477
100
AcDbEntity
  8
MAIN0
  6
BYBLOCK
 62
0
100
AcDbBlockReference
  2
_OPEN
 10
531.7572222353221
 20
219.1606385318866
 30
0.0000000000000000
 41
2.000000000000000
 42
2.000000000000000
 43
2.000000000000000
 50
338.5100116309075
  0
INSERT
  5
478
100
AcDbEntity
  8
MAIN0
  6
BYBLOCK
 62
0
100
AcDbBlockReference
  2
_OPEN
 10
317.7464554525475
 20
303.4185265961440
 30
0.0000000000000000
 41
2.000000000000000
 42
2.000000000000000
 43
2.000000000000000
 50
158.5100116309075
  0
LINE
  5
479
100
AcDbEntity
  8
MAIN0
  6
BYBLOCK
 62
0
100
AcDbLine
 10
531.7572222353221
 20
219.1606385318866
 30
0.0000000000000000
 11
572.2599739218559
 21
203.2143552247373
 31
0.0000000000000000
  0
MTEXT
  5
47A
100
AcDbEntity
  8
MAIN0
  6
BYBLOCK
 62
0
100
AcDbMText
 10
565.9160473817390
 20
207.9151740501702
 30
0.0000000000000000
 40
3.099999904632568
 41
0.0000000000000000
 71
     5
 72
     1
  1
\A1;\U+2205230\H0.903226x;\U+00B10.2
 11
0.9304815947077150
 21
-0.3663386437576408
 31
0.0000000000000000
  7
STANDARD
  0
ENDBLK
  5
47B
100
AcDbEntity
  8
MAIN0
  6
CONTINUOUS
 62
3
100
AcDbBlockEnd
  0
BLOCK
  5
47D
100
AcDbEntity
  8
MAIN0
  6
CONTINUOUS
 62
3
100
AcDbBlockBegin
  2
*D50
 70
    65
 10
0.0
 20
0.0
 30
0.0
  0
LINE
  5
47E
100
AcDbEntity
  8
MAIN0
  6
BYBLOCK
 62
0
100
AcDbLine
 10
499.0833437076713
 20
346.4002598301039
 30
0.0000000000000000
 11
350.4203339801982
 21
176.1789052979266
 31
0.0000000000000000
  0
INSERT
  5
47F
100
AcDbEntity
  8
MAIN0
  6
BYBLOCK
 62
0
100
AcDbBlockReference
  2
_OPEN
 10
500.3989455636666
 20
347.9066434985302
 30
0.0000000000000000
 41
2.000000000000000
 42
2.000000000000000
 43
2.000000000000000
 50
48.86762607144078
  0
INSERT
  5
480
100
AcDbEntity
  8
MAIN0
  6
BYBLOCK
 62
0
100
AcDbBlockReference
  2
_OPEN
 10
349.1047321242029
 20
174.6725216295002
 30
0.0000000000000000
 41
2.000000000000000
 42
2.000000000000000
 43
2.000000000000000
 50
228.8676260714408
  0
MTEXT
  5
481
100
AcDbEntity
  8
MAIN0
  6
BYBLOCK
 62
0
100
AcDbMText
 10
475.9907572120980
 20
323.0753495510699
 30
0.0000000000000000
 40
3.099999904632568
 41
0.0000000000000000
 71
     5
 72
     1
  1
\A1;\U+2205230\H0.903226x;\U+00B10.2
 11
0.6578009279976687
 21
0.7531918342131744
 31
0.0000000000000000
  7
STANDARD
  0
ENDBLK
  5
482
100
AcDbEntity
  8
MAIN0
  6
CONTINUOUS
 62
3
100
AcDbBlockEnd
  0
BLOCK
  5
484
100
AcDbEntity
  8
MAIN0
  6
CONTINUOUS
 62
3
100
AcDbBlockBegin
  2
*D51
 70
    65
 10
0.0
 20
0.0
 30
0.0
  0
LINE
  5
485
100
AcDbEntity
  8
MAIN0
  6
BYBLOCK
 62
0
100
AcDbLine
 10
470.0890304682649
 20
265.1352366850722
 30
0.0000000000000000
 11
379.4146472196054
 21
257.4439284429586
 31
0.0000000000000000
  0
INSERT
  5
486
100
AcDbEntity
  8
MAIN0
  6
BYBLOCK
 62
0
100
AcDbBlockReference
  2
_OPEN
 10
472.0818740561475
 20
265.3042764266571
 30
0.0000000000000000
 41
2.000000000000000
 42
2.000000000000000
 43
2.000000000000000
 50
4.848416139398807
  0
INSERT
  5
487
100
AcDbEntity
  8
MAIN0
  6
BYBLOCK
 62
0
100
AcDbBlockReference
  2
_OPEN
 10
377.4218036317228
 20
257.2748887013737
 30
0.0000000000000000
 41
2.000000000000000
 42
2.000000000000000
 43
2.000000000000000
 50
184.8484161393988
  0
LINE
  5
488
100
AcDbEntity
  8
MAIN0
  6
BYBLOCK
 62
0
100
AcDbLine
 10
472.0818740561475
 20
265.3042764266571
 30
0.0000000000000000
 11
500.9373208408483
 21
267.7518931375027
 31
0.0000000000000000
  0
MTEXT
  5
489
100
AcDbEntity
  8
MAIN0
  6
BYBLOCK
 62
0
100
AcDbMText
 10
494.2125809016576
 20
269.2388395396709
 30
0.0000000000000000
 40
3.099999904632568
 41
0.0000000000000000
 71
     5
 72
     1
  1
\A1;\U+220595\H0.903226x;\U+00B10.2
 11
0.9964217939413140
 21
0.08451987079245646
 31
0.0000000000000000
  7
STANDARD
  0
ENDBLK
  5
48A
100
AcDbEntity
  8
MAIN0
  6
CONTINUOUS
 62
3
100
AcDbBlockEnd
  0
BLOCK
  5
48C
100
AcDbEntity
  8
MAIN0
  6
CONTINUOUS
 62
3
100
AcDbBlockBegin
  2
*D52
 70
    65
 10
0.0
 20
0.0
 30
0.0
  0
LINE
  5
48D
100
AcDbEntity
  8
MAIN0
  6
BYBLOCK
 62
0
100
AcDbLine
 10
456.9334107346110
 20
270.5953028824679
 30
0.0000000000000000
 11
392.5702669532588
 21
251.9838622455642
 31
0.0000000000000000
  0
INSERT
  5
48E
100
AcDbEntity
  8
MAIN0
  6
BYBLOCK
 62
0
100
AcDbBlockReference
  2
_OPEN
 10
458.8546986086812
 20
271.1508682746143
 30
0.0000000000000000
 41
2.000000000000000
 42
2.000000000000000
 43
2.000000000000000
 50
16.12791355531385
  0
INSERT
  5
48F
100
AcDbEntity
  8
MAIN0
  6
BYBLOCK
 62
0
100
AcDbBlockReference
  2
_OPEN
 10
390.6489790791886
 20
251.4282968534178
 30
0.0000000000000000
 41
2.000000000000000
 42
2.000000000000000
 43
2.000000000000000
 50
196.1279135553139
  0
MTEXT
  5
490
100
AcDbEntity
  8
MAIN0
  6
BYBLOCK
 62
0
100
AcDbMText
 10
443.5785739356945
 20
268.8675632327214
 30
0.0000000000000000
 40
3.099999904632568
 41
0.0000000000000000
 71
     5
 72
     1
  1
\A1;\U+220571\H0.903226x;\U+00B10.2
 11
0.9606439370351068
 21
0.2777826960731892
 31
0.0000000000000000
  7
STANDARD
  0
ENDBLK
  5
491
100
AcDbEntity
  8
MAIN0
  6
CONTINUOUS
 62
3
100
AcDbBlockEnd
  0
BLOCK
  5
4AD
100
AcDbEntity
  8
MAIN0
  6
CONTINUOUS
 62
3
100
AcDbBlockBegin
  2
*D53
 70
    65
 10
0.0
 20
0.0
 30
0.0
  0
LINE
  5
4AE
100
AcDbEntity
  8
MAIN0
  6
BYBLOCK
 62
0
100
AcDbLine
 10
194.5262490584381
 20
261.2895825640170
 30
0.0000000000000000
 11
242.0000000000000
 21
261.2895825640183
 31
0.0000000000000000
  0
LINE
  5
4AF
100
AcDbEntity
  8
MAIN0
  6
BYBLOCK
 62
0
100
AcDbLine
 10
240.0000000000000
 20
259.2895825640183
 30
0.0000000000000000
 11
240.0000000000000
 21
178.2895825647069
 31
0.0000000000000000
  0
INSERT
  5
4B0
100
AcDbEntity
  8
MAIN0
  6
BYBLOCK
 62
0
100
AcDbBlockReference
  2
_OPEN
 10
240.0000000000000
 20
261.2895825640183
 30
0.0000000000000000
 41
2.000000000000000
 42
2.000000000000000
 43
2.000000000000000
 50
90.00000000000000
  0
INSERT
  5
4B1
100
AcDbEntity
  8
MAIN0
  6
BYBLOCK
 62
0
100
AcDbBlockReference
  2
_OPEN
 10
240.0000000000000
 20
176.2895825647069
 30
0.0000000000000000
 41
2.000000000000000
 42
2.000000000000000
 43
2.000000000000000
 50
270.0000000000000
  0
LINE
  5
4B2
100
AcDbEntity
  8
MAIN0
  6
BYBLOCK
 62
0
100
AcDbLine
 10
185.0518388558565
 20
176.2895825647069
 30
0.0000000000000000
 11
242.0000000000000
 21
176.2895825647069
 31
0.0000000000000000
  0
MTEXT
  5
4B3
100
AcDbEntity
  8
MAIN0
  6
BYBLOCK
 62
0
100
AcDbMText
 10
237.9500000476837
 20
225.7242751027982
 30
0.0000000000000000
 40
3.099999904632568
 41
0.0000000000000000
 71
     5
 72
     1
  1
\A1;85
 11
6.123233995736766e-017
 21
1.000000000000000
 31
0.0000000000000000
  7
STANDARD
  0
ENDBLK
  5
4B4
100
AcDbEntity
  8
MAIN0
  6
CONTINUOUS
 62
3
100
AcDbBlockEnd
  0
BLOCK
  5
4C6
100
AcDbEntity
  8
MAIN0
  6
CONTINUOUS
 62
3
100
AcDbBlockBegin
  2
*D54
 70
    65
 10
0.0
 20
0.0
 30
0.0
  0
LINE
  5
4C7
100
AcDbEntity
  8
MAIN0
  6
BYBLOCK
 62
0
100
AcDbLine
 10
487.3708575580500
 20
278.0682980577908
 30
0.0000000000000000
 11
551.9743326372428
 21
295.3787470335791
 31
0.0000000000000000
  0
LINE
  5
4C8
100
AcDbEntity
  8
MAIN0
  6
BYBLOCK
 62
0
100
AcDbLine
 10
512.3971054598505
 20
348.9348491802157
 30
0.0000000000000000
 11
517.8851681655523
 21
354.4229118859354
 31
0.0000000000000000
  0
ARC
  5
4C9
100
AcDbEntity
  8
MAIN0
  6
BYBLOCK
 62
0
100
AcDbCircle
 10
424.7518388417852
 20
261.2895825618663
 30
0.0000000000000000
 40
129.7104174388447
100
AcDbArc
 50
15.88344144824122
 51
44.11655855191323
  0
INSERT
  5
4CA
100
AcDbEntity
  8
MAIN0
  6
BYBLOCK
 62
0
100
AcDbBlockReference
  2
_OPEN
 10
550.0424809846652
 20
294.8611089433720
 30
0.0000000000000000
 41
2.000000000000000
 42
2.000000000000000
 43
2.000000000000000
 50
285.0000000000615
  0
INSERT
  5
4CB
100
AcDbEntity
  8
MAIN0
  6
BYBLOCK
 62
0
100
AcDbBlockReference
  2
_OPEN
 10
516.4709546031814
 20
353.0086983235599
 30
0.0000000000000000
 41
2.000000000000000
 42
2.000000000000000
 43
2.000000000000000
 50
135.0000000000929
  0
MTEXT
  5
4CC
100
AcDbEntity
  8
MAIN0
  6
BYBLOCK
 62
0
100
AcDbMText
 10
535.3090034427599
 20
325.1197913052794
 30
0.0000000000000000
 40
3.099999904632568
 41
0.0000000000000000
 71
     5
 72
     1
  1
\A1;30\U+00B0
 11
-0.5000000000011671
 21
0.8660254037837648
 31
0.0000000000000000
  7
STANDARD
  0
ENDBLK
  5
4CD
100
AcDbEntity
  8
MAIN0
  6
CONTINUOUS
 62
3
100
AcDbBlockEnd
  0
BLOCK
  5
4CF
100
AcDbEntity
  8
MAIN0
  6
CONTINUOUS
 62
3
100
AcDbBlockBegin
  2
*D55
 70
    65
 10
0.0
 20
0.0
 30
0.0
  0
LINE
  5
4D0
100
AcDbEntity
  8
MAIN0
  6
BYBLOCK
 62
0
100
AcDbLine
 10
80.75183884392197
 20
134.9895825520972
 30
0.0000000000000000
 11
80.75183884392197
 21
93.18523739720129
 31
0.0000000000000000
  0
LINE
  5
4D1
100
AcDbEntity
  8
MAIN0
  6
BYBLOCK
 62
0
100
AcDbLine
 10
82.75183884392197
 20
95.18523739720129
 30
0.0000000000000000
 11
123.7518242725048
 21
95.18523739720129
 31
0.0000000000000000
  0
INSERT
  5
4D2
100
AcDbEntity
  8
MAIN0
  6
BYBLOCK
 62
0
100
AcDbBlockReference
  2
_OPEN
 10
80.75183884392197
 20
95.18523739720129
 30
0.0000000000000000
 41
2.000000000000000
 42
2.000000000000000
 43
2.000000000000000
 50
180.0000000000000
  0
INSERT
  5
4D3
100
AcDbEntity
  8
MAIN0
  6
BYBLOCK
 62
0
100
AcDbBlockReference
  2
_OPEN
 10
125.7518242725048
 20
95.18523739720129
 30
0.0000000000000000
 41
2.000000000000000
 42
2.000000000000000
 43
2.000000000000000
 50
0.0000000000000000
  0
LINE
  5
4D4
100
AcDbEntity
  8
MAIN0
  6
BYBLOCK
 62
0
100
AcDbLine
 10
125.7518242725049
 20
99.98958255211890
 30
0.0000000000000000
 11
125.7518242725048
 21
93.18523739720129
 31
0.0000000000000000
  0
MTEXT
  5
4D5
100
AcDbEntity
  8
MAIN0
  6
BYBLOCK
 62
0
100
AcDbMText
 10
103.2518315582134
 20
97.23523734951758
 30
0.0000000000000000
 40
3.099999904632568
 41
0.0000000000000000
 71
     5
 72
     1
  1
\A1;45
 11
1.000000000000000
 21
0.0000000000000000
 31
0.0000000000000000
  7
STANDARD
  0
ENDBLK
  5
4D6
100
AcDbEntity
  8
MAIN0
  6
CONTINUOUS
 62
3
100
AcDbBlockEnd
  0
BLOCK
  5
4E2
100
AcDbEntity
  8
MAIN0
  6
BYBLOCK
 62
3
100
AcDbBlockBegin
  2
*X0
 70
     1
 10
0.0
 20
0.0
 30
0.0
  0
LINE
  5
4E3
100
AcDbEntity
  8
MAIN0
  6
BYBLOCK
 62
0
100
AcDbLine
 10
392.0800834325830
 20
255.5286705780018
 30
0.0000000000000000
 11
333.8191714465725
 21
313.7895825640210
 31
0.0000000000000000
  0
LINE
  5
4E4
100
AcDbEntity
  8
MAIN0
  6
BYBLOCK
 62
0
100
AcDbLine
 10
376.8020132964355
 20
275.7564881824640
 30
0.0000000000000000
 11
335.6762685423410
 21
316.8822329365760
 31
0.0000000000000000
  0
LINE
  5
4E5
100
AcDbEntity
  8
MAIN0
  6
BYBLOCK
 62
0
100
AcDbLine
 10
396.2878824115127
 20
256.2706190673785
 30
0.0000000000000000
 11
381.0433630723206
 21
271.5151384065771
 31
0.0000000000000000
  0
LINE
  5
4E6
100
AcDbEntity
  8
MAIN0
  6
BYBLOCK
 62
0
100
AcDbLine
 10
397.2720199534018
 20
260.2362289939960
 30
0.0000000000000000
 11
337.6226111755049
 21
319.8856377717067
 31
0.0000000000000000
  0
LINE
  5
4E7
100
AcDbEntity
  8
MAIN0
  6
BYBLOCK
 62
0
100
AcDbLine
 10
397.4978976465670
 20
264.9600987689094
 30
0.0000000000000000
 11
339.6562689021054
 21
322.8017275134082
 31
0.0000000000000000
  0
LINE
  5
4E8
100
AcDbEntity
  8
MAIN0
  6
BYBLOCK
 62
0
100
AcDbLine
 10
398.3668567885400
 20
269.0408870952840
 30
0.0000000000000000
 11
341.7756726651591
 21
325.6320712186523
 31
0.0000000000000000
  0
LINE
  5
4E9
100
AcDbEntity
  8
MAIN0
  6
BYBLOCK
 62
0
100
AcDbLine
 10
399.7078817669074
 20
272.6496095852854
 30
0.0000000000000000
 11
343.9795856077586
 21
328.3779057443641
 31
0.0000000000000000
  0
LINE
  5
4EA
100
AcDbEntity
  8
MAIN0
  6
BYBLOCK
 62
0
100
AcDbLine
 10
401.4360401106063
 20
275.8711987099333
 30
0.0000000000000000
 11
346.2670808732496
 21
331.0401579471824
 31
0.0000000000000000
  0
LINE
  5
4EB
100
AcDbEntity
  8
MAIN0
  6
BYBLOCK
 62
0
100
AcDbLine
 10
363.7144571335306
 20
318.5425291552119
 30
0.0000000000000000
 11
348.6375254320325
 21
333.6194608567006
 31
0.0000000000000000
  0
LINE
  5
4EC
100
AcDbEntity
  8
MAIN0
  6
BYBLOCK
 62
0
100
AcDbLine
 10
388.3131369279633
 20
293.9438493607945
 30
0.0000000000000000
 11
363.7144571335305
 21
318.5425291552118
 31
0.0000000000000000
  0
LINE
  5
4ED
100
AcDbEntity
  8
MAIN0
  6
BYBLOCK
 62
0
100
AcDbLine
 10
403.5064687580193
 20
278.7505175307481
 30
0.0000000000000000
 11
390.2309614279940
 21
292.0260248607651
 31
0.0000000000000000
  0
LINE
  5
4EE
100
AcDbEntity
  8
MAIN0
  6
BYBLOCK
 62
0
100
AcDbLine
 10
363.1906853548031
 20
324.0160484022313
 30
0.0000000000000000
 11
351.0905692616713
 21
336.1161644953654
 31
0.0000000000000000
  0
LINE
  5
4EF
100
AcDbEntity
  8
MAIN0
  6
BYBLOCK
 62
0
100
AcDbLine
 10
389.7071896492875
 20
297.4995441077425
 30
0.0000000000000000
 11
363.2467134520629
 21
323.9600203049716
 31
0.0000000000000000
  0
LINE
  5
4F0
100
AcDbEntity
  8
MAIN0
  6
BYBLOCK
 62
0
100
AcDbLine
 10
405.8977897477164
 20
281.3089440093104
 30
0.0000000000000000
 11
393.7866561749398
 21
293.4200775820892
 31
0.0000000000000000
  0
LINE
  5
4F1
100
AcDbEntity
  8
MAIN0
  6
BYBLOCK
 62
0
100
AcDbLine
 10
408.6058141114204
 20
283.5506671138979
 30
0.0000000000000000
 11
353.6261394426488
 21
338.5303417826934
 31
0.0000000000000000
  0
LINE
  5
4F2
100
AcDbEntity
  8
MAIN0
  6
BYBLOCK
 62
0
100
AcDbLine
 10
411.6424209574064
 20
285.4638077362180
 30
0.0000000000000000
 11
356.2444389353665
 21
340.8617897582824
 31
0.0000000000000000
  0
LINE
  5
4F3
100
AcDbEntity
  8
MAIN0
  6
BYBLOCK
 62
0
100
AcDbLine
 10
415.0388309803133
 20
287.0171451815897
 30
0.0000000000000000
 11
358.9459499901904
 21
343.1100261717627
 31
0.0000000000000000
  0
LINE
  5
4F4
100
AcDbEntity
  8
MAIN0
  6
BYBLOCK
 62
0
100
AcDbLine
 10
412.7549443551814
 20
294.2507792750826
 30
0.0000000000000000
 11
361.7314423252112
 21
345.2742813050525
 31
0.0000000000000000
  0
LINE
  5
4F5
100
AcDbEntity
  8
MAIN0
  6
BYBLOCK
 62
0
100
AcDbLine
 10
409.9224342390307
 20
302.0330368595406
 30
0.0000000000000000
 11
364.6019863988075
 21
347.3534846997501
 31
0.0000000000000000
  0
LINE
  5
4F6
100
AcDbEntity
  8
MAIN0
  6
BYBLOCK
 62
0
100
AcDbLine
 10
407.0899241228804
 20
309.8152944439976
 30
0.0000000000000000
 11
367.5589723206113
 21
349.3462462462444
 31
0.0000000000000000
  0
LINE
  5
4F7
100
AcDbEntity
  8
MAIN0
  6
BYBLOCK
 62
0
100
AcDbLine
 10
404.2574140067242
 20
317.5975520284600
 30
0.0000000000000000
 11
370.6041352014493
 21
351.2508308337314
 31
0.0000000000000000
  0
LINE
  5
4F8
100
AcDbEntity
  8
MAIN0
  6
BYBLOCK
 62
0
100
AcDbLine
 10
401.4249038905746
 20
325.3798096129167
 30
0.0000000000000000
 11
373.7395880630257
 21
353.0651254404568
 31
0.0000000000000000
  0
LINE
  5
4F9
100
AcDbEntity
  8
MAIN0
  6
BYBLOCK
 62
0
100
AcDbLine
 10
398.5923937744195
 20
333.1620671973778
 30
0.0000000000000000
 11
376.9678638409367
 21
354.7865971308601
 31
0.0000000000000000
  0
LINE
  5
4FA
100
AcDbEntity
  8
MAIN0
  6
BYBLOCK
 62
0
100
AcDbLine
 10
395.7598836582693
 20
340.9443247818355
 30
0.0000000000000000
 11
380.2919685619105
 21
356.4122398781668
 31
0.0000000000000000
  0
LINE
  5
4FB
100
AcDbEntity
  8
MAIN0
  6
BYBLOCK
 62
0
100
AcDbLine
 10
392.9273735421134
 20
348.7265823662980
 30
0.0000000000000000
 11
383.7154485218952
 21
357.9385073864734
 31
0.0000000000000000
  0
LINE
  5
4FC
100
AcDbEntity
  8
MAIN0
  6
BYBLOCK
 62
0
100
AcDbLine
 10
390.0948634259634
 20
356.5088399507544
 30
0.0000000000000000
 11
387.2424753259329
 21
359.3612280507425
 31
0.0000000000000000
  0
LINE
  5
4FD
100
AcDbEntity
  8
MAIN0
  6
BYBLOCK
 62
0
100
AcDbLine
 10
387.8722844536488
 20
254.7867220886292
 30
0.0000000000000000
 11
332.0536492184675
 21
310.6053573238298
 31
0.0000000000000000
  0
LINE
  5
4FE
100
AcDbEntity
  8
MAIN0
  6
BYBLOCK
 62
0
100
AcDbLine
 10
383.6644854747179
 20
254.0447735992539
 30
0.0000000000000000
 11
330.3824776892578
 21
307.3267813847300
 31
0.0000000000000000
  0
LINE
  5
4FF
100
AcDbEntity
  8
MAIN0
  6
BYBLOCK
 62
0
100
AcDbLine
 10
379.4566864957848
 20
253.3028251098800
 30
0.0000000000000000
 11
328.8089393672223
 21
303.9505722384394
 31
0.0000000000000000
  0
LINE
  5
500
100
AcDbEntity
  8
MAIN0
  6
BYBLOCK
 62
0
100
AcDbLine
 10
341.6808007989193
 20
286.1289633384492
 30
0.0000000000000000
 11
327.3368995052084
 21
300.4728646321643
 31
0.0000000000000000
  0
LINE
  5
501
100
AcDbEntity
  8
MAIN0
  6
BYBLOCK
 62
0
100
AcDbLine
 10
375.2488875168536
 20
252.5608766205046
 30
0.0000000000000000
 11
341.6808007989191
 21
286.1289633384490
 31
0.0000000000000000
  0
LINE
  5
502
100
AcDbEntity
  8
MAIN0
  6
BYBLOCK
 62
0
100
AcDbLine
 10
339.6491669476927
 20
283.2108497213933
 30
0.0000000000000000
 11
325.9709026320360
 21
296.8891140370652
 31
0.0000000000000000
  0
LINE
  5
503
100
AcDbEntity
  8
MAIN0
  6
BYBLOCK
 62
0
100
AcDbLine
 10
371.0410885379216
 20
251.8189281311298
 30
0.0000000000000000
 11
339.6491669476926
 21
283.2108497213933
 31
0.0000000000000000
  0
LINE
  5
504
100
AcDbEntity
  8
MAIN0
  6
BYBLOCK
 62
0
100
AcDbLine
 10
366.8332895589906
 20
251.0769796417540
 30
0.0000000000000000
 11
324.7162959014181
 21
293.1939732993948
 31
0.0000000000000000
  0
LINE
  5
505
100
AcDbEntity
  8
MAIN0
  6
BYBLOCK
 62
0
100
AcDbLine
 10
362.6254905800593
 20
250.3350311523791
 30
0.0000000000000000
 11
323.5793882197768
 21
289.3811335126931
 31
0.0000000000000000
  0
LINE
  5
506
100
AcDbEntity
  8
MAIN0
  6
BYBLOCK
 62
0
100
AcDbLine
 10
358.4176916011271
 20
249.5930826630042
 30
0.0000000000000000
 11
322.5676580195864
 21
285.4431162445499
 31
0.0000000000000000
  0
LINE
  5
507
100
AcDbEntity
  8
MAIN0
  6
BYBLOCK
 62
0
100
AcDbLine
 10
354.2098926221933
 20
248.8511341736312
 30
0.0000000000000000
 11
321.6900285372036
 21
281.3709982586132
 31
0.0000000000000000
  0
LINE
  5
508
100
AcDbEntity
  8
MAIN0
  6
BYBLOCK
 62
0
100
AcDbLine
 10
350.0020936432624
 20
248.1091856842553
 30
0.0000000000000000
 11
320.9572389034503
 21
277.1540404241083
 31
0.0000000000000000
  0
LINE
  5
509
100
AcDbEntity
  8
MAIN0
  6
BYBLOCK
 62
0
100
AcDbLine
 10
345.7942946643311
 20
247.3672371948800
 30
0.0000000000000000
 11
320.3823547191382
 21
272.7791771401405
 31
0.0000000000000000
  0
LINE
  5
50A
100
AcDbEntity
  8
MAIN0
  6
BYBLOCK
 62
0
100
AcDbLine
 10
341.5864956853988
 20
246.6252887055057
 30
0.0000000000000000
 11
319.9814876615779
 21
268.2302967293933
 31
0.0000000000000000
  0
LINE
  5
50B
100
AcDbEntity
  8
MAIN0
  6
BYBLOCK
 62
0
100
AcDbLine
 10
337.3786967064660
 20
245.8833402161317
 30
0.0000000000000000
 11
319.7748390443111
 21
263.4871978783223
 31
0.0000000000000000
  0
LINE
  5
50C
100
AcDbEntity
  8
MAIN0
  6
BYBLOCK
 62
0
100
AcDbLine
 10
333.1708977275342
 20
245.1413917267565
 30
0.0000000000000000
 11
319.7882657130751
 21
258.5240237411855
 31
0.0000000000000000
  0
LINE
  5
50D
100
AcDbEntity
  8
MAIN0
  6
BYBLOCK
 62
0
100
AcDbLine
 10
328.9630987486029
 20
244.3994432373816
 30
0.0000000000000000
 11
320.0557291374619
 21
253.3068128485562
 31
0.0000000000000000
  0
LINE
  5
50E
100
AcDbEntity
  8
MAIN0
  6
BYBLOCK
 62
0
100
AcDbLine
 10
324.7552997696720
 20
243.6574947480057
 30
0.0000000000000000
 11
320.6233274694813
 21
247.7894670482058
 31
0.0000000000000000
  0
ENDBLK
  5
50F
100
AcDbEntity
  8
MAIN0
  6
BYBLOCK
 62
3
100
AcDbBlockEnd
  0
ENDSEC
  0
SECTION
  2
ENTITIES
  0
DIMENSION
  5
4E
100
AcDbEntity
  8
MAIN0
  6
CONTINUOUS
 62
3
100
AcDbDimension
  2
*D0
 10
65.75183884392182
 20
396.2300202157559
 30
0.0000000000000000
 11
143.5018388439288
 21
396.7300202157559
 31
0.0000000000000000
 70
32
  3
MAIN001
100
AcDbAlignedDimension
 13
221.2518388439358
 23
364.0895825640168
 33
0.0000000000000000
 14
65.75183884392182
 24
384.6895825640182
 34
0.0000000000000000
100
AcDbRotatedDimension
1001
ACAD
1000
DSTYLE
1002
{
1070
   173
1070
     1
1070
     6
1000
_OPEN
1070
     7
1000
_OPEN
1070
    41
1040
2.000000
1002
}
  0
DIMENSION
  5
58
100
AcDbEntity
  8
MAIN0
  6
CONTINUOUS
 62
3
100
AcDbDimension
  2
*D1
 10
221.2518388439358
 20
396.2300202157559
 30
0.0000000000000000
 11
247.9175834557608
 21
396.7300202157559
 31
0.0000000000000000
 70
160
  1
\A1;MAX 17
  3
MAIN001
100
AcDbAlignedDimension
 13
238.2518388439358
 23
359.1458071766035
 33
0.0000000000000000
 14
221.2518388439358
 24
364.0895825640168
 34
0.0000000000000000
100
AcDbRotatedDimension
1001
ACAD
1000
DSTYLE
1002
{
1070
   173
1070
     1
1070
     6
1000
_OPEN
1070
     7
1000
_OPEN
1070
    41
1040
2.000000
1002
}
  0
DIMENSION
  5
60
100
AcDbEntity
  8
MAIN0
  6
CONTINUOUS
 62
3
100
AcDbDimension
  2
*D2
 10
240.0000000000000
 20
317.7895825641984
 30
0.0000000000000000
 11
239.5000000000000
 21
305.0395825641984
 31
0.0000000000000000
 70
32
  3
MAIN001
100
AcDbAlignedDimension
 13
202.2518388439358
 23
292.2895825641985
 33
0.0000000000000000
 14
174.3416901137197
 24
317.7895825641984
 34
0.0000000000000000
 50
90.00000000000000
100
AcDbRotatedDimension
1001
ACAD
1000
DSTYLE
1002
{
1070
   173
1070
     1
1070
     6
1000
_OPEN
1070
     7
1000
_OPEN
1070
    41
1040
2.000000
1002
}
  0
DIMENSION
  5
69
100
AcDbEntity
  8
MAIN0
  6
CONTINUOUS
 62
3
100
AcDbDimension
  2
*D3
 10
240.0000000000000
 20
292.2895825641985
 30
0.0000000000000000
 11
239.5000000000000
 21
278.0395825641984
 31
0.0000000000000000
 70
32
  3
MAIN001
100
AcDbAlignedDimension
 13
233.2518388439357
 23
263.7895825641984
 33
0.0000000000000000
 14
202.2518388439358
 24
292.2895825641985
 34
0.0000000000000000
 50
90.00000000000000
100
AcDbRotatedDimension
1001
ACAD
1000
DSTYLE
1002
{
1070
   173
1070
     1
1070
     6
1000
_OPEN
1070
     7
1000
_OPEN
1070
    41
1040
2.000000
1002
}
  0
DIMENSION
  5
74
100
AcDbEntity
  8
MAIN0
  6
CONTINUOUS
 62
3
100
AcDbDimension
  2
*D4
 10
250.0000000000000
 20
263.7895825641972
 30
0.0000000000000000
 11
249.5000000000000
 21
250.1251837986389
 31
0.0000000000000000
 70
160
  1
\A1;MAX 3.75
  3
MAIN001
100
AcDbAlignedDimension
 13
193.7262490465172
 23
261.2895825640170
 33
0.0000000000000000
 14
233.2518388439357
 24
263.7895825641984
 34
0.0000000000000000
 50
90.00000000000000
100
AcDbRotatedDimension
1001
ACAD
1000
DSTYLE
1002
{
1070
   173
1070
     1
1070
     6
1000
_OPEN
1070
     7
1000
_OPEN
1070
    41
1040
2.000000
1070
   287
1070
     0
1002
}
  0
LINE
  5
75
100
AcDbEntity
  8
MAIN0
  6
CONTINUOUS
 62
3
100
AcDbLine
 10
407.2518388439352
 20
273.6045371404647
 30
0.0000000000000000
 11
424.2518388443755
 21
263.7895825640156
 31
0.0000000000000000
  0
LINE
  5
76
100
AcDbEntity
  8
MAIN0
  6
CONTINUOUS
 62
3
100
AcDbLine
 10
425.2518388443119
 20
263.7895825640156
 30
0.0000000000000000
 11
442.2518388439351
 21
273.6045371399899
 31
0.0000000000000000
  0
DIMENSION
  5
81
100
AcDbEntity
  8
MAIN0
  6
CONTINUOUS
 62
3
100
AcDbDimension
  2
*D5
 10
424.2518388443754
 20
277.2529951246573
 30
0.0000000000000000
 11
428.7100508365178
 21
277.7529951246573
 31
0.0000000000000000
 70
160
  3
MAIN001
100
AcDbAlignedDimension
 13
425.2518388443119
 23
263.7895825640156
 33
0.0000000000000000
 14
424.2518388443754
 24
263.7895825640156
 34
0.0000000000000000
100
AcDbRotatedDimension
1001
ACAD
1000
DSTYLE
1002
{
1070
   173
1070
     1
1070
     6
1000
_OPEN
1070
     7
1000
_OPEN
1070
    41
1040
2.000000
1070
   287
1070
     0
1002
}
  0
LINE
  5
82
100
AcDbEntity
  8
MAIN0
  6
CONTINUOUS
 62
3
100
AcDbLine
 10
422.8367753342773
 20
239.9766607095622
 30
0.0000000000000000
 11
422.8367753342525
 21
259.6065698625035
 31
0.0000000000000000
  0
LINE
  5
83
100
AcDbEntity
  8
MAIN0
  6
CONTINUOUS
 62
3
100
AcDbLine
 10
422.8367753342525
 20
259.6065698625035
 30
0.0000000000000000
 11
422.3367753342843
 21
260.4725952662329
 31
0.0000000000000000
  0
LINE
  5
84
100
AcDbEntity
  8
MAIN0
  6
CONTINUOUS
 62
3
100
AcDbLine
 10
422.3367753342844
 20
260.4725952662329
 30
0.0000000000000000
 11
405.3367753346889
 21
270.2875498422550
 31
0.0000000000000000
  0
LINE
  5
85
100
AcDbEntity
  8
MAIN0
  6
CONTINUOUS
 62
3
100
AcDbLine
 10
435.9040005520758
 20
265.5169612626102
 30
0.0000000000000000
 11
427.1669023531765
 21
260.4725952655248
 31
0.0000000000000000
  0
LINE
  5
86
100
AcDbEntity
  8
MAIN0
  6
CONTINUOUS
 62
3
100
AcDbLine
 10
427.1669023531763
 20
260.4725952655248
 30
0.0000000000000000
 11
426.6669023532081
 21
259.6065698617955
 31
0.0000000000000000
  0
LINE
  5
87
100
AcDbEntity
  8
MAIN0
  6
CONTINUOUS
 62
3
100
AcDbLine
 10
426.6669023532082
 20
259.6065698617954
 30
0.0000000000000000
 11
426.6669023531806
 21
239.9766607097992
 31
0.0000000000000000
  0
MTEXT
  5
88
100
AcDbEntity
  8
MAIN0
  6
CONTINUOUS
 62
4
100
AcDbMText
 10
415.5846392812860
 20
181.8807761768449
 30
0.0000000000000000
 40
4.000000000000000
 41
0.0000000000000000
 71
     1
 72
     1
  1
{\H0.92x;{JAPAN}}
 11
1.000000000000000
 21
0.0000000000000000
 31
0.0000000000000000
  7
STANDARD
  0
MTEXT
  5
89
100
AcDbEntity
  8
MAIN0
  6
CONTINUOUS
 62
3
100
AcDbMText
 10
518.5877106695028
 20
247.1754495993077
 30
0.0000000000000000
 40
6.000000000000000
 41
0.0000000000000000
 71
     1
 72
     1
  1
{\H0.73x;{1}}
 11
0.2334453638559087
 21
0.9723699203976758
 31
0.0000000000000000
  7
STANDARD
  0
MTEXT
  5
8A
100
AcDbEntity
  8
MAIN0
  6
CONTINUOUS
 62
3
100
AcDbMText
 10
373.1497357951893
 20
190.6402908954559
 30
0.0000000000000000
 40
6.000000000000000
 41
0.0000000000000000
 71
     1
 72
     1
  1
{\H0.73x;{2}}
 11
0.6946583704612532
 21
-0.7193398003364726
 31
0.0000000000000000
  7
STANDARD
  0
MTEXT
  5
8B
100
AcDbEntity
  8
MAIN0
  6
CONTINUOUS
 62
3
100
AcDbMText
 10
390.1471778574011
 20
342.4324744661483
 30
0.0000000000000000
 40
6.000000000000000
 41
0.0000000000000000
 71
     1
 72
     1
  1
{\H0.73x;{3}}
 11
-0.9702957262759971
 21
-0.2419218955996649
 31
0.0000000000000000
  7
STANDARD
  0
LINE
  5
8C
100
AcDbEntity
  8
MAIN0
  6
CONTINUOUS
 62
3
100
AcDbLine
 10
165.3904069524668
 20
33.15822611149518
 30
0.0000000000000000
 11
271.3904069524668
 21
33.15822611149518
 31
0.0000000000000000
  0
MTEXT
  5
8D
100
AcDbEntity
  8
MAIN0
  6
CONTINUOUS
 62
3
100
AcDbMText
 10
230.8904069524668
 20
36.95822601612768
 30
0.0000000000000000
 40
3.099999904632568
 41
0.0000000000000000
 71
     1
 72
     1
  1
{\H0.93x;{\U+220589～\U+22058　mm}}
 11
1.000000000000000
 21
0.0000000000000000
 31
0.0000000000000000
  7
KNJYOKO
  0
LINE
  5
8E
100
AcDbEntity
  8
MAIN0
  6
CONTINUOUS
 62
3
100
AcDbLine
 10
216.3904069524668
 20
97.15822611149518
 30
0.0000000000000000
 11
271.3904069524668
 21
97.15822611149518
 31
0.0000000000000000
  0
LINE
  5
8F
100
AcDbEntity
  8
MAIN0
  6
CONTINUOUS
 62
3
100
AcDbLine
 10
216.3904069524668
 20
83.15822611149518
 30
0.0000000000000000
 11
271.3904069524668
 21
83.15822611149518
 31
0.0000000000000000
  0
MTEXT
  5
90
100
AcDbEntity
  8
MAIN0
  6
CONTINUOUS
 62
3
100
AcDbMText
 10
244.5958834821544
 20
100.4215205711838
 30
0.0000000000000000
 40
2.399999618530273
 41
0.0000000000000000
 71
     1
 72
     1
  1
{\H0.93x;{ソフトジョー使用時}}
 11
1.000000000000000
 21
0.0000000000000000
 31
0.0000000000000000
  7
KNJYOKO
  0
MTEXT
  5
91
100
AcDbEntity
  8
MAIN0
  6
CONTINUOUS
 62
3
100
AcDbMText
 10
218.8904069524668
 20
93.35822611149523
 30
0.0000000000000000
 40
2.500000000000000
 41
0.0000000000000000
 71
     1
 72
     1
  1
{\H0.63x;{40kN (4078Kgf)}}
 11
1.000000000000000
 21
0.0000000000000000
 31
0.0000000000000000
  7
STANDARD
  0
MTEXT
  5
92
100
AcDbEntity
  8
MAIN0
  6
CONTINUOUS
 62
3
100
AcDbMText
 10
218.8904069524668
 20
79.35822611149511
 30
0.0000000000000000
 40
2.500000000000000
 41
0.0000000000000000
 71
     1
 72
     1
  1
{\H0.63x;{84kN (8565Kgf)}}
 11
1.000000000000000
 21
0.0000000000000000
 31
0.0000000000000000
  7
STANDARD
  0
MTEXT
  5
93
100
AcDbEntity
  8
MAIN0
  6
CONTINUOUS
 62
3
100
AcDbMText
 10
218.8904069524667
 20
86.35822611149511
 30
0.0000000000000000
 40
2.500000000000000
 41
0.0000000000000000
 71
     1
 72
     1
  1
{\H0.62x;{80　kN (8157Kgf)}}
 11
1.000000000000000
 21
0.0000000000000000
 31
0.0000000000000000
  7
KNJYOKO
  0
LINE
  5
94
100
AcDbEntity
  8
MAIN0
  6
CONTINUOUS
 62
3
100
AcDbLine
 10
192.3904069524668
 20
69.15822611149518
 30
0.0000000000000000
 11
271.3904069524668
 21
69.15822611149518
 31
0.0000000000000000
  0
MTEXT
  5
95
100
AcDbEntity
  8
MAIN0
  6
CONTINUOUS
 62
3
100
AcDbMText
 10
167.5271431633095
 20
25.33901615298656
 30
0.0000000000000000
 40
3.099999904632568
 41
0.0000000000000000
 71
     1
 72
     1
  1
{\H0.71x;{○把握力はジョーおよびワークの把握部状態により変化します。\P　THE GRIPPING FORCE IS DIFFERENT DEPENDING ON\P　THE GRIPPING STATE.}}
 11
1.000000000000000
 21
0.0000000000000000
 31
0.0000000000000000
  7
KNJYOKO
  0
LINE
  5
96
100
AcDbEntity
  8
MAIN0
  6
CONTINUOUS
 62
3
100
AcDbLine
 10
165.3904069524667
 20
62.15822611149518
 30
0.0000000000000000
 11
271.3904069524668
 21
62.15822611149518
 31
0.0000000000000000
  0
MTEXT
  5
97
100
AcDbEntity
  8
MAIN0
  6
CONTINUOUS
 62
3
100
AcDbMText
 10
218.8904069524668
 20
58.95822601612768
 30
0.0000000000000000
 40
3.099999904632568
 41
0.0000000000000000
 71
     1
 72
     1
  1
{\H0.71x;{0.2 MPa　(　2kgf/cm )}}
 11
1.000000000000000
 21
0.0000000000000000
 31
0.0000000000000000
  7
KNJYOKO
  0
MTEXT
  5
98
100
AcDbEntity
  8
MAIN0
  6
CONTINUOUS
 62
3
100
AcDbMText
 10
310.2532101919442
 20
64.21796485397795
 30
0.0000000000000000
 40
3.099999904632568
 41
0.0000000000000000
 71
     1
 72
     1
  1
{\H0.70x;{専用ロケータを必ず使用して下さい。}}
 11
1.000000000000000
 21
0.0000000000000000
 31
0.0000000000000000
  7
KNJYOKO
  0
MTEXT
  5
99
100
AcDbEntity
  8
MAIN0
  6
CONTINUOUS
 62
3
100
AcDbMText
 10
245.4831250193493
 20
116.1661331603100
 30
0.0000000000000000
 40
3.099999904632568
 41
0.0000000000000000
 71
     1
 72
     1
  1
{\H0.92x;{10　mm}}
 11
1.000000000000000
 21
0.0000000000000000
 31
0.0000000000000000
  7
KNJYOKO
  0
MTEXT
  5
9A
100
AcDbEntity
  8
MAIN0
  6
CONTINUOUS
 62
3
100
AcDbMText
 10
245.4831250193493
 20
109.1661331603100
 30
0.0000000000000000
 40
3.099999904632568
 41
0.0000000000000000
 71
     1
 72
     1
  1
{\H0.92x;{ 5　mm}}
 11
1.000000000000000
 21
0.0000000000000000
 31
0.0000000000000000
  7
KNJYOKO
  0
LINE
  5
9B
100
AcDbEntity
  8
MAIN0
  6
CONTINUOUS
 62
3
100
AcDbLine
 10
186.3904069524668
 20
104.1582261114952
 30
0.0000000000000000
 11
186.3904069524668
 21
76.15822611149530
 31
0.0000000000000000
  0
MTEXT
  5
9C
100
AcDbEntity
  8
MAIN0
  6
CONTINUOUS
 62
3
100
AcDbMText
 10
188.3904069524667
 20
100.2582257300255
 30
0.0000000000000000
 40
2.399999618530273
 41
0.0000000000000000
 71
     1
 72
     1
  1
{\H0.92x;{エア圧力}}
 11
1.000000000000000
 21
0.0000000000000000
 31
0.0000000000000000
  7
KNJYOKO
  0
MTEXT
  5
9D
100
AcDbEntity
  8
MAIN0
  6
CONTINUOUS
 62
3
100
AcDbMText
 10
188.3904069524667
 20
83.25822573002550
 30
0.0000000000000000
 40
2.399999618530273
 41
0.0000000000000000
 71
     1
 72
     1
  1
{\H0.93x;{1.3 MPa\P(13kgf/cm )}}
 11
1.000000000000000
 21
0.0000000000000000
 31
0.0000000000000000
  7
STANDARD
  0
MTEXT
  5
9E
100
AcDbEntity
  8
MAIN0
  6
CONTINUOUS
 62
3
100
AcDbMText
 10
188.3904069524667
 20
86.25822573002539
 30
0.0000000000000000
 40
2.399999618530273
 41
0.0000000000000000
 71
     1
 72
     1
  1
{\H0.91x;{油圧力}}
 11
1.000000000000000
 21
0.0000000000000000
 31
0.0000000000000000
  7
KNJYOKO
  0
MTEXT
  5
9F
100
AcDbEntity
  8
MAIN0
  6
CONTINUOUS
 62
3
100
AcDbMText
 10
208.2285838269821
 20
81.44432742366767
 30
0.0000000000000000
 40
2.000000000000000
 41
0.0000000000000000
 71
     1
 72
     1
  1
{\H0.82x;{2}}
 11
1.000000000000000
 21
0.0000000000000000
 31
0.0000000000000000
  7
STANDARD
  0
LINE
  5
A0
100
AcDbEntity
  8
MAIN0
  6
CONTINUOUS
 62
3
100
AcDbLine
 10
192.3904069524668
 20
76.15822611149518
 30
0.0000000000000000
 11
192.3904069524668
 21
62.15822611149530
 31
0.0000000000000000
  0
MTEXT
  5
A1
100
AcDbEntity
  8
MAIN0
  6
CONTINUOUS
 62
3
100
AcDbMText
 10
194.3904069524668
 20
65.25822573002539
 30
0.0000000000000000
 40
2.399999618530273
 41
0.0000000000000000
 71
     1
 72
     1
  1
{\H0.91x;{油圧力}}
 11
1.000000000000000
 21
0.0000000000000000
 31
0.0000000000000000
  7
KNJYOKO
  0
MTEXT
  5
A2
100
AcDbEntity
  8
MAIN0
  6
CONTINUOUS
 62
3
100
AcDbMText
 10
194.3904069524667
 20
72.25822573002539
 30
0.0000000000000000
 40
2.399999618530273
 41
0.0000000000000000
 71
     1
 72
     1
  1
{\H0.92x;{エア圧力}}
 11
1.000000000000000
 21
0.0000000000000000
 31
0.0000000000000000
  7
KNJYOKO
  0
MTEXT
  5
A3
100
AcDbEntity
  8
MAIN0
  6
CONTINUOUS
 62
3
100
AcDbMText
 10
218.8904069524668
 20
72.95822601612768
 30
0.0000000000000000
 40
3.099999904632568
 41
0.0000000000000000
 71
     1
 72
     1
  1
{\H0.71x;{0.7 MPa　( 7kgf/cm )}}
 11
1.000000000000000
 21
0.0000000000000000
 31
0.0000000000000000
  7
KNJYOKO
  0
MTEXT
  5
A4
100
AcDbEntity
  8
MAIN0
  6
CONTINUOUS
 62
3
100
AcDbMText
 10
255.2120957682469
 20
73.79217467372540
 30
0.0000000000000000
 40
2.000000000000000
 41
0.0000000000000000
 71
     1
 72
     1
  1
{\H0.82x;{2}}
 11
1.000000000000000
 21
0.0000000000000000
 31
0.0000000000000000
  7
STANDARD
  0
LINE
  5
A5
100
AcDbEntity
  8
MAIN0
  6
CONTINUOUS
 62
3
100
AcDbLine
 10
165.3904069524668
 20
128.1582261114953
 30
0.0000000000000000
 11
271.3904069524668
 21
128.1582261114952
 31
0.0000000000000000
  0
LINE
  5
A6
100
AcDbEntity
  8
MAIN0
  6
CONTINUOUS
 62
3
100
AcDbLine
 10
165.3904069524668
 20
118.1582261114953
 30
0.0000000000000000
 11
271.3904069524667
 21
118.1582261114953
 31
0.0000000000000000
  0
LINE
  5
A7
100
AcDbEntity
  8
MAIN0
  6
CONTINUOUS
 62
3
100
AcDbLine
 10
165.3904069524668
 20
111.1582261114953
 30
0.0000000000000000
 11
271.3904069524668
 21
111.1582261114952
 31
0.0000000000000000
  0
LINE
  5
A8
100
AcDbEntity
  8
MAIN0
  6
CONTINUOUS
 62
3
100
AcDbLine
 10
165.3904069524668
 20
104.1582261114953
 30
0.0000000000000000
 11
271.3904069524667
 21
104.1582261114952
 31
0.0000000000000000
  0
LINE
  5
A9
100
AcDbEntity
  8
MAIN0
  6
CONTINUOUS
 62
3
100
AcDbLine
 10
186.3904069524668
 20
90.15822611149518
 30
0.0000000000000000
 11
271.3904069524668
 21
90.15822611149518
 31
0.0000000000000000
  0
LINE
  5
AA
100
AcDbEntity
  8
MAIN0
  6
CONTINUOUS
 62
3
100
AcDbLine
 10
165.3904069524667
 20
55.15822611149518
 30
0.0000000000000000
 11
271.3904069524668
 21
55.15822611149518
 31
0.0000000000000000
  0
LINE
  5
AB
100
AcDbEntity
  8
MAIN0
  6
CONTINUOUS
 62
3
100
AcDbLine
 10
165.3904069524667
 20
26.15822611149518
 30
0.0000000000000000
 11
271.3904069524668
 21
26.15822611149518
 31
0.0000000000000000
  0
MTEXT
  5
AC
100
AcDbEntity
  8
MAIN0
  6
CONTINUOUS
 62
3
100
AcDbMText
 10
167.3904069524667
 20
87.65822611149518
 30
0.0000000000000000
 40
3.099999904632568
 41
0.0000000000000000
 71
     4
 72
     1
  1
{\H0.70x;{把握力}}
 11
1.000000000000000
 21
0.0000000000000000
 31
0.0000000000000000
  7
KNJYOKO
  0
LINE
  5
AD
100
AcDbEntity
  8
MAIN0
  6
CONTINUOUS
 62
3
100
AcDbLine
 10
165.3904069524668
 20
128.1582261114952
 30
0.0000000000000000
 11
165.3904069524668
 21
26.15822611149531
 31
0.0000000000000000
  0
MTEXT
  5
AE
100
AcDbEntity
  8
MAIN0
  6
CONTINUOUS
 62
3
100
AcDbMText
 10
244.8904069524486
 20
29.15822611149518
 30
0.0000000000000000
 40
3.099999904632568
 41
0.0000000000000000
 71
     4
 72
     1
  1
{\H0.92x;{33 kg}}
 11
1.000000000000000
 21
0.0000000000000000
 31
0.0000000000000000
  7
STANDARD
  0
LINE
  5
AF
100
AcDbEntity
  8
MAIN0
  6
CONTINUOUS
 62
3
100
AcDbLine
 10
271.3904069524668
 20
128.1582261114952
 30
0.0000000000000000
 11
271.3904069524668
 21
26.15822611149518
 31
0.0000000000000000
  0
LINE
  5
B0
100
AcDbEntity
  8
MAIN0
  6
CONTINUOUS
 62
3
100
AcDbLine
 10
165.3904069524667
 20
76.15822611149518
 30
0.0000000000000000
 11
271.3904069524668
 21
76.15822611149518
 31
0.0000000000000000
  0
MTEXT
  5
B1
100
AcDbEntity
  8
MAIN0
  6
CONTINUOUS
 62
3
100
AcDbMText
 10
188.3904069524667
 20
97.25822573002550
 30
0.0000000000000000
 40
2.399999618530273
 41
0.0000000000000000
 71
     1
 72
     1
  1
{\H0.93x;{0.6 MPa\P( 6kgf/cm )}}
 11
1.000000000000000
 21
0.0000000000000000
 31
0.0000000000000000
  7
STANDARD
  0
MTEXT
  5
B2
100
AcDbEntity
  8
MAIN0
  6
CONTINUOUS
 62
3
100
AcDbMText
 10
208.2285838269819
 20
95.44432742366779
 30
0.0000000000000000
 40
2.000000000000000
 41
0.0000000000000000
 71
     1
 72
     1
  1
{\H0.82x;{2}}
 11
1.000000000000000
 21
0.0000000000000000
 31
0.0000000000000000
  7
STANDARD
  0
MTEXT
  5
B3
100
AcDbEntity
  8
MAIN0
  6
CONTINUOUS
 62
3
100
AcDbMText
 10
218.8904069524667
 20
100.3582261114952
 30
0.0000000000000000
 40
2.500000000000000
 41
0.0000000000000000
 71
     1
 72
     1
  1
{\H0.63x;{37 kN (3772Kgf)}}
 11
1.000000000000000
 21
0.0000000000000000
 31
0.0000000000000000
  7
STANDARD
  0
MTEXT
  5
B4
100
AcDbEntity
  8
MAIN0
  6
CONTINUOUS
 62
3
100
AcDbMText
 10
218.8904069524668
 20
65.95822601612768
 30
0.0000000000000000
 40
3.099999904632568
 41
0.0000000000000000
 71
     1
 72
     1
  1
{\H0.71x;{1.3 MPa　(13kgf/cm )}}
 11
1.000000000000000
 21
0.0000000000000000
 31
0.0000000000000000
  7
KNJYOKO
  0
MTEXT
  5
B5
100
AcDbEntity
  8
MAIN0
  6
CONTINUOUS
 62
3
100
AcDbMText
 10
255.3456434567235
 20
66.64901649752754
 30
0.0000000000000000
 40
2.000000000000000
 41
0.0000000000000000
 71
     1
 72
     1
  1
{\H0.82x;{2}}
 11
1.000000000000000
 21
0.0000000000000000
 31
0.0000000000000000
  7
STANDARD
  0
LINE
  5
B6
100
AcDbEntity
  8
MAIN0
  6
CONTINUOUS
 62
3
100
AcDbLine
 10
165.3904069524667
 20
40.15822611149518
 30
0.0000000000000000
 11
271.3904069524668
 21
40.15822611149518
 31
0.0000000000000000
  0
MTEXT
  5
B7
100
AcDbEntity
  8
MAIN0
  6
CONTINUOUS
 62
4
100
AcDbMText
 10
241.4831250193492
 20
48.66613316031008
 30
0.0000000000000000
 40
3.099999904632568
 41
0.0000000000000000
 71
     1
 72
     1
  1
{\H0.92x;{0.93　N}}
 11
1.000000000000000
 21
0.0000000000000000
 31
0.0000000000000000
  7
KNJYOKO
  0
SPLINE
  5
B8
100
AcDbEntity
  8
MAIN0
  6
CONTINUOUS
 62
3
100
AcDbSpline
210
0.0000000000000000
220
0.0000000000000000
230
1.000000000000000
 70
     8
 71
     3
 72
    14
 73
    10
 74
     0
 42
1.000000000000000e-007
 43
1.000000000000000e-007
 12
1.205313937519577
 22
0.3012197250380098
 32
0.0000000000000000
 13
0.9118704780837561
 23
0.7328372388451498
 33
0.0000000000000000
 40
0.0000000000000000
 40
0.0000000000000000
 40
0.0000000000000000
 40
0.0000000000000000
 40
0.5828484074954654
 40
2.017389827489209
 40
3.123506893394179
 40
4.885508420049012
 40
6.048697447303496
 40
6.384151807376483
 40
6.831490023551860
 40
6.831490023551860
 40
6.831490023551860
 40
6.831490023551860
 10
259.2440950120478
 20
45.85041347456023
 30
0.0000000000000000
 10
259.4782667817195
 20
45.90893528690843
 30
0.0000000000000000
 10
260.2887961405467
 20
46.11149448995251
 30
0.0000000000000000
 10
260.8205227810096
 20
47.27113579125545
 30
0.0000000000000000
 10
260.9593299083350
 20
49.77931527838301
 30
0.0000000000000000
 10
259.7110843524023
 20
47.35316680796971
 30
0.0000000000000000
 10
259.6200768177033
 20
45.44857486948341
 30
0.0000000000000000
 10
260.4737093670173
 20
45.74344661788778
 30
0.0000000000000000
 10
260.7116445139317
 20
45.93466646794353
 30
0.0000000000000000
 10
260.8476160182813
 20
46.04394183566750
 30
0.0000000000000000
  0
LINE
  5
B9
100
AcDbEntity
  8
MAIN0
  6
CONTINUOUS
 62
3
100
AcDbLine
 10
216.3904069524668
 20
26.15822611149535
 30
0.0000000000000000
 11
216.3904069524668
 21
118.1582261114777
 31
0.0000000000000000
  0
MTEXT
  5
BA
100
AcDbEntity
  8
MAIN0
  6
CONTINUOUS
 62
3
100
AcDbMText
 10
211.2618476484367
 20
122.4738151566092
 30
0.0000000000000000
 40
3.100000381469727
 41
0.0000000000000000
 71
     1
 72
     1
  1
{\H0.93x;{仕　　　様}}
 11
1.000000000000000
 21
0.0000000000000000
 31
0.0000000000000000
  7
KNJYOKO
  0
MTEXT
  5
BB
100
AcDbEntity
  8
MAIN0
  6
CONTINUOUS
 62
3
100
AcDbMText
 10
201.4586545594132
 20
126.5183506640775
 30
0.0000000000000000
 40
3.100000381469727
 41
0.0000000000000000
 71
     1
 72
     1
  1
{\H0.94x;{SPECIFICATIONS}}
 11
1.000000000000000
 21
0.0000000000000000
 31
0.0000000000000000
  7
STANDARD
  0
MTEXT
  5
BC
100
AcDbEntity
  8
MAIN0
  6
CONTINUOUS
 62
3
100
AcDbMText
 10
168.5958834821544
 20
107.4215205711839
 30
0.0000000000000000
 40
2.399999618530273
 41
0.0000000000000000
 71
     1
 72
     1
  1
{\H0.94x;{ジョーストローク(直径で)}}
 11
1.000000000000000
 21
0.0000000000000000
 31
0.0000000000000000
  7
KNJYOKO
  0
MTEXT
  5
BD
100
AcDbEntity
  8
MAIN0
  6
CONTINUOUS
 62
3
100
AcDbMText
 10
168.5958834821544
 20
110.5215199989793
 30
0.0000000000000000
 40
2.499999046325684
 41
0.0000000000000000
 71
     1
 72
     1
  1
{\H0.75x;{JAW STROKE (IN DIA)}}
 11
1.000000000000000
 21
0.0000000000000000
 31
0.0000000000000000
  7
STANDARD
  0
MTEXT
  5
BE
100
AcDbEntity
  8
MAIN0
  6
CONTINUOUS
 62
3
100
AcDbMText
 10
168.5958834821544
 20
114.4215205711839
 30
0.0000000000000000
 40
2.399999618530273
 41
0.0000000000000000
 71
     1
 72
     1
  1
{\H0.93x;{プランジャストロ－ク}}
 11
1.000000000000000
 21
0.0000000000000000
 31
0.0000000000000000
  7
KNJYOKO
  0
MTEXT
  5
BF
100
AcDbEntity
  8
MAIN0
  6
CONTINUOUS
 62
3
100
AcDbMText
 10
168.5958834821544
 20
117.5215199989793
 30
0.0000000000000000
 40
2.499999046325684
 41
0.0000000000000000
 71
     1
 72
     1
  1
{\H0.75x;{PLUNGER STROKE}}
 11
1.000000000000000
 21
0.0000000000000000
 31
0.0000000000000000
  7
STANDARD
  0
MTEXT
  5
C0
100
AcDbEntity
  8
MAIN0
  6
CONTINUOUS
 62
3
100
AcDbMText
 10
168.5958834821544
 20
50.15818761932052
 30
0.0000000000000000
 40
2.000000000000000
 41
0.0000000000000000
 71
     1
 72
     1
  1
{\H0.62x;{STROKE ON PRESSURE OF 0.6MPa)}}
 11
1.000000000000000
 21
0.0000000000000000
 31
0.0000000000000000
  7
STANDARD
  0
MTEXT
  5
C1
100
AcDbEntity
  8
MAIN0
  6
CONTINUOUS
 62
3
100
AcDbMText
 10
168.5958834821544
 20
53.15818761932052
 30
0.0000000000000000
 40
2.000000000000000
 41
0.0000000000000000
 71
     1
 72
     1
  1
{\H0.63x;{AIR CONSUMPTION (PER 5mm OF PLUNGER }}
 11
1.000000000000000
 21
0.0000000000000000
 31
0.0000000000000000
  7
STANDARD
  0
MTEXT
  5
C2
100
AcDbEntity
  8
MAIN0
  6
CONTINUOUS
 62
3
100
AcDbMText
 10
168.5958834821546
 20
46.55818723785079
 30
0.0000000000000000
 40
2.399999618530273
 41
0.0000000000000000
 71
     1
 72
     1
  1
{\H0.92x;{空気消費量}}
 11
1.000000000000000
 21
0.0000000000000000
 31
0.0000000000000000
  7
KNJYOKO
  0
MTEXT
  5
C3
100
AcDbEntity
  8
MAIN0
  6
CONTINUOUS
 62
3
100
AcDbMText
 10
168.5958834821544
 20
43.65818761932052
 30
0.0000000000000000
 40
2.500000000000000
 41
0.0000000000000000
 71
     1
 72
     1
  1
{\H0.59x;{(プランジャストローク5mm当り圧力0.6MPa時)}}
 11
1.000000000000000
 21
0.0000000000000000
 31
0.0000000000000000
  7
KNJYOKO
  0
MTEXT
  5
C4
100
AcDbEntity
  8
MAIN0
  6
CONTINUOUS
 62
3
100
AcDbMText
 10
168.5958834821543
 20
39.52151999897920
 30
0.0000000000000000
 40
2.499999046325684
 41
0.0000000000000000
 71
     1
 72
     1
  1
{\H0.75x;{GRIPPING RANGE}}
 11
1.000000000000000
 21
0.0000000000000000
 31
0.0000000000000000
  7
STANDARD
  0
MTEXT
  5
C5
100
AcDbEntity
  8
MAIN0
  6
CONTINUOUS
 62
3
100
AcDbMText
 10
168.5958834821543
 20
36.42152057118379
 30
0.0000000000000000
 40
2.399999618530273
 41
0.0000000000000000
 71
     1
 72
     1
  1
{\H0.92x;{把握範囲}}
 11
1.000000000000000
 21
0.0000000000000000
 31
0.0000000000000000
  7
KNJYOKO
  0
MTEXT
  5
C6
100
AcDbEntity
  8
MAIN0
  6
CONTINUOUS
 62
3
100
AcDbMText
 10
168.5958834821544
 20
32.65826925540010
 30
0.0000000000000000
 40
2.499999046325684
 41
0.0000000000000000
 71
     1
 72
     1
  1
{\H0.73x;{MASS}}
 11
1.000000000000000
 21
0.0000000000000000
 31
0.0000000000000000
  7
STANDARD
  0
MTEXT
  5
C7
100
AcDbEntity
  8
MAIN0
  6
CONTINUOUS
 62
3
100
AcDbMText
 10
168.5958834821544
 20
29.55826982760469
 30
0.0000000000000000
 40
2.399999618530273
 41
0.0000000000000000
 71
     1
 72
     1
  1
{\H0.94x;{質量 (標準ソフトジョー付)}}
 11
1.000000000000000
 21
0.0000000000000000
 31
0.0000000000000000
  7
KNJYOKO
  0
MTEXT
  5
C8
100
AcDbEntity
  8
MAIN0
  6
CONTINUOUS
 62
3
100
AcDbMText
 10
178.5958834821544
 20
32.15827020907442
 30
0.0000000000000000
 40
2.000000000000000
 41
0.0000000000000000
 71
     1
 72
     1
  1
{\H0.63x;{(INCLUDE STANDARD SOFT JAW)}}
 11
1.000000000000000
 21
0.0000000000000000
 31
0.0000000000000000
  7
STANDARD
  0
MTEXT
  5
C9
100
AcDbEntity
  8
MAIN0
  6
CONTINUOUS
 62
3
100
AcDbMText
 10
168.5958834821543
 20
61.52152095265352
 30
0.0000000000000000
 40
2.500000000000000
 41
0.0000000000000000
 71
     1
 72
     1
  1
{\H0.63x;{MIN PERMISSIBLE PRESS}}
 11
1.000000000000000
 21
0.0000000000000000
 31
0.0000000000000000
  7
STANDARD
  0
MTEXT
  5
CA
100
AcDbEntity
  8
MAIN0
  6
CONTINUOUS
 62
3
100
AcDbMText
 10
168.5958834821543
 20
58.42152057118379
 30
0.0000000000000000
 40
2.399999618530273
 41
0.0000000000000000
 71
     1
 72
     1
  1
{\H0.93x;{最低使用圧力}}
 11
1.000000000000000
 21
0.0000000000000000
 31
0.0000000000000000
  7
KNJYOKO
  0
MTEXT
  5
CB
100
AcDbEntity
  8
MAIN0
  6
CONTINUOUS
 62
3
100
AcDbMText
 10
168.5958834821543
 20
74.02372688683998
 30
0.0000000000000000
 40
2.500000000000000
 41
0.0000000000000000
 71
     1
 72
     1
  1
{\H0.63x;{MAX PERMISSIBLE\PPRESS}}
 11
1.000000000000000
 21
0.0000000000000000
 31
0.0000000000000000
  7
STANDARD
  0
MTEXT
  5
CC
100
AcDbEntity
  8
MAIN0
  6
CONTINUOUS
 62
3
100
AcDbMText
 10
168.5958834821543
 20
66.92372650537025
 30
0.0000000000000000
 40
2.399999618530273
 41
0.0000000000000000
 71
     1
 72
     1
  1
{\H0.93x;{最高使用圧力}}
 11
1.000000000000000
 21
0.0000000000000000
 31
0.0000000000000000
  7
KNJYOKO
  0
MTEXT
  5
CD
100
AcDbEntity
  8
MAIN0
  6
CONTINUOUS
 62
3
100
AcDbMText
 10
194.3904069524667
 20
75.35822515782080
 30
0.0000000000000000
 40
2.499999046325684
 41
0.0000000000000000
 71
     1
 72
     1
  1
{\H0.74x;{AIR PRESSURE}}
 11
1.000000000000000
 21
0.0000000000000000
 31
0.0000000000000000
  7
STANDARD
  0
MTEXT
  5
CE
100
AcDbEntity
  8
MAIN0
  6
CONTINUOUS
 62
3
100
AcDbMText
 10
194.3904069524668
 20
68.35822515782080
 30
0.0000000000000000
 40
2.499999046325684
 41
0.0000000000000000
 71
     1
 72
     1
  1
{\H0.74x;{OIL PRESSURE}}
 11
1.000000000000000
 21
0.0000000000000000
 31
0.0000000000000000
  7
STANDARD
  0
MTEXT
  5
CF
100
AcDbEntity
  8
MAIN0
  6
CONTINUOUS
 62
3
100
AcDbMText
 10
244.5958834821544
 20
103.5215199989792
 30
0.0000000000000000
 40
2.499999046325684
 41
0.0000000000000000
 71
     1
 72
     1
  1
{\H0.74x;{SOFT JAW}}
 11
1.000000000000000
 21
0.0000000000000000
 31
0.0000000000000000
  7
STANDARD
  0
MTEXT
  5
D0
100
AcDbEntity
  8
MAIN0
  6
CONTINUOUS
 62
3
100
AcDbMText
 10
244.5958834821543
 20
86.42152057118379
 30
0.0000000000000000
 40
2.399999618530273
 41
0.0000000000000000
 71
     1
 72
     1
  1
{\H0.93x;{ソフトジョー使用時}}
 11
1.000000000000000
 21
0.0000000000000000
 31
0.0000000000000000
  7
KNJYOKO
  0
MTEXT
  5
D1
100
AcDbEntity
  8
MAIN0
  6
CONTINUOUS
 62
3
100
AcDbMText
 10
244.5958834821543
 20
89.52151999897920
 30
0.0000000000000000
 40
2.499999046325684
 41
0.0000000000000000
 71
     1
 72
     1
  1
{\H0.74x;{SOFT JAW}}
 11
1.000000000000000
 21
0.0000000000000000
 31
0.0000000000000000
  7
STANDARD
  0
MTEXT
  5
D2
100
AcDbEntity
  8
MAIN0
  6
CONTINUOUS
 62
3
100
AcDbMText
 10
244.5958834821543
 20
93.42152057118391
 30
0.0000000000000000
 40
2.399999618530273
 41
0.0000000000000000
 71
     1
 72
     1
  1
{\H0.93x;{焼入れジョー使用時}}
 11
1.000000000000000
 21
0.0000000000000000
 31
0.0000000000000000
  7
KNJYOKO
  0
MTEXT
  5
D3
100
AcDbEntity
  8
MAIN0
  6
CONTINUOUS
 62
3
100
AcDbMText
 10
244.5958834821543
 20
96.52151999897932
 30
0.0000000000000000
 40
2.499999046325684
 41
0.0000000000000000
 71
     1
 72
     1
  1
{\H0.74x;{HARD JAW}}
 11
1.000000000000000
 21
0.0000000000000000
 31
0.0000000000000000
  7
STANDARD
  0
MTEXT
  5
D4
100
AcDbEntity
  8
MAIN0
  6
CONTINUOUS
 62
3
100
AcDbMText
 10
244.5958834821543
 20
79.42152057118379
 30
0.0000000000000000
 40
2.399999618530273
 41
0.0000000000000000
 71
     1
 72
     1
  1
{\H0.93x;{焼入れジョー使用時}}
 11
1.000000000000000
 21
0.0000000000000000
 31
0.0000000000000000
  7
KNJYOKO
  0
MTEXT
  5
D5
100
AcDbEntity
  8
MAIN0
  6
CONTINUOUS
 62
3
100
AcDbMText
 10
244.5958834821543
 20
82.52151999897920
 30
0.0000000000000000
 40
2.499999046325684
 41
0.0000000000000000
 71
     1
 72
     1
  1
{\H0.74x;{HARD JAW}}
 11
1.000000000000000
 21
0.0000000000000000
 31
0.0000000000000000
  7
STANDARD
  0
MTEXT
  5
D6
100
AcDbEntity
  8
MAIN0
  6
CONTINUOUS
 62
3
100
AcDbMText
 10
188.3904069524667
 20
103.3582251578209
 30
0.0000000000000000
 40
2.499999046325684
 41
0.0000000000000000
 71
     1
 72
     1
  1
{\H0.74x;{AIR PRESSURE}}
 11
1.000000000000000
 21
0.0000000000000000
 31
0.0000000000000000
  7
STANDARD
  0
MTEXT
  5
D7
100
AcDbEntity
  8
MAIN0
  6
CONTINUOUS
 62
3
100
AcDbMText
 10
188.3904069524667
 20
89.35822515782080
 30
0.0000000000000000
 40
2.499999046325684
 41
0.0000000000000000
 71
     1
 72
     1
  1
{\H0.74x;{OIL PRESSURE}}
 11
1.000000000000000
 21
0.0000000000000000
 31
0.0000000000000000
  7
STANDARD
  0
MTEXT
  5
D8
100
AcDbEntity
  8
MAIN0
  6
CONTINUOUS
 62
3
100
AcDbMText
 10
167.3904069524667
 20
96.15822515782087
 30
0.0000000000000000
 40
2.499999046325684
 41
0.0000000000000000
 71
     1
 72
     1
  1
{\H0.74x;{GRIPPING\PFORCE}}
 11
1.000000000000000
 21
0.0000000000000000
 31
0.0000000000000000
  7
STANDARD
  0
MTEXT
  5
D9
100
AcDbEntity
  8
MAIN0
  6
CONTINUOUS
 62
3
100
AcDbMText
 10
310.2532101919442
 20
74.21796485397783
 30
0.0000000000000000
 40
3.099999904632568
 41
0.0000000000000000
 71
     1
 72
     1
  1
{\H0.70x;{チャックへの給油は北川が指定するグリス}}
 11
1.000000000000000
 21
0.0000000000000000
 31
0.0000000000000000
  7
KNJYOKO
  0
MTEXT
  5
DA
100
AcDbEntity
  8
MAIN0
  6
CONTINUOUS
 62
3
100
AcDbMText
 10
381.8662204714855
 20
68.61796494934526
 30
0.0000000000000000
 40
2.500000000000000
 41
0.0000000000000000
 71
     1
 72
     1
  1
{\H0.62x;{GREASE SPECIIFIED BY KITAGAWA.}}
 11
1.000000000000000
 21
0.0000000000000000
 31
0.0000000000000000
  7
STANDARD
  0
MTEXT
  5
DB
100
AcDbEntity
  8
MAIN0
  6
CONTINUOUS
 62
3
100
AcDbMText
 10
310.2532101919442
 20
69.21796485397783
 30
0.0000000000000000
 40
3.099999904632568
 41
0.0000000000000000
 71
     1
 72
     1
  1
{\H0.70x;{を使用して下さい。}}
 11
1.000000000000000
 21
0.0000000000000000
 31
0.0000000000000000
  7
KNJYOKO
  0
MTEXT
  5
DC
100
AcDbEntity
  8
MAIN0
  6
CONTINUOUS
 62
3
100
AcDbMText
 10
381.8662204714854
 20
73.61796494934526
 30
0.0000000000000000
 40
2.500000000000000
 41
0.0000000000000000
 71
     1
 72
     1
  1
{\H0.63x;{LUBRICATE THE CHUCK WITH GREASE GUN USING LUBRICATION}}
 11
1.000000000000000
 21
0.0000000000000000
 31
0.0000000000000000
  7
STANDARD
  0
MTEXT
  5
DD
100
AcDbEntity
  8
MAIN0
  6
CONTINUOUS
 62
3
100
AcDbMText
 10
381.8662204714855
 20
63.61796494934538
 30
0.0000000000000000
 40
2.500000000000000
 41
0.0000000000000000
 71
     1
 72
     1
  1
{\H0.62x;{PREPARE THE SPECIAL LOCATOR.}}
 11
1.000000000000000
 21
0.0000000000000000
 31
0.0000000000000000
  7
STANDARD
  0
LEADER
  5
DE
100
AcDbEntity
  8
MAIN0
  6
CONTINUOUS
 62
3
100
AcDbLeader
  3
MAIN001
 73
     0
 75
     1
 40
3.099999904632568
 41
31.39900002086165
 76
     3
 10
281.1561320672979
 20
172.6018195040939
 30
0.0000000000000000
 10
275.6936325717306
 20
148.2182065169719
 30
0.0000000000000000
 10
273.9066326243914
 20
148.2182065169719
 30
0.0000000000000000
340
DF
213
0.0000000000000000
223
-0.5000000000000000
233
0.0000000000000000
1001
ACAD
1000
DSTYLE
1002
{
1070
   147
1040
0.0
1070
    77
1070
     1
1070
   173
1070
     1
1070
     6
1000
_OPEN
1070
     7
1000
_OPEN
1002
}
  0
MTEXT
  5
DF
102
{ACAD_REACTORS
330
DE
102
}
100
AcDbEntity
  8
MAIN0
  6
CONTINUOUS
 62
3
100
AcDbMText
 10
242.5076326035297
 20
151.8182064216045
 30
0.0000000000000000
 40
3.099999904632568
 41
0.0000000000000000
 71
     1
 72
     1
  1
{\H0.71x;{ロックバルブユニット仕様\P（エア専用）\PLOCK VALVE UNIT\P(FOR AIR)}}
 11
1.000000000000000
 21
0.0000000000000000
 31
0.0000000000000000
  7
KNJYOKO
  0
INSERT
  5
EC
100
AcDbEntity
  8
MAIN0
  6
CONTINUOUS
 62
3
100
AcDbBlockReference
  2
M0
 10
0.0000000000000000
 20
0.0000000000000000
 30
0.0000000000000000
 50
0.0000000000000000
  0
INSERT
  5
F9
100
AcDbEntity
  8
MAIN0
  6
CONTINUOUS
 62
3
100
AcDbBlockReference
  2
M1
 10
0.0000000000000000
 20
0.0000000000000000
 30
0.0000000000000000
 50
0.0000000000000000
  0
LEADER
  5
FA
100
AcDbEntity
  8
MAIN0
  6
CONTINUOUS
 62
3
100
AcDbLeader
  3
MAIN001
 73
     0
 74
     0
 75
     1
 40
3.099999904632568
 41
10.40100000596044
 76
     3
 10
482.3458337001543
 20
365.8816204178498
 30
0.0000000000000000
 10
482.9588560752865
 20
398.4852153566060
 30
0.0000000000000000
 10
484.7438560226258
 20
398.4852153566060
 30
0.0000000000000000
340
FB
213
0.0000000000000000
223
-0.5000000000000000
233
0.0000000000000000
1001
ACAD
1000
DSTYLE
1002
{
1070
   147
1040
0.0
1070
    77
1070
     1
1070
   173
1070
     1
1070
     6
1000
_OPEN
1070
     7
1000
_OPEN
1002
}
  0
MTEXT
  5
FB
102
{ACAD_REACTORS
330
FA
102
}
100
AcDbEntity
  8
MAIN0
  6
CONTINUOUS
 62
3
100
AcDbMText
 10
484.7448560226258
 20
402.0852152612386
 30
0.0000000000000000
 40
3.099999904632568
 41
0.0000000000000000
 71
     1
 72
     1
  1
{\H0.70x;{6-M10}}
 11
1.000000000000000
 21
0.0000000000000000
 31
0.0000000000000000
  7
STANDARD
  0
LEADER
  5
FC
100
AcDbEntity
  8
MAIN0
  6
CONTINUOUS
 62
3
100
AcDbLeader
  3
MAIN001
 73
     0
 75
     1
 40
3.099999904632568
 41
31.69900001788142
 76
     3
 10
340.9148071853708
 20
318.7210255905796
 30
0.0000000000000000
 10
311.1113368209444
 20
349.9341271474931
 30
0.0000000000000000
 10
309.3243368736051
 20
349.9341271474931
 30
0.0000000000000000
340
FD
213
0.0000000000000000
223
-0.5000000000000000
233
0.0000000000000000
1001
ACAD
1000
DSTYLE
1002
{
1070
   147
1040
0.0
1070
    77
1070
     1
1070
   173
1070
     1
1070
     6
1000
_DOT
1070
     7
1000
_DOT
1002
}
  0
MTEXT
  5
FD
102
{ACAD_REACTORS
330
FC
102
}
100
AcDbEntity
  8
MAIN0
  6
CONTINUOUS
 62
3
100
AcDbMText
 10
277.6253368557237
 20
353.5341270521257
 30
0.0000000000000000
 40
3.099999904632568
 41
0.0000000000000000
 71
     1
 72
     1
  1
{\H0.70x;{表面追加工範囲 (3ヶ所)\PADDITIONAL\PMACHINING AREA\P(3 PLACE)}}
 11
1.000000000000000
 21
0.0000000000000000
 31
0.0000000000000000
  7
KNJYOKO
  0
MTEXT
  5
FE
100
AcDbEntity
  8
MAIN0
  6
CONTINUOUS
 62
3
100
AcDbMText
 10
123.6672342577703
 20
211.9280246481148
 30
0.0000000000000000
 40
2.799999952316284
 41
0.0000000000000000
 71
     1
 72
     1
  1
{\H0.67x;{POSSIBLE DEPTH\PFOR TAPPING\POR BORING}}
 11
1.000000000000000
 21
0.0000000000000000
 31
0.0000000000000000
  7
STANDARD
  0
MTEXT
  5
FF
100
AcDbEntity
  8
MAIN0
  6
CONTINUOUS
 62
3
100
AcDbMText
 10
255.3456434567235
 20
59.64901649752754
 30
0.0000000000000000
 40
2.000000000000000
 41
0.0000000000000000
 71
     1
 72
     1
  1
{\H0.82x;{2}}
 11
1.000000000000000
 21
0.0000000000000000
 31
0.0000000000000000
  7
STANDARD
  0
LINE
  5
100
100
AcDbEntity
  8
MAIN0
  6
CONTINUOUS
 62
3
100
AcDbLine
 10
229.2518388439358
 20
347.2895825640177
 30
0.0000000000000000
 11
233.2518388439358
 21
347.2895825640179
 31
0.0000000000000000
  0
DIMENSION
  5
10A
100
AcDbEntity
  8
MAIN0
  6
CONTINUOUS
 62
3
100
AcDbDimension
  2
*D6
 10
229.2518388439358
 20
343.0808600966215
 30
0.0000000000000000
 11
231.2518388439358
 21
343.5808600966215
 31
0.0000000000000000
 70
32
  3
MAIN001
100
AcDbAlignedDimension
 13
233.2518388439358
 23
347.2895825640179
 33
0.0000000000000000
 14
229.2518388439358
 24
338.2895825640175
 34
0.0000000000000000
100
AcDbRotatedDimension
1001
ACAD
1000
DSTYLE
1002
{
1070
   173
1070
     1
1070
     6
1000
_OPEN
1070
     7
1000
_OPEN
1070
    41
1040
2.000000
1070
   287
1070
     0
1002
}
  0
LINE
  5
10B
100
AcDbEntity
  8
MAIN0
  6
PHANTOM
 62
3
100
AcDbLine
 10
238.2518388439358
 20
351.5362225782325
 30
0.0000000000000000
 11
238.2518388439358
 21
359.1458071766032
 31
0.0000000000000000
  0
LINE
  5
10C
100
AcDbEntity
  8
MAIN0
  6
PHANTOM
 62
3
100
AcDbLine
 10
238.2518388439358
 20
348.5362225782336
 30
0.0000000000000000
 11
238.2518388439358
 21
351.5362225782325
 31
0.0000000000000000
  0
LINE
  5
10D
100
AcDbEntity
  8
MAIN0
  6
PHANTOM
 62
3
100
AcDbLine
 10
238.2518388439218
 20
348.5362225782339
 30
0.0000000000000000
 11
236.3978274149747
 21
348.5362225782342
 31
0.0000000000000000
  0
LINE
  5
10E
100
AcDbEntity
  8
MAIN0
  6
CONTINUOUS
 62
3
100
AcDbLine
 10
413.2518388438343
 20
347.2895825640151
 30
0.0000000000000000
 11
436.2518388438340
 21
347.2895825640151
 31
0.0000000000000000
  0
LINE
  5
10F
100
AcDbEntity
  8
MAIN0
  6
CONTINUOUS
 62
3
100
AcDbLine
 10
436.2518388438341
 20
347.2895825640151
 30
0.0000000000000000
 11
437.2518388438298
 21
348.2895825640151
 31
0.0000000000000000
  0
LINE
  5
110
100
AcDbEntity
  8
MAIN0
  6
CONTINUOUS
 62
3
100
AcDbLine
 10
413.2518388438343
 20
347.2895825640150
 30
0.0000000000000000
 11
412.2518388438299
 21
348.2895825640151
 31
0.0000000000000000
  0
LINE
  5
111
100
AcDbEntity
  8
MAIN0
  6
CONTINUOUS
 62
3
100
AcDbLine
 10
355.6576287147406
 20
206.9642650166182
 30
0.0000000000000000
 11
353.0595525033926
 21
205.4642650166063
 31
0.0000000000000000
  0
LINE
  5
112
100
AcDbEntity
  8
MAIN0
  6
CONTINUOUS
 62
3
100
AcDbLine
 10
356.0236541185229
 20
208.3302904204063
 30
0.0000000000000000
 11
355.6576287147406
 21
206.9642650166181
 31
0.0000000000000000
  0
LINE
  5
113
100
AcDbEntity
  8
MAIN0
  6
CONTINUOUS
 62
3
100
AcDbLine
 10
356.0236541185229
 20
208.3302904204064
 30
0.0000000000000000
 11
344.5236541185230
 21
228.2488747074482
 31
0.0000000000000000
  0
LINE
  5
114
100
AcDbEntity
  8
MAIN0
  6
CONTINUOUS
 62
3
100
AcDbLine
 10
344.5236541185230
 20
228.2488747074482
 30
0.0000000000000000
 11
343.1576287147407
 21
228.6149001112289
 31
0.0000000000000000
  0
LINE
  5
115
100
AcDbEntity
  8
MAIN0
  6
CONTINUOUS
 62
3
100
AcDbLine
 10
343.1576287147407
 20
228.6149001112289
 30
0.0000000000000000
 11
340.5595525033889
 21
227.1149001112150
 31
0.0000000000000000
  0
LINE
  5
116
100
AcDbEntity
  8
MAIN0
  6
CONTINUOUS
 62
3
100
AcDbLine
 10
506.3460489732338
 20
228.6149001114108
 30
0.0000000000000000
 11
508.9441251845948
 21
227.1149001114214
 31
0.0000000000000000
  0
LINE
  5
117
100
AcDbEntity
  8
MAIN0
  6
CONTINUOUS
 62
3
100
AcDbLine
 10
504.9800235694472
 20
228.2488747076226
 30
0.0000000000000000
 11
506.3460489732337
 21
228.6149001114108
 31
0.0000000000000000
  0
LINE
  5
118
100
AcDbEntity
  8
MAIN0
  6
CONTINUOUS
 62
3
100
AcDbLine
 10
504.9800235694472
 20
228.2488747076226
 30
0.0000000000000000
 11
493.4800235694473
 21
208.3302904205807
 31
0.0000000000000000
  0
LINE
  5
119
100
AcDbEntity
  8
MAIN0
  6
CONTINUOUS
 62
3
100
AcDbLine
 10
493.4800235694473
 20
208.3302904205806
 30
0.0000000000000000
 11
493.8460489732339
 21
206.9642650167999
 31
0.0000000000000000
  0
LINE
  5
11A
100
AcDbEntity
  8
MAIN0
  6
CONTINUOUS
 62
3
100
AcDbLine
 10
493.8460489732339
 20
206.9642650168000
 30
0.0000000000000000
 11
496.4441251845985
 21
205.4642650168083
 31
0.0000000000000000
  0
LINE
  5
11B
100
AcDbEntity
  8
MAIN0
  6
CONTINUOUS
 62
3
100
AcDbLine
 10
353.0595525033926
 20
205.4642650166063
 30
0.0000000000000000
 11
351.1351751255908
 21
204.3532252194989
 31
0.0000000000000000
  0
LINE
  5
11C
100
AcDbEntity
  8
MAIN0
  6
CONTINUOUS
 62
3
100
AcDbLine
 10
340.5595525033890
 20
227.1149001112149
 30
0.0000000000000000
 11
338.6351751254976
 21
226.0038603140558
 31
0.0000000000000000
  0
LINE
  5
11D
100
AcDbEntity
  8
MAIN0
  6
CONTINUOUS
 62
3
100
AcDbLine
 10
508.9441251845947
 20
227.1149001114213
 30
0.0000000000000000
 11
510.8685025624061
 21
226.0038603143305
 31
0.0000000000000000
  0
LINE
  5
11E
100
AcDbEntity
  8
MAIN0
  6
CONTINUOUS
 62
3
100
AcDbLine
 10
496.4441251845987
 20
205.4642650168084
 30
0.0000000000000000
 11
498.3685025624997
 21
204.3532252196659
 31
0.0000000000000000
  0
MTEXT
  5
11F
100
AcDbEntity
  8
MAIN0
  6
CONTINUOUS
 62
3
100
AcDbMText
 10
210.5000000000001
 20
211.0999989534679
 30
0.0000000000000000
 40
4.000000000000000
 41
0.0000000000000000
 71
     1
 72
     1
  1
{\H0.59x;{ロケータ取付可能面範囲}}
 11
6.123233995736766e-017
 21
1.000000000000000
 31
0.0000000000000000
  7
KNJYOKO
  0
MTEXT
  5
120
100
AcDbEntity
  8
MAIN0
  6
CONTINUOUS
 62
3
100
AcDbMText
 10
215.5000000000001
 20
211.0999989534679
 30
0.0000000000000000
 40
2.799999952316284
 41
0.0000000000000000
 71
     1
 72
     1
  1
{\H0.67x;{LOCATOR ATTACHABLE\PSURFACE AREA}}
 11
6.123233995736766e-017
 21
1.000000000000000
 31
0.0000000000000000
  7
STANDARD
  0
LEADER
  5
121
100
AcDbEntity
  8
MAIN0
  6
CONTINUOUS
 62
3
100
AcDbLeader
  3
MAIN001
 73
     3
 74
     0
 75
     0
 76
     2
 10
184.7518388439359
 20
275.0000000000000
 30
0.0000000000000000
 10
195.0000000000000
 20
280.0000000000000
 30
0.0000000000000000
1001
ACAD
1000
DSTYLE
1002
{
1070
   173
1070
     1
1070
     6
1000
_OPEN
1070
     7
1000
_OPEN
1002
}
  0
MTEXT
  5
122
100
AcDbEntity
  8
MAIN0
  6
CONTINUOUS
 62
3
100
AcDbMText
 10
109.5139999821186
 20
381.3000001907349
 30
0.0000000000000000
 40
3.099999904632568
 41
0.0000000000000000
 71
     1
 72
     1
  1
{\H0.71x;{COVER:\PPREPARE THE\PLOCATOR FOR SEAL}}
 11
1.000000000000000
 21
0.0000000000000000
 31
0.0000000000000000
  7
STANDARD
  0
LINE
  5
123
100
AcDbEntity
  8
MAIN0
  6
CENTER
 62
3
100
AcDbLine
 10
95.75182427250449
 20
132.2898425609131
 30
0.0000000000000000
 11
95.75182427250475
 21
155.0391154539855
 31
0.0000000000000000
  0
LINE
  5
124
100
AcDbEntity
  8
MAIN0
  6
CONTINUOUS
 62
3
100
AcDbLine
 10
110.7518242725048
 20
135.7895825640177
 30
0.0000000000000000
 11
110.7518242725050
 21
155.7895825640177
 31
0.0000000000000000
  0
LINE
  5
125
100
AcDbEntity
  8
MAIN0
  6
CONTINUOUS
 62
3
100
AcDbLine
 10
110.7518242725044
 20
135.7895825640175
 30
0.0000000000000000
 11
80.75182427250435
 21
135.7895825640179
 31
0.0000000000000000
  0
LINE
  5
126
100
AcDbEntity
  8
MAIN0
  6
CONTINUOUS
 62
3
100
AcDbLine
 10
110.7518242725046
 20
155.7895825640175
 30
0.0000000000000000
 11
80.75182427250455
 21
155.7895825640179
 31
0.0000000000000000
  0
LINE
  5
127
100
AcDbEntity
  8
MAIN0
  6
CONTINUOUS
 62
3
100
AcDbLine
 10
172.7518388439362
 20
287.9235571602331
 30
0.0000000000000000
 11
171.2518388439362
 21
288.7895825640178
 31
0.0000000000000000
  0
LINE
  5
128
100
AcDbEntity
  8
MAIN0
  6
CONTINUOUS
 62
3
100
AcDbLine
 10
172.7518388439357
 20
234.6556079678030
 30
0.0000000000000000
 11
171.2518388439358
 21
233.7895825640187
 31
0.0000000000000000
  0
LINE
  5
129
100
AcDbEntity
  8
MAIN0
  6
CONTINUOUS
 62
3
100
AcDbLine
 10
141.5518388440832
 20
238.7895825640184
 30
0.0000000000000000
 11
172.7518388439359
 21
238.7895825640185
 31
0.0000000000000000
  0
LINE
  5
12A
100
AcDbEntity
  8
MAIN0
  6
CENTER
 62
3
100
AcDbLine
 10
60.73426646148739
 20
261.2895825640183
 30
0.0000000000000000
 11
193.7262490465172
 21
261.2895825640170
 31
0.0000000000000000
  0
LINE
  5
12B
100
AcDbEntity
  8
MAIN0
  6
PHANTOM
 62
12
100
AcDbLine
 10
177.7518388439361
 20
287.9235571602335
 30
0.0000000000000000
 11
176.2518388439360
 21
288.7895825640181
 31
0.0000000000000000
  0
LINE
  5
12C
100
AcDbEntity
  8
MAIN0
  6
PHANTOM
 62
12
100
AcDbLine
 10
177.7518388439361
 20
234.6556079678030
 30
0.0000000000000000
 11
176.2518388439361
 21
233.7895825640186
 31
0.0000000000000000
  0
LINE
  5
12D
100
AcDbEntity
  8
MAIN0
  6
HIDDEN
 62
3
100
AcDbLine
 10
66.15183884392167
 20
381.7895825640179
 30
0.0000000000000000
 11
65.75183884392169
 21
382.1895825640180
 31
0.0000000000000000
  0
LINE
  5
12E
100
AcDbEntity
  8
MAIN0
  6
HIDDEN
 62
3
100
AcDbLine
 10
80.35183884392160
 20
370.7895825640180
 30
0.0000000000000000
 11
80.75183884392149
 21
370.3895825640180
 31
0.0000000000000000
  0
LINE
  5
12F
100
AcDbEntity
  8
MAIN0
  6
HIDDEN
 62
3
100
AcDbLine
 10
80.35183884392154
 20
381.7895825640180
 30
0.0000000000000000
 11
80.75183884392138
 21
382.1895825640179
 31
0.0000000000000000
  0
LINE
  5
130
100
AcDbEntity
  8
MAIN0
  6
HIDDEN
 62
3
100
AcDbLine
 10
66.15183884392161
 20
370.7895825640180
 30
0.0000000000000000
 11
65.75183884392163
 21
370.3895825640179
 31
0.0000000000000000
  0
LINE
  5
131
100
AcDbEntity
  8
MAIN0
  6
CONTINUOUS
 62
3
100
AcDbLine
 10
65.75183884392182
 20
384.6895825640182
 30
0.0000000000000000
 11
65.75183884392185
 21
137.8895825640182
 31
0.0000000000000000
  0
LINE
  5
132
100
AcDbEntity
  8
MAIN0
  6
CONTINUOUS
 62
3
100
AcDbLine
 10
66.35183884392171
 20
385.2895825640182
 30
0.0000000000000000
 11
80.15183884392167
 21
385.2895825640182
 31
0.0000000000000000
  0
LINE
  5
133
100
AcDbEntity
  8
MAIN0
  6
CONTINUOUS
 62
3
100
AcDbLine
 10
66.35183884392173
 20
137.2895825640181
 30
0.0000000000000000
 11
80.15183884392168
 21
137.2895825640181
 31
0.0000000000000000
  0
LINE
  5
134
100
AcDbEntity
  8
MAIN0
  6
CENTER
 62
3
100
AcDbLine
 10
61.77482581369778
 20
376.2895825640182
 30
0.0000000000000000
 11
84.76463569912671
 21
376.2895825640182
 31
0.0000000000000000
  0
LINE
  5
135
100
AcDbEntity
  8
MAIN0
  6
CONTINUOUS
 62
3
100
AcDbLine
 10
65.75183884392189
 20
384.6895825640182
 30
0.0000000000000000
 11
66.35183884392194
 21
385.2895825640183
 31
0.0000000000000000
  0
LINE
  5
136
100
AcDbEntity
  8
MAIN0
  6
CONTINUOUS
 62
3
100
AcDbLine
 10
80.15183884392218
 20
385.2895825640179
 30
0.0000000000000000
 11
80.75183884392209
 21
384.6895825640180
 31
0.0000000000000000
  0
LINE
  5
137
100
AcDbEntity
  8
MAIN0
  6
CONTINUOUS
 62
3
100
AcDbLine
 10
80.15183884392171
 20
137.2895825640186
 30
0.0000000000000000
 11
80.75183884392186
 21
137.8895825640188
 31
0.0000000000000000
  0
LINE
  5
138
100
AcDbEntity
  8
MAIN0
  6
CONTINUOUS
 62
3
100
AcDbLine
 10
66.35183884392168
 20
137.2895825640182
 30
0.0000000000000000
 11
65.75183884392165
 21
137.8895825640181
 31
0.0000000000000000
  0
LINE
  5
139
100
AcDbEntity
  8
MAIN0
  6
HIDDEN
 62
3
100
AcDbLine
 10
66.15183884392168
 20
381.7895825640182
 30
0.0000000000000000
 11
80.35183884392173
 21
381.7895825640182
 31
0.0000000000000000
  0
LINE
  5
13A
100
AcDbEntity
  8
MAIN0
  6
HIDDEN
 62
3
100
AcDbLine
 10
66.15183884392170
 20
370.7895825640182
 30
0.0000000000000000
 11
80.35183884392174
 21
370.7895825640182
 31
0.0000000000000000
  0
LINE
  5
13B
100
AcDbEntity
  8
MAIN0
  6
CENTER
 62
3
100
AcDbLine
 10
74.25183884392187
 20
190.4041554726667
 30
0.0000000000000000
 11
74.25183884392190
 21
135.7895825640181
 31
0.0000000000000000
  0
LINE
  5
13C
100
AcDbEntity
  8
MAIN0
  6
CONTINUOUS
 62
3
100
AcDbLine
 10
65.75183884392166
 20
326.2895825640181
 30
0.0000000000000000
 11
66.25183884392177
 21
326.2895825640181
 31
0.0000000000000000
  0
LINE
  5
13D
100
AcDbEntity
  8
MAIN0
  6
PHANTOM
 62
12
100
AcDbLine
 10
173.1325229459759
 20
283.7895825640184
 30
0.0000000000000000
 11
177.7518388439359
 21
283.7895825640184
 31
0.0000000000000000
  0
LINE
  5
13E
100
AcDbEntity
  8
MAIN0
  6
CONTINUOUS
 62
3
100
AcDbLine
 10
154.6517287473286
 20
233.7895825640183
 30
0.0000000000000000
 11
182.7518388441271
 21
233.7895825640183
 31
0.0000000000000000
  0
LINE
  5
13F
100
AcDbEntity
  8
MAIN0
  6
CENTER
 62
12
100
AcDbLine
 10
160.6839404186016
 20
319.1936853904742
 30
0.0000000000000000
 11
243.6909135798547
 21
339.8896482308270
 31
0.0000000000000000
  0
LINE
  5
140
100
AcDbEntity
  8
MAIN0
  6
CENTER
 62
12
100
AcDbLine
 10
174.3416901137197
 20
317.7895825641984
 30
0.0000000000000000
 11
240.3359639235440
 21
317.7895825641984
 31
0.0000000000000000
  0
LINE
  5
141
100
AcDbEntity
  8
MAIN0
  6
CONTINUOUS
 62
3
100
AcDbLine
 10
211.2518388439357
 20
307.7895825641984
 30
0.0000000000000000
 11
232.6518388439357
 21
307.7895825641984
 31
0.0000000000000000
  0
LINE
  5
142
100
AcDbEntity
  8
MAIN0
  6
CONTINUOUS
 62
3
100
AcDbLine
 10
211.2518388439357
 20
327.7895825641985
 30
0.0000000000000000
 11
232.6518388439357
 21
327.7895825641985
 31
0.0000000000000000
  0
LINE
  5
143
100
AcDbEntity
  8
MAIN0
  6
CONTINUOUS
 62
3
100
AcDbLine
 10
211.2518388439356
 20
307.7895825641985
 30
0.0000000000000000
 11
211.2518388439356
 21
327.7895825641985
 31
0.0000000000000000
  0
LINE
  5
144
100
AcDbEntity
  8
MAIN0
  6
CONTINUOUS
 62
3
100
AcDbLine
 10
233.2518388439360
 20
307.1895825641986
 30
0.0000000000000000
 11
232.6518388439359
 21
307.7895825641987
 31
0.0000000000000000
  0
LINE
  5
145
100
AcDbEntity
  8
MAIN0
  6
CONTINUOUS
 62
3
100
AcDbLine
 10
233.2518388439359
 20
328.3895825641987
 30
0.0000000000000000
 11
232.6518388439360
 21
327.7895825641988
 31
0.0000000000000000
  0
LINE
  5
146
100
AcDbEntity
  8
MAIN0
  6
CONTINUOUS
 62
3
100
AcDbLine
 10
199.2518388439358
 20
310.4395825641985
 30
0.0000000000000000
 11
199.8518388439358
 21
311.0395825641985
 31
0.0000000000000000
  0
LINE
  5
147
100
AcDbEntity
  8
MAIN0
  6
CONTINUOUS
 62
3
100
AcDbLine
 10
199.2518388439358
 20
325.1395825641985
 30
0.0000000000000000
 11
199.8518388439358
 21
324.5395825641986
 31
0.0000000000000000
  0
LINE
  5
148
100
AcDbEntity
  8
MAIN0
  6
CONTINUOUS
 62
3
100
AcDbLine
 10
211.2518388439359
 20
311.7895825641982
 30
0.0000000000000000
 11
181.2518388439359
 21
311.7895825641982
 31
0.0000000000000000
  0
LINE
  5
149
100
AcDbEntity
  8
MAIN0
  6
CONTINUOUS
 62
3
100
AcDbLine
 10
181.2518388439358
 20
311.7895825641983
 30
0.0000000000000000
 11
181.2518388439358
 21
323.7895825641984
 31
0.0000000000000000
  0
LINE
  5
14A
100
AcDbEntity
  8
MAIN0
  6
CONTINUOUS
 62
3
100
AcDbLine
 10
181.2518388439358
 20
323.7895825641984
 30
0.0000000000000000
 11
211.2518388439355
 21
323.7895755641984
 31
0.0000000000000000
  0
LINE
  5
14B
100
AcDbEntity
  8
MAIN0
  6
CONTINUOUS
 62
12
100
AcDbLine
 10
211.2518388439359
 20
312.7895825641982
 30
0.0000000000000000
 11
181.2518388439359
 21
312.7895825641982
 31
0.0000000000000000
  0
LINE
  5
14C
100
AcDbEntity
  8
MAIN0
  6
CONTINUOUS
 62
12
100
AcDbLine
 10
211.2518388439356
 20
322.7895825641984
 30
0.0000000000000000
 11
181.2518388439358
 21
322.7895825641984
 31
0.0000000000000000
  0
LINE
  5
14D
100
AcDbEntity
  8
MAIN0
  6
CONTINUOUS
 62
3
100
AcDbLine
 10
211.2518418439357
 20
326.7895825641983
 30
0.0000000000000000
 11
222.5518068439358
 21
326.7895755641983
 31
0.0000000000000000
  0
LINE
  5
14E
100
AcDbEntity
  8
MAIN0
  6
CONTINUOUS
 62
3
100
AcDbLine
 10
222.5517953868344
 20
308.7895755642219
 30
0.0000000000000000
 11
211.2518343868343
 21
308.7895825642219
 31
0.0000000000000000
  0
LINE
  5
14F
100
AcDbEntity
  8
MAIN0
  6
CONTINUOUS
 62
3
100
AcDbLine
 10
222.5518448439354
 20
326.7895755641986
 30
0.0000000000000000
 11
222.5518338439354
 21
308.7895755641985
 31
0.0000000000000000
  0
LINE
  5
150
100
AcDbEntity
  8
MAIN0
  6
CONTINUOUS
 62
3
100
AcDbLine
 10
223.2517768439358
 20
310.0020235641986
 30
0.0000000000000000
 11
222.5518338439358
 21
308.7895755641985
 31
0.0000000000000000
  0
LINE
  5
151
100
AcDbEntity
  8
MAIN0
  6
CONTINUOUS
 62
3
100
AcDbLine
 10
223.2517888439355
 20
325.5772495641988
 30
0.0000000000000000
 11
222.5518448439354
 21
326.7895755641989
 31
0.0000000000000000
  0
LINE
  5
152
100
AcDbEntity
  8
MAIN0
  6
CONTINUOUS
 62
3
100
AcDbLine
 10
223.2518388439358
 20
310.0021309611949
 30
0.0000000000000000
 11
223.2518388439358
 21
325.5771629625559
 31
0.0000000000000000
  0
LINE
  5
153
100
AcDbEntity
  8
MAIN0
  6
CONTINUOUS
 62
3
100
AcDbLine
 10
199.2518388439357
 20
292.2895825641982
 30
0.0000000000000000
 11
199.2518388439357
 21
312.7895825641983
 31
0.0000000000000000
  0
LINE
  5
154
100
AcDbEntity
  8
MAIN0
  6
CONTINUOUS
 62
3
100
AcDbLine
 10
199.2518388439357
 20
322.7895825641983
 30
0.0000000000000000
 11
199.2518388439357
 21
333.2895825640230
 31
0.0000000000000000
  0
LINE
  5
155
100
AcDbEntity
  8
MAIN0
  6
CONTINUOUS
 62
3
100
AcDbLine
 10
203.2518388439357
 20
263.7895825641984
 30
0.0000000000000000
 11
233.2518388439357
 21
263.7895825641984
 31
0.0000000000000000
  0
LINE
  5
156
100
AcDbEntity
  8
MAIN0
  6
CONTINUOUS
 62
3
100
AcDbLine
 10
199.8518388439355
 20
311.0395825641984
 30
0.0000000000000000
 11
211.2518388439356
 21
311.0395825641984
 31
0.0000000000000000
  0
LINE
  5
157
100
AcDbEntity
  8
MAIN0
  6
CONTINUOUS
 62
3
100
AcDbLine
 10
199.8518388439355
 20
324.5395825641983
 30
0.0000000000000000
 11
211.2518388439356
 21
324.5395825641983
 31
0.0000000000000000
  0
LINE
  5
158
100
AcDbEntity
  8
MAIN0
  6
CONTINUOUS
 62
3
100
AcDbLine
 10
202.2518388439357
 20
264.7895825641984
 30
0.0000000000000000
 11
202.2518388439357
 21
292.2895825641984
 31
0.0000000000000000
  0
LINE
  5
159
100
AcDbEntity
  8
MAIN0
  6
CONTINUOUS
 62
3
100
AcDbLine
 10
199.2518388439359
 20
292.2895825641985
 30
0.0000000000000000
 11
202.2518388439358
 21
292.2895825641985
 31
0.0000000000000000
  0
LINE
  5
15A
100
AcDbEntity
  8
MAIN0
  6
CONTINUOUS
 62
3
100
AcDbLine
 10
203.2518388439357
 20
263.7895825641984
 30
0.0000000000000000
 11
202.2518388439357
 21
264.7895825641984
 31
0.0000000000000000
  0
LINE
  5
15B
100
AcDbEntity
  8
MAIN0
  6
CONTINUOUS
 62
3
100
AcDbLine
 10
233.2518388439357
 20
263.7895825641984
 30
0.0000000000000000
 11
233.2518388439357
 21
338.2895825640167
 31
0.0000000000000000
  0
LINE
  5
15C
100
AcDbEntity
  8
MAIN0
  6
CONTINUOUS
 62
3
100
AcDbLine
 10
204.2518388439360
 20
338.2895825640220
 30
0.0000000000000000
 11
199.2518388439360
 21
333.2895825640229
 31
0.0000000000000000
  0
LINE
  5
15D
100
AcDbEntity
  8
MAIN0
  6
CONTINUOUS
 62
3
100
AcDbLine
 10
214.7495227210556
 20
338.2895825640203
 30
0.0000000000000000
 11
204.2518388439359
 21
338.2895825640223
 31
0.0000000000000000
  0
LINE
  5
15E
100
AcDbEntity
  8
MAIN0
  6
CONTINUOUS
 62
3
100
AcDbLine
 10
233.2518388439357
 20
338.2895825640167
 30
0.0000000000000000
 11
214.7495227210554
 21
338.2895825640201
 31
0.0000000000000000
  0
LINE
  5
15F
100
AcDbEntity
  8
MAIN0
  6
PHANTOM
 62
12
100
AcDbLine
 10
173.1325229459756
 20
238.7895825640160
 30
0.0000000000000000
 11
177.7518388439356
 21
238.7895825640159
 31
0.0000000000000000
  0
LINE
  5
160
100
AcDbEntity
  8
MAIN0
  6
CONTINUOUS
 62
3
100
AcDbLine
 10
141.5518388440833
 20
283.7895825640167
 30
0.0000000000000000
 11
172.7518388439360
 21
283.7895825640157
 31
0.0000000000000000
  0
LINE
  5
161
100
AcDbEntity
  8
MAIN0
  6
CONTINUOUS
 62
3
100
AcDbLine
 10
172.7518388439359
 20
287.9235571602335
 30
0.0000000000000000
 11
172.7518388439359
 21
234.6556079678030
 31
0.0000000000000000
  0
LINE
  5
162
100
AcDbEntity
  8
MAIN0
  6
PHANTOM
 62
12
100
AcDbLine
 10
177.7518388439359
 20
287.9235571602335
 30
0.0000000000000000
 11
177.7518388439359
 21
234.6556079678028
 31
0.0000000000000000
  0
LINE
  5
163
100
AcDbEntity
  8
MAIN0
  6
HIDDEN
 62
3
100
AcDbLine
 10
71.95183884392188
 20
185.9598325640178
 30
0.0000000000000000
 11
71.95183884392189
 21
176.6193325640179
 31
0.0000000000000000
  0
LINE
  5
164
100
AcDbEntity
  8
MAIN0
  6
HIDDEN
 62
3
100
AcDbLine
 10
66.75183884392177
 20
177.0378325640175
 30
0.0000000000000000
 11
71.95183884392174
 21
177.2003325640175
 31
0.0000000000000000
  0
LINE
  5
165
100
AcDbEntity
  8
MAIN0
  6
HIDDEN
 62
3
100
AcDbLine
 10
71.95183884392195
 20
176.6193325640179
 30
0.0000000000000000
 11
66.75183884392199
 21
176.4568325640179
 31
0.0000000000000000
  0
LINE
  5
166
100
AcDbEntity
  8
MAIN0
  6
HIDDEN
 62
3
100
AcDbLine
 10
66.75183884392186
 20
186.1223325640176
 30
0.0000000000000000
 11
71.95183884392182
 21
185.9598325640176
 31
0.0000000000000000
  0
LINE
  5
167
100
AcDbEntity
  8
MAIN0
  6
HIDDEN
 62
3
100
AcDbLine
 10
66.75183884392186
 20
185.5413325640176
 30
0.0000000000000000
 11
71.95183884392182
 21
185.3788325640177
 31
0.0000000000000000
  0
LINE
  5
168
100
AcDbEntity
  8
MAIN0
  6
CENTER
 62
3
100
AcDbLine
 10
63.02370937112574
 20
181.2895825640177
 30
0.0000000000000000
 11
88.84877744893129
 21
181.2895825640178
 31
0.0000000000000000
  0
LINE
  5
169
100
AcDbEntity
  8
MAIN0
  6
CONTINUOUS
 62
3
100
AcDbLine
 10
183.2518388439351
 20
206.2895825641381
 30
0.0000000000000000
 11
183.7518388439352
 21
206.2895825641382
 31
0.0000000000000000
  0
LINE
  5
16A
100
AcDbEntity
  8
MAIN0
  6
CONTINUOUS
 62
3
100
AcDbLine
 10
183.2518388439350
 20
201.2895825640984
 30
0.0000000000000000
 11
184.2518388439359
 21
201.2895825640983
 31
0.0000000000000000
  0
LINE
  5
16B
100
AcDbEntity
  8
MAIN0
  6
CONTINUOUS
 62
3
100
AcDbLine
 10
183.2518388439359
 20
206.2895825641344
 30
0.0000000000000000
 11
183.2518388439359
 21
201.2895825640762
 31
0.0000000000000000
  0
LINE
  5
16C
100
AcDbEntity
  8
MAIN0
  6
CENTER
 62
3
100
AcDbLine
 10
163.1009374058353
 20
213.7895825640182
 30
0.0000000000000000
 11
186.9552243188386
 21
213.7895825640180
 31
0.0000000000000000
  0
LINE
  5
16D
100
AcDbEntity
  8
MAIN0
  6
CENTER
 62
3
100
AcDbLine
 10
159.2518388439361
 20
183.1336456607907
 30
0.0000000000000000
 11
159.2518388439361
 21
152.5529666372338
 31
0.0000000000000000
  0
LINE
  5
16E
100
AcDbEntity
  8
MAIN0
  6
PHANTOM
 62
3
100
AcDbLine
 10
182.9518388439358
 20
211.2895825640171
 30
0.0000000000000000
 11
182.9518388439358
 21
216.2895825640171
 31
0.0000000000000000
  0
LINE
  5
16F
100
AcDbEntity
  8
MAIN0
  6
PHANTOM
 62
3
100
AcDbLine
 10
183.7518388439356
 20
210.4895825640173
 30
0.0000000000000000
 11
182.9518388439357
 21
211.2895825640171
 31
0.0000000000000000
  0
LINE
  5
170
100
AcDbEntity
  8
MAIN0
  6
PHANTOM
 62
3
100
AcDbLine
 10
183.4518388439359
 20
210.7895825640171
 30
0.0000000000000000
 11
171.7518388439358
 21
210.7895825640171
 31
0.0000000000000000
  0
LINE
  5
171
100
AcDbEntity
  8
MAIN0
  6
PHANTOM
 62
3
100
AcDbLine
 10
182.9518388439358
 20
211.2895825640171
 30
0.0000000000000000
 11
166.7518388439358
 21
211.2895825640171
 31
0.0000000000000000
  0
LINE
  5
172
100
AcDbEntity
  8
MAIN0
  6
PHANTOM
 62
3
100
AcDbLine
 10
182.9518388439356
 20
216.2895825640171
 30
0.0000000000000000
 11
183.7518388439355
 21
217.0895825640170
 31
0.0000000000000000
  0
LINE
  5
173
100
AcDbEntity
  8
MAIN0
  6
PHANTOM
 62
3
100
AcDbLine
 10
171.7518388439358
 20
216.7895825640171
 30
0.0000000000000000
 11
183.4518388439358
 21
216.7895825640171
 31
0.0000000000000000
  0
LINE
  5
174
100
AcDbEntity
  8
MAIN0
  6
PHANTOM
 62
3
100
AcDbLine
 10
166.7518388439358
 20
216.2895825640171
 30
0.0000000000000000
 11
182.9518388439359
 21
216.2895825640171
 31
0.0000000000000000
  0
LINE
  5
175
100
AcDbEntity
  8
MAIN0
  6
PHANTOM
 62
3
100
AcDbLine
 10
171.7518388439358
 20
210.7895825640171
 30
0.0000000000000000
 11
171.7518388439358
 21
216.7895825640171
 31
0.0000000000000000
  0
LINE
  5
176
100
AcDbEntity
  8
MAIN0
  6
PHANTOM
 62
3
100
AcDbLine
 10
166.7518388439358
 20
211.2895825640171
 30
0.0000000000000000
 11
166.7518388439358
 21
216.2895825640171
 31
0.0000000000000000
  0
LINE
  5
177
100
AcDbEntity
  8
MAIN0
  6
PHANTOM
 62
3
100
AcDbLine
 10
166.7518388439358
 20
211.2895825640172
 30
0.0000000000000000
 11
165.3084631709617
 21
213.7895825640173
 31
0.0000000000000000
  0
LINE
  5
178
100
AcDbEntity
  8
MAIN0
  6
PHANTOM
 62
3
100
AcDbLine
 10
165.3084631709617
 20
213.7895825640172
 30
0.0000000000000000
 11
166.7518388439358
 21
216.2895825640172
 31
0.0000000000000000
  0
LINE
  5
179
100
AcDbEntity
  8
MAIN0
  6
CONTINUOUS
 62
3
100
AcDbLine
 10
182.9518388439358
 20
223.2895825640210
 30
0.0000000000000000
 11
182.9518388439358
 21
228.2895825640210
 31
0.0000000000000000
  0
LINE
  5
17A
100
AcDbEntity
  8
MAIN0
  6
CONTINUOUS
 62
3
100
AcDbLine
 10
183.7518388439358
 20
222.4895825640212
 30
0.0000000000000000
 11
182.9518388439357
 21
223.2895825640212
 31
0.0000000000000000
  0
LINE
  5
17B
100
AcDbEntity
  8
MAIN0
  6
CONTINUOUS
 62
3
100
AcDbLine
 10
183.4518388439358
 20
222.7895825640210
 30
0.0000000000000000
 11
171.7518388439358
 21
222.7895825640210
 31
0.0000000000000000
  0
LINE
  5
17C
100
AcDbEntity
  8
MAIN0
  6
CONTINUOUS
 62
3
100
AcDbLine
 10
182.9518388439358
 20
223.2895825640210
 30
0.0000000000000000
 11
166.7518388439358
 21
223.2895825640210
 31
0.0000000000000000
  0
LINE
  5
17D
100
AcDbEntity
  8
MAIN0
  6
CONTINUOUS
 62
3
100
AcDbLine
 10
182.9518388439356
 20
228.2895825640210
 30
0.0000000000000000
 11
183.7518388439356
 21
229.0895825640209
 31
0.0000000000000000
  0
LINE
  5
17E
100
AcDbEntity
  8
MAIN0
  6
CONTINUOUS
 62
3
100
AcDbLine
 10
171.7518388439358
 20
228.7895825640210
 30
0.0000000000000000
 11
183.4518388439358
 21
228.7895825640210
 31
0.0000000000000000
  0
LINE
  5
17F
100
AcDbEntity
  8
MAIN0
  6
CONTINUOUS
 62
3
100
AcDbLine
 10
166.7518388439358
 20
228.2895825640210
 30
0.0000000000000000
 11
182.9518388439358
 21
228.2895825640210
 31
0.0000000000000000
  0
LINE
  5
180
100
AcDbEntity
  8
MAIN0
  6
CONTINUOUS
 62
3
100
AcDbLine
 10
171.7518388439358
 20
222.7895825640210
 30
0.0000000000000000
 11
171.7518388439358
 21
228.7895825640210
 31
0.0000000000000000
  0
LINE
  5
181
100
AcDbEntity
  8
MAIN0
  6
CONTINUOUS
 62
3
100
AcDbLine
 10
166.7518388439358
 20
223.2895825640210
 30
0.0000000000000000
 11
166.7518388439358
 21
228.2895825640210
 31
0.0000000000000000
  0
LINE
  5
182
100
AcDbEntity
  8
MAIN0
  6
CONTINUOUS
 62
3
100
AcDbLine
 10
166.7518388439358
 20
223.2895825640210
 30
0.0000000000000000
 11
165.3084631709618
 21
225.7895825640211
 31
0.0000000000000000
  0
LINE
  5
183
100
AcDbEntity
  8
MAIN0
  6
CONTINUOUS
 62
3
100
AcDbLine
 10
165.3084631709616
 20
225.7895825640210
 30
0.0000000000000000
 11
166.7518388439357
 21
228.2895825640210
 31
0.0000000000000000
  0
LINE
  5
184
100
AcDbEntity
  8
MAIN0
  6
CONTINUOUS
 62
3
100
AcDbLine
 10
183.7518388439355
 20
233.2122322949394
 30
0.0000000000000000
 11
183.7518388439354
 21
219.7895825640192
 31
0.0000000000000000
  0
LINE
  5
185
100
AcDbEntity
  8
MAIN0
  6
CONTINUOUS
 62
3
100
AcDbLine
 10
156.3466839039521
 20
288.7895825640180
 30
0.0000000000000000
 11
182.7518388441311
 21
288.7895825640180
 31
0.0000000000000000
  0
LINE
  5
186
100
AcDbEntity
  8
MAIN0
  6
CONTINUOUS
 62
3
100
AcDbLine
 10
183.7518388439360
 20
290.7895825640178
 30
0.0000000000000000
 11
183.7518388439359
 21
289.1895825640179
 31
0.0000000000000000
  0
LINE
  5
187
100
AcDbEntity
  8
MAIN0
  6
CONTINUOUS
 62
3
100
AcDbLine
 10
154.3878388439361
 20
157.5395825640178
 30
0.0000000000000000
 11
154.5815888439361
 21
163.7395825640178
 31
0.0000000000000000
  0
LINE
  5
188
100
AcDbEntity
  8
MAIN0
  6
PHANTOM
 62
3
100
AcDbLine
 10
154.5815888439360
 20
163.7395825640179
 30
0.0000000000000000
 11
163.9220888439360
 21
163.7395825640179
 31
0.0000000000000000
  0
LINE
  5
189
100
AcDbEntity
  8
MAIN0
  6
PHANTOM
 62
3
100
AcDbLine
 10
163.9220888439360
 20
163.7395825640178
 30
0.0000000000000000
 11
164.1158388439360
 21
157.5395825640178
 31
0.0000000000000000
  0
LINE
  5
18A
100
AcDbEntity
  8
MAIN0
  6
PHANTOM
 62
3
100
AcDbLine
 10
154.9688388439360
 20
157.5395825640177
 30
0.0000000000000000
 11
155.1625888439361
 21
163.7395825640177
 31
0.0000000000000000
  0
LINE
  5
18B
100
AcDbEntity
  8
MAIN0
  6
PHANTOM
 62
3
100
AcDbLine
 10
163.5348388439360
 20
157.5395825640178
 30
0.0000000000000000
 11
163.3410888439359
 21
163.7395825640179
 31
0.0000000000000000
  0
LINE
  5
18C
100
AcDbEntity
  8
MAIN0
  6
PHANTOM
 62
3
100
AcDbLine
 10
155.1518388439359
 20
177.7895825640179
 30
0.0000000000000000
 11
163.3518388439360
 21
177.7895825640179
 31
0.0000000000000000
  0
LINE
  5
18D
100
AcDbEntity
  8
MAIN0
  6
PHANTOM
 62
3
100
AcDbLine
 10
155.1518388439360
 20
177.7895825640178
 30
0.0000000000000000
 11
159.2518388439360
 21
180.1567186676953
 31
0.0000000000000000
  0
LINE
  5
18E
100
AcDbEntity
  8
MAIN0
  6
PHANTOM
 62
3
100
AcDbLine
 10
159.2518388439359
 20
180.1567186676953
 30
0.0000000000000000
 11
163.3518388439358
 21
177.7895825640179
 31
0.0000000000000000
  0
LINE
  5
18F
100
AcDbEntity
  8
MAIN0
  6
PHANTOM
 62
3
100
AcDbLine
 10
166.7518388439360
 20
157.5395825640180
 30
0.0000000000000000
 11
166.7518388439360
 21
156.8395825634282
 31
0.0000000000000000
  0
LINE
  5
190
100
AcDbEntity
  8
MAIN0
  6
PHANTOM
 62
3
100
AcDbLine
 10
151.7518388439360
 20
157.5395825640180
 30
0.0000000000000000
 11
151.7518388439360
 21
156.5395825640180
 31
0.0000000000000000
  0
LINE
  5
191
100
AcDbEntity
  8
MAIN0
  6
PHANTOM
 62
3
100
AcDbLine
 10
151.7518388439219
 20
157.5395825640179
 30
0.0000000000000000
 11
166.7518388439219
 21
157.5395825640179
 31
0.0000000000000000
  0
LINE
  5
192
100
AcDbEntity
  8
MAIN0
  6
CENTER
 62
3
100
AcDbLine
 10
161.8244439558299
 20
225.7895825640221
 30
0.0000000000000000
 11
191.0474524287178
 21
225.7895825640238
 31
0.0000000000000000
  0
LINE
  5
193
100
AcDbEntity
  8
MAIN0
  6
CENTER
 62
3
100
AcDbLine
 10
86.91806849413597
 20
148.2895825640179
 30
0.0000000000000000
 11
69.90896762153651
 21
148.2895825640179
 31
0.0000000000000000
  0
LINE
  5
194
100
AcDbEntity
  8
MAIN0
  6
HIDDEN
 62
3
100
AcDbLine
 10
102.0365742725047
 20
145.1895825640177
 30
0.0000000000000000
 11
102.3303242725044
 21
135.7895825640182
 31
0.0000000000000000
  0
LINE
  5
195
100
AcDbEntity
  8
MAIN0
  6
HIDDEN
 62
3
100
AcDbLine
 10
101.4743242725045
 20
135.7895825640175
 30
0.0000000000000000
 11
101.1805742725047
 21
145.1895825640175
 31
0.0000000000000000
  0
LINE
  5
196
100
AcDbEntity
  8
MAIN0
  6
HIDDEN
 62
3
100
AcDbLine
 10
90.02932427250450
 20
135.7895825640181
 30
0.0000000000000000
 11
90.32307427250476
 21
145.1895825640179
 31
0.0000000000000000
  0
LINE
  5
197
100
AcDbEntity
  8
MAIN0
  6
HIDDEN
 62
3
100
AcDbLine
 10
89.17332427250442
 20
135.7895825640180
 30
0.0000000000000000
 11
89.46707427250468
 21
145.1895825640178
 31
0.0000000000000000
  0
LINE
  5
198
100
AcDbEntity
  8
MAIN0
  6
HIDDEN
 62
3
100
AcDbLine
 10
65.75183884390977
 20
196.2895825640181
 30
0.0000000000000000
 11
66.25183884392170
 21
196.2895825640181
 31
0.0000000000000000
  0
LINE
  5
199
100
AcDbEntity
  8
MAIN0
  6
CONTINUOUS
 62
3
100
AcDbLine
 10
66.25183884392175
 20
268.2895825640181
 30
0.0000000000000000
 11
66.75183884393221
 21
268.2895825640181
 31
0.0000000000000000
  0
LINE
  5
19A
100
AcDbEntity
  8
MAIN0
  6
CONTINUOUS
 62
3
100
AcDbLine
 10
66.75183884392176
 20
268.2895825640008
 30
0.0000000000000000
 11
66.75183884392176
 21
254.2895825640008
 31
0.0000000000000000
  0
LINE
  5
19B
100
AcDbEntity
  8
MAIN0
  6
CONTINUOUS
 62
3
100
AcDbLine
 10
66.75183884392177
 20
265.5413325640179
 30
0.0000000000000000
 11
71.95183884392174
 21
265.3788325640179
 31
0.0000000000000000
  0
LINE
  5
19C
100
AcDbEntity
  8
MAIN0
  6
CONTINUOUS
 62
3
100
AcDbLine
 10
66.75183884392166
 20
266.1223325640179
 30
0.0000000000000000
 11
71.95183884392162
 21
265.9598325640180
 31
0.0000000000000000
  0
LINE
  5
19D
100
AcDbEntity
  8
MAIN0
  6
CONTINUOUS
 62
3
100
AcDbLine
 10
71.95183884392176
 20
265.9598325640181
 30
0.0000000000000000
 11
71.95183884392178
 21
256.6193325640181
 31
0.0000000000000000
  0
LINE
  5
19E
100
AcDbEntity
  8
MAIN0
  6
CONTINUOUS
 62
3
100
AcDbLine
 10
66.75183884392183
 20
257.0378325640180
 30
0.0000000000000000
 11
71.95183884392191
 21
257.2003325640180
 31
0.0000000000000000
  0
LINE
  5
19F
100
AcDbEntity
  8
MAIN0
  6
CONTINUOUS
 62
3
100
AcDbLine
 10
71.95183884392182
 20
256.6193325640180
 30
0.0000000000000000
 11
66.75183884392186
 21
256.4568325640180
 31
0.0000000000000000
  0
LINE
  5
1A0
100
AcDbEntity
  8
MAIN0
  6
CONTINUOUS
 62
3
100
AcDbLine
 10
66.25183884392176
 20
254.2895825640181
 30
0.0000000000000000
 11
66.75183884393222
 21
254.2895825640181
 31
0.0000000000000000
  0
LINE
  5
1A1
100
AcDbEntity
  8
MAIN0
  6
HIDDEN
 62
3
100
AcDbLine
 10
66.75183884392179
 20
188.2895825640005
 30
0.0000000000000000
 11
66.75183884392179
 21
174.2895825640005
 31
0.0000000000000000
  0
LINE
  5
1A2
100
AcDbEntity
  8
MAIN0
  6
HIDDEN
 62
3
100
AcDbLine
 10
65.75183884392175
 20
188.2895825640177
 30
0.0000000000000000
 11
66.75183884393221
 21
188.2895825640177
 31
0.0000000000000000
  0
LINE
  5
1A3
100
AcDbEntity
  8
MAIN0
  6
HIDDEN
 62
3
100
AcDbLine
 10
65.75183884392176
 20
174.2895825640177
 30
0.0000000000000000
 11
66.75183884393222
 21
174.2895825640177
 31
0.0000000000000000
  0
LINE
  5
1A4
100
AcDbEntity
  8
MAIN0
  6
CENTER
 62
12
100
AcDbLine
 10
450.1326413270136
 20
336.2895825640151
 30
0.0000000000000000
 11
399.8283848520178
 21
336.2895825640152
 31
0.0000000000000000
  0
LINE
  5
1A5
100
AcDbEntity
  8
MAIN0
  6
CONTINUOUS
 62
3
100
AcDbLine
 10
407.2518388439351
 20
273.6045371404647
 30
0.0000000000000000
 11
407.2518388439352
 21
336.2745810635001
 31
0.0000000000000000
  0
LINE
  5
1A6
100
AcDbEntity
  8
MAIN0
  6
CONTINUOUS
 62
3
100
AcDbLine
 10
442.2518388439348
 20
273.6045371399897
 30
0.0000000000000000
 11
442.2518388439348
 21
336.2745810635000
 31
0.0000000000000000
  0
LINE
  5
1A7
100
AcDbEntity
  8
MAIN0
  6
CENTER
 62
12
100
AcDbLine
 10
327.9209777352590
 20
205.3842588370580
 30
0.0000000000000000
 11
533.6459960962653
 21
324.1596535668255
 31
0.0000000000000000
  0
LINE
  5
1A8
100
AcDbEntity
  8
MAIN0
  6
CENTER
 62
12
100
AcDbLine
 10
409.8300537199976
 20
317.7895825640151
 30
0.0000000000000000
 11
436.6536549502133
 21
317.7895825640151
 31
0.0000000000000000
  0
LINE
  5
1A9
100
AcDbEntity
  8
MAIN0
  6
CENTER
 62
12
100
AcDbLine
 10
347.1095323185631
 20
245.7700022827967
 30
0.0000000000000000
 11
372.2616605560608
 21
202.2052382569628
 31
0.0000000000000000
  0
LINE
  5
1AA
100
AcDbEntity
  8
MAIN0
  6
CONTINUOUS
 62
3
100
AcDbLine
 10
368.5629252406432
 20
208.6416387480454
 30
0.0000000000000000
 11
422.8367753342773
 21
239.9766607095624
 31
0.0000000000000000
  0
LINE
  5
1AB
100
AcDbEntity
  8
MAIN0
  6
CONTINUOUS
 62
3
100
AcDbLine
 10
351.0629252406430
 20
238.9525278805004
 30
0.0000000000000000
 11
405.3367753346887
 21
270.2875498422551
 31
0.0000000000000000
  0
LINE
  5
1AC
100
AcDbEntity
  8
MAIN0
  6
CENTER
 62
12
100
AcDbLine
 10
477.0133428862284
 20
201.8091628452342
 30
0.0000000000000000
 11
502.1654711237262
 21
245.3739268710682
 31
0.0000000000000000
  0
LINE
  5
1AD
100
AcDbEntity
  8
MAIN0
  6
CONTINUOUS
 62
3
100
AcDbLine
 10
448.6016390484658
 20
267.7271534174477
 30
0.0000000000000000
 11
498.4407524472265
 21
238.9525278805008
 31
0.0000000000000000
  0
LINE
  5
1AE
100
AcDbEntity
  8
MAIN0
  6
CONTINUOUS
 62
3
100
AcDbLine
 10
426.6669023531805
 20
239.9766607098003
 30
0.0000000000000000
 11
480.9407524472265
 21
208.6416387480454
 31
0.0000000000000000
  0
LINE
  5
1AF
100
AcDbEntity
  8
MAIN0
  6
CENTER
 62
12
100
AcDbLine
 10
291.4398968061576
 20
261.2895825640152
 30
0.0000000000000000
 11
555.9991976010061
 21
261.2895825640152
 31
0.0000000000000000
  0
LINE
  5
1B0
100
AcDbEntity
  8
MAIN0
  6
CONTINUOUS
 62
3
100
AcDbLine
 10
429.7518388439348
 20
320.6763355640151
 30
0.0000000000000000
 11
424.7518388439348
 21
323.5630845640151
 31
0.0000000000000000
  0
LINE
  5
1B1
100
AcDbEntity
  8
MAIN0
  6
CONTINUOUS
 62
3
100
AcDbLine
 10
424.7518388439347
 20
323.5630845640153
 30
0.0000000000000000
 11
419.7518388439347
 21
320.6763315640152
 31
0.0000000000000000
  0
LINE
  5
1B2
100
AcDbEntity
  8
MAIN0
  6
CONTINUOUS
 62
3
100
AcDbLine
 10
419.7518388439348
 20
320.6763315640152
 30
0.0000000000000000
 11
419.7518388439348
 21
314.9028295640152
 31
0.0000000000000000
  0
LINE
  5
1B3
100
AcDbEntity
  8
MAIN0
  6
CONTINUOUS
 62
3
100
AcDbLine
 10
419.7518388439348
 20
314.9028295640152
 30
0.0000000000000000
 11
424.7518458439347
 21
312.0160795640152
 31
0.0000000000000000
  0
LINE
  5
1B4
100
AcDbEntity
  8
MAIN0
  6
CONTINUOUS
 62
3
100
AcDbLine
 10
424.7518458439346
 20
312.0160795640151
 30
0.0000000000000000
 11
429.7518458439346
 21
314.9028365640152
 31
0.0000000000000000
  0
LINE
  5
1B5
100
AcDbEntity
  8
MAIN0
  6
CONTINUOUS
 62
3
100
AcDbLine
 10
429.7518458439350
 20
314.9028365640153
 30
0.0000000000000000
 11
429.7518388439349
 21
320.6763355640154
 31
0.0000000000000000
  0
LINE
  5
1B6
100
AcDbEntity
  8
MAIN0
  6
CENTER
 62
12
100
AcDbLine
 10
387.9963417644370
 20
211.9519709631552
 30
0.0000000000000000
 11
364.9113439274711
 21
251.9363601093978
 31
0.0000000000000000
  0
LINE
  5
1B7
100
AcDbEntity
  8
MAIN0
  6
CONTINUOUS
 62
3
100
AcDbLine
 10
370.8214020976632
 20
235.9263330829375
 30
0.0000000000000000
 11
370.8214041293139
 21
230.1528315640153
 31
0.0000000000000000
  0
LINE
  5
1B8
100
AcDbEntity
  8
MAIN0
  6
CONTINUOUS
 62
3
100
AcDbLine
 10
370.8214041293139
 20
230.1528315640153
 30
0.0000000000000000
 11
375.8214055617647
 21
227.2660810450932
 31
0.0000000000000000
  0
LINE
  5
1B9
100
AcDbEntity
  8
MAIN0
  6
CONTINUOUS
 62
3
100
AcDbLine
 10
375.8214055617650
 20
227.2660810450932
 30
0.0000000000000000
 11
380.8214049625652
 21
230.1528320450931
 31
0.0000000000000000
  0
LINE
  5
1BA
100
AcDbEntity
  8
MAIN0
  6
CONTINUOUS
 62
3
100
AcDbLine
 10
380.8214049625652
 20
230.1528320450932
 30
0.0000000000000000
 11
380.8214002969399
 21
235.9263401261932
 31
0.0000000000000000
  0
LINE
  5
1BB
100
AcDbEntity
  8
MAIN0
  6
CONTINUOUS
 62
3
100
AcDbLine
 10
380.8214002969395
 20
235.9263401261931
 30
0.0000000000000000
 11
375.8213954003871
 21
238.8130886451152
 31
0.0000000000000000
  0
LINE
  5
1BC
100
AcDbEntity
  8
MAIN0
  6
CONTINUOUS
 62
3
100
AcDbLine
 10
375.8213954003871
 20
238.8130886451154
 30
0.0000000000000000
 11
370.8214020976631
 21
235.9263330829376
 31
0.0000000000000000
  0
LINE
  5
1BD
100
AcDbEntity
  8
MAIN0
  6
CENTER
 62
12
100
AcDbLine
 10
485.8572123920785
 20
254.1271941648755
 30
0.0000000000000000
 11
462.7722145551126
 21
214.1428050186329
 31
0.0000000000000000
  0
LINE
  5
1BE
100
AcDbEntity
  8
MAIN0
  6
CONTINUOUS
 62
3
100
AcDbLine
 10
473.6822755902065
 20
227.2660790450933
 30
0.0000000000000000
 11
478.6822735585558
 21
230.1528315640155
 31
0.0000000000000000
  0
LINE
  5
1BF
100
AcDbEntity
  8
MAIN0
  6
CONTINUOUS
 62
3
100
AcDbLine
 10
478.6822735585561
 20
230.1528315640157
 30
0.0000000000000000
 11
478.6822721261051
 21
235.9263350829380
 31
0.0000000000000000
  0
LINE
  5
1C0
100
AcDbEntity
  8
MAIN0
  6
CONTINUOUS
 62
3
100
AcDbLine
 10
478.6822721261050
 20
235.9263350829377
 30
0.0000000000000000
 11
473.6822727253046
 21
238.8130860829378
 31
0.0000000000000000
  0
LINE
  5
1C1
100
AcDbEntity
  8
MAIN0
  6
CONTINUOUS
 62
3
100
AcDbLine
 10
473.6822727253046
 20
238.8130860829379
 30
0.0000000000000000
 11
468.6822703909299
 21
235.9263280018379
 31
0.0000000000000000
  0
LINE
  5
1C2
100
AcDbEntity
  8
MAIN0
  6
CONTINUOUS
 62
3
100
AcDbLine
 10
468.6822703909302
 20
235.9263280018379
 30
0.0000000000000000
 11
468.6822752874828
 21
230.1528224829156
 31
0.0000000000000000
  0
LINE
  5
1C3
100
AcDbEntity
  8
MAIN0
  6
CONTINUOUS
 62
3
100
AcDbLine
 10
468.6822752874825
 20
230.1528224829155
 30
0.0000000000000000
 11
473.6822755902066
 21
227.2660790450933
 31
0.0000000000000000
  0
LINE
  5
1C4
100
AcDbEntity
  8
MAIN0
  6
CONTINUOUS
 62
3
100
AcDbLine
 10
404.7518388439347
 20
324.9451584346209
 30
0.0000000000000000
 11
404.7518388439347
 21
336.2895825640153
 31
0.0000000000000000
  0
LINE
  5
1C5
100
AcDbEntity
  8
MAIN0
  6
CONTINUOUS
 62
3
100
AcDbLine
 10
444.7518388439347
 20
324.9451584346209
 30
0.0000000000000000
 11
444.7518388439347
 21
336.2895825640152
 31
0.0000000000000000
  0
LINE
  5
1C6
100
AcDbEntity
  8
MAIN0
  6
CONTINUOUS
 62
3
100
AcDbLine
 10
379.6244930474630
 20
212.1412865530239
 30
0.0000000000000000
 11
369.7999335601024
 21
206.4690744883267
 31
0.0000000000000000
  0
LINE
  5
1C7
100
AcDbEntity
  8
MAIN0
  6
CONTINUOUS
 62
3
100
AcDbLine
 10
359.6244930474633
 20
246.7823027044015
 30
0.0000000000000000
 11
349.7999335601021
 21
241.1100906397042
 31
0.0000000000000000
  0
LINE
  5
1C8
100
AcDbEntity
  8
MAIN0
  6
CONTINUOUS
 62
3
100
AcDbLine
 10
489.8791846404076
 20
246.7823027044008
 30
0.0000000000000000
 11
499.7037441277674
 21
241.1100906397041
 31
0.0000000000000000
  0
LINE
  5
1C9
100
AcDbEntity
  8
MAIN0
  6
CONTINUOUS
 62
3
100
AcDbLine
 10
469.8791846404077
 20
212.1412865530235
 30
0.0000000000000000
 11
479.7037441277677
 21
206.4690744883267
 31
0.0000000000000000
  0
CIRCLE
  5
1CA
100
AcDbEntity
  8
MAIN0
  6
CONTINUOUS
 62
3
100
AcDbCircle
 10
424.7518388439347
 20
317.7895825640153
 30
0.0000000000000000
 40
10.00000000000040
  0
CIRCLE
  5
1CB
100
AcDbEntity
  8
MAIN0
  6
CONTINUOUS
 62
3
100
AcDbCircle
 10
424.7518388439347
 20
317.7895825640153
 30
0.0000000000000000
 40
9.000000000000000
  0
CIRCLE
  5
1CC
100
AcDbEntity
  8
MAIN0
  6
CONTINUOUS
 62
3
100
AcDbCircle
 10
375.8214035301143
 20
233.0395825640154
 30
0.0000000000000000
 40
10.00000000000040
  0
CIRCLE
  5
1CD
100
AcDbEntity
  8
MAIN0
  6
CONTINUOUS
 62
3
100
AcDbCircle
 10
375.8214035301143
 20
233.0395825640154
 30
0.0000000000000000
 40
9.000000000000000
  0
CIRCLE
  5
1CE
100
AcDbEntity
  8
MAIN0
  6
CONTINUOUS
 62
3
100
AcDbCircle
 10
473.6822741577557
 20
233.0395825640156
 30
0.0000000000000000
 40
10.00000000000040
  0
CIRCLE
  5
1CF
100
AcDbEntity
  8
MAIN0
  6
CONTINUOUS
 62
3
100
AcDbCircle
 10
473.6822741577557
 20
233.0395825640156
 30
0.0000000000000000
 40
9.000000000000000
  0
ARC
  5
1D0
100
AcDbEntity
  8
MAIN0
  6
CONTINUOUS
 62
3
100
AcDbCircle
 10
424.7518388439347
 20
331.8016785128380
 30
0.0000000000000000
 40
20.00000000000000
100
AcDbArc
 50
331.0449756281404
 51
359.9999999999998
  0
ARC
  5
1D1
100
AcDbEntity
  8
MAIN0
  6
CONTINUOUS
 62
3
100
AcDbCircle
 10
424.7518388439347
 20
331.8016785128380
 30
0.0000000000000000
 40
20.00000000000000
100
AcDbArc
 50
179.9999999999998
 51
208.9550243718600
  0
ARC
  5
1D2
100
AcDbEntity
  8
MAIN0
  6
CONTINUOUS
 62
3
100
AcDbCircle
 10
363.6865724781689
 20
226.0335345896040
 30
0.0000000000000000
 40
20.00000000000000
100
AcDbArc
 50
91.04497562813970
 51
119.9999999999999
  0
ARC
  5
1D3
100
AcDbEntity
  8
MAIN0
  6
CONTINUOUS
 62
3
100
AcDbCircle
 10
363.6865724781689
 20
226.0335345896040
 30
0.0000000000000000
 40
20.00000000000000
100
AcDbArc
 50
299.9999999999998
 51
328.9550243718603
  0
ARC
  5
1D4
100
AcDbEntity
  8
MAIN0
  6
CONTINUOUS
 62
3
100
AcDbCircle
 10
485.8171052096989
 20
226.0335345896042
 30
0.0000000000000000
 40
20.00000000000000
100
AcDbArc
 50
211.0449756281404
 51
239.9999999999999
  0
ARC
  5
1D5
100
AcDbEntity
  8
MAIN0
  6
CONTINUOUS
 62
3
100
AcDbCircle
 10
485.8171052096989
 20
226.0335345896042
 30
0.0000000000000000
 40
20.00000000000000
100
AcDbArc
 50
59.99999999999952
 51
88.95502437185969
  0
ARC
  5
1D6
100
AcDbEntity
  8
MAIN0
  6
CONTINUOUS
 62
3
100
AcDbCircle
 10
424.7518388439348
 20
337.8991671623139
 30
0.0000000000000000
 40
20.00000000000000
100
AcDbArc
 50
51.31781254697842
 51
128.6821874539569
  0
ARC
  5
1D7
100
AcDbEntity
  8
MAIN0
  6
CONTINUOUS
 62
3
100
AcDbCircle
 10
424.7518388439347
 20
336.2895825640153
 30
0.0000000000000000
 40
20.00000000000000
100
AcDbArc
 50
0.0000000000000000
 51
51.31781254695262
  0
ARC
  5
1D8
100
AcDbEntity
  8
MAIN0
  6
CONTINUOUS
 62
3
100
AcDbCircle
 10
424.7518388439347
 20
336.2895825640153
 30
0.0000000000000000
 40
20.00000000000000
100
AcDbArc
 50
128.6821874539310
 51
179.9999999999998
  0
ARC
  5
1D9
100
AcDbEntity
  8
MAIN0
  6
CONTINUOUS
 62
3
100
AcDbCircle
 10
424.7518388439346
 20
261.2895825640154
 30
0.0000000000000000
 40
76.99999999979046
100
AcDbArc
 50
74.95324163975795
 51
105.0467583602416
  0
ARC
  5
1DA
100
AcDbEntity
  8
MAIN0
  6
CONTINUOUS
 62
3
100
AcDbCircle
 10
424.7518388439348
 20
261.2895825640158
 30
0.0000000000000000
 40
76.99999999979046
100
AcDbArc
 50
194.9532416397583
 51
225.0467583602420
  0
ARC
  5
1DB
100
AcDbEntity
  8
MAIN0
  6
CONTINUOUS
 62
3
100
AcDbCircle
 10
358.4059924084352
 20
222.9847902648663
 30
0.0000000000000000
 40
20.00000000000000
100
AcDbArc
 50
171.3178125469817
 51
248.6821874539605
  0
ARC
  5
1DC
100
AcDbEntity
  8
MAIN0
  6
CONTINUOUS
 62
3
100
AcDbCircle
 10
424.7518388439348
 20
261.2895825640158
 30
0.0000000000000000
 40
76.99999999979046
100
AcDbArc
 50
314.9532416397580
 51
345.0467583602418
  0
ARC
  5
1DD
100
AcDbEntity
  8
MAIN0
  6
CONTINUOUS
 62
3
100
AcDbCircle
 10
491.0976852794344
 20
222.9847902648663
 30
0.0000000000000000
 40
20.00000000000000
100
AcDbArc
 50
291.3178125469805
 51
368.6821874539594
  0
ARC
  5
1DE
100
AcDbEntity
  8
MAIN0
  6
CONTINUOUS
 62
3
100
AcDbCircle
 10
489.7037441277647
 20
223.7895825640156
 30
0.0000000000000000
 40
20.00000000000000
100
AcDbArc
 50
8.682187453939848
 51
59.99999999999993
  0
ARC
  5
1DF
100
AcDbEntity
  8
MAIN0
  6
CONTINUOUS
 62
3
100
AcDbCircle
 10
489.7037441277647
 20
223.7895825640156
 30
0.0000000000000000
 40
20.00000000000000
100
AcDbArc
 50
239.9999999999999
 51
291.3178125469604
  0
ARC
  5
1E0
100
AcDbEntity
  8
MAIN0
  6
CONTINUOUS
 62
3
100
AcDbCircle
 10
359.7999335601023
 20
223.7895825640154
 30
0.0000000000000000
 40
20.00000000000000
100
AcDbArc
 50
248.6821874539339
 51
299.9999999999998
  0
ARC
  5
1E1
100
AcDbEntity
  8
MAIN0
  6
CONTINUOUS
 62
3
100
AcDbCircle
 10
359.7999335601023
 20
223.7895825640154
 30
0.0000000000000000
 40
20.00000000000000
100
AcDbArc
 50
119.9999999999999
 51
171.3178125469549
  0
ARC
  5
1E2
100
AcDbEntity
  8
MAIN0
  6
CONTINUOUS
 62
3
100
AcDbCircle
 10
424.7518388439351
 20
261.2895825640154
 30
0.0000000000000000
 40
124.0000000000000
100
AcDbArc
 50
288.8190633689878
 51
611.1809366310120
  0
CIRCLE
  5
1E3
100
AcDbEntity
  8
MAIN0
  6
CONTINUOUS
 62
3
100
AcDbCircle
 10
309.7518388439346
 20
261.2895825640151
 30
0.0000000000000000
 40
5.000000000000000
  0
CIRCLE
  5
1E4
100
AcDbEntity
  8
MAIN0
  6
CONTINUOUS
 62
3
100
AcDbCircle
 10
309.7518388439346
 20
261.2895825640151
 30
0.0000000000000000
 40
4.250000000000000
  0
CIRCLE
  5
1E5
100
AcDbEntity
  8
MAIN0
  6
CONTINUOUS
 62
3
100
AcDbCircle
 10
367.2518388439324
 20
161.6966611288059
 30
0.0000000000000000
 40
5.000000000000000
  0
CIRCLE
  5
1E6
100
AcDbEntity
  8
MAIN0
  6
CONTINUOUS
 62
3
100
AcDbCircle
 10
367.2518388439324
 20
161.6966611288059
 30
0.0000000000000000
 40
4.250000000000000
  0
CIRCLE
  5
1E7
100
AcDbEntity
  8
MAIN0
  6
CONTINUOUS
 62
3
100
AcDbCircle
 10
482.2518388439306
 20
161.6966611288022
 30
0.0000000000000000
 40
5.000000000000000
  0
CIRCLE
  5
1E8
100
AcDbEntity
  8
MAIN0
  6
CONTINUOUS
 62
3
100
AcDbCircle
 10
482.2518388439306
 20
161.6966611288022
 30
0.0000000000000000
 40
4.250000000000000
  0
CIRCLE
  5
1E9
100
AcDbEntity
  8
MAIN0
  6
CONTINUOUS
 62
3
100
AcDbCircle
 10
539.7518388439351
 20
261.2895825640080
 30
0.0000000000000000
 40
5.000000000000000
  0
CIRCLE
  5
1EA
100
AcDbEntity
  8
MAIN0
  6
CONTINUOUS
 62
3
100
AcDbCircle
 10
539.7518388439351
 20
261.2895825640080
 30
0.0000000000000000
 40
4.250000000000000
  0
CIRCLE
  5
1EB
100
AcDbEntity
  8
MAIN0
  6
CONTINUOUS
 62
3
100
AcDbCircle
 10
482.2518388439431
 20
360.8825039992208
 30
0.0000000000000000
 40
5.000000000000000
  0
CIRCLE
  5
1EC
100
AcDbEntity
  8
MAIN0
  6
CONTINUOUS
 62
3
100
AcDbCircle
 10
482.2518388439431
 20
360.8825039992208
 30
0.0000000000000000
 40
4.250000000000000
  0
CIRCLE
  5
1ED
100
AcDbEntity
  8
MAIN0
  6
CONTINUOUS
 62
3
100
AcDbCircle
 10
367.2518388439451
 20
360.8825039992317
 30
0.0000000000000000
 40
5.000000000000000
  0
CIRCLE
  5
1EE
100
AcDbEntity
  8
MAIN0
  6
CONTINUOUS
 62
3
100
AcDbCircle
 10
367.2518388439451
 20
360.8825039992317
 30
0.0000000000000000
 40
4.250000000000000
  0
LINE
  5
1EF
100
AcDbEntity
  8
MAIN0
  6
CENTER
 62
3
100
AcDbLine
 10
363.7818313821198
 20
366.8927332258816
 30
0.0000000000000000
 11
370.7500370390696
 21
354.8234469904386
 31
0.0000000000000000
  0
LINE
  5
1F0
100
AcDbEntity
  8
MAIN0
  6
CENTER
 62
3
100
AcDbLine
 10
478.4905323593618
 20
168.2114350627924
 30
0.0000000000000000
 11
486.1257060785545
 21
154.9869262565174
 31
0.0000000000000000
  0
LINE
  5
1F1
100
AcDbEntity
  8
MAIN0
  6
CENTER
 62
3
100
AcDbLine
 10
363.3745617525444
 20
154.9810202113441
 30
0.0000000000000000
 11
371.2182283619152
 21
168.5666492964251
 31
0.0000000000000000
  0
LINE
  5
1F2
100
AcDbEntity
  8
MAIN0
  6
CENTER
 62
3
100
AcDbLine
 10
478.6248728238186
 20
354.6004145751900
 30
0.0000000000000000
 11
486.0878579061246
 21
367.5266839138907
 31
0.0000000000000000
  0
LINE
  5
1F3
100
AcDbEntity
  8
MAIN0
  6
CENTER
 62
3
100
AcDbLine
 10
500.7022656585051
 20
337.2400093788324
 30
0.0000000000000000
 11
511.8314200264728
 21
348.3691637468362
 31
0.0000000000000000
  0
CIRCLE
  5
1F4
100
AcDbEntity
  8
MAIN0
  6
CONTINUOUS
 62
3
100
AcDbCircle
 10
506.0691186802557
 20
342.6068624006003
 30
0.0000000000000000
 40
5.500000000000000
  0
LINE
  5
1F5
100
AcDbEntity
  8
MAIN0
  6
CENTER
 62
3
100
AcDbLine
 10
348.6820380425969
 20
337.3593833651104
 30
0.0000000000000000
 11
337.8678069780385
 21
348.1736144296344
 31
0.0000000000000000
  0
CIRCLE
  5
1F6
100
AcDbEntity
  8
MAIN0
  6
CONTINUOUS
 62
3
100
AcDbCircle
 10
343.4345590073521
 20
342.6068624003386
 30
0.0000000000000000
 40
5.500000000000000
  0
LINE
  5
1F7
100
AcDbEntity
  8
MAIN0
  6
CONTINUOUS
 62
3
100
AcDbLine
 10
384.7518388439349
 20
135.7895825640154
 30
0.0000000000000000
 11
464.7518388439348
 21
135.7895825640154
 31
0.0000000000000000
  0
LINE
  5
1F8
100
AcDbEntity
  8
MAIN0
  6
CONTINUOUS
 62
3
100
AcDbLine
 10
384.7518388439349
 20
155.7895825640154
 30
0.0000000000000000
 11
464.7518388439348
 21
155.7895825640154
 31
0.0000000000000000
  0
LINE
  5
1F9
100
AcDbEntity
  8
MAIN0
  6
CONTINUOUS
 62
3
100
AcDbLine
 10
384.7518388439347
 20
155.7895825640152
 30
0.0000000000000000
 11
384.7518388439348
 21
135.7895825640152
 31
0.0000000000000000
  0
LINE
  5
1FA
100
AcDbEntity
  8
MAIN0
  6
CONTINUOUS
 62
3
100
AcDbLine
 10
464.7518388439347
 20
155.7895825640153
 30
0.0000000000000000
 11
464.7518388439347
 21
135.7895825640153
 31
0.0000000000000000
  0
LINE
  5
1FB
100
AcDbEntity
  8
MAIN0
  6
CENTER
 62
3
100
AcDbLine
 10
448.2518388439348
 20
193.7620643521766
 30
0.0000000000000000
 11
448.2518388439348
 21
130.9363176799237
 31
0.0000000000000000
  0
LINE
  5
1FC
100
AcDbEntity
  8
MAIN0
  6
HIDDEN
 62
3
100
AcDbLine
 10
395.4026311490143
 20
135.7895825640144
 30
0.0000000000000000
 11
395.7518388439331
 21
145.7895825640125
 31
0.0000000000000000
  0
LINE
  5
1FD
100
AcDbEntity
  8
MAIN0
  6
HIDDEN
 62
3
100
AcDbLine
 10
394.9023263768649
 20
135.7895825640148
 30
0.0000000000000000
 11
395.2515340717837
 21
145.7895825640161
 31
0.0000000000000000
  0
LINE
  5
1FE
100
AcDbEntity
  8
MAIN0
  6
HIDDEN
 62
3
100
AcDbLine
 10
407.1010465388557
 20
135.7895825640145
 30
0.0000000000000000
 11
406.7518388439369
 21
145.7895825640129
 31
0.0000000000000000
  0
LINE
  5
1FF
100
AcDbEntity
  8
MAIN0
  6
HIDDEN
 62
3
100
AcDbLine
 10
407.6013513110050
 20
135.7895825640145
 30
0.0000000000000000
 11
407.2521436160862
 21
145.7895825640161
 31
0.0000000000000000
  0
LINE
  5
200
100
AcDbEntity
  8
MAIN0
  6
CONTINUOUS
 62
3
100
AcDbLine
 10
393.2518388439348
 20
134.7895825640152
 30
0.0000000000000000
 11
409.2518388439348
 21
134.7895825640152
 31
0.0000000000000000
  0
LINE
  5
201
100
AcDbEntity
  8
MAIN0
  6
CONTINUOUS
 62
3
100
AcDbLine
 10
393.2518388439347
 20
135.7895825640153
 30
0.0000000000000000
 11
393.2518388439347
 21
134.7895825640153
 31
0.0000000000000000
  0
LINE
  5
202
100
AcDbEntity
  8
MAIN0
  6
CONTINUOUS
 62
3
100
AcDbLine
 10
409.2518388439347
 20
135.7895825640153
 30
0.0000000000000000
 11
409.2518388439347
 21
134.7895825640153
 31
0.0000000000000000
  0
LINE
  5
203
100
AcDbEntity
  8
MAIN0
  6
HIDDEN
 62
3
100
AcDbLine
 10
454.1010465388555
 20
135.7895825640146
 30
0.0000000000000000
 11
453.7518388439368
 21
145.7895825640129
 31
0.0000000000000000
  0
LINE
  5
204
100
AcDbEntity
  8
MAIN0
  6
HIDDEN
 62
3
100
AcDbLine
 10
454.6013513110051
 20
135.7895825640146
 30
0.0000000000000000
 11
454.2521436160862
 21
145.7895825640161
 31
0.0000000000000000
  0
LINE
  5
205
100
AcDbEntity
  8
MAIN0
  6
HIDDEN
 62
3
100
AcDbLine
 10
442.4026311490142
 20
135.7895825640143
 30
0.0000000000000000
 11
442.7518388439329
 21
145.7895825640127
 31
0.0000000000000000
  0
LINE
  5
206
100
AcDbEntity
  8
MAIN0
  6
HIDDEN
 62
3
100
AcDbLine
 10
441.9023263768650
 20
135.7895825640147
 30
0.0000000000000000
 11
442.2515340717838
 21
145.7895825640163
 31
0.0000000000000000
  0
LINE
  5
207
100
AcDbEntity
  8
MAIN0
  6
CONTINUOUS
 62
3
100
AcDbLine
 10
456.2518388439347
 20
134.7895825640153
 30
0.0000000000000000
 11
440.2518388439347
 21
134.7895825640153
 31
0.0000000000000000
  0
LINE
  5
208
100
AcDbEntity
  8
MAIN0
  6
CONTINUOUS
 62
3
100
AcDbLine
 10
456.2518388439347
 20
135.7895825640153
 30
0.0000000000000000
 11
456.2518388439347
 21
134.7895825640153
 31
0.0000000000000000
  0
LINE
  5
209
100
AcDbEntity
  8
MAIN0
  6
CONTINUOUS
 62
3
100
AcDbLine
 10
440.2518388439347
 20
135.7895825640153
 30
0.0000000000000000
 11
440.2518388439347
 21
134.7895825640153
 31
0.0000000000000000
  0
LINE
  5
20A
100
AcDbEntity
  8
MAIN0
  6
CENTER
 62
3
100
AcDbLine
 10
413.7518388439347
 20
154.7113395815902
 30
0.0000000000000000
 11
413.7518388439347
 21
142.1141270400410
 31
0.0000000000000000
  0
LINE
  5
20B
100
AcDbEntity
  8
MAIN0
  6
CENTER
 62
3
100
AcDbLine
 10
435.7518388439347
 20
154.8887759776726
 30
0.0000000000000000
 11
435.7518388439347
 21
140.6947238586090
 31
0.0000000000000000
  0
CIRCLE
  5
20C
100
AcDbEntity
  8
MAIN0
  6
CONTINUOUS
 62
3
100
AcDbCircle
 10
435.7518388439348
 20
148.2895825640153
 30
0.0000000000000000
 40
5.000000000000000
  0
LINE
  5
20D
100
AcDbEntity
  8
MAIN0
  6
CONTINUOUS
 62
3
100
AcDbLine
 10
435.7518388439347
 20
151.1763339099634
 30
0.0000000000000000
 11
433.2518388439347
 21
149.7329582369893
 31
0.0000000000000000
  0
LINE
  5
20E
100
AcDbEntity
  8
MAIN0
  6
CONTINUOUS
 62
3
100
AcDbLine
 10
433.2518388439347
 20
149.7329582369894
 30
0.0000000000000000
 11
433.2518388439347
 21
146.8462068910412
 31
0.0000000000000000
  0
LINE
  5
20F
100
AcDbEntity
  8
MAIN0
  6
CONTINUOUS
 62
3
100
AcDbLine
 10
433.2518388439350
 20
146.8462068910407
 30
0.0000000000000000
 11
435.7518388439350
 21
145.4028312180667
 31
0.0000000000000000
  0
LINE
  5
210
100
AcDbEntity
  8
MAIN0
  6
CONTINUOUS
 62
3
100
AcDbLine
 10
435.7518388439347
 20
145.4028312180671
 30
0.0000000000000000
 11
438.2518388439347
 21
146.8462068910412
 31
0.0000000000000000
  0
LINE
  5
211
100
AcDbEntity
  8
MAIN0
  6
CONTINUOUS
 62
3
100
AcDbLine
 10
438.2518388439347
 20
146.8462068910412
 30
0.0000000000000000
 11
438.2518388439347
 21
149.7329582369894
 31
0.0000000000000000
  0
LINE
  5
212
100
AcDbEntity
  8
MAIN0
  6
CONTINUOUS
 62
3
100
AcDbLine
 10
438.2518388439351
 20
149.7329582369889
 30
0.0000000000000000
 11
435.7518388439351
 21
151.1763339099630
 31
0.0000000000000000
  0
CIRCLE
  5
213
100
AcDbEntity
  8
MAIN0
  6
CONTINUOUS
 62
3
100
AcDbCircle
 10
413.7518388439348
 20
148.2895825640153
 30
0.0000000000000000
 40
5.000000000000000
  0
LINE
  5
214
100
AcDbEntity
  8
MAIN0
  6
CONTINUOUS
 62
3
100
AcDbLine
 10
413.7518388439347
 20
151.1763339099636
 30
0.0000000000000000
 11
411.2518388439345
 21
149.7329582369894
 31
0.0000000000000000
  0
LINE
  5
215
100
AcDbEntity
  8
MAIN0
  6
CONTINUOUS
 62
3
100
AcDbLine
 10
411.2518388439347
 20
149.7329582369894
 30
0.0000000000000000
 11
411.2518388439347
 21
146.8462068910412
 31
0.0000000000000000
  0
LINE
  5
216
100
AcDbEntity
  8
MAIN0
  6
CONTINUOUS
 62
3
100
AcDbLine
 10
411.2518388439352
 20
146.8462068910407
 30
0.0000000000000000
 11
413.7518388439352
 21
145.4028312180666
 31
0.0000000000000000
  0
LINE
  5
217
100
AcDbEntity
  8
MAIN0
  6
CONTINUOUS
 62
3
100
AcDbLine
 10
413.7518388439345
 20
145.4028312180672
 30
0.0000000000000000
 11
416.2518388439347
 21
146.8462068910414
 31
0.0000000000000000
  0
LINE
  5
218
100
AcDbEntity
  8
MAIN0
  6
CONTINUOUS
 62
3
100
AcDbLine
 10
416.2518388439347
 20
146.8462068910412
 30
0.0000000000000000
 11
416.2518388439347
 21
149.7329582369894
 31
0.0000000000000000
  0
LINE
  5
219
100
AcDbEntity
  8
MAIN0
  6
CONTINUOUS
 62
3
100
AcDbLine
 10
416.2518388439352
 20
149.7329582369888
 30
0.0000000000000000
 11
413.7518388439352
 21
151.1763339099629
 31
0.0000000000000000
  0
LINE
  5
21A
100
AcDbEntity
  8
MAIN0
  6
CENTER
 62
3
100
AcDbLine
 10
348.6820380425965
 20
185.2197817629205
 30
0.0000000000000000
 11
337.8678069780381
 21
174.4055506983965
 31
0.0000000000000000
  0
CIRCLE
  5
21B
100
AcDbEntity
  8
MAIN0
  6
CONTINUOUS
 62
3
100
AcDbCircle
 10
343.4345590073521
 20
179.9723027276917
 30
0.0000000000000000
 40
5.500000000000000
  0
LINE
  5
21C
100
AcDbEntity
  8
MAIN0
  6
CENTER
 62
3
100
AcDbLine
 10
500.0259008740222
 20
186.0155205336831
 30
0.0000000000000000
 11
511.5794399974019
 21
174.4619814102659
 31
0.0000000000000000
  0
CIRCLE
  5
21D
100
AcDbEntity
  8
MAIN0
  6
CONTINUOUS
 62
3
100
AcDbCircle
 10
506.0691186802557
 20
179.9723027274300
 30
0.0000000000000000
 40
5.500000000000000
  0
LINE
  5
21E
100
AcDbEntity
  8
MAIN0
  6
CENTER
 62
3
100
AcDbLine
 10
396.4484892624960
 20
148.2895825640154
 30
0.0000000000000000
 11
452.5682860964291
 21
148.2895825640151
 31
0.0000000000000000
  0
LINE
  5
21F
100
AcDbEntity
  8
MAIN0
  6
CENTER
 62
3
100
AcDbLine
 10
401.2518388439351
 20
194.1961206269722
 30
0.0000000000000000
 11
401.2518388439351
 21
130.9363176799236
 31
0.0000000000000000
  0
ARC
  5
220
100
AcDbEntity
  8
MAIN0
  6
CONTINUOUS
 62
3
100
AcDbCircle
 10
424.7518388439351
 20
261.2895825640154
 30
0.0000000000000000
 40
104.9999999999996
100
AcDbArc
 50
230.0000000001378
 51
309.9999999998619
  0
ARC
  5
221
100
AcDbEntity
  8
MAIN0
  6
CONTINUOUS
 62
3
100
AcDbCircle
 10
424.7518388439351
 20
261.2895825640154
 30
0.0000000000000000
 40
104.9999999999996
100
AcDbArc
 50
309.9999999998619
 51
350.0000000001380
  0
ARC
  5
222
100
AcDbEntity
  8
MAIN0
  6
CONTINUOUS
 62
3
100
AcDbCircle
 10
424.7518388439351
 20
261.2895825640154
 30
0.0000000000000000
 40
104.9999999999996
100
AcDbArc
 50
350.0000000001380
 51
429.9999999998621
  0
ARC
  5
223
100
AcDbEntity
  8
MAIN0
  6
CONTINUOUS
 62
3
100
AcDbCircle
 10
424.7518388439351
 20
261.2895825640154
 30
0.0000000000000000
 40
104.9999999999996
100
AcDbArc
 50
69.99999999986211
 51
110.0000000001380
  0
ARC
  5
224
100
AcDbEntity
  8
MAIN0
  6
CONTINUOUS
 62
3
100
AcDbCircle
 10
424.7518388439351
 20
261.2895825640154
 30
0.0000000000000000
 40
104.9999999999996
100
AcDbArc
 50
110.0000000001380
 51
189.9999999998618
  0
ARC
  5
225
100
AcDbEntity
  8
MAIN0
  6
CONTINUOUS
 62
3
100
AcDbCircle
 10
424.7518388439351
 20
261.2895825640154
 30
0.0000000000000000
 40
104.9999999999996
100
AcDbArc
 50
189.9999999998618
 51
230.0000000001378
  0
LINE
  5
226
100
AcDbEntity
  8
MAIN0
  6
HIDDEN
 62
3
100
AcDbLine
 10
429.4220888439351
 20
141.9895825640155
 30
0.0000000000000000
 11
429.6158388439350
 21
135.7895825640155
 31
0.0000000000000000
  0
LINE
  5
227
100
AcDbEntity
  8
MAIN0
  6
HIDDEN
 62
3
100
AcDbLine
 10
429.0348388439353
 20
135.7895825640154
 30
0.0000000000000000
 11
428.8410888439353
 21
141.9895825640154
 31
0.0000000000000000
  0
LINE
  5
228
100
AcDbEntity
  8
MAIN0
  6
HIDDEN
 62
3
100
AcDbLine
 10
419.8878388439351
 20
135.7895825640154
 30
0.0000000000000000
 11
420.0815888439350
 21
141.9895825640153
 31
0.0000000000000000
  0
LINE
  5
229
100
AcDbEntity
  8
MAIN0
  6
HIDDEN
 62
3
100
AcDbLine
 10
420.4688388439349
 20
135.7895825640154
 30
0.0000000000000000
 11
420.6625888439349
 21
141.9895825640153
 31
0.0000000000000000
  0
CIRCLE
  5
22A
100
AcDbEntity
  8
MAIN0
  6
HIDDEN
 62
3
100
AcDbCircle
 10
424.7518388439350
 20
148.2895825640153
 30
0.0000000000000000
 40
2.500000000000000
  0
CIRCLE
  5
22B
100
AcDbEntity
  8
MAIN0
  6
HIDDEN
 62
3
100
AcDbCircle
 10
448.2518388439352
 20
148.2895825640151
 30
0.0000000000000000
 40
2.500000000000000
  0
CIRCLE
  5
22C
100
AcDbEntity
  8
MAIN0
  6
HIDDEN
 62
3
100
AcDbCircle
 10
401.2518388439355
 20
148.2895825640154
 30
0.0000000000000000
 40
2.500000000000000
  0
LINE
  5
22D
100
AcDbEntity
  8
MAIN0
  6
CONTINUOUS
 62
3
100
AcDbLine
 10
172.0782081157537
 20
301.4223228122675
 30
0.0000000000000000
 11
199.2518388439358
 21
308.1974698917233
 31
0.0000000000000000
  0
LINE
  5
22E
100
AcDbEntity
  8
MAIN0
  6
CONTINUOUS
 62
3
100
AcDbLine
 10
183.7518388439358
 20
289.3669328330948
 30
0.0000000000000000
 11
182.7518388441271
 21
288.7895825640156
 31
0.0000000000000000
  0
LINE
  5
22F
100
AcDbEntity
  8
MAIN0
  6
CONTINUOUS
 62
3
100
AcDbLine
 10
183.7518388439355
 20
233.2122322949396
 30
0.0000000000000000
 11
182.7518388441267
 21
233.7895825640188
 31
0.0000000000000000
  0
LINE
  5
230
100
AcDbEntity
  8
MAIN0
  6
PHANTOM
 62
3
100
AcDbLine
 10
163.3518388439360
 20
177.7895825640179
 30
0.0000000000000000
 11
163.3518388439360
 21
176.2895825640177
 31
0.0000000000000000
  0
LINE
  5
231
100
AcDbEntity
  8
MAIN0
  6
PHANTOM
 62
3
100
AcDbLine
 10
163.3518388439360
 20
171.2895825640177
 30
0.0000000000000000
 11
163.3518388439360
 21
163.7395825640179
 31
0.0000000000000000
  0
LINE
  5
232
100
AcDbEntity
  8
MAIN0
  6
PHANTOM
 62
3
100
AcDbLine
 10
155.1518388439359
 20
173.7895825640180
 30
0.0000000000000000
 11
155.1518388439359
 21
177.7895825640178
 31
0.0000000000000000
  0
LINE
  5
233
100
AcDbEntity
  8
MAIN0
  6
PHANTOM
 62
3
100
AcDbLine
 10
155.1518388439359
 20
163.7395825640179
 30
0.0000000000000000
 11
155.1518388439359
 21
168.7096112750869
 31
0.0000000000000000
  0
ARC
  5
234
100
AcDbEntity
  8
MAIN0
  6
CONTINUOUS
 62
3
100
AcDbCircle
 10
424.7518388439348
 20
324.9451584346209
 30
0.0000000000000000
 40
20.00000000000000
100
AcDbArc
 50
331.0449756281404
 51
359.9999999999998
  0
ARC
  5
235
100
AcDbEntity
  8
MAIN0
  6
CONTINUOUS
 62
3
100
AcDbCircle
 10
424.7518388439349
 20
324.9451584346209
 30
0.0000000000000000
 40
20.00000000000000
100
AcDbArc
 50
180.0000000000002
 51
208.9550243718596
  0
ARC
  5
236
100
AcDbEntity
  8
MAIN0
  6
CONTINUOUS
 62
3
100
AcDbCircle
 10
369.6244930474636
 20
229.4617946287118
 30
0.0000000000000000
 40
20.00000000000000
100
AcDbArc
 50
91.04497562814039
 51
119.9999999999998
  0
ARC
  5
237
100
AcDbEntity
  8
MAIN0
  6
CONTINUOUS
 62
3
100
AcDbCircle
 10
369.6244930474634
 20
229.4617946287119
 30
0.0000000000000000
 40
20.00000000000000
100
AcDbArc
 50
300.0000000000003
 51
328.9550243718597
  0
ARC
  5
238
100
AcDbEntity
  8
MAIN0
  6
CONTINUOUS
 62
3
100
AcDbCircle
 10
479.8791846404081
 20
229.4617946287130
 30
0.0000000000000000
 40
20.00000000000000
100
AcDbArc
 50
211.0449756281405
 51
239.9999999999998
  0
ARC
  5
239
100
AcDbEntity
  8
MAIN0
  6
CONTINUOUS
 62
3
100
AcDbCircle
 10
479.8791846404080
 20
229.4617946287129
 30
0.0000000000000000
 40
20.00000000000000
100
AcDbArc
 50
60.00000000000024
 51
88.95502437185959
  0
LINE
  5
23A
100
AcDbEntity
  8
MAIN0
  6
CENTER
 62
3
100
AcDbLine
 10
454.8541580595921
 20
291.3919017817567
 30
0.0000000000000000
 11
500.7022656576359
 21
337.2400093797014
 31
0.0000000000000000
  0
CIRCLE
  5
23B
100
AcDbEntity
  8
MAIN0
  6
CONTINUOUS
 62
3
100
AcDbCircle
 10
458.3394109492580
 20
294.8771546714142
 30
0.0000000000000000
 40
3.000000000000000
  0
CIRCLE
  5
23C
100
AcDbEntity
  8
MAIN0
  6
CONTINUOUS
 62
3
100
AcDbCircle
 10
458.3394109492580
 20
294.8771546714142
 30
0.0000000000000000
 40
2.500000000000000
  0
LINE
  5
23D
100
AcDbEntity
  8
MAIN0
  6
CONTINUOUS
 62
3
100
AcDbLine
 10
221.2518388439358
 20
364.0895825640168
 30
0.0000000000000000
 11
221.2518388439358
 21
354.9072311282693
 31
0.0000000000000000
  0
CIRCLE
  5
23E
100
AcDbEntity
  8
MAIN0
  6
CONTINUOUS
 62
3
100
AcDbCircle
 10
470.6333155930456
 20
273.5834872049669
 30
0.0000000000000000
 40
3.000000000000000
  0
CIRCLE
  5
23F
100
AcDbEntity
  8
MAIN0
  6
CONTINUOUS
 62
3
100
AcDbCircle
 10
470.6333155930456
 20
273.5834872049669
 30
0.0000000000000000
 40
2.500000000000000
  0
LINE
  5
240
100
AcDbEntity
  8
MAIN0
  6
CENTER
 62
3
100
AcDbLine
 10
465.8723716071564
 20
272.3077961087323
 30
0.0000000000000000
 11
486.5981168855043
 21
277.8612428186226
 31
0.0000000000000000
  0
LINE
  5
241
100
AcDbEntity
  8
MAIN0
  6
CONTINUOUS
 62
3
100
AcDbLine
 10
388.8397237945023
 20
359.9573077464489
 30
0.0000000000000000
 11
404.2306302442399
 21
317.6711398111128
 31
0.0000000000000000
  0
LINE
  5
242
100
AcDbEntity
  8
MAIN0
  6
CONTINUOUS
 62
3
100
AcDbLine
 10
460.6639538933675
 20
359.9573077464490
 30
0.0000000000000000
 11
445.2730474436303
 21
317.6711398111136
 31
0.0000000000000000
  0
LINE
  5
243
100
AcDbEntity
  8
MAIN0
  6
CONTINUOUS
 62
3
100
AcDbLine
 10
357.2591398270423
 20
180.8549160363606
 30
0.0000000000000000
 11
386.1845822628696
 21
215.3269159767714
 31
0.0000000000000000
  0
LINE
  5
244
100
AcDbEntity
  8
MAIN0
  6
CONTINUOUS
 62
3
100
AcDbLine
 10
321.3470247776097
 20
243.0565239092370
 30
0.0000000000000000
 11
365.6633736631742
 21
250.8706919041626
 31
0.0000000000000000
  0
LINE
  5
245
100
AcDbEntity
  8
MAIN0
  6
CONTINUOUS
 62
3
100
AcDbLine
 10
528.1566529102603
 20
243.0565239092370
 30
0.0000000000000000
 11
483.8403040246959
 21
250.8706919041625
 31
0.0000000000000000
  0
LINE
  5
246
100
AcDbEntity
  8
MAIN0
  6
CONTINUOUS
 62
3
100
AcDbLine
 10
492.2445378608275
 20
180.8549160363603
 30
0.0000000000000000
 11
463.3190954250007
 21
215.3269159767701
 31
0.0000000000000000
  0
LINE
  5
247
100
AcDbEntity
  8
MAIN0
  6
PHANTOM
 62
3
100
AcDbLine
 10
238.2518388439358
 20
359.1458071766032
 30
0.0000000000000000
 11
236.3978274149760
 21
358.6835502097722
 31
0.0000000000000000
  0
LINE
  5
248
100
AcDbEntity
  8
MAIN0
  6
CONTINUOUS
 62
3
100
AcDbLine
 10
233.2518388439357
 20
357.8991671623872
 30
0.0000000000000000
 11
183.5241609967821
 21
345.5006645587274
 31
0.0000000000000000
  0
LINE
  5
249
100
AcDbEntity
  8
MAIN0
  6
CONTINUOUS
 62
3
100
AcDbLine
 10
184.7518388439359
 20
291.2895825640171
 30
0.0000000000000000
 11
184.7518388439358
 21
218.2895825640298
 31
0.0000000000000000
  0
LINE
  5
24A
100
AcDbEntity
  8
MAIN0
  6
CONTINUOUS
 62
3
100
AcDbLine
 10
183.7518388439203
 20
218.2895825640233
 30
0.0000000000000000
 11
184.7518388439203
 21
218.2895825640234
 31
0.0000000000000000
  0
LINE
  5
24B
100
AcDbEntity
  8
MAIN0
  6
CONTINUOUS
 62
3
100
AcDbLine
 10
183.7518388439203
 20
291.2895825640171
 30
0.0000000000000000
 11
184.7518388439203
 21
291.2895825640171
 31
0.0000000000000000
  0
LINE
  5
24C
100
AcDbEntity
  8
MAIN0
  6
CONTINUOUS
 62
3
100
AcDbLine
 10
183.7518388439358
 20
206.2895825641381
 30
0.0000000000000000
 11
183.7518388439359
 21
304.2082218462323
 31
0.0000000000000000
  0
ARC
  5
24D
100
AcDbEntity
  8
MAIN0
  6
CENTER
 62
3
100
AcDbCircle
 10
424.7518388439348
 20
261.2895825640160
 30
0.0000000000000000
 40
35.50000000000000
100
AcDbArc
 50
13.52038745375503
 51
42.62423780574974
  0
LINE
  5
24E
100
AcDbEntity
  8
MAIN0
  6
CONTINUOUS
 62
3
100
AcDbLine
 10
466.8984084948943
 20
274.2895825642171
 30
0.0000000000000000
 11
457.0834539187783
 21
291.2895825640298
 31
0.0000000000000000
  0
ARC
  5
24F
100
AcDbEntity
  8
MAIN0
  6
CENTER
 62
3
100
AcDbCircle
 10
424.7518388439345
 20
261.2895825640147
 30
0.0000000000000000
 40
35.50000000000000
100
AcDbArc
 50
138.1291576405356
 51
201.6239494063863
  0
LINE
  5
250
100
AcDbEntity
  8
MAIN0
  6
CONTINUOUS
 62
3
100
AcDbLine
 10
392.4202237690827
 20
291.2895825640152
 30
0.0000000000000000
 11
382.6052691929674
 21
274.2895825642021
 31
0.0000000000000000
  0
ARC
  5
251
100
AcDbEntity
  8
MAIN0
  6
CENTER
 62
3
100
AcDbCircle
 10
424.7518388439356
 20
261.2895825640151
 30
0.0000000000000000
 40
35.50000000000000
100
AcDbArc
 50
258.1291576405357
 51
282.6242378057497
  0
LINE
  5
252
100
AcDbEntity
  8
MAIN0
  6
CONTINUOUS
 62
3
100
AcDbLine
 10
414.9368842678279
 20
218.2895825638133
 30
0.0000000000000000
 11
434.5667934200593
 21
218.2895825638138
 31
0.0000000000000000
  0
LINE
  5
253
100
AcDbEntity
  8
MAIN0
  6
CONTINUOUS
 62
3
100
AcDbLine
 10
392.4202237690825
 20
291.2895825640152
 30
0.0000000000000000
 11
407.2518388439352
 21
291.2895825640151
 31
0.0000000000000000
  0
LINE
  5
254
100
AcDbEntity
  8
MAIN0
  6
CONTINUOUS
 62
3
100
AcDbLine
 10
442.2518388439348
 20
291.2895825640154
 30
0.0000000000000000
 11
457.0834539187869
 21
291.2895825640154
 31
0.0000000000000000
  0
LINE
  5
255
100
AcDbEntity
  8
MAIN0
  6
CONTINUOUS
 62
3
100
AcDbLine
 10
382.6052691929759
 20
274.2895825642169
 30
0.0000000000000000
 11
390.0210767304017
 21
261.4450271302427
 31
0.0000000000000000
  0
LINE
  5
256
100
AcDbEntity
  8
MAIN0
  6
CONTINUOUS
 62
3
100
AcDbLine
 10
407.5210767304019
 20
231.1341379977878
 30
0.0000000000000000
 11
414.9368842678281
 21
218.2895825638134
 31
0.0000000000000000
  0
LINE
  5
257
100
AcDbEntity
  8
MAIN0
  6
CONTINUOUS
 62
3
100
AcDbLine
 10
434.5667934200424
 20
218.2895825638137
 30
0.0000000000000000
 11
441.9826009574683
 21
231.1341379977876
 31
0.0000000000000000
  0
LINE
  5
258
100
AcDbEntity
  8
MAIN0
  6
CENTER
 62
3
100
AcDbLine
 10
418.2335226018834
 20
223.2895825648137
 30
0.0000000000000000
 11
431.5871197639369
 21
223.2895825647831
 31
0.0000000000000000
  0
ARC
  5
259
100
AcDbEntity
  8
MAIN0
  6
CONTINUOUS
 62
3
100
AcDbCircle
 10
184.7518388439358
 20
227.7395825640234
 30
0.0000000000000000
 40
3.300000000000000
100
AcDbArc
 50
0.0000000000000000
 51
90.00000000000000
  0
LINE
  5
25A
100
AcDbEntity
  8
MAIN0
  6
CONTINUOUS
 62
3
100
AcDbLine
 10
188.0518388439359
 20
223.8395825640234
 30
0.0000000000000000
 11
188.0518388439359
 21
227.7395825640234
 31
0.0000000000000000
  0
ARC
  5
25B
100
AcDbEntity
  8
MAIN0
  6
CONTINUOUS
 62
3
100
AcDbCircle
 10
184.7518388439358
 20
223.8395825640234
 30
0.0000000000000000
 40
3.299999999999997
100
AcDbArc
 50
270.0000000000000
 51
360.0000000000000
  0
LINE
  5
25C
100
AcDbEntity
  8
MAIN0
  6
CONTINUOUS
 62
3
100
AcDbLine
 10
174.7518388439358
 20
222.7895825640234
 30
0.0000000000000000
 11
174.7518388439358
 21
228.7895825640234
 31
0.0000000000000000
  0
CIRCLE
  5
25D
100
AcDbEntity
  8
MAIN0
  6
CONTINUOUS
 62
3
100
AcDbCircle
 10
424.7518388439349
 20
225.7895825647173
 30
0.0000000000000000
 40
5.250000000000000
  0
LINE
  5
25E
100
AcDbEntity
  8
MAIN0
  6
CONTINUOUS
 62
3
100
AcDbLine
 10
426.7518388439351
 20
226.9442831030966
 30
0.0000000000000000
 11
424.7518388439349
 21
228.0989836414758
 31
0.0000000000000000
  0
LINE
  5
25F
100
AcDbEntity
  8
MAIN0
  6
CONTINUOUS
 62
3
100
AcDbLine
 10
426.7518388439349
 20
224.6348820263380
 30
0.0000000000000000
 11
426.7518388439349
 21
226.9442831030965
 31
0.0000000000000000
  0
LINE
  5
260
100
AcDbEntity
  8
MAIN0
  6
CONTINUOUS
 62
3
100
AcDbLine
 10
424.7518388439349
 20
223.4801814879588
 30
0.0000000000000000
 11
426.7518388439350
 21
224.6348820263380
 31
0.0000000000000000
  0
LINE
  5
261
100
AcDbEntity
  8
MAIN0
  6
CONTINUOUS
 62
3
100
AcDbLine
 10
422.7518388439349
 20
224.6348820263380
 30
0.0000000000000000
 11
424.7518388439351
 21
223.4801814879588
 31
0.0000000000000000
  0
LINE
  5
262
100
AcDbEntity
  8
MAIN0
  6
CONTINUOUS
 62
3
100
AcDbLine
 10
422.7518388439349
 20
226.9442831030965
 30
0.0000000000000000
 11
422.7518388439349
 21
224.6348820263380
 31
0.0000000000000000
  0
LINE
  5
263
100
AcDbEntity
  8
MAIN0
  6
CONTINUOUS
 62
3
100
AcDbLine
 10
424.7518388439350
 20
228.0989836414758
 30
0.0000000000000000
 11
422.7518388439349
 21
226.9442831030965
 31
0.0000000000000000
  0
CIRCLE
  5
264
100
AcDbEntity
  8
MAIN0
  6
CONTINUOUS
 62
3
100
AcDbCircle
 10
455.4957406776743
 20
279.0395825636643
 30
0.0000000000000000
 40
5.250000000000000
  0
LINE
  5
265
100
AcDbEntity
  8
MAIN0
  6
CONTINUOUS
 62
3
100
AcDbLine
 10
453.4957406776743
 20
280.1942831020436
 30
0.0000000000000000
 11
453.4957406776743
 21
277.8848820252851
 31
0.0000000000000000
  0
LINE
  5
266
100
AcDbEntity
  8
MAIN0
  6
CONTINUOUS
 62
3
100
AcDbLine
 10
455.4957406776742
 20
281.3489836404228
 30
0.0000000000000000
 11
453.4957406776743
 21
280.1942831020436
 31
0.0000000000000000
  0
LINE
  5
267
100
AcDbEntity
  8
MAIN0
  6
CONTINUOUS
 62
3
100
AcDbLine
 10
457.4957406776742
 20
280.1942831020436
 30
0.0000000000000000
 11
455.4957406776742
 21
281.3489836404229
 31
0.0000000000000000
  0
LINE
  5
268
100
AcDbEntity
  8
MAIN0
  6
CONTINUOUS
 62
3
100
AcDbLine
 10
457.4957406776743
 20
277.8848820252851
 30
0.0000000000000000
 11
457.4957406776743
 21
280.1942831020436
 31
0.0000000000000000
  0
LINE
  5
269
100
AcDbEntity
  8
MAIN0
  6
CONTINUOUS
 62
3
100
AcDbLine
 10
455.4957406776743
 20
276.7301814869059
 30
0.0000000000000000
 11
457.4957406776742
 21
277.8848820252850
 31
0.0000000000000000
  0
LINE
  5
26A
100
AcDbEntity
  8
MAIN0
  6
CONTINUOUS
 62
3
100
AcDbLine
 10
453.4957406776742
 20
277.8848820252851
 30
0.0000000000000000
 11
455.4957406776742
 21
276.7301814869059
 31
0.0000000000000000
  0
CIRCLE
  5
26B
100
AcDbEntity
  8
MAIN0
  6
CONTINUOUS
 62
3
100
AcDbCircle
 10
394.0079370101952
 20
279.0395825636641
 30
0.0000000000000000
 40
5.250000000000000
  0
LINE
  5
26C
100
AcDbEntity
  8
MAIN0
  6
CONTINUOUS
 62
3
100
AcDbLine
 10
394.0079370101951
 20
276.7301814869056
 30
0.0000000000000000
 11
396.0079370101951
 21
277.8848820252849
 31
0.0000000000000000
  0
LINE
  5
26D
100
AcDbEntity
  8
MAIN0
  6
CONTINUOUS
 62
3
100
AcDbLine
 10
392.0079370101951
 20
277.8848820252848
 30
0.0000000000000000
 11
394.0079370101951
 21
276.7301814869056
 31
0.0000000000000000
  0
LINE
  5
26E
100
AcDbEntity
  8
MAIN0
  6
CONTINUOUS
 62
3
100
AcDbLine
 10
392.0079370101951
 20
280.1942831020434
 30
0.0000000000000000
 11
392.0079370101951
 21
277.8848820252848
 31
0.0000000000000000
  0
LINE
  5
26F
100
AcDbEntity
  8
MAIN0
  6
CONTINUOUS
 62
3
100
AcDbLine
 10
394.0079370101951
 20
281.3489836404226
 30
0.0000000000000000
 11
392.0079370101951
 21
280.1942831020433
 31
0.0000000000000000
  0
LINE
  5
270
100
AcDbEntity
  8
MAIN0
  6
CONTINUOUS
 62
3
100
AcDbLine
 10
396.0079370101951
 20
280.1942831020434
 30
0.0000000000000000
 11
394.0079370101951
 21
281.3489836404226
 31
0.0000000000000000
  0
LINE
  5
271
100
AcDbEntity
  8
MAIN0
  6
CONTINUOUS
 62
3
100
AcDbLine
 10
396.0079370101951
 20
277.8848820252848
 30
0.0000000000000000
 11
396.0079370101951
 21
280.1942831020434
 31
0.0000000000000000
  0
LINE
  5
272
100
AcDbEntity
  8
MAIN0
  6
CONTINUOUS
 62
3
100
AcDbLine
 10
159.7518388439355
 20
233.7895825640184
 30
0.0000000000000000
 11
159.7518388439355
 21
231.2895825640184
 31
0.0000000000000000
  0
LINE
  5
273
100
AcDbEntity
  8
MAIN0
  6
CONTINUOUS
 62
3
100
AcDbLine
 10
163.8518388439355
 20
233.7895825640183
 30
0.0000000000000000
 11
163.8518388439355
 21
231.2895825640183
 31
0.0000000000000000
  0
LINE
  5
274
100
AcDbEntity
  8
MAIN0
  6
CONTINUOUS
 62
3
100
AcDbLine
 10
159.7518388439353
 20
231.2895825640183
 30
0.0000000000000000
 11
163.8518388439354
 21
231.2895825640183
 31
0.0000000000000000
  0
ELLIPSE
  5
275
100
AcDbEntity
  8
MAIN0
  6
CONTINUOUS
 62
3
100
AcDbEllipse
 10
161.8018388439352
 20
232.5395825640184
 30
0.0000000000000000
 11
2.049999999999997
 21
0.0000000000000000
 31
0.0000000000000000
210
0.0000000000000000
220
0.0000000000000000
230
1.000000000000000
 40
0.6097560975609765
 41
0.0000000000000000
 42
6.283185307179586
  0
LINE
  5
276
100
AcDbEntity
  8
MAIN0
  6
CONTINUOUS
 62
3
100
AcDbLine
 10
163.8518388439360
 20
288.7895825640162
 30
0.0000000000000000
 11
163.8518388439361
 21
291.2895825640162
 31
0.0000000000000000
  0
LINE
  5
277
100
AcDbEntity
  8
MAIN0
  6
CONTINUOUS
 62
3
100
AcDbLine
 10
159.7518388439358
 20
291.2895825640163
 30
0.0000000000000000
 11
163.8518388439360
 21
291.2895825640163
 31
0.0000000000000000
  0
ELLIPSE
  5
278
100
AcDbEntity
  8
MAIN0
  6
CONTINUOUS
 62
3
100
AcDbEllipse
 10
161.8018388439357
 20
290.0395825640161
 30
0.0000000000000000
 11
2.049999999999997
 21
0.0000000000000000
 31
0.0000000000000000
210
0.0000000000000000
220
0.0000000000000000
230
1.000000000000000
 40
0.6097560975609765
 41
0.0000000000000000
 42
6.283185307179586
  0
MTEXT
  5
279
100
AcDbEntity
  8
MAIN0
  6
CONTINUOUS
 62
3
100
AcDbMText
 10
241.5208655997875
 20
395.4463121955259
 30
0.0000000000000000
 40
3.099999904632568
 41
0.0000000000000000
 71
     1
 72
     1
  1
{\H0.70x;{MIN  7}}
 11
1.000000000000000
 21
0.0000000000000000
 31
0.0000000000000000
  7
STANDARD
  0
MTEXT
  5
27A
100
AcDbEntity
  8
MAIN0
  6
CONTINUOUS
 62
3
100
AcDbMText
 10
251.0263670792406
 20
242.4446130817559
 30
0.0000000000000000
 40
3.099999904632568
 41
0.0000000000000000
 71
     1
 72
     1
  1
{\H0.66x;{MIN 1.25}}
 11
6.123233995736766e-017
 21
1.000000000000000
 31
0.0000000000000000
  7
STANDARD
  0
ARC
  5
27B
100
AcDbEntity
  8
MAIN0
  6
CENTER
 62
3
100
AcDbCircle
 10
424.7518388439352
 20
261.2895825640154
 30
0.0000000000000000
 40
47.50000000000000
100
AcDbArc
 50
357.8057798546552
 51
411.4018276101681
  0
LINE
  5
27C
100
AcDbEntity
  8
MAIN0
  6
CENTER
 62
3
100
AcDbLine
 10
383.6313060807141
 20
272.3077961087315
 30
0.0000000000000000
 11
369.5673735769233
 21
276.0762154655442
 31
0.0000000000000000
  0
CIRCLE
  5
27D
100
AcDbEntity
  8
MAIN0
  6
CONTINUOUS
 62
3
100
AcDbCircle
 10
378.8703620948255
 20
273.5834872049663
 30
0.0000000000000000
 40
3.000000000000000
  0
CIRCLE
  5
27E
100
AcDbEntity
  8
MAIN0
  6
CONTINUOUS
 62
3
100
AcDbCircle
 10
378.8703620948255
 20
273.5834872049663
 30
0.0000000000000000
 40
2.500000000000000
  0
ARC
  5
27F
100
AcDbEntity
  8
MAIN0
  6
CENTER
 62
3
100
AcDbCircle
 10
424.7518388439358
 20
261.2895825640146
 30
0.0000000000000000
 40
47.50000000000000
100
AcDbArc
 50
129.7582653902640
 51
187.9618238256209
  0
LINE
  5
280
100
AcDbEntity
  8
MAIN0
  6
CENTER
 62
3
100
AcDbLine
 10
435.7700523914998
 20
220.1690498015569
 30
0.0000000000000000
 11
439.7590551303738
 21
205.2818889084839
 31
0.0000000000000000
  0
CIRCLE
  5
281
100
AcDbEntity
  8
MAIN0
  6
CONTINUOUS
 62
3
100
AcDbCircle
 10
437.0457434877238
 20
215.4081058156651
 30
0.0000000000000000
 40
3.000000000000000
  0
CIRCLE
  5
282
100
AcDbEntity
  8
MAIN0
  6
CONTINUOUS
 62
3
100
AcDbCircle
 10
437.0457434877238
 20
215.4081058156651
 30
0.0000000000000000
 40
2.500000000000000
  0
ARC
  5
283
100
AcDbEntity
  8
MAIN0
  6
CENTER
 62
3
100
AcDbCircle
 10
424.7518388439362
 20
261.2895825640156
 30
0.0000000000000000
 40
47.50000000000000
100
AcDbArc
 50
249.7582653902641
 51
291.4018276101682
  0
CIRCLE
  5
284
100
AcDbEntity
  8
MAIN0
  6
CONTINUOUS
 62
3
100
AcDbCircle
 10
412.4579342001472
 20
215.4081058156644
 30
0.0000000000000000
 40
3.000000000000000
  0
CIRCLE
  5
285
100
AcDbEntity
  8
MAIN0
  6
CONTINUOUS
 62
3
100
AcDbCircle
 10
412.4579342001472
 20
215.4081058156644
 30
0.0000000000000000
 40
2.500000000000000
  0
LINE
  5
286
100
AcDbEntity
  8
MAIN0
  6
CENTER
 62
3
100
AcDbLine
 10
413.7336252963708
 20
220.1690498015561
 30
0.0000000000000000
 11
409.8443547149370
 21
205.6540943872006
 31
0.0000000000000000
  0
CIRCLE
  5
287
100
AcDbEntity
  8
MAIN0
  6
CONTINUOUS
 62
3
100
AcDbCircle
 10
391.1642667386121
 20
294.8771546714142
 30
0.0000000000000000
 40
3.000000000000000
  0
CIRCLE
  5
288
100
AcDbEntity
  8
MAIN0
  6
CONTINUOUS
 62
3
100
AcDbCircle
 10
391.1642667386121
 20
294.8771546714142
 30
0.0000000000000000
 40
2.500000000000000
  0
LINE
  5
289
100
AcDbEntity
  8
MAIN0
  6
CENTER
 62
3
100
AcDbLine
 10
394.6495196282771
 20
291.3919017817568
 30
0.0000000000000000
 11
384.5756487172831
 21
301.4657726927292
 31
0.0000000000000000
  0
ARC
  5
28A
100
AcDbEntity
  8
MAIN0
  6
CONTINUOUS
 62
3
100
AcDbCircle
 10
424.7518388439348
 20
261.2895825640157
 30
0.0000000000000000
 40
55.00000000000000
100
AcDbArc
 50
348.5530045350204
 51
431.4469954649793
  0
ARC
  5
28B
100
AcDbEntity
  8
MAIN0
  6
CONTINUOUS
 62
3
100
AcDbCircle
 10
424.7518388439348
 20
261.2895825640157
 30
0.0000000000000000
 40
60.00000000000000
100
AcDbArc
 50
350.0000000001576
 51
429.9999999998422
  0
ARC
  5
28C
100
AcDbEntity
  8
MAIN0
  6
CONTINUOUS
 62
3
100
AcDbCircle
 10
424.7518388439355
 20
261.2895825640148
 30
0.0000000000000000
 40
60.00000000000000
100
AcDbArc
 50
110.0000000001576
 51
189.9999999998421
  0
ARC
  5
28D
100
AcDbEntity
  8
MAIN0
  6
CONTINUOUS
 62
3
100
AcDbCircle
 10
424.7518388439359
 20
261.2895825640159
 30
0.0000000000000000
 40
60.00000000000000
100
AcDbArc
 50
230.0000000001576
 51
309.9999999998422
  0
ARC
  5
28E
100
AcDbEntity
  8
MAIN0
  6
CONTINUOUS
 62
3
100
AcDbCircle
 10
424.7518388439345
 20
261.2895825640148
 30
0.0000000000000000
 40
55.00000000000000
100
AcDbArc
 50
108.5530045350205
 51
191.4469954649793
  0
ARC
  5
28F
100
AcDbEntity
  8
MAIN0
  6
CONTINUOUS
 62
3
100
AcDbCircle
 10
424.7518388439353
 20
261.2895825640151
 30
0.0000000000000000
 40
55.00000000000000
100
AcDbArc
 50
228.5530045350205
 51
311.4469954649794
  0
CIRCLE
  5
290
100
AcDbEntity
  8
MAIN0
  6
CONTINUOUS
 62
3
100
AcDbCircle
 10
325.1589174086325
 20
318.7895825638564
 30
0.0000000000000000
 40
5.000000000000000
  0
CIRCLE
  5
291
100
AcDbEntity
  8
MAIN0
  6
CONTINUOUS
 62
3
100
AcDbCircle
 10
524.3447602792371
 20
203.7895825641737
 30
0.0000000000000000
 40
5.000000000000000
  0
LINE
  5
292
100
AcDbEntity
  8
MAIN0
  6
CENTER
 62
12
100
AcDbLine
 10
315.6148437335015
 20
324.2998560694920
 30
0.0000000000000000
 11
531.1626112774428
 21
199.8532944550791
 31
0.0000000000000000
  0
LINE
  5
293
100
AcDbEntity
  8
MAIN0
  6
CONTINUOUS
 62
3
100
AcDbLine
 10
219.2518388439358
 20
366.0895825640168
 30
0.0000000000000000
 11
221.2518388439358
 21
364.0895825640168
 31
0.0000000000000000
  0
ARC
  5
294
100
AcDbEntity
  8
MAIN0
  6
CONTINUOUS
 62
3
100
AcDbCircle
 10
424.7518388439351
 20
261.2895825640154
 30
0.0000000000000000
 40
102.7999999999996
100
AcDbArc
 50
69.99999999986211
 51
110.0000000001380
  0
ARC
  5
295
100
AcDbEntity
  8
MAIN0
  6
CONTINUOUS
 62
3
100
AcDbCircle
 10
424.7518388439351
 20
261.2895825640154
 30
0.0000000000000000
 40
104.7999999999996
100
AcDbArc
 50
71.08325552737558
 51
108.9167444726247
  0
LINE
  5
296
100
AcDbEntity
  8
MAIN0
  6
CONTINUOUS
 62
3
100
AcDbLine
 10
390.8935524841039
 20
360.6808117785474
 30
0.0000000000000000
 11
389.5921681096409
 21
357.8899839812208
 31
0.0000000000000000
  0
LINE
  5
297
100
AcDbEntity
  8
MAIN0
  6
CONTINUOUS
 62
3
100
AcDbLine
 10
458.6101252037658
 20
360.6808117785474
 30
0.0000000000000000
 11
459.9115095782288
 21
357.8899839812208
 31
0.0000000000000000
  0
LINE
  5
298
100
AcDbEntity
  8
MAIN0
  6
CONTINUOUS
 62
3
100
AcDbLine
 10
355.6056526108994
 20
182.2718318404142
 30
0.0000000000000000
 11
358.6732725682035
 21
182.5402138107043
 31
0.0000000000000000
  0
ARC
  5
299
100
AcDbEntity
  8
MAIN0
  6
CONTINUOUS
 62
3
100
AcDbCircle
 10
424.7518388441307
 20
261.2895825639020
 30
0.0000000000000000
 40
102.7999999999996
100
AcDbArc
 50
189.9999999998621
 51
230.0000000001380
  0
ARC
  5
29A
100
AcDbEntity
  8
MAIN0
  6
CONTINUOUS
 62
3
100
AcDbCircle
 10
424.7518388441307
 20
261.2895825639020
 30
0.0000000000000000
 40
104.7999999999996
100
AcDbArc
 50
191.0832555273756
 51
228.9167444726247
  0
LINE
  5
29B
100
AcDbEntity
  8
MAIN0
  6
CONTINUOUS
 62
3
100
AcDbLine
 10
321.7473662510683
 20
240.9161040728575
 30
0.0000000000000000
 11
323.5136018339093
 21
243.4385498998940
 31
0.0000000000000000
  0
LINE
  5
29C
100
AcDbEntity
  8
MAIN0
  6
CONTINUOUS
 62
3
100
AcDbLine
 10
527.7563114371933
 20
240.9161040730839
 30
0.0000000000000000
 11
525.9900758543522
 21
243.4385499001204
 31
0.0000000000000000
  0
ARC
  5
29D
100
AcDbEntity
  8
MAIN0
  6
CONTINUOUS
 62
3
100
AcDbCircle
 10
424.7518388441310
 20
261.2895825641282
 30
0.0000000000000000
 40
102.7999999999996
100
AcDbArc
 50
309.9999999998622
 51
350.0000000001380
  0
ARC
  5
29E
100
AcDbEntity
  8
MAIN0
  6
CONTINUOUS
 62
3
100
AcDbCircle
 10
424.7518388441310
 20
261.2895825641282
 30
0.0000000000000000
 40
104.7999999999996
100
AcDbArc
 50
311.0832555273756
 51
348.9167444726247
  0
LINE
  5
29F
100
AcDbEntity
  8
MAIN0
  6
CONTINUOUS
 62
3
100
AcDbLine
 10
493.8980250773624
 20
182.2718318406404
 30
0.0000000000000000
 11
490.8304051200583
 21
182.5402138109306
 31
0.0000000000000000
  0
LINE
  5
2A0
100
AcDbEntity
  8
MAIN0
  6
HIDDEN
 62
3
100
AcDbLine
 10
89.46707427250482
 20
145.1895825640179
 30
0.0000000000000000
 11
102.0365742725048
 21
145.1895825640175
 31
0.0000000000000000
  0
MTEXT
  5
2A1
100
AcDbEntity
  8
MAIN0
  6
CONTINUOUS
 62
4
100
AcDbMText
 10
424.7518388439348
 20
185.4345157189007
 30
0.0000000000000000
 40
5.000000000000000
 41
0.0000000000000000
 71
     8
 72
     1
  1
{\H0.93x;{KITAGAWA}}
 11
1.000000000000000
 21
0.0000000000000000
 31
0.0000000000000000
  7
STANDARD
  0
MTEXT
  5
2A2
100
AcDbEntity
  8
MAIN0
  6
CONTINUOUS
 62
4
100
AcDbMText
 10
484.0362288131892
 20
295.5174410715069
 30
0.0000000000000000
 40
4.000000000000000
 41
0.0000000000000000
 71
     8
 72
     1
  1
{\H0.92x;{PLS08}}
 11
-0.4999999999999983
 21
0.8660254037844396
 31
0.0000000000000000
  7
STANDARD
  0
LINE
  5
2A3
100
AcDbEntity
  8
MAIN0
  6
CONTINUOUS
 62
3
100
AcDbLine
 10
87.75182427250417
 20
135.7895825640176
 30
0.0000000000000000
 11
87.75182427250417
 21
134.7895825640176
 31
0.0000000000000000
  0
LINE
  5
2A4
100
AcDbEntity
  8
MAIN0
  6
CONTINUOUS
 62
3
100
AcDbLine
 10
87.75182427250428
 20
134.7895825640175
 30
0.0000000000000000
 11
103.7518242725043
 21
134.7895825640175
 31
0.0000000000000000
  0
LINE
  5
2A5
100
AcDbEntity
  8
MAIN0
  6
CONTINUOUS
 62
3
100
AcDbLine
 10
103.7518242725042
 20
135.7895825640176
 30
0.0000000000000000
 11
103.7518242725042
 21
134.7895825640176
 31
0.0000000000000000
  0
LINE
  5
2A6
100
AcDbEntity
  8
MAIN0
  6
CONTINUOUS
 62
3
100
AcDbLine
 10
159.7518388439360
 20
288.7895825640164
 30
0.0000000000000000
 11
159.7518388439361
 21
291.2895825640164
 31
0.0000000000000000
  0
DIMENSION
  5
2AF
100
AcDbEntity
  8
MAIN0
  6
CONTINUOUS
 62
3
100
AcDbDimension
  2
*D7
 10
177.7518388439359
 20
270.0000000000000
 30
0.0000000000000000
 11
191.6528501217198
 21
270.5000000000000
 31
0.0000000000000000
 70
160
  1
\A1;MIN 6
  3
MAIN001
100
AcDbAlignedDimension
 13
183.7518388439358
 23
206.2895825641381
 33
0.0000000000000000
 14
177.7518388439359
 24
287.9235571602335
 34
0.0000000000000000
100
AcDbRotatedDimension
1001
ACAD
1000
DSTYLE
1002
{
1070
   173
1070
     1
1070
     6
1000
_OPEN
1070
     7
1000
_OPEN
1070
    41
1040
2.000000
1070
   287
1070
     0
1002
}
  0
DIMENSION
  5
2B6
100
AcDbEntity
  8
MAIN0
  6
CONTINUOUS
 62
3
100
AcDbDimension
  2
*D8
 10
166.4642682630714
 20
283.7895825640157
 30
0.0000000000000000
 11
165.9642682630714
 21
261.2895825640171
 31
0.0000000000000000
 70
32
  1
\A1;\U+220545
  3
MAIN001
100
AcDbAlignedDimension
 13
172.7518388439359
 23
238.7895825640185
 33
0.0000000000000000
 14
172.7518388439360
 24
283.7895825640157
 34
0.0000000000000000
 50
90.00000000000000
100
AcDbRotatedDimension
1001
ACAD
1000
DSTYLE
1002
{
1070
   173
1070
     1
1070
     6
1000
_OPEN
1070
     7
1000
_OPEN
1070
    41
1040
2.000000
1002
}
  0
LINE
  5
2B7
100
AcDbEntity
  8
MAIN0
  6
CONTINUOUS
 62
3
100
AcDbLine
 10
141.5518388440833
 20
283.7895825640140
 30
0.0000000000000000
 11
141.5518388440833
 21
238.7895825640158
 31
0.0000000000000000
  0
LINE
  5
2B8
100
AcDbEntity
  8
MAIN0
  6
CONTINUOUS
 62
3
100
AcDbLine
 10
141.5518388439668
 20
283.7895825640170
 30
0.0000000000000000
 11
116.5518388439846
 21
278.7895825640182
 31
0.0000000000000000
  0
LINE
  5
2B9
100
AcDbEntity
  8
MAIN0
  6
CONTINUOUS
 62
3
100
AcDbLine
 10
141.5518388439665
 20
238.7895825640182
 30
0.0000000000000000
 11
116.5518388439813
 21
243.7895825640177
 31
0.0000000000000000
  0
DIMENSION
  5
2C0
100
AcDbEntity
  8
MAIN0
  6
CONTINUOUS
 62
3
100
AcDbDimension
  2
*D9
 10
172.7518388439359
 20
275.4718860257756
 30
0.0000000000000000
 11
154.6582079472424
 21
275.9718860257756
 31
0.0000000000000000
 70
160
  3
MAIN001
100
AcDbAlignedDimension
 13
141.5518388440833
 23
283.7895825640140
 33
0.0000000000000000
 14
172.7518388439359
 24
287.9235571602335
 34
0.0000000000000000
100
AcDbRotatedDimension
1001
ACAD
1000
DSTYLE
1002
{
1070
   173
1070
     1
1070
     6
1000
_OPEN
1070
     7
1000
_OPEN
1070
    41
1040
2.000000
1002
}
  0
INSERT
  5
2C8
100
AcDbEntity
  8
MAIN0
  6
CONTINUOUS
 62
3
100
AcDbBlockReference
  2
D10
 10
193.7262490465172
 20
261.2895825640170
 30
0.0000000000000000
 50
0.0000000000000000
  0
DIMENSION
  5
2D1
100
AcDbEntity
  8
MAIN0
  6
CONTINUOUS
 62
3
100
AcDbDimension
  2
*D11
 10
250.0000000000000
 20
338.2895825640167
 30
0.0000000000000000
 11
249.5000000000000
 21
301.0395825641076
 31
0.0000000000000000
 70
32
  3
MAIN001
100
AcDbAlignedDimension
 13
233.2518388439357
 23
263.7895825641984
 33
0.0000000000000000
 14
233.2518388439357
 24
338.2895825640167
 34
0.0000000000000000
 50
90.00000000000000
100
AcDbRotatedDimension
1001
ACAD
1000
DSTYLE
1002
{
1070
   173
1070
     1
1070
     6
1000
_OPEN
1070
     7
1000
_OPEN
1070
    41
1040
2.000000
1002
}
  0
DIMENSION
  5
2D9
100
AcDbEntity
  8
MAIN0
  6
CONTINUOUS
 62
3
100
AcDbDimension
  2
*D12
 10
240.0000000000000
 20
338.2895825640201
 30
0.0000000000000000
 11
239.5000000000000
 21
328.0395825641093
 31
0.0000000000000000
 70
32
  3
MAIN001
100
AcDbAlignedDimension
 13
174.3416901137197
 23
317.7895825641984
 33
0.0000000000000000
 14
233.2518388439357
 24
338.2895825640167
 34
0.0000000000000000
 50
90.00000000000000
100
AcDbRotatedDimension
1001
ACAD
1000
DSTYLE
1002
{
1070
   173
1070
     1
1070
     6
1000
_OPEN
1070
     7
1000
_OPEN
1070
    41
1040
2.000000
1002
}
  0
DIMENSION
  5
2E2
100
AcDbEntity
  8
MAIN0
  6
CONTINUOUS
 62
3
100
AcDbDimension
  2
*D13
 10
41.59754252544479
 20
385.2895825640182
 30
0.0000000000000000
 11
41.09754252544479
 21
259.1895825625280
 31
0.0000000000000000
 70
32
  1
\A1;\U+2205248h7
  3
MAIN001
100
AcDbAlignedDimension
 13
66.35183884392171
 23
137.2895825640181
 33
0.0000000000000000
 14
66.35183884392171
 24
385.2895825640182
 34
0.0000000000000000
 50
90.00000000000000
100
AcDbRotatedDimension
1001
ACAD
1000
DSTYLE
1002
{
1070
   173
1070
     1
1070
     6
1000
_OPEN
1070
     7
1000
_OPEN
1070
    41
1040
2.000000
1002
}
  0
DIMENSION
  5
2EB
100
AcDbEntity
  8
MAIN0
  6
CONTINUOUS
 62
3
100
AcDbDimension
  2
*D14
 10
65.75183884392185
 20
114.7659445799845
 30
0.0000000000000000
 11
73.25183884392187
 21
115.2659445799845
 31
0.0000000000000000
 70
32
  3
MAIN001
100
AcDbAlignedDimension
 13
80.75183884392190
 23
135.7895825640181
 33
0.0000000000000000
 14
65.75183884392185
 24
137.8895825640182
 34
0.0000000000000000
100
AcDbRotatedDimension
1001
ACAD
1000
DSTYLE
1002
{
1070
   173
1070
     1
1070
     6
1000
_OPEN
1070
     7
1000
_OPEN
1070
    41
1040
2.000000
1002
}
  0
DIMENSION
  5
2F4
100
AcDbEntity
  8
MAIN0
  6
CONTINUOUS
 62
3
100
AcDbDimension
  2
*D15
 10
80.75183884392190
 20
114.7659445799845
 30
0.0000000000000000
 11
95.75183155821335
 21
115.2659445799845
 31
0.0000000000000000
 70
32
  3
MAIN001
100
AcDbAlignedDimension
 13
110.7518242725048
 23
135.7895825640177
 33
0.0000000000000000
 14
80.75183884392190
 24
135.7895825640181
 34
0.0000000000000000
100
AcDbRotatedDimension
1001
ACAD
1000
DSTYLE
1002
{
1070
   173
1070
     1
1070
     6
1000
_OPEN
1070
     7
1000
_OPEN
1070
    41
1040
2.000000
1002
}
  0
DIMENSION
  5
2FD
100
AcDbEntity
  8
MAIN0
  6
CONTINUOUS
 62
3
100
AcDbDimension
  2
*D16
 10
65.75183884392185
 20
132.6529686039105
 30
0.0000000000000000
 11
132.0751553780354
 21
133.1529686039105
 31
0.0000000000000000
 70
160
  3
MAIN001
100
AcDbAlignedDimension
 13
184.2518388439358
 23
156.5395825634315
 33
0.0000000000000000
 14
65.75183884392185
 24
137.8895825640182
 34
0.0000000000000000
100
AcDbRotatedDimension
1001
ACAD
1000
DSTYLE
1002
{
1070
   173
1070
     1
1070
     6
1000
_OPEN
1070
     7
1000
_OPEN
1070
    41
1040
2.000000
1002
}
  0
LINE
  5
2FE
100
AcDbEntity
  8
MAIN0
  6
CONTINUOUS
 62
3
100
AcDbLine
 10
181.2518388439378
 20
366.0395825640171
 30
0.0000000000000000
 11
219.3018388439360
 21
366.0395825640166
 31
0.0000000000000000
  0
LINE
  5
2FF
100
AcDbEntity
  8
MAIN0
  6
CONTINUOUS
 62
3
100
AcDbLine
 10
80.75183851333495
 20
366.0395825640195
 30
0.0000000000000000
 11
165.2518388439378
 21
366.0395825640188
 31
0.0000000000000000
  0
LINE
  5
300
100
AcDbEntity
  8
MAIN0
  6
CONTINUOUS
 62
3
100
AcDbLine
 10
80.75183854365892
 20
156.5395825640181
 30
0.0000000000000000
 11
165.2518388439358
 21
156.5395825640173
 31
0.0000000000000000
  0
LEADER
  5
301
100
AcDbEntity
  8
MAIN0
  6
CONTINUOUS
 62
3
100
AcDbLeader
  3
MAIN001
 73
     0
 75
     1
 40
3.099999904632568
 41
6.199000002980228
 76
     3
 10
195.0000000000000
 20
323.7895793562941
 30
0.0000000000000000
 10
170.0000000000000
 20
375.0000000000000
 30
0.0000000000000000
 10
168.2130000526607
 20
375.0000000000000
 30
0.0000000000000000
340
302
213
0.0000000000000000
223
-0.5000000000000000
233
0.0000000000000000
1001
ACAD
1000
DSTYLE
1002
{
1070
   147
1040
0.0
1070
    77
1070
     1
1070
   173
1070
     1
1070
     6
1000
_OPEN
1070
     7
1000
_OPEN
1002
}
  0
MTEXT
  5
302
102
{ACAD_REACTORS
330
301
102
}
100
AcDbEntity
  8
MAIN0
  6
CONTINUOUS
 62
3
100
AcDbMText
 10
162.0140000496805
 20
378.5999999046326
 30
0.0000000000000000
 40
3.099999904632568
 41
0.0000000000000000
 71
     1
 72
     1
  1
{\H0.70x;{M12}}
 11
1.000000000000000
 21
0.0000000000000000
 31
0.0000000000000000
  7
STANDARD
  0
LINE
  5
303
100
AcDbEntity
  8
MAIN0
  6
PHANTOM
 62
3
100
AcDbLine
 10
365.6633736631739
 20
250.8706919041624
 30
0.0000000000000000
 11
397.6696256360816
 21
256.5142576782753
 31
0.0000000000000000
  0
LINE
  5
304
100
AcDbEntity
  8
MAIN0
  6
PHANTOM
 62
3
100
AcDbLine
 10
404.2306302445506
 20
317.6711398112262
 30
0.0000000000000000
 11
415.3462849025754
 21
287.1311296356627
 31
0.0000000000000000
  0
LINE
  5
305
100
AcDbEntity
  8
MAIN0
  6
CONTINUOUS
 62
3
100
AcDbLine
 10
459.4826009574682
 20
261.4450271302430
 30
0.0000000000000000
 11
466.8984084948942
 21
274.2895825642171
 31
0.0000000000000000
  0
DIMENSION
  5
30E
100
AcDbEntity
  8
MAIN0
  6
CONTINUOUS
 62
3
100
AcDbDimension
  2
*D17
 10
531.1626112774428
 20
199.8532944550791
 30
0.0000000000000000
 11
532.0214751586002
 21
178.9786956290777
 31
0.0000000000000000
 70
162
  3
MAIN001
100
AcDb2LineAngularDimension
 13
511.5794399974019
 23
174.4619814102659
 33
0.0000000000000000
 14
510.8723332162165
 24
175.1690881914536
 34
0.0000000000000000
 15
530.2965858736578
 25
200.3532944550782
 35
0.0000000000000000
 16
532.4181518287458
 26
178.6743149145732
 36
0.0000000000000000
1001
ACAD
1000
DSTYLE
1002
{
1070
   173
1070
     1
1070
     6
1000
_OPEN
1070
     7
1000
_OPEN
1070
    41
1040
2.000000
1002
}
  0
DIMENSION
  5
317
100
AcDbEntity
  8
MAIN0
  6
CONTINUOUS
 62
3
100
AcDbDimension
  2
*D18
 10
555.9991976010061
 20
261.2895825640152
 30
0.0000000000000000
 11
554.4103834880743
 21
222.7689220739434
 31
0.0000000000000000
 70
162
  1
\A1;30\U+00B0\H0.903226x;\U+00B10.2\U+00B0
  3
MAIN001
100
AcDb2LineAngularDimension
 13
531.1626112774428
 23
199.8532944550791
 33
0.0000000000000000
 14
530.2965858736578
 24
200.3532944550782
 34
0.0000000000000000
 15
554.9991976010061
 25
261.2895825640165
 35
0.0000000000000000
 16
555.8380359414883
 26
226.1651419130643
 36
0.0000000000000000
1001
ACAD
1000
DSTYLE
1002
{
1070
   173
1070
     1
1070
     6
1000
_OPEN
1070
     7
1000
_OPEN
1070
    41
1040
2.000000
1002
}
  0
DIMENSION
  5
320
100
AcDbEntity
  8
MAIN0
  6
CONTINUOUS
 62
3
100
AcDbDimension
  2
*D19
 10
511.8314200264729
 20
348.3691637468362
 30
0.0000000000000000
 11
549.6699760950143
 21
313.0323692000180
 31
0.0000000000000000
 70
162
  3
MAIN001
100
AcDb2LineAngularDimension
 13
555.9991976010061
 23
261.2895825640152
 33
0.0000000000000000
 14
554.9991976010061
 24
261.2895825640165
 34
0.0000000000000000
 15
511.1243132452860
 25
347.6620569656500
 35
0.0000000000000000
 16
550.1319158612699
 26
313.2237109162005
 36
0.0000000000000000
1001
ACAD
1000
DSTYLE
1002
{
1070
   173
1070
     1
1070
     6
1000
_OPEN
1070
     7
1000
_OPEN
1070
    41
1040
2.000000
1002
}
  0
DIMENSION
  5
329
100
AcDbEntity
  8
MAIN0
  6
CONTINUOUS
 62
3
100
AcDbDimension
  2
*D20
 10
486.0878579061246
 20
367.5266839138907
 30
0.0000000000000000
 11
499.9066693957020
 21
374.8898874174147
 31
0.0000000000000000
 70
162
  3
MAIN001
100
AcDb2LineAngularDimension
 13
511.8314200264729
 23
348.3691637468362
 33
0.0000000000000000
 14
511.1243132452860
 24
347.6620569656500
 34
0.0000000000000000
 15
485.5878579061234
 25
366.6606585101069
 35
0.0000000000000000
 16
507.3671064934443
 26
368.9558955491333
 36
0.0000000000000000
1001
ACAD
1000
DSTYLE
1002
{
1070
   173
1070
     1
1070
     6
1000
_OPEN
1070
     7
1000
_OPEN
1070
    41
1040
2.000000
1002
}
  0
DIMENSION
  5
332
100
AcDbEntity
  8
MAIN0
  6
CONTINUOUS
 62
3
100
AcDbDimension
  2
*D21
 10
424.7518388439348
 20
392.7878083620706
 30
0.0000000000000000
 11
460.0056890176874
 21
392.8587425750053
 31
0.0000000000000000
 70
162
  3
MAIN001
100
AcDb2LineAngularDimension
 13
486.0878579061246
 23
367.5266839138907
 33
0.0000000000000000
 14
485.5878579061234
 24
366.6606585101069
 34
0.0000000000000000
 15
424.7518388439335
 25
391.7878083620706
 35
0.0000000000000000
 16
459.8762794951354
 26
392.3757796618609
 36
0.0000000000000000
1001
ACAD
1000
DSTYLE
1002
{
1070
   173
1070
     1
1070
     6
1000
_OPEN
1070
     7
1000
_OPEN
1070
    41
1040
2.000000
1002
}
  0
LEADER
  5
333
100
AcDbEntity
  8
MAIN0
  6
CONTINUOUS
 62
3
100
AcDbLeader
  3
MAIN001
 73
     0
 74
     0
 75
     1
 40
3.099999904632568
 41
25.10100001639128
 76
     3
 10
178.3510200701044
 20
222.7895825640210
 30
0.0000000000000000
 10
195.0000000000000
 20
195.0000000000000
 30
0.0000000000000000
 10
196.7849999473393
 20
195.0000000000000
 30
0.0000000000000000
340
334
213
-0.001000000000004775
223
-0.5000000000000000
233
0.0000000000000000
1001
ACAD
1000
DSTYLE
1002
{
1070
   147
1040
0.0
1070
    77
1070
     1
1070
   173
1070
     1
1070
     6
1000
_OPEN
1070
     7
1000
_OPEN
1002
}
  0
MTEXT
  5
334
102
{ACAD_REACTORS
330
333
102
}
100
AcDbEntity
  8
MAIN0
  6
CONTINUOUS
 62
3
100
AcDbMText
 10
196.7859999473393
 20
198.5999999046326
 30
0.0000000000000000
 40
3.099999904632568
 41
0.0000000000000000
 71
     1
 72
     1
  1
{\H0.71x;{3-M6 深さ12\P3-M6 DEPTH12}}
 11
1.000000000000000
 21
0.0000000000000000
 31
0.0000000000000000
  7
KNJYOKO
  0
DIMENSION
  5
33B
100
AcDbEntity
  8
MAIN0
  6
CONTINUOUS
 62
3
100
AcDbDimension
  2
*D22
 10
521.2015509026403
 20
207.6780571770358
 30
0.0000000000000000
 11
564.5387420523756
 21
165.2045642581999
 31
0.0000000000000000
 70
163
  1
\A1;2-\U+220510H7
  3
MAIN001
100
AcDbDiametricDimension
 15
527.4879696558340
 25
199.9011079513116
 35
0.0000000000000000
1001
ACAD
1000
DSTYLE
1002
{
1070
    73
1070
     1
1070
    74
1070
     1
1070
   172
1070
     0
1070
   173
1070
     1
1070
     6
1000
_OPEN
1070
     7
1000
_OPEN
1070
    41
1040
2.000000
1002
}
  0
DIMENSION
  5
342
100
AcDbEntity
  8
MAIN0
  6
CONTINUOUS
 62
3
100
AcDbDimension
  2
*D23
 10
500.9820204107293
 20
340.5160656155967
 30
0.0000000000000000
 11
549.4596399332654
 21
358.2688622556367
 31
0.0000000000000000
 70
163
  1
\A1;4-\U+220511
  3
MAIN001
100
AcDbDiametricDimension
 15
511.1562169497821
 25
344.6976591856041
 35
0.0000000000000000
1001
ACAD
1000
DSTYLE
1002
{
1070
    73
1070
     1
1070
    74
1070
     1
1070
   172
1070
     0
1070
   173
1070
     1
1070
     6
1000
_OPEN
1070
     7
1000
_OPEN
1070
    41
1040
2.000000
1002
}
  0
DIMENSION
  5
34B
100
AcDbEntity
  8
MAIN0
  6
CONTINUOUS
 62
3
100
AcDbDimension
  2
*D24
 10
401.2518388439351
 20
122.5224413098444
 30
0.0000000000000000
 11
413.0018388439351
 21
123.0224413098444
 31
0.0000000000000000
 70
32
  3
MAIN001
100
AcDbAlignedDimension
 13
424.7518388439349
 23
133.9998871899485
 33
0.0000000000000000
 14
401.2518388439351
 24
130.9363176799236
 34
0.0000000000000000
100
AcDbRotatedDimension
1001
ACAD
1000
DSTYLE
1002
{
1070
   173
1070
     1
1070
     6
1000
_OPEN
1070
     7
1000
_OPEN
1070
    41
1040
2.000000
1002
}
  0
DIMENSION
  5
354
100
AcDbEntity
  8
MAIN0
  6
CONTINUOUS
 62
3
100
AcDbDimension
  2
*D25
 10
424.7518388439349
 20
122.5224413098444
 30
0.0000000000000000
 11
436.5018388439348
 21
123.0224413098444
 31
0.0000000000000000
 70
32
  3
MAIN001
100
AcDbAlignedDimension
 13
448.2518388439348
 23
130.9363176799237
 33
0.0000000000000000
 14
424.7518388439349
 24
133.9998871899485
 34
0.0000000000000000
100
AcDbRotatedDimension
1001
ACAD
1000
DSTYLE
1002
{
1070
   173
1070
     1
1070
     6
1000
_OPEN
1070
     7
1000
_OPEN
1070
    41
1040
2.000000
1002
}
  0
MTEXT
  5
355
100
AcDbEntity
  8
MAIN0
  6
CONTINUOUS
 62
3
100
AcDbMText
 10
390.7223438918259
 20
132.8447833441765
 30
0.0000000000000000
 40
4.000000000000000
 41
0.0000000000000000
 71
     1
 72
     1
  1
{\H0.92x;{閉\PCLOSE}}
 11
1.000000000000000
 21
0.0000000000000000
 31
0.0000000000000000
  7
KNJYOKO
  0
MTEXT
  5
356
100
AcDbEntity
  8
MAIN0
  6
CONTINUOUS
 62
3
100
AcDbMText
 10
450.4334825287160
 20
132.8447833441765
 30
0.0000000000000000
 40
4.000000000000000
 41
0.0000000000000000
 71
     1
 72
     1
  1
{\H0.91x;{開\POPEN}}
 11
1.000000000000000
 21
4.440892098500626e-016
 31
0.0000000000000000
  7
KNJYOKO
  0
ARC
  5
357
100
AcDbEntity
  8
MAIN0
  6
CENTER
 62
3
100
AcDbCircle
 10
424.7518388439349
 20
261.2895825640147
 30
0.0000000000000000
 40
80.00000000000000
100
AcDbArc
 50
244.3119962549097
 51
292.9757729937791
  0
DIMENSION
  5
35D
100
AcDbEntity
  8
MAIN0
  6
CONTINUOUS
 62
3
100
AcDbDimension
  2
*D26
 10
424.7518388439348
 20
261.2895825640147
 30
0.0000000000000000
 11
397.9446477117498
 21
201.1140102453141
 31
0.0000000000000000
 70
164
  3
MAIN001
100
AcDbRadialDimension
 15
392.7529879743643
 25
187.9678699338055
 35
0.0000000000000000
1001
ACAD
1000
DSTYLE
1002
{
1070
   173
1070
     1
1070
     6
1000
_OPEN
1070
     7
1000
_OPEN
1070
    41
1040
2.000000
1070
   340
1005
35E
1002
}
  0
LEADER
  5
35F
100
AcDbEntity
  8
MAIN0
  6
CONTINUOUS
 62
3
100
AcDbLeader
  3
MAIN001
 73
     0
 75
     1
 40
3.099999904632568
 41
14.59900000894072
 76
     3
 10
395.0693307349907
 20
140.5719616626386
 30
0.0000000000000000
 10
375.4412646437965
 20
120.1899212998212
 30
0.0000000000000000
 10
373.6542646964572
 20
120.1899212998212
 30
0.0000000000000000
340
360
213
0.0000000000000000
223
-0.5000000000000000
233
0.0000000000000000
1001
ACAD
1000
DSTYLE
1002
{
1070
   147
1040
0.0
1070
    77
1070
     1
1070
   173
1070
     1
1070
     6
1000
_OPEN
1070
     7
1000
_OPEN
1002
}
  0
MTEXT
  5
360
102
{ACAD_REACTORS
330
35F
102
}
100
AcDbEntity
  8
MAIN0
  6
CONTINUOUS
 62
3
100
AcDbMText
 10
359.0552646875165
 20
123.7899212044538
 30
0.0000000000000000
 40
3.099999904632568
 41
0.0000000000000000
 71
     1
 72
     1
  1
{\H0.70x;{2-Rc1/4}}
 11
1.000000000000000
 21
0.0000000000000000
 31
0.0000000000000000
  7
STANDARD
  0
LEADER
  5
361
100
AcDbEntity
  8
MAIN0
  6
CONTINUOUS
 62
3
100
AcDbLeader
  3
MAIN001
 73
     0
 75
     1
 40
3.099999904632568
 41
14.59900000894072
 76
     3
 10
396.7246460016434
 20
183.0405115905172
 30
0.0000000000000000
 10
344.0408101196490
 20
120.1899212999269
 30
0.0000000000000000
 10
342.2538101723097
 20
120.1899212999269
 30
0.0000000000000000
340
362
213
0.0000000000000000
223
-0.5000000000000000
233
0.0000000000000000
1001
ACAD
1000
DSTYLE
1002
{
1070
   147
1040
0.0
1070
    77
1070
     1
1070
   173
1070
     1
1070
     6
1000
_OPEN
1070
     7
1000
_OPEN
1002
}
  0
MTEXT
  5
362
102
{ACAD_REACTORS
330
361
102
}
100
AcDbEntity
  8
MAIN0
  6
CONTINUOUS
 62
3
100
AcDbMText
 10
327.6548101633690
 20
123.7899212045595
 30
0.0000000000000000
 40
3.099999904632568
 41
0.0000000000000000
 71
     1
 72
     1
  1
{\H0.70x;{2-Rc1/8}}
 11
1.000000000000000
 21
0.0000000000000000
 31
0.0000000000000000
  7
STANDARD
  0
DIMENSION
  5
36A
100
AcDbEntity
  8
MAIN0
  6
CONTINUOUS
 62
3
100
AcDbDimension
  2
*D27
 10
292.9619593397428
 20
135.7895825640154
 30
0.0000000000000000
 11
292.4619593397428
 21
198.5395825640153
 31
0.0000000000000000
 70
32
  3
MAIN001
100
AcDbAlignedDimension
 13
291.4398968061576
 23
261.2895825640153
 33
0.0000000000000000
 14
384.7518388439349
 24
135.7895825640154
 34
0.0000000000000000
 50
90.00000000000000
100
AcDbRotatedDimension
1001
ACAD
1000
DSTYLE
1002
{
1070
   173
1070
     1
1070
     6
1000
_OPEN
1070
     7
1000
_OPEN
1070
    41
1040
2.000000
1002
}
  0
DIMENSION
  5
373
100
AcDbEntity
  8
MAIN0
  6
CONTINUOUS
 62
3
100
AcDbDimension
  2
*D28
 10
65.75183884392185
 20
122.3135274736405
 30
0.0000000000000000
 11
87.60418870648363
 21
122.8135274736405
 31
0.0000000000000000
 70
160
  3
MAIN001
100
AcDbAlignedDimension
 13
95.75182427250451
 23
132.2898425609131
 33
0.0000000000000000
 14
65.75183884392185
 24
137.8895825640182
 34
0.0000000000000000
100
AcDbRotatedDimension
1001
ACAD
1000
DSTYLE
1002
{
1070
   173
1070
     1
1070
     6
1000
_OPEN
1070
     7
1000
_OPEN
1070
    41
1040
2.000000
1002
}
  0
LINE
  5
374
100
AcDbEntity
  8
MAIN0
  6
CONTINUOUS
 62
3
100
AcDbLine
 10
94.39353249611179
 20
278.7895825640185
 30
0.0000000000000000
 11
116.5518388439816
 21
278.7895825640183
 31
0.0000000000000000
  0
LINE
  5
375
100
AcDbEntity
  8
MAIN0
  6
CONTINUOUS
 62
3
100
AcDbLine
 10
102.0518388439800
 20
281.2895825640180
 30
0.0000000000000000
 11
102.0518388439800
 21
278.7895825640171
 31
0.0000000000000000
  0
LINE
  5
376
100
AcDbEntity
  8
MAIN0
  6
CONTINUOUS
 62
3
100
AcDbLine
 10
106.1518388439800
 20
281.2895825640179
 30
0.0000000000000000
 11
106.1518388439800
 21
278.7895825640171
 31
0.0000000000000000
  0
LINE
  5
377
100
AcDbEntity
  8
MAIN0
  6
CONTINUOUS
 62
3
100
AcDbLine
 10
102.0518388439799
 20
281.2895825640177
 30
0.0000000000000000
 11
106.1518388439800
 21
281.2895825640176
 31
0.0000000000000000
  0
ELLIPSE
  5
378
100
AcDbEntity
  8
MAIN0
  6
CONTINUOUS
 62
3
100
AcDbEllipse
 10
104.1018388439801
 20
280.0395825640183
 30
0.0000000000000000
 11
2.050000000000000
 21
0.0000000000000000
 31
0.0000000000000000
210
0.0000000000000000
220
0.0000000000000000
230
1.000000000000000
 40
0.6097560975609755
 41
0.0000000000000000
 42
6.283185307179586
  0
LINE
  5
379
100
AcDbEntity
  8
MAIN0
  6
CONTINUOUS
 62
3
100
AcDbLine
 10
114.2518388439221
 20
278.2122322948454
 30
0.0000000000000000
 11
113.2518388439516
 21
278.7895825640186
 31
0.0000000000000000
  0
LINE
  5
37A
100
AcDbEntity
  8
MAIN0
  6
CONTINUOUS
 62
3
100
AcDbLine
 10
114.2518388439220
 20
278.2122322948451
 30
0.0000000000000000
 11
114.2518388439218
 21
244.3669328331900
 31
0.0000000000000000
  0
LINE
  5
37B
100
AcDbEntity
  8
MAIN0
  6
CONTINUOUS
 62
3
100
AcDbLine
 10
113.2518388439219
 20
271.2895825640174
 30
0.0000000000000000
 11
114.2518388439219
 21
272.2895825640175
 31
0.0000000000000000
  0
LINE
  5
37C
100
AcDbEntity
  8
MAIN0
  6
CONTINUOUS
 62
3
100
AcDbLine
 10
113.2518388439219
 20
271.2895825640298
 30
0.0000000000000000
 11
113.2518388439218
 21
251.2895825640298
 31
0.0000000000000000
  0
LINE
  5
37D
100
AcDbEntity
  8
MAIN0
  6
CONTINUOUS
 62
3
100
AcDbLine
 10
84.25183884383623
 20
271.2895825640180
 30
0.0000000000000000
 11
113.2518388439219
 21
271.2895825640175
 31
0.0000000000000000
  0
LINE
  5
37E
100
AcDbEntity
  8
MAIN0
  6
CONTINUOUS
 62
3
100
AcDbLine
 10
113.2518388439218
 20
251.2895825640177
 30
0.0000000000000000
 11
114.2518388439218
 21
250.2895825640177
 31
0.0000000000000000
  0
LINE
  5
37F
100
AcDbEntity
  8
MAIN0
  6
CONTINUOUS
 62
3
100
AcDbLine
 10
84.25183884392193
 20
251.2895825640182
 30
0.0000000000000000
 11
113.2518388439218
 21
251.2895825640177
 31
0.0000000000000000
  0
LINE
  5
380
100
AcDbEntity
  8
MAIN0
  6
CONTINUOUS
 62
3
100
AcDbLine
 10
114.2518388439220
 20
244.3669328331898
 30
0.0000000000000000
 11
113.2518388439513
 21
243.7895825640165
 31
0.0000000000000000
  0
LINE
  5
381
100
AcDbEntity
  8
MAIN0
  6
CONTINUOUS
 62
3
100
AcDbLine
 10
71.95183884392179
 20
265.3895825640182
 30
0.0000000000000000
 11
80.84547225562746
 21
265.3895825640182
 31
0.0000000000000000
  0
LINE
  5
382
100
AcDbEntity
  8
MAIN0
  6
CONTINUOUS
 62
3
100
AcDbLine
 10
80.84547225562727
 20
257.1895825640181
 30
0.0000000000000000
 11
77.35183884392185
 21
257.1895825640181
 31
0.0000000000000000
  0
LINE
  5
383
100
AcDbEntity
  8
MAIN0
  6
CONTINUOUS
 62
3
100
AcDbLine
 10
76.03587974909131
 20
258.6700365457034
 30
0.0000000000000000
 11
77.35183884392271
 21
257.1895825640181
 31
0.0000000000000000
  0
LINE
  5
384
100
AcDbEntity
  8
MAIN0
  6
CONTINUOUS
 62
3
100
AcDbLine
 10
77.35183884392187
 20
257.1895825640182
 30
0.0000000000000000
 11
77.35183884392187
 21
250.6876065344486
 31
0.0000000000000000
  0
LINE
  5
385
100
AcDbEntity
  8
MAIN0
  6
CONTINUOUS
 62
3
100
AcDbLine
 10
71.15183884392197
 20
250.5755926207602
 30
0.0000000000000000
 11
71.15183884392197
 21
256.5630825640181
 31
0.0000000000000000
  0
LINE
  5
386
100
AcDbEntity
  8
MAIN0
  6
CONTINUOUS
 62
3
100
AcDbLine
 10
84.25183884392193
 20
251.2895825640182
 30
0.0000000000000000
 11
84.25183884392203
 21
271.2895825640180
 31
0.0000000000000000
  0
LINE
  5
387
100
AcDbEntity
  8
MAIN0
  6
CONTINUOUS
 62
3
100
AcDbLine
 10
96.58284758351940
 20
243.7895825640173
 30
0.0000000000000000
 11
116.5518388439812
 21
243.7895825640172
 31
0.0000000000000000
  0
LINE
  5
388
100
AcDbEntity
  8
MAIN0
  6
CONTINUOUS
 62
3
100
AcDbLine
 10
102.0518388439796
 20
241.2895825640178
 30
0.0000000000000000
 11
102.0518388439797
 21
243.7895825640187
 31
0.0000000000000000
  0
LINE
  5
389
100
AcDbEntity
  8
MAIN0
  6
CONTINUOUS
 62
3
100
AcDbLine
 10
106.1518388439796
 20
241.2895825640178
 30
0.0000000000000000
 11
106.1518388439797
 21
243.7895825640186
 31
0.0000000000000000
  0
LINE
  5
38A
100
AcDbEntity
  8
MAIN0
  6
CONTINUOUS
 62
3
100
AcDbLine
 10
102.0518388439796
 20
241.2895825640181
 30
0.0000000000000000
 11
106.1518388439796
 21
241.2895825640181
 31
0.0000000000000000
  0
ELLIPSE
  5
38B
100
AcDbEntity
  8
MAIN0
  6
CONTINUOUS
 62
3
100
AcDbEllipse
 10
104.1018388439798
 20
242.5395825640175
 30
0.0000000000000000
 11
2.050000000000000
 21
0.0000000000000000
 31
0.0000000000000000
210
0.0000000000000000
220
0.0000000000000000
230
1.000000000000000
 40
0.6097560975609755
 41
0.0000000000000000
 42
6.283185307179586
  0
LINE
  5
38C
100
AcDbEntity
  8
MAIN0
  6
CENTER
 62
3
100
AcDbLine
 10
74.25183884392186
 20
263.0058813103393
 30
0.0000000000000000
 11
74.25183884392187
 21
243.1801018628434
 31
0.0000000000000000
  0
SPLINE
  5
38D
100
AcDbEntity
  8
MAIN0
  6
CONTINUOUS
 62
3
100
AcDbSpline
210
0.0000000000000000
220
0.0000000000000000
230
1.000000000000000
 70
     8
 71
     3
 72
    28
 73
    24
 74
     0
 42
1.000000000000000e-007
 43
1.000000000000000e-007
 12
-0.2915710685100237
 22
-0.4820590753441536
 32
0.0000000000000000
 13
-0.9997471011722396
 23
-0.001011321060616410
 33
0.0000000000000000
 40
0.0000000000000000
 40
0.0000000000000000
 40
0.0000000000000000
 40
0.0000000000000000
 40
6.811796336577970
 40
19.63646053431506
 40
27.57133819683338
 40
32.65480695256464
 40
40.68802470929326
 40
49.45222017729707
 40
61.56701112719902
 40
76.75642678891683
 40
85.04334254255933
 40
91.73887757960731
 40
95.82595140263635
 40
100.6648043502979
 40
110.1186181336539
 40
124.4968073810111
 40
132.2864086921726
 40
144.7783691426794
 40
155.0916835335835
 40
166.7316824903849
 40
171.8010761268431
 40
189.1863201231893
 40
192.3163867055929
 40
192.3163867055929
 40
192.3163867055929
 40
192.3163867055929
 10
195.1810619538410
 20
366.0395826186126
 30
0.0000000000000000
 10
194.5190210417315
 20
364.9450198707981
 30
0.0000000000000000
 10
191.2848604555647
 20
360.4045281145571
 30
0.0000000000000000
 10
181.1374263396444
 20
356.6730914872361
 30
0.0000000000000000
 10
185.6247435630209
 20
346.0881072614214
 30
0.0000000000000000
 10
179.0248712408249
 20
341.9614144243166
 30
0.0000000000000000
 10
172.5607055464176
 20
337.8140843015099
 30
0.0000000000000000
 10
172.7716996171432
 20
327.1404448113086
 30
0.0000000000000000
 10
173.6122300199516
 20
315.7321990255464
 30
0.0000000000000000
 10
174.5822005035599
 20
302.9920772656027
 30
0.0000000000000000
 10
167.0541916748446
 20
294.7873505401997
 30
0.0000000000000000
 10
159.5823281985214
 20
295.1947172303902
 30
0.0000000000000000
 10
157.2979516095620
 20
290.1151043525083
 30
0.0000000000000000
 10
153.6906704558589
 20
284.6244390736053
 30
0.0000000000000000
 10
142.7260035974833
 20
287.0405009164751
 30
0.0000000000000000
 10
132.6222528732639
 20
286.5613419372277
 30
0.0000000000000000
 10
121.4355010664876
 20
282.4514159541384
 30
0.0000000000000000
 10
111.3214846360648
 20
284.9460603482998
 30
0.0000000000000000
 10
99.22726782299378
 20
283.9275245608662
 30
0.0000000000000000
 10
92.89438225566639
 20
276.9111355340480
 30
0.0000000000000000
 10
82.62516901799047
 20
271.6141672544245
 30
0.0000000000000000
 10
73.65956298610514
 20
273.3631781311420
 30
0.0000000000000000
 10
66.79493050822759
 20
273.4679321970850
 30
0.0000000000000000
 10
65.75183884414956
 20
273.4668770296663
 30
0.0000000000000000
  0
LINE
  5
38E
100
AcDbEntity
  8
MAIN0
  6
HIDDEN
 62
3
100
AcDbLine
 10
66.25183884671191
 20
273.4660257036613
 30
0.0000000000000000
 11
66.25183884392170
 21
326.2895825640182
 31
0.0000000000000000
  0
LINE
  5
38F
100
AcDbEntity
  8
MAIN0
  6
HIDDEN
 62
3
100
AcDbLine
 10
66.25183884392168
 20
196.2895825640181
 30
0.0000000000000000
 11
66.25183885874607
 21
250.0024034905549
 31
0.0000000000000000
  0
LINE
  5
390
100
AcDbEntity
  8
MAIN0
  6
CONTINUOUS
 62
3
100
AcDbLine
 10
66.25183885812906
 20
250.0024034904721
 30
0.0000000000000000
 11
66.25183884671191
 21
273.4660257036613
 31
0.0000000000000000
  0
DIMENSION
  5
399
100
AcDbEntity
  8
MAIN0
  6
CONTINUOUS
 62
3
100
AcDbDimension
  2
*D29
 10
200.0000000000000
 20
288.7895825640179
 30
0.0000000000000000
 11
199.5000000000000
 21
244.1657666704866
 31
0.0000000000000000
 70
160
  1
\A1;\U+220555\H0.903226x;\S+0.01^  0   ;
  3
MAIN001
100
AcDbAlignedDimension
 13
182.7518388441271
 23
233.7895825640183
 33
0.0000000000000000
 14
182.7518388441311
 24
288.7895825640180
 34
0.0000000000000000
 50
90.00000000000000
100
AcDbRotatedDimension
1001
ACAD
1000
DSTYLE
1002
{
1070
   173
1070
     1
1070
     6
1000
_OPEN
1070
     7
1000
_OPEN
1070
    41
1040
2.000000
1002
}
  0
LINE
  5
39A
100
AcDbEntity
  8
MAIN0
  6
CONTINUOUS
 62
3
100
AcDbLine
 10
116.5518388440833
 20
278.7895825640380
 30
0.0000000000000000
 11
116.5518388440833
 21
243.7895825639973
 31
0.0000000000000000
  0
DIMENSION
  5
3A3
100
AcDbEntity
  8
MAIN0
  6
CONTINUOUS
 62
3
100
AcDbDimension
  2
*D30
 10
125.4752072641115
 20
278.7895825640182
 30
0.0000000000000000
 11
124.9752072641115
 21
261.2895825640180
 31
0.0000000000000000
 70
32
  1
\A1;\U+220535
  3
MAIN001
100
AcDbAlignedDimension
 13
116.5518388439813
 23
243.7895825640177
 33
0.0000000000000000
 14
116.5518388439846
 24
278.7895825640182
 34
0.0000000000000000
 50
90.00000000000000
100
AcDbRotatedDimension
1001
ACAD
1000
DSTYLE
1002
{
1070
   173
1070
     1
1070
     6
1000
_OPEN
1070
     7
1000
_OPEN
1070
    41
1040
2.000000
1002
}
  0
DIMENSION
  5
3AA
100
AcDbEntity
  8
MAIN0
  6
CONTINUOUS
 62
3
100
AcDbDimension
  2
*D31
 10
172.7518388439359
 20
268.9182234991116
 30
0.0000000000000000
 11
154.7482155219361
 21
269.4182234991116
 31
0.0000000000000000
 70
160
  3
MAIN001
100
AcDbAlignedDimension
 13
116.5518388440833
 23
278.7895825640380
 33
0.0000000000000000
 14
172.7518388439359
 24
287.9235571602335
 34
0.0000000000000000
100
AcDbRotatedDimension
1001
ACAD
1000
DSTYLE
1002
{
1070
   173
1070
     1
1070
     6
1000
_OPEN
1070
     7
1000
_OPEN
1070
    41
1040
2.000000
1002
}
  0
DIMENSION
  5
3B1
100
AcDbEntity
  8
MAIN0
  6
CONTINUOUS
 62
3
100
AcDbDimension
  2
*D32
 10
102.9978612635303
 20
271.2895825640175
 30
0.0000000000000000
 11
102.4978612635303
 21
261.2895825640176
 31
0.0000000000000000
 70
32
  1
\A1;\U+220520
  3
MAIN001
100
AcDbAlignedDimension
 13
113.2518388439218
 23
251.2895825640177
 33
0.0000000000000000
 14
113.2518388439219
 24
271.2895825640175
 34
0.0000000000000000
 50
90.00000000000000
100
AcDbRotatedDimension
1001
ACAD
1000
DSTYLE
1002
{
1070
   173
1070
     1
1070
     6
1000
_OPEN
1070
     7
1000
_OPEN
1070
    41
1040
2.000000
1002
}
  0
DIMENSION
  5
3BB
100
AcDbEntity
  8
MAIN0
  6
CONTINUOUS
 62
3
100
AcDbDimension
  2
*D33
 10
184.2518388439358
 20
183.5324360946099
 30
0.0000000000000000
 11
180.1482330392531
 21
184.0324360946099
 31
0.0000000000000000
 70
160
  3
MAIN001
100
AcDbAlignedDimension
 13
183.2518388439359
 23
201.2895825640762
 33
0.0000000000000000
 14
184.2518388439358
 24
201.2895825640983
 34
0.0000000000000000
100
AcDbRotatedDimension
1001
ACAD
1000
DSTYLE
1002
{
1070
   173
1070
     1
1070
     6
1000
_OPEN
1070
     7
1000
_OPEN
1070
    41
1040
2.000000
1070
   287
1070
     0
1002
}
  0
DIMENSION
  5
3C5
100
AcDbEntity
  8
MAIN0
  6
CONTINUOUS
 62
3
100
AcDbDimension
  2
*D34
 10
183.7518388439358
 20
189.3772705313826
 30
0.0000000000000000
 11
189.3028090404629
 21
189.8772705313826
 31
0.0000000000000000
 70
160
  3
MAIN001
100
AcDbAlignedDimension
 13
184.2518388439358
 23
201.2895825640983
 33
0.0000000000000000
 14
183.7518388439358
 24
206.2895825641381
 34
0.0000000000000000
100
AcDbRotatedDimension
1001
ACAD
1000
DSTYLE
1002
{
1070
   173
1070
     1
1070
     6
1000
_OPEN
1070
     7
1000
_OPEN
1070
    41
1040
2.000000
1070
   287
1070
     0
1002
}
  0
DIMENSION
  5
3CE
100
AcDbEntity
  8
MAIN0
  6
CONTINUOUS
 62
3
100
AcDbDimension
  2
*D35
 10
166.7518388439358
 20
195.8237824608325
 30
0.0000000000000000
 11
175.2518388439358
 21
196.3237824608325
 31
0.0000000000000000
 70
32
  3
MAIN001
100
AcDbAlignedDimension
 13
183.7518388439358
 23
206.2895825641381
 33
0.0000000000000000
 14
166.7518388439358
 24
211.2895825640171
 34
0.0000000000000000
100
AcDbRotatedDimension
1001
ACAD
1000
DSTYLE
1002
{
1070
   173
1070
     1
1070
     6
1000
_OPEN
1070
     7
1000
_OPEN
1070
    41
1040
2.000000
1002
}
  0
LEADER
  5
3CF
100
AcDbEntity
  8
MAIN0
  6
CONTINUOUS
 62
3
100
AcDbLeader
  3
MAIN001
 73
     0
 75
     1
 40
3.099999904632568
 41
23.29900001192092
 76
     3
 10
171.3590090611955
 20
199.2077236845682
 30
0.0000000000000000
 10
148.6068071069150
 20
212.9590589174239
 30
0.0000000000000000
 10
146.8198071595757
 20
212.9590589174239
 30
0.0000000000000000
340
3D0
213
0.0000000000000000
223
-0.5000000000000000
233
0.0000000000000000
1001
ACAD
1000
DSTYLE
1002
{
1070
   147
1040
0.0
1070
    77
1070
     1
1070
   173
1070
     1
1070
     6
1000
_OPEN
1070
     7
1000
_OPEN
1002
}
  0
MTEXT
  5
3D0
102
{ACAD_REACTORS
330
3CF
102
}
100
AcDbEntity
  8
MAIN0
  6
CONTINUOUS
 62
3
100
AcDbMText
 10
123.5208071476548
 20
216.5590588220564
 30
0.0000000000000000
 40
3.099999904632568
 41
0.0000000000000000
 71
     1
 72
     1
  1
{\H0.70x;{表面追加工深さ限度}}
 11
1.000000000000000
 21
0.0000000000000000
 31
0.0000000000000000
  7
KNJYOKO
  0
INSERT
  5
3D8
100
AcDbEntity
  8
MAIN0
  6
CONTINUOUS
 62
3
100
AcDbBlockReference
  2
D36
 10
193.7262490465172
 20
261.2895825640171
 30
0.0000000000000000
 50
0.0000000000000000
  0
INSERT
  5
3E0
100
AcDbEntity
  8
MAIN0
  6
CONTINUOUS
 62
3
100
AcDbBlockReference
  2
D37
 10
193.7262490465172
 20
261.2895825640170
 30
0.0000000000000000
 50
0.0000000000000000
  0
LINE
  5
3E1
100
AcDbEntity
  8
MAIN0
  6
CONTINUOUS
 62
3
100
AcDbLine
 10
80.75183686098585
 20
272.8225936791131
 30
0.0000000000000000
 11
80.75183884392180
 21
384.6895825640183
 31
0.0000000000000000
  0
LINE
  5
3E2
100
AcDbEntity
  8
MAIN0
  6
CONTINUOUS
 62
3
100
AcDbLine
 10
80.75183884392197
 20
135.7895825640181
 30
0.0000000000000000
 11
80.75183719456743
 21
249.7699922907163
 31
0.0000000000000000
  0
DIMENSION
  5
3EB
100
AcDbEntity
  8
MAIN0
  6
CONTINUOUS
 62
3
100
AcDbDimension
  2
*D38
 10
51.81635712114397
 20
188.2895825640177
 30
0.0000000000000000
 11
51.31635712114397
 21
181.2895825640177
 31
0.0000000000000000
 70
32
  1
\A1;\U+220514
  3
MAIN001
100
AcDbAlignedDimension
 13
65.75183884392176
 23
174.2895825640177
 33
0.0000000000000000
 14
65.75183884392175
 24
188.2895825640177
 34
0.0000000000000000
 50
90.00000000000000
100
AcDbRotatedDimension
1001
ACAD
1000
DSTYLE
1002
{
1070
   173
1070
     1
1070
     6
1000
_OPEN
1070
     7
1000
_OPEN
1070
    41
1040
2.000000
1002
}
  0
LEADER
  5
3EC
100
AcDbEntity
  8
MAIN0
  6
CONTINUOUS
 62
3
100
AcDbLeader
  3
MAIN001
 73
     0
 75
     1
 40
3.099999904632568
 41
10.39900000596049
 76
     3
 10
419.9871698032265
 20
138.9681732613404
 30
0.0000000000000000
 10
375.2769673198589
 20
109.9145999214726
 30
0.0000000000000000
 10
373.4899673725196
 20
109.9145999214726
 30
0.0000000000000000
340
3ED
213
0.0000000000000000
223
-0.5000000000000000
233
0.0000000000000000
1001
ACAD
1000
DSTYLE
1002
{
1070
   147
1040
0.0
1070
    77
1070
     1
1070
   173
1070
     1
1070
     6
1000
_OPEN
1070
     7
1000
_OPEN
1002
}
  0
MTEXT
  5
3ED
102
{ACAD_REACTORS
330
3EC
102
}
100
AcDbEntity
  8
MAIN0
  6
CONTINUOUS
 62
3
100
AcDbMText
 10
363.0909673665591
 20
113.5145998261052
 30
0.0000000000000000
 40
3.099999904632568
 41
0.0000000000000000
 71
     1
 72
     1
  1
{\H0.70x;{Rc1/8}}
 11
1.000000000000000
 21
0.0000000000000000
 31
0.0000000000000000
  7
STANDARD
  0
CIRCLE
  5
3EE
100
AcDbEntity
  8
MAIN0
  6
HIDDEN
 62
3
100
AcDbCircle
 10
401.2518388439351
 20
184.8189999848294
 30
0.0000000000000000
 40
7.000000000000000
  0
CIRCLE
  5
3EF
100
AcDbEntity
  8
MAIN0
  6
HIDDEN
 62
3
100
AcDbCircle
 10
448.2518388439348
 20
184.8189999848294
 30
0.0000000000000000
 40
7.000000000000000
  0
DIMENSION
  5
3F6
100
AcDbEntity
  8
MAIN0
  6
CONTINUOUS
 62
3
100
AcDbDimension
  2
*D39
 10
407.2518388439351
 20
297.3123763766278
 30
0.0000000000000000
 11
424.7518388439349
 21
297.8123763766278
 31
0.0000000000000000
 70
32
  3
MAIN001
100
AcDbAlignedDimension
 13
442.2518388439348
 23
263.7895825640154
 33
0.0000000000000000
 14
407.2518388439351
 24
263.7895825640154
 34
0.0000000000000000
100
AcDbRotatedDimension
1001
ACAD
1000
DSTYLE
1002
{
1070
   173
1070
     1
1070
     6
1000
_OPEN
1070
     7
1000
_OPEN
1070
    41
1040
2.000000
1002
}
  0
LINE
  5
3F7
100
AcDbEntity
  8
MAIN0
  6
CENTER
 62
12
100
AcDbLine
 10
424.7518388439349
 20
133.9998871899485
 30
0.0000000000000000
 11
424.7518388439349
 21
296.3123763766279
 31
0.0000000000000000
  0
LINE
  5
3F8
100
AcDbEntity
  8
MAIN0
  6
CENTER
 62
12
100
AcDbLine
 10
424.7518388439349
 20
302.4123762812604
 30
0.0000000000000000
 11
424.7518388439349
 21
392.7878083620706
 31
0.0000000000000000
  0
ARC
  5
3F9
100
AcDbEntity
  8
MAIN0
  6
HIDDEN
 62
3
100
AcDbCircle
 10
424.7518388439348
 20
261.2895825640152
 30
0.0000000000000000
 40
27.50000000000000
100
AcDbArc
 50
350.0000000002112
 51
429.9999999997895
  0
ARC
  5
3FA
100
AcDbEntity
  8
MAIN0
  6
HIDDEN
 62
3
100
AcDbCircle
 10
424.7518388439348
 20
261.2895825640152
 30
0.0000000000000000
 40
27.50000000000000
100
AcDbArc
 50
69.99999999978950
 51
350.0000000002112
  0
LINE
  5
3FB
100
AcDbEntity
  8
MAIN0
  6
CONTINUOUS
 62
3
100
AcDbLine
 10
84.25183884383606
 20
271.2895825640177
 30
0.0000000000000000
 11
80.84547225562744
 21
265.3895825640181
 31
0.0000000000000000
  0
LINE
  5
3FC
100
AcDbEntity
  8
MAIN0
  6
CONTINUOUS
 62
3
100
AcDbLine
 10
84.25183884383588
 20
251.2895825640182
 30
0.0000000000000000
 11
80.84547225562737
 21
257.1895825640179
 31
0.0000000000000000
  0
LINE
  5
3FD
100
AcDbEntity
  8
MAIN0
  6
CONTINUOUS
 62
3
100
AcDbLine
 10
80.84547225563046
 20
265.3895825640182
 30
0.0000000000000000
 11
80.84547225562591
 21
257.1895825640181
 31
0.0000000000000000
  0
DIMENSION
  5
405
100
AcDbEntity
  8
MAIN0
  6
CONTINUOUS
 62
3
100
AcDbDimension
  2
*D40
 10
183.7518388439359
 20
300.0131578414643
 30
0.0000000000000000
 11
149.0018388439289
 21
300.5131578414643
 31
0.0000000000000000
 70
32
  3
MAIN001
100
AcDbAlignedDimension
 13
114.2518388439220
 23
278.2122322948451
 33
0.0000000000000000
 14
183.7518388439359
 24
304.2082218462323
 34
0.0000000000000000
100
AcDbRotatedDimension
1001
ACAD
1000
DSTYLE
1002
{
1070
   173
1070
     1
1070
     6
1000
_OPEN
1070
     7
1000
_OPEN
1070
    41
1040
2.000000
1002
}
  0
DIMENSION
  5
40E
100
AcDbEntity
  8
MAIN0
  6
CONTINUOUS
 62
3
100
AcDbDimension
  2
*D41
 10
114.2518388439220
 20
300.0131578414643
 30
0.0000000000000000
 11
99.25183884387903
 21
300.5131578414643
 31
0.0000000000000000
 70
32
  3
MAIN001
100
AcDbAlignedDimension
 13
84.25183884383608
 23
271.2895825640178
 33
0.0000000000000000
 14
114.2518388439220
 24
278.2122322948451
 34
0.0000000000000000
100
AcDbRotatedDimension
1001
ACAD
1000
DSTYLE
1002
{
1070
   173
1070
     1
1070
     6
1000
_OPEN
1070
     7
1000
_OPEN
1070
    41
1040
2.000000
1002
}
  0
LINE
  5
40F
100
AcDbEntity
  8
MAIN0
  6
PHANTOM
 62
3
100
AcDbLine
 10
125.7518242725048
 20
155.7895825640399
 30
0.0000000000000000
 11
125.7518242725049
 21
100.7895825640398
 31
0.0000000000000000
  0
LINE
  5
410
100
AcDbEntity
  8
MAIN0
  6
PHANTOM
 62
3
100
AcDbLine
 10
110.7518242725050
 20
155.7895825640175
 30
0.0000000000000000
 11
125.7518242724889
 21
155.7895825640174
 31
0.0000000000000000
  0
LINE
  5
411
100
AcDbEntity
  8
MAIN0
  6
PHANTOM
 62
3
100
AcDbLine
 10
125.7518242724889
 20
100.7895825640174
 30
0.0000000000000000
 11
80.75182427248890
 21
100.7895825640177
 31
0.0000000000000000
  0
LINE
  5
412
100
AcDbEntity
  8
MAIN0
  6
PHANTOM
 62
3
100
AcDbLine
 10
80.75182427250486
 20
100.7895825640177
 30
0.0000000000000000
 11
80.75182427250483
 21
135.7895825640179
 31
0.0000000000000000
  0
LINE
  5
413
100
AcDbEntity
  8
MAIN0
  6
PHANTOM
 62
3
100
AcDbLine
 10
384.7518388439348
 20
100.7895825640154
 30
0.0000000000000000
 11
464.7518388439348
 21
100.7895825640154
 31
0.0000000000000000
  0
LINE
  5
414
100
AcDbEntity
  8
MAIN0
  6
PHANTOM
 62
3
100
AcDbLine
 10
464.7518388439348
 20
100.7895825640154
 30
0.0000000000000000
 11
464.7518388439348
 21
135.7895825640154
 31
0.0000000000000000
  0
LINE
  5
415
100
AcDbEntity
  8
MAIN0
  6
PHANTOM
 62
3
100
AcDbLine
 10
384.7518388439349
 20
100.7895825640154
 30
0.0000000000000000
 11
384.7518388439349
 21
135.7895825640154
 31
0.0000000000000000
  0
DIMENSION
  5
41C
100
AcDbEntity
  8
MAIN0
  6
CONTINUOUS
 62
3
100
AcDbDimension
  2
*D42
 10
384.7518388439349
 20
114.6705747366541
 30
0.0000000000000000
 11
424.7518388439348
 21
115.1705747366541
 31
0.0000000000000000
 70
32
  3
MAIN001
100
AcDbAlignedDimension
 13
464.7518388439348
 23
100.7895825640154
 33
0.0000000000000000
 14
384.7518388439349
 24
100.7895825640154
 34
0.0000000000000000
100
AcDbRotatedDimension
1001
ACAD
1000
DSTYLE
1002
{
1070
   173
1070
     1
1070
     6
1000
_OPEN
1070
     7
1000
_OPEN
1070
    41
1040
2.000000
1002
}
  0
DIMENSION
  5
425
100
AcDbEntity
  8
MAIN0
  6
CONTINUOUS
 62
3
100
AcDbDimension
  2
*D43
 10
282.8692997706952
 20
261.2895825640153
 30
0.0000000000000000
 11
282.3692997706952
 21
181.0395825640153
 31
0.0000000000000000
 70
32
  1
\A1;（160.5）
  3
MAIN001
100
AcDbAlignedDimension
 13
384.7518388439348
 23
100.7895825640154
 33
0.0000000000000000
 14
291.4398968061576
 24
261.2895825640153
 34
0.0000000000000000
 50
90.00000000000000
100
AcDbRotatedDimension
1001
ACAD
1000
DSTYLE
1002
{
1070
   173
1070
     1
1070
     6
1000
_OPEN
1070
     7
1000
_OPEN
1070
    41
1040
2.000000
1070
   340
1005
35E
1002
}
  0
DIMENSION
  5
42C
100
AcDbEntity
  8
MAIN0
  6
CONTINUOUS
 62
3
100
AcDbDimension
  2
*D44
 10
202.2518388439357
 20
285.7244725535240
 30
0.0000000000000000
 11
217.7518388439357
 21
286.2244725535240
 31
0.0000000000000000
 70
32
  3
MAIN001
100
AcDbAlignedDimension
 13
233.2518388439357
 23
263.7895825641984
 33
0.0000000000000000
 14
202.2518388439357
 24
292.2895825641984
 34
0.0000000000000000
100
AcDbRotatedDimension
1001
ACAD
1000
DSTYLE
1002
{
1070
   173
1070
     1
1070
     6
1000
_OPEN
1070
     7
1000
_OPEN
1070
    41
1040
2.000000
1002
}
  0
SPLINE
  5
42D
100
AcDbEntity
  8
MAIN0
  6
CONTINUOUS
 62
3
100
AcDbSpline
210
0.0000000000000000
220
0.0000000000000000
230
1.000000000000000
 70
     8
 71
     3
 72
    23
 73
    19
 74
     0
 42
1.000000000000000e-007
 43
1.000000000000000e-007
 12
0.5680960541180617
 22
0.07682683564047466
 32
0.0000000000000000
 13
-0.004032550665186818
 23
-0.9994053807609760
 33
0.0000000000000000
 40
0.0000000000000000
 40
0.0000000000000000
 40
0.0000000000000000
 40
0.0000000000000000
 40
8.073760092862173
 40
14.51616990856194
 40
20.49136972520756
 40
31.57681828316292
 40
34.87273858105632
 40
44.44553083348781
 40
62.97913310004589
 40
80.02445077134875
 40
90.39633019038698
 40
97.72028445798449
 40
111.3410866187930
 40
128.0422538805742
 40
145.6359694149777
 40
159.1297240658170
 40
171.0512151836483
 40
173.9559626329664
 40
173.9559626329664
 40
173.9559626329664
 40
173.9559626329664
 10
65.75183884392183
 20
249.9349583229269
 30
0.0000000000000000
 10
67.28072926080546
 20
250.1417188028119
 30
0.0000000000000000
 10
72.03777877486914
 20
250.7836268529293
 30
0.0000000000000000
 10
79.13530900005908
 20
250.9963155303152
 30
0.0000000000000000
 10
85.81883443700484
 20
246.7990944135391
 30
0.0000000000000000
 10
94.74418852992454
 20
248.6987987800613
 30
0.0000000000000000
 10
97.69800705976927
 20
240.4631542227299
 30
0.0000000000000000
 10
109.5228730076842
 20
238.1646941868009
 30
0.0000000000000000
 10
123.9090487287826
 20
239.1881573100402
 30
0.0000000000000000
 10
138.9597204287493
 20
235.3276887997561
 30
0.0000000000000000
 10
151.2072261727810
 20
237.4661237345765
 30
0.0000000000000000
 10
159.5768496062830
 20
229.2372898218933
 30
0.0000000000000000
 10
157.9173781216956
 20
215.9750811607879
 30
0.0000000000000000
 10
163.0551854075752
 20
199.9737633296023
 30
0.0000000000000000
 10
154.0076707804253
 20
185.6207543238177
 30
0.0000000000000000
 10
149.0092453289061
 20
172.0214760707445
 30
0.0000000000000000
 10
149.8861005208377
 20
162.4521817620051
 30
0.0000000000000000
 10
149.9054031114570
 20
157.5072559786079
 30
0.0000000000000000
 10
149.9014985977040
 20
156.5395825684078
 30
0.0000000000000000
  0
LINE
  5
42E
100
AcDbEntity
  8
MAIN0
  6
CONTINUOUS
 62
3
100
AcDbLine
 10
165.2518388439358
 20
156.5395825634282
 30
0.0000000000000000
 11
165.2518388439358
 21
156.8395825634282
 31
0.0000000000000000
  0
LINE
  5
42F
100
AcDbEntity
  8
MAIN0
  6
CONTINUOUS
 62
3
100
AcDbLine
 10
165.2518388439357
 20
156.8395825634282
 30
0.0000000000000000
 11
168.2518388439258
 21
156.8395825634282
 31
0.0000000000000000
  0
LINE
  5
430
100
AcDbEntity
  8
MAIN0
  6
CONTINUOUS
 62
3
100
AcDbLine
 10
168.2518388439358
 20
156.2395825640172
 30
0.0000000000000000
 11
168.2518388439358
 21
156.8395825634282
 31
0.0000000000000000
  0
LINE
  5
431
100
AcDbEntity
  8
MAIN0
  6
PHANTOM
 62
3
100
AcDbLine
 10
178.2518388439258
 20
156.8395825640171
 30
0.0000000000000000
 11
181.2518388439258
 21
156.8395825640170
 31
0.0000000000000000
  0
LINE
  5
432
100
AcDbEntity
  8
MAIN0
  6
PHANTOM
 62
3
100
AcDbLine
 10
178.2518388439358
 20
156.2395825640171
 30
0.0000000000000000
 11
178.2518388439358
 21
156.8395825640171
 31
0.0000000000000000
  0
LINE
  5
433
100
AcDbEntity
  8
MAIN0
  6
PHANTOM
 62
3
100
AcDbLine
 10
181.2518388439358
 20
156.5395825640384
 30
0.0000000000000000
 11
181.2518388439358
 21
156.8395825640268
 31
0.0000000000000000
  0
LINE
  5
434
100
AcDbEntity
  8
MAIN0
  6
PHANTOM
 62
3
100
AcDbLine
 10
181.2518388439358
 20
156.5395825640171
 30
0.0000000000000000
 11
183.2518388439358
 21
156.5395825640171
 31
0.0000000000000000
  0
LINE
  5
435
100
AcDbEntity
  8
MAIN0
  6
PHANTOM
 62
3
100
AcDbLine
 10
183.2518388439358
 20
156.5395825640170
 30
0.0000000000000000
 11
184.2518388439358
 21
157.5395825640170
 31
0.0000000000000000
  0
LINE
  5
436
100
AcDbEntity
  8
MAIN0
  6
CONTINUOUS
 62
3
100
AcDbLine
 10
165.2518388439378
 20
366.0395825646064
 30
0.0000000000000000
 11
165.2518388439378
 21
365.7395825646063
 31
0.0000000000000000
  0
LINE
  5
437
100
AcDbEntity
  8
MAIN0
  6
CONTINUOUS
 62
3
100
AcDbLine
 10
165.2518388439377
 20
365.7395825646063
 30
0.0000000000000000
 11
168.2518388439277
 21
365.7395825646062
 31
0.0000000000000000
  0
LINE
  5
438
100
AcDbEntity
  8
MAIN0
  6
CONTINUOUS
 62
3
100
AcDbLine
 10
168.2518388439378
 20
366.3395825640174
 30
0.0000000000000000
 11
178.2518388439378
 21
366.3395825640173
 31
0.0000000000000000
  0
LINE
  5
439
100
AcDbEntity
  8
MAIN0
  6
CONTINUOUS
 62
3
100
AcDbLine
 10
168.2518388439378
 20
366.3395825640172
 30
0.0000000000000000
 11
168.2518388439378
 21
365.7395825646062
 31
0.0000000000000000
  0
LINE
  5
43A
100
AcDbEntity
  8
MAIN0
  6
CONTINUOUS
 62
3
100
AcDbLine
 10
178.2518388439277
 20
365.7395825640172
 30
0.0000000000000000
 11
181.2518388439277
 21
365.7395825640172
 31
0.0000000000000000
  0
LINE
  5
43B
100
AcDbEntity
  8
MAIN0
  6
CONTINUOUS
 62
3
100
AcDbLine
 10
178.2518388439378
 20
366.3395825640172
 30
0.0000000000000000
 11
178.2518388439378
 21
365.7395825640172
 31
0.0000000000000000
  0
LINE
  5
43C
100
AcDbEntity
  8
MAIN0
  6
CONTINUOUS
 62
3
100
AcDbLine
 10
181.2518388439378
 20
366.0395825639958
 30
0.0000000000000000
 11
181.2518388439378
 21
365.7395825640074
 31
0.0000000000000000
  0
LINE
  5
43D
100
AcDbEntity
  8
MAIN0
  6
CONTINUOUS
 62
3
100
AcDbLine
 10
168.2518388438751
 20
365.7395825646062
 30
0.0000000000000000
 11
168.2518388439515
 21
296.8363188796230
 31
0.0000000000000000
  0
LINE
  5
43E
100
AcDbEntity
  8
MAIN0
  6
CONTINUOUS
 62
3
100
AcDbLine
 10
178.2518388440723
 20
365.7395825640172
 30
0.0000000000000000
 11
178.2518388440858
 21
341.4348032355910
 31
0.0000000000000000
  0
DIMENSION
  5
447
100
AcDbEntity
  8
MAIN0
  6
CONTINUOUS
 62
3
100
AcDbDimension
  2
*D45
 10
269.9671235375344
 20
156.2395825640170
 30
0.0000000000000000
 11
269.4671235375344
 21
258.1145824775905
 31
0.0000000000000000
 70
32
  1
\A1;\U+2205210.1\H0.903226x;\S 0^ -0.1;
  3
MAIN001
100
AcDbAlignedDimension
 13
178.2518388439378
 23
366.3395825640173
 33
0.0000000000000000
 14
178.2518388439358
 24
156.2395825640170
 34
0.0000000000000000
 50
90.00000000000000
100
AcDbRotatedDimension
1001
ACAD
1000
DSTYLE
1002
{
1070
   173
1070
     1
1070
     6
1000
_OPEN
1070
     7
1000
_OPEN
1070
    41
1040
2.000000
1070
   272
1070
     1
1070
    47
1040
0.000000
1070
    48
1040
0.100000
1070
    71
1070
     1
1002
}
  0
DIMENSION
  5
450
100
AcDbEntity
  8
MAIN0
  6
CONTINUOUS
 62
3
100
AcDbDimension
  2
*D46
 10
51.81635712114397
 20
326.2895825640181
 30
0.0000000000000000
 11
51.31635712114397
 21
261.2895825640181
 31
0.0000000000000000
 70
32
  1
\A1;\U+2205130
  3
MAIN001
100
AcDbAlignedDimension
 13
65.75183884390977
 23
196.2895825640181
 33
0.0000000000000000
 14
65.75183884392166
 24
326.2895825640181
 34
0.0000000000000000
 50
90.00000000000000
100
AcDbRotatedDimension
1001
ACAD
1000
DSTYLE
1002
{
1070
   173
1070
     1
1070
     6
1000
_OPEN
1070
     7
1000
_OPEN
1070
    41
1040
2.000000
1002
}
  0
DIMENSION
  5
459
100
AcDbEntity
  8
MAIN0
  6
CONTINUOUS
 62
3
100
AcDbDimension
  2
*D47
 10
65.75183884392182
 20
301.5260590352230
 30
0.0000000000000000
 11
60.02840286537395
 21
302.0260590352230
 31
0.0000000000000000
 70
160
  3
MAIN001
100
AcDbAlignedDimension
 13
66.25183884671191
 23
273.4660257036613
 33
0.0000000000000000
 14
65.75183884392182
 24
384.6895825640182
 34
0.0000000000000000
100
AcDbRotatedDimension
1001
ACAD
1000
DSTYLE
1002
{
1070
   173
1070
     1
1070
     6
1000
_OPEN
1070
     7
1000
_OPEN
1070
    41
1040
2.000000
1070
   287
1070
     0
1002
}
  0
LEADER
  5
45A
100
AcDbEntity
  8
MAIN0
  6
CONTINUOUS
 62
3
100
AcDbLeader
  3
MAIN001
 73
     0
 75
     1
 40
3.099999904632568
 41
10.39900000596047
 76
     3
 10
69.11598072645768
 20
256.5307119978472
 30
0.0000000000000000
 10
39.43159022562539
 20
224.0150957384785
 30
0.0000000000000000
 10
37.64459027828609
 20
224.0150957384785
 30
0.0000000000000000
340
45B
213
0.0000000000000000
223
-0.5000000000000000
233
0.0000000000000000
1001
ACAD
1000
DSTYLE
1002
{
1070
   147
1040
0.0
1070
    77
1070
     1
1070
   173
1070
     1
1070
     6
1000
_OPEN
1070
     7
1000
_OPEN
1002
}
  0
MTEXT
  5
45B
102
{ACAD_REACTORS
330
45A
102
}
100
AcDbEntity
  8
MAIN0
  6
CONTINUOUS
 62
3
100
AcDbMText
 10
27.24559027232561
 20
227.6150956431111
 30
0.0000000000000000
 40
3.099999904632568
 41
0.0000000000000000
 71
     1
 72
     1
  1
{\H0.70x;{Rc1/8}}
 11
1.000000000000000
 21
0.0000000000000000
 31
0.0000000000000000
  7
STANDARD
  0
LEADER
  5
45C
100
AcDbEntity
  8
MAIN0
  6
CONTINUOUS
 62
3
100
AcDbLeader
  3
MAIN001
 73
     0
 74
     0
 75
     1
 40
3.099999904632568
 41
14.60100000894067
 76
     3
 10
472.3991716814559
 20
276.0087196216693
 30
0.0000000000000000
 10
558.6312139782863
 20
322.1935237036633
 30
0.0000000000000000
 10
560.4162139256256
 20
322.1935237036633
 30
0.0000000000000000
340
45D
213
0.0000000000000000
223
-0.5000000000000000
233
0.0000000000000000
1001
ACAD
1000
DSTYLE
1002
{
1070
   147
1040
0.0
1070
    77
1070
     1
1070
   173
1070
     1
1070
     6
1000
_OPEN
1070
     7
1000
_OPEN
1002
}
  0
MTEXT
  5
45D
102
{ACAD_REACTORS
330
45C
102
}
100
AcDbEntity
  8
MAIN0
  6
CONTINUOUS
 62
3
100
AcDbMText
 10
560.4172139256256
 20
325.7935236082959
 30
0.0000000000000000
 40
3.099999904632568
 41
0.0000000000000000
 71
     1
 72
     1
  1
{\H0.70x;{3×2-M6\P深さ12\P3×2-M6\PDEPTH12}}
 11
1.000000000000000
 21
0.0000000000000000
 31
0.0000000000000000
  7
KNJYOKO
  0
ARC
  5
45E
100
AcDbEntity
  8
MAIN0
  6
CENTER
 62
3
100
AcDbCircle
 10
424.7518388439348
 20
261.2895825640153
 30
0.0000000000000000
 40
115.0000000000001
100
AcDbArc
 50
292.0912189127728
 51
319.6326812627451
  0
ARC
  5
45F
100
AcDbEntity
  8
MAIN0
  6
CENTER
 62
3
100
AcDbCircle
 10
424.7518388439348
 20
261.2895825640153
 30
0.0000000000000000
 40
115.0000000000001
100
AcDbArc
 50
322.2855237829633
 51
341.8126339608826
  0
ARC
  5
460
100
AcDbEntity
  8
MAIN0
  6
CENTER
 62
3
100
AcDbCircle
 10
424.7518388439348
 20
261.2895825640153
 30
0.0000000000000000
 40
115.0000000000001
100
AcDbArc
 50
354.8634207678036
 51
486.4369209037719
  0
ARC
  5
461
100
AcDbEntity
  8
MAIN0
  6
CENTER
 62
3
100
AcDbCircle
 10
424.7518388439348
 20
261.2895825640153
 30
0.0000000000000000
 40
115.0000000000001
100
AcDbArc
 50
126.4369209037719
 51
139.0732744159063
  0
ARC
  5
462
100
AcDbEntity
  8
MAIN0
  6
CENTER
 62
3
100
AcDbCircle
 10
424.7518388439348
 20
261.2895825640153
 30
0.0000000000000000
 40
115.0000000000001
100
AcDbArc
 50
142.5827645414288
 51
160.8112194408476
  0
ARC
  5
463
100
AcDbEntity
  8
MAIN0
  6
CENTER
 62
3
100
AcDbCircle
 10
424.7518388439348
 20
261.2895825640153
 30
0.0000000000000000
 40
115.0000000000001
100
AcDbArc
 50
170.5640913523268
 51
248.1846931619012
  0
LINE
  5
464
100
AcDbEntity
  8
MAIN0
  6
PHANTOM
 62
3
100
AcDbLine
 10
527.8479066253898
 20
207.3572100218898
 30
0.0000000000000000
 11
527.8479066253968
 21
201.7670400782129
 31
0.0000000000000000
  0
LINE
  5
465
100
AcDbEntity
  8
MAIN0
  6
PHANTOM
 62
3
100
AcDbLine
 10
523.0066774426970
 20
198.9719551063805
 30
0.0000000000000000
 11
527.8479066253967
 21
201.7670400782129
 31
0.0000000000000000
  0
LINE
  5
466
100
AcDbEntity
  8
MAIN0
  6
PHANTOM
 62
3
100
AcDbLine
 10
520.8416139331973
 20
200.2219551064093
 30
0.0000000000000000
 11
520.8416139332179
 21
205.8121250500863
 31
0.0000000000000000
  0
LINE
  5
467
100
AcDbEntity
  8
MAIN0
  6
PHANTOM
 62
3
100
AcDbLine
 10
525.6828431158842
 20
208.6072100219082
 30
0.0000000000000000
 11
520.8416139331981
 21
205.8121250500519
 31
0.0000000000000000
  0
LINE
  5
468
100
AcDbEntity
  8
MAIN0
  6
PHANTOM
 62
3
100
AcDbLine
 10
321.6557710624800
 20
315.2219551061398
 30
0.0000000000000000
 11
321.6557710624731
 21
320.8121250498168
 31
0.0000000000000000
  0
LINE
  5
469
100
AcDbEntity
  8
MAIN0
  6
PHANTOM
 62
3
100
AcDbLine
 10
326.4970002451730
 20
323.6072100216492
 30
0.0000000000000000
 11
321.6557710624732
 21
320.8121250498168
 31
0.0000000000000000
  0
LINE
  5
46A
100
AcDbEntity
  8
MAIN0
  6
PHANTOM
 62
3
100
AcDbLine
 10
328.6620637546720
 20
322.3572100216202
 30
0.0000000000000000
 11
328.6620637546513
 21
316.7670400779432
 31
0.0000000000000000
  0
LINE
  5
46B
100
AcDbEntity
  8
MAIN0
  6
PHANTOM
 62
3
100
AcDbLine
 10
323.8208345719852
 20
313.9719551061212
 30
0.0000000000000000
 11
328.6620637546714
 21
316.7670400779776
 31
0.0000000000000000
  0
DIMENSION
  5
474
100
AcDbEntity
  8
MAIN0
  6
CONTINUOUS
 62
3
100
AcDbDimension
  2
*D48
 10
337.8678069780384
 20
348.1736144296343
 30
0.0000000000000000
 11
372.6263687755501
 21
387.1315993478984
 31
0.0000000000000000
 70
162
  3
MAIN001
100
AcDb2LineAngularDimension
 13
424.7518388439349
 23
392.7878083620706
 33
0.0000000000000000
 14
424.7518388439349
 24
391.7878083620706
 34
0.0000000000000000
 15
338.5749137592261
 25
347.4665076484489
 35
0.0000000000000000
 16
372.8177104917331
 26
386.6696595816430
 36
0.0000000000000000
1001
ACAD
1000
DSTYLE
1002
{
1070
   173
1070
     1
1070
     6
1000
_OPEN
1070
     7
1000
_OPEN
1070
    41
1040
2.000000
1002
}
  0
DIMENSION
  5
47C
100
AcDbEntity
  8
MAIN0
  6
CONTINUOUS
 62
3
100
AcDbDimension
  2
*D49
 10
531.7572222353221
 20
219.1606385318866
 30
0.0000000000000000
 11
562.3939434409591
 21
207.6360528155808
 31
0.0000000000000000
 70
163
  3
MAIN001
100
AcDbDiametricDimension
 15
317.7464554525475
 25
303.4185265961440
 35
0.0000000000000000
1001
ACAD
1000
DSTYLE
1002
{
1070
   287
1070
     2
1070
   173
1070
     1
1070
     6
1000
_OPEN
1070
     7
1000
_OPEN
1070
    41
1040
2.000000
1070
   272
1070
     1
1070
    47
1040
0.200000
1070
    48
1040
0.200000
1070
    71
1070
     1
1002
}
  0
DIMENSION
  5
483
100
AcDbEntity
  8
MAIN0
  6
CONTINUOUS
 62
3
100
AcDbDimension
  2
*D50
 10
500.3989455636666
 20
347.9066434985302
 30
0.0000000000000000
 11
475.0696865747811
 21
319.6643740726577
 31
0.0000000000000000
 70
163
  3
MAIN001
100
AcDbDiametricDimension
 15
349.1047321242029
 25
174.6725216295002
 35
0.0000000000000000
1001
ACAD
1000
DSTYLE
1002
{
1070
   287
1070
     2
1070
   173
1070
     1
1070
     6
1000
_OPEN
1070
     7
1000
_OPEN
1070
    41
1040
2.000000
1070
   272
1070
     1
1070
    47
1040
0.200000
1070
    48
1040
0.200000
1070
    71
1070
     1
1002
}
  0
DIMENSION
  5
48B
100
AcDbEntity
  8
MAIN0
  6
CONTINUOUS
 62
3
100
AcDbDimension
  2
*D51
 10
472.0818740561475
 20
265.3042764266571
 30
0.0000000000000000
 11
491.1799474099066
 21
267.4260352090318
 31
0.0000000000000000
 70
163
  3
MAIN001
100
AcDbDiametricDimension
 15
377.4218036317228
 25
257.2748887013737
 35
0.0000000000000000
1001
ACAD
1000
DSTYLE
1002
{
1070
   287
1070
     2
1070
   173
1070
     1
1070
     6
1000
_OPEN
1070
     7
1000
_OPEN
1070
    41
1040
2.000000
1070
   272
1070
     1
1070
    47
1040
0.200000
1070
    48
1040
0.200000
1070
    71
1070
     1
1002
}
  0
DIMENSION
  5
492
100
AcDbEntity
  8
MAIN0
  6
CONTINUOUS
 62
3
100
AcDbDimension
  2
*D52
 10
458.8546986086812
 20
271.1508682746143
 30
0.0000000000000000
 11
440.9590925128824
 21
266.4966050905316
 31
0.0000000000000000
 70
163
  3
MAIN001
100
AcDbDiametricDimension
 15
390.6489790791886
 25
251.4282968534178
 35
0.0000000000000000
1001
ACAD
1000
DSTYLE
1002
{
1070
   287
1070
     2
1070
   173
1070
     1
1070
     6
1000
_OPEN
1070
     7
1000
_OPEN
1070
    41
1040
2.000000
1070
   272
1070
     1
1070
    47
1040
0.200000
1070
    48
1040
0.200000
1070
    71
1070
     1
1002
}
  0
LINE
  5
493
100
AcDbEntity
  8
MAIN0
  6
CENTER
 62
3
100
AcDbLine
 10
504.7548742196316
 20
303.5048702225720
 30
0.0000000000000000
 11
501.2577944089450
 21
309.5619901328046
 31
0.0000000000000000
  0
ELLIPSE
  5
494
100
AcDbEntity
  8
MAIN0
  6
CONTINUOUS
 62
3
100
AcDbEllipse
 10
503.0338711459033
 20
306.4857349862519
 30
0.0000000000000000
 11
-3.749999999999987
 21
6.495190528383297
 31
0.0000000000000000
210
0.0000000000000000
220
0.0000000000000000
230
1.000000000000000
 40
0.8660000000000001
 41
3.536704554307981
 42
5.888073406461390
  0
ELLIPSE
  5
495
100
AcDbEntity
  8
MAIN0
  6
CONTINUOUS
 62
3
100
AcDbEllipse
 10
507.3639981649990
 20
308.9857349863518
 30
0.0000000000000000
 11
-3.749999999999987
 21
6.495190528383297
 31
0.0000000000000000
210
0.0000000000000000
220
0.0000000000000000
230
1.000000000000000
 40
0.8660000000000001
 41
0.0000000000000000
 42
6.283185307179586
  0
LINE
  5
496
100
AcDbEntity
  8
MAIN0
  6
CENTER
 62
3
100
AcDbLine
 10
512.3157129196707
 20
300.4091134466684
 30
0.0000000000000000
 11
503.0259008257109
 21
316.4995399861818
 31
0.0000000000000000
  0
LINE
  5
497
100
AcDbEntity
  8
MAIN0
  6
PHANTOM
 62
3
100
AcDbLine
 10
173.3415848063386
 20
177.3924682480881
 30
0.0000000000000000
 11
181.4822236019120
 21
172.6924682480883
 31
0.0000000000000000
  0
LINE
  5
498
100
AcDbEntity
  8
MAIN0
  6
PHANTOM
 62
12
100
AcDbLine
 10
173.3415848063382
 20
177.3924682480879
 30
0.0000000000000000
 11
165.8415848063382
 21
164.4020871913215
 31
0.0000000000000000
  0
LINE
  5
499
100
AcDbEntity
  8
MAIN0
  6
PHANTOM
 62
3
100
AcDbLine
 10
165.8415848063382
 20
164.4020871913214
 30
0.0000000000000000
 11
173.9822236019120
 21
159.7020871913213
 31
0.0000000000000000
  0
LINE
  5
49A
100
AcDbEntity
  8
MAIN0
  6
PHANTOM
 62
3
100
AcDbLine
 10
173.9822236019120
 20
159.7020871913213
 30
0.0000000000000000
 11
174.2018388441827
 21
158.8824719490505
 31
0.0000000000000000
  0
LINE
  5
49B
100
AcDbEntity
  8
MAIN0
  6
PHANTOM
 62
3
100
AcDbLine
 10
181.4822236019122
 20
172.6924682480882
 30
0.0000000000000000
 11
182.3018388441827
 21
172.9120834903588
 31
0.0000000000000000
  0
LINE
  5
49C
100
AcDbEntity
  8
MAIN0
  6
CONTINUOUS
 62
3
100
AcDbLine
 10
172.6759659463111
 20
156.2395825640289
 30
0.0000000000000000
 11
184.2518388439357
 21
176.2895825647070
 31
0.0000000000000000
  0
LINE
  5
49D
100
AcDbEntity
  8
MAIN0
  6
PHANTOM
 62
3
100
AcDbLine
 10
167.8317771852031
 20
168.4492015083514
 30
0.0000000000000000
 11
163.3518388439359
 21
171.0356951156349
 31
0.0000000000000000
  0
LINE
  5
49E
100
AcDbEntity
  8
MAIN0
  6
PHANTOM
 62
3
100
AcDbLine
 10
167.6487644833109
 20
169.1322142102435
 30
0.0000000000000000
 11
163.3518388439359
 21
171.6130453848245
 31
0.0000000000000000
  0
LINE
  5
49F
100
AcDbEntity
  8
MAIN0
  6
PHANTOM
 62
3
100
AcDbLine
 10
167.6487644833111
 20
169.1322142102436
 30
0.0000000000000000
 11
170.1487644833110
 21
173.4623412291658
 31
0.0000000000000000
  0
LINE
  5
4A0
100
AcDbEntity
  8
MAIN0
  6
PHANTOM
 62
3
100
AcDbLine
 10
163.3518388439357
 20
177.3865480767210
 30
0.0000000000000000
 11
170.1487644833107
 21
173.4623412291659
 31
0.0000000000000000
  0
LINE
  5
4A1
100
AcDbEntity
  8
MAIN0
  6
PHANTOM
 62
3
100
AcDbLine
 10
164.1633815760631
 20
177.4953539310581
 30
0.0000000000000000
 11
170.8317771852031
 21
173.6453539310581
 31
0.0000000000000000
  0
LINE
  5
4A2
100
AcDbEntity
  8
MAIN0
  6
PHANTOM
 62
3
100
AcDbLine
 10
170.1487644833106
 20
173.4623412291655
 30
0.0000000000000000
 11
171.2415848063382
 21
173.7551615521931
 31
0.0000000000000000
  0
LINE
  5
4A3
100
AcDbEntity
  8
MAIN0
  6
PHANTOM
 62
3
100
AcDbLine
 10
167.9415848063385
 20
168.0393938872158
 30
0.0000000000000000
 11
167.6487644833109
 21
169.1322142102436
 31
0.0000000000000000
  0
LINE
  5
4A4
100
AcDbEntity
  8
MAIN0
  6
PHANTOM
 62
3
100
AcDbLine
 10
159.5261379082990
 20
176.7085661958013
 30
0.0000000000000000
 11
181.4082414411202
 21
164.0749278306916
 31
0.0000000000000000
  0
LINE
  5
4A5
100
AcDbEntity
  8
MAIN0
  6
PHANTOM
 62
3
100
AcDbLine
 10
148.5848464646232
 20
171.7936982555989
 30
0.0000000000000000
 11
157.7015328217883
 21
170.9960915504240
 31
0.0000000000000000
  0
LINE
  5
4A6
100
AcDbEntity
  8
MAIN0
  6
PHANTOM
 62
3
100
AcDbLine
 10
150.3414891397817
 20
174.1495615295129
 30
0.0000000000000000
 11
155.5876175576745
 21
173.6905847655453
 31
0.0000000000000000
  0
LINE
  5
4A7
100
AcDbEntity
  8
MAIN0
  6
PHANTOM
 62
3
100
AcDbLine
 10
149.7063850064647
 20
169.1860267536202
 30
0.0000000000000000
 11
155.1518388439358
 21
168.7096112750869
 31
0.0000000000000000
  0
ELLIPSE
  5
4A8
100
AcDbEntity
  8
MAIN0
  6
PHANTOM
 62
3
100
AcDbEllipse
 10
155.1518388439357
 20
171.2096112750869
 30
0.0000000000000000
 11
0.0000000000000000
 21
-2.500000000000000
 31
0.0000000000000000
210
0.0000000000000000
220
0.0000000000000000
230
1.000000000000000
 40
0.3401538552400211
 41
0.0000000000000000
 42
3.141592653589793
  0
LINE
  5
4A9
100
AcDbEntity
  8
MAIN0
  6
PHANTOM
 62
12
100
AcDbLine
 10
184.2518388439358
 20
157.5395825640171
 30
0.0000000000000000
 11
184.2518388439358
 21
172.4771577178755
 31
0.0000000000000000
  0
LINE
  5
4AA
100
AcDbEntity
  8
MAIN0
  6
CONTINUOUS
 62
3
100
AcDbLine
 10
184.2518388439358
 20
176.2895825647069
 30
0.0000000000000000
 11
184.2518388439358
 21
201.2895825640983
 31
0.0000000000000000
  0
LINE
  5
4AB
100
AcDbEntity
  8
MAIN0
  6
CONTINUOUS
 62
3
100
AcDbLine
 10
168.2518388439358
 20
156.2395825640171
 30
0.0000000000000000
 11
172.6759659463111
 21
156.2395825640171
 31
0.0000000000000000
  0
LINE
  5
4AC
100
AcDbEntity
  8
MAIN0
  6
PHANTOM
 62
3
100
AcDbLine
 10
175.2334875571556
 20
156.2395825640171
 30
0.0000000000000000
 11
178.2518388439358
 21
156.2395825640170
 31
0.0000000000000000
  0
DIMENSION
  5
4B5
100
AcDbEntity
  8
MAIN0
  6
CONTINUOUS
 62
3
100
AcDbDimension
  2
*D53
 10
240.0000000000000
 20
261.2895825640183
 30
0.0000000000000000
 11
239.5000000000000
 21
225.7242751027982
 31
0.0000000000000000
 70
160
  3
MAIN001
100
AcDbAlignedDimension
 13
184.2518388439356
 23
176.2895825647069
 33
0.0000000000000000
 14
193.7262490465172
 24
261.2895825640170
 34
0.0000000000000000
 50
90.00000000000000
100
AcDbRotatedDimension
1001
ACAD
1000
DSTYLE
1002
{
1070
   173
1070
     1
1070
     6
1000
_OPEN
1070
     7
1000
_OPEN
1070
    41
1040
2.000000
1002
}
  0
LINE
  5
4B6
100
AcDbEntity
  8
MAIN0
  6
CONTINUOUS
 62
3
100
AcDbLine
 10
528.9726672807494
 20
250.7738125045325
 30
0.0000000000000000
 11
467.7553290504744
 21
356.8053526234980
 31
0.0000000000000000
  0
LINE
  5
4B7
100
AcDbEntity
  8
MAIN0
  6
CONTINUOUS
 62
3
100
AcDbLine
 10
381.7483486373952
 20
356.8053526234977
 30
0.0000000000000000
 11
320.5310104071195
 21
250.7738125045327
 31
0.0000000000000000
  0
LINE
  5
4B8
100
AcDbEntity
  8
MAIN0
  6
CONTINUOUS
 62
3
100
AcDbLine
 10
363.5345006136591
 20
176.2895825640156
 30
0.0000000000000000
 11
485.9691770742095
 21
176.2895825640148
 31
0.0000000000000000
  0
ARC
  5
4B9
100
AcDbEntity
  8
MAIN0
  6
CONTINUOUS
 62
3
100
AcDbCircle
 10
424.7518388439346
 20
261.2895825640139
 30
0.0000000000000000
 40
81.98000000000002
100
AcDbArc
 50
70.00000000006263
 51
76.27210925080821
  0
ARC
  5
4BA
100
AcDbEntity
  8
MAIN0
  6
CONTINUOUS
 62
3
100
AcDbCircle
 10
424.7518388439346
 20
261.2895825640139
 30
0.0000000000000000
 40
81.98000000000002
100
AcDbArc
 50
103.7278907491916
 51
109.9999999999374
  0
ARC
  5
4BB
100
AcDbEntity
  8
MAIN0
  6
CONTINUOUS
 62
3
100
AcDbCircle
 10
424.7518388439346
 20
261.2895825640139
 30
0.0000000000000000
 40
74.85000000000001
100
AcDbArc
 50
105.4977817867184
 51
109.9999999999116
  0
ARC
  5
4BC
100
AcDbEntity
  8
MAIN0
  6
CONTINUOUS
 62
3
100
AcDbCircle
 10
424.7518388439346
 20
261.2895825640139
 30
0.0000000000000000
 40
74.85000000000001
100
AcDbArc
 50
70.00000000008842
 51
74.50221821328155
  0
ARC
  5
4BD
100
AcDbEntity
  8
MAIN0
  6
CONTINUOUS
 62
3
100
AcDbCircle
 10
424.7518388439360
 20
261.2895825640158
 30
0.0000000000000000
 40
81.98000000000002
100
AcDbArc
 50
190.0000000000625
 51
196.2721092508083
  0
ARC
  5
4BE
100
AcDbEntity
  8
MAIN0
  6
CONTINUOUS
 62
3
100
AcDbCircle
 10
424.7518388439360
 20
261.2895825640158
 30
0.0000000000000000
 40
81.98000000000002
100
AcDbArc
 50
223.7278907491915
 51
229.9999999999373
  0
ARC
  5
4BF
100
AcDbEntity
  8
MAIN0
  6
CONTINUOUS
 62
3
100
AcDbCircle
 10
424.7518388439360
 20
261.2895825640158
 30
0.0000000000000000
 40
74.85000000000001
100
AcDbArc
 50
225.4977817867183
 51
229.9999999999115
  0
ARC
  5
4C0
100
AcDbEntity
  8
MAIN0
  6
CONTINUOUS
 62
3
100
AcDbCircle
 10
424.7518388439360
 20
261.2895825640158
 30
0.0000000000000000
 40
74.85000000000001
100
AcDbArc
 50
190.0000000000883
 51
194.5022182132814
  0
ARC
  5
4C1
100
AcDbEntity
  8
MAIN0
  6
CONTINUOUS
 62
3
100
AcDbCircle
 10
424.7518388439332
 20
261.2895825640152
 30
0.0000000000000000
 40
81.98000000000002
100
AcDbArc
 50
310.0000000000624
 51
316.2721092508085
  0
ARC
  5
4C2
100
AcDbEntity
  8
MAIN0
  6
CONTINUOUS
 62
3
100
AcDbCircle
 10
424.7518388439332
 20
261.2895825640152
 30
0.0000000000000000
 40
81.98000000000002
100
AcDbArc
 50
343.7278907491909
 51
349.9999999999372
  0
ARC
  5
4C3
100
AcDbEntity
  8
MAIN0
  6
CONTINUOUS
 62
3
100
AcDbCircle
 10
424.7518388439332
 20
261.2895825640152
 30
0.0000000000000000
 40
74.85000000000001
100
AcDbArc
 50
345.4977817867182
 51
349.9999999999114
  0
ARC
  5
4C4
100
AcDbEntity
  8
MAIN0
  6
CONTINUOUS
 62
3
100
AcDbCircle
 10
424.7518388439332
 20
261.2895825640152
 30
0.0000000000000000
 40
74.85000000000001
100
AcDbArc
 50
310.0000000000882
 51
314.5022182132813
  0
ARC
  5
4C5
100
AcDbEntity
  8
MAIN0
  6
CONTINUOUS
 62
3
100
AcDbCircle
 10
205.0518388439358
 20
332.7895825640219
 30
0.0000000000000000
 40
6.000000000000000
100
AcDbArc
 50
66.44353569089377
 51
194.8351115819741
  0
DIMENSION
  5
4CE
100
AcDbEntity
  8
MAIN0
  6
CONTINUOUS
 62
3
100
AcDbDimension
  2
*D54
 10
511.8314200264728
 20
348.3691637468362
 30
0.0000000000000000
 11
536.6513427773294
 21
325.8947912814394
 31
0.0000000000000000
 70
162
  3
MAIN001
100
AcDb2LineAngularDimension
 13
486.5981168855043
 23
277.8612428186226
 33
0.0000000000000000
 14
485.6321910592155
 24
277.6024237735190
 34
0.0000000000000000
 15
511.1243132452875
 25
347.6620569656485
 35
0.0000000000000000
 16
537.0843554792214
 26
326.1447912814400
 36
0.0000000000000000
1001
ACAD
1000
DSTYLE
1002
{
1070
   173
1070
     1
1070
     6
1000
_OPEN
1070
     7
1000
_OPEN
1070
    41
1040
2.000000
1002
}
  0
DIMENSION
  5
4D7
100
AcDbEntity
  8
MAIN0
  6
CONTINUOUS
 62
3
100
AcDbDimension
  2
*D55
 10
80.75183884392197
 20
95.18523739720129
 30
0.0000000000000000
 11
103.2518315582134
 21
95.68523739720129
 31
0.0000000000000000
 70
32
  3
MAIN001
100
AcDbAlignedDimension
 13
125.7518242725049
 23
100.7895825640398
 33
0.0000000000000000
 14
80.75183884392197
 24
135.7895825640181
 34
0.0000000000000000
100
AcDbRotatedDimension
1001
ACAD
1000
DSTYLE
1002
{
1070
   173
1070
     1
1070
     6
1000
_OPEN
1070
     7
1000
_OPEN
1070
    41
1040
2.000000
1002
}
  0
LEADER
  5
4D8
100
AcDbEntity
  8
MAIN0
  6
CONTINUOUS
 62
3
100
AcDbLeader
  3
MAIN001
 73
     0
 74
     0
 75
     1
 40
3.099999904632568
 41
18.64401424072838
 76
     3
 10
154.4506049811278
 20
159.5480989541534
 30
0.0000000000000000
 10
128.3899219720567
 20
143.1720779777112
 30
0.0000000000000000
 10
130.1749219193960
 20
143.1720779777112
 30
0.0000000000000000
340
4D9
213
-4.044014231787685
223
-0.5000000000000000
233
0.0000000000000000
1001
ACAD
1000
DSTYLE
1002
{
1070
   147
1040
0.0
1070
    77
1070
     1
1070
   173
1070
     1
1070
     6
1000
_OPEN
1070
     7
1000
_OPEN
1002
}
  0
MTEXT
  5
4D9
102
{ACAD_REACTORS
330
4D8
102
}
100
AcDbEntity
  8
MAIN0
  6
CONTINUOUS
 62
3
100
AcDbMText
 10
134.2189361511837
 20
146.7720778823438
 30
0.0000000000000000
 40
3.099999904632568
 41
0.0000000000000000
 71
     1
 72
     1
  1
{\H0.70x;{  Rc1/8}}
 11
1.000000000000000
 21
0.0000000000000000
 31
0.0000000000000000
  7
STANDARD
  0
LINE
  5
4DA
100
AcDbEntity
  8
MAIN0
  6
CONTINUOUS
 62
3
100
AcDbLine
 10
424.2518388443754
 20
263.7895825640156
 30
0.0000000000000000
 11
425.2518388443118
 21
263.7895825640156
 31
0.0000000000000000
  0
LINE
  5
4DB
100
AcDbEntity
  8
MAIN0
  6
CONTINUOUS
 62
3
100
AcDbLine
 10
233.2518388439358
 20
347.2895825640179
 30
0.0000000000000000
 11
233.2518388439358
 21
350.2895825640167
 31
0.0000000000000000
  0
LINE
  5
4DC
100
AcDbEntity
  8
MAIN0
  6
CONTINUOUS
 62
3
100
AcDbLine
 10
233.2518388439358
 20
350.2895825640167
 30
0.0000000000000000
 11
233.2518388439358
 21
357.8991671623874
 31
0.0000000000000000
  0
LINE
  5
4DD
100
AcDbEntity
  8
MAIN0
  6
CONTINUOUS
 62
3
100
AcDbLine
 10
229.2518388439358
 20
338.2895825640175
 30
0.0000000000000000
 11
229.2518388439358
 21
347.2895825640177
 31
0.0000000000000000
  0
LINE
  5
4DE
100
AcDbEntity
  8
MAIN0
  6
CONTINUOUS
 62
3
100
AcDbLine
 10
437.2518388438297
 20
348.2895825640151
 30
0.0000000000000000
 11
437.2518388438169
 21
351.2895825640208
 31
0.0000000000000000
  0
LINE
  5
4DF
100
AcDbEntity
  8
MAIN0
  6
CONTINUOUS
 62
3
100
AcDbLine
 10
437.2518388438169
 20
351.2895825640208
 30
0.0000000000000000
 11
437.2518388438073
 21
353.5116621583223
 31
0.0000000000000000
  0
LINE
  5
4E0
100
AcDbEntity
  8
MAIN0
  6
CONTINUOUS
 62
3
100
AcDbLine
 10
412.2518388438300
 20
348.2895825640151
 30
0.0000000000000000
 11
412.2518388438170
 21
351.2895825640164
 31
0.0000000000000000
  0
LINE
  5
4E1
100
AcDbEntity
  8
MAIN0
  6
CONTINUOUS
 62
3
100
AcDbLine
 10
412.2518388438170
 20
351.2895825640164
 30
0.0000000000000000
 11
412.2518388438074
 21
353.5116621582146
 31
0.0000000000000000
  0
INSERT
  5
510
100
AcDbEntity
  8
MAIN0
  6
CONTINUOUS
 62
3
100
AcDbBlockReference
  2
*X0
 10
0.0000000000000000
 20
0.0000000000000000
 30
0.0000000000000000
 50
0.0000000000000000
  0
LEADER
  5
511
100
AcDbEntity
  8
MAIN0
  6
CONTINUOUS
 62
3
100
AcDbLeader
  3
MAIN001
 73
     0
 75
     1
 40
3.099999904632568
 41
33.69900001788139
 76
     3
 10
195.0000000000000
 20
280.0000000000000
 30
0.0000000000000000
 10
145.0000000000000
 20
390.0000000000000
 30
0.0000000000000000
 10
143.2130000526607
 20
390.0000000000000
 30
0.0000000000000000
340
512
213
0.0000000000000000
223
-0.5000000000000000
233
0.0000000000000000
1001
ACAD
1000
DSTYLE
1002
{
1070
   147
1040
0.0
1070
    77
1070
     1
1070
   173
1070
     1
1070
     6
1000
_NONE
1070
     7
1000
_NONE
1002
}
  0
MTEXT
  5
512
102
{ACAD_REACTORS
330
511
102
}
100
AcDbEntity
  8
MAIN0
  6
CONTINUOUS
 62
3
100
AcDbMText
 10
109.5140000347793
 20
393.5999999046326
 30
0.0000000000000000
 40
3.099999904632568
 41
0.0000000000000000
 71
     1
 72
     1
  1
{\H0.70x;{簡易カバー\P使用時は、専用ロケータにて\Pシールが必要です。}}
 11
1.000000000000000
 21
0.0000000000000000
 31
0.0000000000000000
  7
KNJYOKO
  0
CIRCLE
  5
513
100
AcDbEntity
  8
MAIN0
  6
HIDDEN
 62
3
100
AcDbCircle
 10
401.2518388439351
 20
184.8189999848294
 30
0.0000000000000000
 40
4.864000000000001
  0
CIRCLE
  5
514
100
AcDbEntity
  8
MAIN0
  6
HIDDEN
 62
3
100
AcDbCircle
 10
401.2518388439351
 20
184.8189999848294
 30
0.0000000000000000
 40
4.283000000000000
  0
CIRCLE
  5
515
100
AcDbEntity
  8
MAIN0
  6
HIDDEN
 62
3
100
AcDbCircle
 10
448.2518388439348
 20
184.8189999848294
 30
0.0000000000000000
 40
4.864000000000001
  0
CIRCLE
  5
516
100
AcDbEntity
  8
MAIN0
  6
HIDDEN
 62
3
100
AcDbCircle
 10
448.2518388439348
 20
184.8189999848294
 30
0.0000000000000000
 40
4.283000000000000
  0
LINE
  5
517
100
AcDbEntity
  8
MAIN0
  6
HIDDEN
 62
3
100
AcDbLine
 10
517.2504808374741
 20
309.0772349999874
 30
0.0000000000000000
 11
511.7842483339996
 21
306.1450274219911
 31
0.0000000000000000
  0
LINE
  5
518
100
AcDbEntity
  8
MAIN0
  6
HIDDEN
 62
3
100
AcDbLine
 10
511.0684808375365
 20
319.7847730923915
 30
0.0000000000000000
 11
518.5684808374201
 21
306.7943920356576
 31
0.0000000000000000
  0
LINE
  5
519
100
AcDbEntity
  8
MAIN0
  6
HIDDEN
 62
3
100
AcDbLine
 10
519.2022385125664
 20
307.1602921998880
 30
0.0000000000000000
 11
518.5684808377326
 21
306.7943920357089
 31
0.0000000000000000
  0
LINE
  5
51A
100
AcDbEntity
  8
MAIN0
  6
HIDDEN
 62
3
100
AcDbLine
 10
511.7022385123701
 20
320.1506732565413
 30
0.0000000000000000
 11
511.0684808375363
 21
319.7847730923621
 31
0.0000000000000000
  0
LINE
  5
51B
100
AcDbEntity
  8
MAIN0
  6
HIDDEN
 62
3
100
AcDbLine
 10
499.5479727617466
 20
299.7388784085518
 30
0.0000000000000000
 11
495.4479727617734
 21
306.8402867195995
 31
0.0000000000000000
  0
LINE
  5
51C
100
AcDbEntity
  8
MAIN0
  6
HIDDEN
 62
3
100
AcDbLine
 10
499.5479727617467
 20
299.7388784085515
 30
0.0000000000000000
 11
495.4479727617556
 21
302.1060145122444
 31
0.0000000000000000
  0
LINE
  5
51D
100
AcDbEntity
  8
MAIN0
  6
HIDDEN
 62
3
100
AcDbLine
 10
495.4479727617554
 20
302.1060145122447
 30
0.0000000000000000
 11
495.4479727617731
 21
306.8402867195996
 31
0.0000000000000000
  0
LINE
  5
51E
100
AcDbEntity
  8
MAIN0
  6
PHANTOM
 62
12
100
AcDbLine
 10
166.1650476259021
 20
175.7623412291654
 30
0.0000000000000000
 11
163.6650476259020
 21
171.4322142102431
 31
0.0000000000000000
  0
LINE
  5
51F
100
AcDbEntity
  8
MAIN0
  6
PHANTOM
 62
12
100
AcDbLine
 10
177.6834235384187
 20
168.7127535303218
 30
0.0000000000000000
 11
175.5293576155653
 21
164.9818019090870
 31
0.0000000000000000
  0
LINE
  5
520
100
AcDbEntity
  8
MAIN0
  6
PHANTOM
 62
12
100
AcDbLine
 10
173.6041691772057
 20
173.2472777197039
 30
0.0000000000000000
 11
171.6123107485013
 21
174.3972777197040
 31
0.0000000000000000
  0
LINE
  5
521
100
AcDbEntity
  8
MAIN0
  6
PHANTOM
 62
12
100
AcDbLine
 10
169.5627172928782
 20
166.2472777197038
 30
0.0000000000000000
 11
167.5708588641739
 21
167.3972777197039
 31
0.0000000000000000
  0
LINE
  5
522
100
AcDbEntity
  8
MAIN0
  6
PHANTOM
 62
12
100
AcDbLine
 10
173.6041691772060
 20
173.2472777197040
 30
0.0000000000000000
 11
169.5627172928786
 21
166.2472777197039
 31
0.0000000000000000
  0
LINE
  5
523
100
AcDbEntity
  8
MAIN0
  6
PHANTOM
 62
12
100
AcDbLine
 10
174.1432016688439
 20
171.5043598191127
 30
0.0000000000000000
 11
175.0273046352949
 21
171.3448353081204
 31
0.0000000000000000
  0
LINE
  5
524
100
AcDbEntity
  8
MAIN0
  6
PHANTOM
 62
12
100
AcDbLine
 10
171.9218497552539
 20
165.9660259577288
 30
0.0000000000000000
 11
171.3416447173204
 21
166.6519208387770
 31
0.0000000000000000
  0
LINE
  5
525
100
AcDbEntity
  8
MAIN0
  6
PHANTOM
 62
12
100
AcDbLine
 10
172.5938062061239
 20
171.4972777197040
 30
0.0000000000000000
 11
170.6019477774195
 21
172.6472777197041
 31
0.0000000000000000
  0
LINE
  5
526
100
AcDbEntity
  8
MAIN0
  6
PHANTOM
 62
12
100
AcDbLine
 10
170.5730802639603
 20
167.9972777197041
 30
0.0000000000000000
 11
168.5812218352559
 21
169.1472777197042
 31
0.0000000000000000
  0
LINE
  5
527
100
AcDbEntity
  8
MAIN0
  6
PHANTOM
 62
12
100
AcDbLine
 10
170.1623190557273
 20
174.0318657623216
 30
0.0000000000000000
 11
167.1623190557271
 21
168.8357133396146
 31
0.0000000000000000
  0
LINE
  5
528
100
AcDbEntity
  8
MAIN0
  6
PHANTOM
 62
12
100
AcDbLine
 10
166.1650476259019
 20
175.7623412291648
 30
0.0000000000000000
 11
166.8480603277938
 21
175.9453539310568
 31
0.0000000000000000
  0
LINE
  5
529
100
AcDbEntity
  8
MAIN0
  6
PHANTOM
 62
12
100
AcDbLine
 10
163.6650476259024
 20
171.4322142102432
 30
0.0000000000000000
 11
163.8480603277944
 21
170.7492015083508
 31
0.0000000000000000
  0
LINE
  5
52A
100
AcDbEntity
  8
MAIN0
  6
PHANTOM
 62
12
100
AcDbLine
 10
166.8480603277944
 20
175.9453539310575
 30
0.0000000000000000
 11
163.8480603277943
 21
170.7492015083507
 31
0.0000000000000000
  0
ARC
  5
52B
100
AcDbEntity
  8
MAIN0
  6
PHANTOM
 62
12
100
AcDbCircle
 10
174.3207708047964
 20
172.4884681474771
 30
0.0000000000000000
 40
1.000000000000000
100
AcDbArc
 50
149.9999999999997
 51
259.7717992487709
  0
ARC
  5
52C
100
AcDbEntity
  8
MAIN0
  6
PHANTOM
 62
12
100
AcDbCircle
 10
170.5781664728571
 20
166.0060872919310
 30
0.0000000000000000
 40
1.000000000000000
100
AcDbArc
 50
40.22820075122777
 51
149.9999999999998
  0
ARC
  5
52D
100
AcDbEntity
  8
MAIN0
  6
PHANTOM
 62
12
100
AcDbCircle
 10
174.4413270675308
 20
168.0972777197042
 30
0.0000000000000000
 40
3.299999999999997
100
AcDbArc
 50
220.2282116100355
 51
289.2509456225275
  0
ARC
  5
52E
100
AcDbEntity
  8
MAIN0
  6
PHANTOM
 62
12
100
AcDbCircle
 10
174.4413270675308
 20
168.0972777197042
 30
0.0000000000000000
 40
3.299999999999997
100
AcDbArc
 50
10.74905437747196
 51
79.77180951778226
  0
ARC
  5
52F
100
AcDbEntity
  8
MAIN0
  6
PHANTOM
 62
12
100
AcDbCircle
 10
176.4932432751017
 20
166.9126033449085
 30
0.0000000000000000
 40
1.000000000000000
100
AcDbArc
 50
247.5072271955753
 51
412.4927728044244
  0
LINE
  5
530
100
AcDbEntity
  8
MAIN0
  6
PHANTOM
 62
12
100
AcDbLine
 10
170.1487644833100
 20
173.4623412291656
 30
0.0000000000000000
 11
171.2415848063373
 21
173.7551615521932
 31
0.0000000000000000
  0
LINE
  5
531
100
AcDbEntity
  8
MAIN0
  6
PHANTOM
 62
12
100
AcDbLine
 10
167.6487644833109
 20
169.1322142102435
 30
0.0000000000000000
 11
167.9415848063385
 21
168.0393938872161
 31
0.0000000000000000
  0
LINE
  5
532
100
AcDbEntity
  8
MAIN0
  6
PHANTOM
 62
12
100
AcDbLine
 10
170.1487644833108
 20
173.4623412291654
 30
0.0000000000000000
 11
167.6487644833109
 21
169.1322142102432
 31
0.0000000000000000
  0
LINE
  5
533
100
AcDbEntity
  8
MAIN0
  6
PHANTOM
 62
12
100
AcDbLine
 10
163.8480603277941
 20
170.7492015083507
 30
0.0000000000000000
 11
168.0915848063377
 21
168.2992015083508
 31
0.0000000000000000
  0
LINE
  5
534
100
AcDbEntity
  8
MAIN0
  6
PHANTOM
 62
12
100
AcDbLine
 10
166.8480603277945
 20
175.9453539310576
 30
0.0000000000000000
 11
171.0915848063379
 21
173.4953539310578
 31
0.0000000000000000
  0
LINE
  5
535
100
AcDbEntity
  8
MAIN0
  6
PHANTOM
 62
12
100
AcDbLine
 10
167.6487644833108
 20
169.1322142102430
 30
0.0000000000000000
 11
162.8518388441887
 21
171.9017205192728
 31
0.0000000000000000
  0
LINE
  5
536
100
AcDbEntity
  8
MAIN0
  6
HIDDEN
 62
3
100
AcDbLine
 10
512.6769808375041
 20
316.9987693684208
 30
0.0000000000000000
 11
507.4044983340282
 21
313.7309769464574
 31
0.0000000000000000
  0
LINE
  5
537
100
AcDbEntity
  8
MAIN0
  6
HIDDEN
 62
3
100
AcDbLine
 10
507.1139983340301
 20
314.2341377060573
 30
0.0000000000000000
 11
512.3864808375059
 21
317.5019301280207
 31
0.0000000000000000
  0
LINE
  5
538
100
AcDbEntity
  8
MAIN0
  6
HIDDEN
 62
3
100
AcDbLine
 10
511.7842483339999
 20
306.1450274219913
 30
0.0000000000000000
 11
507.1139983340303
 21
314.2341377060575
 31
0.0000000000000000
  0
LINE
  5
539
100
AcDbEntity
  8
MAIN0
  6
HIDDEN
 62
3
100
AcDbLine
 10
516.9599808374759
 20
309.5803957595873
 30
0.0000000000000000
 11
511.4937483340016
 21
306.6481881815911
 31
0.0000000000000000
  0
LINE
  5
53A
100
AcDbEntity
  8
MAIN0
  6
HIDDEN
 62
3
100
AcDbLine
 10
495.4479727617733
 20
306.8402867195994
 30
0.0000000000000000
 11
507.3991233340284
 21
313.7402867195480
 31
0.0000000000000000
  0
LINE
  5
53B
100
AcDbEntity
  8
MAIN0
  6
HIDDEN
 62
3
100
AcDbLine
 10
511.4991233340012
 20
306.6388784085002
 30
0.0000000000000000
 11
499.5479727617461
 21
299.7388784085515
 31
0.0000000000000000
  0
ELLIPSE
  5
53C
100
AcDbEntity
  8
MAIN0
  6
CONTINUOUS
 62
3
100
AcDbEllipse
 10
505.1761759910991
 20
307.7225952653817
 30
0.0000000000000000
 11
-1.499999999999995
 21
2.598076211353319
 31
0.0000000000000000
210
0.0000000000000000
220
0.0000000000000000
230
1.000000000000000
 40
0.8660000000000002
 41
0.0000000000000000
 42
6.283185307179586
  0
ELLIPSE
  5
53D
100
AcDbEntity
  8
MAIN0
  6
CONTINUOUS
 62
3
100
AcDbEllipse
 10
503.0338711459035
 20
306.4857349862519
 30
0.0000000000000000
 11
-1.499999999999995
 21
2.598076211353319
 31
0.0000000000000000
210
0.0000000000000000
220
0.0000000000000000
230
1.000000000000000
 40
0.8660000000000002
 41
2.728251516284667
 42
3.637786327915872
  0
ELLIPSE
  5
53E
100
AcDbEntity
  8
MAIN0
  6
CONTINUOUS
 62
3
100
AcDbEllipse
 10
503.0338711459035
 20
306.4857349862519
 30
0.0000000000000000
 11
-1.499999999999995
 21
2.598076211353319
 31
0.0000000000000000
210
0.0000000000000000
220
0.0000000000000000
230
1.000000000000000
 40
0.8660000000000002
 41
5.786991632853524
 42
0.4133411373051419
  0
ELLIPSE
  5
53F
100
AcDbEntity
  8
MAIN0
  6
CONTINUOUS
 62
3
100
AcDbEllipse
 10
505.6319473573989
 20
307.9857349864058
 30
0.0000000000000000
 11
-0.4999999999967693
 21
0.8660254037863039
 31
0.0000000000000000
210
0.0000000000000000
220
0.0000000000000000
230
1.000000000000000
 40
0.5000000000000000
 41
0.0000000000000000
 42
6.283185307179586
  0
LINE
  5
540
100
AcDbEntity
  8
WAKU0
  6
CONTINUOUS
 62
3
100
AcDbLine
 10
412.0000000000000
 20
51.00000000000000
 30
0.0000000000000000
 11
582.0000000000000
 21
51.00000000000000
 31
0.0000000000000000
  0
LINE
  5
541
100
AcDbEntity
  8
WAKU0
  6
CONTINUOUS
 62
3
100
AcDbLine
 10
412.0000000000000
 20
51.00000000000000
 30
0.0000000000000000
 11
412.0000000000000
 21
12.00000000000000
 31
0.0000000000000000
  0
LINE
  5
542
100
AcDbEntity
  8
WAKU0
  6
CONTINUOUS
 62
3
100
AcDbLine
 10
484.0000000000000
 20
51.00000000000000
 30
0.0000000000000000
 11
484.0000000000000
 21
12.00000000000000
 31
0.0000000000000000
  0
LINE
  5
543
100
AcDbEntity
  8
WAKU0
  6
CONTINUOUS
 62
3
100
AcDbLine
 10
504.0000000000000
 20
51.00000000000000
 30
0.0000000000000000
 11
504.0000000000000
 21
12.00000000000000
 31
0.0000000000000000
  0
LINE
  5
544
100
AcDbEntity
  8
WAKU0
  6
CONTINUOUS
 62
3
100
AcDbLine
 10
516.0000000000000
 20
51.00000000000000
 30
0.0000000000000000
 11
516.0000000000000
 21
12.00000000000000
 31
0.0000000000000000
  0
LINE
  5
545
100
AcDbEntity
  8
WAKU0
  6
CONTINUOUS
 62
3
100
AcDbLine
 10
516.0000000000000
 20
37.00000000000000
 30
0.0000000000000000
 11
582.0000000000000
 21
37.00000000000000
 31
0.0000000000000000
  0
LINE
  5
546
100
AcDbEntity
  8
WAKU0
  6
CONTINUOUS
 62
3
100
AcDbLine
 10
504.0000000000000
 20
23.00000000000000
 30
0.0000000000000000
 11
582.0000000000000
 21
23.00000000000000
 31
0.0000000000000000
  0
LINE
  5
547
100
AcDbEntity
  8
WAKU0
  6
CONTINUOUS
 62
3
100
AcDbLine
 10
547.0000000000000
 20
51.00000000000000
 30
0.0000000000000000
 11
547.0000000000000
 21
44.00000000000000
 31
0.0000000000000000
  0
LINE
  5
548
100
AcDbEntity
  8
WAKU0
  6
CONTINUOUS
 62
3
100
AcDbLine
 10
559.0000000000000
 20
51.00000000000000
 30
0.0000000000000000
 11
559.0000000000000
 21
44.00000000000000
 31
0.0000000000000000
  0
LINE
  5
549
100
AcDbEntity
  8
WAKU0
  6
CONTINUOUS
 62
3
100
AcDbLine
 10
484.0000000000000
 20
31.50000000000000
 30
0.0000000000000000
 11
504.0000000000000
 21
31.50000000000000
 31
0.0000000000000000
  0
LINE
  5
54A
100
AcDbEntity
  8
WAKU0
  6
CONTINUOUS
 62
3
100
AcDbLine
 10
504.0000000000000
 20
44.00000000000000
 30
0.0000000000000000
 11
582.0000000000000
 21
44.00000000000000
 31
0.0000000000000000
  0
LINE
  5
54B
100
AcDbEntity
  8
WAKU0
  6
CONTINUOUS
 62
3
100
AcDbLine
 10
412.0000000000000
 20
37.00000000000000
 30
0.0000000000000000
 11
484.0000000000000
 21
37.00000000000000
 31
0.0000000000000000
  0
LINE
  5
54C
100
AcDbEntity
  8
WAKU0
  6
CONTINUOUS
 62
3
100
AcDbLine
 10
412.0000000000000
 20
23.00000000000000
 30
0.0000000000000000
 11
484.0000000000000
 21
23.00000000000000
 31
0.0000000000000000
  0
LINE
  5
54D
100
AcDbEntity
  8
WAKU0
  6
CONTINUOUS
 62
3
100
AcDbLine
 10
460.0000000000000
 20
37.00000000000000
 30
0.0000000000000000
 11
460.0000000000000
 21
12.00000000000000
 31
0.0000000000000000
  0
LINE
  5
54E
100
AcDbEntity
  8
WAKU0
  6
CONTINUOUS
 62
3
100
AcDbLine
 10
436.0000000000000
 20
37.00000000000000
 30
0.0000000000000000
 11
436.0000000000000
 21
23.00000000000000
 31
0.0000000000000000
  0
LINE
  5
54F
100
AcDbEntity
  8
WAKU0
  6
CONTINUOUS
 62
3
100
AcDbLine
 10
472.0000000000000
 20
26.00000000000000
 30
0.0000000000000000
 11
472.0000000000000
 21
23.00000000000000
 31
0.0000000000000000
  0
LINE
  5
550
100
AcDbEntity
  8
WAKU0
  6
CONTINUOUS
 62
3
100
AcDbLine
 10
448.0000000000000
 20
26.00000000000000
 30
0.0000000000000000
 11
448.0000000000000
 21
23.00000000000000
 31
0.0000000000000000
  0
LINE
  5
551
100
AcDbEntity
  8
WAKU0
  6
CONTINUOUS
 62
3
100
AcDbLine
 10
424.0000000000000
 20
26.00000000000000
 30
0.0000000000000000
 11
424.0000000000000
 21
23.00000000000000
 31
0.0000000000000000
  0
LINE
  5
552
100
AcDbEntity
  8
WAKU0
  6
CONTINUOUS
 62
3
100
AcDbLine
 10
430.0000000000000
 20
51.00000000000000
 30
0.0000000000000000
 11
430.0000000000000
 21
37.00000000000000
 31
0.0000000000000000
  0
LINE
  5
553
100
AcDbEntity
  8
WAKU0
  6
CONTINUOUS
 62
3
100
AcDbLine
 10
412.0000000000000
 20
45.00000000000000
 30
0.0000000000000000
 11
484.0000000000000
 21
45.00000000000000
 31
0.0000000000000000
  0
LINE
  5
554
100
AcDbEntity
  8
WAKU0
  6
HIDDEN
 62
3
100
AcDbLine
 10
532.5000000000000
 20
23.00000000000000
 30
0.0000000000000000
 11
532.5000000000000
 21
12.00000000000000
 31
0.0000000000000000
  0
LINE
  5
555
100
AcDbEntity
  8
WAKU0
  6
HIDDEN
 62
3
100
AcDbLine
 10
544.9000000000000
 20
23.00000000000000
 30
0.0000000000000000
 11
544.9000000000000
 21
12.00000000000000
 31
0.0000000000000000
  0
MTEXT
  5
556
100
AcDbEntity
  8
WAKU0
  6
CONTINUOUS
 62
3
100
AcDbMText
 10
516.4820000243485
 20
49.04999995231628
 30
0.0000000000000000
 40
3.099999904632568
 41
0.0000000000000000
 71
     1
 72
     1
  1
{\H0.92x;{PLS08}}
 11
1.000000000000000
 21
0.0000000000000000
 31
0.0000000000000000
  7
STANDARD
  0
MTEXT
  5
557
100
AcDbEntity
  8
WAKU0
  6
CONTINUOUS
 62
3
100
AcDbMText
 10
525.5950003862381
 20
43.50000000000000
 30
0.0000000000000000
 40
3.000000000000000
 41
0.0000000000000000
 71
     1
 72
     1
  1
{\H0.94x;{ワークグリッパ　８\PＷＯＲＫ　ＧＲＩＰＰＥＲ　８}}
 11
1.000000000000000
 21
0.0000000000000000
 31
0.0000000000000000
  7
KNJYOKO
  0
MTEXT
  5
558
100
AcDbEntity
  8
WAKU0
  6
CONTINUOUS
 62
3
100
AcDbMText
 10
528.3099995255470
 20
34.23333326975504
 30
0.0000000000000000
 40
3.099999904632568
 41
0.0000000000000000
 71
     1
 72
     1
  1
{\H0.94x;{ＰＬＳ０８　ガイケイ\PＯＵＴＳＩＤＥ　ＶＩＥＷ}}
 11
1.000000000000000
 21
0.0000000000000000
 31
0.0000000000000000
  7
KNJYOKO
  0
MTEXT
  5
559
100
AcDbEntity
  8
WAKU0
  6
CONTINUOUS
 62
3
100
AcDbMText
 10
490.0049998760223
 20
39.29999995231628
 30
0.0000000000000000
 40
3.099999904632568
 41
0.0000000000000000
 71
     1
 72
     1
  1
{\H0.90x;{1:1}}
 11
1.000000000000000
 21
0.0000000000000000
 31
0.0000000000000000
  7
STANDARD
  0
MTEXT
  5
55A
100
AcDbEntity
  8
WAKU0
  6
CONTINUOUS
 62
3
100
AcDbMText
 10
546.4000001549721
 20
20.15000009536743
 30
0.0000000000000000
 40
5.300000190734863
 41
0.0000000000000000
 71
     1
 72
     1
  1
{\H0.90x;{2671}}
 11
1.000000000000000
 21
0.0000000000000000
 31
0.0000000000000000
  7
STANDARD
  0
MTEXT
  5
55B
100
AcDbEntity
  8
WAKU0
  6
CONTINUOUS
 62
3
100
AcDbMText
 10
534.3000000834466
 20
20.15000009536743
 30
0.0000000000000000
 40
5.300000190734863
 41
0.0000000000000000
 71
     1
 72
     1
  1
{\H0.87x;{24}}
 11
1.000000000000000
 21
0.0000000000000000
 31
0.0000000000000000
  7
STANDARD
  0
MTEXT
  5
55C
100
AcDbEntity
  8
WAKU0
  6
CONTINUOUS
 62
3
100
AcDbMText
 10
517.5000001192093
 20
20.15000009536743
 30
0.0000000000000000
 40
5.300000190734863
 41
0.0000000000000000
 71
     1
 72
     1
  1
{\H0.89x;{61P}}
 11
1.000000000000000
 21
0.0000000000000000
 31
0.0000000000000000
  7
STANDARD
  0
MTEXT
  5
55D
100
AcDbEntity
  8
WAKU0
  6
CONTINUOUS
 62
3
100
AcDbMText
 10
572.0000000476837
 20
20.15000009536743
 30
0.0000000000000000
 40
5.300000190734863
 41
0.0000000000000000
 71
     1
 72
     1
  1
{\H0.81x;{7}}
 11
1.000000000000000
 21
0.0000000000000000
 31
0.0000000000000000
  7
STANDARD
  0
MTEXT
  5
55E
100
AcDbEntity
  8
WAKU0
  6
CONTINUOUS
 62
3
100
AcDbMText
 10
461.3850002884865
 20
33.00000000000000
 30
0.0000000000000000
 40
3.000000000000000
 41
0.0000000000000000
 71
     7
 72
     1
  1
{\H0.93x;{DRAWN BY}}
 11
1.000000000000000
 21
0.0000000000000000
 31
0.0000000000000000
  7
STANDARD
  0
MTEXT
  5
55F
100
AcDbEntity
  8
WAKU0
  6
CONTINUOUS
 62
3
100
AcDbMText
 10
441.2149997949600
 20
32.95000004768372
 30
0.0000000000000000
 40
3.099999904632568
 41
0.0000000000000000
 71
     7
 72
     1
  1
{\H0.92x;{CHIEF}}
 11
1.000000000000000
 21
0.0000000000000000
 31
0.0000000000000000
  7
STANDARD
  0
MTEXT
  5
560
100
AcDbEntity
  8
WAKU0
  6
CONTINUOUS
 62
3
100
AcDbMText
 10
414.4249997138977
 20
32.95000004768372
 30
0.0000000000000000
 40
3.099999904632568
 41
0.0000000000000000
 71
     7
 72
     1
  1
{\H0.92x;{MANAGER}}
 11
1.000000000000000
 21
0.0000000000000000
 31
0.0000000000000000
  7
STANDARD
  0
MTEXT
  5
561
100
AcDbEntity
  8
WAKU0
  6
CONTINUOUS
 62
3
100
AcDbMText
 10
416.6599994301796
 20
18.13333336512248
 30
0.0000000000000000
 40
3.099999904632568
 41
0.0000000000000000
 71
     7
 72
     1
  1
{\H0.93x;{KITAGAWA IRON\PWORKS CO.,LTD.}}
 11
1.000000000000000
 21
0.0000000000000000
 31
0.0000000000000000
  7
STANDARD
  0
MTEXT
  5
562
100
AcDbEntity
  8
WAKU0
  6
CONTINUOUS
 62
3
100
AcDbMText
 10
413.0850002169609
 20
46.50000000000000
 30
0.0000000000000000
 40
3.000000000000000
 41
0.0000000000000000
 71
     7
 72
     1
  1
{\H0.92x;{CAREER}}
 11
1.000000000000000
 21
0.0000000000000000
 31
0.0000000000000000
  7
STANDARD
  0
MTEXT
  5
563
100
AcDbEntity
  8
WAKU0
  6
CONTINUOUS
 62
3
100
AcDbMText
 10
466.6099998354912
 20
18.95000004768372
 30
0.0000000000000000
 40
3.099999904632568
 41
0.0000000000000000
 71
     7
 72
     1
  1
{\H0.91x;{DATE}}
 11
1.000000000000000
 21
0.0000000000000000
 31
0.0000000000000000
  7
STANDARD
  0
MTEXT
  5
564
100
AcDbEntity
  8
WAKU0
  6
CONTINUOUS
 62
3
100
AcDbMText
 10
485.9000002145767
 20
26.50000000000000
 30
0.0000000000000000
 40
3.000000000000000
 41
0.0000000000000000
 71
     7
 72
     1
  1
{\H0.63x;{3RD ANGLE}}
 11
1.000000000000000
 21
0.0000000000000000
 31
0.0000000000000000
  7
STANDARD
  0
MTEXT
  5
565
100
AcDbEntity
  8
WAKU0
  6
CONTINUOUS
 62
3
100
AcDbMText
 10
487.2149997949600
 20
45.95000004768372
 30
0.0000000000000000
 40
3.099999904632568
 41
0.0000000000000000
 71
     7
 72
     1
  1
{\H0.92x;{SCALE}}
 11
1.000000000000000
 21
0.0000000000000000
 31
0.0000000000000000
  7
STANDARD
  0
MTEXT
  5
566
100
AcDbEntity
  8
WAKU0
  6
CONTINUOUS
 62
3
100
AcDbMText
 10
577.7000000476837
 20
46.00000000000000
 30
0.0000000000000000
 40
3.000000000000000
 41
0.0000000000000000
 71
     7
 72
     1
  1
{\H0.63x;{kg}}
 11
1.000000000000000
 21
0.0000000000000000
 31
0.0000000000000000
  7
STANDARD
  0
MTEXT
  5
567
100
AcDbEntity
  8
WAKU0
  6
CONTINUOUS
 62
3
100
AcDbMText
 10
547.6000001430512
 20
46.00000000000000
 30
0.0000000000000000
 40
3.000000000000000
 41
0.0000000000000000
 71
     7
 72
     1
  1
{\H0.63x;{WEIGHT}}
 11
1.000000000000000
 21
0.0000000000000000
 31
0.0000000000000000
  7
STANDARD
  0
MTEXT
  5
568
100
AcDbEntity
  8
WAKU0
  6
CONTINUOUS
 62
3
100
AcDbMText
 10
506.0049998760223
 20
18.13333336512248
 30
0.0000000000000000
 40
3.099999904632568
 41
0.0000000000000000
 71
     7
 72
     1
  1
{\H0.90x;{DRW\PNO.}}
 11
1.000000000000000
 21
0.0000000000000000
 31
0.0000000000000000
  7
STANDARD
  0
MTEXT
  5
569
100
AcDbEntity
  8
WAKU0
  6
CONTINUOUS
 62
3
100
AcDbMText
 10
504.6099998354912
 20
31.95000004768372
 30
0.0000000000000000
 40
3.099999904632568
 41
0.0000000000000000
 71
     7
 72
     1
  1
{\H0.91x;{NAME}}
 11
1.000000000000000
 21
0.0000000000000000
 31
0.0000000000000000
  7
STANDARD
  0
MTEXT
  5
56A
100
AcDbEntity
  8
WAKU0
  6
CONTINUOUS
 62
3
100
AcDbMText
 10
504.6099998354912
 20
45.95000004768372
 30
0.0000000000000000
 40
3.099999904632568
 41
0.0000000000000000
 71
     7
 72
     1
  1
{\H0.91x;{TYPE}}
 11
1.000000000000000
 21
0.0000000000000000
 31
0.0000000000000000
  7
STANDARD
  0
LINE
  5
56B
100
AcDbEntity
  8
WAKU0
  6
HIDDEN
 62
3
100
AcDbLine
 10
579.1599564743885
 20
13.84999990463257
 30
0.0000000000000000
 11
568.9400436209789
 21
13.84999990463257
 31
0.0000000000000000
  0
LINE
  5
56C
100
AcDbEntity
  8
WAKU0
  6
HIDDEN
 62
3
100
AcDbLine
 10
579.1599564743885
 20
13.84999990463250
 30
0.0000000000000000
 11
574.0500000476851
 21
22.70070406014901
 31
0.0000000000000000
  0
LINE
  5
56D
100
AcDbEntity
  8
WAKU0
  6
HIDDEN
 62
3
100
AcDbLine
 10
574.0500000476851
 20
22.70070406014902
 30
0.0000000000000000
 11
568.9400436209789
 21
13.84999990463248
 31
0.0000000000000000
  0
LINE
  5
56E
100
AcDbEntity
  8
WAKU0
  6
CONTINUOUS
 62
3
100
AcDbLine
 10
502.4713877753800
 20
15.78041421262812
 30
0.0000000000000000
 11
502.4713877753800
 21
21.78041421262815
 31
0.0000000000000000
  0
LINE
  5
56F
100
AcDbEntity
  8
WAKU0
  6
CONTINUOUS
 62
3
100
AcDbLine
 10
495.9336941228225
 20
17.28041421262811
 30
0.0000000000000000
 11
495.9336941228225
 21
20.28041421262824
 31
0.0000000000000000
  0
LINE
  5
570
100
AcDbEntity
  8
WAKU0
  6
CENTER
 62
12
100
AcDbLine
 10
485.4321805514995
 20
18.78041421262813
 30
0.0000000000000000
 11
503.2765788964694
 21
18.78041421262813
 31
0.0000000000000000
  0
LINE
  5
571
100
AcDbEntity
  8
WAKU0
  6
CENTER
 62
12
100
AcDbLine
 10
489.4474565857986
 20
14.55921662918448
 30
0.0000000000000000
 11
489.4474565857986
 21
22.89865102149943
 31
0.0000000000000000
  0
LINE
  5
572
100
AcDbEntity
  8
WAKU0
  6
CONTINUOUS
 62
3
100
AcDbLine
 10
495.9336941228225
 20
20.28041421262797
 30
0.0000000000000000
 11
502.4713877753800
 21
21.78041421262795
 31
0.0000000000000000
  0
LINE
  5
573
100
AcDbEntity
  8
WAKU0
  6
CONTINUOUS
 62
3
100
AcDbLine
 10
495.9336941228225
 20
17.28041421262811
 30
0.0000000000000000
 11
502.4713877753799
 21
15.78041421262812
 31
0.0000000000000000
  0
CIRCLE
  5
574
100
AcDbEntity
  8
WAKU0
  6
CONTINUOUS
 62
3
100
AcDbCircle
 10
489.4474565857986
 20
18.78041421262813
 30
0.0000000000000000
 40
1.499999999999972
  0
CIRCLE
  5
575
100
AcDbEntity
  8
WAKU0
  6
CONTINUOUS
 62
3
100
AcDbCircle
 10
489.4474565857986
 20
18.78041421262813
 30
0.0000000000000000
 40
2.999999999999979
  0
ENDSEC
  0
SECTION
  2
OBJECTS
  0
DICTIONARY
  5
5DD
100
AcDbDictionary
  3
ACAD_GROUP
350
5DE
  3
ACAD_MLINESTYLE
350
5DF
  3
DWGPROPS
350
5E0
  0
DICTIONARY
  5
5DE
102
{ACAD_REACTORS
330
5DD
102
}
100
AcDbDictionary
  0
DICTIONARY
  5
5DF
102
{ACAD_REACTORS
330
5DD
102
}
100
AcDbDictionary
  3
STANDARD
350
5E1
  0
MLINESTYLE
  5
5E1
102
{ACAD_REACTORS
330
5DF
102
}
100
AcDbMlineStyle
  2
STANDARD
 70
     0
  3

 62
   256
 51
90.00
 52
90.00
 71
     2
 49
0.50
 62
   256
  6
BYLAYER
 49
-0.50
 62
   256
  6
BYLAYER
  0
XRECORD
  5
5E0
102
{ACAD_REACTORS
330
5DD
102
}
100
AcDbXrecord
280
     1
  1
DWGPROPS COOKIE
  2
ＰＬＳ０８　ガイケイ
  3

  4

  6
ワークグリッパ　８
  7

  8

  9

300
=
301
=
302
=
303
=
304
=
305
=
306
=
307
=
308
=
309
=
 40
0.000000
 41
0.000000
 42
0.000000
  1

 90
        0
  0
ENDSEC
  0
EOF
