  0
SECTION
  2
HEADER
  9
$ACADVER
  1
AC1014
  9
$DWGCODEPAGE
  3
ANSI_932
  9
$LTSCALE
 40
20.0
  9
$FILLMODE
 70
     1
  9
$CLAYER
  8
0
  9
$PDMODE
 70
     0
  9
$SPLFRAME
 70
     0
  9
$SPLINETYPE
 70
     6
  9
$SPLINESEGS
 70
     8
  9
$DIMASZ
 40
2.000000
  9
$DIMEXE
 40
2.000000
  9
$DIMEXO
 40
0.800000
  9
$DIMTAD
 70
     1
  9
$DIMTIH
 70
     0
  9
$DIMTOH
 70
     0
  9
$DIMTVP
 40
0.500000
  9
$DIMTXT
 40
3.100000
  9
$EXTMIN
 10
0.000000
 20
0.000000
 30
0.000000
  9
$EXTMAX
 10
420.000000
 20
594.000000
 30
0.000000
  9
$MEASUREMENT
 70
  1
  9
$LIMMIN
 10
0.000000
 20
0.000000
  9
$LIMMAX
 10
420.000000
 20
594.000000
  9
$HANDLING
 70
     1
  9
$HANDSEED
  5
5C6
  9
$DIMBLK
  1
_OPEN
  9
$DIMDEC
 70
     3
  9
$DIMAUNIT
 70
     1
  9
$DIMZIN
 70
     8
  9
$DIMTOFL
 70
     1
  0
ENDSEC
  0
SECTION
  2
CLASSES
  0
ENDSEC
  0
SECTION
  2
TABLES
  0
TABLE
  2
VPORT
  5
55B
100
AcDbSymbolTable
 70
     1
  0
VPORT
  5
55C
100
AcDbSymbolTableRecord
100
AcDbViewportTableRecord
  2
*ACTIVE
 70
     0
 12
297.000000
 22
210.000000
 40
420.000000
 41
1.414286
  0
ENDTAB
  0
TABLE
  2
LTYPE
  5
55D
100
AcDbSymbolTable
 70
     4
  0
LTYPE
  5
55E
100
AcDbSymbolTableRecord
100
AcDbLinetypeTableRecord
  2
BYBLOCK
 70
     0
  3

 72
    65
 73
     0
 40
0.0
  0
LTYPE
  5
55F
100
AcDbSymbolTableRecord
100
AcDbLinetypeTableRecord
  2
BYLAYER
 70
     0
  3

 72
    65
 73
     0
 40
0.0
  0
LTYPE
  5
560
100
AcDbSymbolTableRecord
100
AcDbLinetypeTableRecord
  2
CONTINUOUS
 70
     0
  3
Solid line (NEC CAE2D for Win R12.1 : 2018.11.16)
 72
    65
 73
     0
 40
0.0
  0
LTYPE
  5
561
100
AcDbSymbolTableRecord
100
AcDbLinetypeTableRecord
  2
HIDDEN
 70
     0
  3
__ __ __ __ __ __ __ __ __ __ __ __ __ __
 72
    65
 73
     2
 40
0.375
 49
0.25
 74
     0
 49
-0.125
 74
     0
  0
LTYPE
  5
562
100
AcDbSymbolTableRecord
100
AcDbLinetypeTableRecord
  2
CENTER
 70
     0
  3
____ _ ____ _ ____ _ ____ _ ____ _ ____
 72
    65
 73
     4
 40
2.0
 49
1.25
 74
     0
 49
-0.25
 74
     0
 49
0.25
 74
     0
 49
-0.25
 74
     0
  0
LTYPE
  5
563
100
AcDbSymbolTableRecord
100
AcDbLinetypeTableRecord
  2
PHANTOM
 70
     0
  3
______  __  __  ______  __  __  ______ 
 72
    65
 73
     6
 40
2.5
 49
1.25
 74
     0
 49
-0.25
 74
     0
 49
0.25
 74
     0
 49
-0.25
 74
     0
 49
0.25
 74
     0
 49
-0.25
 74
     0
  0
ENDTAB
  0
TABLE
  2
LAYER
  5
564
100
AcDbSymbolTable
 70
    14
  0
LAYER
  5
565
100
AcDbSymbolTableRecord
100
AcDbLayerTableRecord
  2
0
 70
     0
 62
     7
  6
CONTINUOUS
  0
LAYER
  5
566
100
AcDbSymbolTableRecord
100
AcDbLayerTableRecord
  2
MAIN0
 70
     0
 62
     7
  6
CONTINUOUS
  0
LAYER
  5
567
100
AcDbSymbolTableRecord
100
AcDbLayerTableRecord
  2
MAIN1
 70
     0
 62
     7
  6
CONTINUOUS
  0
LAYER
  5
568
100
AcDbSymbolTableRecord
100
AcDbLayerTableRecord
  2
MAIN2
 70
     0
 62
     5
  6
CONTINUOUS
  0
LAYER
  5
569
100
AcDbSymbolTableRecord
100
AcDbLayerTableRecord
  2
MAIN3
 70
     0
 62
    14
  6
CONTINUOUS
  0
LAYER
  5
56A
100
AcDbSymbolTableRecord
100
AcDbLayerTableRecord
  2
MAIN4
 70
     0
 62
     9
  6
CONTINUOUS
  0
LAYER
  5
56B
100
AcDbSymbolTableRecord
100
AcDbLayerTableRecord
  2
MAIN5
 70
     0
 62
     9
  6
CONTINUOUS
  0
LAYER
  5
56C
100
AcDbSymbolTableRecord
100
AcDbLayerTableRecord
  2
MAIN6
 70
     0
 62
    10
  6
CONTINUOUS
  0
LAYER
  5
56D
100
AcDbSymbolTableRecord
100
AcDbLayerTableRecord
  2
MAIN7
 70
     0
 62
     7
  6
CONTINUOUS
  0
LAYER
  5
56E
100
AcDbSymbolTableRecord
100
AcDbLayerTableRecord
  2
MAIN8
 70
     0
 62
    12
  6
CONTINUOUS
  0
LAYER
  5
56F
100
AcDbSymbolTableRecord
100
AcDbLayerTableRecord
  2
MAIN9
 70
     0
 62
     8
  6
CONTINUOUS
  0
LAYER
  5
570
100
AcDbSymbolTableRecord
100
AcDbLayerTableRecord
  2
MAIN1023
 70
     0
 62
    16
  6
CONTINUOUS
  0
LAYER
  5
571
100
AcDbSymbolTableRecord
100
AcDbLayerTableRecord
  2
WAKU0
 70
     0
 62
     7
  6
CONTINUOUS
  0
LAYER
  5
572
100
AcDbSymbolTableRecord
100
AcDbLayerTableRecord
  2
WAKU1023
 70
     0
 62
    16
  6
CONTINUOUS
  0
ENDTAB
  0
TABLE
  2
STYLE
  5
573
100
AcDbSymbolTable
 70
     4
  0
STYLE
  5
574
100
AcDbSymbolTableRecord
100
AcDbTextStyleTableRecord
  2
STANDARD
 70
    64
 40
0.0
 41
1.0
 50
0.0
 71
     0
 42
3.099999904632568
  3
TXT
  4

  0
STYLE
  5
575
100
AcDbSymbolTableRecord
100
AcDbTextStyleTableRecord
  2
ANKTATE
 70
    68
 40
0.0
 41
1.0
 50
0.0
 71
     0
 42
3.099999904632568
  3
TXT
  4

  0
STYLE
  5
3A9
100
AcDbSymbolTableRecord
100
AcDbTextStyleTableRecord
  2
KNJYOKO
 70
    64
 40
0.0
 41
1.0
 50
0.0
 71
     0
 42
3.099999904632568
  3
TXT
  4
BIGFONT
  0
STYLE
  5
576
100
AcDbSymbolTableRecord
100
AcDbTextStyleTableRecord
  2
KNJTATE
 70
    68
 40
0.0
 41
1.0
 50
0.0
 71
     0
 42
3.099999904632568
  3
TXT
  4
BIGFONT
  0
ENDTAB
  0
TABLE
  2
VIEW
  5
577
100
AcDbSymbolTable
 70
     0
  0
ENDTAB
  0
TABLE
  2
UCS
  5
578
100
AcDbSymbolTable
 70
     0
  0
ENDTAB
  0
TABLE
  2
APPID
  5
579
100
AcDbSymbolTable
 70
     1
  0
APPID
  5
57A
100
AcDbSymbolTableRecord
100
AcDbRegAppTableRecord
  2
ACAD
 70
     0
  0
ENDTAB
  0
TABLE
  2
DIMSTYLE
  5
57B
100
AcDbSymbolTable
 70
     1
  0
DIMSTYLE
105
57C
100
AcDbSymbolTableRecord
100
AcDbDimStyleTableRecord
  2
STANDARD
 70
     0
 41
2.000000
 44
2.000000
 42
0.800000
145
0.661290
140
3.100000
144
1.000000
146
0.903226
340
574
  0
DIMSTYLE
105
57D
100
AcDbSymbolTableRecord
100
AcDbDimStyleTableRecord
  2
MAIN001
 70
     0
 41
2.000000
 44
2.000000
 42
0.800000
145
0.661290
140
3.100000
144
1.000000
146
0.903226
 77
     1
 73
     0
 74
     0
271
     3
275
     1
 78
     8
172
     1
340
574
  0
DIMSTYLE
105
57E
100
AcDbSymbolTableRecord
100
AcDbDimStyleTableRecord
  2
WAKU002
 70
     0
 41
2.000000
 44
2.000000
 42
0.800000
145
0.661290
140
3.100000
144
1.000000
146
0.903226
 77
     1
 73
     0
 74
     0
271
     3
275
     1
 78
     8
172
     1
340
574
  0
ENDTAB
  0
TABLE
  2
BLOCK_RECORD
  5
57F
100
AcDbSymbolTable
 70
    71
  0
BLOCK_RECORD
  5
580
100
AcDbSymbolTableRecord
100
AcDbBlockTableRecord
  2
*MODEL_SPACE
  0
BLOCK_RECORD
  5
581
100
AcDbSymbolTableRecord
100
AcDbBlockTableRecord
  2
*PAPER_SPACE
  0
BLOCK_RECORD
  5
1
100
AcDbSymbolTableRecord
100
AcDbBlockTableRecord
  2
_NONE
  0
BLOCK_RECORD
  5
4
100
AcDbSymbolTableRecord
100
AcDbBlockTableRecord
  2
_CLOSED
  0
BLOCK_RECORD
  5
B
100
AcDbSymbolTableRecord
100
AcDbBlockTableRecord
  2
_DOT
  0
BLOCK_RECORD
  5
13
100
AcDbSymbolTableRecord
100
AcDbBlockTableRecord
  2
_OPEN
  0
BLOCK_RECORD
  5
19
100
AcDbSymbolTableRecord
100
AcDbBlockTableRecord
  2
_ORIGIN
  0
BLOCK_RECORD
  5
1E
100
AcDbSymbolTableRecord
100
AcDbBlockTableRecord
  2
_OPEN30
  0
BLOCK_RECORD
  5
24
100
AcDbSymbolTableRecord
100
AcDbBlockTableRecord
  2
_BOXFILLED
  0
BLOCK_RECORD
  5
29
100
AcDbSymbolTableRecord
100
AcDbBlockTableRecord
  2
_BOXBLANK
  0
BLOCK_RECORD
  5
31
100
AcDbSymbolTableRecord
100
AcDbBlockTableRecord
  2
_OBLIQUE
  0
BLOCK_RECORD
  5
35
100
AcDbSymbolTableRecord
100
AcDbBlockTableRecord
  2
_OPEN90
  0
BLOCK_RECORD
  5
3B
100
AcDbSymbolTableRecord
100
AcDbBlockTableRecord
  2
_CLOSEDBLANK
  0
BLOCK_RECORD
  5
41
100
AcDbSymbolTableRecord
100
AcDbBlockTableRecord
  2
_DOTBLANK
  0
BLOCK_RECORD
  5
582
100
AcDbSymbolTableRecord
100
AcDbBlockTableRecord
  2
*D0
  0
BLOCK_RECORD
  5
583
100
AcDbSymbolTableRecord
100
AcDbBlockTableRecord
  2
*D1
  0
BLOCK_RECORD
  5
584
100
AcDbSymbolTableRecord
100
AcDbBlockTableRecord
  2
*D2
  0
BLOCK_RECORD
  5
585
100
AcDbSymbolTableRecord
100
AcDbBlockTableRecord
  2
M0
  0
BLOCK_RECORD
  5
586
100
AcDbSymbolTableRecord
100
AcDbBlockTableRecord
  2
M1
  0
BLOCK_RECORD
  5
587
100
AcDbSymbolTableRecord
100
AcDbBlockTableRecord
  2
*D3
  0
BLOCK_RECORD
  5
588
100
AcDbSymbolTableRecord
100
AcDbBlockTableRecord
  2
*D4
  0
BLOCK_RECORD
  5
589
100
AcDbSymbolTableRecord
100
AcDbBlockTableRecord
  2
*D5
  0
BLOCK_RECORD
  5
58A
100
AcDbSymbolTableRecord
100
AcDbBlockTableRecord
  2
*D6
  0
BLOCK_RECORD
  5
58B
100
AcDbSymbolTableRecord
100
AcDbBlockTableRecord
  2
*D7
  0
BLOCK_RECORD
  5
58C
100
AcDbSymbolTableRecord
100
AcDbBlockTableRecord
  2
*D8
  0
BLOCK_RECORD
  5
58D
100
AcDbSymbolTableRecord
100
AcDbBlockTableRecord
  2
*D9
  0
BLOCK_RECORD
  5
58E
100
AcDbSymbolTableRecord
100
AcDbBlockTableRecord
  2
*D10
  0
BLOCK_RECORD
  5
58F
100
AcDbSymbolTableRecord
100
AcDbBlockTableRecord
  2
*D11
  0
BLOCK_RECORD
  5
590
100
AcDbSymbolTableRecord
100
AcDbBlockTableRecord
  2
*D12
  0
BLOCK_RECORD
  5
591
100
AcDbSymbolTableRecord
100
AcDbBlockTableRecord
  2
*D13
  0
BLOCK_RECORD
  5
592
100
AcDbSymbolTableRecord
100
AcDbBlockTableRecord
  2
*D14
  0
BLOCK_RECORD
  5
593
100
AcDbSymbolTableRecord
100
AcDbBlockTableRecord
  2
*D15
  0
BLOCK_RECORD
  5
594
100
AcDbSymbolTableRecord
100
AcDbBlockTableRecord
  2
*D16
  0
BLOCK_RECORD
  5
595
100
AcDbSymbolTableRecord
100
AcDbBlockTableRecord
  2
D17
  0
BLOCK_RECORD
  5
596
100
AcDbSymbolTableRecord
100
AcDbBlockTableRecord
  2
D18
  0
BLOCK_RECORD
  5
597
100
AcDbSymbolTableRecord
100
AcDbBlockTableRecord
  2
*D19
  0
BLOCK_RECORD
  5
598
100
AcDbSymbolTableRecord
100
AcDbBlockTableRecord
  2
*D20
  0
BLOCK_RECORD
  5
599
100
AcDbSymbolTableRecord
100
AcDbBlockTableRecord
  2
*D21
  0
BLOCK_RECORD
  5
59A
100
AcDbSymbolTableRecord
100
AcDbBlockTableRecord
  2
*D22
  0
BLOCK_RECORD
  5
59B
100
AcDbSymbolTableRecord
100
AcDbBlockTableRecord
  2
*D23
  0
BLOCK_RECORD
  5
59C
100
AcDbSymbolTableRecord
100
AcDbBlockTableRecord
  2
*D24
  0
BLOCK_RECORD
  5
59D
100
AcDbSymbolTableRecord
100
AcDbBlockTableRecord
  2
*D25
  0
BLOCK_RECORD
  5
59E
100
AcDbSymbolTableRecord
100
AcDbBlockTableRecord
  2
*D26
  0
BLOCK_RECORD
  5
59F
100
AcDbSymbolTableRecord
100
AcDbBlockTableRecord
  2
*D27
  0
BLOCK_RECORD
  5
5A0
100
AcDbSymbolTableRecord
100
AcDbBlockTableRecord
  2
*D28
  0
BLOCK_RECORD
  5
5A1
100
AcDbSymbolTableRecord
100
AcDbBlockTableRecord
  2
D29
  0
BLOCK_RECORD
  5
5A2
100
AcDbSymbolTableRecord
100
AcDbBlockTableRecord
  2
*D30
  0
BLOCK_RECORD
  5
5A3
100
AcDbSymbolTableRecord
100
AcDbBlockTableRecord
  2
*D31
  0
BLOCK_RECORD
  5
5A4
100
AcDbSymbolTableRecord
100
AcDbBlockTableRecord
  2
*D32
  0
BLOCK_RECORD
  5
5A5
100
AcDbSymbolTableRecord
100
AcDbBlockTableRecord
  2
*D33
  0
BLOCK_RECORD
  5
5A6
100
AcDbSymbolTableRecord
100
AcDbBlockTableRecord
  2
*D34
  0
BLOCK_RECORD
  5
5A7
100
AcDbSymbolTableRecord
100
AcDbBlockTableRecord
  2
*D35
  0
BLOCK_RECORD
  5
5A8
100
AcDbSymbolTableRecord
100
AcDbBlockTableRecord
  2
*D36
  0
BLOCK_RECORD
  5
5A9
100
AcDbSymbolTableRecord
100
AcDbBlockTableRecord
  2
*D37
  0
BLOCK_RECORD
  5
5AA
100
AcDbSymbolTableRecord
100
AcDbBlockTableRecord
  2
*D38
  0
BLOCK_RECORD
  5
5AB
100
AcDbSymbolTableRecord
100
AcDbBlockTableRecord
  2
*D39
  0
BLOCK_RECORD
  5
5AC
100
AcDbSymbolTableRecord
100
AcDbBlockTableRecord
  2
*D40
  0
BLOCK_RECORD
  5
5AD
100
AcDbSymbolTableRecord
100
AcDbBlockTableRecord
  2
*D41
  0
BLOCK_RECORD
  5
5AE
100
AcDbSymbolTableRecord
100
AcDbBlockTableRecord
  2
*D42
  0
BLOCK_RECORD
  5
5AF
100
AcDbSymbolTableRecord
100
AcDbBlockTableRecord
  2
*D43
  0
BLOCK_RECORD
  5
5B0
100
AcDbSymbolTableRecord
100
AcDbBlockTableRecord
  2
*D44
  0
BLOCK_RECORD
  5
5B1
100
AcDbSymbolTableRecord
100
AcDbBlockTableRecord
  2
*D45
  0
BLOCK_RECORD
  5
5B2
100
AcDbSymbolTableRecord
100
AcDbBlockTableRecord
  2
*D46
  0
BLOCK_RECORD
  5
5B3
100
AcDbSymbolTableRecord
100
AcDbBlockTableRecord
  2
*D47
  0
BLOCK_RECORD
  5
5B4
100
AcDbSymbolTableRecord
100
AcDbBlockTableRecord
  2
*D48
  0
BLOCK_RECORD
  5
5B5
100
AcDbSymbolTableRecord
100
AcDbBlockTableRecord
  2
*D49
  0
BLOCK_RECORD
  5
5B6
100
AcDbSymbolTableRecord
100
AcDbBlockTableRecord
  2
*D50
  0
BLOCK_RECORD
  5
5B7
100
AcDbSymbolTableRecord
100
AcDbBlockTableRecord
  2
*D51
  0
BLOCK_RECORD
  5
5B8
100
AcDbSymbolTableRecord
100
AcDbBlockTableRecord
  2
*D52
  0
BLOCK_RECORD
  5
5B9
100
AcDbSymbolTableRecord
100
AcDbBlockTableRecord
  2
*D53
  0
BLOCK_RECORD
  5
5BA
100
AcDbSymbolTableRecord
100
AcDbBlockTableRecord
  2
*D54
  0
BLOCK_RECORD
  5
5BB
100
AcDbSymbolTableRecord
100
AcDbBlockTableRecord
  2
*X0
  0
BLOCK_RECORD
  5
5BC
100
AcDbSymbolTableRecord
100
AcDbBlockTableRecord
  2
*D55
  0
ENDTAB
  0
ENDSEC
  0
SECTION
  2
BLOCKS
  0
BLOCK
  5
5BD
100
AcDbEntity
  8
0
100
AcDbBlockBegin
  2
*MODEL_SPACE
 70
     0
 10
0.0
 20
0.0
 30
0.0
  3
*MODEL_SPACE
  1

  0
ENDBLK
  5
5BE
100
AcDbEntity
  8
0
100
AcDbBlockEnd
  0
BLOCK
  5
5BF
100
AcDbEntity
  8
0
100
AcDbBlockBegin
  2
*PAPER_SPACE
 70
     0
 10
0.0
 20
0.0
 30
0.0
  3
*PAPER_SPACE
  1

  0
ENDBLK
  5
5C0
100
AcDbEntity
  8
0
100
AcDbBlockEnd
  0
BLOCK
  5
2
100
AcDbEntity
  8
0
100
AcDbBlockBegin
  2
_NONE
 70
     0
 10
0.0
 20
0.0
 30
0.0
  3
_NONE
  1

  0
ENDBLK
  5
3
100
AcDbEntity
  8
0
100
AcDbBlockEnd
  0
BLOCK
  5
5
100
AcDbEntity
  8
0
100
AcDbBlockBegin
  2
_CLOSED
 70
     0
 10
0.0
 20
0.0
 30
0.0
  3
_CLOSED
  1

  0
LINE
  5
6
100
AcDbEntity
  8
0
  6
BYBLOCK
 62
     0
100
AcDbLine
 10
-1.0
 20
0.166667
 30
0.0
 11
0.0
 21
0.0
 31
0.0
  0
LINE
  5
7
100
AcDbEntity
  8
0
  6
BYBLOCK
 62
     0
100
AcDbLine
 10
0.0
 20
0.0
 30
0.0
 11
-1.0
 21
-0.166667
 31
0.0
  0
LINE
  5
8
100
AcDbEntity
  8
0
  6
BYBLOCK
 62
     0
100
AcDbLine
 10
-1.0
 20
0.166667
 30
0.0
 11
-1.0
 21
-0.166667
 31
0.0
  0
LINE
  5
9
100
AcDbEntity
  8
0
  6
BYBLOCK
 62
     0
100
AcDbLine
 10
0.0
 20
0.0
 30
0.0
 11
-1.0
 21
0.0
 31
0.0
  0
ENDBLK
  5
A
100
AcDbEntity
  8
0
100
AcDbBlockEnd
  0
BLOCK
  5
C
100
AcDbEntity
  8
0
100
AcDbBlockBegin
  2
_DOT
 70
     0
 10
0.0
 20
0.0
 30
0.0
  3
_DOT
  1

  0
POLYLINE
  5
D
100
AcDbEntity
  8
0
  6
BYBLOCK
 62
     0
100
AcDb2dPolyline
 66
     1
 10
0.0
 20
0.0
 30
0.0
 70
     1
 40
0.5
 41
0.5
  0
VERTEX
  5
E
100
AcDbEntity
  8
0
  6
BYBLOCK
 62
     0
100
AcDbVertex
100
AcDb2dVertex
 10
-0.25
 20
0.0
 30
0.0
 42
1.0
  0
VERTEX
  5
F
100
AcDbEntity
  8
0
  6
BYBLOCK
 62
     0
100
AcDbVertex
100
AcDb2dVertex
 10
0.25
 20
0.0
 30
0.0
 42
1.0
  0
SEQEND
  5
10
100
AcDbEntity
  8
0
  6
BYBLOCK
 62
     0
  0
LINE
  5
11
100
AcDbEntity
  8
0
  6
BYBLOCK
 62
     0
100
AcDbLine
 10
-0.5
 20
0.0
 30
0.0
 11
-1.0
 21
0.0
 31
0.0
  0
ENDBLK
  5
12
100
AcDbEntity
  8
0
100
AcDbBlockEnd
  0
BLOCK
  5
14
100
AcDbEntity
  8
0
100
AcDbBlockBegin
  2
_OPEN
 70
     0
 10
0.0
 20
0.0
 30
0.0
  3
_OPEN
  1

  0
LINE
  5
15
100
AcDbEntity
  8
0
  6
BYBLOCK
 62
     0
100
AcDbLine
 10
-1.0
 20
0.166667
 30
0.0
 11
0.0
 21
0.0
 31
0.0
  0
LINE
  5
16
100
AcDbEntity
  8
0
  6
BYBLOCK
 62
     0
100
AcDbLine
 10
0.0
 20
0.0
 30
0.0
 11
-1.0
 21
-0.166667
 31
0.0
  0
LINE
  5
17
100
AcDbEntity
  8
0
  6
BYBLOCK
 62
     0
100
AcDbLine
 10
0.0
 20
0.0
 30
0.0
 11
-1.0
 21
0.0
 31
0.0
  0
ENDBLK
  5
18
100
AcDbEntity
  8
0
100
AcDbBlockEnd
  0
BLOCK
  5
1A
100
AcDbEntity
  8
0
100
AcDbBlockBegin
  2
_ORIGIN
 70
     0
 10
0.0
 20
0.0
 30
0.0
  3
_ORIGIN
  1

  0
CIRCLE
  5
1B
100
AcDbEntity
  8
0
  6
BYBLOCK
 62
     0
100
AcDbCircle
 10
0.0
 20
0.0
 30
0.0
 40
0.5
  0
LINE
  5
1C
100
AcDbEntity
  8
0
  6
BYBLOCK
 62
     0
100
AcDbLine
 10
0.0
 20
0.0
 30
0.0
 11
-1.0
 21
0.0
 31
0.0
  0
ENDBLK
  5
1D
100
AcDbEntity
  8
0
100
AcDbBlockEnd
  0
BLOCK
  5
1F
100
AcDbEntity
  8
0
100
AcDbBlockBegin
  2
_OPEN30
 70
     0
 10
0.0
 20
0.0
 30
0.0
  3
_OPEN30
  1

  0
LINE
  5
20
100
AcDbEntity
  8
0
  6
BYBLOCK
 62
     0
100
AcDbLine
 10
-1.0
 20
0.267949
 30
0.0
 11
0.0
 21
0.0
 31
0.0
  0
LINE
  5
21
100
AcDbEntity
  8
0
  6
BYBLOCK
 62
     0
100
AcDbLine
 10
0.0
 20
0.0
 30
0.0
 11
-1.0
 21
-0.267949
 31
0.0
  0
LINE
  5
22
100
AcDbEntity
  8
0
  6
BYBLOCK
 62
     0
100
AcDbLine
 10
0.0
 20
0.0
 30
0.0
 11
-1.0
 21
0.0
 31
0.0
  0
ENDBLK
  5
23
100
AcDbEntity
  8
0
100
AcDbBlockEnd
  0
BLOCK
  5
25
100
AcDbEntity
  8
0
100
AcDbBlockBegin
  2
_BOXFILLED
 70
     0
 10
0.0
 20
0.0
 30
0.0
  3
_BOXFILLED
  1

  0
SOLID
  5
26
100
AcDbEntity
  8
0
  6
BYBLOCK
 62
     0
100
AcDbTrace
 10
-0.5
 20
0.5
 30
0.0
 11
0.5
 21
0.5
 31
0.0
 12
-0.5
 22
-0.5
 32
0.0
 13
0.5
 23
-0.5
 33
0.0
  0
LINE
  5
27
100
AcDbEntity
  8
0
  6
BYBLOCK
 62
     0
100
AcDbLine
 10
-0.5
 20
0.0
 30
0.0
 11
-1.0
 21
0.0
 31
0.0
  0
ENDBLK
  5
28
100
AcDbEntity
  8
0
100
AcDbBlockEnd
  0
BLOCK
  5
2A
100
AcDbEntity
  8
0
100
AcDbBlockBegin
  2
_BOXBLANK
 70
     0
 10
0.0
 20
0.0
 30
0.0
  3
_BOXBLANK
  1

  0
LINE
  5
2B
100
AcDbEntity
  8
0
  6
BYBLOCK
 62
     0
100
AcDbLine
 10
-0.5
 20
-0.5
 30
0.0
 11
0.5
 21
-0.5
 31
0.0
  0
LINE
  5
2C
100
AcDbEntity
  8
0
  6
BYBLOCK
 62
     0
100
AcDbLine
 10
0.5
 20
-0.5
 30
0.0
 11
0.5
 21
0.5
 31
0.0
  0
LINE
  5
2D
100
AcDbEntity
  8
0
  6
BYBLOCK
 62
     0
100
AcDbLine
 10
0.5
 20
0.5
 30
0.0
 11
-0.5
 21
0.5
 31
0.0
  0
LINE
  5
2E
100
AcDbEntity
  8
0
  6
BYBLOCK
 62
     0
100
AcDbLine
 10
-0.5
 20
0.5
 30
0.0
 11
-0.5
 21
-0.5
 31
0.0
  0
LINE
  5
2F
100
AcDbEntity
  8
0
  6
BYBLOCK
 62
     0
100
AcDbLine
 10
-0.5
 20
0.0
 30
0.0
 11
-1.0
 21
0.0
 31
0.0
  0
ENDBLK
  5
30
100
AcDbEntity
  8
0
100
AcDbBlockEnd
  0
BLOCK
  5
32
100
AcDbEntity
  8
0
100
AcDbBlockBegin
  2
_OBLIQUE
 70
     0
 10
0.0
 20
0.0
 30
0.0
  3
_OBLIQUE
  1

  0
LINE
  5
33
100
AcDbEntity
  8
0
  6
BYBLOCK
 62
     0
100
AcDbLine
 10
-0.5
 20
-0.5
 30
0.0
 11
0.5
 21
0.5
 31
0.0
  0
ENDBLK
  5
34
100
AcDbEntity
  8
0
100
AcDbBlockEnd
  0
BLOCK
  5
36
100
AcDbEntity
  8
0
100
AcDbBlockBegin
  2
_OPEN90
 70
     0
 10
0.0
 20
0.0
 30
0.0
  3
_OPEN90
  1

  0
LINE
  5
37
100
AcDbEntity
  8
0
  6
BYBLOCK
 62
     0
100
AcDbLine
 10
-0.5
 20
0.5
 30
0.0
 11
0.0
 21
0.0
 31
0.0
  0
LINE
  5
38
100
AcDbEntity
  8
0
  6
BYBLOCK
 62
     0
100
AcDbLine
 10
0.0
 20
0.0
 30
0.0
 11
-0.5
 21
-0.5
 31
0.0
  0
LINE
  5
39
100
AcDbEntity
  8
0
  6
BYBLOCK
 62
     0
100
AcDbLine
 10
0.0
 20
0.0
 30
0.0
 11
-1.0
 21
0.0
 31
0.0
  0
ENDBLK
  5
3A
100
AcDbEntity
  8
0
100
AcDbBlockEnd
  0
BLOCK
  5
3C
100
AcDbEntity
  8
0
100
AcDbBlockBegin
  2
_CLOSEDBLANK
 70
     0
 10
0.0
 20
0.0
 30
0.0
  3
_CLOSEDBLANK
  1

  0
LINE
  5
3D
100
AcDbEntity
  8
0
  6
BYBLOCK
 62
     0
100
AcDbLine
 10
-1.0
 20
0.1666666666666666
 30
0.0
 11
0.0
 21
0.0
 31
0.0
  0
LINE
  5
3E
100
AcDbEntity
  8
0
  6
BYBLOCK
 62
     0
100
AcDbLine
 10
0.0
 20
0.0
 30
0.0
 11
-1.0
 21
-0.1666666666666666
 31
0.0
  0
LINE
  5
3F
100
AcDbEntity
  8
0
  6
BYBLOCK
 62
     0
100
AcDbLine
 10
-1.0
 20
0.1666666666666666
 30
0.0
 11
-1.0
 21
-0.1666666666666666
 31
0.0
  0
ENDBLK
  5
40
100
AcDbEntity
  8
0
100
AcDbBlockEnd
  0
BLOCK
  5
42
100
AcDbEntity
  8
0
100
AcDbBlockBegin
  2
_DOTBLANK
 70
     0
 10
0.0
 20
0.0
 30
0.0
  3
_DOTBLANK
  1

  0
CIRCLE
  5
43
100
AcDbEntity
  8
0
  6
BYBLOCK
 62
     0
100
AcDbCircle
 10
0.0
 20
0.0
 30
0.0
 40
0.5
  0
LINE
  5
44
100
AcDbEntity
  8
0
  6
BYBLOCK
 62
     0
100
AcDbLine
 10
-0.5
 20
0.0
 30
0.0
 11
-1.0
 21
0.0
 31
0.0
  0
ENDBLK
  5
45
100
AcDbEntity
  8
0
100
AcDbBlockEnd
  0
BLOCK
  5
46
100
AcDbEntity
  8
MAIN0
  6
CONTINUOUS
 62
3
100
AcDbBlockBegin
  2
*D0
 70
    65
 10
0.0
 20
0.0
 30
0.0
  0
LINE
  5
47
100
AcDbEntity
  8
MAIN0
  6
BYBLOCK
 62
0
100
AcDbLine
 10
200.3776490980682
 20
286.0485404740680
 30
0.0000000000000000
 11
242.0000000000000
 21
286.0485404740680
 31
0.0000000000000000
  0
LINE
  5
48
100
AcDbEntity
  8
MAIN0
  6
BYBLOCK
 62
0
100
AcDbLine
 10
240.0000000000000
 20
288.0485404740680
 30
0.0000000000000000
 11
240.0000000000000
 21
302.0485404740682
 31
0.0000000000000000
  0
INSERT
  5
49
100
AcDbEntity
  8
MAIN0
  6
BYBLOCK
 62
0
100
AcDbBlockReference
  2
_OPEN
 10
240.0000000000000
 20
286.0485404740680
 30
0.0000000000000000
 41
2.000000000000000
 42
2.000000000000000
 43
2.000000000000000
 50
270.0000000000000
  0
INSERT
  5
4A
100
AcDbEntity
  8
MAIN0
  6
BYBLOCK
 62
0
100
AcDbBlockReference
  2
_OPEN
 10
240.0000000000000
 20
304.0485404740682
 30
0.0000000000000000
 41
2.000000000000000
 42
2.000000000000000
 43
2.000000000000000
 50
90.00000000000000
  0
LINE
  5
4B
100
AcDbEntity
  8
MAIN0
  6
BYBLOCK
 62
0
100
AcDbLine
 10
229.4881669846988
 20
304.0485404740682
 30
0.0000000000000000
 11
242.0000000000000
 21
304.0485404740682
 31
0.0000000000000000
  0
MTEXT
  5
4C
100
AcDbEntity
  8
MAIN0
  6
BYBLOCK
 62
0
100
AcDbMText
 10
237.9500000476837
 20
295.0485404740681
 30
0.0000000000000000
 40
3.099999904632568
 41
0.0000000000000000
 71
     5
 72
     1
  1
\A1;18
 11
6.123233995736766e-017
 21
1.000000000000000
 31
0.0000000000000000
  7
STANDARD
  0
ENDBLK
  5
4D
100
AcDbEntity
  8
MAIN0
  6
CONTINUOUS
 62
3
100
AcDbBlockEnd
  0
BLOCK
  5
4F
100
AcDbEntity
  8
MAIN0
  6
CONTINUOUS
 62
3
100
AcDbBlockBegin
  2
*D1
 70
    65
 10
0.0
 20
0.0
 30
0.0
  0
LINE
  5
50
100
AcDbEntity
  8
MAIN0
  6
BYBLOCK
 62
0
100
AcDbLine
 10
200.3776490980682
 20
286.0485404740680
 30
0.0000000000000000
 11
242.0000000000000
 21
286.0485404740680
 31
0.0000000000000000
  0
LINE
  5
51
100
AcDbEntity
  8
MAIN0
  6
BYBLOCK
 62
0
100
AcDbLine
 10
240.0000000000000
 20
284.0485404740680
 30
0.0000000000000000
 11
240.0000000000000
 21
263.5485404740681
 31
0.0000000000000000
  0
INSERT
  5
52
100
AcDbEntity
  8
MAIN0
  6
BYBLOCK
 62
0
100
AcDbBlockReference
  2
_OPEN
 10
240.0000000000000
 20
286.0485404740680
 30
0.0000000000000000
 41
2.000000000000000
 42
2.000000000000000
 43
2.000000000000000
 50
90.00000000000000
  0
INSERT
  5
53
100
AcDbEntity
  8
MAIN0
  6
BYBLOCK
 62
0
100
AcDbBlockReference
  2
_OPEN
 10
240.0000000000000
 20
261.5485404740681
 30
0.0000000000000000
 41
2.000000000000000
 42
2.000000000000000
 43
2.000000000000000
 50
270.0000000000000
  0
LINE
  5
54
100
AcDbEntity
  8
MAIN0
  6
BYBLOCK
 62
0
100
AcDbLine
 10
227.3776490980682
 20
261.5485404740681
 30
0.0000000000000000
 11
242.0000000000000
 21
261.5485404740681
 31
0.0000000000000000
  0
MTEXT
  5
55
100
AcDbEntity
  8
MAIN0
  6
BYBLOCK
 62
0
100
AcDbMText
 10
237.9500000476837
 20
273.7985404740681
 30
0.0000000000000000
 40
3.099999904632568
 41
0.0000000000000000
 71
     5
 72
     1
  1
\A1;24.5
 11
6.123233995736766e-017
 21
1.000000000000000
 31
0.0000000000000000
  7
STANDARD
  0
ENDBLK
  5
56
100
AcDbEntity
  8
MAIN0
  6
CONTINUOUS
 62
3
100
AcDbBlockEnd
  0
BLOCK
  5
61
100
AcDbEntity
  8
MAIN0
  6
CONTINUOUS
 62
3
100
AcDbBlockBegin
  2
*D2
 70
    65
 10
0.0
 20
0.0
 30
0.0
  0
LINE
  5
62
100
AcDbEntity
  8
MAIN0
  6
BYBLOCK
 62
0
100
AcDbLine
 10
420.5583888201889
 20
262.3485404859891
 30
0.0000000000000000
 11
420.5583888201889
 21
270.7808239538420
 31
0.0000000000000000
  0
LINE
  5
63
100
AcDbEntity
  8
MAIN0
  6
BYBLOCK
 62
0
100
AcDbLine
 10
420.5583888201889
 20
268.7808239538420
 30
0.0000000000000000
 11
421.5583888198092
 21
268.7808239538420
 31
0.0000000000000000
  0
INSERT
  5
64
100
AcDbEntity
  8
MAIN0
  6
BYBLOCK
 62
0
100
AcDbBlockReference
  2
_OPEN
 10
420.5583888201889
 20
268.7808239538420
 30
0.0000000000000000
 41
2.000000000000000
 42
2.000000000000000
 43
2.000000000000000
 50
0.0000000000000000
  0
INSERT
  5
65
100
AcDbEntity
  8
MAIN0
  6
BYBLOCK
 62
0
100
AcDbBlockReference
  2
_OPEN
 10
421.5583888198092
 20
268.7808239538420
 30
0.0000000000000000
 41
2.000000000000000
 42
2.000000000000000
 43
2.000000000000000
 50
180.0000000000000
  0
LINE
  5
66
100
AcDbEntity
  8
MAIN0
  6
BYBLOCK
 62
0
100
AcDbLine
 10
418.5583888201889
 20
268.7808239538420
 30
0.0000000000000000
 11
417.5583888201889
 21
268.7808239538420
 31
0.0000000000000000
  0
LINE
  5
67
100
AcDbEntity
  8
MAIN0
  6
BYBLOCK
 62
0
100
AcDbLine
 10
423.5583888198092
 20
268.7808239538420
 30
0.0000000000000000
 11
426.0878358985141
 21
268.7808239538420
 31
0.0000000000000000
  0
LINE
  5
68
100
AcDbEntity
  8
MAIN0
  6
BYBLOCK
 62
0
100
AcDbLine
 10
421.5583888198092
 20
262.3485404859891
 30
0.0000000000000000
 11
421.5583888198092
 21
270.7808239538420
 31
0.0000000000000000
  0
MTEXT
  5
69
100
AcDbEntity
  8
MAIN0
  6
BYBLOCK
 62
0
100
AcDbMText
 10
425.0378357143445
 20
270.8308239061582
 30
0.0000000000000000
 40
3.099999904632568
 41
0.0000000000000000
 71
     5
 72
     1
  1
\A1;1
 11
1.000000000000000
 21
0.0000000000000000
 31
0.0000000000000000
  7
STANDARD
  0
ENDBLK
  5
6A
100
AcDbEntity
  8
MAIN0
  6
CONTINUOUS
 62
3
100
AcDbBlockEnd
  0
BLOCK
  5
C2
100
AcDbEntity
  8
MAIN0
  6
BYBLOCK
 62
3
100
AcDbBlockBegin
  2
M0
 70
    64
 10
0.0
 20
0.0
 30
0.0
  0
LINE
  5
C3
100
AcDbEntity
  8
MAIN0
  6
BYBLOCK
 62
0
100
AcDbLine
 10
375.8535461673434
 20
75.39057022540203
 30
0.0000000000000000
 11
441.9214365770739
 21
75.39057022540203
 31
0.0000000000000000
  0
LINE
  5
C4
100
AcDbEntity
  8
MAIN0
  6
BYBLOCK
 62
0
100
AcDbLine
 10
375.8535461673434
 20
70.39057022540203
 30
0.0000000000000000
 11
441.9214365770739
 21
70.39057022540203
 31
0.0000000000000000
  0
LINE
  5
C5
100
AcDbEntity
  8
MAIN0
  6
BYBLOCK
 62
0
100
AcDbLine
 10
375.8535461673434
 20
65.39057022540214
 30
0.0000000000000000
 11
441.9214365770739
 21
65.39057022540214
 31
0.0000000000000000
  0
MTEXT
  5
C6
100
AcDbEntity
  8
MAIN0
  6
BYBLOCK
 62
0
100
AcDbMText
 10
376.8535461673434
 20
78.99057013003466
 30
0.0000000000000000
 40
3.099999904632568
 41
0.0000000000000000
 71
     1
 72
     1
  1
{\H0.88x;1.}
 11
1.000000000000000
 21
0.0000000000000000
 31
0.0000000000000000
  7
STANDARD
  0
MTEXT
  5
C7
100
AcDbEntity
  8
MAIN0
  6
BYBLOCK
 62
0
100
AcDbMText
 10
376.8535461673434
 20
68.99057013003471
 30
0.0000000000000000
 40
3.099999904632568
 41
0.0000000000000000
 71
     1
 72
     1
  1
{\H0.88x;2.}
 11
1.000000000000000
 21
0.0000000000000000
 31
0.0000000000000000
  7
STANDARD
  0
MTEXT
  5
C8
100
AcDbEntity
  8
MAIN0
  6
BYBLOCK
 62
0
100
AcDbMText
 10
377.3535461673434
 20
89.39057022540237
 30
0.0000000000000000
 40
6.000000000000000
 41
0.0000000000000000
 71
     1
 72
     1
  1
{\H0.80x;要注意}
 11
1.000000000000000
 21
0.0000000000000000
 31
0.0000000000000000
  7
KNJYOKO
  0
LINE
  5
C9
100
AcDbEntity
  8
MAIN0
  6
BYBLOCK
 62
0
100
AcDbLine
 10
395.8535461673434
 20
90.89057022540237
 30
0.0000000000000000
 11
395.8535461673434
 21
81.89057022540237
 31
0.0000000000000000
  0
LINE
  5
CA
100
AcDbEntity
  8
MAIN0
  6
BYBLOCK
 62
0
100
AcDbLine
 10
375.8535461673434
 20
81.89057022540237
 30
0.0000000000000000
 11
395.8535461673434
 21
81.89057022540237
 31
0.0000000000000000
  0
LINE
  5
CB
100
AcDbEntity
  8
MAIN0
  6
BYBLOCK
 62
0
100
AcDbLine
 10
375.8535461673434
 20
90.89057022540237
 30
0.0000000000000000
 11
375.8535461673434
 21
81.89057022540237
 31
0.0000000000000000
  0
LINE
  5
CC
100
AcDbEntity
  8
MAIN0
  6
BYBLOCK
 62
0
100
AcDbLine
 10
375.8535461673434
 20
90.89057022540237
 30
0.0000000000000000
 11
395.8535461673434
 21
90.89057022540237
 31
0.0000000000000000
  0
ENDBLK
  5
CD
100
AcDbEntity
  8
MAIN0
  6
BYBLOCK
 62
3
100
AcDbBlockEnd
  0
BLOCK
  5
CF
100
AcDbEntity
  8
MAIN0
  6
BYBLOCK
 62
3
100
AcDbBlockBegin
  2
M1
 70
    64
 10
0.0
 20
0.0
 30
0.0
  0
LINE
  5
D0
100
AcDbEntity
  8
MAIN0
  6
BYBLOCK
 62
0
100
AcDbLine
 10
447.4665564468846
 20
75.39057022540203
 30
0.0000000000000000
 11
538.4345195189312
 21
75.39057022540203
 31
0.0000000000000000
  0
LINE
  5
D1
100
AcDbEntity
  8
MAIN0
  6
BYBLOCK
 62
0
100
AcDbLine
 10
447.4665564468846
 20
70.39057022540203
 30
0.0000000000000000
 11
538.4345195189312
 21
70.39057022540203
 31
0.0000000000000000
  0
LINE
  5
D2
100
AcDbEntity
  8
MAIN0
  6
BYBLOCK
 62
0
100
AcDbLine
 10
447.4665564468846
 20
65.39057022540214
 30
0.0000000000000000
 11
538.4345195189312
 21
65.39057022540214
 31
0.0000000000000000
  0
MTEXT
  5
D3
100
AcDbEntity
  8
MAIN0
  6
BYBLOCK
 62
0
100
AcDbMText
 10
448.4665564468847
 20
78.99057013003466
 30
0.0000000000000000
 40
3.099999904632568
 41
0.0000000000000000
 71
     1
 72
     1
  1
{\H0.88x;1.}
 11
1.000000000000000
 21
0.0000000000000000
 31
0.0000000000000000
  7
STANDARD
  0
MTEXT
  5
D4
100
AcDbEntity
  8
MAIN0
  6
BYBLOCK
 62
0
100
AcDbMText
 10
448.4665564468847
 20
68.99057013003471
 30
0.0000000000000000
 40
3.099999904632568
 41
0.0000000000000000
 71
     1
 72
     1
  1
{\H0.88x;2.}
 11
1.000000000000000
 21
0.0000000000000000
 31
0.0000000000000000
  7
STANDARD
  0
MTEXT
  5
D5
100
AcDbEntity
  8
MAIN0
  6
BYBLOCK
 62
0
100
AcDbMText
 10
448.9665564468847
 20
87.39057022540237
 30
0.0000000000000000
 40
4.000000000000000
 41
0.0000000000000000
 71
     1
 72
     1
  1
{\H0.63x;CAUTION}
 11
1.000000000000000
 21
0.0000000000000000
 31
0.0000000000000000
  7
STANDARD
  0
LINE
  5
D6
100
AcDbEntity
  8
MAIN0
  6
BYBLOCK
 62
0
100
AcDbLine
 10
467.4665564468846
 20
90.89057022540237
 30
0.0000000000000000
 11
467.4665564468846
 21
81.89057022540237
 31
0.0000000000000000
  0
LINE
  5
D7
100
AcDbEntity
  8
MAIN0
  6
BYBLOCK
 62
0
100
AcDbLine
 10
447.4665564468846
 20
81.89057022540237
 30
0.0000000000000000
 11
467.4665564468846
 21
81.89057022540237
 31
0.0000000000000000
  0
LINE
  5
D8
100
AcDbEntity
  8
MAIN0
  6
BYBLOCK
 62
0
100
AcDbLine
 10
447.4665564468846
 20
90.89057022540237
 30
0.0000000000000000
 11
447.4665564468846
 21
81.89057022540237
 31
0.0000000000000000
  0
LINE
  5
D9
100
AcDbEntity
  8
MAIN0
  6
BYBLOCK
 62
0
100
AcDbLine
 10
447.4665564468846
 20
90.89057022540237
 30
0.0000000000000000
 11
467.4665564468846
 21
90.89057022540237
 31
0.0000000000000000
  0
ENDBLK
  5
DA
100
AcDbEntity
  8
MAIN0
  6
BYBLOCK
 62
3
100
AcDbBlockEnd
  0
BLOCK
  5
E1
100
AcDbEntity
  8
MAIN0
  6
CONTINUOUS
 62
3
100
AcDbBlockBegin
  2
*D3
 70
    65
 10
0.0
 20
0.0
 30
0.0
  0
LINE
  5
E2
100
AcDbEntity
  8
MAIN0
  6
BYBLOCK
 62
0
100
AcDbLine
 10
226.5776490861474
 20
328.2485404621472
 30
0.0000000000000000
 11
226.5776490861474
 21
322.3005907592307
 31
0.0000000000000000
  0
LINE
  5
E3
100
AcDbEntity
  8
MAIN0
  6
BYBLOCK
 62
0
100
AcDbLine
 10
226.5776490861474
 20
324.3005907592307
 30
0.0000000000000000
 11
222.5776490861474
 21
324.3005907592307
 31
0.0000000000000000
  0
INSERT
  5
E4
100
AcDbEntity
  8
MAIN0
  6
BYBLOCK
 62
0
100
AcDbBlockReference
  2
_OPEN
 10
226.5776490861474
 20
324.3005907592307
 30
0.0000000000000000
 41
2.000000000000000
 42
2.000000000000000
 43
2.000000000000000
 50
180.0000000000000
  0
INSERT
  5
E5
100
AcDbEntity
  8
MAIN0
  6
BYBLOCK
 62
0
100
AcDbBlockReference
  2
_OPEN
 10
222.5776490861474
 20
324.3005907592307
 30
0.0000000000000000
 41
2.000000000000000
 42
2.000000000000000
 43
2.000000000000000
 50
360.0000000000000
  0
LINE
  5
E6
100
AcDbEntity
  8
MAIN0
  6
BYBLOCK
 62
0
100
AcDbLine
 10
228.5776490861474
 20
324.3005907592307
 30
0.0000000000000000
 11
229.5776490861474
 21
324.3005907592307
 31
0.0000000000000000
  0
LINE
  5
E7
100
AcDbEntity
  8
MAIN0
  6
BYBLOCK
 62
0
100
AcDbLine
 10
220.5776490861474
 20
324.3005907592307
 30
0.0000000000000000
 11
219.5776490861474
 21
324.3005907592307
 31
0.0000000000000000
  0
MTEXT
  5
E8
100
AcDbEntity
  8
MAIN0
  6
BYBLOCK
 62
0
100
AcDbMText
 10
224.5776490861474
 20
326.3505907115470
 30
0.0000000000000000
 40
3.099999904632568
 41
0.0000000000000000
 71
     5
 72
     1
  1
\A1;4
 11
1.000000000000000
 21
0.0000000000000000
 31
0.0000000000000000
  7
STANDARD
  0
ENDBLK
  5
E9
100
AcDbEntity
  8
MAIN0
  6
CONTINUOUS
 62
3
100
AcDbBlockEnd
  0
BLOCK
  5
295
100
AcDbEntity
  8
MAIN0
  6
CONTINUOUS
 62
3
100
AcDbBlockBegin
  2
*D4
 70
    65
 10
0.0
 20
0.0
 30
0.0
  0
LINE
  5
296
100
AcDbEntity
  8
MAIN0
  6
BYBLOCK
 62
0
100
AcDbLine
 10
315.4432576998828
 20
257.0485404740683
 30
0.0000000000000000
 11
315.4432576998828
 21
158.0485404740680
 31
0.0000000000000000
  0
INSERT
  5
297
100
AcDbEntity
  8
MAIN0
  6
BYBLOCK
 62
0
100
AcDbBlockReference
  2
_OPEN
 10
315.4432576998828
 20
259.0485404740683
 30
0.0000000000000000
 41
2.000000000000000
 42
2.000000000000000
 43
2.000000000000000
 50
90.00000000000000
  0
INSERT
  5
298
100
AcDbEntity
  8
MAIN0
  6
BYBLOCK
 62
0
100
AcDbBlockReference
  2
_OPEN
 10
315.4432576998828
 20
156.0485404740680
 30
0.0000000000000000
 41
2.000000000000000
 42
2.000000000000000
 43
2.000000000000000
 50
270.0000000000000
  0
LINE
  5
299
100
AcDbEntity
  8
MAIN0
  6
BYBLOCK
 62
0
100
AcDbLine
 10
380.2583888087810
 20
156.0485404740680
 30
0.0000000000000000
 11
313.4432576998828
 21
156.0485404740680
 31
0.0000000000000000
  0
MTEXT
  5
29A
100
AcDbEntity
  8
MAIN0
  6
BYBLOCK
 62
0
100
AcDbMText
 10
313.3932577475665
 20
207.5485404740681
 30
0.0000000000000000
 40
3.099999904632568
 41
0.0000000000000000
 71
     5
 72
     1
  1
\A1;103
 11
6.123233995736766e-017
 21
1.000000000000000
 31
0.0000000000000000
  7
STANDARD
  0
ENDBLK
  5
29B
100
AcDbEntity
  8
MAIN0
  6
CONTINUOUS
 62
3
100
AcDbBlockEnd
  0
BLOCK
  5
29D
100
AcDbEntity
  8
MAIN0
  6
CONTINUOUS
 62
3
100
AcDbBlockBegin
  2
*D5
 70
    65
 10
0.0
 20
0.0
 30
0.0
  0
LINE
  5
29E
100
AcDbEntity
  8
MAIN0
  6
BYBLOCK
 62
0
100
AcDbLine
 10
397.5583888207020
 20
150.3952755780549
 30
0.0000000000000000
 11
397.5583888207020
 21
140.2033801575145
 31
0.0000000000000000
  0
LINE
  5
29F
100
AcDbEntity
  8
MAIN0
  6
BYBLOCK
 62
0
100
AcDbLine
 10
399.5583888207020
 20
142.2033801575145
 30
0.0000000000000000
 11
419.0583888207016
 21
142.2033801575145
 31
0.0000000000000000
  0
INSERT
  5
2A0
100
AcDbEntity
  8
MAIN0
  6
BYBLOCK
 62
0
100
AcDbBlockReference
  2
_OPEN
 10
397.5583888207020
 20
142.2033801575145
 30
0.0000000000000000
 41
2.000000000000000
 42
2.000000000000000
 43
2.000000000000000
 50
180.0000000000000
  0
INSERT
  5
2A1
100
AcDbEntity
  8
MAIN0
  6
BYBLOCK
 62
0
100
AcDbBlockReference
  2
_OPEN
 10
421.0583888207016
 20
142.2033801575145
 30
0.0000000000000000
 41
2.000000000000000
 42
2.000000000000000
 43
2.000000000000000
 50
0.0000000000000000
  0
LINE
  5
2A2
100
AcDbEntity
  8
MAIN0
  6
BYBLOCK
 62
0
100
AcDbLine
 10
421.0583888207016
 20
146.8741933106821
 30
0.0000000000000000
 11
421.0583888207016
 21
140.2033801575145
 31
0.0000000000000000
  0
MTEXT
  5
2A3
100
AcDbEntity
  8
MAIN0
  6
BYBLOCK
 62
0
100
AcDbMText
 10
409.3083888207018
 20
144.2533801098307
 30
0.0000000000000000
 40
3.099999904632568
 41
0.0000000000000000
 71
     5
 72
     1
  1
\A1;23.5
 11
1.000000000000000
 21
0.0000000000000000
 31
0.0000000000000000
  7
STANDARD
  0
ENDBLK
  5
2A4
100
AcDbEntity
  8
MAIN0
  6
CONTINUOUS
 62
3
100
AcDbBlockEnd
  0
BLOCK
  5
2A6
100
AcDbEntity
  8
MAIN0
  6
CONTINUOUS
 62
3
100
AcDbBlockBegin
  2
*D6
 70
    65
 10
0.0
 20
0.0
 30
0.0
  0
LINE
  5
2A7
100
AcDbEntity
  8
MAIN0
  6
BYBLOCK
 62
0
100
AcDbLine
 10
421.0583888207016
 20
146.8741933106821
 30
0.0000000000000000
 11
421.0583888207016
 21
140.2033801575145
 31
0.0000000000000000
  0
LINE
  5
2A8
100
AcDbEntity
  8
MAIN0
  6
BYBLOCK
 62
0
100
AcDbLine
 10
423.0583888207016
 20
142.2033801575145
 30
0.0000000000000000
 11
442.5583888207015
 21
142.2033801575145
 31
0.0000000000000000
  0
INSERT
  5
2A9
100
AcDbEntity
  8
MAIN0
  6
BYBLOCK
 62
0
100
AcDbBlockReference
  2
_OPEN
 10
421.0583888207016
 20
142.2033801575145
 30
0.0000000000000000
 41
2.000000000000000
 42
2.000000000000000
 43
2.000000000000000
 50
180.0000000000000
  0
INSERT
  5
2AA
100
AcDbEntity
  8
MAIN0
  6
BYBLOCK
 62
0
100
AcDbBlockReference
  2
_OPEN
 10
444.5583888207015
 20
142.2033801575145
 30
0.0000000000000000
 41
2.000000000000000
 42
2.000000000000000
 43
2.000000000000000
 50
0.0000000000000000
  0
LINE
  5
2AB
100
AcDbEntity
  8
MAIN0
  6
BYBLOCK
 62
0
100
AcDbLine
 10
444.5583888207015
 20
150.3952755780551
 30
0.0000000000000000
 11
444.5583888207015
 21
140.2033801575145
 31
0.0000000000000000
  0
MTEXT
  5
2AC
100
AcDbEntity
  8
MAIN0
  6
BYBLOCK
 62
0
100
AcDbMText
 10
432.8083888207016
 20
144.2533801098307
 30
0.0000000000000000
 40
3.099999904632568
 41
0.0000000000000000
 71
     5
 72
     1
  1
\A1;23.5
 11
1.000000000000000
 21
0.0000000000000000
 31
0.0000000000000000
  7
STANDARD
  0
ENDBLK
  5
2AD
100
AcDbEntity
  8
MAIN0
  6
CONTINUOUS
 62
3
100
AcDbBlockEnd
  0
BLOCK
  5
2B1
100
AcDbEntity
  8
MAIN0
  6
CONTINUOUS
 62
3
100
AcDbBlockBegin
  2
*D7
 70
    65
 10
0.0
 20
0.0
 30
0.0
  0
LINE
  5
2B2
100
AcDbEntity
  8
MAIN0
  6
BYBLOCK
 62
0
100
AcDbLine
 10
504.5020171542529
 20
206.6447411694505
 30
0.0000000000000000
 11
517.0152559436805
 21
183.5639460442400
 31
0.0000000000000000
  0
INSERT
  5
2B3
100
AcDbEntity
  8
MAIN0
  6
BYBLOCK
 62
0
100
AcDbBlockReference
  2
_OPEN
 10
503.5487947303805
 20
208.4029695421674
 30
0.0000000000000000
 41
2.000000000000000
 42
2.000000000000000
 43
2.000000000000000
 50
118.4643078122389
  0
LINE
  5
2B4
100
AcDbEntity
  8
MAIN0
  6
BYBLOCK
 62
0
100
AcDbLine
 10
517.0152559436804
 20
183.5639460442399
 30
0.0000000000000000
 11
534.2152559541112
 21
183.5639460442399
 31
0.0000000000000000
  0
MTEXT
  5
2B5
100
AcDbEntity
  8
MAIN0
  6
BYBLOCK
 62
0
100
AcDbMText
 10
525.6152559488958
 20
185.6139459965562
 30
0.0000000000000000
 40
3.099999904632568
 41
0.0000000000000000
 71
     5
 72
     1
  1
\A1;2-\U+220510H7
 11
1.000000000000000
 21
0.0000000000000000
 31
0.0000000000000000
  7
STANDARD
  0
ENDBLK
  5
2B6
100
AcDbEntity
  8
MAIN0
  6
CONTINUOUS
 62
3
100
AcDbBlockEnd
  0
BLOCK
  5
2B8
100
AcDbEntity
  8
MAIN0
  6
CONTINUOUS
 62
3
100
AcDbBlockBegin
  2
*D8
 70
    65
 10
0.0
 20
0.0
 30
0.0
  0
LINE
  5
2B9
100
AcDbEntity
  8
MAIN0
  6
BYBLOCK
 62
0
100
AcDbLine
 10
493.1793034994217
 20
327.7993314570023
 30
0.0000000000000000
 11
516.5297832640607
 21
339.4281211124011
 31
0.0000000000000000
  0
INSERT
  5
2BA
100
AcDbEntity
  8
MAIN0
  6
BYBLOCK
 62
0
100
AcDbBlockReference
  2
_OPEN
 10
491.3890268543713
 20
326.9077544641480
 30
0.0000000000000000
 41
2.000000000000000
 42
2.000000000000000
 43
2.000000000000000
 50
206.4737975801789
  0
LINE
  5
2BB
100
AcDbEntity
  8
MAIN0
  6
BYBLOCK
 62
0
100
AcDbLine
 10
516.5297832640608
 20
339.4281211124011
 30
0.0000000000000000
 11
529.5297832715114
 21
339.4281211124011
 31
0.0000000000000000
  0
MTEXT
  5
2BC
100
AcDbEntity
  8
MAIN0
  6
BYBLOCK
 62
0
100
AcDbMText
 10
523.0297832677861
 20
341.4781210647174
 30
0.0000000000000000
 40
3.099999904632568
 41
0.0000000000000000
 71
     5
 72
     1
  1
\A1;4-\U+220511
 11
1.000000000000000
 21
0.0000000000000000
 31
0.0000000000000000
  7
STANDARD
  0
ENDBLK
  5
2BD
100
AcDbEntity
  8
MAIN0
  6
CONTINUOUS
 62
3
100
AcDbBlockEnd
  0
BLOCK
  5
2CE
100
AcDbEntity
  8
MAIN0
  6
CONTINUOUS
 62
3
100
AcDbBlockBegin
  2
*D9
 70
    65
 10
0.0
 20
0.0
 30
0.0
  0
LINE
  5
2CF
100
AcDbEntity
  8
MAIN0
  6
BYBLOCK
 62
0
100
AcDbLine
 10
79.27764907422690
 20
206.0485096894890
 30
0.0000000000000000
 11
63.97341822309323
 21
206.0485096894890
 31
0.0000000000000000
  0
LINE
  5
2D0
100
AcDbEntity
  8
MAIN0
  6
BYBLOCK
 62
0
100
AcDbLine
 10
65.97341822309323
 20
204.0485096894890
 30
0.0000000000000000
 11
65.97341822309323
 21
194.0485096894890
 31
0.0000000000000000
  0
INSERT
  5
2D1
100
AcDbEntity
  8
MAIN0
  6
BYBLOCK
 62
0
100
AcDbBlockReference
  2
_OPEN
 10
65.97341822309323
 20
206.0485096894890
 30
0.0000000000000000
 41
2.000000000000000
 42
2.000000000000000
 43
2.000000000000000
 50
90.00000000000000
  0
INSERT
  5
2D2
100
AcDbEntity
  8
MAIN0
  6
BYBLOCK
 62
0
100
AcDbBlockReference
  2
_OPEN
 10
65.97341822309323
 20
192.0485096894890
 30
0.0000000000000000
 41
2.000000000000000
 42
2.000000000000000
 43
2.000000000000000
 50
270.0000000000000
  0
LINE
  5
2D3
100
AcDbEntity
  8
MAIN0
  6
BYBLOCK
 62
0
100
AcDbLine
 10
79.27764907422693
 20
192.0485096894890
 30
0.0000000000000000
 11
63.97341822309323
 21
192.0485096894890
 31
0.0000000000000000
  0
MTEXT
  5
2D4
100
AcDbEntity
  8
MAIN0
  6
BYBLOCK
 62
0
100
AcDbMText
 10
63.92341827077695
 20
199.0485096894890
 30
0.0000000000000000
 40
3.099999904632568
 41
0.0000000000000000
 71
     5
 72
     1
  1
\A1;\U+220514
 11
6.123233995736766e-017
 21
1.000000000000000
 31
0.0000000000000000
  7
STANDARD
  0
ENDBLK
  5
2D5
100
AcDbEntity
  8
MAIN0
  6
CONTINUOUS
 62
3
100
AcDbBlockEnd
  0
BLOCK
  5
2D7
100
AcDbEntity
  8
MAIN0
  6
CONTINUOUS
 62
3
100
AcDbBlockBegin
  2
*D10
 70
    65
 10
0.0
 20
0.0
 30
0.0
  0
LINE
  5
2D8
100
AcDbEntity
  8
MAIN0
  6
BYBLOCK
 62
0
100
AcDbLine
 10
80.07764908614794
 20
157.3485404621472
 30
0.0000000000000000
 11
80.07764908614794
 21
140.3944870203769
 31
0.0000000000000000
  0
LINE
  5
2D9
100
AcDbEntity
  8
MAIN0
  6
BYBLOCK
 62
0
100
AcDbLine
 10
82.07764908614794
 20
142.3944870203769
 30
0.0000000000000000
 11
108.0776490861479
 21
142.3944870203769
 31
0.0000000000000000
  0
INSERT
  5
2DA
100
AcDbEntity
  8
MAIN0
  6
BYBLOCK
 62
0
100
AcDbBlockReference
  2
_OPEN
 10
80.07764908614794
 20
142.3944870203769
 30
0.0000000000000000
 41
2.000000000000000
 42
2.000000000000000
 43
2.000000000000000
 50
180.0000000000000
  0
INSERT
  5
2DB
100
AcDbEntity
  8
MAIN0
  6
BYBLOCK
 62
0
100
AcDbBlockReference
  2
_OPEN
 10
110.0776490861479
 20
142.3944870203769
 30
0.0000000000000000
 41
2.000000000000000
 42
2.000000000000000
 43
2.000000000000000
 50
0.0000000000000000
  0
LINE
  5
2DC
100
AcDbEntity
  8
MAIN0
  6
BYBLOCK
 62
0
100
AcDbLine
 10
110.0776490861479
 20
148.8822466020715
 30
0.0000000000000000
 11
110.0776490861479
 21
140.3944870203769
 31
0.0000000000000000
  0
MTEXT
  5
2DD
100
AcDbEntity
  8
MAIN0
  6
BYBLOCK
 62
0
100
AcDbMText
 10
102.2667137663595
 20
144.5046651412346
 30
0.0000000000000000
 40
3.099999904632568
 41
0.0000000000000000
 71
     5
 72
     1
  1
\A1;30
 11
1.000000000000000
 21
0.0000000000000000
 31
0.0000000000000000
  7
STANDARD
  0
ENDBLK
  5
2DE
100
AcDbEntity
  8
MAIN0
  6
CONTINUOUS
 62
3
100
AcDbBlockEnd
  0
BLOCK
  5
2E0
100
AcDbEntity
  8
MAIN0
  6
CONTINUOUS
 62
3
100
AcDbBlockBegin
  2
*D11
 70
    65
 10
0.0
 20
0.0
 30
0.0
  0
LINE
  5
2E1
100
AcDbEntity
  8
MAIN0
  6
BYBLOCK
 62
0
100
AcDbLine
 10
80.07764908614794
 20
157.3485404621472
 30
0.0000000000000000
 11
80.07764908614794
 21
133.1122133669778
 31
0.0000000000000000
  0
LINE
  5
2E2
100
AcDbEntity
  8
MAIN0
  6
BYBLOCK
 62
0
100
AcDbLine
 10
82.07764908614794
 20
135.1122133669778
 30
0.0000000000000000
 11
93.07764908614766
 21
135.1122133669778
 31
0.0000000000000000
  0
INSERT
  5
2E3
100
AcDbEntity
  8
MAIN0
  6
BYBLOCK
 62
0
100
AcDbBlockReference
  2
_OPEN
 10
80.07764908614794
 20
135.1122133669778
 30
0.0000000000000000
 41
2.000000000000000
 42
2.000000000000000
 43
2.000000000000000
 50
180.0000000000000
  0
INSERT
  5
2E4
100
AcDbEntity
  8
MAIN0
  6
BYBLOCK
 62
0
100
AcDbBlockReference
  2
_OPEN
 10
95.07764908614766
 20
135.1122133669778
 30
0.0000000000000000
 41
2.000000000000000
 42
2.000000000000000
 43
2.000000000000000
 50
0.0000000000000000
  0
LINE
  5
2E5
100
AcDbEntity
  8
MAIN0
  6
BYBLOCK
 62
0
100
AcDbLine
 10
95.07764908614766
 20
155.2485404621473
 30
0.0000000000000000
 11
95.07764908614766
 21
133.1122133669778
 31
0.0000000000000000
  0
MTEXT
  5
2E6
100
AcDbEntity
  8
MAIN0
  6
BYBLOCK
 62
0
100
AcDbMText
 10
87.57764908614780
 20
137.1622133192940
 30
0.0000000000000000
 40
3.099999904632568
 41
0.0000000000000000
 71
     5
 72
     1
  1
\A1;15
 11
1.000000000000000
 21
0.0000000000000000
 31
0.0000000000000000
  7
STANDARD
  0
ENDBLK
  5
2E7
100
AcDbEntity
  8
MAIN0
  6
CONTINUOUS
 62
3
100
AcDbBlockEnd
  0
BLOCK
  5
2E9
100
AcDbEntity
  8
MAIN0
  6
CONTINUOUS
 62
3
100
AcDbBlockBegin
  2
*D12
 70
    65
 10
0.0
 20
0.0
 30
0.0
  0
LINE
  5
2EA
100
AcDbEntity
  8
MAIN0
  6
BYBLOCK
 62
0
100
AcDbLine
 10
95.07764908614766
 20
155.2485404621473
 30
0.0000000000000000
 11
95.07764908614766
 21
133.1122133669778
 31
0.0000000000000000
  0
LINE
  5
2EB
100
AcDbEntity
  8
MAIN0
  6
BYBLOCK
 62
0
100
AcDbLine
 10
97.07764908614766
 20
135.1122133669778
 30
0.0000000000000000
 11
123.0776490861477
 21
135.1122133669778
 31
0.0000000000000000
  0
INSERT
  5
2EC
100
AcDbEntity
  8
MAIN0
  6
BYBLOCK
 62
0
100
AcDbBlockReference
  2
_OPEN
 10
95.07764908614766
 20
135.1122133669778
 30
0.0000000000000000
 41
2.000000000000000
 42
2.000000000000000
 43
2.000000000000000
 50
180.0000000000000
  0
INSERT
  5
2ED
100
AcDbEntity
  8
MAIN0
  6
BYBLOCK
 62
0
100
AcDbBlockReference
  2
_OPEN
 10
125.0776490861477
 20
135.1122133669778
 30
0.0000000000000000
 41
2.000000000000000
 42
2.000000000000000
 43
2.000000000000000
 50
0.0000000000000000
  0
LINE
  5
2EE
100
AcDbEntity
  8
MAIN0
  6
BYBLOCK
 62
0
100
AcDbLine
 10
125.0776490861477
 20
155.2485404621471
 30
0.0000000000000000
 11
125.0776490861477
 21
133.1122133669778
 31
0.0000000000000000
  0
MTEXT
  5
2EF
100
AcDbEntity
  8
MAIN0
  6
BYBLOCK
 62
0
100
AcDbMText
 10
110.0776490861477
 20
137.1622133192940
 30
0.0000000000000000
 40
3.099999904632568
 41
0.0000000000000000
 71
     5
 72
     1
  1
\A1;30
 11
1.000000000000000
 21
0.0000000000000000
 31
0.0000000000000000
  7
STANDARD
  0
ENDBLK
  5
2F0
100
AcDbEntity
  8
MAIN0
  6
CONTINUOUS
 62
3
100
AcDbBlockEnd
  0
BLOCK
  5
2F2
100
AcDbEntity
  8
MAIN0
  6
CONTINUOUS
 62
3
100
AcDbBlockBegin
  2
*D13
 70
    65
 10
0.0
 20
0.0
 30
0.0
  0
LINE
  5
2F3
100
AcDbEntity
  8
MAIN0
  6
BYBLOCK
 62
0
100
AcDbLine
 10
80.07764908614794
 20
157.3485404621472
 30
0.0000000000000000
 11
80.07764908614794
 21
126.3901072477102
 31
0.0000000000000000
  0
LINE
  5
2F4
100
AcDbEntity
  8
MAIN0
  6
BYBLOCK
 62
0
100
AcDbLine
 10
82.07764908614794
 20
128.3901072477102
 30
0.0000000000000000
 11
182.5776490861472
 21
128.3901072477102
 31
0.0000000000000000
  0
INSERT
  5
2F5
100
AcDbEntity
  8
MAIN0
  6
BYBLOCK
 62
0
100
AcDbBlockReference
  2
_OPEN
 10
80.07764908614794
 20
128.3901072477102
 30
0.0000000000000000
 41
2.000000000000000
 42
2.000000000000000
 43
2.000000000000000
 50
180.0000000000000
  0
INSERT
  5
2F6
100
AcDbEntity
  8
MAIN0
  6
BYBLOCK
 62
0
100
AcDbBlockReference
  2
_OPEN
 10
184.5776490861472
 20
128.3901072477102
 30
0.0000000000000000
 41
2.000000000000000
 42
2.000000000000000
 43
2.000000000000000
 50
0.0000000000000000
  0
LINE
  5
2F7
100
AcDbEntity
  8
MAIN0
  6
BYBLOCK
 62
0
100
AcDbLine
 10
184.5776490861472
 20
175.9985404621476
 30
0.0000000000000000
 11
184.5776490861472
 21
126.3901072477102
 31
0.0000000000000000
  0
MTEXT
  5
2F8
100
AcDbEntity
  8
MAIN0
  6
BYBLOCK
 62
0
100
AcDbMText
 10
132.3276490861476
 20
130.4401072000265
 30
0.0000000000000000
 40
3.099999904632568
 41
0.0000000000000000
 71
     5
 72
     1
  1
\A1;104.5
 11
1.000000000000000
 21
0.0000000000000000
 31
0.0000000000000000
  7
STANDARD
  0
ENDBLK
  5
2F9
100
AcDbEntity
  8
MAIN0
  6
CONTINUOUS
 62
3
100
AcDbBlockEnd
  0
BLOCK
  5
2FB
100
AcDbEntity
  8
MAIN0
  6
CONTINUOUS
 62
3
100
AcDbBlockBegin
  2
*D14
 70
    65
 10
0.0
 20
0.0
 30
0.0
  0
LINE
  5
2FC
100
AcDbEntity
  8
MAIN0
  6
BYBLOCK
 62
0
100
AcDbLine
 10
167.0776490861473
 20
220.7485404621473
 30
0.0000000000000000
 11
167.0776490861473
 21
215.1699818653569
 31
0.0000000000000000
  0
LINE
  5
2FD
100
AcDbEntity
  8
MAIN0
  6
BYBLOCK
 62
0
100
AcDbLine
 10
169.0776490861473
 20
217.1699818653569
 30
0.0000000000000000
 11
182.0776490861474
 21
217.1699818653569
 31
0.0000000000000000
  0
INSERT
  5
2FE
100
AcDbEntity
  8
MAIN0
  6
BYBLOCK
 62
0
100
AcDbBlockReference
  2
_OPEN
 10
167.0776490861473
 20
217.1699818653569
 30
0.0000000000000000
 41
2.000000000000000
 42
2.000000000000000
 43
2.000000000000000
 50
180.0000000000000
  0
INSERT
  5
2FF
100
AcDbEntity
  8
MAIN0
  6
BYBLOCK
 62
0
100
AcDbBlockReference
  2
_OPEN
 10
184.0776490861474
 20
217.1699818653569
 30
0.0000000000000000
 41
2.000000000000000
 42
2.000000000000000
 43
2.000000000000000
 50
0.0000000000000000
  0
MTEXT
  5
300
100
AcDbEntity
  8
MAIN0
  6
BYBLOCK
 62
0
100
AcDbMText
 10
175.5776490861474
 20
219.2199818176732
 30
0.0000000000000000
 40
3.099999904632568
 41
0.0000000000000000
 71
     5
 72
     1
  1
\A1;17
 11
1.000000000000000
 21
0.0000000000000000
 31
0.0000000000000000
  7
STANDARD
  0
ENDBLK
  5
301
100
AcDbEntity
  8
MAIN0
  6
CONTINUOUS
 62
3
100
AcDbBlockEnd
  0
BLOCK
  5
303
100
AcDbEntity
  8
MAIN0
  6
CONTINUOUS
 62
3
100
AcDbBlockBegin
  2
*D15
 70
    65
 10
0.0
 20
0.0
 30
0.0
  0
LINE
  5
304
100
AcDbEntity
  8
MAIN0
  6
BYBLOCK
 62
0
100
AcDbLine
 10
183.5776490861473
 20
210.7485404621475
 30
0.0000000000000000
 11
183.5776490861472
 21
201.5513638461813
 31
0.0000000000000000
  0
LINE
  5
305
100
AcDbEntity
  8
MAIN0
  6
BYBLOCK
 62
0
100
AcDbLine
 10
183.5776490861472
 20
203.5513638461813
 30
0.0000000000000000
 11
184.5776490861472
 21
203.5513638461813
 31
0.0000000000000000
  0
INSERT
  5
306
100
AcDbEntity
  8
MAIN0
  6
BYBLOCK
 62
0
100
AcDbBlockReference
  2
_OPEN
 10
183.5776490861472
 20
203.5513638461813
 30
0.0000000000000000
 41
2.000000000000000
 42
2.000000000000000
 43
2.000000000000000
 50
0.0000000000000000
  0
INSERT
  5
307
100
AcDbEntity
  8
MAIN0
  6
BYBLOCK
 62
0
100
AcDbBlockReference
  2
_OPEN
 10
184.5776490861472
 20
203.5513638461813
 30
0.0000000000000000
 41
2.000000000000000
 42
2.000000000000000
 43
2.000000000000000
 50
180.0000000000000
  0
LINE
  5
308
100
AcDbEntity
  8
MAIN0
  6
BYBLOCK
 62
0
100
AcDbLine
 10
181.5776490861472
 20
203.5513638461813
 30
0.0000000000000000
 11
177.7174820596275
 21
203.5513638461813
 31
0.0000000000000000
  0
LINE
  5
309
100
AcDbEntity
  8
MAIN0
  6
BYBLOCK
 62
0
100
AcDbLine
 10
186.5776490861472
 20
203.5513638461813
 30
0.0000000000000000
 11
187.5776490861472
 21
203.5513638461813
 31
0.0000000000000000
  0
MTEXT
  5
30A
100
AcDbEntity
  8
MAIN0
  6
BYBLOCK
 62
0
100
AcDbMText
 10
178.7674820598746
 20
205.6013637984976
 30
0.0000000000000000
 40
3.099999904632568
 41
0.0000000000000000
 71
     5
 72
     1
  1
\A1;1
 11
1.000000000000000
 21
0.0000000000000000
 31
0.0000000000000000
  7
STANDARD
  0
ENDBLK
  5
30B
100
AcDbEntity
  8
MAIN0
  6
CONTINUOUS
 62
3
100
AcDbBlockEnd
  0
BLOCK
  5
30D
100
AcDbEntity
  8
MAIN0
  6
CONTINUOUS
 62
3
100
AcDbBlockBegin
  2
*D16
 70
    65
 10
0.0
 20
0.0
 30
0.0
  0
LINE
  5
30E
100
AcDbEntity
  8
MAIN0
  6
BYBLOCK
 62
0
100
AcDbLine
 10
184.0776490861474
 20
215.7485404621761
 30
0.0000000000000000
 11
184.0776490861474
 21
204.9304183341317
 31
0.0000000000000000
  0
LINE
  5
30F
100
AcDbEntity
  8
MAIN0
  6
BYBLOCK
 62
0
100
AcDbLine
 10
184.0776490861474
 20
206.9304183341317
 30
0.0000000000000000
 11
184.5776490861473
 21
206.9304183341317
 31
0.0000000000000000
  0
INSERT
  5
310
100
AcDbEntity
  8
MAIN0
  6
BYBLOCK
 62
0
100
AcDbBlockReference
  2
_OPEN
 10
184.0776490861474
 20
206.9304183341317
 30
0.0000000000000000
 41
2.000000000000000
 42
2.000000000000000
 43
2.000000000000000
 50
0.0000000000000000
  0
INSERT
  5
311
100
AcDbEntity
  8
MAIN0
  6
BYBLOCK
 62
0
100
AcDbBlockReference
  2
_OPEN
 10
184.5776490861473
 20
206.9304183341317
 30
0.0000000000000000
 41
2.000000000000000
 42
2.000000000000000
 43
2.000000000000000
 50
180.0000000000000
  0
LINE
  5
312
100
AcDbEntity
  8
MAIN0
  6
BYBLOCK
 62
0
100
AcDbLine
 10
182.0776490861474
 20
206.9304183341317
 30
0.0000000000000000
 11
181.0776490861474
 21
206.9304183341317
 31
0.0000000000000000
  0
LINE
  5
313
100
AcDbEntity
  8
MAIN0
  6
BYBLOCK
 62
0
100
AcDbLine
 10
186.5776490861473
 20
206.9304183341317
 30
0.0000000000000000
 11
192.1690263444481
 21
206.9304183341317
 31
0.0000000000000000
  0
MTEXT
  5
314
100
AcDbEntity
  8
MAIN0
  6
BYBLOCK
 62
0
100
AcDbMText
 10
189.5190264891027
 20
208.9804182864480
 30
0.0000000000000000
 40
3.099999904632568
 41
0.0000000000000000
 71
     5
 72
     1
  1
\A1;0.5
 11
1.000000000000000
 21
0.0000000000000000
 31
0.0000000000000000
  7
STANDARD
  0
ENDBLK
  5
315
100
AcDbEntity
  8
MAIN0
  6
CONTINUOUS
 62
3
100
AcDbBlockEnd
  0
BLOCK
  5
317
100
AcDbEntity
  8
MAIN0
  6
CONTINUOUS
 62
3
100
AcDbBlockBegin
  2
D17
 70
    64
 10
0.0
 20
0.0
 30
0.0
  0
LINE
  5
318
100
AcDbEntity
  8
MAIN0
  6
BYBLOCK
 62
0
100
AcDbLine
 10
12.06918839355615
 20
-6.299999586216842
 30
0.0000000000000000
 11
12.06918839355615
 21
-42.49999999997112
 31
0.0000000000000000
  0
LINE
  5
319
100
AcDbEntity
  8
MAIN0
  6
BYBLOCK
 62
0
100
AcDbLine
 10
12.66918841739800
 20
-40.49999999997112
 30
0.0000000000000000
 11
12.06918839355615
 21
-42.49999999997112
 31
0.0000000000000000
  0
LINE
  5
31A
100
AcDbEntity
  8
MAIN0
  6
BYBLOCK
 62
0
100
AcDbLine
 10
12.06918839355615
 20
-42.49999999997112
 30
0.0000000000000000
 11
11.46918836971429
 21
-40.49999999997112
 31
0.0000000000000000
  0
LINE
  5
31B
100
AcDbEntity
  8
MAIN0
  6
BYBLOCK
 62
0
100
AcDbLine
 10
-13.05316250837569
 20
-42.49999999997112
 30
0.0000000000000000
 11
14.06918839355615
 21
-42.49999999997112
 31
0.0000000000000000
  0
MTEXT
  5
31C
100
AcDbEntity
  8
MAIN0
  6
BYBLOCK
 62
0
100
AcDbMText
 10
10.01918844123986
 20
-22.49999999997112
 30
0.0000000000000000
 40
3.099999904632568
 41
0.0000000000000000
 71
     5
 72
     1
  1
\A1;\U+220585
 11
6.123233995736766e-017
 21
1.000000000000000
 31
0.0000000000000000
  7
STANDARD
  0
ENDBLK
  5
31D
100
AcDbEntity
  8
MAIN0
  6
CONTINUOUS
 62
3
100
AcDbBlockEnd
  0
BLOCK
  5
31F
100
AcDbEntity
  8
MAIN0
  6
CONTINUOUS
 62
3
100
AcDbBlockBegin
  2
D18
 70
    64
 10
0.0
 20
0.0
 30
0.0
  0
LINE
  5
320
100
AcDbEntity
  8
MAIN0
  6
BYBLOCK
 62
0
100
AcDbLine
 10
32.06918839355615
 20
-5.648540182152033
 30
0.0000000000000000
 11
32.06918839355615
 21
-47.49999999999994
 31
0.0000000000000000
  0
LINE
  5
321
100
AcDbEntity
  8
MAIN0
  6
BYBLOCK
 62
0
100
AcDbLine
 10
32.66918841739800
 20
-45.49999999999994
 30
0.0000000000000000
 11
32.06918839355615
 21
-47.49999999999994
 31
0.0000000000000000
  0
LINE
  5
322
100
AcDbEntity
  8
MAIN0
  6
BYBLOCK
 62
0
100
AcDbLine
 10
32.06918839355615
 20
-47.49999999999994
 30
0.0000000000000000
 11
31.46918836971429
 21
-45.49999999999994
 31
0.0000000000000000
  0
LINE
  5
323
100
AcDbEntity
  8
MAIN0
  6
BYBLOCK
 62
0
100
AcDbLine
 10
-12.55316250837558
 20
-47.49999999999994
 30
0.0000000000000000
 11
34.06918839355615
 21
-47.49999999999994
 31
0.0000000000000000
  0
MTEXT
  5
324
100
AcDbEntity
  8
MAIN0
  6
BYBLOCK
 62
0
100
AcDbMText
 10
30.01918844123986
 20
-9.048540474068204
 30
0.0000000000000000
 40
3.099999904632568
 41
0.0000000000000000
 71
     5
 72
     1
  1
\A1;\U+220595
 11
6.123233995736766e-017
 21
1.000000000000000
 31
0.0000000000000000
  7
STANDARD
  0
ENDBLK
  5
325
100
AcDbEntity
  8
MAIN0
  6
CONTINUOUS
 62
3
100
AcDbBlockEnd
  0
BLOCK
  5
327
100
AcDbEntity
  8
MAIN0
  6
CONTINUOUS
 62
3
100
AcDbBlockBegin
  2
*D19
 70
    65
 10
0.0
 20
0.0
 30
0.0
  0
LINE
  5
328
100
AcDbEntity
  8
MAIN0
  6
BYBLOCK
 62
0
100
AcDbLine
 10
129.3776490862281
 20
261.3150287706797
 30
0.0000000000000000
 11
171.0776490861471
 21
261.3150287706797
 31
0.0000000000000000
  0
INSERT
  5
329
100
AcDbEntity
  8
MAIN0
  6
BYBLOCK
 62
0
100
AcDbBlockReference
  2
_OPEN
 10
127.3776490862281
 20
261.3150287706797
 30
0.0000000000000000
 41
2.000000000000000
 42
2.000000000000000
 43
2.000000000000000
 50
180.0000000000000
  0
INSERT
  5
32A
100
AcDbEntity
  8
MAIN0
  6
BYBLOCK
 62
0
100
AcDbBlockReference
  2
_OPEN
 10
173.0776490861471
 20
261.3150287706797
 30
0.0000000000000000
 41
2.000000000000000
 42
2.000000000000000
 43
2.000000000000000
 50
0.0000000000000000
  0
MTEXT
  5
32B
100
AcDbEntity
  8
MAIN0
  6
BYBLOCK
 62
0
100
AcDbMText
 10
154.3197302900620
 20
263.3650287229959
 30
0.0000000000000000
 40
3.099999904632568
 41
0.0000000000000000
 71
     5
 72
     1
  1
\A1;45.7
 11
1.000000000000000
 21
0.0000000000000000
 31
0.0000000000000000
  7
STANDARD
  0
ENDBLK
  5
32C
100
AcDbEntity
  8
MAIN0
  6
CONTINUOUS
 62
3
100
AcDbBlockEnd
  0
BLOCK
  5
32E
100
AcDbEntity
  8
MAIN0
  6
CONTINUOUS
 62
3
100
AcDbBlockBegin
  2
*D20
 70
    65
 10
0.0
 20
0.0
 30
0.0
  0
LINE
  5
32F
100
AcDbEntity
  8
MAIN0
  6
BYBLOCK
 62
0
100
AcDbLine
 10
151.5776490860835
 20
265.7377643128063
 30
0.0000000000000000
 11
171.0776490861471
 21
265.7377643128063
 31
0.0000000000000000
  0
INSERT
  5
330
100
AcDbEntity
  8
MAIN0
  6
BYBLOCK
 62
0
100
AcDbBlockReference
  2
_OPEN
 10
149.5776490860835
 20
265.7377643128063
 30
0.0000000000000000
 41
2.000000000000000
 42
2.000000000000000
 43
2.000000000000000
 50
180.0000000000000
  0
INSERT
  5
331
100
AcDbEntity
  8
MAIN0
  6
BYBLOCK
 62
0
100
AcDbBlockReference
  2
_OPEN
 10
173.0776490861471
 20
265.7377643128063
 30
0.0000000000000000
 41
2.000000000000000
 42
2.000000000000000
 43
2.000000000000000
 50
0.0000000000000000
  0
MTEXT
  5
332
100
AcDbEntity
  8
MAIN0
  6
BYBLOCK
 62
0
100
AcDbMText
 10
161.3276490861153
 20
267.7877642651226
 30
0.0000000000000000
 40
3.099999904632568
 41
0.0000000000000000
 71
     5
 72
     1
  1
\A1;23.5
 11
1.000000000000000
 21
0.0000000000000000
 31
0.0000000000000000
  7
STANDARD
  0
ENDBLK
  5
333
100
AcDbEntity
  8
MAIN0
  6
CONTINUOUS
 62
3
100
AcDbBlockEnd
  0
BLOCK
  5
335
100
AcDbEntity
  8
MAIN0
  6
CONTINUOUS
 62
3
100
AcDbBlockBegin
  2
*D21
 70
    65
 10
0.0
 20
0.0
 30
0.0
  0
LINE
  5
336
100
AcDbEntity
  8
MAIN0
  6
BYBLOCK
 62
0
100
AcDbLine
 10
178.0776490861474
 20
262.5000000000000
 30
0.0000000000000000
 11
184.0776490861474
 21
262.5000000000000
 31
0.0000000000000000
  0
INSERT
  5
337
100
AcDbEntity
  8
MAIN0
  6
BYBLOCK
 62
0
100
AcDbBlockReference
  2
_OPEN
 10
178.0776490861474
 20
262.5000000000000
 30
0.0000000000000000
 41
2.000000000000000
 42
2.000000000000000
 43
2.000000000000000
 50
0.0000000000000000
  0
INSERT
  5
338
100
AcDbEntity
  8
MAIN0
  6
BYBLOCK
 62
0
100
AcDbBlockReference
  2
_OPEN
 10
184.0776490861474
 20
262.5000000000000
 30
0.0000000000000000
 41
2.000000000000000
 42
2.000000000000000
 43
2.000000000000000
 50
180.0000000000000
  0
LINE
  5
339
100
AcDbEntity
  8
MAIN0
  6
BYBLOCK
 62
0
100
AcDbLine
 10
176.0776490861474
 20
262.5000000000000
 30
0.0000000000000000
 11
175.0776490861474
 21
262.5000000000000
 31
0.0000000000000000
  0
LINE
  5
33A
100
AcDbEntity
  8
MAIN0
  6
BYBLOCK
 62
0
100
AcDbLine
 10
186.0776490861474
 20
262.5000000000000
 30
0.0000000000000000
 11
197.0328721696435
 21
262.5000000000000
 31
0.0000000000000000
  0
MTEXT
  5
33B
100
AcDbEntity
  8
MAIN0
  6
BYBLOCK
 62
0
100
AcDbMText
 10
191.7828717265029
 20
264.5499999523163
 30
0.0000000000000000
 40
3.099999904632568
 41
0.0000000000000000
 71
     5
 72
     1
  1
\A1;MIN 6
 11
1.000000000000000
 21
0.0000000000000000
 31
0.0000000000000000
  7
STANDARD
  0
ENDBLK
  5
33C
100
AcDbEntity
  8
MAIN0
  6
CONTINUOUS
 62
3
100
AcDbBlockEnd
  0
BLOCK
  5
33E
100
AcDbEntity
  8
MAIN0
  6
CONTINUOUS
 62
3
100
AcDbBlockBegin
  2
*D22
 70
    65
 10
0.0
 20
0.0
 30
0.0
  0
LINE
  5
33F
100
AcDbEntity
  8
MAIN0
  6
BYBLOCK
 62
0
100
AcDbLine
 10
169.6692137715135
 20
269.5485404740678
 30
0.0000000000000000
 11
169.6692137715135
 21
248.5485404740682
 31
0.0000000000000000
  0
INSERT
  5
340
100
AcDbEntity
  8
MAIN0
  6
BYBLOCK
 62
0
100
AcDbBlockReference
  2
_OPEN
 10
169.6692137715135
 20
271.5485404740678
 30
0.0000000000000000
 41
2.000000000000000
 42
2.000000000000000
 43
2.000000000000000
 50
90.00000000000000
  0
INSERT
  5
341
100
AcDbEntity
  8
MAIN0
  6
BYBLOCK
 62
0
100
AcDbBlockReference
  2
_OPEN
 10
169.6692137715135
 20
246.5485404740682
 30
0.0000000000000000
 41
2.000000000000000
 42
2.000000000000000
 43
2.000000000000000
 50
270.0000000000000
  0
MTEXT
  5
342
100
AcDbEntity
  8
MAIN0
  6
BYBLOCK
 62
0
100
AcDbMText
 10
167.6192138191972
 20
253.7703680681236
 30
0.0000000000000000
 40
3.099999904632568
 41
0.0000000000000000
 71
     5
 72
     1
  1
\A1;\U+220525
 11
6.123233995736766e-017
 21
1.000000000000000
 31
0.0000000000000000
  7
STANDARD
  0
ENDBLK
  5
343
100
AcDbEntity
  8
MAIN0
  6
CONTINUOUS
 62
3
100
AcDbBlockEnd
  0
BLOCK
  5
345
100
AcDbEntity
  8
MAIN0
  6
CONTINUOUS
 62
3
100
AcDbBlockBegin
  2
*D23
 70
    65
 10
0.0
 20
0.0
 30
0.0
  0
LINE
  5
346
100
AcDbEntity
  8
MAIN0
  6
BYBLOCK
 62
0
100
AcDbLine
 10
183.8776490982632
 20
276.5485404740678
 30
0.0000000000000000
 11
199.9966270292884
 21
276.5485404740678
 31
0.0000000000000000
  0
LINE
  5
347
100
AcDbEntity
  8
MAIN0
  6
BYBLOCK
 62
0
100
AcDbLine
 10
197.9966270292884
 20
274.5485404740678
 30
0.0000000000000000
 11
197.9966270292884
 21
243.5485404740684
 31
0.0000000000000000
  0
INSERT
  5
348
100
AcDbEntity
  8
MAIN0
  6
BYBLOCK
 62
0
100
AcDbBlockReference
  2
_OPEN
 10
197.9966270292884
 20
276.5485404740678
 30
0.0000000000000000
 41
2.000000000000000
 42
2.000000000000000
 43
2.000000000000000
 50
90.00000000000000
  0
INSERT
  5
349
100
AcDbEntity
  8
MAIN0
  6
BYBLOCK
 62
0
100
AcDbBlockReference
  2
_OPEN
 10
197.9966270292884
 20
241.5485404740684
 30
0.0000000000000000
 41
2.000000000000000
 42
2.000000000000000
 43
2.000000000000000
 50
270.0000000000000
  0
LINE
  5
34A
100
AcDbEntity
  8
MAIN0
  6
BYBLOCK
 62
0
100
AcDbLine
 10
183.8776490982640
 20
241.5485404740683
 30
0.0000000000000000
 11
199.9966270292884
 21
241.5485404740684
 31
0.0000000000000000
  0
MTEXT
  5
34B
100
AcDbEntity
  8
MAIN0
  6
BYBLOCK
 62
0
100
AcDbMText
 10
195.9466270769721
 20
252.0485406044534
 30
0.0000000000000000
 40
3.099999904632568
 41
0.0000000000000000
 71
     5
 72
     1
  1
\A1;\U+220535\H0.903226x;\S+0.01^  0   ;
 11
6.123233995736766e-017
 21
1.000000000000000
 31
0.0000000000000000
  7
STANDARD
  0
ENDBLK
  5
34C
100
AcDbEntity
  8
MAIN0
  6
CONTINUOUS
 62
3
100
AcDbBlockEnd
  0
BLOCK
  5
34E
100
AcDbEntity
  8
MAIN0
  6
CONTINUOUS
 62
3
100
AcDbBlockBegin
  2
*D24
 70
    65
 10
0.0
 20
0.0
 30
0.0
  0
LINE
  5
34F
100
AcDbEntity
  8
MAIN0
  6
BYBLOCK
 62
0
100
AcDbLine
 10
128.1776490981606
 20
270.0485404740683
 30
0.0000000000000000
 11
135.7670250374656
 21
270.0485404740683
 31
0.0000000000000000
  0
LINE
  5
350
100
AcDbEntity
  8
MAIN0
  6
BYBLOCK
 62
0
100
AcDbLine
 10
133.7670250374656
 20
268.0485404740683
 30
0.0000000000000000
 11
133.7670250374656
 21
250.0485404740681
 31
0.0000000000000000
  0
INSERT
  5
351
100
AcDbEntity
  8
MAIN0
  6
BYBLOCK
 62
0
100
AcDbBlockReference
  2
_OPEN
 10
133.7670250374656
 20
270.0485404740683
 30
0.0000000000000000
 41
2.000000000000000
 42
2.000000000000000
 43
2.000000000000000
 50
90.00000000000000
  0
INSERT
  5
352
100
AcDbEntity
  8
MAIN0
  6
BYBLOCK
 62
0
100
AcDbBlockReference
  2
_OPEN
 10
133.7670250374656
 20
248.0485404740681
 30
0.0000000000000000
 41
2.000000000000000
 42
2.000000000000000
 43
2.000000000000000
 50
270.0000000000000
  0
LINE
  5
353
100
AcDbEntity
  8
MAIN0
  6
BYBLOCK
 62
0
100
AcDbLine
 10
128.1776490981604
 20
248.0485404740681
 30
0.0000000000000000
 11
135.7670250374656
 21
248.0485404740681
 31
0.0000000000000000
  0
MTEXT
  5
354
100
AcDbEntity
  8
MAIN0
  6
BYBLOCK
 62
0
100
AcDbMText
 10
131.7170250851493
 20
253.7703680681236
 30
0.0000000000000000
 40
3.099999904632568
 41
0.0000000000000000
 71
     5
 72
     1
  1
\A1;\U+220522
 11
6.123233995736766e-017
 21
1.000000000000000
 31
0.0000000000000000
  7
STANDARD
  0
ENDBLK
  5
355
100
AcDbEntity
  8
MAIN0
  6
CONTINUOUS
 62
3
100
AcDbBlockEnd
  0
BLOCK
  5
35A
100
AcDbEntity
  8
MAIN0
  6
CONTINUOUS
 62
3
100
AcDbBlockBegin
  2
*D25
 70
    65
 10
0.0
 20
0.0
 30
0.0
  0
LINE
  5
35B
100
AcDbEntity
  8
MAIN0
  6
BYBLOCK
 62
0
100
AcDbLine
 10
113.7069144458968
 20
263.5485404740684
 30
0.0000000000000000
 11
113.7069144458968
 21
254.5485404740684
 31
0.0000000000000000
  0
INSERT
  5
35C
100
AcDbEntity
  8
MAIN0
  6
BYBLOCK
 62
0
100
AcDbBlockReference
  2
_OPEN
 10
113.7069144458968
 20
265.5485404740684
 30
0.0000000000000000
 41
2.000000000000000
 42
2.000000000000000
 43
2.000000000000000
 50
90.00000000000000
  0
INSERT
  5
35D
100
AcDbEntity
  8
MAIN0
  6
BYBLOCK
 62
0
100
AcDbBlockReference
  2
_OPEN
 10
113.7069144458968
 20
252.5485404740684
 30
0.0000000000000000
 41
2.000000000000000
 42
2.000000000000000
 43
2.000000000000000
 50
270.0000000000000
  0
MTEXT
  5
35E
100
AcDbEntity
  8
MAIN0
  6
BYBLOCK
 62
0
100
AcDbMText
 10
111.6569144935805
 20
259.0485404740684
 30
0.0000000000000000
 40
3.099999904632568
 41
0.0000000000000000
 71
     5
 72
     1
  1
\A1;\U+220513
 11
6.123233995736766e-017
 21
1.000000000000000
 31
0.0000000000000000
  7
STANDARD
  0
ENDBLK
  5
35F
100
AcDbEntity
  8
MAIN0
  6
CONTINUOUS
 62
3
100
AcDbBlockEnd
  0
BLOCK
  5
363
100
AcDbEntity
  8
MAIN0
  6
CONTINUOUS
 62
3
100
AcDbBlockBegin
  2
*D26
 70
    65
 10
0.0
 20
0.0
 30
0.0
  0
LINE
  5
364
100
AcDbEntity
  8
MAIN0
  6
BYBLOCK
 62
0
100
AcDbLine
 10
227.3776490980679
 20
321.0485404740398
 30
0.0000000000000000
 11
242.0000000000000
 21
321.0485404740399
 31
0.0000000000000000
  0
LINE
  5
365
100
AcDbEntity
  8
MAIN0
  6
BYBLOCK
 62
0
100
AcDbLine
 10
240.0000000000000
 20
319.0485404740399
 30
0.0000000000000000
 11
240.0000000000000
 21
306.0485404740682
 31
0.0000000000000000
  0
INSERT
  5
366
100
AcDbEntity
  8
MAIN0
  6
BYBLOCK
 62
0
100
AcDbBlockReference
  2
_OPEN
 10
240.0000000000000
 20
321.0485404740399
 30
0.0000000000000000
 41
2.000000000000000
 42
2.000000000000000
 43
2.000000000000000
 50
90.00000000000000
  0
INSERT
  5
367
100
AcDbEntity
  8
MAIN0
  6
BYBLOCK
 62
0
100
AcDbBlockReference
  2
_OPEN
 10
240.0000000000000
 20
304.0485404740682
 30
0.0000000000000000
 41
2.000000000000000
 42
2.000000000000000
 43
2.000000000000000
 50
270.0000000000000
  0
LINE
  5
368
100
AcDbEntity
  8
MAIN0
  6
BYBLOCK
 62
0
100
AcDbLine
 10
229.4881669846988
 20
304.0485404740682
 30
0.0000000000000000
 11
242.0000000000000
 21
304.0485404740682
 31
0.0000000000000000
  0
MTEXT
  5
369
100
AcDbEntity
  8
MAIN0
  6
BYBLOCK
 62
0
100
AcDbMText
 10
237.9500000476837
 20
312.5485404740541
 30
0.0000000000000000
 40
3.099999904632568
 41
0.0000000000000000
 71
     5
 72
     1
  1
\A1;17
 11
6.123233995736766e-017
 21
1.000000000000000
 31
0.0000000000000000
  7
STANDARD
  0
ENDBLK
  5
36A
100
AcDbEntity
  8
MAIN0
  6
CONTINUOUS
 62
3
100
AcDbBlockEnd
  0
BLOCK
  5
36C
100
AcDbEntity
  8
MAIN0
  6
CONTINUOUS
 62
3
100
AcDbBlockBegin
  2
*D27
 70
    65
 10
0.0
 20
0.0
 30
0.0
  0
LINE
  5
36D
100
AcDbEntity
  8
MAIN0
  6
BYBLOCK
 62
0
100
AcDbLine
 10
227.3776490980682
 20
261.5485404740681
 30
0.0000000000000000
 11
252.0000000000000
 21
261.5485404740681
 31
0.0000000000000000
  0
LINE
  5
36E
100
AcDbEntity
  8
MAIN0
  6
BYBLOCK
 62
0
100
AcDbLine
 10
250.0000000000000
 20
263.5485404740681
 30
0.0000000000000000
 11
250.0000000000000
 21
319.0485404740398
 31
0.0000000000000000
  0
INSERT
  5
36F
100
AcDbEntity
  8
MAIN0
  6
BYBLOCK
 62
0
100
AcDbBlockReference
  2
_OPEN
 10
250.0000000000000
 20
261.5485404740681
 30
0.0000000000000000
 41
2.000000000000000
 42
2.000000000000000
 43
2.000000000000000
 50
270.0000000000000
  0
INSERT
  5
370
100
AcDbEntity
  8
MAIN0
  6
BYBLOCK
 62
0
100
AcDbBlockReference
  2
_OPEN
 10
250.0000000000000
 20
321.0485404740398
 30
0.0000000000000000
 41
2.000000000000000
 42
2.000000000000000
 43
2.000000000000000
 50
90.00000000000000
  0
LINE
  5
371
100
AcDbEntity
  8
MAIN0
  6
BYBLOCK
 62
0
100
AcDbLine
 10
227.3776490980679
 20
321.0485404740398
 30
0.0000000000000000
 11
252.0000000000000
 21
321.0485404740398
 31
0.0000000000000000
  0
MTEXT
  5
372
100
AcDbEntity
  8
MAIN0
  6
BYBLOCK
 62
0
100
AcDbMText
 10
247.9500000476837
 20
291.2985404740540
 30
0.0000000000000000
 40
3.099999904632568
 41
0.0000000000000000
 71
     5
 72
     1
  1
\A1;59.5
 11
6.123233995736766e-017
 21
1.000000000000000
 31
0.0000000000000000
  7
STANDARD
  0
ENDBLK
  5
373
100
AcDbEntity
  8
MAIN0
  6
CONTINUOUS
 62
3
100
AcDbBlockEnd
  0
BLOCK
  5
375
100
AcDbEntity
  8
MAIN0
  6
CONTINUOUS
 62
3
100
AcDbBlockBegin
  2
*D28
 70
    65
 10
0.0
 20
0.0
 30
0.0
  0
LINE
  5
376
100
AcDbEntity
  8
MAIN0
  6
BYBLOCK
 62
0
100
AcDbLine
 10
227.3776490980682
 20
261.5485404740681
 30
0.0000000000000000
 11
252.0000000000000
 21
261.5485404740681
 31
0.0000000000000000
  0
LINE
  5
377
100
AcDbEntity
  8
MAIN0
  6
BYBLOCK
 62
0
100
AcDbLine
 10
250.0000000000000
 20
261.5485404740681
 30
0.0000000000000000
 11
250.0000000000000
 21
259.0485404740682
 31
0.0000000000000000
  0
INSERT
  5
378
100
AcDbEntity
  8
MAIN0
  6
BYBLOCK
 62
0
100
AcDbBlockReference
  2
_OPEN
 10
250.0000000000000
 20
261.5485404740681
 30
0.0000000000000000
 41
2.000000000000000
 42
2.000000000000000
 43
2.000000000000000
 50
270.0000000000000
  0
INSERT
  5
379
100
AcDbEntity
  8
MAIN0
  6
BYBLOCK
 62
0
100
AcDbBlockReference
  2
_OPEN
 10
250.0000000000000
 20
259.0485404740682
 30
0.0000000000000000
 41
2.000000000000000
 42
2.000000000000000
 43
2.000000000000000
 50
90.00000000000000
  0
LINE
  5
37A
100
AcDbEntity
  8
MAIN0
  6
BYBLOCK
 62
0
100
AcDbLine
 10
250.0000000000000
 20
263.5485404740681
 30
0.0000000000000000
 11
250.0000000000000
 21
264.5485404740681
 31
0.0000000000000000
  0
LINE
  5
37B
100
AcDbEntity
  8
MAIN0
  6
BYBLOCK
 62
0
100
AcDbLine
 10
250.0000000000000
 20
257.0485404740682
 30
0.0000000000000000
 11
250.0000000000000
 21
240.8514217149129
 31
0.0000000000000000
  0
LINE
  5
37C
100
AcDbEntity
  8
MAIN0
  6
BYBLOCK
 62
0
100
AcDbLine
 10
198.7308116183648
 20
259.0485404740682
 30
0.0000000000000000
 11
252.0000000000000
 21
259.0485404740682
 31
0.0000000000000000
  0
MTEXT
  5
37D
100
AcDbEntity
  8
MAIN0
  6
BYBLOCK
 62
0
100
AcDbMText
 10
247.9500000476837
 20
248.7514218752705
 30
0.0000000000000000
 40
3.099999904632568
 41
0.0000000000000000
 71
     5
 72
     1
  1
\A1;MAX 3.75
 11
6.123233995736766e-017
 21
1.000000000000000
 31
0.0000000000000000
  7
STANDARD
  0
ENDBLK
  5
37E
100
AcDbEntity
  8
MAIN0
  6
CONTINUOUS
 62
3
100
AcDbBlockEnd
  0
BLOCK
  5
380
100
AcDbEntity
  8
MAIN0
  6
CONTINUOUS
 62
3
100
AcDbBlockBegin
  2
D29
 70
    64
 10
0.0
 20
0.0
 30
0.0
  0
LINE
  5
381
100
AcDbEntity
  8
MAIN0
  6
BYBLOCK
 62
0
100
AcDbLine
 10
62.06918839355615
 20
11.47835074307250
 30
0.0000000000000000
 11
62.06918839355615
 21
61.99999999997169
 31
0.0000000000000000
  0
LINE
  5
382
100
AcDbEntity
  8
MAIN0
  6
BYBLOCK
 62
0
100
AcDbLine
 10
61.46918836971429
 20
59.99999999997169
 30
0.0000000000000000
 11
62.06918839355615
 21
61.99999999997169
 31
0.0000000000000000
  0
LINE
  5
383
100
AcDbEntity
  8
MAIN0
  6
BYBLOCK
 62
0
100
AcDbLine
 10
62.06918839355615
 20
61.99999999997169
 30
0.0000000000000000
 11
62.66918841739800
 21
59.99999999997169
 31
0.0000000000000000
  0
LINE
  5
384
100
AcDbEntity
  8
MAIN0
  6
BYBLOCK
 62
0
100
AcDbLine
 10
29.44683749162402
 20
61.99999999997164
 30
0.0000000000000000
 11
64.06918839355615
 21
61.99999999997169
 31
0.0000000000000000
  0
MTEXT
  5
385
100
AcDbEntity
  8
MAIN0
  6
BYBLOCK
 62
0
100
AcDbMText
 10
60.01918844123986
 20
28.63016281144940
 30
0.0000000000000000
 40
3.099999904632568
 41
0.0000000000000000
 71
     5
 72
     1
  1
\A1;\U+2205124H6
 11
6.123233995736766e-017
 21
1.000000000000000
 31
0.0000000000000000
  7
STANDARD
  0
ENDBLK
  5
386
100
AcDbEntity
  8
MAIN0
  6
CONTINUOUS
 62
3
100
AcDbBlockEnd
  0
BLOCK
  5
38C
100
AcDbEntity
  8
MAIN0
  6
CONTINUOUS
 62
3
100
AcDbBlockBegin
  2
*D30
 70
    65
 10
0.0
 20
0.0
 30
0.0
  0
LINE
  5
38D
100
AcDbEntity
  8
MAIN0
  6
BYBLOCK
 62
0
100
AcDbLine
 10
79.87764907422681
 20
360.5485404740680
 30
0.0000000000000000
 11
52.53764315937920
 21
360.5485404740680
 31
0.0000000000000000
  0
LINE
  5
38E
100
AcDbEntity
  8
MAIN0
  6
BYBLOCK
 62
0
100
AcDbLine
 10
54.53764315937920
 20
358.5485404740680
 30
0.0000000000000000
 11
54.53764315937920
 21
159.5485404740681
 31
0.0000000000000000
  0
INSERT
  5
38F
100
AcDbEntity
  8
MAIN0
  6
BYBLOCK
 62
0
100
AcDbBlockReference
  2
_OPEN
 10
54.53764315937920
 20
360.5485404740680
 30
0.0000000000000000
 41
2.000000000000000
 42
2.000000000000000
 43
2.000000000000000
 50
90.00000000000000
  0
INSERT
  5
390
100
AcDbEntity
  8
MAIN0
  6
BYBLOCK
 62
0
100
AcDbBlockReference
  2
_OPEN
 10
54.53764315937920
 20
157.5485404740681
 30
0.0000000000000000
 41
2.000000000000000
 42
2.000000000000000
 43
2.000000000000000
 50
270.0000000000000
  0
LINE
  5
391
100
AcDbEntity
  8
MAIN0
  6
BYBLOCK
 62
0
100
AcDbLine
 10
79.87764907422687
 20
157.5485404740681
 30
0.0000000000000000
 11
52.53764315937920
 21
157.5485404740681
 31
0.0000000000000000
  0
MTEXT
  5
392
100
AcDbEntity
  8
MAIN0
  6
BYBLOCK
 62
0
100
AcDbMText
 10
52.48764320706292
 20
259.0485404032875
 30
0.0000000000000000
 40
3.099999904632568
 41
0.0000000000000000
 71
     5
 72
     1
  1
\A1;\U+2205203h7
 11
6.123233995736766e-017
 21
1.000000000000000
 31
0.0000000000000000
  7
STANDARD
  0
ENDBLK
  5
393
100
AcDbEntity
  8
MAIN0
  6
CONTINUOUS
 62
3
100
AcDbBlockEnd
  0
BLOCK
  5
395
100
AcDbEntity
  8
MAIN0
  6
CONTINUOUS
 62
3
100
AcDbBlockBegin
  2
*D31
 70
    65
 10
0.0
 20
0.0
 30
0.0
  0
LINE
  5
396
100
AcDbEntity
  8
MAIN0
  6
BYBLOCK
 62
0
100
AcDbLine
 10
201.5776490861471
 20
280.2045868684286
 30
0.0000000000000000
 11
224.5776490861469
 21
280.2045868684286
 31
0.0000000000000000
  0
INSERT
  5
397
100
AcDbEntity
  8
MAIN0
  6
BYBLOCK
 62
0
100
AcDbBlockReference
  2
_OPEN
 10
199.5776490861471
 20
280.2045868684286
 30
0.0000000000000000
 41
2.000000000000000
 42
2.000000000000000
 43
2.000000000000000
 50
180.0000000000000
  0
INSERT
  5
398
100
AcDbEntity
  8
MAIN0
  6
BYBLOCK
 62
0
100
AcDbBlockReference
  2
_OPEN
 10
226.5776490861469
 20
280.2045868684286
 30
0.0000000000000000
 41
2.000000000000000
 42
2.000000000000000
 43
2.000000000000000
 50
0.0000000000000000
  0
MTEXT
  5
399
100
AcDbEntity
  8
MAIN0
  6
BYBLOCK
 62
0
100
AcDbMText
 10
213.0776490861470
 20
282.2545868207449
 30
0.0000000000000000
 40
3.099999904632568
 41
0.0000000000000000
 71
     5
 72
     1
  1
\A1;27
 11
1.000000000000000
 21
0.0000000000000000
 31
0.0000000000000000
  7
STANDARD
  0
ENDBLK
  5
39A
100
AcDbEntity
  8
MAIN0
  6
CONTINUOUS
 62
3
100
AcDbBlockEnd
  0
BLOCK
  5
39C
100
AcDbEntity
  8
MAIN0
  6
CONTINUOUS
 62
3
100
AcDbBlockBegin
  2
*D32
 70
    65
 10
0.0
 20
0.0
 30
0.0
  0
LINE
  5
39D
100
AcDbEntity
  8
MAIN0
  6
BYBLOCK
 62
0
100
AcDbLine
 10
408.0583888207015
 20
288.3014748245309
 30
0.0000000000000000
 11
434.0583888207016
 21
288.3014748245309
 31
0.0000000000000000
  0
INSERT
  5
39E
100
AcDbEntity
  8
MAIN0
  6
BYBLOCK
 62
0
100
AcDbBlockReference
  2
_OPEN
 10
406.0583888207015
 20
288.3014748245309
 30
0.0000000000000000
 41
2.000000000000000
 42
2.000000000000000
 43
2.000000000000000
 50
180.0000000000000
  0
INSERT
  5
39F
100
AcDbEntity
  8
MAIN0
  6
BYBLOCK
 62
0
100
AcDbBlockReference
  2
_OPEN
 10
436.0583888207016
 20
288.3014748245309
 30
0.0000000000000000
 41
2.000000000000000
 42
2.000000000000000
 43
2.000000000000000
 50
0.0000000000000000
  0
MTEXT
  5
3A0
100
AcDbEntity
  8
MAIN0
  6
BYBLOCK
 62
0
100
AcDbMText
 10
423.9885011017392
 20
290.3514747768472
 30
0.0000000000000000
 40
3.099999904632568
 41
0.0000000000000000
 71
     5
 72
     1
  1
\A1;30
 11
1.000000000000000
 21
0.0000000000000000
 31
0.0000000000000000
  7
STANDARD
  0
ENDBLK
  5
3A1
100
AcDbEntity
  8
MAIN0
  6
CONTINUOUS
 62
3
100
AcDbBlockEnd
  0
BLOCK
  5
3A3
100
AcDbEntity
  8
MAIN0
  6
CONTINUOUS
 62
3
100
AcDbBlockBegin
  2
*D33
 70
    65
 10
0.0
 20
0.0
 30
0.0
  0
LINE
  5
3A4
100
AcDbEntity
  8
MAIN0
  6
BYBLOCK
 62
0
100
AcDbLine
 10
421.0583888207017
 20
259.0485404740683
 30
0.0000000000000000
 11
391.9187970458900
 21
208.8999194442002
 31
0.0000000000000000
  0
INSERT
  5
3A5
100
AcDbEntity
  8
MAIN0
  6
BYBLOCK
 62
0
100
AcDbBlockReference
  2
_OPEN
 10
390.9139835364136
 20
207.1706566500669
 30
0.0000000000000000
 41
2.000000000000000
 42
2.000000000000000
 43
2.000000000000000
 50
239.8406422349527
  0
MTEXT
  5
3A6
100
AcDbEntity
  8
MAIN0
  6
BYBLOCK
 62
0
100
AcDbMText
 10
392.9592419534847
 20
214.7708621783962
 30
0.0000000000000000
 40
3.099999904632568
 41
0.0000000000000000
 71
     5
 72
     1
  1
\A1;Ｒ60
 11
0.5024067547381339
 21
0.8646313970666902
 31
0.0000000000000000
  7
KNJYOKO
  0
ENDBLK
  5
3A7
100
AcDbEntity
  8
MAIN0
  6
CONTINUOUS
 62
3
100
AcDbBlockEnd
  0
BLOCK
  5
3AA
100
AcDbEntity
  8
MAIN0
  6
CONTINUOUS
 62
3
100
AcDbBlockBegin
  2
*D34
 70
    65
 10
0.0
 20
0.0
 30
0.0
  0
LINE
  5
3AB
100
AcDbEntity
  8
MAIN0
  6
BYBLOCK
 62
0
100
AcDbLine
 10
182.0776490861472
 20
284.6820747222661
 30
0.0000000000000000
 11
124.5776490862393
 21
284.6820747222661
 31
0.0000000000000000
  0
INSERT
  5
3AC
100
AcDbEntity
  8
MAIN0
  6
BYBLOCK
 62
0
100
AcDbBlockReference
  2
_OPEN
 10
184.0776490861472
 20
284.6820747222661
 30
0.0000000000000000
 41
2.000000000000000
 42
2.000000000000000
 43
2.000000000000000
 50
360.0000000000000
  0
INSERT
  5
3AD
100
AcDbEntity
  8
MAIN0
  6
BYBLOCK
 62
0
100
AcDbBlockReference
  2
_OPEN
 10
122.5776490862393
 20
284.6820747222661
 30
0.0000000000000000
 41
2.000000000000000
 42
2.000000000000000
 43
2.000000000000000
 50
180.0000000000000
  0
LINE
  5
3AE
100
AcDbEntity
  8
MAIN0
  6
BYBLOCK
 62
0
100
AcDbLine
 10
122.5776490862393
 20
270.2711902168164
 30
0.0000000000000000
 11
122.5776490862393
 21
286.6820747222661
 31
0.0000000000000000
  0
MTEXT
  5
3AF
100
AcDbEntity
  8
MAIN0
  6
BYBLOCK
 62
0
100
AcDbMText
 10
153.3276490861932
 20
286.7320746745824
 30
0.0000000000000000
 40
3.099999904632568
 41
0.0000000000000000
 71
     5
 72
     1
  1
\A1;61.5
 11
1.000000000000000
 21
0.0000000000000000
 31
0.0000000000000000
  7
STANDARD
  0
ENDBLK
  5
3B0
100
AcDbEntity
  8
MAIN0
  6
CONTINUOUS
 62
3
100
AcDbBlockEnd
  0
BLOCK
  5
3B2
100
AcDbEntity
  8
MAIN0
  6
CONTINUOUS
 62
3
100
AcDbBlockBegin
  2
*D35
 70
    65
 10
0.0
 20
0.0
 30
0.0
  0
LINE
  5
3B3
100
AcDbEntity
  8
MAIN0
  6
BYBLOCK
 62
0
100
AcDbLine
 10
122.5776490862393
 20
270.2711902168164
 30
0.0000000000000000
 11
122.5776490862393
 21
286.6820747222661
 31
0.0000000000000000
  0
LINE
  5
3B4
100
AcDbEntity
  8
MAIN0
  6
BYBLOCK
 62
0
100
AcDbLine
 10
120.5776490862393
 20
284.6820747222661
 30
0.0000000000000000
 11
99.57764908623939
 21
284.6820747222661
 31
0.0000000000000000
  0
INSERT
  5
3B5
100
AcDbEntity
  8
MAIN0
  6
BYBLOCK
 62
0
100
AcDbBlockReference
  2
_OPEN
 10
122.5776490862393
 20
284.6820747222661
 30
0.0000000000000000
 41
2.000000000000000
 42
2.000000000000000
 43
2.000000000000000
 50
360.0000000000000
  0
INSERT
  5
3B6
100
AcDbEntity
  8
MAIN0
  6
BYBLOCK
 62
0
100
AcDbBlockReference
  2
_OPEN
 10
97.57764908623939
 20
284.6820747222661
 30
0.0000000000000000
 41
2.000000000000000
 42
2.000000000000000
 43
2.000000000000000
 50
180.0000000000000
  0
LINE
  5
3B7
100
AcDbEntity
  8
MAIN0
  6
BYBLOCK
 62
0
100
AcDbLine
 10
97.57764908623939
 20
266.3485404859719
 30
0.0000000000000000
 11
97.57764908623939
 21
286.6820747222661
 31
0.0000000000000000
  0
MTEXT
  5
3B8
100
AcDbEntity
  8
MAIN0
  6
BYBLOCK
 62
0
100
AcDbMText
 10
110.0776490862393
 20
286.7320746745824
 30
0.0000000000000000
 40
3.099999904632568
 41
0.0000000000000000
 71
     5
 72
     1
  1
\A1;25
 11
1.000000000000000
 21
0.0000000000000000
 31
0.0000000000000000
  7
STANDARD
  0
ENDBLK
  5
3B9
100
AcDbEntity
  8
MAIN0
  6
CONTINUOUS
 62
3
100
AcDbBlockEnd
  0
BLOCK
  5
3C0
100
AcDbEntity
  8
MAIN0
  6
CONTINUOUS
 62
3
100
AcDbBlockBegin
  2
*D36
 70
    65
 10
0.0
 20
0.0
 30
0.0
  0
LINE
  5
3C1
100
AcDbEntity
  8
MAIN0
  6
BYBLOCK
 62
0
100
AcDbLine
 10
459.0583888207019
 20
133.6423608978330
 30
0.0000000000000000
 11
383.0583888207020
 21
133.6423608978330
 31
0.0000000000000000
  0
INSERT
  5
3C2
100
AcDbEntity
  8
MAIN0
  6
BYBLOCK
 62
0
100
AcDbBlockReference
  2
_OPEN
 10
461.0583888207019
 20
133.6423608978330
 30
0.0000000000000000
 41
2.000000000000000
 42
2.000000000000000
 43
2.000000000000000
 50
360.0000000000000
  0
INSERT
  5
3C3
100
AcDbEntity
  8
MAIN0
  6
BYBLOCK
 62
0
100
AcDbBlockReference
  2
_OPEN
 10
381.0583888207020
 20
133.6423608978330
 30
0.0000000000000000
 41
2.000000000000000
 42
2.000000000000000
 43
2.000000000000000
 50
180.0000000000000
  0
MTEXT
  5
3C4
100
AcDbEntity
  8
MAIN0
  6
BYBLOCK
 62
0
100
AcDbMText
 10
421.0583888207020
 20
135.6923608501493
 30
0.0000000000000000
 40
3.099999904632568
 41
0.0000000000000000
 71
     5
 72
     1
  1
\A1;80
 11
1.000000000000000
 21
0.0000000000000000
 31
0.0000000000000000
  7
STANDARD
  0
ENDBLK
  5
3C5
100
AcDbEntity
  8
MAIN0
  6
CONTINUOUS
 62
3
100
AcDbBlockEnd
  0
BLOCK
  5
3C7
100
AcDbEntity
  8
MAIN0
  6
CONTINUOUS
 62
3
100
AcDbBlockBegin
  2
*D37
 70
    65
 10
0.0
 20
0.0
 30
0.0
  0
LINE
  5
3C8
100
AcDbEntity
  8
MAIN0
  6
BYBLOCK
 62
0
100
AcDbLine
 10
311.7898039865385
 20
259.0485404740683
 30
0.0000000000000000
 11
303.6464334218172
 21
259.0485404740683
 31
0.0000000000000000
  0
LINE
  5
3C9
100
AcDbEntity
  8
MAIN0
  6
BYBLOCK
 62
0
100
AcDbLine
 10
305.6464334218172
 20
257.0485404740683
 30
0.0000000000000000
 11
305.6464334218172
 21
123.0485404740680
 31
0.0000000000000000
  0
INSERT
  5
3CA
100
AcDbEntity
  8
MAIN0
  6
BYBLOCK
 62
0
100
AcDbBlockReference
  2
_OPEN
 10
305.6464334218172
 20
259.0485404740683
 30
0.0000000000000000
 41
2.000000000000000
 42
2.000000000000000
 43
2.000000000000000
 50
90.00000000000000
  0
INSERT
  5
3CB
100
AcDbEntity
  8
MAIN0
  6
BYBLOCK
 62
0
100
AcDbBlockReference
  2
_OPEN
 10
305.6464334218172
 20
121.0485404740680
 30
0.0000000000000000
 41
2.000000000000000
 42
2.000000000000000
 43
2.000000000000000
 50
270.0000000000000
  0
LINE
  5
3CC
100
AcDbEntity
  8
MAIN0
  6
BYBLOCK
 62
0
100
AcDbLine
 10
380.2583888087810
 20
121.0485404740680
 30
0.0000000000000000
 11
303.6464334218172
 21
121.0485404740680
 31
0.0000000000000000
  0
MTEXT
  5
3CD
100
AcDbEntity
  8
MAIN0
  6
BYBLOCK
 62
0
100
AcDbMText
 10
303.5964334695009
 20
190.0485404740681
 30
0.0000000000000000
 40
3.099999904632568
 41
0.0000000000000000
 71
     5
 72
     1
  1
\A1;（138）
 11
6.123233995736766e-017
 21
1.000000000000000
 31
0.0000000000000000
  7
KNJYOKO
  0
ENDBLK
  5
3CE
100
AcDbEntity
  8
MAIN0
  6
CONTINUOUS
 62
3
100
AcDbBlockEnd
  0
BLOCK
  5
3E6
100
AcDbEntity
  8
MAIN0
  6
CONTINUOUS
 62
3
100
AcDbBlockBegin
  2
*D38
 70
    65
 10
0.0
 20
0.0
 30
0.0
  0
LINE
  5
3E7
100
AcDbEntity
  8
MAIN0
  6
BYBLOCK
 62
0
100
AcDbLine
 10
179.3776490980681
 20
341.5985404740679
 30
0.0000000000000000
 11
272.0000000000000
 21
341.5985404740679
 31
0.0000000000000000
  0
LINE
  5
3E8
100
AcDbEntity
  8
MAIN0
  6
BYBLOCK
 62
0
100
AcDbLine
 10
270.0000000000000
 20
339.5985404740679
 30
0.0000000000000000
 11
270.0000000000000
 21
178.4985404740685
 31
0.0000000000000000
  0
INSERT
  5
3E9
100
AcDbEntity
  8
MAIN0
  6
BYBLOCK
 62
0
100
AcDbBlockReference
  2
_OPEN
 10
270.0000000000000
 20
341.5985404740679
 30
0.0000000000000000
 41
2.000000000000000
 42
2.000000000000000
 43
2.000000000000000
 50
90.00000000000000
  0
INSERT
  5
3EA
100
AcDbEntity
  8
MAIN0
  6
BYBLOCK
 62
0
100
AcDbBlockReference
  2
_OPEN
 10
270.0000000000000
 20
176.4985404740685
 30
0.0000000000000000
 41
2.000000000000000
 42
2.000000000000000
 43
2.000000000000000
 50
270.0000000000000
  0
LINE
  5
3EB
100
AcDbEntity
  8
MAIN0
  6
BYBLOCK
 62
0
100
AcDbLine
 10
174.9564767392466
 20
176.4985404740686
 30
0.0000000000000000
 11
272.0000000000000
 21
176.4985404740685
 31
0.0000000000000000
  0
MTEXT
  5
3EC
100
AcDbEntity
  8
MAIN0
  6
BYBLOCK
 62
0
100
AcDbMText
 10
267.9500000476837
 20
259.0485404330900
 30
0.0000000000000000
 40
3.099999904632568
 41
0.0000000000000000
 71
     5
 72
     1
  1
\A1;\U+2205165.1\H0.903226x;\S 0^ -0.1;
 11
6.123233995736766e-017
 21
1.000000000000000
 31
0.0000000000000000
  7
STANDARD
  0
ENDBLK
  5
3ED
100
AcDbEntity
  8
MAIN0
  6
CONTINUOUS
 62
3
100
AcDbBlockEnd
  0
BLOCK
  5
3F0
100
AcDbEntity
  8
MAIN0
  6
CONTINUOUS
 62
3
100
AcDbBlockBegin
  2
*D39
 70
    65
 10
0.0
 20
0.0
 30
0.0
  0
LINE
  5
3F1
100
AcDbEntity
  8
MAIN0
  6
BYBLOCK
 62
0
100
AcDbLine
 10
79.27764907422687
 20
211.5485404740679
 30
0.0000000000000000
 11
63.97341822309323
 21
211.5485404740679
 31
0.0000000000000000
  0
LINE
  5
3F2
100
AcDbEntity
  8
MAIN0
  6
BYBLOCK
 62
0
100
AcDbLine
 10
65.97341822309323
 20
213.5485404740679
 30
0.0000000000000000
 11
65.97341822309323
 21
304.5485404740681
 31
0.0000000000000000
  0
INSERT
  5
3F3
100
AcDbEntity
  8
MAIN0
  6
BYBLOCK
 62
0
100
AcDbBlockReference
  2
_OPEN
 10
65.97341822309323
 20
211.5485404740679
 30
0.0000000000000000
 41
2.000000000000000
 42
2.000000000000000
 43
2.000000000000000
 50
270.0000000000000
  0
INSERT
  5
3F4
100
AcDbEntity
  8
MAIN0
  6
BYBLOCK
 62
0
100
AcDbBlockReference
  2
_OPEN
 10
65.97341822309323
 20
306.5485404740681
 30
0.0000000000000000
 41
2.000000000000000
 42
2.000000000000000
 43
2.000000000000000
 50
90.00000000000000
  0
LINE
  5
3F5
100
AcDbEntity
  8
MAIN0
  6
BYBLOCK
 62
0
100
AcDbLine
 10
79.27764907422674
 20
306.5485404740681
 30
0.0000000000000000
 11
63.97341822309323
 21
306.5485404740681
 31
0.0000000000000000
  0
MTEXT
  5
3F6
100
AcDbEntity
  8
MAIN0
  6
BYBLOCK
 62
0
100
AcDbMText
 10
63.92341827077695
 20
259.0485404740680
 30
0.0000000000000000
 40
3.099999904632568
 41
0.0000000000000000
 71
     5
 72
     1
  1
\A1;\U+220595
 11
6.123233995736766e-017
 21
1.000000000000000
 31
0.0000000000000000
  7
STANDARD
  0
ENDBLK
  5
3F7
100
AcDbEntity
  8
MAIN0
  6
CONTINUOUS
 62
3
100
AcDbBlockEnd
  0
BLOCK
  5
3F9
100
AcDbEntity
  8
MAIN0
  6
CONTINUOUS
 62
3
100
AcDbBlockBegin
  2
*D40
 70
    65
 10
0.0
 20
0.0
 30
0.0
  0
LINE
  5
3FA
100
AcDbEntity
  8
MAIN0
  6
BYBLOCK
 62
0
100
AcDbLine
 10
80.57764907700005
 20
284.9251697467390
 30
0.0000000000000000
 11
80.07764908614789
 21
284.9251697467390
 31
0.0000000000000000
  0
INSERT
  5
3FB
100
AcDbEntity
  8
MAIN0
  6
BYBLOCK
 62
0
100
AcDbBlockReference
  2
_OPEN
 10
80.57764907700005
 20
284.9251697467390
 30
0.0000000000000000
 41
2.000000000000000
 42
2.000000000000000
 43
2.000000000000000
 50
180.0000000000000
  0
INSERT
  5
3FC
100
AcDbEntity
  8
MAIN0
  6
BYBLOCK
 62
0
100
AcDbBlockReference
  2
_OPEN
 10
80.07764908614789
 20
284.9251697467390
 30
0.0000000000000000
 41
2.000000000000000
 42
2.000000000000000
 43
2.000000000000000
 50
360.0000000000000
  0
LINE
  5
3FD
100
AcDbEntity
  8
MAIN0
  6
BYBLOCK
 62
0
100
AcDbLine
 10
82.57764907700005
 20
284.9251697467390
 30
0.0000000000000000
 11
83.57764907700005
 21
284.9251697467390
 31
0.0000000000000000
  0
LINE
  5
3FE
100
AcDbEntity
  8
MAIN0
  6
BYBLOCK
 62
0
100
AcDbLine
 10
78.07764908614789
 20
284.9251697467390
 30
0.0000000000000000
 11
71.16508576217328
 21
284.9251697467390
 31
0.0000000000000000
  0
MTEXT
  5
3FF
100
AcDbEntity
  8
MAIN0
  6
BYBLOCK
 62
0
100
AcDbMText
 10
73.81508546359351
 20
286.9751696990553
 30
0.0000000000000000
 40
3.099999904632568
 41
0.0000000000000000
 71
     5
 72
     1
  1
\A1;0.5
 11
1.000000000000000
 21
0.0000000000000000
 31
0.0000000000000000
  7
STANDARD
  0
ENDBLK
  5
400
100
AcDbEntity
  8
MAIN0
  6
CONTINUOUS
 62
3
100
AcDbBlockEnd
  0
BLOCK
  5
411
100
AcDbEntity
  8
MAIN0
  6
CONTINUOUS
 62
3
100
AcDbBlockBegin
  2
*D41
 70
    65
 10
0.0
 20
0.0
 30
0.0
  0
LINE
  5
412
100
AcDbEntity
  8
MAIN0
  6
BYBLOCK
 62
0
100
AcDbLine
 10
474.0545962246076
 20
332.4082842086411
 30
0.0000000000000000
 11
368.0621814167961
 21
185.6887967394954
 31
0.0000000000000000
  0
INSERT
  5
413
100
AcDbEntity
  8
MAIN0
  6
BYBLOCK
 62
0
100
AcDbBlockReference
  2
_OPEN
 10
475.2257831285613
 20
334.0294940149300
 30
0.0000000000000000
 41
2.000000000000000
 42
2.000000000000000
 43
2.000000000000000
 50
54.15507425671524
  0
INSERT
  5
414
100
AcDbEntity
  8
MAIN0
  6
BYBLOCK
 62
0
100
AcDbBlockReference
  2
_OPEN
 10
366.8909945128424
 20
184.0675869332065
 30
0.0000000000000000
 41
2.000000000000000
 42
2.000000000000000
 43
2.000000000000000
 50
234.1550742567152
  0
LINE
  5
415
100
AcDbEntity
  8
MAIN0
  6
BYBLOCK
 62
0
100
AcDbLine
 10
475.2257831285613
 20
334.0294940149300
 30
0.0000000000000000
 11
500.1538506144644
 21
368.5360508450555
 31
0.0000000000000000
  0
MTEXT
  5
416
100
AcDbEntity
  8
MAIN0
  6
BYBLOCK
 62
0
100
AcDbMText
 10
494.0269599462112
 20
363.5556541986207
 30
0.0000000000000000
 40
3.099999904632568
 41
0.0000000000000000
 71
     5
 72
     1
  1
\A1;\U+2205185\H0.903226x;\U+00B10.2
 11
0.5855934519768588
 21
0.8106049031444520
 31
0.0000000000000000
  7
STANDARD
  0
ENDBLK
  5
417
100
AcDbEntity
  8
MAIN0
  6
CONTINUOUS
 62
3
100
AcDbBlockEnd
  0
BLOCK
  5
419
100
AcDbEntity
  8
MAIN0
  6
CONTINUOUS
 62
3
100
AcDbBlockBegin
  2
*D42
 70
    65
 10
0.0
 20
0.0
 30
0.0
  0
LINE
  5
41A
100
AcDbEntity
  8
MAIN0
  6
BYBLOCK
 62
0
100
AcDbLine
 10
505.0953566131967
 20
225.4622628559217
 30
0.0000000000000000
 11
337.0214210282073
 21
292.6348180922149
 31
0.0000000000000000
  0
INSERT
  5
41B
100
AcDbEntity
  8
MAIN0
  6
BYBLOCK
 62
0
100
AcDbBlockReference
  2
_OPEN
 10
506.9525271721468
 20
224.7200246765151
 30
0.0000000000000000
 41
2.000000000000000
 42
2.000000000000000
 43
2.000000000000000
 50
338.2153489945195
  0
INSERT
  5
41C
100
AcDbEntity
  8
MAIN0
  6
BYBLOCK
 62
0
100
AcDbBlockReference
  2
_OPEN
 10
335.1642504692571
 20
293.3770562716214
 30
0.0000000000000000
 41
2.000000000000000
 42
2.000000000000000
 43
2.000000000000000
 50
158.2153489945195
  0
LINE
  5
41D
100
AcDbEntity
  8
MAIN0
  6
BYBLOCK
 62
0
100
AcDbLine
 10
506.9525271721468
 20
224.7200246765151
 30
0.0000000000000000
 11
543.2778329845531
 21
210.2022256931906
 31
0.0000000000000000
  0
MTEXT
  5
41E
100
AcDbEntity
  8
MAIN0
  6
BYBLOCK
 62
0
100
AcDbMText
 10
536.9581634923271
 20
214.9356088715041
 30
0.0000000000000000
 40
3.099999904632568
 41
0.0000000000000000
 71
     5
 72
     1
  1
\A1;\U+2205185\H0.903226x;\U+00B10.2
 11
0.9285852794750789
 21
-0.3711190897032781
 31
0.0000000000000000
  7
STANDARD
  0
ENDBLK
  5
41F
100
AcDbEntity
  8
MAIN0
  6
CONTINUOUS
 62
3
100
AcDbBlockEnd
  0
BLOCK
  5
432
100
AcDbEntity
  8
MAIN0
  6
CONTINUOUS
 62
3
100
AcDbBlockBegin
  2
*D43
 70
    65
 10
0.0
 20
0.0
 30
0.0
  0
LINE
  5
433
100
AcDbEntity
  8
MAIN0
  6
BYBLOCK
 62
0
100
AcDbLine
 10
198.7308116183648
 20
259.0485404740682
 30
0.0000000000000000
 11
242.0000000000000
 21
259.0485404740682
 31
0.0000000000000000
  0
LINE
  5
434
100
AcDbEntity
  8
MAIN0
  6
BYBLOCK
 62
0
100
AcDbLine
 10
240.0000000000000
 20
257.0485404740682
 30
0.0000000000000000
 11
240.0000000000000
 21
196.5485404739223
 31
0.0000000000000000
  0
INSERT
  5
435
100
AcDbEntity
  8
MAIN0
  6
BYBLOCK
 62
0
100
AcDbBlockReference
  2
_OPEN
 10
240.0000000000000
 20
259.0485404740682
 30
0.0000000000000000
 41
2.000000000000000
 42
2.000000000000000
 43
2.000000000000000
 50
90.00000000000000
  0
INSERT
  5
436
100
AcDbEntity
  8
MAIN0
  6
BYBLOCK
 62
0
100
AcDbBlockReference
  2
_OPEN
 10
240.0000000000000
 20
194.5485404739223
 30
0.0000000000000000
 41
2.000000000000000
 42
2.000000000000000
 43
2.000000000000000
 50
270.0000000000000
  0
LINE
  5
437
100
AcDbEntity
  8
MAIN0
  6
BYBLOCK
 62
0
100
AcDbLine
 10
185.3776490980682
 20
194.5485404739223
 30
0.0000000000000000
 11
242.0000000000000
 21
194.5485404739223
 31
0.0000000000000000
  0
MTEXT
  5
438
100
AcDbEntity
  8
MAIN0
  6
BYBLOCK
 62
0
100
AcDbMText
 10
237.9500000476837
 20
226.7985404739953
 30
0.0000000000000000
 40
3.099999904632568
 41
0.0000000000000000
 71
     5
 72
     1
  1
\A1;64.5
 11
6.123233995736766e-017
 21
1.000000000000000
 31
0.0000000000000000
  7
STANDARD
  0
ENDBLK
  5
439
100
AcDbEntity
  8
MAIN0
  6
CONTINUOUS
 62
3
100
AcDbBlockEnd
  0
BLOCK
  5
43B
100
AcDbEntity
  8
MAIN0
  6
CONTINUOUS
 62
3
100
AcDbBlockBegin
  2
*D44
 70
    65
 10
0.0
 20
0.0
 30
0.0
  0
LINE
  5
43C
100
AcDbEntity
  8
MAIN0
  6
BYBLOCK
 62
0
100
AcDbLine
 10
453.7939973090304
 20
263.2174656231774
 30
0.0000000000000000
 11
388.3227803323734
 21
254.8796153249587
 31
0.0000000000000000
  0
INSERT
  5
43D
100
AcDbEntity
  8
MAIN0
  6
BYBLOCK
 62
0
100
AcDbBlockReference
  2
_OPEN
 10
455.7779735810503
 20
263.4701277534264
 30
0.0000000000000000
 41
2.000000000000000
 42
2.000000000000000
 43
2.000000000000000
 50
7.257629605855186
  0
INSERT
  5
43E
100
AcDbEntity
  8
MAIN0
  6
BYBLOCK
 62
0
100
AcDbBlockReference
  2
_OPEN
 10
386.3388040603535
 20
254.6269531947097
 30
0.0000000000000000
 41
2.000000000000000
 42
2.000000000000000
 43
2.000000000000000
 50
187.2576296058552
  0
MTEXT
  5
43F
100
AcDbEntity
  8
MAIN0
  6
BYBLOCK
 62
0
100
AcDbMText
 10
434.3753881143190
 20
262.8110357316766
 30
0.0000000000000000
 40
3.099999904632568
 41
0.0000000000000000
 71
     5
 72
     1
  1
\A1;\U+220570\H0.903226x;\U+00B10.2
 11
0.9919881360099541
 21
0.1263310651245249
 31
0.0000000000000000
  7
STANDARD
  0
ENDBLK
  5
440
100
AcDbEntity
  8
MAIN0
  6
CONTINUOUS
 62
3
100
AcDbBlockEnd
  0
BLOCK
  5
442
100
AcDbEntity
  8
MAIN0
  6
CONTINUOUS
 62
3
100
AcDbBlockBegin
  2
*D45
 70
    65
 10
0.0
 20
0.0
 30
0.0
  0
LINE
  5
443
100
AcDbEntity
  8
MAIN0
  6
BYBLOCK
 62
0
100
AcDbLine
 10
443.0071273329237
 20
254.0985023204677
 30
0.0000000000000000
 11
399.1096503084796
 21
263.9985786276686
 31
0.0000000000000000
  0
INSERT
  5
444
100
AcDbEntity
  8
MAIN0
  6
BYBLOCK
 62
0
100
AcDbBlockReference
  2
_OPEN
 10
444.9581263117879
 20
253.6584989290366
 30
0.0000000000000000
 41
2.000000000000000
 42
2.000000000000000
 43
2.000000000000000
 50
347.2908674080879
  0
INSERT
  5
445
100
AcDbEntity
  8
MAIN0
  6
BYBLOCK
 62
0
100
AcDbBlockReference
  2
_OPEN
 10
397.1586513296155
 20
264.4385820190997
 30
0.0000000000000000
 41
2.000000000000000
 42
2.000000000000000
 43
2.000000000000000
 50
167.2908674080879
  0
LINE
  5
446
100
AcDbEntity
  8
MAIN0
  6
BYBLOCK
 62
0
100
AcDbLine
 10
444.9581263117879
 20
253.6584989290366
 30
0.0000000000000000
 11
458.3772950199712
 21
250.6321110089236
 31
0.0000000000000000
  0
MTEXT
  5
447
100
AcDbEntity
  8
MAIN0
  6
BYBLOCK
 62
0
100
AcDbMText
 10
452.4143894139353
 20
254.0783960490042
 30
0.0000000000000000
 40
3.099999904632568
 41
0.0000000000000000
 71
     5
 72
     1
  1
\A1;\U+220549\H0.903226x;\U+00B10.2
 11
0.9754994894320915
 21
-0.2200016957155755
 31
0.0000000000000000
  7
STANDARD
  0
ENDBLK
  5
448
100
AcDbEntity
  8
MAIN0
  6
CONTINUOUS
 62
3
100
AcDbBlockEnd
  0
BLOCK
  5
457
100
AcDbEntity
  8
MAIN0
  6
CONTINUOUS
 62
3
100
AcDbBlockBegin
  2
*D46
 70
    65
 10
0.0
 20
0.0
 30
0.0
  0
LINE
  5
458
100
AcDbEntity
  8
MAIN0
  6
BYBLOCK
 62
0
100
AcDbLine
 10
494.0667829859514
 20
186.0401463087621
 30
0.0000000000000000
 11
503.5076865446810
 21
176.5992427500251
 31
0.0000000000000000
  0
LINE
  5
459
100
AcDbEntity
  8
MAIN0
  6
BYBLOCK
 62
0
100
AcDbLine
 10
510.7389755709532
 20
207.2714295725647
 30
0.0000000000000000
 11
522.0377433579436
 21
200.7480829492142
 31
0.0000000000000000
  0
ARC
  5
45A
100
AcDbEntity
  8
MAIN0
  6
BYBLOCK
 62
0
100
AcDbCircle
 10
421.0583888207016
 20
259.0485404740683
 30
0.0000000000000000
 40
114.6009150494339
100
AcDbArc
 50
315.9999183599381
 51
329.0000816399620
  0
INSERT
  5
45B
100
AcDbEntity
  8
MAIN0
  6
BYBLOCK
 62
0
100
AcDbBlockReference
  2
_OPEN
 10
502.0934729823084
 20
178.0134563123988
 30
0.0000000000000000
 41
2.000000000000000
 42
2.000000000000000
 43
2.000000000000000
 50
224.9999999999778
  0
INSERT
  5
45C
100
AcDbEntity
  8
MAIN0
  6
BYBLOCK
 62
0
100
AcDbBlockReference
  2
_OPEN
 10
520.3056925503759
 20
201.7480829492165
 30
0.0000000000000000
 41
2.000000000000000
 42
2.000000000000000
 43
2.000000000000000
 50
59.99999999992218
  0
MTEXT
  5
45D
100
AcDbEntity
  8
MAIN0
  6
BYBLOCK
 62
0
100
AcDbMText
 10
510.3510332657754
 20
190.5318845632300
 30
0.0000000000000000
 40
3.099999904632568
 41
0.0000000000000000
 71
     5
 72
     1
  1
\A1;15\U+00B0
 11
0.6087614290094128
 21
0.7933533402907042
 31
0.0000000000000000
  7
STANDARD
  0
ENDBLK
  5
45E
100
AcDbEntity
  8
MAIN0
  6
CONTINUOUS
 62
3
100
AcDbBlockEnd
  0
BLOCK
  5
460
100
AcDbEntity
  8
MAIN0
  6
CONTINUOUS
 62
3
100
AcDbBlockBegin
  2
*D47
 70
    65
 10
0.0
 20
0.0
 30
0.0
  0
LINE
  5
461
100
AcDbEntity
  8
MAIN0
  6
BYBLOCK
 62
0
100
AcDbLine
 10
510.7389755709532
 20
207.2714295725647
 30
0.0000000000000000
 11
522.0377433579436
 21
200.7480829492142
 31
0.0000000000000000
  0
LINE
  5
462
100
AcDbEntity
  8
MAIN0
  6
BYBLOCK
 62
0
100
AcDbLine
 10
528.6267929690461
 20
259.0485404740683
 30
0.0000000000000000
 11
537.6593038701356
 21
259.0485404740684
 31
0.0000000000000000
  0
ARC
  5
463
100
AcDbEntity
  8
MAIN0
  6
BYBLOCK
 62
0
100
AcDbCircle
 10
421.0583888207016
 20
259.0485404740683
 30
0.0000000000000000
 40
114.6009150494339
100
AcDbArc
 50
330.9999183598824
 51
359.0000816400398
  0
INSERT
  5
464
100
AcDbEntity
  8
MAIN0
  6
BYBLOCK
 62
0
100
AcDbBlockReference
  2
_OPEN
 10
520.3056925503759
 20
201.7480829492165
 30
0.0000000000000000
 41
2.000000000000000
 42
2.000000000000000
 43
2.000000000000000
 50
239.9999999999222
  0
INSERT
  5
465
100
AcDbEntity
  8
MAIN0
  6
BYBLOCK
 62
0
100
AcDbBlockReference
  2
_OPEN
 10
535.6593038701356
 20
259.0485404740683
 30
0.0000000000000000
 41
2.000000000000000
 42
2.000000000000000
 43
2.000000000000000
 50
90.00000000000000
  0
MTEXT
  5
466
100
AcDbEntity
  8
MAIN0
  6
BYBLOCK
 62
0
100
AcDbMText
 10
529.7742245037753
 20
229.9182201715123
 30
0.0000000000000000
 40
3.099999904632568
 41
0.0000000000000000
 71
     5
 72
     1
  1
\A1;30\U+00B0\H0.903226x;\U+00B10.2\U+00B0
 11
0.2588190451031768
 21
0.9659258262888925
 31
0.0000000000000000
  7
STANDARD
  0
ENDBLK
  5
467
100
AcDbEntity
  8
MAIN0
  6
CONTINUOUS
 62
3
100
AcDbBlockEnd
  0
BLOCK
  5
469
100
AcDbEntity
  8
MAIN0
  6
CONTINUOUS
 62
3
100
AcDbBlockBegin
  2
*D48
 70
    65
 10
0.0
 20
0.0
 30
0.0
  0
LINE
  5
46A
100
AcDbEntity
  8
MAIN0
  6
BYBLOCK
 62
0
100
AcDbLine
 10
528.6267929690461
 20
259.0485404740683
 30
0.0000000000000000
 11
537.6593038701356
 21
259.0485404740684
 31
0.0000000000000000
  0
LINE
  5
46B
100
AcDbEntity
  8
MAIN0
  6
BYBLOCK
 62
0
100
AcDbLine
 10
494.0667829860079
 20
332.0569346393173
 30
0.0000000000000000
 11
503.5076865447452
 21
341.4978381980470
 31
0.0000000000000000
  0
ARC
  5
46C
100
AcDbEntity
  8
MAIN0
  6
BYBLOCK
 62
0
100
AcDbCircle
 10
421.0583888207016
 20
259.0485404740683
 30
0.0000000000000000
 40
114.6009150494339
100
AcDbArc
 50
0.9999183599601692
 51
44.00008164001730
  0
INSERT
  5
46D
100
AcDbEntity
  8
MAIN0
  6
BYBLOCK
 62
0
100
AcDbBlockReference
  2
_OPEN
 10
535.6593038701356
 20
259.0485404740683
 30
0.0000000000000000
 41
2.000000000000000
 42
2.000000000000000
 43
2.000000000000000
 50
270.0000000000000
  0
INSERT
  5
46E
100
AcDbEntity
  8
MAIN0
  6
BYBLOCK
 62
0
100
AcDbBlockReference
  2
_OPEN
 10
502.0934729823716
 20
340.0836246356747
 30
0.0000000000000000
 41
2.000000000000000
 42
2.000000000000000
 43
2.000000000000000
 50
134.9999999999775
  0
MTEXT
  5
46F
100
AcDbEntity
  8
MAIN0
  6
BYBLOCK
 62
0
100
AcDbMText
 10
525.0418756443527
 20
302.1199109792447
 30
0.0000000000000000
 40
3.099999904632568
 41
0.0000000000000000
 71
     5
 72
     1
  1
\A1;45\U+00B0
 11
-0.3826834323649079
 21
0.9238795325113621
 31
0.0000000000000000
  7
STANDARD
  0
ENDBLK
  5
470
100
AcDbEntity
  8
MAIN0
  6
CONTINUOUS
 62
3
100
AcDbBlockEnd
  0
BLOCK
  5
472
100
AcDbEntity
  8
MAIN0
  6
CONTINUOUS
 62
3
100
AcDbBlockBegin
  2
*D49
 70
    65
 10
0.0
 20
0.0
 30
0.0
  0
LINE
  5
473
100
AcDbEntity
  8
MAIN0
  6
BYBLOCK
 62
0
100
AcDbLine
 10
494.0667829860079
 20
332.0569346393173
 30
0.0000000000000000
 11
503.5076865447452
 21
341.4978381980470
 31
0.0000000000000000
  0
LINE
  5
474
100
AcDbEntity
  8
MAIN0
  6
BYBLOCK
 62
0
100
AcDbLine
 10
473.2862059941829
 20
349.5097733869544
 30
0.0000000000000000
 11
479.3588463454195
 21
360.0278950113889
 31
0.0000000000000000
  0
ARC
  5
475
100
AcDbEntity
  8
MAIN0
  6
BYBLOCK
 62
0
100
AcDbCircle
 10
421.0583888207016
 20
259.0485404740683
 30
0.0000000000000000
 40
114.6009150494339
100
AcDbArc
 50
45.99991835993763
 51
59.00008164003932
  0
INSERT
  5
476
100
AcDbEntity
  8
MAIN0
  6
BYBLOCK
 62
0
100
AcDbBlockReference
  2
_OPEN
 10
502.0934729823716
 20
340.0836246356747
 30
0.0000000000000000
 41
2.000000000000000
 42
2.000000000000000
 43
2.000000000000000
 50
314.9999999999775
  0
INSERT
  5
477
100
AcDbEntity
  8
MAIN0
  6
BYBLOCK
 62
0
100
AcDbBlockReference
  2
_OPEN
 10
478.3588463454194
 20
358.2958442038200
 30
0.0000000000000000
 41
2.000000000000000
 42
2.000000000000000
 43
2.000000000000000
 50
149.9999999999995
  0
MTEXT
  5
478
100
AcDbEntity
  8
MAIN0
  6
BYBLOCK
 62
0
100
AcDbMText
 10
492.0709665323604
 20
351.5939335387214
 30
0.0000000000000000
 40
3.099999904632568
 41
0.0000000000000000
 71
     5
 72
     1
  1
\A1;15\U+00B0
 11
0.7933533402911127
 21
-0.6087614290088802
 31
0.0000000000000000
  7
STANDARD
  0
ENDBLK
  5
479
100
AcDbEntity
  8
MAIN0
  6
CONTINUOUS
 62
3
100
AcDbBlockEnd
  0
BLOCK
  5
47B
100
AcDbEntity
  8
MAIN0
  6
CONTINUOUS
 62
3
100
AcDbBlockBegin
  2
*D50
 70
    65
 10
0.0
 20
0.0
 30
0.0
  0
LINE
  5
47C
100
AcDbEntity
  8
MAIN0
  6
BYBLOCK
 62
0
100
AcDbLine
 10
473.2862059941829
 20
349.5097733869544
 30
0.0000000000000000
 11
479.3588463454195
 21
360.0278950113889
 31
0.0000000000000000
  0
LINE
  5
47D
100
AcDbEntity
  8
MAIN0
  6
BYBLOCK
 62
0
100
AcDbLine
 10
421.0583888207019
 20
372.3639101939213
 30
0.0000000000000000
 11
421.0583888207019
 21
375.6494555235022
 31
0.0000000000000000
  0
ARC
  5
47E
100
AcDbEntity
  8
MAIN0
  6
BYBLOCK
 62
0
100
AcDbCircle
 10
421.0583888207016
 20
259.0485404740683
 30
0.0000000000000000
 40
114.6009150494339
100
AcDbArc
 50
60.99991835995967
 51
89.00008164003970
  0
INSERT
  5
47F
100
AcDbEntity
  8
MAIN0
  6
BYBLOCK
 62
0
100
AcDbBlockReference
  2
_OPEN
 10
478.3588463454194
 20
358.2958442038200
 30
0.0000000000000000
 41
2.000000000000000
 42
2.000000000000000
 43
2.000000000000000
 50
329.9999999999996
  0
INSERT
  5
480
100
AcDbEntity
  8
MAIN0
  6
BYBLOCK
 62
0
100
AcDbBlockReference
  2
_OPEN
 10
421.0583888207019
 20
373.6494555235022
 30
0.0000000000000000
 41
2.000000000000000
 42
2.000000000000000
 43
2.000000000000000
 50
179.9999999999999
  0
MTEXT
  5
481
100
AcDbEntity
  8
MAIN0
  6
BYBLOCK
 62
0
100
AcDbMText
 10
451.2498672517905
 20
371.7246719345096
 30
0.0000000000000000
 40
3.099999904632568
 41
0.0000000000000000
 71
     5
 72
     1
  1
\A1;30\U+00B0
 11
0.9659258262890669
 21
-0.2588190451025259
 31
0.0000000000000000
  7
STANDARD
  0
ENDBLK
  5
482
100
AcDbEntity
  8
MAIN0
  6
CONTINUOUS
 62
3
100
AcDbBlockEnd
  0
BLOCK
  5
484
100
AcDbEntity
  8
MAIN0
  6
CONTINUOUS
 62
3
100
AcDbBlockBegin
  2
*D51
 70
    65
 10
0.0
 20
0.0
 30
0.0
  0
LINE
  5
485
100
AcDbEntity
  8
MAIN0
  6
BYBLOCK
 62
0
100
AcDbLine
 10
421.0583888207019
 20
372.3639101939213
 30
0.0000000000000000
 11
421.0583888207019
 21
375.6494555235022
 31
0.0000000000000000
  0
LINE
  5
486
100
AcDbEntity
  8
MAIN0
  6
BYBLOCK
 62
0
100
AcDbLine
 10
348.0499946554524
 20
332.0569346393741
 30
0.0000000000000000
 11
338.6090910967222
 21
341.4978381981116
 31
0.0000000000000000
  0
ARC
  5
487
100
AcDbEntity
  8
MAIN0
  6
BYBLOCK
 62
0
100
AcDbCircle
 10
421.0583888207016
 20
259.0485404740683
 30
0.0000000000000000
 40
114.6009150494339
100
AcDbArc
 50
90.99991835996005
 51
134.0000816400176
  0
INSERT
  5
488
100
AcDbEntity
  8
MAIN0
  6
BYBLOCK
 62
0
100
AcDbBlockReference
  2
_OPEN
 10
421.0583888207019
 20
373.6494555235022
 30
0.0000000000000000
 41
2.000000000000000
 42
2.000000000000000
 43
2.000000000000000
 50
359.9999999999999
  0
INSERT
  5
489
100
AcDbEntity
  8
MAIN0
  6
BYBLOCK
 62
0
100
AcDbBlockReference
  2
_OPEN
 10
340.0233046590947
 20
340.0836246357379
 30
0.0000000000000000
 41
2.000000000000000
 42
2.000000000000000
 43
2.000000000000000
 50
224.9999999999778
  0
MTEXT
  5
48A
100
AcDbEntity
  8
MAIN0
  6
BYBLOCK
 62
0
100
AcDbMText
 10
376.4180162793244
 20
366.8199332929078
 30
0.0000000000000000
 40
3.099999904632568
 41
0.0000000000000000
 71
     5
 72
     1
  1
\A1;45\U+00B0
 11
0.9238795325113612
 21
0.3826834323649099
 31
0.0000000000000000
  7
STANDARD
  0
ENDBLK
  5
48B
100
AcDbEntity
  8
MAIN0
  6
CONTINUOUS
 62
3
100
AcDbBlockEnd
  0
BLOCK
  5
48D
100
AcDbEntity
  8
MAIN0
  6
CONTINUOUS
 62
3
100
AcDbBlockBegin
  2
*D52
 70
    65
 10
0.0
 20
0.0
 30
0.0
  0
LINE
  5
48E
100
AcDbEntity
  8
MAIN0
  6
BYBLOCK
 62
0
100
AcDbLine
 10
95.07764908614766
 20
155.2485404621474
 30
0.0000000000000000
 11
95.07764908614766
 21
110.1168175283747
 31
0.0000000000000000
  0
LINE
  5
48F
100
AcDbEntity
  8
MAIN0
  6
BYBLOCK
 62
0
100
AcDbLine
 10
97.07764908614766
 20
112.1168175283747
 30
0.0000000000000000
 11
138.0776490861476
 21
112.1168175283747
 31
0.0000000000000000
  0
INSERT
  5
490
100
AcDbEntity
  8
MAIN0
  6
BYBLOCK
 62
0
100
AcDbBlockReference
  2
_OPEN
 10
95.07764908614766
 20
112.1168175283747
 30
0.0000000000000000
 41
2.000000000000000
 42
2.000000000000000
 43
2.000000000000000
 50
180.0000000000000
  0
INSERT
  5
491
100
AcDbEntity
  8
MAIN0
  6
BYBLOCK
 62
0
100
AcDbBlockReference
  2
_OPEN
 10
140.0776490861476
 20
112.1168175283747
 30
0.0000000000000000
 41
2.000000000000000
 42
2.000000000000000
 43
2.000000000000000
 50
0.0000000000000000
  0
LINE
  5
492
100
AcDbEntity
  8
MAIN0
  6
BYBLOCK
 62
0
100
AcDbLine
 10
140.0776490861477
 20
120.2485404621693
 30
0.0000000000000000
 11
140.0776490861476
 21
110.1168175283747
 31
0.0000000000000000
  0
MTEXT
  5
493
100
AcDbEntity
  8
MAIN0
  6
BYBLOCK
 62
0
100
AcDbMText
 10
117.5776490861476
 20
114.1668174806910
 30
0.0000000000000000
 40
3.099999904632568
 41
0.0000000000000000
 71
     5
 72
     1
  1
\A1;45
 11
1.000000000000000
 21
0.0000000000000000
 31
0.0000000000000000
  7
STANDARD
  0
ENDBLK
  5
494
100
AcDbEntity
  8
MAIN0
  6
CONTINUOUS
 62
3
100
AcDbBlockEnd
  0
BLOCK
  5
496
100
AcDbEntity
  8
MAIN0
  6
CONTINUOUS
 62
3
100
AcDbBlockBegin
  2
*D53
 70
    65
 10
0.0
 20
0.0
 30
0.0
  0
LINE
  5
497
100
AcDbEntity
  8
MAIN0
  6
BYBLOCK
 62
0
100
AcDbLine
 10
80.07764908614789
 20
360.7485404859889
 30
0.0000000000000000
 11
80.07764908614789
 21
377.0000000000000
 31
0.0000000000000000
  0
LINE
  5
498
100
AcDbEntity
  8
MAIN0
  6
BYBLOCK
 62
0
100
AcDbLine
 10
82.07764908614789
 20
375.0000000000000
 30
0.0000000000000000
 11
214.5776490861471
 21
375.0000000000000
 31
0.0000000000000000
  0
INSERT
  5
499
100
AcDbEntity
  8
MAIN0
  6
BYBLOCK
 62
0
100
AcDbBlockReference
  2
_OPEN
 10
80.07764908614789
 20
375.0000000000000
 30
0.0000000000000000
 41
2.000000000000000
 42
2.000000000000000
 43
2.000000000000000
 50
180.0000000000000
  0
INSERT
  5
49A
100
AcDbEntity
  8
MAIN0
  6
BYBLOCK
 62
0
100
AcDbBlockReference
  2
_OPEN
 10
216.5776490861471
 20
375.0000000000000
 30
0.0000000000000000
 41
2.000000000000000
 42
2.000000000000000
 43
2.000000000000000
 50
0.0000000000000000
  0
LINE
  5
49B
100
AcDbEntity
  8
MAIN0
  6
BYBLOCK
 62
0
100
AcDbLine
 10
216.5776490861471
 20
340.0985404859891
 30
0.0000000000000000
 11
216.5776490861471
 21
377.0000000000000
 31
0.0000000000000000
  0
MTEXT
  5
49C
100
AcDbEntity
  8
MAIN0
  6
BYBLOCK
 62
0
100
AcDbMText
 10
148.3276490861475
 20
377.0499999523163
 30
0.0000000000000000
 40
3.099999904632568
 41
0.0000000000000000
 71
     5
 72
     1
  1
\A1;136.5
 11
1.000000000000000
 21
0.0000000000000000
 31
0.0000000000000000
  7
STANDARD
  0
ENDBLK
  5
49D
100
AcDbEntity
  8
MAIN0
  6
CONTINUOUS
 62
3
100
AcDbBlockEnd
  0
BLOCK
  5
49F
100
AcDbEntity
  8
MAIN0
  6
CONTINUOUS
 62
3
100
AcDbBlockBegin
  2
*D54
 70
    65
 10
0.0
 20
0.0
 30
0.0
  0
LINE
  5
4A0
100
AcDbEntity
  8
MAIN0
  6
BYBLOCK
 62
0
100
AcDbLine
 10
216.5776490861471
 20
340.0985404859891
 30
0.0000000000000000
 11
216.5776490861471
 21
377.0000000000000
 31
0.0000000000000000
  0
LINE
  5
4A1
100
AcDbEntity
  8
MAIN0
  6
BYBLOCK
 62
0
100
AcDbLine
 10
218.5776490861471
 20
375.0000000000000
 30
0.0000000000000000
 11
229.5776490861474
 21
375.0000000000000
 31
0.0000000000000000
  0
INSERT
  5
4A2
100
AcDbEntity
  8
MAIN0
  6
BYBLOCK
 62
0
100
AcDbBlockReference
  2
_OPEN
 10
216.5776490861471
 20
375.0000000000000
 30
0.0000000000000000
 41
2.000000000000000
 42
2.000000000000000
 43
2.000000000000000
 50
180.0000000000000
  0
INSERT
  5
4A3
100
AcDbEntity
  8
MAIN0
  6
BYBLOCK
 62
0
100
AcDbBlockReference
  2
_OPEN
 10
231.5776490861474
 20
375.0000000000000
 30
0.0000000000000000
 41
2.000000000000000
 42
2.000000000000000
 43
2.000000000000000
 50
0.0000000000000000
  0
LINE
  5
4A4
100
AcDbEntity
  8
MAIN0
  6
BYBLOCK
 62
0
100
AcDbLine
 10
231.5776490861474
 20
375.0000000000000
 30
0.0000000000000000
 11
245.8776492768822
 21
375.0000000000000
 31
0.0000000000000000
  0
LINE
  5
4A5
100
AcDbEntity
  8
MAIN0
  6
BYBLOCK
 62
0
100
AcDbLine
 10
231.5776490861474
 20
338.5823105811759
 30
0.0000000000000000
 11
231.5776490861474
 21
377.0000000000000
 31
0.0000000000000000
  0
MTEXT
  5
4A6
100
AcDbEntity
  8
MAIN0
  6
BYBLOCK
 62
0
100
AcDbMText
 10
239.5776490861474
 20
377.0499999523163
 30
0.0000000000000000
 40
3.099999904632568
 41
0.0000000000000000
 71
     5
 72
     1
  1
\A1;MAX 15
 11
1.000000000000000
 21
0.0000000000000000
 31
0.0000000000000000
  7
STANDARD
  0
ENDBLK
  5
4A7
100
AcDbEntity
  8
MAIN0
  6
CONTINUOUS
 62
3
100
AcDbBlockEnd
  0
BLOCK
  5
4AB
100
AcDbEntity
  8
MAIN0
  6
BYBLOCK
 62
3
100
AcDbBlockBegin
  2
*X0
 70
     1
 10
0.0
 20
0.0
 30
0.0
  0
LINE
  5
4AC
100
AcDbEntity
  8
MAIN0
  6
BYBLOCK
 62
0
100
AcDbLine
 10
389.0521368477400
 20
253.4049746998717
 30
0.0000000000000000
 11
338.9267566126766
 21
266.8360298542025
 31
0.0000000000000000
  0
LINE
  5
4AD
100
AcDbEntity
  8
MAIN0
  6
BYBLOCK
 62
0
100
AcDbLine
 10
380.8962490227763
 20
251.9668716246937
 30
0.0000000000000000
 11
338.6670869595109
 21
263.2821414966195
 31
0.0000000000000000
  0
LINE
  5
4AE
100
AcDbEntity
  8
MAIN0
  6
BYBLOCK
 62
0
100
AcDbLine
 10
372.7403611977613
 20
250.5287685495297
 30
0.0000000000000000
 11
338.5608604154969
 21
259.6871381818706
 31
0.0000000000000000
  0
LINE
  5
4AF
100
AcDbEntity
  8
MAIN0
  6
BYBLOCK
 62
0
100
AcDbLine
 10
364.5844733727936
 20
249.0906654743524
 30
0.0000000000000000
 11
338.6129092208920
 21
256.0497251150740
 31
0.0000000000000000
  0
LINE
  5
4B0
100
AcDbEntity
  8
MAIN0
  6
BYBLOCK
 62
0
100
AcDbLine
 10
356.4285855478182
 20
247.6525623991778
 30
0.0000000000000000
 11
338.8292936083172
 21
252.3682784617949
 31
0.0000000000000000
  0
LINE
  5
4B1
100
AcDbEntity
  8
MAIN0
  6
BYBLOCK
 62
0
100
AcDbLine
 10
348.2726977228379
 20
246.2144593240044
 30
0.0000000000000000
 11
339.2175145868346
 21
248.6407883326928
 31
0.0000000000000000
  0
LINE
  5
4B2
100
AcDbEntity
  8
MAIN0
  6
BYBLOCK
 62
0
100
AcDbLine
 10
340.1168098978648
 20
244.7763562488288
 30
0.0000000000000000
 11
339.7868009685968
 21
244.8647818749676
 31
0.0000000000000000
  0
LINE
  5
4B3
100
AcDbEntity
  8
MAIN0
  6
BYBLOCK
 62
0
100
AcDbLine
 10
397.2080246727118
 20
254.8430777750481
 30
0.0000000000000000
 11
339.3361074133862
 21
270.3498112691389
 31
0.0000000000000000
  0
LINE
  5
4B4
100
AcDbEntity
  8
MAIN0
  6
BYBLOCK
 62
0
100
AcDbLine
 10
403.7135422003088
 20
256.7233962387484
 30
0.0000000000000000
 11
339.8923320961255
 21
273.8242379460277
 31
0.0000000000000000
  0
LINE
  5
4B5
100
AcDbEntity
  8
MAIN0
  6
BYBLOCK
 62
0
100
AcDbLine
 10
403.6087285341309
 20
260.3749476073719
 30
0.0000000000000000
 11
340.5934958830560
 21
277.2598283069817
 31
0.0000000000000000
  0
LINE
  5
4B6
100
AcDbEntity
  8
MAIN0
  6
BYBLOCK
 62
0
100
AcDbLine
 10
355.4553149671152
 20
276.9010825167813
 30
0.0000000000000000
 11
341.4384818123904
 21
280.6568816410315
 31
0.0000000000000000
  0
LINE
  5
4B7
100
AcDbEntity
  8
MAIN0
  6
BYBLOCK
 62
0
100
AcDbLine
 10
384.4330897557870
 20
269.1365111637061
 30
0.0000000000000000
 11
355.8352713932837
 21
276.7992734992305
 31
0.0000000000000000
  0
LINE
  5
4B8
100
AcDbEntity
  8
MAIN0
  6
BYBLOCK
 62
0
100
AcDbLine
 10
404.2251865109699
 20
263.8332348216363
 30
0.0000000000000000
 11
390.2060057367042
 21
267.5896629886466
 31
0.0000000000000000
  0
LINE
  5
4B9
100
AcDbEntity
  8
MAIN0
  6
BYBLOCK
 62
0
100
AcDbLine
 10
405.5249374211647
 20
267.1084342462116
 30
0.0000000000000000
 11
342.4269599078491
 21
284.0154863650462
 31
0.0000000000000000
  0
LINE
  5
4BA
100
AcDbEntity
  8
MAIN0
  6
BYBLOCK
 62
0
100
AcDbLine
 10
407.5603955045168
 20
270.1865015278808
 30
0.0000000000000000
 11
343.5593781726144
 21
287.3355224369369
 31
0.0000000000000000
  0
LINE
  5
4BB
100
AcDbEntity
  8
MAIN0
  6
BYBLOCK
 62
0
100
AcDbLine
 10
410.5173376998985
 20
273.0176578860107
 30
0.0000000000000000
 11
344.8369748279706
 21
290.6166580763061
 31
0.0000000000000000
  0
LINE
  5
4BC
100
AcDbEntity
  8
MAIN0
  6
BYBLOCK
 62
0
100
AcDbLine
 10
414.9586531680634
 20
275.4510776243982
 30
0.0000000000000000
 11
346.2618125855702
 21
293.8583405812532
 31
0.0000000000000000
  0
LINE
  5
4BD
100
AcDbEntity
  8
MAIN0
  6
BYBLOCK
 62
0
100
AcDbLine
 10
393.4917563343146
 20
284.8265819266527
 30
0.0000000000000000
 11
347.8368372037895
 21
297.0597806381547
 31
0.0000000000000000
  0
LINE
  5
4BE
100
AcDbEntity
  8
MAIN0
  6
BYBLOCK
 62
0
100
AcDbLine
 10
413.6410162982328
 20
279.4276039912493
 30
0.0000000000000000
 11
399.2646723151770
 21
283.2797337516116
 31
0.0000000000000000
  0
LINE
  5
4BF
100
AcDbEntity
  8
MAIN0
  6
BYBLOCK
 62
0
100
AcDbLine
 10
412.1796630488792
 20
283.4426390457061
 30
0.0000000000000000
 11
349.5659643120483
 21
300.2199290573368
 31
0.0000000000000000
  0
LINE
  5
4C0
100
AcDbEntity
  8
MAIN0
  6
BYBLOCK
 62
0
100
AcDbLine
 10
410.7183097995246
 20
287.4576741001632
 30
0.0000000000000000
 11
351.4542007227004
 21
303.3374442674347
 31
0.0000000000000000
  0
LINE
  5
4C1
100
AcDbEntity
  8
MAIN0
  6
BYBLOCK
 62
0
100
AcDbLine
 10
409.2569565501698
 20
291.4727091546204
 30
0.0000000000000000
 11
353.5078095246035
 21
306.4106480787934
 31
0.0000000000000000
  0
LINE
  5
4C2
100
AcDbEntity
  8
MAIN0
  6
BYBLOCK
 62
0
100
AcDbLine
 10
372.0967525271717
 20
305.0532224445566
 30
0.0000000000000000
 11
355.7345326842896
 21
309.4374660378201
 31
0.0000000000000000
  0
LINE
  5
4C3
100
AcDbEntity
  8
MAIN0
  6
BYBLOCK
 62
0
100
AcDbLine
 10
407.7956033008160
 20
295.4877442090773
 30
0.0000000000000000
 11
371.0526260915447
 21
305.3329952797777
 31
0.0000000000000000
  0
LINE
  5
4C4
100
AcDbEntity
  8
MAIN0
  6
BYBLOCK
 62
0
100
AcDbLine
 10
374.6875565110506
 20
307.9824852407569
 30
0.0000000000000000
 11
358.1438915219235
 21
312.4153469144205
 31
0.0000000000000000
  0
LINE
  5
4C5
100
AcDbEntity
  8
MAIN0
  6
BYBLOCK
 62
0
100
AcDbLine
 10
406.3342500514631
 20
299.5027792635338
 30
0.0000000000000000
 11
374.4815489394366
 21
308.0376848032051
 31
0.0000000000000000
  0
LINE
  5
4C6
100
AcDbEntity
  8
MAIN0
  6
BYBLOCK
 62
0
100
AcDbLine
 10
404.8728968021073
 20
303.5178143179916
 30
0.0000000000000000
 11
360.7475957310300
 21
315.3411531056987
 31
0.0000000000000000
  0
LINE
  5
4C7
100
AcDbEntity
  8
MAIN0
  6
BYBLOCK
 62
0
100
AcDbLine
 10
403.4115435527223
 20
307.5328493724564
 30
0.0000000000000000
 11
363.5601081387641
 21
318.2110093088043
 31
0.0000000000000000
  0
LINE
  5
4C8
100
AcDbEntity
  8
MAIN0
  6
BYBLOCK
 62
0
100
AcDbLine
 10
401.9501903033631
 20
311.5478844269152
 30
0.0000000000000000
 11
366.5994398994913
 21
321.0200894493603
 31
0.0000000000000000
  0
LINE
  5
4C9
100
AcDbEntity
  8
MAIN0
  6
BYBLOCK
 62
0
100
AcDbLine
 10
400.4888370540042
 20
315.5629194813730
 30
0.0000000000000000
 11
369.8882984265291
 21
323.7623090944493
 31
0.0000000000000000
  0
LINE
  5
4CA
100
AcDbEntity
  8
MAIN0
  6
BYBLOCK
 62
0
100
AcDbLine
 10
399.0274838046491
 20
319.5779545358304
 30
0.0000000000000000
 11
373.4557967069313
 21
326.4298674426730
 31
0.0000000000000000
  0
LINE
  5
4CB
100
AcDbEntity
  8
MAIN0
  6
BYBLOCK
 62
0
100
AcDbLine
 10
397.5661305552910
 20
323.5929895902882
 30
0.0000000000000000
 11
377.3400979773447
 21
329.0125386855459
 31
0.0000000000000000
  0
LINE
  5
4CC
100
AcDbEntity
  8
MAIN0
  6
BYBLOCK
 62
0
100
AcDbLine
 10
396.1047773059332
 20
327.6080246447461
 30
0.0000000000000000
 11
381.5927077853303
 21
331.4965219532946
 31
0.0000000000000000
  0
LINE
  5
4CD
100
AcDbEntity
  8
MAIN0
  6
BYBLOCK
 62
0
100
AcDbLine
 10
394.6434240565722
 20
331.6230596992049
 30
0.0000000000000000
 11
386.2858750532249
 21
333.8624582052674
 31
0.0000000000000000
  0
LINE
  5
4CE
100
AcDbEntity
  8
MAIN0
  6
BYBLOCK
 62
0
100
AcDbLine
 10
393.1820708072152
 20
335.6380947536627
 30
0.0000000000000000
 11
391.5264071283647
 21
336.0817284992531
 31
0.0000000000000000
  0
ENDBLK
  5
4CF
100
AcDbEntity
  8
MAIN0
  6
BYBLOCK
 62
3
100
AcDbBlockEnd
  0
BLOCK
  5
4E7
100
AcDbEntity
  8
MAIN0
  6
CONTINUOUS
 62
3
100
AcDbBlockBegin
  2
*D55
 70
    65
 10
0.0
 20
0.0
 30
0.0
  0
LINE
  5
4E8
100
AcDbEntity
  8
MAIN0
  6
BYBLOCK
 62
0
100
AcDbLine
 10
465.1090732751550
 20
270.8518857998807
 30
0.0000000000000000
 11
527.8595104687006
 21
287.6658147705946
 31
0.0000000000000000
  0
LINE
  5
4E9
100
AcDbEntity
  8
MAIN0
  6
BYBLOCK
 62
0
100
AcDbLine
 10
494.0667829860080
 20
332.0569346393173
 30
0.0000000000000000
 11
499.2422361724862
 21
337.2323878257917
 31
0.0000000000000000
  0
ARC
  5
4EA
100
AcDbEntity
  8
MAIN0
  6
BYBLOCK
 62
0
100
AcDbCircle
 10
421.0583888209778
 20
259.0485404743433
 30
0.0000000000000000
 40
108.5686572829685
100
AcDbArc
 50
16.05547551101989
 51
43.94452448896102
  0
INSERT
  5
4EB
100
AcDbEntity
  8
MAIN0
  6
BYBLOCK
 62
0
100
AcDbBlockReference
  2
_OPEN
 10
525.9276588161224
 20
287.1481766803894
 30
0.0000000000000000
 41
2.000000000000000
 42
2.000000000000000
 43
2.000000000000000
 50
285.0000000000030
  0
INSERT
  5
4EC
100
AcDbEntity
  8
MAIN0
  6
BYBLOCK
 62
0
100
AcDbBlockReference
  2
_OPEN
 10
497.8280226101126
 20
335.8181742634191
 30
0.0000000000000000
 41
2.000000000000000
 42
2.000000000000000
 43
2.000000000000000
 50
134.9999999999779
  0
MTEXT
  5
4ED
100
AcDbEntity
  8
MAIN0
  6
BYBLOCK
 62
0
100
AcDbMText
 10
513.3062520463409
 20
312.3078691396541
 30
0.0000000000000000
 40
3.099999904632568
 41
0.0000000000000000
 71
     5
 72
     1
  1
\A1;30\U+00B0
 11
-0.4999999999998556
 21
0.8660254037845220
 31
0.0000000000000000
  7
STANDARD
  0
ENDBLK
  5
4EE
100
AcDbEntity
  8
MAIN0
  6
CONTINUOUS
 62
3
100
AcDbBlockEnd
  0
ENDSEC
  0
SECTION
  2
ENTITIES
  0
DIMENSION
  5
4E
100
AcDbEntity
  8
MAIN0
  6
CONTINUOUS
 62
3
100
AcDbDimension
  2
*D0
 10
240.0000000000000
 20
286.0485404740680
 30
0.0000000000000000
 11
239.5000000000000
 21
295.0485404740681
 31
0.0000000000000000
 70
32
  3
MAIN001
100
AcDbAlignedDimension
 13
228.6881669727779
 23
304.0485404740682
 33
0.0000000000000000
 14
199.5776490861473
 24
286.0485404740680
 34
0.0000000000000000
 50
90.00000000000000
100
AcDbRotatedDimension
1001
ACAD
1000
DSTYLE
1002
{
1070
   173
1070
     1
1070
     6
1000
_OPEN
1070
     7
1000
_OPEN
1070
    41
1040
2.000000
1002
}
  0
DIMENSION
  5
57
100
AcDbEntity
  8
MAIN0
  6
CONTINUOUS
 62
3
100
AcDbDimension
  2
*D1
 10
240.0000000000000
 20
286.0485404740680
 30
0.0000000000000000
 11
239.5000000000000
 21
273.7985404740681
 31
0.0000000000000000
 70
32
  3
MAIN001
100
AcDbAlignedDimension
 13
226.5776490861473
 23
261.5485404740681
 33
0.0000000000000000
 14
199.5776490861473
 24
286.0485404740680
 34
0.0000000000000000
 50
90.00000000000000
100
AcDbRotatedDimension
1001
ACAD
1000
DSTYLE
1002
{
1070
   173
1070
     1
1070
     6
1000
_OPEN
1070
     7
1000
_OPEN
1070
    41
1040
2.000000
1002
}
  0
LINE
  5
58
100
AcDbEntity
  8
MAIN0
  6
CONTINUOUS
 62
3
100
AcDbLine
 10
420.5583888201889
 20
261.5485404740682
 30
0.0000000000000000
 11
421.5583888198093
 21
261.5485404740682
 31
0.0000000000000000
  0
LINE
  5
59
100
AcDbEntity
  8
MAIN0
  6
CONTINUOUS
 62
3
100
AcDbLine
 10
406.0583888207017
 20
269.9201193769932
 30
0.0000000000000000
 11
420.5583888201890
 21
261.5485404740683
 31
0.0000000000000000
  0
LINE
  5
5A
100
AcDbEntity
  8
MAIN0
  6
CONTINUOUS
 62
3
100
AcDbLine
 10
421.5583888198092
 20
261.5485404740682
 30
0.0000000000000000
 11
436.0583888207017
 21
269.9201193778701
 31
0.0000000000000000
  0
LINE
  5
5B
100
AcDbEntity
  8
MAIN0
  6
CONTINUOUS
 62
3
100
AcDbLine
 10
418.6433253116868
 20
258.2315531751875
 30
0.0000000000000000
 11
404.1433253107622
 21
266.6031320789338
 31
0.0000000000000000
  0
LINE
  5
5C
100
AcDbEntity
  8
MAIN0
  6
CONTINUOUS
 62
3
100
AcDbLine
 10
419.1433253114971
 20
257.3655277717318
 30
0.0000000000000000
 11
418.6433253116869
 21
258.2315531751875
 31
0.0000000000000000
  0
LINE
  5
5D
100
AcDbEntity
  8
MAIN0
  6
CONTINUOUS
 62
3
100
AcDbLine
 10
419.1433253115220
 20
240.6223699658390
 30
0.0000000000000000
 11
419.1433253114971
 21
257.3655277717318
 31
0.0000000000000000
  0
LINE
  5
5E
100
AcDbEntity
  8
MAIN0
  6
CONTINUOUS
 62
3
100
AcDbLine
 10
422.9734523306090
 20
257.3655277729488
 30
0.0000000000000000
 11
422.9734523306411
 21
240.6223699654007
 31
0.0000000000000000
  0
LINE
  5
5F
100
AcDbEntity
  8
MAIN0
  6
CONTINUOUS
 62
3
100
AcDbLine
 10
423.4734523304193
 20
258.2315531764045
 30
0.0000000000000000
 11
422.9734523306091
 21
257.3655277729488
 31
0.0000000000000000
  0
LINE
  5
60
100
AcDbEntity
  8
MAIN0
  6
CONTINUOUS
 62
3
100
AcDbLine
 10
427.1112946799177
 20
260.3318624361640
 30
0.0000000000000000
 11
423.4734523304194
 21
258.2315531764047
 31
0.0000000000000000
  0
DIMENSION
  5
6B
100
AcDbEntity
  8
MAIN0
  6
CONTINUOUS
 62
3
100
AcDbDimension
  2
*D2
 10
420.5583888201889
 20
268.7808239538420
 30
0.0000000000000000
 11
425.0378357143445
 21
269.2808239538420
 31
0.0000000000000000
 70
160
  3
MAIN001
100
AcDbAlignedDimension
 13
421.5583888198092
 23
261.5485404740682
 33
0.0000000000000000
 14
420.5583888201889
 24
261.5485404740682
 34
0.0000000000000000
100
AcDbRotatedDimension
1001
ACAD
1000
DSTYLE
1002
{
1070
   173
1070
     1
1070
     6
1000
_OPEN
1070
     7
1000
_OPEN
1070
    41
1040
2.000000
1070
   287
1070
     0
1002
}
  0
LINE
  5
6C
100
AcDbEntity
  8
MAIN0
  6
CONTINUOUS
 62
3
100
AcDbLine
 10
191.1187164238592
 20
38.18128501898153
 30
0.0000000000000000
 11
297.1187164238592
 21
38.18128501898153
 31
0.0000000000000000
  0
MTEXT
  5
6D
100
AcDbEntity
  8
MAIN0
  6
CONTINUOUS
 62
3
100
AcDbMText
 10
256.6187164238592
 20
41.98128492361403
 30
0.0000000000000000
 40
3.099999904632568
 41
0.0000000000000000
 71
     1
 72
     1
  1
{\H0.93x;{\U+220569～\U+22058　mm}}
 11
1.000000000000000
 21
0.0000000000000000
 31
0.0000000000000000
  7
KNJYOKO
  0
LINE
  5
6E
100
AcDbEntity
  8
MAIN0
  6
CONTINUOUS
 62
3
100
AcDbLine
 10
242.1187164238592
 20
102.1812850189816
 30
0.0000000000000000
 11
297.1187164238592
 21
102.1812850189816
 31
0.0000000000000000
  0
LINE
  5
6F
100
AcDbEntity
  8
MAIN0
  6
CONTINUOUS
 62
3
100
AcDbLine
 10
242.1187164238592
 20
88.18128501898153
 30
0.0000000000000000
 11
297.1187164238592
 21
88.18128501898153
 31
0.0000000000000000
  0
MTEXT
  5
70
100
AcDbEntity
  8
MAIN0
  6
CONTINUOUS
 62
3
100
AcDbMText
 10
270.3241929535468
 20
105.4445794786701
 30
0.0000000000000000
 40
2.399999618530273
 41
0.0000000000000000
 71
     1
 72
     1
  1
{\H0.93x;{ソフトジョー使用時}}
 11
1.000000000000000
 21
0.0000000000000000
 31
0.0000000000000000
  7
KNJYOKO
  0
MTEXT
  5
71
100
AcDbEntity
  8
MAIN0
  6
CONTINUOUS
 62
3
100
AcDbMText
 10
244.6187164238592
 20
98.38128501898149
 30
0.0000000000000000
 40
2.500000000000000
 41
0.0000000000000000
 71
     1
 72
     1
  1
{\H0.63x;{22kN (2243Kgf)}}
 11
1.000000000000000
 21
0.0000000000000000
 31
0.0000000000000000
  7
STANDARD
  0
MTEXT
  5
72
100
AcDbEntity
  8
MAIN0
  6
CONTINUOUS
 62
3
100
AcDbMText
 10
244.6187164238592
 20
84.38128501898146
 30
0.0000000000000000
 40
2.500000000000000
 41
0.0000000000000000
 71
     1
 72
     1
  1
{\H0.63x;{45kN (4588Kgf)}}
 11
1.000000000000000
 21
0.0000000000000000
 31
0.0000000000000000
  7
STANDARD
  0
MTEXT
  5
73
100
AcDbEntity
  8
MAIN0
  6
CONTINUOUS
 62
3
100
AcDbMText
 10
244.6187164238591
 20
91.38128501898146
 30
0.0000000000000000
 40
2.500000000000000
 41
0.0000000000000000
 71
     1
 72
     1
  1
{\H0.62x;{40　kN (4078Kgf)}}
 11
1.000000000000000
 21
0.0000000000000000
 31
0.0000000000000000
  7
KNJYOKO
  0
LINE
  5
74
100
AcDbEntity
  8
MAIN0
  6
CONTINUOUS
 62
3
100
AcDbLine
 10
218.1187164238592
 20
74.18128501898153
 30
0.0000000000000000
 11
297.1187164238592
 21
74.18128501898153
 31
0.0000000000000000
  0
MTEXT
  5
75
100
AcDbEntity
  8
MAIN0
  6
CONTINUOUS
 62
3
100
AcDbMText
 10
193.2554526347019
 20
30.36207506047290
 30
0.0000000000000000
 40
3.099999904632568
 41
0.0000000000000000
 71
     1
 72
     1
  1
{\H0.71x;{○把握力はジョーおよびワークの把握部状態により変化します。\P　THE GRIPPING FORCE IS DIFFERENT DEPENDING ON\P　THE GRIPPING STATE.}}
 11
1.000000000000000
 21
0.0000000000000000
 31
0.0000000000000000
  7
KNJYOKO
  0
LINE
  5
76
100
AcDbEntity
  8
MAIN0
  6
CONTINUOUS
 62
3
100
AcDbLine
 10
191.1187164238591
 20
67.18128501898153
 30
0.0000000000000000
 11
297.1187164238592
 21
67.18128501898153
 31
0.0000000000000000
  0
MTEXT
  5
77
100
AcDbEntity
  8
MAIN0
  6
CONTINUOUS
 62
3
100
AcDbMText
 10
244.6187164238592
 20
63.98128492361403
 30
0.0000000000000000
 40
3.099999904632568
 41
0.0000000000000000
 71
     1
 72
     1
  1
{\H0.71x;{0.2 MPa　(　2kgf/cm )}}
 11
1.000000000000000
 21
0.0000000000000000
 31
0.0000000000000000
  7
KNJYOKO
  0
MTEXT
  5
78
100
AcDbEntity
  8
MAIN0
  6
CONTINUOUS
 62
3
100
AcDbMText
 10
385.8535461673434
 20
68.99057013003471
 30
0.0000000000000000
 40
3.099999904632568
 41
0.0000000000000000
 71
     1
 72
     1
  1
{\H0.70x;{専用ロケータを必ず使用して下さい。}}
 11
1.000000000000000
 21
0.0000000000000000
 31
0.0000000000000000
  7
KNJYOKO
  0
MTEXT
  5
79
100
AcDbEntity
  8
MAIN0
  6
CONTINUOUS
 62
3
100
AcDbMText
 10
271.2114344907417
 20
121.1891920677963
 30
0.0000000000000000
 40
3.099999904632568
 41
0.0000000000000000
 71
     1
 72
     1
  1
{\H0.92x;{10　mm}}
 11
1.000000000000000
 21
0.0000000000000000
 31
0.0000000000000000
  7
KNJYOKO
  0
MTEXT
  5
7A
100
AcDbEntity
  8
MAIN0
  6
CONTINUOUS
 62
3
100
AcDbMText
 10
271.2114344907417
 20
114.1891920677963
 30
0.0000000000000000
 40
3.099999904632568
 41
0.0000000000000000
 71
     1
 72
     1
  1
{\H0.92x;{ 5　mm}}
 11
1.000000000000000
 21
0.0000000000000000
 31
0.0000000000000000
  7
KNJYOKO
  0
LINE
  5
7B
100
AcDbEntity
  8
MAIN0
  6
CONTINUOUS
 62
3
100
AcDbLine
 10
212.1187164238592
 20
109.1812850189816
 30
0.0000000000000000
 11
212.1187164238592
 21
81.18128501898164
 31
0.0000000000000000
  0
MTEXT
  5
7C
100
AcDbEntity
  8
MAIN0
  6
CONTINUOUS
 62
3
100
AcDbMText
 10
214.1187164238591
 20
105.2812846375118
 30
0.0000000000000000
 40
2.399999618530273
 41
0.0000000000000000
 71
     1
 72
     1
  1
{\H0.92x;{エア圧力}}
 11
1.000000000000000
 21
0.0000000000000000
 31
0.0000000000000000
  7
KNJYOKO
  0
MTEXT
  5
7D
100
AcDbEntity
  8
MAIN0
  6
CONTINUOUS
 62
3
100
AcDbMText
 10
214.1187164238591
 20
88.28128463751185
 30
0.0000000000000000
 40
2.399999618530273
 41
0.0000000000000000
 71
     1
 72
     1
  1
{\H0.93x;{1.3 MPa\P(13kgf/cm )}}
 11
1.000000000000000
 21
0.0000000000000000
 31
0.0000000000000000
  7
STANDARD
  0
MTEXT
  5
7E
100
AcDbEntity
  8
MAIN0
  6
CONTINUOUS
 62
3
100
AcDbMText
 10
214.1187164238591
 20
91.28128463751173
 30
0.0000000000000000
 40
2.399999618530273
 41
0.0000000000000000
 71
     1
 72
     1
  1
{\H0.91x;{油圧力}}
 11
1.000000000000000
 21
0.0000000000000000
 31
0.0000000000000000
  7
KNJYOKO
  0
MTEXT
  5
7F
100
AcDbEntity
  8
MAIN0
  6
CONTINUOUS
 62
3
100
AcDbMText
 10
233.9568932983745
 20
86.46738633115402
 30
0.0000000000000000
 40
2.000000000000000
 41
0.0000000000000000
 71
     1
 72
     1
  1
{\H0.82x;{2}}
 11
1.000000000000000
 21
0.0000000000000000
 31
0.0000000000000000
  7
STANDARD
  0
LINE
  5
80
100
AcDbEntity
  8
MAIN0
  6
CONTINUOUS
 62
3
100
AcDbLine
 10
218.1187164238592
 20
81.18128501898153
 30
0.0000000000000000
 11
218.1187164238592
 21
67.18128501898164
 31
0.0000000000000000
  0
MTEXT
  5
81
100
AcDbEntity
  8
MAIN0
  6
CONTINUOUS
 62
3
100
AcDbMText
 10
220.1187164238592
 20
70.28128463751173
 30
0.0000000000000000
 40
2.399999618530273
 41
0.0000000000000000
 71
     1
 72
     1
  1
{\H0.91x;{油圧力}}
 11
1.000000000000000
 21
0.0000000000000000
 31
0.0000000000000000
  7
KNJYOKO
  0
MTEXT
  5
82
100
AcDbEntity
  8
MAIN0
  6
CONTINUOUS
 62
3
100
AcDbMText
 10
220.1187164238591
 20
77.28128463751173
 30
0.0000000000000000
 40
2.399999618530273
 41
0.0000000000000000
 71
     1
 72
     1
  1
{\H0.92x;{エア圧力}}
 11
1.000000000000000
 21
0.0000000000000000
 31
0.0000000000000000
  7
KNJYOKO
  0
MTEXT
  5
83
100
AcDbEntity
  8
MAIN0
  6
CONTINUOUS
 62
3
100
AcDbMText
 10
244.6187164238592
 20
77.98128492361403
 30
0.0000000000000000
 40
3.099999904632568
 41
0.0000000000000000
 71
     1
 72
     1
  1
{\H0.71x;{0.7 MPa　( 7kgf/cm )}}
 11
1.000000000000000
 21
0.0000000000000000
 31
0.0000000000000000
  7
KNJYOKO
  0
MTEXT
  5
84
100
AcDbEntity
  8
MAIN0
  6
CONTINUOUS
 62
3
100
AcDbMText
 10
280.9404052396393
 20
78.81523358121174
 30
0.0000000000000000
 40
2.000000000000000
 41
0.0000000000000000
 71
     1
 72
     1
  1
{\H0.82x;{2}}
 11
1.000000000000000
 21
0.0000000000000000
 31
0.0000000000000000
  7
STANDARD
  0
LINE
  5
85
100
AcDbEntity
  8
MAIN0
  6
CONTINUOUS
 62
3
100
AcDbLine
 10
191.1187164238592
 20
133.1812850189816
 30
0.0000000000000000
 11
297.1187164238592
 21
133.1812850189815
 31
0.0000000000000000
  0
LINE
  5
86
100
AcDbEntity
  8
MAIN0
  6
CONTINUOUS
 62
3
100
AcDbLine
 10
191.1187164238592
 20
123.1812850189816
 30
0.0000000000000000
 11
297.1187164238592
 21
123.1812850189815
 31
0.0000000000000000
  0
LINE
  5
87
100
AcDbEntity
  8
MAIN0
  6
CONTINUOUS
 62
3
100
AcDbLine
 10
191.1187164238592
 20
116.1812850189816
 30
0.0000000000000000
 11
297.1187164238592
 21
116.1812850189815
 31
0.0000000000000000
  0
LINE
  5
88
100
AcDbEntity
  8
MAIN0
  6
CONTINUOUS
 62
3
100
AcDbLine
 10
191.1187164238592
 20
109.1812850189816
 30
0.0000000000000000
 11
297.1187164238592
 21
109.1812850189815
 31
0.0000000000000000
  0
LINE
  5
89
100
AcDbEntity
  8
MAIN0
  6
CONTINUOUS
 62
3
100
AcDbLine
 10
212.1187164238592
 20
95.18128501898153
 30
0.0000000000000000
 11
297.1187164238592
 21
95.18128501898153
 31
0.0000000000000000
  0
LINE
  5
8A
100
AcDbEntity
  8
MAIN0
  6
CONTINUOUS
 62
3
100
AcDbLine
 10
191.1187164238591
 20
60.18128501898153
 30
0.0000000000000000
 11
297.1187164238592
 21
60.18128501898153
 31
0.0000000000000000
  0
LINE
  5
8B
100
AcDbEntity
  8
MAIN0
  6
CONTINUOUS
 62
3
100
AcDbLine
 10
191.1187164238591
 20
31.18128501898153
 30
0.0000000000000000
 11
297.1187164238592
 21
31.18128501898153
 31
0.0000000000000000
  0
MTEXT
  5
8C
100
AcDbEntity
  8
MAIN0
  6
CONTINUOUS
 62
3
100
AcDbMText
 10
193.1187164238591
 20
92.68128501898153
 30
0.0000000000000000
 40
3.099999904632568
 41
0.0000000000000000
 71
     4
 72
     1
  1
{\H0.70x;{把握力}}
 11
1.000000000000000
 21
0.0000000000000000
 31
0.0000000000000000
  7
KNJYOKO
  0
LINE
  5
8D
100
AcDbEntity
  8
MAIN0
  6
CONTINUOUS
 62
3
100
AcDbLine
 10
191.1187164238591
 20
133.1812850189816
 30
0.0000000000000000
 11
191.1187164238592
 21
31.18128501898167
 31
0.0000000000000000
  0
MTEXT
  5
8E
100
AcDbEntity
  8
MAIN0
  6
CONTINUOUS
 62
3
100
AcDbMText
 10
270.6187164238410
 20
34.18128501898153
 30
0.0000000000000000
 40
3.099999904632568
 41
0.0000000000000000
 71
     4
 72
     1
  1
{\H0.92x;{18 kg}}
 11
1.000000000000000
 21
0.0000000000000000
 31
0.0000000000000000
  7
STANDARD
  0
LINE
  5
8F
100
AcDbEntity
  8
MAIN0
  6
CONTINUOUS
 62
3
100
AcDbLine
 10
297.1187164238592
 20
133.1812850189815
 30
0.0000000000000000
 11
297.1187164238592
 21
31.18128501898153
 31
0.0000000000000000
  0
LINE
  5
90
100
AcDbEntity
  8
MAIN0
  6
CONTINUOUS
 62
3
100
AcDbLine
 10
191.1187164238591
 20
81.18128501898153
 30
0.0000000000000000
 11
297.1187164238592
 21
81.18128501898153
 31
0.0000000000000000
  0
MTEXT
  5
91
100
AcDbEntity
  8
MAIN0
  6
CONTINUOUS
 62
3
100
AcDbMText
 10
214.1187164238591
 20
102.2812846375118
 30
0.0000000000000000
 40
2.399999618530273
 41
0.0000000000000000
 71
     1
 72
     1
  1
{\H0.93x;{0.6 MPa\P( 6kgf/cm )}}
 11
1.000000000000000
 21
0.0000000000000000
 31
0.0000000000000000
  7
STANDARD
  0
MTEXT
  5
92
100
AcDbEntity
  8
MAIN0
  6
CONTINUOUS
 62
3
100
AcDbMText
 10
233.9568932983743
 20
100.4673863311541
 30
0.0000000000000000
 40
2.000000000000000
 41
0.0000000000000000
 71
     1
 72
     1
  1
{\H0.82x;{2}}
 11
1.000000000000000
 21
0.0000000000000000
 31
0.0000000000000000
  7
STANDARD
  0
MTEXT
  5
93
100
AcDbEntity
  8
MAIN0
  6
CONTINUOUS
 62
3
100
AcDbMText
 10
244.6187164238591
 20
105.3812850189815
 30
0.0000000000000000
 40
2.500000000000000
 41
0.0000000000000000
 71
     1
 72
     1
  1
{\H0.63x;{18.5 kN (1886Kgf)}}
 11
1.000000000000000
 21
0.0000000000000000
 31
0.0000000000000000
  7
STANDARD
  0
MTEXT
  5
94
100
AcDbEntity
  8
MAIN0
  6
CONTINUOUS
 62
3
100
AcDbMText
 10
244.6187164238592
 20
70.98128492361403
 30
0.0000000000000000
 40
3.099999904632568
 41
0.0000000000000000
 71
     1
 72
     1
  1
{\H0.71x;{1.3 MPa　(13kgf/cm )}}
 11
1.000000000000000
 21
0.0000000000000000
 31
0.0000000000000000
  7
KNJYOKO
  0
MTEXT
  5
95
100
AcDbEntity
  8
MAIN0
  6
CONTINUOUS
 62
3
100
AcDbMText
 10
281.0739529281159
 20
71.67207540501389
 30
0.0000000000000000
 40
2.000000000000000
 41
0.0000000000000000
 71
     1
 72
     1
  1
{\H0.82x;{2}}
 11
1.000000000000000
 21
0.0000000000000000
 31
0.0000000000000000
  7
STANDARD
  0
LINE
  5
96
100
AcDbEntity
  8
MAIN0
  6
CONTINUOUS
 62
3
100
AcDbLine
 10
191.1187164238591
 20
45.18128501898153
 30
0.0000000000000000
 11
297.1187164238592
 21
45.18128501898153
 31
0.0000000000000000
  0
MTEXT
  5
97
100
AcDbEntity
  8
MAIN0
  6
CONTINUOUS
 62
4
100
AcDbMText
 10
267.2114344907416
 20
53.68919206779643
 30
0.0000000000000000
 40
3.099999904632568
 41
0.0000000000000000
 71
     1
 72
     1
  1
{\H0.92x;{0.54　N}}
 11
1.000000000000000
 21
0.0000000000000000
 31
0.0000000000000000
  7
KNJYOKO
  0
SPLINE
  5
98
100
AcDbEntity
  8
MAIN0
  6
CONTINUOUS
 62
3
100
AcDbSpline
210
0.0000000000000000
220
0.0000000000000000
230
1.000000000000000
 70
     8
 71
     3
 72
    14
 73
    10
 74
     0
 42
1.000000000000000e-007
 43
1.000000000000000e-007
 12
1.205313937519350
 22
0.3012197250379813
 32
0.0000000000000000
 13
0.9118704780839835
 23
0.7328372388452067
 33
0.0000000000000000
 40
0.0000000000000000
 40
0.0000000000000000
 40
0.0000000000000000
 40
0.0000000000000000
 40
0.5828484074954654
 40
2.017389827489209
 40
3.123506893394179
 40
4.885508420049012
 40
6.048697447303496
 40
6.384151807376483
 40
6.831490023551860
 40
6.831490023551860
 40
6.831490023551860
 40
6.831490023551860
 10
284.9724044834401
 20
50.87347238204657
 30
0.0000000000000000
 10
285.2065762531119
 20
50.93199419439478
 30
0.0000000000000000
 10
286.0171056119391
 20
51.13455339743885
 30
0.0000000000000000
 10
286.5488322524020
 20
52.29419469874179
 30
0.0000000000000000
 10
286.6876393797274
 20
54.80237418586935
 30
0.0000000000000000
 10
285.4393938237947
 20
52.37622571545606
 30
0.0000000000000000
 10
285.3483862890957
 20
50.47163377696975
 30
0.0000000000000000
 10
286.2020188384096
 20
50.76650552537413
 30
0.0000000000000000
 10
286.4399539853241
 20
50.95772537542987
 30
0.0000000000000000
 10
286.5759254896737
 20
51.06700074315384
 30
0.0000000000000000
  0
LINE
  5
99
100
AcDbEntity
  8
MAIN0
  6
CONTINUOUS
 62
3
100
AcDbLine
 10
242.1187164238592
 20
31.18128501898165
 30
0.0000000000000000
 11
242.1187164238592
 21
123.1812850189640
 31
0.0000000000000000
  0
MTEXT
  5
9A
100
AcDbEntity
  8
MAIN0
  6
CONTINUOUS
 62
3
100
AcDbMText
 10
236.9901571198291
 20
127.4968740640955
 30
0.0000000000000000
 40
3.100000381469727
 41
0.0000000000000000
 71
     1
 72
     1
  1
{\H0.93x;{仕　　　様}}
 11
1.000000000000000
 21
0.0000000000000000
 31
0.0000000000000000
  7
KNJYOKO
  0
MTEXT
  5
9B
100
AcDbEntity
  8
MAIN0
  6
CONTINUOUS
 62
3
100
AcDbMText
 10
227.1869640308056
 20
131.5414095715638
 30
0.0000000000000000
 40
3.100000381469727
 41
0.0000000000000000
 71
     1
 72
     1
  1
{\H0.94x;{SPECIFICATIONS}}
 11
1.000000000000000
 21
0.0000000000000000
 31
0.0000000000000000
  7
STANDARD
  0
MTEXT
  5
9C
100
AcDbEntity
  8
MAIN0
  6
CONTINUOUS
 62
3
100
AcDbMText
 10
194.3241929535468
 20
112.4445794786702
 30
0.0000000000000000
 40
2.399999618530273
 41
0.0000000000000000
 71
     1
 72
     1
  1
{\H0.94x;{ジョーストローク(直径で)}}
 11
1.000000000000000
 21
0.0000000000000000
 31
0.0000000000000000
  7
KNJYOKO
  0
MTEXT
  5
9D
100
AcDbEntity
  8
MAIN0
  6
CONTINUOUS
 62
3
100
AcDbMText
 10
194.3241929535468
 20
115.5445789064656
 30
0.0000000000000000
 40
2.499999046325684
 41
0.0000000000000000
 71
     1
 72
     1
  1
{\H0.75x;{JAW STROKE (IN DIA)}}
 11
1.000000000000000
 21
0.0000000000000000
 31
0.0000000000000000
  7
STANDARD
  0
MTEXT
  5
9E
100
AcDbEntity
  8
MAIN0
  6
CONTINUOUS
 62
3
100
AcDbMText
 10
194.3241929535468
 20
119.4445794786702
 30
0.0000000000000000
 40
2.399999618530273
 41
0.0000000000000000
 71
     1
 72
     1
  1
{\H0.93x;{プランジャストロ－ク}}
 11
1.000000000000000
 21
0.0000000000000000
 31
0.0000000000000000
  7
KNJYOKO
  0
MTEXT
  5
9F
100
AcDbEntity
  8
MAIN0
  6
CONTINUOUS
 62
3
100
AcDbMText
 10
194.3241929535468
 20
122.5445789064656
 30
0.0000000000000000
 40
2.499999046325684
 41
0.0000000000000000
 71
     1
 72
     1
  1
{\H0.75x;{PLUNGER STROKE}}
 11
1.000000000000000
 21
0.0000000000000000
 31
0.0000000000000000
  7
STANDARD
  0
MTEXT
  5
A0
100
AcDbEntity
  8
MAIN0
  6
CONTINUOUS
 62
3
100
AcDbMText
 10
194.3241929535468
 20
55.18124652680686
 30
0.0000000000000000
 40
2.000000000000000
 41
0.0000000000000000
 71
     1
 72
     1
  1
{\H0.62x;{STROKE ON PRESSURE OF 0.6MPa)}}
 11
1.000000000000000
 21
0.0000000000000000
 31
0.0000000000000000
  7
STANDARD
  0
MTEXT
  5
A1
100
AcDbEntity
  8
MAIN0
  6
CONTINUOUS
 62
3
100
AcDbMText
 10
194.3241929535468
 20
58.18124652680686
 30
0.0000000000000000
 40
2.000000000000000
 41
0.0000000000000000
 71
     1
 72
     1
  1
{\H0.63x;{AIR CONSUMPTION (PER 5mm OF PLUNGER }}
 11
1.000000000000000
 21
0.0000000000000000
 31
0.0000000000000000
  7
STANDARD
  0
MTEXT
  5
A2
100
AcDbEntity
  8
MAIN0
  6
CONTINUOUS
 62
3
100
AcDbMText
 10
194.3241929535470
 20
51.58124614533713
 30
0.0000000000000000
 40
2.399999618530273
 41
0.0000000000000000
 71
     1
 72
     1
  1
{\H0.92x;{空気消費量}}
 11
1.000000000000000
 21
0.0000000000000000
 31
0.0000000000000000
  7
KNJYOKO
  0
MTEXT
  5
A3
100
AcDbEntity
  8
MAIN0
  6
CONTINUOUS
 62
3
100
AcDbMText
 10
194.3241929535468
 20
48.68124652680686
 30
0.0000000000000000
 40
2.500000000000000
 41
0.0000000000000000
 71
     1
 72
     1
  1
{\H0.59x;{(プランジャストローク5mm当り圧力0.6MPa時)}}
 11
1.000000000000000
 21
0.0000000000000000
 31
0.0000000000000000
  7
KNJYOKO
  0
MTEXT
  5
A4
100
AcDbEntity
  8
MAIN0
  6
CONTINUOUS
 62
3
100
AcDbMText
 10
194.3241929535467
 20
44.54457890646555
 30
0.0000000000000000
 40
2.499999046325684
 41
0.0000000000000000
 71
     1
 72
     1
  1
{\H0.75x;{GRIPPING RANGE}}
 11
1.000000000000000
 21
0.0000000000000000
 31
0.0000000000000000
  7
STANDARD
  0
MTEXT
  5
A5
100
AcDbEntity
  8
MAIN0
  6
CONTINUOUS
 62
3
100
AcDbMText
 10
194.3241929535467
 20
41.44457947867014
 30
0.0000000000000000
 40
2.399999618530273
 41
0.0000000000000000
 71
     1
 72
     1
  1
{\H0.92x;{把握範囲}}
 11
1.000000000000000
 21
0.0000000000000000
 31
0.0000000000000000
  7
KNJYOKO
  0
MTEXT
  5
A6
100
AcDbEntity
  8
MAIN0
  6
CONTINUOUS
 62
3
100
AcDbMText
 10
194.3241929535468
 20
37.68132816288644
 30
0.0000000000000000
 40
2.499999046325684
 41
0.0000000000000000
 71
     1
 72
     1
  1
{\H0.73x;{MASS}}
 11
1.000000000000000
 21
0.0000000000000000
 31
0.0000000000000000
  7
STANDARD
  0
MTEXT
  5
A7
100
AcDbEntity
  8
MAIN0
  6
CONTINUOUS
 62
3
100
AcDbMText
 10
194.3241929535468
 20
34.58132873509103
 30
0.0000000000000000
 40
2.399999618530273
 41
0.0000000000000000
 71
     1
 72
     1
  1
{\H0.94x;{質量 (標準ソフトジョー付)}}
 11
1.000000000000000
 21
0.0000000000000000
 31
0.0000000000000000
  7
KNJYOKO
  0
MTEXT
  5
A8
100
AcDbEntity
  8
MAIN0
  6
CONTINUOUS
 62
3
100
AcDbMText
 10
204.3241929535468
 20
37.18132911656076
 30
0.0000000000000000
 40
2.000000000000000
 41
0.0000000000000000
 71
     1
 72
     1
  1
{\H0.63x;{(INCLUDE STANDARD SOFT JAW)}}
 11
1.000000000000000
 21
0.0000000000000000
 31
0.0000000000000000
  7
STANDARD
  0
MTEXT
  5
A9
100
AcDbEntity
  8
MAIN0
  6
CONTINUOUS
 62
3
100
AcDbMText
 10
194.3241929535467
 20
66.54457986013986
 30
0.0000000000000000
 40
2.500000000000000
 41
0.0000000000000000
 71
     1
 72
     1
  1
{\H0.63x;{MIN PERMISSIBLE PRESS}}
 11
1.000000000000000
 21
0.0000000000000000
 31
0.0000000000000000
  7
STANDARD
  0
MTEXT
  5
AA
100
AcDbEntity
  8
MAIN0
  6
CONTINUOUS
 62
3
100
AcDbMText
 10
194.3241929535467
 20
63.44457947867014
 30
0.0000000000000000
 40
2.399999618530273
 41
0.0000000000000000
 71
     1
 72
     1
  1
{\H0.93x;{最低使用圧力}}
 11
1.000000000000000
 21
0.0000000000000000
 31
0.0000000000000000
  7
KNJYOKO
  0
MTEXT
  5
AB
100
AcDbEntity
  8
MAIN0
  6
CONTINUOUS
 62
3
100
AcDbMText
 10
194.3241929535467
 20
79.04678579432633
 30
0.0000000000000000
 40
2.500000000000000
 41
0.0000000000000000
 71
     1
 72
     1
  1
{\H0.63x;{MAX PERMISSIBLE\PPRESS}}
 11
1.000000000000000
 21
0.0000000000000000
 31
0.0000000000000000
  7
STANDARD
  0
MTEXT
  5
AC
100
AcDbEntity
  8
MAIN0
  6
CONTINUOUS
 62
3
100
AcDbMText
 10
194.3241929535467
 20
71.94678541285660
 30
0.0000000000000000
 40
2.399999618530273
 41
0.0000000000000000
 71
     1
 72
     1
  1
{\H0.93x;{最高使用圧力}}
 11
1.000000000000000
 21
0.0000000000000000
 31
0.0000000000000000
  7
KNJYOKO
  0
MTEXT
  5
AD
100
AcDbEntity
  8
MAIN0
  6
CONTINUOUS
 62
3
100
AcDbMText
 10
220.1187164238591
 20
80.38128406530714
 30
0.0000000000000000
 40
2.499999046325684
 41
0.0000000000000000
 71
     1
 72
     1
  1
{\H0.74x;{AIR PRESSURE}}
 11
1.000000000000000
 21
0.0000000000000000
 31
0.0000000000000000
  7
STANDARD
  0
MTEXT
  5
AE
100
AcDbEntity
  8
MAIN0
  6
CONTINUOUS
 62
3
100
AcDbMText
 10
220.1187164238592
 20
73.38128406530714
 30
0.0000000000000000
 40
2.499999046325684
 41
0.0000000000000000
 71
     1
 72
     1
  1
{\H0.74x;{OIL PRESSURE}}
 11
1.000000000000000
 21
0.0000000000000000
 31
0.0000000000000000
  7
STANDARD
  0
MTEXT
  5
AF
100
AcDbEntity
  8
MAIN0
  6
CONTINUOUS
 62
3
100
AcDbMText
 10
270.3241929535468
 20
108.5445789064656
 30
0.0000000000000000
 40
2.499999046325684
 41
0.0000000000000000
 71
     1
 72
     1
  1
{\H0.74x;{SOFT JAW}}
 11
1.000000000000000
 21
0.0000000000000000
 31
0.0000000000000000
  7
STANDARD
  0
MTEXT
  5
B0
100
AcDbEntity
  8
MAIN0
  6
CONTINUOUS
 62
3
100
AcDbMText
 10
270.3241929535467
 20
91.44457947867014
 30
0.0000000000000000
 40
2.399999618530273
 41
0.0000000000000000
 71
     1
 72
     1
  1
{\H0.93x;{ソフトジョー使用時}}
 11
1.000000000000000
 21
0.0000000000000000
 31
0.0000000000000000
  7
KNJYOKO
  0
MTEXT
  5
B1
100
AcDbEntity
  8
MAIN0
  6
CONTINUOUS
 62
3
100
AcDbMText
 10
270.3241929535467
 20
94.54457890646555
 30
0.0000000000000000
 40
2.499999046325684
 41
0.0000000000000000
 71
     1
 72
     1
  1
{\H0.74x;{SOFT JAW}}
 11
1.000000000000000
 21
0.0000000000000000
 31
0.0000000000000000
  7
STANDARD
  0
MTEXT
  5
B2
100
AcDbEntity
  8
MAIN0
  6
CONTINUOUS
 62
3
100
AcDbMText
 10
270.3241929535467
 20
98.44457947867016
 30
0.0000000000000000
 40
2.399999618530273
 41
0.0000000000000000
 71
     1
 72
     1
  1
{\H0.93x;{焼入れジョー使用時}}
 11
1.000000000000000
 21
0.0000000000000000
 31
0.0000000000000000
  7
KNJYOKO
  0
MTEXT
  5
B3
100
AcDbEntity
  8
MAIN0
  6
CONTINUOUS
 62
3
100
AcDbMText
 10
270.3241929535467
 20
101.5445789064656
 30
0.0000000000000000
 40
2.499999046325684
 41
0.0000000000000000
 71
     1
 72
     1
  1
{\H0.74x;{HARD JAW}}
 11
1.000000000000000
 21
0.0000000000000000
 31
0.0000000000000000
  7
STANDARD
  0
MTEXT
  5
B4
100
AcDbEntity
  8
MAIN0
  6
CONTINUOUS
 62
3
100
AcDbMText
 10
270.3241929535467
 20
84.44457947867014
 30
0.0000000000000000
 40
2.399999618530273
 41
0.0000000000000000
 71
     1
 72
     1
  1
{\H0.93x;{焼入れジョー使用時}}
 11
1.000000000000000
 21
0.0000000000000000
 31
0.0000000000000000
  7
KNJYOKO
  0
MTEXT
  5
B5
100
AcDbEntity
  8
MAIN0
  6
CONTINUOUS
 62
3
100
AcDbMText
 10
270.3241929535467
 20
87.54457890646555
 30
0.0000000000000000
 40
2.499999046325684
 41
0.0000000000000000
 71
     1
 72
     1
  1
{\H0.74x;{HARD JAW}}
 11
1.000000000000000
 21
0.0000000000000000
 31
0.0000000000000000
  7
STANDARD
  0
MTEXT
  5
B6
100
AcDbEntity
  8
MAIN0
  6
CONTINUOUS
 62
3
100
AcDbMText
 10
214.1187164238591
 20
108.3812840653072
 30
0.0000000000000000
 40
2.499999046325684
 41
0.0000000000000000
 71
     1
 72
     1
  1
{\H0.74x;{AIR PRESSURE}}
 11
1.000000000000000
 21
0.0000000000000000
 31
0.0000000000000000
  7
STANDARD
  0
MTEXT
  5
B7
100
AcDbEntity
  8
MAIN0
  6
CONTINUOUS
 62
3
100
AcDbMText
 10
214.1187164238591
 20
94.38128406530714
 30
0.0000000000000000
 40
2.499999046325684
 41
0.0000000000000000
 71
     1
 72
     1
  1
{\H0.74x;{OIL PRESSURE}}
 11
1.000000000000000
 21
0.0000000000000000
 31
0.0000000000000000
  7
STANDARD
  0
MTEXT
  5
B8
100
AcDbEntity
  8
MAIN0
  6
CONTINUOUS
 62
3
100
AcDbMText
 10
193.1187164238591
 20
101.1812840653072
 30
0.0000000000000000
 40
2.499999046325684
 41
0.0000000000000000
 71
     1
 72
     1
  1
{\H0.74x;{GRIPPING\PFORCE}}
 11
1.000000000000000
 21
0.0000000000000000
 31
0.0000000000000000
  7
STANDARD
  0
MTEXT
  5
B9
100
AcDbEntity
  8
MAIN0
  6
CONTINUOUS
 62
3
100
AcDbMText
 10
385.8535461673434
 20
78.99057013003460
 30
0.0000000000000000
 40
3.099999904632568
 41
0.0000000000000000
 71
     1
 72
     1
  1
{\H0.70x;{チャックへの給油は北川が指定するグリス}}
 11
1.000000000000000
 21
0.0000000000000000
 31
0.0000000000000000
  7
KNJYOKO
  0
MTEXT
  5
BA
100
AcDbEntity
  8
MAIN0
  6
CONTINUOUS
 62
3
100
AcDbMText
 10
457.4665564468847
 20
73.39057022540203
 30
0.0000000000000000
 40
2.500000000000000
 41
0.0000000000000000
 71
     1
 72
     1
  1
{\H0.62x;{GREASE SPECIIFIED BY KITAGAWA.}}
 11
1.000000000000000
 21
0.0000000000000000
 31
0.0000000000000000
  7
STANDARD
  0
MTEXT
  5
BB
100
AcDbEntity
  8
MAIN0
  6
CONTINUOUS
 62
3
100
AcDbMText
 10
385.8535461673434
 20
73.99057013003460
 30
0.0000000000000000
 40
3.099999904632568
 41
0.0000000000000000
 71
     1
 72
     1
  1
{\H0.70x;{を使用して下さい。}}
 11
1.000000000000000
 21
0.0000000000000000
 31
0.0000000000000000
  7
KNJYOKO
  0
MTEXT
  5
BC
100
AcDbEntity
  8
MAIN0
  6
CONTINUOUS
 62
3
100
AcDbMText
 10
457.4665564468846
 20
78.39057022540203
 30
0.0000000000000000
 40
2.500000000000000
 41
0.0000000000000000
 71
     1
 72
     1
  1
{\H0.63x;{LUBRICATE THE CHUCK WITH GREASE GUN USING LUBRICATION}}
 11
1.000000000000000
 21
0.0000000000000000
 31
0.0000000000000000
  7
STANDARD
  0
MTEXT
  5
BD
100
AcDbEntity
  8
MAIN0
  6
CONTINUOUS
 62
3
100
AcDbMText
 10
457.4665564468847
 20
68.39057022540214
 30
0.0000000000000000
 40
2.500000000000000
 41
0.0000000000000000
 71
     1
 72
     1
  1
{\H0.62x;{PREPARE THE SPECIAL LOCATOR.}}
 11
1.000000000000000
 21
0.0000000000000000
 31
0.0000000000000000
  7
STANDARD
  0
LEADER
  5
BE
100
AcDbEntity
  8
MAIN0
  6
CONTINUOUS
 62
3
100
AcDbLeader
  3
MAIN001
 73
     0
 75
     1
 40
3.099999904632568
 41
31.69900001788142
 76
     3
 10
354.5258128729129
 20
303.8460382558419
 30
0.0000000000000000
 10
324.7223425084864
 20
335.0591398127554
 30
0.0000000000000000
 10
322.9353425611471
 20
335.0591398127554
 30
0.0000000000000000
340
BF
213
0.0000000000000000
223
-0.5000000000000000
233
0.0000000000000000
1001
ACAD
1000
DSTYLE
1002
{
1070
   147
1040
0.0
1070
    77
1070
     1
1070
   173
1070
     1
1070
     6
1000
_DOT
1070
     7
1000
_DOT
1002
}
  0
MTEXT
  5
BF
102
{ACAD_REACTORS
330
BE
102
}
100
AcDbEntity
  8
MAIN0
  6
CONTINUOUS
 62
3
100
AcDbMText
 10
291.2363425432657
 20
338.6591397173879
 30
0.0000000000000000
 40
3.099999904632568
 41
0.0000000000000000
 71
     1
 72
     1
  1
{\H0.70x;{表面追加工範囲 (3ヶ所)\PADDITIONAL\PMACHINING AREA\P(3 PLACE)}}
 11
1.000000000000000
 21
0.0000000000000000
 31
0.0000000000000000
  7
KNJYOKO
  0
LEADER
  5
C0
100
AcDbEntity
  8
MAIN0
  6
CONTINUOUS
 62
3
100
AcDbLeader
  3
MAIN001
 73
     0
 75
     1
 40
3.099999904632568
 41
31.39900002086165
 76
     3
 10
302.8367952573810
 20
182.7017392143348
 30
0.0000000000000000
 10
288.1351478364404
 20
156.9615590813717
 30
0.0000000000000000
 10
286.3481478891011
 20
156.9615590813717
 30
0.0000000000000000
340
C1
213
0.0000000000000000
223
-0.5000000000000000
233
0.0000000000000000
1001
ACAD
1000
DSTYLE
1002
{
1070
   147
1040
0.0
1070
    77
1070
     1
1070
   173
1070
     1
1070
     6
1000
_OPEN
1070
     7
1000
_OPEN
1002
}
  0
MTEXT
  5
C1
102
{ACAD_REACTORS
330
C0
102
}
100
AcDbEntity
  8
MAIN0
  6
CONTINUOUS
 62
3
100
AcDbMText
 10
254.9491478682394
 20
160.5615589860043
 30
0.0000000000000000
 40
3.099999904632568
 41
0.0000000000000000
 71
     1
 72
     1
  1
{\H0.71x;{ロックバルブユニット仕様\P（エア専用）\PLOCK VALVE UNIT\P(FOR AIR)}}
 11
1.000000000000000
 21
0.0000000000000000
 31
0.0000000000000000
  7
KNJYOKO
  0
INSERT
  5
CE
100
AcDbEntity
  8
MAIN0
  6
CONTINUOUS
 62
3
100
AcDbBlockReference
  2
M0
 10
0.0000000000000000
 20
0.0000000000000000
 30
0.0000000000000000
 50
0.0000000000000000
  0
INSERT
  5
DB
100
AcDbEntity
  8
MAIN0
  6
CONTINUOUS
 62
3
100
AcDbBlockReference
  2
M1
 10
0.0000000000000000
 20
0.0000000000000000
 30
0.0000000000000000
 50
0.0000000000000000
  0
LEADER
  5
DC
100
AcDbEntity
  8
MAIN0
  6
CONTINUOUS
 62
3
100
AcDbLeader
  3
MAIN001
 73
     0
 75
     1
 40
3.099999904632568
 41
14.59900000894072
 76
     3
 10
394.0838809422576
 20
200.4382455611311
 30
0.0000000000000000
 10
332.9019295734910
 20
140.5002466163414
 30
0.0000000000000000
 10
331.1149296261517
 20
140.5002466163414
 30
0.0000000000000000
340
DD
213
0.0000000000000000
223
-0.5000000000000000
233
0.0000000000000000
1001
ACAD
1000
DSTYLE
1002
{
1070
   147
1040
0.0
1070
    77
1070
     1
1070
   173
1070
     1
1070
     6
1000
_OPEN
1070
     7
1000
_OPEN
1002
}
  0
MTEXT
  5
DD
102
{ACAD_REACTORS
330
DC
102
}
100
AcDbEntity
  8
MAIN0
  6
CONTINUOUS
 62
3
100
AcDbMText
 10
316.5159296172110
 20
144.1002465209739
 30
0.0000000000000000
 40
3.099999904632568
 41
0.0000000000000000
 71
     1
 72
     1
  1
{\H0.70x;{2-Rc1/8}}
 11
1.000000000000000
 21
0.0000000000000000
 31
0.0000000000000000
  7
STANDARD
  0
MTEXT
  5
DE
100
AcDbEntity
  8
MAIN0
  6
CONTINUOUS
 62
3
100
AcDbMText
 10
119.4613428314436
 20
203.4849037667957
 30
0.0000000000000000
 40
2.799999952316284
 41
0.0000000000000000
 71
     1
 72
     1
  1
{\H0.67x;{POSSIBLE DEPTH\PFOR TAPPING\POR BORING}}
 11
1.000000000000000
 21
0.0000000000000000
 31
0.0000000000000000
  7
STANDARD
  0
MTEXT
  5
DF
100
AcDbEntity
  8
MAIN0
  6
CONTINUOUS
 62
3
100
AcDbMText
 10
280.9404052396394
 20
64.81523358121174
 30
0.0000000000000000
 40
2.000000000000000
 41
0.0000000000000000
 71
     1
 72
     1
  1
{\H0.82x;{2}}
 11
1.000000000000000
 21
0.0000000000000000
 31
0.0000000000000000
  7
STANDARD
  0
LINE
  5
E0
100
AcDbEntity
  8
MAIN0
  6
CONTINUOUS
 62
3
100
AcDbLine
 10
222.5776490861474
 20
329.0485404740682
 30
0.0000000000000000
 11
226.5776490861474
 21
329.0485404740682
 31
0.0000000000000000
  0
DIMENSION
  5
EA
100
AcDbEntity
  8
MAIN0
  6
CONTINUOUS
 62
3
100
AcDbDimension
  2
*D3
 10
226.5776490861474
 20
324.3005907592307
 30
0.0000000000000000
 11
224.5776490861474
 21
324.8005907592307
 31
0.0000000000000000
 70
32
  3
MAIN001
100
AcDbAlignedDimension
 13
222.5776490861474
 23
329.0485404740682
 33
0.0000000000000000
 14
226.5776490861474
 24
329.0485404740682
 34
0.0000000000000000
100
AcDbRotatedDimension
1001
ACAD
1000
DSTYLE
1002
{
1070
   173
1070
     1
1070
     6
1000
_OPEN
1070
     7
1000
_OPEN
1070
    41
1040
2.000000
1070
   287
1070
     0
1002
}
  0
LINE
  5
EB
100
AcDbEntity
  8
MAIN0
  6
PHANTOM
 62
3
100
AcDbLine
 10
231.5776490861477
 20
330.2951804882837
 30
0.0000000000000000
 11
231.5776490861477
 21
337.7823105692546
 31
0.0000000000000000
  0
LEADER
  5
EC
100
AcDbEntity
  8
MAIN0
  6
CONTINUOUS
 62
3
100
AcDbLeader
  3
MAIN001
 73
     0
 74
     0
 75
     1
 40
3.099999904632568
 41
10.40100000596044
 76
     3
 10
470.5824414452632
 20
342.9348557131744
 30
0.0000000000000000
 10
492.2379848471818
 20
373.8708881910380
 30
0.0000000000000000
 10
494.0229847945211
 20
373.8708881910380
 30
0.0000000000000000
340
ED
213
0.0000000000000000
223
-0.5000000000000000
233
0.0000000000000000
1001
ACAD
1000
DSTYLE
1002
{
1070
   147
1040
0.0
1070
    77
1070
     1
1070
   173
1070
     1
1070
     6
1000
_OPEN
1070
     7
1000
_OPEN
1002
}
  0
MTEXT
  5
ED
102
{ACAD_REACTORS
330
EC
102
}
100
AcDbEntity
  8
MAIN0
  6
CONTINUOUS
 62
3
100
AcDbMText
 10
494.0239847945211
 20
377.4708880956706
 30
0.0000000000000000
 40
3.099999904632568
 41
0.0000000000000000
 71
     1
 72
     1
  1
{\H0.70x;{6-M10}}
 11
1.000000000000000
 21
0.0000000000000000
 31
0.0000000000000000
  7
STANDARD
  0
LINE
  5
EE
100
AcDbEntity
  8
MAIN0
  6
CONTINUOUS
 62
3
100
AcDbLine
 10
412.0583888207018
 20
329.0485404740684
 30
0.0000000000000000
 11
430.0583888207018
 21
329.0485404740684
 31
0.0000000000000000
  0
LINE
  5
EF
100
AcDbEntity
  8
MAIN0
  6
CONTINUOUS
 62
3
100
AcDbLine
 10
431.0583888207017
 20
330.0485404740683
 30
0.0000000000000000
 11
430.0583888207017
 21
329.0485404740684
 31
0.0000000000000000
  0
LINE
  5
F0
100
AcDbEntity
  8
MAIN0
  6
CONTINUOUS
 62
3
100
AcDbLine
 10
411.0583888207017
 20
330.0485404740683
 30
0.0000000000000000
 11
412.0583888207017
 21
329.0485404740683
 31
0.0000000000000000
  0
LINE
  5
F1
100
AcDbEntity
  8
MAIN0
  6
CONTINUOUS
 62
3
100
AcDbLine
 10
362.0853761990931
 20
213.4534503782667
 30
0.0000000000000000
 11
364.5705851520065
 21
214.8882864362237
 31
0.0000000000000000
  0
LINE
  5
F2
100
AcDbEntity
  8
MAIN0
  6
CONTINUOUS
 62
3
100
AcDbLine
 10
364.5705851520063
 20
214.8882864362236
 30
0.0000000000000000
 11
364.9366105557907
 21
216.2543118400081
 31
0.0000000000000000
  0
LINE
  5
F3
100
AcDbEntity
  8
MAIN0
  6
CONTINUOUS
 62
3
100
AcDbLine
 10
364.9366105557909
 20
216.2543118400081
 30
0.0000000000000000
 11
355.9366105557909
 21
231.8427691081280
 31
0.0000000000000000
  0
LINE
  5
F4
100
AcDbEntity
  8
MAIN0
  6
CONTINUOUS
 62
3
100
AcDbLine
 10
354.5705851520062
 20
232.2087945119123
 30
0.0000000000000000
 11
355.9366105557906
 21
231.8427691081279
 31
0.0000000000000000
  0
LINE
  5
F5
100
AcDbEntity
  8
MAIN0
  6
CONTINUOUS
 62
3
100
AcDbLine
 10
352.0853761990931
 20
230.7739584539555
 30
0.0000000000000000
 11
354.5705851520065
 21
232.2087945119125
 31
0.0000000000000000
  0
LINE
  5
F6
100
AcDbEntity
  8
MAIN0
  6
CONTINUOUS
 62
3
100
AcDbLine
 10
490.0314014423104
 20
230.7739584539556
 30
0.0000000000000000
 11
487.5461924893971
 21
232.2087945119126
 31
0.0000000000000000
  0
LINE
  5
F7
100
AcDbEntity
  8
MAIN0
  6
CONTINUOUS
 62
3
100
AcDbLine
 10
487.5461924893969
 20
232.2087945119126
 30
0.0000000000000000
 11
486.1801670856125
 21
231.8427691081282
 31
0.0000000000000000
  0
LINE
  5
F8
100
AcDbEntity
  8
MAIN0
  6
CONTINUOUS
 62
3
100
AcDbLine
 10
486.1801670856126
 20
231.8427691081282
 30
0.0000000000000000
 11
477.1801670856126
 21
216.2543118400083
 31
0.0000000000000000
  0
LINE
  5
F9
100
AcDbEntity
  8
MAIN0
  6
CONTINUOUS
 62
3
100
AcDbLine
 10
477.5461924893969
 20
214.8882864362238
 30
0.0000000000000000
 11
477.1801670856125
 21
216.2543118400081
 31
0.0000000000000000
  0
LINE
  5
FA
100
AcDbEntity
  8
MAIN0
  6
CONTINUOUS
 62
3
100
AcDbLine
 10
480.0314014423104
 20
213.4534503782668
 30
0.0000000000000000
 11
477.5461924893971
 21
214.8882864362238
 31
0.0000000000000000
  0
MTEXT
  5
FB
100
AcDbEntity
  8
MAIN0
  6
CONTINUOUS
 62
3
100
AcDbMText
 10
210.5000000000005
 20
220.3985408555668
 30
0.0000000000000000
 40
4.000000000000000
 41
0.0000000000000000
 71
     1
 72
     1
  1
{\H0.59x;{ロケータ取付可能面範囲}}
 11
6.123233995736766e-017
 21
1.000000000000000
 31
0.0000000000000000
  7
KNJYOKO
  0
MTEXT
  5
FC
100
AcDbEntity
  8
MAIN0
  6
CONTINUOUS
 62
3
100
AcDbMText
 10
215.5000000000005
 20
220.3985408555668
 30
0.0000000000000000
 40
2.799999952316284
 41
0.0000000000000000
 71
     1
 72
     1
  1
{\H0.67x;{LOCATOR ATTACHABLE\PSURFACE AREA}}
 11
6.123233995736766e-017
 21
1.000000000000000
 31
0.0000000000000000
  7
STANDARD
  0
LEADER
  5
FD
100
AcDbEntity
  8
MAIN0
  6
CONTINUOUS
 62
3
100
AcDbLeader
  3
MAIN001
 73
     3
 74
     0
 75
     0
 76
     2
 10
185.0776490861469
 20
267.5000000000000
 30
0.0000000000000000
 10
192.5000000000000
 20
272.5000000000000
 30
0.0000000000000000
1001
ACAD
1000
DSTYLE
1002
{
1070
   173
1070
     1
1070
     6
1000
_OPEN
1070
     7
1000
_OPEN
1002
}
  0
MTEXT
  5
FE
100
AcDbEntity
  8
MAIN0
  6
CONTINUOUS
 62
3
100
AcDbMText
 10
114.5139999821186
 20
356.3000001907349
 30
0.0000000000000000
 40
3.099999904632568
 41
0.0000000000000000
 71
     1
 72
     1
  1
{\H0.71x;{COVER:\PPREPARE THE\PLOCATOR FOR SEAL}}
 11
1.000000000000000
 21
0.0000000000000000
 31
0.0000000000000000
  7
STANDARD
  0
MTEXT
  5
FF
100
AcDbEntity
  8
MAIN0
  6
CONTINUOUS
 62
3
100
AcDbMText
 10
233.3276490861474
 20
374.5000000000000
 30
0.0000000000000000
 40
3.099999904632568
 41
0.0000000000000000
 71
     1
 72
     1
  1
{\H0.70x;{MIN  5}}
 11
1.000000000000000
 21
0.0000000000000000
 31
0.0000000000000000
  7
STANDARD
  0
MTEXT
  5
100
100
AcDbEntity
  8
MAIN0
  6
CONTINUOUS
 62
3
100
AcDbMText
 10
249.9154922832792
 20
240.7022604214063
 30
0.0000000000000000
 40
3.099999904632568
 41
0.0000000000000000
 71
     1
 72
     1
  1
{\H0.66x;{MIN 1.25}}
 11
6.123233995736766e-017
 21
1.000000000000000
 31
0.0000000000000000
  7
STANDARD
  0
LINE
  5
101
100
AcDbEntity
  8
MAIN0
  6
CONTINUOUS
 62
3
100
AcDbLine
 10
95.07764908614766
 20
176.7985404740686
 30
0.0000000000000000
 11
165.5776490861472
 21
176.7985404740686
 31
0.0000000000000000
  0
LINE
  5
102
100
AcDbEntity
  8
MAIN0
  6
CONTINUOUS
 62
3
100
AcDbLine
 10
159.4516546376992
 20
276.5485404740678
 30
0.0000000000000000
 11
183.0776490863423
 21
276.5485404740678
 31
0.0000000000000000
  0
LINE
  5
103
100
AcDbEntity
  8
MAIN0
  6
CONTINUOUS
 62
3
100
AcDbLine
 10
167.8901030017611
 20
288.9235857588554
 30
0.0000000000000000
 11
196.5776490861475
 21
296.0761943305471
 31
0.0000000000000000
  0
LINE
  5
104
100
AcDbEntity
  8
MAIN0
  6
CONTINUOUS
 62
3
100
AcDbLine
 10
200.5776490861471
 20
261.5485404740680
 30
0.0000000000000000
 11
226.5776490861473
 21
261.5485404740681
 31
0.0000000000000000
  0
LINE
  5
105
100
AcDbEntity
  8
MAIN0
  6
CONTINUOUS
 62
3
100
AcDbLine
 10
436.0583888207016
 20
269.9201193778701
 30
0.0000000000000000
 11
436.0583888207016
 21
319.2066654448412
 31
0.0000000000000000
  0
LINE
  5
106
100
AcDbEntity
  8
MAIN0
  6
CONTINUOUS
 62
3
100
AcDbLine
 10
183.5776490861474
 20
211.5485404740684
 30
0.0000000000000000
 11
183.5776490861474
 21
216.5485404740972
 31
0.0000000000000000
  0
LINE
  5
107
100
AcDbEntity
  8
MAIN0
  6
CONTINUOUS
 62
3
100
AcDbLine
 10
184.5776490861472
 20
194.5485404739222
 30
0.0000000000000000
 11
184.5776490861473
 21
211.5485404740684
 31
0.0000000000000000
  0
LINE
  5
108
100
AcDbEntity
  8
MAIN0
  6
CONTINUOUS
 62
3
100
AcDbLine
 10
406.0583888207015
 20
269.9201193769931
 30
0.0000000000000000
 11
406.0583888207016
 21
319.2066654448412
 31
0.0000000000000000
  0
LINE
  5
109
100
AcDbEntity
  8
MAIN0
  6
PHANTOM
 62
12
100
AcDbLine
 10
174.0508829262959
 20
271.5485404740678
 30
0.0000000000000000
 11
178.0776490861473
 21
271.5485404740678
 31
0.0000000000000000
  0
LINE
  5
10A
100
AcDbEntity
  8
MAIN0
  6
CONTINUOUS
 62
3
100
AcDbLine
 10
206.5776490861473
 20
295.5485404740680
 30
0.0000000000000000
 11
225.9776490861473
 21
295.5485404740681
 31
0.0000000000000000
  0
LINE
  5
10B
100
AcDbEntity
  8
MAIN0
  6
CONTINUOUS
 62
3
100
AcDbLine
 10
206.5776490861469
 20
312.5485404740682
 30
0.0000000000000000
 11
225.9776490861471
 21
312.5485404740682
 31
0.0000000000000000
  0
LINE
  5
10C
100
AcDbEntity
  8
MAIN0
  6
CONTINUOUS
 62
3
100
AcDbLine
 10
206.5776490861469
 20
295.5485404740682
 30
0.0000000000000000
 11
206.5776490861469
 21
312.5485404740682
 31
0.0000000000000000
  0
LINE
  5
10D
100
AcDbEntity
  8
MAIN0
  6
CONTINUOUS
 62
3
100
AcDbLine
 10
226.5776490861471
 20
294.9485404740682
 30
0.0000000000000000
 11
225.9776490861472
 21
295.5485404740681
 31
0.0000000000000000
  0
LINE
  5
10E
100
AcDbEntity
  8
MAIN0
  6
CONTINUOUS
 62
3
100
AcDbLine
 10
226.5776490861470
 20
313.1485404740683
 30
0.0000000000000000
 11
225.9776490861470
 21
312.5485404740683
 31
0.0000000000000000
  0
LINE
  5
10F
100
AcDbEntity
  8
MAIN0
  6
CONTINUOUS
 62
3
100
AcDbLine
 10
196.5776490861470
 20
286.0485404740679
 30
0.0000000000000000
 11
196.5776490861470
 21
300.0485404740682
 31
0.0000000000000000
  0
LINE
  5
110
100
AcDbEntity
  8
MAIN0
  6
CONTINUOUS
 62
3
100
AcDbLine
 10
196.5776490861472
 20
308.0485404740680
 30
0.0000000000000000
 11
196.5776490861472
 21
316.0485404740360
 31
0.0000000000000000
  0
LINE
  5
111
100
AcDbEntity
  8
MAIN0
  6
CONTINUOUS
 62
3
100
AcDbLine
 10
196.1276510261480
 20
299.0485385340676
 30
0.0000000000000000
 11
196.5776490861476
 21
298.5985404740679
 31
0.0000000000000000
  0
LINE
  5
112
100
AcDbEntity
  8
MAIN0
  6
CONTINUOUS
 62
3
100
AcDbLine
 10
196.1276471461477
 20
309.0485385340682
 30
0.0000000000000000
 11
196.5776490861476
 21
309.4985404740681
 31
0.0000000000000000
  0
LINE
  5
113
100
AcDbEntity
  8
MAIN0
  6
CENTER
 62
12
100
AcDbLine
 10
176.7768691445821
 20
304.0485404740682
 30
0.0000000000000000
 11
228.6881669727779
 21
304.0485404740682
 31
0.0000000000000000
  0
LINE
  5
114
100
AcDbEntity
  8
MAIN0
  6
CENTER
 62
12
100
AcDbLine
 10
410.2990514286282
 20
304.0485404740684
 30
0.0000000000000000
 11
432.6190676264901
 21
304.0485404740684
 31
0.0000000000000000
  0
LINE
  5
115
100
AcDbEntity
  8
MAIN0
  6
CONTINUOUS
 62
3
100
AcDbLine
 10
425.0583888207015
 20
306.3579424740682
 30
0.0000000000000000
 11
421.0583888207015
 21
308.6673414740682
 31
0.0000000000000000
  0
LINE
  5
116
100
AcDbEntity
  8
MAIN0
  6
CONTINUOUS
 62
3
100
AcDbLine
 10
421.0583888207019
 20
308.6673414740681
 30
0.0000000000000000
 11
417.0583888207021
 21
306.3579384740682
 31
0.0000000000000000
  0
LINE
  5
117
100
AcDbEntity
  8
MAIN0
  6
CONTINUOUS
 62
3
100
AcDbLine
 10
417.0583888207019
 20
306.3579384740683
 30
0.0000000000000000
 11
417.0583888207019
 21
301.7391374740682
 31
0.0000000000000000
  0
LINE
  5
118
100
AcDbEntity
  8
MAIN0
  6
CONTINUOUS
 62
3
100
AcDbLine
 10
417.0583888207017
 20
301.7391374740681
 30
0.0000000000000000
 11
421.0583888207016
 21
299.4297384740681
 31
0.0000000000000000
  0
LINE
  5
119
100
AcDbEntity
  8
MAIN0
  6
CONTINUOUS
 62
3
100
AcDbLine
 10
421.0583888207020
 20
299.4297384740685
 30
0.0000000000000000
 11
425.0583888207022
 21
301.7391414740686
 31
0.0000000000000000
  0
LINE
  5
11A
100
AcDbEntity
  8
MAIN0
  6
CONTINUOUS
 62
3
100
AcDbLine
 10
425.0583888207019
 20
301.7391414740682
 30
0.0000000000000000
 11
425.0583888207019
 21
306.3579424740683
 31
0.0000000000000000
  0
LINE
  5
11B
100
AcDbEntity
  8
MAIN0
  6
CONTINUOUS
 62
3
100
AcDbLine
 10
183.5776490861474
 20
211.5485404740683
 30
0.0000000000000000
 11
184.5776490861474
 21
211.5485404740683
 31
0.0000000000000000
  0
LINE
  5
11C
100
AcDbEntity
  8
MAIN0
  6
CENTER
 62
12
100
AcDbLine
 10
442.8790587973277
 20
319.0485404740684
 30
0.0000000000000000
 11
399.9490603352396
 21
319.0485404740684
 31
0.0000000000000000
  0
LINE
  5
11D
100
AcDbEntity
  8
MAIN0
  6
CONTINUOUS
 62
3
100
AcDbLine
 10
404.1433253107628
 20
266.6031320789336
 30
0.0000000000000000
 11
361.4599243519742
 21
241.9598590454483
 31
0.0000000000000000
  0
LINE
  5
11E
100
AcDbEntity
  8
MAIN0
  6
CONTINUOUS
 62
3
100
AcDbLine
 10
419.1433253115220
 20
240.6223699658385
 30
0.0000000000000000
 11
376.4599243519742
 21
215.9790969319150
 31
0.0000000000000000
  0
LINE
  5
11F
100
AcDbEntity
  8
MAIN0
  6
CENTER
 62
12
100
AcDbLine
 10
387.4669143464392
 20
227.2306809646445
 30
0.0000000000000000
 11
376.3069062475084
 21
246.5603820048729
 31
0.0000000000000000
  0
LINE
  5
120
100
AcDbEntity
  8
MAIN0
  6
CONTINUOUS
 62
3
100
AcDbLine
 10
378.0872448508517
 20
238.8579410892060
 30
0.0000000000000000
 11
378.0872466493773
 21
234.2391399740683
 31
0.0000000000000000
  0
LINE
  5
121
100
AcDbEntity
  8
MAIN0
  6
CONTINUOUS
 62
3
100
AcDbLine
 10
378.0872466493776
 20
234.2391399740681
 30
0.0000000000000000
 11
382.0872483149533
 21
231.9297398589304
 31
0.0000000000000000
  0
LINE
  5
122
100
AcDbEntity
  8
MAIN0
  6
CONTINUOUS
 62
3
100
AcDbLine
 10
382.0872483149533
 20
231.9297398589303
 30
0.0000000000000000
 11
386.0872473159780
 21
234.2391403589301
 31
0.0000000000000000
  0
LINE
  5
123
100
AcDbEntity
  8
MAIN0
  6
CONTINUOUS
 62
3
100
AcDbLine
 10
386.0872473159785
 20
234.2391403589304
 30
0.0000000000000000
 11
386.0872455174529
 21
238.8579414740681
 31
0.0000000000000000
  0
LINE
  5
124
100
AcDbEntity
  8
MAIN0
  6
CONTINUOUS
 62
3
100
AcDbLine
 10
386.0872455174527
 20
238.8579414740679
 30
0.0000000000000000
 11
382.0872438518766
 21
241.1673415892058
 31
0.0000000000000000
  0
LINE
  5
125
100
AcDbEntity
  8
MAIN0
  6
CONTINUOUS
 62
3
100
AcDbLine
 10
382.0872438518770
 20
241.1673415892060
 30
0.0000000000000000
 11
378.0872448508519
 21
238.8579410892059
 31
0.0000000000000000
  0
LINE
  5
126
100
AcDbEntity
  8
MAIN0
  6
CENTER
 62
12
100
AcDbLine
 10
358.1865296053231
 20
247.9457950014224
 30
0.0000000000000000
 11
379.6515288363670
 21
210.7673257488274
 31
0.0000000000000000
  0
LINE
  5
127
100
AcDbEntity
  8
MAIN0
  6
CONTINUOUS
 62
3
100
AcDbLine
 10
422.9734523306411
 20
240.6223699654016
 30
0.0000000000000000
 11
465.6568532894301
 21
215.9790969319161
 31
0.0000000000000000
  0
LINE
  5
128
100
AcDbEntity
  8
MAIN0
  6
CONTINUOUS
 62
3
100
AcDbLine
 10
441.5487698774688
 20
264.5389215308353
 30
0.0000000000000000
 11
480.5199130477687
 21
242.0389215308351
 31
0.0000000000000000
  0
LINE
  5
129
100
AcDbEntity
  8
MAIN0
  6
CENTER
 62
12
100
AcDbLine
 10
465.4092006870387
 20
245.8663999834918
 30
0.0000000000000000
 11
454.2491925881078
 21
226.5366989432633
 31
0.0000000000000000
  0
LINE
  5
12A
100
AcDbEntity
  8
MAIN0
  6
CONTINUOUS
 62
3
100
AcDbLine
 10
460.0295327905526
 20
231.9297378589306
 30
0.0000000000000000
 11
464.0295309920269
 21
234.2391399740683
 31
0.0000000000000000
  0
LINE
  5
12B
100
AcDbEntity
  8
MAIN0
  6
CONTINUOUS
 62
3
100
AcDbLine
 10
464.0295309920231
 20
234.2391399740685
 30
0.0000000000000000
 11
464.0295293264472
 21
238.8579430892064
 31
0.0000000000000000
  0
LINE
  5
12C
100
AcDbEntity
  8
MAIN0
  6
CONTINUOUS
 62
3
100
AcDbLine
 10
464.0295293264511
 20
238.8579430892060
 30
0.0000000000000000
 11
460.0295303254260
 21
241.1673435892060
 31
0.0000000000000000
  0
LINE
  5
12D
100
AcDbEntity
  8
MAIN0
  6
CONTINUOUS
 62
3
100
AcDbLine
 10
460.0295303254257
 20
241.1673435892063
 30
0.0000000000000000
 11
456.0295321239514
 21
238.8579414740686
 31
0.0000000000000000
  0
LINE
  5
12E
100
AcDbEntity
  8
MAIN0
  6
CONTINUOUS
 62
3
100
AcDbLine
 10
456.0295321239512
 20
238.8579414740686
 30
0.0000000000000000
 11
456.0295337895273
 21
234.2391383589306
 31
0.0000000000000000
  0
LINE
  5
12F
100
AcDbEntity
  8
MAIN0
  6
CONTINUOUS
 62
3
100
AcDbLine
 10
456.0295337895275
 20
234.2391383589304
 30
0.0000000000000000
 11
460.0295327905521
 21
231.9297378589306
 31
0.0000000000000000
  0
LINE
  5
130
100
AcDbEntity
  8
MAIN0
  6
CONTINUOUS
 62
3
100
AcDbLine
 10
405.0583888207019
 20
309.4494123645468
 30
0.0000000000000000
 11
405.0583888207020
 21
319.0485404740683
 31
0.0000000000000000
  0
LINE
  5
131
100
AcDbEntity
  8
MAIN0
  6
CONTINUOUS
 62
3
100
AcDbLine
 10
437.0583888207013
 20
309.4494123645470
 30
0.0000000000000000
 11
437.0583888207013
 21
319.0485404740682
 31
0.0000000000000000
  0
LINE
  5
132
100
AcDbEntity
  8
MAIN0
  6
CONTINUOUS
 62
3
100
AcDbLine
 10
172.0776490861471
 20
276.5485404740680
 30
0.0000000000000000
 11
173.0776490861472
 21
275.9711902048783
 31
0.0000000000000000
  0
LINE
  5
133
100
AcDbEntity
  8
MAIN0
  6
PHANTOM
 62
12
100
AcDbLine
 10
177.0776490861473
 20
276.5485404740682
 30
0.0000000000000000
 11
178.0776490861472
 21
275.9711902048787
 31
0.0000000000000000
  0
LINE
  5
134
100
AcDbEntity
  8
MAIN0
  6
CONTINUOUS
 62
3
100
AcDbLine
 10
181.5776470861472
 20
299.0485404740680
 30
0.0000000000000000
 11
181.5776470861472
 21
309.0485404740680
 31
0.0000000000000000
  0
LINE
  5
135
100
AcDbEntity
  8
MAIN0
  6
CONTINUOUS
 62
12
100
AcDbLine
 10
206.5776490861472
 20
300.0485404740682
 30
0.0000000000000000
 11
181.5776470861474
 21
300.0485404740682
 31
0.0000000000000000
  0
LINE
  5
136
100
AcDbEntity
  8
MAIN0
  6
CONTINUOUS
 62
12
100
AcDbLine
 10
206.5776490861472
 20
308.0485404740682
 30
0.0000000000000000
 11
181.5776470861474
 21
308.0485404740682
 31
0.0000000000000000
  0
LINE
  5
137
100
AcDbEntity
  8
MAIN0
  6
CONTINUOUS
 62
3
100
AcDbLine
 10
206.5776530861472
 20
312.0485404740683
 30
0.0000000000000000
 11
215.9776620861472
 21
312.0485324740683
 31
0.0000000000000000
  0
LINE
  5
138
100
AcDbEntity
  8
MAIN0
  6
CONTINUOUS
 62
3
100
AcDbLine
 10
215.9776530861472
 20
296.0485364740680
 30
0.0000000000000000
 11
206.5776450861470
 21
296.0485404740680
 31
0.0000000000000000
  0
LINE
  5
139
100
AcDbEntity
  8
MAIN0
  6
CONTINUOUS
 62
3
100
AcDbLine
 10
215.9776550861469
 20
312.0485324740683
 30
0.0000000000000000
 11
215.9776450861469
 21
296.0485364740682
 31
0.0000000000000000
  0
LINE
  5
13A
100
AcDbEntity
  8
MAIN0
  6
CONTINUOUS
 62
3
100
AcDbLine
 10
216.5776370861471
 20
311.0093864740682
 30
0.0000000000000000
 11
215.9776550861472
 21
312.0485324740680
 31
0.0000000000000000
  0
LINE
  5
13B
100
AcDbEntity
  8
MAIN0
  6
CONTINUOUS
 62
3
100
AcDbLine
 10
216.5776290861470
 20
297.0877054740680
 30
0.0000000000000000
 11
215.9776450861471
 21
296.0485364740680
 31
0.0000000000000000
  0
LINE
  5
13C
100
AcDbEntity
  8
MAIN0
  6
CONTINUOUS
 62
3
100
AcDbLine
 10
216.5776490861468
 20
297.0877401139587
 30
0.0000000000000000
 11
216.5776490861468
 21
311.0093656905246
 31
0.0000000000000000
  0
LINE
  5
13D
100
AcDbEntity
  8
MAIN0
  6
CONTINUOUS
 62
3
100
AcDbLine
 10
392.8417269963339
 20
336.5731816889054
 30
0.0000000000000000
 11
404.8124320127869
 21
303.6839399612487
 31
0.0000000000000000
  0
LINE
  5
13E
100
AcDbEntity
  8
MAIN0
  6
CONTINUOUS
 62
3
100
AcDbLine
 10
196.9776490861471
 20
309.5485404740682
 30
0.0000000000000000
 11
206.5776490861470
 21
309.5485404740682
 31
0.0000000000000000
  0
LINE
  5
13F
100
AcDbEntity
  8
MAIN0
  6
CONTINUOUS
 62
3
100
AcDbLine
 10
196.9776490861473
 20
298.5485404740680
 30
0.0000000000000000
 11
206.5776490861472
 21
298.5485404740680
 31
0.0000000000000000
  0
LINE
  5
140
100
AcDbEntity
  8
MAIN0
  6
CONTINUOUS
 62
3
100
AcDbLine
 10
199.5776490861471
 20
262.5485404740683
 30
0.0000000000000000
 11
199.5776490861471
 21
286.0485404740681
 31
0.0000000000000000
  0
LINE
  5
141
100
AcDbEntity
  8
MAIN0
  6
CONTINUOUS
 62
3
100
AcDbLine
 10
196.5776490861473
 20
286.0485404740680
 30
0.0000000000000000
 11
199.5776490861473
 21
286.0485404740680
 31
0.0000000000000000
  0
LINE
  5
142
100
AcDbEntity
  8
MAIN0
  6
CONTINUOUS
 62
3
100
AcDbLine
 10
200.5776490861466
 20
261.5485404740677
 30
0.0000000000000000
 11
199.5776490861464
 21
262.5485404740678
 31
0.0000000000000000
  0
CIRCLE
  5
143
100
AcDbEntity
  8
MAIN0
  6
CONTINUOUS
 62
3
100
AcDbCircle
 10
421.0583888207019
 20
304.0485404740682
 30
0.0000000000000000
 40
8.000000000000000
  0
CIRCLE
  5
144
100
AcDbEntity
  8
MAIN0
  6
CONTINUOUS
 62
3
100
AcDbCircle
 10
421.0583888207019
 20
304.0485404740682
 30
0.0000000000000000
 40
8.500000000000462
  0
CIRCLE
  5
145
100
AcDbEntity
  8
MAIN0
  6
CONTINUOUS
 62
3
100
AcDbCircle
 10
382.0872456504025
 20
236.5485404740682
 30
0.0000000000000000
 40
8.000000000000000
  0
CIRCLE
  5
146
100
AcDbEntity
  8
MAIN0
  6
CONTINUOUS
 62
3
100
AcDbCircle
 10
382.0872456504025
 20
236.5485404740682
 30
0.0000000000000000
 40
8.500000000000462
  0
CIRCLE
  5
147
100
AcDbEntity
  8
MAIN0
  6
CONTINUOUS
 62
3
100
AcDbCircle
 10
460.0295319910018
 20
236.5485404740684
 30
0.0000000000000000
 40
8.000000000000000
  0
CIRCLE
  5
148
100
AcDbEntity
  8
MAIN0
  6
CONTINUOUS
 62
3
100
AcDbCircle
 10
460.0295319910018
 20
236.5485404740684
 30
0.0000000000000000
 40
8.500000000000462
  0
LINE
  5
149
100
AcDbEntity
  8
MAIN0
  6
CONTINUOUS
 62
3
100
AcDbLine
 10
201.5776490861470
 20
321.0485404740368
 30
0.0000000000000000
 11
196.5776490861471
 21
316.0485404740364
 31
0.0000000000000000
  0
ARC
  5
14A
100
AcDbEntity
  8
MAIN0
  6
CONTINUOUS
 62
3
100
AcDbCircle
 10
421.0583888207019
 20
259.0485404740682
 30
0.0000000000000000
 40
61.99999999999311
100
AcDbArc
 50
75.04475168335560
 51
104.9552483166452
  0
LINE
  5
14B
100
AcDbEntity
  8
MAIN0
  6
CONTINUOUS
 62
3
100
AcDbLine
 10
226.5776490861474
 20
329.0485404740682
 30
0.0000000000000000
 11
226.5776490861474
 21
336.5356705550390
 31
0.0000000000000000
  0
LINE
  5
14C
100
AcDbEntity
  8
MAIN0
  6
CONTINUOUS
 62
3
100
AcDbLine
 10
222.5776490861474
 20
329.0485404740682
 30
0.0000000000000000
 11
222.5776490861474
 21
321.0485404740392
 31
0.0000000000000000
  0
LINE
  5
14D
100
AcDbEntity
  8
MAIN0
  6
CONTINUOUS
 62
3
100
AcDbLine
 10
226.5776490861468
 20
321.0485404740392
 30
0.0000000000000000
 11
226.5776490861469
 21
261.5485404740681
 31
0.0000000000000000
  0
LINE
  5
14E
100
AcDbEntity
  8
MAIN0
  6
CONTINUOUS
 62
3
100
AcDbLine
 10
183.5776490861472
 20
216.5485404740971
 30
0.0000000000000000
 11
184.0776490861472
 21
216.5485404740971
 31
0.0000000000000000
  0
LINE
  5
14F
100
AcDbEntity
  8
MAIN0
  6
CONTINUOUS
 62
3
100
AcDbLine
 10
149.5776490861480
 20
271.5485404740677
 30
0.0000000000000000
 11
173.0776490861472
 21
271.5485404740678
 31
0.0000000000000000
  0
LINE
  5
150
100
AcDbEntity
  8
MAIN0
  6
CONTINUOUS
 62
3
100
AcDbLine
 10
80.07764908614789
 20
359.9485404740680
 30
0.0000000000000000
 11
80.07764908614794
 21
158.1485404740681
 31
0.0000000000000000
  0
LINE
  5
151
100
AcDbEntity
  8
MAIN0
  6
CONTINUOUS
 62
3
100
AcDbLine
 10
94.47764908614771
 20
360.5485404740680
 30
0.0000000000000000
 11
80.67764908614774
 21
360.5485404740680
 31
0.0000000000000000
  0
LINE
  5
152
100
AcDbEntity
  8
MAIN0
  6
CONTINUOUS
 62
3
100
AcDbLine
 10
94.47764908614776
 20
157.5485404740681
 30
0.0000000000000000
 11
80.67764908614780
 21
157.5485404740681
 31
0.0000000000000000
  0
LINE
  5
153
100
AcDbEntity
  8
MAIN0
  6
CENTER
 62
3
100
AcDbLine
 10
102.0966352142708
 20
351.5485404740682
 30
0.0000000000000000
 11
72.89362465005794
 21
351.5485404740681
 31
0.0000000000000000
  0
LINE
  5
154
100
AcDbEntity
  8
MAIN0
  6
HIDDEN
 62
3
100
AcDbLine
 10
80.57764908614790
 20
306.5485404740681
 30
0.0000000000000000
 11
80.07764908614767
 21
306.5485404740681
 31
0.0000000000000000
  0
LINE
  5
155
100
AcDbEntity
  8
MAIN0
  6
HIDDEN
 62
3
100
AcDbLine
 10
80.57764908614780
 20
211.5485404740679
 30
0.0000000000000000
 11
80.07764908614780
 21
211.5485404740679
 31
0.0000000000000000
  0
LINE
  5
156
100
AcDbEntity
  8
MAIN0
  6
CONTINUOUS
 62
3
100
AcDbLine
 10
95.07764908614787
 20
359.9485404740684
 30
0.0000000000000000
 11
95.07764908614796
 21
267.9095821327464
 31
0.0000000000000000
  0
LINE
  5
157
100
AcDbEntity
  8
MAIN0
  6
CONTINUOUS
 62
3
100
AcDbLine
 10
111.3776490862393
 20
272.0485404740813
 30
0.0000000000000000
 11
111.3776490862393
 21
270.0485404740813
 31
0.0000000000000000
  0
LINE
  5
158
100
AcDbEntity
  8
MAIN0
  6
CONTINUOUS
 62
3
100
AcDbLine
 10
104.7794777448148
 20
270.0485404740684
 30
0.0000000000000000
 11
127.3776490862396
 21
270.0485404740683
 31
0.0000000000000000
  0
LINE
  5
159
100
AcDbEntity
  8
MAIN0
  6
CONTINUOUS
 62
3
100
AcDbLine
 10
111.3776490862170
 20
272.0485404740682
 30
0.0000000000000000
 11
114.5776490862169
 21
272.0485404740682
 31
0.0000000000000000
  0
LINE
  5
15A
100
AcDbEntity
  8
MAIN0
  6
CONTINUOUS
 62
3
100
AcDbLine
 10
114.5776490862393
 20
272.0485404740813
 30
0.0000000000000000
 11
114.5776490862393
 21
270.0485404740813
 31
0.0000000000000000
  0
LINE
  5
15B
100
AcDbEntity
  8
MAIN0
  6
CONTINUOUS
 62
3
100
AcDbLine
 10
97.57764908623912
 20
265.5485404740688
 30
0.0000000000000000
 11
121.5776490862393
 21
265.5485404740685
 31
0.0000000000000000
  0
LINE
  5
15C
100
AcDbEntity
  8
MAIN0
  6
CONTINUOUS
 62
3
100
AcDbLine
 10
97.57764908623922
 20
252.5485404740687
 30
0.0000000000000000
 11
121.5776490862393
 21
252.5485404740684
 31
0.0000000000000000
  0
LINE
  5
15D
100
AcDbEntity
  8
MAIN0
  6
CONTINUOUS
 62
3
100
AcDbLine
 10
122.5776490862392
 20
269.4711902048957
 30
0.0000000000000000
 11
121.5776490862689
 21
270.0485404740690
 31
0.0000000000000000
  0
LINE
  5
15E
100
AcDbEntity
  8
MAIN0
  6
CONTINUOUS
 62
3
100
AcDbLine
 10
111.3776490862393
 20
246.0485404740545
 30
0.0000000000000000
 11
111.3776490862393
 21
248.0485404740545
 31
0.0000000000000000
  0
LINE
  5
15F
100
AcDbEntity
  8
MAIN0
  6
CONTINUOUS
 62
3
100
AcDbLine
 10
107.7203828312199
 20
248.0485404740679
 30
0.0000000000000000
 11
127.3776490862395
 21
248.0485404740681
 31
0.0000000000000000
  0
LINE
  5
160
100
AcDbEntity
  8
MAIN0
  6
CONTINUOUS
 62
3
100
AcDbLine
 10
111.3776490862171
 20
246.0485404740679
 30
0.0000000000000000
 11
114.5776490862169
 21
246.0485404740680
 31
0.0000000000000000
  0
LINE
  5
161
100
AcDbEntity
  8
MAIN0
  6
CONTINUOUS
 62
3
100
AcDbLine
 10
114.5776490862394
 20
246.0485404740546
 30
0.0000000000000000
 11
114.5776490862394
 21
248.0485404740546
 31
0.0000000000000000
  0
LINE
  5
162
100
AcDbEntity
  8
MAIN0
  6
CONTINUOUS
 62
3
100
AcDbLine
 10
122.5776490862391
 20
248.6258907432405
 30
0.0000000000000000
 11
121.5776490862687
 21
248.0485404740672
 31
0.0000000000000000
  0
ELLIPSE
  5
163
100
AcDbEntity
  8
MAIN0
  6
CONTINUOUS
 62
3
100
AcDbEllipse
 10
112.9776490862392
 20
271.0485404740687
 30
0.0000000000000000
 11
-1.600000000000001
 21
0.0000000000000000
 31
0.0000000000000000
210
0.0000000000000000
220
0.0000000000000000
230
1.000000000000000
 40
0.6249999999997152
 41
0.0000000000000000
 42
6.283185307179586
  0
ELLIPSE
  5
164
100
AcDbEntity
  8
MAIN0
  6
CONTINUOUS
 62
3
100
AcDbEllipse
 10
112.9776490862392
 20
247.0485404740675
 30
0.0000000000000000
 11
-1.600000000000001
 21
0.0000000000000000
 31
0.0000000000000000
210
0.0000000000000000
220
0.0000000000000000
230
1.000000000000000
 40
0.6249999999997152
 41
0.0000000000000000
 42
6.283185307179586
  0
LINE
  5
165
100
AcDbEntity
  8
MAIN0
  6
PHANTOM
 62
12
100
AcDbLine
 10
174.0508829262959
 20
246.5485404740683
 30
0.0000000000000000
 11
178.0776490861473
 21
246.5485404740683
 31
0.0000000000000000
  0
LINE
  5
166
100
AcDbEntity
  8
MAIN0
  6
CONTINUOUS
 62
3
100
AcDbLine
 10
172.0776490861472
 20
241.5485404740686
 30
0.0000000000000000
 11
173.0776490861473
 21
242.1258907432582
 31
0.0000000000000000
  0
LINE
  5
167
100
AcDbEntity
  8
MAIN0
  6
PHANTOM
 62
12
100
AcDbLine
 10
177.0776490861471
 20
241.5485404740683
 30
0.0000000000000000
 11
178.0776490861472
 21
242.1258907432579
 31
0.0000000000000000
  0
LINE
  5
168
100
AcDbEntity
  8
MAIN0
  6
CONTINUOUS
 62
3
100
AcDbLine
 10
159.0690893494501
 20
241.5485404740684
 30
0.0000000000000000
 11
183.0776490863430
 21
241.5485404740683
 31
0.0000000000000000
  0
LINE
  5
169
100
AcDbEntity
  8
MAIN0
  6
CONTINUOUS
 62
3
100
AcDbLine
 10
149.5776490861477
 20
246.5485404740682
 30
0.0000000000000000
 11
173.0776490861473
 21
246.5485404740682
 31
0.0000000000000000
  0
LINE
  5
16A
100
AcDbEntity
  8
MAIN0
  6
CONTINUOUS
 62
3
100
AcDbLine
 10
149.5776490861472
 20
271.5485404740679
 30
0.0000000000000000
 11
127.3776490862392
 21
270.0485404740684
 31
0.0000000000000000
  0
LINE
  5
16B
100
AcDbEntity
  8
MAIN0
  6
CONTINUOUS
 62
3
100
AcDbLine
 10
149.5776490861476
 20
246.5485404740685
 30
0.0000000000000000
 11
127.3776490862394
 21
248.0485404740680
 31
0.0000000000000000
  0
CIRCLE
  5
16C
100
AcDbEntity
  8
MAIN0
  6
CONTINUOUS
 62
3
100
AcDbCircle
 10
513.5583888207019
 20
259.0485404740678
 30
0.0000000000000000
 40
5.000000000000000
  0
CIRCLE
  5
16D
100
AcDbEntity
  8
MAIN0
  6
CONTINUOUS
 62
3
100
AcDbCircle
 10
513.5583888207019
 20
259.0485404740678
 30
0.0000000000000000
 40
4.250000000000000
  0
CIRCLE
  5
16E
100
AcDbEntity
  8
MAIN0
  6
CONTINUOUS
 62
3
100
AcDbCircle
 10
486.4657660804829
 20
324.4559177337985
 30
0.0000000000000000
 40
5.500000000000000
  0
LINE
  5
16F
100
AcDbEntity
  8
MAIN0
  6
CENTER
 62
3
100
AcDbLine
 10
480.3540870703508
 20
318.3442387236707
 30
0.0000000000000000
 11
493.5010975526292
 21
331.4912492059390
 31
0.0000000000000000
  0
CIRCLE
  5
170
100
AcDbEntity
  8
MAIN0
  6
CONTINUOUS
 62
3
100
AcDbCircle
 10
467.3083888207024
 20
339.1558903241285
 30
0.0000000000000000
 40
5.000000000000000
  0
CIRCLE
  5
171
100
AcDbEntity
  8
MAIN0
  6
CONTINUOUS
 62
3
100
AcDbCircle
 10
467.3083888207024
 20
339.1558903241285
 30
0.0000000000000000
 40
4.250000000000000
  0
LINE
  5
172
100
AcDbEntity
  8
MAIN0
  6
CENTER
 62
3
100
AcDbLine
 10
463.9548793127461
 20
333.3474414726830
 30
0.0000000000000000
 11
472.8862059882223
 21
348.8169530536029
 31
0.0000000000000000
  0
ARC
  5
173
100
AcDbEntity
  8
MAIN0
  6
CONTINUOUS
 62
3
100
AcDbCircle
 10
421.0583888207019
 20
259.0485404740682
 30
0.0000000000000000
 40
101.5000000000000
100
AcDbArc
 50
293.2091488561420
 51
606.7908511438412
  0
CIRCLE
  5
174
100
AcDbEntity
  8
MAIN0
  6
CONTINUOUS
 62
3
100
AcDbCircle
 10
374.8083888207024
 20
339.1558903241291
 30
0.0000000000000000
 40
5.000000000000000
  0
CIRCLE
  5
175
100
AcDbEntity
  8
MAIN0
  6
CONTINUOUS
 62
3
100
AcDbCircle
 10
374.8083888207024
 20
339.1558903241291
 30
0.0000000000000000
 40
4.250000000000000
  0
LINE
  5
176
100
AcDbEntity
  8
MAIN0
  6
CENTER
 62
3
100
AcDbLine
 10
379.2506416550445
 20
331.4616827149815
 30
0.0000000000000000
 11
369.0809387111112
 21
349.0761249117568
 31
0.0000000000000000
  0
CIRCLE
  5
177
100
AcDbEntity
  8
MAIN0
  6
CONTINUOUS
 62
3
100
AcDbCircle
 10
355.6510115609718
 20
324.4559177338492
 30
0.0000000000000000
 40
5.500000000000000
  0
CIRCLE
  5
178
100
AcDbEntity
  8
MAIN0
  6
CONTINUOUS
 62
3
100
AcDbCircle
 10
340.9510389707042
 20
305.2985404741771
 30
0.0000000000000000
 40
5.000000000000000
  0
CIRCLE
  5
179
100
AcDbEntity
  8
MAIN0
  6
CONTINUOUS
 62
3
100
AcDbCircle
 10
328.5583888207019
 20
259.0485404740687
 30
0.0000000000000000
 40
5.000000000000000
  0
CIRCLE
  5
17A
100
AcDbEntity
  8
MAIN0
  6
CONTINUOUS
 62
3
100
AcDbCircle
 10
328.5583888207019
 20
259.0485404740687
 30
0.0000000000000000
 40
4.250000000000000
  0
CIRCLE
  5
17B
100
AcDbEntity
  8
MAIN0
  6
CONTINUOUS
 62
3
100
AcDbCircle
 10
355.6510115609211
 20
193.6411632143379
 30
0.0000000000000000
 40
5.500000000000000
  0
LINE
  5
17C
100
AcDbEntity
  8
MAIN0
  6
CENTER
 62
3
100
AcDbLine
 10
361.0780702307485
 20
199.0682218841621
 30
0.0000000000000000
 11
348.6156800887742
 21
186.6058317421974
 31
0.0000000000000000
  0
CIRCLE
  5
17D
100
AcDbEntity
  8
MAIN0
  6
CONTINUOUS
 62
3
100
AcDbCircle
 10
374.8083888207015
 20
178.9411906240080
 30
0.0000000000000000
 40
5.000000000000000
  0
LINE
  5
17E
100
AcDbEntity
  8
MAIN0
  6
CENTER
 62
3
100
AcDbLine
 10
369.1695111317255
 20
169.1743679690351
 30
0.0000000000000000
 11
379.0508118643033
 21
186.2892828827273
 31
0.0000000000000000
  0
CIRCLE
  5
17F
100
AcDbEntity
  8
MAIN0
  6
CONTINUOUS
 62
3
100
AcDbCircle
 10
374.8083888207015
 20
178.9411906240080
 30
0.0000000000000000
 40
4.250000000000000
  0
LINE
  5
180
100
AcDbEntity
  8
MAIN0
  6
CENTER
 62
3
100
AcDbLine
 10
472.9472665096770
 20
169.1743679690341
 30
0.0000000000000000
 11
463.0659657770991
 21
186.2892828827268
 31
0.0000000000000000
  0
CIRCLE
  5
181
100
AcDbEntity
  8
MAIN0
  6
CONTINUOUS
 62
3
100
AcDbCircle
 10
467.3083888207015
 20
178.9411906240073
 30
0.0000000000000000
 40
5.000000000000000
  0
CIRCLE
  5
182
100
AcDbEntity
  8
MAIN0
  6
CONTINUOUS
 62
3
100
AcDbCircle
 10
467.3083888207015
 20
178.9411906240073
 30
0.0000000000000000
 40
4.250000000000000
  0
LINE
  5
183
100
AcDbEntity
  8
MAIN0
  6
CENTER
 62
3
100
AcDbLine
 10
480.3540870703047
 20
199.7528422244194
 30
0.0000000000000000
 11
493.5010975525730
 21
186.6058317421410
 31
0.0000000000000000
  0
CIRCLE
  5
184
100
AcDbEntity
  8
MAIN0
  6
CONTINUOUS
 62
3
100
AcDbCircle
 10
486.4657660804322
 20
193.6411632142872
 30
0.0000000000000000
 40
5.500000000000000
  0
CIRCLE
  5
185
100
AcDbEntity
  8
MAIN0
  6
CONTINUOUS
 62
3
100
AcDbCircle
 10
501.1657386706996
 20
212.7985404739598
 30
0.0000000000000000
 40
5.000000000000000
  0
LINE
  5
186
100
AcDbEntity
  8
MAIN0
  6
CENTER
 62
12
100
AcDbLine
 10
331.6553512876074
 20
310.6654082603322
 30
0.0000000000000000
 11
510.0461552376023
 21
207.6714295785260
 31
0.0000000000000000
  0
LINE
  5
187
100
AcDbEntity
  8
MAIN0
  6
CONTINUOUS
 62
3
100
AcDbLine
 10
172.0776490861473
 20
231.5485404740510
 30
0.0000000000000000
 11
172.0776490861473
 21
237.5485404740510
 31
0.0000000000000000
  0
LINE
  5
188
100
AcDbEntity
  8
MAIN0
  6
CONTINUOUS
 62
3
100
AcDbLine
 10
167.0776490861473
 20
232.0485404740683
 30
0.0000000000000000
 11
167.0776490861473
 21
237.0485404740683
 31
0.0000000000000000
  0
LINE
  5
189
100
AcDbEntity
  8
MAIN0
  6
CONTINUOUS
 62
3
100
AcDbLine
 10
165.6342734131733
 20
234.5485404740685
 30
0.0000000000000000
 11
167.0776490861473
 21
237.0485404740685
 31
0.0000000000000000
  0
LINE
  5
18A
100
AcDbEntity
  8
MAIN0
  6
CONTINUOUS
 62
3
100
AcDbLine
 10
167.0776490861474
 20
232.0485404740687
 30
0.0000000000000000
 11
165.6342734131734
 21
234.5485404740687
 31
0.0000000000000000
  0
LINE
  5
18B
100
AcDbEntity
  8
MAIN0
  6
CONTINUOUS
 62
3
100
AcDbLine
 10
183.2776490861473
 20
232.0485404740683
 30
0.0000000000000000
 11
183.2776490861473
 21
237.0485404740683
 31
0.0000000000000000
  0
LINE
  5
18C
100
AcDbEntity
  8
MAIN0
  6
CONTINUOUS
 62
3
100
AcDbLine
 10
184.0776490861474
 20
231.2485404740689
 30
0.0000000000000000
 11
183.2776490861475
 21
232.0485404740688
 31
0.0000000000000000
  0
LINE
  5
18D
100
AcDbEntity
  8
MAIN0
  6
CONTINUOUS
 62
3
100
AcDbLine
 10
183.2776490861471
 20
237.0485404740685
 30
0.0000000000000000
 11
184.0776490861470
 21
237.8485404740684
 31
0.0000000000000000
  0
LINE
  5
18E
100
AcDbEntity
  8
MAIN0
  6
CENTER
 62
12
100
AcDbLine
 10
163.6370977097014
 20
234.5485404740682
 30
0.0000000000000000
 11
191.3521777675331
 21
234.5485404740682
 31
0.0000000000000000
  0
LINE
  5
18F
100
AcDbEntity
  8
MAIN0
  6
PHANTOM
 62
3
100
AcDbLine
 10
167.0776490861473
 20
221.5485404740683
 30
0.0000000000000000
 11
167.0776490861473
 21
226.5485404740683
 31
0.0000000000000000
  0
LINE
  5
190
100
AcDbEntity
  8
MAIN0
  6
PHANTOM
 62
3
100
AcDbLine
 10
165.6342734131731
 20
224.0485404740685
 30
0.0000000000000000
 11
167.0776490861472
 21
226.5485404740686
 31
0.0000000000000000
  0
LINE
  5
191
100
AcDbEntity
  8
MAIN0
  6
PHANTOM
 62
3
100
AcDbLine
 10
167.0776490861473
 20
221.5485404740684
 30
0.0000000000000000
 11
165.6342734131732
 21
224.0485404740684
 31
0.0000000000000000
  0
LINE
  5
192
100
AcDbEntity
  8
MAIN0
  6
PHANTOM
 62
3
100
AcDbLine
 10
183.2776490861474
 20
221.5485404740682
 30
0.0000000000000000
 11
167.0776490861473
 21
221.5485404740682
 31
0.0000000000000000
  0
LINE
  5
193
100
AcDbEntity
  8
MAIN0
  6
PHANTOM
 62
3
100
AcDbLine
 10
172.0776490861473
 20
221.0485404740510
 30
0.0000000000000000
 11
172.0776490861473
 21
227.0485404740510
 31
0.0000000000000000
  0
LINE
  5
194
100
AcDbEntity
  8
MAIN0
  6
PHANTOM
 62
3
100
AcDbLine
 10
183.7776490861474
 20
221.0485404740683
 30
0.0000000000000000
 11
172.0776490861474
 21
221.0485404740683
 31
0.0000000000000000
  0
LINE
  5
195
100
AcDbEntity
  8
MAIN0
  6
PHANTOM
 62
3
100
AcDbLine
 10
167.0776490861474
 20
226.5485404740682
 30
0.0000000000000000
 11
183.2776490861474
 21
226.5485404740682
 31
0.0000000000000000
  0
LINE
  5
196
100
AcDbEntity
  8
MAIN0
  6
PHANTOM
 62
3
100
AcDbLine
 10
172.0776490861474
 20
227.0485404740683
 30
0.0000000000000000
 11
183.7776490861474
 21
227.0485404740683
 31
0.0000000000000000
  0
LINE
  5
197
100
AcDbEntity
  8
MAIN0
  6
PHANTOM
 62
3
100
AcDbLine
 10
183.2776490861473
 20
221.5485404740683
 30
0.0000000000000000
 11
183.2776490861473
 21
226.5485404740683
 31
0.0000000000000000
  0
LINE
  5
198
100
AcDbEntity
  8
MAIN0
  6
PHANTOM
 62
3
100
AcDbLine
 10
183.2776490861473
 20
226.5485404740684
 30
0.0000000000000000
 11
184.0776490861473
 21
227.3485404740684
 31
0.0000000000000000
  0
LINE
  5
199
100
AcDbEntity
  8
MAIN0
  6
PHANTOM
 62
3
100
AcDbLine
 10
184.0776490861474
 20
220.7485404740686
 30
0.0000000000000000
 11
183.2776490861471
 21
221.5485404740687
 31
0.0000000000000000
  0
LINE
  5
19A
100
AcDbEntity
  8
MAIN0
  6
CENTER
 62
3
100
AcDbLine
 10
163.7642441752034
 20
224.0485404740682
 30
0.0000000000000000
 11
187.2578275727257
 21
224.0485404740682
 31
0.0000000000000000
  0
LINE
  5
19B
100
AcDbEntity
  8
MAIN0
  6
CENTER
 62
3
100
AcDbLine
 10
428.9796268551344
 20
229.4860776699597
 30
0.0000000000000000
 11
431.2183952656105
 21
221.1308802156806
 31
0.0000000000000000
  0
CIRCLE
  5
19C
100
AcDbEntity
  8
MAIN0
  6
CONTINUOUS
 62
3
100
AcDbCircle
 10
430.1170553991178
 20
225.2411365539048
 30
0.0000000000000000
 40
3.000000000000000
  0
CIRCLE
  5
19D
100
AcDbEntity
  8
MAIN0
  6
CONTINUOUS
 62
3
100
AcDbCircle
 10
430.1170553991178
 20
225.2411365539048
 30
0.0000000000000000
 40
2.500000000000000
  0
LINE
  5
19E
100
AcDbEntity
  8
MAIN0
  6
CENTER
 62
3
100
AcDbLine
 10
413.1371507862687
 20
229.4860776699596
 30
0.0000000000000000
 11
410.8983823757926
 21
221.1308802156808
 31
0.0000000000000000
  0
CIRCLE
  5
19F
100
AcDbEntity
  8
MAIN0
  6
CONTINUOUS
 62
3
100
AcDbCircle
 10
411.9997222422854
 20
225.2411365539048
 30
0.0000000000000000
 40
3.000000000000000
  0
CIRCLE
  5
1A0
100
AcDbEntity
  8
MAIN0
  6
CONTINUOUS
 62
3
100
AcDbCircle
 10
411.9997222422854
 20
225.2411365539048
 30
0.0000000000000000
 40
2.500000000000000
  0
LINE
  5
1A1
100
AcDbEntity
  8
MAIN0
  6
CENTER
 62
3
100
AcDbLine
 10
464.7519407487849
 20
183.3690885714885
 30
0.0000000000000000
 11
457.1753578449194
 21
196.4921151088543
 31
0.0000000000000000
  0
LINE
  5
1A2
100
AcDbEntity
  8
MAIN0
  6
CENTER
 62
3
100
AcDbLine
 10
159.5776490861472
 20
201.5638425074495
 30
0.0000000000000000
 11
159.5776490861472
 21
173.4888820788859
 31
0.0000000000000000
  0
LINE
  5
1A3
100
AcDbEntity
  8
MAIN0
  6
CONTINUOUS
 62
3
100
AcDbLine
 10
80.07764908614797
 20
158.1485404740680
 30
0.0000000000000000
 11
80.67764908614788
 21
157.5485404740681
 31
0.0000000000000000
  0
LINE
  5
1A4
100
AcDbEntity
  8
MAIN0
  6
CONTINUOUS
 62
3
100
AcDbLine
 10
94.47764908614782
 20
157.5485404740684
 30
0.0000000000000000
 11
95.07764908614774
 21
158.1485404740683
 31
0.0000000000000000
  0
LINE
  5
1A5
100
AcDbEntity
  8
MAIN0
  6
CONTINUOUS
 62
3
100
AcDbLine
 10
80.67764908614760
 20
360.5485404740682
 30
0.0000000000000000
 11
80.07764908614755
 21
359.9485404740682
 31
0.0000000000000000
  0
LINE
  5
1A6
100
AcDbEntity
  8
MAIN0
  6
CONTINUOUS
 62
3
100
AcDbLine
 10
94.47764908614758
 20
360.5485404740682
 30
0.0000000000000000
 11
95.07764908614718
 21
359.9485404740686
 31
0.0000000000000000
  0
LINE
  5
1A7
100
AcDbEntity
  8
MAIN0
  6
CONTINUOUS
 62
3
100
AcDbLine
 10
122.5776490862393
 20
269.4711902048955
 30
0.0000000000000000
 11
122.5776490862393
 21
248.6258907432405
 31
0.0000000000000000
  0
LINE
  5
1A8
100
AcDbEntity
  8
MAIN0
  6
CONTINUOUS
 62
3
100
AcDbLine
 10
173.0776490861471
 20
275.9711902048782
 30
0.0000000000000000
 11
173.0776490861471
 21
242.1258907432583
 31
0.0000000000000000
  0
LINE
  5
1A9
100
AcDbEntity
  8
MAIN0
  6
PHANTOM
 62
12
100
AcDbLine
 10
178.0776490861471
 20
275.9711902048787
 30
0.0000000000000000
 11
178.0776490861471
 21
242.1258907432578
 31
0.0000000000000000
  0
LINE
  5
1AA
100
AcDbEntity
  8
MAIN0
  6
CONTINUOUS
 62
3
100
AcDbLine
 10
97.57764908623939
 20
265.5485404740509
 30
0.0000000000000000
 11
97.57764908623942
 21
252.5485404740509
 31
0.0000000000000000
  0
LINE
  5
1AB
100
AcDbEntity
  8
MAIN0
  6
PHANTOM
 62
3
100
AcDbLine
 10
154.7136490861471
 20
177.7985404740685
 30
0.0000000000000000
 11
154.9073990861471
 21
183.9985404740685
 31
0.0000000000000000
  0
LINE
  5
1AC
100
AcDbEntity
  8
MAIN0
  6
PHANTOM
 62
3
100
AcDbLine
 10
155.2946490861471
 20
177.7985404740682
 30
0.0000000000000000
 11
155.4883990861471
 21
183.9985404740682
 31
0.0000000000000000
  0
LINE
  5
1AD
100
AcDbEntity
  8
MAIN0
  6
PHANTOM
 62
3
100
AcDbLine
 10
167.0776490861471
 20
177.7985404740685
 30
0.0000000000000000
 11
167.0776490861471
 21
177.0985404734797
 31
0.0000000000000000
  0
LINE
  5
1AE
100
AcDbEntity
  8
MAIN0
  6
PHANTOM
 62
3
100
AcDbLine
 10
152.0776490861471
 20
177.7985404740685
 30
0.0000000000000000
 11
152.0776490861471
 21
176.7985404740685
 31
0.0000000000000000
  0
LINE
  5
1AF
100
AcDbEntity
  8
MAIN0
  6
PHANTOM
 62
3
100
AcDbLine
 10
152.0776490861331
 20
177.7985404740685
 30
0.0000000000000000
 11
167.0776490861331
 21
177.7985404740684
 31
0.0000000000000000
  0
ARC
  5
1B0
100
AcDbEntity
  8
MAIN0
  6
CONTINUOUS
 62
3
100
AcDbCircle
 10
421.0583888207019
 20
259.0485404740682
 30
0.0000000000000000
 40
82.49999999999977
100
AcDbArc
 50
229.9999999999999
 51
309.9999999999994
  0
ARC
  5
1B1
100
AcDbEntity
  8
MAIN0
  6
CONTINUOUS
 62
3
100
AcDbCircle
 10
421.0583888207019
 20
259.0485404740682
 30
0.0000000000000000
 40
82.49999999999977
100
AcDbArc
 50
190.0000000000002
 51
229.9999999999999
  0
ARC
  5
1B2
100
AcDbEntity
  8
MAIN0
  6
CONTINUOUS
 62
3
100
AcDbCircle
 10
421.0583888207019
 20
259.0485404740682
 30
0.0000000000000000
 40
82.49999999999977
100
AcDbArc
 50
110.0000000000003
 51
190.0000000000002
  0
ARC
  5
1B3
100
AcDbEntity
  8
MAIN0
  6
CONTINUOUS
 62
3
100
AcDbCircle
 10
421.0583888207019
 20
259.0485404740682
 30
0.0000000000000000
 40
82.49999999999977
100
AcDbArc
 50
69.99999999999984
 51
110.0000000000003
  0
ARC
  5
1B4
100
AcDbEntity
  8
MAIN0
  6
CONTINUOUS
 62
3
100
AcDbCircle
 10
421.0583888207019
 20
259.0485404740682
 30
0.0000000000000000
 40
82.49999999999977
100
AcDbArc
 50
309.9999999999994
 51
349.9999999999996
  0
LINE
  5
1B5
100
AcDbEntity
  8
MAIN0
  6
CONTINUOUS
 62
3
100
AcDbLine
 10
90.36168999131726
 20
256.4289944557538
 30
0.0000000000000000
 11
91.67764908614866
 21
254.9485404740685
 31
0.0000000000000000
  0
LINE
  5
1B6
100
AcDbEntity
  8
MAIN0
  6
CONTINUOUS
 62
3
100
AcDbLine
 10
91.67764908614876
 20
254.9485404740680
 30
0.0000000000000000
 11
91.67764908614876
 21
251.0874692727217
 31
0.0000000000000000
  0
LINE
  5
1B7
100
AcDbEntity
  8
MAIN0
  6
CONTINUOUS
 62
3
100
AcDbLine
 10
85.47764908614883
 20
249.6214278971348
 30
0.0000000000000000
 11
85.47764908614883
 21
254.3220404740681
 31
0.0000000000000000
  0
LINE
  5
1B8
100
AcDbEntity
  8
MAIN0
  6
CENTER
 62
12
100
AcDbLine
 10
312.5898039984594
 20
259.0485404740683
 30
0.0000000000000000
 11
527.8267929571251
 21
259.0485404740683
 31
0.0000000000000000
  0
LINE
  5
1B9
100
AcDbEntity
  8
MAIN0
  6
CONTINUOUS
 62
3
100
AcDbLine
 10
381.0583888207019
 20
156.0485404740680
 30
0.0000000000000000
 11
461.0583888207019
 21
156.0485404740680
 31
0.0000000000000000
  0
LINE
  5
1BA
100
AcDbEntity
  8
MAIN0
  6
CONTINUOUS
 62
3
100
AcDbLine
 10
381.0583888207019
 20
176.0485404740680
 30
0.0000000000000000
 11
461.0583888207019
 21
176.0485404740680
 31
0.0000000000000000
  0
LINE
  5
1BB
100
AcDbEntity
  8
MAIN0
  6
CENTER
 62
3
100
AcDbLine
 10
444.5583888207015
 20
212.6884081147094
 30
0.0000000000000000
 11
444.5583888207015
 21
151.1952755899760
 31
0.0000000000000000
  0
LINE
  5
1BC
100
AcDbEntity
  8
MAIN0
  6
HIDDEN
 62
3
100
AcDbLine
 10
391.7091811257816
 20
156.0485404740669
 30
0.0000000000000000
 11
392.0583888207004
 21
166.0485404740651
 31
0.0000000000000000
  0
LINE
  5
1BD
100
AcDbEntity
  8
MAIN0
  6
HIDDEN
 62
3
100
AcDbLine
 10
391.2088763536319
 20
156.0485404740675
 30
0.0000000000000000
 11
391.5580840485507
 21
166.0485404740688
 31
0.0000000000000000
  0
LINE
  5
1BE
100
AcDbEntity
  8
MAIN0
  6
HIDDEN
 62
3
100
AcDbLine
 10
403.4075965156227
 20
156.0485404740667
 30
0.0000000000000000
 11
403.0583888207040
 21
166.0485404740653
 31
0.0000000000000000
  0
LINE
  5
1BF
100
AcDbEntity
  8
MAIN0
  6
HIDDEN
 62
3
100
AcDbLine
 10
403.9079012877722
 20
156.0485404740668
 30
0.0000000000000000
 11
403.5586935928533
 21
166.0485404740683
 31
0.0000000000000000
  0
LINE
  5
1C0
100
AcDbEntity
  8
MAIN0
  6
CONTINUOUS
 62
3
100
AcDbLine
 10
389.5583888207019
 20
155.0485404740677
 30
0.0000000000000000
 11
405.5583888207019
 21
155.0485404740678
 31
0.0000000000000000
  0
LINE
  5
1C1
100
AcDbEntity
  8
MAIN0
  6
CONTINUOUS
 62
3
100
AcDbLine
 10
389.5583888207019
 20
156.0485404740680
 30
0.0000000000000000
 11
389.5583888207019
 21
155.0485404740680
 31
0.0000000000000000
  0
LINE
  5
1C2
100
AcDbEntity
  8
MAIN0
  6
CONTINUOUS
 62
3
100
AcDbLine
 10
405.5583888207019
 20
156.0485404740680
 30
0.0000000000000000
 11
405.5583888207019
 21
155.0485404740680
 31
0.0000000000000000
  0
LINE
  5
1C3
100
AcDbEntity
  8
MAIN0
  6
HIDDEN
 62
3
100
AcDbLine
 10
450.4075965156228
 20
156.0485404740668
 30
0.0000000000000000
 11
450.0583888207041
 21
166.0485404740654
 31
0.0000000000000000
  0
LINE
  5
1C4
100
AcDbEntity
  8
MAIN0
  6
HIDDEN
 62
3
100
AcDbLine
 10
450.9079012877724
 20
156.0485404740668
 30
0.0000000000000000
 11
450.5586935928536
 21
166.0485404740684
 31
0.0000000000000000
  0
LINE
  5
1C5
100
AcDbEntity
  8
MAIN0
  6
HIDDEN
 62
3
100
AcDbLine
 10
438.7091811257815
 20
156.0485404740669
 30
0.0000000000000000
 11
439.0583888207002
 21
166.0485404740653
 31
0.0000000000000000
  0
LINE
  5
1C6
100
AcDbEntity
  8
MAIN0
  6
HIDDEN
 62
3
100
AcDbLine
 10
438.2088763536322
 20
156.0485404740674
 30
0.0000000000000000
 11
438.5580840485510
 21
166.0485404740687
 31
0.0000000000000000
  0
LINE
  5
1C7
100
AcDbEntity
  8
MAIN0
  6
CONTINUOUS
 62
3
100
AcDbLine
 10
452.5583888207019
 20
155.0485404740677
 30
0.0000000000000000
 11
436.5583888207019
 21
155.0485404740677
 31
0.0000000000000000
  0
LINE
  5
1C8
100
AcDbEntity
  8
MAIN0
  6
CONTINUOUS
 62
3
100
AcDbLine
 10
452.5583888207019
 20
156.0485404740680
 30
0.0000000000000000
 11
452.5583888207019
 21
155.0485404740680
 31
0.0000000000000000
  0
LINE
  5
1C9
100
AcDbEntity
  8
MAIN0
  6
CONTINUOUS
 62
3
100
AcDbLine
 10
436.5583888207019
 20
156.0485404740680
 30
0.0000000000000000
 11
436.5583888207019
 21
155.0485404740680
 31
0.0000000000000000
  0
LINE
  5
1CA
100
AcDbEntity
  8
MAIN0
  6
CENTER
 62
3
100
AcDbLine
 10
410.0583888207019
 20
174.9702974916429
 30
0.0000000000000000
 11
410.0583888207019
 21
162.3730849500937
 31
0.0000000000000000
  0
LINE
  5
1CB
100
AcDbEntity
  8
MAIN0
  6
CENTER
 62
3
100
AcDbLine
 10
432.0583888207019
 20
175.1477338877253
 30
0.0000000000000000
 11
432.0583888207019
 21
160.9536817686617
 31
0.0000000000000000
  0
CIRCLE
  5
1CC
100
AcDbEntity
  8
MAIN0
  6
CONTINUOUS
 62
3
100
AcDbCircle
 10
432.0583888207019
 20
168.5485404740678
 30
0.0000000000000000
 40
5.000000000000000
  0
LINE
  5
1CD
100
AcDbEntity
  8
MAIN0
  6
CONTINUOUS
 62
3
100
AcDbLine
 10
432.0583888207018
 20
171.4352918200157
 30
0.0000000000000000
 11
429.5583888207018
 21
169.9919161470416
 31
0.0000000000000000
  0
LINE
  5
1CE
100
AcDbEntity
  8
MAIN0
  6
CONTINUOUS
 62
3
100
AcDbLine
 10
429.5583888207019
 20
169.9919161470421
 30
0.0000000000000000
 11
429.5583888207019
 21
167.1051648010939
 31
0.0000000000000000
  0
LINE
  5
1CF
100
AcDbEntity
  8
MAIN0
  6
CONTINUOUS
 62
3
100
AcDbLine
 10
429.5583888207018
 20
167.1051648010933
 30
0.0000000000000000
 11
432.0583888207018
 21
165.6617891281192
 31
0.0000000000000000
  0
LINE
  5
1D0
100
AcDbEntity
  8
MAIN0
  6
CONTINUOUS
 62
3
100
AcDbLine
 10
432.0583888207019
 20
165.6617891281194
 30
0.0000000000000000
 11
434.5583888207019
 21
167.1051648010935
 31
0.0000000000000000
  0
LINE
  5
1D1
100
AcDbEntity
  8
MAIN0
  6
CONTINUOUS
 62
3
100
AcDbLine
 10
434.5583888207019
 20
167.1051648010939
 30
0.0000000000000000
 11
434.5583888207019
 21
169.9919161470421
 31
0.0000000000000000
  0
LINE
  5
1D2
100
AcDbEntity
  8
MAIN0
  6
CONTINUOUS
 62
3
100
AcDbLine
 10
434.5583888207019
 20
169.9919161470414
 30
0.0000000000000000
 11
432.0583888207019
 21
171.4352918200155
 31
0.0000000000000000
  0
CIRCLE
  5
1D3
100
AcDbEntity
  8
MAIN0
  6
CONTINUOUS
 62
3
100
AcDbCircle
 10
410.0583888207019
 20
168.5485404740678
 30
0.0000000000000000
 40
5.000000000000000
  0
LINE
  5
1D4
100
AcDbEntity
  8
MAIN0
  6
CONTINUOUS
 62
3
100
AcDbLine
 10
410.0583888207017
 20
171.4352918200157
 30
0.0000000000000000
 11
407.5583888207017
 21
169.9919161470416
 31
0.0000000000000000
  0
LINE
  5
1D5
100
AcDbEntity
  8
MAIN0
  6
CONTINUOUS
 62
3
100
AcDbLine
 10
407.5583888207019
 20
169.9919161470421
 30
0.0000000000000000
 11
407.5583888207019
 21
167.1051648010939
 31
0.0000000000000000
  0
LINE
  5
1D6
100
AcDbEntity
  8
MAIN0
  6
CONTINUOUS
 62
3
100
AcDbLine
 10
407.5583888207019
 20
167.1051648010931
 30
0.0000000000000000
 11
410.0583888207019
 21
165.6617891281191
 31
0.0000000000000000
  0
LINE
  5
1D7
100
AcDbEntity
  8
MAIN0
  6
CONTINUOUS
 62
3
100
AcDbLine
 10
410.0583888207017
 20
165.6617891281194
 30
0.0000000000000000
 11
412.5583888207017
 21
167.1051648010935
 31
0.0000000000000000
  0
LINE
  5
1D8
100
AcDbEntity
  8
MAIN0
  6
CONTINUOUS
 62
3
100
AcDbLine
 10
412.5583888207019
 20
167.1051648010939
 30
0.0000000000000000
 11
412.5583888207019
 21
169.9919161470421
 31
0.0000000000000000
  0
LINE
  5
1D9
100
AcDbEntity
  8
MAIN0
  6
CONTINUOUS
 62
3
100
AcDbLine
 10
412.5583888207019
 20
169.9919161470412
 30
0.0000000000000000
 11
410.0583888207019
 21
171.4352918200153
 31
0.0000000000000000
  0
LINE
  5
1DA
100
AcDbEntity
  8
MAIN0
  6
CENTER
 62
3
100
AcDbLine
 10
390.7614864038486
 20
168.5485404740678
 30
0.0000000000000000
 11
452.0606582830449
 21
168.5485404740676
 31
0.0000000000000000
  0
LINE
  5
1DB
100
AcDbEntity
  8
MAIN0
  6
CENTER
 62
3
100
AcDbLine
 10
397.5583888207020
 20
213.0404952671121
 30
0.0000000000000000
 11
397.5583888207020
 21
151.1952755899758
 31
0.0000000000000000
  0
LINE
  5
1DC
100
AcDbEntity
  8
MAIN0
  6
HIDDEN
 62
3
100
AcDbLine
 10
416.1943888207019
 20
156.0485404740680
 30
0.0000000000000000
 11
416.3881388207019
 21
162.2485404740678
 31
0.0000000000000000
  0
LINE
  5
1DD
100
AcDbEntity
  8
MAIN0
  6
HIDDEN
 62
3
100
AcDbLine
 10
425.7286388207017
 20
162.2485404740679
 30
0.0000000000000000
 11
425.9223888207017
 21
156.0485404740677
 31
0.0000000000000000
  0
LINE
  5
1DE
100
AcDbEntity
  8
MAIN0
  6
HIDDEN
 62
3
100
AcDbLine
 10
416.7753888207017
 20
156.0485404740680
 30
0.0000000000000000
 11
416.9691388207017
 21
162.2485404740680
 31
0.0000000000000000
  0
LINE
  5
1DF
100
AcDbEntity
  8
MAIN0
  6
HIDDEN
 62
3
100
AcDbLine
 10
425.3413888207020
 20
156.0485404740678
 30
0.0000000000000000
 11
425.1476388207020
 21
162.2485404740678
 31
0.0000000000000000
  0
CIRCLE
  5
1E0
100
AcDbEntity
  8
MAIN0
  6
HIDDEN
 62
3
100
AcDbCircle
 10
421.0583888207019
 20
168.5485404740678
 30
0.0000000000000000
 40
2.500000000000000
  0
CIRCLE
  5
1E1
100
AcDbEntity
  8
MAIN0
  6
HIDDEN
 62
3
100
AcDbCircle
 10
444.5583888207019
 20
168.5485404740675
 30
0.0000000000000000
 40
2.500000000000000
  0
CIRCLE
  5
1E2
100
AcDbEntity
  8
MAIN0
  6
HIDDEN
 62
3
100
AcDbCircle
 10
397.5583888207024
 20
168.5485404740678
 30
0.0000000000000000
 40
2.500000000000000
  0
LINE
  5
1E3
100
AcDbEntity
  8
MAIN0
  6
CONTINUOUS
 62
3
100
AcDbLine
 10
80.57764908614773
 20
266.0485404740681
 30
0.0000000000000000
 11
81.07764908615819
 21
266.0485404740681
 31
0.0000000000000000
  0
LINE
  5
1E4
100
AcDbEntity
  8
MAIN0
  6
CONTINUOUS
 62
3
100
AcDbLine
 10
81.07764908614765
 20
266.0485404740509
 30
0.0000000000000000
 11
81.07764908614765
 21
252.0485404740509
 31
0.0000000000000000
  0
LINE
  5
1E5
100
AcDbEntity
  8
MAIN0
  6
CONTINUOUS
 62
3
100
AcDbLine
 10
81.07764908614784
 20
263.3002904740681
 30
0.0000000000000000
 11
86.27764908614779
 21
263.1377904740680
 31
0.0000000000000000
  0
LINE
  5
1E6
100
AcDbEntity
  8
MAIN0
  6
CONTINUOUS
 62
3
100
AcDbLine
 10
81.07764908614769
 20
263.8812904740684
 30
0.0000000000000000
 11
86.27764908614765
 21
263.7187904740684
 31
0.0000000000000000
  0
LINE
  5
1E7
100
AcDbEntity
  8
MAIN0
  6
CONTINUOUS
 62
3
100
AcDbLine
 10
86.27764908614773
 20
263.7187904740680
 30
0.0000000000000000
 11
86.27764908614775
 21
254.3782904740680
 31
0.0000000000000000
  0
LINE
  5
1E8
100
AcDbEntity
  8
MAIN0
  6
CONTINUOUS
 62
3
100
AcDbLine
 10
81.07764908614797
 20
254.7967904740678
 30
0.0000000000000000
 11
86.27764908614793
 21
254.9592904740678
 31
0.0000000000000000
  0
LINE
  5
1E9
100
AcDbEntity
  8
MAIN0
  6
CONTINUOUS
 62
3
100
AcDbLine
 10
86.27764908614789
 20
254.3782904740680
 30
0.0000000000000000
 11
81.07764908614770
 21
254.2157904740680
 31
0.0000000000000000
  0
LINE
  5
1EA
100
AcDbEntity
  8
MAIN0
  6
CONTINUOUS
 62
3
100
AcDbLine
 10
80.57764908614774
 20
252.0485404740681
 30
0.0000000000000000
 11
81.07764908615820
 21
252.0485404740681
 31
0.0000000000000000
  0
LINE
  5
1EB
100
AcDbEntity
  8
MAIN0
  6
CONTINUOUS
 62
3
100
AcDbLine
 10
96.19200844030509
 20
254.9485404740680
 30
0.0000000000000000
 11
91.67764908614869
 21
254.9485404740680
 31
0.0000000000000000
  0
LINE
  5
1EC
100
AcDbEntity
  8
MAIN0
  6
CONTINUOUS
 62
3
100
AcDbLine
 10
86.27764908614779
 20
263.1485404740681
 30
0.0000000000000000
 11
96.19200844030499
 21
263.1485404740681
 31
0.0000000000000000
  0
LINE
  5
1ED
100
AcDbEntity
  8
MAIN0
  6
CONTINUOUS
 62
3
100
AcDbLine
 10
125.0776490861476
 20
176.0485404740680
 30
0.0000000000000000
 11
95.07764908614755
 21
176.0485404740684
 31
0.0000000000000000
  0
LINE
  5
1EE
100
AcDbEntity
  8
MAIN0
  6
CONTINUOUS
 62
3
100
AcDbLine
 10
125.0776490861474
 20
156.0485404740680
 30
0.0000000000000000
 11
95.07764908614735
 21
156.0485404740684
 31
0.0000000000000000
  0
LINE
  5
1EF
100
AcDbEntity
  8
MAIN0
  6
CONTINUOUS
 62
3
100
AcDbLine
 10
125.0776490861477
 20
156.0485404740680
 30
0.0000000000000000
 11
125.0776490861479
 21
176.0485404740678
 31
0.0000000000000000
  0
LINE
  5
1F0
100
AcDbEntity
  8
MAIN0
  6
CENTER
 62
3
100
AcDbLine
 10
110.0776490861478
 20
174.3867257915754
 30
0.0000000000000000
 11
110.0776490861479
 21
149.6822466139924
 31
0.0000000000000000
  0
LINE
  5
1F1
100
AcDbEntity
  8
MAIN0
  6
HIDDEN
 62
3
100
AcDbLine
 10
105.9776490861477
 20
171.0485404740677
 30
0.0000000000000000
 11
114.1776490861478
 21
171.0485404740677
 31
0.0000000000000000
  0
LINE
  5
1F2
100
AcDbEntity
  8
MAIN0
  6
HIDDEN
 62
3
100
AcDbLine
 10
116.3623990861478
 20
165.4485404740684
 30
0.0000000000000000
 11
116.6561490861475
 21
156.0485404740683
 31
0.0000000000000000
  0
LINE
  5
1F3
100
AcDbEntity
  8
MAIN0
  6
HIDDEN
 62
3
100
AcDbLine
 10
115.8001490861476
 20
156.0485404740676
 30
0.0000000000000000
 11
115.5063990861478
 21
165.4485404740680
 31
0.0000000000000000
  0
LINE
  5
1F4
100
AcDbEntity
  8
MAIN0
  6
HIDDEN
 62
3
100
AcDbLine
 10
104.3551490861476
 20
156.0485404740686
 30
0.0000000000000000
 11
104.6488990861479
 21
165.4485404740685
 31
0.0000000000000000
  0
LINE
  5
1F5
100
AcDbEntity
  8
MAIN0
  6
HIDDEN
 62
3
100
AcDbLine
 10
103.4991490861476
 20
156.0485404740686
 30
0.0000000000000000
 11
103.7928990861478
 21
165.4485404740680
 31
0.0000000000000000
  0
LINE
  5
1F6
100
AcDbEntity
  8
MAIN0
  6
CENTER
 62
3
100
AcDbLine
 10
421.0583888207019
 20
371.5639101820004
 30
0.0000000000000000
 11
421.0583888207016
 21
147.6741933226030
 31
0.0000000000000000
  0
LINE
  5
1F7
100
AcDbEntity
  8
MAIN0
  6
CONTINUOUS
 62
3
100
AcDbLine
 10
184.0776490861473
 20
277.1258907431446
 30
0.0000000000000000
 11
183.0776490863384
 21
276.5485404740655
 31
0.0000000000000000
  0
LINE
  5
1F8
100
AcDbEntity
  8
MAIN0
  6
CONTINUOUS
 62
3
100
AcDbLine
 10
184.0776490861472
 20
240.9711902049918
 30
0.0000000000000000
 11
183.0776490863382
 21
241.5485404740711
 31
0.0000000000000000
  0
LINE
  5
1F9
100
AcDbEntity
  8
MAIN0
  6
CONTINUOUS
 62
3
100
AcDbLine
 10
201.5776490861472
 20
321.0485404740368
 30
0.0000000000000000
 11
226.5776490861470
 21
321.0485404740398
 31
0.0000000000000000
  0
ELLIPSE
  5
1FA
100
AcDbEntity
  8
MAIN0
  6
CONTINUOUS
 62
3
100
AcDbEllipse
 10
421.0583888207019
 20
320.0458524852204
 30
0.0000000000000000
 11
0.0000000000000000
 21
-16.48981806950006
 31
0.0000000000000000
210
0.0000000000000000
220
0.0000000000000000
230
1.000000000000000
 40
0.9702957262817605
 41
2.466461120652750
 42
3.816724186526292
  0
ELLIPSE
  5
1FB
100
AcDbEntity
  8
MAIN0
  6
HIDDEN
 62
3
100
AcDbEllipse
 10
421.0583888207019
 20
319.0485404740682
 30
0.0000000000000000
 11
0.0000000000000000
 21
-16.48981806950006
 31
0.0000000000000000
210
0.0000000000000000
220
0.0000000000000000
230
1.000000000000000
 40
0.9702957262817605
 41
2.472062317342804
 42
3.811122989836712
  0
ELLIPSE
  5
1FC
100
AcDbEntity
  8
MAIN0
  6
CONTINUOUS
 62
3
100
AcDbEllipse
 10
421.0583888207019
 20
309.4494123645470
 30
0.0000000000000000
 11
0.0000000000000000
 21
-16.48981806950006
 31
0.0000000000000000
210
0.0000000000000000
220
0.0000000000000000
230
1.000000000000000
 40
0.9702957262817605
 41
4.712388980384688
 42
5.067810182074775
  0
ELLIPSE
  5
1FD
100
AcDbEntity
  8
MAIN0
  6
CONTINUOUS
 62
3
100
AcDbEllipse
 10
421.0583888207019
 20
309.4494123645470
 30
0.0000000000000000
 11
0.0000000000000000
 21
-16.48981806950006
 31
0.0000000000000000
210
0.0000000000000000
220
0.0000000000000000
230
1.000000000000000
 40
0.9702957262817605
 41
1.215375125104720
 42
1.570796326794895
  0
ELLIPSE
  5
1FE
100
AcDbEntity
  8
MAIN0
  6
CONTINUOUS
 62
3
100
AcDbEllipse
 10
421.0583888207019
 20
319.0485404740682
 30
0.0000000000000000
 11
0.0000000000000000
 21
-16.48981806950006
 31
0.0000000000000000
210
0.0000000000000000
220
0.0000000000000000
230
1.000000000000000
 40
0.9702957262817605
 41
3.811122989836712
 42
4.712388980384688
  0
ELLIPSE
  5
1FF
100
AcDbEntity
  8
MAIN0
  6
CONTINUOUS
 62
3
100
AcDbEllipse
 10
421.0583888207019
 20
319.0485404740682
 30
0.0000000000000000
 11
0.0000000000000000
 21
-16.48981806950006
 31
0.0000000000000000
210
0.0000000000000000
220
0.0000000000000000
230
1.000000000000000
 40
0.9702957262817605
 41
1.570796326794895
 42
2.472062317342804
  0
ELLIPSE
  5
200
100
AcDbEntity
  8
MAIN0
  6
CONTINUOUS
 62
3
100
AcDbEllipse
 10
421.0583888207019
 20
312.5660124001636
 30
0.0000000000000000
 11
0.0000000000000000
 21
-16.48981806950006
 31
0.0000000000000000
210
0.0000000000000000
220
0.0000000000000000
230
1.000000000000000
 40
0.9702957262817605
 41
1.215375125104720
 42
1.570796326794895
  0
ELLIPSE
  5
201
100
AcDbEntity
  8
MAIN0
  6
CONTINUOUS
 62
3
100
AcDbEllipse
 10
421.0583888207019
 20
312.5660124001636
 30
0.0000000000000000
 11
0.0000000000000000
 21
-16.48981806950006
 31
0.0000000000000000
210
0.0000000000000000
220
0.0000000000000000
230
1.000000000000000
 40
0.9702957262817605
 41
4.712388980384688
 42
5.067810182074775
  0
ELLIPSE
  5
202
100
AcDbEntity
  8
MAIN0
  6
CONTINUOUS
 62
3
100
AcDbEllipse
 10
374.7108985863821
 20
232.2898045110198
 30
0.0000000000000000
 11
14.28060135197071
 21
8.244909034750046
 31
0.0000000000000000
210
0.0000000000000000
220
0.0000000000000000
230
1.000000000000000
 40
0.9702957262817605
 41
1.215375125104721
 42
1.570796326794896
  0
ELLIPSE
  5
203
100
AcDbEntity
  8
MAIN0
  6
CONTINUOUS
 62
3
100
AcDbEllipse
 10
377.4099533906614
 20
233.8481045288279
 30
0.0000000000000000
 11
14.28060135197071
 21
8.244909034750046
 31
0.0000000000000000
210
0.0000000000000000
220
0.0000000000000000
230
1.000000000000000
 40
0.9702957262817605
 41
1.215375125104721
 42
1.570796326794896
  0
LINE
  5
204
100
AcDbEntity
  8
MAIN0
  6
CONTINUOUS
 62
3
100
AcDbLine
 10
369.4099533906618
 20
247.7045109893781
 30
0.0000000000000000
 11
361.0968645936351
 21
242.9049469346174
 31
0.0000000000000000
  0
ARC
  5
205
100
AcDbEntity
  8
MAIN0
  6
CONTINUOUS
 62
3
100
AcDbCircle
 10
421.0583888207010
 20
259.0485404740675
 30
0.0000000000000000
 40
61.99999999999311
100
AcDbArc
 50
195.0447516833556
 51
224.9552483166452
  0
ELLIPSE
  5
206
100
AcDbEntity
  8
MAIN0
  6
CONTINUOUS
 62
3
100
AcDbEllipse
 10
369.0968645936349
 20
229.0485404740673
 30
0.0000000000000000
 11
14.28060135197071
 21
8.244909034750046
 31
0.0000000000000000
210
0.0000000000000000
220
0.0000000000000000
230
1.000000000000000
 40
0.9702957262817605
 41
1.570796326794896
 42
2.472062317342741
  0
ELLIPSE
  5
207
100
AcDbEntity
  8
MAIN0
  6
HIDDEN
 62
3
100
AcDbEllipse
 10
369.0968645936349
 20
229.0485404740673
 30
0.0000000000000000
 11
14.28060135197071
 21
8.244909034750046
 31
0.0000000000000000
210
0.0000000000000000
220
0.0000000000000000
230
1.000000000000000
 40
0.9702957262817605
 41
2.472062317342741
 42
3.811122989836720
  0
ELLIPSE
  5
208
100
AcDbEntity
  8
MAIN0
  6
CONTINUOUS
 62
3
100
AcDbEllipse
 10
368.2331670564778
 20
228.5498844684914
 30
0.0000000000000000
 11
14.28060135197071
 21
8.244909034750046
 31
0.0000000000000000
210
0.0000000000000000
220
0.0000000000000000
230
1.000000000000000
 40
0.9702957262817605
 41
2.466461120652728
 42
3.816724186526825
  0
ELLIPSE
  5
209
100
AcDbEntity
  8
MAIN0
  6
CONTINUOUS
 62
3
100
AcDbEllipse
 10
369.0968645936349
 20
229.0485404740673
 30
0.0000000000000000
 11
14.28060135197071
 21
8.244909034750046
 31
0.0000000000000000
210
0.0000000000000000
220
0.0000000000000000
230
1.000000000000000
 40
0.9702957262817605
 41
3.811122989836720
 42
4.712388980384689
  0
LINE
  5
20A
100
AcDbEntity
  8
MAIN0
  6
CONTINUOUS
 62
3
100
AcDbLine
 10
385.4099533906612
 20
219.9916980682770
 30
0.0000000000000000
 11
377.0968645936345
 21
215.1921340135165
 31
0.0000000000000000
  0
ELLIPSE
  5
20B
100
AcDbEntity
  8
MAIN0
  6
CONTINUOUS
 62
3
100
AcDbEllipse
 10
377.4099533906614
 20
233.8481045288279
 30
0.0000000000000000
 11
14.28060135197071
 21
8.244909034750046
 31
0.0000000000000000
210
0.0000000000000000
220
0.0000000000000000
230
1.000000000000000
 40
0.9702957262817605
 41
4.712388980384689
 42
5.067810182074773
  0
ELLIPSE
  5
20C
100
AcDbEntity
  8
MAIN0
  6
CONTINUOUS
 62
3
100
AcDbEllipse
 10
374.7108985863821
 20
232.2898045110198
 30
0.0000000000000000
 11
14.28060135197071
 21
8.244909034750046
 31
0.0000000000000000
210
0.0000000000000000
220
0.0000000000000000
230
1.000000000000000
 40
0.9702957262817605
 41
4.712388980384689
 42
5.067810182074773
  0
ELLIPSE
  5
20D
100
AcDbEntity
  8
MAIN0
  6
CONTINUOUS
 62
3
100
AcDbEllipse
 10
467.4058790550213
 20
232.2898045110196
 30
0.0000000000000000
 11
-14.28060135197074
 21
8.244909034750005
 31
0.0000000000000000
210
0.0000000000000000
220
0.0000000000000000
230
1.000000000000000
 40
0.9702957262817605
 41
1.215375125104720
 42
1.570796326794895
  0
ELLIPSE
  5
20E
100
AcDbEntity
  8
MAIN0
  6
CONTINUOUS
 62
3
100
AcDbEllipse
 10
464.7068242507418
 20
233.8481045288279
 30
0.0000000000000000
 11
-14.28060135197074
 21
8.244909034750005
 31
0.0000000000000000
210
0.0000000000000000
220
0.0000000000000000
230
1.000000000000000
 40
0.9702957262817605
 41
1.215375125104720
 42
1.570796326794895
  0
LINE
  5
20F
100
AcDbEntity
  8
MAIN0
  6
CONTINUOUS
 62
3
100
AcDbLine
 10
456.7068242507420
 20
219.9916980682771
 30
0.0000000000000000
 11
465.0199130477686
 21
215.1921340135165
 31
0.0000000000000000
  0
ARC
  5
210
100
AcDbEntity
  8
MAIN0
  6
CONTINUOUS
 62
3
100
AcDbCircle
 10
421.0583888207019
 20
259.0485404740671
 30
0.0000000000000000
 40
61.99999999999311
100
AcDbArc
 50
315.0447516833556
 51
344.9552483166452
  0
ELLIPSE
  5
211
100
AcDbEntity
  8
MAIN0
  6
CONTINUOUS
 62
3
100
AcDbEllipse
 10
473.0199130477685
 20
229.0485404740673
 30
0.0000000000000000
 11
-14.28060135197074
 21
8.244909034750005
 31
0.0000000000000000
210
0.0000000000000000
220
0.0000000000000000
230
1.000000000000000
 40
0.9702957262817605
 41
1.570796326794895
 42
2.472062317342799
  0
ELLIPSE
  5
212
100
AcDbEntity
  8
MAIN0
  6
CONTINUOUS
 62
3
100
AcDbEllipse
 10
473.8836105849256
 20
228.5498844684912
 30
0.0000000000000000
 11
-14.28060135197074
 21
8.244909034750005
 31
0.0000000000000000
210
0.0000000000000000
220
0.0000000000000000
230
1.000000000000000
 40
0.9702957262817605
 41
2.466461120652807
 42
3.816724186526904
  0
ELLIPSE
  5
213
100
AcDbEntity
  8
MAIN0
  6
CONTINUOUS
 62
3
100
AcDbEllipse
 10
473.0199130477685
 20
229.0485404740673
 30
0.0000000000000000
 11
-14.28060135197074
 21
8.244909034750005
 31
0.0000000000000000
210
0.0000000000000000
220
0.0000000000000000
230
1.000000000000000
 40
0.9702957262817605
 41
3.811122989836764
 42
4.712388980384688
  0
LINE
  5
214
100
AcDbEntity
  8
MAIN0
  6
CONTINUOUS
 62
3
100
AcDbLine
 10
472.7068242507419
 20
247.7045109893786
 30
0.0000000000000000
 11
481.0199130477686
 21
242.9049469346180
 31
0.0000000000000000
  0
ELLIPSE
  5
215
100
AcDbEntity
  8
MAIN0
  6
CONTINUOUS
 62
3
100
AcDbEllipse
 10
464.7068242507418
 20
233.8481045288279
 30
0.0000000000000000
 11
-14.28060135197074
 21
8.244909034750005
 31
0.0000000000000000
210
0.0000000000000000
220
0.0000000000000000
230
1.000000000000000
 40
0.9702957262817605
 41
4.712388980384688
 42
5.067810182074775
  0
ELLIPSE
  5
216
100
AcDbEntity
  8
MAIN0
  6
CONTINUOUS
 62
3
100
AcDbEllipse
 10
467.4058790550213
 20
232.2898045110196
 30
0.0000000000000000
 11
-14.28060135197074
 21
8.244909034750005
 31
0.0000000000000000
210
0.0000000000000000
220
0.0000000000000000
230
1.000000000000000
 40
0.9702957262817605
 41
4.712388980384688
 42
5.067810182074775
  0
LINE
  5
217
100
AcDbEntity
  8
MAIN0
  6
CONTINUOUS
 62
3
100
AcDbLine
 10
216.5776490861471
 20
339.2985404740682
 30
0.0000000000000000
 11
216.5776490861471
 21
334.0423905266072
 31
0.0000000000000000
  0
LINE
  5
218
100
AcDbEntity
  8
MAIN0
  6
PHANTOM
 62
3
100
AcDbLine
 10
229.4469879846173
 20
330.2951804882831
 30
0.0000000000000000
 11
231.5776490861474
 21
330.2951804882837
 31
0.0000000000000000
  0
LINE
  5
219
100
AcDbEntity
  8
MAIN0
  6
PHANTOM
 62
12
100
AcDbLine
 10
231.5776490861475
 20
337.7823105692549
 30
0.0000000000000000
 11
229.4469879846160
 21
337.2510770920744
 31
0.0000000000000000
  0
LINE
  5
21A
100
AcDbEntity
  8
MAIN0
  6
CONTINUOUS
 62
3
100
AcDbLine
 10
226.5776490861471
 20
336.5356705550394
 30
0.0000000000000000
 11
182.7538387435702
 21
325.6091674453464
 31
0.0000000000000000
  0
LINE
  5
21B
100
AcDbEntity
  8
MAIN0
  6
CONTINUOUS
 62
3
100
AcDbLine
 10
449.2750506450700
 20
336.5731816889052
 30
0.0000000000000000
 11
437.3043456286169
 21
303.6839399612485
 31
0.0000000000000000
  0
LINE
  5
21C
100
AcDbEntity
  8
MAIN0
  6
CONTINUOUS
 62
3
100
AcDbLine
 10
339.8117491971944
 20
244.7225658165458
 30
0.0000000000000000
 11
374.2800205527787
 21
250.8002520349160
 31
0.0000000000000000
  0
LINE
  5
21D
100
AcDbEntity
  8
MAIN0
  6
CONTINUOUS
 62
3
100
AcDbLine
 10
368.0284110215617
 20
195.8498739167518
 30
0.0000000000000000
 11
390.5259773606932
 21
222.6614294260383
 31
0.0000000000000000
  0
LINE
  5
21E
100
AcDbEntity
  8
MAIN0
  6
CONTINUOUS
 62
3
100
AcDbLine
 10
474.0883666198413
 20
195.8498739167512
 30
0.0000000000000000
 11
451.5908002807098
 21
222.6614294260380
 31
0.0000000000000000
  0
LINE
  5
21F
100
AcDbEntity
  8
MAIN0
  6
CONTINUOUS
 62
3
100
AcDbLine
 10
502.3050284442091
 20
244.7225658165456
 30
0.0000000000000000
 11
467.8367570886249
 21
250.8002520349158
 31
0.0000000000000000
  0
LINE
  5
220
100
AcDbEntity
  8
MAIN0
  6
PHANTOM
 62
3
100
AcDbLine
 10
155.4776490861472
 20
183.9985404740683
 30
0.0000000000000000
 11
155.4776490861472
 21
191.5485404740682
 31
0.0000000000000000
  0
LINE
  5
221
100
AcDbEntity
  8
MAIN0
  6
CENTER
 62
3
100
AcDbLine
 10
166.0671538585883
 20
304.9588915592674
 30
0.0000000000000000
 11
239.9278702565617
 21
323.3744364673523
 31
0.0000000000000000
  0
LINE
  5
222
100
AcDbEntity
  8
MAIN0
  6
HIDDEN
 62
3
100
AcDbLine
 10
103.7928990861478
 20
165.4485404740680
 30
0.0000000000000000
 11
116.3623990861479
 21
165.4485404740678
 31
0.0000000000000000
  0
LINE
  5
223
100
AcDbEntity
  8
MAIN0
  6
CONTINUOUS
 62
3
100
AcDbLine
 10
121.5776490862391
 20
265.5485404740683
 30
0.0000000000000000
 11
122.5776490862391
 21
266.5485404740683
 31
0.0000000000000000
  0
LINE
  5
224
100
AcDbEntity
  8
MAIN0
  6
CONTINUOUS
 62
3
100
AcDbLine
 10
121.5776490862391
 20
252.5485404740684
 30
0.0000000000000000
 11
122.5776490862391
 21
251.5485404740684
 31
0.0000000000000000
  0
LINE
  5
225
100
AcDbEntity
  8
MAIN0
  6
CONTINUOUS
 62
3
100
AcDbLine
 10
121.5776490862393
 20
265.5485404740523
 30
0.0000000000000000
 11
121.5776490862393
 21
252.5485404740523
 31
0.0000000000000000
  0
LINE
  5
226
100
AcDbEntity
  8
MAIN0
  6
CONTINUOUS
 62
3
100
AcDbLine
 10
161.4776490861469
 20
279.0485404740682
 30
0.0000000000000000
 11
164.7776490861469
 21
279.0485404740682
 31
0.0000000000000000
  0
LINE
  5
227
100
AcDbEntity
  8
MAIN0
  6
CONTINUOUS
 62
3
100
AcDbLine
 10
161.0776490861468
 20
278.6485404740681
 30
0.0000000000000000
 11
161.0776490861468
 21
276.5485404740522
 31
0.0000000000000000
  0
LINE
  5
228
100
AcDbEntity
  8
MAIN0
  6
CONTINUOUS
 62
3
100
AcDbLine
 10
165.1776490861469
 20
278.6485404740682
 30
0.0000000000000000
 11
165.1776490861468
 21
276.5485404740521
 31
0.0000000000000000
  0
ARC
  5
229
100
AcDbEntity
  8
MAIN0
  6
CONTINUOUS
 62
3
100
AcDbCircle
 10
161.4776490861469
 20
278.6485404740682
 30
0.0000000000000000
 40
0.4000000000000000
100
AcDbArc
 50
90.00000000000000
 51
180.0000000000000
  0
ARC
  5
22A
100
AcDbEntity
  8
MAIN0
  6
CONTINUOUS
 62
3
100
AcDbCircle
 10
164.7776490861469
 20
278.6485404740682
 30
0.0000000000000000
 40
0.4000000000000000
100
AcDbArc
 50
0.0000000000000000
 51
90.00000000000000
  0
ELLIPSE
  5
22B
100
AcDbEntity
  8
MAIN0
  6
CONTINUOUS
 62
3
100
AcDbEllipse
 10
163.1276490861469
 20
277.7985404740682
 30
0.0000000000000000
 11
-2.049999999999983
 21
0.0000000000000000
 31
0.0000000000000000
210
0.0000000000000000
220
0.0000000000000000
230
1.000000000000000
 40
0.6097560975609807
 41
0.0000000000000000
 42
6.283185307179586
  0
LINE
  5
22C
100
AcDbEntity
  8
MAIN0
  6
CONTINUOUS
 62
3
100
AcDbLine
 10
181.5776470861472
 20
309.0485404740682
 30
0.0000000000000000
 11
206.5776490861468
 21
309.0485364740680
 31
0.0000000000000000
  0
LINE
  5
22D
100
AcDbEntity
  8
MAIN0
  6
CONTINUOUS
 62
3
100
AcDbLine
 10
181.5776470861472
 20
299.0485404740683
 30
0.0000000000000000
 11
206.5776490861468
 21
299.0485364740683
 31
0.0000000000000000
  0
LINE
  5
22E
100
AcDbEntity
  8
MAIN0
  6
CONTINUOUS
 62
3
100
AcDbLine
 10
185.0776490861468
 20
279.0485404740682
 30
0.0000000000000000
 11
185.0776490861473
 21
227.5485404740682
 31
0.0000000000000000
  0
LINE
  5
22F
100
AcDbEntity
  8
MAIN0
  6
CONTINUOUS
 62
3
100
AcDbLine
 10
184.0776490861596
 20
227.5485404740683
 30
0.0000000000000000
 11
185.0776490861596
 21
227.5485404740683
 31
0.0000000000000000
  0
LINE
  5
230
100
AcDbEntity
  8
MAIN0
  6
CONTINUOUS
 62
3
100
AcDbLine
 10
184.0776490861596
 20
279.0485404740682
 30
0.0000000000000000
 11
185.0776490861596
 21
279.0485404740682
 31
0.0000000000000000
  0
LINE
  5
231
100
AcDbEntity
  8
MAIN0
  6
CONTINUOUS
 62
3
100
AcDbLine
 10
184.0776490861474
 20
216.5485404740970
 30
0.0000000000000000
 11
184.0776490861472
 21
292.9595942950072
 31
0.0000000000000000
  0
ARC
  5
232
100
AcDbEntity
  8
MAIN0
  6
CONTINUOUS
 62
3
100
AcDbCircle
 10
185.0776490861472
 20
236.4985404740682
 30
0.0000000000000000
 40
3.300000000000000
100
AcDbArc
 50
0.0000000000000000
 51
90.00000000000000
  0
LINE
  5
233
100
AcDbEntity
  8
MAIN0
  6
CONTINUOUS
 62
3
100
AcDbLine
 10
188.3776490861472
 20
232.5985404740682
 30
0.0000000000000000
 11
188.3776490861472
 21
236.4985404740682
 31
0.0000000000000000
  0
ARC
  5
234
100
AcDbEntity
  8
MAIN0
  6
CONTINUOUS
 62
3
100
AcDbCircle
 10
185.0776490861472
 20
232.5985404740682
 30
0.0000000000000000
 40
3.299999999999997
100
AcDbArc
 50
270.0000000000000
 51
360.0000000000000
  0
LINE
  5
235
100
AcDbEntity
  8
MAIN0
  6
CONTINUOUS
 62
3
100
AcDbLine
 10
416.1509115323159
 20
227.5485404742269
 30
0.0000000000000000
 11
425.9658661090894
 21
227.5485404742269
 31
0.0000000000000000
  0
ARC
  5
236
100
AcDbEntity
  8
MAIN0
  6
CENTER
 62
3
100
AcDbCircle
 10
421.0583888207027
 20
259.0485404740682
 30
0.0000000000000000
 40
24.50000000000000
100
AcDbArc
 50
251.7575864857032
 51
287.7190618319190
  0
CIRCLE
  5
237
100
AcDbEntity
  8
MAIN0
  6
CONTINUOUS
 62
3
100
AcDbCircle
 10
421.0583888207017
 20
234.5485404747706
 30
0.0000000000000000
 40
5.250000000000000
  0
LINE
  5
238
100
AcDbEntity
  8
MAIN0
  6
CONTINUOUS
 62
3
100
AcDbLine
 10
423.0583888207018
 20
235.7032410131499
 30
0.0000000000000000
 11
421.0583888207019
 21
236.8579415515292
 31
0.0000000000000000
  0
LINE
  5
239
100
AcDbEntity
  8
MAIN0
  6
CONTINUOUS
 62
3
100
AcDbLine
 10
421.0583888207017
 20
236.8579415515290
 30
0.0000000000000000
 11
419.0583888207017
 21
235.7032410131498
 31
0.0000000000000000
  0
LINE
  5
23A
100
AcDbEntity
  8
MAIN0
  6
CONTINUOUS
 62
3
100
AcDbLine
 10
419.0583888207017
 20
235.7032410131498
 30
0.0000000000000000
 11
419.0583888207017
 21
233.3938399363913
 31
0.0000000000000000
  0
LINE
  5
23B
100
AcDbEntity
  8
MAIN0
  6
CONTINUOUS
 62
3
100
AcDbLine
 10
419.0583888207019
 20
233.3938399363914
 30
0.0000000000000000
 11
421.0583888207018
 21
232.2391393980122
 31
0.0000000000000000
  0
LINE
  5
23C
100
AcDbEntity
  8
MAIN0
  6
CONTINUOUS
 62
3
100
AcDbLine
 10
421.0583888207018
 20
232.2391393980120
 30
0.0000000000000000
 11
423.0583888207018
 21
233.3938399363913
 31
0.0000000000000000
  0
LINE
  5
23D
100
AcDbEntity
  8
MAIN0
  6
CONTINUOUS
 62
3
100
AcDbLine
 10
423.0583888207017
 20
233.3938399363913
 30
0.0000000000000000
 11
423.0583888207017
 21
235.7032410131498
 31
0.0000000000000000
  0
LINE
  5
23E
100
AcDbEntity
  8
MAIN0
  6
CONTINUOUS
 62
3
100
AcDbLine
 10
450.7919276839684
 20
270.5485404737509
 30
0.0000000000000000
 11
445.8844503955817
 21
279.0485404742269
 31
0.0000000000000000
  0
LINE
  5
23F
100
AcDbEntity
  8
MAIN0
  6
CONTINUOUS
 62
3
100
AcDbLine
 10
396.2323272458236
 20
279.0485404742269
 30
0.0000000000000000
 11
391.3248499574369
 21
270.5485404737508
 31
0.0000000000000000
  0
CIRCLE
  5
240
100
AcDbEntity
  8
MAIN0
  6
CONTINUOUS
 62
3
100
AcDbCircle
 10
442.2760112128125
 20
271.2985404737168
 30
0.0000000000000000
 40
5.250000000000000
  0
LINE
  5
241
100
AcDbEntity
  8
MAIN0
  6
CONTINUOUS
 62
3
100
AcDbLine
 10
440.2760112128124
 20
272.4532410120961
 30
0.0000000000000000
 11
440.2760112128124
 21
270.1438399353375
 31
0.0000000000000000
  0
LINE
  5
242
100
AcDbEntity
  8
MAIN0
  6
CONTINUOUS
 62
3
100
AcDbLine
 10
440.2760112128125
 20
270.1438399353376
 30
0.0000000000000000
 11
442.2760112128125
 21
268.9891393969583
 31
0.0000000000000000
  0
LINE
  5
243
100
AcDbEntity
  8
MAIN0
  6
CONTINUOUS
 62
3
100
AcDbLine
 10
442.2760112128125
 20
268.9891393969582
 30
0.0000000000000000
 11
444.2760112128124
 21
270.1438399353374
 31
0.0000000000000000
  0
LINE
  5
244
100
AcDbEntity
  8
MAIN0
  6
CONTINUOUS
 62
3
100
AcDbLine
 10
444.2760112128124
 20
270.1438399353375
 30
0.0000000000000000
 11
444.2760112128124
 21
272.4532410120961
 31
0.0000000000000000
  0
LINE
  5
245
100
AcDbEntity
  8
MAIN0
  6
CONTINUOUS
 62
3
100
AcDbLine
 10
444.2760112128125
 20
272.4532410120960
 30
0.0000000000000000
 11
442.2760112128125
 21
273.6079415504753
 31
0.0000000000000000
  0
LINE
  5
246
100
AcDbEntity
  8
MAIN0
  6
CONTINUOUS
 62
3
100
AcDbLine
 10
442.2760112128124
 20
273.6079415504752
 30
0.0000000000000000
 11
440.2760112128125
 21
272.4532410120959
 31
0.0000000000000000
  0
CIRCLE
  5
247
100
AcDbEntity
  8
MAIN0
  6
CONTINUOUS
 62
3
100
AcDbCircle
 10
399.8407664285916
 20
271.2985404737171
 30
0.0000000000000000
 40
5.250000000000000
  0
LINE
  5
248
100
AcDbEntity
  8
MAIN0
  6
CONTINUOUS
 62
3
100
AcDbLine
 10
399.8407664285915
 20
268.9891393969584
 30
0.0000000000000000
 11
401.8407664285916
 21
270.1438399353377
 31
0.0000000000000000
  0
LINE
  5
249
100
AcDbEntity
  8
MAIN0
  6
CONTINUOUS
 62
3
100
AcDbLine
 10
401.8407664285916
 20
270.1438399353378
 30
0.0000000000000000
 11
401.8407664285916
 21
272.4532410120963
 31
0.0000000000000000
  0
LINE
  5
24A
100
AcDbEntity
  8
MAIN0
  6
CONTINUOUS
 62
3
100
AcDbLine
 10
401.8407664285916
 20
272.4532410120963
 30
0.0000000000000000
 11
399.8407664285916
 21
273.6079415504756
 31
0.0000000000000000
  0
LINE
  5
24B
100
AcDbEntity
  8
MAIN0
  6
CONTINUOUS
 62
3
100
AcDbLine
 10
399.8407664285916
 20
273.6079415504755
 30
0.0000000000000000
 11
397.8407664285915
 21
272.4532410120962
 31
0.0000000000000000
  0
LINE
  5
24C
100
AcDbEntity
  8
MAIN0
  6
CONTINUOUS
 62
3
100
AcDbLine
 10
397.8407664285916
 20
272.4532410120963
 30
0.0000000000000000
 11
397.8407664285916
 21
270.1438399353378
 31
0.0000000000000000
  0
LINE
  5
24D
100
AcDbEntity
  8
MAIN0
  6
CONTINUOUS
 62
3
100
AcDbLine
 10
397.8407664285916
 20
270.1438399353378
 30
0.0000000000000000
 11
399.8407664285916
 21
268.9891393969586
 31
0.0000000000000000
  0
LINE
  5
24E
100
AcDbEntity
  8
MAIN0
  6
CONTINUOUS
 62
3
100
AcDbLine
 10
396.2323272458237
 20
279.0485404742269
 30
0.0000000000000000
 11
406.0583888207015
 21
279.0485404742269
 31
0.0000000000000000
  0
LINE
  5
24F
100
AcDbEntity
  8
MAIN0
  6
CONTINUOUS
 62
3
100
AcDbLine
 10
436.0583888207016
 20
279.0485404742269
 30
0.0000000000000000
 11
445.8844503955817
 21
279.0485404742269
 31
0.0000000000000000
  0
LINE
  5
250
100
AcDbEntity
  8
MAIN0
  6
CONTINUOUS
 62
3
100
AcDbLine
 10
445.8788968965291
 20
262.0389215307557
 30
0.0000000000000000
 11
450.7919276839685
 21
270.5485404737509
 31
0.0000000000000000
  0
LINE
  5
251
100
AcDbEntity
  8
MAIN0
  6
CONTINUOUS
 62
3
100
AcDbLine
 10
425.9658661090894
 20
227.5485404742268
 30
0.0000000000000000
 11
430.8788968965290
 21
236.0581594172224
 31
0.0000000000000000
  0
LINE
  5
252
100
AcDbEntity
  8
MAIN0
  6
CONTINUOUS
 62
3
100
AcDbLine
 10
391.3248499574369
 20
270.5485404737509
 30
0.0000000000000000
 11
396.2378807448764
 21
262.0389215307555
 31
0.0000000000000000
  0
LINE
  5
253
100
AcDbEntity
  8
MAIN0
  6
CONTINUOUS
 62
3
100
AcDbLine
 10
411.2378807448766
 20
236.0581594172222
 30
0.0000000000000000
 11
416.1509115323159
 21
227.5485404742271
 31
0.0000000000000000
  0
ARC
  5
254
100
AcDbEntity
  8
MAIN0
  6
CENTER
 62
3
100
AcDbCircle
 10
421.0583888207019
 20
259.0485404740682
 30
0.0000000000000000
 40
35.00000000000000
100
AcDbArc
 50
248.0848199235161
 51
290.8449875232332
  0
CIRCLE
  5
255
100
AcDbEntity
  8
MAIN0
  6
CONTINUOUS
 62
3
100
AcDbCircle
 10
445.8071261623571
 20
283.7972778154710
 30
0.0000000000000000
 40
3.000000000000000
  0
CIRCLE
  5
256
100
AcDbEntity
  8
MAIN0
  6
CONTINUOUS
 62
3
100
AcDbCircle
 10
445.8071261623571
 20
283.7972778154710
 30
0.0000000000000000
 40
2.500000000000000
  0
LINE
  5
257
100
AcDbEntity
  8
MAIN0
  6
CENTER
 62
3
100
AcDbLine
 10
450.6208516247087
 20
266.9697785088797
 30
0.0000000000000000
 11
464.3363326026091
 21
270.6448305607133
 31
0.0000000000000000
  0
CIRCLE
  5
258
100
AcDbEntity
  8
MAIN0
  6
CONTINUOUS
 62
3
100
AcDbCircle
 10
454.8657927407733
 20
268.1072070528280
 30
0.0000000000000000
 40
3.000000000000000
  0
CIRCLE
  5
259
100
AcDbEntity
  8
MAIN0
  6
CONTINUOUS
 62
3
100
AcDbCircle
 10
454.8657927407733
 20
268.1072070528280
 30
0.0000000000000000
 40
2.500000000000000
  0
ARC
  5
25A
100
AcDbEntity
  8
MAIN0
  6
CENTER
 62
3
100
AcDbCircle
 10
421.0583888207019
 20
259.0485404740681
 30
0.0000000000000000
 40
35.00000000000000
100
AcDbArc
 50
0.0000000000000000
 51
51.68367764047791
  0
LINE
  5
25B
100
AcDbEntity
  8
MAIN0
  6
CENTER
 62
3
100
AcDbLine
 10
391.4959260166951
 20
266.9697785088802
 30
0.0000000000000000
 11
383.1407285624164
 21
269.2085469193573
 31
0.0000000000000000
  0
CIRCLE
  5
25C
100
AcDbEntity
  8
MAIN0
  6
CONTINUOUS
 62
3
100
AcDbCircle
 10
387.2509849006310
 20
268.1072070528287
 30
0.0000000000000000
 40
3.000000000000000
  0
CIRCLE
  5
25D
100
AcDbEntity
  8
MAIN0
  6
CONTINUOUS
 62
3
100
AcDbCircle
 10
387.2509849006310
 20
268.1072070528287
 30
0.0000000000000000
 40
2.500000000000000
  0
LINE
  5
25E
100
AcDbEntity
  8
MAIN0
  6
CENTER
 62
3
100
AcDbLine
 10
399.4171640511279
 20
280.6897652433649
 30
0.0000000000000000
 11
393.3007350073254
 21
286.8061942871667
 31
0.0000000000000000
  0
CIRCLE
  5
25F
100
AcDbEntity
  8
MAIN0
  6
CONTINUOUS
 62
3
100
AcDbCircle
 10
396.3096514790472
 20
283.7972778154716
 30
0.0000000000000000
 40
3.000000000000000
  0
CIRCLE
  5
260
100
AcDbEntity
  8
MAIN0
  6
CONTINUOUS
 62
3
100
AcDbCircle
 10
396.3096514790472
 20
283.7972778154716
 30
0.0000000000000000
 40
2.500000000000000
  0
ARC
  5
261
100
AcDbEntity
  8
MAIN0
  6
CENTER
 62
3
100
AcDbCircle
 10
421.0583888207020
 20
259.0485404740682
 30
0.0000000000000000
 40
35.00000000000000
100
AcDbArc
 50
118.9291469442706
 51
193.4117571445372
  0
ARC
  5
262
100
AcDbEntity
  8
MAIN0
  6
CONTINUOUS
 62
3
100
AcDbCircle
 10
421.0583888207019
 20
259.0485404740682
 30
0.0000000000000000
 40
42.49999999996993
100
AcDbArc
 50
350.6673164935288
 51
429.3326835064726
  0
ARC
  5
263
100
AcDbEntity
  8
MAIN0
  6
CONTINUOUS
 62
3
100
AcDbCircle
 10
421.0583888207019
 20
259.0485404740682
 30
0.0000000000000000
 40
42.49999999996993
100
AcDbArc
 50
110.6673164935285
 51
189.3326835064725
  0
ARC
  5
264
100
AcDbEntity
  8
MAIN0
  6
CONTINUOUS
 62
3
100
AcDbCircle
 10
421.0583888207019
 20
259.0485404740682
 30
0.0000000000000000
 40
42.49999999996993
100
AcDbArc
 50
230.6673164935286
 51
309.3326835064731
  0
ARC
  5
265
100
AcDbEntity
  8
MAIN0
  6
CONTINUOUS
 62
3
100
AcDbCircle
 10
421.0583888207017
 20
259.0485404740676
 30
0.0000000000000000
 40
47.49999999984075
100
AcDbArc
 50
110.0000000000000
 51
190.0000000000001
  0
ARC
  5
266
100
AcDbEntity
  8
MAIN0
  6
CONTINUOUS
 62
3
100
AcDbCircle
 10
421.0583888207017
 20
259.0485404740676
 30
0.0000000000000000
 40
47.49999999984075
100
AcDbArc
 50
229.9999999999997
 51
309.9999999999997
  0
ARC
  5
267
100
AcDbEntity
  8
MAIN0
  6
CONTINUOUS
 62
3
100
AcDbCircle
 10
421.0583888207017
 20
259.0485404740676
 30
0.0000000000000000
 40
47.49999999984075
100
AcDbArc
 50
349.9999999999997
 51
429.9999999999995
  0
LINE
  5
268
100
AcDbEntity
  8
MAIN0
  6
CENTER
 62
3
100
AcDbLine
 10
383.1407285624163
 20
269.2085469193573
 30
0.0000000000000000
 11
350.1498897805919
 21
278.0484155285745
 31
0.0000000000000000
  0
LINE
  5
269
100
AcDbEntity
  8
MAIN0
  6
CONTINUOUS
 62
3
100
AcDbLine
 10
175.0776490861472
 20
237.5485404740523
 30
0.0000000000000000
 11
175.0776490861472
 21
231.5485404740523
 31
0.0000000000000000
  0
LINE
  5
26A
100
AcDbEntity
  8
MAIN0
  6
CONTINUOUS
 62
3
100
AcDbLine
 10
167.0776490861473
 20
237.0485404740683
 30
0.0000000000000000
 11
175.0776490861472
 21
237.0485404740683
 31
0.0000000000000000
  0
LINE
  5
26B
100
AcDbEntity
  8
MAIN0
  6
CONTINUOUS
 62
3
100
AcDbLine
 10
175.0776490861472
 20
237.0485404740683
 30
0.0000000000000000
 11
183.2776490861474
 21
237.0485404740683
 31
0.0000000000000000
  0
LINE
  5
26C
100
AcDbEntity
  8
MAIN0
  6
CONTINUOUS
 62
3
100
AcDbLine
 10
172.0776490861473
 20
237.5485404740683
 30
0.0000000000000000
 11
175.0776490861472
 21
237.5485404740683
 31
0.0000000000000000
  0
LINE
  5
26D
100
AcDbEntity
  8
MAIN0
  6
CONTINUOUS
 62
3
100
AcDbLine
 10
175.0776490861472
 20
237.5485404740683
 30
0.0000000000000000
 11
183.7776490861474
 21
237.5485404740683
 31
0.0000000000000000
  0
LINE
  5
26E
100
AcDbEntity
  8
MAIN0
  6
CONTINUOUS
 62
3
100
AcDbLine
 10
167.0776490861474
 20
232.0485404740683
 30
0.0000000000000000
 11
175.0776490861473
 21
232.0485404740683
 31
0.0000000000000000
  0
LINE
  5
26F
100
AcDbEntity
  8
MAIN0
  6
CONTINUOUS
 62
3
100
AcDbLine
 10
175.0776490861472
 20
232.0485404740683
 30
0.0000000000000000
 11
183.2776490861474
 21
232.0485404740683
 31
0.0000000000000000
  0
LINE
  5
270
100
AcDbEntity
  8
MAIN0
  6
CONTINUOUS
 62
3
100
AcDbLine
 10
172.0776490861473
 20
231.5485404740683
 30
0.0000000000000000
 11
175.0776490861473
 21
231.5485404740683
 31
0.0000000000000000
  0
LINE
  5
271
100
AcDbEntity
  8
MAIN0
  6
CONTINUOUS
 62
3
100
AcDbLine
 10
175.0776490861473
 20
231.5485404740683
 30
0.0000000000000000
 11
183.7776490861474
 21
231.5485404740683
 31
0.0000000000000000
  0
LINE
  5
272
100
AcDbEntity
  8
MAIN0
  6
CONTINUOUS
 62
3
100
AcDbLine
 10
431.0583888207018
 20
332.9182125899824
 30
0.0000000000000000
 11
431.0583888207018
 21
330.0485404740683
 31
0.0000000000000000
  0
LINE
  5
273
100
AcDbEntity
  8
MAIN0
  6
CONTINUOUS
 62
3
100
AcDbLine
 10
411.0583888207018
 20
332.9182125899824
 30
0.0000000000000000
 11
411.0583888207018
 21
330.0485404740683
 31
0.0000000000000000
  0
LINE
  5
274
100
AcDbEntity
  8
MAIN0
  6
CONTINUOUS
 62
3
100
AcDbLine
 10
149.5776490860835
 20
271.5485404740678
 30
0.0000000000000000
 11
149.5776490860558
 21
246.5485404740682
 31
0.0000000000000000
  0
LINE
  5
275
100
AcDbEntity
  8
MAIN0
  6
CONTINUOUS
 62
3
100
AcDbLine
 10
127.3776490862281
 20
270.0485404740684
 30
0.0000000000000000
 11
127.3776490862525
 21
248.0485404740681
 31
0.0000000000000000
  0
LINE
  5
276
100
AcDbEntity
  8
MAIN0
  6
CONTINUOUS
 62
3
100
AcDbLine
 10
161.4776490861469
 20
239.0485404740681
 30
0.0000000000000000
 11
164.7776490861469
 21
239.0485404740681
 31
0.0000000000000000
  0
LINE
  5
277
100
AcDbEntity
  8
MAIN0
  6
CONTINUOUS
 62
3
100
AcDbLine
 10
161.0776490861468
 20
239.4485404740681
 30
0.0000000000000000
 11
161.0776490861468
 21
241.5485404740840
 31
0.0000000000000000
  0
LINE
  5
278
100
AcDbEntity
  8
MAIN0
  6
CONTINUOUS
 62
3
100
AcDbLine
 10
165.1776490861469
 20
239.4485404740681
 30
0.0000000000000000
 11
165.1776490861468
 21
241.5485404740841
 31
0.0000000000000000
  0
ARC
  5
279
100
AcDbEntity
  8
MAIN0
  6
CONTINUOUS
 62
3
100
AcDbCircle
 10
161.4776490861469
 20
239.4485404740681
 30
0.0000000000000000
 40
0.4000000000000000
100
AcDbArc
 50
180.0000000000000
 51
270.0000000000000
  0
ARC
  5
27A
100
AcDbEntity
  8
MAIN0
  6
CONTINUOUS
 62
3
100
AcDbCircle
 10
164.7776490861469
 20
239.4485404740681
 30
0.0000000000000000
 40
0.4000000000000000
100
AcDbArc
 50
270.0000000000000
 51
360.0000000000000
  0
ELLIPSE
  5
27B
100
AcDbEntity
  8
MAIN0
  6
CONTINUOUS
 62
3
100
AcDbEllipse
 10
163.1276490861469
 20
240.2985404740681
 30
0.0000000000000000
 11
-2.049999999999983
 21
0.0000000000000000
 31
0.0000000000000000
210
0.0000000000000000
220
0.0000000000000000
230
1.000000000000000
 40
0.6097560975609807
 41
0.0000000000000000
 42
6.283185307179586
  0
LINE
  5
27C
100
AcDbEntity
  8
MAIN0
  6
CONTINUOUS
 62
3
100
AcDbLine
 10
95.07764908614792
 20
341.2985404740683
 30
0.0000000000000000
 11
165.5776490861472
 21
341.2985404740682
 31
0.0000000000000000
  0
LINE
  5
27D
100
AcDbEntity
  8
MAIN0
  6
CONTINUOUS
 62
3
100
AcDbLine
 10
181.5776490861472
 20
341.2985404740682
 30
0.0000000000000000
 11
214.5776490861472
 21
341.2985404740682
 31
0.0000000000000000
  0
LINE
  5
27E
100
AcDbEntity
  8
MAIN0
  6
CONTINUOUS
 62
3
100
AcDbLine
 10
214.5776490861472
 20
341.2985404740682
 30
0.0000000000000000
 11
216.5776490861471
 21
339.2985404740682
 31
0.0000000000000000
  0
SPLINE
  5
27F
100
AcDbEntity
  8
MAIN0
  6
CONTINUOUS
 62
3
100
AcDbSpline
210
0.0000000000000000
220
0.0000000000000000
230
1.000000000000000
 70
     8
 71
     3
 72
    32
 73
    28
 74
     0
 42
1.000000000000000e-007
 43
1.000000000000000e-007
 12
-0.2903469926019540
 22
-0.2207216436824240
 32
0.0000000000000000
 13
-1.005404566933073
 23
0.04722606007693742
 33
0.0000000000000000
 40
0.0000000000000000
 40
0.0000000000000000
 40
0.0000000000000000
 40
0.0000000000000000
 40
7.207614936945739
 40
11.83850267979010
 40
18.19264912309054
 40
23.56180972157891
 40
28.81642496859879
 40
36.72360100024784
 40
40.50589839742591
 40
43.73677803213720
 40
49.07309870179576
 40
52.69468426304175
 40
56.34601669416107
 40
59.47484460794482
 40
64.70107266616562
 40
70.85853028740620
 40
78.97164923923373
 40
82.07444394859857
 40
89.35670969945474
 40
113.2293848539480
 40
118.8302687072374
 40
125.9034298634456
 40
135.2783908079933
 40
139.9528674676320
 40
150.8375132040807
 40
154.6340820583695
 40
161.8089971477363
 40
161.8089971477363
 40
161.8089971477363
 40
161.8089971477363
 10
189.6496056778765
 20
341.2985404736189
 30
0.0000000000000000
 10
188.9520359042849
 20
340.7682482683146
 30
0.0000000000000000
 10
187.4217021206300
 20
339.1044534614866
 30
0.0000000000000000
 10
187.5889142660933
 20
334.2337941789271
 30
0.0000000000000000
 10
187.6776338795232
 20
328.1493567794170
 30
0.0000000000000000
 10
181.4618076706622
 20
325.7062405025257
 30
0.0000000000000000
 10
180.6347032016824
 20
319.1160469528878
 30
0.0000000000000000
 10
177.6990924774345
 20
314.0788575875100
 30
0.0000000000000000
 10
178.4519556645064
 20
308.9866246408815
 30
0.0000000000000000
 10
177.2663083471971
 20
304.9926137349962
 30
0.0000000000000000
 10
174.9990301251060
 20
301.4192373510342
 30
0.0000000000000000
 10
171.5375705005637
 20
299.1258862512049
 30
0.0000000000000000
 10
169.0130153579702
 20
296.2924120383298
 30
0.0000000000000000
 10
169.6348583225147
 20
292.1542034152575
 30
0.0000000000000000
 10
167.5948606299322
 20
287.2311394904052
 30
0.0000000000000000
 10
160.2814820301965
 20
285.2283537640724
 30
0.0000000000000000
 10
160.6313071714516
 20
278.4206380695786
 30
0.0000000000000000
 10
157.4301548575224
 20
272.6684508449984
 30
0.0000000000000000
 10
144.1306532341372
 20
274.3139444167050
 30
0.0000000000000000
 10
133.0332458106041
 20
275.2502265518632
 30
0.0000000000000000
 10
120.7832174470244
 20
274.1288066290617
 30
0.0000000000000000
 10
113.4409810291200
 20
274.5828216957321
 30
0.0000000000000000
 10
106.4309271472183
 20
272.2470964013365
 30
0.0000000000000000
 10
100.6438602695249
 20
265.3276622147931
 30
0.0000000000000000
 10
93.28615947630951
 20
269.2174676761064
 30
0.0000000000000000
 10
86.14798620301869
 20
267.9311793667223
 30
0.0000000000000000
 10
82.48221320406033
 20
268.0064297855219
 30
0.0000000000000000
 10
80.07764907132487
 20
268.1193774425410
 30
0.0000000000000000
  0
SPLINE
  5
280
100
AcDbEntity
  8
MAIN0
  6
CONTINUOUS
 62
3
100
AcDbSpline
210
0.0000000000000000
220
0.0000000000000000
230
1.000000000000000
 70
     8
 71
     3
 72
    25
 73
    21
 74
     0
 42
1.000000000000000e-007
 43
1.000000000000000e-007
 12
0.4579886312230599
 22
-0.08037678563781014
 32
0.0000000000000000
 13
0.1021638854424651
 23
-0.8338888950795393
 33
0.0000000000000000
 40
0.0000000000000000
 40
0.0000000000000000
 40
0.0000000000000000
 40
0.0000000000000000
 40
4.839342440104385
 40
9.443876230138795
 40
14.86815664286570
 40
18.51948794916297
 40
21.64831898051884
 40
29.22898224413818
 40
33.31377655058407
 40
37.37533306243941
 40
45.00399920215934
 40
66.83284087731686
 40
79.83668715740559
 40
85.31059395319670
 40
96.66225179154165
 40
108.5309961102798
 40
116.9355392921101
 40
133.0958156664858
 40
141.8872311927736
 40
151.5180104075171
 40
151.5180104075171
 40
151.5180104075171
 40
151.5180104075171
 10
80.07764908615546
 20
250.1431869063043
 30
0.0000000000000000
 10
80.81643702620981
 20
250.0135299763256
 30
0.0000000000000000
 10
83.07738091523882
 20
249.6532892731623
 30
0.0000000000000000
 10
87.23977521420648
 20
249.3611009886040
 30
0.0000000000000000
 10
91.55746349493754
 20
251.7378571147746
 30
0.0000000000000000
 10
95.62720868115915
 20
250.3493212245391
 30
0.0000000000000000
 10
100.3525017801745
 20
251.1296527055645
 30
0.0000000000000000
 10
105.6992050888476
 20
250.2687588984120
 30
0.0000000000000000
 10
109.3231030353755
 20
246.4007787505349
 30
0.0000000000000000
 10
113.8317820835559
 20
243.4004488773156
 30
0.0000000000000000
 10
125.3844078355046
 20
243.9741256356506
 30
0.0000000000000000
 10
139.3676526346151
 20
237.2569980271810
 30
0.0000000000000000
 10
152.3263500610738
 20
246.2658526029843
 30
0.0000000000000000
 10
162.1845360884087
 20
240.2003460869590
 30
0.0000000000000000
 10
158.6478127151889
 20
229.3216218173348
 30
0.0000000000000000
 10
160.7411907497684
 20
218.5737379509918
 30
0.0000000000000000
 10
152.5094196133923
 20
208.8078261217425
 30
0.0000000000000000
 10
149.6507858840326
 20
197.2328422675477
 30
0.0000000000000000
 10
153.9976256641700
 20
185.7058707573998
 30
0.0000000000000000
 10
149.5328266575987
 20
179.4755568007648
 30
0.0000000000000000
 10
149.8607992657376
 20
176.7985568547190
 30
0.0000000000000000
  0
LINE
  5
281
100
AcDbEntity
  8
MAIN0
  6
HIDDEN
 62
3
100
AcDbLine
 10
80.57764907700005
 20
268.0968865108851
 30
0.0000000000000000
 11
80.57764908614777
 21
306.5485404740682
 31
0.0000000000000000
  0
LINE
  5
282
100
AcDbEntity
  8
MAIN0
  6
HIDDEN
 62
3
100
AcDbLine
 10
80.57764908614776
 20
211.5485404740681
 30
0.0000000000000000
 11
80.57764908271116
 21
250.0573848792892
 31
0.0000000000000000
  0
LINE
  5
283
100
AcDbEntity
  8
MAIN0
  6
CONTINUOUS
 62
3
100
AcDbLine
 10
80.57764908271116
 20
250.0573848792892
 30
0.0000000000000000
 11
80.57764907700005
 21
268.0968865108850
 31
0.0000000000000000
  0
LINE
  5
284
100
AcDbEntity
  8
MAIN0
  6
CENTER
 62
3
100
AcDbLine
 10
88.57764908614790
 20
206.3197497703598
 30
0.0000000000000000
 11
88.57764908614796
 21
156.0485404740683
 31
0.0000000000000000
  0
LINE
  5
285
100
AcDbEntity
  8
MAIN0
  6
CENTER
 62
3
100
AcDbLine
 10
88.57764908614786
 20
262.0820830081669
 30
0.0000000000000000
 11
88.57764908614786
 21
248.5195765267413
 31
0.0000000000000000
  0
LINE
  5
286
100
AcDbEntity
  8
MAIN0
  6
CONTINUOUS
 62
3
100
AcDbLine
 10
102.0776490861477
 20
155.0485404740675
 30
0.0000000000000000
 11
118.0776490861477
 21
155.0485404740675
 31
0.0000000000000000
  0
LINE
  5
287
100
AcDbEntity
  8
MAIN0
  6
CONTINUOUS
 62
3
100
AcDbLine
 10
102.0776490861477
 20
156.0485404740678
 30
0.0000000000000000
 11
102.0776490861477
 21
155.0485404740678
 31
0.0000000000000000
  0
LINE
  5
288
100
AcDbEntity
  8
MAIN0
  6
CONTINUOUS
 62
3
100
AcDbLine
 10
118.0776490861477
 20
156.0485404740678
 30
0.0000000000000000
 11
118.0776490861477
 21
155.0485404740678
 31
0.0000000000000000
  0
LINE
  5
289
100
AcDbEntity
  8
MAIN0
  6
CENTER
 62
3
100
AcDbLine
 10
100.5536056492128
 20
168.5485404740677
 30
0.0000000000000000
 11
86.96631425869418
 21
168.5485404740676
 31
0.0000000000000000
  0
ARC
  5
28A
100
AcDbEntity
  8
MAIN0
  6
CENTER
 62
3
100
AcDbCircle
 10
421.0583888207017
 20
259.0485404740683
 30
0.0000000000000000
 40
60.00000000000000
100
AcDbArc
 50
236.6895867815106
 51
301.4065174568971
  0
CIRCLE
  5
28B
100
AcDbEntity
  8
MAIN0
  6
HIDDEN
 62
3
100
AcDbCircle
 10
397.5583888207020
 20
203.8421096892402
 30
0.0000000000000000
 40
7.000000000000000
  0
CIRCLE
  5
28C
100
AcDbEntity
  8
MAIN0
  6
HIDDEN
 62
3
100
AcDbCircle
 10
444.5583888207015
 20
203.8421096892401
 30
0.0000000000000000
 40
4.864000000000001
  0
CIRCLE
  5
28D
100
AcDbEntity
  8
MAIN0
  6
HIDDEN
 62
3
100
AcDbCircle
 10
444.5583888207015
 20
203.8421096892401
 30
0.0000000000000000
 40
4.283000000000000
  0
CIRCLE
  5
28E
100
AcDbEntity
  8
MAIN0
  6
HIDDEN
 62
3
100
AcDbCircle
 10
444.5583888207015
 20
203.8421096892401
 30
0.0000000000000000
 40
7.000000000000000
  0
ARC
  5
28F
100
AcDbEntity
  8
MAIN0
  6
CENTER
 62
3
100
AcDbCircle
 10
421.0583888207017
 20
259.0485404740682
 30
0.0000000000000000
 40
24.50000000000000
100
AcDbArc
 50
342.6501066364044
 51
407.7190618319189
  0
ARC
  5
290
100
AcDbEntity
  8
MAIN0
  6
CENTER
 62
3
100
AcDbCircle
 10
421.0583888207021
 20
259.0485404740674
 30
0.0000000000000000
 40
24.50000000000000
100
AcDbArc
 50
126.0714362985798
 51
177.2652800356823
  0
LINE
  5
291
100
AcDbEntity
  8
MAIN0
  6
PHANTOM
 62
3
100
AcDbLine
 10
404.8124320127496
 20
303.6839399614256
 30
0.0000000000000000
 11
415.0730363124708
 21
275.4931613379158
 31
0.0000000000000000
  0
LINE
  5
292
100
AcDbEntity
  8
MAIN0
  6
PHANTOM
 62
3
100
AcDbLine
 10
374.2800205526068
 20
250.8002520348602
 30
0.0000000000000000
 11
403.8242531428902
 21
256.0096973648766
 31
0.0000000000000000
  0
ARC
  5
293
100
AcDbEntity
  8
MAIN0
  6
HIDDEN
 62
3
100
AcDbCircle
 10
421.0583888207022
 20
259.0485404740679
 30
0.0000000000000000
 40
17.50000000000000
100
AcDbArc
 50
87.47203092201079
 51
367.2576296058558
  0
ARC
  5
294
100
AcDbEntity
  8
MAIN0
  6
HIDDEN
 62
3
100
AcDbCircle
 10
421.0583888207022
 20
259.0485404740679
 30
0.0000000000000000
 40
17.50000000000000
100
AcDbArc
 50
22.57988068336386
 51
62.69960232717626
  0
DIMENSION
  5
29C
100
AcDbEntity
  8
MAIN0
  6
CONTINUOUS
 62
3
100
AcDbDimension
  2
*D4
 10
315.4432576998828
 20
259.0485404740683
 30
0.0000000000000000
 11
314.9432576998828
 21
207.5485404740681
 31
0.0000000000000000
 70
32
  3
MAIN001
100
AcDbAlignedDimension
 13
381.0583888207019
 23
156.0485404740680
 33
0.0000000000000000
 14
312.5898039984594
 24
259.0485404740683
 34
0.0000000000000000
 50
90.00000000000000
100
AcDbRotatedDimension
1001
ACAD
1000
DSTYLE
1002
{
1070
   173
1070
     1
1070
     6
1000
_OPEN
1070
     7
1000
_OPEN
1070
    41
1040
2.000000
1002
}
  0
DIMENSION
  5
2A5
100
AcDbEntity
  8
MAIN0
  6
CONTINUOUS
 62
3
100
AcDbDimension
  2
*D5
 10
397.5583888207020
 20
142.2033801575145
 30
0.0000000000000000
 11
409.3083888207018
 21
142.7033801575145
 31
0.0000000000000000
 70
32
  3
MAIN001
100
AcDbAlignedDimension
 13
421.0583888207016
 23
147.6741933226030
 33
0.0000000000000000
 14
397.5583888207020
 24
151.1952755899758
 34
0.0000000000000000
100
AcDbRotatedDimension
1001
ACAD
1000
DSTYLE
1002
{
1070
   173
1070
     1
1070
     6
1000
_OPEN
1070
     7
1000
_OPEN
1070
    41
1040
2.000000
1002
}
  0
DIMENSION
  5
2AE
100
AcDbEntity
  8
MAIN0
  6
CONTINUOUS
 62
3
100
AcDbDimension
  2
*D6
 10
421.0583888207016
 20
142.2033801575145
 30
0.0000000000000000
 11
432.8083888207016
 21
142.7033801575145
 31
0.0000000000000000
 70
32
  3
MAIN001
100
AcDbAlignedDimension
 13
444.5583888207015
 23
151.1952755899760
 33
0.0000000000000000
 14
421.0583888207016
 24
147.6741933226030
 34
0.0000000000000000
100
AcDbRotatedDimension
1001
ACAD
1000
DSTYLE
1002
{
1070
   173
1070
     1
1070
     6
1000
_OPEN
1070
     7
1000
_OPEN
1070
    41
1040
2.000000
1002
}
  0
MTEXT
  5
2AF
100
AcDbEntity
  8
MAIN0
  6
CONTINUOUS
 62
3
100
AcDbMText
 10
386.5156942029607
 20
153.1037412542291
 30
0.0000000000000000
 40
4.000000000000000
 41
0.0000000000000000
 71
     1
 72
     1
  1
{\H0.92x;{閉\PCLOSE}}
 11
1.000000000000000
 21
0.0000000000000000
 31
0.0000000000000000
  7
KNJYOKO
  0
MTEXT
  5
2B0
100
AcDbEntity
  8
MAIN0
  6
CONTINUOUS
 62
3
100
AcDbMText
 10
446.7400325054827
 20
153.1037412542291
 30
0.0000000000000000
 40
4.000000000000000
 41
0.0000000000000000
 71
     1
 72
     1
  1
{\H0.91x;{開\POPEN}}
 11
1.000000000000000
 21
4.440892098500626e-016
 31
0.0000000000000000
  7
KNJYOKO
  0
DIMENSION
  5
2B7
100
AcDbEntity
  8
MAIN0
  6
CONTINUOUS
 62
3
100
AcDbDimension
  2
*D7
 10
498.7826826110188
 20
217.1941114057522
 30
0.0000000000000000
 11
525.6152559488958
 21
184.0639460442399
 31
0.0000000000000000
 70
163
  1
\A1;2-\U+220510H7
  3
MAIN001
100
AcDbDiametricDimension
 15
503.5487947303805
 25
208.4029695421674
 35
0.0000000000000000
1001
ACAD
1000
DSTYLE
1002
{
1070
    73
1070
     1
1070
    74
1070
     1
1070
   172
1070
     0
1070
   173
1070
     1
1070
     6
1000
_OPEN
1070
     7
1000
_OPEN
1070
    41
1040
2.000000
1002
}
  0
DIMENSION
  5
2BE
100
AcDbEntity
  8
MAIN0
  6
CONTINUOUS
 62
3
100
AcDbDimension
  2
*D8
 10
481.5425053065943
 20
322.0040810034490
 30
0.0000000000000000
 11
523.0297832677861
 21
339.9281211124011
 31
0.0000000000000000
 70
163
  1
\A1;4-\U+220511
  3
MAIN001
100
AcDbDiametricDimension
 15
491.3890268543713
 25
326.9077544641480
 35
0.0000000000000000
1001
ACAD
1000
DSTYLE
1002
{
1070
    73
1070
     1
1070
    74
1070
     1
1070
   172
1070
     0
1070
   173
1070
     1
1070
     6
1000
_OPEN
1070
     7
1000
_OPEN
1070
    41
1040
2.000000
1002
}
  0
LEADER
  5
2BF
100
AcDbEntity
  8
MAIN0
  6
CONTINUOUS
 62
3
100
AcDbLeader
  3
MAIN001
 73
     0
 75
     1
 40
3.099999904632568
 41
14.59900000894072
 76
     3
 10
391.3531979512727
 20
160.1813702982895
 30
0.0000000000000000
 10
366.1646556182492
 20
140.5002466166366
 30
0.0000000000000000
 10
364.3776556709099
 20
140.5002466166366
 30
0.0000000000000000
340
2C0
213
0.0000000000000000
223
-0.5000000000000000
233
0.0000000000000000
1001
ACAD
1000
DSTYLE
1002
{
1070
   147
1040
0.0
1070
    77
1070
     1
1070
   173
1070
     1
1070
     6
1000
_OPEN
1070
     7
1000
_OPEN
1002
}
  0
MTEXT
  5
2C0
102
{ACAD_REACTORS
330
2BF
102
}
100
AcDbEntity
  8
MAIN0
  6
CONTINUOUS
 62
3
100
AcDbMText
 10
349.7786556619692
 20
144.1002465212692
 30
0.0000000000000000
 40
3.099999904632568
 41
0.0000000000000000
 71
     1
 72
     1
  1
{\H0.70x;{2-Rc1/4}}
 11
1.000000000000000
 21
0.0000000000000000
 31
0.0000000000000000
  7
STANDARD
  0
LEADER
  5
2C1
100
AcDbEntity
  8
MAIN0
  6
CONTINUOUS
 62
3
100
AcDbLeader
  3
MAIN001
 73
     0
 75
     1
 40
3.099999904632568
 41
10.39900000596049
 76
     3
 10
416.2801312395778
 20
158.7922978780968
 30
0.0000000000000000
 10
364.7541061542589
 20
126.0419204677155
 30
0.0000000000000000
 10
362.9671062069196
 20
126.0419204677155
 30
0.0000000000000000
340
2C2
213
0.0000000000000000
223
-0.5000000000000000
233
0.0000000000000000
1001
ACAD
1000
DSTYLE
1002
{
1070
   147
1040
0.0
1070
    77
1070
     1
1070
   173
1070
     1
1070
     6
1000
_OPEN
1070
     7
1000
_OPEN
1002
}
  0
MTEXT
  5
2C2
102
{ACAD_REACTORS
330
2C1
102
}
100
AcDbEntity
  8
MAIN0
  6
CONTINUOUS
 62
3
100
AcDbMText
 10
352.5681062009591
 20
129.6419203723480
 30
0.0000000000000000
 40
3.099999904632568
 41
0.0000000000000000
 71
     1
 72
     1
  1
{\H0.70x;{Rc1/8}}
 11
1.000000000000000
 21
0.0000000000000000
 31
0.0000000000000000
  7
STANDARD
  0
LINE
  5
2C3
100
AcDbEntity
  8
MAIN0
  6
HIDDEN
 62
3
100
AcDbLine
 10
95.07764908613171
 20
346.0485404740681
 30
0.0000000000000000
 11
80.07764908613171
 21
346.0485404740680
 31
0.0000000000000000
  0
LINE
  5
2C4
100
AcDbEntity
  8
MAIN0
  6
HIDDEN
 62
3
100
AcDbLine
 10
95.07764908613167
 20
357.0485404740681
 30
0.0000000000000000
 11
80.07764908613167
 21
357.0485404740680
 31
0.0000000000000000
  0
LINE
  5
2C5
100
AcDbEntity
  8
MAIN0
  6
HIDDEN
 62
3
100
AcDbLine
 10
86.27764908614796
 20
203.7187596894890
 30
0.0000000000000000
 11
86.27764908614796
 21
194.3782596894891
 31
0.0000000000000000
  0
LINE
  5
2C6
100
AcDbEntity
  8
MAIN0
  6
HIDDEN
 62
3
100
AcDbLine
 10
81.07764908614786
 20
194.7967596894888
 30
0.0000000000000000
 11
86.27764908614780
 21
194.9592596894888
 31
0.0000000000000000
  0
LINE
  5
2C7
100
AcDbEntity
  8
MAIN0
  6
HIDDEN
 62
3
100
AcDbLine
 10
86.27764908614803
 20
194.3782596894892
 30
0.0000000000000000
 11
81.07764908614807
 21
194.2157596894892
 31
0.0000000000000000
  0
LINE
  5
2C8
100
AcDbEntity
  8
MAIN0
  6
HIDDEN
 62
3
100
AcDbLine
 10
81.07764908614797
 20
203.8812596894889
 30
0.0000000000000000
 11
86.27764908614793
 21
203.7187596894889
 31
0.0000000000000000
  0
LINE
  5
2C9
100
AcDbEntity
  8
MAIN0
  6
HIDDEN
 62
3
100
AcDbLine
 10
81.07764908614797
 20
203.3002596894889
 30
0.0000000000000000
 11
86.27764908614793
 21
203.1377596894890
 31
0.0000000000000000
  0
LINE
  5
2CA
100
AcDbEntity
  8
MAIN0
  6
CENTER
 62
3
100
AcDbLine
 10
77.34951961335183
 20
199.0485096894890
 30
0.0000000000000000
 11
103.1745876911574
 21
199.0485096894890
 31
0.0000000000000000
  0
LINE
  5
2CB
100
AcDbEntity
  8
MAIN0
  6
HIDDEN
 62
3
100
AcDbLine
 10
81.07764908614789
 20
206.0485096894718
 30
0.0000000000000000
 11
81.07764908614790
 21
192.0485096894718
 31
0.0000000000000000
  0
LINE
  5
2CC
100
AcDbEntity
  8
MAIN0
  6
HIDDEN
 62
3
100
AcDbLine
 10
80.07764908614783
 20
206.0485096894890
 30
0.0000000000000000
 11
81.07764908615829
 21
206.0485096894890
 31
0.0000000000000000
  0
LINE
  5
2CD
100
AcDbEntity
  8
MAIN0
  6
HIDDEN
 62
3
100
AcDbLine
 10
80.07764908614786
 20
192.0485096894890
 30
0.0000000000000000
 11
81.07764908615832
 21
192.0485096894890
 31
0.0000000000000000
  0
DIMENSION
  5
2D6
100
AcDbEntity
  8
MAIN0
  6
CONTINUOUS
 62
3
100
AcDbDimension
  2
*D9
 10
65.97341822309323
 20
206.0485096894890
 30
0.0000000000000000
 11
65.47341822309323
 21
199.0485096894890
 31
0.0000000000000000
 70
32
  1
\A1;\U+220514
  3
MAIN001
100
AcDbAlignedDimension
 13
80.07764908614786
 23
192.0485096894890
 33
0.0000000000000000
 14
80.07764908614783
 24
206.0485096894890
 34
0.0000000000000000
 50
90.00000000000000
100
AcDbRotatedDimension
1001
ACAD
1000
DSTYLE
1002
{
1070
   173
1070
     1
1070
     6
1000
_OPEN
1070
     7
1000
_OPEN
1070
    41
1040
2.000000
1002
}
  0
DIMENSION
  5
2DF
100
AcDbEntity
  8
MAIN0
  6
CONTINUOUS
 62
3
100
AcDbDimension
  2
*D10
 10
80.07764908614794
 20
142.3944870203769
 30
0.0000000000000000
 11
102.2667137663595
 21
142.9546651889183
 31
0.0000000000000000
 70
160
  3
MAIN001
100
AcDbAlignedDimension
 13
110.0776490861479
 23
149.6822466139924
 33
0.0000000000000000
 14
80.07764908614794
 24
158.1485404740681
 34
0.0000000000000000
100
AcDbRotatedDimension
1001
ACAD
1000
DSTYLE
1002
{
1070
   173
1070
     1
1070
     6
1000
_OPEN
1070
     7
1000
_OPEN
1070
    41
1040
2.000000
1002
}
  0
DIMENSION
  5
2E8
100
AcDbEntity
  8
MAIN0
  6
CONTINUOUS
 62
3
100
AcDbDimension
  2
*D11
 10
80.07764908614794
 20
135.1122133669778
 30
0.0000000000000000
 11
87.57764908614780
 21
135.6122133669778
 31
0.0000000000000000
 70
32
  3
MAIN001
100
AcDbAlignedDimension
 13
95.07764908614766
 23
156.0485404740682
 33
0.0000000000000000
 14
80.07764908614794
 24
158.1485404740681
 34
0.0000000000000000
100
AcDbRotatedDimension
1001
ACAD
1000
DSTYLE
1002
{
1070
   173
1070
     1
1070
     6
1000
_OPEN
1070
     7
1000
_OPEN
1070
    41
1040
2.000000
1002
}
  0
DIMENSION
  5
2F1
100
AcDbEntity
  8
MAIN0
  6
CONTINUOUS
 62
3
100
AcDbDimension
  2
*D12
 10
95.07764908614766
 20
135.1122133669778
 30
0.0000000000000000
 11
110.0776490861477
 21
135.6122133669778
 31
0.0000000000000000
 70
32
  3
MAIN001
100
AcDbAlignedDimension
 13
125.0776490861477
 23
156.0485404740680
 33
0.0000000000000000
 14
95.07764908614766
 24
156.0485404740682
 34
0.0000000000000000
100
AcDbRotatedDimension
1001
ACAD
1000
DSTYLE
1002
{
1070
   173
1070
     1
1070
     6
1000
_OPEN
1070
     7
1000
_OPEN
1070
    41
1040
2.000000
1002
}
  0
DIMENSION
  5
2FA
100
AcDbEntity
  8
MAIN0
  6
CONTINUOUS
 62
3
100
AcDbDimension
  2
*D13
 10
80.07764908614794
 20
128.3901072477102
 30
0.0000000000000000
 11
132.3276490861476
 21
128.8901072477102
 31
0.0000000000000000
 70
32
  3
MAIN001
100
AcDbAlignedDimension
 13
184.5776490861472
 23
176.7985404740685
 33
0.0000000000000000
 14
80.07764908614794
 24
158.1485404740681
 34
0.0000000000000000
100
AcDbRotatedDimension
1001
ACAD
1000
DSTYLE
1002
{
1070
   173
1070
     1
1070
     6
1000
_OPEN
1070
     7
1000
_OPEN
1070
    41
1040
2.000000
1002
}
  0
DIMENSION
  5
302
100
AcDbEntity
  8
MAIN0
  6
CONTINUOUS
 62
3
100
AcDbDimension
  2
*D14
 10
167.0776490861473
 20
217.1699818653569
 30
0.0000000000000000
 11
175.5776490861474
 21
217.6699818653569
 31
0.0000000000000000
 70
32
  3
MAIN001
100
AcDbAlignedDimension
 13
184.0776490861474
 23
216.5485404740970
 33
0.0000000000000000
 14
167.0776490861473
 24
221.5485404740683
 34
0.0000000000000000
100
AcDbRotatedDimension
1001
ACAD
1000
DSTYLE
1002
{
1070
   173
1070
     1
1070
     6
1000
_OPEN
1070
     7
1000
_OPEN
1070
    41
1040
2.000000
1002
}
  0
DIMENSION
  5
30C
100
AcDbEntity
  8
MAIN0
  6
CONTINUOUS
 62
3
100
AcDbDimension
  2
*D15
 10
183.5776490861472
 20
203.5513638461813
 30
0.0000000000000000
 11
178.7674820598746
 21
204.0513638461813
 31
0.0000000000000000
 70
160
  3
MAIN001
100
AcDbAlignedDimension
 13
184.5776490861472
 23
176.7985404740685
 33
0.0000000000000000
 14
183.5776490861474
 24
211.5485404740684
 34
0.0000000000000000
100
AcDbRotatedDimension
1001
ACAD
1000
DSTYLE
1002
{
1070
   173
1070
     1
1070
     6
1000
_OPEN
1070
     7
1000
_OPEN
1070
    41
1040
2.000000
1070
   287
1070
     0
1002
}
  0
DIMENSION
  5
316
100
AcDbEntity
  8
MAIN0
  6
CONTINUOUS
 62
3
100
AcDbDimension
  2
*D16
 10
184.0776490861474
 20
206.9304183341317
 30
0.0000000000000000
 11
189.5190264891027
 21
207.4304183341317
 31
0.0000000000000000
 70
160
  3
MAIN001
100
AcDbAlignedDimension
 13
184.5776490861473
 23
211.5485404740685
 33
0.0000000000000000
 14
184.0776490861474
 24
216.5485404740970
 34
0.0000000000000000
100
AcDbRotatedDimension
1001
ACAD
1000
DSTYLE
1002
{
1070
   173
1070
     1
1070
     6
1000
_OPEN
1070
     7
1000
_OPEN
1070
    41
1040
2.000000
1070
   287
1070
     0
1002
}
  0
INSERT
  5
31E
100
AcDbEntity
  8
MAIN0
  6
CONTINUOUS
 62
3
100
AcDbBlockReference
  2
D17
 10
197.9308116064439
 20
259.0485404740682
 30
0.0000000000000000
 50
0.0000000000000000
  0
INSERT
  5
326
100
AcDbEntity
  8
MAIN0
  6
CONTINUOUS
 62
3
100
AcDbBlockReference
  2
D18
 10
197.9308116064439
 20
259.0485404740682
 30
0.0000000000000000
 50
0.0000000000000000
  0
DIMENSION
  5
32D
100
AcDbEntity
  8
MAIN0
  6
CONTINUOUS
 62
3
100
AcDbDimension
  2
*D19
 10
127.3776490862281
 20
261.3150287706797
 30
0.0000000000000000
 11
154.3197302900620
 21
261.8150287706797
 31
0.0000000000000000
 70
160
  3
MAIN001
100
AcDbAlignedDimension
 13
173.0776490861471
 23
275.9711902048782
 33
0.0000000000000000
 14
127.3776490862281
 24
270.0485404740683
 34
0.0000000000000000
100
AcDbRotatedDimension
1001
ACAD
1000
DSTYLE
1002
{
1070
   173
1070
     1
1070
     6
1000
_OPEN
1070
     7
1000
_OPEN
1070
    41
1040
2.000000
1002
}
  0
DIMENSION
  5
334
100
AcDbEntity
  8
MAIN0
  6
CONTINUOUS
 62
3
100
AcDbDimension
  2
*D20
 10
149.5776490860835
 20
265.7377643128063
 30
0.0000000000000000
 11
161.3276490861153
 21
266.2377643128063
 31
0.0000000000000000
 70
32
  3
MAIN001
100
AcDbAlignedDimension
 13
173.0776490861471
 23
275.9711902048782
 33
0.0000000000000000
 14
149.5776490860835
 24
271.5485404740678
 34
0.0000000000000000
100
AcDbRotatedDimension
1001
ACAD
1000
DSTYLE
1002
{
1070
   173
1070
     1
1070
     6
1000
_OPEN
1070
     7
1000
_OPEN
1070
    41
1040
2.000000
1002
}
  0
DIMENSION
  5
33D
100
AcDbEntity
  8
MAIN0
  6
CONTINUOUS
 62
3
100
AcDbDimension
  2
*D21
 10
178.0776490861474
 20
262.5000000000000
 30
0.0000000000000000
 11
191.7828717265029
 21
263.0000000000000
 31
0.0000000000000000
 70
160
  1
\A1;MIN 6
  3
MAIN001
100
AcDbAlignedDimension
 13
184.0776490861474
 23
216.5485404740970
 33
0.0000000000000000
 14
178.0776490861471
 24
275.9711902048787
 34
0.0000000000000000
100
AcDbRotatedDimension
1001
ACAD
1000
DSTYLE
1002
{
1070
   173
1070
     1
1070
     6
1000
_OPEN
1070
     7
1000
_OPEN
1070
    41
1040
2.000000
1070
   287
1070
     0
1002
}
  0
DIMENSION
  5
344
100
AcDbEntity
  8
MAIN0
  6
CONTINUOUS
 62
3
100
AcDbDimension
  2
*D22
 10
169.6692137715135
 20
271.5485404740678
 30
0.0000000000000000
 11
169.1692137715135
 21
253.7703680681236
 31
0.0000000000000000
 70
160
  1
\A1;\U+220525
  3
MAIN001
100
AcDbAlignedDimension
 13
173.0776490861473
 23
246.5485404740682
 33
0.0000000000000000
 14
173.0776490861472
 24
271.5485404740678
 34
0.0000000000000000
 50
90.00000000000000
100
AcDbRotatedDimension
1001
ACAD
1000
DSTYLE
1002
{
1070
   173
1070
     1
1070
     6
1000
_OPEN
1070
     7
1000
_OPEN
1070
    41
1040
2.000000
1002
}
  0
DIMENSION
  5
34D
100
AcDbEntity
  8
MAIN0
  6
CONTINUOUS
 62
3
100
AcDbDimension
  2
*D23
 10
197.9966270292884
 20
276.5485404740678
 30
0.0000000000000000
 11
197.4966270292884
 21
247.5485403511336
 31
0.0000000000000000
 70
160
  1
\A1;\U+220535\H0.903226x;\S+0.01^  0   ;
  3
MAIN001
100
AcDbAlignedDimension
 13
183.0776490863430
 23
241.5485404740683
 33
0.0000000000000000
 14
183.0776490863423
 24
276.5485404740678
 34
0.0000000000000000
 50
90.00000000000000
100
AcDbRotatedDimension
1001
ACAD
1000
DSTYLE
1002
{
1070
   173
1070
     1
1070
     6
1000
_OPEN
1070
     7
1000
_OPEN
1070
    41
1040
2.000000
1002
}
  0
DIMENSION
  5
356
100
AcDbEntity
  8
MAIN0
  6
CONTINUOUS
 62
3
100
AcDbDimension
  2
*D24
 10
133.7670250374656
 20
270.0485404740683
 30
0.0000000000000000
 11
133.2670250374656
 21
253.7703680681236
 31
0.0000000000000000
 70
160
  1
\A1;\U+220522
  3
MAIN001
100
AcDbAlignedDimension
 13
127.3776490862394
 23
248.0485404740681
 33
0.0000000000000000
 14
127.3776490862396
 24
270.0485404740683
 34
0.0000000000000000
 50
90.00000000000000
100
AcDbRotatedDimension
1001
ACAD
1000
DSTYLE
1002
{
1070
   173
1070
     1
1070
     6
1000
_OPEN
1070
     7
1000
_OPEN
1070
    41
1040
2.000000
1002
}
  0
LINE
  5
357
100
AcDbEntity
  8
MAIN0
  6
CONTINUOUS
 62
3
100
AcDbLine
 10
97.57764908636682
 20
265.5485404740684
 30
0.0000000000000000
 11
96.19200844030473
 21
263.1485404740675
 31
0.0000000000000000
  0
LINE
  5
358
100
AcDbEntity
  8
MAIN0
  6
CONTINUOUS
 62
3
100
AcDbLine
 10
97.57764908636678
 20
252.5485404740678
 30
0.0000000000000000
 11
96.19200844030470
 21
254.9485404740686
 31
0.0000000000000000
  0
LINE
  5
359
100
AcDbEntity
  8
MAIN0
  6
CONTINUOUS
 62
3
100
AcDbLine
 10
96.19200844038278
 20
263.1485404740681
 30
0.0000000000000000
 11
96.19200844038278
 21
254.9485404740680
 31
0.0000000000000000
  0
DIMENSION
  5
360
100
AcDbEntity
  8
MAIN0
  6
CONTINUOUS
 62
3
100
AcDbDimension
  2
*D25
 10
113.7069144458968
 20
265.5485404740684
 30
0.0000000000000000
 11
113.2069144458968
 21
259.0485404740684
 31
0.0000000000000000
 70
32
  1
\A1;\U+220513
  3
MAIN001
100
AcDbAlignedDimension
 13
121.5776490862392
 23
252.5485404740684
 33
0.0000000000000000
 14
121.5776490862393
 24
265.5485404740684
 34
0.0000000000000000
 50
90.00000000000000
100
AcDbRotatedDimension
1001
ACAD
1000
DSTYLE
1002
{
1070
   173
1070
     1
1070
     6
1000
_OPEN
1070
     7
1000
_OPEN
1070
    41
1040
2.000000
1002
}
  0
LEADER
  5
361
100
AcDbEntity
  8
MAIN0
  6
CONTINUOUS
 62
3
100
AcDbLeader
  3
MAIN001
 73
     0
 74
     0
 75
     1
 40
3.099999904632568
 41
19.80100001192093
 76
     3
 10
180.8833164943869
 20
231.5485404740683
 30
0.0000000000000000
 10
196.2416583813385
 20
204.9365990306993
 30
0.0000000000000000
 10
198.0266583286778
 20
204.9365990306993
 30
0.0000000000000000
340
362
213
-0.001000000000004775
223
-0.5000000000000000
233
0.0000000000000000
1001
ACAD
1000
DSTYLE
1002
{
1070
   147
1040
0.0
1070
    77
1070
     1
1070
   173
1070
     1
1070
     6
1000
_OPEN
1070
     7
1000
_OPEN
1002
}
  0
MTEXT
  5
362
102
{ACAD_REACTORS
330
361
102
}
100
AcDbEntity
  8
MAIN0
  6
CONTINUOUS
 62
3
100
AcDbMText
 10
198.0276583286778
 20
208.5365989353319
 30
0.0000000000000000
 40
3.099999904632568
 41
0.0000000000000000
 71
     1
 72
     1
  1
{\H0.70x;{3-M6 深さ12\P3-M6\PDEPTH12}}
 11
1.000000000000000
 21
0.0000000000000000
 31
0.0000000000000000
  7
KNJYOKO
  0
DIMENSION
  5
36B
100
AcDbEntity
  8
MAIN0
  6
CONTINUOUS
 62
3
100
AcDbDimension
  2
*D26
 10
240.0000000000000
 20
321.0485404740399
 30
0.0000000000000000
 11
239.5000000000000
 21
312.5485404740541
 31
0.0000000000000000
 70
32
  3
MAIN001
100
AcDbAlignedDimension
 13
228.6881669727779
 23
304.0485404740682
 33
0.0000000000000000
 14
226.5776490861470
 24
321.0485404740398
 34
0.0000000000000000
 50
90.00000000000000
100
AcDbRotatedDimension
1001
ACAD
1000
DSTYLE
1002
{
1070
   173
1070
     1
1070
     6
1000
_OPEN
1070
     7
1000
_OPEN
1070
    41
1040
2.000000
1002
}
  0
DIMENSION
  5
374
100
AcDbEntity
  8
MAIN0
  6
CONTINUOUS
 62
3
100
AcDbDimension
  2
*D27
 10
250.0000000000000
 20
261.5485404740681
 30
0.0000000000000000
 11
249.5000000000000
 21
291.2985404740540
 31
0.0000000000000000
 70
32
  3
MAIN001
100
AcDbAlignedDimension
 13
226.5776490861470
 23
321.0485404740398
 33
0.0000000000000000
 14
226.5776490861473
 24
261.5485404740681
 34
0.0000000000000000
 50
90.00000000000000
100
AcDbRotatedDimension
1001
ACAD
1000
DSTYLE
1002
{
1070
   173
1070
     1
1070
     6
1000
_OPEN
1070
     7
1000
_OPEN
1070
    41
1040
2.000000
1002
}
  0
DIMENSION
  5
37F
100
AcDbEntity
  8
MAIN0
  6
CONTINUOUS
 62
3
100
AcDbDimension
  2
*D28
 10
250.0000000000000
 20
261.5485404740681
 30
0.0000000000000000
 11
249.5000000000000
 21
248.7514218752705
 31
0.0000000000000000
 70
160
  1
\A1;MAX 3.75
  3
MAIN001
100
AcDbAlignedDimension
 13
197.9308116064439
 23
259.0485404740682
 33
0.0000000000000000
 14
226.5776490861473
 24
261.5485404740681
 34
0.0000000000000000
 50
90.00000000000000
100
AcDbRotatedDimension
1001
ACAD
1000
DSTYLE
1002
{
1070
   173
1070
     1
1070
     6
1000
_OPEN
1070
     7
1000
_OPEN
1070
    41
1040
2.000000
1070
   287
1070
     0
1002
}
  0
INSERT
  5
387
100
AcDbEntity
  8
MAIN0
  6
CONTINUOUS
 62
3
100
AcDbBlockReference
  2
D29
 10
197.9308116064439
 20
259.0485404740682
 30
0.0000000000000000
 50
0.0000000000000000
  0
LEADER
  5
388
100
AcDbEntity
  8
MAIN0
  6
CONTINUOUS
 62
3
100
AcDbLeader
  3
MAIN001
 73
     0
 75
     1
 40
3.099999904632568
 41
6.199000002980228
 76
     3
 10
192.5000000000000
 20
309.0485391264918
 30
0.0000000000000000
 10
180.0000000000000
 20
355.0000000000000
 30
0.0000000000000000
 10
178.2130000526607
 20
355.0000000000000
 30
0.0000000000000000
340
389
213
0.0000000000000000
223
-0.5000000000000000
233
0.0000000000000000
1001
ACAD
1000
DSTYLE
1002
{
1070
   147
1040
0.0
1070
    77
1070
     1
1070
   173
1070
     1
1070
     6
1000
_OPEN
1070
     7
1000
_OPEN
1002
}
  0
MTEXT
  5
389
102
{ACAD_REACTORS
330
388
102
}
100
AcDbEntity
  8
MAIN0
  6
CONTINUOUS
 62
3
100
AcDbMText
 10
172.0140000496805
 20
358.5999999046326
 30
0.0000000000000000
 40
3.099999904632568
 41
0.0000000000000000
 71
     1
 72
     1
  1
{\H0.70x;{M10}}
 11
1.000000000000000
 21
0.0000000000000000
 31
0.0000000000000000
  7
STANDARD
  0
LEADER
  5
38A
100
AcDbEntity
  8
MAIN0
  6
CONTINUOUS
 62
3
100
AcDbLeader
  3
MAIN001
 73
     0
 75
     1
 40
4.000000000000000
 41
25.19900091195106
 76
     3
 10
173.8966537623818
 20
216.5392378219657
 30
0.0000000000000000
 10
146.7385158884886
 20
204.5626696131178
 30
0.0000000000000000
 10
144.4975158884886
 20
204.5626696131178
 30
0.0000000000000000
340
38B
213
0.0000000000000000
223
-0.5000000000000000
233
0.0000000000000000
1001
ACAD
1000
DSTYLE
1002
{
1070
   147
1040
0.0
1070
    77
1070
     1
1070
   173
1070
     1
1070
     6
1000
_OPEN
1070
     7
1000
_OPEN
1002
}
  0
MTEXT
  5
38B
102
{ACAD_REACTORS
330
38A
102
}
100
AcDbEntity
  8
MAIN0
  6
CONTINUOUS
 62
3
100
AcDbMText
 10
119.2985149765376
 20
209.0626696131178
 30
0.0000000000000000
 40
4.000000000000000
 41
0.0000000000000000
 71
     1
 72
     1
  1
{\H0.59x;{表面追加工深さ限度}}
 11
1.000000000000000
 21
0.0000000000000000
 31
0.0000000000000000
  7
KNJYOKO
  0
DIMENSION
  5
394
100
AcDbEntity
  8
MAIN0
  6
CONTINUOUS
 62
3
100
AcDbDimension
  2
*D30
 10
54.53764315937920
 20
360.5485404740680
 30
0.0000000000000000
 11
54.03764315937920
 21
256.9485404725779
 31
0.0000000000000000
 70
32
  1
\A1;\U+2205203h7
  3
MAIN001
100
AcDbAlignedDimension
 13
80.67764908614780
 23
157.5485404740681
 33
0.0000000000000000
 14
80.67764908614774
 24
360.5485404740680
 34
0.0000000000000000
 50
90.00000000000000
100
AcDbRotatedDimension
1001
ACAD
1000
DSTYLE
1002
{
1070
   173
1070
     1
1070
     6
1000
_OPEN
1070
     7
1000
_OPEN
1070
    41
1040
2.000000
1002
}
  0
DIMENSION
  5
39B
100
AcDbEntity
  8
MAIN0
  6
CONTINUOUS
 62
3
100
AcDbDimension
  2
*D31
 10
199.5776490861471
 20
280.2045868684286
 30
0.0000000000000000
 11
213.0776490861470
 21
280.7045868684286
 31
0.0000000000000000
 70
32
  3
MAIN001
100
AcDbAlignedDimension
 13
226.5776490861469
 23
261.5485404740681
 33
0.0000000000000000
 14
199.5776490861471
 24
262.5485404740683
 34
0.0000000000000000
100
AcDbRotatedDimension
1001
ACAD
1000
DSTYLE
1002
{
1070
   173
1070
     1
1070
     6
1000
_OPEN
1070
     7
1000
_OPEN
1070
    41
1040
2.000000
1002
}
  0
DIMENSION
  5
3A2
100
AcDbEntity
  8
MAIN0
  6
CONTINUOUS
 62
3
100
AcDbDimension
  2
*D32
 10
406.0583888207015
 20
288.3014748245309
 30
0.0000000000000000
 11
423.9885011017392
 21
288.8014748245309
 31
0.0000000000000000
 70
160
  3
MAIN001
100
AcDbAlignedDimension
 13
436.0583888207016
 23
274.0485404740681
 33
0.0000000000000000
 14
406.0583888207015
 24
274.0485404740684
 34
0.0000000000000000
100
AcDbRotatedDimension
1001
ACAD
1000
DSTYLE
1002
{
1070
   173
1070
     1
1070
     6
1000
_OPEN
1070
     7
1000
_OPEN
1070
    41
1040
2.000000
1002
}
  0
DIMENSION
  5
3A8
100
AcDbEntity
  8
MAIN0
  6
CONTINUOUS
 62
3
100
AcDbDimension
  2
*D33
 10
421.0583888207017
 20
259.0485404740683
 30
0.0000000000000000
 11
394.2994205777092
 21
213.9921317325088
 31
0.0000000000000000
 70
164
  3
MAIN001
100
AcDbRadialDimension
 15
390.9139835364136
 25
207.1706566500669
 35
0.0000000000000000
1001
ACAD
1000
DSTYLE
1002
{
1070
   173
1070
     1
1070
     6
1000
_OPEN
1070
     7
1000
_OPEN
1070
    41
1040
2.000000
1070
   340
1005
3A9
1002
}
  0
DIMENSION
  5
3B1
100
AcDbEntity
  8
MAIN0
  6
CONTINUOUS
 62
3
100
AcDbDimension
  2
*D34
 10
184.0776490861472
 20
284.6820747222661
 30
0.0000000000000000
 11
153.3276490861932
 21
285.1820747222661
 31
0.0000000000000000
 70
32
  3
MAIN001
100
AcDbAlignedDimension
 13
122.5776490862393
 23
269.4711902048955
 33
0.0000000000000000
 14
184.0776490861472
 24
292.9595942950072
 34
0.0000000000000000
100
AcDbRotatedDimension
1001
ACAD
1000
DSTYLE
1002
{
1070
   173
1070
     1
1070
     6
1000
_OPEN
1070
     7
1000
_OPEN
1070
    41
1040
2.000000
1002
}
  0
DIMENSION
  5
3BA
100
AcDbEntity
  8
MAIN0
  6
CONTINUOUS
 62
3
100
AcDbDimension
  2
*D35
 10
122.5776490862393
 20
284.6820747222661
 30
0.0000000000000000
 11
110.0776490862393
 21
285.1820747222661
 31
0.0000000000000000
 70
32
  3
MAIN001
100
AcDbAlignedDimension
 13
97.57764908623939
 23
265.5485404740509
 33
0.0000000000000000
 14
122.5776490862393
 24
269.4711902048955
 34
0.0000000000000000
100
AcDbRotatedDimension
1001
ACAD
1000
DSTYLE
1002
{
1070
   173
1070
     1
1070
     6
1000
_OPEN
1070
     7
1000
_OPEN
1070
    41
1040
2.000000
1002
}
  0
LINE
  5
3BB
100
AcDbEntity
  8
MAIN0
  6
PHANTOM
 62
3
100
AcDbLine
 10
381.0583888207019
 20
121.0485404740680
 30
0.0000000000000000
 11
461.0583888207019
 21
121.0485404740680
 31
0.0000000000000000
  0
LINE
  5
3BC
100
AcDbEntity
  8
MAIN0
  6
PHANTOM
 62
3
100
AcDbLine
 10
461.0583888207019
 20
121.0485404740680
 30
0.0000000000000000
 11
461.0583888207019
 21
156.0485404740680
 31
0.0000000000000000
  0
LINE
  5
3BD
100
AcDbEntity
  8
MAIN0
  6
CONTINUOUS
 62
3
100
AcDbLine
 10
461.0583888207019
 20
156.0485404740680
 30
0.0000000000000000
 11
461.0583888207019
 21
176.0485404740680
 31
0.0000000000000000
  0
LINE
  5
3BE
100
AcDbEntity
  8
MAIN0
  6
PHANTOM
 62
3
100
AcDbLine
 10
381.0583888207020
 20
121.0485404740680
 30
0.0000000000000000
 11
381.0583888207020
 21
156.0485404740680
 31
0.0000000000000000
  0
LINE
  5
3BF
100
AcDbEntity
  8
MAIN0
  6
CONTINUOUS
 62
3
100
AcDbLine
 10
381.0583888207020
 20
156.0485404740680
 30
0.0000000000000000
 11
381.0583888207020
 21
176.0485404740678
 31
0.0000000000000000
  0
DIMENSION
  5
3C6
100
AcDbEntity
  8
MAIN0
  6
CONTINUOUS
 62
3
100
AcDbDimension
  2
*D36
 10
461.0583888207019
 20
133.6423608978330
 30
0.0000000000000000
 11
421.0583888207020
 21
134.1423608978330
 31
0.0000000000000000
 70
32
  3
MAIN001
100
AcDbAlignedDimension
 13
381.0583888207020
 23
121.0485404740680
 33
0.0000000000000000
 14
461.0583888207019
 24
121.0485404740680
 34
0.0000000000000000
100
AcDbRotatedDimension
1001
ACAD
1000
DSTYLE
1002
{
1070
   173
1070
     1
1070
     6
1000
_OPEN
1070
     7
1000
_OPEN
1070
    41
1040
2.000000
1002
}
  0
DIMENSION
  5
3CF
100
AcDbEntity
  8
MAIN0
  6
CONTINUOUS
 62
3
100
AcDbDimension
  2
*D37
 10
305.6464334218172
 20
259.0485404740683
 30
0.0000000000000000
 11
305.1464334218172
 21
190.0485404740681
 31
0.0000000000000000
 70
32
  1
\A1;（138）
  3
MAIN001
100
AcDbAlignedDimension
 13
381.0583888207019
 23
121.0485404740680
 33
0.0000000000000000
 14
312.5898039984594
 24
259.0485404740683
 34
0.0000000000000000
 50
90.00000000000000
100
AcDbRotatedDimension
1001
ACAD
1000
DSTYLE
1002
{
1070
   173
1070
     1
1070
     6
1000
_OPEN
1070
     7
1000
_OPEN
1070
    41
1040
2.000000
1070
   340
1005
3A9
1002
}
  0
LINE
  5
3D0
100
AcDbEntity
  8
MAIN0
  6
PHANTOM
 62
3
100
AcDbLine
 10
140.0776490861317
 20
121.0485404740679
 30
0.0000000000000000
 11
95.07764908613171
 21
121.0485404740681
 31
0.0000000000000000
  0
LINE
  5
3D1
100
AcDbEntity
  8
MAIN0
  6
PHANTOM
 62
3
100
AcDbLine
 10
140.0776490861476
 20
176.0485404740903
 30
0.0000000000000000
 11
140.0776490861477
 21
121.0485404740903
 31
0.0000000000000000
  0
LINE
  5
3D2
100
AcDbEntity
  8
MAIN0
  6
CONTINUOUS
 62
3
100
AcDbLine
 10
95.07764908613171
 20
176.0485404740681
 30
0.0000000000000000
 11
125.0776490861479
 21
176.0485404740679
 31
0.0000000000000000
  0
LINE
  5
3D3
100
AcDbEntity
  8
MAIN0
  6
PHANTOM
 62
3
100
AcDbLine
 10
125.0776490861479
 20
176.0485404740679
 30
0.0000000000000000
 11
140.0776490861317
 21
176.0485404740678
 31
0.0000000000000000
  0
LINE
  5
3D4
100
AcDbEntity
  8
MAIN0
  6
PHANTOM
 62
3
100
AcDbLine
 10
95.07764908614769
 20
121.0485404740681
 30
0.0000000000000000
 11
95.07764908614766
 21
156.0485404740684
 31
0.0000000000000000
  0
LINE
  5
3D5
100
AcDbEntity
  8
MAIN0
  6
CONTINUOUS
 62
3
100
AcDbLine
 10
95.07764908614766
 20
156.0485404740684
 30
0.0000000000000000
 11
95.07764908614757
 21
250.7033053618647
 31
0.0000000000000000
  0
LINE
  5
3D6
100
AcDbEntity
  8
MAIN0
  6
PHANTOM
 62
3
100
AcDbLine
 10
183.5776490861472
 20
176.7985404740685
 30
0.0000000000000000
 11
184.5776490861471
 21
177.7985404740684
 31
0.0000000000000000
  0
LINE
  5
3D7
100
AcDbEntity
  8
MAIN0
  6
CONTINUOUS
 62
3
100
AcDbLine
 10
181.5776490861472
 20
176.7985404740899
 30
0.0000000000000000
 11
181.5776490861472
 21
177.0985404740782
 31
0.0000000000000000
  0
LINE
  5
3D8
100
AcDbEntity
  8
MAIN0
  6
CONTINUOUS
 62
3
100
AcDbLine
 10
178.5776490861472
 20
176.4985404740685
 30
0.0000000000000000
 11
178.5776490861472
 21
177.0985404740686
 31
0.0000000000000000
  0
LINE
  5
3D9
100
AcDbEntity
  8
MAIN0
  6
CONTINUOUS
 62
3
100
AcDbLine
 10
168.5776490861471
 20
176.4985404740686
 30
0.0000000000000000
 11
174.1564767273257
 21
176.4985404740686
 31
0.0000000000000000
  0
LINE
  5
3DA
100
AcDbEntity
  8
MAIN0
  6
CONTINUOUS
 62
3
100
AcDbLine
 10
168.5776490861472
 20
176.4985404740687
 30
0.0000000000000000
 11
168.5776490861472
 21
177.0985404734797
 31
0.0000000000000000
  0
LINE
  5
3DB
100
AcDbEntity
  8
MAIN0
  6
CONTINUOUS
 62
3
100
AcDbLine
 10
165.5776490861471
 20
177.0985404734797
 30
0.0000000000000000
 11
168.5776490861371
 21
177.0985404734797
 31
0.0000000000000000
  0
LINE
  5
3DC
100
AcDbEntity
  8
MAIN0
  6
CONTINUOUS
 62
3
100
AcDbLine
 10
165.5776490861472
 20
176.7985404734797
 30
0.0000000000000000
 11
165.5776490861472
 21
177.0985404734797
 31
0.0000000000000000
  0
LINE
  5
3DD
100
AcDbEntity
  8
MAIN0
  6
CONTINUOUS
 62
3
100
AcDbLine
 10
178.5776490861372
 20
340.9985404740679
 30
0.0000000000000000
 11
181.5776490861372
 21
340.9985404740679
 31
0.0000000000000000
  0
LINE
  5
3DE
100
AcDbEntity
  8
MAIN0
  6
CONTINUOUS
 62
3
100
AcDbLine
 10
181.5776490861472
 20
341.2985404740466
 30
0.0000000000000000
 11
181.5776490861472
 21
340.9985404740582
 31
0.0000000000000000
  0
LINE
  5
3DF
100
AcDbEntity
  8
MAIN0
  6
CONTINUOUS
 62
3
100
AcDbLine
 10
178.5776490861472
 20
341.5985404740679
 30
0.0000000000000000
 11
178.5776490861472
 21
340.9985404740679
 31
0.0000000000000000
  0
LINE
  5
3E0
100
AcDbEntity
  8
MAIN0
  6
CONTINUOUS
 62
3
100
AcDbLine
 10
168.5776490861471
 20
341.5985404740678
 30
0.0000000000000000
 11
178.5776490861471
 21
341.5985404740679
 31
0.0000000000000000
  0
LINE
  5
3E1
100
AcDbEntity
  8
MAIN0
  6
CONTINUOUS
 62
3
100
AcDbLine
 10
168.5776490861472
 20
341.5985404740678
 30
0.0000000000000000
 11
168.5776490861472
 21
340.9985404746568
 31
0.0000000000000000
  0
LINE
  5
3E2
100
AcDbEntity
  8
MAIN0
  6
CONTINUOUS
 62
3
100
AcDbLine
 10
165.5776490861471
 20
340.9985404746568
 30
0.0000000000000000
 11
168.5776490861371
 21
340.9985404746568
 31
0.0000000000000000
  0
LINE
  5
3E3
100
AcDbEntity
  8
MAIN0
  6
CONTINUOUS
 62
3
100
AcDbLine
 10
165.5776490861472
 20
341.2985404746568
 30
0.0000000000000000
 11
165.5776490861472
 21
340.9985404746568
 31
0.0000000000000000
  0
LINE
  5
3E4
100
AcDbEntity
  8
MAIN0
  6
CONTINUOUS
 62
3
100
AcDbLine
 10
178.5776490861605
 20
340.9985404740679
 30
0.0000000000000000
 11
178.5776490861315
 21
314.7781210952877
 31
0.0000000000000000
  0
LINE
  5
3E5
100
AcDbEntity
  8
MAIN0
  6
CONTINUOUS
 62
3
100
AcDbLine
 10
168.5776490859715
 20
340.9985404746568
 30
0.0000000000000000
 11
168.5776490859433
 21
290.0593715425592
 31
0.0000000000000000
  0
DIMENSION
  5
3EE
100
AcDbEntity
  8
MAIN0
  6
CONTINUOUS
 62
3
100
AcDbDimension
  2
*D38
 10
270.0000000000000
 20
341.5985404740679
 30
0.0000000000000000
 11
269.5000000000000
 21
255.8735403876415
 31
0.0000000000000000
 70
32
  1
\A1;\U+2205165.1\H0.903226x;\S 0^ -0.1;
  3
MAIN001
100
AcDbAlignedDimension
 13
174.1564767273257
 23
176.4985404740686
 33
0.0000000000000000
 14
178.5776490861471
 24
341.5985404740679
 34
0.0000000000000000
 50
90.00000000000000
100
AcDbRotatedDimension
1001
ACAD
1000
DSTYLE
1002
{
1070
   173
1070
     1
1070
     6
1000
_OPEN
1070
     7
1000
_OPEN
1070
    41
1040
2.000000
1070
   272
1070
     1
1070
    47
1040
0.000000
1070
    48
1040
0.100000
1070
    71
1070
     1
1002
}
  0
LINE
  5
3EF
100
AcDbEntity
  8
MAIN0
  6
CENTER
 62
3
100
AcDbLine
 10
348.6156800888308
 20
331.4912492059953
 30
0.0000000000000000
 11
393.3007350072390
 21
286.8061942870804
 31
0.0000000000000000
  0
DIMENSION
  5
3F8
100
AcDbEntity
  8
MAIN0
  6
CONTINUOUS
 62
3
100
AcDbDimension
  2
*D39
 10
65.97341822309323
 20
211.5485404740679
 30
0.0000000000000000
 11
65.47341822309323
 21
259.0485404740680
 31
0.0000000000000000
 70
32
  1
\A1;\U+220595
  3
MAIN001
100
AcDbAlignedDimension
 13
80.07764908614767
 23
306.5485404740681
 33
0.0000000000000000
 14
80.07764908614780
 24
211.5485404740679
 34
0.0000000000000000
 50
90.00000000000000
100
AcDbRotatedDimension
1001
ACAD
1000
DSTYLE
1002
{
1070
   173
1070
     1
1070
     6
1000
_OPEN
1070
     7
1000
_OPEN
1070
    41
1040
2.000000
1002
}
  0
DIMENSION
  5
401
100
AcDbEntity
  8
MAIN0
  6
CONTINUOUS
 62
3
100
AcDbDimension
  2
*D40
 10
80.57764907700005
 20
284.9251697467390
 30
0.0000000000000000
 11
73.81508546359351
 21
285.4251697467390
 31
0.0000000000000000
 70
160
  3
MAIN001
100
AcDbAlignedDimension
 13
80.07764908614789
 23
359.9485404740680
 33
0.0000000000000000
 14
80.57764907700005
 24
268.0968865108851
 34
0.0000000000000000
100
AcDbRotatedDimension
1001
ACAD
1000
DSTYLE
1002
{
1070
   173
1070
     1
1070
     6
1000
_OPEN
1070
     7
1000
_OPEN
1070
    41
1040
2.000000
1070
   287
1070
     0
1002
}
  0
LEADER
  5
402
100
AcDbEntity
  8
MAIN0
  6
CONTINUOUS
 62
3
100
AcDbLeader
  3
MAIN001
 73
     0
 75
     1
 40
3.099999904632568
 41
10.39900000596047
 76
     3
 10
83.40034973631151
 20
254.2968694030234
 30
0.0000000000000000
 10
44.35477708226237
 20
219.6001364454356
 30
0.0000000000000000
 10
42.56777713492307
 20
219.6001364454356
 30
0.0000000000000000
340
403
213
0.0000000000000000
223
-0.5000000000000000
233
0.0000000000000000
1001
ACAD
1000
DSTYLE
1002
{
1070
   147
1040
0.0
1070
    77
1070
     1
1070
   173
1070
     1
1070
     6
1000
_OPEN
1070
     7
1000
_OPEN
1002
}
  0
MTEXT
  5
403
102
{ACAD_REACTORS
330
402
102
}
100
AcDbEntity
  8
MAIN0
  6
CONTINUOUS
 62
3
100
AcDbMText
 10
32.16877712896260
 20
223.2001363500681
 30
0.0000000000000000
 40
3.099999904632568
 41
0.0000000000000000
 71
     1
 72
     1
  1
{\H0.70x;{Rc1/8}}
 11
1.000000000000000
 21
0.0000000000000000
 31
0.0000000000000000
  7
STANDARD
  0
ARC
  5
404
100
AcDbEntity
  8
MAIN0
  6
CONTINUOUS
 62
3
100
AcDbCircle
 10
202.3776490861472
 20
316.0485404740370
 30
0.0000000000000000
 40
6.000000000000000
100
AcDbArc
 50
56.44269023808587
 51
194.8351115819752
  0
LINE
  5
405
100
AcDbEntity
  8
MAIN0
  6
PHANTOM
 62
3
100
AcDbLine
 10
504.6688850168504
 20
216.3661679316718
 30
0.0000000000000000
 11
504.6688850168574
 21
210.7759979879948
 31
0.0000000000000000
  0
LINE
  5
406
100
AcDbEntity
  8
MAIN0
  6
PHANTOM
 62
3
100
AcDbLine
 10
502.5038215073450
 20
217.6161679316902
 30
0.0000000000000000
 11
497.6625923246589
 21
214.8210829598339
 31
0.0000000000000000
  0
LINE
  5
407
100
AcDbEntity
  8
MAIN0
  6
PHANTOM
 62
3
100
AcDbLine
 10
497.6625923246581
 20
209.2309130161912
 30
0.0000000000000000
 11
497.6625923246787
 21
214.8210829598682
 31
0.0000000000000000
  0
LINE
  5
408
100
AcDbEntity
  8
MAIN0
  6
PHANTOM
 62
3
100
AcDbLine
 10
499.8276558341577
 20
207.9809130161624
 30
0.0000000000000000
 11
504.6688850168575
 21
210.7759979879947
 31
0.0000000000000000
  0
LINE
  5
409
100
AcDbEntity
  8
MAIN0
  6
PHANTOM
 62
3
100
AcDbLine
 10
342.2891218072460
 20
310.1161679319744
 30
0.0000000000000000
 11
337.4478926245462
 21
307.3210829601420
 31
0.0000000000000000
  0
LINE
  5
40A
100
AcDbEntity
  8
MAIN0
  6
PHANTOM
 62
3
100
AcDbLine
 10
337.4478926245529
 20
301.7309130164649
 30
0.0000000000000000
 11
337.4478926245459
 21
307.3210829601418
 31
0.0000000000000000
  0
LINE
  5
40B
100
AcDbEntity
  8
MAIN0
  6
PHANTOM
 62
3
100
AcDbLine
 10
339.6129561340580
 20
300.4809130164463
 30
0.0000000000000000
 11
344.4541853167441
 21
303.2759979883027
 31
0.0000000000000000
  0
LINE
  5
40C
100
AcDbEntity
  8
MAIN0
  6
PHANTOM
 62
3
100
AcDbLine
 10
344.4541853167450
 20
308.8661679319450
 30
0.0000000000000000
 11
344.4541853167244
 21
303.2759979882682
 31
0.0000000000000000
  0
ARC
  5
40D
100
AcDbEntity
  8
MAIN0
  6
CENTER
 62
3
100
AcDbCircle
 10
421.0583888207019
 20
259.0485404740682
 30
0.0000000000000000
 40
92.50000000000000
100
AcDbArc
 50
296.2361940745121
 51
320.8126928040124
  0
ARC
  5
40E
100
AcDbEntity
  8
MAIN0
  6
CENTER
 62
3
100
AcDbCircle
 10
421.0583888207019
 20
259.0485404740682
 30
0.0000000000000000
 40
92.50000000000000
100
AcDbArc
 50
323.7746287100620
 51
339.5937678937780
  0
ARC
  5
40F
100
AcDbEntity
  8
MAIN0
  6
CENTER
 62
3
100
AcDbCircle
 10
421.0583888207019
 20
259.0485404740682
 30
0.0000000000000000
 40
92.50000000000000
100
AcDbArc
 50
142.6636871901788
 51
161.6628599984856
  0
ARC
  5
410
100
AcDbEntity
  8
MAIN0
  6
CENTER
 62
3
100
AcDbCircle
 10
421.0583888207019
 20
259.0485404740682
 30
0.0000000000000000
 40
92.50000000000000
100
AcDbArc
 50
172.9555235573232
 51
243.6701391521881
  0
DIMENSION
  5
418
100
AcDbEntity
  8
MAIN0
  6
CONTINUOUS
 62
3
100
AcDbDimension
  2
*D41
 10
475.2257831285613
 20
334.0294940149300
 30
0.0000000000000000
 11
493.4241382991511
 21
360.0743138109120
 31
0.0000000000000000
 70
163
  3
MAIN001
100
AcDbDiametricDimension
 15
366.8909945128424
 25
184.0675869332065
 35
0.0000000000000000
1001
ACAD
1000
DSTYLE
1002
{
1070
   287
1070
     2
1070
   173
1070
     1
1070
     6
1000
_OPEN
1070
     7
1000
_OPEN
1070
    41
1040
2.000000
1070
   272
1070
     1
1070
    47
1040
0.200000
1070
    48
1040
0.200000
1070
    71
1070
     1
1002
}
  0
DIMENSION
  5
420
100
AcDbEntity
  8
MAIN0
  6
CONTINUOUS
 62
3
100
AcDbDimension
  2
*D42
 10
506.9525271721468
 20
224.7200246765151
 30
0.0000000000000000
 11
533.4346706614174
 21
214.6746048412981
 31
0.0000000000000000
 70
163
  3
MAIN001
100
AcDbDiametricDimension
 15
335.1642504692571
 25
293.3770562716214
 35
0.0000000000000000
1001
ACAD
1000
DSTYLE
1002
{
1070
   287
1070
     2
1070
   173
1070
     1
1070
     6
1000
_OPEN
1070
     7
1000
_OPEN
1070
    41
1040
2.000000
1070
   272
1070
     1
1070
    47
1040
0.200000
1070
    48
1040
0.200000
1070
    71
1070
     1
1002
}
  0
LINE
  5
421
100
AcDbEntity
  8
MAIN0
  6
CONTINUOUS
 62
3
100
AcDbLine
 10
390.9193925756011
 20
335.8462676887309
 30
0.0000000000000000
 11
339.4801079773456
 21
246.7508132595580
 31
0.0000000000000000
  0
LINE
  5
422
100
AcDbEntity
  8
MAIN0
  6
CONTINUOUS
 62
3
100
AcDbLine
 10
369.6191042224461
 20
194.5485404739160
 30
0.0000000000000000
 11
472.4976734189563
 21
194.5485404739154
 31
0.0000000000000000
  0
ELLIPSE
  5
423
100
AcDbEntity
  8
MAIN0
  6
PHANTOM
 62
3
100
AcDbEllipse
 10
155.4776490861474
 20
194.0485404740684
 30
0.0000000000000000
 11
0.0000000000000000
 21
-2.500000000000000
 31
0.0000000000000000
210
0.0000000000000000
220
0.0000000000000000
230
1.000000000000000
 40
0.3401538552400211
 41
0.0000000000000000
 42
3.141592653589793
  0
LINE
  5
424
100
AcDbEntity
  8
MAIN0
  6
PHANTOM
 62
3
100
AcDbLine
 10
155.4776490861473
 20
198.5485404740684
 30
0.0000000000000000
 11
163.6776490861473
 21
198.5485404740684
 31
0.0000000000000000
  0
LINE
  5
425
100
AcDbEntity
  8
MAIN0
  6
PHANTOM
 62
3
100
AcDbLine
 10
155.4776490861472
 20
198.5485404740683
 30
0.0000000000000000
 11
159.5776490861472
 21
200.9156765777458
 31
0.0000000000000000
  0
LINE
  5
426
100
AcDbEntity
  8
MAIN0
  6
PHANTOM
 62
3
100
AcDbLine
 10
159.5776490861471
 20
200.9156765777457
 30
0.0000000000000000
 11
163.6776490861471
 21
198.5485404740683
 31
0.0000000000000000
  0
LINE
  5
427
100
AcDbEntity
  8
MAIN0
  6
PHANTOM
 62
3
100
AcDbLine
 10
155.4776490861472
 20
196.5485404740683
 30
0.0000000000000000
 11
155.4776490861472
 21
198.5485404740683
 31
0.0000000000000000
  0
LINE
  5
428
100
AcDbEntity
  8
MAIN0
  6
PHANTOM
 62
12
100
AcDbLine
 10
155.4776490861473
 20
196.5485404740682
 30
0.0000000000000000
 11
151.0431601574549
 21
196.5485404740682
 31
0.0000000000000000
  0
LINE
  5
429
100
AcDbEntity
  8
MAIN0
  6
PHANTOM
 62
12
100
AcDbLine
 10
155.4776490861472
 20
191.5485404740682
 30
0.0000000000000000
 11
151.8859002930042
 21
191.5485404740682
 31
0.0000000000000000
  0
LINE
  5
42A
100
AcDbEntity
  8
MAIN0
  6
PHANTOM
 62
3
100
AcDbLine
 10
181.5776490861472
 20
176.7985404740685
 30
0.0000000000000000
 11
183.5776490861472
 21
176.7985404740685
 31
0.0000000000000000
  0
LINE
  5
42B
100
AcDbEntity
  8
MAIN0
  6
PHANTOM
 62
3
100
AcDbLine
 10
181.5776490861472
 20
176.7985404740899
 30
0.0000000000000000
 11
181.5776490861472
 21
177.0985404740782
 31
0.0000000000000000
  0
LINE
  5
42C
100
AcDbEntity
  8
MAIN0
  6
PHANTOM
 62
3
100
AcDbLine
 10
178.5776490861372
 20
177.0985404740685
 30
0.0000000000000000
 11
181.5776490861372
 21
177.0985404740685
 31
0.0000000000000000
  0
LINE
  5
42D
100
AcDbEntity
  8
MAIN0
  6
PHANTOM
 62
3
100
AcDbLine
 10
178.5776490861472
 20
176.4985404740685
 30
0.0000000000000000
 11
178.5776490861472
 21
177.0985404740686
 31
0.0000000000000000
  0
LINE
  5
42E
100
AcDbEntity
  8
MAIN0
  6
PHANTOM
 62
12
100
AcDbLine
 10
184.5776490861471
 20
177.7985404740684
 30
0.0000000000000000
 11
184.5776490861472
 21
192.0362881878055
 31
0.0000000000000000
  0
LINE
  5
42F
100
AcDbEntity
  8
MAIN0
  6
PHANTOM
 62
3
100
AcDbLine
 10
175.6416654889790
 20
176.4985404740686
 30
0.0000000000000000
 11
178.5776490861472
 21
176.4985404740685
 31
0.0000000000000000
  0
LEADER
  5
430
100
AcDbEntity
  8
MAIN0
  6
CONTINUOUS
 62
3
100
AcDbLeader
  3
MAIN001
 73
     0
 74
     0
 75
     1
 40
3.099999904632568
 41
10.40100000596047
 76
     3
 10
164.3724223030245
 20
180.0137975339995
 30
0.0000000000000000
 10
188.2990296970458
 20
157.3376139686543
 30
0.0000000000000000
 10
190.0840296443851
 20
157.3376139686543
 30
0.0000000000000000
340
431
213
-0.001000000000004775
223
-0.5000000000000000
233
0.0000000000000000
1001
ACAD
1000
DSTYLE
1002
{
1070
   147
1040
0.0
1070
    77
1070
     1
1070
   173
1070
     1
1070
     6
1000
_OPEN
1070
     7
1000
_OPEN
1002
}
  0
MTEXT
  5
431
102
{ACAD_REACTORS
330
430
102
}
100
AcDbEntity
  8
MAIN0
  6
CONTINUOUS
 62
3
100
AcDbMText
 10
190.0850296443851
 20
160.9376138732869
 30
0.0000000000000000
 40
3.099999904632568
 41
0.0000000000000000
 71
     1
 72
     1
  1
{\H0.70x;{Rc1/8}}
 11
1.000000000000000
 21
0.0000000000000000
 31
0.0000000000000000
  7
STANDARD
  0
DIMENSION
  5
43A
100
AcDbEntity
  8
MAIN0
  6
CONTINUOUS
 62
3
100
AcDbDimension
  2
*D43
 10
240.0000000000000
 20
259.0485404740682
 30
0.0000000000000000
 11
239.5000000000000
 21
226.7985404739953
 31
0.0000000000000000
 70
32
  3
MAIN001
100
AcDbAlignedDimension
 13
184.5776490861473
 23
194.5485404739223
 33
0.0000000000000000
 14
197.9308116064439
 24
259.0485404740682
 34
0.0000000000000000
 50
90.00000000000000
100
AcDbRotatedDimension
1001
ACAD
1000
DSTYLE
1002
{
1070
   173
1070
     1
1070
     6
1000
_OPEN
1070
     7
1000
_OPEN
1070
    41
1040
2.000000
1002
}
  0
DIMENSION
  5
441
100
AcDbEntity
  8
MAIN0
  6
CONTINUOUS
 62
3
100
AcDbDimension
  2
*D44
 10
455.7779735810503
 20
263.4701277534264
 30
0.0000000000000000
 11
431.4216388361291
 21
260.8723530247682
 31
0.0000000000000000
 70
163
  3
MAIN001
100
AcDbDiametricDimension
 15
386.3388040603535
 25
254.6269531947097
 35
0.0000000000000000
1001
ACAD
1000
DSTYLE
1002
{
1070
   287
1070
     2
1070
   173
1070
     1
1070
     6
1000
_OPEN
1070
     7
1000
_OPEN
1070
    41
1040
2.000000
1070
   272
1070
     1
1070
    47
1040
0.200000
1070
    48
1040
0.200000
1070
    71
1070
     1
1002
}
  0
DIMENSION
  5
449
100
AcDbEntity
  8
MAIN0
  6
CONTINUOUS
 62
3
100
AcDbDimension
  2
*D45
 10
444.9581263117879
 20
253.6584989290366
 30
0.0000000000000000
 11
448.9761758273596
 21
253.2648772910403
 31
0.0000000000000000
 70
163
  3
MAIN001
100
AcDbDiametricDimension
 15
397.1586513296155
 25
264.4385820190997
 35
0.0000000000000000
1001
ACAD
1000
DSTYLE
1002
{
1070
   287
1070
     2
1070
   173
1070
     1
1070
     6
1000
_OPEN
1070
     7
1000
_OPEN
1070
    41
1040
2.000000
1070
   272
1070
     1
1070
    47
1040
0.200000
1070
    48
1040
0.200000
1070
    71
1070
     1
1002
}
  0
LINE
  5
44A
100
AcDbEntity
  8
MAIN0
  6
CONTINUOUS
 62
3
100
AcDbLine
 10
95.07764908614715
 20
341.5985404740678
 30
0.0000000000000000
 11
95.07764908614715
 21
340.9985404746568
 31
0.0000000000000000
  0
ARC
  5
44B
100
AcDbEntity
  8
MAIN0
  6
CONTINUOUS
 62
3
100
AcDbCircle
 10
421.0583888207028
 20
259.0485404740678
 30
0.0000000000000000
 40
66.85500000000000
100
AcDbArc
 50
70.00000000012435
 51
77.14094998913154
  0
ARC
  5
44C
100
AcDbEntity
  8
MAIN0
  6
CONTINUOUS
 62
3
100
AcDbCircle
 10
421.0583888207028
 20
259.0485404740678
 30
0.0000000000000000
 40
60.25000000000000
100
AcDbArc
 50
70.00000000016078
 51
74.59975939992522
  0
ARC
  5
44D
100
AcDbEntity
  8
MAIN0
  6
CONTINUOUS
 62
3
100
AcDbCircle
 10
421.0583888207016
 20
259.0485404740678
 30
0.0000000000000000
 40
60.25000000000000
100
AcDbArc
 50
105.4002406000748
 51
109.9999999998392
  0
ARC
  5
44E
100
AcDbEntity
  8
MAIN0
  6
CONTINUOUS
 62
3
100
AcDbCircle
 10
421.0583888207016
 20
259.0485404740678
 30
0.0000000000000000
 40
66.85500000000000
100
AcDbArc
 50
102.8590500108685
 51
109.9999999998757
  0
ARC
  5
44F
100
AcDbEntity
  8
MAIN0
  6
CONTINUOUS
 62
3
100
AcDbCircle
 10
421.0583888207022
 20
259.0485404740684
 30
0.0000000000000000
 40
66.85500000000000
100
AcDbArc
 50
190.0000000001242
 51
197.1409499891314
  0
ARC
  5
450
100
AcDbEntity
  8
MAIN0
  6
CONTINUOUS
 62
3
100
AcDbCircle
 10
421.0583888207022
 20
259.0485404740684
 30
0.0000000000000000
 40
60.25000000000000
100
AcDbArc
 50
190.0000000001607
 51
194.5997593999251
  0
ARC
  5
451
100
AcDbEntity
  8
MAIN0
  6
CONTINUOUS
 62
3
100
AcDbCircle
 10
421.0583888207028
 20
259.0485404740674
 30
0.0000000000000000
 40
60.25000000000000
100
AcDbArc
 50
225.4002406000747
 51
229.9999999998391
  0
ARC
  5
452
100
AcDbEntity
  8
MAIN0
  6
CONTINUOUS
 62
3
100
AcDbCircle
 10
421.0583888207028
 20
259.0485404740674
 30
0.0000000000000000
 40
66.85500000000000
100
AcDbArc
 50
222.8590500108684
 51
229.9999999998756
  0
ARC
  5
453
100
AcDbEntity
  8
MAIN0
  6
CONTINUOUS
 62
3
100
AcDbCircle
 10
421.0583888207012
 20
259.0485404740686
 30
0.0000000000000000
 40
66.85500000000000
100
AcDbArc
 50
310.0000000001242
 51
317.1409499891313
  0
ARC
  5
454
100
AcDbEntity
  8
MAIN0
  6
CONTINUOUS
 62
3
100
AcDbCircle
 10
421.0583888207012
 20
259.0485404740686
 30
0.0000000000000000
 40
60.25000000000000
100
AcDbArc
 50
310.0000000001606
 51
314.5997593999250
  0
ARC
  5
455
100
AcDbEntity
  8
MAIN0
  6
CONTINUOUS
 62
3
100
AcDbCircle
 10
421.0583888207018
 20
259.0485404740696
 30
0.0000000000000000
 40
60.25000000000000
100
AcDbArc
 50
345.4002406000746
 51
349.9999999998390
  0
ARC
  5
456
100
AcDbEntity
  8
MAIN0
  6
CONTINUOUS
 62
3
100
AcDbCircle
 10
421.0583888207018
 20
259.0485404740696
 30
0.0000000000000000
 40
66.85500000000000
100
AcDbArc
 50
342.8590500108682
 51
349.9999999998754
  0
DIMENSION
  5
45F
100
AcDbEntity
  8
MAIN0
  6
CONTINUOUS
 62
3
100
AcDbDimension
  2
*D46
 10
510.0461552376024
 20
207.6714295785261
 30
0.0000000000000000
 11
511.5807309053959
 21
189.5883043772934
 31
0.0000000000000000
 70
162
  3
MAIN001
100
AcDb2LineAngularDimension
 13
493.5010975525730
 23
186.6058317421409
 33
0.0000000000000000
 14
492.7939907713868
 24
187.3129385233277
 34
0.0000000000000000
 15
509.1801298338187
 25
208.1714295785272
 35
0.0000000000000000
 16
511.9774075755412
 26
189.2839236627886
 36
0.0000000000000000
1001
ACAD
1000
DSTYLE
1002
{
1070
   173
1070
     1
1070
     6
1000
_OPEN
1070
     7
1000
_OPEN
1070
    41
1040
2.000000
1002
}
  0
DIMENSION
  5
468
100
AcDbEntity
  8
MAIN0
  6
CONTINUOUS
 62
3
100
AcDbDimension
  2
*D47
 10
527.8267929571251
 20
259.0485404740683
 30
0.0000000000000000
 11
530.3267199298711
 21
225.9914212339044
 31
0.0000000000000000
 70
162
  1
\A1;30\U+00B0\H0.903226x;\U+00B10.2\U+00B0
  3
MAIN001
100
AcDb2LineAngularDimension
 13
510.0461552376024
 23
207.6714295785261
 33
0.0000000000000000
 14
509.1801298338187
 24
208.1714295785272
 34
0.0000000000000000
 15
526.8267929571251
 25
259.0485404740683
 35
0.0000000000000000
 16
531.7543723832891
 26
229.3876410730235
 36
0.0000000000000000
1001
ACAD
1000
DSTYLE
1002
{
1070
   173
1070
     1
1070
     6
1000
_OPEN
1070
     7
1000
_OPEN
1070
    41
1040
2.000000
1002
}
  0
DIMENSION
  5
471
100
AcDbEntity
  8
MAIN0
  6
CONTINUOUS
 62
3
100
AcDbDimension
  2
*D48
 10
493.5010975526291
 20
331.4912492059389
 30
0.0000000000000000
 11
526.4738888756913
 21
302.7130702811625
 31
0.0000000000000000
 70
162
  3
MAIN001
100
AcDb2LineAngularDimension
 13
527.8267929571251
 23
259.0485404740683
 33
0.0000000000000000
 14
526.8267929571251
 24
259.0485404740683
 34
0.0000000000000000
 15
492.7939907714423
 25
330.7841424247526
 35
0.0000000000000000
 16
526.9358286419468
 26
302.9044119973449
 36
0.0000000000000000
1001
ACAD
1000
DSTYLE
1002
{
1070
   173
1070
     1
1070
     6
1000
_OPEN
1070
     7
1000
_OPEN
1070
    41
1040
2.000000
1002
}
  0
DIMENSION
  5
47A
100
AcDbEntity
  8
MAIN0
  6
CONTINUOUS
 62
3
100
AcDbDimension
  2
*D49
 10
472.8862059882223
 20
348.8169530536030
 30
0.0000000000000000
 11
491.1273863464247
 21
350.3642358991003
 31
0.0000000000000000
 70
162
  3
MAIN001
100
AcDb2LineAngularDimension
 13
493.5010975526291
 23
331.4912492059389
 33
0.0000000000000000
 14
492.7939907714423
 24
330.7841424247526
 34
0.0000000000000000
 15
472.3862059882223
 25
347.9509276498186
 35
0.0000000000000000
 16
490.8230056319202
 26
349.9675592289548
 36
0.0000000000000000
1001
ACAD
1000
DSTYLE
1002
{
1070
   173
1070
     1
1070
     6
1000
_OPEN
1070
     7
1000
_OPEN
1070
    41
1040
2.000000
1002
}
  0
DIMENSION
  5
483
100
AcDbEntity
  8
MAIN0
  6
CONTINUOUS
 62
3
100
AcDbDimension
  2
*D50
 10
421.0583888207019
 20
371.5639101820004
 30
0.0000000000000000
 11
450.8486977442231
 21
370.2274869498205
 31
0.0000000000000000
 70
162
  3
MAIN001
100
AcDb2LineAngularDimension
 13
472.8862059882223
 23
348.8169530536030
 33
0.0000000000000000
 14
472.3862059882223
 24
347.9509276498186
 34
0.0000000000000000
 15
421.0583888207019
 25
370.5639101820004
 35
0.0000000000000000
 16
450.7192882216718
 26
369.7445240366760
 36
0.0000000000000000
1001
ACAD
1000
DSTYLE
1002
{
1070
   173
1070
     1
1070
     6
1000
_OPEN
1070
     7
1000
_OPEN
1070
    41
1040
2.000000
1002
}
  0
DIMENSION
  5
48C
100
AcDbEntity
  8
MAIN0
  6
CONTINUOUS
 62
3
100
AcDbDimension
  2
*D51
 10
348.6156800888308
 20
331.4912492059953
 30
0.0000000000000000
 11
377.0111755812422
 21
365.3879200615692
 31
0.0000000000000000
 70
162
  3
MAIN001
100
AcDb2LineAngularDimension
 13
421.0583888207019
 23
371.5639101820004
 33
0.0000000000000000
 14
421.0583888207019
 24
370.5639101820004
 34
0.0000000000000000
 15
349.3227868700171
 25
330.7841424248085
 35
0.0000000000000000
 16
377.2025172974247
 26
364.9259802953136
 36
0.0000000000000000
1001
ACAD
1000
DSTYLE
1002
{
1070
   173
1070
     1
1070
     6
1000
_OPEN
1070
     7
1000
_OPEN
1070
    41
1040
2.000000
1002
}
  0
DIMENSION
  5
495
100
AcDbEntity
  8
MAIN0
  6
CONTINUOUS
 62
3
100
AcDbDimension
  2
*D52
 10
95.07764908614766
 20
112.1168175283747
 30
0.0000000000000000
 11
117.5776490861476
 21
112.6168175283747
 31
0.0000000000000000
 70
32
  3
MAIN001
100
AcDbAlignedDimension
 13
140.0776490861477
 23
121.0485404740903
 33
0.0000000000000000
 14
95.07764908614766
 24
156.0485404740684
 34
0.0000000000000000
100
AcDbRotatedDimension
1001
ACAD
1000
DSTYLE
1002
{
1070
   173
1070
     1
1070
     6
1000
_OPEN
1070
     7
1000
_OPEN
1070
    41
1040
2.000000
1002
}
  0
DIMENSION
  5
49E
100
AcDbEntity
  8
MAIN0
  6
CONTINUOUS
 62
3
100
AcDbDimension
  2
*D53
 10
80.07764908614789
 20
375.0000000000000
 30
0.0000000000000000
 11
148.3276490861475
 21
375.5000000000000
 31
0.0000000000000000
 70
32
  3
MAIN001
100
AcDbAlignedDimension
 13
216.5776490861471
 23
339.2985404740682
 33
0.0000000000000000
 14
80.07764908614789
 24
359.9485404740680
 34
0.0000000000000000
100
AcDbRotatedDimension
1001
ACAD
1000
DSTYLE
1002
{
1070
   173
1070
     1
1070
     6
1000
_OPEN
1070
     7
1000
_OPEN
1070
    41
1040
2.000000
1002
}
  0
DIMENSION
  5
4A8
100
AcDbEntity
  8
MAIN0
  6
CONTINUOUS
 62
3
100
AcDbDimension
  2
*D54
 10
216.5776490861471
 20
375.0000000000000
 30
0.0000000000000000
 11
239.5776490861474
 21
375.5000000000000
 31
0.0000000000000000
 70
160
  1
\A1;MAX 15
  3
MAIN001
100
AcDbAlignedDimension
 13
231.5776490861474
 23
337.7823105692550
 33
0.0000000000000000
 14
216.5776490861471
 24
339.2985404740682
 34
0.0000000000000000
100
AcDbRotatedDimension
1001
ACAD
1000
DSTYLE
1002
{
1070
   173
1070
     1
1070
     6
1000
_OPEN
1070
     7
1000
_OPEN
1070
    41
1040
2.000000
1002
}
  0
LINE
  5
4A9
100
AcDbEntity
  8
MAIN0
  6
CENTER
 62
12
100
AcDbLine
 10
76.45912704022760
 20
259.0485404740682
 30
0.0000000000000000
 11
108.6069145412642
 21
259.0485404740682
 31
0.0000000000000000
  0
LINE
  5
4AA
100
AcDbEntity
  8
MAIN0
  6
CENTER
 62
12
100
AcDbLine
 10
114.7069144458968
 20
259.0485404740682
 30
0.0000000000000000
 11
197.9308116064439
 21
259.0485404740682
 31
0.0000000000000000
  0
INSERT
  5
4D0
100
AcDbEntity
  8
MAIN0
  6
CONTINUOUS
 62
3
100
AcDbBlockReference
  2
*X0
 10
0.0000000000000000
 20
0.0000000000000000
 30
0.0000000000000000
 50
0.0000000000000000
  0
MTEXT
  5
4D1
100
AcDbEntity
  8
MAIN0
  6
CONTINUOUS
 62
4
100
AcDbMText
 10
413.4229281077127
 20
200.6485440406134
 30
0.0000000000000000
 40
4.000000000000000
 41
0.0000000000000000
 71
     1
 72
     1
  1
{\H0.92x;{JAPAN}}
 11
1.000000000000000
 21
0.0000000000000000
 31
0.0000000000000000
  7
STANDARD
  0
MTEXT
  5
4D2
100
AcDbEntity
  8
MAIN0
  6
CONTINUOUS
 62
4
100
AcDbMText
 10
421.0583888207017
 20
202.1934736289540
 30
0.0000000000000000
 40
5.000000000000000
 41
0.0000000000000000
 71
     8
 72
     1
  1
{\H0.93x;{KITAGAWA}}
 11
1.000000000000000
 21
0.0000000000000000
 31
0.0000000000000000
  7
STANDARD
  0
MTEXT
  5
4D3
100
AcDbEntity
  8
MAIN0
  6
CONTINUOUS
 62
3
100
AcDbMText
 10
374.6167881660768
 20
201.5653230318785
 30
0.0000000000000000
 40
5.000000000000000
 41
0.0000000000000000
 71
     1
 72
     1
  1
{\H0.82x;{2}}
 11
0.7071067811887650
 21
-0.7071067811843301
 31
0.0000000000000000
  7
STANDARD
  0
MTEXT
  5
4D4
100
AcDbEntity
  8
MAIN0
  6
CONTINUOUS
 62
3
100
AcDbMText
 10
494.0611157442150
 20
247.5705432358458
 30
0.0000000000000000
 40
5.000000000000000
 41
0.0000000000000000
 71
     1
 72
     1
  1
{\H0.82x;{1}}
 11
0.2588190450994921
 21
0.9659258262898798
 31
0.0000000000000000
  7
STANDARD
  0
MTEXT
  5
4D5
100
AcDbEntity
  8
MAIN0
  6
CONTINUOUS
 62
3
100
AcDbMText
 10
394.4972625518133
 20
328.0097551544801
 30
0.0000000000000000
 40
5.000000000000000
 41
0.0000000000000000
 71
     1
 72
     1
  1
{\H0.82x;{3}}
 11
-0.9659258262882566
 21
-0.2588190451055501
 31
0.0000000000000000
  7
STANDARD
  0
LEADER
  5
4D6
100
AcDbEntity
  8
MAIN0
  6
CONTINUOUS
 62
3
100
AcDbLeader
  3
MAIN001
 73
     0
 75
     1
 40
3.099999904632568
 41
33.69900001788139
 76
     3
 10
192.5000000000000
 20
272.5000000000000
 30
0.0000000000000000
 10
150.0000000000000
 20
365.0000000000000
 30
0.0000000000000000
 10
148.2130000526607
 20
365.0000000000000
 30
0.0000000000000000
340
4D7
213
0.0000000000000000
223
-0.5000000000000000
233
0.0000000000000000
1001
ACAD
1000
DSTYLE
1002
{
1070
   147
1040
0.0
1070
    77
1070
     1
1070
   173
1070
     1
1070
     6
1000
_NONE
1070
     7
1000
_NONE
1002
}
  0
MTEXT
  5
4D7
102
{ACAD_REACTORS
330
4D6
102
}
100
AcDbEntity
  8
MAIN0
  6
CONTINUOUS
 62
3
100
AcDbMText
 10
114.5140000347793
 20
368.5999999046326
 30
0.0000000000000000
 40
3.099999904632568
 41
0.0000000000000000
 71
     1
 72
     1
  1
{\H0.70x;{簡易カバー\P使用時は、専用ロケータにて\Pシールが必要です。}}
 11
1.000000000000000
 21
0.0000000000000000
 31
0.0000000000000000
  7
KNJYOKO
  0
CIRCLE
  5
4D8
100
AcDbEntity
  8
MAIN0
  6
HIDDEN
 62
3
100
AcDbCircle
 10
397.5583888207020
 20
203.8421096892402
 30
0.0000000000000000
 40
4.864000000000001
  0
CIRCLE
  5
4D9
100
AcDbEntity
  8
MAIN0
  6
HIDDEN
 62
3
100
AcDbCircle
 10
397.5583888207020
 20
203.8421096892402
 30
0.0000000000000000
 40
4.283000000000000
  0
ARC
  5
4DA
100
AcDbEntity
  8
MAIN0
  6
CONTINUOUS
 62
3
100
AcDbCircle
 10
421.0583888207019
 20
259.0485404740682
 30
0.0000000000000000
 40
82.49999999999977
100
AcDbArc
 50
349.9999999999996
 51
429.9999999999998
  0
LINE
  5
4DB
100
AcDbEntity
  8
MAIN0
  6
CENTER
 62
3
100
AcDbLine
 10
442.6996135902760
 20
280.6897652433644
 30
0.0000000000000000
 11
480.3540870704688
 21
318.3442387235526
 31
0.0000000000000000
  0
MTEXT
  5
4DC
100
AcDbEntity
  8
MAIN0
  6
CONTINUOUS
 62
4
100
AcDbMText
 10
468.3032609259175
 20
286.3253801018436
 30
0.0000000000000000
 40
4.000000000000000
 41
0.0000000000000000
 71
     8
 72
     1
  1
{\H0.92x;{PLS06}}
 11
-0.5000000000000037
 21
0.8660254037844365
 31
0.0000000000000000
  7
STANDARD
  0
ARC
  5
4DD
100
AcDbEntity
  8
MAIN0
  6
CENTER
 62
3
100
AcDbCircle
 10
421.0583888207019
 20
259.0485404740682
 30
0.0000000000000000
 40
92.50000000000000
100
AcDbArc
 50
353.7977483849576
 51
499.7214986052527
  0
LEADER
  5
4DE
100
AcDbEntity
  8
MAIN0
  6
CONTINUOUS
 62
3
100
AcDbLeader
  3
MAIN001
 73
     0
 74
     0
 75
     1
 40
3.099999904632568
 41
29.80100001937149
 76
     3
 10
457.2178993193623
 20
269.9693549102653
 30
0.0000000000000000
 10
538.1847935554813
 20
301.9321484951314
 30
0.0000000000000000
 10
539.9697935028206
 20
301.9321484951314
 30
0.0000000000000000
340
4DF
213
0.0000000000000000
223
-0.5000000000000000
233
0.0000000000000000
1001
ACAD
1000
DSTYLE
1002
{
1070
   147
1040
0.0
1070
    77
1070
     1
1070
   173
1070
     1
1070
     6
1000
_OPEN
1070
     7
1000
_OPEN
1002
}
  0
MTEXT
  5
4DF
102
{ACAD_REACTORS
330
4DE
102
}
100
AcDbEntity
  8
MAIN0
  6
CONTINUOUS
 62
3
100
AcDbMText
 10
539.9707935028206
 20
305.5321483997640
 30
0.0000000000000000
 40
3.099999904632568
 41
0.0000000000000000
 71
     1
 72
     1
  1
{\H0.71x;{3×2-M6 深さ12\P3×2-M6 DEPTH12}}
 11
1.000000000000000
 21
0.0000000000000000
 31
0.0000000000000000
  7
KNJYOKO
  0
LINE
  5
4E0
100
AcDbEntity
  8
MAIN0
  6
HIDDEN
 62
3
100
AcDbLine
 10
494.0714592290801
 20
295.5861929100598
 30
0.0000000000000000
 11
488.6052267256056
 21
292.6539853320635
 31
0.0000000000000000
  0
LINE
  5
4E1
100
AcDbEntity
  8
MAIN0
  6
HIDDEN
 62
3
100
AcDbLine
 10
487.8894592291425
 20
306.2937310024638
 30
0.0000000000000000
 11
495.3894592290261
 21
293.3033499457299
 31
0.0000000000000000
  0
LINE
  5
4E2
100
AcDbEntity
  8
MAIN0
  6
HIDDEN
 62
3
100
AcDbLine
 10
496.0232169041724
 20
293.6692501099604
 30
0.0000000000000000
 11
495.3894592293386
 21
293.3033499457813
 31
0.0000000000000000
  0
LINE
  5
4E3
100
AcDbEntity
  8
MAIN0
  6
HIDDEN
 62
3
100
AcDbLine
 10
488.5232169039760
 20
306.6596311666136
 30
0.0000000000000000
 11
487.8894592291422
 21
306.2937310024345
 31
0.0000000000000000
  0
LINE
  5
4E4
100
AcDbEntity
  8
MAIN0
  6
HIDDEN
 62
3
100
AcDbLine
 10
474.6369003457835
 20
285.2478363186241
 30
0.0000000000000000
 11
470.5369003458103
 21
292.3492446296718
 31
0.0000000000000000
  0
LINE
  5
4E5
100
AcDbEntity
  8
MAIN0
  6
HIDDEN
 62
3
100
AcDbLine
 10
474.6369003457839
 20
285.2478363186241
 30
0.0000000000000000
 11
470.5369003457929
 21
287.6149724223170
 31
0.0000000000000000
  0
LINE
  5
4E6
100
AcDbEntity
  8
MAIN0
  6
HIDDEN
 62
3
100
AcDbLine
 10
470.5369003457925
 20
287.6149724223170
 30
0.0000000000000000
 11
470.5369003458102
 21
292.3492446296719
 31
0.0000000000000000
  0
DIMENSION
  5
4EF
100
AcDbEntity
  8
MAIN0
  6
CONTINUOUS
 62
3
100
AcDbDimension
  2
*D55
 10
493.5010975526292
 20
331.4912492059390
 30
0.0000000000000000
 11
514.6485913809116
 21
313.0828691158120
 31
0.0000000000000000
 70
162
  3
MAIN001
100
AcDb2LineAngularDimension
 13
464.3363326026091
 23
270.6448305607132
 33
0.0000000000000000
 14
463.3704067763200
 24
270.3860115156107
 34
0.0000000000000000
 15
492.7939907714423
 25
330.7841424247527
 35
0.0000000000000000
 16
515.0816040828040
 26
313.3328691158120
 36
0.0000000000000000
1001
ACAD
1000
DSTYLE
1002
{
1070
   173
1070
     1
1070
     6
1000
_OPEN
1070
     7
1000
_OPEN
1070
    41
1040
2.000000
1002
}
  0
LINE
  5
4F0
100
AcDbEntity
  8
MAIN0
  6
PHANTOM
 62
3
100
AcDbLine
 10
154.9073990861473
 20
183.9985404740683
 30
0.0000000000000000
 11
164.2478990861473
 21
183.9985404740683
 31
0.0000000000000000
  0
LINE
  5
4F1
100
AcDbEntity
  8
MAIN0
  6
PHANTOM
 62
3
100
AcDbLine
 10
164.2478990861473
 20
183.9985404740681
 30
0.0000000000000000
 11
164.4416490861473
 21
177.7985404740683
 31
0.0000000000000000
  0
LINE
  5
4F2
100
AcDbEntity
  8
MAIN0
  6
PHANTOM
 62
3
100
AcDbLine
 10
163.8606490861473
 20
177.7985404740682
 30
0.0000000000000000
 11
163.6668990861472
 21
183.9985404740682
 31
0.0000000000000000
  0
LINE
  5
4F3
100
AcDbEntity
  8
MAIN0
  6
PHANTOM
 62
3
100
AcDbLine
 10
163.6776490861473
 20
191.5485404740682
 30
0.0000000000000000
 11
163.6776490861473
 21
183.9985404740683
 31
0.0000000000000000
  0
LINE
  5
4F4
100
AcDbEntity
  8
MAIN0
  6
CENTER
 62
3
100
AcDbLine
 10
149.1717121808870
 20
194.0485404740686
 30
0.0000000000000000
 11
165.6216023397888
 21
194.0485404740684
 31
0.0000000000000000
  0
LINE
  5
4F5
100
AcDbEntity
  8
MAIN0
  6
PHANTOM
 62
3
100
AcDbLine
 10
166.6673950482969
 20
183.5270705039302
 30
0.0000000000000000
 11
175.3276490861413
 21
178.5270705039302
 31
0.0000000000000000
  0
LINE
  5
4F6
100
AcDbEntity
  8
MAIN0
  6
PHANTOM
 62
3
100
AcDbLine
 10
174.1673950482969
 20
196.5174515606968
 30
0.0000000000000000
 11
182.8276490861413
 21
191.5174515606968
 31
0.0000000000000000
  0
LINE
  5
4F7
100
AcDbEntity
  8
MAIN0
  6
PHANTOM
 62
12
100
AcDbLine
 10
166.9908578678607
 20
194.8873245417747
 30
0.0000000000000000
 11
164.4908578678605
 21
190.5571975228523
 31
0.0000000000000000
  0
LINE
  5
4F8
100
AcDbEntity
  8
MAIN0
  6
PHANTOM
 62
12
100
AcDbLine
 10
178.5092337803773
 20
187.8377368429311
 30
0.0000000000000000
 11
176.3551678575238
 21
184.1067852216962
 31
0.0000000000000000
  0
LINE
  5
4F9
100
AcDbEntity
  8
MAIN0
  6
PHANTOM
 62
12
100
AcDbLine
 10
174.4299794191642
 20
192.3722610323131
 30
0.0000000000000000
 11
172.4381209904599
 21
193.5222610323132
 31
0.0000000000000000
  0
LINE
  5
4FA
100
AcDbEntity
  8
MAIN0
  6
PHANTOM
 62
12
100
AcDbLine
 10
170.3885275348368
 20
185.3722610323130
 30
0.0000000000000000
 11
168.3966691061324
 21
186.5222610323131
 31
0.0000000000000000
  0
LINE
  5
4FB
100
AcDbEntity
  8
MAIN0
  6
PHANTOM
 62
12
100
AcDbLine
 10
174.4299794191646
 20
192.3722610323132
 30
0.0000000000000000
 11
170.3885275348372
 21
185.3722610323131
 31
0.0000000000000000
  0
LINE
  5
4FC
100
AcDbEntity
  8
MAIN0
  6
PHANTOM
 62
12
100
AcDbLine
 10
174.9690119108024
 20
190.6293431317219
 30
0.0000000000000000
 11
175.8531148772534
 21
190.4698186207296
 31
0.0000000000000000
  0
LINE
  5
4FD
100
AcDbEntity
  8
MAIN0
  6
PHANTOM
 62
12
100
AcDbLine
 10
172.7476599972125
 20
185.0910092703380
 30
0.0000000000000000
 11
172.1674549592790
 21
185.7769041513862
 31
0.0000000000000000
  0
LINE
  5
4FE
100
AcDbEntity
  8
MAIN0
  6
PHANTOM
 62
12
100
AcDbLine
 10
173.4196164480824
 20
190.6222610323132
 30
0.0000000000000000
 11
171.4277580193781
 21
191.7722610323133
 31
0.0000000000000000
  0
LINE
  5
4FF
100
AcDbEntity
  8
MAIN0
  6
PHANTOM
 62
12
100
AcDbLine
 10
171.3988905059188
 20
187.1222610323133
 30
0.0000000000000000
 11
169.4070320772145
 21
188.2722610323134
 31
0.0000000000000000
  0
LINE
  5
500
100
AcDbEntity
  8
MAIN0
  6
PHANTOM
 62
12
100
AcDbLine
 10
170.9881292976859
 20
193.1568490749308
 30
0.0000000000000000
 11
167.9881292976857
 21
187.9606966522238
 31
0.0000000000000000
  0
LINE
  5
501
100
AcDbEntity
  8
MAIN0
  6
PHANTOM
 62
12
100
AcDbLine
 10
166.9908578678605
 20
194.8873245417740
 30
0.0000000000000000
 11
167.6738705697524
 21
195.0703372436661
 31
0.0000000000000000
  0
LINE
  5
502
100
AcDbEntity
  8
MAIN0
  6
PHANTOM
 62
12
100
AcDbLine
 10
164.4908578678610
 20
190.5571975228523
 30
0.0000000000000000
 11
164.6738705697530
 21
189.8741848209600
 31
0.0000000000000000
  0
LINE
  5
503
100
AcDbEntity
  8
MAIN0
  6
PHANTOM
 62
12
100
AcDbLine
 10
167.6738705697530
 20
195.0703372436667
 30
0.0000000000000000
 11
164.6738705697529
 21
189.8741848209599
 31
0.0000000000000000
  0
ARC
  5
504
100
AcDbEntity
  8
MAIN0
  6
PHANTOM
 62
12
100
AcDbCircle
 10
175.1465810467549
 20
191.6134514600863
 30
0.0000000000000000
 40
1.000000000000000
100
AcDbArc
 50
149.9999999999997
 51
259.7717992487709
  0
ARC
  5
505
100
AcDbEntity
  8
MAIN0
  6
PHANTOM
 62
12
100
AcDbCircle
 10
171.4039767148157
 20
185.1310706045402
 30
0.0000000000000000
 40
1.000000000000000
100
AcDbArc
 50
40.22820075122777
 51
149.9999999999998
  0
ARC
  5
506
100
AcDbEntity
  8
MAIN0
  6
PHANTOM
 62
12
100
AcDbCircle
 10
175.2671373094894
 20
187.2222610323134
 30
0.0000000000000000
 40
3.299999999999997
100
AcDbArc
 50
220.2282116100355
 51
289.2509456225275
  0
ARC
  5
507
100
AcDbEntity
  8
MAIN0
  6
PHANTOM
 62
12
100
AcDbCircle
 10
175.2671373094894
 20
187.2222610323134
 30
0.0000000000000000
 40
3.299999999999997
100
AcDbArc
 50
10.74905437747196
 51
79.77180951778226
  0
ARC
  5
508
100
AcDbEntity
  8
MAIN0
  6
PHANTOM
 62
12
100
AcDbCircle
 10
177.3190535170603
 20
186.0375866575177
 30
0.0000000000000000
 40
1.000000000000000
100
AcDbArc
 50
247.5072271955753
 51
412.4927728044244
  0
LINE
  5
509
100
AcDbEntity
  8
MAIN0
  6
PHANTOM
 62
12
100
AcDbLine
 10
170.9745747252686
 20
192.5873245417748
 30
0.0000000000000000
 11
172.0673950482959
 21
192.8801448648024
 31
0.0000000000000000
  0
LINE
  5
50A
100
AcDbEntity
  8
MAIN0
  6
PHANTOM
 62
12
100
AcDbLine
 10
168.4745747252695
 20
188.2571975228527
 30
0.0000000000000000
 11
168.7673950482972
 21
187.1643771998253
 31
0.0000000000000000
  0
LINE
  5
50B
100
AcDbEntity
  8
MAIN0
  6
PHANTOM
 62
12
100
AcDbLine
 10
170.9745747252694
 20
192.5873245417746
 30
0.0000000000000000
 11
168.4745747252694
 21
188.2571975228524
 31
0.0000000000000000
  0
LINE
  5
50C
100
AcDbEntity
  8
MAIN0
  6
PHANTOM
 62
12
100
AcDbLine
 10
164.6738705697526
 20
189.8741848209599
 30
0.0000000000000000
 11
168.9173950482963
 21
187.4241848209600
 31
0.0000000000000000
  0
LINE
  5
50D
100
AcDbEntity
  8
MAIN0
  6
PHANTOM
 62
12
100
AcDbLine
 10
167.6738705697531
 20
195.0703372436668
 30
0.0000000000000000
 11
171.9173950482965
 21
192.6203372436670
 31
0.0000000000000000
  0
LINE
  5
50E
100
AcDbEntity
  8
MAIN0
  6
PHANTOM
 62
12
100
AcDbLine
 10
170.9745747252694
 20
192.5873245417745
 30
0.0000000000000000
 11
163.6776490861473
 21
196.8002065237784
 31
0.0000000000000000
  0
LINE
  5
50F
100
AcDbEntity
  8
MAIN0
  6
PHANTOM
 62
12
100
AcDbLine
 10
168.4745747252694
 20
188.2571975228522
 30
0.0000000000000000
 11
163.6776490861472
 21
191.0267038318820
 31
0.0000000000000000
  0
LINE
  5
510
100
AcDbEntity
  8
MAIN0
  6
PHANTOM
 62
12
100
AcDbLine
 10
166.6673950482966
 20
183.5270705039300
 30
0.0000000000000000
 11
174.1673950482966
 21
196.5174515606965
 31
0.0000000000000000
  0
LINE
  5
511
100
AcDbEntity
  8
MAIN0
  6
CONTINUOUS
 62
3
100
AcDbLine
 10
174.1564767273258
 20
176.4985404740687
 30
0.0000000000000000
 11
184.5776490861473
 21
194.5485404739223
 31
0.0000000000000000
  0
LINE
  5
512
100
AcDbEntity
  8
MAIN0
  6
CENTER
 62
3
100
AcDbLine
 10
157.7156180233269
 20
197.3556354168668
 30
0.0000000000000000
 11
179.6403661203375
 21
184.6973762011428
 31
0.0000000000000000
  0
LINE
  5
513
100
AcDbEntity
  8
MAIN0
  6
PHANTOM
 62
3
100
AcDbLine
 10
163.6776490861472
 20
198.5485404740684
 30
0.0000000000000000
 11
163.6776490861472
 21
196.8002065237784
 31
0.0000000000000000
  0
LINE
  5
514
100
AcDbEntity
  8
MAIN0
  6
CENTER
 62
12
100
AcDbLine
 10
494.7392036318241
 20
301.5881787393799
 30
0.0000000000000000
 11
338.5707763687951
 21
211.4242952201500
 31
0.0000000000000000
  0
LINE
  5
515
100
AcDbEntity
  8
MAIN0
  6
CENTER
 62
3
100
AcDbLine
 10
496.7378407232820
 20
302.7420924021510
 30
0.0000000000000000
 11
468.4900971130721
 21
286.4332500249373
 31
0.0000000000000000
  0
LINE
  5
516
100
AcDbEntity
  8
MAIN0
  6
HIDDEN
 62
3
100
AcDbLine
 10
489.4979592291100
 20
303.5077272784932
 30
0.0000000000000000
 11
484.2254767256342
 21
300.2399348565298
 31
0.0000000000000000
  0
LINE
  5
517
100
AcDbEntity
  8
MAIN0
  6
HIDDEN
 62
3
100
AcDbLine
 10
483.9349767256360
 20
300.7430956161297
 30
0.0000000000000000
 11
489.2074592291119
 21
304.0108880380931
 31
0.0000000000000000
  0
LINE
  5
518
100
AcDbEntity
  8
MAIN0
  6
HIDDEN
 62
3
100
AcDbLine
 10
488.6052267256058
 20
292.6539853320637
 30
0.0000000000000000
 11
483.9349767256362
 21
300.7430956161299
 31
0.0000000000000000
  0
LINE
  5
519
100
AcDbEntity
  8
MAIN0
  6
HIDDEN
 62
3
100
AcDbLine
 10
493.7809592290819
 20
296.0893536696595
 30
0.0000000000000000
 11
488.3147267256076
 21
293.1571460916634
 31
0.0000000000000000
  0
LINE
  5
51A
100
AcDbEntity
  8
MAIN0
  6
HIDDEN
 62
3
100
AcDbLine
 10
470.5369003458104
 20
292.3492446296717
 30
0.0000000000000000
 11
484.2201017256344
 21
300.2492446296204
 31
0.0000000000000000
  0
LINE
  5
51B
100
AcDbEntity
  8
MAIN0
  6
HIDDEN
 62
3
100
AcDbLine
 10
488.3201017256075
 20
293.1478363185727
 30
0.0000000000000000
 11
474.6369003457834
 21
285.2478363186240
 31
0.0000000000000000
  0
LINE
  5
51C
100
AcDbEntity
  8
MAIN0
  6
CONTINUOUS
 62
3
100
AcDbLine
 10
502.6366696640583
 20
246.7508132595578
 30
0.0000000000000000
 11
451.1973850658033
 21
335.8462676887311
 31
0.0000000000000000
  0
LINE
  5
51D
100
AcDbEntity
  8
MAIN0
  6
CENTER
 62
3
100
AcDbLine
 10
482.5579034197920
 20
290.5808154313102
 30
0.0000000000000000
 11
479.3369003460636
 21
296.1597564063433
 31
0.0000000000000000
  0
ELLIPSE
  5
51E
100
AcDbEntity
  8
MAIN0
  6
CONTINUOUS
 62
3
100
AcDbEllipse
 10
480.8369003460637
 20
293.5616801949900
 30
0.0000000000000000
 11
-3.749999999999987
 21
6.495190528383297
 31
0.0000000000000000
210
0.0000000000000000
220
0.0000000000000000
230
1.000000000000000
 40
0.8660000000000001
 41
3.536704554307981
 42
5.888073406461390
  0
ELLIPSE
  5
51F
100
AcDbEntity
  8
MAIN0
  6
CONTINUOUS
 62
3
100
AcDbEllipse
 10
485.1670273651594
 20
296.0616801950901
 30
0.0000000000000000
 11
-3.749999999999987
 21
6.495190528383297
 31
0.0000000000000000
210
0.0000000000000000
220
0.0000000000000000
230
1.000000000000000
 40
0.8660000000000001
 41
0.0000000000000000
 42
6.283185307179586
  0
LINE
  5
520
100
AcDbEntity
  8
MAIN0
  6
CENTER
 62
3
100
AcDbLine
 10
490.1187421198308
 20
287.4850586554065
 30
0.0000000000000000
 11
480.8289300258710
 21
303.5754851949200
 31
0.0000000000000000
  0
ELLIPSE
  5
521
100
AcDbEntity
  8
MAIN0
  6
CONTINUOUS
 62
3
100
AcDbEllipse
 10
482.9792051912592
 20
294.7985404741199
 30
0.0000000000000000
 11
-1.499999999999995
 21
2.598076211353319
 31
0.0000000000000000
210
0.0000000000000000
220
0.0000000000000000
230
1.000000000000000
 40
0.8660000000000002
 41
0.0000000000000000
 42
6.283185307179586
  0
ELLIPSE
  5
522
100
AcDbEntity
  8
MAIN0
  6
CONTINUOUS
 62
3
100
AcDbEllipse
 10
480.8369003460637
 20
293.5616801949900
 30
0.0000000000000000
 11
-1.499999999999995
 21
2.598076211353319
 31
0.0000000000000000
210
0.0000000000000000
220
0.0000000000000000
230
1.000000000000000
 40
0.8660000000000002
 41
2.728251516284667
 42
3.637786327915872
  0
ELLIPSE
  5
523
100
AcDbEntity
  8
MAIN0
  6
CONTINUOUS
 62
3
100
AcDbEllipse
 10
480.8369003460637
 20
293.5616801949900
 30
0.0000000000000000
 11
-1.499999999999995
 21
2.598076211353319
 31
0.0000000000000000
210
0.0000000000000000
220
0.0000000000000000
230
1.000000000000000
 40
0.8660000000000002
 41
5.786991632853524
 42
0.4133411373051419
  0
ELLIPSE
  5
524
100
AcDbEntity
  8
MAIN0
  6
CONTINUOUS
 62
3
100
AcDbEllipse
 10
483.4349765575590
 20
295.0616801951441
 30
0.0000000000000000
 11
-0.4999999999967693
 21
0.8660254037863039
 31
0.0000000000000000
210
0.0000000000000000
220
0.0000000000000000
230
1.000000000000000
 40
0.5000000000000000
 41
0.0000000000000000
 42
6.283185307179586
  0
LINE
  5
525
100
AcDbEntity
  8
WAKU0
  6
CONTINUOUS
 62
3
100
AcDbLine
 10
412.0000000000000
 20
51.00000000000000
 30
0.0000000000000000
 11
582.0000000000000
 21
51.00000000000000
 31
0.0000000000000000
  0
LINE
  5
526
100
AcDbEntity
  8
WAKU0
  6
CONTINUOUS
 62
3
100
AcDbLine
 10
412.0000000000000
 20
51.00000000000000
 30
0.0000000000000000
 11
412.0000000000000
 21
12.00000000000000
 31
0.0000000000000000
  0
LINE
  5
527
100
AcDbEntity
  8
WAKU0
  6
CONTINUOUS
 62
3
100
AcDbLine
 10
484.0000000000000
 20
51.00000000000000
 30
0.0000000000000000
 11
484.0000000000000
 21
12.00000000000000
 31
0.0000000000000000
  0
LINE
  5
528
100
AcDbEntity
  8
WAKU0
  6
CONTINUOUS
 62
3
100
AcDbLine
 10
504.0000000000000
 20
51.00000000000000
 30
0.0000000000000000
 11
504.0000000000000
 21
12.00000000000000
 31
0.0000000000000000
  0
LINE
  5
529
100
AcDbEntity
  8
WAKU0
  6
CONTINUOUS
 62
3
100
AcDbLine
 10
516.0000000000000
 20
51.00000000000000
 30
0.0000000000000000
 11
516.0000000000000
 21
12.00000000000000
 31
0.0000000000000000
  0
LINE
  5
52A
100
AcDbEntity
  8
WAKU0
  6
CONTINUOUS
 62
3
100
AcDbLine
 10
516.0000000000000
 20
37.00000000000000
 30
0.0000000000000000
 11
582.0000000000000
 21
37.00000000000000
 31
0.0000000000000000
  0
LINE
  5
52B
100
AcDbEntity
  8
WAKU0
  6
CONTINUOUS
 62
3
100
AcDbLine
 10
504.0000000000000
 20
23.00000000000000
 30
0.0000000000000000
 11
582.0000000000000
 21
23.00000000000000
 31
0.0000000000000000
  0
LINE
  5
52C
100
AcDbEntity
  8
WAKU0
  6
CONTINUOUS
 62
3
100
AcDbLine
 10
547.0000000000000
 20
51.00000000000000
 30
0.0000000000000000
 11
547.0000000000000
 21
44.00000000000000
 31
0.0000000000000000
  0
LINE
  5
52D
100
AcDbEntity
  8
WAKU0
  6
CONTINUOUS
 62
3
100
AcDbLine
 10
559.0000000000000
 20
51.00000000000000
 30
0.0000000000000000
 11
559.0000000000000
 21
44.00000000000000
 31
0.0000000000000000
  0
LINE
  5
52E
100
AcDbEntity
  8
WAKU0
  6
CONTINUOUS
 62
3
100
AcDbLine
 10
484.0000000000000
 20
31.50000000000000
 30
0.0000000000000000
 11
504.0000000000000
 21
31.50000000000000
 31
0.0000000000000000
  0
LINE
  5
52F
100
AcDbEntity
  8
WAKU0
  6
CONTINUOUS
 62
3
100
AcDbLine
 10
504.0000000000000
 20
44.00000000000000
 30
0.0000000000000000
 11
582.0000000000000
 21
44.00000000000000
 31
0.0000000000000000
  0
LINE
  5
530
100
AcDbEntity
  8
WAKU0
  6
CONTINUOUS
 62
3
100
AcDbLine
 10
412.0000000000000
 20
37.00000000000000
 30
0.0000000000000000
 11
484.0000000000000
 21
37.00000000000000
 31
0.0000000000000000
  0
LINE
  5
531
100
AcDbEntity
  8
WAKU0
  6
CONTINUOUS
 62
3
100
AcDbLine
 10
412.0000000000000
 20
23.00000000000000
 30
0.0000000000000000
 11
484.0000000000000
 21
23.00000000000000
 31
0.0000000000000000
  0
LINE
  5
532
100
AcDbEntity
  8
WAKU0
  6
CONTINUOUS
 62
3
100
AcDbLine
 10
460.0000000000000
 20
37.00000000000000
 30
0.0000000000000000
 11
460.0000000000000
 21
12.00000000000000
 31
0.0000000000000000
  0
LINE
  5
533
100
AcDbEntity
  8
WAKU0
  6
CONTINUOUS
 62
3
100
AcDbLine
 10
436.0000000000000
 20
37.00000000000000
 30
0.0000000000000000
 11
436.0000000000000
 21
23.00000000000000
 31
0.0000000000000000
  0
LINE
  5
534
100
AcDbEntity
  8
WAKU0
  6
CONTINUOUS
 62
3
100
AcDbLine
 10
472.0000000000000
 20
26.00000000000000
 30
0.0000000000000000
 11
472.0000000000000
 21
23.00000000000000
 31
0.0000000000000000
  0
LINE
  5
535
100
AcDbEntity
  8
WAKU0
  6
CONTINUOUS
 62
3
100
AcDbLine
 10
448.0000000000000
 20
26.00000000000000
 30
0.0000000000000000
 11
448.0000000000000
 21
23.00000000000000
 31
0.0000000000000000
  0
LINE
  5
536
100
AcDbEntity
  8
WAKU0
  6
CONTINUOUS
 62
3
100
AcDbLine
 10
424.0000000000000
 20
26.00000000000000
 30
0.0000000000000000
 11
424.0000000000000
 21
23.00000000000000
 31
0.0000000000000000
  0
LINE
  5
537
100
AcDbEntity
  8
WAKU0
  6
CONTINUOUS
 62
3
100
AcDbLine
 10
430.0000000000000
 20
51.00000000000000
 30
0.0000000000000000
 11
430.0000000000000
 21
37.00000000000000
 31
0.0000000000000000
  0
LINE
  5
538
100
AcDbEntity
  8
WAKU0
  6
CONTINUOUS
 62
3
100
AcDbLine
 10
412.0000000000000
 20
45.00000000000000
 30
0.0000000000000000
 11
484.0000000000000
 21
45.00000000000000
 31
0.0000000000000000
  0
LINE
  5
539
100
AcDbEntity
  8
WAKU0
  6
HIDDEN
 62
3
100
AcDbLine
 10
532.5000000000000
 20
23.00000000000000
 30
0.0000000000000000
 11
532.5000000000000
 21
12.00000000000000
 31
0.0000000000000000
  0
LINE
  5
53A
100
AcDbEntity
  8
WAKU0
  6
HIDDEN
 62
3
100
AcDbLine
 10
544.9000000000000
 20
23.00000000000000
 30
0.0000000000000000
 11
544.9000000000000
 21
12.00000000000000
 31
0.0000000000000000
  0
MTEXT
  5
53B
100
AcDbEntity
  8
WAKU0
  6
CONTINUOUS
 62
3
100
AcDbMText
 10
516.4820000243485
 20
49.04999995231628
 30
0.0000000000000000
 40
3.099999904632568
 41
0.0000000000000000
 71
     1
 72
     1
  1
{\H0.92x;{PLS06}}
 11
1.000000000000000
 21
0.0000000000000000
 31
0.0000000000000000
  7
STANDARD
  0
MTEXT
  5
53C
100
AcDbEntity
  8
WAKU0
  6
CONTINUOUS
 62
3
100
AcDbMText
 10
525.5950003862381
 20
43.50000000000000
 30
0.0000000000000000
 40
3.000000000000000
 41
0.0000000000000000
 71
     1
 72
     1
  1
{\H0.94x;{ワークグリッパ　６\PＷＯＲＫ　ＧＲＩＰＰＥＲ　６}}
 11
1.000000000000000
 21
0.0000000000000000
 31
0.0000000000000000
  7
KNJYOKO
  0
MTEXT
  5
53D
100
AcDbEntity
  8
WAKU0
  6
CONTINUOUS
 62
3
100
AcDbMText
 10
528.3099995255470
 20
34.23333326975504
 30
0.0000000000000000
 40
3.099999904632568
 41
0.0000000000000000
 71
     1
 72
     1
  1
{\H0.94x;{ＰＬＳ０６　ガイケイ\PＯＵＴＳＩＤＥ　ＶＩＥＷ}}
 11
1.000000000000000
 21
0.0000000000000000
 31
0.0000000000000000
  7
KNJYOKO
  0
MTEXT
  5
53E
100
AcDbEntity
  8
WAKU0
  6
CONTINUOUS
 62
3
100
AcDbMText
 10
490.0049998760223
 20
39.29999995231628
 30
0.0000000000000000
 40
3.099999904632568
 41
0.0000000000000000
 71
     1
 72
     1
  1
{\H0.90x;{1:1}}
 11
1.000000000000000
 21
0.0000000000000000
 31
0.0000000000000000
  7
STANDARD
  0
MTEXT
  5
53F
100
AcDbEntity
  8
WAKU0
  6
CONTINUOUS
 62
3
100
AcDbMText
 10
546.4000001549721
 20
20.15000009536743
 30
0.0000000000000000
 40
5.300000190734863
 41
0.0000000000000000
 71
     1
 72
     1
  1
{\H0.90x;{2736}}
 11
1.000000000000000
 21
0.0000000000000000
 31
0.0000000000000000
  7
STANDARD
  0
MTEXT
  5
540
100
AcDbEntity
  8
WAKU0
  6
CONTINUOUS
 62
3
100
AcDbMText
 10
534.3000000834466
 20
20.15000009536743
 30
0.0000000000000000
 40
5.300000190734863
 41
0.0000000000000000
 71
     1
 72
     1
  1
{\H0.87x;{24}}
 11
1.000000000000000
 21
0.0000000000000000
 31
0.0000000000000000
  7
STANDARD
  0
MTEXT
  5
541
100
AcDbEntity
  8
WAKU0
  6
CONTINUOUS
 62
3
100
AcDbMText
 10
517.5000001192093
 20
20.15000009536743
 30
0.0000000000000000
 40
5.300000190734863
 41
0.0000000000000000
 71
     1
 72
     1
  1
{\H0.89x;{61P}}
 11
1.000000000000000
 21
0.0000000000000000
 31
0.0000000000000000
  7
STANDARD
  0
MTEXT
  5
542
100
AcDbEntity
  8
WAKU0
  6
CONTINUOUS
 62
3
100
AcDbMText
 10
572.0000000476837
 20
20.15000009536743
 30
0.0000000000000000
 40
5.300000190734863
 41
0.0000000000000000
 71
     1
 72
     1
  1
{\H0.81x;{6}}
 11
1.000000000000000
 21
0.0000000000000000
 31
0.0000000000000000
  7
STANDARD
  0
MTEXT
  5
543
100
AcDbEntity
  8
WAKU0
  6
CONTINUOUS
 62
3
100
AcDbMText
 10
461.3850002884865
 20
33.00000000000000
 30
0.0000000000000000
 40
3.000000000000000
 41
0.0000000000000000
 71
     7
 72
     1
  1
{\H0.93x;{DRAWN BY}}
 11
1.000000000000000
 21
0.0000000000000000
 31
0.0000000000000000
  7
STANDARD
  0
MTEXT
  5
544
100
AcDbEntity
  8
WAKU0
  6
CONTINUOUS
 62
3
100
AcDbMText
 10
441.2149997949600
 20
32.95000004768372
 30
0.0000000000000000
 40
3.099999904632568
 41
0.0000000000000000
 71
     7
 72
     1
  1
{\H0.92x;{CHIEF}}
 11
1.000000000000000
 21
0.0000000000000000
 31
0.0000000000000000
  7
STANDARD
  0
MTEXT
  5
545
100
AcDbEntity
  8
WAKU0
  6
CONTINUOUS
 62
3
100
AcDbMText
 10
414.4249997138977
 20
32.95000004768372
 30
0.0000000000000000
 40
3.099999904632568
 41
0.0000000000000000
 71
     7
 72
     1
  1
{\H0.92x;{MANAGER}}
 11
1.000000000000000
 21
0.0000000000000000
 31
0.0000000000000000
  7
STANDARD
  0
MTEXT
  5
546
100
AcDbEntity
  8
WAKU0
  6
CONTINUOUS
 62
3
100
AcDbMText
 10
416.6599994301796
 20
18.13333336512248
 30
0.0000000000000000
 40
3.099999904632568
 41
0.0000000000000000
 71
     7
 72
     1
  1
{\H0.93x;{KITAGAWA IRON\PWORKS CO.,LTD.}}
 11
1.000000000000000
 21
0.0000000000000000
 31
0.0000000000000000
  7
STANDARD
  0
MTEXT
  5
547
100
AcDbEntity
  8
WAKU0
  6
CONTINUOUS
 62
3
100
AcDbMText
 10
413.0850002169609
 20
46.50000000000000
 30
0.0000000000000000
 40
3.000000000000000
 41
0.0000000000000000
 71
     7
 72
     1
  1
{\H0.92x;{CAREER}}
 11
1.000000000000000
 21
0.0000000000000000
 31
0.0000000000000000
  7
STANDARD
  0
MTEXT
  5
548
100
AcDbEntity
  8
WAKU0
  6
CONTINUOUS
 62
3
100
AcDbMText
 10
466.6099998354912
 20
18.95000004768372
 30
0.0000000000000000
 40
3.099999904632568
 41
0.0000000000000000
 71
     7
 72
     1
  1
{\H0.91x;{DATE}}
 11
1.000000000000000
 21
0.0000000000000000
 31
0.0000000000000000
  7
STANDARD
  0
MTEXT
  5
549
100
AcDbEntity
  8
WAKU0
  6
CONTINUOUS
 62
3
100
AcDbMText
 10
485.9000002145767
 20
26.50000000000000
 30
0.0000000000000000
 40
3.000000000000000
 41
0.0000000000000000
 71
     7
 72
     1
  1
{\H0.63x;{3RD ANGLE}}
 11
1.000000000000000
 21
0.0000000000000000
 31
0.0000000000000000
  7
STANDARD
  0
MTEXT
  5
54A
100
AcDbEntity
  8
WAKU0
  6
CONTINUOUS
 62
3
100
AcDbMText
 10
487.2149997949600
 20
45.95000004768372
 30
0.0000000000000000
 40
3.099999904632568
 41
0.0000000000000000
 71
     7
 72
     1
  1
{\H0.92x;{SCALE}}
 11
1.000000000000000
 21
0.0000000000000000
 31
0.0000000000000000
  7
STANDARD
  0
MTEXT
  5
54B
100
AcDbEntity
  8
WAKU0
  6
CONTINUOUS
 62
3
100
AcDbMText
 10
577.7000000476837
 20
46.00000000000000
 30
0.0000000000000000
 40
3.000000000000000
 41
0.0000000000000000
 71
     7
 72
     1
  1
{\H0.63x;{kg}}
 11
1.000000000000000
 21
0.0000000000000000
 31
0.0000000000000000
  7
STANDARD
  0
MTEXT
  5
54C
100
AcDbEntity
  8
WAKU0
  6
CONTINUOUS
 62
3
100
AcDbMText
 10
547.6000001430512
 20
46.00000000000000
 30
0.0000000000000000
 40
3.000000000000000
 41
0.0000000000000000
 71
     7
 72
     1
  1
{\H0.63x;{WEIGHT}}
 11
1.000000000000000
 21
0.0000000000000000
 31
0.0000000000000000
  7
STANDARD
  0
MTEXT
  5
54D
100
AcDbEntity
  8
WAKU0
  6
CONTINUOUS
 62
3
100
AcDbMText
 10
506.0049998760223
 20
18.13333336512248
 30
0.0000000000000000
 40
3.099999904632568
 41
0.0000000000000000
 71
     7
 72
     1
  1
{\H0.90x;{DRW\PNO.}}
 11
1.000000000000000
 21
0.0000000000000000
 31
0.0000000000000000
  7
STANDARD
  0
MTEXT
  5
54E
100
AcDbEntity
  8
WAKU0
  6
CONTINUOUS
 62
3
100
AcDbMText
 10
504.6099998354912
 20
31.95000004768372
 30
0.0000000000000000
 40
3.099999904632568
 41
0.0000000000000000
 71
     7
 72
     1
  1
{\H0.91x;{NAME}}
 11
1.000000000000000
 21
0.0000000000000000
 31
0.0000000000000000
  7
STANDARD
  0
MTEXT
  5
54F
100
AcDbEntity
  8
WAKU0
  6
CONTINUOUS
 62
3
100
AcDbMText
 10
504.6099998354912
 20
45.95000004768372
 30
0.0000000000000000
 40
3.099999904632568
 41
0.0000000000000000
 71
     7
 72
     1
  1
{\H0.91x;{TYPE}}
 11
1.000000000000000
 21
0.0000000000000000
 31
0.0000000000000000
  7
STANDARD
  0
LINE
  5
550
100
AcDbEntity
  8
WAKU0
  6
HIDDEN
 62
3
100
AcDbLine
 10
579.1599564743885
 20
13.84999990463257
 30
0.0000000000000000
 11
568.9400436209789
 21
13.84999990463257
 31
0.0000000000000000
  0
LINE
  5
551
100
AcDbEntity
  8
WAKU0
  6
HIDDEN
 62
3
100
AcDbLine
 10
579.1599564743885
 20
13.84999990463250
 30
0.0000000000000000
 11
574.0500000476851
 21
22.70070406014901
 31
0.0000000000000000
  0
LINE
  5
552
100
AcDbEntity
  8
WAKU0
  6
HIDDEN
 62
3
100
AcDbLine
 10
574.0500000476851
 20
22.70070406014902
 30
0.0000000000000000
 11
568.9400436209789
 21
13.84999990463248
 31
0.0000000000000000
  0
LINE
  5
553
100
AcDbEntity
  8
WAKU0
  6
CONTINUOUS
 62
3
100
AcDbLine
 10
502.4713877753800
 20
15.78041421262812
 30
0.0000000000000000
 11
502.4713877753800
 21
21.78041421262815
 31
0.0000000000000000
  0
LINE
  5
554
100
AcDbEntity
  8
WAKU0
  6
CONTINUOUS
 62
3
100
AcDbLine
 10
495.9336941228225
 20
17.28041421262811
 30
0.0000000000000000
 11
495.9336941228225
 21
20.28041421262824
 31
0.0000000000000000
  0
LINE
  5
555
100
AcDbEntity
  8
WAKU0
  6
CENTER
 62
12
100
AcDbLine
 10
485.4321805514995
 20
18.78041421262813
 30
0.0000000000000000
 11
503.2765788964694
 21
18.78041421262813
 31
0.0000000000000000
  0
LINE
  5
556
100
AcDbEntity
  8
WAKU0
  6
CENTER
 62
12
100
AcDbLine
 10
489.4474565857986
 20
14.55921662918448
 30
0.0000000000000000
 11
489.4474565857986
 21
22.89865102149943
 31
0.0000000000000000
  0
LINE
  5
557
100
AcDbEntity
  8
WAKU0
  6
CONTINUOUS
 62
3
100
AcDbLine
 10
495.9336941228225
 20
20.28041421262797
 30
0.0000000000000000
 11
502.4713877753800
 21
21.78041421262795
 31
0.0000000000000000
  0
LINE
  5
558
100
AcDbEntity
  8
WAKU0
  6
CONTINUOUS
 62
3
100
AcDbLine
 10
495.9336941228225
 20
17.28041421262811
 30
0.0000000000000000
 11
502.4713877753799
 21
15.78041421262812
 31
0.0000000000000000
  0
CIRCLE
  5
559
100
AcDbEntity
  8
WAKU0
  6
CONTINUOUS
 62
3
100
AcDbCircle
 10
489.4474565857986
 20
18.78041421262813
 30
0.0000000000000000
 40
1.499999999999972
  0
CIRCLE
  5
55A
100
AcDbEntity
  8
WAKU0
  6
CONTINUOUS
 62
3
100
AcDbCircle
 10
489.4474565857986
 20
18.78041421262813
 30
0.0000000000000000
 40
2.999999999999979
  0
ENDSEC
  0
SECTION
  2
OBJECTS
  0
DICTIONARY
  5
5C1
100
AcDbDictionary
  3
ACAD_GROUP
350
5C2
  3
ACAD_MLINESTYLE
350
5C3
  3
DWGPROPS
350
5C4
  0
DICTIONARY
  5
5C2
102
{ACAD_REACTORS
330
5C1
102
}
100
AcDbDictionary
  0
DICTIONARY
  5
5C3
102
{ACAD_REACTORS
330
5C1
102
}
100
AcDbDictionary
  3
STANDARD
350
5C5
  0
MLINESTYLE
  5
5C5
102
{ACAD_REACTORS
330
5C3
102
}
100
AcDbMlineStyle
  2
STANDARD
 70
     0
  3

 62
   256
 51
90.00
 52
90.00
 71
     2
 49
0.50
 62
   256
  6
BYLAYER
 49
-0.50
 62
   256
  6
BYLAYER
  0
XRECORD
  5
5C4
102
{ACAD_REACTORS
330
5C1
102
}
100
AcDbXrecord
280
     1
  1
DWGPROPS COOKIE
  2
ＰＬＳ０６　ガイケイ
  3

  4

  6
ワークグリッパ　６
  7

  8

  9

300
=
301
=
302
=
303
=
304
=
305
=
306
=
307
=
308
=
309
=
 40
0.000000
 41
0.000000
 42
0.000000
  1

 90
        0
  0
ENDSEC
  0
EOF
