  0
SECTION
  2
HEADER
  9
$ACADVER
  1
AC1014
  9
$DWGCODEPAGE
  3
ANSI_932
  9
$LTSCALE
 40
20.0
  9
$FILLMODE
 70
     1
  9
$CLAYER
  8
0
  9
$PDMODE
 70
     0
  9
$SPLFRAME
 70
     0
  9
$SPLINETYPE
 70
     6
  9
$SPLINESEGS
 70
     8
  9
$DIMASZ
 40
2.000000
  9
$DIMEXE
 40
2.000000
  9
$DIMEXO
 40
0.800000
  9
$DIMTAD
 70
     1
  9
$DIMTIH
 70
     0
  9
$DIMTOH
 70
     0
  9
$DIMTVP
 40
0.500000
  9
$DIMTXT
 40
3.100000
  9
$EXTMIN
 10
0.000000
 20
0.000000
 30
0.000000
  9
$EXTMAX
 10
420.000000
 20
594.000000
 30
0.000000
  9
$MEASUREMENT
 70
  1
  9
$LIMMIN
 10
0.000000
 20
0.000000
  9
$LIMMAX
 10
420.000000
 20
594.000000
  9
$HANDLING
 70
     1
  9
$HANDSEED
  5
510
  9
$DIMBLK
  1
_OPEN
  9
$DIMDEC
 70
     3
  9
$DIMAUNIT
 70
     1
  9
$DIMZIN
 70
     8
  9
$DIMTOFL
 70
     1
  0
ENDSEC
  0
SECTION
  2
CLASSES
  0
ENDSEC
  0
SECTION
  2
TABLES
  0
TABLE
  2
VPORT
  5
4B9
100
AcDbSymbolTable
 70
     1
  0
VPORT
  5
4BA
100
AcDbSymbolTableRecord
100
AcDbViewportTableRecord
  2
*ACTIVE
 70
     0
 12
297.000000
 22
210.000000
 40
420.000000
 41
1.414286
  0
ENDTAB
  0
TABLE
  2
LTYPE
  5
4BB
100
AcDbSymbolTable
 70
     4
  0
LTYPE
  5
4BC
100
AcDbSymbolTableRecord
100
AcDbLinetypeTableRecord
  2
BYBLOCK
 70
     0
  3

 72
    65
 73
     0
 40
0.0
  0
LTYPE
  5
4BD
100
AcDbSymbolTableRecord
100
AcDbLinetypeTableRecord
  2
BYLAYER
 70
     0
  3

 72
    65
 73
     0
 40
0.0
  0
LTYPE
  5
4BE
100
AcDbSymbolTableRecord
100
AcDbLinetypeTableRecord
  2
CONTINUOUS
 70
     0
  3
Solid line (NEC CAE2D for Win R12.1 : 2018.06.08)
 72
    65
 73
     0
 40
0.0
  0
LTYPE
  5
4BF
100
AcDbSymbolTableRecord
100
AcDbLinetypeTableRecord
  2
HIDDEN
 70
     0
  3
__ __ __ __ __ __ __ __ __ __ __ __ __ __
 72
    65
 73
     2
 40
0.375
 49
0.25
 74
     0
 49
-0.125
 74
     0
  0
LTYPE
  5
4C0
100
AcDbSymbolTableRecord
100
AcDbLinetypeTableRecord
  2
CENTER
 70
     0
  3
____ _ ____ _ ____ _ ____ _ ____ _ ____
 72
    65
 73
     4
 40
2.0
 49
1.25
 74
     0
 49
-0.25
 74
     0
 49
0.25
 74
     0
 49
-0.25
 74
     0
  0
LTYPE
  5
4C1
100
AcDbSymbolTableRecord
100
AcDbLinetypeTableRecord
  2
PHANTOM
 70
     0
  3
______  __  __  ______  __  __  ______ 
 72
    65
 73
     6
 40
2.5
 49
1.25
 74
     0
 49
-0.25
 74
     0
 49
0.25
 74
     0
 49
-0.25
 74
     0
 49
0.25
 74
     0
 49
-0.25
 74
     0
  0
ENDTAB
  0
TABLE
  2
LAYER
  5
4C2
100
AcDbSymbolTable
 70
     9
  0
LAYER
  5
4C3
100
AcDbSymbolTableRecord
100
AcDbLayerTableRecord
  2
0
 70
     0
 62
     7
  6
CONTINUOUS
  0
LAYER
  5
4C4
100
AcDbSymbolTableRecord
100
AcDbLayerTableRecord
  2
MAIN0
 70
     0
 62
     7
  6
CONTINUOUS
  0
LAYER
  5
4C5
100
AcDbSymbolTableRecord
100
AcDbLayerTableRecord
  2
MAIN1
 70
     0
 62
     7
  6
CONTINUOUS
  0
LAYER
  5
4C6
100
AcDbSymbolTableRecord
100
AcDbLayerTableRecord
  2
MAIN3
 70
     0
 62
     7
  6
CONTINUOUS
  0
LAYER
  5
4C7
100
AcDbSymbolTableRecord
100
AcDbLayerTableRecord
  2
MAIN4
 70
     0
 62
     7
  6
CONTINUOUS
  0
LAYER
  5
4C8
100
AcDbSymbolTableRecord
100
AcDbLayerTableRecord
  2
MAIN10
 70
     0
 62
     7
  6
CONTINUOUS
  0
LAYER
  5
4C9
100
AcDbSymbolTableRecord
100
AcDbLayerTableRecord
  2
MAIN1023
 70
     0
 62
    16
  6
CONTINUOUS
  0
LAYER
  5
4CA
100
AcDbSymbolTableRecord
100
AcDbLayerTableRecord
  2
WAKU0
 70
     0
 62
     7
  6
CONTINUOUS
  0
LAYER
  5
4CB
100
AcDbSymbolTableRecord
100
AcDbLayerTableRecord
  2
WAKU1023
 70
     0
 62
    16
  6
CONTINUOUS
  0
ENDTAB
  0
TABLE
  2
STYLE
  5
4CC
100
AcDbSymbolTable
 70
     4
  0
STYLE
  5
4CD
100
AcDbSymbolTableRecord
100
AcDbTextStyleTableRecord
  2
STANDARD
 70
    64
 40
0.0
 41
1.0
 50
0.0
 71
     0
 42
3.099999904632568
  3
TXT
  4

  0
STYLE
  5
4CE
100
AcDbSymbolTableRecord
100
AcDbTextStyleTableRecord
  2
ANKTATE
 70
    68
 40
0.0
 41
1.0
 50
0.0
 71
     0
 42
3.099999904632568
  3
TXT
  4

  0
STYLE
  5
1CE
100
AcDbSymbolTableRecord
100
AcDbTextStyleTableRecord
  2
KNJYOKO
 70
    64
 40
0.0
 41
1.0
 50
0.0
 71
     0
 42
3.099999904632568
  3
TXT
  4
BIGFONT
  0
STYLE
  5
4CF
100
AcDbSymbolTableRecord
100
AcDbTextStyleTableRecord
  2
KNJTATE
 70
    68
 40
0.0
 41
1.0
 50
0.0
 71
     0
 42
3.099999904632568
  3
TXT
  4
BIGFONT
  0
ENDTAB
  0
TABLE
  2
VIEW
  5
4D0
100
AcDbSymbolTable
 70
     0
  0
ENDTAB
  0
TABLE
  2
UCS
  5
4D1
100
AcDbSymbolTable
 70
     0
  0
ENDTAB
  0
TABLE
  2
APPID
  5
4D2
100
AcDbSymbolTable
 70
     1
  0
APPID
  5
4D3
100
AcDbSymbolTableRecord
100
AcDbRegAppTableRecord
  2
ACAD
 70
     0
  0
ENDTAB
  0
TABLE
  2
DIMSTYLE
  5
4D4
100
AcDbSymbolTable
 70
     1
  0
DIMSTYLE
105
4D5
100
AcDbSymbolTableRecord
100
AcDbDimStyleTableRecord
  2
STANDARD
 70
     0
 41
2.000000
 44
2.000000
 42
0.800000
145
0.661290
140
3.100000
144
1.000000
146
0.903226
340
4CD
  0
DIMSTYLE
105
4D6
100
AcDbSymbolTableRecord
100
AcDbDimStyleTableRecord
  2
MAIN001
 70
     0
 41
2.000000
 44
2.000000
 42
0.800000
145
0.661290
140
3.100000
144
1.000000
146
0.903226
 77
     1
 73
     0
 74
     0
271
     3
275
     1
 78
     8
172
     1
340
4CD
  0
DIMSTYLE
105
4D7
100
AcDbSymbolTableRecord
100
AcDbDimStyleTableRecord
  2
WAKU002
 70
     0
 41
2.000000
 44
2.000000
 42
0.800000
145
0.661290
140
3.100000
144
1.000000
146
0.903226
 77
     1
 73
     0
 74
     0
271
     3
275
     1
 78
     8
172
     1
340
4CD
  0
ENDTAB
  0
TABLE
  2
BLOCK_RECORD
  5
4D8
100
AcDbSymbolTable
 70
    56
  0
BLOCK_RECORD
  5
4D9
100
AcDbSymbolTableRecord
100
AcDbBlockTableRecord
  2
*MODEL_SPACE
  0
BLOCK_RECORD
  5
4DA
100
AcDbSymbolTableRecord
100
AcDbBlockTableRecord
  2
*PAPER_SPACE
  0
BLOCK_RECORD
  5
1
100
AcDbSymbolTableRecord
100
AcDbBlockTableRecord
  2
_NONE
  0
BLOCK_RECORD
  5
4
100
AcDbSymbolTableRecord
100
AcDbBlockTableRecord
  2
_CLOSED
  0
BLOCK_RECORD
  5
B
100
AcDbSymbolTableRecord
100
AcDbBlockTableRecord
  2
_DOT
  0
BLOCK_RECORD
  5
13
100
AcDbSymbolTableRecord
100
AcDbBlockTableRecord
  2
_OPEN
  0
BLOCK_RECORD
  5
19
100
AcDbSymbolTableRecord
100
AcDbBlockTableRecord
  2
_ORIGIN
  0
BLOCK_RECORD
  5
1E
100
AcDbSymbolTableRecord
100
AcDbBlockTableRecord
  2
_OPEN30
  0
BLOCK_RECORD
  5
24
100
AcDbSymbolTableRecord
100
AcDbBlockTableRecord
  2
_BOXFILLED
  0
BLOCK_RECORD
  5
29
100
AcDbSymbolTableRecord
100
AcDbBlockTableRecord
  2
_BOXBLANK
  0
BLOCK_RECORD
  5
31
100
AcDbSymbolTableRecord
100
AcDbBlockTableRecord
  2
_OBLIQUE
  0
BLOCK_RECORD
  5
35
100
AcDbSymbolTableRecord
100
AcDbBlockTableRecord
  2
_OPEN90
  0
BLOCK_RECORD
  5
3B
100
AcDbSymbolTableRecord
100
AcDbBlockTableRecord
  2
_CLOSEDBLANK
  0
BLOCK_RECORD
  5
41
100
AcDbSymbolTableRecord
100
AcDbBlockTableRecord
  2
_DOTBLANK
  0
BLOCK_RECORD
  5
4DB
100
AcDbSymbolTableRecord
100
AcDbBlockTableRecord
  2
*D0
  0
BLOCK_RECORD
  5
4DC
100
AcDbSymbolTableRecord
100
AcDbBlockTableRecord
  2
*D1
  0
BLOCK_RECORD
  5
4DD
100
AcDbSymbolTableRecord
100
AcDbBlockTableRecord
  2
*D2
  0
BLOCK_RECORD
  5
4DE
100
AcDbSymbolTableRecord
100
AcDbBlockTableRecord
  2
*D3
  0
BLOCK_RECORD
  5
4DF
100
AcDbSymbolTableRecord
100
AcDbBlockTableRecord
  2
*D4
  0
BLOCK_RECORD
  5
4E0
100
AcDbSymbolTableRecord
100
AcDbBlockTableRecord
  2
*D5
  0
BLOCK_RECORD
  5
4E1
100
AcDbSymbolTableRecord
100
AcDbBlockTableRecord
  2
*D6
  0
BLOCK_RECORD
  5
4E2
100
AcDbSymbolTableRecord
100
AcDbBlockTableRecord
  2
*D7
  0
BLOCK_RECORD
  5
4E3
100
AcDbSymbolTableRecord
100
AcDbBlockTableRecord
  2
*D8
  0
BLOCK_RECORD
  5
4E4
100
AcDbSymbolTableRecord
100
AcDbBlockTableRecord
  2
*D9
  0
BLOCK_RECORD
  5
4E5
100
AcDbSymbolTableRecord
100
AcDbBlockTableRecord
  2
*D10
  0
BLOCK_RECORD
  5
4E6
100
AcDbSymbolTableRecord
100
AcDbBlockTableRecord
  2
*D11
  0
BLOCK_RECORD
  5
4E7
100
AcDbSymbolTableRecord
100
AcDbBlockTableRecord
  2
*D12
  0
BLOCK_RECORD
  5
4E8
100
AcDbSymbolTableRecord
100
AcDbBlockTableRecord
  2
*D13
  0
BLOCK_RECORD
  5
4E9
100
AcDbSymbolTableRecord
100
AcDbBlockTableRecord
  2
*D14
  0
BLOCK_RECORD
  5
4EA
100
AcDbSymbolTableRecord
100
AcDbBlockTableRecord
  2
*D15
  0
BLOCK_RECORD
  5
4EB
100
AcDbSymbolTableRecord
100
AcDbBlockTableRecord
  2
*D16
  0
BLOCK_RECORD
  5
4EC
100
AcDbSymbolTableRecord
100
AcDbBlockTableRecord
  2
*D17
  0
BLOCK_RECORD
  5
4ED
100
AcDbSymbolTableRecord
100
AcDbBlockTableRecord
  2
*D18
  0
BLOCK_RECORD
  5
4EE
100
AcDbSymbolTableRecord
100
AcDbBlockTableRecord
  2
*D19
  0
BLOCK_RECORD
  5
4EF
100
AcDbSymbolTableRecord
100
AcDbBlockTableRecord
  2
*D20
  0
BLOCK_RECORD
  5
4F0
100
AcDbSymbolTableRecord
100
AcDbBlockTableRecord
  2
*D21
  0
BLOCK_RECORD
  5
4F1
100
AcDbSymbolTableRecord
100
AcDbBlockTableRecord
  2
*D22
  0
BLOCK_RECORD
  5
4F2
100
AcDbSymbolTableRecord
100
AcDbBlockTableRecord
  2
*D23
  0
BLOCK_RECORD
  5
4F3
100
AcDbSymbolTableRecord
100
AcDbBlockTableRecord
  2
*D24
  0
BLOCK_RECORD
  5
4F4
100
AcDbSymbolTableRecord
100
AcDbBlockTableRecord
  2
D25
  0
BLOCK_RECORD
  5
4F5
100
AcDbSymbolTableRecord
100
AcDbBlockTableRecord
  2
*D26
  0
BLOCK_RECORD
  5
4F6
100
AcDbSymbolTableRecord
100
AcDbBlockTableRecord
  2
*D27
  0
BLOCK_RECORD
  5
4F7
100
AcDbSymbolTableRecord
100
AcDbBlockTableRecord
  2
*D28
  0
BLOCK_RECORD
  5
4F8
100
AcDbSymbolTableRecord
100
AcDbBlockTableRecord
  2
*D29
  0
BLOCK_RECORD
  5
4F9
100
AcDbSymbolTableRecord
100
AcDbBlockTableRecord
  2
*D30
  0
BLOCK_RECORD
  5
4FA
100
AcDbSymbolTableRecord
100
AcDbBlockTableRecord
  2
*D31
  0
BLOCK_RECORD
  5
4FB
100
AcDbSymbolTableRecord
100
AcDbBlockTableRecord
  2
D32
  0
BLOCK_RECORD
  5
4FC
100
AcDbSymbolTableRecord
100
AcDbBlockTableRecord
  2
*D33
  0
BLOCK_RECORD
  5
4FD
100
AcDbSymbolTableRecord
100
AcDbBlockTableRecord
  2
*D34
  0
BLOCK_RECORD
  5
4FE
100
AcDbSymbolTableRecord
100
AcDbBlockTableRecord
  2
*D35
  0
BLOCK_RECORD
  5
4FF
100
AcDbSymbolTableRecord
100
AcDbBlockTableRecord
  2
*D36
  0
BLOCK_RECORD
  5
500
100
AcDbSymbolTableRecord
100
AcDbBlockTableRecord
  2
*D37
  0
BLOCK_RECORD
  5
501
100
AcDbSymbolTableRecord
100
AcDbBlockTableRecord
  2
*D38
  0
BLOCK_RECORD
  5
502
100
AcDbSymbolTableRecord
100
AcDbBlockTableRecord
  2
*D39
  0
BLOCK_RECORD
  5
503
100
AcDbSymbolTableRecord
100
AcDbBlockTableRecord
  2
*D40
  0
BLOCK_RECORD
  5
504
100
AcDbSymbolTableRecord
100
AcDbBlockTableRecord
  2
*D41
  0
BLOCK_RECORD
  5
505
100
AcDbSymbolTableRecord
100
AcDbBlockTableRecord
  2
*D42
  0
BLOCK_RECORD
  5
506
100
AcDbSymbolTableRecord
100
AcDbBlockTableRecord
  2
*D43
  0
ENDTAB
  0
ENDSEC
  0
SECTION
  2
BLOCKS
  0
BLOCK
  5
507
100
AcDbEntity
  8
0
100
AcDbBlockBegin
  2
*MODEL_SPACE
 70
     0
 10
0.0
 20
0.0
 30
0.0
  3
*MODEL_SPACE
  1

  0
ENDBLK
  5
508
100
AcDbEntity
  8
0
100
AcDbBlockEnd
  0
BLOCK
  5
509
100
AcDbEntity
  8
0
100
AcDbBlockBegin
  2
*PAPER_SPACE
 70
     0
 10
0.0
 20
0.0
 30
0.0
  3
*PAPER_SPACE
  1

  0
ENDBLK
  5
50A
100
AcDbEntity
  8
0
100
AcDbBlockEnd
  0
BLOCK
  5
2
100
AcDbEntity
  8
0
100
AcDbBlockBegin
  2
_NONE
 70
     0
 10
0.0
 20
0.0
 30
0.0
  3
_NONE
  1

  0
ENDBLK
  5
3
100
AcDbEntity
  8
0
100
AcDbBlockEnd
  0
BLOCK
  5
5
100
AcDbEntity
  8
0
100
AcDbBlockBegin
  2
_CLOSED
 70
     0
 10
0.0
 20
0.0
 30
0.0
  3
_CLOSED
  1

  0
LINE
  5
6
100
AcDbEntity
  8
0
  6
BYBLOCK
 62
     0
100
AcDbLine
 10
-1.0
 20
0.166667
 30
0.0
 11
0.0
 21
0.0
 31
0.0
  0
LINE
  5
7
100
AcDbEntity
  8
0
  6
BYBLOCK
 62
     0
100
AcDbLine
 10
0.0
 20
0.0
 30
0.0
 11
-1.0
 21
-0.166667
 31
0.0
  0
LINE
  5
8
100
AcDbEntity
  8
0
  6
BYBLOCK
 62
     0
100
AcDbLine
 10
-1.0
 20
0.166667
 30
0.0
 11
-1.0
 21
-0.166667
 31
0.0
  0
LINE
  5
9
100
AcDbEntity
  8
0
  6
BYBLOCK
 62
     0
100
AcDbLine
 10
0.0
 20
0.0
 30
0.0
 11
-1.0
 21
0.0
 31
0.0
  0
ENDBLK
  5
A
100
AcDbEntity
  8
0
100
AcDbBlockEnd
  0
BLOCK
  5
C
100
AcDbEntity
  8
0
100
AcDbBlockBegin
  2
_DOT
 70
     0
 10
0.0
 20
0.0
 30
0.0
  3
_DOT
  1

  0
POLYLINE
  5
D
100
AcDbEntity
  8
0
  6
BYBLOCK
 62
     0
100
AcDb2dPolyline
 66
     1
 10
0.0
 20
0.0
 30
0.0
 70
     1
 40
0.5
 41
0.5
  0
VERTEX
  5
E
100
AcDbEntity
  8
0
  6
BYBLOCK
 62
     0
100
AcDbVertex
100
AcDb2dVertex
 10
-0.25
 20
0.0
 30
0.0
 42
1.0
  0
VERTEX
  5
F
100
AcDbEntity
  8
0
  6
BYBLOCK
 62
     0
100
AcDbVertex
100
AcDb2dVertex
 10
0.25
 20
0.0
 30
0.0
 42
1.0
  0
SEQEND
  5
10
100
AcDbEntity
  8
0
  6
BYBLOCK
 62
     0
  0
LINE
  5
11
100
AcDbEntity
  8
0
  6
BYBLOCK
 62
     0
100
AcDbLine
 10
-0.5
 20
0.0
 30
0.0
 11
-1.0
 21
0.0
 31
0.0
  0
ENDBLK
  5
12
100
AcDbEntity
  8
0
100
AcDbBlockEnd
  0
BLOCK
  5
14
100
AcDbEntity
  8
0
100
AcDbBlockBegin
  2
_OPEN
 70
     0
 10
0.0
 20
0.0
 30
0.0
  3
_OPEN
  1

  0
LINE
  5
15
100
AcDbEntity
  8
0
  6
BYBLOCK
 62
     0
100
AcDbLine
 10
-1.0
 20
0.166667
 30
0.0
 11
0.0
 21
0.0
 31
0.0
  0
LINE
  5
16
100
AcDbEntity
  8
0
  6
BYBLOCK
 62
     0
100
AcDbLine
 10
0.0
 20
0.0
 30
0.0
 11
-1.0
 21
-0.166667
 31
0.0
  0
LINE
  5
17
100
AcDbEntity
  8
0
  6
BYBLOCK
 62
     0
100
AcDbLine
 10
0.0
 20
0.0
 30
0.0
 11
-1.0
 21
0.0
 31
0.0
  0
ENDBLK
  5
18
100
AcDbEntity
  8
0
100
AcDbBlockEnd
  0
BLOCK
  5
1A
100
AcDbEntity
  8
0
100
AcDbBlockBegin
  2
_ORIGIN
 70
     0
 10
0.0
 20
0.0
 30
0.0
  3
_ORIGIN
  1

  0
CIRCLE
  5
1B
100
AcDbEntity
  8
0
  6
BYBLOCK
 62
     0
100
AcDbCircle
 10
0.0
 20
0.0
 30
0.0
 40
0.5
  0
LINE
  5
1C
100
AcDbEntity
  8
0
  6
BYBLOCK
 62
     0
100
AcDbLine
 10
0.0
 20
0.0
 30
0.0
 11
-1.0
 21
0.0
 31
0.0
  0
ENDBLK
  5
1D
100
AcDbEntity
  8
0
100
AcDbBlockEnd
  0
BLOCK
  5
1F
100
AcDbEntity
  8
0
100
AcDbBlockBegin
  2
_OPEN30
 70
     0
 10
0.0
 20
0.0
 30
0.0
  3
_OPEN30
  1

  0
LINE
  5
20
100
AcDbEntity
  8
0
  6
BYBLOCK
 62
     0
100
AcDbLine
 10
-1.0
 20
0.267949
 30
0.0
 11
0.0
 21
0.0
 31
0.0
  0
LINE
  5
21
100
AcDbEntity
  8
0
  6
BYBLOCK
 62
     0
100
AcDbLine
 10
0.0
 20
0.0
 30
0.0
 11
-1.0
 21
-0.267949
 31
0.0
  0
LINE
  5
22
100
AcDbEntity
  8
0
  6
BYBLOCK
 62
     0
100
AcDbLine
 10
0.0
 20
0.0
 30
0.0
 11
-1.0
 21
0.0
 31
0.0
  0
ENDBLK
  5
23
100
AcDbEntity
  8
0
100
AcDbBlockEnd
  0
BLOCK
  5
25
100
AcDbEntity
  8
0
100
AcDbBlockBegin
  2
_BOXFILLED
 70
     0
 10
0.0
 20
0.0
 30
0.0
  3
_BOXFILLED
  1

  0
SOLID
  5
26
100
AcDbEntity
  8
0
  6
BYBLOCK
 62
     0
100
AcDbTrace
 10
-0.5
 20
0.5
 30
0.0
 11
0.5
 21
0.5
 31
0.0
 12
-0.5
 22
-0.5
 32
0.0
 13
0.5
 23
-0.5
 33
0.0
  0
LINE
  5
27
100
AcDbEntity
  8
0
  6
BYBLOCK
 62
     0
100
AcDbLine
 10
-0.5
 20
0.0
 30
0.0
 11
-1.0
 21
0.0
 31
0.0
  0
ENDBLK
  5
28
100
AcDbEntity
  8
0
100
AcDbBlockEnd
  0
BLOCK
  5
2A
100
AcDbEntity
  8
0
100
AcDbBlockBegin
  2
_BOXBLANK
 70
     0
 10
0.0
 20
0.0
 30
0.0
  3
_BOXBLANK
  1

  0
LINE
  5
2B
100
AcDbEntity
  8
0
  6
BYBLOCK
 62
     0
100
AcDbLine
 10
-0.5
 20
-0.5
 30
0.0
 11
0.5
 21
-0.5
 31
0.0
  0
LINE
  5
2C
100
AcDbEntity
  8
0
  6
BYBLOCK
 62
     0
100
AcDbLine
 10
0.5
 20
-0.5
 30
0.0
 11
0.5
 21
0.5
 31
0.0
  0
LINE
  5
2D
100
AcDbEntity
  8
0
  6
BYBLOCK
 62
     0
100
AcDbLine
 10
0.5
 20
0.5
 30
0.0
 11
-0.5
 21
0.5
 31
0.0
  0
LINE
  5
2E
100
AcDbEntity
  8
0
  6
BYBLOCK
 62
     0
100
AcDbLine
 10
-0.5
 20
0.5
 30
0.0
 11
-0.5
 21
-0.5
 31
0.0
  0
LINE
  5
2F
100
AcDbEntity
  8
0
  6
BYBLOCK
 62
     0
100
AcDbLine
 10
-0.5
 20
0.0
 30
0.0
 11
-1.0
 21
0.0
 31
0.0
  0
ENDBLK
  5
30
100
AcDbEntity
  8
0
100
AcDbBlockEnd
  0
BLOCK
  5
32
100
AcDbEntity
  8
0
100
AcDbBlockBegin
  2
_OBLIQUE
 70
     0
 10
0.0
 20
0.0
 30
0.0
  3
_OBLIQUE
  1

  0
LINE
  5
33
100
AcDbEntity
  8
0
  6
BYBLOCK
 62
     0
100
AcDbLine
 10
-0.5
 20
-0.5
 30
0.0
 11
0.5
 21
0.5
 31
0.0
  0
ENDBLK
  5
34
100
AcDbEntity
  8
0
100
AcDbBlockEnd
  0
BLOCK
  5
36
100
AcDbEntity
  8
0
100
AcDbBlockBegin
  2
_OPEN90
 70
     0
 10
0.0
 20
0.0
 30
0.0
  3
_OPEN90
  1

  0
LINE
  5
37
100
AcDbEntity
  8
0
  6
BYBLOCK
 62
     0
100
AcDbLine
 10
-0.5
 20
0.5
 30
0.0
 11
0.0
 21
0.0
 31
0.0
  0
LINE
  5
38
100
AcDbEntity
  8
0
  6
BYBLOCK
 62
     0
100
AcDbLine
 10
0.0
 20
0.0
 30
0.0
 11
-0.5
 21
-0.5
 31
0.0
  0
LINE
  5
39
100
AcDbEntity
  8
0
  6
BYBLOCK
 62
     0
100
AcDbLine
 10
0.0
 20
0.0
 30
0.0
 11
-1.0
 21
0.0
 31
0.0
  0
ENDBLK
  5
3A
100
AcDbEntity
  8
0
100
AcDbBlockEnd
  0
BLOCK
  5
3C
100
AcDbEntity
  8
0
100
AcDbBlockBegin
  2
_CLOSEDBLANK
 70
     0
 10
0.0
 20
0.0
 30
0.0
  3
_CLOSEDBLANK
  1

  0
LINE
  5
3D
100
AcDbEntity
  8
0
  6
BYBLOCK
 62
     0
100
AcDbLine
 10
-1.0
 20
0.1666666666666666
 30
0.0
 11
0.0
 21
0.0
 31
0.0
  0
LINE
  5
3E
100
AcDbEntity
  8
0
  6
BYBLOCK
 62
     0
100
AcDbLine
 10
0.0
 20
0.0
 30
0.0
 11
-1.0
 21
-0.1666666666666666
 31
0.0
  0
LINE
  5
3F
100
AcDbEntity
  8
0
  6
BYBLOCK
 62
     0
100
AcDbLine
 10
-1.0
 20
0.1666666666666666
 30
0.0
 11
-1.0
 21
-0.1666666666666666
 31
0.0
  0
ENDBLK
  5
40
100
AcDbEntity
  8
0
100
AcDbBlockEnd
  0
BLOCK
  5
42
100
AcDbEntity
  8
0
100
AcDbBlockBegin
  2
_DOTBLANK
 70
     0
 10
0.0
 20
0.0
 30
0.0
  3
_DOTBLANK
  1

  0
CIRCLE
  5
43
100
AcDbEntity
  8
0
  6
BYBLOCK
 62
     0
100
AcDbCircle
 10
0.0
 20
0.0
 30
0.0
 40
0.5
  0
LINE
  5
44
100
AcDbEntity
  8
0
  6
BYBLOCK
 62
     0
100
AcDbLine
 10
-0.5
 20
0.0
 30
0.0
 11
-1.0
 21
0.0
 31
0.0
  0
ENDBLK
  5
45
100
AcDbEntity
  8
0
100
AcDbBlockEnd
  0
BLOCK
  5
E5
100
AcDbEntity
  8
MAIN0
  6
CONTINUOUS
 62
3
100
AcDbBlockBegin
  2
*D0
 70
    65
 10
0.0
 20
0.0
 30
0.0
  0
LINE
  5
E6
100
AcDbEntity
  8
MAIN0
  6
BYBLOCK
 62
0
100
AcDbLine
 10
109.0315762941872
 20
165.8789252738142
 30
0.0000000000000000
 11
71.91515400421697
 21
165.8789252738142
 31
0.0000000000000000
  0
LINE
  5
E7
100
AcDbEntity
  8
MAIN0
  6
BYBLOCK
 62
0
100
AcDbLine
 10
73.91515400421697
 20
167.8789252738142
 30
0.0000000000000000
 11
73.91515400421697
 21
366.8789252738142
 31
0.0000000000000000
  0
INSERT
  5
E8
100
AcDbEntity
  8
MAIN0
  6
BYBLOCK
 62
0
100
AcDbBlockReference
  2
_OPEN
 10
73.91515400421697
 20
165.8789252738142
 30
0.0000000000000000
 41
2.000000000000000
 42
2.000000000000000
 43
2.000000000000000
 50
270.0000000000000
  0
INSERT
  5
E9
100
AcDbEntity
  8
MAIN0
  6
BYBLOCK
 62
0
100
AcDbBlockReference
  2
_OPEN
 10
73.91515400421697
 20
368.8789252738142
 30
0.0000000000000000
 41
2.000000000000000
 42
2.000000000000000
 43
2.000000000000000
 50
90.00000000000000
  0
LINE
  5
EA
100
AcDbEntity
  8
MAIN0
  6
BYBLOCK
 62
0
100
AcDbLine
 10
109.0315762941892
 20
368.8789252738142
 30
0.0000000000000000
 11
71.91515400421697
 21
368.8789252738142
 31
0.0000000000000000
  0
MTEXT
  5
EB
100
AcDbEntity
  8
MAIN0
  6
BYBLOCK
 62
0
100
AcDbMText
 10
71.86515405190069
 20
267.3789252738142
 30
0.0000000000000000
 40
3.099999904632568
 41
0.0000000000000000
 71
     5
 72
     1
  1
\A1;\U+2205203h7
 11
1.002670741233467e-011
 21
1.000000000000000
 31
0.0000000000000000
  7
STANDARD
  0
ENDBLK
  5
EC
100
AcDbEntity
  8
MAIN0
  6
CONTINUOUS
 62
3
100
AcDbBlockEnd
  0
BLOCK
  5
EE
100
AcDbEntity
  8
MAIN0
  6
CONTINUOUS
 62
3
100
AcDbBlockBegin
  2
*D1
 70
    65
 10
0.0
 20
0.0
 30
0.0
  0
LINE
  5
EF
100
AcDbEntity
  8
MAIN0
  6
BYBLOCK
 62
0
100
AcDbLine
 10
109.8315763061089
 20
165.0789252618933
 30
0.0000000000000000
 11
109.8315763061089
 21
119.9569239625737
 31
0.0000000000000000
  0
LINE
  5
F0
100
AcDbEntity
  8
MAIN0
  6
BYBLOCK
 62
0
100
AcDbLine
 10
111.8315763061089
 20
121.9569239625737
 30
0.0000000000000000
 11
137.8315763061080
 21
121.9569239625737
 31
0.0000000000000000
  0
INSERT
  5
F1
100
AcDbEntity
  8
MAIN0
  6
BYBLOCK
 62
0
100
AcDbBlockReference
  2
_OPEN
 10
109.8315763061089
 20
121.9569239625737
 30
0.0000000000000000
 41
2.000000000000000
 42
2.000000000000000
 43
2.000000000000000
 50
180.0000000000000
  0
INSERT
  5
F2
100
AcDbEntity
  8
MAIN0
  6
BYBLOCK
 62
0
100
AcDbBlockReference
  2
_OPEN
 10
139.8315763061080
 20
121.9569239625737
 30
0.0000000000000000
 41
2.000000000000000
 42
2.000000000000000
 43
2.000000000000000
 50
0.0000000000000000
  0
LINE
  5
F3
100
AcDbEntity
  8
MAIN0
  6
BYBLOCK
 62
0
100
AcDbLine
 10
139.8315763061080
 20
157.2024021102985
 30
0.0000000000000000
 11
139.8315763061080
 21
119.9569239625737
 31
0.0000000000000000
  0
MTEXT
  5
F4
100
AcDbEntity
  8
MAIN0
  6
BYBLOCK
 62
0
100
AcDbMText
 10
124.8315763061085
 20
124.0069239148900
 30
0.0000000000000000
 40
3.099999904632568
 41
0.0000000000000000
 71
     5
 72
     1
  1
\A1;30
 11
1.000000000000000
 21
0.0000000000000000
 31
0.0000000000000000
  7
STANDARD
  0
ENDBLK
  5
F5
100
AcDbEntity
  8
MAIN0
  6
CONTINUOUS
 62
3
100
AcDbBlockEnd
  0
BLOCK
  5
F7
100
AcDbEntity
  8
MAIN0
  6
CONTINUOUS
 62
3
100
AcDbBlockBegin
  2
*D2
 70
    65
 10
0.0
 20
0.0
 30
0.0
  0
LINE
  5
F8
100
AcDbEntity
  8
MAIN0
  6
BYBLOCK
 62
0
100
AcDbLine
 10
109.8315763061089
 20
165.0789252618933
 30
0.0000000000000000
 11
109.8315763061089
 21
108.6880695321353
 31
0.0000000000000000
  0
LINE
  5
F9
100
AcDbEntity
  8
MAIN0
  6
BYBLOCK
 62
0
100
AcDbLine
 10
111.8315763061089
 20
110.6880695321353
 30
0.0000000000000000
 11
122.8315763061080
 21
110.6880695321353
 31
0.0000000000000000
  0
INSERT
  5
FA
100
AcDbEntity
  8
MAIN0
  6
BYBLOCK
 62
0
100
AcDbBlockReference
  2
_OPEN
 10
109.8315763061089
 20
110.6880695321353
 30
0.0000000000000000
 41
2.000000000000000
 42
2.000000000000000
 43
2.000000000000000
 50
180.0000000000000
  0
INSERT
  5
FB
100
AcDbEntity
  8
MAIN0
  6
BYBLOCK
 62
0
100
AcDbBlockReference
  2
_OPEN
 10
124.8315763061080
 20
110.6880695321353
 30
0.0000000000000000
 41
2.000000000000000
 42
2.000000000000000
 43
2.000000000000000
 50
0.0000000000000000
  0
LINE
  5
FC
100
AcDbEntity
  8
MAIN0
  6
BYBLOCK
 62
0
100
AcDbLine
 10
124.8315763061080
 20
163.5789252618931
 30
0.0000000000000000
 11
124.8315763061080
 21
108.6880695321353
 31
0.0000000000000000
  0
MTEXT
  5
FD
100
AcDbEntity
  8
MAIN0
  6
BYBLOCK
 62
0
100
AcDbMText
 10
117.3315763061085
 20
112.7380694844516
 30
0.0000000000000000
 40
3.099999904632568
 41
0.0000000000000000
 71
     5
 72
     1
  1
\A1;15
 11
1.000000000000000
 21
0.0000000000000000
 31
0.0000000000000000
  7
STANDARD
  0
ENDBLK
  5
FE
100
AcDbEntity
  8
MAIN0
  6
CONTINUOUS
 62
3
100
AcDbBlockEnd
  0
BLOCK
  5
100
100
AcDbEntity
  8
MAIN0
  6
CONTINUOUS
 62
3
100
AcDbBlockBegin
  2
*D3
 70
    65
 10
0.0
 20
0.0
 30
0.0
  0
LINE
  5
101
100
AcDbEntity
  8
MAIN0
  6
BYBLOCK
 62
0
100
AcDbLine
 10
124.8315763061080
 20
163.5789252618931
 30
0.0000000000000000
 11
124.8315763061080
 21
108.6880695321353
 31
0.0000000000000000
  0
LINE
  5
102
100
AcDbEntity
  8
MAIN0
  6
BYBLOCK
 62
0
100
AcDbLine
 10
126.8315763061080
 20
110.6880695321353
 30
0.0000000000000000
 11
152.8315763061080
 21
110.6880695321353
 31
0.0000000000000000
  0
INSERT
  5
103
100
AcDbEntity
  8
MAIN0
  6
BYBLOCK
 62
0
100
AcDbBlockReference
  2
_OPEN
 10
124.8315763061080
 20
110.6880695321353
 30
0.0000000000000000
 41
2.000000000000000
 42
2.000000000000000
 43
2.000000000000000
 50
180.0000000000000
  0
INSERT
  5
104
100
AcDbEntity
  8
MAIN0
  6
BYBLOCK
 62
0
100
AcDbBlockReference
  2
_OPEN
 10
154.8315763061080
 20
110.6880695321353
 30
0.0000000000000000
 41
2.000000000000000
 42
2.000000000000000
 43
2.000000000000000
 50
0.0000000000000000
  0
LINE
  5
105
100
AcDbEntity
  8
MAIN0
  6
BYBLOCK
 62
0
100
AcDbLine
 10
154.8315763061080
 20
163.5789252618928
 30
0.0000000000000000
 11
154.8315763061080
 21
108.6880695321353
 31
0.0000000000000000
  0
MTEXT
  5
106
100
AcDbEntity
  8
MAIN0
  6
BYBLOCK
 62
0
100
AcDbMText
 10
139.8315763061080
 20
112.7380694844516
 30
0.0000000000000000
 40
3.099999904632568
 41
0.0000000000000000
 71
     5
 72
     1
  1
\A1;30
 11
1.000000000000000
 21
0.0000000000000000
 31
0.0000000000000000
  7
STANDARD
  0
ENDBLK
  5
107
100
AcDbEntity
  8
MAIN0
  6
CONTINUOUS
 62
3
100
AcDbBlockEnd
  0
BLOCK
  5
109
100
AcDbEntity
  8
MAIN0
  6
CONTINUOUS
 62
3
100
AcDbBlockBegin
  2
*D4
 70
    65
 10
0.0
 20
0.0
 30
0.0
  0
LINE
  5
10A
100
AcDbEntity
  8
MAIN0
  6
BYBLOCK
 62
0
100
AcDbLine
 10
154.8315763061080
 20
163.5789252618928
 30
0.0000000000000000
 11
154.8315763061080
 21
108.6880695321353
 31
0.0000000000000000
  0
LINE
  5
10B
100
AcDbEntity
  8
MAIN0
  6
BYBLOCK
 62
0
100
AcDbLine
 10
156.8315763061080
 20
110.6880695321353
 30
0.0000000000000000
 11
202.8315763061093
 21
110.6880695321353
 31
0.0000000000000000
  0
INSERT
  5
10C
100
AcDbEntity
  8
MAIN0
  6
BYBLOCK
 62
0
100
AcDbBlockReference
  2
_OPEN
 10
154.8315763061080
 20
110.6880695321353
 30
0.0000000000000000
 41
2.000000000000000
 42
2.000000000000000
 43
2.000000000000000
 50
180.0000000000000
  0
INSERT
  5
10D
100
AcDbEntity
  8
MAIN0
  6
BYBLOCK
 62
0
100
AcDbBlockReference
  2
_OPEN
 10
204.8315763061093
 20
110.6880695321353
 30
0.0000000000000000
 41
2.000000000000000
 42
2.000000000000000
 43
2.000000000000000
 50
0.0000000000000000
  0
LINE
  5
10E
100
AcDbEntity
  8
MAIN0
  6
BYBLOCK
 62
0
100
AcDbLine
 10
204.8315763061093
 20
185.6789252618925
 30
0.0000000000000000
 11
204.8315763061093
 21
108.6880695321353
 31
0.0000000000000000
  0
MTEXT
  5
10F
100
AcDbEntity
  8
MAIN0
  6
BYBLOCK
 62
0
100
AcDbMText
 10
179.8315763061087
 20
112.7380694844516
 30
0.0000000000000000
 40
3.099999904632568
 41
0.0000000000000000
 71
     5
 72
     1
  1
\A1;50
 11
1.000000000000000
 21
0.0000000000000000
 31
0.0000000000000000
  7
STANDARD
  0
ENDBLK
  5
110
100
AcDbEntity
  8
MAIN0
  6
CONTINUOUS
 62
3
100
AcDbBlockEnd
  0
BLOCK
  5
112
100
AcDbEntity
  8
MAIN0
  6
CONTINUOUS
 62
3
100
AcDbBlockBegin
  2
*D5
 70
    65
 10
0.0
 20
0.0
 30
0.0
  0
LINE
  5
113
100
AcDbEntity
  8
MAIN0
  6
BYBLOCK
 62
0
100
AcDbLine
 10
109.8315763061089
 20
165.0789252618933
 30
0.0000000000000000
 11
109.8315763061089
 21
96.88259031396879
 31
0.0000000000000000
  0
LINE
  5
114
100
AcDbEntity
  8
MAIN0
  6
BYBLOCK
 62
0
100
AcDbLine
 10
111.8315763061089
 20
98.88259031396879
 30
0.0000000000000000
 11
202.8315763061093
 21
98.88259031396879
 31
0.0000000000000000
  0
INSERT
  5
115
100
AcDbEntity
  8
MAIN0
  6
BYBLOCK
 62
0
100
AcDbBlockReference
  2
_OPEN
 10
109.8315763061089
 20
98.88259031396879
 30
0.0000000000000000
 41
2.000000000000000
 42
2.000000000000000
 43
2.000000000000000
 50
180.0000000000000
  0
INSERT
  5
116
100
AcDbEntity
  8
MAIN0
  6
BYBLOCK
 62
0
100
AcDbBlockReference
  2
_OPEN
 10
204.8315763061093
 20
98.88259031396879
 30
0.0000000000000000
 41
2.000000000000000
 42
2.000000000000000
 43
2.000000000000000
 50
0.0000000000000000
  0
LINE
  5
117
100
AcDbEntity
  8
MAIN0
  6
BYBLOCK
 62
0
100
AcDbLine
 10
204.8315763061093
 20
185.6789252618925
 30
0.0000000000000000
 11
204.8315763061093
 21
96.88259031396879
 31
0.0000000000000000
  0
MTEXT
  5
118
100
AcDbEntity
  8
MAIN0
  6
BYBLOCK
 62
0
100
AcDbMText
 10
157.3315763061091
 20
100.9325902662851
 30
0.0000000000000000
 40
3.099999904632568
 41
0.0000000000000000
 71
     5
 72
     1
  1
\A1;95
 11
1.000000000000000
 21
0.0000000000000000
 31
0.0000000000000000
  7
STANDARD
  0
ENDBLK
  5
119
100
AcDbEntity
  8
MAIN0
  6
CONTINUOUS
 62
3
100
AcDbBlockEnd
  0
BLOCK
  5
11B
100
AcDbEntity
  8
MAIN0
  6
CONTINUOUS
 62
3
100
AcDbBlockBegin
  2
*D6
 70
    65
 10
0.0
 20
0.0
 30
0.0
  0
LINE
  5
11C
100
AcDbEntity
  8
MAIN0
  6
BYBLOCK
 62
0
100
AcDbLine
 10
182.7932693933560
 20
259.3789252738123
 30
0.0000000000000000
 11
182.7932693933560
 21
275.3789252738141
 31
0.0000000000000000
  0
INSERT
  5
11D
100
AcDbEntity
  8
MAIN0
  6
BYBLOCK
 62
0
100
AcDbBlockReference
  2
_OPEN
 10
182.7932693933560
 20
257.3789252738123
 30
0.0000000000000000
 41
2.000000000000000
 42
2.000000000000000
 43
2.000000000000000
 50
270.0000000000000
  0
INSERT
  5
11E
100
AcDbEntity
  8
MAIN0
  6
BYBLOCK
 62
0
100
AcDbBlockReference
  2
_OPEN
 10
182.7932693933560
 20
277.3789252738141
 30
0.0000000000000000
 41
2.000000000000000
 42
2.000000000000000
 43
2.000000000000000
 50
90.00000000000000
  0
MTEXT
  5
11F
100
AcDbEntity
  8
MAIN0
  6
BYBLOCK
 62
0
100
AcDbMText
 10
180.7432694410397
 20
267.3789252738133
 30
0.0000000000000000
 40
3.099999904632568
 41
0.0000000000000000
 71
     5
 72
     1
  1
\A1;\U+220520
 11
1.002670741233467e-011
 21
1.000000000000000
 31
0.0000000000000000
  7
STANDARD
  0
ENDBLK
  5
120
100
AcDbEntity
  8
MAIN0
  6
CONTINUOUS
 62
3
100
AcDbBlockEnd
  0
BLOCK
  5
122
100
AcDbEntity
  8
MAIN0
  6
CONTINUOUS
 62
3
100
AcDbBlockBegin
  2
*D7
 70
    65
 10
0.0
 20
0.0
 30
0.0
  0
LINE
  5
123
100
AcDbEntity
  8
MAIN0
  6
BYBLOCK
 62
0
100
AcDbLine
 10
204.8315763061100
 20
353.5789252857342
 30
0.0000000000000000
 11
204.8315763061100
 21
386.3120178778709
 31
0.0000000000000000
  0
LINE
  5
124
100
AcDbEntity
  8
MAIN0
  6
BYBLOCK
 62
0
100
AcDbLine
 10
206.8315763061100
 20
384.3120178778709
 30
0.0000000000000000
 11
238.8315763061108
 21
384.3120178778709
 31
0.0000000000000000
  0
INSERT
  5
125
100
AcDbEntity
  8
MAIN0
  6
BYBLOCK
 62
0
100
AcDbBlockReference
  2
_OPEN
 10
204.8315763061100
 20
384.3120178778709
 30
0.0000000000000000
 41
2.000000000000000
 42
2.000000000000000
 43
2.000000000000000
 50
180.0000000000000
  0
INSERT
  5
126
100
AcDbEntity
  8
MAIN0
  6
BYBLOCK
 62
0
100
AcDbBlockReference
  2
_OPEN
 10
240.8315763061108
 20
384.3120178778709
 30
0.0000000000000000
 41
2.000000000000000
 42
2.000000000000000
 43
2.000000000000000
 50
0.0000000000000000
  0
LINE
  5
127
100
AcDbEntity
  8
MAIN0
  6
BYBLOCK
 62
0
100
AcDbLine
 10
240.8315763061108
 20
356.9289252857338
 30
0.0000000000000000
 11
240.8315763061108
 21
386.3120178778709
 31
0.0000000000000000
  0
MTEXT
  5
128
100
AcDbEntity
  8
MAIN0
  6
BYBLOCK
 62
0
100
AcDbMText
 10
222.8315763061104
 20
386.3620178301871
 30
0.0000000000000000
 40
3.099999904632568
 41
0.0000000000000000
 71
     5
 72
     1
  1
\A1;36
 11
1.000000000000000
 21
0.0000000000000000
 31
0.0000000000000000
  7
STANDARD
  0
ENDBLK
  5
129
100
AcDbEntity
  8
MAIN0
  6
CONTINUOUS
 62
3
100
AcDbBlockEnd
  0
BLOCK
  5
12B
100
AcDbEntity
  8
MAIN0
  6
CONTINUOUS
 62
3
100
AcDbBlockBegin
  2
*D8
 70
    65
 10
0.0
 20
0.0
 30
0.0
  0
LINE
  5
12C
100
AcDbEntity
  8
MAIN0
  6
BYBLOCK
 62
0
100
AcDbLine
 10
204.8315763061090
 20
33.51310693786439
 30
0.0000000000000000
 11
204.8315763061090
 21
24.26739580484306
 31
0.0000000000000000
  0
LINE
  5
12D
100
AcDbEntity
  8
MAIN0
  6
BYBLOCK
 62
0
100
AcDbLine
 10
204.8315763061090
 20
26.26739580484306
 30
0.0000000000000000
 11
208.8315763061090
 21
26.26739580484306
 31
0.0000000000000000
  0
INSERT
  5
12E
100
AcDbEntity
  8
MAIN0
  6
BYBLOCK
 62
0
100
AcDbBlockReference
  2
_OPEN
 10
204.8315763061090
 20
26.26739580484306
 30
0.0000000000000000
 41
2.000000000000000
 42
2.000000000000000
 43
2.000000000000000
 50
0.0000000000000000
  0
INSERT
  5
12F
100
AcDbEntity
  8
MAIN0
  6
BYBLOCK
 62
0
100
AcDbBlockReference
  2
_DOT
 10
209.8315763061090
 20
26.26739580484306
 30
0.0000000000000000
 41
1.000000000000000
 42
1.000000000000000
 43
1.000000000000000
 50
0.0000000000000000
  0
LINE
  5
130
100
AcDbEntity
  8
MAIN0
  6
BYBLOCK
 62
0
100
AcDbLine
 10
202.8315763061090
 20
26.26739580484306
 30
0.0000000000000000
 11
201.8315763061090
 21
26.26739580484306
 31
0.0000000000000000
  0
LINE
  5
131
100
AcDbEntity
  8
MAIN0
  6
BYBLOCK
 62
0
100
AcDbLine
 10
209.8315763061090
 20
43.77151737009507
 30
0.0000000000000000
 11
209.8315763061090
 21
24.26739580484306
 31
0.0000000000000000
  0
MTEXT
  5
132
100
AcDbEntity
  8
MAIN0
  6
BYBLOCK
 62
0
100
AcDbMText
 10
207.3315763061090
 20
28.31739575715935
 30
0.0000000000000000
 40
3.099999904632568
 41
0.0000000000000000
 71
     5
 72
     1
  1
\A1;5
 11
1.000000000000000
 21
0.0000000000000000
 31
0.0000000000000000
  7
STANDARD
  0
ENDBLK
  5
133
100
AcDbEntity
  8
MAIN0
  6
CONTINUOUS
 62
3
100
AcDbBlockEnd
  0
BLOCK
  5
135
100
AcDbEntity
  8
MAIN0
  6
CONTINUOUS
 62
3
100
AcDbBlockBegin
  2
*D9
 70
    65
 10
0.0
 20
0.0
 30
0.0
  0
LINE
  5
136
100
AcDbEntity
  8
MAIN0
  6
BYBLOCK
 62
0
100
AcDbLine
 10
209.8315763061090
 20
43.77151737009507
 30
0.0000000000000000
 11
209.8315763061090
 21
24.26739580484306
 31
0.0000000000000000
  0
LINE
  5
137
100
AcDbEntity
  8
MAIN0
  6
BYBLOCK
 62
0
100
AcDbLine
 10
210.8315763061090
 20
26.26739580484306
 30
0.0000000000000000
 11
212.8315763061090
 21
26.26739580484306
 31
0.0000000000000000
  0
INSERT
  5
138
100
AcDbEntity
  8
MAIN0
  6
BYBLOCK
 62
0
100
AcDbBlockReference
  2
_DOT
 10
209.8315763061090
 20
26.26739580484306
 30
0.0000000000000000
 41
1.000000000000000
 42
1.000000000000000
 43
1.000000000000000
 50
180.0000000000000
  0
INSERT
  5
139
100
AcDbEntity
  8
MAIN0
  6
BYBLOCK
 62
0
100
AcDbBlockReference
  2
_OPEN
 10
212.8315763061090
 20
26.26739580484306
 30
0.0000000000000000
 41
2.000000000000000
 42
2.000000000000000
 43
2.000000000000000
 50
180.0000000000000
  0
LINE
  5
13A
100
AcDbEntity
  8
MAIN0
  6
BYBLOCK
 62
0
100
AcDbLine
 10
214.8315763061090
 20
26.26739580484306
 30
0.0000000000000000
 11
217.2138089721246
 21
26.26739580484306
 31
0.0000000000000000
  0
LINE
  5
13B
100
AcDbEntity
  8
MAIN0
  6
BYBLOCK
 62
0
100
AcDbLine
 10
212.8315763061090
 20
52.27151737009518
 30
0.0000000000000000
 11
212.8315763061090
 21
24.26739580484306
 31
0.0000000000000000
  0
MTEXT
  5
13C
100
AcDbEntity
  8
MAIN0
  6
BYBLOCK
 62
0
100
AcDbMText
 10
216.1638088747982
 20
28.31739575715935
 30
0.0000000000000000
 40
3.099999904632568
 41
0.0000000000000000
 71
     5
 72
     1
  1
\A1;3
 11
1.000000000000000
 21
0.0000000000000000
 31
0.0000000000000000
  7
STANDARD
  0
ENDBLK
  5
13D
100
AcDbEntity
  8
MAIN0
  6
CONTINUOUS
 62
3
100
AcDbBlockEnd
  0
BLOCK
  5
13F
100
AcDbEntity
  8
MAIN0
  6
CONTINUOUS
 62
3
100
AcDbBlockBegin
  2
*D10
 70
    65
 10
0.0
 20
0.0
 30
0.0
  0
LINE
  5
140
100
AcDbEntity
  8
MAIN0
  6
BYBLOCK
 62
0
100
AcDbLine
 10
213.6315763180299
 20
53.07151738201611
 30
0.0000000000000000
 11
225.6536426047326
 21
53.07151738201611
 31
0.0000000000000000
  0
LINE
  5
141
100
AcDbEntity
  8
MAIN0
  6
BYBLOCK
 62
0
100
AcDbLine
 10
223.6536426047326
 20
55.07151738201611
 30
0.0000000000000000
 11
223.6536426047326
 21
63.07151738201611
 31
0.0000000000000000
  0
INSERT
  5
142
100
AcDbEntity
  8
MAIN0
  6
BYBLOCK
 62
0
100
AcDbBlockReference
  2
_OPEN
 10
223.6536426047326
 20
53.07151738201611
 30
0.0000000000000000
 41
2.000000000000000
 42
2.000000000000000
 43
2.000000000000000
 50
270.0000000000000
  0
INSERT
  5
143
100
AcDbEntity
  8
MAIN0
  6
BYBLOCK
 62
0
100
AcDbBlockReference
  2
_OPEN
 10
223.6536426047326
 20
65.07151738201611
 30
0.0000000000000000
 41
2.000000000000000
 42
2.000000000000000
 43
2.000000000000000
 50
90.00000000000000
  0
LINE
  5
144
100
AcDbEntity
  8
MAIN0
  6
BYBLOCK
 62
0
100
AcDbLine
 10
213.6315763180299
 20
65.07151738201611
 30
0.0000000000000000
 11
225.6536426047326
 21
65.07151738201611
 31
0.0000000000000000
  0
MTEXT
  5
145
100
AcDbEntity
  8
MAIN0
  6
BYBLOCK
 62
0
100
AcDbMText
 10
221.6036426524163
 20
59.07151738201611
 30
0.0000000000000000
 40
3.099999904632568
 41
0.0000000000000000
 71
     5
 72
     1
  1
\A1;12
 11
6.123233995736766e-017
 21
1.000000000000000
 31
0.0000000000000000
  7
STANDARD
  0
ENDBLK
  5
146
100
AcDbEntity
  8
MAIN0
  6
CONTINUOUS
 62
3
100
AcDbBlockEnd
  0
BLOCK
  5
149
100
AcDbEntity
  8
MAIN0
  6
CONTINUOUS
 62
3
100
AcDbBlockBegin
  2
*D11
 70
    65
 10
0.0
 20
0.0
 30
0.0
  0
LINE
  5
14A
100
AcDbEntity
  8
MAIN0
  6
BYBLOCK
 62
0
100
AcDbLine
 10
241.6315763180310
 20
284.1289252738129
 30
0.0000000000000000
 11
263.7295258616045
 21
284.1289252738129
 31
0.0000000000000000
  0
LINE
  5
14B
100
AcDbEntity
  8
MAIN0
  6
BYBLOCK
 62
0
100
AcDbLine
 10
261.7295258616045
 20
286.1289252738129
 30
0.0000000000000000
 11
261.7295258616045
 21
319.1289252738128
 31
0.0000000000000000
  0
INSERT
  5
14C
100
AcDbEntity
  8
MAIN0
  6
BYBLOCK
 62
0
100
AcDbBlockReference
  2
_OPEN
 10
261.7295258616045
 20
284.1289252738129
 30
0.0000000000000000
 41
2.000000000000000
 42
2.000000000000000
 43
2.000000000000000
 50
270.0000000000000
  0
INSERT
  5
14D
100
AcDbEntity
  8
MAIN0
  6
BYBLOCK
 62
0
100
AcDbBlockReference
  2
_OPEN
 10
261.7295258616045
 20
321.1289252738128
 30
0.0000000000000000
 41
2.000000000000000
 42
2.000000000000000
 43
2.000000000000000
 50
90.00000000000000
  0
LINE
  5
14E
100
AcDbEntity
  8
MAIN0
  6
BYBLOCK
 62
0
100
AcDbLine
 10
246.5106764292465
 20
321.1289252738128
 30
0.0000000000000000
 11
263.7295258616045
 21
321.1289252738128
 31
0.0000000000000000
  0
MTEXT
  5
14F
100
AcDbEntity
  8
MAIN0
  6
BYBLOCK
 62
0
100
AcDbMText
 10
259.6795259092883
 20
302.6289252738129
 30
0.0000000000000000
 40
3.099999904632568
 41
0.0000000000000000
 71
     5
 72
     1
  1
\A1;37
 11
6.123233995736766e-017
 21
1.000000000000000
 31
0.0000000000000000
  7
STANDARD
  0
ENDBLK
  5
150
100
AcDbEntity
  8
MAIN0
  6
CONTINUOUS
 62
3
100
AcDbBlockEnd
  0
BLOCK
  5
152
100
AcDbEntity
  8
MAIN0
  6
CONTINUOUS
 62
3
100
AcDbBlockBegin
  2
*D12
 70
    65
 10
0.0
 20
0.0
 30
0.0
  0
LINE
  5
153
100
AcDbEntity
  8
MAIN0
  6
BYBLOCK
 62
0
100
AcDbLine
 10
246.5106764292465
 20
321.1289252738128
 30
0.0000000000000000
 11
263.7295258616045
 21
321.1289252738128
 31
0.0000000000000000
  0
LINE
  5
154
100
AcDbEntity
  8
MAIN0
  6
BYBLOCK
 62
0
100
AcDbLine
 10
261.7295258616045
 20
323.1289252738128
 30
0.0000000000000000
 11
261.7295258616045
 21
339.1289252738128
 31
0.0000000000000000
  0
INSERT
  5
155
100
AcDbEntity
  8
MAIN0
  6
BYBLOCK
 62
0
100
AcDbBlockReference
  2
_OPEN
 10
261.7295258616045
 20
321.1289252738128
 30
0.0000000000000000
 41
2.000000000000000
 42
2.000000000000000
 43
2.000000000000000
 50
270.0000000000000
  0
INSERT
  5
156
100
AcDbEntity
  8
MAIN0
  6
BYBLOCK
 62
0
100
AcDbBlockReference
  2
_OPEN
 10
261.7295258616045
 20
341.1289252738128
 30
0.0000000000000000
 41
2.000000000000000
 42
2.000000000000000
 43
2.000000000000000
 50
90.00000000000000
  0
LINE
  5
157
100
AcDbEntity
  8
MAIN0
  6
BYBLOCK
 62
0
100
AcDbLine
 10
246.5106764292465
 20
341.1289252738128
 30
0.0000000000000000
 11
263.7295258616045
 21
341.1289252738128
 31
0.0000000000000000
  0
MTEXT
  5
158
100
AcDbEntity
  8
MAIN0
  6
BYBLOCK
 62
0
100
AcDbMText
 10
259.6795259092883
 20
331.1289252738128
 30
0.0000000000000000
 40
3.099999904632568
 41
0.0000000000000000
 71
     5
 72
     1
  1
\A1;20
 11
6.123233995736766e-017
 21
1.000000000000000
 31
0.0000000000000000
  7
STANDARD
  0
ENDBLK
  5
159
100
AcDbEntity
  8
MAIN0
  6
CONTINUOUS
 62
3
100
AcDbBlockEnd
  0
BLOCK
  5
15B
100
AcDbEntity
  8
MAIN0
  6
CONTINUOUS
 62
3
100
AcDbBlockBegin
  2
*D13
 70
    65
 10
0.0
 20
0.0
 30
0.0
  0
LINE
  5
15C
100
AcDbEntity
  8
MAIN0
  6
BYBLOCK
 62
0
100
AcDbLine
 10
241.6315763180317
 20
356.1289252738129
 30
0.0000000000000000
 11
272.8816073702353
 21
356.1289252738129
 31
0.0000000000000000
  0
LINE
  5
15D
100
AcDbEntity
  8
MAIN0
  6
BYBLOCK
 62
0
100
AcDbLine
 10
270.8816073702353
 20
354.1289252738129
 30
0.0000000000000000
 11
270.8816073702353
 21
286.1289252738129
 31
0.0000000000000000
  0
INSERT
  5
15E
100
AcDbEntity
  8
MAIN0
  6
BYBLOCK
 62
0
100
AcDbBlockReference
  2
_OPEN
 10
270.8816073702353
 20
356.1289252738129
 30
0.0000000000000000
 41
2.000000000000000
 42
2.000000000000000
 43
2.000000000000000
 50
90.00000000000000
  0
INSERT
  5
15F
100
AcDbEntity
  8
MAIN0
  6
BYBLOCK
 62
0
100
AcDbBlockReference
  2
_OPEN
 10
270.8816073702353
 20
284.1289252738129
 30
0.0000000000000000
 41
2.000000000000000
 42
2.000000000000000
 43
2.000000000000000
 50
270.0000000000000
  0
LINE
  5
160
100
AcDbEntity
  8
MAIN0
  6
BYBLOCK
 62
0
100
AcDbLine
 10
241.6315763180310
 20
284.1289252738129
 30
0.0000000000000000
 11
272.8816073702353
 21
284.1289252738129
 31
0.0000000000000000
  0
MTEXT
  5
161
100
AcDbEntity
  8
MAIN0
  6
BYBLOCK
 62
0
100
AcDbMText
 10
268.8316074179190
 20
320.1289252738129
 30
0.0000000000000000
 40
3.099999904632568
 41
0.0000000000000000
 71
     5
 72
     1
  1
\A1;72
 11
6.123233995736766e-017
 21
1.000000000000000
 31
0.0000000000000000
  7
STANDARD
  0
ENDBLK
  5
162
100
AcDbEntity
  8
MAIN0
  6
CONTINUOUS
 62
3
100
AcDbBlockEnd
  0
BLOCK
  5
168
100
AcDbEntity
  8
MAIN0
  6
CONTINUOUS
 62
3
100
AcDbBlockBegin
  2
*D14
 70
    65
 10
0.0
 20
0.0
 30
0.0
  0
LINE
  5
169
100
AcDbEntity
  8
MAIN0
  6
BYBLOCK
 62
0
100
AcDbLine
 10
109.6315762941882
 20
254.8789252738141
 30
0.0000000000000000
 11
84.74347069610968
 21
254.8789252738131
 31
0.0000000000000000
  0
LINE
  5
16A
100
AcDbEntity
  8
MAIN0
  6
BYBLOCK
 62
0
100
AcDbLine
 10
86.74347069610968
 20
256.8789252738132
 30
0.0000000000000000
 11
86.74347069610968
 21
277.8789252738132
 31
0.0000000000000000
  0
INSERT
  5
16B
100
AcDbEntity
  8
MAIN0
  6
BYBLOCK
 62
0
100
AcDbBlockReference
  2
_OPEN
 10
86.74347069610968
 20
254.8789252738132
 30
0.0000000000000000
 41
2.000000000000000
 42
2.000000000000000
 43
2.000000000000000
 50
270.0000000000000
  0
INSERT
  5
16C
100
AcDbEntity
  8
MAIN0
  6
BYBLOCK
 62
0
100
AcDbBlockReference
  2
_OPEN
 10
86.74347069610968
 20
279.8789252738132
 30
0.0000000000000000
 41
2.000000000000000
 42
2.000000000000000
 43
2.000000000000000
 50
90.00000000000000
  0
LINE
  5
16D
100
AcDbEntity
  8
MAIN0
  6
BYBLOCK
 62
0
100
AcDbLine
 10
109.6315762941884
 20
279.8789252738141
 30
0.0000000000000000
 11
84.74347069610968
 21
279.8789252738131
 31
0.0000000000000000
  0
MTEXT
  5
16E
100
AcDbEntity
  8
MAIN0
  6
BYBLOCK
 62
0
100
AcDbMText
 10
84.69347074379340
 20
267.3789252738132
 30
0.0000000000000000
 40
3.099999904632568
 41
0.0000000000000000
 71
     5
 72
     1
  1
\A1;\U+220525H7
 11
1.002670741233467e-011
 21
1.000000000000000
 31
0.0000000000000000
  7
STANDARD
  0
ENDBLK
  5
16F
100
AcDbEntity
  8
MAIN0
  6
CONTINUOUS
 62
3
100
AcDbBlockEnd
  0
BLOCK
  5
178
100
AcDbEntity
  8
MAIN0
  6
CONTINUOUS
 62
3
100
AcDbBlockBegin
  2
*D15
 70
    65
 10
0.0
 20
0.0
 30
0.0
  0
LINE
  5
179
100
AcDbEntity
  8
MAIN0
  6
BYBLOCK
 62
0
100
AcDbLine
 10
124.8315763061080
 20
163.5789252618931
 30
0.0000000000000000
 11
124.8315763061080
 21
86.15034020111602
 31
0.0000000000000000
  0
LINE
  5
17A
100
AcDbEntity
  8
MAIN0
  6
BYBLOCK
 62
0
100
AcDbLine
 10
126.8315763061080
 20
88.15034020111602
 30
0.0000000000000000
 11
167.8315763061077
 21
88.15034020111602
 31
0.0000000000000000
  0
INSERT
  5
17B
100
AcDbEntity
  8
MAIN0
  6
BYBLOCK
 62
0
100
AcDbBlockReference
  2
_OPEN
 10
124.8315763061080
 20
88.15034020111602
 30
0.0000000000000000
 41
2.000000000000000
 42
2.000000000000000
 43
2.000000000000000
 50
180.0000000000000
  0
INSERT
  5
17C
100
AcDbEntity
  8
MAIN0
  6
BYBLOCK
 62
0
100
AcDbBlockReference
  2
_OPEN
 10
169.8315763061077
 20
88.15034020111602
 30
0.0000000000000000
 41
2.000000000000000
 42
2.000000000000000
 43
2.000000000000000
 50
0.0000000000000000
  0
LINE
  5
17D
100
AcDbEntity
  8
MAIN0
  6
BYBLOCK
 62
0
100
AcDbLine
 10
169.8315763061077
 20
129.0789252618927
 30
0.0000000000000000
 11
169.8315763061077
 21
86.15034020111602
 31
0.0000000000000000
  0
MTEXT
  5
17E
100
AcDbEntity
  8
MAIN0
  6
BYBLOCK
 62
0
100
AcDbMText
 10
147.3315763061079
 20
90.20034015343231
 30
0.0000000000000000
 40
3.099999904632568
 41
0.0000000000000000
 71
     5
 72
     1
  1
\A1;45
 11
1.000000000000000
 21
0.0000000000000000
 31
0.0000000000000000
  7
STANDARD
  0
ENDBLK
  5
17F
100
AcDbEntity
  8
MAIN0
  6
CONTINUOUS
 62
3
100
AcDbBlockEnd
  0
BLOCK
  5
182
100
AcDbEntity
  8
MAIN0
  6
CONTINUOUS
 62
3
100
AcDbBlockBegin
  2
*D16
 70
    65
 10
0.0
 20
0.0
 30
0.0
  0
LINE
  5
183
100
AcDbEntity
  8
MAIN0
  6
BYBLOCK
 62
0
100
AcDbLine
 10
170.6315763180286
 20
129.3789252738136
 30
0.0000000000000000
 11
186.6815236626264
 21
129.3789252738136
 31
0.0000000000000000
  0
LINE
  5
184
100
AcDbEntity
  8
MAIN0
  6
BYBLOCK
 62
0
100
AcDbLine
 10
184.6815236626264
 20
131.3789252738136
 30
0.0000000000000000
 11
184.6815236626264
 21
182.3789252738136
 31
0.0000000000000000
  0
INSERT
  5
185
100
AcDbEntity
  8
MAIN0
  6
BYBLOCK
 62
0
100
AcDbBlockReference
  2
_OPEN
 10
184.6815236626264
 20
129.3789252738136
 30
0.0000000000000000
 41
2.000000000000000
 42
2.000000000000000
 43
2.000000000000000
 50
270.0000000000000
  0
INSERT
  5
186
100
AcDbEntity
  8
MAIN0
  6
BYBLOCK
 62
0
100
AcDbBlockReference
  2
_OPEN
 10
184.6815236626264
 20
184.3789252738136
 30
0.0000000000000000
 41
2.000000000000000
 42
2.000000000000000
 43
2.000000000000000
 50
90.00000000000000
  0
LINE
  5
187
100
AcDbEntity
  8
MAIN0
  6
BYBLOCK
 62
0
100
AcDbLine
 10
170.6315763180292
 20
184.3789252738136
 30
0.0000000000000000
 11
186.6815236626264
 21
184.3789252738136
 31
0.0000000000000000
  0
MTEXT
  5
188
100
AcDbEntity
  8
MAIN0
  6
BYBLOCK
 62
0
100
AcDbMText
 10
182.6315237103102
 20
156.8789252738136
 30
0.0000000000000000
 40
3.099999904632568
 41
0.0000000000000000
 71
     5
 72
     1
  1
\A1;55
 11
6.123233995736766e-017
 21
1.000000000000000
 31
0.0000000000000000
  7
STANDARD
  0
ENDBLK
  5
189
100
AcDbEntity
  8
MAIN0
  6
CONTINUOUS
 62
3
100
AcDbBlockEnd
  0
BLOCK
  5
18D
100
AcDbEntity
  8
MAIN0
  6
CONTINUOUS
 62
3
100
AcDbBlockBegin
  2
*D17
 70
    65
 10
0.0
 20
0.0
 30
0.0
  0
LINE
  5
18E
100
AcDbEntity
  8
MAIN0
  6
BYBLOCK
 62
0
100
AcDbLine
 10
109.8315763061089
 20
240.1862246659144
 30
0.0000000000000000
 11
114.9315763061093
 21
240.1862246659144
 31
0.0000000000000000
  0
INSERT
  5
18F
100
AcDbEntity
  8
MAIN0
  6
BYBLOCK
 62
0
100
AcDbBlockReference
  2
_OPEN
 10
109.8315763061089
 20
240.1862246659144
 30
0.0000000000000000
 41
2.000000000000000
 42
2.000000000000000
 43
2.000000000000000
 50
0.0000000000000000
  0
INSERT
  5
190
100
AcDbEntity
  8
MAIN0
  6
BYBLOCK
 62
0
100
AcDbBlockReference
  2
_OPEN
 10
114.9315763061093
 20
240.1862246659144
 30
0.0000000000000000
 41
2.000000000000000
 42
2.000000000000000
 43
2.000000000000000
 50
180.0000000000000
  0
LINE
  5
191
100
AcDbEntity
  8
MAIN0
  6
BYBLOCK
 62
0
100
AcDbLine
 10
107.8315763061089
 20
240.1862246659144
 30
0.0000000000000000
 11
106.8315763061089
 21
240.1862246659144
 31
0.0000000000000000
  0
LINE
  5
192
100
AcDbEntity
  8
MAIN0
  6
BYBLOCK
 62
0
100
AcDbLine
 10
116.9315763061093
 20
240.1862246659144
 30
0.0000000000000000
 11
122.2382288520382
 21
240.1862246659144
 31
0.0000000000000000
  0
LINE
  5
193
100
AcDbEntity
  8
MAIN0
  6
BYBLOCK
 62
0
100
AcDbLine
 10
114.9315763061093
 20
254.5408054772462
 30
0.0000000000000000
 11
114.9315763061093
 21
238.1862246659144
 31
0.0000000000000000
  0
MTEXT
  5
194
100
AcDbEntity
  8
MAIN0
  6
BYBLOCK
 62
0
100
AcDbMText
 10
119.0882286416206
 20
242.2362246182307
 30
0.0000000000000000
 40
3.099999904632568
 41
0.0000000000000000
 71
     5
 72
     1
  1
\A1;5.1
 11
1.000000000000000
 21
0.0000000000000000
 31
0.0000000000000000
  7
STANDARD
  0
ENDBLK
  5
195
100
AcDbEntity
  8
MAIN0
  6
CONTINUOUS
 62
3
100
AcDbBlockEnd
  0
BLOCK
  5
1A1
100
AcDbEntity
  8
MAIN0
  6
CONTINUOUS
 62
3
100
AcDbBlockBegin
  2
*D18
 70
    65
 10
0.0
 20
0.0
 30
0.0
  0
LINE
  5
1A2
100
AcDbEntity
  8
MAIN0
  6
BYBLOCK
 62
0
100
AcDbLine
 10
488.7206284761493
 20
240.2025030314995
 30
0.0000000000000000
 11
503.4046490706314
 21
236.2679315715661
 31
0.0000000000000000
  0
ARC
  5
1A3
100
AcDbEntity
  8
MAIN0
  6
BYBLOCK
 62
0
100
AcDbCircle
 10
387.2968398998962
 20
267.3789252738114
 30
0.0000000000000000
 40
118.2036491940615
100
AcDbArc
 50
345.9694418049483
 51
359.0305581950518
  0
INSERT
  5
1A4
100
AcDbEntity
  8
MAIN0
  6
BYBLOCK
 62
0
100
AcDbBlockReference
  2
_OPEN
 10
501.4727974180532
 20
236.7855696617711
 30
0.0000000000000000
 41
2.000000000000000
 42
2.000000000000000
 43
2.000000000000000
 50
255.0000000000000
  0
INSERT
  5
1A5
100
AcDbEntity
  8
MAIN0
  6
BYBLOCK
 62
0
100
AcDbBlockReference
  2
_OPEN
 10
505.5004890939577
 20
267.3789252738114
 30
0.0000000000000000
 41
2.000000000000000
 42
2.000000000000000
 43
2.000000000000000
 50
90.00000000000000
  0
MTEXT
  5
1A6
100
AcDbEntity
  8
MAIN0
  6
BYBLOCK
 62
0
100
AcDbMText
 10
502.4567785704404
 20
252.2178317258230
 30
0.0000000000000000
 40
3.099999904632568
 41
0.0000000000000000
 71
     5
 72
     1
  1
\A1;15\U+00B0
 11
0.1305261922200515
 21
0.9914448613738104
 31
0.0000000000000000
  7
STANDARD
  0
ENDBLK
  5
1A7
100
AcDbEntity
  8
MAIN0
  6
CONTINUOUS
 62
3
100
AcDbBlockEnd
  0
BLOCK
  5
1A9
100
AcDbEntity
  8
MAIN0
  6
CONTINUOUS
 62
3
100
AcDbBlockBegin
  2
*D19
 70
    65
 10
0.0
 20
0.0
 30
0.0
  0
LINE
  5
1AA
100
AcDbEntity
  8
MAIN0
  6
BYBLOCK
 62
0
100
AcDbLine
 10
479.3118040296460
 20
320.5037895834295
 30
0.0000000000000000
 11
491.3962537296280
 21
327.4807498707006
 31
0.0000000000000000
  0
ARC
  5
1AB
100
AcDbEntity
  8
MAIN0
  6
BYBLOCK
 62
0
100
AcDbCircle
 10
387.2968398998962
 20
267.3789252738114
 30
0.0000000000000000
 40
118.2036491940615
100
AcDbArc
 50
0.9694418049482831
 51
29.03055819497381
  0
INSERT
  5
1AC
100
AcDbEntity
  8
MAIN0
  6
BYBLOCK
 62
0
100
AcDbBlockReference
  2
_OPEN
 10
505.5004890939577
 20
267.3789252738114
 30
0.0000000000000000
 41
2.000000000000000
 42
2.000000000000000
 43
2.000000000000000
 50
270.0000000000000
  0
INSERT
  5
1AD
100
AcDbEntity
  8
MAIN0
  6
BYBLOCK
 62
0
100
AcDbBlockReference
  2
_OPEN
 10
489.6642029220578
 20
326.4807498707030
 30
0.0000000000000000
 41
2.000000000000000
 42
2.000000000000000
 43
2.000000000000000
 50
119.9999999999221
  0
MTEXT
  5
1AE
100
AcDbEntity
  8
MAIN0
  6
BYBLOCK
 62
0
100
AcDbMText
 10
499.4926495202400
 20
297.4417018556568
 30
0.0000000000000000
 40
3.099999904632568
 41
0.0000000000000000
 71
     5
 72
     1
  1
\A1;30\U+00B0
 11
-0.2588190451018641
 21
0.9659258262892443
 31
0.0000000000000000
  7
STANDARD
  0
ENDBLK
  5
1AF
100
AcDbEntity
  8
MAIN0
  6
CONTINUOUS
 62
3
100
AcDbBlockEnd
  0
BLOCK
  5
1B1
100
AcDbEntity
  8
MAIN0
  6
CONTINUOUS
 62
3
100
AcDbBlockBegin
  2
*D20
 70
    65
 10
0.0
 20
0.0
 30
0.0
  0
LINE
  5
1B2
100
AcDbEntity
  8
MAIN0
  6
BYBLOCK
 62
0
100
AcDbLine
 10
479.3118040296460
 20
320.5037895834295
 30
0.0000000000000000
 11
491.3962537296280
 21
327.4807498707006
 31
0.0000000000000000
  0
LINE
  5
1B3
100
AcDbEntity
  8
MAIN0
  6
BYBLOCK
 62
0
100
AcDbLine
 10
414.2787694747416
 20
368.0768573333796
 30
0.0000000000000000
 11
418.4078336021416
 21
383.4867344445466
 31
0.0000000000000000
  0
ARC
  5
1B4
100
AcDbEntity
  8
MAIN0
  6
BYBLOCK
 62
0
100
AcDbCircle
 10
387.2968398998962
 20
267.3789252738114
 30
0.0000000000000000
 40
118.2036491940615
100
AcDbArc
 50
30.96944180487038
 51
74.03055819505171
  0
INSERT
  5
1B5
100
AcDbEntity
  8
MAIN0
  6
BYBLOCK
 62
0
100
AcDbBlockReference
  2
_OPEN
 10
489.6642029220578
 20
326.4807498707030
 30
0.0000000000000000
 41
2.000000000000000
 42
2.000000000000000
 43
2.000000000000000
 50
299.9999999999221
  0
INSERT
  5
1B6
100
AcDbEntity
  8
MAIN0
  6
BYBLOCK
 62
0
100
AcDbBlockReference
  2
_OPEN
 10
417.8901955119366
 20
381.5548827919685
 30
0.0000000000000000
 41
2.000000000000000
 42
2.000000000000000
 43
2.000000000000000
 50
165.0000000000000
  0
MTEXT
  5
1B7
100
AcDbEntity
  8
MAIN0
  6
BYBLOCK
 62
0
100
AcDbMText
 10
460.5026231978234
 20
362.7825595062507
 30
0.0000000000000000
 40
3.099999904632568
 41
0.0000000000000000
 71
     5
 72
     1
  1
\A1;45\U+00B0
 11
0.7933533402908213
 21
-0.6087614290092600
 31
0.0000000000000000
  7
STANDARD
  0
ENDBLK
  5
1B8
100
AcDbEntity
  8
MAIN0
  6
CONTINUOUS
 62
3
100
AcDbBlockEnd
  0
BLOCK
  5
1BA
100
AcDbEntity
  8
MAIN0
  6
CONTINUOUS
 62
3
100
AcDbBlockBegin
  2
*D21
 70
    65
 10
0.0
 20
0.0
 30
0.0
  0
LINE
  5
1BB
100
AcDbEntity
  8
MAIN0
  6
BYBLOCK
 62
0
100
AcDbLine
 10
414.2787694747416
 20
368.0768573333796
 30
0.0000000000000000
 11
418.4078336021416
 21
383.4867344445466
 31
0.0000000000000000
  0
LINE
  5
1BC
100
AcDbEntity
  8
MAIN0
  6
BYBLOCK
 62
0
100
AcDbLine
 10
387.2968398998963
 20
385.6970722095297
 30
0.0000000000000000
 11
387.2968398998963
 21
387.5825744678729
 31
0.0000000000000000
  0
ARC
  5
1BD
100
AcDbEntity
  8
MAIN0
  6
BYBLOCK
 62
0
100
AcDbCircle
 10
387.2968398998962
 20
267.3789252738114
 30
0.0000000000000000
 40
118.2036491940615
100
AcDbArc
 50
75.96944180494828
 51
89.03055819505168
  0
INSERT
  5
1BE
100
AcDbEntity
  8
MAIN0
  6
BYBLOCK
 62
0
100
AcDbBlockReference
  2
_OPEN
 10
417.8901955119366
 20
381.5548827919685
 30
0.0000000000000000
 41
2.000000000000000
 42
2.000000000000000
 43
2.000000000000000
 50
345.0000000000000
  0
INSERT
  5
1BF
100
AcDbEntity
  8
MAIN0
  6
BYBLOCK
 62
0
100
AcDbBlockReference
  2
_OPEN
 10
387.2968398998963
 20
385.5825744678729
 30
0.0000000000000000
 41
2.000000000000000
 42
2.000000000000000
 43
2.000000000000000
 50
180.0000000000000
  0
MTEXT
  5
1C0
100
AcDbEntity
  8
MAIN0
  6
BYBLOCK
 62
0
100
AcDbMText
 10
402.9930908235390
 20
386.6037877814368
 30
0.0000000000000000
 40
3.099999904632568
 41
0.0000000000000000
 71
     5
 72
     1
  1
\A1;15\U+00B0
 11
0.9914448613738103
 21
-0.1305261922200526
 31
0.0000000000000000
  7
STANDARD
  0
ENDBLK
  5
1C1
100
AcDbEntity
  8
MAIN0
  6
CONTINUOUS
 62
3
100
AcDbBlockEnd
  0
BLOCK
  5
1C7
100
AcDbEntity
  8
MAIN0
  6
CONTINUOUS
 62
3
100
AcDbBlockBegin
  2
*D22
 70
    65
 10
0.0
 20
0.0
 30
0.0
  0
LINE
  5
1C8
100
AcDbEntity
  8
MAIN0
  6
BYBLOCK
 62
0
100
AcDbLine
 10
387.2968398998963
 20
267.3789252738114
 30
0.0000000000000000
 11
445.7495050907633
 21
232.6329048961566
 31
0.0000000000000000
  0
INSERT
  5
1C9
100
AcDbEntity
  8
MAIN0
  6
BYBLOCK
 62
0
100
AcDbBlockReference
  2
_OPEN
 10
447.4687011257888
 20
231.6109631203433
 30
0.0000000000000000
 41
2.000000000000000
 42
2.000000000000000
 43
2.000000000000000
 50
329.2714782403127
  0
MTEXT
  5
1CA
100
AcDbEntity
  8
MAIN0
  6
BYBLOCK
 62
0
100
AcDbMText
 10
440.2152738785392
 20
238.3074538007962
 30
0.0000000000000000
 40
3.099999904632568
 41
0.0000000000000000
 71
     5
 72
     1
  1
\A1;Ｒ70
 11
0.8595980175127505
 21
-0.5109708879066880
 31
0.0000000000000000
  7
KNJYOKO
  0
ARC
  5
1CB
100
AcDbEntity
  8
MAIN0
  6
BYBLOCK
 62
0
100
AcDbCircle
 10
387.2968398998963
 20
267.3789252738114
 30
0.0000000000000000
 40
70.00000000000000
100
AcDbArc
 50
326.0323473470270
 51
330.9085005121151
  0
ENDBLK
  5
1CC
100
AcDbEntity
  8
MAIN0
  6
CONTINUOUS
 62
3
100
AcDbBlockEnd
  0
BLOCK
  5
1CF
100
AcDbEntity
  8
MAIN0
  6
CONTINUOUS
 62
3
100
AcDbBlockBegin
  2
*D23
 70
    65
 10
0.0
 20
0.0
 30
0.0
  0
LINE
  5
1D0
100
AcDbEntity
  8
MAIN0
  6
BYBLOCK
 62
0
100
AcDbLine
 10
387.2968398998963
 20
158.4318584239172
 30
0.0000000000000000
 11
387.2968398998962
 21
102.0760744559925
 31
0.0000000000000000
  0
LINE
  5
1D1
100
AcDbEntity
  8
MAIN0
  6
BYBLOCK
 62
0
100
AcDbLine
 10
443.2981907618583
 20
211.3775744119610
 30
0.0000000000000000
 11
504.1836066627608
 21
150.4921585111800
 31
0.0000000000000000
  0
ARC
  5
1D2
100
AcDbEntity
  8
MAIN0
  6
BYBLOCK
 62
0
100
AcDbCircle
 10
387.2968398998963
 20
267.3789252738113
 30
0.0000000000000000
 40
163.3028508178188
100
AcDbArc
 50
270.7017119324757
 51
314.2982880675814
  0
INSERT
  5
1D3
100
AcDbEntity
  8
MAIN0
  6
BYBLOCK
 62
0
100
AcDbBlockReference
  2
_OPEN
 10
387.2968398998962
 20
104.0760744559925
 30
0.0000000000000000
 41
2.000000000000000
 42
2.000000000000000
 43
2.000000000000000
 50
180.0000000000000
  0
INSERT
  5
1D4
100
AcDbEntity
  8
MAIN0
  6
BYBLOCK
 62
0
100
AcDbBlockReference
  2
_OPEN
 10
502.7693931003863
 20
151.9063720735517
 30
0.0000000000000000
 41
2.000000000000000
 42
2.000000000000000
 43
2.000000000000000
 50
45.00000000005713
  0
MTEXT
  5
1D5
100
AcDbEntity
  8
MAIN0
  6
BYBLOCK
 62
0
100
AcDbMText
 10
449.0056343478370
 20
118.4007168001094
 30
0.0000000000000000
 40
3.099999904632568
 41
0.0000000000000000
 71
     5
 72
     1
  1
\A1;45\U+00B0
 11
0.9238795325110959
 21
0.3826834323655505
 31
0.0000000000000000
  7
STANDARD
  0
ENDBLK
  5
1D6
100
AcDbEntity
  8
MAIN0
  6
CONTINUOUS
 62
3
100
AcDbBlockEnd
  0
BLOCK
  5
1DF
100
AcDbEntity
  8
MAIN0
  6
CONTINUOUS
 62
3
100
AcDbBlockBegin
  2
*D24
 70
    65
 10
0.0
 20
0.0
 30
0.0
  0
LINE
  5
1E0
100
AcDbEntity
  8
MAIN0
  6
BYBLOCK
 62
0
100
AcDbLine
 10
420.9630034151667
 20
127.4674195455985
 30
0.0000000000000000
 11
390.7531113950608
 21
110.0257302555996
 31
0.0000000000000000
  0
LINE
  5
1E1
100
AcDbEntity
  8
MAIN0
  6
BYBLOCK
 62
0
100
AcDbLine
 10
391.4851622026297
 20
112.7577810631685
 30
0.0000000000000000
 11
324.4851622026292
 21
228.8051851702836
 31
0.0000000000000000
  0
INSERT
  5
1E2
100
AcDbEntity
  8
MAIN0
  6
BYBLOCK
 62
0
100
AcDbBlockReference
  2
_OPEN
 10
392.4851622026297
 20
111.0257302555997
 30
0.0000000000000000
 41
2.000000000000000
 42
2.000000000000000
 43
2.000000000000000
 50
300.0000000000002
  0
INSERT
  5
1E3
100
AcDbEntity
  8
MAIN0
  6
BYBLOCK
 62
0
100
AcDbBlockReference
  2
_OPEN
 10
323.4851622026292
 20
230.5372359778525
 30
0.0000000000000000
 41
2.000000000000000
 42
2.000000000000000
 43
2.000000000000000
 50
120.0000000000002
  0
LINE
  5
1E4
100
AcDbEntity
  8
MAIN0
  6
BYBLOCK
 62
0
100
AcDbLine
 10
386.6040195665449
 20
266.9789252678510
 30
0.0000000000000000
 11
321.7531113950603
 21
229.5372359778525
 31
0.0000000000000000
  0
MTEXT
  5
1E5
100
AcDbEntity
  8
MAIN0
  6
BYBLOCK
 62
0
100
AcDbMText
 10
363.1994011613415
 20
157.6501564127992
 30
0.0000000000000000
 40
3.099999904632568
 41
0.0000000000000000
 71
     5
 72
     1
  1
\A1;138
 11
-0.5000000000000018
 21
0.8660254037844376
 31
0.0000000000000000
  7
STANDARD
  0
ENDBLK
  5
1E6
100
AcDbEntity
  8
MAIN0
  6
CONTINUOUS
 62
3
100
AcDbBlockEnd
  0
BLOCK
  5
1FD
100
AcDbEntity
  8
MAIN0
  6
CONTINUOUS
 62
3
100
AcDbBlockBegin
  2
D25
 70
    64
 10
0.0
 20
0.0
 30
0.0
  0
LINE
  5
1FE
100
AcDbEntity
  8
MAIN0
  6
BYBLOCK
 62
0
100
AcDbLine
 10
17.44443737124290
 20
-60.75660103475133
 30
0.0000000000000000
 11
17.44443737124269
 21
-82.50000000000014
 31
0.0000000000000000
  0
LINE
  5
1FF
100
AcDbEntity
  8
MAIN0
  6
BYBLOCK
 62
0
100
AcDbLine
 10
18.04443739508456
 20
-80.50000000000014
 30
0.0000000000000000
 11
17.44443737124269
 21
-82.50000000000014
 31
0.0000000000000000
  0
LINE
  5
200
100
AcDbEntity
  8
MAIN0
  6
BYBLOCK
 62
0
100
AcDbLine
 10
17.44443737124269
 20
-82.50000000000014
 30
0.0000000000000000
 11
16.84443734740085
 21
-80.50000000000014
 31
0.0000000000000000
  0
LINE
  5
201
100
AcDbEntity
  8
MAIN0
  6
BYBLOCK
 62
0
100
AcDbLine
 10
-15.56934510082807
 20
-82.49999999999982
 30
0.0000000000000000
 11
19.44443737124267
 21
-82.50000000000016
 31
0.0000000000000000
  0
MTEXT
  5
202
100
AcDbEntity
  8
MAIN0
  6
BYBLOCK
 62
0
100
AcDbMText
 10
15.39443741892656
 20
-67.20660103773156
 30
0.0000000000000000
 40
3.099999904632568
 41
0.0000000000000000
 71
     5
 72
     1
  1
\A1;\U+2205165
 11
6.123233995736766e-017
 21
1.000000000000000
 31
0.0000000000000000
  7
STANDARD
  0
ENDBLK
  5
203
100
AcDbEntity
  8
MAIN0
  6
CONTINUOUS
 62
3
100
AcDbBlockEnd
  0
BLOCK
  5
205
100
AcDbEntity
  8
MAIN0
  6
CONTINUOUS
 62
3
100
AcDbBlockBegin
  2
*D26
 70
    65
 10
0.0
 20
0.0
 30
0.0
  0
LINE
  5
206
100
AcDbEntity
  8
MAIN0
  6
BYBLOCK
 62
0
100
AcDbLine
 10
220.4009214307782
 20
267.3789252738131
 30
0.0000000000000000
 11
254.2943625761869
 21
267.3789252738131
 31
0.0000000000000000
  0
LINE
  5
207
100
AcDbEntity
  8
MAIN0
  6
BYBLOCK
 62
0
100
AcDbLine
 10
252.2943625761869
 20
269.3789252738131
 30
0.0000000000000000
 11
252.2943625761869
 21
309.8789252738131
 31
0.0000000000000000
  0
INSERT
  5
208
100
AcDbEntity
  8
MAIN0
  6
BYBLOCK
 62
0
100
AcDbBlockReference
  2
_OPEN
 10
252.2943625761869
 20
267.3789252738131
 30
0.0000000000000000
 41
2.000000000000000
 42
2.000000000000000
 43
2.000000000000000
 50
270.0000000000000
  0
INSERT
  5
209
100
AcDbEntity
  8
MAIN0
  6
BYBLOCK
 62
0
100
AcDbBlockReference
  2
_OPEN
 10
252.2943625761869
 20
311.8789252738131
 30
0.0000000000000000
 41
2.000000000000000
 42
2.000000000000000
 43
2.000000000000000
 50
90.00000000000000
  0
LINE
  5
20A
100
AcDbEntity
  8
MAIN0
  6
BYBLOCK
 62
0
100
AcDbLine
 10
209.7315763180311
 20
311.8789252738131
 30
0.0000000000000000
 11
254.2943625761869
 21
311.8789252738131
 31
0.0000000000000000
  0
MTEXT
  5
20B
100
AcDbEntity
  8
MAIN0
  6
BYBLOCK
 62
0
100
AcDbMText
 10
250.2443626238706
 20
297.5744625621539
 30
0.0000000000000000
 40
3.099999904632568
 41
0.0000000000000000
 71
     5
 72
     1
  1
\A1;MIN 41.9
 11
6.123233995736766e-017
 21
1.000000000000000
 31
0.0000000000000000
  7
STANDARD
  0
ENDBLK
  5
20C
100
AcDbEntity
  8
MAIN0
  6
CONTINUOUS
 62
3
100
AcDbBlockEnd
  0
BLOCK
  5
20E
100
AcDbEntity
  8
MAIN0
  6
CONTINUOUS
 62
3
100
AcDbBlockBegin
  2
*D27
 70
    65
 10
0.0
 20
0.0
 30
0.0
  0
LINE
  5
20F
100
AcDbEntity
  8
MAIN0
  6
BYBLOCK
 62
0
100
AcDbLine
 10
209.7315763180311
 20
311.8789252738131
 30
0.0000000000000000
 11
254.2943625761869
 21
311.8789252738131
 31
0.0000000000000000
  0
LINE
  5
210
100
AcDbEntity
  8
MAIN0
  6
BYBLOCK
 62
0
100
AcDbLine
 10
252.2943625761869
 20
311.8789252738131
 30
0.0000000000000000
 11
252.2943625761869
 21
321.1289252738128
 31
0.0000000000000000
  0
INSERT
  5
211
100
AcDbEntity
  8
MAIN0
  6
BYBLOCK
 62
0
100
AcDbBlockReference
  2
_OPEN
 10
252.2943625761869
 20
311.8789252738131
 30
0.0000000000000000
 41
2.000000000000000
 42
2.000000000000000
 43
2.000000000000000
 50
90.00000000000000
  0
INSERT
  5
212
100
AcDbEntity
  8
MAIN0
  6
BYBLOCK
 62
0
100
AcDbBlockReference
  2
_OPEN
 10
252.2943625761869
 20
321.1289252738128
 30
0.0000000000000000
 41
2.000000000000000
 42
2.000000000000000
 43
2.000000000000000
 50
270.0000000000000
  0
LINE
  5
213
100
AcDbEntity
  8
MAIN0
  6
BYBLOCK
 62
0
100
AcDbLine
 10
252.2943625761869
 20
309.8789252738131
 30
0.0000000000000000
 11
252.2943625761869
 21
308.8789252738131
 31
0.0000000000000000
  0
LINE
  5
214
100
AcDbEntity
  8
MAIN0
  6
BYBLOCK
 62
0
100
AcDbLine
 10
252.2943625761869
 20
323.1289252738128
 30
0.0000000000000000
 11
252.2943625761869
 21
329.8363742331634
 31
0.0000000000000000
  0
LINE
  5
215
100
AcDbEntity
  8
MAIN0
  6
BYBLOCK
 62
0
100
AcDbLine
 10
246.5106764292465
 20
321.1289252738128
 30
0.0000000000000000
 11
254.2943625761869
 21
321.1289252738128
 31
0.0000000000000000
  0
MTEXT
  5
216
100
AcDbEntity
  8
MAIN0
  6
BYBLOCK
 62
0
100
AcDbMText
 10
250.2443626238706
 20
321.9363739147141
 30
0.0000000000000000
 40
3.099999904632568
 41
0.0000000000000000
 71
     5
 72
     1
  1
\A1;MAX 9.25
 11
6.123233995736766e-017
 21
1.000000000000000
 31
0.0000000000000000
  7
STANDARD
  0
ENDBLK
  5
217
100
AcDbEntity
  8
MAIN0
  6
CONTINUOUS
 62
3
100
AcDbBlockEnd
  0
BLOCK
  5
21B
100
AcDbEntity
  8
MAIN0
  6
CONTINUOUS
 62
3
100
AcDbBlockBegin
  2
*D28
 70
    65
 10
0.0
 20
0.0
 30
0.0
  0
LINE
  5
21C
100
AcDbEntity
  8
MAIN0
  6
BYBLOCK
 62
0
100
AcDbLine
 10
204.9315763061094
 20
288.0696800782741
 30
0.0000000000000000
 11
206.9315763061097
 21
288.0696800782741
 31
0.0000000000000000
  0
INSERT
  5
21D
100
AcDbEntity
  8
MAIN0
  6
BYBLOCK
 62
0
100
AcDbBlockReference
  2
_OPEN
 10
204.9315763061094
 20
288.0696800782741
 30
0.0000000000000000
 41
2.000000000000000
 42
2.000000000000000
 43
2.000000000000000
 50
0.0000000000000000
  0
INSERT
  5
21E
100
AcDbEntity
  8
MAIN0
  6
BYBLOCK
 62
0
100
AcDbBlockReference
  2
_OPEN
 10
206.9315763061097
 20
288.0696800782741
 30
0.0000000000000000
 41
2.000000000000000
 42
2.000000000000000
 43
2.000000000000000
 50
180.0000000000000
  0
LINE
  5
21F
100
AcDbEntity
  8
MAIN0
  6
BYBLOCK
 62
0
100
AcDbLine
 10
202.9315763061094
 20
288.0696800782741
 30
0.0000000000000000
 11
200.4193282668638
 21
288.0696800782741
 31
0.0000000000000000
  0
LINE
  5
220
100
AcDbEntity
  8
MAIN0
  6
BYBLOCK
 62
0
100
AcDbLine
 10
208.9315763061097
 20
288.0696800782741
 30
0.0000000000000000
 11
209.9315763061097
 21
288.0696800782741
 31
0.0000000000000000
  0
LINE
  5
221
100
AcDbEntity
  8
MAIN0
  6
BYBLOCK
 62
0
100
AcDbLine
 10
206.9315763061097
 20
295.9789252618922
 30
0.0000000000000000
 11
206.9315763061097
 21
286.0696800782741
 31
0.0000000000000000
  0
MTEXT
  5
222
100
AcDbEntity
  8
MAIN0
  6
BYBLOCK
 62
0
100
AcDbMText
 10
201.4693283538107
 20
290.1196800305904
 30
0.0000000000000000
 40
3.099999904632568
 41
0.0000000000000000
 71
     5
 72
     1
  1
\A1;2
 11
1.000000000000000
 21
0.0000000000000000
 31
0.0000000000000000
  7
STANDARD
  0
ENDBLK
  5
223
100
AcDbEntity
  8
MAIN0
  6
CONTINUOUS
 62
3
100
AcDbBlockEnd
  0
BLOCK
  5
225
100
AcDbEntity
  8
MAIN0
  6
CONTINUOUS
 62
3
100
AcDbBlockBegin
  2
*D29
 70
    65
 10
0.0
 20
0.0
 30
0.0
  0
LINE
  5
226
100
AcDbEntity
  8
MAIN0
  6
BYBLOCK
 62
0
100
AcDbLine
 10
204.1315762941887
 20
296.7789252738132
 30
0.0000000000000000
 11
186.9839130074842
 21
296.7789252738131
 31
0.0000000000000000
  0
LINE
  5
227
100
AcDbEntity
  8
MAIN0
  6
BYBLOCK
 62
0
100
AcDbLine
 10
188.9839130074842
 20
298.7789252738131
 30
0.0000000000000000
 11
188.9839130074842
 21
309.7789252738131
 31
0.0000000000000000
  0
INSERT
  5
228
100
AcDbEntity
  8
MAIN0
  6
BYBLOCK
 62
0
100
AcDbBlockReference
  2
_OPEN
 10
188.9839130074842
 20
296.7789252738131
 30
0.0000000000000000
 41
2.000000000000000
 42
2.000000000000000
 43
2.000000000000000
 50
270.0000000000000
  0
INSERT
  5
229
100
AcDbEntity
  8
MAIN0
  6
BYBLOCK
 62
0
100
AcDbBlockReference
  2
_OPEN
 10
188.9839130074842
 20
311.7789252738131
 30
0.0000000000000000
 41
2.000000000000000
 42
2.000000000000000
 43
2.000000000000000
 50
90.00000000000000
  0
LINE
  5
22A
100
AcDbEntity
  8
MAIN0
  6
BYBLOCK
 62
0
100
AcDbLine
 10
204.1315762941887
 20
311.7789252738132
 30
0.0000000000000000
 11
186.9839130074842
 21
311.7789252738131
 31
0.0000000000000000
  0
MTEXT
  5
22B
100
AcDbEntity
  8
MAIN0
  6
BYBLOCK
 62
0
100
AcDbMText
 10
186.9339130551679
 20
304.2789252738131
 30
0.0000000000000000
 40
3.099999904632568
 41
0.0000000000000000
 71
     5
 72
     1
  1
\A1;15
 11
6.123233995736766e-017
 21
1.000000000000000
 31
0.0000000000000000
  7
STANDARD
  0
ENDBLK
  5
22C
100
AcDbEntity
  8
MAIN0
  6
CONTINUOUS
 62
3
100
AcDbBlockEnd
  0
BLOCK
  5
22E
100
AcDbEntity
  8
MAIN0
  6
CONTINUOUS
 62
3
100
AcDbBlockBegin
  2
*D30
 70
    65
 10
0.0
 20
0.0
 30
0.0
  0
LINE
  5
22F
100
AcDbEntity
  8
MAIN0
  6
BYBLOCK
 62
0
100
AcDbLine
 10
204.1315762941887
 20
296.7789252738132
 30
0.0000000000000000
 11
186.9839130074842
 21
296.7789252738131
 31
0.0000000000000000
  0
LINE
  5
230
100
AcDbEntity
  8
MAIN0
  6
BYBLOCK
 62
0
100
AcDbLine
 10
188.9839130074842
 20
294.7789252738131
 30
0.0000000000000000
 11
188.9839130074842
 21
269.3789252738134
 31
0.0000000000000000
  0
INSERT
  5
231
100
AcDbEntity
  8
MAIN0
  6
BYBLOCK
 62
0
100
AcDbBlockReference
  2
_OPEN
 10
188.9839130074842
 20
296.7789252738131
 30
0.0000000000000000
 41
2.000000000000000
 42
2.000000000000000
 43
2.000000000000000
 50
90.00000000000000
  0
INSERT
  5
232
100
AcDbEntity
  8
MAIN0
  6
BYBLOCK
 62
0
100
AcDbBlockReference
  2
_OPEN
 10
188.9839130074842
 20
267.3789252738134
 30
0.0000000000000000
 41
2.000000000000000
 42
2.000000000000000
 43
2.000000000000000
 50
270.0000000000000
  0
LINE
  5
233
100
AcDbEntity
  8
MAIN0
  6
BYBLOCK
 62
0
100
AcDbLine
 10
188.9839130074842
 20
267.3789252738134
 30
0.0000000000000000
 11
188.9839130074842
 21
232.4957694510595
 31
0.0000000000000000
  0
MTEXT
  5
234
100
AcDbEntity
  8
MAIN0
  6
BYBLOCK
 62
0
100
AcDbMText
 10
186.9339130551679
 20
240.3957679351454
 30
0.0000000000000000
 40
3.099999904632568
 41
0.0000000000000000
 71
     5
 72
     1
  1
\A1;MAX 29.4
 11
6.123233995736766e-017
 21
1.000000000000000
 31
0.0000000000000000
  7
STANDARD
  0
ENDBLK
  5
235
100
AcDbEntity
  8
MAIN0
  6
CONTINUOUS
 62
3
100
AcDbBlockEnd
  0
BLOCK
  5
238
100
AcDbEntity
  8
MAIN0
  6
CONTINUOUS
 62
3
100
AcDbBlockBegin
  2
*D31
 70
    65
 10
0.0
 20
0.0
 30
0.0
  0
LINE
  5
239
100
AcDbEntity
  8
MAIN0
  6
BYBLOCK
 62
0
100
AcDbLine
 10
204.8315763061094
 20
209.0294143133317
 30
0.0000000000000000
 11
205.8315763061094
 21
209.0294143133317
 31
0.0000000000000000
  0
INSERT
  5
23A
100
AcDbEntity
  8
MAIN0
  6
BYBLOCK
 62
0
100
AcDbBlockReference
  2
_OPEN
 10
204.8315763061094
 20
209.0294143133317
 30
0.0000000000000000
 41
2.000000000000000
 42
2.000000000000000
 43
2.000000000000000
 50
0.0000000000000000
  0
INSERT
  5
23B
100
AcDbEntity
  8
MAIN0
  6
BYBLOCK
 62
0
100
AcDbBlockReference
  2
_OPEN
 10
205.8315763061094
 20
209.0294143133317
 30
0.0000000000000000
 41
2.000000000000000
 42
2.000000000000000
 43
2.000000000000000
 50
180.0000000000000
  0
LINE
  5
23C
100
AcDbEntity
  8
MAIN0
  6
BYBLOCK
 62
0
100
AcDbLine
 10
202.8315763061094
 20
209.0294143133317
 30
0.0000000000000000
 11
201.8315763061094
 21
209.0294143133317
 31
0.0000000000000000
  0
LINE
  5
23D
100
AcDbEntity
  8
MAIN0
  6
BYBLOCK
 62
0
100
AcDbLine
 10
207.8315763061094
 20
209.0294143133317
 30
0.0000000000000000
 11
214.5603265349912
 21
209.0294143133317
 31
0.0000000000000000
  0
LINE
  5
23E
100
AcDbEntity
  8
MAIN0
  6
BYBLOCK
 62
0
100
AcDbLine
 10
205.8315763061094
 20
218.5789252618815
 30
0.0000000000000000
 11
205.8315763061094
 21
207.0294143133317
 31
0.0000000000000000
  0
MTEXT
  5
23F
100
AcDbEntity
  8
MAIN0
  6
BYBLOCK
 62
0
100
AcDbMText
 10
211.9103262301942
 20
211.0794142656480
 30
0.0000000000000000
 40
3.099999904632568
 41
0.0000000000000000
 71
     5
 72
     1
  1
\A1;0.1
 11
1.000000000000000
 21
0.0000000000000000
 31
0.0000000000000000
  7
STANDARD
  0
ENDBLK
  5
240
100
AcDbEntity
  8
MAIN0
  6
CONTINUOUS
 62
3
100
AcDbBlockEnd
  0
BLOCK
  5
246
100
AcDbEntity
  8
MAIN0
  6
CONTINUOUS
 62
3
100
AcDbBlockBegin
  2
D32
 70
    64
 10
0.0
 20
0.0
 30
0.0
  0
LINE
  5
247
100
AcDbEntity
  8
MAIN0
  6
BYBLOCK
 62
0
100
AcDbLine
 10
0.4974100461786009
 20
-30.76223502223297
 30
0.0000000000000000
 11
0.4974100461784303
 21
-48.00000000001084
 31
0.0000000000000000
  0
LINE
  5
248
100
AcDbEntity
  8
MAIN0
  6
BYBLOCK
 62
0
100
AcDbLine
 10
1.097410070020308
 20
-46.00000000001084
 30
0.0000000000000000
 11
0.4974100461784303
 21
-48.00000000001084
 31
0.0000000000000000
  0
LINE
  5
249
100
AcDbEntity
  8
MAIN0
  6
BYBLOCK
 62
0
100
AcDbLine
 10
0.4974100461784303
 20
-48.00000000001084
 30
0.0000000000000000
 11
-0.1025899776634077
 21
-46.00000000001083
 31
0.0000000000000000
  0
LINE
  5
24A
100
AcDbEntity
  8
MAIN0
  6
BYBLOCK
 62
0
100
AcDbLine
 10
-12.96934510082697
 20
-48.00000000001071
 30
0.0000000000000000
 11
2.497410046178430
 21
-48.00000000001085
 31
0.0000000000000000
  0
MTEXT
  5
24B
100
AcDbEntity
  8
MAIN0
  6
BYBLOCK
 62
0
100
AcDbMText
 10
-1.552589906137740
 20
-36.16223502446815
 30
0.0000000000000000
 40
3.099999904632568
 41
0.0000000000000000
 71
     5
 72
     1
  1
\A1;\U+220596
 11
6.123233995736766e-017
 21
1.000000000000000
 31
0.0000000000000000
  7
STANDARD
  0
ENDBLK
  5
24C
100
AcDbEntity
  8
MAIN0
  6
CONTINUOUS
 62
3
100
AcDbBlockEnd
  0
BLOCK
  5
24E
100
AcDbEntity
  8
MAIN0
  6
CONTINUOUS
 62
3
100
AcDbBlockBegin
  2
*D33
 70
    65
 10
0.0
 20
0.0
 30
0.0
  0
LINE
  5
24F
100
AcDbEntity
  8
MAIN0
  6
BYBLOCK
 62
0
100
AcDbLine
 10
358.5841247396699
 20
284.8789252738114
 30
0.0000000000000000
 11
369.2647707036211
 21
284.8789252738114
 31
0.0000000000000000
  0
LINE
  5
250
100
AcDbEntity
  8
MAIN0
  6
BYBLOCK
 62
0
100
AcDbLine
 10
367.2647707036211
 20
282.8789252738114
 30
0.0000000000000000
 11
367.2647707036211
 21
251.8789252738114
 31
0.0000000000000000
  0
INSERT
  5
251
100
AcDbEntity
  8
MAIN0
  6
BYBLOCK
 62
0
100
AcDbBlockReference
  2
_OPEN
 10
367.2647707036211
 20
284.8789252738114
 30
0.0000000000000000
 41
2.000000000000000
 42
2.000000000000000
 43
2.000000000000000
 50
90.00000000000000
  0
INSERT
  5
252
100
AcDbEntity
  8
MAIN0
  6
BYBLOCK
 62
0
100
AcDbBlockReference
  2
_OPEN
 10
367.2647707036211
 20
249.8789252738114
 30
0.0000000000000000
 41
2.000000000000000
 42
2.000000000000000
 43
2.000000000000000
 50
270.0000000000000
  0
LINE
  5
253
100
AcDbEntity
  8
MAIN0
  6
BYBLOCK
 62
0
100
AcDbLine
 10
358.5841247396699
 20
249.8789252738114
 30
0.0000000000000000
 11
369.2647707036211
 21
249.8789252738114
 31
0.0000000000000000
  0
MTEXT
  5
254
100
AcDbEntity
  8
MAIN0
  6
BYBLOCK
 62
0
100
AcDbMText
 10
365.2147707513048
 20
267.3789252738114
 30
0.0000000000000000
 40
3.099999904632568
 41
0.0000000000000000
 71
     5
 72
     1
  1
\A1;35
 11
6.123233995736766e-017
 21
1.000000000000000
 31
0.0000000000000000
  7
STANDARD
  0
ENDBLK
  5
255
100
AcDbEntity
  8
MAIN0
  6
CONTINUOUS
 62
3
100
AcDbBlockEnd
  0
BLOCK
  5
2A8
100
AcDbEntity
  8
MAIN0
  6
CONTINUOUS
 62
3
100
AcDbBlockBegin
  2
*D34
 70
    65
 10
0.0
 20
0.0
 30
0.0
  0
LINE
  5
2A9
100
AcDbEntity
  8
MAIN0
  6
BYBLOCK
 62
0
100
AcDbLine
 10
209.3797417311249
 20
43.55114936148215
 30
0.0000000000000000
 11
240.2122761585465
 21
43.55114936148215
 31
0.0000000000000000
  0
LINE
  5
2AA
100
AcDbEntity
  8
MAIN0
  6
BYBLOCK
 62
0
100
AcDbLine
 10
238.2122761585465
 20
45.55114936148215
 30
0.0000000000000000
 11
238.2122761585465
 21
72.55114936148215
 31
0.0000000000000000
  0
INSERT
  5
2AB
100
AcDbEntity
  8
MAIN0
  6
BYBLOCK
 62
0
100
AcDbBlockReference
  2
_OPEN
 10
238.2122761585465
 20
43.55114936148215
 30
0.0000000000000000
 41
2.000000000000000
 42
2.000000000000000
 43
2.000000000000000
 50
270.0000000000000
  0
INSERT
  5
2AC
100
AcDbEntity
  8
MAIN0
  6
BYBLOCK
 62
0
100
AcDbBlockReference
  2
_OPEN
 10
238.2122761585465
 20
74.55114936148215
 30
0.0000000000000000
 41
2.000000000000000
 42
2.000000000000000
 43
2.000000000000000
 50
90.00000000000000
  0
LINE
  5
2AD
100
AcDbEntity
  8
MAIN0
  6
BYBLOCK
 62
0
100
AcDbLine
 10
209.7655509142460
 20
74.55114936148215
 30
0.0000000000000000
 11
240.2122761585465
 21
74.55114936148215
 31
0.0000000000000000
  0
MTEXT
  5
2AE
100
AcDbEntity
  8
MAIN0
  6
BYBLOCK
 62
0
100
AcDbMText
 10
236.1622762062302
 20
59.05114936148215
 30
0.0000000000000000
 40
3.099999904632568
 41
0.0000000000000000
 71
     5
 72
     1
  1
\A1;31
 11
6.123233995736766e-017
 21
1.000000000000000
 31
0.0000000000000000
  7
STANDARD
  0
ENDBLK
  5
2AF
100
AcDbEntity
  8
MAIN0
  6
CONTINUOUS
 62
3
100
AcDbBlockEnd
  0
BLOCK
  5
395
100
AcDbEntity
  8
MAIN0
  6
CONTINUOUS
 62
3
100
AcDbBlockBegin
  2
*D35
 70
    65
 10
0.0
 20
0.0
 30
0.0
  0
LINE
  5
396
100
AcDbEntity
  8
MAIN0
  6
BYBLOCK
 62
0
100
AcDbLine
 10
421.8418273583586
 20
160.5452518489250
 30
0.0000000000000000
 11
428.9930488578391
 21
148.1589728756457
 31
0.0000000000000000
  0
LINE
  5
397
100
AcDbEntity
  8
MAIN0
  6
BYBLOCK
 62
0
100
AcDbLine
 10
429.7250996654080
 20
150.8910236832145
 30
0.0000000000000000
 11
466.9641920281391
 21
172.3910236832146
 31
0.0000000000000000
  0
INSERT
  5
398
100
AcDbEntity
  8
MAIN0
  6
BYBLOCK
 62
0
100
AcDbBlockReference
  2
_OPEN
 10
427.9930488578392
 20
149.8910236832145
 30
0.0000000000000000
 41
2.000000000000000
 42
2.000000000000000
 43
2.000000000000000
 50
209.9999999999999
  0
INSERT
  5
399
100
AcDbEntity
  8
MAIN0
  6
BYBLOCK
 62
0
100
AcDbBlockReference
  2
_OPEN
 10
468.6962428357080
 20
173.3910236832146
 30
0.0000000000000000
 41
2.000000000000000
 42
2.000000000000000
 43
2.000000000000000
 50
29.99999999999996
  0
LINE
  5
39A
100
AcDbEntity
  8
MAIN0
  6
BYBLOCK
 62
0
100
AcDbLine
 10
462.5450213362274
 20
184.0452518489251
 30
0.0000000000000000
 11
469.6962428357080
 21
171.6589728756458
 31
0.0000000000000000
  0
MTEXT
  5
39B
100
AcDbEntity
  8
MAIN0
  6
BYBLOCK
 62
0
100
AcDbMText
 10
447.3196458706154
 20
163.4163757196774
 30
0.0000000000000000
 40
3.099999904632568
 41
0.0000000000000000
 71
     5
 72
     1
  1
\A1;47
 11
0.8660254037844388
 21
0.4999999999999997
 31
0.0000000000000000
  7
STANDARD
  0
ENDBLK
  5
39C
100
AcDbEntity
  8
MAIN0
  6
CONTINUOUS
 62
3
100
AcDbBlockEnd
  0
BLOCK
  5
39E
100
AcDbEntity
  8
MAIN0
  6
CONTINUOUS
 62
3
100
AcDbBlockBegin
  2
*D36
 70
    65
 10
0.0
 20
0.0
 30
0.0
  0
LINE
  5
39F
100
AcDbEntity
  8
MAIN0
  6
BYBLOCK
 62
0
100
AcDbLine
 10
423.0112848691242
 20
125.5196920229864
 30
0.0000000000000000
 11
428.2526329289596
 21
116.4414108831991
 31
0.0000000000000000
  0
LINE
  5
3A0
100
AcDbEntity
  8
MAIN0
  6
BYBLOCK
 62
0
100
AcDbLine
 10
428.9846837365285
 20
119.1734616907680
 30
0.0000000000000000
 11
494.8026144241458
 21
157.1734616907680
 31
0.0000000000000000
  0
INSERT
  5
3A1
100
AcDbEntity
  8
MAIN0
  6
BYBLOCK
 62
0
100
AcDbBlockReference
  2
_OPEN
 10
427.2526329289595
 20
118.1734616907680
 30
0.0000000000000000
 41
2.000000000000000
 42
2.000000000000000
 43
2.000000000000000
 50
210.0000000000000
  0
INSERT
  5
3A2
100
AcDbEntity
  8
MAIN0
  6
BYBLOCK
 62
0
100
AcDbBlockReference
  2
_OPEN
 10
496.5346652317146
 20
158.1734616907680
 30
0.0000000000000000
 41
2.000000000000000
 42
2.000000000000000
 43
2.000000000000000
 50
30.00000000000003
  0
LINE
  5
3A3
100
AcDbEntity
  8
MAIN0
  6
BYBLOCK
 62
0
100
AcDbLine
 10
492.1633256405072
 20
165.7448439598765
 30
0.0000000000000000
 11
497.5346652317146
 21
156.4414108831991
 31
0.0000000000000000
  0
MTEXT
  5
3A4
100
AcDbEntity
  8
MAIN0
  6
BYBLOCK
 62
0
100
AcDbMText
 10
460.8686491041790
 20
139.9488137272307
 30
0.0000000000000000
 40
3.099999904632568
 41
0.0000000000000000
 71
     5
 72
     1
  1
\A1;80
 11
0.8660254037844385
 21
0.5000000000000002
 31
0.0000000000000000
  7
STANDARD
  0
ENDBLK
  5
3A5
100
AcDbEntity
  8
MAIN0
  6
CONTINUOUS
 62
3
100
AcDbBlockEnd
  0
BLOCK
  5
3A7
100
AcDbEntity
  8
MAIN0
  6
CONTINUOUS
 62
3
100
AcDbBlockBegin
  2
*D37
 70
    65
 10
0.0
 20
0.0
 30
0.0
  0
LINE
  5
3A8
100
AcDbEntity
  8
MAIN0
  6
BYBLOCK
 62
0
100
AcDbLine
 10
408.4392249706467
 20
201.7592401380861
 30
0.0000000000000000
 11
433.5539616803954
 21
216.2592401380861
 31
0.0000000000000000
  0
INSERT
  5
3A9
100
AcDbEntity
  8
MAIN0
  6
BYBLOCK
 62
0
100
AcDbBlockReference
  2
_OPEN
 10
406.7071741630778
 20
200.7592401380861
 30
0.0000000000000000
 41
2.000000000000000
 42
2.000000000000000
 43
2.000000000000000
 50
210.0000000000000
  0
INSERT
  5
3AA
100
AcDbEntity
  8
MAIN0
  6
BYBLOCK
 62
0
100
AcDbBlockReference
  2
_OPEN
 10
435.2860124879643
 20
217.2592401380861
 30
0.0000000000000000
 41
2.000000000000000
 42
2.000000000000000
 43
2.000000000000000
 50
30.00000000000004
  0
MTEXT
  5
3AB
100
AcDbEntity
  8
MAIN0
  6
BYBLOCK
 62
0
100
AcDbMText
 10
419.9715933493629
 20
210.7845921745489
 30
0.0000000000000000
 40
3.099999904632568
 41
0.0000000000000000
 71
     5
 72
     1
  1
\A1;33
 11
0.8660254037844387
 21
0.4999999999999999
 31
0.0000000000000000
  7
STANDARD
  0
ENDBLK
  5
3AC
100
AcDbEntity
  8
MAIN0
  6
CONTINUOUS
 62
3
100
AcDbBlockEnd
  0
BLOCK
  5
3AE
100
AcDbEntity
  8
MAIN0
  6
CONTINUOUS
 62
3
100
AcDbBlockBegin
  2
*D38
 70
    65
 10
0.0
 20
0.0
 30
0.0
  0
LINE
  5
3AF
100
AcDbEntity
  8
MAIN0
  6
BYBLOCK
 62
0
100
AcDbLine
 10
336.0341422847106
 20
192.7975212027293
 30
0.0000000000000000
 11
438.5595375150822
 21
341.9603293448935
 31
0.0000000000000000
  0
INSERT
  5
3B0
100
AcDbEntity
  8
MAIN0
  6
BYBLOCK
 62
0
100
AcDbBlockReference
  2
_OPEN
 10
334.9012649893473
 20
191.1493133779540
 30
0.0000000000000000
 41
2.000000000000000
 42
2.000000000000000
 43
2.000000000000000
 50
235.4977466743596
  0
INSERT
  5
3B1
100
AcDbEntity
  8
MAIN0
  6
BYBLOCK
 62
0
100
AcDbBlockReference
  2
_OPEN
 10
439.6924148104454
 20
343.6085371696688
 30
0.0000000000000000
 41
2.000000000000000
 42
2.000000000000000
 43
2.000000000000000
 50
55.49774667435955
  0
MTEXT
  5
3B2
100
AcDbEntity
  8
MAIN0
  6
BYBLOCK
 62
0
100
AcDbMText
 10
421.0473595814555
 20
320.1029676555244
 30
0.0000000000000000
 40
3.099999904632568
 41
0.0000000000000000
 71
     5
 72
     1
  1
\A1;\U+2205185\H0.903226x;\U+00B10.2
 11
0.5664386476816112
 21
0.8241039123876476
 31
0.0000000000000000
  7
STANDARD
  0
ENDBLK
  5
3B3
100
AcDbEntity
  8
MAIN0
  6
CONTINUOUS
 62
3
100
AcDbBlockEnd
  0
BLOCK
  5
3B5
100
AcDbEntity
  8
MAIN0
  6
CONTINUOUS
 62
3
100
AcDbBlockBegin
  2
*D39
 70
    65
 10
0.0
 20
0.0
 30
0.0
  0
LINE
  5
3B6
100
AcDbEntity
  8
MAIN0
  6
BYBLOCK
 62
0
100
AcDbLine
 10
387.2968398998963
 20
267.3789252738114
 30
0.0000000000000000
 11
378.1667400084817
 21
319.5865997668664
 31
0.0000000000000000
  0
INSERT
  5
3B7
100
AcDbEntity
  8
MAIN0
  6
BYBLOCK
 62
0
100
AcDbBlockReference
  2
_OPEN
 10
377.8222079371076
 20
321.5567006911327
 30
0.0000000000000000
 41
2.000000000000000
 42
2.000000000000000
 43
2.000000000000000
 50
99.91959737149637
  0
MTEXT
  5
3B8
100
AcDbEntity
  8
MAIN0
  6
BYBLOCK
 62
0
100
AcDbMText
 10
380.5401705180998
 20
294.1146676175278
 30
0.0000000000000000
 40
3.099999904632568
 41
0.0000000000000000
 71
     5
 72
     1
  1
\A1;Ｒ55
 11
-0.1722660356870669
 21
0.9850504621331143
 31
0.0000000000000000
  7
KNJYOKO
  0
ENDBLK
  5
3B9
100
AcDbEntity
  8
MAIN0
  6
CONTINUOUS
 62
3
100
AcDbBlockEnd
  0
BLOCK
  5
3BB
100
AcDbEntity
  8
MAIN0
  6
CONTINUOUS
 62
3
100
AcDbBlockBegin
  2
*D40
 70
    65
 10
0.0
 20
0.0
 30
0.0
  0
LINE
  5
3BC
100
AcDbEntity
  8
MAIN0
  6
BYBLOCK
 62
0
100
AcDbLine
 10
377.4776758657335
 20
323.5268016153989
 30
0.0000000000000000
 11
375.0659513661145
 21
337.3175080852625
 31
0.0000000000000000
  0
INSERT
  5
3BD
100
AcDbEntity
  8
MAIN0
  6
BYBLOCK
 62
0
100
AcDbBlockReference
  2
_OPEN
 10
377.8222079371076
 20
321.5567006911327
 30
0.0000000000000000
 41
2.000000000000000
 42
2.000000000000000
 43
2.000000000000000
 50
279.9195973714964
  0
INSERT
  5
3BE
100
AcDbEntity
  8
MAIN0
  6
BYBLOCK
 62
0
100
AcDbBlockReference
  2
_OPEN
 10
374.7214192947404
 20
339.2876090095288
 30
0.0000000000000000
 41
2.000000000000000
 42
2.000000000000000
 43
2.000000000000000
 50
99.91959737149644
  0
MTEXT
  5
3BF
100
AcDbEntity
  8
MAIN0
  6
BYBLOCK
 62
0
100
AcDbMText
 10
374.2524602155219
 20
330.0690094853865
 30
0.0000000000000000
 40
3.099999904632568
 41
0.0000000000000000
 71
     5
 72
     1
  1
\A1;18
 11
-0.1722660356870698
 21
0.9850504621331139
 31
0.0000000000000000
  7
STANDARD
  0
ENDBLK
  5
3C0
100
AcDbEntity
  8
MAIN0
  6
CONTINUOUS
 62
3
100
AcDbBlockEnd
  0
BLOCK
  5
3C2
100
AcDbEntity
  8
MAIN0
  6
CONTINUOUS
 62
3
100
AcDbBlockBegin
  2
*D41
 70
    65
 10
0.0
 20
0.0
 30
0.0
  0
LINE
  5
3C3
100
AcDbEntity
  8
MAIN0
  6
BYBLOCK
 62
0
100
AcDbLine
 10
403.4630034151672
 20
157.7783086780542
 30
0.0000000000000000
 11
387.7333808168679
 21
148.6968068366747
 31
0.0000000000000000
  0
LINE
  5
3C4
100
AcDbEntity
  8
MAIN0
  6
BYBLOCK
 62
0
100
AcDbLine
 10
388.4654316244368
 20
151.4288576442436
 30
0.0000000000000000
 11
338.9654316244371
 21
237.1653726189032
 31
0.0000000000000000
  0
INSERT
  5
3C5
100
AcDbEntity
  8
MAIN0
  6
BYBLOCK
 62
0
100
AcDbBlockReference
  2
_OPEN
 10
389.4654316244368
 20
149.6968068366747
 30
0.0000000000000000
 41
2.000000000000000
 42
2.000000000000000
 43
2.000000000000000
 50
299.9999999999997
  0
INSERT
  5
3C6
100
AcDbEntity
  8
MAIN0
  6
BYBLOCK
 62
0
100
AcDbBlockReference
  2
_OPEN
 10
337.9654316244371
 20
238.8974234264721
 30
0.0000000000000000
 41
2.000000000000000
 42
2.000000000000000
 43
2.000000000000000
 50
119.9999999999997
  0
LINE
  5
3C7
100
AcDbEntity
  8
MAIN0
  6
BYBLOCK
 62
0
100
AcDbLine
 10
386.6040195665449
 20
266.9789252678510
 30
0.0000000000000000
 11
336.2333808168683
 21
237.8974234264721
 31
0.0000000000000000
  0
MTEXT
  5
3C8
100
AcDbEntity
  8
MAIN0
  6
BYBLOCK
 62
0
100
AcDbMText
 10
361.9400795879742
 20
193.2721151554153
 30
0.0000000000000000
 40
3.099999904632568
 41
0.0000000000000000
 71
     5
 72
     1
  1
\A1;103
 11
-0.4999999999999956
 21
0.8660254037844412
 31
0.0000000000000000
  7
STANDARD
  0
ENDBLK
  5
3C9
100
AcDbEntity
  8
MAIN0
  6
CONTINUOUS
 62
3
100
AcDbBlockEnd
  0
BLOCK
  5
3CB
100
AcDbEntity
  8
MAIN0
  6
CONTINUOUS
 62
3
100
AcDbBlockBegin
  2
*D42
 70
    65
 10
0.0
 20
0.0
 30
0.0
  0
ARC
  5
3CC
100
AcDbEntity
  8
MAIN0
  6
BYBLOCK
 62
0
100
AcDbCircle
 10
387.2968398998963
 20
267.3789252738114
 30
0.0000000000000000
 40
79.48991692994767
100
AcDbArc
 50
271.4415860960976
 51
298.5584139039024
  0
INSERT
  5
3CD
100
AcDbEntity
  8
MAIN0
  6
BYBLOCK
 62
0
100
AcDbBlockReference
  2
_OPEN
 10
387.2968398998963
 20
187.8890083438638
 30
0.0000000000000000
 41
2.000000000000000
 42
2.000000000000000
 43
2.000000000000000
 50
180.0000000000000
  0
INSERT
  5
3CE
100
AcDbEntity
  8
MAIN0
  6
BYBLOCK
 62
0
100
AcDbBlockReference
  2
_OPEN
 10
427.0417983648702
 20
198.5386378677621
 30
0.0000000000000000
 41
2.000000000000000
 42
2.000000000000000
 43
2.000000000000000
 50
30.00000000000006
  0
MTEXT
  5
3CF
100
AcDbEntity
  8
MAIN0
  6
BYBLOCK
 62
0
100
AcDbMText
 10
417.2659290978211
 20
195.9730821365074
 30
0.0000000000000000
 40
3.099999904632568
 41
0.0000000000000000
 71
     5
 72
     1
  1
\A1;30\U+00B0
 11
0.9220805745172699
 21
0.3869979510254564
 31
0.0000000000000000
  7
STANDARD
  0
ENDBLK
  5
3D0
100
AcDbEntity
  8
MAIN0
  6
CONTINUOUS
 62
3
100
AcDbBlockEnd
  0
BLOCK
  5
3D2
100
AcDbEntity
  8
MAIN0
  6
CONTINUOUS
 62
3
100
AcDbBlockBegin
  2
*D43
 70
    65
 10
0.0
 20
0.0
 30
0.0
  0
LINE
  5
3D3
100
AcDbEntity
  8
MAIN0
  6
BYBLOCK
 62
0
100
AcDbLine
 10
387.2968398998963
 20
267.3789252738114
 30
0.0000000000000000
 11
419.2027701574230
 21
218.5828567061402
 31
0.0000000000000000
  0
INSERT
  5
3D4
100
AcDbEntity
  8
MAIN0
  6
BYBLOCK
 62
0
100
AcDbBlockReference
  2
_OPEN
 10
420.2972883123796
 20
216.9089301819253
 30
0.0000000000000000
 41
2.000000000000000
 42
2.000000000000000
 43
2.000000000000000
 50
303.1791766796061
  0
MTEXT
  5
3D5
100
AcDbEntity
  8
MAIN0
  6
BYBLOCK
 62
0
100
AcDbMText
 10
404.5868772085485
 20
244.6819494050374
 30
0.0000000000000000
 40
3.099999904632568
 41
0.0000000000000000
 71
     5
 72
     1
  1
\A1;Ｒ60.3
 11
0.5472590774783254
 21
-0.8369632621074669
 31
0.0000000000000000
  7
KNJYOKO
  0
ENDBLK
  5
3D6
100
AcDbEntity
  8
MAIN0
  6
CONTINUOUS
 62
3
100
AcDbBlockEnd
  0
ENDSEC
  0
SECTION
  2
ENTITIES
  0
LINE
  5
46
100
AcDbEntity
  8
MAIN0
  6
CONTINUOUS
 62
3
100
AcDbLine
 10
124.8315763061101
 20
368.8789252738140
 30
0.0000000000000000
 11
124.8315763061093
 21
285.8478528278595
 31
0.0000000000000000
  0
LINE
  5
47
100
AcDbEntity
  8
MAIN0
  6
CONTINUOUS
 62
3
100
AcDbLine
 10
203.2315763061099
 20
349.8789252738133
 30
0.0000000000000000
 11
124.8315763061099
 21
349.8789252738141
 31
0.0000000000000000
  0
LINE
  5
48
100
AcDbEntity
  8
MAIN0
  6
CONTINUOUS
 62
3
100
AcDbLine
 10
203.2315763061090
 20
184.8789252738132
 30
0.0000000000000000
 11
124.8315763061082
 21
184.8789252738140
 31
0.0000000000000000
  0
LINE
  5
49
100
AcDbEntity
  8
MAIN0
  6
CONTINUOUS
 62
3
100
AcDbLine
 10
204.8315763061090
 20
186.4789252738132
 30
0.0000000000000000
 11
203.2315763061090
 21
184.8789252738131
 31
0.0000000000000000
  0
LINE
  5
4A
100
AcDbEntity
  8
MAIN0
  6
CONTINUOUS
 62
3
100
AcDbLine
 10
131.8315763061096
 20
283.8596417980915
 30
0.0000000000000000
 11
131.8315763061095
 21
279.8789252738139
 31
0.0000000000000000
  0
LINE
  5
4B
100
AcDbEntity
  8
MAIN0
  6
CONTINUOUS
 62
3
100
AcDbLine
 10
114.9315763061095
 20
279.4170450584609
 30
0.0000000000000000
 11
114.9315763061093
 21
255.3408054891672
 31
0.0000000000000000
  0
LINE
  5
4C
100
AcDbEntity
  8
MAIN0
  6
CONTINUOUS
 62
3
100
AcDbLine
 10
201.0315763061095
 20
279.8789252738132
 30
0.0000000000000000
 11
110.3315763061096
 21
279.8789252738141
 31
0.0000000000000000
  0
LINE
  5
4D
100
AcDbEntity
  8
MAIN0
  6
CONTINUOUS
 62
3
100
AcDbLine
 10
114.7315763061147
 20
279.8789252738141
 30
0.0000000000000000
 11
114.9315763061095
 21
279.4170450584608
 31
0.0000000000000000
  0
LINE
  5
4E
100
AcDbEntity
  8
MAIN0
  6
CONTINUOUS
 62
3
100
AcDbLine
 10
123.8315763061095
 20
286.1049933703486
 30
0.0000000000000000
 11
123.8315763061095
 21
279.8789252738140
 31
0.0000000000000000
  0
LINE
  5
4F
100
AcDbEntity
  8
MAIN0
  6
CONTINUOUS
 62
3
100
AcDbLine
 10
121.8315763061096
 20
282.3789252738139
 30
0.0000000000000000
 11
121.8315763061096
 21
279.8789252738141
 31
0.0000000000000000
  0
LINE
  5
50
100
AcDbEntity
  8
MAIN0
  6
CONTINUOUS
 62
3
100
AcDbLine
 10
117.7315763061095
 20
282.3789252738140
 30
0.0000000000000000
 11
117.7315763061096
 21
279.8789252738140
 31
0.0000000000000000
  0
LINE
  5
51
100
AcDbEntity
  8
MAIN0
  6
CONTINUOUS
 62
3
100
AcDbLine
 10
114.9315763061093
 20
255.3408054891671
 30
0.0000000000000000
 11
114.9315763061095
 21
279.3910285232334
 31
0.0000000000000000
  0
LINE
  5
52
100
AcDbEntity
  8
MAIN0
  6
CONTINUOUS
 62
3
100
AcDbLine
 10
121.8315763061096
 20
282.3789252738140
 30
0.0000000000000000
 11
117.7315763061095
 21
282.3789252738141
 31
0.0000000000000000
  0
ELLIPSE
  5
53
100
AcDbEntity
  8
MAIN0
  6
CONTINUOUS
 62
3
100
AcDbEllipse
 10
119.7815763061095
 20
281.1289252738140
 30
0.0000000000000000
 11
-2.050000000000000
 21
0.0000000000000000
 31
0.0000000000000000
210
0.0000000000000000
220
0.0000000000000000
230
1.000000000000000
 40
0.6097560975609757
 41
0.0000000000000000
 42
6.283185307179586
  0
ARC
  5
54
100
AcDbEntity
  8
MAIN0
  6
CONTINUOUS
 62
3
100
AcDbCircle
 10
200.9315763061095
 20
280.2789252738132
 30
0.0000000000000000
 40
0.4000000000000000
100
AcDbArc
 50
269.9999999994183
 51
359.9999999999898
  0
LINE
  5
55
100
AcDbEntity
  8
MAIN0
  6
CONTINUOUS
 62
3
100
AcDbLine
 10
208.8315763061096
 20
311.8789252738131
 30
0.0000000000000000
 11
204.9315763061097
 21
311.8789252738132
 31
0.0000000000000000
  0
LINE
  5
56
100
AcDbEntity
  8
MAIN0
  6
CONTINUOUS
 62
3
100
AcDbLine
 10
208.8315763061100
 20
355.3789252738133
 30
0.0000000000000000
 11
208.8315763061096
 21
299.7640105699222
 31
0.0000000000000000
  0
LINE
  5
57
100
AcDbEntity
  8
MAIN0
  6
CONTINUOUS
 62
3
100
AcDbLine
 10
209.8315763061100
 20
312.4562755430088
 30
0.0000000000000000
 11
208.8315763061098
 21
311.8789252738133
 31
0.0000000000000000
  0
LINE
  5
58
100
AcDbEntity
  8
MAIN0
  6
CONTINUOUS
 62
3
100
AcDbLine
 10
206.9315763061098
 20
311.7789252738131
 30
0.0000000000000000
 11
206.9315763061097
 21
296.7789252738131
 31
0.0000000000000000
  0
LINE
  5
59
100
AcDbEntity
  8
MAIN0
  6
CONTINUOUS
 62
3
100
AcDbLine
 10
206.9315763061097
 20
311.7789252738131
 30
0.0000000000000000
 11
204.9315763061097
 21
311.7789252738132
 31
0.0000000000000000
  0
LINE
  5
5A
100
AcDbEntity
  8
MAIN0
  6
CONTINUOUS
 62
3
100
AcDbLine
 10
206.9315763061097
 20
296.7789252738131
 30
0.0000000000000000
 11
204.9315763061097
 21
296.7789252738132
 31
0.0000000000000000
  0
LINE
  5
5B
100
AcDbEntity
  8
MAIN0
  6
CONTINUOUS
 62
3
100
AcDbLine
 10
204.8315763061100
 20
348.2789252738131
 30
0.0000000000000000
 11
203.7315763061099
 21
349.3789252738133
 31
0.0000000000000000
  0
LINE
  5
5C
100
AcDbEntity
  8
MAIN0
  6
CONTINUOUS
 62
3
100
AcDbLine
 10
203.7315763061099
 20
349.3789252738134
 30
0.0000000000000000
 11
203.2315763061100
 21
349.8789252738133
 31
0.0000000000000000
  0
LINE
  5
5D
100
AcDbEntity
  8
MAIN0
  6
CONTINUOUS
 62
3
100
AcDbLine
 10
192.8274351763296
 20
282.0419741031176
 30
0.0000000000000000
 11
192.8274351763296
 21
279.8789252738133
 31
0.0000000000000000
  0
LINE
  5
5E
100
AcDbEntity
  8
MAIN0
  6
CONTINUOUS
 62
3
100
AcDbLine
 10
132.8274351763296
 20
283.6457978200825
 30
0.0000000000000000
 11
132.8274351763296
 21
279.8789252738138
 31
0.0000000000000000
  0
LINE
  5
5F
100
AcDbEntity
  8
MAIN0
  6
CONTINUOUS
 62
3
100
AcDbLine
 10
182.8274351763296
 20
280.1289252738133
 30
0.0000000000000000
 11
182.8274351763296
 21
279.8789252738136
 31
0.0000000000000000
  0
LINE
  5
60
100
AcDbEntity
  8
MAIN0
  6
CONTINUOUS
 62
3
100
AcDbLine
 10
165.8274351763296
 20
280.1289252738135
 30
0.0000000000000000
 11
165.8274351763296
 21
279.8789252738138
 31
0.0000000000000000
  0
LINE
  5
61
100
AcDbEntity
  8
MAIN0
  6
CONTINUOUS
 62
3
100
AcDbLine
 10
182.8274351763296
 20
280.1289252738134
 30
0.0000000000000000
 11
165.8274351763296
 21
280.1289252738136
 31
0.0000000000000000
  0
LINE
  5
62
100
AcDbEntity
  8
MAIN0
  6
CONTINUOUS
 62
3
100
AcDbLine
 10
152.8274351763296
 20
282.8789252738137
 30
0.0000000000000000
 11
152.8274351763296
 21
279.8789252738137
 31
0.0000000000000000
  0
LINE
  5
63
100
AcDbEntity
  8
MAIN0
  6
CONTINUOUS
 62
3
100
AcDbLine
 10
157.5274351763297
 20
282.8789252738137
 30
0.0000000000000000
 11
157.5274351763296
 21
279.8789252738136
 31
0.0000000000000000
  0
LINE
  5
64
100
AcDbEntity
  8
MAIN0
  6
CONTINUOUS
 62
3
100
AcDbLine
 10
157.5274351763297
 20
282.8789252738137
 30
0.0000000000000000
 11
152.8274351763296
 21
282.8789252738137
 31
0.0000000000000000
  0
ELLIPSE
  5
65
100
AcDbEntity
  8
MAIN0
  6
CONTINUOUS
 62
3
100
AcDbEllipse
 10
155.1774351763296
 20
281.3789252738137
 30
0.0000000000000000
 11
-2.350000000000000
 21
0.0000000000000000
 31
0.0000000000000000
210
0.0000000000000000
220
0.0000000000000000
230
1.000000000000000
 40
0.6382978723404255
 41
0.0000000000000000
 42
6.283185307179586
  0
LINE
  5
66
100
AcDbEntity
  8
MAIN0
  6
CONTINUOUS
 62
3
100
AcDbLine
 10
131.8315763061092
 20
250.7315576663548
 30
0.0000000000000000
 11
131.8315763061093
 21
254.8789252738138
 31
0.0000000000000000
  0
LINE
  5
67
100
AcDbEntity
  8
MAIN0
  6
CONTINUOUS
 62
3
100
AcDbLine
 10
114.7315763061144
 20
254.8789252738139
 30
0.0000000000000000
 11
114.9315763061093
 21
255.3408054891671
 31
0.0000000000000000
  0
LINE
  5
68
100
AcDbEntity
  8
MAIN0
  6
CONTINUOUS
 62
3
100
AcDbLine
 10
123.8315763061091
 20
249.2760028818398
 30
0.0000000000000000
 11
123.8315763061092
 21
254.8789252738139
 31
0.0000000000000000
  0
LINE
  5
69
100
AcDbEntity
  8
MAIN0
  6
CONTINUOUS
 62
3
100
AcDbLine
 10
121.8315763061093
 20
252.3789252738140
 30
0.0000000000000000
 11
121.8315763061093
 21
254.8789252738139
 31
0.0000000000000000
  0
LINE
  5
6A
100
AcDbEntity
  8
MAIN0
  6
CONTINUOUS
 62
3
100
AcDbLine
 10
117.7315763061091
 20
252.3789252738140
 30
0.0000000000000000
 11
117.7315763061093
 21
254.8789252738140
 31
0.0000000000000000
  0
LINE
  5
6B
100
AcDbEntity
  8
MAIN0
  6
CONTINUOUS
 62
3
100
AcDbLine
 10
121.8315763061093
 20
252.3789252738139
 30
0.0000000000000000
 11
117.7315763061091
 21
252.3789252738139
 31
0.0000000000000000
  0
ELLIPSE
  5
6C
100
AcDbEntity
  8
MAIN0
  6
CONTINUOUS
 62
3
100
AcDbEllipse
 10
119.7815763061093
 20
253.6289252738140
 30
0.0000000000000000
 11
-2.050000000000000
 21
0.0000000000000000
 31
0.0000000000000000
210
0.0000000000000000
220
0.0000000000000000
230
1.000000000000000
 40
0.6097560975609757
 41
0.0000000000000000
 42
6.283185307179586
  0
LINE
  5
6D
100
AcDbEntity
  8
MAIN0
  6
CONTINUOUS
 62
3
100
AcDbLine
 10
192.8274351763292
 20
249.2212173813290
 30
0.0000000000000000
 11
192.8274351763292
 21
254.8789252738133
 31
0.0000000000000000
  0
LINE
  5
6E
100
AcDbEntity
  8
MAIN0
  6
CONTINUOUS
 62
3
100
AcDbLine
 10
132.8274351763292
 20
250.9181873023169
 30
0.0000000000000000
 11
132.8274351763293
 21
254.8789252738139
 31
0.0000000000000000
  0
LINE
  5
6F
100
AcDbEntity
  8
MAIN0
  6
CONTINUOUS
 62
3
100
AcDbLine
 10
182.8274351763293
 20
254.6289252738134
 30
0.0000000000000000
 11
182.8274351763293
 21
254.8789252738131
 31
0.0000000000000000
  0
LINE
  5
70
100
AcDbEntity
  8
MAIN0
  6
CONTINUOUS
 62
3
100
AcDbLine
 10
165.8274351763293
 20
254.6289252738136
 30
0.0000000000000000
 11
165.8274351763293
 21
254.8789252738133
 31
0.0000000000000000
  0
LINE
  5
71
100
AcDbEntity
  8
MAIN0
  6
CONTINUOUS
 62
3
100
AcDbLine
 10
182.8274351763293
 20
254.6289252738133
 30
0.0000000000000000
 11
165.8274351763293
 21
254.6289252738135
 31
0.0000000000000000
  0
LINE
  5
72
100
AcDbEntity
  8
MAIN0
  6
CONTINUOUS
 62
3
100
AcDbLine
 10
152.8274351763293
 20
251.8789252738136
 30
0.0000000000000000
 11
152.8274351763293
 21
254.8789252738137
 31
0.0000000000000000
  0
LINE
  5
73
100
AcDbEntity
  8
MAIN0
  6
CONTINUOUS
 62
3
100
AcDbLine
 10
157.5274351763293
 20
251.8789252738135
 30
0.0000000000000000
 11
157.5274351763293
 21
254.8789252738136
 31
0.0000000000000000
  0
LINE
  5
74
100
AcDbEntity
  8
MAIN0
  6
CONTINUOUS
 62
3
100
AcDbLine
 10
157.5274351763293
 20
251.8789252738135
 30
0.0000000000000000
 11
152.8274351763293
 21
251.8789252738136
 31
0.0000000000000000
  0
ELLIPSE
  5
75
100
AcDbEntity
  8
MAIN0
  6
CONTINUOUS
 62
3
100
AcDbEllipse
 10
155.1774351763294
 20
253.3789252738136
 30
0.0000000000000000
 11
2.350000000000000
 21
0.0000000000000000
 31
0.0000000000000000
210
0.0000000000000000
220
0.0000000000000000
230
1.000000000000000
 40
0.6382978723404255
 41
0.0000000000000000
 42
6.283185307179586
  0
LINE
  5
76
100
AcDbEntity
  8
MAIN0
  6
CONTINUOUS
 62
3
100
AcDbLine
 10
201.0315763061092
 20
254.8789252738132
 30
0.0000000000000000
 11
110.3315763061094
 21
254.8789252738141
 31
0.0000000000000000
  0
LINE
  5
77
100
AcDbEntity
  8
MAIN0
  6
PHANTOM
 62
3
100
AcDbLine
 10
117.3315763061082
 20
171.6631524774889
 30
0.0000000000000000
 11
117.3315763061085
 21
214.5538683385213
 31
0.0000000000000000
  0
LINE
  5
78
100
AcDbEntity
  8
MAIN0
  6
PHANTOM
 62
3
100
AcDbLine
 10
126.5858589263442
 20
191.1289252738140
 30
0.0000000000000000
 11
112.0038819414909
 21
191.1289252738141
 31
0.0000000000000000
  0
LINE
  5
79
100
AcDbEntity
  8
MAIN0
  6
CONTINUOUS
 62
3
100
AcDbLine
 10
209.9315763061105
 20
356.1289252738131
 30
0.0000000000000000
 11
209.9315763061100
 21
299.1289252738131
 31
0.0000000000000000
  0
LINE
  5
7A
100
AcDbEntity
  8
MAIN0
  6
CONTINUOUS
 62
3
100
AcDbLine
 10
208.9315763061101
 20
311.8789252738131
 30
0.0000000000000000
 11
204.9315763061101
 21
311.8789252738132
 31
0.0000000000000000
  0
LINE
  5
7B
100
AcDbEntity
  8
MAIN0
  6
CONTINUOUS
 62
3
100
AcDbLine
 10
208.9315763061105
 20
350.8789252738131
 30
0.0000000000000000
 11
170.3315763061099
 21
350.8789252738134
 31
0.0000000000000000
  0
LINE
  5
7C
100
AcDbEntity
  8
MAIN0
  6
CONTINUOUS
 62
3
100
AcDbLine
 10
210.9315763061100
 20
299.1289252738131
 30
0.0000000000000000
 11
209.9315763061100
 21
299.1289252738131
 31
0.0000000000000000
  0
LINE
  5
7D
100
AcDbEntity
  8
MAIN0
  6
CONTINUOUS
 62
3
100
AcDbLine
 10
240.8315763061108
 20
356.1289252738129
 30
0.0000000000000000
 11
209.9315763061102
 21
356.1289252738131
 31
0.0000000000000000
  0
LINE
  5
7E
100
AcDbEntity
  8
MAIN0
  6
CONTINUOUS
 62
3
100
AcDbLine
 10
209.9315763061102
 20
356.1289252738131
 30
0.0000000000000000
 11
208.9315763061103
 21
355.5515750046236
 31
0.0000000000000000
  0
LINE
  5
7F
100
AcDbEntity
  8
MAIN0
  6
CONTINUOUS
 62
3
100
AcDbLine
 10
210.9315763061100
 20
299.1289252738131
 30
0.0000000000000000
 11
210.9315763061099
 21
284.1289252738131
 31
0.0000000000000000
  0
LINE
  5
80
100
AcDbEntity
  8
MAIN0
  6
CONTINUOUS
 62
3
100
AcDbLine
 10
208.9315763061100
 20
299.7062755430030
 30
0.0000000000000000
 11
209.9315763061101
 21
299.1289252738132
 31
0.0000000000000000
  0
LINE
  5
81
100
AcDbEntity
  8
MAIN0
  6
PHANTOM
 62
3
100
AcDbLine
 10
208.9315763061103
 20
350.8789252738131
 30
0.0000000000000000
 11
209.9315763061105
 21
350.3015750046234
 31
0.0000000000000000
  0
LINE
  5
82
100
AcDbEntity
  8
MAIN0
  6
PHANTOM
 62
3
100
AcDbLine
 10
209.9315763061098
 20
312.4562755430018
 30
0.0000000000000000
 11
208.9315763061102
 21
311.8789252738133
 31
0.0000000000000000
  0
LINE
  5
83
100
AcDbEntity
  8
MAIN0
  6
CENTER
 62
3
100
AcDbLine
 10
245.7106764173256
 20
341.1289252738128
 30
0.0000000000000000
 11
202.4424955256128
 21
341.1289252738132
 31
0.0000000000000000
  0
LINE
  5
84
100
AcDbEntity
  8
MAIN0
  6
CONTINUOUS
 62
3
100
AcDbLine
 10
201.3315763061097
 20
247.9078800723910
 30
0.0000000000000000
 11
201.3315763061096
 21
254.4843645710509
 31
0.0000000000000000
  0
LINE
  5
85
100
AcDbEntity
  8
MAIN0
  6
CONTINUOUS
 62
3
100
AcDbLine
 10
201.3315763061096
 20
280.2239309105065
 30
0.0000000000000000
 11
201.3315763061096
 21
282.3627380307636
 31
0.0000000000000000
  0
LINE
  5
86
100
AcDbEntity
  8
MAIN0
  6
CONTINUOUS
 62
3
100
AcDbLine
 10
124.8315763061101
 20
368.8789252738140
 30
0.0000000000000000
 11
109.8315763061101
 21
368.8789252738142
 31
0.0000000000000000
  0
LINE
  5
87
100
AcDbEntity
  8
MAIN0
  6
CONTINUOUS
 62
3
100
AcDbLine
 10
109.8315763061089
 20
165.8789252738142
 30
0.0000000000000000
 11
109.8315763061101
 21
368.8789252738142
 31
0.0000000000000000
  0
LINE
  5
88
100
AcDbEntity
  8
MAIN0
  6
CENTER
 62
3
100
AcDbLine
 10
101.4874551117414
 20
359.8789252738141
 30
0.0000000000000000
 11
131.8945207808418
 21
359.8789252738141
 31
0.0000000000000000
  0
LINE
  5
89
100
AcDbEntity
  8
MAIN0
  6
CONTINUOUS
 62
3
100
AcDbLine
 10
124.8315763061081
 20
165.8789252738141
 30
0.0000000000000000
 11
109.8315763061081
 21
165.8789252738142
 31
0.0000000000000000
  0
LINE
  5
8A
100
AcDbEntity
  8
MAIN0
  6
CONTINUOUS
 62
3
100
AcDbLine
 10
240.8315763061108
 20
356.1289252738129
 30
0.0000000000000000
 11
240.8315763061101
 21
284.1289252738129
 31
0.0000000000000000
  0
LINE
  5
8B
100
AcDbEntity
  8
MAIN0
  6
CONTINUOUS
 62
3
100
AcDbLine
 10
240.8315763061101
 20
284.1289252738129
 30
0.0000000000000000
 11
210.9315763061099
 21
284.1289252738131
 31
0.0000000000000000
  0
LINE
  5
8C
100
AcDbEntity
  8
MAIN0
  6
CONTINUOUS
 62
3
100
AcDbLine
 10
114.9315763061095
 20
277.3789252738141
 30
0.0000000000000000
 11
204.9315763061094
 21
277.3789252738141
 31
0.0000000000000000
  0
LINE
  5
8D
100
AcDbEntity
  8
MAIN0
  6
CONTINUOUS
 62
3
100
AcDbLine
 10
206.5315763061096
 20
267.3789252738132
 30
0.0000000000000000
 11
206.5315763061099
 21
280.8789252738141
 31
0.0000000000000000
  0
LINE
  5
8E
100
AcDbEntity
  8
MAIN0
  6
CONTINUOUS
 62
3
100
AcDbLine
 10
197.0315763061096
 20
267.3789252738133
 30
0.0000000000000000
 11
197.0315763061098
 21
276.9789252738141
 31
0.0000000000000000
  0
LINE
  5
8F
100
AcDbEntity
  8
MAIN0
  6
CONTINUOUS
 62
3
100
AcDbLine
 10
205.8315763061095
 20
280.8789252738141
 30
0.0000000000000000
 11
206.5315763061099
 21
280.8789252738141
 31
0.0000000000000000
  0
LINE
  5
90
100
AcDbEntity
  8
MAIN0
  6
CONTINUOUS
 62
3
100
AcDbLine
 10
199.0315763061097
 20
275.5789252738141
 30
0.0000000000000000
 11
199.0315763061098
 21
277.3789252738141
 31
0.0000000000000000
  0
LINE
  5
91
100
AcDbEntity
  8
MAIN0
  6
CONTINUOUS
 62
3
100
AcDbLine
 10
202.2315763061097
 20
275.5789252738141
 30
0.0000000000000000
 11
202.2315763061098
 21
277.3789252738141
 31
0.0000000000000000
  0
LINE
  5
92
100
AcDbEntity
  8
MAIN0
  6
CONTINUOUS
 62
3
100
AcDbLine
 10
199.1598584834290
 20
275.3789252738141
 30
0.0000000000000000
 11
202.0315763061097
 21
275.3789252738141
 31
0.0000000000000000
  0
ARC
  5
93
100
AcDbEntity
  8
MAIN0
  6
CONTINUOUS
 62
3
100
AcDbCircle
 10
199.2315763061098
 20
275.5789252738141
 30
0.0000000000000000
 40
0.2000000000000000
100
AcDbArc
 50
179.9999999999964
 51
270.0000000005678
  0
LINE
  5
94
100
AcDbEntity
  8
MAIN0
  6
CONTINUOUS
 62
3
100
AcDbLine
 10
204.9315763061096
 20
279.3200795470012
 30
0.0000000000000000
 11
205.8315763061094
 21
280.8789252738142
 31
0.0000000000000000
  0
ARC
  5
95
100
AcDbEntity
  8
MAIN0
  6
CONTINUOUS
 62
3
100
AcDbCircle
 10
202.0315763061097
 20
275.5789252738141
 30
0.0000000000000000
 40
0.2000000000000000
100
AcDbArc
 50
270.0000000005678
 51
359.9999999999934
  0
LINE
  5
96
100
AcDbEntity
  8
MAIN0
  6
CONTINUOUS
 62
3
100
AcDbLine
 10
197.0315763061097
 20
276.9789252738141
 30
0.0000000000000000
 11
197.4315763061098
 21
277.3789252738141
 31
0.0000000000000000
  0
LINE
  5
97
100
AcDbEntity
  8
MAIN0
  6
CONTINUOUS
 62
3
100
AcDbLine
 10
204.5315763061093
 20
277.3789252738141
 30
0.0000000000000000
 11
204.8315763061096
 21
277.6789252738143
 31
0.0000000000000000
  0
ELLIPSE
  5
98
100
AcDbEntity
  8
MAIN0
  6
CONTINUOUS
 62
3
100
AcDbEllipse
 10
200.6315763061098
 20
276.3789252738141
 30
0.0000000000000000
 11
1.600000000000000
 21
0.0000000000000000
 31
0.0000000000000000
210
0.0000000000000000
220
0.0000000000000000
230
1.000000000000000
 40
0.6250000000000000
 41
0.0000000000000000
 42
6.283185307179586
  0
LINE
  5
99
100
AcDbEntity
  8
MAIN0
  6
CENTER
 62
3
100
AcDbLine
 10
245.7106764173255
 20
321.1289252738128
 30
0.0000000000000000
 11
202.4424955256126
 21
321.1289252738132
 31
0.0000000000000000
  0
LINE
  5
9A
100
AcDbEntity
  8
MAIN0
  6
HIDDEN
 62
3
100
AcDbLine
 10
220.8315763061101
 20
313.1289252738129
 30
0.0000000000000000
 11
229.8315763061101
 21
313.1289252738123
 31
0.0000000000000000
  0
LINE
  5
9B
100
AcDbEntity
  8
MAIN0
  6
HIDDEN
 62
3
100
AcDbLine
 10
229.8315763061101
 20
313.1289252738123
 30
0.0000000000000000
 11
230.8315763061102
 21
314.8609760813811
 31
0.0000000000000000
  0
LINE
  5
9C
100
AcDbEntity
  8
MAIN0
  6
HIDDEN
 62
3
100
AcDbLine
 10
230.8315763061102
 20
314.8609760813811
 30
0.0000000000000000
 11
230.8315763061110
 21
327.3968744662433
 31
0.0000000000000000
  0
LINE
  5
9D
100
AcDbEntity
  8
MAIN0
  6
HIDDEN
 62
3
100
AcDbLine
 10
230.8315763061110
 20
327.3968744662433
 30
0.0000000000000000
 11
229.8315763061111
 21
329.1289252738123
 31
0.0000000000000000
  0
LINE
  5
9E
100
AcDbEntity
  8
MAIN0
  6
HIDDEN
 62
3
100
AcDbLine
 10
229.8315763061111
 20
329.1289252738123
 30
0.0000000000000000
 11
220.8315763061111
 21
329.1289252738129
 31
0.0000000000000000
  0
LINE
  5
9F
100
AcDbEntity
  8
MAIN0
  6
HIDDEN
 62
3
100
AcDbLine
 10
229.8315763061101
 20
313.1289252738123
 30
0.0000000000000000
 11
229.8315763061111
 21
329.1289252738123
 31
0.0000000000000000
  0
LINE
  5
A0
100
AcDbEntity
  8
MAIN0
  6
HIDDEN
 62
3
100
AcDbLine
 10
220.8315763061103
 20
316.1289252738129
 30
0.0000000000000000
 11
207.1094002655212
 21
316.1289252738137
 31
0.0000000000000000
  0
LINE
  5
A1
100
AcDbEntity
  8
MAIN0
  6
HIDDEN
 62
3
100
AcDbLine
 10
207.1094002655218
 20
326.1289252738137
 30
0.0000000000000000
 11
220.8315763061109
 21
326.1289252738129
 31
0.0000000000000000
  0
LINE
  5
A2
100
AcDbEntity
  8
MAIN0
  6
HIDDEN
 62
3
100
AcDbLine
 10
240.8315763061100
 20
312.0289252738129
 30
0.0000000000000000
 11
240.2315763061100
 21
312.6289252738129
 31
0.0000000000000000
  0
LINE
  5
A3
100
AcDbEntity
  8
MAIN0
  6
HIDDEN
 62
3
100
AcDbLine
 10
240.2315763061101
 20
312.6289252738129
 30
0.0000000000000000
 11
220.8315763061100
 21
312.6289252738141
 31
0.0000000000000000
  0
LINE
  5
A4
100
AcDbEntity
  8
MAIN0
  6
HIDDEN
 62
3
100
AcDbLine
 10
220.8315763061100
 20
312.6289252738141
 30
0.0000000000000000
 11
220.8315763061111
 21
329.6289252738141
 31
0.0000000000000000
  0
LINE
  5
A5
100
AcDbEntity
  8
MAIN0
  6
HIDDEN
 62
3
100
AcDbLine
 10
220.8315763061111
 20
329.6289252738141
 30
0.0000000000000000
 11
240.2315763061112
 21
329.6289252738129
 31
0.0000000000000000
  0
LINE
  5
A6
100
AcDbEntity
  8
MAIN0
  6
HIDDEN
 62
3
100
AcDbLine
 10
240.2315763061112
 20
329.6289252738129
 30
0.0000000000000000
 11
240.8315763061112
 21
330.2289252738128
 31
0.0000000000000000
  0
LINE
  5
A7
100
AcDbEntity
  8
MAIN0
  6
HIDDEN
 62
3
100
AcDbLine
 10
220.8315763061102
 20
315.6289252738141
 30
0.0000000000000000
 11
214.2315763061102
 21
315.6289252738145
 31
0.0000000000000000
  0
LINE
  5
A8
100
AcDbEntity
  8
MAIN0
  6
HIDDEN
 62
3
100
AcDbLine
 10
214.2315763061102
 20
315.6289252738145
 30
0.0000000000000000
 11
213.8315763061102
 21
315.2289252738145
 31
0.0000000000000000
  0
LINE
  5
A9
100
AcDbEntity
  8
MAIN0
  6
HIDDEN
 62
3
100
AcDbLine
 10
220.8315763061109
 20
326.6289252738141
 30
0.0000000000000000
 11
214.2315763061109
 21
326.6289252738145
 31
0.0000000000000000
  0
LINE
  5
AA
100
AcDbEntity
  8
MAIN0
  6
HIDDEN
 62
3
100
AcDbLine
 10
214.2315763061109
 20
326.6289252738145
 30
0.0000000000000000
 11
213.8315763061109
 21
327.0289252738145
 31
0.0000000000000000
  0
LINE
  5
AB
100
AcDbEntity
  8
MAIN0
  6
HIDDEN
 62
3
100
AcDbLine
 10
213.9315763061105
 20
356.1289252738131
 30
0.0000000000000000
 11
213.9315763061104
 21
346.1289252738133
 31
0.0000000000000000
  0
LINE
  5
AC
100
AcDbEntity
  8
MAIN0
  6
HIDDEN
 62
3
100
AcDbLine
 10
213.9315763061101
 20
316.1289252738133
 30
0.0000000000000000
 11
213.9315763061098
 21
284.1289252738131
 31
0.0000000000000000
  0
LINE
  5
AD
100
AcDbEntity
  8
MAIN0
  6
HIDDEN
 62
3
100
AcDbLine
 10
213.9315763061103
 20
336.1289252738133
 30
0.0000000000000000
 11
213.9315763061102
 21
326.1289252738133
 31
0.0000000000000000
  0
LINE
  5
AE
100
AcDbEntity
  8
MAIN0
  6
CONTINUOUS
 62
3
100
AcDbLine
 10
206.5315763061096
 20
267.3789252738132
 30
0.0000000000000000
 11
206.5315763061096
 21
253.8789252738123
 31
0.0000000000000000
  0
LINE
  5
AF
100
AcDbEntity
  8
MAIN0
  6
CONTINUOUS
 62
3
100
AcDbLine
 10
197.0315763061096
 20
267.3789252738133
 30
0.0000000000000000
 11
197.0315763061096
 21
257.7789252738125
 31
0.0000000000000000
  0
LINE
  5
B0
100
AcDbEntity
  8
MAIN0
  6
CONTINUOUS
 62
3
100
AcDbLine
 10
205.8315763061092
 20
253.8789252738123
 30
0.0000000000000000
 11
206.5315763061096
 21
253.8789252738123
 31
0.0000000000000000
  0
LINE
  5
B1
100
AcDbEntity
  8
MAIN0
  6
CONTINUOUS
 62
3
100
AcDbLine
 10
199.0315763061096
 20
259.1789252738125
 30
0.0000000000000000
 11
199.0315763061096
 21
257.3789252738125
 31
0.0000000000000000
  0
LINE
  5
B2
100
AcDbEntity
  8
MAIN0
  6
CONTINUOUS
 62
3
100
AcDbLine
 10
202.2315763061096
 20
259.1789252738124
 30
0.0000000000000000
 11
202.2315763061096
 21
257.3789252738124
 31
0.0000000000000000
  0
LINE
  5
B3
100
AcDbEntity
  8
MAIN0
  6
CONTINUOUS
 62
3
100
AcDbLine
 10
199.1598584834289
 20
259.3789252738125
 30
0.0000000000000000
 11
202.0315763061096
 21
259.3789252738124
 31
0.0000000000000000
  0
ARC
  5
B4
100
AcDbEntity
  8
MAIN0
  6
CONTINUOUS
 62
3
100
AcDbCircle
 10
199.2315763061096
 20
259.1789252738125
 30
0.0000000000000000
 40
0.2000000000000000
100
AcDbArc
 50
89.99999999943105
 51
180.0000000000025
  0
LINE
  5
B5
100
AcDbEntity
  8
MAIN0
  6
CONTINUOUS
 62
3
100
AcDbLine
 10
204.8315763061094
 20
255.6109760813823
 30
0.0000000000000000
 11
205.8315763061091
 21
253.8789252738123
 31
0.0000000000000000
  0
ARC
  5
B6
100
AcDbEntity
  8
MAIN0
  6
CONTINUOUS
 62
3
100
AcDbCircle
 10
202.0315763061096
 20
259.1789252738124
 30
0.0000000000000000
 40
0.2000000000000000
100
AcDbArc
 50
5.546887364472373e-012
 51
89.99999999943105
  0
LINE
  5
B7
100
AcDbEntity
  8
MAIN0
  6
CONTINUOUS
 62
3
100
AcDbLine
 10
197.0315763061096
 20
257.7789252738125
 30
0.0000000000000000
 11
197.4315763061096
 21
257.3789252738125
 31
0.0000000000000000
  0
LINE
  5
B8
100
AcDbEntity
  8
MAIN0
  6
CONTINUOUS
 62
3
100
AcDbLine
 10
204.5315763061092
 20
257.3789252738123
 30
0.0000000000000000
 11
204.8315763061094
 21
257.0789252738122
 31
0.0000000000000000
  0
ELLIPSE
  5
B9
100
AcDbEntity
  8
MAIN0
  6
CONTINUOUS
 62
3
100
AcDbEllipse
 10
200.6315763061096
 20
258.3789252738125
 30
0.0000000000000000
 11
1.600000000000000
 21
0.0000000000000000
 31
0.0000000000000000
210
0.0000000000000000
220
0.0000000000000000
230
1.000000000000000
 40
0.6250000000000000
 41
0.0000000000000000
 42
6.283185307179586
  0
LINE
  5
BA
100
AcDbEntity
  8
MAIN0
  6
CONTINUOUS
 62
3
100
AcDbLine
 10
206.5315763061096
 20
267.3789252738132
 30
0.0000000000000000
 11
206.5315763061099
 21
280.8789252738141
 31
0.0000000000000000
  0
LINE
  5
BB
100
AcDbEntity
  8
MAIN0
  6
CONTINUOUS
 62
3
100
AcDbLine
 10
197.0315763061096
 20
267.3789252738133
 30
0.0000000000000000
 11
197.0315763061098
 21
276.9789252738141
 31
0.0000000000000000
  0
LINE
  5
BC
100
AcDbEntity
  8
MAIN0
  6
CONTINUOUS
 62
3
100
AcDbLine
 10
205.8315763061095
 20
280.8789252738141
 30
0.0000000000000000
 11
206.5315763061099
 21
280.8789252738141
 31
0.0000000000000000
  0
LINE
  5
BD
100
AcDbEntity
  8
MAIN0
  6
CONTINUOUS
 62
3
100
AcDbLine
 10
199.0315763061097
 20
275.5789252738141
 30
0.0000000000000000
 11
199.0315763061098
 21
277.3789252738141
 31
0.0000000000000000
  0
LINE
  5
BE
100
AcDbEntity
  8
MAIN0
  6
CONTINUOUS
 62
3
100
AcDbLine
 10
202.2315763061097
 20
275.5789252738141
 30
0.0000000000000000
 11
202.2315763061098
 21
277.3789252738141
 31
0.0000000000000000
  0
LINE
  5
BF
100
AcDbEntity
  8
MAIN0
  6
CONTINUOUS
 62
3
100
AcDbLine
 10
199.1598584834290
 20
275.3789252738141
 30
0.0000000000000000
 11
202.0315763061097
 21
275.3789252738141
 31
0.0000000000000000
  0
ARC
  5
C0
100
AcDbEntity
  8
MAIN0
  6
CONTINUOUS
 62
3
100
AcDbCircle
 10
199.2315763061098
 20
275.5789252738141
 30
0.0000000000000000
 40
0.2000000000000000
100
AcDbArc
 50
179.9999999999964
 51
270.0000000005678
  0
ARC
  5
C1
100
AcDbEntity
  8
MAIN0
  6
CONTINUOUS
 62
3
100
AcDbCircle
 10
202.0315763061097
 20
275.5789252738141
 30
0.0000000000000000
 40
0.2000000000000000
100
AcDbArc
 50
270.0000000005678
 51
359.9999999999934
  0
LINE
  5
C2
100
AcDbEntity
  8
MAIN0
  6
CONTINUOUS
 62
3
100
AcDbLine
 10
197.0315763061097
 20
276.9789252738141
 30
0.0000000000000000
 11
197.4315763061098
 21
277.3789252738141
 31
0.0000000000000000
  0
ELLIPSE
  5
C3
100
AcDbEntity
  8
MAIN0
  6
CONTINUOUS
 62
3
100
AcDbEllipse
 10
200.6315763061098
 20
276.3789252738141
 30
0.0000000000000000
 11
1.600000000000000
 21
0.0000000000000000
 31
0.0000000000000000
210
0.0000000000000000
220
0.0000000000000000
230
1.000000000000000
 40
0.6250000000000000
 41
0.0000000000000000
 42
6.283185307179586
  0
LINE
  5
C4
100
AcDbEntity
  8
MAIN0
  6
CONTINUOUS
 62
3
100
AcDbLine
 10
114.9315763061093
 20
257.3789252738141
 30
0.0000000000000000
 11
204.8315763061094
 21
257.3789252738123
 31
0.0000000000000000
  0
ARC
  5
C5
100
AcDbEntity
  8
MAIN0
  6
CONTINUOUS
 62
3
100
AcDbCircle
 10
200.9315763061097
 20
254.4789252738132
 30
0.0000000000000000
 40
0.4000000000000000
100
AcDbArc
 50
0.0000000000000000
 51
89.99999999942553
  0
LINE
  5
C6
100
AcDbEntity
  8
MAIN0
  6
PHANTOM
 62
3
100
AcDbLine
 10
139.8315763061080
 20
158.0024021222195
 30
0.0000000000000000
 11
139.8315763061082
 21
180.4014133489713
 31
0.0000000000000000
  0
LINE
  5
C7
100
AcDbEntity
  8
MAIN0
  6
CONTINUOUS
 62
3
100
AcDbLine
 10
154.8315763061080
 20
164.3789252738137
 30
0.0000000000000000
 11
154.8315763061082
 21
184.3789252738137
 31
0.0000000000000000
  0
LINE
  5
C8
100
AcDbEntity
  8
MAIN0
  6
CONTINUOUS
 62
3
100
AcDbLine
 10
203.2315763061083
 20
184.8789252738133
 30
0.0000000000000000
 11
124.8315763061083
 21
184.8789252738140
 31
0.0000000000000000
  0
LINE
  5
C9
100
AcDbEntity
  8
MAIN0
  6
CONTINUOUS
 62
3
100
AcDbLine
 10
154.8315763061080
 20
164.3789252738137
 30
0.0000000000000000
 11
124.8315763061080
 21
164.3789252738140
 31
0.0000000000000000
  0
LINE
  5
CA
100
AcDbEntity
  8
MAIN0
  6
PHANTOM
 62
3
100
AcDbLine
 10
142.5565976737454
 20
176.8789252738138
 30
0.0000000000000000
 11
115.3095483133172
 21
176.8789252738141
 31
0.0000000000000000
  0
LINE
  5
CB
100
AcDbEntity
  8
MAIN0
  6
CONTINUOUS
 62
3
100
AcDbLine
 10
204.8315763061090
 20
43.55114936148215
 30
0.0000000000000000
 11
204.8315763061090
 21
34.31310694978504
 31
0.0000000000000000
  0
LINE
  5
CC
100
AcDbEntity
  8
MAIN0
  6
CONTINUOUS
 62
3
100
AcDbLine
 10
204.8315763061091
 20
83.52199377428588
 30
0.0000000000000000
 11
204.8315763061091
 21
74.55114936148215
 31
0.0000000000000000
  0
SPLINE
  5
CD
100
AcDbEntity
  8
MAIN0
  6
CONTINUOUS
 62
3
100
AcDbSpline
210
0.0000000000000000
220
0.0000000000000000
230
1.000000000000000
 70
     8
 71
     3
 72
    10
 73
     6
 74
     0
 42
1.000000000000000e-007
 43
1.000000000000000e-007
 12
-0.9493655079073733
 22
-0.3715351203537907
 32
0.0000000000000000
 13
-0.9826108496681627
 23
-0.2287616611011814
 33
0.0000000000000000
 40
0.0000000000000000
 40
0.0000000000000000
 40
0.0000000000000000
 40
0.0000000000000000
 40
1.869231956714330
 40
3.889389605560871
 40
6.384939262287395
 40
6.384939262287395
 40
6.384939262287395
 40
6.384939262287395
 10
204.7234459685296
 20
34.32374490924087
 30
0.0000000000000000
 10
204.1319178532020
 20
34.09224980257187
 30
0.0000000000000000
 10
202.9011004070909
 20
33.61056819083697
 30
0.0000000000000000
 10
200.7392663588483
 20
34.03591858156139
 30
0.0000000000000000
 10
199.2602053613878
 20
33.69157834680479
 30
0.0000000000000000
 10
198.4428206385261
 20
33.50128298519371
 30
0.0000000000000000
  0
SPLINE
  5
CE
100
AcDbEntity
  8
MAIN0
  6
CONTINUOUS
 62
3
100
AcDbSpline
210
0.0000000000000000
220
0.0000000000000000
230
1.000000000000000
 70
     8
 71
     3
 72
    10
 73
     6
 74
     0
 42
1.000000000000000e-007
 43
1.000000000000000e-007
 12
-0.9379339174996062
 22
0.3847192668568482
 32
0.0000000000000000
 13
-0.9951126918253976
 23
0.07653676490568273
 33
0.0000000000000000
 40
0.0000000000000000
 40
0.0000000000000000
 40
0.0000000000000000
 40
0.0000000000000000
 40
1.418650845669134
 40
3.736500160511184
 40
5.457819694106710
 40
5.457819694106710
 40
5.457819694106710
 40
5.457819694106710
 10
204.7234459685296
 20
83.52199377428588
 30
0.0000000000000000
 10
204.2799123867821
 20
83.70392121204310
 30
0.0000000000000000
 10
203.1117156423533
 20
84.18308907949725
 30
0.0000000000000000
 10
201.2508291579143
 20
83.89841403093809
 30
0.0000000000000000
 10
199.9110197627456
 20
84.00146233646052
 30
0.0000000000000000
 10
199.3400507912230
 20
84.04537707928398
 30
0.0000000000000000
  0
LINE
  5
CF
100
AcDbEntity
  8
MAIN0
  6
PHANTOM
 62
3
100
AcDbLine
 10
133.2530763061080
 20
164.3789252738141
 30
0.0000000000000000
 11
133.5468263061083
 21
173.7789252738141
 31
0.0000000000000000
  0
LINE
  5
D0
100
AcDbEntity
  8
MAIN0
  6
PHANTOM
 62
3
100
AcDbLine
 10
133.5468263061083
 20
173.7789252738141
 30
0.0000000000000000
 11
146.1163263061083
 21
173.7789252738137
 31
0.0000000000000000
  0
LINE
  5
D1
100
AcDbEntity
  8
MAIN0
  6
PHANTOM
 62
3
100
AcDbLine
 10
146.1163263061083
 20
173.7789252738137
 30
0.0000000000000000
 11
146.4100763061081
 21
164.3789252738137
 31
0.0000000000000000
  0
LINE
  5
D2
100
AcDbEntity
  8
MAIN0
  6
PHANTOM
 62
3
100
AcDbLine
 10
134.1090763061081
 20
164.3789252738141
 30
0.0000000000000000
 11
134.4028263061083
 21
173.7789252738140
 31
0.0000000000000000
  0
LINE
  5
D3
100
AcDbEntity
  8
MAIN0
  6
PHANTOM
 62
3
100
AcDbLine
 10
145.5540763061081
 20
164.3789252738137
 30
0.0000000000000000
 11
145.2603263061083
 21
173.7789252738137
 31
0.0000000000000000
  0
LINE
  5
D4
100
AcDbEntity
  8
MAIN0
  6
PHANTOM
 62
3
100
AcDbLine
 10
134.4315763061083
 20
173.7789252738140
 30
0.0000000000000000
 11
134.4315763061085
 21
177.7887998981622
 31
0.0000000000000000
  0
LINE
  5
D5
100
AcDbEntity
  8
MAIN0
  6
PHANTOM
 62
3
100
AcDbLine
 10
145.2315763061085
 20
178.3837038888557
 30
0.0000000000000000
 11
145.2315763061083
 21
173.7789252738137
 31
0.0000000000000000
  0
LINE
  5
D6
100
AcDbEntity
  8
MAIN0
  6
PHANTOM
 62
3
100
AcDbLine
 10
139.8315763061080
 20
169.3789252738139
 30
0.0000000000000000
 11
134.2653263061082
 21
169.3789252738139
 31
0.0000000000000000
  0
LINE
  5
D7
100
AcDbEntity
  8
MAIN0
  6
PHANTOM
 62
3
100
AcDbLine
 10
139.8315763061080
 20
163.3789252738139
 30
0.0000000000000000
 11
131.8315763061080
 21
163.3789252738139
 31
0.0000000000000000
  0
LINE
  5
D8
100
AcDbEntity
  8
MAIN0
  6
PHANTOM
 62
3
100
AcDbLine
 10
131.8315763061081
 20
164.3789252738139
 30
0.0000000000000000
 11
131.8315763061081
 21
163.3789252738139
 31
0.0000000000000000
  0
LINE
  5
D9
100
AcDbEntity
  8
MAIN0
  6
PHANTOM
 62
3
100
AcDbLine
 10
135.9323323853513
 20
168.6880710453629
 30
0.0000000000000000
 11
139.8315763061081
 21
168.6880710453629
 31
0.0000000000000000
  0
LINE
  5
DA
100
AcDbEntity
  8
MAIN0
  6
PHANTOM
 62
3
100
AcDbLine
 10
134.9323323853513
 20
167.6880710453629
 30
0.0000000000000000
 11
134.9323323853513
 21
163.3789252738139
 31
0.0000000000000000
  0
ARC
  5
DB
100
AcDbEntity
  8
MAIN0
  6
PHANTOM
 62
3
100
AcDbCircle
 10
135.9323323853513
 20
167.6880710453629
 30
0.0000000000000000
 40
1.000000000000000
100
AcDbArc
 50
89.99999999942553
 51
179.9999999999964
  0
LINE
  5
DC
100
AcDbEntity
  8
MAIN0
  6
PHANTOM
 62
3
100
AcDbLine
 10
139.8315763061081
 20
169.3789252738139
 30
0.0000000000000000
 11
145.3978263061079
 21
169.3789252738139
 31
0.0000000000000000
  0
LINE
  5
DD
100
AcDbEntity
  8
MAIN0
  6
PHANTOM
 62
3
100
AcDbLine
 10
143.7308202268648
 20
168.6880710453629
 30
0.0000000000000000
 11
139.8315763061081
 21
168.6880710453629
 31
0.0000000000000000
  0
ARC
  5
DE
100
AcDbEntity
  8
MAIN0
  6
PHANTOM
 62
3
100
AcDbCircle
 10
143.7308202268648
 20
167.6880710453629
 30
0.0000000000000000
 40
1.000000000000000
100
AcDbArc
 50
3.740332305401095e-012
 51
90.00000000057460
  0
LINE
  5
DF
100
AcDbEntity
  8
MAIN0
  6
PHANTOM
 62
3
100
AcDbLine
 10
144.7308202268648
 20
167.6880710453629
 30
0.0000000000000000
 11
144.7308202268648
 21
163.3789252738140
 31
0.0000000000000000
  0
LINE
  5
E0
100
AcDbEntity
  8
MAIN0
  6
PHANTOM
 62
3
100
AcDbLine
 10
147.8315763061081
 20
164.3789252738140
 30
0.0000000000000000
 11
147.8315763061081
 21
163.3789252738140
 31
0.0000000000000000
  0
LINE
  5
E1
100
AcDbEntity
  8
MAIN0
  6
PHANTOM
 62
3
100
AcDbLine
 10
139.8315763061081
 20
163.3789252738139
 30
0.0000000000000000
 11
147.8315763061082
 21
163.3789252738140
 31
0.0000000000000000
  0
LINE
  5
E2
100
AcDbEntity
  8
MAIN0
  6
CONTINUOUS
 62
3
100
AcDbLine
 10
204.8315763061094
 20
257.3789252738123
 30
0.0000000000000000
 11
204.8315763061093
 21
186.4789252738134
 31
0.0000000000000000
  0
LINE
  5
E3
100
AcDbEntity
  8
MAIN0
  6
PHANTOM
 62
3
100
AcDbLine
 10
130.7069005929070
 20
207.3789252738140
 30
0.0000000000000000
 11
106.9985117294117
 21
207.3789252738142
 31
0.0000000000000000
  0
LINE
  5
E4
100
AcDbEntity
  8
MAIN0
  6
CONTINUOUS
 62
3
100
AcDbLine
 10
129.3315763061092
 20
250.0748877593873
 30
0.0000000000000000
 11
129.3315763061093
 21
254.8789252738139
 31
0.0000000000000000
  0
DIMENSION
  5
ED
100
AcDbEntity
  8
MAIN0
  6
CONTINUOUS
 62
3
100
AcDbDimension
  2
*D0
 10
73.91515400421697
 20
165.8789252738142
 30
0.0000000000000000
 11
73.41515400421697
 21
267.3789252738142
 31
0.0000000000000000
 70
32
  1
\A1;\U+2205203h7
  3
MAIN001
100
AcDbAlignedDimension
 13
109.8315763061101
 23
368.8789252738142
 33
0.0000000000000000
 14
109.8315763061081
 24
165.8789252738142
 34
0.0000000000000000
 50
90.00000000000000
100
AcDbRotatedDimension
1001
ACAD
1000
DSTYLE
1002
{
1070
   173
1070
     1
1070
     6
1000
_OPEN
1070
     7
1000
_OPEN
1070
    41
1040
2.000000
1002
}
  0
DIMENSION
  5
F6
100
AcDbEntity
  8
MAIN0
  6
CONTINUOUS
 62
3
100
AcDbDimension
  2
*D1
 10
109.8315763061089
 20
121.9569239625737
 30
0.0000000000000000
 11
124.8315763061085
 21
122.4569239625737
 31
0.0000000000000000
 70
32
  3
MAIN001
100
AcDbAlignedDimension
 13
139.8315763061080
 23
158.0024021222195
 33
0.0000000000000000
 14
109.8315763061089
 24
165.8789252738142
 34
0.0000000000000000
100
AcDbRotatedDimension
1001
ACAD
1000
DSTYLE
1002
{
1070
   173
1070
     1
1070
     6
1000
_OPEN
1070
     7
1000
_OPEN
1070
    41
1040
2.000000
1002
}
  0
DIMENSION
  5
FF
100
AcDbEntity
  8
MAIN0
  6
CONTINUOUS
 62
3
100
AcDbDimension
  2
*D2
 10
109.8315763061089
 20
110.6880695321353
 30
0.0000000000000000
 11
117.3315763061085
 21
111.1880695321353
 31
0.0000000000000000
 70
32
  3
MAIN001
100
AcDbAlignedDimension
 13
124.8315763061080
 23
164.3789252738140
 33
0.0000000000000000
 14
109.8315763061089
 24
165.8789252738142
 34
0.0000000000000000
100
AcDbRotatedDimension
1001
ACAD
1000
DSTYLE
1002
{
1070
   173
1070
     1
1070
     6
1000
_OPEN
1070
     7
1000
_OPEN
1070
    41
1040
2.000000
1002
}
  0
DIMENSION
  5
108
100
AcDbEntity
  8
MAIN0
  6
CONTINUOUS
 62
3
100
AcDbDimension
  2
*D3
 10
124.8315763061080
 20
110.6880695321353
 30
0.0000000000000000
 11
139.8315763061080
 21
111.1880695321353
 31
0.0000000000000000
 70
32
  3
MAIN001
100
AcDbAlignedDimension
 13
154.8315763061080
 23
164.3789252738137
 33
0.0000000000000000
 14
124.8315763061080
 24
164.3789252738140
 34
0.0000000000000000
100
AcDbRotatedDimension
1001
ACAD
1000
DSTYLE
1002
{
1070
   173
1070
     1
1070
     6
1000
_OPEN
1070
     7
1000
_OPEN
1070
    41
1040
2.000000
1002
}
  0
DIMENSION
  5
111
100
AcDbEntity
  8
MAIN0
  6
CONTINUOUS
 62
3
100
AcDbDimension
  2
*D4
 10
154.8315763061080
 20
110.6880695321353
 30
0.0000000000000000
 11
179.8315763061087
 21
111.1880695321353
 31
0.0000000000000000
 70
32
  3
MAIN001
100
AcDbAlignedDimension
 13
204.8315763061093
 23
186.4789252738134
 33
0.0000000000000000
 14
154.8315763061080
 24
164.3789252738137
 34
0.0000000000000000
100
AcDbRotatedDimension
1001
ACAD
1000
DSTYLE
1002
{
1070
   173
1070
     1
1070
     6
1000
_OPEN
1070
     7
1000
_OPEN
1070
    41
1040
2.000000
1002
}
  0
DIMENSION
  5
11A
100
AcDbEntity
  8
MAIN0
  6
CONTINUOUS
 62
3
100
AcDbDimension
  2
*D5
 10
109.8315763061089
 20
98.88259031396879
 30
0.0000000000000000
 11
157.3315763061091
 21
99.38259031396879
 31
0.0000000000000000
 70
32
  3
MAIN001
100
AcDbAlignedDimension
 13
204.8315763061093
 23
186.4789252738134
 33
0.0000000000000000
 14
109.8315763061089
 24
165.8789252738142
 34
0.0000000000000000
100
AcDbRotatedDimension
1001
ACAD
1000
DSTYLE
1002
{
1070
   173
1070
     1
1070
     6
1000
_OPEN
1070
     7
1000
_OPEN
1070
    41
1040
2.000000
1002
}
  0
DIMENSION
  5
121
100
AcDbEntity
  8
MAIN0
  6
CONTINUOUS
 62
3
100
AcDbDimension
  2
*D6
 10
182.7932693933560
 20
257.3789252738123
 30
0.0000000000000000
 11
182.2932693933560
 21
267.3789252738133
 31
0.0000000000000000
 70
32
  1
\A1;\U+220520
  3
MAIN001
100
AcDbAlignedDimension
 13
204.9315763061093
 23
277.3789252738141
 33
0.0000000000000000
 14
204.9315763061092
 24
257.3789252738123
 34
0.0000000000000000
 50
90.00000000000000
100
AcDbRotatedDimension
1001
ACAD
1000
DSTYLE
1002
{
1070
   173
1070
     1
1070
     6
1000
_OPEN
1070
     7
1000
_OPEN
1070
    41
1040
2.000000
1002
}
  0
DIMENSION
  5
12A
100
AcDbEntity
  8
MAIN0
  6
CONTINUOUS
 62
3
100
AcDbDimension
  2
*D7
 10
204.8315763061100
 20
384.3120178778709
 30
0.0000000000000000
 11
222.8315763061104
 21
384.8120178778709
 31
0.0000000000000000
 70
32
  3
MAIN001
100
AcDbAlignedDimension
 13
240.8315763061108
 23
356.1289252738129
 33
0.0000000000000000
 14
204.8315763061100
 24
352.7789252738133
 34
0.0000000000000000
100
AcDbRotatedDimension
1001
ACAD
1000
DSTYLE
1002
{
1070
   173
1070
     1
1070
     6
1000
_OPEN
1070
     7
1000
_OPEN
1070
    41
1040
2.000000
1002
}
  0
DIMENSION
  5
134
100
AcDbEntity
  8
MAIN0
  6
CONTINUOUS
 62
3
100
AcDbDimension
  2
*D8
 10
204.8315763061090
 20
26.26739580484306
 30
0.0000000000000000
 11
207.3315763061090
 21
26.76739580484306
 31
0.0000000000000000
 70
32
  3
MAIN001
100
AcDbAlignedDimension
 13
209.8315763061090
 23
44.57151738201600
 33
0.0000000000000000
 14
204.8315763061090
 24
34.31310694978532
 34
0.0000000000000000
100
AcDbRotatedDimension
1001
ACAD
1000
DSTYLE
1002
{
1070
   173
1070
     1
1070
     6
1000
_DOT
1070
     7
1000
_OPEN
1070
    41
1040
2.000000
1070
   287
1070
     0
1002
}
  0
DIMENSION
  5
13E
100
AcDbEntity
  8
MAIN0
  6
CONTINUOUS
 62
3
100
AcDbDimension
  2
*D9
 10
209.8315763061090
 20
26.26739580484306
 30
0.0000000000000000
 11
216.1638088747982
 21
26.76739580484306
 31
0.0000000000000000
 70
160
  3
MAIN001
100
AcDbAlignedDimension
 13
212.8315763061090
 23
53.07151738201611
 33
0.0000000000000000
 14
209.8315763061090
 24
44.57151738201600
 34
0.0000000000000000
100
AcDbRotatedDimension
1001
ACAD
1000
DSTYLE
1002
{
1070
   173
1070
     1
1070
     6
1000
_OPEN
1070
     7
1000
_DOT
1070
    41
1040
2.000000
1070
   287
1070
     0
1002
}
  0
DIMENSION
  5
147
100
AcDbEntity
  8
MAIN0
  6
CONTINUOUS
 62
3
100
AcDbDimension
  2
*D10
 10
223.6536426047326
 20
53.07151738201611
 30
0.0000000000000000
 11
223.1536426047326
 21
59.07151738201611
 31
0.0000000000000000
 70
32
  3
MAIN001
100
AcDbAlignedDimension
 13
212.8315763061090
 23
65.07151738201611
 33
0.0000000000000000
 14
212.8315763061090
 24
53.07151738201611
 34
0.0000000000000000
 50
90.00000000000000
100
AcDbRotatedDimension
1001
ACAD
1000
DSTYLE
1002
{
1070
   173
1070
     1
1070
     6
1000
_OPEN
1070
     7
1000
_OPEN
1070
    41
1040
2.000000
1002
}
  0
MTEXT
  5
148
100
AcDbEntity
  8
MAIN0
  6
CONTINUOUS
 62
3
100
AcDbMText
 10
226.0100278744148
 20
52.22960701553387
 30
0.0000000000000000
 40
3.099999904632568
 41
0.0000000000000000
 71
     1
 72
     1
  1
{\H0.92x;{H8/h8}}
 11
1.002670741233467e-011
 21
1.000000000000000
 31
0.0000000000000000
  7
STANDARD
  0
DIMENSION
  5
151
100
AcDbEntity
  8
MAIN0
  6
CONTINUOUS
 62
3
100
AcDbDimension
  2
*D11
 10
261.7295258616045
 20
284.1289252738129
 30
0.0000000000000000
 11
261.2295258616045
 21
302.6289252738129
 31
0.0000000000000000
 70
32
  3
MAIN001
100
AcDbAlignedDimension
 13
245.7106764173255
 23
321.1289252738128
 33
0.0000000000000000
 14
240.8315763061101
 24
284.1289252738129
 34
0.0000000000000000
 50
90.00000000000000
100
AcDbRotatedDimension
1001
ACAD
1000
DSTYLE
1002
{
1070
   173
1070
     1
1070
     6
1000
_OPEN
1070
     7
1000
_OPEN
1070
    41
1040
2.000000
1002
}
  0
DIMENSION
  5
15A
100
AcDbEntity
  8
MAIN0
  6
CONTINUOUS
 62
3
100
AcDbDimension
  2
*D12
 10
261.7295258616045
 20
321.1289252738128
 30
0.0000000000000000
 11
261.2295258616045
 21
331.1289252738128
 31
0.0000000000000000
 70
32
  3
MAIN001
100
AcDbAlignedDimension
 13
245.7106764173255
 23
341.1289252738128
 33
0.0000000000000000
 14
245.7106764173255
 24
321.1289252738128
 34
0.0000000000000000
 50
90.00000000000000
100
AcDbRotatedDimension
1001
ACAD
1000
DSTYLE
1002
{
1070
   173
1070
     1
1070
     6
1000
_OPEN
1070
     7
1000
_OPEN
1070
    41
1040
2.000000
1002
}
  0
DIMENSION
  5
163
100
AcDbEntity
  8
MAIN0
  6
CONTINUOUS
 62
3
100
AcDbDimension
  2
*D13
 10
270.8816073702353
 20
356.1289252738129
 30
0.0000000000000000
 11
270.3816073702353
 21
320.1289252738129
 31
0.0000000000000000
 70
32
  3
MAIN001
100
AcDbAlignedDimension
 13
240.8315763061101
 23
284.1289252738129
 33
0.0000000000000000
 14
240.8315763061107
 24
356.1289252738129
 34
0.0000000000000000
 50
90.00000000000000
100
AcDbRotatedDimension
1001
ACAD
1000
DSTYLE
1002
{
1070
   173
1070
     1
1070
     6
1000
_OPEN
1070
     7
1000
_OPEN
1070
    41
1040
2.000000
1002
}
  0
LEADER
  5
164
100
AcDbEntity
  8
MAIN0
  6
CONTINUOUS
 62
3
100
AcDbLeader
  3
MAIN001
 73
     0
 75
     1
 40
3.099999904632568
 41
40.89400099420547
 76
     3
 10
208.6325190649610
 20
347.3536774317919
 30
0.0000000000000000
 10
196.8670729143597
 20
377.0689734597825
 30
0.0000000000000000
 10
194.9400729701497
 20
377.0689734597825
 30
0.0000000000000000
340
165
213
0.0000000000000000
223
-0.5000000000000000
233
0.0000000000000000
1001
ACAD
1000
DSTYLE
1002
{
1070
   147
1040
0.0
1070
    77
1070
     1
1070
   173
1070
     1
1070
     6
1000
_OPEN
1070
     7
1000
_OPEN
1002
}
  0
MTEXT
  5
165
102
{ACAD_REACTORS
330
164
102
}
100
AcDbEntity
  8
MAIN0
  6
CONTINUOUS
 62
3
100
AcDbMText
 10
154.0460719759442
 20
377.5689734597825
 30
0.0000000000000000
 40
3.099999904632568
 41
0.0000000000000000
 71
     7
 72
     1
  1
{\H0.94x;{セレーションピッチ 1.5}}
 11
1.000000000000000
 21
0.0000000000000000
 31
0.0000000000000000
  7
KNJYOKO
  0
SPLINE
  5
166
100
AcDbEntity
  8
MAIN0
  6
CONTINUOUS
 62
3
100
AcDbSpline
210
0.0000000000000000
220
0.0000000000000000
230
1.000000000000000
 70
     8
 71
     3
 72
    17
 73
    13
 74
     0
 42
1.000000000000000e-007
 43
1.000000000000000e-007
 12
0.9959312760084629
 22
-0.1141101595691083
 32
0.0000000000000000
 13
0.9178653298844210
 23
0.04374606449579233
 33
0.0000000000000000
 40
0.0000000000000000
 40
0.0000000000000000
 40
0.0000000000000000
 40
0.0000000000000000
 40
8.957840171682333
 40
21.36326267076747
 40
30.19297914738948
 40
38.99409731860003
 40
49.56368911077788
 40
61.42755881275998
 40
72.97670773090648
 40
85.36441273794269
 40
93.40847900043001
 40
95.87934906422680
 40
95.87934906422680
 40
95.87934906422680
 40
95.87934906422680
 10
109.8315763061096
 20
288.6843248044863
 30
0.0000000000000000
 10
112.8053740369308
 20
288.3435979473578
 30
0.0000000000000000
 10
119.8974878540646
 20
287.5310095099317
 30
0.0000000000000000
 10
129.4802755945773
 20
284.3471804072633
 30
0.0000000000000000
 10
139.3103856384061
 20
282.2174031057726
 30
0.0000000000000000
 10
148.7930576858145
 20
282.4311779098312
 30
0.0000000000000000
 10
158.9935549792333
 20
284.7942826138793
 30
0.0000000000000000
 10
170.4122078216096
 20
284.1177534788487
 30
0.0000000000000000
 10
182.2097592304028
 20
282.5349574726640
 30
0.0000000000000000
 10
192.8867774474705
 20
281.7980688883200
 30
0.0000000000000000
 10
200.5414651382200
 20
282.3532108922354
 30
0.0000000000000000
 10
204.0756009828162
 20
282.5216515501855
 30
0.0000000000000000
 10
204.8315763048856
 20
282.5576818305760
 30
0.0000000000000000
  0
SPLINE
  5
167
100
AcDbEntity
  8
MAIN0
  6
CONTINUOUS
 62
3
100
AcDbSpline
210
0.0000000000000000
220
0.0000000000000000
230
1.000000000000000
 70
     8
 71
     3
 72
    16
 73
    12
 74
     0
 42
1.000000000000000e-007
 43
1.000000000000000e-007
 12
0.9935369631504045
 22
0.1097515283909303
 32
0.0000000000000000
 13
0.9534940110815739
 23
-0.2067329134665243
 33
0.0000000000000000
 40
0.0000000000000000
 40
0.0000000000000000
 40
0.0000000000000000
 40
0.0000000000000000
 40
6.728706533904663
 40
17.21486307943538
 40
26.34526936250401
 40
36.80657488752541
 40
48.15181730223477
 40
61.03578106624705
 40
75.70498559409366
 40
87.59966901820246
 40
95.56837874482224
 40
95.56837874482224
 40
95.56837874482224
 40
95.56837874482224
 10
109.8315763061094
 20
248.2544563967192
 30
0.0000000000000000
 10
112.0599825246514
 20
248.5006183387826
 30
0.0000000000000000
 10
117.7611834529822
 20
249.1304041834521
 30
0.0000000000000000
 10
126.6184271692083
 20
249.0845818926192
 30
0.0000000000000000
 10
136.2689207580607
 20
252.1184797606345
 30
0.0000000000000000
 10
146.7332690940327
 20
252.2307110727957
 30
0.0000000000000000
 10
158.0514260118459
 20
249.5780940260045
 30
0.0000000000000000
 10
171.0950857606445
 20
250.0582671760709
 30
0.0000000000000000
 10
184.2087355428918
 20
249.7348199742523
 30
0.0000000000000000
 10
195.7861502272407
 20
249.2170200789307
 30
0.0000000000000000
 10
202.2988706384662
 20
247.8049580045334
 30
0.0000000000000000
 10
204.8315763052594
 20
247.2558264784157
 30
0.0000000000000000
  0
DIMENSION
  5
170
100
AcDbEntity
  8
MAIN0
  6
CONTINUOUS
 62
3
100
AcDbDimension
  2
*D14
 10
86.74347069610968
 20
254.8789252738132
 30
0.0000000000000000
 11
86.24347069610968
 21
267.3789252738132
 31
0.0000000000000000
 70
32
  1
\A1;\U+220525H7
  3
MAIN001
100
AcDbAlignedDimension
 13
110.4315763061094
 23
279.8789252738141
 33
0.0000000000000000
 14
110.4315763061091
 24
254.8789252738141
 34
0.0000000000000000
 50
90.00000000000000
100
AcDbRotatedDimension
1001
ACAD
1000
DSTYLE
1002
{
1070
   173
1070
     1
1070
     6
1000
_OPEN
1070
     7
1000
_OPEN
1070
    41
1040
2.000000
1002
}
  0
LINE
  5
171
100
AcDbEntity
  8
MAIN0
  6
PHANTOM
 62
3
100
AcDbLine
 10
169.8315763061077
 20
129.3789252738136
 30
0.0000000000000000
 11
169.8315763061082
 21
184.3789252738136
 31
0.0000000000000000
  0
LINE
  5
172
100
AcDbEntity
  8
MAIN0
  6
CONTINUOUS
 62
3
100
AcDbLine
 10
124.8315763061082
 20
184.3789252738140
 30
0.0000000000000000
 11
154.8315763061082
 21
184.3789252738137
 31
0.0000000000000000
  0
LINE
  5
173
100
AcDbEntity
  8
MAIN0
  6
PHANTOM
 62
3
100
AcDbLine
 10
154.8315763061082
 20
184.3789252738137
 30
0.0000000000000000
 11
169.8315763061083
 21
184.3789252738136
 31
0.0000000000000000
  0
LINE
  5
174
100
AcDbEntity
  8
MAIN0
  6
PHANTOM
 62
3
100
AcDbLine
 10
124.8315763061077
 20
129.8789252738140
 30
0.0000000000000000
 11
124.8315763061080
 21
164.3789252738140
 31
0.0000000000000000
  0
LINE
  5
175
100
AcDbEntity
  8
MAIN0
  6
CONTINUOUS
 62
3
100
AcDbLine
 10
124.8315763061080
 20
164.3789252738140
 30
0.0000000000000000
 11
124.8315763061089
 21
249.2999646641938
 31
0.0000000000000000
  0
LINE
  5
176
100
AcDbEntity
  8
MAIN0
  6
HIDDEN
 62
3
100
AcDbLine
 10
109.8315763061101
 20
365.3789252738141
 30
0.0000000000000000
 11
124.8315763061100
 21
365.3789252738141
 31
0.0000000000000000
  0
LINE
  5
177
100
AcDbEntity
  8
MAIN0
  6
HIDDEN
 62
3
100
AcDbLine
 10
109.8315763061100
 20
354.3789252738141
 30
0.0000000000000000
 11
124.8315763061099
 21
354.3789252738141
 31
0.0000000000000000
  0
DIMENSION
  5
180
100
AcDbEntity
  8
MAIN0
  6
CONTINUOUS
 62
3
100
AcDbDimension
  2
*D15
 10
124.8315763061080
 20
88.15034020111602
 30
0.0000000000000000
 11
147.3315763061079
 21
88.65034020111602
 31
0.0000000000000000
 70
32
  3
MAIN001
100
AcDbAlignedDimension
 13
169.8315763061077
 23
129.8789252738136
 33
0.0000000000000000
 14
124.8315763061080
 24
164.3789252738140
 34
0.0000000000000000
100
AcDbRotatedDimension
1001
ACAD
1000
DSTYLE
1002
{
1070
   173
1070
     1
1070
     6
1000
_OPEN
1070
     7
1000
_OPEN
1070
    41
1040
2.000000
1002
}
  0
LINE
  5
181
100
AcDbEntity
  8
MAIN0
  6
PHANTOM
 62
3
100
AcDbLine
 10
169.8315763061077
 20
129.3789252738136
 30
0.0000000000000000
 11
124.8315763061078
 21
129.3789252738140
 31
0.0000000000000000
  0
DIMENSION
  5
18A
100
AcDbEntity
  8
MAIN0
  6
CONTINUOUS
 62
3
100
AcDbDimension
  2
*D16
 10
184.6815236626264
 20
129.3789252738136
 30
0.0000000000000000
 11
184.1815236626264
 21
156.8789252738136
 31
0.0000000000000000
 70
32
  3
MAIN001
100
AcDbAlignedDimension
 13
169.8315763061083
 23
184.3789252738136
 33
0.0000000000000000
 14
169.8315763061077
 24
129.3789252738136
 34
0.0000000000000000
 50
90.00000000000000
100
AcDbRotatedDimension
1001
ACAD
1000
DSTYLE
1002
{
1070
   173
1070
     1
1070
     6
1000
_OPEN
1070
     7
1000
_OPEN
1070
    41
1040
2.000000
1002
}
  0
LEADER
  5
18B
100
AcDbEntity
  8
MAIN0
  6
CONTINUOUS
 62
3
100
AcDbLeader
  3
MAIN001
 73
     0
 74
     0
 75
     1
 40
3.099999904632568
 41
10.78100032901764
 76
     3
 10
169.8315763061078
 20
145.3506188024587
 30
0.0000000000000000
 10
183.2823695567662
 20
118.4167521508408
 30
0.0000000000000000
 10
185.2073695009763
 20
118.4167521508408
 30
0.0000000000000000
340
18C
213
-0.001000000000004775
223
-0.5000000000000000
233
0.0000000000000000
1001
ACAD
1000
DSTYLE
1002
{
1070
   147
1040
0.0
1070
    77
1070
     1
1070
   173
1070
     1
1070
     6
1000
_OPEN
1070
     7
1000
_OPEN
1002
}
  0
MTEXT
  5
18C
102
{ACAD_REACTORS
330
18B
102
}
100
AcDbEntity
  8
MAIN0
  6
CONTINUOUS
 62
3
100
AcDbMText
 10
185.2083695009763
 20
118.9167521508408
 30
0.0000000000000000
 40
3.099999904632568
 41
0.0000000000000000
 71
     7
 72
     1
  1
{\H0.91x;{LV-3}}
 11
1.000000000000000
 21
0.0000000000000000
 31
0.0000000000000000
  7
STANDARD
  0
DIMENSION
  5
196
100
AcDbEntity
  8
MAIN0
  6
CONTINUOUS
 62
3
100
AcDbDimension
  2
*D17
 10
109.8315763061089
 20
240.1862246659144
 30
0.0000000000000000
 11
119.0882286416206
 21
240.6862246659144
 31
0.0000000000000000
 70
160
  3
MAIN001
100
AcDbAlignedDimension
 13
114.9315763061093
 23
255.3408054891672
 33
0.0000000000000000
 14
109.8315763061089
 24
165.8789252738142
 34
0.0000000000000000
100
AcDbRotatedDimension
1001
ACAD
1000
DSTYLE
1002
{
1070
   173
1070
     1
1070
     6
1000
_OPEN
1070
     7
1000
_OPEN
1070
    41
1040
2.000000
1070
   287
1070
     0
1002
}
  0
LINE
  5
197
100
AcDbEntity
  8
MAIN0
  6
HIDDEN
 62
3
100
AcDbLine
 10
438.8372352095592
 20
206.5106517501500
 30
0.0000000000000000
 11
436.5304515474798
 21
210.8364113830918
 31
0.0000000000000000
  0
LINE
  5
198
100
AcDbEntity
  8
MAIN0
  6
HIDDEN
 62
3
100
AcDbLine
 10
436.5304515474797
 20
210.8364113830919
 30
0.0000000000000000
 11
443.0111905062951
 21
214.5568972532698
 31
0.0000000000000000
  0
LINE
  5
199
100
AcDbEntity
  8
MAIN0
  6
HIDDEN
 62
3
100
AcDbLine
 10
443.0111905062950
 20
214.5568972532699
 30
0.0000000000000000
 11
445.5835693383100
 21
210.3836114482685
 31
0.0000000000000000
  0
LINE
  5
19A
100
AcDbEntity
  8
MAIN0
  6
HIDDEN
 62
3
100
AcDbLine
 10
439.3896731630254
 20
206.8277973122662
 30
0.0000000000000000
 11
437.0828895009461
 21
211.1535569452080
 31
0.0000000000000000
  0
LINE
  5
19B
100
AcDbEntity
  8
MAIN0
  6
HIDDEN
 62
3
100
AcDbLine
 10
445.0311313848438
 20
210.0664658861524
 30
0.0000000000000000
 11
442.4587525528287
 21
214.2397516911537
 31
0.0000000000000000
  0
LINE
  5
19C
100
AcDbEntity
  8
MAIN0
  6
HIDDEN
 62
3
100
AcDbLine
 10
437.0823474699870
 20
211.1532457741306
 30
0.0000000000000000
 11
420.1048534854339
 21
240.7264549000348
 31
0.0000000000000000
  0
LINE
  5
19D
100
AcDbEntity
  8
MAIN0
  6
HIDDEN
 62
3
100
AcDbLine
 10
420.1048534854340
 20
240.7264549000348
 30
0.0000000000000000
 11
425.4818005992347
 21
243.8132719881353
 31
0.0000000000000000
  0
LINE
  5
19E
100
AcDbEntity
  8
MAIN0
  6
HIDDEN
 62
3
100
AcDbLine
 10
425.4818005992347
 20
243.8132719881354
 30
0.0000000000000000
 11
442.4592945837877
 21
214.2400628622312
 31
0.0000000000000000
  0
LINE
  5
19F
100
AcDbEntity
  8
MAIN0
  6
HIDDEN
 62
3
100
AcDbLine
 10
420.1048534854340
 20
240.7264549000348
 30
0.0000000000000000
 11
421.9022397039574
 21
243.8220543758707
 31
0.0000000000000000
  0
LINE
  5
1A0
100
AcDbEntity
  8
MAIN0
  6
HIDDEN
 62
3
100
AcDbLine
 10
421.9022397039574
 20
243.8220543758707
 30
0.0000000000000000
 11
425.4818005992347
 21
243.8132719881353
 31
0.0000000000000000
  0
DIMENSION
  5
1A8
100
AcDbEntity
  8
MAIN0
  6
CONTINUOUS
 62
3
100
AcDbDimension
  2
*D18
 10
505.5004890939577
 20
267.3789252738114
 30
0.0000000000000000
 11
503.9935180582941
 21
252.0155161341058
 31
0.0000000000000000
 70
162
  3
MAIN001
100
AcDb2LineAngularDimension
 13
493.7981684305692
 23
238.8419803011760
 33
0.0000000000000000
 14
492.8322426042801
 24
239.1007993462785
 34
0.0000000000000000
 15
387.2968398998962
 25
267.3789252738114
 35
0.0000000000000000
 16
504.4892404889810
 26
251.9502530379958
 36
0.0000000000000000
1001
ACAD
1000
DSTYLE
1002
{
1070
   173
1070
     1
1070
     6
1000
_OPEN
1070
     7
1000
_OPEN
1070
    41
1040
2.000000
1002
}
  0
DIMENSION
  5
1B0
100
AcDbEntity
  8
MAIN0
  6
CONTINUOUS
 62
3
100
AcDbDimension
  2
*D19
 10
478.6189836962941
 20
320.1037895774699
 30
0.0000000000000000
 11
500.9898345049294
 21
297.8428713632233
 31
0.0000000000000000
 70
162
  3
MAIN001
100
AcDb2LineAngularDimension
 13
505.5004890939577
 23
267.3789252738114
 33
0.0000000000000000
 14
387.2968398998962
 24
267.3789252738114
 34
0.0000000000000000
 15
477.7529582925090
 25
319.6037895774711
 35
0.0000000000000000
 16
501.4727974180740
 26
297.9722808857742
 36
0.0000000000000000
1001
ACAD
1000
DSTYLE
1002
{
1070
   173
1070
     1
1070
     6
1000
_OPEN
1070
     7
1000
_OPEN
1070
    41
1040
2.000000
1002
}
  0
DIMENSION
  5
1B9
100
AcDbEntity
  8
MAIN0
  6
CONTINUOUS
 62
3
100
AcDbDimension
  2
*D20
 10
415.9791813962489
 20
374.4228810182407
 30
0.0000000000000000
 11
459.5590430118870
 21
361.5528618666300
 31
0.0000000000000000
 70
162
  3
MAIN001
100
AcDb2LineAngularDimension
 13
478.6189836962941
 23
320.1037895774699
 33
0.0000000000000000
 14
477.7529582925090
 24
319.6037895774711
 34
0.0000000000000000
 15
415.7203623511464
 25
373.4569551919516
 35
0.0000000000000000
 16
459.2546622973824
 26
361.1561851964846
 36
0.0000000000000000
1001
ACAD
1000
DSTYLE
1002
{
1070
   173
1070
     1
1070
     6
1000
_OPEN
1070
     7
1000
_OPEN
1070
    41
1040
2.000000
1002
}
  0
DIMENSION
  5
1C2
100
AcDbEntity
  8
MAIN0
  6
CONTINUOUS
 62
3
100
AcDbDimension
  2
*D21
 10
387.2968398998963
 20
384.8970721976088
 30
0.0000000000000000
 11
402.7907752318219
 21
385.0670482935832
 31
0.0000000000000000
 70
162
  3
MAIN001
100
AcDb2LineAngularDimension
 13
415.9791813962489
 23
374.4228810182407
 33
0.0000000000000000
 14
415.7203623511464
 24
373.4569551919516
 34
0.0000000000000000
 15
387.2968398998963
 25
383.8970721976088
 35
0.0000000000000000
 16
402.7255121357119
 26
384.5713258628962
 36
0.0000000000000000
1001
ACAD
1000
DSTYLE
1002
{
1070
   173
1070
     1
1070
     6
1000
_OPEN
1070
     7
1000
_OPEN
1070
    41
1040
2.000000
1002
}
  0
MTEXT
  5
1C3
100
AcDbEntity
  8
MAIN0
  6
CONTINUOUS
 62
3
100
AcDbMText
 10
452.9804098856469
 20
182.6664441247015
 30
0.0000000000000000
 40
5.000000000000000
 41
0.0000000000000000
 71
     1
 72
     1
  1
{\H0.91x;{開\POPEN}}
 11
0.8660254037844387
 21
0.4999999999999999
 31
0.0000000000000000
  7
KNJYOKO
  0
MTEXT
  5
1C4
100
AcDbEntity
  8
MAIN0
  6
CONTINUOUS
 62
3
100
AcDbMText
 10
413.2112224924998
 20
159.6981530555562
 30
0.0000000000000000
 40
5.000000000000000
 41
0.0000000000000000
 71
     1
 72
     1
  1
{\H0.92x;{閉\PCLOSE}}
 11
0.8660254037844387
 21
0.4999999999999999
 31
0.0000000000000000
  7
KNJYOKO
  0
MTEXT
  5
1C5
100
AcDbEntity
  8
MAIN0
  6
CONTINUOUS
 62
3
100
AcDbMText
 10
298.6643591274886
 20
150.0361288799416
 30
0.0000000000000000
 40
4.000000000000000
 41
0.0000000000000000
 71
     1
 72
     1
  1
{\H0.94x;{マルチプレートに取付以外は\P止栓とする}}
 11
1.000000000000000
 21
0.0000000000000000
 31
0.0000000000000000
  7
KNJYOKO
  0
MTEXT
  5
1C6
100
AcDbEntity
  8
MAIN0
  6
CONTINUOUS
 62
3
100
AcDbMText
 10
292.0478939303979
 20
151.0076163397451
 30
0.0000000000000000
 40
10.00000000000000
 41
0.0000000000000000
 71
     1
 72
     1
  1
{\H0.93x;{(      )}}
 11
1.000000000000000
 21
0.0000000000000000
 31
0.0000000000000000
  7
STANDARD
  0
DIMENSION
  5
1CD
100
AcDbEntity
  8
MAIN0
  6
CONTINUOUS
 62
3
100
AcDbDimension
  2
*D22
 10
387.2968398998963
 20
267.3789252738114
 30
0.0000000000000000
 11
439.4232690266488
 21
236.9750769146403
 31
0.0000000000000000
 70
164
  3
MAIN001
100
AcDbRadialDimension
 15
447.4687011257888
 25
231.6109631203433
 35
0.0000000000000000
1001
ACAD
1000
DSTYLE
1002
{
1070
   173
1070
     1
1070
     6
1000
_OPEN
1070
     7
1000
_OPEN
1070
    41
1040
2.000000
1070
   340
1005
1CE
1002
}
  0
DIMENSION
  5
1D7
100
AcDbEntity
  8
MAIN0
  6
CONTINUOUS
 62
3
100
AcDbDimension
  2
*D23
 10
442.7325053284792
 20
211.9432598453391
 30
0.0000000000000000
 11
449.5987936497558
 21
116.9687035687712
 31
0.0000000000000000
 70
162
  3
MAIN001
100
AcDb2LineAngularDimension
 13
387.2968398998963
 23
159.2318584358381
 33
0.0000000000000000
 14
387.2968398998963
 24
160.2318584358381
 34
0.0000000000000000
 15
442.0253985472920
 25
212.6503666265249
 35
0.0000000000000000
 16
449.7901353659386
 26
116.5067638025156
 36
0.0000000000000000
1001
ACAD
1000
DSTYLE
1002
{
1070
   173
1070
     1
1070
     6
1000
_OPEN
1070
     7
1000
_OPEN
1070
    41
1040
2.000000
1002
}
  0
LINE
  5
1D8
100
AcDbEntity
  8
MAIN0
  6
CONTINUOUS
 62
3
100
AcDbLine
 10
174.8315763061099
 20
350.8789252738134
 30
0.0000000000000000
 11
174.8315763061099
 21
349.8789252738135
 31
0.0000000000000000
  0
LINE
  5
1D9
100
AcDbEntity
  8
MAIN0
  6
CONTINUOUS
 62
3
100
AcDbLine
 10
170.3315763061099
 20
350.8789252738134
 30
0.0000000000000000
 11
170.3315763061099
 21
349.8789252738135
 31
0.0000000000000000
  0
LINE
  5
1DA
100
AcDbEntity
  8
MAIN0
  6
CONTINUOUS
 62
3
100
AcDbLine
 10
188.8315763061099
 20
350.8789252738134
 30
0.0000000000000000
 11
188.8315763061099
 21
349.8789252738135
 31
0.0000000000000000
  0
LINE
  5
1DB
100
AcDbEntity
  8
MAIN0
  6
CONTINUOUS
 62
3
100
AcDbLine
 10
204.8315763061101
 20
304.8134941406335
 30
0.0000000000000000
 11
204.8315763061109
 21
348.2789252738131
 31
0.0000000000000000
  0
LINE
  5
1DC
100
AcDbEntity
  8
MAIN0
  6
CENTER
 62
3
100
AcDbLine
 10
219.6009214188573
 20
267.3789252738131
 30
0.0000000000000000
 11
184.2932693933561
 21
267.3789252738134
 31
0.0000000000000000
  0
LINE
  5
1DD
100
AcDbEntity
  8
MAIN0
  6
CENTER
 62
3
100
AcDbLine
 10
92.57602567921047
 20
267.3789252738143
 30
0.0000000000000000
 11
177.6932694887234
 21
267.3789252738135
 31
0.0000000000000000
  0
LINE
  5
1DE
100
AcDbEntity
  8
MAIN0
  6
PHANTOM
 62
3
100
AcDbLine
 10
490.9378560512741
 20
167.8674195515586
 30
0.0000000000000000
 11
421.6558237485180
 21
127.8674195515590
 31
0.0000000000000000
  0
DIMENSION
  5
1E7
100
AcDbEntity
  8
MAIN0
  6
CONTINUOUS
 62
3
100
AcDbDimension
  2
*D24
 10
392.4851622026297
 20
111.0257302555997
 30
0.0000000000000000
 11
364.5417404959121
 21
158.4251563889573
 31
0.0000000000000000
 70
160
  3
MAIN001
100
AcDbAlignedDimension
 13
387.2968398998963
 23
267.3789252738114
 33
0.0000000000000000
 14
421.6558237485180
 24
127.8674195515590
 34
0.0000000000000000
 50
120.0000000000001
100
AcDbRotatedDimension
1001
ACAD
1000
DSTYLE
1002
{
1070
   173
1070
     1
1070
     6
1000
_OPEN
1070
     7
1000
_OPEN
1070
    41
1040
2.000000
1002
}
  0
LINE
  5
1E8
100
AcDbEntity
  8
MAIN0
  6
PHANTOM
 62
3
100
AcDbLine
 10
342.6551131974465
 20
326.2484100432890
 30
0.0000000000000000
 11
339.9271197571966
 21
329.1738248497657
 31
0.0000000000000000
  0
LINE
  5
1E9
100
AcDbEntity
  8
MAIN0
  6
PHANTOM
 62
3
100
AcDbLine
 10
339.9271197571966
 20
329.1738248497654
 30
0.0000000000000000
 11
328.9568142329090
 21
318.9438494488280
 31
0.0000000000000000
  0
LINE
  5
1EA
100
AcDbEntity
  8
MAIN0
  6
PHANTOM
 62
3
100
AcDbLine
 10
342.6551131974466
 20
326.2484100432887
 30
0.0000000000000000
 11
331.6848076731590
 21
316.0184346423513
 31
0.0000000000000000
  0
LINE
  5
1EB
100
AcDbEntity
  8
MAIN0
  6
PHANTOM
 62
3
100
AcDbLine
 10
331.6848076731590
 20
316.0184346423515
 30
0.0000000000000000
 11
328.9568142329090
 21
318.9438494488283
 31
0.0000000000000000
  0
LINE
  5
1EC
100
AcDbEntity
  8
MAIN0
  6
CENTER
 62
3
100
AcDbLine
 10
387.2968398998963
 20
267.3789252738113
 30
0.0000000000000000
 11
327.0229927950948
 21
332.0147129418122
 31
0.0000000000000000
  0
MTEXT
  5
1ED
100
AcDbEntity
  8
MAIN0
  6
CONTINUOUS
 62
3
100
AcDbMText
 10
327.0439727217405
 20
310.0178980195454
 30
0.0000000000000000
 40
3.000000000000000
 41
0.0000000000000000
 71
     1
 72
     1
  1
{\H0.92x;{JAPAN}}
 11
-0.5000000000000042
 21
-0.8660254037844362
 31
0.0000000000000000
  7
STANDARD
  0
LEADER
  5
1EE
100
AcDbEntity
  8
MAIN0
  6
CONTINUOUS
 62
3
100
AcDbLeader
  3
MAIN001
 73
     0
 74
     0
 75
     1
 40
3.099999904632568
 41
23.98100055551529
 76
     3
 10
225.0238184688294
 20
340.3846590348525
 30
0.0000000000000000
 10
247.6591503437123
 20
380.0892483886117
 30
0.0000000000000000
 10
249.5841502879223
 20
380.0892483886117
 30
0.0000000000000000
340
1EF
213
-0.001000000000004775
223
-0.5000000000000000
233
0.0000000000000000
1001
ACAD
1000
DSTYLE
1002
{
1070
   147
1040
0.0
1070
    77
1070
     1
1070
   173
1070
     1
1070
     6
1000
_DOT
1070
     7
1000
_DOT
1002
}
  0
MTEXT
  5
1EF
102
{ACAD_REACTORS
330
1EE
102
}
100
AcDbEntity
  8
MAIN0
  6
CONTINUOUS
 62
3
100
AcDbMText
 10
249.5851502879223
 20
383.6892482932443
 30
0.0000000000000000
 40
3.099999904632568
 41
0.0000000000000000
 71
     1
 72
     1
  1
{\H0.93x;{六角穴付ボルト\PM10×30}}
 11
1.000000000000000
 21
0.0000000000000000
 31
0.0000000000000000
  7
KNJYOKO
  0
LEADER
  5
1F0
100
AcDbEntity
  8
MAIN0
  6
CONTINUOUS
 62
3
100
AcDbLeader
  3
MAIN001
 73
     0
 74
     0
 75
     1
 40
3.099999904632568
 41
20.50100047683716
 76
     3
 10
238.0113007372970
 20
347.8060774739768
 30
0.0000000000000000
 10
246.7314747999323
 20
365.4319480280075
 30
0.0000000000000000
 10
248.6564747441423
 20
365.4319480280075
 30
0.0000000000000000
340
1F1
213
-0.001000000000004775
223
-0.5000000000000000
233
0.0000000000000000
1001
ACAD
1000
DSTYLE
1002
{
1070
   147
1040
0.0
1070
    77
1070
     1
1070
   173
1070
     1
1070
     6
1000
_DOT
1070
     7
1000
_DOT
1002
}
  0
MTEXT
  5
1F1
102
{ACAD_REACTORS
330
1F0
102
}
100
AcDbEntity
  8
MAIN0
  6
CONTINUOUS
 62
3
100
AcDbMText
 10
248.6574747441424
 20
369.0319479326401
 30
0.0000000000000000
 40
3.099999904632568
 41
0.0000000000000000
 71
     1
 72
     1
  1
{\H0.93x;{ソフトジョー\PSB06A1T}}
 11
1.000000000000000
 21
0.0000000000000000
 31
0.0000000000000000
  7
KNJYOKO
  0
LEADER
  5
1F2
100
AcDbEntity
  8
MAIN0
  6
CONTINUOUS
 62
3
100
AcDbLeader
  3
MAIN001
 73
     0
 75
     1
 40
3.099999904632568
 41
19.14900057220461
 76
     3
 10
396.0216587551979
 20
190.9642274065007
 30
0.0000000000000000
 10
345.5962855083113
 20
151.2676548011252
 30
0.0000000000000000
 10
343.6692855641012
 20
151.2676548011252
 30
0.0000000000000000
340
1F3
213
0.0000000000000000
223
-0.5000000000000000
233
0.0000000000000000
1001
ACAD
1000
DSTYLE
1002
{
1070
   147
1040
0.0
1070
    77
1070
     1
1070
   173
1070
     1
1070
     6
1000
_NONE
1070
     7
1000
_NONE
1002
}
  0
MTEXT
  5
1F3
102
{ACAD_REACTORS
330
1F2
102
}
100
AcDbEntity
  8
MAIN0
  6
CONTINUOUS
 62
3
100
AcDbMText
 10
324.5202849918966
 20
154.8676547057578
 30
0.0000000000000000
 40
3.099999904632568
 41
0.0000000000000000
 71
     1
 72
     1
  1
{\H0.92x;{2-Rc1/8}}
 11
1.000000000000000
 21
0.0000000000000000
 31
0.0000000000000000
  7
STANDARD
  0
LEADER
  5
1F4
100
AcDbEntity
  8
MAIN0
  6
CONTINUOUS
 62
3
100
AcDbLeader
  3
MAIN001
 73
     3
 74
     0
 75
     0
 76
     2
 10
400.1137016137686
 20
204.4192371406434
 30
0.0000000000000000
 10
396.0216587551979
 20
190.9642274065007
 30
0.0000000000000000
1001
ACAD
1000
DSTYLE
1002
{
1070
   173
1070
     1
1070
     6
1000
_OPEN
1070
     7
1000
_OPEN
1002
}
  0
LINE
  5
1F5
100
AcDbEntity
  8
MAIN0
  6
PHANTOM
 62
3
100
AcDbLine
 10
196.8315763061094
 20
219.3789252738024
 30
0.0000000000000000
 11
205.8315763061094
 21
219.3789252738024
 31
0.0000000000000000
  0
LINE
  5
1F6
100
AcDbEntity
  8
MAIN0
  6
PHANTOM
 62
3
100
AcDbLine
 10
196.8315763061094
 20
219.3789252738024
 30
0.0000000000000000
 11
196.8315763061094
 21
229.8289252738132
 31
0.0000000000000000
  0
LINE
  5
1F7
100
AcDbEntity
  8
MAIN0
  6
PHANTOM
 62
3
100
AcDbLine
 10
197.8315763061094
 20
230.8289252738132
 30
0.0000000000000000
 11
196.8315763061094
 21
229.8289252738132
 31
0.0000000000000000
  0
LINE
  5
1F8
100
AcDbEntity
  8
MAIN0
  6
PHANTOM
 62
3
100
AcDbLine
 10
200.3315763061094
 20
230.8289252738132
 30
0.0000000000000000
 11
197.8315763061094
 21
230.8289252738132
 31
0.0000000000000000
  0
ARC
  5
1F9
100
AcDbEntity
  8
MAIN0
  6
PHANTOM
 62
3
100
AcDbCircle
 10
200.3315763061094
 20
231.8289252738132
 30
0.0000000000000000
 40
1.000000000000000
100
AcDbArc
 50
270.0000000000000
 51
360.0000000000000
  0
LINE
  5
1FA
100
AcDbEntity
  8
MAIN0
  6
PHANTOM
 62
3
100
AcDbLine
 10
201.3315763061094
 20
231.8289252738132
 30
0.0000000000000000
 11
201.3315763061094
 21
247.9973315760684
 31
0.0000000000000000
  0
LINE
  5
1FB
100
AcDbEntity
  8
MAIN0
  6
PHANTOM
 62
3
100
AcDbLine
 10
205.8315763061094
 20
219.3789252738024
 30
0.0000000000000000
 11
205.8315763061094
 21
244.3550474711318
 31
0.0000000000000000
  0
LINE
  5
1FC
100
AcDbEntity
  8
MAIN0
  6
CONTINUOUS
 62
3
100
AcDbLine
 10
204.9315763061094
 20
277.3789252738141
 30
0.0000000000000000
 11
204.9315763061094
 21
311.8789252738132
 31
0.0000000000000000
  0
INSERT
  5
204
100
AcDbEntity
  8
MAIN0
  6
CONTINUOUS
 62
3
100
AcDbBlockReference
  2
D25
 10
219.6009214188573
 20
267.3789252738131
 30
0.0000000000000000
 50
0.0000000000000000
  0
DIMENSION
  5
20D
100
AcDbEntity
  8
MAIN0
  6
CONTINUOUS
 62
3
100
AcDbDimension
  2
*D26
 10
252.2943625761869
 20
267.3789252738131
 30
0.0000000000000000
 11
251.7943625761869
 21
297.5744625621539
 31
0.0000000000000000
 70
160
  1
\A1;MIN 41.9
  3
MAIN001
100
AcDbAlignedDimension
 13
208.9315763061101
 23
311.8789252738131
 33
0.0000000000000000
 14
219.6009214188573
 24
267.3789252738131
 34
0.0000000000000000
 50
90.00000000000000
100
AcDbRotatedDimension
1001
ACAD
1000
DSTYLE
1002
{
1070
   173
1070
     1
1070
     6
1000
_OPEN
1070
     7
1000
_OPEN
1070
    41
1040
2.000000
1002
}
  0
DIMENSION
  5
218
100
AcDbEntity
  8
MAIN0
  6
CONTINUOUS
 62
3
100
AcDbDimension
  2
*D27
 10
252.2943625761869
 20
311.8789252738131
 30
0.0000000000000000
 11
251.7943625761869
 21
321.9363739147141
 31
0.0000000000000000
 70
160
  1
\A1;MAX 9.25
  3
MAIN001
100
AcDbAlignedDimension
 13
245.7106764173255
 23
321.1289252738128
 33
0.0000000000000000
 14
208.9315763061101
 24
311.8789252738131
 34
0.0000000000000000
 50
90.00000000000000
100
AcDbRotatedDimension
1001
ACAD
1000
DSTYLE
1002
{
1070
   173
1070
     1
1070
     6
1000
_OPEN
1070
     7
1000
_OPEN
1070
    41
1040
2.000000
1070
   287
1070
     0
1002
}
  0
MTEXT
  5
219
100
AcDbEntity
  8
MAIN0
  6
CONTINUOUS
 62
3
100
AcDbMText
 10
244.0095900107648
 20
290.9496643848290
 30
0.0000000000000000
 40
3.099999904632568
 41
0.0000000000000000
 71
     1
 72
     1
  1
{\H0.66x;{MAX 44.5}}
 11
6.123233995736766e-017
 21
1.000000000000000
 31
0.0000000000000000
  7
STANDARD
  0
MTEXT
  5
21A
100
AcDbEntity
  8
MAIN0
  6
CONTINUOUS
 62
3
100
AcDbMText
 10
253.6500210320086
 20
314.0926201257074
 30
0.0000000000000000
 40
3.099999904632568
 41
0.0000000000000000
 71
     1
 72
     1
  1
{\H0.66x;{MIN 4.75}}
 11
6.123233995736766e-017
 21
1.000000000000000
 31
0.0000000000000000
  7
STANDARD
  0
DIMENSION
  5
224
100
AcDbEntity
  8
MAIN0
  6
CONTINUOUS
 62
3
100
AcDbDimension
  2
*D28
 10
204.9315763061094
 20
288.0696800782741
 30
0.0000000000000000
 11
201.4693283538107
 21
288.5696800782741
 31
0.0000000000000000
 70
160
  3
MAIN001
100
AcDbAlignedDimension
 13
206.9315763061097
 23
296.7789252738131
 33
0.0000000000000000
 14
204.9315763061094
 24
277.3789252738141
 34
0.0000000000000000
100
AcDbRotatedDimension
1001
ACAD
1000
DSTYLE
1002
{
1070
   173
1070
     1
1070
     6
1000
_OPEN
1070
     7
1000
_OPEN
1070
    41
1040
2.000000
1070
   287
1070
     0
1002
}
  0
DIMENSION
  5
22D
100
AcDbEntity
  8
MAIN0
  6
CONTINUOUS
 62
3
100
AcDbDimension
  2
*D29
 10
188.9839130074842
 20
296.7789252738131
 30
0.0000000000000000
 11
188.4839130074842
 21
304.2789252738131
 31
0.0000000000000000
 70
32
  3
MAIN001
100
AcDbAlignedDimension
 13
204.9315763061097
 23
311.7789252738132
 33
0.0000000000000000
 14
204.9315763061097
 24
296.7789252738132
 34
0.0000000000000000
 50
90.00000000000000
100
AcDbRotatedDimension
1001
ACAD
1000
DSTYLE
1002
{
1070
   173
1070
     1
1070
     6
1000
_OPEN
1070
     7
1000
_OPEN
1070
    41
1040
2.000000
1002
}
  0
DIMENSION
  5
236
100
AcDbEntity
  8
MAIN0
  6
CONTINUOUS
 62
3
100
AcDbDimension
  2
*D30
 10
188.9839130074842
 20
296.7789252738131
 30
0.0000000000000000
 11
188.4839130074842
 21
240.3957679351454
 31
0.0000000000000000
 70
160
  1
\A1;MAX 29.4
  3
MAIN001
100
AcDbAlignedDimension
 13
184.2932693933561
 23
267.3789252738134
 33
0.0000000000000000
 14
204.9315763061097
 24
296.7789252738132
 34
0.0000000000000000
 50
90.00000000000000
100
AcDbRotatedDimension
1001
ACAD
1000
DSTYLE
1002
{
1070
   173
1070
     1
1070
     6
1000
_OPEN
1070
     7
1000
_OPEN
1070
    41
1040
2.000000
1002
}
  0
MTEXT
  5
237
100
AcDbEntity
  8
MAIN0
  6
CONTINUOUS
 62
3
100
AcDbMText
 10
189.7889631513703
 20
232.7116402030614
 30
0.0000000000000000
 40
3.099999904632568
 41
0.0000000000000000
 71
     1
 72
     1
  1
{\H0.66x;{MIN 26.8}}
 11
6.123233995736766e-017
 21
1.000000000000000
 31
0.0000000000000000
  7
STANDARD
  0
DIMENSION
  5
241
100
AcDbEntity
  8
MAIN0
  6
CONTINUOUS
 62
3
100
AcDbDimension
  2
*D31
 10
204.8315763061094
 20
209.0294143133317
 30
0.0000000000000000
 11
211.9103262301942
 21
209.5294143133317
 31
0.0000000000000000
 70
160
  1
\A1;0.1
  3
MAIN001
100
AcDbAlignedDimension
 13
205.8315763061094
 23
219.3789252738024
 33
0.0000000000000000
 14
204.8315763061094
 24
257.3789252738123
 34
0.0000000000000000
100
AcDbRotatedDimension
1001
ACAD
1000
DSTYLE
1002
{
1070
   173
1070
     1
1070
     6
1000
_OPEN
1070
     7
1000
_OPEN
1070
    41
1040
2.000000
1070
   287
1070
     0
1002
}
  0
LEADER
  5
242
100
AcDbEntity
  8
MAIN0
  6
CONTINUOUS
 62
3
100
AcDbLeader
  3
MAIN001
 73
     0
 74
     0
 75
     1
 40
3.099999904632568
 41
30.94100071287156
 76
     3
 10
205.8315763061094
 20
239.2620453474992
 30
0.0000000000000000
 10
214.3037437704401
 20
249.4655605933713
 30
0.0000000000000000
 10
216.2287437146501
 20
249.4655605933713
 30
0.0000000000000000
340
243
213
-0.001000000000004775
223
-0.5000000000000000
233
0.0000000000000000
1001
ACAD
1000
DSTYLE
1002
{
1070
   147
1040
0.0
1070
    77
1070
     1
1070
   173
1070
     1
1070
     6
1000
_OPEN
1070
     7
1000
_OPEN
1002
}
  0
MTEXT
  5
243
102
{ACAD_REACTORS
330
242
102
}
100
AcDbEntity
  8
MAIN0
  6
CONTINUOUS
 62
3
100
AcDbMText
 10
216.2297437146501
 20
253.0655604980039
 30
0.0000000000000000
 40
3.099999904632568
 41
0.0000000000000000
 71
     1
 72
     1
  1
{\H0.94x;{スリーブカバー端面}}
 11
1.000000000000000
 21
0.0000000000000000
 31
0.0000000000000000
  7
KNJYOKO
  0
LEADER
  5
244
100
AcDbEntity
  8
MAIN0
  6
CONTINUOUS
 62
3
100
AcDbLeader
  3
MAIN001
 73
     0
 74
     0
 75
     1
 40
3.099999904632568
 41
17.02100039815903
 76
     3
 10
204.8315763061093
 20
194.3959555317373
 30
0.0000000000000000
 10
215.6928647935577
 20
172.2617882074413
 30
0.0000000000000000
 10
217.6178647377677
 20
172.2617882074413
 30
0.0000000000000000
340
245
213
-0.001000000000004775
223
-0.5000000000000000
233
0.0000000000000000
1001
ACAD
1000
DSTYLE
1002
{
1070
   147
1040
0.0
1070
    77
1070
     1
1070
   173
1070
     1
1070
     6
1000
_OPEN
1070
     7
1000
_OPEN
1002
}
  0
MTEXT
  5
245
102
{ACAD_REACTORS
330
244
102
}
100
AcDbEntity
  8
MAIN0
  6
CONTINUOUS
 62
3
100
AcDbMText
 10
217.6188647377677
 20
175.8617881120739
 30
0.0000000000000000
 40
3.099999904632568
 41
0.0000000000000000
 71
     1
 72
     1
  1
{\H0.93x;{ボデー端面}}
 11
1.000000000000000
 21
0.0000000000000000
 31
0.0000000000000000
  7
KNJYOKO
  0
INSERT
  5
24D
100
AcDbEntity
  8
MAIN0
  6
CONTINUOUS
 62
3
100
AcDbBlockReference
  2
D32
 10
219.6009214188573
 20
267.3789252738131
 30
0.0000000000000000
 50
0.0000000000000000
  0
DIMENSION
  5
256
100
AcDbEntity
  8
MAIN0
  6
CONTINUOUS
 62
3
100
AcDbDimension
  2
*D33
 10
367.2647707036211
 20
284.8789252738114
 30
0.0000000000000000
 11
366.7647707036211
 21
267.3789252738114
 31
0.0000000000000000
 70
32
  3
MAIN001
100
AcDbAlignedDimension
 13
357.7841247277490
 23
249.8789252738114
 33
0.0000000000000000
 14
357.7841247277490
 24
284.8789252738114
 34
0.0000000000000000
 50
90.00000000000000
100
AcDbRotatedDimension
1001
ACAD
1000
DSTYLE
1002
{
1070
   173
1070
     1
1070
     6
1000
_OPEN
1070
     7
1000
_OPEN
1070
    41
1040
2.000000
1002
}
  0
MTEXT
  5
257
100
AcDbEntity
  8
MAIN0
  6
CONTINUOUS
 62
3
100
AcDbMText
 10
156.8631997565443
 20
376.1259482596960
 30
0.0000000000000000
 40
3.000000000000000
 41
0.0000000000000000
 71
     1
 72
     1
  1
{\H0.61x;{SERRATION PITCH 1.5}}
 11
1.000000000000000
 21
0.0000000000000000
 31
0.0000000000000000
  7
STANDARD
  0
MTEXT
  5
258
100
AcDbEntity
  8
MAIN0
  6
CONTINUOUS
 62
3
100
AcDbMText
 10
245.9052034203825
 20
387.6943932576483
 30
0.0000000000000000
 40
3.000000000000000
 41
0.0000000000000000
 71
     1
 72
     1
  1
{\H0.63x;{HEX SOCKET HEAD CAP SCREW}}
 11
1.000000000000000
 21
0.0000000000000000
 31
0.0000000000000000
  7
STANDARD
  0
MTEXT
  5
259
100
AcDbEntity
  8
MAIN0
  6
CONTINUOUS
 62
3
100
AcDbMText
 10
250.8130301843722
 20
372.6203586647092
 30
0.0000000000000000
 40
3.000000000000000
 41
0.0000000000000000
 71
     1
 72
     1
  1
{\H0.63x;{SOFT JAW}}
 11
1.000000000000000
 21
0.0000000000000000
 31
0.0000000000000000
  7
STANDARD
  0
MTEXT
  5
25A
100
AcDbEntity
  8
MAIN0
  6
CONTINUOUS
 62
3
100
AcDbMText
 10
367.3573616451081
 20
50.12172819468523
 30
0.0000000000000000
 40
3.099999904632568
 41
0.0000000000000000
 71
     1
 72
     1
  1
{\H0.69x;{ 6}}
 11
1.000000000000000
 21
0.0000000000000000
 31
0.0000000000000000
  7
STANDARD
  0
MTEXT
  5
25B
100
AcDbEntity
  8
MAIN0
  6
CONTINUOUS
 62
3
100
AcDbMText
 10
371.3573616451065
 20
79.62172819468489
 30
0.0000000000000000
 40
3.099999904632568
 41
0.0000000000000000
 71
     1
 72
     1
  1
{\H0.88x;{15}}
 11
1.000000000000000
 21
0.0000000000000000
 31
0.0000000000000000
  7
STANDARD
  0
MTEXT
  5
25C
100
AcDbEntity
  8
MAIN0
  6
CONTINUOUS
 62
3
100
AcDbMText
 10
371.3573616451079
 20
72.62172819468489
 30
0.0000000000000000
 40
3.099999904632568
 41
0.0000000000000000
 71
     1
 72
     1
  1
{\H0.90x;{5.2}}
 11
1.000000000000000
 21
0.0000000000000000
 31
0.0000000000000000
  7
STANDARD
  0
MTEXT
  5
25D
100
AcDbEntity
  8
MAIN0
  6
CONTINUOUS
 62
3
100
AcDbMText
 10
368.3573616451104
 20
60.62176152801825
 30
0.0000000000000000
 40
3.099999904632568
 41
0.0000000000000000
 71
     1
 72
     1
  1
{\H0.91x;{2140}}
 11
1.000000000000000
 21
0.0000000000000000
 31
0.0000000000000000
  7
STANDARD
  0
MTEXT
  5
25E
100
AcDbEntity
  8
MAIN0
  6
CONTINUOUS
 62
3
100
AcDbMText
 10
371.3573616451104
 20
65.62176152801825
 30
0.0000000000000000
 40
3.099999904632568
 41
0.0000000000000000
 71
     1
 72
     1
  1
{\H0.88x;{21}}
 11
1.000000000000000
 21
0.0000000000000000
 31
0.0000000000000000
  7
STANDARD
  0
MTEXT
  5
25F
100
AcDbEntity
  8
MAIN0
  6
CONTINUOUS
 62
3
100
AcDbMText
 10
371.3573616451092
 20
29.62172819384031
 30
0.0000000000000000
 40
3.099999904632568
 41
0.0000000000000000
 71
     1
 72
     1
  1
{\H0.88x;{15}}
 11
1.000000000000000
 21
0.0000000000000000
 31
0.0000000000000000
  7
STANDARD
  0
LINE
  5
260
100
AcDbEntity
  8
MAIN0
  6
CONTINUOUS
 62
3
100
AcDbLine
 10
312.9504646772635
 20
25.52177754615363
 30
0.0000000000000000
 11
393.3573616451099
 21
25.52177754615363
 31
0.0000000000000000
  0
MTEXT
  5
261
100
AcDbEntity
  8
MAIN0
  6
CONTINUOUS
 62
3
100
AcDbMText
 10
316.2295048414605
 20
80.88502217753668
 30
0.0000000000000000
 40
2.499999046325684
 41
0.0000000000000000
 71
     1
 72
     1
  1
{\H0.75x;{PLUNGER STROKE}}
 11
1.000000000000000
 21
0.0000000000000000
 31
0.0000000000000000
  7
STANDARD
  0
MTEXT
  5
262
100
AcDbEntity
  8
MAIN0
  6
CONTINUOUS
 62
3
100
AcDbMText
 10
316.2295048414605
 20
77.78502274974127
 30
0.0000000000000000
 40
2.399999618530273
 41
0.0000000000000000
 71
     1
 72
     1
  1
{\H0.93x;{プランジャストロ－ク}}
 11
1.000000000000000
 21
0.0000000000000000
 31
0.0000000000000000
  7
KNJYOKO
  0
MTEXT
  5
263
100
AcDbEntity
  8
MAIN0
  6
CONTINUOUS
 62
3
100
AcDbMText
 10
316.2295048414605
 20
73.88502217753668
 30
0.0000000000000000
 40
2.499999046325684
 41
0.0000000000000000
 71
     1
 72
     1
  1
{\H0.75x;{JAW STROKE (IN DIA)}}
 11
1.000000000000000
 21
0.0000000000000000
 31
0.0000000000000000
  7
STANDARD
  0
MTEXT
  5
264
100
AcDbEntity
  8
MAIN0
  6
CONTINUOUS
 62
3
100
AcDbMText
 10
316.2295048414605
 20
70.78502274974127
 30
0.0000000000000000
 40
2.399999618530273
 41
0.0000000000000000
 71
     1
 72
     1
  1
{\H0.94x;{ジョーストローク(直径で)}}
 11
1.000000000000000
 21
0.0000000000000000
 31
0.0000000000000000
  7
KNJYOKO
  0
MTEXT
  5
265
100
AcDbEntity
  8
MAIN0
  6
CONTINUOUS
 62
3
100
AcDbMText
 10
316.2295048414612
 20
53.52168979787822
 30
0.0000000000000000
 40
2.500000000000000
 41
0.0000000000000000
 71
     1
 72
     1
  1
{\H0.63x;{MAX PERMISSIBLE AIR PRESS}}
 11
1.000000000000000
 21
0.0000000000000000
 31
0.0000000000000000
  7
STANDARD
  0
MTEXT
  5
266
100
AcDbEntity
  8
MAIN0
  6
CONTINUOUS
 62
3
100
AcDbMText
 10
316.3614895095384
 20
50.42171848271195
 30
0.0000000000000000
 40
2.399999618530273
 41
0.0000000000000000
 71
     1
 72
     1
  1
{\H0.93x;{許容最大エア圧力}}
 11
1.000000000000000
 21
0.0000000000000000
 31
0.0000000000000000
  7
KNJYOKO
  0
MTEXT
  5
267
100
AcDbEntity
  8
MAIN0
  6
CONTINUOUS
 62
3
100
AcDbMText
 10
316.2295048414607
 20
32.02177143395747
 30
0.0000000000000000
 40
2.499999046325684
 41
0.0000000000000000
 71
     1
 72
     1
  1
{\H0.73x;{MASS}}
 11
1.000000000000000
 21
0.0000000000000000
 31
0.0000000000000000
  7
STANDARD
  0
MTEXT
  5
268
100
AcDbEntity
  8
MAIN0
  6
CONTINUOUS
 62
3
100
AcDbMText
 10
316.2295048414607
 20
28.92177200616206
 30
0.0000000000000000
 40
2.399999618530273
 41
0.0000000000000000
 71
     1
 72
     1
  1
{\H0.89x;{質量\P}
 11
1.000000000000000
 21
0.0000000000000000
 31
0.0000000000000000
  7
KNJYOKO
  0
MTEXT
  5
269
100
AcDbEntity
  8
MAIN0
  6
CONTINUOUS
 62
3
100
AcDbMText
 10
342.1293336106944
 20
58.52164550375105
 30
0.0000000000000000
 40
2.500000000000000
 41
0.0000000000000000
 71
     7
 72
     1
  1
{( 6 Kgf/cm}
 11
1.000000000000000
 21
0.0000000000000000
 31
0.0000000000000000
  7
STANDARD
  0
MTEXT
  5
26A
100
AcDbEntity
  8
MAIN0
  6
CONTINUOUS
 62
3
100
AcDbMText
 10
357.1293336106944
 20
59.77164550375105
 30
0.0000000000000000
 40
1.250000000000000
 41
0.0000000000000000
 71
     7
 72
     1
  1
{2}
 11
1.000000000000000
 21
0.0000000000000000
 31
0.0000000000000000
  7
STANDARD
  0
MTEXT
  5
26B
100
AcDbEntity
  8
MAIN0
  6
CONTINUOUS
 62
3
100
AcDbMText
 10
357.8793336106944
 20
58.52164550375105
 30
0.0000000000000000
 40
2.500000000000000
 41
0.0000000000000000
 71
     7
 72
     1
  1
{)}
 11
1.000000000000000
 21
0.0000000000000000
 31
0.0000000000000000
  7
STANDARD
  0
MTEXT
  5
26C
100
AcDbEntity
  8
MAIN0
  6
CONTINUOUS
 62
3
100
AcDbMText
 10
316.2294654774868
 20
61.02164550375105
 30
0.0000000000000000
 40
2.500000000000000
 41
0.0000000000000000
 71
     1
 72
     1
  1
{\H0.59x;{(エア圧 0.6 MPa時)}}
 11
1.000000000000000
 21
0.0000000000000000
 31
0.0000000000000000
  7
KNJYOKO
  0
MTEXT
  5
26D
100
AcDbEntity
  8
MAIN0
  6
CONTINUOUS
 62
3
100
AcDbMText
 10
316.2295048414605
 20
67.02168979787800
 30
0.0000000000000000
 40
2.500000000000000
 41
0.0000000000000000
 71
     1
 72
     1
  1
{\H0.63x;{MAX GRIPPING FORCE}}
 11
1.000000000000000
 21
0.0000000000000000
 31
0.0000000000000000
  7
STANDARD
  0
MTEXT
  5
26E
100
AcDbEntity
  8
MAIN0
  6
CONTINUOUS
 62
3
100
AcDbMText
 10
316.2295048414605
 20
63.92168941640827
 30
0.0000000000000000
 40
2.399999618530273
 41
0.0000000000000000
 71
     1
 72
     1
  1
{\H0.93x;{最大把握力　　}}
 11
1.000000000000000
 21
0.0000000000000000
 31
0.0000000000000000
  7
KNJYOKO
  0
MTEXT
  5
26F
100
AcDbEntity
  8
MAIN0
  6
CONTINUOUS
 62
3
100
AcDbMText
 10
316.2294654774868
 20
58.02167883708441
 30
0.0000000000000000
 40
2.500000000000000
 41
0.0000000000000000
 71
     1
 72
     1
  1
{\H0.62x;{(ON AIR PRESSURE OF 0.6 MPa)}}
 11
1.000000000000000
 21
0.0000000000000000
 31
0.0000000000000000
  7
STANDARD
  0
LINE
  5
270
100
AcDbEntity
  8
MAIN0
  6
CONTINUOUS
 62
3
100
AcDbLine
 10
393.3573616451066
 20
89.52172829005266
 30
0.0000000000000000
 11
313.0240283117735
 21
89.52172829005266
 31
0.0000000000000000
  0
LINE
  5
271
100
AcDbEntity
  8
MAIN0
  6
CONTINUOUS
 62
3
100
AcDbLine
 10
393.3573616451065
 20
81.52172829005266
 30
0.0000000000000000
 11
313.0240283117729
 21
81.52172829005266
 31
0.0000000000000000
  0
LINE
  5
272
100
AcDbEntity
  8
MAIN0
  6
CONTINUOUS
 62
3
100
AcDbLine
 10
393.3573616451060
 20
74.52172829005255
 30
0.0000000000000000
 11
313.0240283117729
 21
74.52172829005255
 31
0.0000000000000000
  0
LINE
  5
273
100
AcDbEntity
  8
MAIN0
  6
CONTINUOUS
 62
3
100
AcDbLine
 10
393.3573616451074
 20
67.52172829005255
 30
0.0000000000000000
 11
313.0240283117729
 21
67.52172829005255
 31
0.0000000000000000
  0
LINE
  5
274
100
AcDbEntity
  8
MAIN0
  6
CONTINUOUS
 62
3
100
AcDbLine
 10
393.3573616451082
 20
54.52172829005266
 30
0.0000000000000000
 11
313.0240283117748
 21
54.52172829005266
 31
0.0000000000000000
  0
LINE
  5
275
100
AcDbEntity
  8
MAIN0
  6
CONTINUOUS
 62
3
100
AcDbLine
 10
393.3573616451058
 20
46.52172829005278
 30
0.0000000000000000
 11
313.0240283117754
 21
46.52172829005278
 31
0.0000000000000000
  0
LINE
  5
276
100
AcDbEntity
  8
MAIN0
  6
CONTINUOUS
 62
3
100
AcDbLine
 10
393.3573616451094
 20
32.52172829005266
 30
0.0000000000000000
 11
313.0240283117731
 21
32.52172829005266
 31
0.0000000000000000
  0
LINE
  5
277
100
AcDbEntity
  8
MAIN0
  6
CONTINUOUS
 62
3
100
AcDbLine
 10
363.3573616451060
 20
81.52172829005264
 30
0.0000000000000000
 11
363.3573616451095
 21
25.52177754615371
 31
0.0000000000000000
  0
LINE
  5
278
100
AcDbEntity
  8
MAIN0
  6
CONTINUOUS
 62
3
100
AcDbLine
 10
393.3573616451062
 20
89.52172829005249
 30
0.0000000000000000
 11
393.3573616451102
 21
25.52177754615374
 31
0.0000000000000000
  0
LINE
  5
279
100
AcDbEntity
  8
MAIN0
  6
CONTINUOUS
 62
3
100
AcDbLine
 10
313.0240283117728
 20
89.52172829005247
 30
0.0000000000000000
 11
313.0240283117768
 21
25.52177754615371
 31
0.0000000000000000
  0
MTEXT
  5
27A
100
AcDbEntity
  8
MAIN0
  6
CONTINUOUS
 62
4
100
AcDbMText
 10
378.3573616451065
 20
78.32172752711287
 30
0.0000000000000000
 40
2.799999237060547
 41
0.0000000000000000
 71
     1
 72
     1
  1
{\H0.58x;{　　　　ｍｍ}}
 11
1.000000000000000
 21
0.0000000000000000
 31
0.0000000000000000
  7
KNJYOKO
  0
MTEXT
  5
27B
100
AcDbEntity
  8
MAIN0
  6
CONTINUOUS
 62
4
100
AcDbMText
 10
378.3573616451079
 20
71.32172752711287
 30
0.0000000000000000
 40
2.799999237060547
 41
0.0000000000000000
 71
     1
 72
     1
  1
{\H0.58x;{　　　　ｍｍ}}
 11
1.000000000000000
 21
0.0000000000000000
 31
0.0000000000000000
  7
KNJYOKO
  0
MTEXT
  5
27C
100
AcDbEntity
  8
MAIN0
  6
CONTINUOUS
 62
4
100
AcDbMText
 10
365.3573616451104
 20
60.32176086044623
 30
0.0000000000000000
 40
2.799999237060547
 41
0.0000000000000000
 71
     1
 72
     1
  1
{\H0.60x;{(}}
 11
1.000000000000000
 21
0.0000000000000000
 31
0.0000000000000000
  7
STANDARD
  0
MTEXT
  5
27D
100
AcDbEntity
  8
MAIN0
  6
CONTINUOUS
 62
4
100
AcDbMText
 10
377.3573616451104
 20
60.32176086044623
 30
0.0000000000000000
 40
2.799999237060547
 41
0.0000000000000000
 71
     1
 72
     1
  1
{\H0.60x;{　　　ｋｇｆ)}}
 11
1.000000000000000
 21
0.0000000000000000
 31
0.0000000000000000
  7
KNJYOKO
  0
MTEXT
  5
27E
100
AcDbEntity
  8
MAIN0
  6
CONTINUOUS
 62
4
100
AcDbMText
 10
378.3573616451104
 20
64.32176086044623
 30
0.0000000000000000
 40
2.799999237060547
 41
0.0000000000000000
 71
     1
 72
     1
  1
{\H0.58x;{　　　　ｋＮ}}
 11
1.000000000000000
 21
0.0000000000000000
 31
0.0000000000000000
  7
KNJYOKO
  0
MTEXT
  5
27F
100
AcDbEntity
  8
MAIN0
  6
CONTINUOUS
 62
4
100
AcDbMText
 10
365.3573616451081
 20
49.82172752711321
 30
0.0000000000000000
 40
2.799999237060547
 41
0.0000000000000000
 71
     1
 72
     1
  1
{\H0.60x;{(}}
 11
1.000000000000000
 21
0.0000000000000000
 31
0.0000000000000000
  7
STANDARD
  0
MTEXT
  5
280
100
AcDbEntity
  8
MAIN0
  6
CONTINUOUS
 62
4
100
AcDbMText
 10
378.3573616451081
 20
53.82172752711321
 30
0.0000000000000000
 40
2.799999237060547
 41
0.0000000000000000
 71
     1
 72
     1
  1
{\H0.58x;{　　　ＭＰａ}}
 11
1.000000000000000
 21
0.0000000000000000
 31
0.0000000000000000
  7
KNJYOKO
  0
MTEXT
  5
281
100
AcDbEntity
  8
MAIN0
  6
CONTINUOUS
 62
4
100
AcDbMText
 10
389.4106574784737
 20
50.23213231827512
 30
0.0000000000000000
 40
2.000000000000000
 41
0.0000000000000000
 71
     1
 72
     1
  1
{\H0.81x;{2}}
 11
1.000000000000000
 21
0.0000000000000000
 31
0.0000000000000000
  7
STANDARD
  0
MTEXT
  5
282
100
AcDbEntity
  8
MAIN0
  6
CONTINUOUS
 62
4
100
AcDbMText
 10
377.3573616451081
 20
49.82172752711321
 30
0.0000000000000000
 40
2.799999237060547
 41
0.0000000000000000
 71
     1
 72
     1
  1
{\H0.62x;{ｋｇｆ／ｃｍ )}}
 11
1.000000000000000
 21
0.0000000000000000
 31
0.0000000000000000
  7
KNJYOKO
  0
MTEXT
  5
283
100
AcDbEntity
  8
MAIN0
  6
CONTINUOUS
 62
4
100
AcDbMText
 10
378.3573616451096
 20
29.32177678321372
 30
0.0000000000000000
 40
2.799999237060547
 41
0.0000000000000000
 71
     1
 72
     1
  1
{\H0.58x;{　　　　ｋｇ}}
 11
1.000000000000000
 21
0.0000000000000000
 31
0.0000000000000000
  7
KNJYOKO
  0
MTEXT
  5
284
100
AcDbEntity
  8
MAIN0
  6
CONTINUOUS
 62
3
100
AcDbMText
 10
335.0922759187192
 20
88.88185284263474
 30
0.0000000000000000
 40
3.100000381469727
 41
0.0000000000000000
 71
     1
 72
     1
  1
{\H0.94x;{SPECIFICATIONS}}
 11
1.000000000000000
 21
0.0000000000000000
 31
0.0000000000000000
  7
STANDARD
  0
MTEXT
  5
285
100
AcDbEntity
  8
MAIN0
  6
CONTINUOUS
 62
3
100
AcDbMText
 10
344.8954690077427
 20
85.33731733516649
 30
0.0000000000000000
 40
3.100000381469727
 41
0.0000000000000000
 71
     1
 72
     1
  1
{\H0.93x;{仕　　　様}}
 11
1.000000000000000
 21
0.0000000000000000
 31
0.0000000000000000
  7
KNJYOKO
  0
MTEXT
  5
286
100
AcDbEntity
  8
MAIN0
  6
CONTINUOUS
 62
3
100
AcDbMText
 10
316.2295048414630
 20
45.52168979787811
 30
0.0000000000000000
 40
2.000000000000000
 41
0.0000000000000000
 71
     1
 72
     1
  1
{\H0.63x;{AIR CONSUMPTION (PER 10mm OF PLUNGER }}
 11
1.000000000000000
 21
0.0000000000000000
 31
0.0000000000000000
  7
STANDARD
  0
MTEXT
  5
287
100
AcDbEntity
  8
MAIN0
  6
CONTINUOUS
 62
3
100
AcDbMText
 10
316.2295048414632
 20
38.92168941640838
 30
0.0000000000000000
 40
2.399999618530273
 41
0.0000000000000000
 71
     1
 72
     1
  1
{\H0.92x;{空気消費量}}
 11
1.000000000000000
 21
0.0000000000000000
 31
0.0000000000000000
  7
KNJYOKO
  0
MTEXT
  5
288
100
AcDbEntity
  8
MAIN0
  6
CONTINUOUS
 62
3
100
AcDbMText
 10
316.2295048414630
 20
36.02168979787811
 30
0.0000000000000000
 40
2.500000000000000
 41
0.0000000000000000
 71
     1
 72
     1
  1
{\H0.59x;{(プランジャストローク10mm当り圧力0.6MPa時)}}
 11
1.000000000000000
 21
0.0000000000000000
 31
0.0000000000000000
  7
KNJYOKO
  0
MTEXT
  5
289
100
AcDbEntity
  8
MAIN0
  6
CONTINUOUS
 62
3
100
AcDbMText
 10
316.2295048414630
 20
42.52168979787811
 30
0.0000000000000000
 40
2.000000000000000
 41
0.0000000000000000
 71
     1
 72
     1
  1
{\H0.62x;{STROKE ON PRESSURE OF 0.6MPa)}}
 11
1.000000000000000
 21
0.0000000000000000
 31
0.0000000000000000
  7
STANDARD
  0
MTEXT
  5
28A
100
AcDbEntity
  8
MAIN0
  6
CONTINUOUS
 62
4
100
AcDbMText
 10
378.3573616451084
 20
41.32172752711685
 30
0.0000000000000000
 40
2.799999237060547
 41
0.0000000000000000
 71
     1
 72
     1
  1
{\H0.58x;{　　　　Ｎ}}
 11
1.000000000000000
 21
0.0000000000000000
 31
0.0000000000000000
  7
KNJYOKO
  0
MTEXT
  5
28B
100
AcDbEntity
  8
MAIN0
  6
CONTINUOUS
 62
3
100
AcDbMText
 10
371.3573616451081
 20
54.12172819468523
 30
0.0000000000000000
 40
3.099999904632568
 41
0.0000000000000000
 71
     1
 72
     1
  1
{\H0.76x;{0.6}}
 11
1.000000000000000
 21
0.0000000000000000
 31
0.0000000000000000
  7
STANDARD
  0
MTEXT
  5
28C
100
AcDbEntity
  8
MAIN0
  6
CONTINUOUS
 62
3
100
AcDbMText
 10
371.3573616451085
 20
41.62172819468887
 30
0.0000000000000000
 40
3.099999904632568
 41
0.0000000000000000
 71
     1
 72
     1
  1
{\H0.81x;{1.04}}
 11
1.000000000000000
 21
0.0000000000000000
 31
0.0000000000000000
  7
STANDARD
  0
SPLINE
  5
28D
100
AcDbEntity
  8
MAIN0
  6
CONTINUOUS
 62
3
100
AcDbSpline
210
0.0000000000000000
220
0.0000000000000000
230
1.000000000000000
 70
     8
 71
     3
 72
    14
 73
    10
 74
     0
 42
1.000000000000000e-007
 43
1.000000000000000e-007
 12
1.205313937519350
 22
0.3012197250379813
 32
0.0000000000000000
 13
0.9118704780839835
 23
0.7328372388452067
 33
0.0000000000000000
 40
0.0000000000000000
 40
0.0000000000000000
 40
0.0000000000000000
 40
0.0000000000000000
 40
0.5828484074954654
 40
2.017389827489209
 40
3.123506893394179
 40
4.885508420049012
 40
6.048697447303496
 40
6.384151807376483
 40
6.831490023551860
 40
6.831490023551860
 40
6.831490023551860
 40
6.831490023551860
 10
389.0644932542618
 20
38.73392175389367
 30
0.0000000000000000
 10
389.2986650239336
 20
38.79244356624187
 30
0.0000000000000000
 10
390.1091943827609
 20
38.99500276928595
 30
0.0000000000000000
 10
390.6409210232237
 20
40.15464407058877
 30
0.0000000000000000
 10
390.7797281505492
 20
42.66282355771645
 30
0.0000000000000000
 10
389.5314825946164
 20
40.23667508730316
 30
0.0000000000000000
 10
389.4404750599175
 20
38.33208314881674
 30
0.0000000000000000
 10
390.2941076092313
 20
38.62695489722123
 30
0.0000000000000000
 10
390.5320427561458
 20
38.81817474727697
 30
0.0000000000000000
 10
390.6680142604955
 20
38.92745011500094
 30
0.0000000000000000
  0
MTEXT
  5
28E
100
AcDbEntity
  8
MAIN0
  6
CONTINUOUS
 62
3
100
AcDbMText
 10
297.4643247265564
 20
138.2059478938170
 30
0.0000000000000000
 40
3.000000000000000
 41
0.0000000000000000
 71
     1
 72
     1
  1
{\H0.63x;{(WHEN SETTING ON MULTI-PLATE,\P THIS SOCKET SET SCREW MUST BE\P TAKEN OFF.)}}
 11
1.000000000000000
 21
0.0000000000000000
 31
0.0000000000000000
  7
STANDARD
  0
MTEXT
  5
28F
100
AcDbEntity
  8
MAIN0
  6
CONTINUOUS
 62
3
100
AcDbMText
 10
217.5432581034309
 20
171.3959359403436
 30
0.0000000000000000
 40
3.000000000000000
 41
0.0000000000000000
 71
     1
 72
     1
  1
{\H0.63x;{BODY SURFACE}}
 11
1.000000000000000
 21
0.0000000000000000
 31
0.0000000000000000
  7
STANDARD
  0
MTEXT
  5
290
100
AcDbEntity
  8
MAIN0
  6
CONTINUOUS
 62
3
100
AcDbMText
 10
218.8419347370633
 20
248.7392515098034
 30
0.0000000000000000
 40
3.000000000000000
 41
0.0000000000000000
 71
     1
 72
     1
  1
{\H0.63x;{COVER SURFACE}}
 11
1.000000000000000
 21
0.0000000000000000
 31
0.0000000000000000
  7
STANDARD
  0
LINE
  5
291
100
AcDbEntity
  8
MAIN0
  6
CONTINUOUS
 62
3
100
AcDbLine
 10
416.6968068994121
 20
284.8789252738105
 30
0.0000000000000000
 11
431.6968068994121
 21
284.8789252738105
 31
0.0000000000000000
  0
LINE
  5
292
100
AcDbEntity
  8
MAIN0
  6
CONTINUOUS
 62
3
100
AcDbLine
 10
428.1968068994155
 20
273.5289252738105
 30
0.0000000000000000
 11
431.6968068994155
 21
273.5289252738105
 31
0.0000000000000000
  0
LINE
  5
293
100
AcDbEntity
  8
MAIN0
  6
CONTINUOUS
 62
3
100
AcDbLine
 10
428.1968068994153
 20
273.5289252738105
 30
0.0000000000000000
 11
428.1968068994191
 21
261.2289252738106
 31
0.0000000000000000
  0
LINE
  5
294
100
AcDbEntity
  8
MAIN0
  6
CONTINUOUS
 62
3
100
AcDbLine
 10
431.6968068994119
 20
284.8789252738105
 30
0.0000000000000000
 11
431.6968068994153
 21
273.5289252738104
 31
0.0000000000000000
  0
LINE
  5
295
100
AcDbEntity
  8
MAIN0
  6
CONTINUOUS
 62
3
100
AcDbLine
 10
416.6968068994118
 20
284.8789252738106
 30
0.0000000000000000
 11
416.6968068994223
 21
249.8789252738106
 31
0.0000000000000000
  0
CIRCLE
  5
296
100
AcDbEntity
  8
MAIN0
  6
CONTINUOUS
 62
3
100
AcDbCircle
 10
427.2968068994139
 20
278.3789252738104
 30
0.0000000000000000
 40
3.150000000000000
  0
LINE
  5
297
100
AcDbEntity
  8
MAIN0
  6
CENTER
 62
3
100
AcDbLine
 10
427.2968068994140
 20
273.2289252738106
 30
0.0000000000000000
 11
427.2968068994140
 21
283.5289252738105
 31
0.0000000000000000
  0
LINE
  5
298
100
AcDbEntity
  8
MAIN0
  6
CENTER
 62
3
100
AcDbLine
 10
432.4468068994140
 20
278.3789252738105
 30
0.0000000000000000
 11
422.1468068994141
 21
278.3789252738105
 31
0.0000000000000000
  0
LINE
  5
299
100
AcDbEntity
  8
MAIN0
  6
CONTINUOUS
 62
3
100
AcDbLine
 10
416.6968068994121
 20
249.8789252738105
 30
0.0000000000000000
 11
431.6968068994121
 21
249.8789252738105
 31
0.0000000000000000
  0
LINE
  5
29A
100
AcDbEntity
  8
MAIN0
  6
CONTINUOUS
 62
3
100
AcDbLine
 10
428.1968068994155
 20
261.2289252738106
 30
0.0000000000000000
 11
431.6968068994155
 21
261.2289252738106
 31
0.0000000000000000
  0
LINE
  5
29B
100
AcDbEntity
  8
MAIN0
  6
CONTINUOUS
 62
3
100
AcDbLine
 10
431.6968068994121
 20
249.8789252738104
 30
0.0000000000000000
 11
431.6968068994155
 21
261.2289252738104
 31
0.0000000000000000
  0
CIRCLE
  5
29C
100
AcDbEntity
  8
MAIN0
  6
CONTINUOUS
 62
3
100
AcDbCircle
 10
427.2968068994139
 20
256.3789252738104
 30
0.0000000000000000
 40
3.150000000000000
  0
LINE
  5
29D
100
AcDbEntity
  8
MAIN0
  6
CENTER
 62
3
100
AcDbLine
 10
427.2968068994140
 20
261.5289252738105
 30
0.0000000000000000
 11
427.2968068994140
 21
251.2289252738105
 31
0.0000000000000000
  0
LINE
  5
29E
100
AcDbEntity
  8
MAIN0
  6
CENTER
 62
3
100
AcDbLine
 10
432.4468068994140
 20
256.3789252738105
 30
0.0000000000000000
 11
422.1468068994141
 21
256.3789252738105
 31
0.0000000000000000
  0
MTEXT
  5
29F
100
AcDbEntity
  8
MAIN0
  6
CONTINUOUS
 62
3
100
AcDbMText
 10
458.5099250110333
 20
284.7604380096735
 30
0.0000000000000000
 40
5.000000000000000
 41
0.0000000000000000
 71
     1
 72
     1
  1
{\H0.82x;{1}}
 11
6.123233995736766e-017
 21
1.000000000000000
 31
0.0000000000000000
  7
STANDARD
  0
LINE
  5
2A0
100
AcDbEntity
  8
MAIN0
  6
CONTINUOUS
 62
3
100
AcDbLine
 10
428.5342437664903
 20
279.6163621408870
 30
0.0000000000000000
 11
426.0593700323372
 21
277.1414884067340
 31
0.0000000000000000
  0
LINE
  5
2A1
100
AcDbEntity
  8
MAIN0
  6
CONTINUOUS
 62
3
100
AcDbLine
 10
428.5342437664903
 20
277.1414884067340
 30
0.0000000000000000
 11
426.0593700323373
 21
279.6163621408869
 31
0.0000000000000000
  0
LINE
  5
2A2
100
AcDbEntity
  8
MAIN0
  6
CONTINUOUS
 62
3
100
AcDbLine
 10
428.5342437664906
 20
257.6163621408870
 30
0.0000000000000000
 11
426.0593700323376
 21
255.1414884067341
 31
0.0000000000000000
  0
LINE
  5
2A3
100
AcDbEntity
  8
MAIN0
  6
CONTINUOUS
 62
3
100
AcDbLine
 10
428.5342437664907
 20
255.1414884067339
 30
0.0000000000000000
 11
426.0593700323377
 21
257.6163621408867
 31
0.0000000000000000
  0
LINE
  5
2A4
100
AcDbEntity
  8
MAIN0
  6
HIDDEN
 62
3
100
AcDbLine
 10
432.4211418992378
 20
244.8789062209112
 30
0.0000000000000000
 11
466.6693738308288
 21
244.8789062208647
 31
0.0000000000000000
  0
LINE
  5
2A5
100
AcDbEntity
  8
MAIN0
  6
CONTINUOUS
 62
3
100
AcDbLine
 10
466.6693738308288
 20
244.8789062208647
 30
0.0000000000000000
 11
467.3390827391867
 21
244.8789062208637
 31
0.0000000000000000
  0
LINE
  5
2A6
100
AcDbEntity
  8
MAIN0
  6
HIDDEN
 62
3
100
AcDbLine
 10
432.4211418992990
 20
289.8789062209111
 30
0.0000000000000000
 11
466.6693846328344
 21
289.8789062208646
 31
0.0000000000000000
  0
LINE
  5
2A7
100
AcDbEntity
  8
MAIN0
  6
CONTINUOUS
 62
3
100
AcDbLine
 10
466.6693846328344
 20
289.8789062208646
 30
0.0000000000000000
 11
467.3390966085838
 21
289.8789062208637
 31
0.0000000000000000
  0
DIMENSION
  5
2B0
100
AcDbEntity
  8
MAIN0
  6
CONTINUOUS
 62
3
100
AcDbDimension
  2
*D34
 10
238.2122761585465
 20
43.55114936148215
 30
0.0000000000000000
 11
237.7122761585465
 21
59.05114936148215
 31
0.0000000000000000
 70
32
  3
MAIN001
100
AcDbAlignedDimension
 13
208.9655509023251
 23
74.55114936148215
 33
0.0000000000000000
 14
208.9655509023247
 24
43.55114936148215
 34
0.0000000000000000
 50
90.00000000000000
100
AcDbRotatedDimension
1001
ACAD
1000
DSTYLE
1002
{
1070
   173
1070
     1
1070
     6
1000
_OPEN
1070
     7
1000
_OPEN
1070
    41
1040
2.000000
1002
}
  0
LINE
  5
2B1
100
AcDbEntity
  8
MAIN0
  6
HIDDEN
 62
3
100
AcDbLine
 10
220.8315763061101
 20
333.1289252738129
 30
0.0000000000000000
 11
229.8315763061101
 21
333.1289252738123
 31
0.0000000000000000
  0
LINE
  5
2B2
100
AcDbEntity
  8
MAIN0
  6
HIDDEN
 62
3
100
AcDbLine
 10
229.8315763061101
 20
333.1289252738123
 30
0.0000000000000000
 11
230.8315763061102
 21
334.8609760813812
 31
0.0000000000000000
  0
LINE
  5
2B3
100
AcDbEntity
  8
MAIN0
  6
HIDDEN
 62
3
100
AcDbLine
 10
230.8315763061102
 20
334.8609760813811
 30
0.0000000000000000
 11
230.8315763061110
 21
347.3968744662433
 31
0.0000000000000000
  0
LINE
  5
2B4
100
AcDbEntity
  8
MAIN0
  6
HIDDEN
 62
3
100
AcDbLine
 10
230.8315763061110
 20
347.3968744662433
 30
0.0000000000000000
 11
229.8315763061111
 21
349.1289252738122
 31
0.0000000000000000
  0
LINE
  5
2B5
100
AcDbEntity
  8
MAIN0
  6
HIDDEN
 62
3
100
AcDbLine
 10
229.8315763061111
 20
349.1289252738123
 30
0.0000000000000000
 11
220.8315763061111
 21
349.1289252738129
 31
0.0000000000000000
  0
LINE
  5
2B6
100
AcDbEntity
  8
MAIN0
  6
HIDDEN
 62
3
100
AcDbLine
 10
229.8315763061101
 20
333.1289252738123
 30
0.0000000000000000
 11
229.8315763061111
 21
349.1289252738123
 31
0.0000000000000000
  0
LINE
  5
2B7
100
AcDbEntity
  8
MAIN0
  6
HIDDEN
 62
3
100
AcDbLine
 10
220.8315763061103
 20
336.1289252738129
 30
0.0000000000000000
 11
207.1094002655224
 21
336.1289252738137
 31
0.0000000000000000
  0
LINE
  5
2B8
100
AcDbEntity
  8
MAIN0
  6
HIDDEN
 62
3
100
AcDbLine
 10
207.1094002655231
 20
346.1289252738137
 30
0.0000000000000000
 11
220.8315763061109
 21
346.1289252738129
 31
0.0000000000000000
  0
LINE
  5
2B9
100
AcDbEntity
  8
MAIN0
  6
HIDDEN
 62
3
100
AcDbLine
 10
240.8315763061100
 20
332.0289252738129
 30
0.0000000000000000
 11
240.2315763061100
 21
332.6289252738129
 31
0.0000000000000000
  0
LINE
  5
2BA
100
AcDbEntity
  8
MAIN0
  6
HIDDEN
 62
3
100
AcDbLine
 10
240.2315763061101
 20
332.6289252738129
 30
0.0000000000000000
 11
220.8315763061100
 21
332.6289252738142
 31
0.0000000000000000
  0
LINE
  5
2BB
100
AcDbEntity
  8
MAIN0
  6
HIDDEN
 62
3
100
AcDbLine
 10
220.8315763061100
 20
332.6289252738142
 30
0.0000000000000000
 11
220.8315763061111
 21
349.6289252738141
 31
0.0000000000000000
  0
LINE
  5
2BC
100
AcDbEntity
  8
MAIN0
  6
HIDDEN
 62
3
100
AcDbLine
 10
220.8315763061111
 20
349.6289252738141
 30
0.0000000000000000
 11
240.2315763061112
 21
349.6289252738129
 31
0.0000000000000000
  0
LINE
  5
2BD
100
AcDbEntity
  8
MAIN0
  6
HIDDEN
 62
3
100
AcDbLine
 10
240.2315763061112
 20
349.6289252738129
 30
0.0000000000000000
 11
240.8315763061112
 21
350.2289252738128
 31
0.0000000000000000
  0
LINE
  5
2BE
100
AcDbEntity
  8
MAIN0
  6
HIDDEN
 62
3
100
AcDbLine
 10
220.8315763061102
 20
335.6289252738141
 30
0.0000000000000000
 11
214.2315763061102
 21
335.6289252738145
 31
0.0000000000000000
  0
LINE
  5
2BF
100
AcDbEntity
  8
MAIN0
  6
HIDDEN
 62
3
100
AcDbLine
 10
214.2315763061102
 20
335.6289252738145
 30
0.0000000000000000
 11
213.8315763061102
 21
335.2289252738145
 31
0.0000000000000000
  0
LINE
  5
2C0
100
AcDbEntity
  8
MAIN0
  6
HIDDEN
 62
3
100
AcDbLine
 10
220.8315763061109
 20
346.6289252738141
 30
0.0000000000000000
 11
214.2315763061109
 21
346.6289252738145
 31
0.0000000000000000
  0
LINE
  5
2C1
100
AcDbEntity
  8
MAIN0
  6
HIDDEN
 62
3
100
AcDbLine
 10
214.2315763061109
 20
346.6289252738145
 30
0.0000000000000000
 11
213.8315763061109
 21
347.0289252738145
 31
0.0000000000000000
  0
LINE
  5
2C2
100
AcDbEntity
  8
MAIN0
  6
PHANTOM
 62
3
100
AcDbLine
 10
109.8315763061092
 20
212.2585502738142
 30
0.0000000000000000
 11
116.5315763061092
 21
212.0491752738142
 31
0.0000000000000000
  0
LINE
  5
2C3
100
AcDbEntity
  8
MAIN0
  6
PHANTOM
 62
3
100
AcDbLine
 10
116.5315763061092
 20
212.0491752738142
 30
0.0000000000000000
 11
116.5315763061092
 21
202.7086752738142
 31
0.0000000000000000
  0
LINE
  5
2C4
100
AcDbEntity
  8
MAIN0
  6
PHANTOM
 62
3
100
AcDbLine
 10
116.5315763061092
 20
202.7086752738142
 30
0.0000000000000000
 11
109.8315763061091
 21
202.4993002738142
 31
0.0000000000000000
  0
LINE
  5
2C5
100
AcDbEntity
  8
MAIN0
  6
PHANTOM
 62
3
100
AcDbLine
 10
109.8315763061092
 20
211.6775502738142
 30
0.0000000000000000
 11
116.5315763061092
 21
211.4681752738142
 31
0.0000000000000000
  0
LINE
  5
2C6
100
AcDbEntity
  8
MAIN0
  6
PHANTOM
 62
3
100
AcDbLine
 10
109.8315763061092
 20
203.0803002738142
 30
0.0000000000000000
 11
116.5315763061092
 21
203.2896752738142
 31
0.0000000000000000
  0
LINE
  5
2C7
100
AcDbEntity
  8
MAIN0
  6
PHANTOM
 62
3
100
AcDbLine
 10
116.5315763061092
 20
211.4789252738142
 30
0.0000000000000000
 11
121.5516054008791
 21
211.4789252738142
 31
0.0000000000000000
  0
LINE
  5
2C8
100
AcDbEntity
  8
MAIN0
  6
PHANTOM
 62
3
100
AcDbLine
 10
121.3780097666779
 20
203.2789252738142
 30
0.0000000000000000
 11
116.5315763061092
 21
203.2789252738142
 31
0.0000000000000000
  0
LINE
  5
2C9
100
AcDbEntity
  8
MAIN0
  6
CENTER
 62
3
100
AcDbLine
 10
387.2968398998963
 20
384.8970721976088
 30
0.0000000000000000
 11
387.2968398998963
 21
159.2318584358381
 31
0.0000000000000000
  0
ARC
  5
2CA
100
AcDbEntity
  8
MAIN0
  6
CENTER
 62
3
100
AcDbCircle
 10
387.2968398998963
 20
267.3789252738114
 30
0.0000000000000000
 40
92.50000000000000
100
AcDbArc
 50
325.2655556853457
 51
637.0221628609012
  0
LINE
  5
2CB
100
AcDbEntity
  8
MAIN0
  6
CENTER
 62
3
100
AcDbLine
 10
419.5732175595396
 20
189.4745992830283
 30
0.0000000000000000
 11
427.6065736504227
 21
175.5604183783259
 31
0.0000000000000000
  0
LINE
  5
2CC
100
AcDbEntity
  8
MAIN0
  6
CENTER
 62
3
100
AcDbLine
 10
408.1959915518002
 20
184.1805327776269
 30
0.0000000000000000
 11
421.4418273523982
 21
161.2380721822764
 31
0.0000000000000000
  0
LINE
  5
2CD
100
AcDbEntity
  8
MAIN0
  6
CONTINUOUS
 62
3
100
AcDbLine
 10
438.7968398998963
 20
178.1783086840143
 30
0.0000000000000000
 11
404.1558237485186
 21
158.1783086840146
 31
0.0000000000000000
  0
LINE
  5
2CE
100
AcDbEntity
  8
MAIN0
  6
CONTINUOUS
 62
3
100
AcDbLine
 10
428.7968398998963
 20
195.4988167597030
 30
0.0000000000000000
 11
394.1558237485186
 21
175.4988167597034
 31
0.0000000000000000
  0
LINE
  5
2CF
100
AcDbEntity
  8
MAIN0
  6
CENTER
 62
3
100
AcDbLine
 10
468.0701198098534
 20
209.5130014498314
 30
0.0000000000000000
 11
394.3568408615316
 21
166.9546200061688
 31
0.0000000000000000
  0
LINE
  5
2D0
100
AcDbEntity
  8
MAIN0
  6
PHANTOM
 62
3
100
AcDbLine
 10
415.9452429109618
 20
170.7584357029367
 30
0.0000000000000000
 11
411.1247290071469
 21
167.9753107029368
 31
0.0000000000000000
  0
LINE
  5
2D1
100
AcDbEntity
  8
MAIN0
  6
PHANTOM
 62
3
100
AcDbLine
 10
418.9452429109618
 20
165.5622832802300
 30
0.0000000000000000
 11
412.0170396806863
 21
161.5622832802301
 31
0.0000000000000000
  0
LINE
  5
2D2
100
AcDbEntity
  8
MAIN0
  6
PHANTOM
 62
3
100
AcDbLine
 10
411.5170396806864
 20
162.4283086840146
 30
0.0000000000000000
 11
412.0170396806864
 21
161.5622832802301
 31
0.0000000000000000
  0
LINE
  5
2D3
100
AcDbEntity
  8
MAIN0
  6
PHANTOM
 62
3
100
AcDbLine
 10
412.9138257342601
 20
168.2105164304078
 30
0.0000000000000000
 11
416.2906700251874
 21
170.1601383907862
 31
0.0000000000000000
  0
LINE
  5
2D4
100
AcDbEntity
  8
MAIN0
  6
PHANTOM
 62
3
100
AcDbLine
 10
412.5478003304756
 20
166.8444910266235
 30
0.0000000000000000
 11
414.7023732162501
 21
163.1126613198517
 31
0.0000000000000000
  0
ARC
  5
2D5
100
AcDbEntity
  8
MAIN0
  6
PHANTOM
 62
3
100
AcDbCircle
 10
413.4138257342601
 20
167.3444910266234
 30
0.0000000000000000
 40
1.000000000000000
100
AcDbArc
 50
119.9999999994255
 51
209.9999999999964
  0
LINE
  5
2D6
100
AcDbEntity
  8
MAIN0
  6
PHANTOM
 62
3
100
AcDbLine
 10
415.9452429109620
 20
170.7584357029367
 30
0.0000000000000000
 11
420.7657568147769
 21
173.5415607029366
 31
0.0000000000000000
  0
LINE
  5
2D7
100
AcDbEntity
  8
MAIN0
  6
PHANTOM
 62
3
100
AcDbLine
 10
419.6675143161148
 20
172.1097603511646
 30
0.0000000000000000
 11
416.2906700251874
 21
170.1601383907862
 31
0.0000000000000000
  0
ARC
  5
2D8
100
AcDbEntity
  8
MAIN0
  6
PHANTOM
 62
3
100
AcDbCircle
 10
420.1675143161148
 20
171.2437349473802
 30
0.0000000000000000
 40
1.000000000000000
100
AcDbArc
 50
30.00000000000374
 51
120.0000000005746
  0
LINE
  5
2D9
100
AcDbEntity
  8
MAIN0
  6
PHANTOM
 62
3
100
AcDbLine
 10
421.0335397198991
 20
171.7437349473802
 30
0.0000000000000000
 11
423.1881126056736
 21
168.0119052406085
 31
0.0000000000000000
  0
LINE
  5
2DA
100
AcDbEntity
  8
MAIN0
  6
PHANTOM
 62
3
100
AcDbLine
 10
425.3734461412374
 20
170.4283086840146
 30
0.0000000000000000
 11
425.8734461412374
 21
169.5622832802301
 31
0.0000000000000000
  0
LINE
  5
2DB
100
AcDbEntity
  8
MAIN0
  6
PHANTOM
 62
3
100
AcDbLine
 10
418.9452429109620
 20
165.5622832802301
 30
0.0000000000000000
 11
425.8734461412374
 21
169.5622832802302
 31
0.0000000000000000
  0
LINE
  5
2DC
100
AcDbEntity
  8
MAIN0
  6
CENTER
 62
3
100
AcDbLine
 10
438.6257764427973
 20
200.4745992830284
 30
0.0000000000000000
 11
446.6591325336804
 21
186.5604183783260
 31
0.0000000000000000
  0
LINE
  5
2DD
100
AcDbEntity
  8
MAIN0
  6
CENTER
 62
3
100
AcDbLine
 10
448.8991855296689
 20
207.6805327776270
 30
0.0000000000000000
 11
462.1450213302669
 21
184.7380721822764
 31
0.0000000000000000
  0
LINE
  5
2DE
100
AcDbEntity
  8
MAIN0
  6
CONTINUOUS
 62
3
100
AcDbLine
 10
438.7968398998964
 20
178.1783086840143
 30
0.0000000000000000
 11
473.4378560512737
 21
198.1783086840147
 31
0.0000000000000000
  0
LINE
  5
2DF
100
AcDbEntity
  8
MAIN0
  6
CONTINUOUS
 62
3
100
AcDbLine
 10
428.7968398998963
 20
195.4988167597031
 30
0.0000000000000000
 11
463.4378560512737
 21
215.4988167597035
 31
0.0000000000000000
  0
LINE
  5
2E0
100
AcDbEntity
  8
MAIN0
  6
PHANTOM
 62
3
100
AcDbLine
 10
464.8455850076265
 20
193.2175586840147
 30
0.0000000000000000
 11
459.8911900452645
 21
201.2113224795883
 31
0.0000000000000000
  0
LINE
  5
2E1
100
AcDbEntity
  8
MAIN0
  6
PHANTOM
 62
3
100
AcDbLine
 10
459.8911900452645
 20
201.2113224795883
 30
0.0000000000000000
 11
449.0056837323963
 21
194.9265724795880
 31
0.0000000000000000
  0
LINE
  5
2E2
100
AcDbEntity
  8
MAIN0
  6
PHANTOM
 62
3
100
AcDbLine
 10
449.0056837323962
 20
194.9265724795879
 30
0.0000000000000000
 11
453.4512887700347
 21
186.6390586840143
 31
0.0000000000000000
  0
LINE
  5
2E3
100
AcDbEntity
  8
MAIN0
  6
PHANTOM
 62
3
100
AcDbLine
 10
464.1042672619870
 20
192.7895586840147
 30
0.0000000000000000
 11
459.1498722996251
 21
200.7833224795882
 31
0.0000000000000000
  0
LINE
  5
2E4
100
AcDbEntity
  8
MAIN0
  6
PHANTOM
 62
3
100
AcDbLine
 10
454.1926065156742
 20
187.0670586840143
 30
0.0000000000000000
 11
449.7470014780357
 21
195.3545724795879
 31
0.0000000000000000
  0
LINE
  5
2E5
100
AcDbEntity
  8
MAIN0
  6
PHANTOM
 62
3
100
AcDbLine
 10
459.1249740692662
 20
200.7689474795883
 30
0.0000000000000000
 11
456.3249740692660
 21
205.6186897407810
 31
0.0000000000000000
  0
LINE
  5
2E6
100
AcDbEntity
  8
MAIN0
  6
PHANTOM
 62
3
100
AcDbLine
 10
456.3249740692660
 20
205.6186897407810
 30
0.0000000000000000
 11
446.9718997083943
 21
200.2186897407807
 31
0.0000000000000000
  0
LINE
  5
2E7
100
AcDbEntity
  8
MAIN0
  6
PHANTOM
 62
3
100
AcDbLine
 10
446.9718997083943
 20
200.2186897407808
 30
0.0000000000000000
 11
449.7718997083945
 21
195.3689474795880
 31
0.0000000000000000
  0
LINE
  5
2E8
100
AcDbEntity
  8
MAIN0
  6
PHANTOM
 62
3
100
AcDbLine
 10
456.3249740692662
 20
205.6186897407810
 30
0.0000000000000000
 11
450.0895911620182
 21
205.6186897407807
 31
0.0000000000000000
  0
LINE
  5
2E9
100
AcDbEntity
  8
MAIN0
  6
PHANTOM
 62
3
100
AcDbLine
 10
450.0895911620181
 20
205.6186897407808
 30
0.0000000000000000
 11
446.9718997083942
 21
200.2186897407807
 31
0.0000000000000000
  0
LINE
  5
2EA
100
AcDbEntity
  8
MAIN0
  6
PHANTOM
 62
3
100
AcDbLine
 10
456.6484368888306
 20
194.2584357029367
 30
0.0000000000000000
 11
461.4689507926456
 21
197.0415607029367
 31
0.0000000000000000
  0
LINE
  5
2EB
100
AcDbEntity
  8
MAIN0
  6
PHANTOM
 62
3
100
AcDbLine
 10
459.6484368888306
 20
189.0622832802301
 30
0.0000000000000000
 11
466.5766401191061
 21
193.0622832802303
 31
0.0000000000000000
  0
LINE
  5
2EC
100
AcDbEntity
  8
MAIN0
  6
PHANTOM
 62
3
100
AcDbLine
 10
466.0766401191061
 20
193.9283086840146
 30
0.0000000000000000
 11
466.5766401191061
 21
193.0622832802302
 31
0.0000000000000000
  0
LINE
  5
2ED
100
AcDbEntity
  8
MAIN0
  6
PHANTOM
 62
3
100
AcDbLine
 10
460.3707082939834
 20
195.6097603511646
 30
0.0000000000000000
 11
456.9938640030561
 21
193.6601383907863
 31
0.0000000000000000
  0
LINE
  5
2EE
100
AcDbEntity
  8
MAIN0
  6
PHANTOM
 62
3
100
AcDbLine
 10
461.7367336977678
 20
195.2437349473802
 30
0.0000000000000000
 11
463.8913065835423
 21
191.5119052406085
 31
0.0000000000000000
  0
ARC
  5
2EF
100
AcDbEntity
  8
MAIN0
  6
PHANTOM
 62
3
100
AcDbCircle
 10
460.8707082939835
 20
194.7437349473802
 30
0.0000000000000000
 40
1.000000000000000
100
AcDbArc
 50
30.00000000000366
 51
120.0000000005745
  0
LINE
  5
2F0
100
AcDbEntity
  8
MAIN0
  6
PHANTOM
 62
3
100
AcDbLine
 10
456.6484368888305
 20
194.2584357029367
 30
0.0000000000000000
 11
451.8279229850155
 21
191.4753107029368
 31
0.0000000000000000
  0
LINE
  5
2F1
100
AcDbEntity
  8
MAIN0
  6
PHANTOM
 62
3
100
AcDbLine
 10
453.6170197121287
 20
191.7105164304079
 30
0.0000000000000000
 11
456.9938640030561
 21
193.6601383907863
 31
0.0000000000000000
  0
ARC
  5
2F2
100
AcDbEntity
  8
MAIN0
  6
PHANTOM
 62
3
100
AcDbCircle
 10
454.1170197121287
 20
190.8444910266235
 30
0.0000000000000000
 40
1.000000000000000
100
AcDbArc
 50
119.9999999994254
 51
209.9999999999963
  0
LINE
  5
2F3
100
AcDbEntity
  8
MAIN0
  6
PHANTOM
 62
3
100
AcDbLine
 10
453.2509943083443
 20
190.3444910266235
 30
0.0000000000000000
 11
455.4055671941188
 21
186.6126613198518
 31
0.0000000000000000
  0
LINE
  5
2F4
100
AcDbEntity
  8
MAIN0
  6
PHANTOM
 62
3
100
AcDbLine
 10
452.2202336585550
 20
185.9283086840146
 30
0.0000000000000000
 11
452.7202336585550
 21
185.0622832802302
 31
0.0000000000000000
  0
LINE
  5
2F5
100
AcDbEntity
  8
MAIN0
  6
PHANTOM
 62
3
100
AcDbLine
 10
459.6484368888305
 20
189.0622832802300
 30
0.0000000000000000
 11
452.7202336585550
 21
185.0622832802301
 31
0.0000000000000000
  0
CIRCLE
  5
2F6
100
AcDbEntity
  8
MAIN0
  6
CONTINUOUS
 62
3
100
AcDbCircle
 10
423.0205604582674
 20
183.5036262313198
 30
0.0000000000000000
 40
5.500000000000000
  0
CIRCLE
  5
2F7
100
AcDbEntity
  8
MAIN0
  6
CONTINUOUS
 62
3
100
AcDbCircle
 10
442.0731193415253
 20
194.5036262313197
 30
0.0000000000000000
 40
5.500000000000000
  0
LINE
  5
2F8
100
AcDbEntity
  8
MAIN0
  6
CENTER
 62
3
100
AcDbLine
 10
455.7129306258377
 20
306.8789736712115
 30
0.0000000000000000
 11
478.6189836962942
 21
320.1037895774699
 31
0.0000000000000000
  0
LINE
  5
2F9
100
AcDbEntity
  8
MAIN0
  6
CENTER
 62
3
100
AcDbLine
 10
328.0011416502935
 20
326.6746235234602
 30
0.0000000000000000
 11
314.8541311680253
 21
339.8216340057386
 31
0.0000000000000000
  0
CIRCLE
  5
2FA
100
AcDbEntity
  8
MAIN0
  6
CONTINUOUS
 62
3
100
AcDbCircle
 10
387.2968398998968
 20
359.8789252738114
 30
0.0000000000000000
 40
5.000000000000000
  0
CIRCLE
  5
2FB
100
AcDbEntity
  8
MAIN0
  6
CONTINUOUS
 62
3
100
AcDbCircle
 10
387.2968398998968
 20
359.8789252738114
 30
0.0000000000000000
 40
4.250000000000000
  0
LINE
  5
2FC
100
AcDbEntity
  8
MAIN0
  6
CENTER
 62
3
100
AcDbLine
 10
313.5468398998947
 20
254.0714830909188
 30
0.0000000000000000
 11
313.5468398998947
 21
280.9626486698626
 31
0.0000000000000000
  0
LINE
  5
2FD
100
AcDbEntity
  8
MAIN0
  6
CENTER
 62
3
100
AcDbLine
 10
333.5468398998947
 20
253.0012342428820
 30
0.0000000000000000
 11
333.5468398998947
 21
281.8088849942705
 31
0.0000000000000000
  0
LINE
  5
2FE
100
AcDbEntity
  8
MAIN0
  6
HIDDEN
 62
3
100
AcDbLine
 10
303.7968398998943
 20
254.3789252738118
 30
0.0000000000000000
 11
303.7968398998943
 21
280.3789252738117
 31
0.0000000000000000
  0
LINE
  5
2FF
100
AcDbEntity
  8
MAIN0
  6
CONTINUOUS
 62
3
100
AcDbLine
 10
298.5468398998948
 20
251.8789252738115
 30
0.0000000000000000
 11
370.5468398998949
 21
251.8789252738115
 31
0.0000000000000000
  0
LINE
  5
300
100
AcDbEntity
  8
MAIN0
  6
CONTINUOUS
 62
3
100
AcDbLine
 10
298.5468398998949
 20
282.8789252738114
 30
0.0000000000000000
 11
370.5468398998949
 21
282.8789252738115
 31
0.0000000000000000
  0
LINE
  5
301
100
AcDbEntity
  8
MAIN0
  6
CENTER
 62
3
100
AcDbLine
 10
343.6101754963526
 20
256.3789252738114
 30
0.0000000000000000
 11
352.1983475577910
 21
256.3789252738115
 31
0.0000000000000000
  0
LINE
  5
302
100
AcDbEntity
  8
MAIN0
  6
CENTER
 62
3
100
AcDbLine
 10
343.6101754963526
 20
278.3789252738114
 30
0.0000000000000000
 11
352.1983475577910
 21
278.3789252738115
 31
0.0000000000000000
  0
LINE
  5
303
100
AcDbEntity
  8
MAIN0
  6
CONTINUOUS
 62
3
100
AcDbLine
 10
342.7841247277490
 20
249.8789252738114
 30
0.0000000000000000
 11
357.7841247277490
 21
249.8789252738114
 31
0.0000000000000000
  0
LINE
  5
304
100
AcDbEntity
  8
MAIN0
  6
CONTINUOUS
 62
3
100
AcDbLine
 10
342.7841247277490
 20
284.8789252738114
 30
0.0000000000000000
 11
357.7841247277490
 21
284.8789252738114
 31
0.0000000000000000
  0
LINE
  5
305
100
AcDbEntity
  8
MAIN0
  6
CENTER
 62
3
100
AcDbLine
 10
347.2968398998945
 20
252.2685758274257
 30
0.0000000000000000
 11
347.2968398998945
 21
262.4545537207712
 31
0.0000000000000000
  0
LINE
  5
306
100
AcDbEntity
  8
MAIN0
  6
CENTER
 62
3
100
AcDbLine
 10
347.2968398998945
 20
272.8402459147508
 30
0.0000000000000000
 11
347.2968398998945
 21
282.0275913537029
 31
0.0000000000000000
  0
LINE
  5
307
100
AcDbEntity
  8
MAIN0
  6
HIDDEN
 62
3
100
AcDbLine
 10
354.7968398998943
 20
244.8789252738115
 30
0.0000000000000000
 11
354.7968398998943
 21
251.8789252738114
 31
0.0000000000000000
  0
LINE
  5
308
100
AcDbEntity
  8
MAIN0
  6
HIDDEN
 62
3
100
AcDbLine
 10
354.7968398998943
 20
282.8789252738114
 30
0.0000000000000000
 11
354.7968398998943
 21
289.8789252738115
 31
0.0000000000000000
  0
LINE
  5
309
100
AcDbEntity
  8
MAIN0
  6
CENTER
 62
3
100
AcDbLine
 10
477.6822260912209
 20
215.1948982252785
 30
0.0000000000000000
 11
456.1604280822806
 21
227.6205140992239
 31
0.0000000000000000
  0
ARC
  5
30A
100
AcDbEntity
  8
MAIN0
  6
CENTER
 62
3
100
AcDbCircle
 10
387.2968398998963
 20
267.3789252738114
 30
0.0000000000000000
 40
55.00000000000000
100
AcDbArc
 50
83.38664065451613
 51
102.1721012638801
  0
ARC
  5
30B
100
AcDbEntity
  8
MAIN0
  6
CENTER
 62
3
100
AcDbCircle
 10
387.2968398998963
 20
267.3789252738114
 30
0.0000000000000000
 40
73.00000000000000
100
AcDbArc
 50
84.71831759413627
 51
101.3777500428844
  0
ARC
  5
30C
100
AcDbEntity
  8
MAIN0
  6
CENTER
 62
3
100
AcDbCircle
 10
387.2968398998963
 20
267.3789252738114
 30
0.0000000000000000
 40
42.25000000000000
100
AcDbArc
 50
131.1691935501696
 51
148.4598601400701
  0
CIRCLE
  5
30D
100
AcDbEntity
  8
MAIN0
  6
CONTINUOUS
 62
3
100
AcDbCircle
 10
354.9314621781564
 20
294.5367017831117
 30
0.0000000000000000
 40
4.250000000000000
  0
LINE
  5
30E
100
AcDbEntity
  8
MAIN0
  6
CONTINUOUS
 62
3
100
AcDbLine
 10
352.7613350278915
 20
293.7468400958422
 30
0.0000000000000000
 11
354.5304388896753
 21
292.2623856979051
 31
0.0000000000000000
  0
LINE
  5
30F
100
AcDbEntity
  8
MAIN0
  6
CONTINUOUS
 62
3
100
AcDbLine
 10
354.5304388896753
 20
292.2623856979052
 30
0.0000000000000000
 11
356.7005660399402
 21
293.0522473851746
 31
0.0000000000000000
  0
LINE
  5
310
100
AcDbEntity
  8
MAIN0
  6
CONTINUOUS
 62
3
100
AcDbLine
 10
356.7005660399403
 20
293.0522473851746
 30
0.0000000000000000
 11
357.1015893284214
 21
295.3265634703811
 31
0.0000000000000000
  0
LINE
  5
311
100
AcDbEntity
  8
MAIN0
  6
CONTINUOUS
 62
3
100
AcDbLine
 10
357.1015893284214
 20
295.3265634703811
 30
0.0000000000000000
 11
355.3324854666376
 21
296.8110178683182
 31
0.0000000000000000
  0
LINE
  5
312
100
AcDbEntity
  8
MAIN0
  6
CONTINUOUS
 62
3
100
AcDbLine
 10
355.3324854666376
 20
296.8110178683182
 30
0.0000000000000000
 11
353.1623583163727
 21
296.0211561810488
 31
0.0000000000000000
  0
LINE
  5
313
100
AcDbEntity
  8
MAIN0
  6
CONTINUOUS
 62
3
100
AcDbLine
 10
353.1623583163726
 20
296.0211561810489
 30
0.0000000000000000
 11
352.7613350278915
 21
293.7468400958423
 31
0.0000000000000000
  0
CIRCLE
  5
314
100
AcDbEntity
  8
MAIN0
  6
CONTINUOUS
 62
3
100
AcDbCircle
 10
387.2968398999711
 20
322.3789252738114
 30
0.0000000000000000
 40
4.000000000000000
  0
CIRCLE
  5
315
100
AcDbEntity
  8
MAIN0
  6
CONTINUOUS
 62
3
100
AcDbCircle
 10
387.2968398999711
 20
322.3789252738114
 30
0.0000000000000000
 40
3.400000000000000
  0
CIRCLE
  5
316
100
AcDbEntity
  8
MAIN0
  6
CONTINUOUS
 62
3
100
AcDbCircle
 10
387.2968398999955
 20
340.3789252738114
 30
0.0000000000000000
 40
4.000000000000000
  0
CIRCLE
  5
317
100
AcDbEntity
  8
MAIN0
  6
CONTINUOUS
 62
3
100
AcDbCircle
 10
387.2968398999955
 20
340.3789252738114
 30
0.0000000000000000
 40
3.400000000000000
  0
ARC
  5
318
100
AcDbEntity
  8
MAIN0
  6
CENTER
 62
3
100
AcDbCircle
 10
387.2968398998963
 20
267.3789252738114
 30
0.0000000000000000
 40
55.00000000000000
100
AcDbArc
 50
263.3866406545161
 51
277.2367551678543
  0
ARC
  5
319
100
AcDbEntity
  8
MAIN0
  6
CENTER
 62
3
100
AcDbCircle
 10
387.2968398998963
 20
267.3789252738114
 30
0.0000000000000000
 40
73.00000000000000
100
AcDbArc
 50
264.7183175941362
 51
275.7179691353085
  0
CIRCLE
  5
31A
100
AcDbEntity
  8
MAIN0
  6
CONTINUOUS
 62
3
100
AcDbCircle
 10
387.2968398998215
 20
212.3789252738114
 30
0.0000000000000000
 40
4.000000000000000
  0
CIRCLE
  5
31B
100
AcDbEntity
  8
MAIN0
  6
CONTINUOUS
 62
3
100
AcDbCircle
 10
387.2968398998215
 20
212.3789252738114
 30
0.0000000000000000
 40
3.400000000000000
  0
CIRCLE
  5
31C
100
AcDbEntity
  8
MAIN0
  6
CONTINUOUS
 62
3
100
AcDbCircle
 10
387.2968398997971
 20
194.3789252738114
 30
0.0000000000000000
 40
4.000000000000000
  0
CIRCLE
  5
31D
100
AcDbEntity
  8
MAIN0
  6
CONTINUOUS
 62
3
100
AcDbCircle
 10
387.2968398997971
 20
194.3789252738114
 30
0.0000000000000000
 40
3.400000000000000
  0
LINE
  5
31E
100
AcDbEntity
  8
MAIN0
  6
CONTINUOUS
 62
3
100
AcDbLine
 10
370.5468398998949
 20
251.8789252738115
 30
0.0000000000000000
 11
370.5468398998949
 21
282.8789252738115
 31
0.0000000000000000
  0
LINE
  5
31F
100
AcDbEntity
  8
MAIN0
  6
CONTINUOUS
 62
3
100
AcDbLine
 10
357.7841247277490
 20
282.8789252738116
 30
0.0000000000000000
 11
357.7841247277490
 21
284.8789252738114
 31
0.0000000000000000
  0
LINE
  5
320
100
AcDbEntity
  8
MAIN0
  6
CONTINUOUS
 62
3
100
AcDbLine
 10
357.7841247277490
 20
249.8789252738115
 30
0.0000000000000000
 11
357.7841247277490
 21
251.8789252738114
 31
0.0000000000000000
  0
LINE
  5
321
100
AcDbEntity
  8
MAIN0
  6
HIDDEN
 62
3
100
AcDbLine
 10
357.7841247277490
 20
251.8789252738114
 30
0.0000000000000000
 11
357.7841247277490
 21
282.8789252738116
 31
0.0000000000000000
  0
LINE
  5
322
100
AcDbEntity
  8
MAIN0
  6
HIDDEN
 62
3
100
AcDbLine
 10
303.7968398998946
 20
280.3789252738117
 30
0.0000000000000000
 11
304.7067654855582
 21
282.8789252738114
 31
0.0000000000000000
  0
LINE
  5
323
100
AcDbEntity
  8
MAIN0
  6
CONTINUOUS
 62
3
100
AcDbLine
 10
304.7067654855583
 20
282.8789252738114
 30
0.0000000000000000
 11
307.2545571254167
 21
289.8789252738115
 31
0.0000000000000000
  0
LINE
  5
324
100
AcDbEntity
  8
MAIN0
  6
CONTINUOUS
 62
3
100
AcDbLine
 10
307.2545571254308
 20
244.8789252738115
 30
0.0000000000000000
 11
304.7067654855619
 21
251.8789252738114
 31
0.0000000000000000
  0
LINE
  5
325
100
AcDbEntity
  8
MAIN0
  6
HIDDEN
 62
3
100
AcDbLine
 10
304.7067654855619
 20
251.8789252738114
 30
0.0000000000000000
 11
303.7968398998942
 21
254.3789252738119
 31
0.0000000000000000
  0
CIRCLE
  5
326
100
AcDbEntity
  8
MAIN0
  6
CONTINUOUS
 62
3
100
AcDbCircle
 10
313.5468398998947
 20
267.3789252738115
 30
0.0000000000000000
 40
8.500000000000000
  0
LINE
  5
327
100
AcDbEntity
  8
MAIN0
  6
CONTINUOUS
 62
3
100
AcDbLine
 10
342.7841247277490
 20
249.8789252738114
 30
0.0000000000000000
 11
342.7841247277490
 21
251.8789252738114
 31
0.0000000000000000
  0
LINE
  5
328
100
AcDbEntity
  8
MAIN0
  6
CONTINUOUS
 62
3
100
AcDbLine
 10
342.7841247277490
 20
282.8789252738114
 30
0.0000000000000000
 11
342.7841247277490
 21
284.8789252738114
 31
0.0000000000000000
  0
CIRCLE
  5
329
100
AcDbEntity
  8
MAIN0
  6
CONTINUOUS
 62
3
100
AcDbCircle
 10
333.5468398998947
 20
267.3789252738115
 30
0.0000000000000000
 40
8.000000000000000
  0
LINE
  5
32A
100
AcDbEntity
  8
MAIN0
  6
CONTINUOUS
 62
3
100
AcDbLine
 10
328.9280377463777
 20
267.3789252738114
 30
0.0000000000000000
 11
331.2374388231362
 21
263.3789252738114
 31
0.0000000000000000
  0
LINE
  5
32B
100
AcDbEntity
  8
MAIN0
  6
CONTINUOUS
 62
3
100
AcDbLine
 10
331.2374388231362
 20
263.3789252738115
 30
0.0000000000000000
 11
335.8562409766532
 21
263.3789252738115
 31
0.0000000000000000
  0
LINE
  5
32C
100
AcDbEntity
  8
MAIN0
  6
CONTINUOUS
 62
3
100
AcDbLine
 10
335.8562409766531
 20
263.3789252738115
 30
0.0000000000000000
 11
338.1656420534117
 21
267.3789252738115
 31
0.0000000000000000
  0
LINE
  5
32D
100
AcDbEntity
  8
MAIN0
  6
CONTINUOUS
 62
3
100
AcDbLine
 10
338.1656420534117
 20
267.3789252738114
 30
0.0000000000000000
 11
335.8562409766531
 21
271.3789252738114
 31
0.0000000000000000
  0
LINE
  5
32E
100
AcDbEntity
  8
MAIN0
  6
CONTINUOUS
 62
3
100
AcDbLine
 10
335.8562409766532
 20
271.3789252738115
 30
0.0000000000000000
 11
331.2374388231362
 21
271.3789252738115
 31
0.0000000000000000
  0
LINE
  5
32F
100
AcDbEntity
  8
MAIN0
  6
CONTINUOUS
 62
3
100
AcDbLine
 10
331.2374388231362
 20
271.3789252738115
 30
0.0000000000000000
 11
328.9280377463777
 21
267.3789252738115
 31
0.0000000000000000
  0
CIRCLE
  5
330
100
AcDbEntity
  8
MAIN0
  6
CONTINUOUS
 62
3
100
AcDbCircle
 10
333.5468398998947
 20
267.3789252738115
 30
0.0000000000000000
 40
8.500000000000000
  0
ARC
  5
331
100
AcDbEntity
  8
MAIN0
  6
CONTINUOUS
 62
3
100
AcDbCircle
 10
387.2968398998963
 20
267.3789252738114
 30
0.0000000000000000
 40
48.00000000000000
100
AcDbArc
 50
18.83942857727726
 51
161.1605954527245
  0
CIRCLE
  5
332
100
AcDbEntity
  8
MAIN0
  6
CONTINUOUS
 62
3
100
AcDbCircle
 10
387.2968398998963
 20
267.3789252738114
 30
0.0000000000000000
 40
13.50000000000000
  0
ARC
  5
333
100
AcDbEntity
  8
MAIN0
  6
CONTINUOUS
 62
3
100
AcDbCircle
 10
387.2968398998963
 20
267.3789252738114
 30
0.0000000000000000
 40
48.00000000000000
100
AcDbArc
 50
198.8394045472755
 51
341.1606194827230
  0
ARC
  5
334
100
AcDbEntity
  8
MAIN0
  6
CONTINUOUS
 62
3
100
AcDbCircle
 10
387.2968398998963
 20
267.3789252738114
 30
0.0000000000000000
 40
82.50000000000000
100
AcDbArc
 50
190.8290184956357
 51
349.1709949763579
  0
CIRCLE
  5
335
100
AcDbEntity
  8
MAIN0
  6
CONTINUOUS
 62
3
100
AcDbCircle
 10
467.4041897498942
 20
221.1289252737028
 30
0.0000000000000000
 40
5.000000000000000
  0
CIRCLE
  5
336
100
AcDbEntity
  8
MAIN0
  6
CONTINUOUS
 62
3
100
AcDbCircle
 10
307.1894900498986
 20
313.6289252739203
 30
0.0000000000000000
 40
5.000000000000000
  0
LINE
  5
337
100
AcDbEntity
  8
MAIN0
  6
CENTER
 62
3
100
AcDbLine
 10
397.4232958852346
 20
216.8393890065956
 30
0.0000000000000000
 11
407.6659412961712
 21
199.0986067509411
 31
0.0000000000000000
  0
LINE
  5
338
100
AcDbEntity
  8
MAIN0
  6
CENTER
 62
3
100
AcDbLine
 10
426.0021342101210
 20
233.3393890065957
 30
0.0000000000000000
 11
436.2447796210577
 21
215.5986067509411
 31
0.0000000000000000
  0
LINE
  5
339
100
AcDbEntity
  8
MAIN0
  6
CENTER
 62
3
100
AcDbLine
 10
409.7907873979085
 20
213.3931806909296
 30
0.0000000000000000
 11
391.2019849229106
 21
202.6609305780770
 31
0.0000000000000000
  0
LINE
  5
33A
100
AcDbEntity
  8
MAIN0
  6
CENTER
 62
3
100
AcDbLine
 10
439.5328429936435
 20
230.5647644953796
 30
0.0000000000000000
 11
421.8735019155918
 21
220.3691391702553
 31
0.0000000000000000
  0
CIRCLE
  5
33B
100
AcDbEntity
  8
MAIN0
  6
PHANTOM
 62
3
100
AcDbCircle
 10
412.1952429109619
 20
177.2536262313199
 30
0.0000000000000000
 40
2.500000000000000
  0
CIRCLE
  5
33C
100
AcDbEntity
  8
MAIN0
  6
PHANTOM
 62
3
100
AcDbCircle
 10
412.1952429109619
 20
177.2536262313199
 30
0.0000000000000000
 40
5.000000000000000
  0
ARC
  5
33D
100
AcDbEntity
  8
MAIN0
  6
CONTINUOUS
 62
3
100
AcDbCircle
 10
387.2968398998963
 20
267.3789252738114
 30
0.0000000000000000
 40
101.5000000000000
100
AcDbArc
 50
323.2091488561487
 51
636.7908511438513
  0
ARC
  5
33E
100
AcDbEntity
  8
MAIN0
  6
HIDDEN
 62
3
100
AcDbCircle
 10
387.2968398998963
 20
267.3789252738114
 30
0.0000000000000000
 40
101.5000000000000
100
AcDbArc
 50
276.7908511438479
 51
321.9271608566463
  0
ARC
  5
33F
100
AcDbEntity
  8
MAIN0
  6
PHANTOM
 62
3
100
AcDbCircle
 10
387.2968398998963
 20
267.3789252738114
 30
0.0000000000000000
 40
41.00000000000000
100
AcDbArc
 50
307.2942216319644
 51
321.6309090131267
  0
LINE
  5
340
100
AcDbEntity
  8
MAIN0
  6
PHANTOM
 62
3
100
AcDbLine
 10
400.0467373760928
 20
221.2166162759328
 30
0.0000000000000000
 11
415.0790627237238
 21
166.7905435212675
 31
0.0000000000000000
  0
LINE
  5
341
100
AcDbEntity
  8
MAIN0
  6
PHANTOM
 62
3
100
AcDbLine
 10
410.2319523945136
 20
244.0888216243384
 30
0.0000000000000000
 11
460.4089790919109
 21
193.1351516617849
 31
0.0000000000000000
  0
CIRCLE
  5
342
100
AcDbEntity
  8
MAIN0
  6
PHANTOM
 62
3
100
AcDbCircle
 10
416.0647274526978
 20
238.1657664964835
 30
0.0000000000000000
 40
2.500000000000000
  0
SPLINE
  5
343
100
AcDbEntity
  8
MAIN0
  6
PHANTOM
 62
3
100
AcDbSpline
210
0.0000000000000000
220
0.0000000000000000
230
1.000000000000000
 70
     8
 71
     3
 72
    10
 73
     6
 74
     0
 42
1.000000000000000e-007
 43
1.000000000000000e-007
 12
0.9380370389975496
 22
0.3610807199311239
 32
0.0000000000000000
 13
0.9445706066205730
 23
0.3448866499165320
 33
0.0000000000000000
 40
0.0000000000000000
 40
0.0000000000000000
 40
0.0000000000000000
 40
0.0000000000000000
 40
2.844508595846014
 40
5.974714523373519
 40
8.375467531961325
 40
8.375467531961325
 40
8.375467531961325
 40
8.375467531961325
 10
405.7492647118770
 20
183.9778496406991
 30
0.0000000000000000
 10
406.6386828520939
 20
184.3202153779119
 30
0.0000000000000000
 10
408.5068506922144
 20
185.0393334517395
 30
0.0000000000000000
 10
410.6959522388896
 20
186.8480580509574
 30
0.0000000000000000
 10
412.4374126513828
 20
187.4839093503917
 30
0.0000000000000000
 10
413.1933062266054
 20
187.7599052378613
 30
0.0000000000000000
  0
SPLINE
  5
344
100
AcDbEntity
  8
MAIN0
  6
PHANTOM
 62
3
100
AcDbSpline
210
0.0000000000000000
220
0.0000000000000000
230
1.000000000000000
 70
     8
 71
     3
 72
    10
 73
     6
 74
     0
 42
1.000000000000000e-007
 43
1.000000000000000e-007
 12
0.8009039816394079
 22
0.5974431656906063
 32
0.0000000000000000
 13
0.9195353294695678
 23
0.4104359601381020
 33
0.0000000000000000
 40
0.0000000000000000
 40
0.0000000000000000
 40
0.0000000000000000
 40
0.0000000000000000
 40
2.253092841116131
 40
5.264177368680480
 40
8.245668263154174
 40
8.245668263154174
 40
8.245668263154174
 40
8.245668263154174
 10
443.1821233126996
 20
204.9020312245931
 30
0.0000000000000000
 10
443.7836269885173
 20
205.3507295311235
 30
0.0000000000000000
 10
445.1889938600613
 20
206.3990784617573
 30
0.0000000000000000
 10
447.2254580006542
 20
208.2844737238835
 30
0.0000000000000000
 10
449.0622529390126
 20
209.1043298728982
 30
0.0000000000000000
 10
449.9761150096661
 20
209.5122335655370
 30
0.0000000000000000
  0
LEADER
  5
345
100
AcDbEntity
  8
MAIN0
  6
CONTINUOUS
 62
3
100
AcDbLeader
  3
MAIN001
 73
     0
 74
     0
 75
     1
 40
3.099999904632568
 41
14.26100040769575
 76
     3
 10
415.2576865711260
 20
360.4805847661483
 30
0.0000000000000000
 10
455.7846396420281
 20
384.2459889728634
 30
0.0000000000000000
 10
457.7096395862382
 20
384.2459889728634
 30
0.0000000000000000
340
346
213
0.0000000000000000
223
-0.5000000000000000
233
0.0000000000000000
1001
ACAD
1000
DSTYLE
1002
{
1070
   147
1040
0.0
1070
    77
1070
     1
1070
   173
1070
     1
1070
     6
1000
_OPEN
1070
     7
1000
_OPEN
1002
}
  0
MTEXT
  5
346
102
{ACAD_REACTORS
330
345
102
}
100
AcDbEntity
  8
MAIN0
  6
CONTINUOUS
 62
3
100
AcDbMText
 10
457.7106395862382
 20
384.7459889728634
 30
0.0000000000000000
 40
3.099999904632568
 41
0.0000000000000000
 71
     7
 72
     1
  1
{\H0.92x;{4-\U+220511}}
 11
1.000000000000000
 21
0.0000000000000000
 31
0.0000000000000000
  7
STANDARD
  0
LEADER
  5
347
100
AcDbEntity
  8
MAIN0
  6
CONTINUOUS
 62
3
100
AcDbLeader
  3
MAIN001
 73
     0
 74
     0
 75
     1
 40
3.099999904632568
 41
19.84100056982038
 76
     3
 10
483.2337097566322
 20
271.0104436322744
 30
0.0000000000000000
 10
516.4144221803465
 20
286.9747032242908
 30
0.0000000000000000
 10
518.3394221245566
 20
286.9747032242908
 30
0.0000000000000000
340
348
213
0.0000000000000000
223
-0.5000000000000000
233
0.0000000000000000
1001
ACAD
1000
DSTYLE
1002
{
1070
   147
1040
0.0
1070
    77
1070
     1
1070
   173
1070
     1
1070
     6
1000
_OPEN
1070
     7
1000
_OPEN
1002
}
  0
MTEXT
  5
348
102
{ACAD_REACTORS
330
347
102
}
100
AcDbEntity
  8
MAIN0
  6
CONTINUOUS
 62
3
100
AcDbMText
 10
518.3404221245565
 20
287.4747032242908
 30
0.0000000000000000
 40
3.099999904632568
 41
0.0000000000000000
 71
     7
 72
     1
  1
{\H0.93x;{2-\U+220510H7}}
 11
1.000000000000000
 21
0.0000000000000000
 31
0.0000000000000000
  7
STANDARD
  0
LEADER
  5
349
100
AcDbEntity
  8
MAIN0
  6
CONTINUOUS
 62
3
100
AcDbLeader
  3
MAIN001
 73
     0
 75
     1
 40
3.099999904632568
 41
13.56900041007998
 76
     3
 10
384.5489056262466
 20
364.0561082034541
 30
0.0000000000000000
 10
369.6088469746580
 20
394.3387996571477
 30
0.0000000000000000
 10
367.6818470304480
 20
394.3387996571477
 30
0.0000000000000000
340
34A
213
0.0000000000000000
223
-0.5000000000000000
233
0.0000000000000000
1001
ACAD
1000
DSTYLE
1002
{
1070
   147
1040
0.0
1070
    77
1070
     1
1070
   173
1070
     1
1070
     6
1000
_OPEN
1070
     7
1000
_OPEN
1002
}
  0
MTEXT
  5
34A
102
{ACAD_REACTORS
330
349
102
}
100
AcDbEntity
  8
MAIN0
  6
CONTINUOUS
 62
3
100
AcDbMText
 10
354.1128466203680
 20
394.8387996571477
 30
0.0000000000000000
 40
3.099999904632568
 41
0.0000000000000000
 71
     7
 72
     1
  1
{\H0.92x;{6-M10}}
 11
1.000000000000000
 21
0.0000000000000000
 31
0.0000000000000000
  7
STANDARD
  0
LEADER
  5
34B
100
AcDbEntity
  8
MAIN0
  6
CONTINUOUS
 62
3
100
AcDbLeader
  3
MAIN001
 73
     0
 74
     0
 75
     1
 40
3.099999904632568
 41
33.10100097751615
 76
     3
 10
389.1851896780660
 20
343.9051321758041
 30
0.0000000000000000
 10
414.7527255681085
 20
389.8954457442330
 30
0.0000000000000000
 10
416.6777255123186
 20
389.8954457442330
 30
0.0000000000000000
340
34C
213
0.0000000000000000
223
-0.5000000000000000
233
0.0000000000000000
1001
ACAD
1000
DSTYLE
1002
{
1070
   147
1040
0.0
1070
    77
1070
     1
1070
   173
1070
     1
1070
     6
1000
_OPEN
1070
     7
1000
_OPEN
1002
}
  0
MTEXT
  5
34C
102
{ACAD_REACTORS
330
34B
102
}
100
AcDbEntity
  8
MAIN0
  6
CONTINUOUS
 62
3
100
AcDbMText
 10
416.6787255123186
 20
390.3954457442330
 30
0.0000000000000000
 40
3.099999904632568
 41
0.0000000000000000
 71
     7
 72
     1
  1
{\H0.93x;{4-M8 深さ15\P4-M8 DEPTH15}}
 11
1.000000000000000
 21
0.0000000000000000
 31
0.0000000000000000
  7
KNJYOKO
  0
LEADER
  5
34D
100
AcDbEntity
  8
MAIN0
  6
CONTINUOUS
 62
3
100
AcDbLeader
  3
MAIN001
 73
     0
 75
     1
 40
3.099999904632568
 41
19.14900057220461
 76
     3
 10
410.9064986752173
 20
166.5721691596126
 30
0.0000000000000000
 10
373.9292404470577
 20
124.8150760043377
 30
0.0000000000000000
 10
372.0022405028477
 20
124.8150760043377
 30
0.0000000000000000
340
34E
213
0.0000000000000000
223
-0.5000000000000000
233
0.0000000000000000
1001
ACAD
1000
DSTYLE
1002
{
1070
   147
1040
0.0
1070
    77
1070
     1
1070
   173
1070
     1
1070
     6
1000
_OPEN
1070
     7
1000
_OPEN
1002
}
  0
MTEXT
  5
34E
102
{ACAD_REACTORS
330
34D
102
}
100
AcDbEntity
  8
MAIN0
  6
CONTINUOUS
 62
3
100
AcDbMText
 10
352.8532399306430
 20
125.3150760043377
 30
0.0000000000000000
 40
3.099999904632568
 41
0.0000000000000000
 71
     7
 72
     1
  1
{\H0.92x;{2-Rc1/4}}
 11
1.000000000000000
 21
0.0000000000000000
 31
0.0000000000000000
  7
STANDARD
  0
MTEXT
  5
34F
100
AcDbEntity
  8
MAIN0
  6
CONTINUOUS
 62
3
100
AcDbMText
 10
332.1202599285554
 20
308.8733882654744
 30
0.0000000000000000
 40
4.000000000000000
 41
0.0000000000000000
 71
     1
 72
     1
  1
{\H0.92x;{AT 06}}
 11
-0.4999999999999996
 21
-0.8660254037844388
 31
0.0000000000000000
  7
STANDARD
  0
LINE
  5
350
100
AcDbEntity
  8
MAIN0
  6
PHANTOM
 62
3
100
AcDbLine
 10
319.8771417813024
 20
285.6045827015047
 30
0.0000000000000000
 11
337.8477065579509
 21
316.7305139352603
 31
0.0000000000000000
  0
MTEXT
  5
351
100
AcDbEntity
  8
MAIN0
  6
CONTINUOUS
 62
3
100
AcDbMText
 10
342.0034695006913
 20
313.6221984163964
 30
0.0000000000000000
 40
5.000000000000000
 41
0.0000000000000000
 71
     1
 72
     1
  1
{\H0.93x;{KITAGAWA}}
 11
-0.4999999999999996
 21
-0.8660254037844388
 31
0.0000000000000000
  7
STANDARD
  0
LINE
  5
352
100
AcDbEntity
  8
MAIN0
  6
CENTER
 62
3
100
AcDbLine
 10
338.0143897330730
 20
295.8321611439516
 30
0.0000000000000000
 11
297.2692554622079
 21
319.3563753834031
 31
0.0000000000000000
  0
LINE
  5
353
100
AcDbEntity
  8
MAIN0
  6
CENTER
 62
3
100
AcDbLine
 10
361.7037333592481
 20
288.8540915327505
 30
0.0000000000000000
 11
349.1617117519144
 21
299.3780972376817
 31
0.0000000000000000
  0
ARC
  5
354
100
AcDbEntity
  8
MAIN0
  6
CENTER
 62
3
100
AcDbCircle
 10
387.2968398998963
 20
267.3789252738115
 30
0.0000000000000000
 40
42.25000000000000
100
AcDbArc
 50
311.1691935501696
 51
328.4598601400701
  0
CIRCLE
  5
355
100
AcDbEntity
  8
MAIN0
  6
CONTINUOUS
 62
3
100
AcDbCircle
 10
419.6622176216362
 20
240.2211487645112
 30
0.0000000000000000
 40
4.250000000000000
  0
LINE
  5
356
100
AcDbEntity
  8
MAIN0
  6
CONTINUOUS
 62
3
100
AcDbLine
 10
421.8323447719012
 20
241.0110104517806
 30
0.0000000000000000
 11
420.0632409101173
 21
242.4954648497177
 31
0.0000000000000000
  0
LINE
  5
357
100
AcDbEntity
  8
MAIN0
  6
CONTINUOUS
 62
3
100
AcDbLine
 10
420.0632409101175
 20
242.4954648497177
 30
0.0000000000000000
 11
417.8931137598526
 21
241.7056031624483
 31
0.0000000000000000
  0
LINE
  5
358
100
AcDbEntity
  8
MAIN0
  6
CONTINUOUS
 62
3
100
AcDbLine
 10
417.8931137598524
 20
241.7056031624483
 30
0.0000000000000000
 11
417.4920904713712
 21
239.4312870772417
 31
0.0000000000000000
  0
LINE
  5
359
100
AcDbEntity
  8
MAIN0
  6
CONTINUOUS
 62
3
100
AcDbLine
 10
417.4920904713712
 20
239.4312870772418
 30
0.0000000000000000
 11
419.2611943331551
 21
237.9468326793047
 31
0.0000000000000000
  0
LINE
  5
35A
100
AcDbEntity
  8
MAIN0
  6
CONTINUOUS
 62
3
100
AcDbLine
 10
419.2611943331552
 20
237.9468326793046
 30
0.0000000000000000
 11
421.4313214834202
 21
238.7366943665740
 31
0.0000000000000000
  0
LINE
  5
35B
100
AcDbEntity
  8
MAIN0
  6
CONTINUOUS
 62
3
100
AcDbLine
 10
421.4313214834201
 20
238.7366943665740
 30
0.0000000000000000
 11
421.8323447719013
 21
241.0110104517805
 31
0.0000000000000000
  0
ARC
  5
35C
100
AcDbEntity
  8
MAIN0
  6
CENTER
 62
3
100
AcDbCircle
 10
387.2968398998962
 20
267.3789252738115
 30
0.0000000000000000
 40
42.25000000000000
100
AcDbArc
 50
31.16919355016958
 51
48.45986014007004
  0
CIRCLE
  5
35D
100
AcDbEntity
  8
MAIN0
  6
CONTINUOUS
 62
3
100
AcDbCircle
 10
419.6622176217100
 20
294.5367017830237
 30
0.0000000000000000
 40
4.250000000000000
  0
LINE
  5
35E
100
AcDbEntity
  8
MAIN0
  6
CONTINUOUS
 62
3
100
AcDbLine
 10
419.2611943332287
 20
296.8110178682302
 30
0.0000000000000000
 11
417.4920904714450
 21
295.3265634702931
 31
0.0000000000000000
  0
LINE
  5
35F
100
AcDbEntity
  8
MAIN0
  6
CONTINUOUS
 62
3
100
AcDbLine
 10
417.4920904714451
 20
295.3265634702931
 30
0.0000000000000000
 11
417.8931137599263
 21
293.0522473850867
 31
0.0000000000000000
  0
LINE
  5
360
100
AcDbEntity
  8
MAIN0
  6
CONTINUOUS
 62
3
100
AcDbLine
 10
417.8931137599262
 20
293.0522473850867
 30
0.0000000000000000
 11
420.0632409101912
 21
292.2623856978173
 31
0.0000000000000000
  0
LINE
  5
361
100
AcDbEntity
  8
MAIN0
  6
CONTINUOUS
 62
3
100
AcDbLine
 10
420.0632409101911
 20
292.2623856978173
 30
0.0000000000000000
 11
421.8323447719748
 21
293.7468400957544
 31
0.0000000000000000
  0
LINE
  5
362
100
AcDbEntity
  8
MAIN0
  6
CONTINUOUS
 62
3
100
AcDbLine
 10
421.8323447719751
 20
293.7468400957544
 30
0.0000000000000000
 11
421.4313214834940
 21
296.0211561809609
 31
0.0000000000000000
  0
LINE
  5
363
100
AcDbEntity
  8
MAIN0
  6
CONTINUOUS
 62
3
100
AcDbLine
 10
421.4313214834939
 20
296.0211561809609
 30
0.0000000000000000
 11
419.2611943332288
 21
296.8110178682303
 31
0.0000000000000000
  0
ARC
  5
364
100
AcDbEntity
  8
MAIN0
  6
CENTER
 62
3
100
AcDbCircle
 10
387.2968398998963
 20
267.3789252738114
 30
0.0000000000000000
 40
42.25000000000000
100
AcDbArc
 50
211.1691935501696
 51
228.4598601400701
  0
CIRCLE
  5
365
100
AcDbEntity
  8
MAIN0
  6
CONTINUOUS
 62
3
100
AcDbCircle
 10
354.9314621780825
 20
240.2211487645991
 30
0.0000000000000000
 40
4.250000000000000
  0
LINE
  5
366
100
AcDbEntity
  8
MAIN0
  6
CONTINUOUS
 62
3
100
AcDbLine
 10
355.3324854665637
 20
237.9468326793926
 30
0.0000000000000000
 11
357.1015893283475
 21
239.4312870773298
 31
0.0000000000000000
  0
LINE
  5
367
100
AcDbEntity
  8
MAIN0
  6
CONTINUOUS
 62
3
100
AcDbLine
 10
357.1015893283476
 20
239.4312870773297
 30
0.0000000000000000
 11
356.7005660398664
 21
241.7056031625361
 31
0.0000000000000000
  0
LINE
  5
368
100
AcDbEntity
  8
MAIN0
  6
CONTINUOUS
 62
3
100
AcDbLine
 10
356.7005660398664
 20
241.7056031625362
 30
0.0000000000000000
 11
354.5304388896014
 21
242.4954648498056
 31
0.0000000000000000
  0
LINE
  5
369
100
AcDbEntity
  8
MAIN0
  6
CONTINUOUS
 62
3
100
AcDbLine
 10
354.5304388896014
 20
242.4954648498056
 30
0.0000000000000000
 11
352.7613350278176
 21
241.0110104518685
 31
0.0000000000000000
  0
LINE
  5
36A
100
AcDbEntity
  8
MAIN0
  6
CONTINUOUS
 62
3
100
AcDbLine
 10
352.7613350278176
 20
241.0110104518684
 30
0.0000000000000000
 11
353.1623583162987
 21
238.7366943666620
 31
0.0000000000000000
  0
LINE
  5
36B
100
AcDbEntity
  8
MAIN0
  6
CONTINUOUS
 62
3
100
AcDbLine
 10
353.1623583162987
 20
238.7366943666620
 30
0.0000000000000000
 11
355.3324854665637
 21
237.9468326793925
 31
0.0000000000000000
  0
LINE
  5
36C
100
AcDbEntity
  8
MAIN0
  6
CENTER
 62
3
100
AcDbLine
 10
361.7037333592477
 20
245.9037590148728
 30
0.0000000000000000
 11
349.1617117519138
 21
235.3797533099419
 31
0.0000000000000000
  0
LINE
  5
36D
100
AcDbEntity
  8
MAIN0
  6
CENTER
 62
3
100
AcDbLine
 10
412.8899464405450
 20
245.9037590148728
 30
0.0000000000000000
 11
425.4319680478790
 21
235.3797533099419
 31
0.0000000000000000
  0
LINE
  5
36E
100
AcDbEntity
  8
MAIN0
  6
CENTER
 62
3
100
AcDbLine
 10
412.8899464405446
 20
288.8540915327505
 30
0.0000000000000000
 11
425.4319680478782
 21
299.3780972376817
 31
0.0000000000000000
  0
CIRCLE
  5
36F
100
AcDbEntity
  8
MAIN0
  6
CONTINUOUS
 62
3
100
AcDbCircle
 10
307.1894900498360
 20
313.6289252738119
 30
0.0000000000000000
 40
5.000000000000000
  0
CIRCLE
  5
370
100
AcDbEntity
  8
MAIN0
  6
CONTINUOUS
 62
3
100
AcDbCircle
 10
307.1894900498360
 20
313.6289252738119
 30
0.0000000000000000
 40
4.250000000000000
  0
CIRCLE
  5
371
100
AcDbEntity
  8
MAIN0
  6
CONTINUOUS
 62
3
100
AcDbCircle
 10
307.1894900498355
 20
221.1289252738120
 30
0.0000000000000000
 40
5.000000000000000
  0
CIRCLE
  5
372
100
AcDbEntity
  8
MAIN0
  6
CONTINUOUS
 62
3
100
AcDbCircle
 10
307.1894900498355
 20
221.1289252738120
 30
0.0000000000000000
 40
4.250000000000000
  0
CIRCLE
  5
373
100
AcDbEntity
  8
MAIN0
  6
CONTINUOUS
 62
3
100
AcDbCircle
 10
387.2968398998958
 20
174.8789252738115
 30
0.0000000000000000
 40
5.000000000000000
  0
CIRCLE
  5
374
100
AcDbEntity
  8
MAIN0
  6
CONTINUOUS
 62
3
100
AcDbCircle
 10
387.2968398998958
 20
174.8789252738115
 30
0.0000000000000000
 40
4.250000000000000
  0
CIRCLE
  5
375
100
AcDbEntity
  8
MAIN0
  6
CONTINUOUS
 62
3
100
AcDbCircle
 10
467.4041897499565
 20
221.1289252738110
 30
0.0000000000000000
 40
5.000000000000000
  0
CIRCLE
  5
376
100
AcDbEntity
  8
MAIN0
  6
CONTINUOUS
 62
3
100
AcDbCircle
 10
467.4041897499565
 20
221.1289252738110
 30
0.0000000000000000
 40
4.250000000000000
  0
CIRCLE
  5
377
100
AcDbEntity
  8
MAIN0
  6
CONTINUOUS
 62
3
100
AcDbCircle
 10
467.4041897499571
 20
313.6289252738109
 30
0.0000000000000000
 40
5.000000000000000
  0
CIRCLE
  5
378
100
AcDbEntity
  8
MAIN0
  6
CONTINUOUS
 62
3
100
AcDbCircle
 10
467.4041897499571
 20
313.6289252738109
 30
0.0000000000000000
 40
4.250000000000000
  0
CIRCLE
  5
379
100
AcDbEntity
  8
MAIN0
  6
CONTINUOUS
 62
3
100
AcDbCircle
 10
479.7968398998963
 20
267.3789252738105
 30
0.0000000000000000
 40
5.000000000000000
  0
LINE
  5
37A
100
AcDbEntity
  8
MAIN0
  6
CENTER
 62
3
100
AcDbLine
 10
423.5881640230248
 20
204.5205080186030
 30
0.0000000000000000
 11
444.6253431443789
 21
168.0830449324905
 31
0.0000000000000000
  0
LINE
  5
37B
100
AcDbEntity
  8
MAIN0
  6
CENTER
 62
3
100
AcDbLine
 10
408.3113317378005
 20
345.8060765081115
 30
0.0000000000000000
 11
414.0142000171678
 21
367.0894706755830
 31
0.0000000000000000
  0
LINE
  5
37C
100
AcDbEntity
  8
MAIN0
  6
CENTER
 62
3
100
AcDbLine
 10
365.2922156203599
 20
185.2565494611180
 30
0.0000000000000000
 11
361.4931844704815
 21
171.0783721902354
 31
0.0000000000000000
  0
LINE
  5
37D
100
AcDbEntity
  8
MAIN0
  6
CENTER
 62
3
100
AcDbLine
 10
309.9818277239776
 20
288.0954203491513
 30
0.0000000000000000
 11
287.1531437061777
 21
294.2123477959860
 31
0.0000000000000000
  0
LINE
  5
37E
100
AcDbEntity
  8
MAIN0
  6
CENTER
 62
3
100
AcDbLine
 10
465.6690801901877
 20
246.3791467790099
 30
0.0000000000000000
 11
486.9341968721385
 21
240.6811759371277
 31
0.0000000000000000
  0
CIRCLE
  5
37F
100
AcDbEntity
  8
MAIN0
  6
CONTINUOUS
 62
3
100
AcDbCircle
 10
411.2376015718795
 20
356.7270642055503
 30
0.0000000000000000
 40
5.500000000000000
  0
CIRCLE
  5
380
100
AcDbEntity
  8
MAIN0
  6
CONTINUOUS
 62
3
100
AcDbCircle
 10
297.9487009681575
 20
291.3196869457946
 30
0.0000000000000000
 40
5.500000000000000
  0
CIRCLE
  5
381
100
AcDbEntity
  8
MAIN0
  6
CONTINUOUS
 62
3
100
AcDbCircle
 10
363.3560782279131
 20
178.0307863420726
 30
0.0000000000000000
 40
5.500000000000000
  0
CIRCLE
  5
382
100
AcDbEntity
  8
MAIN0
  6
CONTINUOUS
 62
3
100
AcDbCircle
 10
476.6449788316352
 20
243.4381636018283
 30
0.0000000000000000
 40
5.500000000000000
  0
LINE
  5
383
100
AcDbEntity
  8
MAIN0
  6
CENTER
 62
3
100
AcDbLine
 10
318.8807491739549
 20
227.8788768764114
 30
0.0000000000000000
 11
295.9746961034984
 21
214.6540609701530
 31
0.0000000000000000
  0
ARC
  5
384
100
AcDbEntity
  8
MAIN0
  6
CENTER
 62
3
100
AcDbCircle
 10
387.2968398998963
 20
267.3789252738114
 30
0.0000000000000000
 40
70.00000000000000
100
AcDbArc
 50
306.7795472515839
 51
325.3775384285487
  0
LINE
  5
385
100
AcDbEntity
  8
MAIN0
  6
CENTER
 62
3
100
AcDbLine
 10
430.7389713298040
 20
223.9367938439903
 30
0.0000000000000000
 11
442.7325053284791
 21
211.9432598453391
 31
0.0000000000000000
  0
CIRCLE
  5
386
100
AcDbEntity
  8
MAIN0
  6
CONTINUOUS
 62
3
100
AcDbCircle
 10
436.7943145829919
 20
217.8814505908144
 30
0.0000000000000000
 40
7.500000000000000
  0
LINE
  5
387
100
AcDbEntity
  8
MAIN0
  6
CONTINUOUS
 62
3
100
AcDbLine
 10
440.7943145830038
 20
220.1908516675609
 30
0.0000000000000000
 11
436.7943145830038
 21
222.5002527443194
 31
0.0000000000000000
  0
LINE
  5
388
100
AcDbEntity
  8
MAIN0
  6
CONTINUOUS
 62
3
100
AcDbLine
 10
436.7943145830038
 20
222.5002527443194
 30
0.0000000000000000
 11
432.7943145830039
 21
220.1908516675609
 31
0.0000000000000000
  0
LINE
  5
389
100
AcDbEntity
  8
MAIN0
  6
CONTINUOUS
 62
3
100
AcDbLine
 10
432.7943145830039
 20
220.1908516675610
 30
0.0000000000000000
 11
432.7943145830039
 21
215.5720495140440
 31
0.0000000000000000
  0
LINE
  5
38A
100
AcDbEntity
  8
MAIN0
  6
CONTINUOUS
 62
3
100
AcDbLine
 10
432.7943145830039
 20
215.5720495140440
 30
0.0000000000000000
 11
436.7943145830039
 21
213.2626484372855
 31
0.0000000000000000
  0
LINE
  5
38B
100
AcDbEntity
  8
MAIN0
  6
CONTINUOUS
 62
3
100
AcDbLine
 10
436.7943145830039
 20
213.2626484372854
 30
0.0000000000000000
 11
440.7943145830038
 21
215.5720495140439
 31
0.0000000000000000
  0
LINE
  5
38C
100
AcDbEntity
  8
MAIN0
  6
CONTINUOUS
 62
3
100
AcDbLine
 10
440.7943145830039
 20
215.5720495140439
 30
0.0000000000000000
 11
440.7943145830039
 21
220.1908516675610
 31
0.0000000000000000
  0
CIRCLE
  5
38D
100
AcDbEntity
  8
MAIN0
  6
CONTINUOUS
 62
3
100
AcDbCircle
 10
436.7943145830039
 20
217.8814505908024
 30
0.0000000000000000
 40
4.000000000000000
  0
CIRCLE
  5
38E
100
AcDbEntity
  8
MAIN0
  6
CONTINUOUS
 62
3
100
AcDbCircle
 10
436.7943145830039
 20
217.8814505908024
 30
0.0000000000000000
 40
2.500000000000000
  0
CIRCLE
  5
38F
100
AcDbEntity
  8
MAIN0
  6
CONTINUOUS
 62
3
100
AcDbCircle
 10
436.7943145830039
 20
217.8814505908024
 30
0.0000000000000000
 40
1.000000000000000
  0
LINE
  5
390
100
AcDbEntity
  8
MAIN0
  6
CENTER
 62
3
100
AcDbLine
 10
420.4626985578283
 20
246.3296006249559
 30
0.0000000000000000
 11
445.2219096408479
 21
203.2013669871317
 31
0.0000000000000000
  0
ARC
  5
391
100
AcDbEntity
  8
MAIN0
  6
CENTER
 62
3
100
AcDbCircle
 10
387.2968398998963
 20
267.3789252738114
 30
0.0000000000000000
 40
60.30132668523953
100
AcDbArc
 50
275.7897414199719
 51
326.4132820620068
  0
LINE
  5
392
100
AcDbEntity
  8
MAIN0
  6
HIDDEN
 62
3
100
AcDbLine
 10
446.5466499463547
 20
210.9365002186453
 30
0.0000000000000000
 11
437.8741546015147
 21
205.9577629797734
 31
0.0000000000000000
  0
LINE
  5
393
100
AcDbEntity
  8
MAIN0
  6
HIDDEN
 62
3
100
AcDbLine
 10
437.8741546015147
 20
205.9577629797733
 30
0.0000000000000000
 11
439.3553482584078
 21
203.3776619465396
 31
0.0000000000000000
  0
LINE
  5
394
100
AcDbEntity
  8
MAIN0
  6
HIDDEN
 62
3
100
AcDbLine
 10
446.5466499463547
 20
210.9365002186451
 30
0.0000000000000000
 11
446.8940438545308
 21
210.3313724709986
 31
0.0000000000000000
  0
DIMENSION
  5
39D
100
AcDbEntity
  8
MAIN0
  6
CONTINUOUS
 62
3
100
AcDbDimension
  2
*D35
 10
427.9930488578392
 20
149.8910236832145
 30
0.0000000000000000
 11
448.0946458467736
 21
162.0740363851068
 31
0.0000000000000000
 70
33
  3
MAIN001
100
AcDbAlignedDimension
 13
462.1450213302670
 23
184.7380721822764
 33
0.0000000000000000
 14
421.4418273523982
 24
161.2380721822764
 34
0.0000000000000000
 50
30.00000000000001
1001
ACAD
1000
DSTYLE
1002
{
1070
   173
1070
     1
1070
     6
1000
_OPEN
1070
     7
1000
_OPEN
1070
    41
1040
2.000000
1002
}
  0
DIMENSION
  5
3A6
100
AcDbEntity
  8
MAIN0
  6
CONTINUOUS
 62
3
100
AcDbDimension
  2
*D36
 10
427.2526329289595
 20
118.1734616907680
 30
0.0000000000000000
 11
461.6436490803371
 21
138.6064743926602
 31
0.0000000000000000
 70
33
  3
MAIN001
100
AcDbAlignedDimension
 13
473.4378560512738
 23
198.1783086840146
 33
0.0000000000000000
 14
404.1558237485186
 24
158.1783086840146
 34
0.0000000000000000
 50
30.00000000000001
1001
ACAD
1000
DSTYLE
1002
{
1070
   173
1070
     1
1070
     6
1000
_OPEN
1070
     7
1000
_OPEN
1070
    41
1040
2.000000
1002
}
  0
DIMENSION
  5
3AD
100
AcDbEntity
  8
MAIN0
  6
CONTINUOUS
 62
3
100
AcDbDimension
  2
*D37
 10
406.7071741630778
 20
200.7592401380861
 30
0.0000000000000000
 11
420.7465933255210
 21
209.4422528399784
 31
0.0000000000000000
 70
33
  3
MAIN001
100
AcDbAlignedDimension
 13
426.0021342101210
 23
233.3393890065956
 33
0.0000000000000000
 14
397.4232958852346
 24
216.8393890065956
 34
0.0000000000000000
 50
29.99999999999995
1001
ACAD
1000
DSTYLE
1002
{
1070
   173
1070
     1
1070
     6
1000
_OPEN
1070
     7
1000
_OPEN
1070
    41
1040
2.000000
1002
}
  0
DIMENSION
  5
3B4
100
AcDbEntity
  8
MAIN0
  6
CONTINUOUS
 62
3
100
AcDbDimension
  2
*D38
 10
334.9012649893473
 20
191.1493133779540
 30
0.0000000000000000
 11
420.2855414189983
 21
316.2582136129836
 31
0.0000000000000000
 70
163
  3
MAIN001
100
AcDbDiametricDimension
 15
439.6924148104454
 25
343.6085371696688
 35
0.0000000000000000
1001
ACAD
1000
DSTYLE
1002
{
1070
   287
1070
     2
1070
   173
1070
     1
1070
     6
1000
_OPEN
1070
     7
1000
_OPEN
1070
    41
1040
2.000000
1070
   272
1070
     1
1070
    47
1040
0.200000
1070
    48
1040
0.200000
1070
    71
1070
     1
1002
}
  0
DIMENSION
  5
3BA
100
AcDbEntity
  8
MAIN0
  6
CONTINUOUS
 62
3
100
AcDbDimension
  2
*D39
 10
387.2968398998963
 20
267.3789252738114
 30
0.0000000000000000
 11
382.0669986874353
 21
294.3816799646285
 31
0.0000000000000000
 70
164
  3
MAIN001
100
AcDbRadialDimension
 15
377.8222079371076
 25
321.5567006911327
 35
0.0000000000000000
1001
ACAD
1000
DSTYLE
1002
{
1070
   173
1070
     1
1070
     6
1000
_OPEN
1070
     7
1000
_OPEN
1070
    41
1040
2.000000
1070
   340
1005
1CE
1002
}
  0
DIMENSION
  5
3C1
100
AcDbEntity
  8
MAIN0
  6
CONTINUOUS
 62
3
100
AcDbDimension
  2
*D40
 10
377.8222079371076
 20
321.5567006911327
 30
0.0000000000000000
 11
375.7792883848574
 21
330.3360218324872
 31
0.0000000000000000
 70
32
  3
MAIN001
100
AcDbAlignedDimension
 13
374.7214192947403
 23
339.2876090095288
 33
0.0000000000000000
 14
377.8222079371076
 24
321.5567006911327
 34
0.0000000000000000
 50
99.91959737149648
100
AcDbRotatedDimension
1001
ACAD
1000
DSTYLE
1002
{
1070
   173
1070
     1
1070
     6
1000
_OPEN
1070
     7
1000
_OPEN
1070
    41
1040
2.000000
1002
}
  0
DIMENSION
  5
3CA
100
AcDbEntity
  8
MAIN0
  6
CONTINUOUS
 62
3
100
AcDbDimension
  2
*D41
 10
389.4654316244368
 20
149.6968068366747
 30
0.0000000000000000
 11
363.2824189225448
 21
194.0471151315734
 31
0.0000000000000000
 70
32
  3
MAIN001
100
AcDbAlignedDimension
 13
387.2968398998963
 23
267.3789252738114
 33
0.0000000000000000
 14
404.1558237485185
 24
158.1783086840146
 34
0.0000000000000000
 50
119.9999999999997
100
AcDbRotatedDimension
1001
ACAD
1000
DSTYLE
1002
{
1070
   173
1070
     1
1070
     6
1000
_OPEN
1070
     7
1000
_OPEN
1070
    41
1040
2.000000
1002
}
  0
DIMENSION
  5
3D1
100
AcDbEntity
  8
MAIN0
  6
CONTINUOUS
 62
3
100
AcDbDimension
  2
*D42
 10
427.0417983648701
 20
198.5386378677621
 30
0.0000000000000000
 11
417.8657759034570
 21
194.5438572899739
 31
0.0000000000000000
 70
162
  3
MAIN001
100
AcDb2LineAngularDimension
 13
387.2968398998963
 23
187.8890083438638
 33
0.0000000000000000
 14
387.2968398998963
 24
267.3789252738114
 34
0.0000000000000000
 15
387.2968398998962
 25
267.3789252738114
 35
0.0000000000000000
 16
407.8703442949841
 26
190.5975615816024
 36
0.0000000000000000
1001
ACAD
1000
DSTYLE
1002
{
1070
   173
1070
     1
1070
     6
1000
_OPEN
1070
     7
1000
_OPEN
1070
    41
1040
2.000000
1002
}
  0
DIMENSION
  5
3D7
100
AcDbEntity
  8
MAIN0
  6
CONTINUOUS
 62
3
100
AcDbDimension
  2
*D43
 10
387.2968398998963
 20
267.3789252738114
 30
0.0000000000000000
 11
403.2895841921915
 21
243.8336978610413
 31
0.0000000000000000
 70
164
  3
MAIN001
100
AcDbRadialDimension
 15
420.2972883123796
 25
216.9089301819253
 35
0.0000000000000000
1001
ACAD
1000
DSTYLE
1002
{
1070
   173
1070
     1
1070
     6
1000
_OPEN
1070
     7
1000
_OPEN
1070
    41
1040
2.000000
1070
   340
1005
1CE
1002
}
  0
LINE
  5
3D8
100
AcDbEntity
  8
MAIN0
  6
CONTINUOUS
 62
3
100
AcDbLine
 10
394.1558237485186
 20
175.4988167597034
 30
0.0000000000000000
 11
404.1558237485186
 21
158.1783086840146
 31
0.0000000000000000
  0
LINE
  5
3D9
100
AcDbEntity
  8
MAIN0
  6
PHANTOM
 62
3
100
AcDbLine
 10
405.6567863366568
 20
155.5785652210993
 30
0.0000000000000000
 11
421.6558237485187
 21
127.8674195515593
 31
0.0000000000000000
  0
LINE
  5
3DA
100
AcDbEntity
  8
MAIN0
  6
CONTINUOUS
 62
3
100
AcDbLine
 10
463.4378560512739
 20
215.4988167597034
 30
0.0000000000000000
 11
473.4378560512742
 21
198.1783086840140
 31
0.0000000000000000
  0
LINE
  5
3DB
100
AcDbEntity
  8
MAIN0
  6
CENTER
 62
3
100
AcDbLine
 10
275.1448385026703
 20
267.3789252738125
 30
0.0000000000000000
 11
362.1647707989885
 21
267.3789252738117
 31
0.0000000000000000
  0
LINE
  5
3DC
100
AcDbEntity
  8
MAIN0
  6
CENTER
 62
3
100
AcDbLine
 10
368.2647707036211
 20
267.3789252738116
 30
0.0000000000000000
 11
508.5712989273606
 21
267.3789252738102
 31
0.0000000000000000
  0
ARC
  5
3DD
100
AcDbEntity
  8
MAIN0
  6
CONTINUOUS
 62
3
100
AcDbCircle
 10
387.2968398998963
 20
267.3789252738114
 30
0.0000000000000000
 40
82.50000000000000
100
AcDbArc
 50
10.82903196762987
 51
15.82660637833222
  0
ARC
  5
3DE
100
AcDbEntity
  8
MAIN0
  6
CONTINUOUS
 62
3
100
AcDbCircle
 10
387.2968398998963
 20
267.3789252738114
 30
0.0000000000000000
 40
82.50000000000000
100
AcDbArc
 50
15.82660637833222
 51
169.1709815043643
  0
LINE
  5
3DF
100
AcDbEntity
  8
MAIN0
  6
CONTINUOUS
 62
3
100
AcDbLine
 10
307.2545571254166
 20
289.8789252738114
 30
0.0000000000000000
 11
307.9243005679586
 21
289.8789252738114
 31
0.0000000000000000
  0
LINE
  5
3E0
100
AcDbEntity
  8
MAIN0
  6
HIDDEN
 62
3
100
AcDbLine
 10
307.9243005679586
 20
289.8789252738114
 30
0.0000000000000000
 11
354.7968398998943
 21
289.8789252738114
 31
0.0000000000000000
  0
LINE
  5
3E1
100
AcDbEntity
  8
MAIN0
  6
CONTINUOUS
 62
3
100
AcDbLine
 10
307.2545571254308
 20
244.8789252738115
 30
0.0000000000000000
 11
307.9243005679586
 21
244.8789252738115
 31
0.0000000000000000
  0
LINE
  5
3E2
100
AcDbEntity
  8
MAIN0
  6
HIDDEN
 62
3
100
AcDbLine
 10
307.9243005679586
 20
244.8789252738115
 30
0.0000000000000000
 11
354.7968398998943
 21
244.8789252738115
 31
0.0000000000000000
  0
LINE
  5
3E3
100
AcDbEntity
  8
MAIN0
  6
CONTINUOUS
 62
3
100
AcDbLine
 10
298.5468398998949
 20
251.8789252738115
 30
0.0000000000000000
 11
298.5468398998949
 21
282.8789252738115
 31
0.0000000000000000
  0
ARC
  5
3E4
100
AcDbEntity
  8
MAIN0
  6
CONTINUOUS
 62
3
100
AcDbCircle
 10
294.7968398998963
 20
267.3789252738123
 30
0.0000000000000000
 40
5.000000000000000
100
AcDbArc
 50
41.40962210929644
 51
318.5903778907036
  0
ARC
  5
3E5
100
AcDbEntity
  8
MAIN0
  6
HIDDEN
 62
3
100
AcDbCircle
 10
294.7968398998963
 20
267.3789252738123
 30
0.0000000000000000
 40
5.000000000000000
100
AcDbArc
 50
318.5903778907036
 51
401.4096221092964
  0
LINE
  5
3E6
100
AcDbEntity
  8
MAIN0
  6
PHANTOM
 62
3
100
AcDbLine
 10
474.9388186394120
 20
195.5785652210995
 30
0.0000000000000000
 11
490.9378560512739
 21
167.8674195515594
 31
0.0000000000000000
  0
LINE
  5
3E7
100
AcDbEntity
  8
MAIN0
  6
PHANTOM
 62
3
100
AcDbLine
 10
412.7480947921659
 20
163.1390586840146
 30
0.0000000000000000
 11
408.3024897545278
 21
171.4265724795885
 31
0.0000000000000000
  0
LINE
  5
3E8
100
AcDbEntity
  8
MAIN0
  6
PHANTOM
 62
3
100
AcDbLine
 10
408.3024897545278
 20
171.4265724795885
 30
0.0000000000000000
 11
419.1879960673965
 21
177.7113224795882
 31
0.0000000000000000
  0
LINE
  5
3E9
100
AcDbEntity
  8
MAIN0
  6
PHANTOM
 62
3
100
AcDbLine
 10
419.1879960673965
 20
177.7113224795882
 30
0.0000000000000000
 11
424.1423910297580
 21
169.7175586840143
 31
0.0000000000000000
  0
LINE
  5
3EA
100
AcDbEntity
  8
MAIN0
  6
PHANTOM
 62
3
100
AcDbLine
 10
413.4894125378054
 20
163.5670586840146
 30
0.0000000000000000
 11
409.0438075001673
 21
171.8545724795885
 31
0.0000000000000000
  0
LINE
  5
3EB
100
AcDbEntity
  8
MAIN0
  6
PHANTOM
 62
3
100
AcDbLine
 10
423.4010732841184
 20
169.2895586840143
 30
0.0000000000000000
 11
418.4466783217570
 21
177.2833224795882
 31
0.0000000000000000
  0
LINE
  5
3EC
100
AcDbEntity
  8
MAIN0
  6
PHANTOM
 62
3
100
AcDbLine
 10
409.0687057305261
 20
171.8689474795885
 30
0.0000000000000000
 11
406.2687057305262
 21
176.7186897407814
 31
0.0000000000000000
  0
LINE
  5
3ED
100
AcDbEntity
  8
MAIN0
  6
PHANTOM
 62
3
100
AcDbLine
 10
406.2687057305262
 20
176.7186897407814
 30
0.0000000000000000
 11
415.6217800913984
 21
182.1186897407811
 31
0.0000000000000000
  0
LINE
  5
3EE
100
AcDbEntity
  8
MAIN0
  6
PHANTOM
 62
3
100
AcDbLine
 10
415.6217800913984
 20
182.1186897407811
 30
0.0000000000000000
 11
418.4217800913982
 21
177.2689474795882
 31
0.0000000000000000
  0
LINE
  5
3EF
100
AcDbEntity
  8
MAIN0
  6
PHANTOM
 62
3
100
AcDbLine
 10
406.2687057305263
 20
176.7186897407814
 30
0.0000000000000000
 11
409.3863971841505
 21
182.1186897407812
 31
0.0000000000000000
  0
LINE
  5
3F0
100
AcDbEntity
  8
MAIN0
  6
PHANTOM
 62
3
100
AcDbLine
 10
409.3863971841504
 20
182.1186897407813
 30
0.0000000000000000
 11
415.6217800913984
 21
182.1186897407811
 31
0.0000000000000000
  0
CIRCLE
  5
3F1
100
AcDbEntity
  8
MAIN0
  6
CONTINUOUS
 62
3
100
AcDbCircle
 10
423.0205604582674
 20
183.5036262313198
 30
0.0000000000000000
 40
5.000000000000000
  0
LINE
  5
3F2
100
AcDbEntity
  8
MAIN0
  6
CONTINUOUS
 62
3
100
AcDbLine
 10
421.5771847852934
 20
186.0036262313198
 30
0.0000000000000000
 11
420.1338091123193
 21
183.5036262313198
 31
0.0000000000000000
  0
LINE
  5
3F3
100
AcDbEntity
  8
MAIN0
  6
CONTINUOUS
 62
3
100
AcDbLine
 10
420.1338091123193
 20
183.5036262313198
 30
0.0000000000000000
 11
421.5771847852934
 21
181.0036262313199
 31
0.0000000000000000
  0
LINE
  5
3F4
100
AcDbEntity
  8
MAIN0
  6
CONTINUOUS
 62
3
100
AcDbLine
 10
421.5771847852934
 20
181.0036262313199
 30
0.0000000000000000
 11
424.4639361312415
 21
181.0036262313199
 31
0.0000000000000000
  0
LINE
  5
3F5
100
AcDbEntity
  8
MAIN0
  6
CONTINUOUS
 62
3
100
AcDbLine
 10
424.4639361312415
 20
181.0036262313199
 30
0.0000000000000000
 11
425.9073118042156
 21
183.5036262313199
 31
0.0000000000000000
  0
LINE
  5
3F6
100
AcDbEntity
  8
MAIN0
  6
CONTINUOUS
 62
3
100
AcDbLine
 10
425.9073118042156
 20
183.5036262313199
 30
0.0000000000000000
 11
424.4639361312416
 21
186.0036262313198
 31
0.0000000000000000
  0
LINE
  5
3F7
100
AcDbEntity
  8
MAIN0
  6
CONTINUOUS
 62
3
100
AcDbLine
 10
424.4639361312415
 20
186.0036262313198
 30
0.0000000000000000
 11
421.5771847852934
 21
186.0036262313198
 31
0.0000000000000000
  0
CIRCLE
  5
3F8
100
AcDbEntity
  8
MAIN0
  6
CONTINUOUS
 62
3
100
AcDbCircle
 10
313.5468398998947
 20
267.3789252738115
 30
0.0000000000000000
 40
8.000000000000000
  0
LINE
  5
3F9
100
AcDbEntity
  8
MAIN0
  6
CONTINUOUS
 62
3
100
AcDbLine
 10
308.9280377463777
 20
267.3789252738114
 30
0.0000000000000000
 11
311.2374388231362
 21
263.3789252738114
 31
0.0000000000000000
  0
LINE
  5
3FA
100
AcDbEntity
  8
MAIN0
  6
CONTINUOUS
 62
3
100
AcDbLine
 10
311.2374388231362
 20
263.3789252738115
 30
0.0000000000000000
 11
315.8562409766532
 21
263.3789252738115
 31
0.0000000000000000
  0
LINE
  5
3FB
100
AcDbEntity
  8
MAIN0
  6
CONTINUOUS
 62
3
100
AcDbLine
 10
315.8562409766531
 20
263.3789252738115
 30
0.0000000000000000
 11
318.1656420534117
 21
267.3789252738115
 31
0.0000000000000000
  0
LINE
  5
3FC
100
AcDbEntity
  8
MAIN0
  6
CONTINUOUS
 62
3
100
AcDbLine
 10
318.1656420534117
 20
267.3789252738114
 30
0.0000000000000000
 11
315.8562409766531
 21
271.3789252738114
 31
0.0000000000000000
  0
LINE
  5
3FD
100
AcDbEntity
  8
MAIN0
  6
CONTINUOUS
 62
3
100
AcDbLine
 10
315.8562409766532
 20
271.3789252738115
 30
0.0000000000000000
 11
311.2374388231362
 21
271.3789252738115
 31
0.0000000000000000
  0
LINE
  5
3FE
100
AcDbEntity
  8
MAIN0
  6
CONTINUOUS
 62
3
100
AcDbLine
 10
311.2374388231362
 20
271.3789252738115
 30
0.0000000000000000
 11
308.9280377463777
 21
267.3789252738115
 31
0.0000000000000000
  0
CIRCLE
  5
3FF
100
AcDbEntity
  8
MAIN0
  6
PHANTOM
 62
3
100
AcDbCircle
 10
402.0074207374530
 20
208.8994518543142
 30
0.0000000000000000
 40
4.864000000000000
  0
CIRCLE
  5
400
100
AcDbEntity
  8
MAIN0
  6
PHANTOM
 62
3
100
AcDbCircle
 10
402.0074207374530
 20
208.8994518543142
 30
0.0000000000000000
 40
4.283000000000000
  0
CIRCLE
  5
401
100
AcDbEntity
  8
MAIN0
  6
PHANTOM
 62
3
100
AcDbCircle
 10
430.5862590623397
 20
225.3994518543139
 30
0.0000000000000000
 40
4.864000000000000
  0
CIRCLE
  5
402
100
AcDbEntity
  8
MAIN0
  6
PHANTOM
 62
3
100
AcDbCircle
 10
430.5862590623397
 20
225.3994518543139
 30
0.0000000000000000
 40
4.283000000000000
  0
LINE
  5
403
100
AcDbEntity
  8
MAIN0
  6
PHANTOM
 62
3
100
AcDbLine
 10
455.8655170955984
 20
192.4504493275358
 30
0.0000000000000000
 11
455.8721813514912
 21
193.2989512943535
 31
0.0000000000000000
  0
LINE
  5
404
100
AcDbEntity
  8
MAIN0
  6
PHANTOM
 62
3
100
AcDbLine
 10
443.9115227663749
 20
205.4489786578534
 30
0.0000000000000000
 11
412.0966203833997
 21
237.7675948752959
 31
0.0000000000000000
  0
LINE
  5
405
100
AcDbEntity
  8
MAIN0
  6
PHANTOM
 62
3
100
AcDbLine
 10
412.0966203833997
 20
237.7675948752960
 30
0.0000000000000000
 11
416.5149792007369
 21
242.1170897150743
 31
0.0000000000000000
  0
LINE
  5
406
100
AcDbEntity
  8
MAIN0
  6
PHANTOM
 62
3
100
AcDbLine
 10
416.5149792007369
 20
242.1170897150743
 30
0.0000000000000000
 11
448.9050153495367
 21
209.2142338470545
 31
0.0000000000000000
  0
LINE
  5
407
100
AcDbEntity
  8
MAIN0
  6
PHANTOM
 62
3
100
AcDbLine
 10
460.2905401688284
 20
197.6484461341318
 30
0.0000000000000000
 11
461.1390421356460
 21
197.6417818782390
 31
0.0000000000000000
  0
LINE
  5
408
100
AcDbEntity
  8
MAIN0
  6
PHANTOM
 62
3
100
AcDbLine
 10
412.0966203833997
 20
237.7675948752960
 30
0.0000000000000000
 11
413.0502087837759
 21
241.2178126214681
 31
0.0000000000000000
  0
LINE
  5
409
100
AcDbEntity
  8
MAIN0
  6
PHANTOM
 62
3
100
AcDbLine
 10
413.0502087837759
 20
241.2178126214681
 30
0.0000000000000000
 11
416.5149792007370
 21
242.1170897150743
 31
0.0000000000000000
  0
LINE
  5
40A
100
AcDbEntity
  8
MAIN0
  6
PHANTOM
 62
3
100
AcDbLine
 10
410.7526292337028
 20
168.5570352558195
 30
0.0000000000000000
 11
411.1712376284304
 21
169.2951185924853
 31
0.0000000000000000
  0
LINE
  5
40B
100
AcDbEntity
  8
MAIN0
  6
PHANTOM
 62
3
100
AcDbLine
 10
406.9806795290540
 20
184.4674631715801
 30
0.0000000000000000
 11
399.3506647767187
 21
212.0927126540371
 31
0.0000000000000000
  0
LINE
  5
40C
100
AcDbEntity
  8
MAIN0
  6
PHANTOM
 62
3
100
AcDbLine
 10
399.3506647767187
 20
212.0927126540371
 30
0.0000000000000000
 11
405.3269053889174
 21
213.7433331873842
 31
0.0000000000000000
  0
LINE
  5
40D
100
AcDbEntity
  8
MAIN0
  6
PHANTOM
 62
3
100
AcDbLine
 10
405.3269053889173
 20
213.7433331873842
 30
0.0000000000000000
 11
412.5139841731832
 21
187.7217787199236
 31
0.0000000000000000
  0
LINE
  5
40E
100
AcDbEntity
  8
MAIN0
  6
PHANTOM
 62
3
100
AcDbLine
 10
417.1474782406290
 20
170.9457391258324
 30
0.0000000000000000
 11
417.8855615772948
 21
170.5271307311049
 31
0.0000000000000000
  0
LINE
  5
40F
100
AcDbEntity
  8
MAIN0
  6
PHANTOM
 62
3
100
AcDbLine
 10
399.3506647767187
 20
212.0927126540371
 30
0.0000000000000000
 11
401.8622919781891
 21
214.6432149838080
 31
0.0000000000000000
  0
LINE
  5
410
100
AcDbEntity
  8
MAIN0
  6
PHANTOM
 62
3
100
AcDbLine
 10
401.8622919781892
 20
214.6432149838080
 30
0.0000000000000000
 11
405.3269053889175
 21
213.7433331873842
 31
0.0000000000000000
  0
LINE
  5
411
100
AcDbEntity
  8
MAIN0
  6
CENTER
 62
3
100
AcDbLine
 10
461.0468068994319
 20
274.9539127356027
 30
0.0000000000000000
 11
461.0468068994319
 21
260.0922186163334
 31
0.0000000000000000
  0
LINE
  5
412
100
AcDbEntity
  8
MAIN0
  6
CONTINUOUS
 62
3
100
AcDbLine
 10
470.0468068994028
 20
273.3789252738060
 30
0.0000000000000000
 11
470.0468068994022
 21
261.3789252738060
 31
0.0000000000000000
  0
LINE
  5
413
100
AcDbEntity
  8
MAIN0
  6
CONTINUOUS
 62
3
100
AcDbLine
 10
435.5468068995917
 20
261.3789252738059
 30
0.0000000000000000
 11
433.5468068994520
 21
263.3789252739443
 31
0.0000000000000000
  0
LINE
  5
414
100
AcDbEntity
  8
MAIN0
  6
CONTINUOUS
 62
3
100
AcDbLine
 10
435.5468068994609
 20
273.3789252738060
 30
0.0000000000000000
 11
433.5468068994514
 21
271.3789252737913
 31
0.0000000000000000
  0
LINE
  5
415
100
AcDbEntity
  8
MAIN0
  6
HIDDEN
 62
3
100
AcDbLine
 10
438.0468068994544
 20
275.8789252738059
 30
0.0000000000000000
 11
435.5468068994611
 21
273.3789252738059
 31
0.0000000000000000
  0
LINE
  5
416
100
AcDbEntity
  8
MAIN0
  6
HIDDEN
 62
3
100
AcDbLine
 10
470.0468068994027
 20
275.8789252738062
 30
0.0000000000000000
 11
470.0468068994026
 21
273.3789252738060
 31
0.0000000000000000
  0
LINE
  5
417
100
AcDbEntity
  8
MAIN0
  6
HIDDEN
 62
3
100
AcDbLine
 10
470.0468068993575
 20
258.8789252725636
 30
0.0000000000000000
 11
470.0468068993707
 21
261.3789252725638
 31
0.0000000000000000
  0
LINE
  5
418
100
AcDbEntity
  8
MAIN0
  6
HIDDEN
 62
3
100
AcDbLine
 10
438.0468068994090
 20
258.8789252727344
 30
0.0000000000000000
 11
435.5468068994290
 21
261.3789252727477
 31
0.0000000000000000
  0
LINE
  5
419
100
AcDbEntity
  8
MAIN0
  6
CONTINUOUS
 62
3
100
AcDbLine
 10
470.7968068994142
 20
280.3789252738104
 30
0.0000000000000000
 11
470.7968068994142
 21
254.3789252738104
 31
0.0000000000000000
  0
LINE
  5
41A
100
AcDbEntity
  8
MAIN0
  6
HIDDEN
 62
3
100
AcDbLine
 10
419.9638068993910
 20
282.8789252738105
 30
0.0000000000000000
 11
419.7638068993909
 21
282.6789252738105
 31
0.0000000000000000
  0
LINE
  5
41B
100
AcDbEntity
  8
MAIN0
  6
HIDDEN
 62
3
100
AcDbLine
 10
419.9638068993857
 20
251.8789252738106
 30
0.0000000000000000
 11
419.7638068993857
 21
252.0789252738105
 31
0.0000000000000000
  0
LINE
  5
41C
100
AcDbEntity
  8
MAIN0
  6
HIDDEN
 62
3
100
AcDbLine
 10
424.2968068993844
 20
282.6789252738106
 30
0.0000000000000000
 11
424.2968068993783
 21
252.0789252738105
 31
0.0000000000000000
  0
LINE
  5
41D
100
AcDbEntity
  8
MAIN0
  6
HIDDEN
 62
3
100
AcDbLine
 10
424.2968068993783
 20
252.0789252738104
 30
0.0000000000000000
 11
424.4968068993783
 21
251.8789252738104
 31
0.0000000000000000
  0
LINE
  5
41E
100
AcDbEntity
  8
MAIN0
  6
HIDDEN
 62
3
100
AcDbLine
 10
424.2968068993843
 20
282.6789252738106
 30
0.0000000000000000
 11
424.4968068993843
 21
282.8789252738106
 31
0.0000000000000000
  0
LINE
  5
41F
100
AcDbEntity
  8
MAIN0
  6
CONTINUOUS
 62
3
100
AcDbLine
 10
470.7968068994140
 20
261.3789252738106
 30
0.0000000000000000
 11
432.1968068994279
 21
261.3789252738106
 31
0.0000000000000000
  0
LINE
  5
420
100
AcDbEntity
  8
MAIN0
  6
CONTINUOUS
 62
3
100
AcDbLine
 10
470.7968068994140
 20
273.3789252738106
 30
0.0000000000000000
 11
432.1968068994274
 21
273.3789252738106
 31
0.0000000000000000
  0
LINE
  5
421
100
AcDbEntity
  8
MAIN0
  6
CONTINUOUS
 62
3
100
AcDbLine
 10
431.7968068994272
 20
282.8789252738105
 30
0.0000000000000000
 11
431.7968068994275
 21
273.7789252738105
 31
0.0000000000000000
  0
LINE
  5
422
100
AcDbEntity
  8
MAIN0
  6
CONTINUOUS
 62
3
100
AcDbLine
 10
431.7968068994280
 20
260.9789252738104
 30
0.0000000000000000
 11
431.7968068994283
 21
251.8789252738106
 31
0.0000000000000000
  0
LINE
  5
423
100
AcDbEntity
  8
MAIN0
  6
CONTINUOUS
 62
3
100
AcDbLine
 10
470.7968068994140
 20
254.3789252738096
 30
0.0000000000000000
 11
467.3390896738922
 21
244.8789252738106
 31
0.0000000000000000
  0
LINE
  5
424
100
AcDbEntity
  8
MAIN0
  6
CONTINUOUS
 62
3
100
AcDbLine
 10
431.7968068994281
 20
260.9789252738102
 30
0.0000000000000000
 11
432.1968068994281
 21
261.3789252738103
 31
0.0000000000000000
  0
LINE
  5
425
100
AcDbEntity
  8
MAIN0
  6
CONTINUOUS
 62
3
100
AcDbLine
 10
431.7968068994277
 20
273.7789252738105
 30
0.0000000000000000
 11
432.1968068994277
 21
273.3789252738105
 31
0.0000000000000000
  0
LINE
  5
426
100
AcDbEntity
  8
MAIN0
  6
HIDDEN
 62
3
100
AcDbLine
 10
419.7638068993859
 20
252.0789252738105
 30
0.0000000000000000
 11
419.7638068993912
 21
282.6789252738106
 31
0.0000000000000000
  0
LINE
  5
427
100
AcDbEntity
  8
MAIN0
  6
HIDDEN
 62
3
100
AcDbLine
 10
419.9638068993911
 20
282.8789252738104
 30
0.0000000000000000
 11
431.6968068994125
 21
282.8789252738105
 31
0.0000000000000000
  0
LINE
  5
428
100
AcDbEntity
  8
MAIN0
  6
CONTINUOUS
 62
3
100
AcDbLine
 10
431.6968068994124
 20
282.8789252738105
 30
0.0000000000000000
 11
469.8868813137465
 21
282.8789252738105
 31
0.0000000000000000
  0
LINE
  5
429
100
AcDbEntity
  8
MAIN0
  6
HIDDEN
 62
3
100
AcDbLine
 10
419.9638068993858
 20
251.8789252738104
 30
0.0000000000000000
 11
431.6968068994126
 21
251.8789252738104
 31
0.0000000000000000
  0
LINE
  5
42A
100
AcDbEntity
  8
MAIN0
  6
CONTINUOUS
 62
3
100
AcDbLine
 10
431.6968068994126
 20
251.8789252738104
 30
0.0000000000000000
 11
469.8868813137506
 21
251.8789252738104
 31
0.0000000000000000
  0
ARC
  5
42B
100
AcDbEntity
  8
MAIN0
  6
CONTINUOUS
 62
3
100
AcDbCircle
 10
433.0968068994142
 20
267.3789252738104
 30
0.0000000000000000
 40
6.300000000000000
100
AcDbArc
 50
100.0808630004370
 51
141.0575587309933
  0
ARC
  5
42C
100
AcDbEntity
  8
MAIN0
  6
HIDDEN
 62
3
100
AcDbCircle
 10
433.0968068994142
 20
267.3789252738104
 30
0.0000000000000000
 40
6.300000000000000
100
AcDbArc
 50
141.0575587309933
 51
218.9424412690414
  0
ARC
  5
42D
100
AcDbEntity
  8
MAIN0
  6
CONTINUOUS
 62
3
100
AcDbCircle
 10
433.0968068994142
 20
267.3789252738104
 30
0.0000000000000000
 40
6.300000000000000
100
AcDbArc
 50
218.9424412690414
 51
259.9191369995683
  0
LINE
  5
42E
100
AcDbEntity
  8
MAIN0
  6
CENTER
 62
3
100
AcDbLine
 10
441.0468068994319
 20
274.9539127356027
 30
0.0000000000000000
 11
441.0468068994319
 21
260.0922186163334
 31
0.0000000000000000
  0
LINE
  5
42F
100
AcDbEntity
  8
MAIN0
  6
CONTINUOUS
 62
3
100
AcDbLine
 10
433.5468068994516
 20
271.3789252737911
 30
0.0000000000000000
 11
433.5468068994520
 21
263.3789252739444
 31
0.0000000000000000
  0
LINE
  5
430
100
AcDbEntity
  8
MAIN0
  6
CONTINUOUS
 62
3
100
AcDbLine
 10
470.0468068994024
 20
261.3789252738059
 30
0.0000000000000000
 11
435.5468068995917
 21
261.3789252738059
 31
0.0000000000000000
  0
LINE
  5
431
100
AcDbEntity
  8
MAIN0
  6
CONTINUOUS
 62
3
100
AcDbLine
 10
470.0468068994029
 20
273.3789252738059
 30
0.0000000000000000
 11
435.5468068994610
 21
273.3789252738059
 31
0.0000000000000000
  0
CIRCLE
  5
432
100
AcDbEntity
  8
MAIN0
  6
CONTINUOUS
 62
3
100
AcDbCircle
 10
461.0468068994319
 20
267.3789252738060
 30
0.0000000000000000
 40
5.000000000000000
  0
CIRCLE
  5
433
100
AcDbEntity
  8
MAIN0
  6
CONTINUOUS
 62
3
100
AcDbCircle
 10
461.0468068994319
 20
267.3789252738060
 30
0.0000000000000000
 40
4.250000000000000
  0
LINE
  5
434
100
AcDbEntity
  8
MAIN0
  6
CONTINUOUS
 62
3
100
AcDbLine
 10
470.7968068994139
 20
280.3789252738114
 30
0.0000000000000000
 11
467.3390896738921
 21
289.8789252738104
 31
0.0000000000000000
  0
LINE
  5
435
100
AcDbEntity
  8
MAIN0
  6
HIDDEN
 62
3
100
AcDbLine
 10
470.7968068994143
 20
258.1289252731829
 30
0.0000000000000000
 11
436.0468068994142
 21
258.1289252731829
 31
0.0000000000000000
  0
ARC
  5
436
100
AcDbEntity
  8
MAIN0
  6
HIDDEN
 62
3
100
AcDbCircle
 10
436.0468068994142
 20
267.3789252731827
 30
0.0000000000000000
 40
9.250000000000000
100
AcDbArc
 50
90.00000000000000
 51
270.0000000000001
  0
LINE
  5
437
100
AcDbEntity
  8
MAIN0
  6
HIDDEN
 62
3
100
AcDbLine
 10
470.7968068994141
 20
276.6289252731828
 30
0.0000000000000000
 11
436.0468068994140
 21
276.6289252731828
 31
0.0000000000000000
  0
LINE
  5
438
100
AcDbEntity
  8
MAIN0
  6
HIDDEN
 62
3
100
AcDbLine
 10
470.7968068994142
 20
273.6789252731828
 30
0.0000000000000000
 11
433.0968068994141
 21
273.6789252731828
 31
0.0000000000000000
  0
LINE
  5
439
100
AcDbEntity
  8
MAIN0
  6
HIDDEN
 62
3
100
AcDbLine
 10
470.7968068994142
 20
261.0789252731827
 30
0.0000000000000000
 11
433.0968068994141
 21
261.0789252731827
 31
0.0000000000000000
  0
ARC
  5
43A
100
AcDbEntity
  8
MAIN0
  6
HIDDEN
 62
3
100
AcDbCircle
 10
433.0968068994142
 20
267.3789252731826
 30
0.0000000000000000
 40
6.300000000000000
100
AcDbArc
 50
259.9191369995683
 51
270.0000000000001
  0
ARC
  5
43B
100
AcDbEntity
  8
MAIN0
  6
HIDDEN
 62
3
100
AcDbCircle
 10
433.0968068994142
 20
267.3789252731826
 30
0.0000000000000000
 40
6.300000000000000
100
AcDbArc
 50
90.00000000000000
 51
100.0808630004370
  0
LINE
  5
43C
100
AcDbEntity
  8
MAIN0
  6
HIDDEN
 62
3
100
AcDbLine
 10
470.0468068994031
 20
275.8789252738059
 30
0.0000000000000000
 11
438.0468068994543
 21
275.8789252738059
 31
0.0000000000000000
  0
LINE
  5
43D
100
AcDbEntity
  8
MAIN0
  6
HIDDEN
 62
3
100
AcDbLine
 10
470.0468068993578
 20
258.8789252725638
 30
0.0000000000000000
 11
438.0468068994090
 21
258.8789252727343
 31
0.0000000000000000
  0
LINE
  5
43E
100
AcDbEntity
  8
MAIN0
  6
CONTINUOUS
 62
3
100
AcDbLine
 10
197.8315763061084
 20
65.05114936148215
 30
0.0000000000000000
 11
212.4315763061084
 21
65.05114936148215
 31
0.0000000000000000
  0
LINE
  5
43F
100
AcDbEntity
  8
MAIN0
  6
CONTINUOUS
 62
3
100
AcDbLine
 10
193.3315763061082
 20
67.55114936148215
 30
0.0000000000000000
 11
197.2315763061082
 21
67.55114936148215
 31
0.0000000000000000
  0
LINE
  5
440
100
AcDbEntity
  8
MAIN0
  6
CONTINUOUS
 62
3
100
AcDbLine
 10
190.3315763061085
 20
64.55114936148209
 30
0.0000000000000000
 11
190.3315763061095
 21
53.55114936148220
 31
0.0000000000000000
  0
LINE
  5
441
100
AcDbEntity
  8
MAIN0
  6
CONTINUOUS
 62
3
100
AcDbLine
 10
212.8315763061085
 20
64.65114936148225
 30
0.0000000000000000
 11
212.8315763061095
 21
53.45114936148221
 31
0.0000000000000000
  0
LINE
  5
442
100
AcDbEntity
  8
MAIN0
  6
HIDDEN
 62
3
100
AcDbLine
 10
212.8315763061085
 20
64.05114936148215
 30
0.0000000000000000
 11
190.3315763061085
 21
64.05114936148215
 31
0.0000000000000000
  0
LINE
  5
443
100
AcDbEntity
  8
MAIN0
  6
HIDDEN
 62
3
100
AcDbLine
 10
190.3315763061086
 20
63.30114936148215
 30
0.0000000000000000
 11
212.8315763061085
 21
63.30114936148215
 31
0.0000000000000000
  0
LINE
  5
444
100
AcDbEntity
  8
MAIN0
  6
HIDDEN
 62
3
100
AcDbLine
 10
212.8315763061094
 20
54.05114936148215
 30
0.0000000000000000
 11
190.3315763061094
 21
54.05114936148215
 31
0.0000000000000000
  0
LINE
  5
445
100
AcDbEntity
  8
MAIN0
  6
HIDDEN
 62
3
100
AcDbLine
 10
212.8315763061093
 20
54.80114936148215
 30
0.0000000000000000
 11
190.3315763061094
 21
54.80114936148215
 31
0.0000000000000000
  0
LINE
  5
446
100
AcDbEntity
  8
MAIN0
  6
CONTINUOUS
 62
3
100
AcDbLine
 10
197.8315763061084
 20
53.05114936148215
 30
0.0000000000000000
 11
212.4315763061095
 21
53.05114936148215
 31
0.0000000000000000
  0
LINE
  5
447
100
AcDbEntity
  8
MAIN0
  6
CONTINUOUS
 62
3
100
AcDbLine
 10
193.3315763061098
 20
50.55114936148215
 30
0.0000000000000000
 11
197.2315763061098
 21
50.55114936148215
 31
0.0000000000000000
  0
LINE
  5
448
100
AcDbEntity
  8
MAIN0
  6
CONTINUOUS
 62
3
100
AcDbLine
 10
212.8315763061085
 20
64.65114936148228
 30
0.0000000000000000
 11
212.4315763061085
 21
65.05114936148226
 31
0.0000000000000000
  0
LINE
  5
449
100
AcDbEntity
  8
MAIN0
  6
CONTINUOUS
 62
3
100
AcDbLine
 10
212.8315763061095
 20
53.45114936148229
 30
0.0000000000000000
 11
212.4315763061095
 21
53.05114936148226
 31
0.0000000000000000
  0
LINE
  5
44A
100
AcDbEntity
  8
MAIN0
  6
CONTINUOUS
 62
3
100
AcDbLine
 10
197.8315763061082
 20
66.95114936148215
 30
0.0000000000000000
 11
197.8315763061084
 21
65.05114936148218
 31
0.0000000000000000
  0
LINE
  5
44B
100
AcDbEntity
  8
MAIN0
  6
CONTINUOUS
 62
3
100
AcDbLine
 10
197.8315763061095
 20
53.05114936148218
 30
0.0000000000000000
 11
197.8315763061096
 21
51.15114936148220
 31
0.0000000000000000
  0
LINE
  5
44C
100
AcDbEntity
  8
MAIN0
  6
CONTINUOUS
 62
3
100
AcDbLine
 10
193.3315763061097
 20
50.55114936148226
 30
0.0000000000000000
 11
190.3315763061095
 21
53.55114936148220
 31
0.0000000000000000
  0
LINE
  5
44D
100
AcDbEntity
  8
MAIN0
  6
CONTINUOUS
 62
3
100
AcDbLine
 10
193.3315763061083
 20
67.55114936148215
 30
0.0000000000000000
 11
190.3315763061086
 21
64.55114936148215
 31
0.0000000000000000
  0
LINE
  5
44E
100
AcDbEntity
  8
MAIN0
  6
CONTINUOUS
 62
3
100
AcDbLine
 10
197.8315763061098
 20
51.15114936148228
 30
0.0000000000000000
 11
197.2315763061097
 21
50.55114936148220
 31
0.0000000000000000
  0
LINE
  5
44F
100
AcDbEntity
  8
MAIN0
  6
CONTINUOUS
 62
3
100
AcDbLine
 10
197.2315763061083
 20
67.55114936148215
 30
0.0000000000000000
 11
197.8315763061083
 21
66.95114936148224
 31
0.0000000000000000
  0
CIRCLE
  5
450
100
AcDbEntity
  8
MAIN0
  6
CONTINUOUS
 62
3
100
AcDbCircle
 10
441.0468068994319
 20
267.3789252738060
 30
0.0000000000000000
 40
5.000000000000000
  0
CIRCLE
  5
451
100
AcDbEntity
  8
MAIN0
  6
CONTINUOUS
 62
3
100
AcDbCircle
 10
441.0468068994319
 20
267.3789252738060
 30
0.0000000000000000
 40
4.250000000000000
  0
LINE
  5
452
100
AcDbEntity
  8
MAIN0
  6
CONTINUOUS
 62
3
100
AcDbLine
 10
170.3315763061068
 20
43.75114936148222
 30
0.0000000000000000
 11
170.3315763061072
 21
74.35114936148224
 31
0.0000000000000000
  0
LINE
  5
453
100
AcDbEntity
  8
MAIN0
  6
CONTINUOUS
 62
3
100
AcDbLine
 10
170.5315763061068
 20
43.55114936148215
 30
0.0000000000000000
 11
174.8315763061068
 21
43.55114936148215
 31
0.0000000000000000
  0
LINE
  5
454
100
AcDbEntity
  8
MAIN0
  6
CONTINUOUS
 62
3
100
AcDbLine
 10
170.5315763061072
 20
74.55114936148215
 30
0.0000000000000000
 11
174.8315763061073
 21
74.55114936148215
 31
0.0000000000000000
  0
LINE
  5
455
100
AcDbEntity
  8
MAIN0
  6
CONTINUOUS
 62
3
100
AcDbLine
 10
209.8315763061090
 20
74.05114936148226
 30
0.0000000000000000
 11
209.8315763061090
 21
65.55114936148203
 31
0.0000000000000000
  0
LINE
  5
456
100
AcDbEntity
  8
MAIN0
  6
CONTINUOUS
 62
3
100
AcDbLine
 10
175.0315763061073
 20
81.55114936148215
 30
0.0000000000000000
 11
188.6315763061073
 21
81.55114936148215
 31
0.0000000000000000
  0
LINE
  5
457
100
AcDbEntity
  8
MAIN0
  6
CONTINUOUS
 62
3
100
AcDbLine
 10
188.8315763061068
 20
36.75114936148196
 30
0.0000000000000000
 11
188.8315763061069
 21
43.55114936148215
 31
0.0000000000000000
  0
LINE
  5
458
100
AcDbEntity
  8
MAIN0
  6
CONTINUOUS
 62
3
100
AcDbLine
 10
188.8315763061072
 20
74.55114936148215
 30
0.0000000000000000
 11
188.8315763061073
 21
81.35114936148199
 31
0.0000000000000000
  0
LINE
  5
459
100
AcDbEntity
  8
MAIN0
  6
CONTINUOUS
 62
3
100
AcDbLine
 10
174.8315763061067
 20
36.75114936148208
 30
0.0000000000000000
 11
174.8315763061068
 21
43.55114936148215
 31
0.0000000000000000
  0
LINE
  5
45A
100
AcDbEntity
  8
MAIN0
  6
CONTINUOUS
 62
3
100
AcDbLine
 10
174.8315763061073
 20
74.55114936148215
 30
0.0000000000000000
 11
174.8315763061074
 21
81.35114936148227
 31
0.0000000000000000
  0
LINE
  5
45B
100
AcDbEntity
  8
MAIN0
  6
PHANTOM
 62
3
100
AcDbLine
 10
208.8315763061090
 20
74.55114936148215
 30
0.0000000000000000
 11
208.8315763061090
 21
65.05114936148215
 31
0.0000000000000000
  0
LINE
  5
45C
100
AcDbEntity
  8
MAIN0
  6
CONTINUOUS
 62
3
100
AcDbLine
 10
208.9655509023251
 20
74.55114936148212
 30
0.0000000000000000
 11
209.8315763061091
 21
74.05114936148226
 31
0.0000000000000000
  0
LINE
  5
45D
100
AcDbEntity
  8
MAIN0
  6
CONTINUOUS
 62
3
100
AcDbLine
 10
208.9655509023247
 20
65.05114936148314
 30
0.0000000000000000
 11
209.8315763061090
 21
65.55114936148237
 31
0.0000000000000000
  0
LINE
  5
45E
100
AcDbEntity
  8
MAIN0
  6
CONTINUOUS
 62
3
100
AcDbLine
 10
209.8315763061090
 20
44.05114936148209
 30
0.0000000000000000
 11
209.8315763061090
 21
52.55114936148232
 31
0.0000000000000000
  0
LINE
  5
45F
100
AcDbEntity
  8
MAIN0
  6
CONTINUOUS
 62
3
100
AcDbLine
 10
192.8315763060797
 20
49.80114936148215
 30
0.0000000000000000
 11
196.6315763061090
 21
49.80114936148215
 31
0.0000000000000000
  0
LINE
  5
460
100
AcDbEntity
  8
MAIN0
  6
PHANTOM
 62
3
100
AcDbLine
 10
208.8315763061090
 20
43.55114936148229
 30
0.0000000000000000
 11
208.8315763061090
 21
53.05114936148297
 31
0.0000000000000000
  0
LINE
  5
461
100
AcDbEntity
  8
MAIN0
  6
CONTINUOUS
 62
3
100
AcDbLine
 10
208.9655509023247
 20
43.55114936148212
 30
0.0000000000000000
 11
209.8315763061088
 21
44.05114936148200
 31
0.0000000000000000
  0
LINE
  5
462
100
AcDbEntity
  8
MAIN0
  6
CONTINUOUS
 62
3
100
AcDbLine
 10
208.9655509023222
 20
53.05114936148300
 30
0.0000000000000000
 11
209.8315763061090
 21
52.55114936148237
 31
0.0000000000000000
  0
LINE
  5
463
100
AcDbEntity
  8
MAIN0
  6
CONTINUOUS
 62
3
100
AcDbLine
 10
188.8315763061068
 20
36.75114936148225
 30
0.0000000000000000
 11
188.6315763061068
 21
36.55114936148226
 31
0.0000000000000000
  0
LINE
  5
464
100
AcDbEntity
  8
MAIN0
  6
CONTINUOUS
 62
3
100
AcDbLine
 10
175.0315763061067
 20
36.55114936148235
 30
0.0000000000000000
 11
174.8315763061067
 21
36.75114936148231
 31
0.0000000000000000
  0
LINE
  5
465
100
AcDbEntity
  8
MAIN0
  6
CONTINUOUS
 62
3
100
AcDbLine
 10
175.0315763061072
 20
81.55114936148229
 30
0.0000000000000000
 11
174.8315763061073
 21
81.35114936148233
 31
0.0000000000000000
  0
LINE
  5
466
100
AcDbEntity
  8
MAIN0
  6
CONTINUOUS
 62
3
100
AcDbLine
 10
188.8315763061073
 20
81.35114936148216
 30
0.0000000000000000
 11
188.6315763061072
 21
81.55114936148220
 31
0.0000000000000000
  0
LINE
  5
467
100
AcDbEntity
  8
MAIN0
  6
CONTINUOUS
 62
3
100
AcDbLine
 10
170.5315763061072
 20
74.55114936148226
 30
0.0000000000000000
 11
170.3315763061073
 21
74.35114936148227
 31
0.0000000000000000
  0
LINE
  5
468
100
AcDbEntity
  8
MAIN0
  6
CONTINUOUS
 62
3
100
AcDbLine
 10
170.5315763061067
 20
43.55114936148220
 30
0.0000000000000000
 11
170.3315763061067
 21
43.75114936148225
 31
0.0000000000000000
  0
LINE
  5
469
100
AcDbEntity
  8
MAIN0
  6
CONTINUOUS
 62
3
100
AcDbLine
 10
190.0073122373679
 20
52.37541343021860
 30
0.0000000000000000
 11
192.4058403748158
 21
49.97688529277048
 31
0.0000000000000000
  0
LINE
  5
46A
100
AcDbEntity
  8
MAIN0
  6
CONTINUOUS
 62
3
100
AcDbLine
 10
189.8315763060786
 20
65.30114936148189
 30
0.0000000000000000
 11
189.8315763060797
 21
52.80114936148189
 31
0.0000000000000000
  0
LINE
  5
46B
100
AcDbEntity
  8
MAIN0
  6
CONTINUOUS
 62
3
100
AcDbLine
 10
198.4315763064352
 20
52.75114936148214
 30
0.0000000000000000
 11
197.8315763061091
 21
52.15114936115617
 31
0.0000000000000000
  0
ARC
  5
46C
100
AcDbEntity
  8
MAIN0
  6
CONTINUOUS
 62
3
100
AcDbCircle
 10
196.6315763061090
 20
51.00114936148219
 30
0.0000000000000000
 40
1.200000000000000
100
AcDbArc
 50
270.0000000000000
 51
360.0000000000000
  0
ARC
  5
46D
100
AcDbEntity
  8
MAIN0
  6
CONTINUOUS
 62
3
100
AcDbCircle
 10
192.8301044435274
 20
50.40114936148217
 30
0.0000000000000000
 40
0.6000000000000000
100
AcDbArc
 50
224.9999999999962
 51
270.0000000000000
  0
ARC
  5
46E
100
AcDbEntity
  8
MAIN0
  6
CONTINUOUS
 62
3
100
AcDbCircle
 10
190.4315763060797
 20
52.79967749893029
 30
0.0000000000000000
 40
0.6000000000000000
100
AcDbArc
 50
180.0000000000000
 51
224.9999999999962
  0
LINE
  5
46F
100
AcDbEntity
  8
MAIN0
  6
CONTINUOUS
 62
3
100
AcDbLine
 10
192.8315763060786
 20
68.30114936148215
 30
0.0000000000000000
 11
196.6315763061090
 21
68.30114936148215
 31
0.0000000000000000
  0
LINE
  5
470
100
AcDbEntity
  8
MAIN0
  6
CONTINUOUS
 62
3
100
AcDbLine
 10
190.0073122373679
 20
65.72688529274612
 30
0.0000000000000000
 11
192.4058403748156
 21
68.12541343019410
 31
0.0000000000000000
  0
LINE
  5
471
100
AcDbEntity
  8
MAIN0
  6
CONTINUOUS
 62
3
100
AcDbLine
 10
198.4315763064352
 20
65.35114936148233
 30
0.0000000000000000
 11
197.8315763061091
 21
65.95114936180832
 31
0.0000000000000000
  0
ARC
  5
472
100
AcDbEntity
  8
MAIN0
  6
CONTINUOUS
 62
3
100
AcDbCircle
 10
196.6315763061090
 20
67.10114936148221
 30
0.0000000000000000
 40
1.200000000000000
100
AcDbArc
 50
0.0000000000000000
 51
90.00000000000000
  0
ARC
  5
473
100
AcDbEntity
  8
MAIN0
  6
CONTINUOUS
 62
3
100
AcDbCircle
 10
192.8301044435274
 20
67.70114936148224
 30
0.0000000000000000
 40
0.6000000000000000
100
AcDbArc
 50
90.00000000000000
 51
135.0000000000038
  0
ARC
  5
474
100
AcDbEntity
  8
MAIN0
  6
CONTINUOUS
 62
3
100
AcDbCircle
 10
190.4315763060797
 20
65.30262122403400
 30
0.0000000000000000
 40
0.6000000000000000
100
AcDbArc
 50
135.0000000000038
 51
180.0000000000000
  0
LINE
  5
475
100
AcDbEntity
  8
MAIN0
  6
CONTINUOUS
 62
3
100
AcDbLine
 10
185.3315763061664
 20
36.55114936148215
 30
0.0000000000000000
 11
188.6315763061068
 21
36.55114936148215
 31
0.0000000000000000
  0
LINE
  5
476
100
AcDbEntity
  8
MAIN0
  6
CONTINUOUS
 62
3
100
AcDbLine
 10
175.0315763061066
 20
36.55114936148215
 30
0.0000000000000000
 11
182.3315763061682
 21
36.55114936148215
 31
0.0000000000000000
  0
LINE
  5
477
100
AcDbEntity
  8
MAIN0
  6
CONTINUOUS
 62
3
100
AcDbLine
 10
182.3315763061682
 20
36.55114936148215
 30
0.0000000000000000
 11
185.3315763061664
 21
36.55114936148215
 31
0.0000000000000000
  0
LINE
  5
478
100
AcDbEntity
  8
MAIN0
  6
CONTINUOUS
 62
3
100
AcDbLine
 10
188.8315763061072
 20
74.55114936148215
 30
0.0000000000000000
 11
208.9655509023251
 21
74.55114936148215
 31
0.0000000000000000
  0
LINE
  5
479
100
AcDbEntity
  8
MAIN0
  6
CONTINUOUS
 62
3
100
AcDbLine
 10
188.8315763061069
 20
43.55114936148215
 30
0.0000000000000000
 11
208.9655509023247
 21
43.55114936148215
 31
0.0000000000000000
  0
LINE
  5
47A
100
AcDbEntity
  8
MAIN0
  6
CONTINUOUS
 62
3
100
AcDbLine
 10
208.9655509023247
 20
65.05114936148294
 30
0.0000000000000000
 11
205.9315763061090
 21
65.05114936148294
 31
0.0000000000000000
  0
LINE
  5
47B
100
AcDbEntity
  8
MAIN0
  6
CONTINUOUS
 62
3
100
AcDbLine
 10
205.9315763061090
 20
65.35114936148267
 30
0.0000000000000000
 11
205.9315763061090
 21
65.05114936148294
 31
0.0000000000000000
  0
LINE
  5
47C
100
AcDbEntity
  8
MAIN0
  6
CONTINUOUS
 62
3
100
AcDbLine
 10
208.9655509023223
 20
53.05114936148283
 30
0.0000000000000000
 11
205.9315763061087
 21
53.05114936148283
 31
0.0000000000000000
  0
LINE
  5
47D
100
AcDbEntity
  8
MAIN0
  6
CONTINUOUS
 62
3
100
AcDbLine
 10
205.9315763061087
 20
52.75114936148140
 30
0.0000000000000000
 11
205.9315763061087
 21
53.05114936148101
 31
0.0000000000000000
  0
LINE
  5
47E
100
AcDbEntity
  8
MAIN0
  6
CONTINUOUS
 62
3
100
AcDbLine
 10
198.4315763064345
 20
65.35114936148290
 30
0.0000000000000000
 11
205.9315763061092
 21
65.35114936148253
 31
0.0000000000000000
  0
LINE
  5
47F
100
AcDbEntity
  8
MAIN0
  6
CONTINUOUS
 62
3
100
AcDbLine
 10
198.4315763064342
 20
52.75114936148134
 30
0.0000000000000000
 11
205.9315763061087
 21
52.75114936148142
 31
0.0000000000000000
  0
LINE
  5
480
100
AcDbEntity
  8
MAIN0
  6
CENTER
 62
3
100
AcDbLine
 10
162.4218534094995
 20
59.05114936148215
 30
0.0000000000000000
 11
215.7038091935021
 21
59.05114936148215
 31
0.0000000000000000
  0
LINE
  5
481
100
AcDbEntity
  8
MAIN0
  6
CONTINUOUS
 62
3
100
AcDbLine
 10
197.8315763061090
 20
52.15114936115612
 30
0.0000000000000000
 11
197.8315763061090
 21
51.00114936148219
 31
0.0000000000000000
  0
LINE
  5
482
100
AcDbEntity
  8
MAIN0
  6
CONTINUOUS
 62
3
100
AcDbLine
 10
197.8315763061090
 20
67.10114936148221
 30
0.0000000000000000
 11
197.8315763061090
 21
65.95114936180841
 31
0.0000000000000000
  0
LINE
  5
483
100
AcDbEntity
  8
WAKU0
  6
CONTINUOUS
 62
3
100
AcDbLine
 10
412.0000000000000
 20
51.00000000000000
 30
0.0000000000000000
 11
582.0000000000000
 21
51.00000000000000
 31
0.0000000000000000
  0
LINE
  5
484
100
AcDbEntity
  8
WAKU0
  6
CONTINUOUS
 62
3
100
AcDbLine
 10
412.0000000000000
 20
51.00000000000000
 30
0.0000000000000000
 11
412.0000000000000
 21
12.00000000000000
 31
0.0000000000000000
  0
LINE
  5
485
100
AcDbEntity
  8
WAKU0
  6
CONTINUOUS
 62
3
100
AcDbLine
 10
484.0000000000000
 20
51.00000000000000
 30
0.0000000000000000
 11
484.0000000000000
 21
12.00000000000000
 31
0.0000000000000000
  0
LINE
  5
486
100
AcDbEntity
  8
WAKU0
  6
CONTINUOUS
 62
3
100
AcDbLine
 10
504.0000000000000
 20
51.00000000000000
 30
0.0000000000000000
 11
504.0000000000000
 21
12.00000000000000
 31
0.0000000000000000
  0
LINE
  5
487
100
AcDbEntity
  8
WAKU0
  6
CONTINUOUS
 62
3
100
AcDbLine
 10
516.0000000000000
 20
51.00000000000000
 30
0.0000000000000000
 11
516.0000000000000
 21
12.00000000000000
 31
0.0000000000000000
  0
LINE
  5
488
100
AcDbEntity
  8
WAKU0
  6
CONTINUOUS
 62
3
100
AcDbLine
 10
516.0000000000000
 20
37.00000000000000
 30
0.0000000000000000
 11
582.0000000000000
 21
37.00000000000000
 31
0.0000000000000000
  0
LINE
  5
489
100
AcDbEntity
  8
WAKU0
  6
CONTINUOUS
 62
3
100
AcDbLine
 10
504.0000000000000
 20
23.00000000000000
 30
0.0000000000000000
 11
582.0000000000000
 21
23.00000000000000
 31
0.0000000000000000
  0
LINE
  5
48A
100
AcDbEntity
  8
WAKU0
  6
CONTINUOUS
 62
3
100
AcDbLine
 10
547.0000000000000
 20
51.00000000000000
 30
0.0000000000000000
 11
547.0000000000000
 21
44.00000000000000
 31
0.0000000000000000
  0
LINE
  5
48B
100
AcDbEntity
  8
WAKU0
  6
CONTINUOUS
 62
3
100
AcDbLine
 10
559.0000000000000
 20
51.00000000000000
 30
0.0000000000000000
 11
559.0000000000000
 21
44.00000000000000
 31
0.0000000000000000
  0
LINE
  5
48C
100
AcDbEntity
  8
WAKU0
  6
CONTINUOUS
 62
3
100
AcDbLine
 10
484.0000000000000
 20
31.50000000000000
 30
0.0000000000000000
 11
504.0000000000000
 21
31.50000000000000
 31
0.0000000000000000
  0
LINE
  5
48D
100
AcDbEntity
  8
WAKU0
  6
CONTINUOUS
 62
3
100
AcDbLine
 10
504.0000000000000
 20
44.00000000000000
 30
0.0000000000000000
 11
582.0000000000000
 21
44.00000000000000
 31
0.0000000000000000
  0
LINE
  5
48E
100
AcDbEntity
  8
WAKU0
  6
CONTINUOUS
 62
3
100
AcDbLine
 10
412.0000000000000
 20
37.00000000000000
 30
0.0000000000000000
 11
484.0000000000000
 21
37.00000000000000
 31
0.0000000000000000
  0
LINE
  5
48F
100
AcDbEntity
  8
WAKU0
  6
CONTINUOUS
 62
3
100
AcDbLine
 10
412.0000000000000
 20
23.00000000000000
 30
0.0000000000000000
 11
484.0000000000000
 21
23.00000000000000
 31
0.0000000000000000
  0
LINE
  5
490
100
AcDbEntity
  8
WAKU0
  6
CONTINUOUS
 62
3
100
AcDbLine
 10
460.0000000000000
 20
37.00000000000000
 30
0.0000000000000000
 11
460.0000000000000
 21
12.00000000000000
 31
0.0000000000000000
  0
LINE
  5
491
100
AcDbEntity
  8
WAKU0
  6
CONTINUOUS
 62
3
100
AcDbLine
 10
436.0000000000000
 20
37.00000000000000
 30
0.0000000000000000
 11
436.0000000000000
 21
23.00000000000000
 31
0.0000000000000000
  0
LINE
  5
492
100
AcDbEntity
  8
WAKU0
  6
CONTINUOUS
 62
3
100
AcDbLine
 10
472.0000000000000
 20
26.00000000000000
 30
0.0000000000000000
 11
472.0000000000000
 21
23.00000000000000
 31
0.0000000000000000
  0
LINE
  5
493
100
AcDbEntity
  8
WAKU0
  6
CONTINUOUS
 62
3
100
AcDbLine
 10
448.0000000000000
 20
26.00000000000000
 30
0.0000000000000000
 11
448.0000000000000
 21
23.00000000000000
 31
0.0000000000000000
  0
LINE
  5
494
100
AcDbEntity
  8
WAKU0
  6
CONTINUOUS
 62
3
100
AcDbLine
 10
424.0000000000000
 20
26.00000000000000
 30
0.0000000000000000
 11
424.0000000000000
 21
23.00000000000000
 31
0.0000000000000000
  0
LINE
  5
495
100
AcDbEntity
  8
WAKU0
  6
CONTINUOUS
 62
3
100
AcDbLine
 10
430.0000000000000
 20
51.00000000000000
 30
0.0000000000000000
 11
430.0000000000000
 21
37.00000000000000
 31
0.0000000000000000
  0
LINE
  5
496
100
AcDbEntity
  8
WAKU0
  6
CONTINUOUS
 62
3
100
AcDbLine
 10
412.0000000000000
 20
45.00000000000000
 30
0.0000000000000000
 11
484.0000000000000
 21
45.00000000000000
 31
0.0000000000000000
  0
LINE
  5
497
100
AcDbEntity
  8
WAKU0
  6
HIDDEN
 62
3
100
AcDbLine
 10
532.5000000000000
 20
23.00000000000000
 30
0.0000000000000000
 11
532.5000000000000
 21
12.00000000000000
 31
0.0000000000000000
  0
LINE
  5
498
100
AcDbEntity
  8
WAKU0
  6
HIDDEN
 62
3
100
AcDbLine
 10
544.9000000000000
 20
23.00000000000000
 30
0.0000000000000000
 11
544.9000000000000
 21
12.00000000000000
 31
0.0000000000000000
  0
MTEXT
  5
499
100
AcDbEntity
  8
WAKU0
  6
CONTINUOUS
 62
3
100
AcDbMText
 10
516.4820000243485
 20
49.04999995231628
 30
0.0000000000000000
 40
3.099999904632568
 41
0.0000000000000000
 71
     1
 72
     1
  1
{\H0.91x;{AT06}}
 11
1.000000000000000
 21
0.0000000000000000
 31
0.0000000000000000
  7
STANDARD
  0
MTEXT
  5
49A
100
AcDbEntity
  8
WAKU0
  6
CONTINUOUS
 62
3
100
AcDbMText
 10
525.5950003862381
 20
43.50000000000000
 30
0.0000000000000000
 40
3.000000000000000
 41
0.0000000000000000
 71
     1
 72
     1
  1
{\H0.94x;{ワークグリッパ　６\PＷＯＲＫ　ＧＲＩＰＰＥＲ　６}}
 11
1.000000000000000
 21
0.0000000000000000
 31
0.0000000000000000
  7
KNJYOKO
  0
MTEXT
  5
49B
100
AcDbEntity
  8
WAKU0
  6
CONTINUOUS
 62
3
100
AcDbMText
 10
528.3099995255470
 20
34.23333326975504
 30
0.0000000000000000
 40
3.099999904632568
 41
0.0000000000000000
 71
     1
 72
     1
  1
{\H0.94x;{ＡＴ０６　ガイケイ\PＯＵＴＳＩＤＥ　ＶＩＥＷ}}
 11
1.000000000000000
 21
0.0000000000000000
 31
0.0000000000000000
  7
KNJYOKO
  0
MTEXT
  5
49C
100
AcDbEntity
  8
WAKU0
  6
CONTINUOUS
 62
3
100
AcDbMText
 10
490.0049998760223
 20
39.29999995231628
 30
0.0000000000000000
 40
3.099999904632568
 41
0.0000000000000000
 71
     1
 72
     1
  1
{\H0.90x;{1:1}}
 11
1.000000000000000
 21
0.0000000000000000
 31
0.0000000000000000
  7
STANDARD
  0
MTEXT
  5
49D
100
AcDbEntity
  8
WAKU0
  6
CONTINUOUS
 62
3
100
AcDbMText
 10
546.4000001549721
 20
20.15000009536743
 30
0.0000000000000000
 40
5.300000190734863
 41
0.0000000000000000
 71
     1
 72
     1
  1
{\H0.90x;{5277}}
 11
1.000000000000000
 21
0.0000000000000000
 31
0.0000000000000000
  7
STANDARD
  0
MTEXT
  5
49E
100
AcDbEntity
  8
WAKU0
  6
CONTINUOUS
 62
3
100
AcDbMText
 10
534.3000000834466
 20
20.15000009536743
 30
0.0000000000000000
 40
5.300000190734863
 41
0.0000000000000000
 71
     1
 72
     1
  1
{\H0.87x;{25}}
 11
1.000000000000000
 21
0.0000000000000000
 31
0.0000000000000000
  7
STANDARD
  0
MTEXT
  5
49F
100
AcDbEntity
  8
WAKU0
  6
CONTINUOUS
 62
3
100
AcDbMText
 10
517.5000001192093
 20
20.15000009536743
 30
0.0000000000000000
 40
5.300000190734863
 41
0.0000000000000000
 71
     1
 72
     1
  1
{\H0.89x;{61P}}
 11
1.000000000000000
 21
0.0000000000000000
 31
0.0000000000000000
  7
STANDARD
  0
MTEXT
  5
4A0
100
AcDbEntity
  8
WAKU0
  6
CONTINUOUS
 62
3
100
AcDbMText
 10
572.0000000476837
 20
20.15000009536743
 30
0.0000000000000000
 40
5.300000190734863
 41
0.0000000000000000
 71
     1
 72
     1
  1
{\H0.81x;{4}}
 11
1.000000000000000
 21
0.0000000000000000
 31
0.0000000000000000
  7
STANDARD
  0
MTEXT
  5
4A1
100
AcDbEntity
  8
WAKU0
  6
CONTINUOUS
 62
3
100
AcDbMText
 10
461.3850002884865
 20
33.00000000000000
 30
0.0000000000000000
 40
3.000000000000000
 41
0.0000000000000000
 71
     7
 72
     1
  1
{\H0.93x;{DRAWN BY}}
 11
1.000000000000000
 21
0.0000000000000000
 31
0.0000000000000000
  7
STANDARD
  0
MTEXT
  5
4A2
100
AcDbEntity
  8
WAKU0
  6
CONTINUOUS
 62
3
100
AcDbMText
 10
441.2149997949600
 20
32.95000004768372
 30
0.0000000000000000
 40
3.099999904632568
 41
0.0000000000000000
 71
     7
 72
     1
  1
{\H0.92x;{CHIEF}}
 11
1.000000000000000
 21
0.0000000000000000
 31
0.0000000000000000
  7
STANDARD
  0
MTEXT
  5
4A3
100
AcDbEntity
  8
WAKU0
  6
CONTINUOUS
 62
3
100
AcDbMText
 10
414.4249997138977
 20
32.95000004768372
 30
0.0000000000000000
 40
3.099999904632568
 41
0.0000000000000000
 71
     7
 72
     1
  1
{\H0.92x;{MANAGER}}
 11
1.000000000000000
 21
0.0000000000000000
 31
0.0000000000000000
  7
STANDARD
  0
MTEXT
  5
4A4
100
AcDbEntity
  8
WAKU0
  6
CONTINUOUS
 62
3
100
AcDbMText
 10
416.6599994301796
 20
18.13333336512248
 30
0.0000000000000000
 40
3.099999904632568
 41
0.0000000000000000
 71
     7
 72
     1
  1
{\H0.93x;{KITAGAWA IRON\PWORKS CO.,LTD.}}
 11
1.000000000000000
 21
0.0000000000000000
 31
0.0000000000000000
  7
STANDARD
  0
MTEXT
  5
4A5
100
AcDbEntity
  8
WAKU0
  6
CONTINUOUS
 62
3
100
AcDbMText
 10
413.0850002169609
 20
46.50000000000000
 30
0.0000000000000000
 40
3.000000000000000
 41
0.0000000000000000
 71
     7
 72
     1
  1
{\H0.92x;{CAREER}}
 11
1.000000000000000
 21
0.0000000000000000
 31
0.0000000000000000
  7
STANDARD
  0
MTEXT
  5
4A6
100
AcDbEntity
  8
WAKU0
  6
CONTINUOUS
 62
3
100
AcDbMText
 10
466.6099998354912
 20
18.95000004768372
 30
0.0000000000000000
 40
3.099999904632568
 41
0.0000000000000000
 71
     7
 72
     1
  1
{\H0.91x;{DATE}}
 11
1.000000000000000
 21
0.0000000000000000
 31
0.0000000000000000
  7
STANDARD
  0
MTEXT
  5
4A7
100
AcDbEntity
  8
WAKU0
  6
CONTINUOUS
 62
3
100
AcDbMText
 10
485.9000002145767
 20
26.50000000000000
 30
0.0000000000000000
 40
3.000000000000000
 41
0.0000000000000000
 71
     7
 72
     1
  1
{\H0.63x;{3RD ANGLE}}
 11
1.000000000000000
 21
0.0000000000000000
 31
0.0000000000000000
  7
STANDARD
  0
MTEXT
  5
4A8
100
AcDbEntity
  8
WAKU0
  6
CONTINUOUS
 62
3
100
AcDbMText
 10
487.2149997949600
 20
45.95000004768372
 30
0.0000000000000000
 40
3.099999904632568
 41
0.0000000000000000
 71
     7
 72
     1
  1
{\H0.92x;{SCALE}}
 11
1.000000000000000
 21
0.0000000000000000
 31
0.0000000000000000
  7
STANDARD
  0
MTEXT
  5
4A9
100
AcDbEntity
  8
WAKU0
  6
CONTINUOUS
 62
3
100
AcDbMText
 10
577.7000000476837
 20
46.00000000000000
 30
0.0000000000000000
 40
3.000000000000000
 41
0.0000000000000000
 71
     7
 72
     1
  1
{\H0.63x;{kg}}
 11
1.000000000000000
 21
0.0000000000000000
 31
0.0000000000000000
  7
STANDARD
  0
MTEXT
  5
4AA
100
AcDbEntity
  8
WAKU0
  6
CONTINUOUS
 62
3
100
AcDbMText
 10
547.6000001430512
 20
46.00000000000000
 30
0.0000000000000000
 40
3.000000000000000
 41
0.0000000000000000
 71
     7
 72
     1
  1
{\H0.63x;{WEIGHT}}
 11
1.000000000000000
 21
0.0000000000000000
 31
0.0000000000000000
  7
STANDARD
  0
MTEXT
  5
4AB
100
AcDbEntity
  8
WAKU0
  6
CONTINUOUS
 62
3
100
AcDbMText
 10
506.0049998760223
 20
18.13333336512248
 30
0.0000000000000000
 40
3.099999904632568
 41
0.0000000000000000
 71
     7
 72
     1
  1
{\H0.90x;{DRW\PNO.}}
 11
1.000000000000000
 21
0.0000000000000000
 31
0.0000000000000000
  7
STANDARD
  0
MTEXT
  5
4AC
100
AcDbEntity
  8
WAKU0
  6
CONTINUOUS
 62
3
100
AcDbMText
 10
504.6099998354912
 20
31.95000004768372
 30
0.0000000000000000
 40
3.099999904632568
 41
0.0000000000000000
 71
     7
 72
     1
  1
{\H0.91x;{NAME}}
 11
1.000000000000000
 21
0.0000000000000000
 31
0.0000000000000000
  7
STANDARD
  0
MTEXT
  5
4AD
100
AcDbEntity
  8
WAKU0
  6
CONTINUOUS
 62
3
100
AcDbMText
 10
504.6099998354912
 20
45.95000004768372
 30
0.0000000000000000
 40
3.099999904632568
 41
0.0000000000000000
 71
     7
 72
     1
  1
{\H0.91x;{TYPE}}
 11
1.000000000000000
 21
0.0000000000000000
 31
0.0000000000000000
  7
STANDARD
  0
LINE
  5
4AE
100
AcDbEntity
  8
WAKU0
  6
HIDDEN
 62
3
100
AcDbLine
 10
579.1599564743885
 20
13.84999990463257
 30
0.0000000000000000
 11
568.9400436209789
 21
13.84999990463257
 31
0.0000000000000000
  0
LINE
  5
4AF
100
AcDbEntity
  8
WAKU0
  6
HIDDEN
 62
3
100
AcDbLine
 10
579.1599564743885
 20
13.84999990463250
 30
0.0000000000000000
 11
574.0500000476851
 21
22.70070406014901
 31
0.0000000000000000
  0
LINE
  5
4B0
100
AcDbEntity
  8
WAKU0
  6
HIDDEN
 62
3
100
AcDbLine
 10
574.0500000476851
 20
22.70070406014902
 30
0.0000000000000000
 11
568.9400436209789
 21
13.84999990463248
 31
0.0000000000000000
  0
LINE
  5
4B1
100
AcDbEntity
  8
WAKU0
  6
CONTINUOUS
 62
3
100
AcDbLine
 10
502.4713877753800
 20
15.78041421262812
 30
0.0000000000000000
 11
502.4713877753800
 21
21.78041421262815
 31
0.0000000000000000
  0
LINE
  5
4B2
100
AcDbEntity
  8
WAKU0
  6
CONTINUOUS
 62
3
100
AcDbLine
 10
495.9336941228225
 20
17.28041421262811
 30
0.0000000000000000
 11
495.9336941228225
 21
20.28041421262824
 31
0.0000000000000000
  0
LINE
  5
4B3
100
AcDbEntity
  8
WAKU0
  6
CENTER
 62
12
100
AcDbLine
 10
485.4321805514995
 20
18.78041421262813
 30
0.0000000000000000
 11
503.2765788964694
 21
18.78041421262813
 31
0.0000000000000000
  0
LINE
  5
4B4
100
AcDbEntity
  8
WAKU0
  6
CENTER
 62
12
100
AcDbLine
 10
489.4474565857986
 20
14.55921662918448
 30
0.0000000000000000
 11
489.4474565857986
 21
22.89865102149943
 31
0.0000000000000000
  0
LINE
  5
4B5
100
AcDbEntity
  8
WAKU0
  6
CONTINUOUS
 62
3
100
AcDbLine
 10
495.9336941228225
 20
20.28041421262797
 30
0.0000000000000000
 11
502.4713877753800
 21
21.78041421262795
 31
0.0000000000000000
  0
LINE
  5
4B6
100
AcDbEntity
  8
WAKU0
  6
CONTINUOUS
 62
3
100
AcDbLine
 10
495.9336941228225
 20
17.28041421262811
 30
0.0000000000000000
 11
502.4713877753799
 21
15.78041421262812
 31
0.0000000000000000
  0
CIRCLE
  5
4B7
100
AcDbEntity
  8
WAKU0
  6
CONTINUOUS
 62
3
100
AcDbCircle
 10
489.4474565857986
 20
18.78041421262813
 30
0.0000000000000000
 40
1.499999999999972
  0
CIRCLE
  5
4B8
100
AcDbEntity
  8
WAKU0
  6
CONTINUOUS
 62
3
100
AcDbCircle
 10
489.4474565857986
 20
18.78041421262813
 30
0.0000000000000000
 40
2.999999999999979
  0
ENDSEC
  0
SECTION
  2
OBJECTS
  0
DICTIONARY
  5
50B
100
AcDbDictionary
  3
ACAD_GROUP
350
50C
  3
ACAD_MLINESTYLE
350
50D
  3
DWGPROPS
350
50E
  0
DICTIONARY
  5
50C
102
{ACAD_REACTORS
330
50B
102
}
100
AcDbDictionary
  0
DICTIONARY
  5
50D
102
{ACAD_REACTORS
330
50B
102
}
100
AcDbDictionary
  3
STANDARD
350
50F
  0
MLINESTYLE
  5
50F
102
{ACAD_REACTORS
330
50D
102
}
100
AcDbMlineStyle
  2
STANDARD
 70
     0
  3

 62
   256
 51
90.00
 52
90.00
 71
     2
 49
0.50
 62
   256
  6
BYLAYER
 49
-0.50
 62
   256
  6
BYLAYER
  0
XRECORD
  5
50E
102
{ACAD_REACTORS
330
50B
102
}
100
AcDbXrecord
280
     1
  1
DWGPROPS COOKIE
  2
ワークグリッパ　６
  3

  4

  6
ＡＴ０６　ガイケイ
  7

  8

  9

300
=
301
=
302
=
303
=
304
=
305
=
306
=
307
=
308
=
309
=
 40
0.000000
 41
0.000000
 42
0.000000
  1

 90
        0
  0
ENDSEC
  0
EOF
