  0
SECTION
  2
HEADER
  9
$ACADVER
  1
AC1014
  9
$DWGCODEPAGE
  3
ANSI_932
  9
$LTSCALE
 40
20.0
  9
$FILLMODE
 70
     1
  9
$CLAYER
  8
0
  9
$PDMODE
 70
     0
  9
$SPLFRAME
 70
     0
  9
$SPLINETYPE
 70
     6
  9
$SPLINESEGS
 70
     8
  9
$DIMASZ
 40
2.000000
  9
$DIMEXE
 40
2.000000
  9
$DIMEXO
 40
0.800000
  9
$DIMTAD
 70
     1
  9
$DIMTIH
 70
     0
  9
$DIMTOH
 70
     0
  9
$DIMTVP
 40
0.500000
  9
$DIMTXT
 40
3.100000
  9
$EXTMIN
 10
0.000000
 20
0.000000
 30
0.000000
  9
$EXTMAX
 10
420.000000
 20
594.000000
 30
0.000000
  9
$MEASUREMENT
 70
  1
  9
$LIMMIN
 10
0.000000
 20
0.000000
  9
$LIMMAX
 10
420.000000
 20
594.000000
  9
$HANDLING
 70
     1
  9
$HANDSEED
  5
4BD
  9
$DIMBLK
  1
_OPEN
  9
$DIMDEC
 70
     3
  9
$DIMAUNIT
 70
     1
  9
$DIMZIN
 70
     8
  9
$DIMTOFL
 70
     1
  0
ENDSEC
  0
SECTION
  2
CLASSES
  0
ENDSEC
  0
SECTION
  2
TABLES
  0
TABLE
  2
VPORT
  5
466
100
AcDbSymbolTable
 70
     1
  0
VPORT
  5
467
100
AcDbSymbolTableRecord
100
AcDbViewportTableRecord
  2
*ACTIVE
 70
     0
 12
297.000000
 22
210.000000
 40
420.000000
 41
1.414286
  0
ENDTAB
  0
TABLE
  2
LTYPE
  5
468
100
AcDbSymbolTable
 70
     4
  0
LTYPE
  5
469
100
AcDbSymbolTableRecord
100
AcDbLinetypeTableRecord
  2
BYBLOCK
 70
     0
  3

 72
    65
 73
     0
 40
0.0
  0
LTYPE
  5
46A
100
AcDbSymbolTableRecord
100
AcDbLinetypeTableRecord
  2
BYLAYER
 70
     0
  3

 72
    65
 73
     0
 40
0.0
  0
LTYPE
  5
46B
100
AcDbSymbolTableRecord
100
AcDbLinetypeTableRecord
  2
CONTINUOUS
 70
     0
  3
Solid line (NEC CAE2D for Win R12.1 : 2018.06.08)
 72
    65
 73
     0
 40
0.0
  0
LTYPE
  5
46C
100
AcDbSymbolTableRecord
100
AcDbLinetypeTableRecord
  2
HIDDEN
 70
     0
  3
__ __ __ __ __ __ __ __ __ __ __ __ __ __
 72
    65
 73
     2
 40
0.375
 49
0.25
 74
     0
 49
-0.125
 74
     0
  0
LTYPE
  5
46D
100
AcDbSymbolTableRecord
100
AcDbLinetypeTableRecord
  2
CENTER
 70
     0
  3
____ _ ____ _ ____ _ ____ _ ____ _ ____
 72
    65
 73
     4
 40
2.0
 49
1.25
 74
     0
 49
-0.25
 74
     0
 49
0.25
 74
     0
 49
-0.25
 74
     0
  0
LTYPE
  5
46E
100
AcDbSymbolTableRecord
100
AcDbLinetypeTableRecord
  2
PHANTOM
 70
     0
  3
______  __  __  ______  __  __  ______ 
 72
    65
 73
     6
 40
2.5
 49
1.25
 74
     0
 49
-0.25
 74
     0
 49
0.25
 74
     0
 49
-0.25
 74
     0
 49
0.25
 74
     0
 49
-0.25
 74
     0
  0
ENDTAB
  0
TABLE
  2
LAYER
  5
46F
100
AcDbSymbolTable
 70
     9
  0
LAYER
  5
470
100
AcDbSymbolTableRecord
100
AcDbLayerTableRecord
  2
0
 70
     0
 62
     7
  6
CONTINUOUS
  0
LAYER
  5
471
100
AcDbSymbolTableRecord
100
AcDbLayerTableRecord
  2
MAIN0
 70
     0
 62
     7
  6
CONTINUOUS
  0
LAYER
  5
472
100
AcDbSymbolTableRecord
100
AcDbLayerTableRecord
  2
MAIN1
 70
     0
 62
     7
  6
CONTINUOUS
  0
LAYER
  5
473
100
AcDbSymbolTableRecord
100
AcDbLayerTableRecord
  2
MAIN2
 70
     0
 62
     7
  6
CONTINUOUS
  0
LAYER
  5
474
100
AcDbSymbolTableRecord
100
AcDbLayerTableRecord
  2
MAIN4
 70
     0
 62
     7
  6
CONTINUOUS
  0
LAYER
  5
475
100
AcDbSymbolTableRecord
100
AcDbLayerTableRecord
  2
MAIN5
 70
     0
 62
     7
  6
CONTINUOUS
  0
LAYER
  5
476
100
AcDbSymbolTableRecord
100
AcDbLayerTableRecord
  2
MAIN1023
 70
     0
 62
    16
  6
CONTINUOUS
  0
LAYER
  5
477
100
AcDbSymbolTableRecord
100
AcDbLayerTableRecord
  2
WAKU0
 70
     0
 62
     7
  6
CONTINUOUS
  0
LAYER
  5
478
100
AcDbSymbolTableRecord
100
AcDbLayerTableRecord
  2
WAKU1023
 70
     0
 62
    16
  6
CONTINUOUS
  0
ENDTAB
  0
TABLE
  2
STYLE
  5
479
100
AcDbSymbolTable
 70
     4
  0
STYLE
  5
47A
100
AcDbSymbolTableRecord
100
AcDbTextStyleTableRecord
  2
STANDARD
 70
    64
 40
0.0
 41
1.0
 50
0.0
 71
     0
 42
3.099999904632568
  3
TXT
  4

  0
STYLE
  5
47B
100
AcDbSymbolTableRecord
100
AcDbTextStyleTableRecord
  2
ANKTATE
 70
    68
 40
0.0
 41
1.0
 50
0.0
 71
     0
 42
3.099999904632568
  3
TXT
  4

  0
STYLE
  5
A1
100
AcDbSymbolTableRecord
100
AcDbTextStyleTableRecord
  2
KNJYOKO
 70
    64
 40
0.0
 41
1.0
 50
0.0
 71
     0
 42
3.099999904632568
  3
TXT
  4
BIGFONT
  0
STYLE
  5
47C
100
AcDbSymbolTableRecord
100
AcDbTextStyleTableRecord
  2
KNJTATE
 70
    68
 40
0.0
 41
1.0
 50
0.0
 71
     0
 42
3.099999904632568
  3
TXT
  4
BIGFONT
  0
ENDTAB
  0
TABLE
  2
VIEW
  5
47D
100
AcDbSymbolTable
 70
     0
  0
ENDTAB
  0
TABLE
  2
UCS
  5
47E
100
AcDbSymbolTable
 70
     0
  0
ENDTAB
  0
TABLE
  2
APPID
  5
47F
100
AcDbSymbolTable
 70
     1
  0
APPID
  5
480
100
AcDbSymbolTableRecord
100
AcDbRegAppTableRecord
  2
ACAD
 70
     0
  0
ENDTAB
  0
TABLE
  2
DIMSTYLE
  5
481
100
AcDbSymbolTable
 70
     1
  0
DIMSTYLE
105
482
100
AcDbSymbolTableRecord
100
AcDbDimStyleTableRecord
  2
STANDARD
 70
     0
 41
2.000000
 44
2.000000
 42
0.800000
145
0.661290
140
3.100000
144
1.000000
146
0.903226
340
47A
  0
DIMSTYLE
105
483
100
AcDbSymbolTableRecord
100
AcDbDimStyleTableRecord
  2
MAIN001
 70
     0
 41
2.000000
 44
2.000000
 42
0.800000
145
0.661290
140
3.100000
144
1.000000
146
0.903226
 77
     1
 73
     0
 74
     0
271
     3
275
     1
 78
     8
172
     1
340
47A
  0
DIMSTYLE
105
484
100
AcDbSymbolTableRecord
100
AcDbDimStyleTableRecord
  2
WAKU002
 70
     0
 41
2.000000
 44
2.000000
 42
0.800000
145
0.661290
140
3.100000
144
1.000000
146
0.903226
 77
     1
 73
     0
 74
     0
271
     3
275
     1
 78
     8
172
     1
340
47A
  0
ENDTAB
  0
TABLE
  2
BLOCK_RECORD
  5
485
100
AcDbSymbolTable
 70
    57
  0
BLOCK_RECORD
  5
486
100
AcDbSymbolTableRecord
100
AcDbBlockTableRecord
  2
*MODEL_SPACE
  0
BLOCK_RECORD
  5
487
100
AcDbSymbolTableRecord
100
AcDbBlockTableRecord
  2
*PAPER_SPACE
  0
BLOCK_RECORD
  5
1
100
AcDbSymbolTableRecord
100
AcDbBlockTableRecord
  2
_NONE
  0
BLOCK_RECORD
  5
4
100
AcDbSymbolTableRecord
100
AcDbBlockTableRecord
  2
_CLOSED
  0
BLOCK_RECORD
  5
B
100
AcDbSymbolTableRecord
100
AcDbBlockTableRecord
  2
_DOT
  0
BLOCK_RECORD
  5
13
100
AcDbSymbolTableRecord
100
AcDbBlockTableRecord
  2
_OPEN
  0
BLOCK_RECORD
  5
19
100
AcDbSymbolTableRecord
100
AcDbBlockTableRecord
  2
_ORIGIN
  0
BLOCK_RECORD
  5
1E
100
AcDbSymbolTableRecord
100
AcDbBlockTableRecord
  2
_OPEN30
  0
BLOCK_RECORD
  5
24
100
AcDbSymbolTableRecord
100
AcDbBlockTableRecord
  2
_BOXFILLED
  0
BLOCK_RECORD
  5
29
100
AcDbSymbolTableRecord
100
AcDbBlockTableRecord
  2
_BOXBLANK
  0
BLOCK_RECORD
  5
31
100
AcDbSymbolTableRecord
100
AcDbBlockTableRecord
  2
_OBLIQUE
  0
BLOCK_RECORD
  5
35
100
AcDbSymbolTableRecord
100
AcDbBlockTableRecord
  2
_OPEN90
  0
BLOCK_RECORD
  5
3B
100
AcDbSymbolTableRecord
100
AcDbBlockTableRecord
  2
_CLOSEDBLANK
  0
BLOCK_RECORD
  5
41
100
AcDbSymbolTableRecord
100
AcDbBlockTableRecord
  2
_DOTBLANK
  0
BLOCK_RECORD
  5
488
100
AcDbSymbolTableRecord
100
AcDbBlockTableRecord
  2
*D0
  0
BLOCK_RECORD
  5
489
100
AcDbSymbolTableRecord
100
AcDbBlockTableRecord
  2
*D1
  0
BLOCK_RECORD
  5
48A
100
AcDbSymbolTableRecord
100
AcDbBlockTableRecord
  2
*D2
  0
BLOCK_RECORD
  5
48B
100
AcDbSymbolTableRecord
100
AcDbBlockTableRecord
  2
*D3
  0
BLOCK_RECORD
  5
48C
100
AcDbSymbolTableRecord
100
AcDbBlockTableRecord
  2
*D4
  0
BLOCK_RECORD
  5
48D
100
AcDbSymbolTableRecord
100
AcDbBlockTableRecord
  2
*D5
  0
BLOCK_RECORD
  5
48E
100
AcDbSymbolTableRecord
100
AcDbBlockTableRecord
  2
*D6
  0
BLOCK_RECORD
  5
48F
100
AcDbSymbolTableRecord
100
AcDbBlockTableRecord
  2
*D7
  0
BLOCK_RECORD
  5
490
100
AcDbSymbolTableRecord
100
AcDbBlockTableRecord
  2
*D8
  0
BLOCK_RECORD
  5
491
100
AcDbSymbolTableRecord
100
AcDbBlockTableRecord
  2
*D9
  0
BLOCK_RECORD
  5
492
100
AcDbSymbolTableRecord
100
AcDbBlockTableRecord
  2
*D10
  0
BLOCK_RECORD
  5
493
100
AcDbSymbolTableRecord
100
AcDbBlockTableRecord
  2
*D11
  0
BLOCK_RECORD
  5
494
100
AcDbSymbolTableRecord
100
AcDbBlockTableRecord
  2
*D12
  0
BLOCK_RECORD
  5
495
100
AcDbSymbolTableRecord
100
AcDbBlockTableRecord
  2
*D13
  0
BLOCK_RECORD
  5
496
100
AcDbSymbolTableRecord
100
AcDbBlockTableRecord
  2
*D14
  0
BLOCK_RECORD
  5
497
100
AcDbSymbolTableRecord
100
AcDbBlockTableRecord
  2
*D15
  0
BLOCK_RECORD
  5
498
100
AcDbSymbolTableRecord
100
AcDbBlockTableRecord
  2
*D16
  0
BLOCK_RECORD
  5
499
100
AcDbSymbolTableRecord
100
AcDbBlockTableRecord
  2
*D17
  0
BLOCK_RECORD
  5
49A
100
AcDbSymbolTableRecord
100
AcDbBlockTableRecord
  2
*D18
  0
BLOCK_RECORD
  5
49B
100
AcDbSymbolTableRecord
100
AcDbBlockTableRecord
  2
*D19
  0
BLOCK_RECORD
  5
49C
100
AcDbSymbolTableRecord
100
AcDbBlockTableRecord
  2
*D20
  0
BLOCK_RECORD
  5
49D
100
AcDbSymbolTableRecord
100
AcDbBlockTableRecord
  2
*D21
  0
BLOCK_RECORD
  5
49E
100
AcDbSymbolTableRecord
100
AcDbBlockTableRecord
  2
*D22
  0
BLOCK_RECORD
  5
49F
100
AcDbSymbolTableRecord
100
AcDbBlockTableRecord
  2
*D23
  0
BLOCK_RECORD
  5
4A0
100
AcDbSymbolTableRecord
100
AcDbBlockTableRecord
  2
*D24
  0
BLOCK_RECORD
  5
4A1
100
AcDbSymbolTableRecord
100
AcDbBlockTableRecord
  2
*D25
  0
BLOCK_RECORD
  5
4A2
100
AcDbSymbolTableRecord
100
AcDbBlockTableRecord
  2
*D26
  0
BLOCK_RECORD
  5
4A3
100
AcDbSymbolTableRecord
100
AcDbBlockTableRecord
  2
*D27
  0
BLOCK_RECORD
  5
4A4
100
AcDbSymbolTableRecord
100
AcDbBlockTableRecord
  2
*D28
  0
BLOCK_RECORD
  5
4A5
100
AcDbSymbolTableRecord
100
AcDbBlockTableRecord
  2
*D29
  0
BLOCK_RECORD
  5
4A6
100
AcDbSymbolTableRecord
100
AcDbBlockTableRecord
  2
*D30
  0
BLOCK_RECORD
  5
4A7
100
AcDbSymbolTableRecord
100
AcDbBlockTableRecord
  2
*D31
  0
BLOCK_RECORD
  5
4A8
100
AcDbSymbolTableRecord
100
AcDbBlockTableRecord
  2
*D32
  0
BLOCK_RECORD
  5
4A9
100
AcDbSymbolTableRecord
100
AcDbBlockTableRecord
  2
*D33
  0
BLOCK_RECORD
  5
4AA
100
AcDbSymbolTableRecord
100
AcDbBlockTableRecord
  2
*D34
  0
BLOCK_RECORD
  5
4AB
100
AcDbSymbolTableRecord
100
AcDbBlockTableRecord
  2
*D35
  0
BLOCK_RECORD
  5
4AC
100
AcDbSymbolTableRecord
100
AcDbBlockTableRecord
  2
*D36
  0
BLOCK_RECORD
  5
4AD
100
AcDbSymbolTableRecord
100
AcDbBlockTableRecord
  2
*D37
  0
BLOCK_RECORD
  5
4AE
100
AcDbSymbolTableRecord
100
AcDbBlockTableRecord
  2
D38
  0
BLOCK_RECORD
  5
4AF
100
AcDbSymbolTableRecord
100
AcDbBlockTableRecord
  2
*D39
  0
BLOCK_RECORD
  5
4B0
100
AcDbSymbolTableRecord
100
AcDbBlockTableRecord
  2
D40
  0
BLOCK_RECORD
  5
4B1
100
AcDbSymbolTableRecord
100
AcDbBlockTableRecord
  2
*D41
  0
BLOCK_RECORD
  5
4B2
100
AcDbSymbolTableRecord
100
AcDbBlockTableRecord
  2
*D42
  0
BLOCK_RECORD
  5
4B3
100
AcDbSymbolTableRecord
100
AcDbBlockTableRecord
  2
*D43
  0
BLOCK_RECORD
  5
4B4
100
AcDbSymbolTableRecord
100
AcDbBlockTableRecord
  2
*D44
  0
ENDTAB
  0
ENDSEC
  0
SECTION
  2
BLOCKS
  0
BLOCK
  5
4B5
100
AcDbEntity
  8
0
100
AcDbBlockBegin
  2
*MODEL_SPACE
 70
     0
 10
0.0
 20
0.0
 30
0.0
  3
*MODEL_SPACE
  1

  0
ENDBLK
  5
4B6
100
AcDbEntity
  8
0
100
AcDbBlockEnd
  0
BLOCK
  5
4B7
100
AcDbEntity
  8
0
100
AcDbBlockBegin
  2
*PAPER_SPACE
 70
     0
 10
0.0
 20
0.0
 30
0.0
  3
*PAPER_SPACE
  1

  0
ENDBLK
  5
4B8
100
AcDbEntity
  8
0
100
AcDbBlockEnd
  0
BLOCK
  5
2
100
AcDbEntity
  8
0
100
AcDbBlockBegin
  2
_NONE
 70
     0
 10
0.0
 20
0.0
 30
0.0
  3
_NONE
  1

  0
ENDBLK
  5
3
100
AcDbEntity
  8
0
100
AcDbBlockEnd
  0
BLOCK
  5
5
100
AcDbEntity
  8
0
100
AcDbBlockBegin
  2
_CLOSED
 70
     0
 10
0.0
 20
0.0
 30
0.0
  3
_CLOSED
  1

  0
LINE
  5
6
100
AcDbEntity
  8
0
  6
BYBLOCK
 62
     0
100
AcDbLine
 10
-1.0
 20
0.166667
 30
0.0
 11
0.0
 21
0.0
 31
0.0
  0
LINE
  5
7
100
AcDbEntity
  8
0
  6
BYBLOCK
 62
     0
100
AcDbLine
 10
0.0
 20
0.0
 30
0.0
 11
-1.0
 21
-0.166667
 31
0.0
  0
LINE
  5
8
100
AcDbEntity
  8
0
  6
BYBLOCK
 62
     0
100
AcDbLine
 10
-1.0
 20
0.166667
 30
0.0
 11
-1.0
 21
-0.166667
 31
0.0
  0
LINE
  5
9
100
AcDbEntity
  8
0
  6
BYBLOCK
 62
     0
100
AcDbLine
 10
0.0
 20
0.0
 30
0.0
 11
-1.0
 21
0.0
 31
0.0
  0
ENDBLK
  5
A
100
AcDbEntity
  8
0
100
AcDbBlockEnd
  0
BLOCK
  5
C
100
AcDbEntity
  8
0
100
AcDbBlockBegin
  2
_DOT
 70
     0
 10
0.0
 20
0.0
 30
0.0
  3
_DOT
  1

  0
POLYLINE
  5
D
100
AcDbEntity
  8
0
  6
BYBLOCK
 62
     0
100
AcDb2dPolyline
 66
     1
 10
0.0
 20
0.0
 30
0.0
 70
     1
 40
0.5
 41
0.5
  0
VERTEX
  5
E
100
AcDbEntity
  8
0
  6
BYBLOCK
 62
     0
100
AcDbVertex
100
AcDb2dVertex
 10
-0.25
 20
0.0
 30
0.0
 42
1.0
  0
VERTEX
  5
F
100
AcDbEntity
  8
0
  6
BYBLOCK
 62
     0
100
AcDbVertex
100
AcDb2dVertex
 10
0.25
 20
0.0
 30
0.0
 42
1.0
  0
SEQEND
  5
10
100
AcDbEntity
  8
0
  6
BYBLOCK
 62
     0
  0
LINE
  5
11
100
AcDbEntity
  8
0
  6
BYBLOCK
 62
     0
100
AcDbLine
 10
-0.5
 20
0.0
 30
0.0
 11
-1.0
 21
0.0
 31
0.0
  0
ENDBLK
  5
12
100
AcDbEntity
  8
0
100
AcDbBlockEnd
  0
BLOCK
  5
14
100
AcDbEntity
  8
0
100
AcDbBlockBegin
  2
_OPEN
 70
     0
 10
0.0
 20
0.0
 30
0.0
  3
_OPEN
  1

  0
LINE
  5
15
100
AcDbEntity
  8
0
  6
BYBLOCK
 62
     0
100
AcDbLine
 10
-1.0
 20
0.166667
 30
0.0
 11
0.0
 21
0.0
 31
0.0
  0
LINE
  5
16
100
AcDbEntity
  8
0
  6
BYBLOCK
 62
     0
100
AcDbLine
 10
0.0
 20
0.0
 30
0.0
 11
-1.0
 21
-0.166667
 31
0.0
  0
LINE
  5
17
100
AcDbEntity
  8
0
  6
BYBLOCK
 62
     0
100
AcDbLine
 10
0.0
 20
0.0
 30
0.0
 11
-1.0
 21
0.0
 31
0.0
  0
ENDBLK
  5
18
100
AcDbEntity
  8
0
100
AcDbBlockEnd
  0
BLOCK
  5
1A
100
AcDbEntity
  8
0
100
AcDbBlockBegin
  2
_ORIGIN
 70
     0
 10
0.0
 20
0.0
 30
0.0
  3
_ORIGIN
  1

  0
CIRCLE
  5
1B
100
AcDbEntity
  8
0
  6
BYBLOCK
 62
     0
100
AcDbCircle
 10
0.0
 20
0.0
 30
0.0
 40
0.5
  0
LINE
  5
1C
100
AcDbEntity
  8
0
  6
BYBLOCK
 62
     0
100
AcDbLine
 10
0.0
 20
0.0
 30
0.0
 11
-1.0
 21
0.0
 31
0.0
  0
ENDBLK
  5
1D
100
AcDbEntity
  8
0
100
AcDbBlockEnd
  0
BLOCK
  5
1F
100
AcDbEntity
  8
0
100
AcDbBlockBegin
  2
_OPEN30
 70
     0
 10
0.0
 20
0.0
 30
0.0
  3
_OPEN30
  1

  0
LINE
  5
20
100
AcDbEntity
  8
0
  6
BYBLOCK
 62
     0
100
AcDbLine
 10
-1.0
 20
0.267949
 30
0.0
 11
0.0
 21
0.0
 31
0.0
  0
LINE
  5
21
100
AcDbEntity
  8
0
  6
BYBLOCK
 62
     0
100
AcDbLine
 10
0.0
 20
0.0
 30
0.0
 11
-1.0
 21
-0.267949
 31
0.0
  0
LINE
  5
22
100
AcDbEntity
  8
0
  6
BYBLOCK
 62
     0
100
AcDbLine
 10
0.0
 20
0.0
 30
0.0
 11
-1.0
 21
0.0
 31
0.0
  0
ENDBLK
  5
23
100
AcDbEntity
  8
0
100
AcDbBlockEnd
  0
BLOCK
  5
25
100
AcDbEntity
  8
0
100
AcDbBlockBegin
  2
_BOXFILLED
 70
     0
 10
0.0
 20
0.0
 30
0.0
  3
_BOXFILLED
  1

  0
SOLID
  5
26
100
AcDbEntity
  8
0
  6
BYBLOCK
 62
     0
100
AcDbTrace
 10
-0.5
 20
0.5
 30
0.0
 11
0.5
 21
0.5
 31
0.0
 12
-0.5
 22
-0.5
 32
0.0
 13
0.5
 23
-0.5
 33
0.0
  0
LINE
  5
27
100
AcDbEntity
  8
0
  6
BYBLOCK
 62
     0
100
AcDbLine
 10
-0.5
 20
0.0
 30
0.0
 11
-1.0
 21
0.0
 31
0.0
  0
ENDBLK
  5
28
100
AcDbEntity
  8
0
100
AcDbBlockEnd
  0
BLOCK
  5
2A
100
AcDbEntity
  8
0
100
AcDbBlockBegin
  2
_BOXBLANK
 70
     0
 10
0.0
 20
0.0
 30
0.0
  3
_BOXBLANK
  1

  0
LINE
  5
2B
100
AcDbEntity
  8
0
  6
BYBLOCK
 62
     0
100
AcDbLine
 10
-0.5
 20
-0.5
 30
0.0
 11
0.5
 21
-0.5
 31
0.0
  0
LINE
  5
2C
100
AcDbEntity
  8
0
  6
BYBLOCK
 62
     0
100
AcDbLine
 10
0.5
 20
-0.5
 30
0.0
 11
0.5
 21
0.5
 31
0.0
  0
LINE
  5
2D
100
AcDbEntity
  8
0
  6
BYBLOCK
 62
     0
100
AcDbLine
 10
0.5
 20
0.5
 30
0.0
 11
-0.5
 21
0.5
 31
0.0
  0
LINE
  5
2E
100
AcDbEntity
  8
0
  6
BYBLOCK
 62
     0
100
AcDbLine
 10
-0.5
 20
0.5
 30
0.0
 11
-0.5
 21
-0.5
 31
0.0
  0
LINE
  5
2F
100
AcDbEntity
  8
0
  6
BYBLOCK
 62
     0
100
AcDbLine
 10
-0.5
 20
0.0
 30
0.0
 11
-1.0
 21
0.0
 31
0.0
  0
ENDBLK
  5
30
100
AcDbEntity
  8
0
100
AcDbBlockEnd
  0
BLOCK
  5
32
100
AcDbEntity
  8
0
100
AcDbBlockBegin
  2
_OBLIQUE
 70
     0
 10
0.0
 20
0.0
 30
0.0
  3
_OBLIQUE
  1

  0
LINE
  5
33
100
AcDbEntity
  8
0
  6
BYBLOCK
 62
     0
100
AcDbLine
 10
-0.5
 20
-0.5
 30
0.0
 11
0.5
 21
0.5
 31
0.0
  0
ENDBLK
  5
34
100
AcDbEntity
  8
0
100
AcDbBlockEnd
  0
BLOCK
  5
36
100
AcDbEntity
  8
0
100
AcDbBlockBegin
  2
_OPEN90
 70
     0
 10
0.0
 20
0.0
 30
0.0
  3
_OPEN90
  1

  0
LINE
  5
37
100
AcDbEntity
  8
0
  6
BYBLOCK
 62
     0
100
AcDbLine
 10
-0.5
 20
0.5
 30
0.0
 11
0.0
 21
0.0
 31
0.0
  0
LINE
  5
38
100
AcDbEntity
  8
0
  6
BYBLOCK
 62
     0
100
AcDbLine
 10
0.0
 20
0.0
 30
0.0
 11
-0.5
 21
-0.5
 31
0.0
  0
LINE
  5
39
100
AcDbEntity
  8
0
  6
BYBLOCK
 62
     0
100
AcDbLine
 10
0.0
 20
0.0
 30
0.0
 11
-1.0
 21
0.0
 31
0.0
  0
ENDBLK
  5
3A
100
AcDbEntity
  8
0
100
AcDbBlockEnd
  0
BLOCK
  5
3C
100
AcDbEntity
  8
0
100
AcDbBlockBegin
  2
_CLOSEDBLANK
 70
     0
 10
0.0
 20
0.0
 30
0.0
  3
_CLOSEDBLANK
  1

  0
LINE
  5
3D
100
AcDbEntity
  8
0
  6
BYBLOCK
 62
     0
100
AcDbLine
 10
-1.0
 20
0.1666666666666666
 30
0.0
 11
0.0
 21
0.0
 31
0.0
  0
LINE
  5
3E
100
AcDbEntity
  8
0
  6
BYBLOCK
 62
     0
100
AcDbLine
 10
0.0
 20
0.0
 30
0.0
 11
-1.0
 21
-0.1666666666666666
 31
0.0
  0
LINE
  5
3F
100
AcDbEntity
  8
0
  6
BYBLOCK
 62
     0
100
AcDbLine
 10
-1.0
 20
0.1666666666666666
 30
0.0
 11
-1.0
 21
-0.1666666666666666
 31
0.0
  0
ENDBLK
  5
40
100
AcDbEntity
  8
0
100
AcDbBlockEnd
  0
BLOCK
  5
42
100
AcDbEntity
  8
0
100
AcDbBlockBegin
  2
_DOTBLANK
 70
     0
 10
0.0
 20
0.0
 30
0.0
  3
_DOTBLANK
  1

  0
CIRCLE
  5
43
100
AcDbEntity
  8
0
  6
BYBLOCK
 62
     0
100
AcDbCircle
 10
0.0
 20
0.0
 30
0.0
 40
0.5
  0
LINE
  5
44
100
AcDbEntity
  8
0
  6
BYBLOCK
 62
     0
100
AcDbLine
 10
-0.5
 20
0.0
 30
0.0
 11
-1.0
 21
0.0
 31
0.0
  0
ENDBLK
  5
45
100
AcDbEntity
  8
0
100
AcDbBlockEnd
  0
BLOCK
  5
46
100
AcDbEntity
  8
MAIN0
  6
CONTINUOUS
 62
3
100
AcDbBlockBegin
  2
*D0
 70
    65
 10
0.0
 20
0.0
 30
0.0
  0
LINE
  5
47
100
AcDbEntity
  8
MAIN0
  6
BYBLOCK
 62
0
100
AcDbLine
 10
83.73591333037435
 20
376.4198035421416
 30
0.0000000000000000
 11
43.15521181236463
 21
376.4198035421416
 31
0.0000000000000000
  0
LINE
  5
48
100
AcDbEntity
  8
MAIN0
  6
BYBLOCK
 62
0
100
AcDbLine
 10
45.15521181236463
 20
374.4198035421416
 30
0.0000000000000000
 11
45.15521181236463
 21
130.4198035421416
 31
0.0000000000000000
  0
INSERT
  5
49
100
AcDbEntity
  8
MAIN0
  6
BYBLOCK
 62
0
100
AcDbBlockReference
  2
_OPEN
 10
45.15521181236463
 20
376.4198035421416
 30
0.0000000000000000
 41
2.000000000000000
 42
2.000000000000000
 43
2.000000000000000
 50
90.00000000000000
  0
INSERT
  5
4A
100
AcDbEntity
  8
MAIN0
  6
BYBLOCK
 62
0
100
AcDbBlockReference
  2
_OPEN
 10
45.15521181236463
 20
128.4198035421416
 30
0.0000000000000000
 41
2.000000000000000
 42
2.000000000000000
 43
2.000000000000000
 50
270.0000000000000
  0
LINE
  5
4B
100
AcDbEntity
  8
MAIN0
  6
BYBLOCK
 62
0
100
AcDbLine
 10
83.73591333037435
 20
128.4198035421416
 30
0.0000000000000000
 11
43.15521181236463
 21
128.4198035421416
 31
0.0000000000000000
  0
MTEXT
  5
4C
100
AcDbEntity
  8
MAIN0
  6
BYBLOCK
 62
0
100
AcDbMText
 10
43.10521186004840
 20
252.4198034713611
 30
0.0000000000000000
 40
3.099999904632568
 41
0.0000000000000000
 71
     5
 72
     1
  1
\A1;\U+2205248\H0.903226x;h7
 11
2.670658493096113e-014
 21
1.000000000000000
 31
0.0000000000000000
  7
STANDARD
  0
ENDBLK
  5
4D
100
AcDbEntity
  8
MAIN0
  6
CONTINUOUS
 62
3
100
AcDbBlockEnd
  0
BLOCK
  5
4F
100
AcDbEntity
  8
MAIN0
  6
CONTINUOUS
 62
3
100
AcDbBlockBegin
  2
*D1
 70
    65
 10
0.0
 20
0.0
 30
0.0
  0
LINE
  5
50
100
AcDbEntity
  8
MAIN0
  6
BYBLOCK
 62
0
100
AcDbLine
 10
83.73591333037435
 20
270.4198035421416
 30
0.0000000000000000
 11
69.49677866349748
 21
270.4198035421416
 31
0.0000000000000000
  0
LINE
  5
51
100
AcDbEntity
  8
MAIN0
  6
BYBLOCK
 62
0
100
AcDbLine
 10
71.49677866349748
 20
268.4198035421416
 30
0.0000000000000000
 11
71.49677866349748
 21
236.4198035421416
 31
0.0000000000000000
  0
INSERT
  5
52
100
AcDbEntity
  8
MAIN0
  6
BYBLOCK
 62
0
100
AcDbBlockReference
  2
_OPEN
 10
71.49677866349748
 20
270.4198035421416
 30
0.0000000000000000
 41
2.000000000000000
 42
2.000000000000000
 43
2.000000000000000
 50
90.00000000000000
  0
INSERT
  5
53
100
AcDbEntity
  8
MAIN0
  6
BYBLOCK
 62
0
100
AcDbBlockReference
  2
_OPEN
 10
71.49677866349748
 20
234.4198035421416
 30
0.0000000000000000
 41
2.000000000000000
 42
2.000000000000000
 43
2.000000000000000
 50
270.0000000000000
  0
LINE
  5
54
100
AcDbEntity
  8
MAIN0
  6
BYBLOCK
 62
0
100
AcDbLine
 10
83.73591333037435
 20
234.4198035421416
 30
0.0000000000000000
 11
69.49677866349748
 21
234.4198035421416
 31
0.0000000000000000
  0
MTEXT
  5
55
100
AcDbEntity
  8
MAIN0
  6
BYBLOCK
 62
0
100
AcDbMText
 10
69.44677871118124
 20
252.4198035663560
 30
0.0000000000000000
 40
3.099999904632568
 41
0.0000000000000000
 71
     5
 72
     1
  1
\A1;\U+220536\H0.903226x;H7
 11
2.670658493096113e-014
 21
1.000000000000000
 31
0.0000000000000000
  7
STANDARD
  0
ENDBLK
  5
56
100
AcDbEntity
  8
MAIN0
  6
CONTINUOUS
 62
3
100
AcDbBlockEnd
  0
BLOCK
  5
58
100
AcDbEntity
  8
MAIN0
  6
CONTINUOUS
 62
3
100
AcDbBlockBegin
  2
*D2
 70
    65
 10
0.0
 20
0.0
 30
0.0
  0
LINE
  5
59
100
AcDbEntity
  8
MAIN0
  6
BYBLOCK
 62
0
100
AcDbLine
 10
84.53591334229532
 20
127.6198035302207
 30
0.0000000000000000
 11
84.53591334229532
 21
114.1595715791351
 31
0.0000000000000000
  0
LINE
  5
5A
100
AcDbEntity
  8
MAIN0
  6
BYBLOCK
 62
0
100
AcDbLine
 10
86.53591334229532
 20
116.1595715791351
 30
0.0000000000000000
 11
112.5359133422953
 21
116.1595715791351
 31
0.0000000000000000
  0
INSERT
  5
5B
100
AcDbEntity
  8
MAIN0
  6
BYBLOCK
 62
0
100
AcDbBlockReference
  2
_OPEN
 10
84.53591334229532
 20
116.1595715791351
 30
0.0000000000000000
 41
2.000000000000000
 42
2.000000000000000
 43
2.000000000000000
 50
180.0000000000000
  0
INSERT
  5
5C
100
AcDbEntity
  8
MAIN0
  6
BYBLOCK
 62
0
100
AcDbBlockReference
  2
_OPEN
 10
114.5359133422953
 20
116.1595715791351
 30
0.0000000000000000
 41
2.000000000000000
 42
2.000000000000000
 43
2.000000000000000
 50
0.0000000000000000
  0
LINE
  5
5D
100
AcDbEntity
  8
MAIN0
  6
BYBLOCK
 62
0
100
AcDbLine
 10
114.5359133422953
 20
122.3687830800901
 30
0.0000000000000000
 11
114.5359133422953
 21
114.1595715791351
 31
0.0000000000000000
  0
MTEXT
  5
5E
100
AcDbEntity
  8
MAIN0
  6
BYBLOCK
 62
0
100
AcDbMText
 10
103.1345522519882
 20
118.2095715314514
 30
0.0000000000000000
 40
3.099999904632568
 41
0.0000000000000000
 71
     5
 72
     1
  1
\A1;30
 11
1.000000000000000
 21
0.0000000000000000
 31
0.0000000000000000
  7
STANDARD
  0
ENDBLK
  5
5F
100
AcDbEntity
  8
MAIN0
  6
CONTINUOUS
 62
3
100
AcDbBlockEnd
  0
BLOCK
  5
65
100
AcDbEntity
  8
MAIN0
  6
CONTINUOUS
 62
3
100
AcDbBlockBegin
  2
*D3
 70
    65
 10
0.0
 20
0.0
 30
0.0
  0
LINE
  5
66
100
AcDbEntity
  8
MAIN0
  6
BYBLOCK
 62
0
100
AcDbLine
 10
84.53591334229532
 20
127.6198035302207
 30
0.0000000000000000
 11
84.53591334229532
 21
101.9728186965693
 31
0.0000000000000000
  0
LINE
  5
67
100
AcDbEntity
  8
MAIN0
  6
BYBLOCK
 62
0
100
AcDbLine
 10
86.53591334229532
 20
103.9728186965693
 30
0.0000000000000000
 11
97.53591334229532
 21
103.9728186965693
 31
0.0000000000000000
  0
INSERT
  5
68
100
AcDbEntity
  8
MAIN0
  6
BYBLOCK
 62
0
100
AcDbBlockReference
  2
_OPEN
 10
84.53591334229532
 20
103.9728186965693
 30
0.0000000000000000
 41
2.000000000000000
 42
2.000000000000000
 43
2.000000000000000
 50
180.0000000000000
  0
INSERT
  5
69
100
AcDbEntity
  8
MAIN0
  6
BYBLOCK
 62
0
100
AcDbBlockReference
  2
_OPEN
 10
99.53591334229532
 20
103.9728186965693
 30
0.0000000000000000
 41
2.000000000000000
 42
2.000000000000000
 43
2.000000000000000
 50
0.0000000000000000
  0
LINE
  5
6A
100
AcDbEntity
  8
MAIN0
  6
BYBLOCK
 62
0
100
AcDbLine
 10
99.53591334229532
 20
126.1198035302207
 30
0.0000000000000000
 11
99.53591334229532
 21
101.9728186965693
 31
0.0000000000000000
  0
MTEXT
  5
6B
100
AcDbEntity
  8
MAIN0
  6
BYBLOCK
 62
0
100
AcDbMText
 10
92.03591334229532
 20
106.0228186488856
 30
0.0000000000000000
 40
3.099999904632568
 41
0.0000000000000000
 71
     5
 72
     1
  1
\A1;15
 11
1.000000000000000
 21
0.0000000000000000
 31
0.0000000000000000
  7
STANDARD
  0
ENDBLK
  5
6C
100
AcDbEntity
  8
MAIN0
  6
CONTINUOUS
 62
3
100
AcDbBlockEnd
  0
BLOCK
  5
6E
100
AcDbEntity
  8
MAIN0
  6
CONTINUOUS
 62
3
100
AcDbBlockBegin
  2
*D4
 70
    65
 10
0.0
 20
0.0
 30
0.0
  0
LINE
  5
6F
100
AcDbEntity
  8
MAIN0
  6
BYBLOCK
 62
0
100
AcDbLine
 10
99.53591334229532
 20
126.1198035302207
 30
0.0000000000000000
 11
99.53591334229532
 21
101.9728186965693
 31
0.0000000000000000
  0
LINE
  5
70
100
AcDbEntity
  8
MAIN0
  6
BYBLOCK
 62
0
100
AcDbLine
 10
101.5359133422953
 20
103.9728186965693
 30
0.0000000000000000
 11
127.5359133422953
 21
103.9728186965693
 31
0.0000000000000000
  0
INSERT
  5
71
100
AcDbEntity
  8
MAIN0
  6
BYBLOCK
 62
0
100
AcDbBlockReference
  2
_OPEN
 10
99.53591334229532
 20
103.9728186965693
 30
0.0000000000000000
 41
2.000000000000000
 42
2.000000000000000
 43
2.000000000000000
 50
180.0000000000000
  0
INSERT
  5
72
100
AcDbEntity
  8
MAIN0
  6
BYBLOCK
 62
0
100
AcDbBlockReference
  2
_OPEN
 10
129.5359133422953
 20
103.9728186965693
 30
0.0000000000000000
 41
2.000000000000000
 42
2.000000000000000
 43
2.000000000000000
 50
0.0000000000000000
  0
LINE
  5
73
100
AcDbEntity
  8
MAIN0
  6
BYBLOCK
 62
0
100
AcDbLine
 10
129.5359133422953
 20
126.1198035302207
 30
0.0000000000000000
 11
129.5359133422953
 21
101.9728186965693
 31
0.0000000000000000
  0
MTEXT
  5
74
100
AcDbEntity
  8
MAIN0
  6
BYBLOCK
 62
0
100
AcDbMText
 10
114.5359133422953
 20
106.0228186488856
 30
0.0000000000000000
 40
3.099999904632568
 41
0.0000000000000000
 71
     5
 72
     1
  1
\A1;30
 11
1.000000000000000
 21
0.0000000000000000
 31
0.0000000000000000
  7
STANDARD
  0
ENDBLK
  5
75
100
AcDbEntity
  8
MAIN0
  6
CONTINUOUS
 62
3
100
AcDbBlockEnd
  0
BLOCK
  5
77
100
AcDbEntity
  8
MAIN0
  6
CONTINUOUS
 62
3
100
AcDbBlockBegin
  2
*D5
 70
    65
 10
0.0
 20
0.0
 30
0.0
  0
LINE
  5
78
100
AcDbEntity
  8
MAIN0
  6
BYBLOCK
 62
0
100
AcDbLine
 10
129.5359133422953
 20
126.1198035302207
 30
0.0000000000000000
 11
129.5359133422953
 21
101.9728186965693
 31
0.0000000000000000
  0
LINE
  5
79
100
AcDbEntity
  8
MAIN0
  6
BYBLOCK
 62
0
100
AcDbLine
 10
131.5359133422953
 20
103.9728186965693
 30
0.0000000000000000
 11
188.5359133422953
 21
103.9728186965693
 31
0.0000000000000000
  0
INSERT
  5
7A
100
AcDbEntity
  8
MAIN0
  6
BYBLOCK
 62
0
100
AcDbBlockReference
  2
_OPEN
 10
129.5359133422953
 20
103.9728186965693
 30
0.0000000000000000
 41
2.000000000000000
 42
2.000000000000000
 43
2.000000000000000
 50
180.0000000000000
  0
INSERT
  5
7B
100
AcDbEntity
  8
MAIN0
  6
BYBLOCK
 62
0
100
AcDbBlockReference
  2
_OPEN
 10
190.5359133422953
 20
103.9728186965693
 30
0.0000000000000000
 41
2.000000000000000
 42
2.000000000000000
 43
2.000000000000000
 50
0.0000000000000000
  0
LINE
  5
7C
100
AcDbEntity
  8
MAIN0
  6
BYBLOCK
 62
0
100
AcDbLine
 10
190.5359133422953
 20
146.6198035302207
 30
0.0000000000000000
 11
190.5359133422953
 21
101.9728186965693
 31
0.0000000000000000
  0
MTEXT
  5
7D
100
AcDbEntity
  8
MAIN0
  6
BYBLOCK
 62
0
100
AcDbMText
 10
160.0359133422953
 20
106.0228186488856
 30
0.0000000000000000
 40
3.099999904632568
 41
0.0000000000000000
 71
     5
 72
     1
  1
\A1;61
 11
1.000000000000000
 21
0.0000000000000000
 31
0.0000000000000000
  7
STANDARD
  0
ENDBLK
  5
7E
100
AcDbEntity
  8
MAIN0
  6
CONTINUOUS
 62
3
100
AcDbBlockEnd
  0
BLOCK
  5
80
100
AcDbEntity
  8
MAIN0
  6
CONTINUOUS
 62
3
100
AcDbBlockBegin
  2
*D6
 70
    65
 10
0.0
 20
0.0
 30
0.0
  0
LINE
  5
81
100
AcDbEntity
  8
MAIN0
  6
BYBLOCK
 62
0
100
AcDbLine
 10
99.53591334229532
 20
126.1198035302207
 30
0.0000000000000000
 11
99.53591334229532
 21
70.95198037048326
 31
0.0000000000000000
  0
LINE
  5
82
100
AcDbEntity
  8
MAIN0
  6
BYBLOCK
 62
0
100
AcDbLine
 10
101.5359133422953
 20
72.95198037048326
 30
0.0000000000000000
 11
142.5359133422953
 21
72.95198037048326
 31
0.0000000000000000
  0
INSERT
  5
83
100
AcDbEntity
  8
MAIN0
  6
BYBLOCK
 62
0
100
AcDbBlockReference
  2
_OPEN
 10
99.53591334229532
 20
72.95198037048326
 30
0.0000000000000000
 41
2.000000000000000
 42
2.000000000000000
 43
2.000000000000000
 50
180.0000000000000
  0
INSERT
  5
84
100
AcDbEntity
  8
MAIN0
  6
BYBLOCK
 62
0
100
AcDbBlockReference
  2
_OPEN
 10
144.5359133422953
 20
72.95198037048326
 30
0.0000000000000000
 41
2.000000000000000
 42
2.000000000000000
 43
2.000000000000000
 50
0.0000000000000000
  0
LINE
  5
85
100
AcDbEntity
  8
MAIN0
  6
BYBLOCK
 62
0
100
AcDbLine
 10
144.5359133422953
 20
91.11980353022068
 30
0.0000000000000000
 11
144.5359133422953
 21
70.95198037048326
 31
0.0000000000000000
  0
MTEXT
  5
86
100
AcDbEntity
  8
MAIN0
  6
BYBLOCK
 62
0
100
AcDbMText
 10
122.0359133422953
 20
75.00198032279954
 30
0.0000000000000000
 40
3.099999904632568
 41
0.0000000000000000
 71
     5
 72
     1
  1
\A1;45
 11
1.000000000000000
 21
0.0000000000000000
 31
0.0000000000000000
  7
STANDARD
  0
ENDBLK
  5
87
100
AcDbEntity
  8
MAIN0
  6
CONTINUOUS
 62
3
100
AcDbBlockEnd
  0
BLOCK
  5
89
100
AcDbEntity
  8
MAIN0
  6
CONTINUOUS
 62
3
100
AcDbBlockBegin
  2
*D7
 70
    65
 10
0.0
 20
0.0
 30
0.0
  0
LINE
  5
8A
100
AcDbEntity
  8
MAIN0
  6
BYBLOCK
 62
0
100
AcDbLine
 10
145.3359133542163
 20
91.91980354214158
 30
0.0000000000000000
 11
174.4585734799509
 21
91.91980354214161
 31
0.0000000000000000
  0
LINE
  5
8B
100
AcDbEntity
  8
MAIN0
  6
BYBLOCK
 62
0
100
AcDbLine
 10
172.4585734799509
 20
93.91980354214161
 30
0.0000000000000000
 11
172.4585734799509
 21
144.9198035421416
 31
0.0000000000000000
  0
INSERT
  5
8C
100
AcDbEntity
  8
MAIN0
  6
BYBLOCK
 62
0
100
AcDbBlockReference
  2
_OPEN
 10
172.4585734799509
 20
91.91980354214161
 30
0.0000000000000000
 41
2.000000000000000
 42
2.000000000000000
 43
2.000000000000000
 50
270.0000000000000
  0
INSERT
  5
8D
100
AcDbEntity
  8
MAIN0
  6
BYBLOCK
 62
0
100
AcDbBlockReference
  2
_OPEN
 10
172.4585734799509
 20
146.9198035421416
 30
0.0000000000000000
 41
2.000000000000000
 42
2.000000000000000
 43
2.000000000000000
 50
90.00000000000000
  0
LINE
  5
8E
100
AcDbEntity
  8
MAIN0
  6
BYBLOCK
 62
0
100
AcDbLine
 10
145.3359133542163
 20
146.9198035421416
 30
0.0000000000000000
 11
174.4585734799509
 21
146.9198035421416
 31
0.0000000000000000
  0
MTEXT
  5
8F
100
AcDbEntity
  8
MAIN0
  6
BYBLOCK
 62
0
100
AcDbMText
 10
170.4085735276346
 20
119.4198035421416
 30
0.0000000000000000
 40
3.099999904632568
 41
0.0000000000000000
 71
     5
 72
     1
  1
\A1;55
 11
1.002670741233467e-011
 21
1.000000000000000
 31
0.0000000000000000
  7
STANDARD
  0
ENDBLK
  5
90
100
AcDbEntity
  8
MAIN0
  6
CONTINUOUS
 62
3
100
AcDbBlockEnd
  0
BLOCK
  5
92
100
AcDbEntity
  8
MAIN0
  6
CONTINUOUS
 62
3
100
AcDbBlockBegin
  2
*D8
 70
    65
 10
0.0
 20
0.0
 30
0.0
  0
LINE
  5
93
100
AcDbEntity
  8
MAIN0
  6
BYBLOCK
 62
0
100
AcDbLine
 10
84.53591334229532
 20
127.6198035302207
 30
0.0000000000000000
 11
84.53591334229532
 21
79.26113198416590
 31
0.0000000000000000
  0
LINE
  5
94
100
AcDbEntity
  8
MAIN0
  6
BYBLOCK
 62
0
100
AcDbLine
 10
86.53591334229532
 20
81.26113198416590
 30
0.0000000000000000
 11
188.5359133422953
 21
81.26113198416590
 31
0.0000000000000000
  0
INSERT
  5
95
100
AcDbEntity
  8
MAIN0
  6
BYBLOCK
 62
0
100
AcDbBlockReference
  2
_OPEN
 10
84.53591334229532
 20
81.26113198416590
 30
0.0000000000000000
 41
2.000000000000000
 42
2.000000000000000
 43
2.000000000000000
 50
180.0000000000000
  0
INSERT
  5
96
100
AcDbEntity
  8
MAIN0
  6
BYBLOCK
 62
0
100
AcDbBlockReference
  2
_OPEN
 10
190.5359133422953
 20
81.26113198416590
 30
0.0000000000000000
 41
2.000000000000000
 42
2.000000000000000
 43
2.000000000000000
 50
0.0000000000000000
  0
LINE
  5
97
100
AcDbEntity
  8
MAIN0
  6
BYBLOCK
 62
0
100
AcDbLine
 10
190.5359133422953
 20
146.6198035302207
 30
0.0000000000000000
 11
190.5359133422953
 21
79.26113198416590
 31
0.0000000000000000
  0
MTEXT
  5
98
100
AcDbEntity
  8
MAIN0
  6
BYBLOCK
 62
0
100
AcDbMText
 10
137.5359133422953
 20
83.31113193648218
 30
0.0000000000000000
 40
3.099999904632568
 41
0.0000000000000000
 71
     5
 72
     1
  1
\A1;106
 11
1.000000000000000
 21
0.0000000000000000
 31
0.0000000000000000
  7
STANDARD
  0
ENDBLK
  5
99
100
AcDbEntity
  8
MAIN0
  6
CONTINUOUS
 62
3
100
AcDbBlockEnd
  0
BLOCK
  5
9B
100
AcDbEntity
  8
MAIN0
  6
CONTINUOUS
 62
3
100
AcDbBlockBegin
  2
*D9
 70
    65
 10
0.0
 20
0.0
 30
0.0
  0
LINE
  5
9C
100
AcDbEntity
  8
MAIN0
  6
BYBLOCK
 62
0
100
AcDbLine
 10
409.8891241915289
 20
252.4198035421416
 30
0.0000000000000000
 11
471.5269481395076
 21
276.0159612581338
 31
0.0000000000000000
  0
INSERT
  5
9D
100
AcDbEntity
  8
MAIN0
  6
BYBLOCK
 62
0
100
AcDbBlockReference
  2
_OPEN
 10
473.3947609864161
 20
276.7309963404366
 30
0.0000000000000000
 41
2.000000000000000
 42
2.000000000000000
 43
2.000000000000000
 50
20.94781777610222
  0
MTEXT
  5
9E
100
AcDbEntity
  8
MAIN0
  6
BYBLOCK
 62
0
100
AcDbMText
 10
440.9090316466600
 20
266.4899080648381
 30
0.0000000000000000
 40
3.099999904632568
 41
0.0000000000000000
 71
     5
 72
     1
  1
\A1;Ｒ68
 11
0.9339064234542230
 21
0.3575175411513978
 31
0.0000000000000000
  7
KNJYOKO
  0
ENDBLK
  5
9F
100
AcDbEntity
  8
MAIN0
  6
CONTINUOUS
 62
3
100
AcDbBlockEnd
  0
BLOCK
  5
A8
100
AcDbEntity
  8
MAIN0
  6
CONTINUOUS
 62
3
100
AcDbBlockBegin
  2
*D10
 70
    65
 10
0.0
 20
0.0
 30
0.0
  0
LINE
  5
A9
100
AcDbEntity
  8
MAIN0
  6
BYBLOCK
 62
0
100
AcDbLine
 10
322.2680202276991
 20
181.0647606919006
 30
0.0000000000000000
 11
497.5102281553589
 21
323.7748463923826
 31
0.0000000000000000
  0
INSERT
  5
AA
100
AcDbEntity
  8
MAIN0
  6
BYBLOCK
 62
0
100
AcDbBlockReference
  2
_OPEN
 10
320.7172042283394
 20
179.8018395795069
 30
0.0000000000000000
 41
2.000000000000000
 42
2.000000000000000
 43
2.000000000000000
 50
219.1579621137602
  0
INSERT
  5
AB
100
AcDbEntity
  8
MAIN0
  6
BYBLOCK
 62
0
100
AcDbBlockReference
  2
_OPEN
 10
499.0610441547187
 20
325.0377675047762
 30
0.0000000000000000
 41
2.000000000000000
 42
2.000000000000000
 43
2.000000000000000
 50
39.15796211376020
  0
MTEXT
  5
AC
100
AcDbEntity
  8
MAIN0
  6
BYBLOCK
 62
0
100
AcDbMText
 10
436.4358598177932
 20
276.6821485319446
 30
0.0000000000000000
 40
3.099999904632568
 41
0.0000000000000000
 71
     5
 72
     1
  1
\A1;\U+2205230\H0.903226x;\U+00B10.2
 11
0.7754079996799099
 21
0.6314605561968228
 31
0.0000000000000000
  7
STANDARD
  0
ENDBLK
  5
AD
100
AcDbEntity
  8
MAIN0
  6
CONTINUOUS
 62
3
100
AcDbBlockEnd
  0
BLOCK
  5
AF
100
AcDbEntity
  8
MAIN0
  6
CONTINUOUS
 62
3
100
AcDbBlockBegin
  2
*D11
 70
    65
 10
0.0
 20
0.0
 30
0.0
  0
LINE
  5
B0
100
AcDbEntity
  8
MAIN0
  6
BYBLOCK
 62
0
100
AcDbLine
 10
521.3613129028488
 20
188.0613053824929
 30
0.0000000000000000
 11
528.2410859009030
 21
184.0892665900809
 31
0.0000000000000000
  0
ARC
  5
B1
100
AcDbEntity
  8
MAIN0
  6
BYBLOCK
 62
0
100
AcDbCircle
 10
409.8891241915287
 20
252.4198035421416
 30
0.0000000000000000
 40
134.6610739040717
100
AcDbArc
 50
330.8509627593377
 51
359.1490372406454
  0
INSERT
  5
B2
100
AcDbEntity
  8
MAIN0
  6
BYBLOCK
 62
0
100
AcDbBlockReference
  2
_OPEN
 10
526.5090350933365
 20
185.0892665900850
 30
0.0000000000000000
 41
2.000000000000000
 42
2.000000000000000
 43
2.000000000000000
 50
239.9999999999898
  0
INSERT
  5
B3
100
AcDbEntity
  8
MAIN0
  6
BYBLOCK
 62
0
100
AcDbBlockReference
  2
_OPEN
 10
544.5501980956003
 20
252.4198035421260
 30
0.0000000000000000
 41
2.000000000000000
 42
2.000000000000000
 43
2.000000000000000
 50
89.99999999999335
  0
MTEXT
  5
B4
100
AcDbEntity
  8
MAIN0
  6
BYBLOCK
 62
0
100
AcDbMText
 10
537.9815853734538
 20
218.0975320119097
 30
0.0000000000000000
 40
3.099999904632568
 41
0.0000000000000000
 71
     5
 72
     1
  1
\A1;30\U+00B0
 11
0.2588190451026630
 21
0.9659258262890302
 31
0.0000000000000000
  7
STANDARD
  0
ENDBLK
  5
B5
100
AcDbEntity
  8
MAIN0
  6
CONTINUOUS
 62
3
100
AcDbBlockEnd
  0
BLOCK
  5
B7
100
AcDbEntity
  8
MAIN0
  6
CONTINUOUS
 62
3
100
AcDbBlockBegin
  2
*D12
 70
    65
 10
0.0
 20
0.0
 30
0.0
  0
LINE
  5
B8
100
AcDbEntity
  8
MAIN0
  6
BYBLOCK
 62
0
100
AcDbLine
 10
497.6372884455158
 20
303.0812297950837
 30
0.0000000000000000
 11
528.2410859009131
 21
320.7503404941847
 31
0.0000000000000000
  0
ARC
  5
B9
100
AcDbEntity
  8
MAIN0
  6
BYBLOCK
 62
0
100
AcDbCircle
 10
409.8891241915289
 20
252.4198035421416
 30
0.0000000000000000
 40
134.6610739040715
100
AcDbArc
 50
0.8509627593479334
 51
29.14903724065565
  0
INSERT
  5
BA
100
AcDbEntity
  8
MAIN0
  6
BYBLOCK
 62
0
100
AcDbBlockReference
  2
_OPEN
 10
544.5501980956004
 20
252.4198035421416
 30
0.0000000000000000
 41
2.000000000000000
 42
2.000000000000000
 43
2.000000000000000
 50
270.0000000000000
  0
INSERT
  5
BB
100
AcDbEntity
  8
MAIN0
  6
BYBLOCK
 62
0
100
AcDbBlockReference
  2
_OPEN
 10
526.5090350933443
 20
319.7503404941846
 30
0.0000000000000000
 41
2.000000000000000
 42
2.000000000000000
 43
2.000000000000000
 50
120.0000000000036
  0
MTEXT
  5
BC
100
AcDbEntity
  8
MAIN0
  6
BYBLOCK
 62
0
100
AcDbMText
 10
537.9815853734576
 20
286.7420750723587
 30
0.0000000000000000
 40
3.099999904632568
 41
0.0000000000000000
 71
     5
 72
     1
  1
\A1;30\U+00B0
 11
-0.2588190451025509
 21
0.9659258262890602
 31
0.0000000000000000
  7
STANDARD
  0
ENDBLK
  5
BD
100
AcDbEntity
  8
MAIN0
  6
CONTINUOUS
 62
3
100
AcDbBlockEnd
  0
BLOCK
  5
BF
100
AcDbEntity
  8
MAIN0
  6
CONTINUOUS
 62
3
100
AcDbBlockBegin
  2
*D13
 70
    65
 10
0.0
 20
0.0
 30
0.0
  0
LINE
  5
C0
100
AcDbEntity
  8
MAIN0
  6
BYBLOCK
 62
0
100
AcDbLine
 10
497.6372884455158
 20
303.0812297950837
 30
0.0000000000000000
 11
528.2410859009131
 21
320.7503404941847
 31
0.0000000000000000
  0
LINE
  5
C1
100
AcDbEntity
  8
MAIN0
  6
BYBLOCK
 62
0
100
AcDbLine
 10
497.0965826964026
 20
339.6272620472985
 30
0.0000000000000000
 11
506.5230962731772
 21
349.0537756241032
 31
0.0000000000000000
  0
ARC
  5
C2
100
AcDbEntity
  8
MAIN0
  6
BYBLOCK
 62
0
100
AcDbCircle
 10
409.8891241915284
 20
252.4198035421413
 30
0.0000000000000000
 40
134.6610739040721
100
AcDbArc
 50
30.85096275935151
 51
44.14903724074493
  0
INSERT
  5
C3
100
AcDbEntity
  8
MAIN0
  6
BYBLOCK
 62
0
100
AcDbBlockReference
  2
_OPEN
 10
526.5090350933443
 20
319.7503404941846
 30
0.0000000000000000
 41
2.000000000000000
 42
2.000000000000000
 43
2.000000000000000
 50
300.0000000000036
  0
INSERT
  5
C4
100
AcDbEntity
  8
MAIN0
  6
BYBLOCK
 62
0
100
AcDbBlockReference
  2
_OPEN
 10
505.1088827108063
 20
347.6395620617278
 30
0.0000000000000000
 41
2.000000000000000
 42
2.000000000000000
 43
2.000000000000000
 50
135.0000000000929
  0
MTEXT
  5
C5
100
AcDbEntity
  8
MAIN0
  6
BYBLOCK
 62
0
100
AcDbMText
 10
518.3493112902258
 20
335.6442322243643
 30
0.0000000000000000
 40
3.099999904632568
 41
0.0000000000000000
 71
     5
 72
     1
  1
\A1;15\U+00B0
 11
0.6087614290093886
 21
-0.7933533402907226
 31
0.0000000000000000
  7
STANDARD
  0
ENDBLK
  5
C6
100
AcDbEntity
  8
MAIN0
  6
CONTINUOUS
 62
3
100
AcDbBlockEnd
  0
BLOCK
  5
C8
100
AcDbEntity
  8
MAIN0
  6
CONTINUOUS
 62
3
100
AcDbBlockBegin
  2
*D14
 70
    65
 10
0.0
 20
0.0
 30
0.0
  0
LINE
  5
C9
100
AcDbEntity
  8
MAIN0
  6
BYBLOCK
 62
0
100
AcDbLine
 10
497.0965826964026
 20
339.6272620472985
 30
0.0000000000000000
 11
506.5230962731772
 21
349.0537756241032
 31
0.0000000000000000
  0
LINE
  5
CA
100
AcDbEntity
  8
MAIN0
  6
BYBLOCK
 62
0
100
AcDbLine
 10
409.8891241915286
 20
387.3729299647220
 30
0.0000000000000000
 11
409.8891241915280
 21
389.0808774462132
 31
0.0000000000000000
  0
ARC
  5
CB
100
AcDbEntity
  8
MAIN0
  6
BYBLOCK
 62
0
100
AcDbCircle
 10
409.8891241915289
 20
252.4198035421418
 30
0.0000000000000000
 40
134.6610739040713
100
AcDbArc
 50
45.85096275944093
 51
89.14903724065216
  0
INSERT
  5
CC
100
AcDbEntity
  8
MAIN0
  6
BYBLOCK
 62
0
100
AcDbBlockReference
  2
_OPEN
 10
505.1088827108061
 20
347.6395620617280
 30
0.0000000000000000
 41
2.000000000000000
 42
2.000000000000000
 43
2.000000000000000
 50
315.0000000000930
  0
INSERT
  5
CD
100
AcDbEntity
  8
MAIN0
  6
BYBLOCK
 62
0
100
AcDbBlockReference
  2
_OPEN
 10
409.8891241915287
 20
387.0808774462132
 30
0.0000000000000000
 41
2.000000000000000
 42
2.000000000000000
 43
2.000000000000000
 50
180.0000000000001
  0
MTEXT
  5
CE
100
AcDbEntity
  8
MAIN0
  6
BYBLOCK
 62
0
100
AcDbMText
 10
462.2061871771061
 20
378.7243665457397
 30
0.0000000000000000
 40
3.099999904632568
 41
0.0000000000000000
 71
     5
 72
     1
  1
\A1;45\U+00B0
 11
0.9238795325115975
 21
-0.3826834323643396
 31
0.0000000000000000
  7
STANDARD
  0
ENDBLK
  5
CF
100
AcDbEntity
  8
MAIN0
  6
CONTINUOUS
 62
3
100
AcDbBlockEnd
  0
BLOCK
  5
D1
100
AcDbEntity
  8
MAIN0
  6
CONTINUOUS
 62
3
100
AcDbBlockBegin
  2
*D15
 70
    65
 10
0.0
 20
0.0
 30
0.0
  0
LINE
  5
D2
100
AcDbEntity
  8
MAIN0
  6
BYBLOCK
 62
0
100
AcDbLine
 10
409.8891241915286
 20
387.3729299647220
 30
0.0000000000000000
 11
409.8891241915280
 21
389.0808774462132
 31
0.0000000000000000
  0
LINE
  5
D3
100
AcDbEntity
  8
MAIN0
  6
BYBLOCK
 62
0
100
AcDbLine
 10
348.5191167237539
 20
358.7157745373596
 30
0.0000000000000000
 11
341.5585872395658
 21
370.7717652515722
 31
0.0000000000000000
  0
ARC
  5
D4
100
AcDbEntity
  8
MAIN0
  6
BYBLOCK
 62
0
100
AcDbCircle
 10
409.8891241915289
 20
252.4198035421420
 30
0.0000000000000000
 40
134.6610739040712
100
AcDbArc
 50
90.85096275934795
 51
119.1490372406170
  0
INSERT
  5
D5
100
AcDbEntity
  8
MAIN0
  6
BYBLOCK
 62
0
100
AcDbBlockReference
  2
_OPEN
 10
409.8891241915289
 20
387.0808774462132
 30
0.0000000000000000
 41
2.000000000000000
 42
2.000000000000000
 43
2.000000000000000
 50
360.0000000000000
  0
INSERT
  5
D6
100
AcDbEntity
  8
MAIN0
  6
BYBLOCK
 62
0
100
AcDbBlockReference
  2
_OPEN
 10
342.5585872395647
 20
369.0397144440026
 30
0.0000000000000000
 41
2.000000000000000
 42
2.000000000000000
 43
2.000000000000000
 50
209.9999999999649
  0
MTEXT
  5
D7
100
AcDbEntity
  8
MAIN0
  6
BYBLOCK
 62
0
100
AcDbMText
 10
374.5056946011189
 20
384.4725605197498
 30
0.0000000000000000
 40
3.099999904632568
 41
0.0000000000000000
 71
     5
 72
     1
  1
\A1;30\U+00B0
 11
0.9659258262891475
 21
0.2588190451022251
 31
0.0000000000000000
  7
STANDARD
  0
ENDBLK
  5
D8
100
AcDbEntity
  8
MAIN0
  6
CONTINUOUS
 62
3
100
AcDbBlockEnd
  0
BLOCK
  5
DA
100
AcDbEntity
  8
MAIN0
  6
CONTINUOUS
 62
3
100
AcDbBlockBegin
  2
*D16
 70
    65
 10
0.0
 20
0.0
 30
0.0
  0
LINE
  5
DB
100
AcDbEntity
  8
MAIN0
  6
BYBLOCK
 62
0
100
AcDbLine
 10
409.8891241915289
 20
252.4198035421416
 30
0.0000000000000000
 11
382.2237211987176
 21
179.4908965350752
 31
0.0000000000000000
  0
INSERT
  5
DC
100
AcDbEntity
  8
MAIN0
  6
BYBLOCK
 62
0
100
AcDbBlockReference
  2
_OPEN
 10
381.5143518912096
 20
177.6209245605350
 30
0.0000000000000000
 41
2.000000000000000
 42
2.000000000000000
 43
2.000000000000000
 50
249.2258812195828
  0
MTEXT
  5
DD
100
AcDbEntity
  8
MAIN0
  6
BYBLOCK
 62
0
100
AcDbMText
 10
393.7850168120492
 20
215.7474675746213
 30
0.0000000000000000
 40
3.099999904632568
 41
0.0000000000000000
 71
     5
 72
     1
  1
\A1;Ｒ80
 11
0.3546846537539917
 21
0.9349859872700825
 31
0.0000000000000000
  7
KNJYOKO
  0
ENDBLK
  5
DE
100
AcDbEntity
  8
MAIN0
  6
CONTINUOUS
 62
3
100
AcDbBlockEnd
  0
BLOCK
  5
E0
100
AcDbEntity
  8
MAIN0
  6
CONTINUOUS
 62
3
100
AcDbBlockBegin
  2
*D17
 70
    65
 10
0.0
 20
0.0
 30
0.0
  0
LINE
  5
E1
100
AcDbEntity
  8
MAIN0
  6
BYBLOCK
 62
0
100
AcDbLine
 10
393.3891241915289
 20
183.5332429075475
 30
0.0000000000000000
 11
393.3891241915289
 21
192.3318813297200
 31
0.0000000000000000
  0
LINE
  5
E2
100
AcDbEntity
  8
MAIN0
  6
BYBLOCK
 62
0
100
AcDbLine
 10
395.3891241915289
 20
190.3318813297200
 30
0.0000000000000000
 11
424.3891241915289
 21
190.3318813297200
 31
0.0000000000000000
  0
INSERT
  5
E3
100
AcDbEntity
  8
MAIN0
  6
BYBLOCK
 62
0
100
AcDbBlockReference
  2
_OPEN
 10
393.3891241915289
 20
190.3318813297200
 30
0.0000000000000000
 41
2.000000000000000
 42
2.000000000000000
 43
2.000000000000000
 50
180.0000000000000
  0
INSERT
  5
E4
100
AcDbEntity
  8
MAIN0
  6
BYBLOCK
 62
0
100
AcDbBlockReference
  2
_OPEN
 10
426.3891241915289
 20
190.3318813297200
 30
0.0000000000000000
 41
2.000000000000000
 42
2.000000000000000
 43
2.000000000000000
 50
0.0000000000000000
  0
LINE
  5
E5
100
AcDbEntity
  8
MAIN0
  6
BYBLOCK
 62
0
100
AcDbLine
 10
426.3891241915289
 20
181.7542741400499
 30
0.0000000000000000
 11
426.3891241915289
 21
192.3318813297200
 31
0.0000000000000000
  0
MTEXT
  5
E6
100
AcDbEntity
  8
MAIN0
  6
BYBLOCK
 62
0
100
AcDbMText
 10
409.8891241915289
 20
192.3818812820363
 30
0.0000000000000000
 40
3.099999904632568
 41
0.0000000000000000
 71
     5
 72
     1
  1
\A1;33
 11
1.000000000000000
 21
0.0000000000000000
 31
0.0000000000000000
  7
STANDARD
  0
ENDBLK
  5
E7
100
AcDbEntity
  8
MAIN0
  6
CONTINUOUS
 62
3
100
AcDbBlockEnd
  0
BLOCK
  5
E9
100
AcDbEntity
  8
MAIN0
  6
CONTINUOUS
 62
3
100
AcDbBlockBegin
  2
*D18
 70
    65
 10
0.0
 20
0.0
 30
0.0
  0
LINE
  5
EA
100
AcDbEntity
  8
MAIN0
  6
BYBLOCK
 62
0
100
AcDbLine
 10
386.3891241915289
 20
122.5085189679749
 30
0.0000000000000000
 11
386.3891241915289
 21
105.6893046176741
 31
0.0000000000000000
  0
LINE
  5
EB
100
AcDbEntity
  8
MAIN0
  6
BYBLOCK
 62
0
100
AcDbLine
 10
388.3891241915289
 20
107.6893046176741
 30
0.0000000000000000
 11
431.3891241915289
 21
107.6893046176741
 31
0.0000000000000000
  0
INSERT
  5
EC
100
AcDbEntity
  8
MAIN0
  6
BYBLOCK
 62
0
100
AcDbBlockReference
  2
_OPEN
 10
386.3891241915289
 20
107.6893046176741
 30
0.0000000000000000
 41
2.000000000000000
 42
2.000000000000000
 43
2.000000000000000
 50
180.0000000000000
  0
INSERT
  5
ED
100
AcDbEntity
  8
MAIN0
  6
BYBLOCK
 62
0
100
AcDbBlockReference
  2
_OPEN
 10
433.3891241915289
 20
107.6893046176741
 30
0.0000000000000000
 41
2.000000000000000
 42
2.000000000000000
 43
2.000000000000000
 50
0.0000000000000000
  0
LINE
  5
EE
100
AcDbEntity
  8
MAIN0
  6
BYBLOCK
 62
0
100
AcDbLine
 10
433.3891241915289
 20
121.2665386461289
 30
0.0000000000000000
 11
433.3891241915289
 21
105.6893046176741
 31
0.0000000000000000
  0
MTEXT
  5
EF
100
AcDbEntity
  8
MAIN0
  6
BYBLOCK
 62
0
100
AcDbMText
 10
409.8891241915289
 20
109.7393045699904
 30
0.0000000000000000
 40
3.099999904632568
 41
0.0000000000000000
 71
     5
 72
     1
  1
\A1;47
 11
1.000000000000000
 21
0.0000000000000000
 31
0.0000000000000000
  7
STANDARD
  0
ENDBLK
  5
F0
100
AcDbEntity
  8
MAIN0
  6
CONTINUOUS
 62
3
100
AcDbBlockEnd
  0
BLOCK
  5
F2
100
AcDbEntity
  8
MAIN0
  6
CONTINUOUS
 62
3
100
AcDbBlockBegin
  2
*D19
 70
    65
 10
0.0
 20
0.0
 30
0.0
  0
LINE
  5
F3
100
AcDbEntity
  8
MAIN0
  6
BYBLOCK
 62
0
100
AcDbLine
 10
369.8891241915289
 20
126.1198035302207
 30
0.0000000000000000
 11
369.8891241915289
 21
95.92589636109366
 31
0.0000000000000000
  0
LINE
  5
F4
100
AcDbEntity
  8
MAIN0
  6
BYBLOCK
 62
0
100
AcDbLine
 10
371.8891241915289
 20
97.92589636109366
 30
0.0000000000000000
 11
447.8891241915289
 21
97.92589636109366
 31
0.0000000000000000
  0
INSERT
  5
F5
100
AcDbEntity
  8
MAIN0
  6
BYBLOCK
 62
0
100
AcDbBlockReference
  2
_OPEN
 10
369.8891241915289
 20
97.92589636109366
 30
0.0000000000000000
 41
2.000000000000000
 42
2.000000000000000
 43
2.000000000000000
 50
180.0000000000000
  0
INSERT
  5
F6
100
AcDbEntity
  8
MAIN0
  6
BYBLOCK
 62
0
100
AcDbBlockReference
  2
_OPEN
 10
449.8891241915289
 20
97.92589636109366
 30
0.0000000000000000
 41
2.000000000000000
 42
2.000000000000000
 43
2.000000000000000
 50
0.0000000000000000
  0
LINE
  5
F7
100
AcDbEntity
  8
MAIN0
  6
BYBLOCK
 62
0
100
AcDbLine
 10
449.8891241915289
 20
126.1198035302207
 30
0.0000000000000000
 11
449.8891241915289
 21
95.92589636109366
 31
0.0000000000000000
  0
MTEXT
  5
F8
100
AcDbEntity
  8
MAIN0
  6
BYBLOCK
 62
0
100
AcDbMText
 10
409.8891241915289
 20
99.97589631340995
 30
0.0000000000000000
 40
3.099999904632568
 41
0.0000000000000000
 71
     5
 72
     1
  1
\A1;80
 11
1.000000000000000
 21
0.0000000000000000
 31
0.0000000000000000
  7
STANDARD
  0
ENDBLK
  5
F9
100
AcDbEntity
  8
MAIN0
  6
CONTINUOUS
 62
3
100
AcDbBlockEnd
  0
BLOCK
  5
FC
100
AcDbEntity
  8
MAIN0
  6
CONTINUOUS
 62
3
100
AcDbBlockBegin
  2
*D20
 70
    65
 10
0.0
 20
0.0
 30
0.0
  0
LINE
  5
FD
100
AcDbEntity
  8
MAIN0
  6
BYBLOCK
 62
0
100
AcDbLine
 10
274.9359977689486
 20
252.4198035421416
 30
0.0000000000000000
 11
263.5156404324182
 21
252.4198035421416
 31
0.0000000000000000
  0
LINE
  5
FE
100
AcDbEntity
  8
MAIN0
  6
BYBLOCK
 62
0
100
AcDbLine
 10
265.5156404324182
 20
250.4198035421416
 30
0.0000000000000000
 11
265.5156404324182
 21
128.9198035421416
 31
0.0000000000000000
  0
INSERT
  5
FF
100
AcDbEntity
  8
MAIN0
  6
BYBLOCK
 62
0
100
AcDbBlockReference
  2
_OPEN
 10
265.5156404324182
 20
252.4198035421416
 30
0.0000000000000000
 41
2.000000000000000
 42
2.000000000000000
 43
2.000000000000000
 50
90.00000000000000
  0
INSERT
  5
100
100
AcDbEntity
  8
MAIN0
  6
BYBLOCK
 62
0
100
AcDbBlockReference
  2
_OPEN
 10
265.5156404324182
 20
126.9198035421416
 30
0.0000000000000000
 41
2.000000000000000
 42
2.000000000000000
 43
2.000000000000000
 50
270.0000000000000
  0
LINE
  5
101
100
AcDbEntity
  8
MAIN0
  6
BYBLOCK
 62
0
100
AcDbLine
 10
369.0891241796081
 20
126.9198035421416
 30
0.0000000000000000
 11
263.5156404324182
 21
126.9198035421416
 31
0.0000000000000000
  0
MTEXT
  5
102
100
AcDbEntity
  8
MAIN0
  6
BYBLOCK
 62
0
100
AcDbMText
 10
263.4656404801019
 20
189.6698035421416
 30
0.0000000000000000
 40
3.099999904632568
 41
0.0000000000000000
 71
     5
 72
     1
  1
\A1;125.5
 11
6.123233995736766e-017
 21
1.000000000000000
 31
0.0000000000000000
  7
STANDARD
  0
ENDBLK
  5
103
100
AcDbEntity
  8
MAIN0
  6
CONTINUOUS
 62
3
100
AcDbBlockEnd
  0
BLOCK
  5
105
100
AcDbEntity
  8
MAIN0
  6
CONTINUOUS
 62
3
100
AcDbBlockBegin
  2
*D21
 70
    65
 10
0.0
 20
0.0
 30
0.0
  0
LINE
  5
106
100
AcDbEntity
  8
MAIN0
  6
BYBLOCK
 62
0
100
AcDbLine
 10
274.9359977689486
 20
252.4198035421416
 30
0.0000000000000000
 11
250.0447482540126
 21
252.4198035421416
 31
0.0000000000000000
  0
LINE
  5
107
100
AcDbEntity
  8
MAIN0
  6
BYBLOCK
 62
0
100
AcDbLine
 10
252.0447482540126
 20
250.4198035421416
 30
0.0000000000000000
 11
252.0447482540126
 21
93.91980354214161
 31
0.0000000000000000
  0
INSERT
  5
108
100
AcDbEntity
  8
MAIN0
  6
BYBLOCK
 62
0
100
AcDbBlockReference
  2
_OPEN
 10
252.0447482540126
 20
252.4198035421416
 30
0.0000000000000000
 41
2.000000000000000
 42
2.000000000000000
 43
2.000000000000000
 50
90.00000000000000
  0
INSERT
  5
109
100
AcDbEntity
  8
MAIN0
  6
BYBLOCK
 62
0
100
AcDbBlockReference
  2
_OPEN
 10
252.0447482540126
 20
91.91980354214161
 30
0.0000000000000000
 41
2.000000000000000
 42
2.000000000000000
 43
2.000000000000000
 50
270.0000000000000
  0
LINE
  5
10A
100
AcDbEntity
  8
MAIN0
  6
BYBLOCK
 62
0
100
AcDbLine
 10
369.0891241796081
 20
91.91980354214161
 30
0.0000000000000000
 11
250.0447482540126
 21
91.91980354214161
 31
0.0000000000000000
  0
MTEXT
  5
10B
100
AcDbEntity
  8
MAIN0
  6
BYBLOCK
 62
0
100
AcDbMText
 10
249.9947483016964
 20
176.4340318947824
 30
0.0000000000000000
 40
3.099999904632568
 41
0.0000000000000000
 71
     5
 72
     1
  1
\A1;160.5
 11
6.123233995736766e-017
 21
1.000000000000000
 31
0.0000000000000000
  7
STANDARD
  0
ENDBLK
  5
10C
100
AcDbEntity
  8
MAIN0
  6
CONTINUOUS
 62
3
100
AcDbBlockEnd
  0
BLOCK
  5
10E
100
AcDbEntity
  8
MAIN0
  6
CONTINUOUS
 62
3
100
AcDbBlockBegin
  2
*D22
 70
    65
 10
0.0
 20
0.0
 30
0.0
  0
LINE
  5
10F
100
AcDbEntity
  8
MAIN0
  6
BYBLOCK
 62
0
100
AcDbLine
 10
199.3359213951210
 20
56.74604938701165
 30
0.0000000000000000
 11
210.4335062550460
 21
56.74604938701177
 31
0.0000000000000000
  0
LINE
  5
110
100
AcDbEntity
  8
MAIN0
  6
BYBLOCK
 62
0
100
AcDbLine
 10
208.4335062550460
 20
54.74604938701174
 30
0.0000000000000000
 11
208.4335062550460
 21
44.74604938701174
 31
0.0000000000000000
  0
INSERT
  5
111
100
AcDbEntity
  8
MAIN0
  6
BYBLOCK
 62
0
100
AcDbBlockReference
  2
_OPEN
 10
208.4335062550460
 20
56.74604938701174
 30
0.0000000000000000
 41
2.000000000000000
 42
2.000000000000000
 43
2.000000000000000
 50
90.00000000000000
  0
INSERT
  5
112
100
AcDbEntity
  8
MAIN0
  6
BYBLOCK
 62
0
100
AcDbBlockReference
  2
_OPEN
 10
208.4335062550460
 20
42.74604938701174
 30
0.0000000000000000
 41
2.000000000000000
 42
2.000000000000000
 43
2.000000000000000
 50
270.0000000000000
  0
LINE
  5
113
100
AcDbEntity
  8
MAIN0
  6
BYBLOCK
 62
0
100
AcDbLine
 10
199.3359213951210
 20
42.74604938701174
 30
0.0000000000000000
 11
210.4335062550460
 21
42.74604938701174
 31
0.0000000000000000
  0
MTEXT
  5
114
100
AcDbEntity
  8
MAIN0
  6
BYBLOCK
 62
0
100
AcDbMText
 10
206.3835063027297
 20
49.74604938701174
 30
0.0000000000000000
 40
3.099999904632568
 41
0.0000000000000000
 71
     5
 72
     1
  1
\A1;14
 11
6.123233995736766e-017
 21
1.000000000000000
 31
0.0000000000000000
  7
STANDARD
  0
ENDBLK
  5
115
100
AcDbEntity
  8
MAIN0
  6
CONTINUOUS
 62
3
100
AcDbBlockEnd
  0
BLOCK
  5
117
100
AcDbEntity
  8
MAIN0
  6
CONTINUOUS
 62
3
100
AcDbBlockBegin
  2
*D23
 70
    65
 10
0.0
 20
0.0
 30
0.0
  0
LINE
  5
118
100
AcDbEntity
  8
MAIN0
  6
BYBLOCK
 62
0
100
AcDbLine
 10
195.0359213951210
 20
67.24604938701168
 30
0.0000000000000000
 11
221.7911258366663
 21
67.24604938701168
 31
0.0000000000000000
  0
LINE
  5
119
100
AcDbEntity
  8
MAIN0
  6
BYBLOCK
 62
0
100
AcDbLine
 10
219.7911258366663
 20
65.24604938701168
 30
0.0000000000000000
 11
219.7911258366663
 21
34.24604938701168
 31
0.0000000000000000
  0
INSERT
  5
11A
100
AcDbEntity
  8
MAIN0
  6
BYBLOCK
 62
0
100
AcDbBlockReference
  2
_OPEN
 10
219.7911258366663
 20
67.24604938701168
 30
0.0000000000000000
 41
2.000000000000000
 42
2.000000000000000
 43
2.000000000000000
 50
90.00000000000000
  0
INSERT
  5
11B
100
AcDbEntity
  8
MAIN0
  6
BYBLOCK
 62
0
100
AcDbBlockReference
  2
_OPEN
 10
219.7911258366663
 20
32.24604938701168
 30
0.0000000000000000
 41
2.000000000000000
 42
2.000000000000000
 43
2.000000000000000
 50
270.0000000000000
  0
LINE
  5
11C
100
AcDbEntity
  8
MAIN0
  6
BYBLOCK
 62
0
100
AcDbLine
 10
195.0359213951209
 20
32.24604938701168
 30
0.0000000000000000
 11
221.7911258366663
 21
32.24604938701168
 31
0.0000000000000000
  0
MTEXT
  5
11D
100
AcDbEntity
  8
MAIN0
  6
BYBLOCK
 62
0
100
AcDbMText
 10
217.7411258843500
 20
49.74604938701168
 30
0.0000000000000000
 40
3.099999904632568
 41
0.0000000000000000
 71
     5
 72
     1
  1
\A1;35
 11
6.123233995736766e-017
 21
1.000000000000000
 31
0.0000000000000000
  7
STANDARD
  0
ENDBLK
  5
11E
100
AcDbEntity
  8
MAIN0
  6
CONTINUOUS
 62
3
100
AcDbBlockEnd
  0
BLOCK
  5
120
100
AcDbEntity
  8
MAIN0
  6
CONTINUOUS
 62
3
100
AcDbBlockBegin
  2
*D24
 70
    65
 10
0.0
 20
0.0
 30
0.0
  0
LINE
  5
121
100
AcDbEntity
  8
MAIN0
  6
BYBLOCK
 62
0
100
AcDbLine
 10
190.5359213832000
 20
23.07911133472410
 30
0.0000000000000000
 11
190.5359213832000
 21
13.36827100019107
 31
0.0000000000000000
  0
LINE
  5
122
100
AcDbEntity
  8
MAIN0
  6
BYBLOCK
 62
0
100
AcDbLine
 10
190.5359213832000
 20
15.36827100019107
 30
0.0000000000000000
 11
194.5359213832000
 21
15.36827100019107
 31
0.0000000000000000
  0
INSERT
  5
123
100
AcDbEntity
  8
MAIN0
  6
BYBLOCK
 62
0
100
AcDbBlockReference
  2
_OPEN
 10
190.5359213832000
 20
15.36827100019107
 30
0.0000000000000000
 41
2.000000000000000
 42
2.000000000000000
 43
2.000000000000000
 50
0.0000000000000000
  0
INSERT
  5
124
100
AcDbEntity
  8
MAIN0
  6
BYBLOCK
 62
0
100
AcDbBlockReference
  2
_DOT
 10
195.5359213832000
 20
15.36827100019107
 30
0.0000000000000000
 41
1.000000000000000
 42
1.000000000000000
 43
1.000000000000000
 50
0.0000000000000000
  0
LINE
  5
125
100
AcDbEntity
  8
MAIN0
  6
BYBLOCK
 62
0
100
AcDbLine
 10
188.5359213832000
 20
15.36827100019107
 30
0.0000000000000000
 11
185.2275407794097
 21
15.36827100019107
 31
0.0000000000000000
  0
LINE
  5
126
100
AcDbEntity
  8
MAIN0
  6
BYBLOCK
 62
0
100
AcDbLine
 10
195.5359213832000
 20
32.19660472503622
 30
0.0000000000000000
 11
195.5359213832000
 21
13.36827100019107
 31
0.0000000000000000
  0
MTEXT
  5
127
100
AcDbEntity
  8
MAIN0
  6
BYBLOCK
 62
0
100
AcDbMText
 10
186.2775409624715
 20
17.41827095250733
 30
0.0000000000000000
 40
3.099999904632568
 41
0.0000000000000000
 71
     5
 72
     1
  1
\A1;5
 11
1.000000000000000
 21
0.0000000000000000
 31
0.0000000000000000
  7
STANDARD
  0
ENDBLK
  5
128
100
AcDbEntity
  8
MAIN0
  6
CONTINUOUS
 62
3
100
AcDbBlockEnd
  0
BLOCK
  5
12A
100
AcDbEntity
  8
MAIN0
  6
CONTINUOUS
 62
3
100
AcDbBlockBegin
  2
*D25
 70
    65
 10
0.0
 20
0.0
 30
0.0
  0
LINE
  5
12B
100
AcDbEntity
  8
MAIN0
  6
BYBLOCK
 62
0
100
AcDbLine
 10
195.5359213832000
 20
32.19660472503622
 30
0.0000000000000000
 11
195.5359213832000
 21
13.36827100019107
 31
0.0000000000000000
  0
LINE
  5
12C
100
AcDbEntity
  8
MAIN0
  6
BYBLOCK
 62
0
100
AcDbLine
 10
196.5359213832000
 20
15.36827100019107
 30
0.0000000000000000
 11
198.5359213832000
 21
15.36827100019107
 31
0.0000000000000000
  0
INSERT
  5
12D
100
AcDbEntity
  8
MAIN0
  6
BYBLOCK
 62
0
100
AcDbBlockReference
  2
_DOT
 10
195.5359213832000
 20
15.36827100019107
 30
0.0000000000000000
 41
1.000000000000000
 42
1.000000000000000
 43
1.000000000000000
 50
180.0000000000000
  0
INSERT
  5
12E
100
AcDbEntity
  8
MAIN0
  6
BYBLOCK
 62
0
100
AcDbBlockReference
  2
_OPEN
 10
198.5359213832000
 20
15.36827100019107
 30
0.0000000000000000
 41
2.000000000000000
 42
2.000000000000000
 43
2.000000000000000
 50
180.0000000000000
  0
LINE
  5
12F
100
AcDbEntity
  8
MAIN0
  6
BYBLOCK
 62
0
100
AcDbLine
 10
200.5359213832000
 20
15.36827100019107
 30
0.0000000000000000
 11
203.0616162303070
 21
15.36827100019107
 31
0.0000000000000000
  0
LINE
  5
130
100
AcDbEntity
  8
MAIN0
  6
BYBLOCK
 62
0
100
AcDbLine
 10
198.5359213832000
 20
41.94604937509078
 30
0.0000000000000000
 11
198.5359213832000
 21
13.36827100019107
 31
0.0000000000000000
  0
MTEXT
  5
131
100
AcDbEntity
  8
MAIN0
  6
BYBLOCK
 62
0
100
AcDbMText
 10
202.0116161138969
 20
17.41827095250736
 30
0.0000000000000000
 40
3.099999904632568
 41
0.0000000000000000
 71
     5
 72
     1
  1
\A1;3
 11
1.000000000000000
 21
0.0000000000000000
 31
0.0000000000000000
  7
STANDARD
  0
ENDBLK
  5
132
100
AcDbEntity
  8
MAIN0
  6
CONTINUOUS
 62
3
100
AcDbBlockEnd
  0
BLOCK
  5
146
100
AcDbEntity
  8
MAIN0
  6
CONTINUOUS
 62
3
100
AcDbBlockBegin
  2
*D26
 70
    65
 10
0.0
 20
0.0
 30
0.0
  0
LINE
  5
147
100
AcDbEntity
  8
MAIN0
  6
BYBLOCK
 62
0
100
AcDbLine
 10
84.53591334229532
 20
257.5056748040132
 30
0.0000000000000000
 11
89.63591334229531
 21
257.5056748040132
 31
0.0000000000000000
  0
INSERT
  5
148
100
AcDbEntity
  8
MAIN0
  6
BYBLOCK
 62
0
100
AcDbBlockReference
  2
_OPEN
 10
84.53591334229532
 20
257.5056748040132
 30
0.0000000000000000
 41
2.000000000000000
 42
2.000000000000000
 43
2.000000000000000
 50
0.0000000000000000
  0
INSERT
  5
149
100
AcDbEntity
  8
MAIN0
  6
BYBLOCK
 62
0
100
AcDbBlockReference
  2
_OPEN
 10
89.63591334229531
 20
257.5056748040132
 30
0.0000000000000000
 41
2.000000000000000
 42
2.000000000000000
 43
2.000000000000000
 50
180.0000000000000
  0
LINE
  5
14A
100
AcDbEntity
  8
MAIN0
  6
BYBLOCK
 62
0
100
AcDbLine
 10
82.53591334229532
 20
257.5056748040132
 30
0.0000000000000000
 11
81.53591334229532
 21
257.5056748040132
 31
0.0000000000000000
  0
LINE
  5
14B
100
AcDbEntity
  8
MAIN0
  6
BYBLOCK
 62
0
100
AcDbLine
 10
91.63591334229531
 20
257.5056748040132
 30
0.0000000000000000
 11
97.62793204194131
 21
257.5056748040132
 31
0.0000000000000000
  0
MTEXT
  5
14C
100
AcDbEntity
  8
MAIN0
  6
BYBLOCK
 62
0
100
AcDbMText
 10
94.97793217776777
 20
259.5556747563294
 30
0.0000000000000000
 40
3.099999904632568
 41
0.0000000000000000
 71
     5
 72
     1
  1
\A1;5.1
 11
1.000000000000000
 21
0.0000000000000000
 31
0.0000000000000000
  7
STANDARD
  0
ENDBLK
  5
14D
100
AcDbEntity
  8
MAIN0
  6
CONTINUOUS
 62
3
100
AcDbBlockEnd
  0
BLOCK
  5
164
100
AcDbEntity
  8
MAIN0
  6
CONTINUOUS
 62
3
100
AcDbBlockBegin
  2
*D27
 70
    65
 10
0.0
 20
0.0
 30
0.0
  0
LINE
  5
165
100
AcDbEntity
  8
MAIN0
  6
BYBLOCK
 62
0
100
AcDbLine
 10
206.3610594181816
 20
252.4198035421416
 30
0.0000000000000000
 11
245.9010223537110
 21
252.4198035421416
 31
0.0000000000000000
  0
LINE
  5
166
100
AcDbEntity
  8
MAIN0
  6
BYBLOCK
 62
0
100
AcDbLine
 10
243.9010223537110
 20
254.4198035421416
 30
0.0000000000000000
 11
243.9010223537110
 21
303.4198035421416
 31
0.0000000000000000
  0
INSERT
  5
167
100
AcDbEntity
  8
MAIN0
  6
BYBLOCK
 62
0
100
AcDbBlockReference
  2
_OPEN
 10
243.9010223537110
 20
252.4198035421416
 30
0.0000000000000000
 41
2.000000000000000
 42
2.000000000000000
 43
2.000000000000000
 50
270.0000000000000
  0
INSERT
  5
168
100
AcDbEntity
  8
MAIN0
  6
BYBLOCK
 62
0
100
AcDbBlockReference
  2
_OPEN
 10
243.9010223537110
 20
305.4198035421416
 30
0.0000000000000000
 41
2.000000000000000
 42
2.000000000000000
 43
2.000000000000000
 50
90.00000000000000
  0
LINE
  5
169
100
AcDbEntity
  8
MAIN0
  6
BYBLOCK
 62
0
100
AcDbLine
 10
195.0359133542162
 20
305.4198035421416
 30
0.0000000000000000
 11
245.9010223537110
 21
305.4198035421416
 31
0.0000000000000000
  0
ENDBLK
  5
16A
100
AcDbEntity
  8
MAIN0
  6
CONTINUOUS
 62
3
100
AcDbBlockEnd
  0
BLOCK
  5
16C
100
AcDbEntity
  8
MAIN0
  6
CONTINUOUS
 62
3
100
AcDbBlockBegin
  2
*D28
 70
    65
 10
0.0
 20
0.0
 30
0.0
  0
LINE
  5
16D
100
AcDbEntity
  8
MAIN0
  6
BYBLOCK
 62
0
100
AcDbLine
 10
243.9010223537110
 20
314.1698035421416
 30
0.0000000000000000
 11
243.9010223537110
 21
305.4198035421416
 31
0.0000000000000000
  0
INSERT
  5
16E
100
AcDbEntity
  8
MAIN0
  6
BYBLOCK
 62
0
100
AcDbBlockReference
  2
_OPEN
 10
243.9010223537110
 20
314.1698035421416
 30
0.0000000000000000
 41
2.000000000000000
 42
2.000000000000000
 43
2.000000000000000
 50
270.0000000000000
  0
INSERT
  5
16F
100
AcDbEntity
  8
MAIN0
  6
BYBLOCK
 62
0
100
AcDbBlockReference
  2
_OPEN
 10
243.9010223537110
 20
305.4198035421416
 30
0.0000000000000000
 41
2.000000000000000
 42
2.000000000000000
 43
2.000000000000000
 50
90.00000000000000
  0
LINE
  5
170
100
AcDbEntity
  8
MAIN0
  6
BYBLOCK
 62
0
100
AcDbLine
 10
243.9010223537110
 20
316.1698035421416
 30
0.0000000000000000
 11
243.9010223537110
 21
336.2109793844268
 31
0.0000000000000000
  0
LINE
  5
171
100
AcDbEntity
  8
MAIN0
  6
BYBLOCK
 62
0
100
AcDbLine
 10
243.9010223537110
 20
303.4198035421416
 30
0.0000000000000000
 11
243.9010223537110
 21
302.4198035421416
 31
0.0000000000000000
  0
LINE
  5
172
100
AcDbEntity
  8
MAIN0
  6
BYBLOCK
 62
0
100
AcDbLine
 10
195.0359133542162
 20
305.4198035421416
 30
0.0000000000000000
 11
245.9010223537110
 21
305.4198035421416
 31
0.0000000000000000
  0
ENDBLK
  5
173
100
AcDbEntity
  8
MAIN0
  6
CONTINUOUS
 62
3
100
AcDbBlockEnd
  0
BLOCK
  5
175
100
AcDbEntity
  8
MAIN0
  6
CONTINUOUS
 62
3
100
AcDbBlockBegin
  2
*D29
 70
    65
 10
0.0
 20
0.0
 30
0.0
  0
LINE
  5
176
100
AcDbEntity
  8
MAIN0
  6
BYBLOCK
 62
0
100
AcDbLine
 10
233.3359133542163
 20
363.1698035421416
 30
0.0000000000000000
 11
273.2655518352883
 21
363.1698035421416
 31
0.0000000000000000
  0
LINE
  5
177
100
AcDbEntity
  8
MAIN0
  6
BYBLOCK
 62
0
100
AcDbLine
 10
271.2655518352883
 20
361.1698035421416
 30
0.0000000000000000
 11
271.2655518352883
 21
270.1698035421416
 31
0.0000000000000000
  0
INSERT
  5
178
100
AcDbEntity
  8
MAIN0
  6
BYBLOCK
 62
0
100
AcDbBlockReference
  2
_OPEN
 10
271.2655518352883
 20
363.1698035421416
 30
0.0000000000000000
 41
2.000000000000000
 42
2.000000000000000
 43
2.000000000000000
 50
90.00000000000000
  0
INSERT
  5
179
100
AcDbEntity
  8
MAIN0
  6
BYBLOCK
 62
0
100
AcDbBlockReference
  2
_OPEN
 10
271.2655518352883
 20
268.1698035421416
 30
0.0000000000000000
 41
2.000000000000000
 42
2.000000000000000
 43
2.000000000000000
 50
270.0000000000000
  0
LINE
  5
17A
100
AcDbEntity
  8
MAIN0
  6
BYBLOCK
 62
0
100
AcDbLine
 10
233.3359133542163
 20
268.1698035421416
 30
0.0000000000000000
 11
273.2655518352883
 21
268.1698035421416
 31
0.0000000000000000
  0
MTEXT
  5
17B
100
AcDbEntity
  8
MAIN0
  6
BYBLOCK
 62
0
100
AcDbMText
 10
269.2155518829720
 20
315.6698035421416
 30
0.0000000000000000
 40
3.099999904632568
 41
0.0000000000000000
 71
     5
 72
     1
  1
\A1;95
 11
6.123233995736766e-017
 21
1.000000000000000
 31
0.0000000000000000
  7
STANDARD
  0
ENDBLK
  5
17C
100
AcDbEntity
  8
MAIN0
  6
CONTINUOUS
 62
3
100
AcDbBlockEnd
  0
BLOCK
  5
17E
100
AcDbEntity
  8
MAIN0
  6
CONTINUOUS
 62
3
100
AcDbBlockBegin
  2
*D30
 70
    65
 10
0.0
 20
0.0
 30
0.0
  0
LINE
  5
17F
100
AcDbEntity
  8
MAIN0
  6
BYBLOCK
 62
0
100
AcDbLine
 10
233.3359133542163
 20
268.1698035421416
 30
0.0000000000000000
 11
259.5964877033181
 21
268.1698035421416
 31
0.0000000000000000
  0
LINE
  5
180
100
AcDbEntity
  8
MAIN0
  6
BYBLOCK
 62
0
100
AcDbLine
 10
257.5964877033181
 20
270.1698035421416
 30
0.0000000000000000
 11
257.5964877033181
 21
312.1698035421416
 31
0.0000000000000000
  0
INSERT
  5
181
100
AcDbEntity
  8
MAIN0
  6
BYBLOCK
 62
0
100
AcDbBlockReference
  2
_OPEN
 10
257.5964877033181
 20
268.1698035421416
 30
0.0000000000000000
 41
2.000000000000000
 42
2.000000000000000
 43
2.000000000000000
 50
270.0000000000000
  0
INSERT
  5
182
100
AcDbEntity
  8
MAIN0
  6
BYBLOCK
 62
0
100
AcDbBlockReference
  2
_OPEN
 10
257.5964877033181
 20
314.1698035421416
 30
0.0000000000000000
 41
2.000000000000000
 42
2.000000000000000
 43
2.000000000000000
 50
90.00000000000000
  0
LINE
  5
183
100
AcDbEntity
  8
MAIN0
  6
BYBLOCK
 62
0
100
AcDbLine
 10
251.4425828640215
 20
314.1698035421416
 30
0.0000000000000000
 11
259.5964877033181
 21
314.1698035421416
 31
0.0000000000000000
  0
MTEXT
  5
184
100
AcDbEntity
  8
MAIN0
  6
BYBLOCK
 62
0
100
AcDbMText
 10
255.5464877510018
 20
291.1698035421416
 30
0.0000000000000000
 40
3.099999904632568
 41
0.0000000000000000
 71
     5
 72
     1
  1
\A1;46
 11
6.123233995736766e-017
 21
1.000000000000000
 31
0.0000000000000000
  7
STANDARD
  0
ENDBLK
  5
185
100
AcDbEntity
  8
MAIN0
  6
CONTINUOUS
 62
3
100
AcDbBlockEnd
  0
BLOCK
  5
187
100
AcDbEntity
  8
MAIN0
  6
CONTINUOUS
 62
3
100
AcDbBlockBegin
  2
*D31
 70
    65
 10
0.0
 20
0.0
 30
0.0
  0
LINE
  5
188
100
AcDbEntity
  8
MAIN0
  6
BYBLOCK
 62
0
100
AcDbLine
 10
251.4425828640215
 20
314.1698035421416
 30
0.0000000000000000
 11
259.5964877033181
 21
314.1698035421416
 31
0.0000000000000000
  0
LINE
  5
189
100
AcDbEntity
  8
MAIN0
  6
BYBLOCK
 62
0
100
AcDbLine
 10
257.5964877033181
 20
316.1698035421416
 30
0.0000000000000000
 11
257.5964877033181
 21
337.1698035421416
 31
0.0000000000000000
  0
INSERT
  5
18A
100
AcDbEntity
  8
MAIN0
  6
BYBLOCK
 62
0
100
AcDbBlockReference
  2
_OPEN
 10
257.5964877033181
 20
314.1698035421416
 30
0.0000000000000000
 41
2.000000000000000
 42
2.000000000000000
 43
2.000000000000000
 50
270.0000000000000
  0
INSERT
  5
18B
100
AcDbEntity
  8
MAIN0
  6
BYBLOCK
 62
0
100
AcDbBlockReference
  2
_OPEN
 10
257.5964877033181
 20
339.1698035421416
 30
0.0000000000000000
 41
2.000000000000000
 42
2.000000000000000
 43
2.000000000000000
 50
90.00000000000000
  0
LINE
  5
18C
100
AcDbEntity
  8
MAIN0
  6
BYBLOCK
 62
0
100
AcDbLine
 10
251.4425828640215
 20
339.1698035421416
 30
0.0000000000000000
 11
259.5964877033181
 21
339.1698035421416
 31
0.0000000000000000
  0
MTEXT
  5
18D
100
AcDbEntity
  8
MAIN0
  6
BYBLOCK
 62
0
100
AcDbMText
 10
255.5464877510018
 20
326.6698035421416
 30
0.0000000000000000
 40
3.099999904632568
 41
0.0000000000000000
 71
     5
 72
     1
  1
\A1;25
 11
6.123233995736766e-017
 21
1.000000000000000
 31
0.0000000000000000
  7
STANDARD
  0
ENDBLK
  5
18E
100
AcDbEntity
  8
MAIN0
  6
CONTINUOUS
 62
3
100
AcDbBlockEnd
  0
BLOCK
  5
190
100
AcDbEntity
  8
MAIN0
  6
CONTINUOUS
 62
3
100
AcDbBlockBegin
  2
*D32
 70
    65
 10
0.0
 20
0.0
 30
0.0
  0
LINE
  5
191
100
AcDbEntity
  8
MAIN0
  6
BYBLOCK
 62
0
100
AcDbLine
 10
190.5359133422953
 20
358.2198035540625
 30
0.0000000000000000
 11
190.5359133422953
 21
386.4085432311845
 31
0.0000000000000000
  0
LINE
  5
192
100
AcDbEntity
  8
MAIN0
  6
BYBLOCK
 62
0
100
AcDbLine
 10
192.5359133422953
 20
384.4085432311845
 30
0.0000000000000000
 11
230.5359133422953
 21
384.4085432311845
 31
0.0000000000000000
  0
INSERT
  5
193
100
AcDbEntity
  8
MAIN0
  6
BYBLOCK
 62
0
100
AcDbBlockReference
  2
_OPEN
 10
190.5359133422953
 20
384.4085432311845
 30
0.0000000000000000
 41
2.000000000000000
 42
2.000000000000000
 43
2.000000000000000
 50
180.0000000000000
  0
INSERT
  5
194
100
AcDbEntity
  8
MAIN0
  6
BYBLOCK
 62
0
100
AcDbBlockReference
  2
_OPEN
 10
232.5359133422953
 20
384.4085432311845
 30
0.0000000000000000
 41
2.000000000000000
 42
2.000000000000000
 43
2.000000000000000
 50
0.0000000000000000
  0
LINE
  5
195
100
AcDbEntity
  8
MAIN0
  6
BYBLOCK
 62
0
100
AcDbLine
 10
232.5359133422953
 20
363.9698035540625
 30
0.0000000000000000
 11
232.5359133422953
 21
386.4085432311845
 31
0.0000000000000000
  0
MTEXT
  5
196
100
AcDbEntity
  8
MAIN0
  6
BYBLOCK
 62
0
100
AcDbMText
 10
211.5359133422953
 20
386.4585431835008
 30
0.0000000000000000
 40
3.099999904632568
 41
0.0000000000000000
 71
     5
 72
     1
  1
\A1;42
 11
1.000000000000000
 21
0.0000000000000000
 31
0.0000000000000000
  7
STANDARD
  0
ENDBLK
  5
197
100
AcDbEntity
  8
MAIN0
  6
CONTINUOUS
 62
3
100
AcDbBlockEnd
  0
BLOCK
  5
19D
100
AcDbEntity
  8
MAIN0
  6
CONTINUOUS
 62
3
100
AcDbBlockBegin
  2
*D33
 70
    65
 10
0.0
 20
0.0
 30
0.0
  0
ARC
  5
19E
100
AcDbEntity
  8
MAIN0
  6
BYBLOCK
 62
0
100
AcDbCircle
 10
409.8891241915285
 20
252.4198035421416
 30
0.0000000000000000
 40
78.54750352037402
100
AcDbArc
 50
1.458882254563843
 51
13.54111774540895
  0
INSERT
  5
19F
100
AcDbEntity
  8
MAIN0
  6
BYBLOCK
 62
0
100
AcDbBlockReference
  2
_OPEN
 10
488.4366277119025
 20
252.4198035421416
 30
0.0000000000000000
 41
2.000000000000000
 42
2.000000000000000
 43
2.000000000000000
 50
270.0000000000000
  0
INSERT
  5
1A0
100
AcDbEntity
  8
MAIN0
  6
BYBLOCK
 62
0
100
AcDbBlockReference
  2
_OPEN
 10
485.7601864323989
 20
272.7493933984356
 30
0.0000000000000000
 41
2.000000000000000
 42
2.000000000000000
 43
2.000000000000000
 50
104.9999999999728
  0
MTEXT
  5
1A1
100
AcDbEntity
  8
MAIN0
  6
BYBLOCK
 62
0
100
AcDbMText
 10
485.7321810120066
 20
262.4047313972020
 30
0.0000000000000000
 40
3.099999904632568
 41
0.0000000000000000
 71
     5
 72
     1
  1
\A1;15\U+00B0
 11
-0.1305261922198160
 21
0.9914448613738415
 31
0.0000000000000000
  7
STANDARD
  0
ENDBLK
  5
1A2
100
AcDbEntity
  8
MAIN0
  6
CONTINUOUS
 62
3
100
AcDbBlockEnd
  0
BLOCK
  5
1A6
100
AcDbEntity
  8
MAIN0
  6
CONTINUOUS
 62
3
100
AcDbBlockBegin
  2
*D34
 70
    65
 10
0.0
 20
0.0
 30
0.0
  0
LINE
  5
1A7
100
AcDbEntity
  8
MAIN0
  6
BYBLOCK
 62
0
100
AcDbLine
 10
104.3637079157044
 20
265.4198035421416
 30
0.0000000000000000
 11
104.3637079157044
 21
239.4198035421416
 31
0.0000000000000000
  0
INSERT
  5
1A8
100
AcDbEntity
  8
MAIN0
  6
BYBLOCK
 62
0
100
AcDbBlockReference
  2
_OPEN
 10
104.3637079157044
 20
267.4198035421416
 30
0.0000000000000000
 41
2.000000000000000
 42
2.000000000000000
 43
2.000000000000000
 50
90.00000000000000
  0
INSERT
  5
1A9
100
AcDbEntity
  8
MAIN0
  6
BYBLOCK
 62
0
100
AcDbBlockReference
  2
_OPEN
 10
104.3637079157044
 20
237.4198035421416
 30
0.0000000000000000
 41
2.000000000000000
 42
2.000000000000000
 43
2.000000000000000
 50
270.0000000000000
  0
MTEXT
  5
1AA
100
AcDbEntity
  8
MAIN0
  6
BYBLOCK
 62
0
100
AcDbMText
 10
102.3137079633881
 20
252.4198035421416
 30
0.0000000000000000
 40
3.099999904632568
 41
0.0000000000000000
 71
     5
 72
     1
  1
\A1;\U+220530
 11
6.123233995736766e-017
 21
1.000000000000000
 31
0.0000000000000000
  7
STANDARD
  0
ENDBLK
  5
1AB
100
AcDbEntity
  8
MAIN0
  6
CONTINUOUS
 62
3
100
AcDbBlockEnd
  0
BLOCK
  5
1AE
100
AcDbEntity
  8
MAIN0
  6
CONTINUOUS
 62
3
100
AcDbBlockBegin
  2
*D35
 70
    65
 10
0.0
 20
0.0
 30
0.0
  0
LINE
  5
1AF
100
AcDbEntity
  8
MAIN0
  6
BYBLOCK
 62
0
100
AcDbLine
 10
409.8891241915289
 20
252.4198035421416
 30
0.0000000000000000
 11
496.5395460487434
 21
237.0671362831033
 31
0.0000000000000000
  0
INSERT
  5
1B0
100
AcDbEntity
  8
MAIN0
  6
BYBLOCK
 62
0
100
AcDbBlockReference
  2
_OPEN
 10
498.5088738182256
 20
236.7182120272161
 30
0.0000000000000000
 41
2.000000000000000
 42
2.000000000000000
 43
2.000000000000000
 50
349.9526411936699
  0
MTEXT
  5
1B1
100
AcDbEntity
  8
MAIN0
  6
BYBLOCK
 62
0
100
AcDbMText
 10
480.4042954479057
 20
242.0078984887988
 30
0.0000000000000000
 40
3.099999904632568
 41
0.0000000000000000
 71
     5
 72
     1
  1
\A1;Ｒ90
 11
0.9846638847410749
 21
-0.1744621279436173
 31
0.0000000000000000
  7
KNJYOKO
  0
ARC
  5
1B2
100
AcDbEntity
  8
MAIN0
  6
BYBLOCK
 62
0
100
AcDbCircle
 10
409.8891241915289
 20
252.4198035421416
 30
0.0000000000000000
 40
89.99999999999997
100
AcDbArc
 50
348.6794016489348
 51
367.3952678926762
  0
ENDBLK
  5
1B3
100
AcDbEntity
  8
MAIN0
  6
CONTINUOUS
 62
3
100
AcDbBlockEnd
  0
BLOCK
  5
1B5
100
AcDbEntity
  8
MAIN0
  6
CONTINUOUS
 62
3
100
AcDbBlockBegin
  2
*D36
 70
    65
 10
0.0
 20
0.0
 30
0.0
  0
LINE
  5
1B6
100
AcDbEntity
  8
MAIN0
  6
BYBLOCK
 62
0
100
AcDbLine
 10
392.3891241915289
 20
357.5598779683901
 30
0.0000000000000000
 11
392.3891241915289
 21
400.3850555856699
 31
0.0000000000000000
  0
LINE
  5
1B7
100
AcDbEntity
  8
MAIN0
  6
BYBLOCK
 62
0
100
AcDbLine
 10
394.3891241915289
 20
398.3850555856699
 30
0.0000000000000000
 11
425.3891241915289
 21
398.3850555856699
 31
0.0000000000000000
  0
INSERT
  5
1B8
100
AcDbEntity
  8
MAIN0
  6
BYBLOCK
 62
0
100
AcDbBlockReference
  2
_OPEN
 10
392.3891241915289
 20
398.3850555856699
 30
0.0000000000000000
 41
2.000000000000000
 42
2.000000000000000
 43
2.000000000000000
 50
180.0000000000000
  0
INSERT
  5
1B9
100
AcDbEntity
  8
MAIN0
  6
BYBLOCK
 62
0
100
AcDbBlockReference
  2
_OPEN
 10
427.3891241915289
 20
398.3850555856699
 30
0.0000000000000000
 41
2.000000000000000
 42
2.000000000000000
 43
2.000000000000000
 50
0.0000000000000000
  0
LINE
  5
1BA
100
AcDbEntity
  8
MAIN0
  6
BYBLOCK
 62
0
100
AcDbLine
 10
427.3891241915289
 20
363.9698035540626
 30
0.0000000000000000
 11
427.3891241915289
 21
400.3850555856699
 31
0.0000000000000000
  0
MTEXT
  5
1BB
100
AcDbEntity
  8
MAIN0
  6
BYBLOCK
 62
0
100
AcDbMText
 10
409.8891241915289
 20
400.4350555379862
 30
0.0000000000000000
 40
3.099999904632568
 41
0.0000000000000000
 71
     5
 72
     1
  1
\A1;35
 11
1.000000000000000
 21
0.0000000000000000
 31
0.0000000000000000
  7
STANDARD
  0
ENDBLK
  5
1BC
100
AcDbEntity
  8
MAIN0
  6
CONTINUOUS
 62
3
100
AcDbBlockEnd
  0
BLOCK
  5
1BE
100
AcDbEntity
  8
MAIN0
  6
CONTINUOUS
 62
3
100
AcDbBlockBegin
  2
*D37
 70
    65
 10
0.0
 20
0.0
 30
0.0
  0
LINE
  5
1BF
100
AcDbEntity
  8
MAIN0
  6
BYBLOCK
 62
0
100
AcDbLine
 10
391.5891241796080
 20
363.1698035421417
 30
0.0000000000000000
 11
375.3860040761012
 21
363.1698035421417
 31
0.0000000000000000
  0
LINE
  5
1C0
100
AcDbEntity
  8
MAIN0
  6
BYBLOCK
 62
0
100
AcDbLine
 10
377.3860040761012
 20
361.1698035421417
 30
0.0000000000000000
 11
377.3860040761012
 21
270.1698035421417
 31
0.0000000000000000
  0
INSERT
  5
1C1
100
AcDbEntity
  8
MAIN0
  6
BYBLOCK
 62
0
100
AcDbBlockReference
  2
_OPEN
 10
377.3860040761012
 20
363.1698035421417
 30
0.0000000000000000
 41
2.000000000000000
 42
2.000000000000000
 43
2.000000000000000
 50
90.00000000000000
  0
INSERT
  5
1C2
100
AcDbEntity
  8
MAIN0
  6
BYBLOCK
 62
0
100
AcDbBlockReference
  2
_OPEN
 10
377.3860040761012
 20
268.1698035421417
 30
0.0000000000000000
 41
2.000000000000000
 42
2.000000000000000
 43
2.000000000000000
 50
270.0000000000000
  0
LINE
  5
1C3
100
AcDbEntity
  8
MAIN0
  6
BYBLOCK
 62
0
100
AcDbLine
 10
402.4806502230231
 20
268.1698035421417
 30
0.0000000000000000
 11
375.3860040761012
 21
268.1698035421417
 31
0.0000000000000000
  0
MTEXT
  5
1C4
100
AcDbEntity
  8
MAIN0
  6
BYBLOCK
 62
0
100
AcDbMText
 10
375.3360041237849
 20
315.6698035421417
 30
0.0000000000000000
 40
3.099999904632568
 41
0.0000000000000000
 71
     5
 72
     1
  1
\A1;95
 11
6.123233995736766e-017
 21
1.000000000000000
 31
0.0000000000000000
  7
STANDARD
  0
ENDBLK
  5
1C5
100
AcDbEntity
  8
MAIN0
  6
CONTINUOUS
 62
3
100
AcDbBlockEnd
  0
BLOCK
  5
1D6
100
AcDbEntity
  8
MAIN0
  6
CONTINUOUS
 62
3
100
AcDbBlockBegin
  2
D38
 70
    64
 10
0.0
 20
0.0
 30
0.0
  0
LINE
  5
1D7
100
AcDbEntity
  8
MAIN0
  6
BYBLOCK
 62
0
100
AcDbLine
 10
-0.7659931192122862
 20
-33.25980624518878
 30
0.0000000000000000
 11
-0.7659931192122862
 21
-56.50000000001087
 31
0.0000000000000000
  0
LINE
  5
1D8
100
AcDbEntity
  8
MAIN0
  6
BYBLOCK
 62
0
100
AcDbLine
 10
-0.1659930953704284
 20
-54.50000000001087
 30
0.0000000000000000
 11
-0.7659931192122862
 21
-56.50000000001087
 31
0.0000000000000000
  0
LINE
  5
1D9
100
AcDbEntity
  8
MAIN0
  6
BYBLOCK
 62
0
100
AcDbLine
 10
-0.7659931192122862
 20
-56.50000000001087
 30
0.0000000000000000
 11
-1.365993143054144
 21
-54.50000000001087
 31
0.0000000000000000
  0
LINE
  5
1DA
100
AcDbEntity
  8
MAIN0
  6
BYBLOCK
 62
0
100
AcDbLine
 10
-13.22514605204459
 20
-56.50000000001087
 30
0.0000000000000000
 11
1.234006880787714
 21
-56.50000000001087
 31
0.0000000000000000
  0
MTEXT
  5
1DB
100
AcDbEntity
  8
MAIN0
  6
BYBLOCK
 62
0
100
AcDbMText
 10
-2.815993071528570
 20
-39.70980624816901
 30
0.0000000000000000
 40
3.099999904632568
 41
0.0000000000000000
 71
     5
 72
     1
  1
\A1;\U+2205113
 11
6.123233995736766e-017
 21
1.000000000000000
 31
0.0000000000000000
  7
STANDARD
  0
ENDBLK
  5
1DC
100
AcDbEntity
  8
MAIN0
  6
CONTINUOUS
 62
3
100
AcDbBlockEnd
  0
BLOCK
  5
1DE
100
AcDbEntity
  8
MAIN0
  6
CONTINUOUS
 62
3
100
AcDbBlockBegin
  2
*D39
 70
    65
 10
0.0
 20
0.0
 30
0.0
  0
LINE
  5
1DF
100
AcDbEntity
  8
MAIN0
  6
BYBLOCK
 62
0
100
AcDbLine
 10
191.5359133422952
 20
195.1198035302098
 30
0.0000000000000000
 11
191.5359133422952
 21
180.6242147412374
 31
0.0000000000000000
  0
LINE
  5
1E0
100
AcDbEntity
  8
MAIN0
  6
BYBLOCK
 62
0
100
AcDbLine
 10
191.5359133422952
 20
182.6242147412374
 30
0.0000000000000000
 11
190.5359133422953
 21
182.6242147412374
 31
0.0000000000000000
  0
INSERT
  5
1E1
100
AcDbEntity
  8
MAIN0
  6
BYBLOCK
 62
0
100
AcDbBlockReference
  2
_OPEN
 10
191.5359133422952
 20
182.6242147412374
 30
0.0000000000000000
 41
2.000000000000000
 42
2.000000000000000
 43
2.000000000000000
 50
180.0000000000000
  0
INSERT
  5
1E2
100
AcDbEntity
  8
MAIN0
  6
BYBLOCK
 62
0
100
AcDbBlockReference
  2
_OPEN
 10
190.5359133422953
 20
182.6242147412374
 30
0.0000000000000000
 41
2.000000000000000
 42
2.000000000000000
 43
2.000000000000000
 50
360.0000000000000
  0
LINE
  5
1E3
100
AcDbEntity
  8
MAIN0
  6
BYBLOCK
 62
0
100
AcDbLine
 10
193.5359133422952
 20
182.6242147412374
 30
0.0000000000000000
 11
199.2361644447427
 21
182.6242147412374
 31
0.0000000000000000
  0
LINE
  5
1E4
100
AcDbEntity
  8
MAIN0
  6
BYBLOCK
 62
0
100
AcDbLine
 10
188.5359133422953
 20
182.6242147412374
 30
0.0000000000000000
 11
187.5359133422953
 21
182.6242147412374
 31
0.0000000000000000
  0
MTEXT
  5
1E5
100
AcDbEntity
  8
MAIN0
  6
BYBLOCK
 62
0
100
AcDbMText
 10
196.5861644217805
 20
184.6742146935536
 30
0.0000000000000000
 40
3.099999904632568
 41
0.0000000000000000
 71
     5
 72
     1
  1
\A1;0.1
 11
1.000000000000000
 21
0.0000000000000000
 31
0.0000000000000000
  7
STANDARD
  0
ENDBLK
  5
1E6
100
AcDbEntity
  8
MAIN0
  6
CONTINUOUS
 62
3
100
AcDbBlockEnd
  0
BLOCK
  5
1E8
100
AcDbEntity
  8
MAIN0
  6
CONTINUOUS
 62
3
100
AcDbBlockBegin
  2
D40
 70
    64
 10
0.0
 20
0.0
 30
0.0
  0
LINE
  5
1E9
100
AcDbEntity
  8
MAIN0
  6
BYBLOCK
 62
0
100
AcDbLine
 10
11.80547921816647
 20
-80.65078604134098
 30
0.0000000000000000
 11
11.80547921816647
 21
-105.0000000000000
 31
0.0000000000000000
  0
LINE
  5
1EA
100
AcDbEntity
  8
MAIN0
  6
BYBLOCK
 62
0
100
AcDbLine
 10
12.40547924200833
 20
-103.0000000000000
 30
0.0000000000000000
 11
11.80547921816647
 21
-105.0000000000000
 31
0.0000000000000000
  0
LINE
  5
1EB
100
AcDbEntity
  8
MAIN0
  6
BYBLOCK
 62
0
100
AcDbLine
 10
11.80547921816647
 20
-105.0000000000000
 30
0.0000000000000000
 11
11.20547919432461
 21
-103.0000000000000
 31
0.0000000000000000
  0
LINE
  5
1EC
100
AcDbEntity
  8
MAIN0
  6
BYBLOCK
 62
0
100
AcDbLine
 10
-14.22514605204446
 20
-105.0000000000000
 30
0.0000000000000000
 11
13.80547921816647
 21
-105.0000000000000
 31
0.0000000000000000
  0
MTEXT
  5
1ED
100
AcDbEntity
  8
MAIN0
  6
BYBLOCK
 62
0
100
AcDbMText
 10
9.755479265850187
 20
-85.10078598592028
 30
0.0000000000000000
 40
3.099999904632568
 41
0.0000000000000000
 71
     5
 72
     1
  1
\A1;\U+2205210
 11
6.123233995736766e-017
 21
1.000000000000000
 31
0.0000000000000000
  7
STANDARD
  0
ENDBLK
  5
1EE
100
AcDbEntity
  8
MAIN0
  6
CONTINUOUS
 62
3
100
AcDbBlockEnd
  0
BLOCK
  5
1F0
100
AcDbEntity
  8
MAIN0
  6
CONTINUOUS
 62
3
100
AcDbBlockBegin
  2
*D41
 70
    65
 10
0.0
 20
0.0
 30
0.0
  0
LINE
  5
1F1
100
AcDbEntity
  8
MAIN0
  6
BYBLOCK
 62
0
100
AcDbLine
 10
189.8359133303744
 20
305.3198035421416
 30
0.0000000000000000
 11
166.9331327460150
 21
305.3198035421416
 31
0.0000000000000000
  0
LINE
  5
1F2
100
AcDbEntity
  8
MAIN0
  6
BYBLOCK
 62
0
100
AcDbLine
 10
168.9331327460150
 20
303.3198035421416
 30
0.0000000000000000
 11
168.9331327460150
 21
291.3198035421416
 31
0.0000000000000000
  0
INSERT
  5
1F3
100
AcDbEntity
  8
MAIN0
  6
BYBLOCK
 62
0
100
AcDbBlockReference
  2
_OPEN
 10
168.9331327460150
 20
305.3198035421416
 30
0.0000000000000000
 41
2.000000000000000
 42
2.000000000000000
 43
2.000000000000000
 50
90.00000000000000
  0
INSERT
  5
1F4
100
AcDbEntity
  8
MAIN0
  6
BYBLOCK
 62
0
100
AcDbBlockReference
  2
_OPEN
 10
168.9331327460150
 20
289.3198035421416
 30
0.0000000000000000
 41
2.000000000000000
 42
2.000000000000000
 43
2.000000000000000
 50
270.0000000000000
  0
LINE
  5
1F5
100
AcDbEntity
  8
MAIN0
  6
BYBLOCK
 62
0
100
AcDbLine
 10
189.8359133303744
 20
289.3198035421416
 30
0.0000000000000000
 11
166.9331327460150
 21
289.3198035421416
 31
0.0000000000000000
  0
MTEXT
  5
1F6
100
AcDbEntity
  8
MAIN0
  6
BYBLOCK
 62
0
100
AcDbMText
 10
166.8831327936987
 20
297.3198035421416
 30
0.0000000000000000
 40
3.099999904632568
 41
0.0000000000000000
 71
     5
 72
     1
  1
\A1;16
 11
6.123233995736766e-017
 21
1.000000000000000
 31
0.0000000000000000
  7
STANDARD
  0
ENDBLK
  5
1F7
100
AcDbEntity
  8
MAIN0
  6
CONTINUOUS
 62
3
100
AcDbBlockEnd
  0
BLOCK
  5
1F9
100
AcDbEntity
  8
MAIN0
  6
CONTINUOUS
 62
3
100
AcDbBlockBegin
  2
*D42
 70
    65
 10
0.0
 20
0.0
 30
0.0
  0
LINE
  5
1FA
100
AcDbEntity
  8
MAIN0
  6
BYBLOCK
 62
0
100
AcDbLine
 10
168.8331327460150
 20
254.4198035421416
 30
0.0000000000000000
 11
168.8331327460150
 21
287.3198035421416
 31
0.0000000000000000
  0
INSERT
  5
1FB
100
AcDbEntity
  8
MAIN0
  6
BYBLOCK
 62
0
100
AcDbBlockReference
  2
_OPEN
 10
168.8331327460150
 20
252.4198035421416
 30
0.0000000000000000
 41
2.000000000000000
 42
2.000000000000000
 43
2.000000000000000
 50
270.0000000000000
  0
INSERT
  5
1FC
100
AcDbEntity
  8
MAIN0
  6
BYBLOCK
 62
0
100
AcDbBlockReference
  2
_OPEN
 10
168.8331327460150
 20
289.3198035421416
 30
0.0000000000000000
 41
2.000000000000000
 42
2.000000000000000
 43
2.000000000000000
 50
90.00000000000000
  0
LINE
  5
1FD
100
AcDbEntity
  8
MAIN0
  6
BYBLOCK
 62
0
100
AcDbLine
 10
189.8359133303744
 20
289.3198035421416
 30
0.0000000000000000
 11
166.8331327460150
 21
289.3198035421416
 31
0.0000000000000000
  0
MTEXT
  5
1FE
100
AcDbEntity
  8
MAIN0
  6
BYBLOCK
 62
0
100
AcDbMText
 10
166.7831327936987
 20
277.0245527515594
 30
0.0000000000000000
 40
3.099999904632568
 41
0.0000000000000000
 71
     5
 72
     1
  1
\A1;MAX 36.9
 11
6.123233995736766e-017
 21
1.000000000000000
 31
0.0000000000000000
  7
STANDARD
  0
ENDBLK
  5
1FF
100
AcDbEntity
  8
MAIN0
  6
CONTINUOUS
 62
3
100
AcDbBlockEnd
  0
BLOCK
  5
201
100
AcDbEntity
  8
MAIN0
  6
CONTINUOUS
 62
3
100
AcDbBlockBegin
  2
*D43
 70
    65
 10
0.0
 20
0.0
 30
0.0
  0
LINE
  5
202
100
AcDbEntity
  8
MAIN0
  6
BYBLOCK
 62
0
100
AcDbLine
 10
429.8891241915313
 20
288.5198035302182
 30
0.0000000000000000
 11
429.8891241915313
 21
278.3101234200298
 31
0.0000000000000000
  0
LINE
  5
203
100
AcDbEntity
  8
MAIN0
  6
BYBLOCK
 62
0
100
AcDbLine
 10
427.8891241915313
 20
280.3101234200298
 30
0.0000000000000000
 11
391.8891241915314
 21
280.3101234200298
 31
0.0000000000000000
  0
INSERT
  5
204
100
AcDbEntity
  8
MAIN0
  6
BYBLOCK
 62
0
100
AcDbBlockReference
  2
_OPEN
 10
429.8891241915313
 20
280.3101234200298
 30
0.0000000000000000
 41
2.000000000000000
 42
2.000000000000000
 43
2.000000000000000
 50
360.0000000000000
  0
INSERT
  5
205
100
AcDbEntity
  8
MAIN0
  6
BYBLOCK
 62
0
100
AcDbBlockReference
  2
_OPEN
 10
389.8891241915314
 20
280.3101234200298
 30
0.0000000000000000
 41
2.000000000000000
 42
2.000000000000000
 43
2.000000000000000
 50
180.0000000000000
  0
LINE
  5
206
100
AcDbEntity
  8
MAIN0
  6
BYBLOCK
 62
0
100
AcDbLine
 10
389.8891241915314
 20
288.5198035302207
 30
0.0000000000000000
 11
389.8891241915314
 21
278.3101234200298
 31
0.0000000000000000
  0
MTEXT
  5
207
100
AcDbEntity
  8
MAIN0
  6
BYBLOCK
 62
0
100
AcDbMText
 10
409.8891241915314
 20
282.3601233723460
 30
0.0000000000000000
 40
3.099999904632568
 41
0.0000000000000000
 71
     5
 72
     1
  1
\A1;40
 11
1.000000000000000
 21
0.0000000000000000
 31
0.0000000000000000
  7
STANDARD
  0
ENDBLK
  5
208
100
AcDbEntity
  8
MAIN0
  6
CONTINUOUS
 62
3
100
AcDbBlockEnd
  0
BLOCK
  5
20E
100
AcDbEntity
  8
MAIN0
  6
CONTINUOUS
 62
3
100
AcDbBlockBegin
  2
*D44
 70
    65
 10
0.0
 20
0.0
 30
0.0
  0
LINE
  5
20F
100
AcDbEntity
  8
MAIN0
  6
BYBLOCK
 62
0
100
AcDbLine
 10
190.6359133422952
 20
279.2533623899614
 30
0.0000000000000000
 11
192.6359133422953
 21
279.2533623899614
 31
0.0000000000000000
  0
INSERT
  5
210
100
AcDbEntity
  8
MAIN0
  6
BYBLOCK
 62
0
100
AcDbBlockReference
  2
_OPEN
 10
190.6359133422952
 20
279.2533623899614
 30
0.0000000000000000
 41
2.000000000000000
 42
2.000000000000000
 43
2.000000000000000
 50
0.0000000000000000
  0
INSERT
  5
211
100
AcDbEntity
  8
MAIN0
  6
BYBLOCK
 62
0
100
AcDbBlockReference
  2
_OPEN
 10
192.6359133422953
 20
279.2533623899614
 30
0.0000000000000000
 41
2.000000000000000
 42
2.000000000000000
 43
2.000000000000000
 50
180.0000000000000
  0
LINE
  5
212
100
AcDbEntity
  8
MAIN0
  6
BYBLOCK
 62
0
100
AcDbLine
 10
188.6359133422952
 20
279.2533623899614
 30
0.0000000000000000
 11
185.4306907356363
 21
279.2533623899614
 31
0.0000000000000000
  0
LINE
  5
213
100
AcDbEntity
  8
MAIN0
  6
BYBLOCK
 62
0
100
AcDbLine
 10
194.6359133422953
 20
279.2533623899614
 30
0.0000000000000000
 11
195.6359133422953
 21
279.2533623899614
 31
0.0000000000000000
  0
LINE
  5
214
100
AcDbEntity
  8
MAIN0
  6
BYBLOCK
 62
0
100
AcDbLine
 10
192.6359133422953
 20
288.5198035302207
 30
0.0000000000000000
 11
192.6359133422953
 21
277.2533623899614
 31
0.0000000000000000
  0
MTEXT
  5
215
100
AcDbEntity
  8
MAIN0
  6
BYBLOCK
 62
0
100
AcDbMText
 10
186.4806905509550
 20
281.3033623422776
 30
0.0000000000000000
 40
3.099999904632568
 41
0.0000000000000000
 71
     5
 72
     1
  1
\A1;2
 11
1.000000000000000
 21
0.0000000000000000
 31
0.0000000000000000
  7
STANDARD
  0
ENDBLK
  5
216
100
AcDbEntity
  8
MAIN0
  6
CONTINUOUS
 62
3
100
AcDbBlockEnd
  0
ENDSEC
  0
SECTION
  2
ENTITIES
  0
DIMENSION
  5
4E
100
AcDbEntity
  8
MAIN0
  6
CONTINUOUS
 62
3
100
AcDbDimension
  2
*D0
 10
45.15521181236463
 20
376.4198035421416
 30
0.0000000000000000
 11
44.65521181236463
 21
250.6198034929678
 31
0.0000000000000000
 70
32
  1
\A1;\U+2205248\H0.903226x;h7
  3
MAIN001
100
AcDbAlignedDimension
 13
84.53591334229527
 23
128.4198035421416
 33
0.0000000000000000
 14
84.53591334229527
 24
376.4198035421416
 34
0.0000000000000000
 50
90.00000000000000
100
AcDbRotatedDimension
1001
ACAD
1000
DSTYLE
1002
{
1070
   173
1070
     1
1070
     6
1000
_OPEN
1070
     7
1000
_OPEN
1070
    41
1040
2.000000
1002
}
  0
DIMENSION
  5
57
100
AcDbEntity
  8
MAIN0
  6
CONTINUOUS
 62
3
100
AcDbDimension
  2
*D1
 10
71.49677866349748
 20
270.4198035421416
 30
0.0000000000000000
 11
70.99677866349748
 21
250.6198034929678
 31
0.0000000000000000
 70
32
  1
\A1;\U+220536\H0.903226x;H7
  3
MAIN001
100
AcDbAlignedDimension
 13
84.53591334229527
 23
234.4198035421416
 33
0.0000000000000000
 14
84.53591334229527
 24
270.4198035421416
 34
0.0000000000000000
 50
90.00000000000000
100
AcDbRotatedDimension
1001
ACAD
1000
DSTYLE
1002
{
1070
   173
1070
     1
1070
     6
1000
_OPEN
1070
     7
1000
_OPEN
1070
    41
1040
2.000000
1002
}
  0
DIMENSION
  5
60
100
AcDbEntity
  8
MAIN0
  6
CONTINUOUS
 62
3
100
AcDbDimension
  2
*D2
 10
84.53591334229532
 20
116.1595715791351
 30
0.0000000000000000
 11
103.1345522519882
 21
116.6595715791351
 31
0.0000000000000000
 70
160
  3
MAIN001
100
AcDbAlignedDimension
 13
114.5359133422953
 23
123.1687830920110
 33
0.0000000000000000
 14
84.53591334229532
 24
128.4198035421416
 34
0.0000000000000000
100
AcDbRotatedDimension
1001
ACAD
1000
DSTYLE
1002
{
1070
   173
1070
     1
1070
     6
1000
_OPEN
1070
     7
1000
_OPEN
1070
    41
1040
2.000000
1002
}
  0
SPLINE
  5
61
100
AcDbEntity
  8
MAIN0
  6
CONTINUOUS
 62
3
100
AcDbSpline
210
0.0000000000000000
220
0.0000000000000000
230
1.000000000000000
 70
     8
 71
     3
 72
    22
 73
    18
 74
     0
 42
1.000000000000000e-007
 43
1.000000000000000e-007
 12
0.3801927564027281
 22
-0.05201273988967614
 32
0.0000000000000000
 13
0.7256377843449826
 23
0.7990773452330302
 33
0.0000000000000000
 40
0.0000000000000000
 40
0.0000000000000000
 40
0.0000000000000000
 40
0.0000000000000000
 40
4.909386513677288
 40
10.39544211419084
 40
15.39445764643070
 40
20.73698443674476
 40
25.18500618114909
 40
31.29442495223461
 40
43.07850668746746
 40
50.15342022915502
 40
65.23904918600582
 40
77.80525125611295
 40
86.45668184698261
 40
98.08375761349929
 40
106.4318834917185
 40
113.3588015245470
 40
118.5554360728236
 40
118.5554360728236
 40
118.5554360728236
 40
118.5554360728236
 10
84.53591334229532
 20
287.4303242335662
 30
0.0000000000000000
 10
85.15808440592244
 20
287.3452073523150
 30
0.0000000000000000
 10
87.56851890212178
 20
286.9182242878687
 30
0.0000000000000000
 10
91.37746017527560
 20
285.1983851990478
 30
0.0000000000000000
 10
95.59222895994103
 20
281.6640474588991
 30
0.0000000000000000
 10
96.59109179234493
 20
276.4800362110500
 30
0.0000000000000000
 10
100.7621274462645
 20
273.0765067180598
 30
0.0000000000000000
 10
105.1605145584752
 20
266.3128053347138
 30
0.0000000000000000
 10
114.8764656352923
 20
268.7768392583440
 30
0.0000000000000000
 10
125.8510387680778
 20
268.9569976022743
 30
0.0000000000000000
 10
137.5567130428967
 20
268.4285009710460
 30
0.0000000000000000
 10
149.6373074192030
 20
267.9058285429252
 30
0.0000000000000000
 10
160.5479478325187
 20
269.1558183886534
 30
0.0000000000000000
 10
170.1723370764874
 20
267.6740783075583
 30
0.0000000000000000
 10
178.9084419583277
 20
269.8295272678932
 30
0.0000000000000000
 10
186.2366468824578
 20
267.3497056739970
 30
0.0000000000000000
 10
189.2789552157414
 20
270.2121804978110
 30
0.0000000000000000
 10
190.5359133422954
 20
271.5963514774720
 30
0.0000000000000000
  0
LINE
  5
62
100
AcDbEntity
  8
MAIN0
  6
CONTINUOUS
 62
3
100
AcDbLine
 10
153.9344552811886
 20
357.9198035421416
 30
0.0000000000000000
 11
153.9344552811886
 21
357.4198035421416
 31
0.0000000000000000
  0
LINE
  5
63
100
AcDbEntity
  8
MAIN0
  6
PHANTOM
 62
3
100
AcDbLine
 10
144.5359133422953
 20
146.9198035421416
 30
0.0000000000000000
 11
144.5359133422953
 21
91.91980354214161
 31
0.0000000000000000
  0
LINE
  5
64
100
AcDbEntity
  8
MAIN0
  6
PHANTOM
 62
3
100
AcDbLine
 10
99.53591334229532
 20
91.91980354214161
 30
0.0000000000000000
 11
144.5359133422953
 21
91.91980354214158
 31
0.0000000000000000
  0
DIMENSION
  5
6D
100
AcDbEntity
  8
MAIN0
  6
CONTINUOUS
 62
3
100
AcDbDimension
  2
*D3
 10
84.53591334229532
 20
103.9728186965693
 30
0.0000000000000000
 11
92.03591334229532
 21
104.4728186965693
 31
0.0000000000000000
 70
32
  3
MAIN001
100
AcDbAlignedDimension
 13
99.53591334229532
 23
126.9198035421416
 33
0.0000000000000000
 14
84.53591334229532
 24
128.4198035421416
 34
0.0000000000000000
100
AcDbRotatedDimension
1001
ACAD
1000
DSTYLE
1002
{
1070
   173
1070
     1
1070
     6
1000
_OPEN
1070
     7
1000
_OPEN
1070
    41
1040
2.000000
1002
}
  0
DIMENSION
  5
76
100
AcDbEntity
  8
MAIN0
  6
CONTINUOUS
 62
3
100
AcDbDimension
  2
*D4
 10
99.53591334229532
 20
103.9728186965693
 30
0.0000000000000000
 11
114.5359133422953
 21
104.4728186965693
 31
0.0000000000000000
 70
32
  3
MAIN001
100
AcDbAlignedDimension
 13
129.5359133422953
 23
126.9198035421416
 33
0.0000000000000000
 14
99.53591334229532
 24
126.9198035421416
 34
0.0000000000000000
100
AcDbRotatedDimension
1001
ACAD
1000
DSTYLE
1002
{
1070
   173
1070
     1
1070
     6
1000
_OPEN
1070
     7
1000
_OPEN
1070
    41
1040
2.000000
1002
}
  0
DIMENSION
  5
7F
100
AcDbEntity
  8
MAIN0
  6
CONTINUOUS
 62
3
100
AcDbDimension
  2
*D5
 10
129.5359133422953
 20
103.9728186965693
 30
0.0000000000000000
 11
160.0359133422953
 21
104.4728186965693
 31
0.0000000000000000
 70
32
  3
MAIN001
100
AcDbAlignedDimension
 13
190.5359133422953
 23
147.4198035421416
 33
0.0000000000000000
 14
129.5359133422953
 24
126.9198035421416
 34
0.0000000000000000
100
AcDbRotatedDimension
1001
ACAD
1000
DSTYLE
1002
{
1070
   173
1070
     1
1070
     6
1000
_OPEN
1070
     7
1000
_OPEN
1070
    41
1040
2.000000
1002
}
  0
DIMENSION
  5
88
100
AcDbEntity
  8
MAIN0
  6
CONTINUOUS
 62
3
100
AcDbDimension
  2
*D6
 10
99.53591334229532
 20
72.95198037048326
 30
0.0000000000000000
 11
122.0359133422953
 21
73.45198037048326
 31
0.0000000000000000
 70
32
  3
MAIN001
100
AcDbAlignedDimension
 13
144.5359133422953
 23
91.91980354214161
 33
0.0000000000000000
 14
99.53591334229532
 24
126.9198035421416
 34
0.0000000000000000
100
AcDbRotatedDimension
1001
ACAD
1000
DSTYLE
1002
{
1070
   173
1070
     1
1070
     6
1000
_OPEN
1070
     7
1000
_OPEN
1070
    41
1040
2.000000
1002
}
  0
DIMENSION
  5
91
100
AcDbEntity
  8
MAIN0
  6
CONTINUOUS
 62
3
100
AcDbDimension
  2
*D7
 10
172.4585734799509
 20
91.91980354214161
 30
0.0000000000000000
 11
171.9585734799509
 21
119.4198035421416
 31
0.0000000000000000
 70
32
  3
MAIN001
100
AcDbAlignedDimension
 13
144.5359133422953
 23
146.9198035421416
 33
0.0000000000000000
 14
144.5359133422953
 24
91.91980354214158
 34
0.0000000000000000
 50
90.00000000000000
100
AcDbRotatedDimension
1001
ACAD
1000
DSTYLE
1002
{
1070
   173
1070
     1
1070
     6
1000
_OPEN
1070
     7
1000
_OPEN
1070
    41
1040
2.000000
1002
}
  0
DIMENSION
  5
9A
100
AcDbEntity
  8
MAIN0
  6
CONTINUOUS
 62
3
100
AcDbDimension
  2
*D8
 10
84.53591334229532
 20
81.26113198416590
 30
0.0000000000000000
 11
137.5359133422953
 21
81.76113198416590
 31
0.0000000000000000
 70
32
  3
MAIN001
100
AcDbAlignedDimension
 13
190.5359133422953
 23
147.4198035421416
 33
0.0000000000000000
 14
84.53591334229532
 24
128.4198035421416
 34
0.0000000000000000
100
AcDbRotatedDimension
1001
ACAD
1000
DSTYLE
1002
{
1070
   173
1070
     1
1070
     6
1000
_OPEN
1070
     7
1000
_OPEN
1070
    41
1040
2.000000
1002
}
  0
DIMENSION
  5
A0
100
AcDbEntity
  8
MAIN0
  6
CONTINUOUS
 62
3
100
AcDbDimension
  2
*D9
 10
409.8891241915289
 20
252.4198035421416
 30
0.0000000000000000
 11
441.4631838183968
 21
265.0423531530162
 31
0.0000000000000000
 70
164
  3
MAIN001
100
AcDbRadialDimension
 15
473.3947609864161
 25
276.7309963404366
 35
0.0000000000000000
1001
ACAD
1000
DSTYLE
1002
{
1070
   173
1070
     1
1070
     6
1000
_OPEN
1070
     7
1000
_OPEN
1070
    41
1040
2.000000
1070
   340
1005
A1
1002
}
  0
LINE
  5
A2
100
AcDbEntity
  8
MAIN0
  6
CONTINUOUS
 62
3
100
AcDbLine
 10
473.3725931933385
 20
276.7888241112203
 30
0.0000000000000000
 11
496.7121038557690
 21
285.7480228498522
 31
0.0000000000000000
  0
LINE
  5
A3
100
AcDbEntity
  8
MAIN0
  6
CONTINUOUS
 62
3
100
AcDbLine
 10
475.0247332680616
 20
278.0657082884674
 30
0.0000000000000000
 11
473.3725931933385
 21
276.7888241112203
 31
0.0000000000000000
  0
LINE
  5
A4
100
AcDbEntity
  8
MAIN0
  6
CONTINUOUS
 62
3
100
AcDbLine
 10
473.3725931933385
 20
276.7888241112203
 30
0.0000000000000000
 11
475.4547748246043
 21
276.9454117321542
 31
0.0000000000000000
  0
LINE
  5
A5
100
AcDbEntity
  8
MAIN0
  6
CONTINUOUS
 62
3
100
AcDbLine
 10
494.6299222245032
 20
285.5914352289183
 30
0.0000000000000000
 11
496.7121038557690
 21
285.7480228498522
 31
0.0000000000000000
  0
LINE
  5
A6
100
AcDbEntity
  8
MAIN0
  6
CONTINUOUS
 62
3
100
AcDbLine
 10
496.7121038557690
 20
285.7480228498522
 30
0.0000000000000000
 11
495.0599637810459
 21
284.4711386726050
 31
0.0000000000000000
  0
MTEXT
  5
A7
100
AcDbEntity
  8
MAIN0
  6
CONTINUOUS
 62
3
100
AcDbMText
 10
482.3059432822032
 20
284.2229357512746
 30
0.0000000000000000
 40
3.099999904632568
 41
0.0000000000000000
 71
     1
 72
     1
  1
{\H0.69x;{25}}
 11
0.9339064234542230
 21
0.3575175411513978
 31
0.0000000000000000
  7
STANDARD
  0
DIMENSION
  5
AE
100
AcDbEntity
  8
MAIN0
  6
CONTINUOUS
 62
3
100
AcDbDimension
  2
*D10
 10
320.7172042283394
 20
179.8018395795069
 30
0.0000000000000000
 11
434.6231547746806
 21
273.2070081050039
 31
0.0000000000000000
 70
163
  3
MAIN001
100
AcDbDiametricDimension
 15
499.0610441547187
 25
325.0377675047762
 35
0.0000000000000000
1001
ACAD
1000
DSTYLE
1002
{
1070
   287
1070
     2
1070
   173
1070
     1
1070
     6
1000
_OPEN
1070
     7
1000
_OPEN
1070
    41
1040
2.000000
1070
   272
1070
     1
1070
    47
1040
0.200000
1070
    48
1040
0.200000
1070
    71
1070
     1
1002
}
  0
DIMENSION
  5
B6
100
AcDbEntity
  8
MAIN0
  6
CONTINUOUS
 62
3
100
AcDbDimension
  2
*D11
 10
544.5501980956003
 20
252.4198035421259
 30
0.0000000000000000
 11
539.4787703581428
 21
217.6963625043420
 31
0.0000000000000000
 70
162
  3
MAIN001
100
AcDb2LineAngularDimension
 13
520.6684925694984
 23
188.4613053884550
 33
0.0000000000000000
 14
519.8024671657140
 24
188.9613053884550
 34
0.0000000000000000
 15
409.8891241915287
 25
252.4198035421416
 35
0.0000000000000000
 16
539.9617332712872
 26
217.5669529817907
 36
0.0000000000000000
1001
ACAD
1000
DSTYLE
1002
{
1070
   173
1070
     1
1070
     6
1000
_OPEN
1070
     7
1000
_OPEN
1070
    41
1040
2.000000
1002
}
  0
DIMENSION
  5
BE
100
AcDbEntity
  8
MAIN0
  6
CONTINUOUS
 62
3
100
AcDbDimension
  2
*D12
 10
496.9444681121644
 20
302.6812297891232
 30
0.0000000000000000
 11
539.4787703581467
 21
287.1432445799262
 31
0.0000000000000000
 70
162
  3
MAIN001
100
AcDb2LineAngularDimension
 13
544.5501980956003
 23
252.4198035421259
 33
0.0000000000000000
 14
409.8891241915287
 24
252.4198035421416
 34
0.0000000000000000
 15
496.0784427083800
 25
302.1812297891232
 35
0.0000000000000000
 16
539.9617332712913
 26
287.2726541024774
 36
0.0000000000000000
1001
ACAD
1000
DSTYLE
1002
{
1070
   173
1070
     1
1070
     6
1000
_OPEN
1070
     7
1000
_OPEN
1070
    41
1040
2.000000
1002
}
  0
DIMENSION
  5
C7
100
AcDbEntity
  8
MAIN0
  6
CONTINUOUS
 62
3
100
AcDbDimension
  2
*D13
 10
496.5308972630249
 20
339.0615766139189
 30
0.0000000000000000
 11
517.1196136506053
 21
334.7006520384277
 31
0.0000000000000000
 70
162
  3
MAIN001
100
AcDb2LineAngularDimension
 13
496.9444681121644
 23
302.6812297891232
 33
0.0000000000000000
 14
496.0784427083800
 24
302.1812297891232
 34
0.0000000000000000
 15
495.8237904818395
 25
338.3544698327312
 35
0.0000000000000000
 16
516.7229369804599
 26
334.3962713239231
 36
0.0000000000000000
1001
ACAD
1000
DSTYLE
1002
{
1070
   173
1070
     1
1070
     6
1000
_OPEN
1070
     7
1000
_OPEN
1070
    41
1040
2.000000
1002
}
  0
DIMENSION
  5
D0
100
AcDbEntity
  8
MAIN0
  6
CONTINUOUS
 62
3
100
AcDbDimension
  2
*D14
 10
409.8891241915289
 20
386.5729299528010
 30
0.0000000000000000
 11
461.6130278751891
 21
377.2923533144008
 31
0.0000000000000000
 70
162
  3
MAIN001
100
AcDb2LineAngularDimension
 13
496.5308972630249
 23
339.0615766139189
 33
0.0000000000000000
 14
495.8237904818395
 24
338.3544698327312
 34
0.0000000000000000
 15
409.8891241915289
 25
385.5729299528010
 35
0.0000000000000000
 16
461.4216861590070
 26
376.8304135481449
 36
0.0000000000000000
1001
ACAD
1000
DSTYLE
1002
{
1070
   173
1070
     1
1070
     6
1000
_OPEN
1070
     7
1000
_OPEN
1070
    41
1040
2.000000
1002
}
  0
DIMENSION
  5
D9
100
AcDbEntity
  8
MAIN0
  6
CONTINUOUS
 62
3
100
AcDbDimension
  2
*D15
 10
348.9191167297139
 20
358.0229542040080
 30
0.0000000000000000
 11
374.9068641086859
 21
382.9753755350606
 31
0.0000000000000000
 70
162
  3
MAIN001
100
AcDb2LineAngularDimension
 13
409.8891241915289
 23
386.5729299528010
 33
0.0000000000000000
 14
409.8891241915289
 24
385.5729299528010
 34
0.0000000000000000
 15
349.4191167297134
 25
357.1569288002232
 35
0.0000000000000000
 16
375.0362736312371
 26
382.4924126219160
 36
0.0000000000000000
1001
ACAD
1000
DSTYLE
1002
{
1070
   173
1070
     1
1070
     6
1000
_OPEN
1070
     7
1000
_OPEN
1070
    41
1040
2.000000
1002
}
  0
DIMENSION
  5
DF
100
AcDbEntity
  8
MAIN0
  6
CONTINUOUS
 62
3
100
AcDbDimension
  2
*D16
 10
409.8891241915289
 20
252.4198035421416
 30
0.0000000000000000
 11
395.2342450477343
 21
215.1977063782153
 31
0.0000000000000000
 70
164
  3
MAIN001
100
AcDbRadialDimension
 15
381.5143518912096
 25
177.6209245605350
 35
0.0000000000000000
1001
ACAD
1000
DSTYLE
1002
{
1070
   173
1070
     1
1070
     6
1000
_OPEN
1070
     7
1000
_OPEN
1070
    41
1040
2.000000
1070
   340
1005
A1
1002
}
  0
DIMENSION
  5
E8
100
AcDbEntity
  8
MAIN0
  6
CONTINUOUS
 62
3
100
AcDbDimension
  2
*D17
 10
393.3891241915289
 20
190.3318813297200
 30
0.0000000000000000
 11
409.8891241915289
 21
190.8318813297200
 31
0.0000000000000000
 70
32
  3
MAIN001
100
AcDbAlignedDimension
 13
426.3891241915289
 23
180.9542741281290
 33
0.0000000000000000
 14
393.3891241915289
 24
182.7332428956265
 34
0.0000000000000000
100
AcDbRotatedDimension
1001
ACAD
1000
DSTYLE
1002
{
1070
   173
1070
     1
1070
     6
1000
_OPEN
1070
     7
1000
_OPEN
1070
    41
1040
2.000000
1002
}
  0
DIMENSION
  5
F1
100
AcDbEntity
  8
MAIN0
  6
CONTINUOUS
 62
3
100
AcDbDimension
  2
*D18
 10
386.3891241915289
 20
107.6893046176741
 30
0.0000000000000000
 11
409.8891241915289
 21
108.1893046176741
 31
0.0000000000000000
 70
32
  3
MAIN001
100
AcDbAlignedDimension
 13
433.3891241915289
 23
122.0665386580498
 33
0.0000000000000000
 14
386.3891241915289
 24
123.3085189798958
 34
0.0000000000000000
100
AcDbRotatedDimension
1001
ACAD
1000
DSTYLE
1002
{
1070
   173
1070
     1
1070
     6
1000
_OPEN
1070
     7
1000
_OPEN
1070
    41
1040
2.000000
1002
}
  0
DIMENSION
  5
FA
100
AcDbEntity
  8
MAIN0
  6
CONTINUOUS
 62
3
100
AcDbDimension
  2
*D19
 10
369.8891241915289
 20
97.92589636109366
 30
0.0000000000000000
 11
409.8891241915289
 21
98.42589636109366
 31
0.0000000000000000
 70
32
  3
MAIN001
100
AcDbAlignedDimension
 13
449.8891241915289
 23
126.9198035421416
 33
0.0000000000000000
 14
369.8891241915289
 24
126.9198035421416
 34
0.0000000000000000
100
AcDbRotatedDimension
1001
ACAD
1000
DSTYLE
1002
{
1070
   173
1070
     1
1070
     6
1000
_OPEN
1070
     7
1000
_OPEN
1070
    41
1040
2.000000
1002
}
  0
LINE
  5
FB
100
AcDbEntity
  8
MAIN0
  6
PHANTOM
 62
3
100
AcDbLine
 10
369.8891241915290
 20
91.91980354214161
 30
0.0000000000000000
 11
449.8891241915289
 21
91.91980354214161
 31
0.0000000000000000
  0
DIMENSION
  5
104
100
AcDbEntity
  8
MAIN0
  6
CONTINUOUS
 62
3
100
AcDbDimension
  2
*D20
 10
265.5156404324182
 20
252.4198035421416
 30
0.0000000000000000
 11
265.0156404324182
 21
189.6698035421416
 31
0.0000000000000000
 70
32
  3
MAIN001
100
AcDbAlignedDimension
 13
369.8891241915290
 23
126.9198035421416
 33
0.0000000000000000
 14
275.7359977808695
 24
252.4198035421416
 34
0.0000000000000000
 50
90.00000000000000
100
AcDbRotatedDimension
1001
ACAD
1000
DSTYLE
1002
{
1070
   173
1070
     1
1070
     6
1000
_OPEN
1070
     7
1000
_OPEN
1070
    41
1040
2.000000
1002
}
  0
DIMENSION
  5
10D
100
AcDbEntity
  8
MAIN0
  6
CONTINUOUS
 62
3
100
AcDbDimension
  2
*D21
 10
252.0447482540126
 20
252.4198035421416
 30
0.0000000000000000
 11
251.5447482540126
 21
176.4340318947824
 31
0.0000000000000000
 70
160
  3
MAIN001
100
AcDbAlignedDimension
 13
369.8891241915290
 23
91.91980354214161
 33
0.0000000000000000
 14
275.7359977808695
 24
252.4198035421416
 34
0.0000000000000000
 50
90.00000000000000
100
AcDbRotatedDimension
1001
ACAD
1000
DSTYLE
1002
{
1070
   173
1070
     1
1070
     6
1000
_OPEN
1070
     7
1000
_OPEN
1070
    41
1040
2.000000
1002
}
  0
DIMENSION
  5
116
100
AcDbEntity
  8
MAIN0
  6
CONTINUOUS
 62
3
100
AcDbDimension
  2
*D22
 10
208.4335062550460
 20
56.74604938701174
 30
0.0000000000000000
 11
207.9335062550460
 21
49.74604938701174
 31
0.0000000000000000
 70
32
  3
MAIN001
100
AcDbAlignedDimension
 13
198.5359213832000
 23
42.74604938701174
 33
0.0000000000000000
 14
198.5359213832000
 24
56.74604938701162
 34
0.0000000000000000
 50
90.00000000000000
100
AcDbRotatedDimension
1001
ACAD
1000
DSTYLE
1002
{
1070
   173
1070
     1
1070
     6
1000
_OPEN
1070
     7
1000
_OPEN
1070
    41
1040
2.000000
1002
}
  0
DIMENSION
  5
11F
100
AcDbEntity
  8
MAIN0
  6
CONTINUOUS
 62
3
100
AcDbDimension
  2
*D23
 10
219.7911258366663
 20
67.24604938701168
 30
0.0000000000000000
 11
219.2911258366663
 21
49.74604938701168
 31
0.0000000000000000
 70
32
  3
MAIN001
100
AcDbAlignedDimension
 13
194.2359213832000
 23
32.24604938701168
 33
0.0000000000000000
 14
194.2359213832000
 24
67.24604938701168
 34
0.0000000000000000
 50
90.00000000000000
100
AcDbRotatedDimension
1001
ACAD
1000
DSTYLE
1002
{
1070
   173
1070
     1
1070
     6
1000
_OPEN
1070
     7
1000
_OPEN
1070
    41
1040
2.000000
1002
}
  0
DIMENSION
  5
129
100
AcDbEntity
  8
MAIN0
  6
CONTINUOUS
 62
3
100
AcDbDimension
  2
*D24
 10
190.5359213832000
 20
15.36827100019107
 30
0.0000000000000000
 11
186.2775409624715
 21
15.86827100019104
 31
0.0000000000000000
 70
160
  3
MAIN001
100
AcDbAlignedDimension
 13
195.5359213832000
 23
32.99660473695715
 33
0.0000000000000000
 14
190.5359213832000
 24
23.87911134664503
 34
0.0000000000000000
100
AcDbRotatedDimension
1001
ACAD
1000
DSTYLE
1002
{
1070
   173
1070
     1
1070
     6
1000
_DOT
1070
     7
1000
_OPEN
1070
    41
1040
2.000000
1070
   287
1070
     0
1002
}
  0
DIMENSION
  5
133
100
AcDbEntity
  8
MAIN0
  6
CONTINUOUS
 62
3
100
AcDbDimension
  2
*D25
 10
195.5359213832000
 20
15.36827100019107
 30
0.0000000000000000
 11
202.0116161138969
 21
15.86827100019107
 31
0.0000000000000000
 70
160
  3
MAIN001
100
AcDbAlignedDimension
 13
198.5359213832000
 23
42.74604938701171
 33
0.0000000000000000
 14
195.5359213832000
 24
32.99660473695715
 34
0.0000000000000000
100
AcDbRotatedDimension
1001
ACAD
1000
DSTYLE
1002
{
1070
   173
1070
     1
1070
     6
1000
_OPEN
1070
     7
1000
_DOT
1070
    41
1040
2.000000
1070
   287
1070
     0
1002
}
  0
LEADER
  5
134
100
AcDbEntity
  8
MAIN0
  6
CONTINUOUS
 62
3
100
AcDbLeader
  3
MAIN001
 73
     0
 75
     1
 40
3.099999904632568
 41
19.14900057220461
 76
     3
 10
390.4643849685079
 20
170.7199302261224
 30
0.0000000000000000
 10
345.8111740506529
 20
108.8506333728957
 30
0.0000000000000000
 10
343.8841741064429
 20
108.8506333728957
 30
0.0000000000000000
340
135
213
0.0000000000000000
223
-0.5000000000000000
233
0.0000000000000000
1001
ACAD
1000
DSTYLE
1002
{
1070
   147
1040
0.0
1070
    77
1070
     1
1070
   173
1070
     1
1070
     6
1000
_OPEN
1070
     7
1000
_OPEN
1002
}
  0
MTEXT
  5
135
102
{ACAD_REACTORS
330
134
102
}
100
AcDbEntity
  8
MAIN0
  6
CONTINUOUS
 62
3
100
AcDbMText
 10
324.7351735342383
 20
109.3506333728957
 30
0.0000000000000000
 40
3.099999904632568
 41
0.0000000000000000
 71
     7
 72
     1
  1
{\H0.92x;{2-Rc1/8}}
 11
1.000000000000000
 21
0.0000000000000000
 31
0.0000000000000000
  7
STANDARD
  0
MTEXT
  5
136
100
AcDbEntity
  8
MAIN0
  6
CONTINUOUS
 62
3
100
AcDbMText
 10
288.4372522538170
 20
108.2805726027222
 30
0.0000000000000000
 40
3.099999904632568
 41
0.0000000000000000
 71
     1
 72
     1
  1
{\H0.94x;{（マルチプレートに取付以外は止栓）}}
 11
1.000000000000000
 21
0.0000000000000000
 31
0.0000000000000000
  7
KNJYOKO
  0
LEADER
  5
137
100
AcDbEntity
  8
MAIN0
  6
CONTINUOUS
 62
3
100
AcDbLeader
  3
MAIN001
 73
     0
 75
     1
 40
3.099999904632568
 41
19.14900057220461
 76
     3
 10
380.1824293371194
 20
131.0095648715332
 30
0.0000000000000000
 10
352.1735986388574
 20
82.17066977700608
 30
0.0000000000000000
 10
350.2465986946473
 20
82.17066977700608
 30
0.0000000000000000
340
138
213
0.0000000000000000
223
-0.5000000000000000
233
0.0000000000000000
1001
ACAD
1000
DSTYLE
1002
{
1070
   147
1040
0.0
1070
    77
1070
     1
1070
   173
1070
     1
1070
     6
1000
_OPEN
1070
     7
1000
_OPEN
1002
}
  0
MTEXT
  5
138
102
{ACAD_REACTORS
330
137
102
}
100
AcDbEntity
  8
MAIN0
  6
CONTINUOUS
 62
3
100
AcDbMText
 10
331.0975981224427
 20
82.67066977700608
 30
0.0000000000000000
 40
3.099999904632568
 41
0.0000000000000000
 71
     7
 72
     1
  1
{\H0.92x;{2-Rc1/4}}
 11
1.000000000000000
 21
0.0000000000000000
 31
0.0000000000000000
  7
STANDARD
  0
LEADER
  5
139
100
AcDbEntity
  8
MAIN0
  6
CONTINUOUS
 62
3
100
AcDbLeader
  3
MAIN001
 73
     0
 74
     0
 75
     1
 40
3.099999904632568
 41
19.84100056982027
 76
     3
 10
511.3654703325208
 20
190.2880963646857
 30
0.0000000000000000
 10
525.6154325213047
 20
148.7133133700946
 30
0.0000000000000000
 10
527.5404324655148
 20
148.7133133700946
 30
0.0000000000000000
340
13A
213
0.0000000000000000
223
-0.5000000000000000
233
0.0000000000000000
1001
ACAD
1000
DSTYLE
1002
{
1070
   147
1040
0.0
1070
    77
1070
     1
1070
   173
1070
     1
1070
     6
1000
_OPEN
1070
     7
1000
_OPEN
1002
}
  0
MTEXT
  5
13A
102
{ACAD_REACTORS
330
139
102
}
100
AcDbEntity
  8
MAIN0
  6
CONTINUOUS
 62
3
100
AcDbMText
 10
527.5414324655147
 20
149.2133133700946
 30
0.0000000000000000
 40
3.099999904632568
 41
0.0000000000000000
 71
     7
 72
     1
  1
{\H0.93x;{2-\U+220510H7}}
 11
1.000000000000000
 21
0.0000000000000000
 31
0.0000000000000000
  7
STANDARD
  0
MTEXT
  5
13B
100
AcDbEntity
  8
MAIN0
  6
CONTINUOUS
 62
3
100
AcDbMText
 10
439.8837706223205
 20
123.4349637385896
 30
0.0000000000000000
 40
4.000000000000000
 41
0.0000000000000000
 71
     1
 72
     1
  1
{\H0.91x;{開\POPEN}}
 11
1.000000000000000
 21
0.0000000000000000
 31
0.0000000000000000
  7
KNJYOKO
  0
MTEXT
  5
13C
100
AcDbEntity
  8
MAIN0
  6
CONTINUOUS
 62
3
100
AcDbMText
 10
380.1989680693251
 20
122.6981115481998
 30
0.0000000000000000
 40
4.000000000000000
 41
0.0000000000000000
 71
     1
 72
     1
  1
{\H0.92x;{閉\PCLOSE}}
 11
1.000000000000000
 21
0.0000000000000000
 31
0.0000000000000000
  7
KNJYOKO
  0
LEADER
  5
13D
100
AcDbEntity
  8
MAIN0
  6
CONTINUOUS
 62
3
100
AcDbLeader
  3
MAIN001
 73
     0
 74
     0
 75
     1
 40
3.099999904632568
 41
14.26100040769575
 76
     3
 10
496.6974255866352
 20
333.4229460823814
 30
0.0000000000000000
 10
549.2624273498593
 20
324.8611300383461
 30
0.0000000000000000
 10
551.1874272940694
 20
324.8611300383461
 30
0.0000000000000000
340
13E
213
0.0000000000000000
223
-0.5000000000000000
233
0.0000000000000000
1001
ACAD
1000
DSTYLE
1002
{
1070
   147
1040
0.0
1070
    77
1070
     1
1070
   173
1070
     1
1070
     6
1000
_OPEN
1070
     7
1000
_OPEN
1002
}
  0
MTEXT
  5
13E
102
{ACAD_REACTORS
330
13D
102
}
100
AcDbEntity
  8
MAIN0
  6
CONTINUOUS
 62
3
100
AcDbMText
 10
551.1884272940694
 20
325.3611300383461
 30
0.0000000000000000
 40
3.099999904632568
 41
0.0000000000000000
 71
     7
 72
     1
  1
{\H0.92x;{4-\U+220511}}
 11
1.000000000000000
 21
0.0000000000000000
 31
0.0000000000000000
  7
STANDARD
  0
LEADER
  5
13F
100
AcDbEntity
  8
MAIN0
  6
CONTINUOUS
 62
3
100
AcDbLeader
  3
MAIN001
 73
     0
 74
     0
 75
     1
 40
3.099999904632568
 41
22.63100065088270
 76
     3
 10
494.4269754127391
 20
298.7780843157325
 30
0.0000000000000000
 10
549.5532819710611
 20
310.8998863128123
 30
0.0000000000000000
 10
551.4782819152712
 20
310.8998863128122
 30
0.0000000000000000
340
140
213
0.0000000000000000
223
-0.5000000000000000
233
0.0000000000000000
1001
ACAD
1000
DSTYLE
1002
{
1070
   147
1040
0.0
1070
    77
1070
     1
1070
   173
1070
     1
1070
     6
1000
_OPEN
1070
     7
1000
_OPEN
1002
}
  0
MTEXT
  5
140
102
{ACAD_REACTORS
330
13F
102
}
100
AcDbEntity
  8
MAIN0
  6
CONTINUOUS
 62
3
100
AcDbMText
 10
551.4792819152711
 20
311.3998863128122
 30
0.0000000000000000
 40
3.099999904632568
 41
0.0000000000000000
 71
     7
 72
     1
  1
{\H0.93x;{6-M8 深15\PDEPTH 15}}
 11
1.000000000000000
 21
0.0000000000000000
 31
0.0000000000000000
  7
KNJYOKO
  0
LEADER
  5
141
100
AcDbEntity
  8
MAIN0
  6
CONTINUOUS
 62
3
100
AcDbLeader
  3
MAIN001
 73
     0
 75
     1
 40
3.099999904632568
 41
13.56900041007998
 76
     3
 10
347.4563568088530
 20
352.8299189251490
 30
0.0000000000000000
 10
330.4104353601013
 20
361.0786270127433
 30
0.0000000000000000
 10
328.4834354158912
 20
361.0786270127433
 30
0.0000000000000000
340
142
213
0.0000000000000000
223
-0.5000000000000000
233
0.0000000000000000
1001
ACAD
1000
DSTYLE
1002
{
1070
   147
1040
0.0
1070
    77
1070
     1
1070
   173
1070
     1
1070
     6
1000
_OPEN
1070
     7
1000
_OPEN
1002
}
  0
MTEXT
  5
142
102
{ACAD_REACTORS
330
141
102
}
100
AcDbEntity
  8
MAIN0
  6
CONTINUOUS
 62
3
100
AcDbMText
 10
314.9144350058112
 20
361.5786270127433
 30
0.0000000000000000
 40
3.099999904632568
 41
0.0000000000000000
 71
     7
 72
     1
  1
{\H0.92x;{6-M10}}
 11
1.000000000000000
 21
0.0000000000000000
 31
0.0000000000000000
  7
STANDARD
  0
LEADER
  5
143
100
AcDbEntity
  8
MAIN0
  6
CONTINUOUS
 62
3
100
AcDbLeader
  3
MAIN001
 73
     0
 75
     1
 40
3.099999904632568
 41
10.77900032901763
 76
     3
 10
111.1819122201027
 20
91.91980354214161
 30
0.0000000000000000
 10
81.85386588267166
 20
59.81001414048301
 30
0.0000000000000000
 10
79.92686593846160
 20
59.81001414048302
 30
0.0000000000000000
340
144
213
0.0000000000000000
223
-0.5000000000000000
233
0.0000000000000000
1001
ACAD
1000
DSTYLE
1002
{
1070
   147
1040
0.0
1070
    77
1070
     1
1070
   173
1070
     1
1070
     6
1000
_OPEN
1070
     7
1000
_OPEN
1002
}
  0
MTEXT
  5
144
102
{ACAD_REACTORS
330
143
102
}
100
AcDbEntity
  8
MAIN0
  6
CONTINUOUS
 62
3
100
AcDbMText
 10
69.14786560944397
 20
60.31001414048302
 30
0.0000000000000000
 40
3.099999904632568
 41
0.0000000000000000
 71
     7
 72
     1
  1
{\H0.91x;{LV-3}}
 11
1.000000000000000
 21
0.0000000000000000
 31
0.0000000000000000
  7
STANDARD
  0
LINE
  5
145
100
AcDbEntity
  8
MAIN0
  6
CONTINUOUS
 62
3
100
AcDbLine
 10
89.63591334229531
 20
270.4198035421416
 30
0.0000000000000000
 11
89.63591334229531
 21
234.4198035421416
 31
0.0000000000000000
  0
DIMENSION
  5
14E
100
AcDbEntity
  8
MAIN0
  6
CONTINUOUS
 62
3
100
AcDbDimension
  2
*D26
 10
84.53591334229532
 20
257.5056748040132
 30
0.0000000000000000
 11
94.97793217776777
 21
258.0056748040132
 31
0.0000000000000000
 70
160
  3
MAIN001
100
AcDbAlignedDimension
 13
89.63591334229531
 23
270.4198035421416
 33
0.0000000000000000
 14
84.53591334229532
 24
376.4198035421416
 34
0.0000000000000000
100
AcDbRotatedDimension
1001
ACAD
1000
DSTYLE
1002
{
1070
   173
1070
     1
1070
     6
1000
_OPEN
1070
     7
1000
_OPEN
1070
    41
1040
2.000000
1070
   287
1070
     0
1002
}
  0
LINE
  5
14F
100
AcDbEntity
  8
MAIN0
  6
CENTER
 62
3
100
AcDbLine
 10
162.4836554312445
 20
314.1698035421416
 30
0.0000000000000000
 11
250.6425828521006
 21
314.1698035421416
 31
0.0000000000000000
  0
LINE
  5
150
100
AcDbEntity
  8
MAIN0
  6
CONTINUOUS
 62
3
100
AcDbLine
 10
196.5859133422953
 20
268.1698035421416
 30
0.0000000000000000
 11
232.5359133422953
 21
268.1698035421416
 31
0.0000000000000000
  0
LINE
  5
151
100
AcDbEntity
  8
MAIN0
  6
CONTINUOUS
 62
3
100
AcDbLine
 10
232.5359133422953
 20
268.1698035421416
 30
0.0000000000000000
 11
232.5359133422953
 21
363.1698035421416
 31
0.0000000000000000
  0
LINE
  5
152
100
AcDbEntity
  8
MAIN0
  6
CENTER
 62
3
100
AcDbLine
 10
162.4836554312445
 20
339.1698035421416
 30
0.0000000000000000
 11
250.6425828521006
 21
339.1698035421416
 31
0.0000000000000000
  0
LINE
  5
153
100
AcDbEntity
  8
MAIN0
  6
CONTINUOUS
 62
3
100
AcDbLine
 10
195.5359133422953
 20
363.1698035421416
 30
0.0000000000000000
 11
232.5359133422953
 21
363.1698035421416
 31
0.0000000000000000
  0
LINE
  5
154
100
AcDbEntity
  8
MAIN0
  6
CONTINUOUS
 62
3
100
AcDbLine
 10
153.9344552811886
 20
357.9198035421416
 30
0.0000000000000000
 11
194.2359133422953
 21
357.9198035421416
 31
0.0000000000000000
  0
LINE
  5
155
100
AcDbEntity
  8
MAIN0
  6
CONTINUOUS
 62
3
100
AcDbLine
 10
194.2359133422953
 20
357.9198035421416
 30
0.0000000000000000
 11
195.5359133422953
 21
357.1692481921957
 31
0.0000000000000000
  0
LINE
  5
156
100
AcDbEntity
  8
MAIN0
  6
HIDDEN
 62
3
100
AcDbLine
 10
199.2359133422953
 20
363.1698035421416
 30
0.0000000000000000
 11
199.2359133422953
 21
268.1698035421416
 31
0.0000000000000000
  0
LINE
  5
157
100
AcDbEntity
  8
MAIN0
  6
HIDDEN
 62
3
100
AcDbLine
 10
199.2359133422953
 20
345.6698035421416
 30
0.0000000000000000
 11
209.2359133422953
 21
345.6698035421416
 31
0.0000000000000000
  0
LINE
  5
158
100
AcDbEntity
  8
MAIN0
  6
HIDDEN
 62
3
100
AcDbLine
 10
199.2359133422953
 20
332.6698035421416
 30
0.0000000000000000
 11
209.2359133422953
 21
332.6698035421416
 31
0.0000000000000000
  0
LINE
  5
159
100
AcDbEntity
  8
MAIN0
  6
HIDDEN
 62
3
100
AcDbLine
 10
199.2359133422953
 20
320.6698035421416
 30
0.0000000000000000
 11
209.2359133422953
 21
320.6698035421416
 31
0.0000000000000000
  0
LINE
  5
15A
100
AcDbEntity
  8
MAIN0
  6
HIDDEN
 62
3
100
AcDbLine
 10
199.2359133422953
 20
307.6698035421416
 30
0.0000000000000000
 11
209.2359133422953
 21
307.6698035421416
 31
0.0000000000000000
  0
LINE
  5
15B
100
AcDbEntity
  8
MAIN0
  6
HIDDEN
 62
3
100
AcDbLine
 10
209.2359133422953
 20
348.6698035421416
 30
0.0000000000000000
 11
232.5359133422953
 21
348.6698035421416
 31
0.0000000000000000
  0
LINE
  5
15C
100
AcDbEntity
  8
MAIN0
  6
HIDDEN
 62
3
100
AcDbLine
 10
209.2359133422953
 20
329.6698035421416
 30
0.0000000000000000
 11
232.5359133422953
 21
329.6698035421416
 31
0.0000000000000000
  0
LINE
  5
15D
100
AcDbEntity
  8
MAIN0
  6
HIDDEN
 62
3
100
AcDbLine
 10
209.2359133422953
 20
323.6698035421416
 30
0.0000000000000000
 11
232.5359133422953
 21
323.6698035421416
 31
0.0000000000000000
  0
LINE
  5
15E
100
AcDbEntity
  8
MAIN0
  6
HIDDEN
 62
3
100
AcDbLine
 10
209.2359133422953
 20
304.6698035421416
 30
0.0000000000000000
 11
232.5359133422953
 21
304.6698035421416
 31
0.0000000000000000
  0
LINE
  5
15F
100
AcDbEntity
  8
MAIN0
  6
HIDDEN
 62
3
100
AcDbLine
 10
209.2359133422953
 20
323.6698035421416
 30
0.0000000000000000
 11
209.2359133422953
 21
304.6698035421416
 31
0.0000000000000000
  0
LINE
  5
160
100
AcDbEntity
  8
MAIN0
  6
HIDDEN
 62
3
100
AcDbLine
 10
209.2359133422953
 20
348.6698035421416
 30
0.0000000000000000
 11
209.2359133422953
 21
329.6698035421416
 31
0.0000000000000000
  0
LINE
  5
161
100
AcDbEntity
  8
MAIN0
  6
HIDDEN
 62
3
100
AcDbLine
 10
173.0359133422953
 20
303.1698035421416
 30
0.0000000000000000
 11
198.5359133422953
 21
303.1698035421416
 31
0.0000000000000000
  0
LINE
  5
162
100
AcDbEntity
  8
MAIN0
  6
HIDDEN
 62
3
100
AcDbLine
 10
173.0359133422953
 20
351.1698035421416
 30
0.0000000000000000
 11
198.5359133422953
 21
351.1698035421416
 31
0.0000000000000000
  0
LINE
  5
163
100
AcDbEntity
  8
MAIN0
  6
HIDDEN
 62
3
100
AcDbLine
 10
198.5359133422953
 20
303.1698035421416
 30
0.0000000000000000
 11
198.5359133422953
 21
351.1698035421416
 31
0.0000000000000000
  0
DIMENSION
  5
16B
100
AcDbEntity
  8
MAIN0
  6
CONTINUOUS
 62
3
100
AcDbDimension
  2
*D27
 10
243.9010223537110
 20
252.4198035421416
 30
0.0000000000000000
 11
243.4010223537110
 21
278.9198035421416
 31
0.0000000000000000
 70
32
  3
MAIN001
100
AcDbAlignedDimension
 13
194.2359133422953
 23
305.4198035421416
 33
0.0000000000000000
 14
205.5610594062607
 24
252.4198035421416
 34
0.0000000000000000
 50
90.00000000000000
100
AcDbRotatedDimension
1001
ACAD
1000
DSTYLE
1002
{
1070
   173
1070
     1
1070
     6
1000
_OPEN
1070
     7
1000
_OPEN
1070
    41
1040
2.000000
1002
}
  0
DIMENSION
  5
174
100
AcDbEntity
  8
MAIN0
  6
CONTINUOUS
 62
3
100
AcDbDimension
  2
*D28
 10
243.9010223537110
 20
314.1698035421416
 30
0.0000000000000000
 11
243.4010223537110
 21
330.4265862145957
 31
0.0000000000000000
 70
160
  3
MAIN001
100
AcDbAlignedDimension
 13
194.2359133422953
 23
305.4198035421416
 33
0.0000000000000000
 14
250.6425828521006
 24
314.1698035421416
 34
0.0000000000000000
 50
90.00000000000000
100
AcDbRotatedDimension
1001
ACAD
1000
DSTYLE
1002
{
1070
   173
1070
     1
1070
     6
1000
_OPEN
1070
     7
1000
_OPEN
1070
    41
1040
2.000000
1070
   287
1070
     0
1002
}
  0
DIMENSION
  5
17D
100
AcDbEntity
  8
MAIN0
  6
CONTINUOUS
 62
3
100
AcDbDimension
  2
*D29
 10
271.2655518352883
 20
363.1698035421416
 30
0.0000000000000000
 11
270.7655518352883
 21
315.6698035421416
 31
0.0000000000000000
 70
32
  3
MAIN001
100
AcDbAlignedDimension
 13
232.5359133422953
 23
268.1698035421416
 33
0.0000000000000000
 14
232.5359133422953
 24
363.1698035421416
 34
0.0000000000000000
 50
90.00000000000000
100
AcDbRotatedDimension
1001
ACAD
1000
DSTYLE
1002
{
1070
   173
1070
     1
1070
     6
1000
_OPEN
1070
     7
1000
_OPEN
1070
    41
1040
2.000000
1002
}
  0
DIMENSION
  5
186
100
AcDbEntity
  8
MAIN0
  6
CONTINUOUS
 62
3
100
AcDbDimension
  2
*D30
 10
257.5964877033181
 20
268.1698035421416
 30
0.0000000000000000
 11
257.0964877033181
 21
291.1698035421416
 31
0.0000000000000000
 70
32
  3
MAIN001
100
AcDbAlignedDimension
 13
250.6425828521006
 23
314.1698035421416
 33
0.0000000000000000
 14
232.5359133422953
 24
268.1698035421416
 34
0.0000000000000000
 50
90.00000000000000
100
AcDbRotatedDimension
1001
ACAD
1000
DSTYLE
1002
{
1070
   173
1070
     1
1070
     6
1000
_OPEN
1070
     7
1000
_OPEN
1070
    41
1040
2.000000
1002
}
  0
DIMENSION
  5
18F
100
AcDbEntity
  8
MAIN0
  6
CONTINUOUS
 62
3
100
AcDbDimension
  2
*D31
 10
257.5964877033181
 20
314.1698035421416
 30
0.0000000000000000
 11
257.0964877033181
 21
326.6698035421416
 31
0.0000000000000000
 70
32
  3
MAIN001
100
AcDbAlignedDimension
 13
250.6425828521006
 23
339.1698035421416
 33
0.0000000000000000
 14
250.6425828521006
 24
314.1698035421416
 34
0.0000000000000000
 50
90.00000000000000
100
AcDbRotatedDimension
1001
ACAD
1000
DSTYLE
1002
{
1070
   173
1070
     1
1070
     6
1000
_OPEN
1070
     7
1000
_OPEN
1070
    41
1040
2.000000
1002
}
  0
DIMENSION
  5
198
100
AcDbEntity
  8
MAIN0
  6
CONTINUOUS
 62
3
100
AcDbDimension
  2
*D32
 10
190.5359133422953
 20
384.4085432311845
 30
0.0000000000000000
 11
211.5359133422953
 21
384.9085432311845
 31
0.0000000000000000
 70
32
  3
MAIN001
100
AcDbAlignedDimension
 13
232.5359133422953
 23
363.1698035421416
 33
0.0000000000000000
 14
190.5359133422953
 24
357.4198035421416
 34
0.0000000000000000
100
AcDbRotatedDimension
1001
ACAD
1000
DSTYLE
1002
{
1070
   173
1070
     1
1070
     6
1000
_OPEN
1070
     7
1000
_OPEN
1070
    41
1040
2.000000
1002
}
  0
MTEXT
  5
199
100
AcDbEntity
  8
MAIN0
  6
CONTINUOUS
 62
3
100
AcDbMText
 10
240.4850377360418
 20
277.4624801763804
 30
0.0000000000000000
 40
3.099999904632568
 41
0.0000000000000000
 71
     1
 72
     1
  1
{\H0.70x;{MAX 53}}
 11
6.123233995736766e-017
 21
1.000000000000000
 31
0.0000000000000000
  7
STANDARD
  0
MTEXT
  5
19A
100
AcDbEntity
  8
MAIN0
  6
CONTINUOUS
 62
3
100
AcDbMText
 10
244.2024284949866
 20
277.4624801763804
 30
0.0000000000000000
 40
3.099999904632568
 41
0.0000000000000000
 71
     1
 72
     1
  1
{\H0.70x;{MIN 49.85}}
 11
6.123233995736766e-017
 21
1.000000000000000
 31
0.0000000000000000
  7
STANDARD
  0
MTEXT
  5
19B
100
AcDbEntity
  8
MAIN0
  6
CONTINUOUS
 62
3
100
AcDbMText
 10
239.9493835914985
 20
317.4224731153220
 30
0.0000000000000000
 40
3.099999904632568
 41
0.0000000000000000
 71
     1
 72
     1
  1
{\H0.70x;{MAX 14.75}}
 11
6.123233995736766e-017
 21
1.000000000000000
 31
0.0000000000000000
  7
STANDARD
  0
MTEXT
  5
19C
100
AcDbEntity
  8
MAIN0
  6
CONTINUOUS
 62
3
100
AcDbMText
 10
244.5719936214774
 20
317.4224731153220
 30
0.0000000000000000
 40
3.099999904632568
 41
0.0000000000000000
 71
     1
 72
     1
  1
{\H0.70x;{MIN 8.75}}
 11
6.123233995736766e-017
 21
1.000000000000000
 31
0.0000000000000000
  7
STANDARD
  0
DIMENSION
  5
1A3
100
AcDbEntity
  8
MAIN0
  6
CONTINUOUS
 62
3
100
AcDbDimension
  2
*D33
 10
485.7601864323989
 20
272.7493933984357
 30
0.0000000000000000
 11
487.2689204998602
 21
262.6070469889187
 31
0.0000000000000000
 70
162
  3
MAIN001
100
AcDb2LineAngularDimension
 13
488.4366277119025
 23
252.4198035421416
 33
0.0000000000000000
 14
409.8891241915285
 24
252.4198035421416
 34
0.0000000000000000
 15
484.7355975818611
 25
272.4748556433607
 35
0.0000000000000000
 16
487.7646429305470
 26
262.6723100850286
 36
0.0000000000000000
1001
ACAD
1000
DSTYLE
1002
{
1070
   173
1070
     1
1070
     6
1000
_OPEN
1070
     7
1000
_OPEN
1070
    41
1040
2.000000
1002
}
  0
LEADER
  5
1A4
100
AcDbEntity
  8
MAIN0
  6
CONTINUOUS
 62
3
100
AcDbLeader
  3
MAIN001
 73
     0
 74
     0
 75
     1
 40
3.099999904632568
 41
40.89600099420548
 76
     3
 10
195.5359133422953
 20
353.4769090763060
 30
0.0000000000000000
 10
233.4206562933057
 20
400.9181543351870
 30
0.0000000000000000
 10
235.3456562375157
 20
400.9181543351870
 30
0.0000000000000000
340
1A5
213
-0.001000000000004775
223
-0.5000000000000000
233
0.0000000000000000
1001
ACAD
1000
DSTYLE
1002
{
1070
   147
1040
0.0
1070
    77
1070
     1
1070
   173
1070
     1
1070
     6
1000
_OPEN
1070
     7
1000
_OPEN
1002
}
  0
MTEXT
  5
1A5
102
{ACAD_REACTORS
330
1A4
102
}
100
AcDbEntity
  8
MAIN0
  6
CONTINUOUS
 62
3
100
AcDbMText
 10
235.3466562375157
 20
404.5181542398195
 30
0.0000000000000000
 40
3.099999904632568
 41
0.0000000000000000
 71
     1
 72
     1
  1
{\H0.94x;{セレーションピッチ 1.5}}
 11
1.000000000000000
 21
0.0000000000000000
 31
0.0000000000000000
  7
KNJYOKO
  0
DIMENSION
  5
1AC
100
AcDbEntity
  8
MAIN0
  6
CONTINUOUS
 62
3
100
AcDbDimension
  2
*D34
 10
104.3637079157044
 20
267.4198035421416
 30
0.0000000000000000
 11
103.8637079157044
 21
252.4198035421416
 31
0.0000000000000000
 70
32
  1
\A1;\U+220530
  3
MAIN001
100
AcDbAlignedDimension
 13
89.63591334229531
 23
237.4198035421416
 33
0.0000000000000000
 14
89.63591334229531
 24
267.4198035421416
 34
0.0000000000000000
 50
90.00000000000000
100
AcDbRotatedDimension
1001
ACAD
1000
DSTYLE
1002
{
1070
   173
1070
     1
1070
     6
1000
_OPEN
1070
     7
1000
_OPEN
1070
    41
1040
2.000000
1002
}
  0
ARC
  5
1AD
100
AcDbEntity
  8
MAIN0
  6
CONTINUOUS
 62
3
100
AcDbCircle
 10
409.8891241915289
 20
252.4198035421416
 30
0.0000000000000000
 40
18.50000000000000
100
AcDbArc
 50
114.8912818304473
 51
425.1087181695523
  0
DIMENSION
  5
1B4
100
AcDbEntity
  8
MAIN0
  6
CONTINUOUS
 62
3
100
AcDbDimension
  2
*D35
 10
409.8891241915289
 20
252.4198035421416
 30
0.0000000000000000
 11
480.1338791579121
 21
240.4816695144025
 31
0.0000000000000000
 70
164
  3
MAIN001
100
AcDbRadialDimension
 15
498.5088738182256
 25
236.7182120272161
 35
0.0000000000000000
1001
ACAD
1000
DSTYLE
1002
{
1070
   173
1070
     1
1070
     6
1000
_OPEN
1070
     7
1000
_OPEN
1070
    41
1040
2.000000
1070
   340
1005
A1
1002
}
  0
DIMENSION
  5
1BD
100
AcDbEntity
  8
MAIN0
  6
CONTINUOUS
 62
3
100
AcDbDimension
  2
*D36
 10
392.3891241915289
 20
398.3850555856699
 30
0.0000000000000000
 11
409.8891241915289
 21
398.8850555856699
 31
0.0000000000000000
 70
32
  3
MAIN001
100
AcDbAlignedDimension
 13
427.3891241915289
 23
363.1698035421417
 33
0.0000000000000000
 14
392.3891241915289
 24
356.7598779564692
 34
0.0000000000000000
100
AcDbRotatedDimension
1001
ACAD
1000
DSTYLE
1002
{
1070
   173
1070
     1
1070
     6
1000
_OPEN
1070
     7
1000
_OPEN
1070
    41
1040
2.000000
1002
}
  0
DIMENSION
  5
1C6
100
AcDbEntity
  8
MAIN0
  6
CONTINUOUS
 62
3
100
AcDbDimension
  2
*D37
 10
377.3860040761012
 20
363.1698035421417
 30
0.0000000000000000
 11
376.8860040761012
 21
315.6698035421417
 31
0.0000000000000000
 70
32
  3
MAIN001
100
AcDbAlignedDimension
 13
392.3891241915289
 23
268.1698035421417
 33
0.0000000000000000
 14
392.3891241915289
 24
363.1698035421417
 34
0.0000000000000000
 50
90.00000000000000
100
AcDbRotatedDimension
1001
ACAD
1000
DSTYLE
1002
{
1070
   173
1070
     1
1070
     6
1000
_OPEN
1070
     7
1000
_OPEN
1070
    41
1040
2.000000
1002
}
  0
LINE
  5
1C7
100
AcDbEntity
  8
MAIN0
  6
CONTINUOUS
 62
3
100
AcDbLine
 10
403.8891241921886
 20
268.1698035421416
 30
0.0000000000000000
 11
392.3891241915289
 21
274.8093316381666
 31
0.0000000000000000
  0
LINE
  5
1C8
100
AcDbEntity
  8
MAIN0
  6
CONTINUOUS
 62
3
100
AcDbLine
 10
415.8891241908691
 20
268.1698035421416
 30
0.0000000000000000
 11
427.3891241915288
 21
274.8093316381667
 31
0.0000000000000000
  0
LEADER
  5
1C9
100
AcDbEntity
  8
MAIN0
  6
CONTINUOUS
 62
3
100
AcDbLeader
  3
MAIN001
 73
     0
 74
     0
 75
     1
 40
3.099999904632568
 41
23.98100055551529
 76
     3
 10
215.5772687390382
 20
342.4855012266331
 30
0.0000000000000000
 10
242.1990070723793
 20
386.3102975164052
 30
0.0000000000000000
 10
244.1240070165893
 20
386.3102975164052
 30
0.0000000000000000
340
1CA
213
-0.001000000000004775
223
-0.5000000000000000
233
0.0000000000000000
1001
ACAD
1000
DSTYLE
1002
{
1070
   147
1040
0.0
1070
    77
1070
     1
1070
   173
1070
     1
1070
     6
1000
_DOT
1070
     7
1000
_DOT
1002
}
  0
MTEXT
  5
1CA
102
{ACAD_REACTORS
330
1C9
102
}
100
AcDbEntity
  8
MAIN0
  6
CONTINUOUS
 62
3
100
AcDbMText
 10
244.1250070165893
 20
389.9102974210377
 30
0.0000000000000000
 40
3.099999904632568
 41
0.0000000000000000
 71
     1
 72
     1
  1
{\H0.93x;{六角穴付ボルト\PM12×35}}
 11
1.000000000000000
 21
0.0000000000000000
 31
0.0000000000000000
  7
KNJYOKO
  0
LEADER
  5
1CB
100
AcDbEntity
  8
MAIN0
  6
CONTINUOUS
 62
3
100
AcDbLeader
  3
MAIN001
 73
     0
 74
     0
 75
     1
 40
3.099999904632568
 41
20.50100047683716
 76
     3
 10
227.5841067643745
 20
343.5770376075824
 30
0.0000000000000000
 10
243.1472881054417
 20
371.7699803417779
 30
0.0000000000000000
 10
245.0722880496517
 20
371.7699803417779
 30
0.0000000000000000
340
1CC
213
-0.001000000000004775
223
-0.5000000000000000
233
0.0000000000000000
1001
ACAD
1000
DSTYLE
1002
{
1070
   147
1040
0.0
1070
    77
1070
     1
1070
   173
1070
     1
1070
     6
1000
_DOT
1070
     7
1000
_DOT
1002
}
  0
MTEXT
  5
1CC
102
{ACAD_REACTORS
330
1CB
102
}
100
AcDbEntity
  8
MAIN0
  6
CONTINUOUS
 62
3
100
AcDbMText
 10
245.0732880496517
 20
375.3699802464105
 30
0.0000000000000000
 40
3.099999904632568
 41
0.0000000000000000
 71
     1
 72
     1
  1
{\H0.93x;{ソフトジョー\PSB08B1}}
 11
1.000000000000000
 21
0.0000000000000000
 31
0.0000000000000000
  7
KNJYOKO
  0
LINE
  5
1CD
100
AcDbEntity
  8
MAIN0
  6
PHANTOM
 62
3
100
AcDbLine
 10
182.5359133422953
 20
196.9198035421307
 30
0.0000000000000000
 11
182.5359133422953
 21
206.4198035421416
 31
0.0000000000000000
  0
LINE
  5
1CE
100
AcDbEntity
  8
MAIN0
  6
PHANTOM
 62
3
100
AcDbLine
 10
182.5359133422953
 20
196.9198035421308
 30
0.0000000000000000
 11
183.5359133422953
 21
195.9198035421308
 31
0.0000000000000000
  0
LINE
  5
1CF
100
AcDbEntity
  8
MAIN0
  6
PHANTOM
 62
3
100
AcDbLine
 10
183.5359133422953
 20
195.9198035421308
 30
0.0000000000000000
 11
191.5359133422952
 21
195.9198035421308
 31
0.0000000000000000
  0
LINE
  5
1D0
100
AcDbEntity
  8
MAIN0
  6
PHANTOM
 62
3
100
AcDbLine
 10
191.5359133422952
 20
195.9198035421308
 30
0.0000000000000000
 11
191.5359133422952
 21
229.2128335706247
 31
0.0000000000000000
  0
LINE
  5
1D1
100
AcDbEntity
  8
MAIN0
  6
PHANTOM
 62
3
100
AcDbLine
 10
183.5359133422952
 20
207.4198035421415
 30
0.0000000000000000
 11
182.5359133422952
 21
206.4198035421415
 31
0.0000000000000000
  0
LINE
  5
1D2
100
AcDbEntity
  8
MAIN0
  6
PHANTOM
 62
3
100
AcDbLine
 10
186.0359133422953
 20
207.4198035421416
 30
0.0000000000000000
 11
183.5359133422953
 21
207.4198035421416
 31
0.0000000000000000
  0
ARC
  5
1D3
100
AcDbEntity
  8
MAIN0
  6
PHANTOM
 62
3
100
AcDbCircle
 10
186.0359133422953
 20
208.4198035421416
 30
0.0000000000000000
 40
1.000000000000000
100
AcDbArc
 50
270.0000000000000
 51
360.0000000000000
  0
LINE
  5
1D4
100
AcDbEntity
  8
MAIN0
  6
PHANTOM
 62
3
100
AcDbLine
 10
187.0359133422952
 20
208.4198035421416
 30
0.0000000000000000
 11
187.0358754884875
 21
235.5786549705332
 31
0.0000000000000000
  0
SPLINE
  5
1D5
100
AcDbEntity
  8
MAIN0
  6
CONTINUOUS
 62
3
100
AcDbSpline
210
0.0000000000000000
220
0.0000000000000000
230
1.000000000000000
 70
     8
 71
     3
 72
    25
 73
    21
 74
     0
 42
1.000000000000000e-007
 43
1.000000000000000e-007
 12
-0.8241386424362815
 22
0.8607070872755571
 32
0.0000000000000000
 13
-0.8507798488046632
 23
-0.5231095960571111
 33
0.0000000000000000
 40
0.0000000000000000
 40
0.0000000000000000
 40
0.0000000000000000
 40
0.0000000000000000
 40
4.239416149444773
 40
9.554603434122214
 40
20.28743943842690
 40
26.04552890805682
 40
41.77671619900384
 40
46.61954053737536
 40
54.83895561854423
 40
62.13341064009912
 40
69.27198495594107
 40
76.78615682815338
 40
85.68451735391199
 40
87.05791884324471
 40
95.44791538404206
 40
97.57398340689336
 40
102.2507807139861
 40
106.8142920412828
 40
112.6563779875937
 40
115.6966195202237
 40
115.6966195202237
 40
115.6966195202237
 40
115.6966195202237
 10
190.5359133422960
 20
233.1865044087833
 30
0.0000000000000000
 10
189.3712911189207
 20
234.4028029173625
 30
0.0000000000000000
 10
186.7465184845159
 20
237.1440412146480
 30
0.0000000000000000
 10
181.1067401631471
 20
229.4103222184120
 30
0.0000000000000000
 10
173.8990761091905
 20
237.1925321978773
 30
0.0000000000000000
 10
163.1902695835036
 20
234.3813789553993
 30
0.0000000000000000
 10
154.3760991737698
 20
235.0074161487208
 30
0.0000000000000000
 10
144.8304359112864
 20
236.2195591155642
 30
0.0000000000000000
 10
138.0237114773624
 20
235.0472894097341
 30
0.0000000000000000
 10
130.5368752303174
 20
236.8224681628438
 30
0.0000000000000000
 10
123.2213830849054
 20
235.5464476732161
 30
0.0000000000000000
 10
115.4085409385317
 20
236.1436152366400
 30
0.0000000000000000
 10
109.3602445800538
 20
235.9962142634060
 30
0.0000000000000000
 10
103.4887336267351
 20
233.5582146195791
 30
0.0000000000000000
 10
102.9399381965588
 20
228.6159020827390
 30
0.0000000000000000
 10
98.91700670754835
 20
225.4001446317257
 30
0.0000000000000000
 10
94.94072419637972
 20
224.6827072444870
 30
0.0000000000000000
 10
91.98895489263941
 20
220.2609554272017
 30
0.0000000000000000
 10
87.93454283400611
 20
218.2000241660646
 30
0.0000000000000000
 10
85.39810542186767
 20
216.6717497298072
 30
0.0000000000000000
 10
84.53591334471412
 20
216.1416232231238
 30
0.0000000000000000
  0
INSERT
  5
1DD
100
AcDbEntity
  8
MAIN0
  6
CONTINUOUS
 62
3
100
AcDbBlockReference
  2
D38
 10
205.5610594062607
 20
252.4198035421416
 30
0.0000000000000000
 50
0.0000000000000000
  0
DIMENSION
  5
1E7
100
AcDbEntity
  8
MAIN0
  6
CONTINUOUS
 62
3
100
AcDbDimension
  2
*D39
 10
191.5359133422952
 20
182.6242147412374
 30
0.0000000000000000
 11
196.5861644217805
 21
183.1242147412374
 31
0.0000000000000000
 70
160
  1
\A1;0.1
  3
MAIN001
100
AcDbAlignedDimension
 13
190.5359133422953
 23
147.4198035421416
 33
0.0000000000000000
 14
191.5359133422952
 24
195.9198035421308
 34
0.0000000000000000
100
AcDbRotatedDimension
1001
ACAD
1000
DSTYLE
1002
{
1070
   173
1070
     1
1070
     6
1000
_OPEN
1070
     7
1000
_OPEN
1070
    41
1040
2.000000
1070
   287
1070
     0
1002
}
  0
INSERT
  5
1EF
100
AcDbEntity
  8
MAIN0
  6
CONTINUOUS
 62
3
100
AcDbBlockReference
  2
D40
 10
205.5610594062607
 20
252.4198035421416
 30
0.0000000000000000
 50
0.0000000000000000
  0
DIMENSION
  5
1F8
100
AcDbEntity
  8
MAIN0
  6
CONTINUOUS
 62
3
100
AcDbDimension
  2
*D41
 10
168.9331327460150
 20
305.3198035421416
 30
0.0000000000000000
 11
168.4331327460150
 21
297.3198035421416
 31
0.0000000000000000
 70
32
  3
MAIN001
100
AcDbAlignedDimension
 13
190.6359133422953
 23
289.3198035421416
 33
0.0000000000000000
 14
190.6359133422953
 24
305.3198035421416
 34
0.0000000000000000
 50
90.00000000000000
100
AcDbRotatedDimension
1001
ACAD
1000
DSTYLE
1002
{
1070
   173
1070
     1
1070
     6
1000
_OPEN
1070
     7
1000
_OPEN
1070
    41
1040
2.000000
1002
}
  0
DIMENSION
  5
200
100
AcDbEntity
  8
MAIN0
  6
CONTINUOUS
 62
3
100
AcDbDimension
  2
*D42
 10
168.8331327460150
 20
252.4198035421416
 30
0.0000000000000000
 11
168.3331327460150
 21
277.0245527515594
 31
0.0000000000000000
 70
160
  1
\A1;MAX 36.9
  3
MAIN001
100
AcDbAlignedDimension
 13
190.6359133422953
 23
289.3198035421416
 33
0.0000000000000000
 14
205.5610594062607
 24
252.4198035421416
 34
0.0000000000000000
 50
90.00000000000000
100
AcDbRotatedDimension
1001
ACAD
1000
DSTYLE
1002
{
1070
   173
1070
     1
1070
     6
1000
_OPEN
1070
     7
1000
_OPEN
1070
    41
1040
2.000000
1002
}
  0
DIMENSION
  5
209
100
AcDbEntity
  8
MAIN0
  6
CONTINUOUS
 62
3
100
AcDbDimension
  2
*D43
 10
429.8891241915313
 20
280.3101234200298
 30
0.0000000000000000
 11
409.8891241915314
 21
280.8101234200298
 31
0.0000000000000000
 70
32
  3
MAIN001
100
AcDbAlignedDimension
 13
389.8891241915314
 23
289.3198035421416
 33
0.0000000000000000
 14
429.8891241915313
 24
289.3198035421391
 34
0.0000000000000000
100
AcDbRotatedDimension
1001
ACAD
1000
DSTYLE
1002
{
1070
   173
1070
     1
1070
     6
1000
_OPEN
1070
     7
1000
_OPEN
1070
    41
1040
2.000000
1002
}
  0
MTEXT
  5
20A
100
AcDbEntity
  8
MAIN0
  6
CONTINUOUS
 62
3
100
AcDbMText
 10
169.1287963530574
 20
269.0182213297751
 30
0.0000000000000000
 40
3.099999904632568
 41
0.0000000000000000
 71
     1
 72
     1
  1
{\H0.67x;{MIN 33.75}}
 11
6.123233995736766e-017
 21
1.000000000000000
 31
0.0000000000000000
  7
STANDARD
  0
LEADER
  5
20B
100
AcDbEntity
  8
MAIN0
  6
CONTINUOUS
 62
3
100
AcDbLeader
  3
MAIN001
 73
     0
 74
     0
 75
     1
 40
3.099999904632568
 41
30.94100071287156
 76
     3
 10
191.5359133422952
 20
218.2824211945663
 30
0.0000000000000000
 10
202.9475171919116
 20
227.8625334645485
 30
0.0000000000000000
 10
204.8725171361216
 20
227.8625334645486
 30
0.0000000000000000
340
20C
213
-0.001000000000004775
223
-0.5000000000000000
233
0.0000000000000000
1001
ACAD
1000
DSTYLE
1002
{
1070
   147
1040
0.0
1070
    77
1070
     1
1070
   173
1070
     1
1070
     6
1000
_OPEN
1070
     7
1000
_OPEN
1002
}
  0
MTEXT
  5
20C
102
{ACAD_REACTORS
330
20B
102
}
100
AcDbEntity
  8
MAIN0
  6
CONTINUOUS
 62
3
100
AcDbMText
 10
204.8735171361217
 20
231.4625333691811
 30
0.0000000000000000
 40
3.099999904632568
 41
0.0000000000000000
 71
     1
 72
     1
  1
{\H0.94x;{スリーブカバー端面}}
 11
1.000000000000000
 21
0.0000000000000000
 31
0.0000000000000000
  7
KNJYOKO
  0
LINE
  5
20D
100
AcDbEntity
  8
MAIN0
  6
CONTINUOUS
 62
3
100
AcDbLine
 10
190.6359133422952
 20
305.4198035421416
 30
0.0000000000000000
 11
190.6359133422952
 21
267.4198035421416
 31
0.0000000000000000
  0
DIMENSION
  5
217
100
AcDbEntity
  8
MAIN0
  6
CONTINUOUS
 62
3
100
AcDbDimension
  2
*D44
 10
190.6359133422952
 20
279.2533623899614
 30
0.0000000000000000
 11
186.4806905509550
 21
279.7533623899614
 31
0.0000000000000000
 70
160
  3
MAIN001
100
AcDbAlignedDimension
 13
192.6359133422953
 23
289.3198035421416
 33
0.0000000000000000
 14
190.6359133422952
 24
305.4198035421416
 34
0.0000000000000000
100
AcDbRotatedDimension
1001
ACAD
1000
DSTYLE
1002
{
1070
   173
1070
     1
1070
     6
1000
_OPEN
1070
     7
1000
_OPEN
1070
    41
1040
2.000000
1070
   287
1070
     0
1002
}
  0
LEADER
  5
218
100
AcDbEntity
  8
MAIN0
  6
CONTINUOUS
 62
3
100
AcDbLeader
  3
MAIN001
 73
     0
 74
     0
 75
     1
 40
3.099999904632568
 41
17.02100039815903
 76
     3
 10
190.5359133422953
 20
159.9784333652669
 30
0.0000000000000000
 10
204.1079574100126
 20
133.4873860624955
 30
0.0000000000000000
 10
206.0329573542227
 20
133.4873860624955
 30
0.0000000000000000
340
219
213
-0.001000000000004775
223
-0.5000000000000000
233
0.0000000000000000
1001
ACAD
1000
DSTYLE
1002
{
1070
   147
1040
0.0
1070
    77
1070
     1
1070
   173
1070
     1
1070
     6
1000
_OPEN
1070
     7
1000
_OPEN
1002
}
  0
MTEXT
  5
219
102
{ACAD_REACTORS
330
218
102
}
100
AcDbEntity
  8
MAIN0
  6
CONTINUOUS
 62
3
100
AcDbMText
 10
206.0339573542227
 20
137.0873859671281
 30
0.0000000000000000
 40
3.099999904632568
 41
0.0000000000000000
 71
     1
 72
     1
  1
{\H0.93x;{ボデー端面}}
 11
1.000000000000000
 21
0.0000000000000000
 31
0.0000000000000000
  7
KNJYOKO
  0
MTEXT
  5
21A
100
AcDbEntity
  8
MAIN0
  6
CONTINUOUS
 62
3
100
AcDbMText
 10
209.4604134048728
 20
44.60142749180810
 30
0.0000000000000000
 40
3.099999904632568
 41
0.0000000000000000
 71
     1
 72
     1
  1
{\H0.70x;{H8/h8}}
 11
6.123233995736766e-017
 21
1.000000000000000
 31
0.0000000000000000
  7
STANDARD
  0
MTEXT
  5
21B
100
AcDbEntity
  8
MAIN0
  6
CONTINUOUS
 62
3
100
AcDbMText
 10
537.8053329139216
 20
87.13189373464883
 30
0.0000000000000000
 40
3.099999904632568
 41
0.0000000000000000
 71
     1
 72
     1
  1
{\H0.67x;{7}}
 11
1.000000000000000
 21
0.0000000000000000
 31
0.0000000000000000
  7
STANDARD
  0
MTEXT
  5
21C
100
AcDbEntity
  8
MAIN0
  6
CONTINUOUS
 62
3
100
AcDbMText
 10
541.8053329139198
 20
120.6318937346485
 30
0.0000000000000000
 40
3.099999904632568
 41
0.0000000000000000
 71
     1
 72
     1
  1
{\H0.88x;{15}}
 11
1.000000000000000
 21
0.0000000000000000
 31
0.0000000000000000
  7
STANDARD
  0
MTEXT
  5
21D
100
AcDbEntity
  8
MAIN0
  6
CONTINUOUS
 62
3
100
AcDbMText
 10
541.8053329139211
 20
113.6318937346485
 30
0.0000000000000000
 40
3.099999904632568
 41
0.0000000000000000
 71
     1
 72
     1
  1
{\H0.90x;{6.3}}
 11
1.000000000000000
 21
0.0000000000000000
 31
0.0000000000000000
  7
STANDARD
  0
MTEXT
  5
21E
100
AcDbEntity
  8
MAIN0
  6
CONTINUOUS
 62
3
100
AcDbMText
 10
538.8053329139239
 20
99.63192706798191
 30
0.0000000000000000
 40
3.099999904632568
 41
0.0000000000000000
 71
     1
 72
     1
  1
{\H0.91x;{3365}}
 11
1.000000000000000
 21
0.0000000000000000
 31
0.0000000000000000
  7
STANDARD
  0
MTEXT
  5
21F
100
AcDbEntity
  8
MAIN0
  6
CONTINUOUS
 62
3
100
AcDbMText
 10
541.8053329139237
 20
105.6319270679819
 30
0.0000000000000000
 40
3.099999904632568
 41
0.0000000000000000
 71
     1
 72
     1
  1
{\H0.88x;{33}}
 11
1.000000000000000
 21
0.0000000000000000
 31
0.0000000000000000
  7
STANDARD
  0
MTEXT
  5
220
100
AcDbEntity
  8
MAIN0
  6
CONTINUOUS
 62
3
100
AcDbMText
 10
541.8053329139227
 20
65.63189373380396
 30
0.0000000000000000
 40
3.099999904632568
 41
0.0000000000000000
 71
     1
 72
     1
  1
{\H0.81x;{27.7}}
 11
1.000000000000000
 21
0.0000000000000000
 31
0.0000000000000000
  7
STANDARD
  0
LINE
  5
221
100
AcDbEntity
  8
MAIN0
  6
CONTINUOUS
 62
3
100
AcDbLine
 10
483.3984359460770
 20
61.53194308611739
 30
0.0000000000000000
 11
563.8053329139234
 21
61.53194308611739
 31
0.0000000000000000
  0
MTEXT
  5
222
100
AcDbEntity
  8
MAIN0
  6
CONTINUOUS
 62
3
100
AcDbMText
 10
486.6774761102738
 20
121.8951877175003
 30
0.0000000000000000
 40
2.499999046325684
 41
0.0000000000000000
 71
     1
 72
     1
  1
{\H0.75x;{PLUNGER STROKE}}
 11
1.000000000000000
 21
0.0000000000000000
 31
0.0000000000000000
  7
STANDARD
  0
MTEXT
  5
223
100
AcDbEntity
  8
MAIN0
  6
CONTINUOUS
 62
3
100
AcDbMText
 10
486.6774761102738
 20
118.7951882897049
 30
0.0000000000000000
 40
2.399999618530273
 41
0.0000000000000000
 71
     1
 72
     1
  1
{\H0.93x;{プランジャストロ－ク}}
 11
1.000000000000000
 21
0.0000000000000000
 31
0.0000000000000000
  7
KNJYOKO
  0
MTEXT
  5
224
100
AcDbEntity
  8
MAIN0
  6
CONTINUOUS
 62
3
100
AcDbMText
 10
486.6774761102738
 20
114.8951877175003
 30
0.0000000000000000
 40
2.499999046325684
 41
0.0000000000000000
 71
     1
 72
     1
  1
{\H0.75x;{JAW STROKE (IN DIA)}}
 11
1.000000000000000
 21
0.0000000000000000
 31
0.0000000000000000
  7
STANDARD
  0
MTEXT
  5
225
100
AcDbEntity
  8
MAIN0
  6
CONTINUOUS
 62
3
100
AcDbMText
 10
486.6774761102738
 20
111.7951882897049
 30
0.0000000000000000
 40
2.399999618530273
 41
0.0000000000000000
 71
     1
 72
     1
  1
{\H0.94x;{ジョーストローク(直径で)}}
 11
1.000000000000000
 21
0.0000000000000000
 31
0.0000000000000000
  7
KNJYOKO
  0
MTEXT
  5
226
100
AcDbEntity
  8
MAIN0
  6
CONTINUOUS
 62
3
100
AcDbMText
 10
486.6774761102746
 20
91.53185533784188
 30
0.0000000000000000
 40
2.500000000000000
 41
0.0000000000000000
 71
     1
 72
     1
  1
{\H0.63x;{MAX PERMISSIBLE AIR PRESS}}
 11
1.000000000000000
 21
0.0000000000000000
 31
0.0000000000000000
  7
STANDARD
  0
MTEXT
  5
227
100
AcDbEntity
  8
MAIN0
  6
CONTINUOUS
 62
3
100
AcDbMText
 10
486.8094607783518
 20
88.43188402267560
 30
0.0000000000000000
 40
2.399999618530273
 41
0.0000000000000000
 71
     1
 72
     1
  1
{\H0.93x;{許容最大エア圧力}}
 11
1.000000000000000
 21
0.0000000000000000
 31
0.0000000000000000
  7
KNJYOKO
  0
MTEXT
  5
228
100
AcDbEntity
  8
MAIN0
  6
CONTINUOUS
 62
3
100
AcDbMText
 10
486.6774761102743
 20
68.03193697392112
 30
0.0000000000000000
 40
2.499999046325684
 41
0.0000000000000000
 71
     1
 72
     1
  1
{\H0.73x;{MASS}}
 11
1.000000000000000
 21
0.0000000000000000
 31
0.0000000000000000
  7
STANDARD
  0
MTEXT
  5
229
100
AcDbEntity
  8
MAIN0
  6
CONTINUOUS
 62
3
100
AcDbMText
 10
486.6774761102743
 20
64.93193754612571
 30
0.0000000000000000
 40
2.399999618530273
 41
0.0000000000000000
 71
     1
 72
     1
  1
{\H0.89x;{質量\P}
 11
1.000000000000000
 21
0.0000000000000000
 31
0.0000000000000000
  7
KNJYOKO
  0
MTEXT
  5
22A
100
AcDbEntity
  8
MAIN0
  6
CONTINUOUS
 62
3
100
AcDbMText
 10
512.5773048795077
 20
97.53181104371470
 30
0.0000000000000000
 40
2.500000000000000
 41
0.0000000000000000
 71
     7
 72
     1
  1
{( 6 Kgf/cm}
 11
1.000000000000000
 21
0.0000000000000000
 31
0.0000000000000000
  7
STANDARD
  0
MTEXT
  5
22B
100
AcDbEntity
  8
MAIN0
  6
CONTINUOUS
 62
3
100
AcDbMText
 10
527.5773048795077
 20
98.78181104371470
 30
0.0000000000000000
 40
1.250000000000000
 41
0.0000000000000000
 71
     7
 72
     1
  1
{2}
 11
1.000000000000000
 21
0.0000000000000000
 31
0.0000000000000000
  7
STANDARD
  0
MTEXT
  5
22C
100
AcDbEntity
  8
MAIN0
  6
CONTINUOUS
 62
3
100
AcDbMText
 10
528.3273048795077
 20
97.53181104371470
 30
0.0000000000000000
 40
2.500000000000000
 41
0.0000000000000000
 71
     7
 72
     1
  1
{)}
 11
1.000000000000000
 21
0.0000000000000000
 31
0.0000000000000000
  7
STANDARD
  0
MTEXT
  5
22D
100
AcDbEntity
  8
MAIN0
  6
CONTINUOUS
 62
3
100
AcDbMText
 10
486.6774367463002
 20
100.0318110437147
 30
0.0000000000000000
 40
2.500000000000000
 41
0.0000000000000000
 71
     1
 72
     1
  1
{\H0.59x;{(エア圧 0.6 MPa時)}}
 11
1.000000000000000
 21
0.0000000000000000
 31
0.0000000000000000
  7
KNJYOKO
  0
MTEXT
  5
22E
100
AcDbEntity
  8
MAIN0
  6
CONTINUOUS
 62
3
100
AcDbMText
 10
486.6774761102739
 20
107.0318553378417
 30
0.0000000000000000
 40
2.500000000000000
 41
0.0000000000000000
 71
     1
 72
     1
  1
{\H0.63x;{MAX GRIPPING FORCE}}
 11
1.000000000000000
 21
0.0000000000000000
 31
0.0000000000000000
  7
STANDARD
  0
MTEXT
  5
22F
100
AcDbEntity
  8
MAIN0
  6
CONTINUOUS
 62
3
100
AcDbMText
 10
486.6774761102739
 20
103.9318549563719
 30
0.0000000000000000
 40
2.399999618530273
 41
0.0000000000000000
 71
     1
 72
     1
  1
{\H0.93x;{最大把握力　　}}
 11
1.000000000000000
 21
0.0000000000000000
 31
0.0000000000000000
  7
KNJYOKO
  0
MTEXT
  5
230
100
AcDbEntity
  8
MAIN0
  6
CONTINUOUS
 62
3
100
AcDbMText
 10
486.6774367463002
 20
97.03184437704806
 30
0.0000000000000000
 40
2.500000000000000
 41
0.0000000000000000
 71
     1
 72
     1
  1
{\H0.62x;{(ON AIR PRESSURE OF 0.6 MPa)}}
 11
1.000000000000000
 21
0.0000000000000000
 31
0.0000000000000000
  7
STANDARD
  0
LINE
  5
231
100
AcDbEntity
  8
MAIN0
  6
CONTINUOUS
 62
3
100
AcDbLine
 10
563.8053329139198
 20
132.5318938300163
 30
0.0000000000000000
 11
483.4719995805866
 21
132.5318938300163
 31
0.0000000000000000
  0
LINE
  5
232
100
AcDbEntity
  8
MAIN0
  6
CONTINUOUS
 62
3
100
AcDbLine
 10
563.8053329139198
 20
122.5318938300163
 30
0.0000000000000000
 11
483.4719995805862
 21
122.5318938300163
 31
0.0000000000000000
  0
LINE
  5
233
100
AcDbEntity
  8
MAIN0
  6
CONTINUOUS
 62
3
100
AcDbLine
 10
563.8053329139193
 20
115.5318938300162
 30
0.0000000000000000
 11
483.4719995805862
 21
115.5318938300162
 31
0.0000000000000000
  0
LINE
  5
234
100
AcDbEntity
  8
MAIN0
  6
CONTINUOUS
 62
3
100
AcDbLine
 10
563.8053329139207
 20
108.5318938300162
 30
0.0000000000000000
 11
483.4719995805862
 21
108.5318938300162
 31
0.0000000000000000
  0
LINE
  5
235
100
AcDbEntity
  8
MAIN0
  6
CONTINUOUS
 62
3
100
AcDbLine
 10
563.8053329139216
 20
93.53189383001626
 30
0.0000000000000000
 11
483.4719995805882
 21
93.53189383001626
 31
0.0000000000000000
  0
LINE
  5
236
100
AcDbEntity
  8
MAIN0
  6
CONTINUOUS
 62
3
100
AcDbLine
 10
563.8053329139193
 20
83.53189383001637
 30
0.0000000000000000
 11
483.4719995805889
 21
83.53189383001637
 31
0.0000000000000000
  0
LINE
  5
237
100
AcDbEntity
  8
MAIN0
  6
CONTINUOUS
 62
3
100
AcDbLine
 10
563.8053329139229
 20
68.53189383001620
 30
0.0000000000000000
 11
483.4719995805866
 21
68.53189383001620
 31
0.0000000000000000
  0
LINE
  5
238
100
AcDbEntity
  8
MAIN0
  6
CONTINUOUS
 62
3
100
AcDbLine
 10
533.8053329139193
 20
122.5318938300163
 30
0.0000000000000000
 11
533.8053329139229
 21
61.53194308611739
 31
0.0000000000000000
  0
LINE
  5
239
100
AcDbEntity
  8
MAIN0
  6
CONTINUOUS
 62
3
100
AcDbLine
 10
563.8053329139193
 20
132.5318938300162
 30
0.0000000000000000
 11
563.8053329139236
 21
61.53194308611739
 31
0.0000000000000000
  0
LINE
  5
23A
100
AcDbEntity
  8
MAIN0
  6
CONTINUOUS
 62
3
100
AcDbLine
 10
483.4719995805859
 20
132.5318938300162
 30
0.0000000000000000
 11
483.4719995805903
 21
61.53194308611731
 31
0.0000000000000000
  0
MTEXT
  5
23B
100
AcDbEntity
  8
MAIN0
  6
CONTINUOUS
 62
4
100
AcDbMText
 10
548.8053329139198
 20
119.3318930670765
 30
0.0000000000000000
 40
2.799999237060547
 41
0.0000000000000000
 71
     1
 72
     1
  1
{\H0.58x;{　　　　ｍｍ}}
 11
1.000000000000000
 21
0.0000000000000000
 31
0.0000000000000000
  7
KNJYOKO
  0
MTEXT
  5
23C
100
AcDbEntity
  8
MAIN0
  6
CONTINUOUS
 62
4
100
AcDbMText
 10
548.8053329139211
 20
112.3318930670765
 30
0.0000000000000000
 40
2.799999237060547
 41
0.0000000000000000
 71
     1
 72
     1
  1
{\H0.58x;{　　　　ｍｍ}}
 11
1.000000000000000
 21
0.0000000000000000
 31
0.0000000000000000
  7
KNJYOKO
  0
MTEXT
  5
23D
100
AcDbEntity
  8
MAIN0
  6
CONTINUOUS
 62
4
100
AcDbMText
 10
535.8053329139239
 20
99.33192640040988
 30
0.0000000000000000
 40
2.799999237060547
 41
0.0000000000000000
 71
     1
 72
     1
  1
{\H0.60x;{(}}
 11
1.000000000000000
 21
0.0000000000000000
 31
0.0000000000000000
  7
STANDARD
  0
MTEXT
  5
23E
100
AcDbEntity
  8
MAIN0
  6
CONTINUOUS
 62
4
100
AcDbMText
 10
547.8053329139239
 20
99.33192640040988
 30
0.0000000000000000
 40
2.799999237060547
 41
0.0000000000000000
 71
     1
 72
     1
  1
{\H0.60x;{　　　ｋｇｆ)}}
 11
1.000000000000000
 21
0.0000000000000000
 31
0.0000000000000000
  7
KNJYOKO
  0
MTEXT
  5
23F
100
AcDbEntity
  8
MAIN0
  6
CONTINUOUS
 62
4
100
AcDbMText
 10
548.8053329139237
 20
104.3319264004099
 30
0.0000000000000000
 40
2.799999237060547
 41
0.0000000000000000
 71
     1
 72
     1
  1
{\H0.58x;{　　　　ｋＮ}}
 11
1.000000000000000
 21
0.0000000000000000
 31
0.0000000000000000
  7
KNJYOKO
  0
MTEXT
  5
240
100
AcDbEntity
  8
MAIN0
  6
CONTINUOUS
 62
4
100
AcDbMText
 10
535.8053329139216
 20
86.83189306707681
 30
0.0000000000000000
 40
2.799999237060547
 41
0.0000000000000000
 71
     1
 72
     1
  1
{\H0.60x;{(}}
 11
1.000000000000000
 21
0.0000000000000000
 31
0.0000000000000000
  7
STANDARD
  0
MTEXT
  5
241
100
AcDbEntity
  8
MAIN0
  6
CONTINUOUS
 62
4
100
AcDbMText
 10
548.8053329139216
 20
90.83189306707681
 30
0.0000000000000000
 40
2.799999237060547
 41
0.0000000000000000
 71
     1
 72
     1
  1
{\H0.58x;{　　　ＭＰａ}}
 11
1.000000000000000
 21
0.0000000000000000
 31
0.0000000000000000
  7
KNJYOKO
  0
MTEXT
  5
242
100
AcDbEntity
  8
MAIN0
  6
CONTINUOUS
 62
4
100
AcDbMText
 10
559.8586287472872
 20
87.24229785823872
 30
0.0000000000000000
 40
2.000000000000000
 41
0.0000000000000000
 71
     1
 72
     1
  1
{\H0.81x;{2}}
 11
1.000000000000000
 21
0.0000000000000000
 31
0.0000000000000000
  7
STANDARD
  0
MTEXT
  5
243
100
AcDbEntity
  8
MAIN0
  6
CONTINUOUS
 62
4
100
AcDbMText
 10
547.8053329139216
 20
86.83189306707681
 30
0.0000000000000000
 40
2.799999237060547
 41
0.0000000000000000
 71
     1
 72
     1
  1
{\H0.62x;{ｋｇｆ／ｃｍ )}}
 11
1.000000000000000
 21
0.0000000000000000
 31
0.0000000000000000
  7
KNJYOKO
  0
MTEXT
  5
244
100
AcDbEntity
  8
MAIN0
  6
CONTINUOUS
 62
4
100
AcDbMText
 10
548.8053329139232
 20
65.33194232317749
 30
0.0000000000000000
 40
2.799999237060547
 41
0.0000000000000000
 71
     1
 72
     1
  1
{\H0.58x;{　　　　ｋｇ}}
 11
1.000000000000000
 21
0.0000000000000000
 31
0.0000000000000000
  7
KNJYOKO
  0
MTEXT
  5
245
100
AcDbEntity
  8
MAIN0
  6
CONTINUOUS
 62
3
100
AcDbMText
 10
505.5402471875324
 20
130.8920183825984
 30
0.0000000000000000
 40
3.100000381469727
 41
0.0000000000000000
 71
     1
 72
     1
  1
{\H0.94x;{SPECIFICATIONS}}
 11
1.000000000000000
 21
0.0000000000000000
 31
0.0000000000000000
  7
STANDARD
  0
MTEXT
  5
246
100
AcDbEntity
  8
MAIN0
  6
CONTINUOUS
 62
3
100
AcDbMText
 10
515.3434402765558
 20
126.8474828751301
 30
0.0000000000000000
 40
3.100000381469727
 41
0.0000000000000000
 71
     1
 72
     1
  1
{\H0.93x;{仕　　　様}}
 11
1.000000000000000
 21
0.0000000000000000
 31
0.0000000000000000
  7
KNJYOKO
  0
MTEXT
  5
247
100
AcDbEntity
  8
MAIN0
  6
CONTINUOUS
 62
3
100
AcDbMText
 10
486.6774761102766
 20
81.53185533784176
 30
0.0000000000000000
 40
2.000000000000000
 41
0.0000000000000000
 71
     1
 72
     1
  1
{\H0.63x;{AIR CONSUMPTION (PER 10mm OF PLUNGER }}
 11
1.000000000000000
 21
0.0000000000000000
 31
0.0000000000000000
  7
STANDARD
  0
MTEXT
  5
248
100
AcDbEntity
  8
MAIN0
  6
CONTINUOUS
 62
3
100
AcDbMText
 10
486.6774761102768
 20
74.93185495637204
 30
0.0000000000000000
 40
2.399999618530273
 41
0.0000000000000000
 71
     1
 72
     1
  1
{\H0.92x;{空気消費量}}
 11
1.000000000000000
 21
0.0000000000000000
 31
0.0000000000000000
  7
KNJYOKO
  0
MTEXT
  5
249
100
AcDbEntity
  8
MAIN0
  6
CONTINUOUS
 62
3
100
AcDbMText
 10
486.6774761102766
 20
72.03185533784176
 30
0.0000000000000000
 40
2.500000000000000
 41
0.0000000000000000
 71
     1
 72
     1
  1
{\H0.59x;{(プランジャストローク10mm当り圧力0.6MPa時)}}
 11
1.000000000000000
 21
0.0000000000000000
 31
0.0000000000000000
  7
KNJYOKO
  0
MTEXT
  5
24A
100
AcDbEntity
  8
MAIN0
  6
CONTINUOUS
 62
3
100
AcDbMText
 10
486.6774761102766
 20
78.53185533784176
 30
0.0000000000000000
 40
2.000000000000000
 41
0.0000000000000000
 71
     1
 72
     1
  1
{\H0.62x;{STROKE ON PRESSURE OF 0.6MPa)}}
 11
1.000000000000000
 21
0.0000000000000000
 31
0.0000000000000000
  7
STANDARD
  0
MTEXT
  5
24B
100
AcDbEntity
  8
MAIN0
  6
CONTINUOUS
 62
4
100
AcDbMText
 10
548.8053329139220
 20
77.33189306708039
 30
0.0000000000000000
 40
2.799999237060547
 41
0.0000000000000000
 71
     1
 72
     1
  1
{\H0.58x;{　　　　Ｎ}}
 11
1.000000000000000
 21
0.0000000000000000
 31
0.0000000000000000
  7
KNJYOKO
  0
MTEXT
  5
24C
100
AcDbEntity
  8
MAIN0
  6
CONTINUOUS
 62
3
100
AcDbMText
 10
541.8053329139216
 20
92.13189373464883
 30
0.0000000000000000
 40
3.099999904632568
 41
0.0000000000000000
 71
     1
 72
     1
  1
{\H0.76x;{0.7}}
 11
1.000000000000000
 21
0.0000000000000000
 31
0.0000000000000000
  7
STANDARD
  0
MTEXT
  5
24D
100
AcDbEntity
  8
MAIN0
  6
CONTINUOUS
 62
3
100
AcDbMText
 10
541.8053329139220
 20
77.63189373465241
 30
0.0000000000000000
 40
3.099999904632568
 41
0.0000000000000000
 71
     1
 72
     1
  1
{\H0.81x;{1.81}}
 11
1.000000000000000
 21
0.0000000000000000
 31
0.0000000000000000
  7
STANDARD
  0
SPLINE
  5
24E
100
AcDbEntity
  8
MAIN0
  6
CONTINUOUS
 62
3
100
AcDbSpline
210
0.0000000000000000
220
0.0000000000000000
230
1.000000000000000
 70
     8
 71
     3
 72
    14
 73
    10
 74
     0
 42
1.000000000000000e-007
 43
1.000000000000000e-007
 12
1.205313937519350
 22
0.3012197250382656
 32
0.0000000000000000
 13
0.9118704780844382
 23
0.7328372388451498
 33
0.0000000000000000
 40
0.0000000000000000
 40
0.0000000000000000
 40
0.0000000000000000
 40
0.0000000000000000
 40
0.5828484074954654
 40
2.017389827489209
 40
3.123506893394179
 40
4.885508420049012
 40
6.048697447303496
 40
6.384151807376483
 40
6.831490023551860
 40
6.831490023551860
 40
6.831490023551860
 40
6.831490023551860
 10
559.5124645230753
 20
74.74408729385721
 30
0.0000000000000000
 10
559.7466362927471
 20
74.80260910620547
 30
0.0000000000000000
 10
560.5571656515743
 20
75.00516830924954
 30
0.0000000000000000
 10
561.0888922920373
 20
76.16480961055243
 30
0.0000000000000000
 10
561.2276994193627
 20
78.67298909768010
 30
0.0000000000000000
 10
559.9794538634299
 20
76.24684062726675
 30
0.0000000000000000
 10
559.8884463287310
 20
74.34224868878039
 30
0.0000000000000000
 10
560.7420788780448
 20
74.63712043718476
 30
0.0000000000000000
 10
560.9800140249593
 20
74.82834028724057
 30
0.0000000000000000
 10
561.1159855293090
 20
74.93761565496453
 30
0.0000000000000000
  0
MTEXT
  5
24F
100
AcDbEntity
  8
MAIN0
  6
CONTINUOUS
 62
3
100
AcDbMText
 10
286.4065428499222
 20
103.8016671211693
 30
0.0000000000000000
 40
3.099999904632568
 41
0.0000000000000000
 71
     1
 72
     1
  1
{\H0.71x;{(WHEN SETTING ON MULTI-PLATE,\P THIS SOCKET SET SCREW MUST BE\P TAKEN OFF.)}}
 11
1.000000000000000
 21
0.0000000000000000
 31
0.0000000000000000
  7
STANDARD
  0
MTEXT
  5
250
100
AcDbEntity
  8
MAIN0
  6
CONTINUOUS
 62
3
100
AcDbMText
 10
204.3652835881063
 20
131.7225616912293
 30
0.0000000000000000
 40
3.099999904632568
 41
0.0000000000000000
 71
     1
 72
     1
  1
{\H0.71x;{BODY SURFACE}}
 11
1.000000000000000
 21
0.0000000000000000
 31
0.0000000000000000
  7
STANDARD
  0
MTEXT
  5
251
100
AcDbEntity
  8
MAIN0
  6
CONTINUOUS
 62
3
100
AcDbMText
 10
204.9343735748651
 20
226.8172759379384
 30
0.0000000000000000
 40
3.099999904632568
 41
0.0000000000000000
 71
     1
 72
     1
  1
{\H0.71x;{SLEEVE COVER\P       SURFACE}}
 11
1.000000000000000
 21
0.0000000000000000
 31
0.0000000000000000
  7
STANDARD
  0
MTEXT
  5
252
100
AcDbEntity
  8
MAIN0
  6
CONTINUOUS
 62
3
100
AcDbMText
 10
239.0789042732956
 20
400.0618766645263
 30
0.0000000000000000
 40
3.000000000000000
 41
0.0000000000000000
 71
     1
 72
     1
  1
{\H0.61x;{SERRATION PITCH 1.5}}
 11
1.000000000000000
 21
0.0000000000000000
 31
0.0000000000000000
  7
STANDARD
  0
MTEXT
  5
253
100
AcDbEntity
  8
MAIN0
  6
CONTINUOUS
 62
3
100
AcDbMText
 10
240.7101809522902
 20
393.7286893525362
 30
0.0000000000000000
 40
3.000000000000000
 41
0.0000000000000000
 71
     1
 72
     1
  1
{\H0.63x;{HEX SOCKET HEAD CAP SCREW}}
 11
1.000000000000000
 21
0.0000000000000000
 31
0.0000000000000000
  7
STANDARD
  0
MTEXT
  5
254
100
AcDbEntity
  8
MAIN0
  6
CONTINUOUS
 62
3
100
AcDbMText
 10
245.3038070239438
 20
379.0933476680006
 30
0.0000000000000000
 40
3.000000000000000
 41
0.0000000000000000
 71
     1
 72
     1
  1
{\H0.63x;{SOFT JAW}}
 11
1.000000000000000
 21
0.0000000000000000
 31
0.0000000000000000
  7
STANDARD
  0
LINE
  5
255
100
AcDbEntity
  8
MAIN0
  6
CENTER
 62
3
100
AcDbLine
 10
275.7359977808695
 20
252.4198035421416
 30
0.0000000000000000
 11
545.6521044952305
 21
252.4198035421416
 31
0.0000000000000000
  0
ARC
  5
256
100
AcDbEntity
  8
MAIN0
  6
CONTINUOUS
 62
3
100
AcDbCircle
 10
409.8891241915289
 20
252.4198035421416
 30
0.0000000000000000
 40
124.0000000000003
100
AcDbArc
 50
288.8190633689812
 51
611.1809366310018
  0
LINE
  5
257
100
AcDbEntity
  8
MAIN0
  6
CONTINUOUS
 62
3
100
AcDbLine
 10
392.3891241915289
 20
363.1698035421417
 30
0.0000000000000000
 11
427.3891241915289
 21
363.1698035421416
 31
0.0000000000000000
  0
LINE
  5
258
100
AcDbEntity
  8
MAIN0
  6
CONTINUOUS
 62
3
100
AcDbLine
 10
427.3891241915289
 20
363.1698035421417
 30
0.0000000000000000
 11
427.3891241915289
 21
274.8093316381667
 31
0.0000000000000000
  0
LINE
  5
259
100
AcDbEntity
  8
MAIN0
  6
CONTINUOUS
 62
3
100
AcDbLine
 10
403.8891241921886
 20
268.1698035421417
 30
0.0000000000000000
 11
415.8891241908692
 21
268.1698035421417
 31
0.0000000000000000
  0
ARC
  5
25A
100
AcDbEntity
  8
MAIN0
  6
CONTINUOUS
 62
3
100
AcDbCircle
 10
409.8891241915289
 20
252.4198035421416
 30
0.0000000000000000
 40
105.0000000000000
100
AcDbArc
 50
99.59406822685685
 51
200.4059317731396
  0
LINE
  5
25B
100
AcDbEntity
  8
MAIN0
  6
CENTER
 62
3
100
AcDbLine
 10
396.1946950853450
 20
339.1698035421415
 30
0.0000000000000000
 11
423.5257159943016
 21
339.1698035421415
 31
0.0000000000000000
  0
LINE
  5
25C
100
AcDbEntity
  8
MAIN0
  6
CENTER
 62
3
100
AcDbLine
 10
396.1946950853450
 20
314.1698035421416
 30
0.0000000000000000
 11
423.5257159943017
 21
314.1698035421416
 31
0.0000000000000000
  0
ARC
  5
25D
100
AcDbEntity
  8
MAIN0
  6
CONTINUOUS
 62
3
100
AcDbCircle
 10
409.8891241915289
 20
252.4198035421416
 30
0.0000000000000000
 40
105.0000000000000
100
AcDbArc
 50
219.5940682268604
 51
320.4059317731293
  0
ARC
  5
25E
100
AcDbEntity
  8
MAIN0
  6
CONTINUOUS
 62
3
100
AcDbCircle
 10
409.8891241915289
 20
252.4198035421416
 30
0.0000000000000000
 40
105.0000000000000
100
AcDbArc
 50
339.5940682268501
 51
440.4059317731329
  0
LINE
  5
25F
100
AcDbEntity
  8
MAIN0
  6
CONTINUOUS
 62
3
100
AcDbLine
 10
389.8891241915314
 20
289.3198035421416
 30
0.0000000000000000
 11
389.8891241915324
 21
305.3198035421416
 31
0.0000000000000000
  0
LINE
  5
260
100
AcDbEntity
  8
MAIN0
  6
CONTINUOUS
 62
3
100
AcDbLine
 10
429.8891241915313
 20
289.3198035421391
 30
0.0000000000000000
 11
429.8891241915324
 21
305.3198035421672
 31
0.0000000000000000
  0
LINE
  5
261
100
AcDbEntity
  8
MAIN0
  6
CONTINUOUS
 62
3
100
AcDbLine
 10
389.8891241915211
 20
305.3198035421416
 30
0.0000000000000000
 11
392.3891241915289
 21
305.3198035421432
 31
0.0000000000000000
  0
LINE
  5
262
100
AcDbEntity
  8
MAIN0
  6
CONTINUOUS
 62
3
100
AcDbLine
 10
427.3891241915289
 20
305.3198035421656
 30
0.0000000000000000
 11
429.8891241915211
 21
305.3198035421672
 31
0.0000000000000000
  0
ARC
  5
263
100
AcDbEntity
  8
MAIN0
  6
CONTINUOUS
 62
3
100
AcDbCircle
 10
409.8891241915289
 20
252.4198035421416
 30
0.0000000000000000
 40
56.50000000000008
100
AcDbArc
 50
69.43645123168891
 51
71.95676823836303
  0
ARC
  5
264
100
AcDbEntity
  8
MAIN0
  6
CONTINUOUS
 62
3
100
AcDbCircle
 10
409.8891241915289
 20
252.4198035421416
 30
0.0000000000000000
 40
56.50000000000008
100
AcDbArc
 50
108.0432317616370
 51
110.5635487683844
  0
LINE
  5
265
100
AcDbEntity
  8
MAIN0
  6
CONTINUOUS
 62
3
100
AcDbLine
 10
389.8891241915313
 20
289.3198035421416
 30
0.0000000000000000
 11
392.3891241915289
 21
289.3198035421432
 31
0.0000000000000000
  0
LINE
  5
266
100
AcDbEntity
  8
MAIN0
  6
CONTINUOUS
 62
3
100
AcDbLine
 10
427.3891241915289
 20
289.3198035421656
 30
0.0000000000000000
 11
429.8891241915313
 21
289.3198035421672
 31
0.0000000000000000
  0
LINE
  5
267
100
AcDbEntity
  8
MAIN0
  6
CONTINUOUS
 62
3
100
AcDbLine
 10
392.3891241915289
 20
274.8093316381666
 30
0.0000000000000000
 11
392.3891241915289
 21
356.7598779564692
 31
0.0000000000000000
  0
LINE
  5
268
100
AcDbEntity
  8
MAIN0
  6
CONTINUOUS
 62
3
100
AcDbLine
 10
392.3891241915289
 20
356.7598779564692
 30
0.0000000000000000
 11
392.3891241915289
 21
363.1698035421417
 31
0.0000000000000000
  0
LINE
  5
269
100
AcDbEntity
  8
MAIN0
  6
CENTER
 62
3
100
AcDbLine
 10
348.9191167297140
 20
358.0229542040080
 30
0.0000000000000000
 11
355.8873223866637
 21
345.9536679685651
 31
0.0000000000000000
  0
LINE
  5
26A
100
AcDbEntity
  8
MAIN0
  6
CENTER
 62
3
100
AcDbLine
 10
460.5180065548268
 20
164.7280069583587
 30
0.0000000000000000
 11
474.3017145554397
 21
140.8539243845699
 31
0.0000000000000000
  0
LINE
  5
26B
100
AcDbEntity
  8
MAIN0
  6
CENTER
 62
3
100
AcDbLine
 10
346.0420500789351
 20
141.8334272643576
 30
0.0000000000000000
 11
359.8783923193671
 21
165.7986750157311
 31
0.0000000000000000
  0
LINE
  5
26C
100
AcDbEntity
  8
MAIN0
  6
CENTER
 62
3
100
AcDbLine
 10
463.7621581714125
 20
345.7306355533164
 30
0.0000000000000000
 11
473.7190778677058
 21
362.9765263542039
 31
0.0000000000000000
  0
LINE
  5
26D
100
AcDbEntity
  8
MAIN0
  6
CENTER
 62
3
100
AcDbLine
 10
485.8395510060994
 20
328.3702303569588
 30
0.0000000000000000
 11
496.5308972630248
 21
339.0615766139189
 31
0.0000000000000000
  0
CIRCLE
  5
26E
100
AcDbEntity
  8
MAIN0
  6
CONTINUOUS
 62
3
100
AcDbCircle
 10
491.2064040278499
 20
333.7370833787267
 30
0.0000000000000000
 40
5.500000000000000
  0
LINE
  5
26F
100
AcDbEntity
  8
MAIN0
  6
CENTER
 62
3
100
AcDbLine
 10
333.8193233901912
 20
328.4896043432369
 30
0.0000000000000000
 11
323.0050923256328
 21
339.3038354077610
 31
0.0000000000000000
  0
CIRCLE
  5
270
100
AcDbEntity
  8
MAIN0
  6
CONTINUOUS
 62
3
100
AcDbCircle
 10
328.5718443549465
 20
333.7370833784651
 30
0.0000000000000000
 40
5.500000000000000
  0
CIRCLE
  5
271
100
AcDbEntity
  8
MAIN0
  6
CONTINUOUS
 62
3
100
AcDbCircle
 10
509.4820456267358
 20
194.9198035421353
 30
0.0000000000000000
 40
5.000000000000000
  0
CIRCLE
  5
272
100
AcDbEntity
  8
MAIN0
  6
CONTINUOUS
 62
3
100
AcDbCircle
 10
310.2962027563220
 20
309.9198035421479
 30
0.0000000000000000
 40
5.000000000000000
  0
LINE
  5
273
100
AcDbEntity
  8
MAIN0
  6
CENTER
 62
3
100
AcDbLine
 10
299.5514669577777
 20
316.1232796478098
 30
0.0000000000000000
 11
374.2312744101365
 21
273.0068727121548
 31
0.0000000000000000
  0
LINE
  5
274
100
AcDbEntity
  8
MAIN0
  6
CENTER
 62
3
100
AcDbLine
 10
504.1143692733106
 20
198.0188329297086
 30
0.0000000000000000
 11
520.6684925692774
 21
188.4613053885826
 31
0.0000000000000000
  0
LINE
  5
275
100
AcDbEntity
  8
MAIN0
  6
CENTER
 62
3
100
AcDbLine
 10
496.9444681121645
 20
302.6812297891232
 30
0.0000000000000000
 11
448.0078888003692
 21
274.4276825502347
 31
0.0000000000000000
  0
ARC
  5
276
100
AcDbEntity
  8
MAIN0
  6
CENTER
 62
3
100
AcDbCircle
 10
409.8891241915289
 20
252.4198035421416
 30
0.0000000000000000
 40
68.00000000000000
100
AcDbArc
 50
18.67168524908042
 51
36.86986642212207
  0
ARC
  5
277
100
AcDbEntity
  8
MAIN0
  6
CENTER
 62
3
100
AcDbCircle
 10
409.8891241915289
 20
252.4198035421416
 30
0.0000000000000000
 40
68.00000000000000
100
AcDbArc
 50
144.3236044211507
 51
157.8196729978501
  0
ARC
  5
278
100
AcDbEntity
  8
MAIN0
  6
CENTER
 62
3
100
AcDbCircle
 10
409.8891241915289
 20
252.4198035421416
 30
0.0000000000000000
 40
68.00000000000000
100
AcDbArc
 50
264.1660108065583
 51
275.5036627965712
  0
ARC
  5
279
100
AcDbEntity
  8
MAIN0
  6
CENTER
 62
3
100
AcDbCircle
 10
409.8891241915289
 20
252.4198035421416
 30
0.0000000000000000
 40
93.00000000000000
100
AcDbArc
 50
142.4757417848454
 51
157.3801341281807
  0
ARC
  5
27A
100
AcDbEntity
  8
MAIN0
  6
CENTER
 62
3
100
AcDbCircle
 10
409.8891241915289
 20
252.4198035421416
 30
0.0000000000000000
 40
93.00000000000000
100
AcDbArc
 50
264.0518880966163
 51
275.9777133249119
  0
ARC
  5
27B
100
AcDbEntity
  8
MAIN0
  6
CENTER
 62
3
100
AcDbCircle
 10
409.8891241915289
 20
252.4198035421416
 30
0.0000000000000000
 40
93.00000000000000
100
AcDbArc
 50
20.52599621096163
 51
34.32808574023705
  0
CIRCLE
  5
27C
100
AcDbEntity
  8
MAIN0
  6
CONTINUOUS
 62
3
100
AcDbCircle
 10
365.9383349494681
 20
277.7948035421407
 30
0.0000000000000000
 40
4.250000000000000
  0
LINE
  5
27D
100
AcDbEntity
  8
MAIN0
  6
CONTINUOUS
 62
3
100
AcDbLine
 10
363.9383349494681
 20
276.6401030037616
 30
0.0000000000000000
 11
365.9383349494681
 21
275.4854024653822
 31
0.0000000000000000
  0
LINE
  5
27E
100
AcDbEntity
  8
MAIN0
  6
CONTINUOUS
 62
3
100
AcDbLine
 10
365.9383349494681
 20
275.4854024653822
 30
0.0000000000000000
 11
367.9383349494681
 21
276.6401030037613
 31
0.0000000000000000
  0
LINE
  5
27F
100
AcDbEntity
  8
MAIN0
  6
CONTINUOUS
 62
3
100
AcDbLine
 10
367.9383349494681
 20
276.6401030037614
 30
0.0000000000000000
 11
367.9383349494681
 21
278.9495040805199
 31
0.0000000000000000
  0
LINE
  5
280
100
AcDbEntity
  8
MAIN0
  6
CONTINUOUS
 62
3
100
AcDbLine
 10
367.9383349494682
 20
278.9495040805199
 30
0.0000000000000000
 11
365.9383349494682
 21
280.1042046188992
 31
0.0000000000000000
  0
LINE
  5
281
100
AcDbEntity
  8
MAIN0
  6
CONTINUOUS
 62
3
100
AcDbLine
 10
365.9383349494682
 20
280.1042046188992
 30
0.0000000000000000
 11
363.9383349494682
 21
278.9495040805201
 31
0.0000000000000000
  0
LINE
  5
282
100
AcDbEntity
  8
MAIN0
  6
CONTINUOUS
 62
3
100
AcDbLine
 10
363.9383349494682
 20
278.9495040805201
 30
0.0000000000000000
 11
363.9383349494681
 21
276.6401030037616
 31
0.0000000000000000
  0
CIRCLE
  5
283
100
AcDbEntity
  8
MAIN0
  6
CONTINUOUS
 62
3
100
AcDbCircle
 10
409.8891241915278
 20
201.6698035421416
 30
0.0000000000000000
 40
4.250000000000000
  0
LINE
  5
284
100
AcDbEntity
  8
MAIN0
  6
CONTINUOUS
 62
3
100
AcDbLine
 10
411.8891241915277
 20
200.5151030037621
 30
0.0000000000000000
 11
411.8891241915279
 21
202.8245040805207
 31
0.0000000000000000
  0
LINE
  5
285
100
AcDbEntity
  8
MAIN0
  6
CONTINUOUS
 62
3
100
AcDbLine
 10
411.8891241915279
 20
202.8245040805207
 30
0.0000000000000000
 11
409.8891241915280
 21
203.9792046189000
 31
0.0000000000000000
  0
LINE
  5
286
100
AcDbEntity
  8
MAIN0
  6
CONTINUOUS
 62
3
100
AcDbLine
 10
409.8891241915280
 20
203.9792046189000
 30
0.0000000000000000
 11
407.8891241915279
 21
202.8245040805210
 31
0.0000000000000000
  0
LINE
  5
287
100
AcDbEntity
  8
MAIN0
  6
CONTINUOUS
 62
3
100
AcDbLine
 10
407.8891241915279
 20
202.8245040805210
 30
0.0000000000000000
 11
407.8891241915277
 21
200.5151030037625
 31
0.0000000000000000
  0
LINE
  5
288
100
AcDbEntity
  8
MAIN0
  6
CONTINUOUS
 62
3
100
AcDbLine
 10
407.8891241915277
 20
200.5151030037625
 30
0.0000000000000000
 11
409.8891241915276
 21
199.3604024653831
 31
0.0000000000000000
  0
LINE
  5
289
100
AcDbEntity
  8
MAIN0
  6
CONTINUOUS
 62
3
100
AcDbLine
 10
409.8891241915276
 20
199.3604024653831
 30
0.0000000000000000
 11
411.8891241915277
 21
200.5151030037621
 31
0.0000000000000000
  0
ARC
  5
28A
100
AcDbEntity
  8
MAIN0
  6
CENTER
 62
3
100
AcDbCircle
 10
409.8891241915289
 20
252.4198035421416
 30
0.0000000000000000
 40
50.75000000000002
100
AcDbArc
 50
21.09616132922538
 51
37.99989093695167
  0
ARC
  5
28B
100
AcDbEntity
  8
MAIN0
  6
CENTER
 62
3
100
AcDbCircle
 10
409.8891241915289
 20
252.4198035421416
 30
0.0000000000000000
 40
50.75000000000002
100
AcDbArc
 50
142.3022525607213
 51
160.0243614027446
  0
ARC
  5
28C
100
AcDbEntity
  8
MAIN0
  6
CENTER
 62
3
100
AcDbCircle
 10
409.8891241915289
 20
252.4198035421416
 30
0.0000000000000000
 40
50.75000000000002
100
AcDbArc
 50
260.0246322709185
 51
276.3296132787029
  0
ARC
  5
28D
100
AcDbEntity
  8
MAIN0
  6
CENTER
 62
3
100
AcDbCircle
 10
409.8891241915289
 20
252.4198035421416
 30
0.0000000000000000
 40
80.00000000000000
100
AcDbArc
 50
247.2463057116685
 51
287.9130017323350
  0
LINE
  5
28E
100
AcDbEntity
  8
MAIN0
  6
CENTER
 62
3
100
AcDbLine
 10
393.3891241915289
 20
182.7332428956265
 30
0.0000000000000000
 11
393.3891241915289
 21
168.3744010525850
 31
0.0000000000000000
  0
LINE
  5
28F
100
AcDbEntity
  8
MAIN0
  6
CENTER
 62
3
100
AcDbLine
 10
426.3891241915289
 20
180.9542741281290
 30
0.0000000000000000
 11
426.3891241915289
 21
168.3744010525850
 31
0.0000000000000000
  0
CIRCLE
  5
290
100
AcDbEntity
  8
MAIN0
  6
HIDDEN
 62
3
100
AcDbCircle
 10
426.3891241915289
 20
174.1398571957114
 30
0.0000000000000000
 40
4.500000000000000
  0
CIRCLE
  5
291
100
AcDbEntity
  8
MAIN0
  6
HIDDEN
 62
3
100
AcDbCircle
 10
393.3891241915289
 20
174.1398571957114
 30
0.0000000000000000
 40
4.500000000000000
  0
CIRCLE
  5
292
100
AcDbEntity
  8
MAIN0
  6
HIDDEN
 62
3
100
AcDbCircle
 10
426.3891241915289
 20
174.1398571957114
 30
0.0000000000000000
 40
3.500000000000000
  0
CIRCLE
  5
293
100
AcDbEntity
  8
MAIN0
  6
HIDDEN
 62
3
100
AcDbCircle
 10
393.3891241915289
 20
174.1398571957114
 30
0.0000000000000000
 40
3.500000000000000
  0
LINE
  5
294
100
AcDbEntity
  8
MAIN0
  6
CONTINUOUS
 62
3
100
AcDbLine
 10
369.8891241915290
 20
126.9198035421416
 30
0.0000000000000000
 11
449.8891241915289
 21
126.9198035421416
 31
0.0000000000000000
  0
LINE
  5
295
100
AcDbEntity
  8
MAIN0
  6
CONTINUOUS
 62
3
100
AcDbLine
 10
369.8891241915290
 20
146.9198035421416
 30
0.0000000000000000
 11
449.8891241915289
 21
146.9198035421416
 31
0.0000000000000000
  0
LINE
  5
296
100
AcDbEntity
  8
MAIN0
  6
CENTER
 62
3
100
AcDbLine
 10
433.3891241915289
 20
157.1967995476680
 30
0.0000000000000000
 11
433.3891241915289
 21
122.0665386580498
 31
0.0000000000000000
  0
LINE
  5
297
100
AcDbEntity
  8
MAIN0
  6
CENTER
 62
3
100
AcDbLine
 10
386.3891241915289
 20
154.1805703252184
 30
0.0000000000000000
 11
386.3891241915289
 21
123.3085189798958
 31
0.0000000000000000
  0
LINE
  5
298
100
AcDbEntity
  8
MAIN0
  6
HIDDEN
 62
3
100
AcDbLine
 10
380.5399164966083
 20
126.9198035421407
 30
0.0000000000000000
 11
380.8891241915270
 21
136.9198035421390
 31
0.0000000000000000
  0
LINE
  5
299
100
AcDbEntity
  8
MAIN0
  6
HIDDEN
 62
3
100
AcDbLine
 10
380.0396117244588
 20
126.9198035421410
 30
0.0000000000000000
 11
380.3888194193777
 21
136.9198035421425
 31
0.0000000000000000
  0
LINE
  5
29A
100
AcDbEntity
  8
MAIN0
  6
HIDDEN
 62
3
100
AcDbLine
 10
392.2383318864496
 20
126.9198035421406
 30
0.0000000000000000
 11
391.8891241915309
 21
136.9198035421390
 31
0.0000000000000000
  0
LINE
  5
29B
100
AcDbEntity
  8
MAIN0
  6
HIDDEN
 62
3
100
AcDbLine
 10
392.7386366585990
 20
126.9198035421410
 30
0.0000000000000000
 11
392.3894289636802
 21
136.9198035421425
 31
0.0000000000000000
  0
LINE
  5
29C
100
AcDbEntity
  8
MAIN0
  6
CONTINUOUS
 62
3
100
AcDbLine
 10
378.3891241915289
 20
125.9198035421416
 30
0.0000000000000000
 11
394.3891241915289
 21
125.9198035421416
 31
0.0000000000000000
  0
LINE
  5
29D
100
AcDbEntity
  8
MAIN0
  6
CONTINUOUS
 62
3
100
AcDbLine
 10
378.3891241915289
 20
126.9198035421416
 30
0.0000000000000000
 11
378.3891241915289
 21
125.9198035421416
 31
0.0000000000000000
  0
LINE
  5
29E
100
AcDbEntity
  8
MAIN0
  6
CONTINUOUS
 62
3
100
AcDbLine
 10
394.3891241915289
 20
126.9198035421416
 30
0.0000000000000000
 11
394.3891241915289
 21
125.9198035421416
 31
0.0000000000000000
  0
LINE
  5
29F
100
AcDbEntity
  8
MAIN0
  6
HIDDEN
 62
3
100
AcDbLine
 10
439.2383318864497
 20
126.9198035421407
 30
0.0000000000000000
 11
438.8891241915309
 21
136.9198035421390
 31
0.0000000000000000
  0
LINE
  5
2A0
100
AcDbEntity
  8
MAIN0
  6
HIDDEN
 62
3
100
AcDbLine
 10
439.7386366585990
 20
126.9198035421410
 30
0.0000000000000000
 11
439.3894289636801
 21
136.9198035421425
 31
0.0000000000000000
  0
LINE
  5
2A1
100
AcDbEntity
  8
MAIN0
  6
HIDDEN
 62
3
100
AcDbLine
 10
427.5399164966083
 20
126.9198035421406
 30
0.0000000000000000
 11
427.8891241915270
 21
136.9198035421390
 31
0.0000000000000000
  0
LINE
  5
2A2
100
AcDbEntity
  8
MAIN0
  6
HIDDEN
 62
3
100
AcDbLine
 10
427.0396117244588
 20
126.9198035421410
 30
0.0000000000000000
 11
427.3888194193777
 21
136.9198035421425
 31
0.0000000000000000
  0
LINE
  5
2A3
100
AcDbEntity
  8
MAIN0
  6
CONTINUOUS
 62
3
100
AcDbLine
 10
441.3891241915289
 20
125.9198035421416
 30
0.0000000000000000
 11
425.3891241915289
 21
125.9198035421416
 31
0.0000000000000000
  0
LINE
  5
2A4
100
AcDbEntity
  8
MAIN0
  6
CONTINUOUS
 62
3
100
AcDbLine
 10
441.3891241915289
 20
126.9198035421416
 30
0.0000000000000000
 11
441.3891241915289
 21
125.9198035421416
 31
0.0000000000000000
  0
LINE
  5
2A5
100
AcDbEntity
  8
MAIN0
  6
CONTINUOUS
 62
3
100
AcDbLine
 10
425.3891241915289
 20
126.9198035421416
 30
0.0000000000000000
 11
425.3891241915289
 21
125.9198035421416
 31
0.0000000000000000
  0
LINE
  5
2A6
100
AcDbEntity
  8
MAIN0
  6
CENTER
 62
3
100
AcDbLine
 10
398.8891241915289
 20
145.8415605597165
 30
0.0000000000000000
 11
398.8891241915289
 21
133.2443480181672
 31
0.0000000000000000
  0
LINE
  5
2A7
100
AcDbEntity
  8
MAIN0
  6
CENTER
 62
3
100
AcDbLine
 10
420.8891241915289
 20
146.0189969557989
 30
0.0000000000000000
 11
420.8891241915289
 21
131.8249448367353
 31
0.0000000000000000
  0
LINE
  5
2A8
100
AcDbEntity
  8
MAIN0
  6
CENTER
 62
3
100
AcDbLine
 10
390.2948417361661
 20
139.4198035421416
 30
0.0000000000000000
 11
403.6017592525555
 21
139.4198035421416
 31
0.0000000000000000
  0
LINE
  5
2A9
100
AcDbEntity
  8
MAIN0
  6
CENTER
 62
3
100
AcDbLine
 10
415.4892803557613
 20
139.4198035421416
 30
0.0000000000000000
 11
428.9736207317365
 21
139.4198035421416
 31
0.0000000000000000
  0
ARC
  5
2AA
100
AcDbEntity
  8
MAIN0
  6
CENTER
 62
3
100
AcDbCircle
 10
409.8891241915289
 20
252.4198035421416
 30
0.0000000000000000
 40
115.0000000000001
100
AcDbArc
 50
55.14595310344362
 51
65.14933346449239
  0
ARC
  5
2AB
100
AcDbEntity
  8
MAIN0
  6
CENTER
 62
3
100
AcDbCircle
 10
409.8891241915289
 20
252.4198035421416
 30
0.0000000000000000
 40
115.0000000000001
100
AcDbArc
 50
115.9769690510684
 51
123.1869383913621
  0
ARC
  5
2AC
100
AcDbEntity
  8
MAIN0
  6
CENTER
 62
3
100
AcDbCircle
 10
409.8891241915289
 20
252.4198035421416
 30
0.0000000000000000
 40
115.0000000000001
100
AcDbArc
 50
131.1379804986323
 51
139.1240978140536
  0
ARC
  5
2AD
100
AcDbEntity
  8
MAIN0
  6
CENTER
 62
3
100
AcDbCircle
 10
409.8891241915289
 20
252.4198035421416
 30
0.0000000000000000
 40
115.0000000000001
100
AcDbArc
 50
146.5056340066483
 51
155.0448769758195
  0
LINE
  5
2AE
100
AcDbEntity
  8
MAIN0
  6
CENTER
 62
3
100
AcDbLine
 10
333.8193233901912
 20
176.3500027410463
 30
0.0000000000000000
 11
323.0050923256328
 21
165.5357716765222
 31
0.0000000000000000
  0
CIRCLE
  5
2AF
100
AcDbEntity
  8
MAIN0
  6
CONTINUOUS
 62
3
100
AcDbCircle
 10
328.5718443549465
 20
171.1025237058181
 30
0.0000000000000000
 40
5.500000000000000
  0
LINE
  5
2B0
100
AcDbEntity
  8
MAIN0
  6
CENTER
 62
3
100
AcDbLine
 10
485.8395510060994
 20
176.4693767273245
 30
0.0000000000000000
 11
496.5308972630248
 21
165.7780304703643
 31
0.0000000000000000
  0
CIRCLE
  5
2B1
100
AcDbEntity
  8
MAIN0
  6
CONTINUOUS
 62
3
100
AcDbCircle
 10
491.2064040278499
 20
171.1025237055566
 30
0.0000000000000000
 40
5.500000000000000
  0
ARC
  5
2B2
100
AcDbEntity
  8
MAIN0
  6
CENTER
 62
3
100
AcDbCircle
 10
409.8891241915289
 20
252.4198035421416
 30
0.0000000000000000
 40
90.00000000000000
100
AcDbArc
 50
7.904563718159293
 51
20.47709071887916
  0
LINE
  5
2B3
100
AcDbEntity
  8
MAIN0
  6
CENTER
 62
3
100
AcDbLine
 10
484.7355975818611
 20
272.4748556433607
 30
0.0000000000000000
 11
508.5832057303384
 21
278.8648029881470
 31
0.0000000000000000
  0
CIRCLE
  5
2B4
100
AcDbEntity
  8
MAIN0
  6
CONTINUOUS
 62
3
100
AcDbCircle
 10
496.8224485575560
 20
275.7135176013273
 30
0.0000000000000000
 40
7.500000000000000
  0
LINE
  5
2B5
100
AcDbEntity
  8
MAIN0
  6
CONTINUOUS
 62
3
100
AcDbLine
 10
493.9657776696263
 20
278.5715415753014
 30
0.0000000000000000
 11
497.8695204204050
 21
279.6175462928293
 31
0.0000000000000000
  0
LINE
  5
2B6
100
AcDbEntity
  8
MAIN0
  6
CONTINUOUS
 62
3
100
AcDbLine
 10
495.7775109853455
 20
271.8100607912783
 30
0.0000000000000000
 11
499.6812537361195
 21
272.8560655088051
 31
0.0000000000000000
  0
LINE
  5
2B7
100
AcDbEntity
  8
MAIN0
  6
CONTINUOUS
 62
3
100
AcDbLine
 10
497.8695204204050
 20
279.6175462928294
 30
0.0000000000000000
 11
500.7272584536540
 21
276.7598082595819
 31
0.0000000000000000
  0
LINE
  5
2B8
100
AcDbEntity
  8
MAIN0
  6
CONTINUOUS
 62
3
100
AcDbLine
 10
492.9197729520966
 20
274.6677988245260
 30
0.0000000000000000
 11
495.7775109853458
 21
271.8100607912784
 31
0.0000000000000000
  0
LINE
  5
2B9
100
AcDbEntity
  8
MAIN0
  6
CONTINUOUS
 62
3
100
AcDbLine
 10
493.9657776696265
 20
278.5715415753014
 30
0.0000000000000000
 11
492.9197729520966
 21
274.6677988245259
 31
0.0000000000000000
  0
LINE
  5
2BA
100
AcDbEntity
  8
MAIN0
  6
CONTINUOUS
 62
3
100
AcDbLine
 10
499.6812537361194
 20
272.8560655088051
 30
0.0000000000000000
 11
500.7272584536539
 21
276.7598082595819
 31
0.0000000000000000
  0
CIRCLE
  5
2BB
100
AcDbEntity
  8
MAIN0
  6
CONTINUOUS
 62
3
100
AcDbCircle
 10
496.8235157028756
 20
275.7138035420539
 30
0.0000000000000000
 40
2.400000000000000
  0
CIRCLE
  5
2BC
100
AcDbEntity
  8
MAIN0
  6
CONTINUOUS
 62
3
100
AcDbCircle
 10
496.8235157028756
 20
275.7138035420539
 30
0.0000000000000000
 40
3.300000000000000
  0
CIRCLE
  5
2BD
100
AcDbEntity
  8
MAIN0
  6
CONTINUOUS
 62
3
100
AcDbCircle
 10
496.8235157028756
 20
275.7138035420539
 30
0.0000000000000000
 40
0.8000000000000000
  0
ARC
  5
2BE
100
AcDbEntity
  8
MAIN0
  6
CENTER
 62
3
100
AcDbCircle
 10
409.8891241915289
 20
252.4198035421416
 30
0.0000000000000000
 40
115.0000000000001
100
AcDbArc
 50
37.91637920694913
 51
49.88071254651253
  0
ARC
  5
2BF
100
AcDbEntity
  8
MAIN0
  6
CENTER
 62
3
100
AcDbCircle
 10
409.8891241915289
 20
252.4198035421416
 30
0.0000000000000000
 40
115.0000000000001
100
AcDbArc
 50
355.4297936481243
 51
364.6976926305411
  0
ARC
  5
2C0
100
AcDbEntity
  8
MAIN0
  6
CENTER
 62
3
100
AcDbCircle
 10
409.8891241915289
 20
252.4198035421416
 30
0.0000000000000000
 40
115.0000000000001
100
AcDbArc
 50
325.9711803661017
 51
333.5164925981925
  0
ARC
  5
2C1
100
AcDbEntity
  8
MAIN0
  6
CENTER
 62
3
100
AcDbCircle
 10
409.8891241915289
 20
252.4198035421416
 30
0.0000000000000000
 40
115.0000000000001
100
AcDbArc
 50
310.5716165526367
 51
319.4445499255830
  0
ARC
  5
2C2
100
AcDbEntity
  8
MAIN0
  6
CENTER
 62
3
100
AcDbCircle
 10
409.8891241915289
 20
252.4198035421416
 30
0.0000000000000000
 40
115.0000000000001
100
AcDbArc
 50
295.2340701235382
 51
303.7176267532418
  0
ARC
  5
2C3
100
AcDbEntity
  8
MAIN0
  6
CENTER
 62
3
100
AcDbCircle
 10
409.8891241915289
 20
252.4198035421416
 30
0.0000000000000000
 40
115.0000000000001
100
AcDbArc
 50
174.7700735667706
 51
184.4659282891793
  0
ARC
  5
2C4
100
AcDbEntity
  8
MAIN0
  6
CENTER
 62
3
100
AcDbCircle
 10
409.8891241915289
 20
252.4198035421416
 30
0.0000000000000000
 40
115.0000000000001
100
AcDbArc
 50
217.4718277040313
 51
229.2948395723735
  0
ARC
  5
2C5
100
AcDbEntity
  8
MAIN0
  6
CENTER
 62
3
100
AcDbCircle
 10
409.8891241915289
 20
252.4198035421416
 30
0.0000000000000000
 40
115.0000000000001
100
AcDbArc
 50
236.4418769243929
 51
243.7343210815664
  0
LINE
  5
2C6
100
AcDbEntity
  8
MAIN0
  6
PHANTOM
 62
3
100
AcDbLine
 10
449.8891241915290
 20
99.92346360944038
 30
0.0000000000000000
 11
449.8891241915290
 21
91.91980354214161
 31
0.0000000000000000
  0
LINE
  5
2C7
100
AcDbEntity
  8
MAIN0
  6
CONTINUOUS
 62
3
100
AcDbLine
 10
449.8891241915290
 20
146.9198035421416
 30
0.0000000000000000
 11
449.8891241915290
 21
126.9198035421416
 31
0.0000000000000000
  0
LINE
  5
2C8
100
AcDbEntity
  8
MAIN0
  6
PHANTOM
 62
3
100
AcDbLine
 10
369.8891241915291
 20
99.23702766593297
 30
0.0000000000000000
 11
369.8891241915291
 21
91.91980354214161
 31
0.0000000000000000
  0
LINE
  5
2C9
100
AcDbEntity
  8
MAIN0
  6
CONTINUOUS
 62
3
100
AcDbLine
 10
369.8891241915289
 20
146.9198035421416
 30
0.0000000000000000
 11
369.8891241915290
 21
126.9198035421416
 31
0.0000000000000000
  0
LINE
  5
2CA
100
AcDbEntity
  8
MAIN0
  6
CENTER
 62
3
100
AcDbLine
 10
409.8891241915289
 20
124.6912223706534
 30
0.0000000000000000
 11
409.8891241915289
 21
189.3318813297200
 31
0.0000000000000000
  0
LINE
  5
2CB
100
AcDbEntity
  8
MAIN0
  6
CENTER
 62
3
100
AcDbLine
 10
409.8891241915289
 20
195.4318812343526
 30
0.0000000000000000
 11
409.8891241915289
 21
279.3101234200298
 31
0.0000000000000000
  0
LINE
  5
2CC
100
AcDbEntity
  8
MAIN0
  6
CENTER
 62
3
100
AcDbLine
 10
409.8891241915289
 20
285.4101233246623
 30
0.0000000000000000
 11
409.8891241915289
 21
386.5729299528010
 31
0.0000000000000000
  0
ARC
  5
2CD
100
AcDbEntity
  8
MAIN0
  6
CONTINUOUS
 62
3
100
AcDbCircle
 10
409.8891241915289
 20
252.4198035421416
 30
0.0000000000000000
 40
56.50000000000008
100
AcDbArc
 50
348.0432317616337
 51
350.5635487683759
  0
ARC
  5
2CE
100
AcDbEntity
  8
MAIN0
  6
CONTINUOUS
 62
3
100
AcDbCircle
 10
409.8891241915289
 20
252.4198035421416
 30
0.0000000000000000
 40
56.50000000000008
100
AcDbArc
 50
350.7310848447396
 51
429.2689151552468
  0
ARC
  5
2CF
100
AcDbEntity
  8
MAIN0
  6
CONTINUOUS
 62
3
100
AcDbCircle
 10
409.8891241915289
 20
252.4198035421416
 30
0.0000000000000000
 40
56.50000000000008
100
AcDbArc
 50
309.4364512316238
 51
311.9567682383597
  0
ARC
  5
2D0
100
AcDbEntity
  8
MAIN0
  6
CONTINUOUS
 62
3
100
AcDbCircle
 10
409.8891241915289
 20
252.4198035421416
 30
0.0000000000000000
 40
56.50000000000008
100
AcDbArc
 50
228.0432317616403
 51
230.5635487683762
  0
ARC
  5
2D1
100
AcDbEntity
  8
MAIN0
  6
CONTINUOUS
 62
3
100
AcDbCircle
 10
409.8891241915289
 20
252.4198035421416
 30
0.0000000000000000
 40
56.50000000000008
100
AcDbArc
 50
230.7310848447462
 51
309.2689151552538
  0
ARC
  5
2D2
100
AcDbEntity
  8
MAIN0
  6
CONTINUOUS
 62
3
100
AcDbCircle
 10
409.8891241915289
 20
252.4198035421416
 30
0.0000000000000000
 40
56.50000000000008
100
AcDbArc
 50
110.7310848447393
 51
189.2689151552604
  0
ARC
  5
2D3
100
AcDbEntity
  8
MAIN0
  6
CONTINUOUS
 62
3
100
AcDbCircle
 10
409.8891241915289
 20
252.4198035421416
 30
0.0000000000000000
 40
56.50000000000008
100
AcDbArc
 50
189.4364512316240
 51
191.9567682383664
  0
LINE
  5
2D4
100
AcDbEntity
  8
MAIN0
  6
HIDDEN
 62
3
100
AcDbLine
 10
209.2359133422953
 20
330.1698035421416
 30
0.0000000000000000
 11
220.0359133422953
 21
330.1698035421416
 31
0.0000000000000000
  0
LINE
  5
2D5
100
AcDbEntity
  8
MAIN0
  6
HIDDEN
 62
3
100
AcDbLine
 10
220.0359133422953
 20
330.1698035421416
 30
0.0000000000000000
 11
221.2359133422953
 21
332.2482645112243
 31
0.0000000000000000
  0
LINE
  5
2D6
100
AcDbEntity
  8
MAIN0
  6
HIDDEN
 62
3
100
AcDbLine
 10
221.2359133422953
 20
332.2482645112243
 30
0.0000000000000000
 11
221.2359133422953
 21
346.0913425730590
 31
0.0000000000000000
  0
LINE
  5
2D7
100
AcDbEntity
  8
MAIN0
  6
HIDDEN
 62
3
100
AcDbLine
 10
221.2359133422953
 20
346.0913425730589
 30
0.0000000000000000
 11
220.0359133422953
 21
348.1698035421416
 31
0.0000000000000000
  0
LINE
  5
2D8
100
AcDbEntity
  8
MAIN0
  6
HIDDEN
 62
3
100
AcDbLine
 10
220.0359133422953
 20
348.1698035421416
 30
0.0000000000000000
 11
209.2359133422953
 21
348.1698035421416
 31
0.0000000000000000
  0
LINE
  5
2D9
100
AcDbEntity
  8
MAIN0
  6
HIDDEN
 62
3
100
AcDbLine
 10
220.0359133422953
 20
330.1698035421416
 30
0.0000000000000000
 11
220.0359133422953
 21
348.1698035421416
 31
0.0000000000000000
  0
LINE
  5
2DA
100
AcDbEntity
  8
MAIN0
  6
HIDDEN
 62
3
100
AcDbLine
 10
209.2359133422953
 20
333.1698035421416
 30
0.0000000000000000
 11
174.2359133422953
 21
333.1698035421416
 31
0.0000000000000000
  0
LINE
  5
2DB
100
AcDbEntity
  8
MAIN0
  6
HIDDEN
 62
3
100
AcDbLine
 10
174.2359133422953
 20
333.1698035421416
 30
0.0000000000000000
 11
174.2359133422953
 21
345.1698035421416
 31
0.0000000000000000
  0
LINE
  5
2DC
100
AcDbEntity
  8
MAIN0
  6
HIDDEN
 62
3
100
AcDbLine
 10
174.2359133422953
 20
345.1698035421416
 30
0.0000000000000000
 11
209.2359133422953
 21
345.1698035421416
 31
0.0000000000000000
  0
LINE
  5
2DD
100
AcDbEntity
  8
MAIN0
  6
HIDDEN
 62
3
100
AcDbLine
 10
209.2359133422953
 20
334.1170190421416
 30
0.0000000000000000
 11
174.2359133422953
 21
334.1170190421416
 31
0.0000000000000000
  0
LINE
  5
2DE
100
AcDbEntity
  8
MAIN0
  6
HIDDEN
 62
3
100
AcDbLine
 10
209.2359133422953
 20
344.2225880421416
 30
0.0000000000000000
 11
174.2359133422953
 21
344.2225880421416
 31
0.0000000000000000
  0
LINE
  5
2DF
100
AcDbEntity
  8
MAIN0
  6
HIDDEN
 62
3
100
AcDbLine
 10
209.2359133422953
 20
305.1698035421416
 30
0.0000000000000000
 11
220.0359133422953
 21
305.1698035421416
 31
0.0000000000000000
  0
LINE
  5
2E0
100
AcDbEntity
  8
MAIN0
  6
HIDDEN
 62
3
100
AcDbLine
 10
220.0359133422953
 20
305.1698035421416
 30
0.0000000000000000
 11
221.2359133422953
 21
307.2482645112243
 31
0.0000000000000000
  0
LINE
  5
2E1
100
AcDbEntity
  8
MAIN0
  6
HIDDEN
 62
3
100
AcDbLine
 10
221.2359133422953
 20
307.2482645112243
 30
0.0000000000000000
 11
221.2359133422953
 21
321.0913425730590
 31
0.0000000000000000
  0
LINE
  5
2E2
100
AcDbEntity
  8
MAIN0
  6
HIDDEN
 62
3
100
AcDbLine
 10
221.2359133422953
 20
321.0913425730589
 30
0.0000000000000000
 11
220.0359133422953
 21
323.1698035421416
 31
0.0000000000000000
  0
LINE
  5
2E3
100
AcDbEntity
  8
MAIN0
  6
HIDDEN
 62
3
100
AcDbLine
 10
220.0359133422953
 20
323.1698035421416
 30
0.0000000000000000
 11
209.2359133422953
 21
323.1698035421416
 31
0.0000000000000000
  0
LINE
  5
2E4
100
AcDbEntity
  8
MAIN0
  6
HIDDEN
 62
3
100
AcDbLine
 10
220.0359133422953
 20
305.1698035421416
 30
0.0000000000000000
 11
220.0359133422953
 21
323.1698035421416
 31
0.0000000000000000
  0
LINE
  5
2E5
100
AcDbEntity
  8
MAIN0
  6
HIDDEN
 62
3
100
AcDbLine
 10
209.2359133422953
 20
308.1698035421416
 30
0.0000000000000000
 11
174.2359133422953
 21
308.1698035421416
 31
0.0000000000000000
  0
LINE
  5
2E6
100
AcDbEntity
  8
MAIN0
  6
HIDDEN
 62
3
100
AcDbLine
 10
174.2359133422953
 20
308.1698035421416
 30
0.0000000000000000
 11
174.2359133422953
 21
320.1698035421416
 31
0.0000000000000000
  0
LINE
  5
2E7
100
AcDbEntity
  8
MAIN0
  6
HIDDEN
 62
3
100
AcDbLine
 10
174.2359133422953
 20
320.1698035421416
 30
0.0000000000000000
 11
209.2359133422953
 21
320.1698035421416
 31
0.0000000000000000
  0
LINE
  5
2E8
100
AcDbEntity
  8
MAIN0
  6
HIDDEN
 62
3
100
AcDbLine
 10
209.2359133422953
 20
309.1170190421416
 30
0.0000000000000000
 11
174.2359133422953
 21
309.1170190421416
 31
0.0000000000000000
  0
LINE
  5
2E9
100
AcDbEntity
  8
MAIN0
  6
HIDDEN
 62
3
100
AcDbLine
 10
209.2359133422953
 20
319.2225880421416
 30
0.0000000000000000
 11
174.2359133422953
 21
319.2225880421416
 31
0.0000000000000000
  0
LINE
  5
2EA
100
AcDbEntity
  8
MAIN0
  6
CONTINUOUS
 62
3
100
AcDbLine
 10
154.0359213832407
 20
67.04604938712706
 30
0.0000000000000000
 11
154.0359213832023
 21
32.44604938712709
 31
0.0000000000000000
  0
LINE
  5
2EB
100
AcDbEntity
  8
MAIN0
  6
CONTINUOUS
 62
3
100
AcDbLine
 10
154.2359213832021
 20
32.24604938712710
 30
0.0000000000000000
 11
158.5359213830234
 21
32.24604938712710
 31
0.0000000000000000
  0
LINE
  5
2EC
100
AcDbEntity
  8
MAIN0
  6
CONTINUOUS
 62
3
100
AcDbLine
 10
154.2359213832408
 20
67.24604938712710
 30
0.0000000000000000
 11
158.5359213830428
 21
67.24604938712710
 31
0.0000000000000000
  0
LINE
  5
2ED
100
AcDbEntity
  8
MAIN0
  6
CONTINUOUS
 62
3
100
AcDbLine
 10
158.7359213830472
 20
75.24604938712710
 30
0.0000000000000000
 11
174.3359213831079
 21
75.24604938712710
 31
0.0000000000000000
  0
LINE
  5
2EE
100
AcDbEntity
  8
MAIN0
  6
CONTINUOUS
 62
3
100
AcDbLine
 10
158.7359213830190
 20
24.24604938712710
 30
0.0000000000000000
 11
174.3359213831362
 21
24.24604938712710
 31
0.0000000000000000
  0
LINE
  5
2EF
100
AcDbEntity
  8
MAIN0
  6
CONTINUOUS
 62
3
100
AcDbLine
 10
158.5359213830471
 20
75.04604938712717
 30
0.0000000000000000
 11
158.5359213830428
 21
67.24604938712699
 31
0.0000000000000000
  0
LINE
  5
2F0
100
AcDbEntity
  8
MAIN0
  6
CONTINUOUS
 62
3
100
AcDbLine
 10
158.5359213830234
 20
32.24604938712699
 30
0.0000000000000000
 11
158.5359213830191
 21
24.44604938712703
 31
0.0000000000000000
  0
LINE
  5
2F1
100
AcDbEntity
  8
MAIN0
  6
CONTINUOUS
 62
3
100
AcDbLine
 10
174.5359213831318
 20
32.24604938712710
 30
0.0000000000000000
 11
194.6698959796396
 21
32.24604938712710
 31
0.0000000000000000
  0
LINE
  5
2F2
100
AcDbEntity
  8
MAIN0
  6
CONTINUOUS
 62
3
100
AcDbLine
 10
174.5359213831124
 20
67.24604938712710
 30
0.0000000000000000
 11
194.6698959796395
 21
67.24604938712710
 31
0.0000000000000000
  0
LINE
  5
2F3
100
AcDbEntity
  8
MAIN0
  6
CONTINUOUS
 62
3
100
AcDbLine
 10
174.5359213831081
 20
75.04604938712689
 30
0.0000000000000000
 11
174.5359213831124
 21
67.24604938712693
 31
0.0000000000000000
  0
LINE
  5
2F4
100
AcDbEntity
  8
MAIN0
  6
CONTINUOUS
 62
3
100
AcDbLine
 10
174.5359213831318
 20
32.24604938712693
 30
0.0000000000000000
 11
174.5359213831361
 21
24.44604938712675
 31
0.0000000000000000
  0
LINE
  5
2F5
100
AcDbEntity
  8
MAIN0
  6
CONTINUOUS
 62
3
100
AcDbLine
 10
191.6359213829379
 20
42.74604938712710
 30
0.0000000000000000
 11
194.6698959796504
 21
42.74604938712710
 31
0.0000000000000000
  0
LINE
  5
2F6
100
AcDbEntity
  8
MAIN0
  6
CONTINUOUS
 62
3
100
AcDbLine
 10
191.6359213829379
 20
56.74604938712710
 30
0.0000000000000000
 11
194.6698959796504
 21
56.74604938712710
 31
0.0000000000000000
  0
LINE
  5
2F7
100
AcDbEntity
  8
MAIN0
  6
CONTINUOUS
 62
3
100
AcDbLine
 10
194.2359213834050
 20
67.24604938712699
 30
0.0000000000000000
 11
194.2359213833933
 21
56.74604938712699
 31
0.0000000000000000
  0
LINE
  5
2F8
100
AcDbEntity
  8
MAIN0
  6
CONTINUOUS
 62
3
100
AcDbLine
 10
195.5359213833104
 20
66.74604938719304
 30
0.0000000000000000
 11
195.5359213833104
 21
57.24604938705389
 31
0.0000000000000000
  0
LINE
  5
2F9
100
AcDbEntity
  8
MAIN0
  6
CONTINUOUS
 62
3
100
AcDbLine
 10
176.1172922328899
 20
60.49604938712710
 30
0.0000000000000000
 11
181.3359213832099
 21
60.49604938712710
 31
0.0000000000000000
  0
LINE
  5
2FA
100
AcDbEntity
  8
MAIN0
  6
CONTINUOUS
 62
3
100
AcDbLine
 10
176.1172922330357
 20
38.99604938712710
 30
0.0000000000000000
 11
181.3359213831887
 21
38.99604938712710
 31
0.0000000000000000
  0
LINE
  5
2FB
100
AcDbEntity
  8
MAIN0
  6
CONTINUOUS
 62
3
100
AcDbLine
 10
172.5359213831291
 20
56.91467853736145
 30
0.0000000000000000
 11
172.5359213831371
 21
42.57742023702355
 31
0.0000000000000000
  0
LINE
  5
2FC
100
AcDbEntity
  8
MAIN0
  6
CONTINUOUS
 62
3
100
AcDbLine
 10
194.6698959796503
 20
56.74604938712696
 30
0.0000000000000000
 11
195.5359213833104
 21
57.24604938705383
 31
0.0000000000000000
  0
LINE
  5
2FD
100
AcDbEntity
  8
MAIN0
  6
CONTINUOUS
 62
3
100
AcDbLine
 10
194.2359213834049
 20
32.24604938712693
 30
0.0000000000000000
 11
194.2359213833933
 21
42.74604938712693
 31
0.0000000000000000
  0
LINE
  5
2FE
100
AcDbEntity
  8
MAIN0
  6
CONTINUOUS
 62
3
100
AcDbLine
 10
195.5359213833104
 20
32.74604938706116
 30
0.0000000000000000
 11
195.5359213833104
 21
42.24604938720009
 31
0.0000000000000000
  0
LINE
  5
2FF
100
AcDbEntity
  8
MAIN0
  6
CONTINUOUS
 62
3
100
AcDbLine
 10
194.6698959796504
 20
42.74604938712716
 30
0.0000000000000000
 11
195.5359213833106
 21
42.24604938720023
 31
0.0000000000000000
  0
LINE
  5
300
100
AcDbEntity
  8
MAIN0
  6
CONTINUOUS
 62
3
100
AcDbLine
 10
154.2359213832411
 20
67.24604938712719
 30
0.0000000000000000
 11
154.0359213832406
 21
67.04604938712703
 31
0.0000000000000000
  0
LINE
  5
301
100
AcDbEntity
  8
MAIN0
  6
CONTINUOUS
 62
3
100
AcDbLine
 10
154.0359213832022
 20
32.44604938712698
 30
0.0000000000000000
 11
154.2359213832021
 21
32.24604938712690
 31
0.0000000000000000
  0
LINE
  5
302
100
AcDbEntity
  8
MAIN0
  6
CONTINUOUS
 62
3
100
AcDbLine
 10
158.7359213830471
 20
75.24604938712702
 30
0.0000000000000000
 11
158.5359213830471
 21
75.04604938712708
 31
0.0000000000000000
  0
LINE
  5
303
100
AcDbEntity
  8
MAIN0
  6
CONTINUOUS
 62
3
100
AcDbLine
 10
158.5359213830192
 20
24.44604938712712
 30
0.0000000000000000
 11
158.7359213830192
 21
24.24604938712710
 31
0.0000000000000000
  0
LINE
  5
304
100
AcDbEntity
  8
MAIN0
  6
CONTINUOUS
 62
3
100
AcDbLine
 10
174.5359213831362
 20
24.44604938712683
 30
0.0000000000000000
 11
174.3359213831363
 21
24.24604938712682
 31
0.0000000000000000
  0
LINE
  5
305
100
AcDbEntity
  8
MAIN0
  6
CONTINUOUS
 62
3
100
AcDbLine
 10
174.3359213831080
 20
75.24604938712687
 30
0.0000000000000000
 11
174.5359213831080
 21
75.04604938712697
 31
0.0000000000000000
  0
LINE
  5
306
100
AcDbEntity
  8
MAIN0
  6
CONTINUOUS
 62
3
100
AcDbLine
 10
172.7702359581881
 20
42.01173481207474
 30
0.0000000000000000
 11
175.5516068080865
 21
39.23036396217790
 31
0.0000000000000000
  0
LINE
  5
307
100
AcDbEntity
  8
MAIN0
  6
CONTINUOUS
 62
3
100
AcDbLine
 10
172.7702359581801
 20
57.48036396199680
 30
0.0000000000000000
 11
175.5516068082598
 21
60.26173481207641
 31
0.0000000000000000
  0
ARC
  5
308
100
AcDbEntity
  8
MAIN0
  6
CONTINUOUS
 62
3
100
AcDbCircle
 10
176.1172922332088
 20
59.69604938712692
 30
0.0000000000000000
 40
0.8000000000000000
100
AcDbArc
 50
90.00000000000000
 51
134.9999999999978
  0
ARC
  5
309
100
AcDbEntity
  8
MAIN0
  6
CONTINUOUS
 62
3
100
AcDbCircle
 10
173.3359213831292
 20
56.91467853704731
 30
0.0000000000000000
 40
0.8000000000000000
100
AcDbArc
 50
134.9999999999950
 51
180.0000000000000
  0
ARC
  5
30A
100
AcDbEntity
  8
MAIN0
  6
CONTINUOUS
 62
3
100
AcDbCircle
 10
173.3359213831371
 20
42.57742023702431
 30
0.0000000000000000
 40
0.8000000000000000
100
AcDbArc
 50
180.0000000000000
 51
225.0000000000179
  0
ARC
  5
30B
100
AcDbEntity
  8
MAIN0
  6
CONTINUOUS
 62
3
100
AcDbCircle
 10
176.1172922330357
 20
39.79604938712728
 30
0.0000000000000000
 40
0.8000000000000000
100
AcDbArc
 50
225.0000000000158
 51
270.0000000000000
  0
ARC
  5
30C
100
AcDbEntity
  8
MAIN0
  6
CONTINUOUS
 62
3
100
AcDbCircle
 10
181.3359213832099
 20
59.29604938712683
 30
0.0000000000000000
 40
1.200000000000000
100
AcDbArc
 50
0.0000000000000000
 51
90.00000000000000
  0
ARC
  5
30D
100
AcDbEntity
  8
MAIN0
  6
CONTINUOUS
 62
3
100
AcDbCircle
 10
181.3359213831887
 20
40.19604938712692
 30
0.0000000000000000
 40
1.200000000000000
100
AcDbArc
 50
270.0000000000000
 51
360.0000000000000
  0
LINE
  5
30E
100
AcDbEntity
  8
MAIN0
  6
CONTINUOUS
 62
3
100
AcDbLine
 10
182.5359213832080
 20
57.64604938660963
 30
0.0000000000000000
 11
183.1359213826907
 21
57.04604938712694
 31
0.0000000000000000
  0
LINE
  5
30F
100
AcDbEntity
  8
MAIN0
  6
CONTINUOUS
 62
3
100
AcDbLine
 10
191.6359213829379
 20
57.04604938712683
 30
0.0000000000000000
 11
183.1359213826907
 21
57.04604938712683
 31
0.0000000000000000
  0
LINE
  5
310
100
AcDbEntity
  8
MAIN0
  6
CONTINUOUS
 62
3
100
AcDbLine
 10
191.6359213829379
 20
57.04604938712683
 30
0.0000000000000000
 11
191.6359213829379
 21
56.74604938712687
 31
0.0000000000000000
  0
LINE
  5
311
100
AcDbEntity
  8
MAIN0
  6
CONTINUOUS
 62
3
100
AcDbLine
 10
182.5359213832080
 20
41.84604938764423
 30
0.0000000000000000
 11
183.1359213826907
 21
42.44604938712692
 31
0.0000000000000000
  0
LINE
  5
312
100
AcDbEntity
  8
MAIN0
  6
CONTINUOUS
 62
3
100
AcDbLine
 10
191.6359213829379
 20
42.44604938712692
 30
0.0000000000000000
 11
191.6359213829379
 21
42.74604938712710
 31
0.0000000000000000
  0
LINE
  5
313
100
AcDbEntity
  8
MAIN0
  6
CONTINUOUS
 62
3
100
AcDbLine
 10
191.6359213829379
 20
42.44604938712692
 30
0.0000000000000000
 11
183.1359213826907
 21
42.44604938712692
 31
0.0000000000000000
  0
LINE
  5
314
100
AcDbEntity
  8
MAIN0
  6
CONTINUOUS
 62
3
100
AcDbLine
 10
194.6698959796394
 20
67.24604938712696
 30
0.0000000000000000
 11
195.5359213833103
 21
66.74604938719293
 31
0.0000000000000000
  0
LINE
  5
315
100
AcDbEntity
  8
MAIN0
  6
CONTINUOUS
 62
3
100
AcDbLine
 10
194.6698959796394
 20
32.24604938712704
 30
0.0000000000000000
 11
195.5359213833103
 21
32.74604938706108
 31
0.0000000000000000
  0
LINE
  5
316
100
AcDbEntity
  8
MAIN0
  6
HIDDEN
 62
3
100
AcDbLine
 10
190.6359213829379
 20
67.24604938712710
 30
0.0000000000000000
 11
190.6359213829379
 21
57.04604938712683
 31
0.0000000000000000
  0
LINE
  5
317
100
AcDbEntity
  8
MAIN0
  6
HIDDEN
 62
3
100
AcDbLine
 10
190.6359213829379
 20
42.44604938712692
 30
0.0000000000000000
 11
190.6359213829379
 21
32.24604938712710
 31
0.0000000000000000
  0
LINE
  5
318
100
AcDbEntity
  8
MAIN0
  6
CONTINUOUS
 62
3
100
AcDbLine
 10
182.5359213831987
 20
56.74604938701171
 30
0.0000000000000000
 11
198.3359213831988
 21
56.74604938701171
 31
0.0000000000000000
  0
LINE
  5
319
100
AcDbEntity
  8
MAIN0
  6
CONTINUOUS
 62
3
100
AcDbLine
 10
173.0359213831988
 20
56.24604938725778
 30
0.0000000000000000
 11
173.0359213832000
 21
43.24604938701160
 31
0.0000000000000000
  0
LINE
  5
31A
100
AcDbEntity
  8
MAIN0
  6
CONTINUOUS
 62
3
100
AcDbLine
 10
198.5359213831987
 20
56.54604938701166
 30
0.0000000000000000
 11
198.5359213832000
 21
42.94604938701158
 31
0.0000000000000000
  0
LINE
  5
31B
100
AcDbEntity
  8
MAIN0
  6
CONTINUOUS
 62
3
100
AcDbLine
 10
182.5359213831998
 20
42.74604938701171
 30
0.0000000000000000
 11
198.3359213832000
 21
42.74604938701171
 31
0.0000000000000000
  0
LINE
  5
31C
100
AcDbEntity
  8
MAIN0
  6
CONTINUOUS
 62
3
100
AcDbLine
 10
176.5359213832001
 20
39.74604938701171
 30
0.0000000000000000
 11
181.9359213832001
 21
39.74604938701171
 31
0.0000000000000000
  0
LINE
  5
31D
100
AcDbEntity
  8
MAIN0
  6
CONTINUOUS
 62
3
100
AcDbLine
 10
182.5359213832000
 20
40.34604938701170
 30
0.0000000000000000
 11
181.9359213832001
 21
39.74604938701174
 31
0.0000000000000000
  0
LINE
  5
31E
100
AcDbEntity
  8
MAIN0
  6
CONTINUOUS
 62
3
100
AcDbLine
 10
182.5359213831985
 20
59.29604938712689
 30
0.0000000000000000
 11
182.5359213831987
 21
56.74604938701131
 31
0.0000000000000000
  0
LINE
  5
31F
100
AcDbEntity
  8
MAIN0
  6
CONTINUOUS
 62
3
100
AcDbLine
 10
182.5359213831999
 20
42.74604938701131
 30
0.0000000000000000
 11
182.5359213832001
 21
40.19604938712686
 31
0.0000000000000000
  0
LINE
  5
320
100
AcDbEntity
  8
MAIN0
  6
CENTER
 62
3
100
AcDbLine
 10
151.6407841836402
 20
49.74604938713273
 30
0.0000000000000000
 11
203.2009691223926
 21
49.74604938713733
 31
0.0000000000000000
  0
LINE
  5
321
100
AcDbEntity
  8
MAIN0
  6
CONTINUOUS
 62
3
100
AcDbLine
 10
181.9359213831985
 20
59.74604938725901
 30
0.0000000000000000
 11
182.5359213831986
 21
59.14604938725910
 31
0.0000000000000000
  0
LINE
  5
322
100
AcDbEntity
  8
MAIN0
  6
CONTINUOUS
 62
3
100
AcDbLine
 10
176.5359213831981
 20
59.74604938725801
 30
0.0000000000000000
 11
181.9359213831984
 21
59.74604938725898
 31
0.0000000000000000
  0
LINE
  5
323
100
AcDbEntity
  8
MAIN0
  6
CONTINUOUS
 62
3
100
AcDbLine
 10
176.5359213831985
 20
59.74604938725827
 30
0.0000000000000000
 11
173.0359213831989
 21
56.24604938725770
 31
0.0000000000000000
  0
LINE
  5
324
100
AcDbEntity
  8
MAIN0
  6
CONTINUOUS
 62
3
100
AcDbLine
 10
173.0359213831999
 20
43.24604938701157
 30
0.0000000000000000
 11
176.5359213832001
 21
39.74604938701162
 31
0.0000000000000000
  0
LINE
  5
325
100
AcDbEntity
  8
MAIN0
  6
HIDDEN
 62
3
100
AcDbLine
 10
198.5359213831999
 20
43.74604938713677
 30
0.0000000000000000
 11
173.0359213831999
 21
43.74604938713677
 31
0.0000000000000000
  0
LINE
  5
326
100
AcDbEntity
  8
MAIN0
  6
HIDDEN
 62
3
100
AcDbLine
 10
198.5359213831989
 20
55.74604938713677
 30
0.0000000000000000
 11
173.0359213831992
 21
55.74604938713677
 31
0.0000000000000000
  0
LINE
  5
327
100
AcDbEntity
  8
MAIN0
  6
HIDDEN
 62
3
100
AcDbLine
 10
198.5359213831999
 20
44.64604938713686
 30
0.0000000000000000
 11
173.0359213831998
 21
44.64604938713686
 31
0.0000000000000000
  0
LINE
  5
328
100
AcDbEntity
  8
MAIN0
  6
HIDDEN
 62
3
100
AcDbLine
 10
173.0359213831989
 20
54.84604938713667
 30
0.0000000000000000
 11
198.5359213831989
 21
54.84604938713667
 31
0.0000000000000000
  0
LINE
  5
329
100
AcDbEntity
  8
MAIN0
  6
CONTINUOUS
 62
3
100
AcDbLine
 10
198.5359213831989
 20
56.54604938701172
 30
0.0000000000000000
 11
198.3359213831989
 21
56.74604938701168
 31
0.0000000000000000
  0
LINE
  5
32A
100
AcDbEntity
  8
MAIN0
  6
CONTINUOUS
 62
3
100
AcDbLine
 10
198.5359213832001
 20
42.94604938701164
 30
0.0000000000000000
 11
198.3359213832001
 21
42.74604938701168
 31
0.0000000000000000
  0
LINE
  5
32B
100
AcDbEntity
  8
MAIN0
  6
CENTER
 62
3
100
AcDbLine
 10
504.1143692733126
 20
198.0188329297118
 30
0.0000000000000000
 11
409.8891241915289
 21
252.4198035421380
 31
0.0000000000000000
  0
LINE
  5
32C
100
AcDbEntity
  8
MAIN0
  6
CONTINUOUS
 62
3
100
AcDbLine
 10
510.1298042906891
 20
215.0417544592302
 30
0.0000000000000000
 11
492.3798042911374
 21
184.2978526255479
 31
0.0000000000000000
  0
LINE
  5
32D
100
AcDbEntity
  8
MAIN0
  6
CONTINUOUS
 62
3
100
AcDbLine
 10
511.5619464052161
 20
223.1638359964678
 30
0.0000000000000000
 11
510.1298042906869
 21
215.0417544592175
 31
0.0000000000000000
  0
LINE
  5
32E
100
AcDbEntity
  8
MAIN0
  6
HIDDEN
 62
3
100
AcDbLine
 10
458.0432800636771
 20
244.8252481083776
 30
0.0000000000000000
 11
440.5432800637246
 21
214.5143589758948
 31
0.0000000000000000
  0
LINE
  5
32F
100
AcDbEntity
  8
MAIN0
  6
HIDDEN
 62
3
100
AcDbLine
 10
441.7740781650733
 20
227.6601638213276
 30
0.0000000000000000
 11
435.8740781650893
 21
217.4410640566620
 31
0.0000000000000000
  0
LINE
  5
330
100
AcDbEntity
  8
MAIN0
  6
HIDDEN
 62
3
100
AcDbLine
 10
453.1742822449085
 20
247.4054252020650
 30
0.0000000000000000
 11
441.7742822449084
 21
227.6600459957797
 31
0.0000000000000000
  0
LINE
  5
331
100
AcDbEntity
  8
MAIN0
  6
CONTINUOUS
 62
3
100
AcDbLine
 10
497.7548042907827
 20
193.6076257156496
 30
0.0000000000000000
 11
452.6348807536135
 21
219.6576257156495
 31
0.0000000000000000
  0
LINE
  5
332
100
AcDbEntity
  8
MAIN0
  6
CONTINUOUS
 62
3
100
AcDbLine
 10
464.5384705920661
 20
241.0752481083878
 30
0.0000000000000000
 11
459.4884705920798
 21
232.3283915301571
 31
0.0000000000000000
  0
LINE
  5
333
100
AcDbEntity
  8
MAIN0
  6
CONTINUOUS
 62
3
100
AcDbLine
 10
452.0884705921000
 20
219.5112155541357
 30
0.0000000000000000
 11
447.0384705921137
 21
210.7643589759050
 31
0.0000000000000000
  0
LINE
  5
334
100
AcDbEntity
  8
MAIN0
  6
HIDDEN
 62
3
100
AcDbLine
 10
435.9472832458465
 20
217.1678589759050
 30
0.0000000000000000
 11
435.8740781650894
 21
217.4410640566620
 31
0.0000000000000000
  0
LINE
  5
335
100
AcDbEntity
  8
MAIN0
  6
HIDDEN
 62
3
100
AcDbLine
 10
453.4474873256650
 20
247.4786302828221
 30
0.0000000000000000
 11
453.1742822449082
 21
247.4054252020652
 31
0.0000000000000000
  0
LINE
  5
336
100
AcDbEntity
  8
MAIN0
  6
CONTINUOUS
 62
3
100
AcDbLine
 10
452.6348807536132
 20
219.6576257156494
 30
0.0000000000000000
 11
452.0884705921001
 21
219.5112155541353
 31
0.0000000000000000
  0
LINE
  5
337
100
AcDbEntity
  8
MAIN0
  6
CONTINUOUS
 62
3
100
AcDbLine
 10
459.6348807535943
 20
231.7819813686427
 30
0.0000000000000000
 11
459.4884705920800
 21
232.3283915301568
 31
0.0000000000000000
  0
LINE
  5
338
100
AcDbEntity
  8
MAIN0
  6
CONTINUOUS
 62
3
100
AcDbLine
 10
504.7548042907638
 20
205.7319813686426
 30
0.0000000000000000
 11
460.8604287324229
 21
231.0744109131612
 31
0.0000000000000000
  0
LINE
  5
339
100
AcDbEntity
  8
MAIN0
  6
CONTINUOUS
 62
3
100
AcDbLine
 10
460.8604287324229
 20
231.0744109131612
 30
0.0000000000000000
 11
459.6348807535946
 21
231.7819813686426
 31
0.0000000000000000
  0
LINE
  5
33A
100
AcDbEntity
  8
MAIN0
  6
CONTINUOUS
 62
3
100
AcDbLine
 10
492.5429802018605
 20
184.4923181033756
 30
0.0000000000000000
 11
446.9518680517276
 21
210.8143589759093
 31
0.0000000000000000
  0
LINE
  5
33B
100
AcDbEntity
  8
MAIN0
  6
HIDDEN
 62
3
100
AcDbLine
 10
446.9518680517276
 20
210.8143589759093
 30
0.0000000000000000
 11
435.9472832458466
 21
217.1678589759047
 31
0.0000000000000000
  0
LINE
  5
33C
100
AcDbEntity
  8
MAIN0
  6
CONTINUOUS
 62
3
100
AcDbLine
 10
510.0048042907496
 20
214.8252481083874
 30
0.0000000000000000
 11
464.4518680517276
 21
241.1252481083646
 31
0.0000000000000000
  0
LINE
  5
33D
100
AcDbEntity
  8
MAIN0
  6
HIDDEN
 62
3
100
AcDbLine
 10
464.4518680517276
 20
241.1252481083646
 30
0.0000000000000000
 11
453.4474873256654
 21
247.4786302828218
 31
0.0000000000000000
  0
ARC
  5
33E
100
AcDbEntity
  8
MAIN0
  6
CONTINUOUS
 62
3
100
AcDbCircle
 10
457.3473163189021
 20
225.0198035421462
 30
0.0000000000000000
 40
7.300000000000000
100
AcDbArc
 50
72.15023583734629
 51
102.1622902708492
  0
ARC
  5
33F
100
AcDbEntity
  8
MAIN0
  6
CONTINUOUS
 62
3
100
AcDbCircle
 10
457.3473163189021
 20
225.0198035421462
 30
0.0000000000000000
 40
7.300000000000000
100
AcDbArc
 50
197.8377097291849
 51
227.8497641628015
  0
LINE
  5
340
100
AcDbEntity
  8
MAIN0
  6
HIDDEN
 62
3
100
AcDbLine
 10
476.2242707004514
 20
184.6763251198075
 30
0.0000000000000000
 11
485.3494552191337
 21
179.4078973815412
 31
0.0000000000000000
  0
LINE
  5
341
100
AcDbEntity
  8
MAIN0
  6
CONTINUOUS
 62
3
100
AcDbLine
 10
485.3494552191337
 20
179.4078973815412
 30
0.0000000000000000
 11
486.0619464052160
 21
178.9965404034613
 31
0.0000000000000000
  0
LINE
  5
342
100
AcDbEntity
  8
MAIN0
  6
HIDDEN
 62
3
100
AcDbLine
 10
501.7242707004514
 20
228.8436207128138
 30
0.0000000000000000
 11
510.8494552191351
 21
223.5751929745468
 31
0.0000000000000000
  0
LINE
  5
343
100
AcDbEntity
  8
MAIN0
  6
CONTINUOUS
 62
3
100
AcDbLine
 10
510.8494552191351
 20
223.5751929745468
 30
0.0000000000000000
 11
511.5619464052163
 21
223.1638359964676
 31
0.0000000000000000
  0
LINE
  5
344
100
AcDbEntity
  8
MAIN0
  6
CENTER
 62
3
100
AcDbLine
 10
491.4253742298046
 20
220.1447312671040
 30
0.0000000000000000
 11
478.6125807521121
 21
197.9523219768535
 31
0.0000000000000000
  0
LINE
  5
345
100
AcDbEntity
  8
MAIN0
  6
CENTER
 62
3
100
AcDbLine
 10
469.7747391351936
 20
232.6447312671040
 30
0.0000000000000000
 11
456.9619456575011
 21
210.4523219768535
 31
0.0000000000000000
  0
LINE
  5
346
100
AcDbEntity
  8
MAIN0
  6
CONTINUOUS
 62
3
100
AcDbLine
 10
491.9091328152477
 20
196.9826257156438
 30
0.0000000000000000
 11
452.9379896449793
 21
219.4826257156257
 31
0.0000000000000000
  0
LINE
  5
347
100
AcDbEntity
  8
MAIN0
  6
CONTINUOUS
 62
3
100
AcDbLine
 10
452.9379896449792
 20
219.4826257156258
 30
0.0000000000000000
 11
451.8399134336107
 21
223.5807019270316
 31
0.0000000000000000
  0
LINE
  5
348
100
AcDbEntity
  8
MAIN0
  6
CONTINUOUS
 62
3
100
AcDbLine
 10
459.9379896449797
 20
231.6069813686079
 30
0.0000000000000000
 11
455.8399134335727
 21
230.5089051572413
 31
0.0000000000000000
  0
LINE
  5
349
100
AcDbEntity
  8
MAIN0
  6
CONTINUOUS
 62
3
100
AcDbLine
 10
498.9091328152442
 20
209.1069813686281
 30
0.0000000000000000
 11
491.9091328152474
 21
196.9826257156441
 31
0.0000000000000000
  0
LINE
  5
34A
100
AcDbEntity
  8
MAIN0
  6
CONTINUOUS
 62
3
100
AcDbLine
 10
451.8454615911745
 20
251.2903116178271
 30
0.0000000000000000
 11
465.7018680517268
 21
243.2903116178263
 31
0.0000000000000000
  0
LINE
  5
34B
100
AcDbEntity
  8
MAIN0
  6
CONTINUOUS
 62
3
100
AcDbLine
 10
465.7018680517268
 20
243.2903116178262
 30
0.0000000000000000
 11
459.2768680516775
 21
232.1618851791030
 31
0.0000000000000000
  0
LINE
  5
34C
100
AcDbEntity
  8
MAIN0
  6
CONTINUOUS
 62
3
100
AcDbLine
 10
451.8454615911744
 20
251.2903116178269
 30
0.0000000000000000
 11
431.8454615911848
 21
216.6492954664434
 31
0.0000000000000000
  0
CIRCLE
  5
34D
100
AcDbEntity
  8
MAIN0
  6
CONTINUOUS
 62
3
100
AcDbCircle
 10
458.1413562750769
 20
238.9951210894420
 30
0.0000000000000000
 40
3.150000000000000
  0
LINE
  5
34E
100
AcDbEntity
  8
MAIN0
  6
CENTER
 62
3
100
AcDbLine
 10
455.5663562750771
 20
234.5350902599523
 30
0.0000000000000000
 11
460.7163562750770
 21
243.4551519189319
 31
0.0000000000000000
  0
LINE
  5
34F
100
AcDbEntity
  8
MAIN0
  6
CENTER
 62
3
100
AcDbLine
 10
462.6013871045669
 20
236.4201210894419
 30
0.0000000000000000
 11
453.6813254455871
 21
241.5701210894420
 31
0.0000000000000000
  0
LINE
  5
350
100
AcDbEntity
  8
MAIN0
  6
CONTINUOUS
 62
3
100
AcDbLine
 10
431.8454615911849
 20
216.6492954664435
 30
0.0000000000000000
 11
445.7018680517268
 21
208.6492954664487
 31
0.0000000000000000
  0
LINE
  5
351
100
AcDbEntity
  8
MAIN0
  6
CONTINUOUS
 62
3
100
AcDbLine
 10
445.7018680517268
 20
208.6492954664488
 30
0.0000000000000000
 11
452.1268680516776
 21
219.7777219049859
 31
0.0000000000000000
  0
CIRCLE
  5
352
100
AcDbEntity
  8
MAIN0
  6
CONTINUOUS
 62
3
100
AcDbCircle
 10
445.6413562750769
 20
217.3444859948310
 30
0.0000000000000000
 40
3.150000000000000
  0
LINE
  5
353
100
AcDbEntity
  8
MAIN0
  6
CENTER
 62
3
100
AcDbLine
 10
448.2163562750770
 20
221.8045168243210
 30
0.0000000000000000
 11
443.0663562750771
 21
212.8844551653413
 31
0.0000000000000000
  0
LINE
  5
354
100
AcDbEntity
  8
MAIN0
  6
CENTER
 62
3
100
AcDbLine
 10
450.1013871045669
 20
214.7694859948310
 30
0.0000000000000000
 11
441.1813254455871
 21
219.9194859948311
 31
0.0000000000000000
  0
LINE
  5
355
100
AcDbEntity
  8
MAIN0
  6
CONTINUOUS
 62
3
100
AcDbLine
 10
456.6787918403240
 20
233.6618851791031
 30
0.0000000000000000
 11
449.5287918403278
 21
221.2777219049835
 31
0.0000000000000000
  0
LINE
  5
356
100
AcDbEntity
  8
MAIN0
  6
CONTINUOUS
 62
3
100
AcDbLine
 10
456.6787918403243
 20
233.6618851791032
 30
0.0000000000000000
 11
459.2768680516776
 21
232.1618851791032
 31
0.0000000000000000
  0
LINE
  5
357
100
AcDbEntity
  8
MAIN0
  6
CONTINUOUS
 62
3
100
AcDbLine
 10
449.5287918403238
 20
221.2777219049858
 30
0.0000000000000000
 11
452.1268680516775
 21
219.7777219049856
 31
0.0000000000000000
  0
LINE
  5
358
100
AcDbEntity
  8
MAIN0
  6
CONTINUOUS
 62
3
100
AcDbLine
 10
486.0619464052160
 20
178.9965404034612
 30
0.0000000000000000
 11
492.3798042908187
 21
184.2978526250981
 31
0.0000000000000000
  0
LINE
  5
359
100
AcDbEntity
  8
MAIN0
  6
CONTINUOUS
 62
3
100
AcDbLine
 10
309.6484440923688
 20
215.0417544592303
 30
0.0000000000000000
 11
327.3984440919205
 21
184.2978526255479
 31
0.0000000000000000
  0
LINE
  5
35A
100
AcDbEntity
  8
MAIN0
  6
CONTINUOUS
 62
3
100
AcDbLine
 10
308.2163019778418
 20
223.1638359964678
 30
0.0000000000000000
 11
309.6484440923709
 21
215.0417544592175
 31
0.0000000000000000
  0
LINE
  5
35B
100
AcDbEntity
  8
MAIN0
  6
HIDDEN
 62
3
100
AcDbLine
 10
361.7349683193808
 20
244.8252481083776
 30
0.0000000000000000
 11
379.2349683193332
 21
214.5143589758948
 31
0.0000000000000000
  0
LINE
  5
35C
100
AcDbEntity
  8
MAIN0
  6
HIDDEN
 62
3
100
AcDbLine
 10
378.0041702179847
 20
227.6601638213276
 30
0.0000000000000000
 11
383.9041702179687
 21
217.4410640566620
 31
0.0000000000000000
  0
LINE
  5
35D
100
AcDbEntity
  8
MAIN0
  6
HIDDEN
 62
3
100
AcDbLine
 10
366.6039661381495
 20
247.4054252020650
 30
0.0000000000000000
 11
378.0039661381495
 21
227.6600459957797
 31
0.0000000000000000
  0
LINE
  5
35E
100
AcDbEntity
  8
MAIN0
  6
CONTINUOUS
 62
3
100
AcDbLine
 10
322.0234440922752
 20
193.6076257156496
 30
0.0000000000000000
 11
367.1433676294444
 21
219.6576257156495
 31
0.0000000000000000
  0
LINE
  5
35F
100
AcDbEntity
  8
MAIN0
  6
CONTINUOUS
 62
3
100
AcDbLine
 10
355.2397777909918
 20
241.0752481083878
 30
0.0000000000000000
 11
360.2897777909781
 21
232.3283915301570
 31
0.0000000000000000
  0
LINE
  5
360
100
AcDbEntity
  8
MAIN0
  6
CONTINUOUS
 62
3
100
AcDbLine
 10
367.6897777909580
 20
219.5112155541357
 30
0.0000000000000000
 11
372.7397777909442
 21
210.7643589759050
 31
0.0000000000000000
  0
LINE
  5
361
100
AcDbEntity
  8
MAIN0
  6
HIDDEN
 62
3
100
AcDbLine
 10
383.8309651372114
 20
217.1678589759050
 30
0.0000000000000000
 11
383.9041702179685
 21
217.4410640566620
 31
0.0000000000000000
  0
LINE
  5
362
100
AcDbEntity
  8
MAIN0
  6
HIDDEN
 62
3
100
AcDbLine
 10
366.3307610573928
 20
247.4786302828221
 30
0.0000000000000000
 11
366.6039661381496
 21
247.4054252020652
 31
0.0000000000000000
  0
LINE
  5
363
100
AcDbEntity
  8
MAIN0
  6
CONTINUOUS
 62
3
100
AcDbLine
 10
367.1433676294447
 20
219.6576257156494
 30
0.0000000000000000
 11
367.6897777909578
 21
219.5112155541353
 31
0.0000000000000000
  0
LINE
  5
364
100
AcDbEntity
  8
MAIN0
  6
CONTINUOUS
 62
3
100
AcDbLine
 10
360.1433676294637
 20
231.7819813686427
 30
0.0000000000000000
 11
360.2897777909780
 21
232.3283915301568
 31
0.0000000000000000
  0
LINE
  5
365
100
AcDbEntity
  8
MAIN0
  6
CONTINUOUS
 62
3
100
AcDbLine
 10
315.0234440922941
 20
205.7319813686426
 30
0.0000000000000000
 11
358.9178196506350
 21
231.0744109131612
 31
0.0000000000000000
  0
LINE
  5
366
100
AcDbEntity
  8
MAIN0
  6
CONTINUOUS
 62
3
100
AcDbLine
 10
358.9178196506350
 20
231.0744109131612
 30
0.0000000000000000
 11
360.1433676294633
 21
231.7819813686426
 31
0.0000000000000000
  0
LINE
  5
367
100
AcDbEntity
  8
MAIN0
  6
CONTINUOUS
 62
3
100
AcDbLine
 10
327.2352681811974
 20
184.4923181033756
 30
0.0000000000000000
 11
372.8263803313304
 21
210.8143589759093
 31
0.0000000000000000
  0
LINE
  5
368
100
AcDbEntity
  8
MAIN0
  6
HIDDEN
 62
3
100
AcDbLine
 10
372.8263803313304
 20
210.8143589759093
 30
0.0000000000000000
 11
383.8309651372113
 21
217.1678589759047
 31
0.0000000000000000
  0
LINE
  5
369
100
AcDbEntity
  8
MAIN0
  6
CONTINUOUS
 62
3
100
AcDbLine
 10
309.7734440923083
 20
214.8252481083874
 30
0.0000000000000000
 11
355.3263803313303
 21
241.1252481083646
 31
0.0000000000000000
  0
LINE
  5
36A
100
AcDbEntity
  8
MAIN0
  6
HIDDEN
 62
3
100
AcDbLine
 10
355.3263803313303
 20
241.1252481083646
 30
0.0000000000000000
 11
366.3307610573926
 21
247.4786302828218
 31
0.0000000000000000
  0
ARC
  5
36B
100
AcDbEntity
  8
MAIN0
  6
CONTINUOUS
 62
3
100
AcDbCircle
 10
362.4309320641558
 20
225.0198035421462
 30
0.0000000000000000
 40
7.300000000000000
100
AcDbArc
 50
77.83770972915077
 51
107.8497641626537
  0
ARC
  5
36C
100
AcDbEntity
  8
MAIN0
  6
CONTINUOUS
 62
3
100
AcDbCircle
 10
362.4309320641558
 20
225.0198035421462
 30
0.0000000000000000
 40
7.300000000000000
100
AcDbArc
 50
312.1502358371985
 51
342.1622902708151
  0
LINE
  5
36D
100
AcDbEntity
  8
MAIN0
  6
HIDDEN
 62
3
100
AcDbLine
 10
343.5539776826066
 20
184.6763251198075
 30
0.0000000000000000
 11
334.4287931639242
 21
179.4078973815412
 31
0.0000000000000000
  0
LINE
  5
36E
100
AcDbEntity
  8
MAIN0
  6
CONTINUOUS
 62
3
100
AcDbLine
 10
334.4287931639242
 20
179.4078973815412
 30
0.0000000000000000
 11
333.7163019778419
 21
178.9965404034613
 31
0.0000000000000000
  0
LINE
  5
36F
100
AcDbEntity
  8
MAIN0
  6
HIDDEN
 62
3
100
AcDbLine
 10
318.0539776826066
 20
228.8436207128139
 30
0.0000000000000000
 11
308.9287931639228
 21
223.5751929745468
 31
0.0000000000000000
  0
LINE
  5
370
100
AcDbEntity
  8
MAIN0
  6
CONTINUOUS
 62
3
100
AcDbLine
 10
308.9287931639228
 20
223.5751929745468
 30
0.0000000000000000
 11
308.2163019778416
 21
223.1638359964676
 31
0.0000000000000000
  0
LINE
  5
371
100
AcDbEntity
  8
MAIN0
  6
CENTER
 62
3
100
AcDbLine
 10
328.3528741532534
 20
220.1447312671040
 30
0.0000000000000000
 11
341.1656676309459
 21
197.9523219768535
 31
0.0000000000000000
  0
LINE
  5
372
100
AcDbEntity
  8
MAIN0
  6
CENTER
 62
3
100
AcDbLine
 10
350.0035092478643
 20
232.6447312671040
 30
0.0000000000000000
 11
362.8163027255569
 21
210.4523219768535
 31
0.0000000000000000
  0
LINE
  5
373
100
AcDbEntity
  8
MAIN0
  6
CONTINUOUS
 62
3
100
AcDbLine
 10
327.8691155678101
 20
196.9826257156438
 30
0.0000000000000000
 11
366.8402587380786
 21
219.4826257156257
 31
0.0000000000000000
  0
LINE
  5
374
100
AcDbEntity
  8
MAIN0
  6
CONTINUOUS
 62
3
100
AcDbLine
 10
366.8402587380787
 20
219.4826257156258
 30
0.0000000000000000
 11
367.9383349494472
 21
223.5807019270316
 31
0.0000000000000000
  0
LINE
  5
375
100
AcDbEntity
  8
MAIN0
  6
CONTINUOUS
 62
3
100
AcDbLine
 10
359.8402587380783
 20
231.6069813686079
 30
0.0000000000000000
 11
363.9383349494853
 21
230.5089051572413
 31
0.0000000000000000
  0
LINE
  5
376
100
AcDbEntity
  8
MAIN0
  6
CONTINUOUS
 62
3
100
AcDbLine
 10
320.8691155678138
 20
209.1069813686281
 30
0.0000000000000000
 11
327.8691155678105
 21
196.9826257156441
 31
0.0000000000000000
  0
LINE
  5
377
100
AcDbEntity
  8
MAIN0
  6
CONTINUOUS
 62
3
100
AcDbLine
 10
367.9327867918835
 20
251.2903116178270
 30
0.0000000000000000
 11
354.0763803313311
 21
243.2903116178262
 31
0.0000000000000000
  0
LINE
  5
378
100
AcDbEntity
  8
MAIN0
  6
CONTINUOUS
 62
3
100
AcDbLine
 10
354.0763803313311
 20
243.2903116178262
 30
0.0000000000000000
 11
360.5013803313805
 21
232.1618851791030
 31
0.0000000000000000
  0
LINE
  5
379
100
AcDbEntity
  8
MAIN0
  6
CONTINUOUS
 62
3
100
AcDbLine
 10
367.9327867918835
 20
251.2903116178269
 30
0.0000000000000000
 11
387.9327867918730
 21
216.6492954664434
 31
0.0000000000000000
  0
CIRCLE
  5
37A
100
AcDbEntity
  8
MAIN0
  6
CONTINUOUS
 62
3
100
AcDbCircle
 10
361.6368921079809
 20
238.9951210894420
 30
0.0000000000000000
 40
3.150000000000000
  0
LINE
  5
37B
100
AcDbEntity
  8
MAIN0
  6
CENTER
 62
3
100
AcDbLine
 10
364.2118921079808
 20
234.5350902599522
 30
0.0000000000000000
 11
359.0618921079808
 21
243.4551519189319
 31
0.0000000000000000
  0
LINE
  5
37C
100
AcDbEntity
  8
MAIN0
  6
CENTER
 62
3
100
AcDbLine
 10
357.1768612784910
 20
236.4201210894419
 30
0.0000000000000000
 11
366.0969229374708
 21
241.5701210894420
 31
0.0000000000000000
  0
LINE
  5
37D
100
AcDbEntity
  8
MAIN0
  6
CONTINUOUS
 62
3
100
AcDbLine
 10
387.9327867918730
 20
216.6492954664435
 30
0.0000000000000000
 11
374.0763803313311
 21
208.6492954664487
 31
0.0000000000000000
  0
LINE
  5
37E
100
AcDbEntity
  8
MAIN0
  6
CONTINUOUS
 62
3
100
AcDbLine
 10
374.0763803313311
 20
208.6492954664488
 30
0.0000000000000000
 11
367.6513803313803
 21
219.7777219049859
 31
0.0000000000000000
  0
CIRCLE
  5
37F
100
AcDbEntity
  8
MAIN0
  6
CONTINUOUS
 62
3
100
AcDbCircle
 10
374.1368921079809
 20
217.3444859948310
 30
0.0000000000000000
 40
3.150000000000000
  0
LINE
  5
380
100
AcDbEntity
  8
MAIN0
  6
CENTER
 62
3
100
AcDbLine
 10
371.5618921079808
 20
221.8045168243209
 30
0.0000000000000000
 11
376.7118921079808
 21
212.8844551653413
 31
0.0000000000000000
  0
LINE
  5
381
100
AcDbEntity
  8
MAIN0
  6
CENTER
 62
3
100
AcDbLine
 10
369.6768612784910
 20
214.7694859948309
 30
0.0000000000000000
 11
378.5969229374708
 21
219.9194859948310
 31
0.0000000000000000
  0
LINE
  5
382
100
AcDbEntity
  8
MAIN0
  6
CONTINUOUS
 62
3
100
AcDbLine
 10
363.0994565427338
 20
233.6618851791031
 30
0.0000000000000000
 11
370.2494565427301
 21
221.2777219049835
 31
0.0000000000000000
  0
LINE
  5
383
100
AcDbEntity
  8
MAIN0
  6
CONTINUOUS
 62
3
100
AcDbLine
 10
363.0994565427336
 20
233.6618851791032
 30
0.0000000000000000
 11
360.5013803313803
 21
232.1618851791032
 31
0.0000000000000000
  0
LINE
  5
384
100
AcDbEntity
  8
MAIN0
  6
CONTINUOUS
 62
3
100
AcDbLine
 10
370.2494565427341
 20
221.2777219049858
 30
0.0000000000000000
 11
367.6513803313804
 21
219.7777219049855
 31
0.0000000000000000
  0
LINE
  5
385
100
AcDbEntity
  8
MAIN0
  6
CONTINUOUS
 62
3
100
AcDbLine
 10
333.7163019778419
 20
178.9965404034612
 30
0.0000000000000000
 11
327.3984440922391
 21
184.2978526250981
 31
0.0000000000000000
  0
LINE
  5
386
100
AcDbEntity
  8
MAIN0
  6
CENTER
 62
3
100
AcDbLine
 10
296.9220046480084
 20
187.1982066641098
 30
0.0000000000000000
 11
409.8891241915289
 21
252.4198035421380
 31
0.0000000000000000
  0
LINE
  5
387
100
AcDbEntity
  8
MAIN0
  6
CONTINUOUS
 62
3
100
AcDbLine
 10
435.3891241915321
 20
354.2763202703306
 30
0.0000000000000000
 11
435.3891241915321
 21
355.0990342264904
 31
0.0000000000000000
  0
LINE
  5
388
100
AcDbEntity
  8
MAIN0
  6
HIDDEN
 62
3
100
AcDbLine
 10
392.1391241916517
 20
357.9198035420992
 30
0.0000000000000000
 11
427.6391241908515
 21
357.9198035421549
 31
0.0000000000000000
  0
LINE
  5
389
100
AcDbEntity
  8
MAIN0
  6
CONTINUOUS
 62
3
100
AcDbLine
 10
384.3891241915320
 20
355.0990342264904
 30
0.0000000000000000
 11
392.1391241916638
 21
357.9198035421038
 31
0.0000000000000000
  0
LINE
  5
38A
100
AcDbEntity
  8
MAIN0
  6
CONTINUOUS
 62
3
100
AcDbLine
 10
384.3891241915320
 20
354.2763202703321
 30
0.0000000000000000
 11
384.3891241915320
 21
355.0990342264906
 31
0.0000000000000000
  0
LINE
  5
38B
100
AcDbEntity
  8
MAIN0
  6
CONTINUOUS
 62
3
100
AcDbLine
 10
435.3891241915321
 20
355.0990342264904
 30
0.0000000000000000
 11
427.6391241914002
 21
357.9198035421038
 31
0.0000000000000000
  0
LINE
  5
38C
100
AcDbEntity
  8
MAIN0
  6
CONTINUOUS
 62
3
100
AcDbLine
 10
456.4509860790650
 20
238.5421877605173
 30
0.0000000000000000
 11
459.8317264710767
 21
239.4480544183761
 31
0.0000000000000000
  0
LINE
  5
38D
100
AcDbEntity
  8
MAIN0
  6
CONTINUOUS
 62
3
100
AcDbLine
 10
458.5942896040002
 20
237.3047508934407
 30
0.0000000000000000
 11
457.6884229461414
 21
240.6854912854524
 31
0.0000000000000000
  0
LINE
  5
38E
100
AcDbEntity
  8
MAIN0
  6
CONTINUOUS
 62
3
100
AcDbLine
 10
446.0942896040005
 20
215.6541157988296
 30
0.0000000000000000
 11
445.1884229461417
 21
219.0348561908414
 31
0.0000000000000000
  0
LINE
  5
38F
100
AcDbEntity
  8
MAIN0
  6
CONTINUOUS
 62
3
100
AcDbLine
 10
443.9509860790652
 20
216.8915526659064
 30
0.0000000000000000
 11
447.3317264710768
 21
217.7974193237651
 31
0.0000000000000000
  0
LINE
  5
390
100
AcDbEntity
  8
MAIN0
  6
CONTINUOUS
 62
3
100
AcDbLine
 10
361.1839587790577
 20
237.3047508934407
 30
0.0000000000000000
 11
362.0898254369165
 21
240.6854912854524
 31
0.0000000000000000
  0
LINE
  5
391
100
AcDbEntity
  8
MAIN0
  6
CONTINUOUS
 62
3
100
AcDbLine
 10
363.3272623039929
 20
238.5421877605173
 30
0.0000000000000000
 11
359.9465219119813
 21
239.4480544183761
 31
0.0000000000000000
  0
LINE
  5
392
100
AcDbEntity
  8
MAIN0
  6
CONTINUOUS
 62
3
100
AcDbLine
 10
373.6839587790574
 20
215.6541157988296
 30
0.0000000000000000
 11
374.5898254369162
 21
219.0348561908414
 31
0.0000000000000000
  0
LINE
  5
393
100
AcDbEntity
  8
MAIN0
  6
CONTINUOUS
 62
3
100
AcDbLine
 10
375.8272623039927
 20
216.8915526659063
 30
0.0000000000000000
 11
372.4465219119811
 21
217.7974193237651
 31
0.0000000000000000
  0
CIRCLE
  5
394
100
AcDbEntity
  8
MAIN0
  6
CONTINUOUS
 62
3
100
AcDbCircle
 10
409.8891241915289
 20
159.4198035421416
 30
0.0000000000000000
 40
4.000000000000000
  0
CIRCLE
  5
395
100
AcDbEntity
  8
MAIN0
  6
CONTINUOUS
 62
3
100
AcDbCircle
 10
409.8891241915289
 20
159.4198035421416
 30
0.0000000000000000
 40
3.400000000000000
  0
CIRCLE
  5
396
100
AcDbEntity
  8
MAIN0
  6
CONTINUOUS
 62
3
100
AcDbCircle
 10
409.8891241915289
 20
184.4198035421416
 30
0.0000000000000000
 40
4.000000000000000
  0
CIRCLE
  5
397
100
AcDbEntity
  8
MAIN0
  6
CONTINUOUS
 62
3
100
AcDbCircle
 10
409.8891241915289
 20
184.4198035421416
 30
0.0000000000000000
 40
3.400000000000000
  0
CIRCLE
  5
398
100
AcDbEntity
  8
MAIN0
  6
CONTINUOUS
 62
3
100
AcDbCircle
 10
467.3891241915248
 20
152.8268821069287
 30
0.0000000000000000
 40
5.000000000000000
  0
CIRCLE
  5
399
100
AcDbEntity
  8
MAIN0
  6
CONTINUOUS
 62
3
100
AcDbCircle
 10
467.3891241915248
 20
152.8268821069287
 30
0.0000000000000000
 40
4.250000000000000
  0
CIRCLE
  5
39A
100
AcDbEntity
  8
MAIN0
  6
CONTINUOUS
 62
3
100
AcDbCircle
 10
420.8891241915289
 20
139.4198035421416
 30
0.0000000000000000
 40
5.000000000000000
  0
LINE
  5
39B
100
AcDbEntity
  8
MAIN0
  6
CONTINUOUS
 62
3
100
AcDbLine
 10
420.8891241915289
 20
142.3065548880897
 30
0.0000000000000000
 11
418.3891241915289
 21
140.8631792151156
 31
0.0000000000000000
  0
LINE
  5
39C
100
AcDbEntity
  8
MAIN0
  6
CONTINUOUS
 62
3
100
AcDbLine
 10
418.3891241915289
 20
140.8631792151156
 30
0.0000000000000000
 11
418.3891241915289
 21
137.9764278691676
 31
0.0000000000000000
  0
LINE
  5
39D
100
AcDbEntity
  8
MAIN0
  6
CONTINUOUS
 62
3
100
AcDbLine
 10
418.3891241915289
 20
137.9764278691676
 30
0.0000000000000000
 11
420.8891241915289
 21
136.5330521961935
 31
0.0000000000000000
  0
LINE
  5
39E
100
AcDbEntity
  8
MAIN0
  6
CONTINUOUS
 62
3
100
AcDbLine
 10
420.8891241915289
 20
136.5330521961935
 30
0.0000000000000000
 11
423.3891241915289
 21
137.9764278691676
 31
0.0000000000000000
  0
LINE
  5
39F
100
AcDbEntity
  8
MAIN0
  6
CONTINUOUS
 62
3
100
AcDbLine
 10
423.3891241915289
 20
137.9764278691676
 30
0.0000000000000000
 11
423.3891241915289
 21
140.8631792151156
 31
0.0000000000000000
  0
LINE
  5
3A0
100
AcDbEntity
  8
MAIN0
  6
CONTINUOUS
 62
3
100
AcDbLine
 10
423.3891241915289
 20
140.8631792151157
 30
0.0000000000000000
 11
420.8891241915289
 21
142.3065548880898
 31
0.0000000000000000
  0
CIRCLE
  5
3A1
100
AcDbEntity
  8
MAIN0
  6
CONTINUOUS
 62
3
100
AcDbCircle
 10
398.8891241915289
 20
139.4198035421416
 30
0.0000000000000000
 40
5.000000000000000
  0
LINE
  5
3A2
100
AcDbEntity
  8
MAIN0
  6
CONTINUOUS
 62
3
100
AcDbLine
 10
398.8891241915289
 20
142.3065548880897
 30
0.0000000000000000
 11
396.3891241915289
 21
140.8631792151156
 31
0.0000000000000000
  0
LINE
  5
3A3
100
AcDbEntity
  8
MAIN0
  6
CONTINUOUS
 62
3
100
AcDbLine
 10
396.3891241915289
 20
140.8631792151156
 30
0.0000000000000000
 11
396.3891241915289
 21
137.9764278691675
 31
0.0000000000000000
  0
LINE
  5
3A4
100
AcDbEntity
  8
MAIN0
  6
CONTINUOUS
 62
3
100
AcDbLine
 10
396.3891241915289
 20
137.9764278691675
 30
0.0000000000000000
 11
398.8891241915289
 21
136.5330521961935
 31
0.0000000000000000
  0
LINE
  5
3A5
100
AcDbEntity
  8
MAIN0
  6
CONTINUOUS
 62
3
100
AcDbLine
 10
398.8891241915289
 20
136.5330521961935
 30
0.0000000000000000
 11
401.3891241915289
 21
137.9764278691675
 31
0.0000000000000000
  0
LINE
  5
3A6
100
AcDbEntity
  8
MAIN0
  6
CONTINUOUS
 62
3
100
AcDbLine
 10
401.3891241915289
 20
137.9764278691675
 30
0.0000000000000000
 11
401.3891241915289
 21
140.8631792151156
 31
0.0000000000000000
  0
LINE
  5
3A7
100
AcDbEntity
  8
MAIN0
  6
CONTINUOUS
 62
3
100
AcDbLine
 10
401.3891241915289
 20
140.8631792151156
 30
0.0000000000000000
 11
398.8891241915289
 21
142.3065548880897
 31
0.0000000000000000
  0
CIRCLE
  5
3A8
100
AcDbEntity
  8
MAIN0
  6
CONTINUOUS
 62
3
100
AcDbCircle
 10
524.8891241915291
 20
252.4198035421343
 30
0.0000000000000000
 40
5.000000000000000
  0
CIRCLE
  5
3A9
100
AcDbEntity
  8
MAIN0
  6
CONTINUOUS
 62
3
100
AcDbCircle
 10
524.8891241915291
 20
252.4198035421343
 30
0.0000000000000000
 40
4.250000000000000
  0
CIRCLE
  5
3AA
100
AcDbEntity
  8
MAIN0
  6
CONTINUOUS
 62
3
100
AcDbCircle
 10
490.4294867434788
 20
298.9198035421466
 30
0.0000000000000000
 40
4.000000000000000
  0
CIRCLE
  5
3AB
100
AcDbEntity
  8
MAIN0
  6
CONTINUOUS
 62
3
100
AcDbCircle
 10
490.4294867434788
 20
298.9198035421466
 30
0.0000000000000000
 40
3.400000000000000
  0
CIRCLE
  5
3AC
100
AcDbEntity
  8
MAIN0
  6
CONTINUOUS
 62
3
100
AcDbCircle
 10
468.7788516488686
 20
286.4198035421453
 30
0.0000000000000000
 40
4.000000000000000
  0
CIRCLE
  5
3AD
100
AcDbEntity
  8
MAIN0
  6
CONTINUOUS
 62
3
100
AcDbCircle
 10
468.7788516488686
 20
286.4198035421453
 30
0.0000000000000000
 40
3.400000000000000
  0
CIRCLE
  5
3AE
100
AcDbEntity
  8
MAIN0
  6
CONTINUOUS
 62
3
100
AcDbCircle
 10
453.8399134335876
 20
277.7948035421443
 30
0.0000000000000000
 40
4.250000000000000
  0
LINE
  5
3AF
100
AcDbEntity
  8
MAIN0
  6
CONTINUOUS
 62
3
100
AcDbLine
 10
453.8399134335876
 20
280.1042046189028
 30
0.0000000000000000
 11
451.8399134335876
 21
278.9495040805236
 31
0.0000000000000000
  0
LINE
  5
3B0
100
AcDbEntity
  8
MAIN0
  6
CONTINUOUS
 62
3
100
AcDbLine
 10
451.8399134335876
 20
278.9495040805236
 30
0.0000000000000000
 11
451.8399134335876
 21
276.6401030037652
 31
0.0000000000000000
  0
LINE
  5
3B1
100
AcDbEntity
  8
MAIN0
  6
CONTINUOUS
 62
3
100
AcDbLine
 10
451.8399134335876
 20
276.6401030037652
 30
0.0000000000000000
 11
453.8399134335876
 21
275.4854024653859
 31
0.0000000000000000
  0
LINE
  5
3B2
100
AcDbEntity
  8
MAIN0
  6
CONTINUOUS
 62
3
100
AcDbLine
 10
453.8399134335876
 20
275.4854024653859
 30
0.0000000000000000
 11
455.8399134335876
 21
276.6401030037652
 31
0.0000000000000000
  0
LINE
  5
3B3
100
AcDbEntity
  8
MAIN0
  6
CONTINUOUS
 62
3
100
AcDbLine
 10
455.8399134335876
 20
276.6401030037652
 30
0.0000000000000000
 11
455.8399134335876
 21
278.9495040805236
 31
0.0000000000000000
  0
LINE
  5
3B4
100
AcDbEntity
  8
MAIN0
  6
CONTINUOUS
 62
3
100
AcDbLine
 10
455.8399134335876
 20
278.9495040805236
 30
0.0000000000000000
 11
453.8399134335876
 21
280.1042046189028
 31
0.0000000000000000
  0
CIRCLE
  5
3B5
100
AcDbEntity
  8
MAIN0
  6
CONTINUOUS
 62
3
100
AcDbCircle
 10
467.3891241915374
 20
352.0127249773473
 30
0.0000000000000000
 40
5.000000000000000
  0
CIRCLE
  5
3B6
100
AcDbEntity
  8
MAIN0
  6
CONTINUOUS
 62
3
100
AcDbCircle
 10
467.3891241915374
 20
352.0127249773473
 30
0.0000000000000000
 40
4.250000000000000
  0
CIRCLE
  5
3B7
100
AcDbEntity
  8
MAIN0
  6
CONTINUOUS
 62
3
100
AcDbCircle
 10
352.3891241915393
 20
352.0127249773582
 30
0.0000000000000000
 40
5.000000000000000
  0
CIRCLE
  5
3B8
100
AcDbEntity
  8
MAIN0
  6
CONTINUOUS
 62
3
100
AcDbCircle
 10
352.3891241915393
 20
352.0127249773582
 30
0.0000000000000000
 40
4.250000000000000
  0
CIRCLE
  5
3B9
100
AcDbEntity
  8
MAIN0
  6
CONTINUOUS
 62
3
100
AcDbCircle
 10
409.8891241915289
 20
339.1698035421415
 30
0.0000000000000000
 40
9.000000000000000
  0
LINE
  5
3BA
100
AcDbEntity
  8
MAIN0
  6
CONTINUOUS
 62
3
100
AcDbLine
 10
409.8891241915289
 20
344.9433062340377
 30
0.0000000000000000
 11
404.8891241915289
 21
342.0565548880895
 31
0.0000000000000000
  0
LINE
  5
3BB
100
AcDbEntity
  8
MAIN0
  6
CONTINUOUS
 62
3
100
AcDbLine
 10
404.8891241915289
 20
342.0565548880895
 30
0.0000000000000000
 11
404.8891241915289
 21
336.2830521961934
 31
0.0000000000000000
  0
LINE
  5
3BC
100
AcDbEntity
  8
MAIN0
  6
CONTINUOUS
 62
3
100
AcDbLine
 10
404.8891241915289
 20
336.2830521961934
 30
0.0000000000000000
 11
409.8891241915289
 21
333.3963008502452
 31
0.0000000000000000
  0
LINE
  5
3BD
100
AcDbEntity
  8
MAIN0
  6
CONTINUOUS
 62
3
100
AcDbLine
 10
409.8891241915289
 20
333.3963008502452
 30
0.0000000000000000
 11
414.8891241915289
 21
336.2830521961934
 31
0.0000000000000000
  0
LINE
  5
3BE
100
AcDbEntity
  8
MAIN0
  6
CONTINUOUS
 62
3
100
AcDbLine
 10
414.8891241915289
 20
336.2830521961934
 30
0.0000000000000000
 11
414.8891241915289
 21
342.0565548880895
 31
0.0000000000000000
  0
LINE
  5
3BF
100
AcDbEntity
  8
MAIN0
  6
CONTINUOUS
 62
3
100
AcDbLine
 10
414.8891241915289
 20
342.0565548880895
 30
0.0000000000000000
 11
409.8891241915289
 21
344.9433062340377
 31
0.0000000000000000
  0
CIRCLE
  5
3C0
100
AcDbEntity
  8
MAIN0
  6
CONTINUOUS
 62
3
100
AcDbCircle
 10
409.8891241915289
 20
339.1698035421415
 30
0.0000000000000000
 40
10.00000000000000
  0
CIRCLE
  5
3C1
100
AcDbEntity
  8
MAIN0
  6
CONTINUOUS
 62
3
100
AcDbCircle
 10
409.8891241915289
 20
314.1698035421416
 30
0.0000000000000000
 40
10.00000000000000
  0
CIRCLE
  5
3C2
100
AcDbEntity
  8
MAIN0
  6
CONTINUOUS
 62
3
100
AcDbCircle
 10
409.8891241915289
 20
314.1698035421416
 30
0.0000000000000000
 40
9.000000000000000
  0
LINE
  5
3C3
100
AcDbEntity
  8
MAIN0
  6
CONTINUOUS
 62
3
100
AcDbLine
 10
409.8891241915289
 20
319.9433062340378
 30
0.0000000000000000
 11
404.8891241915289
 21
317.0565548880896
 31
0.0000000000000000
  0
LINE
  5
3C4
100
AcDbEntity
  8
MAIN0
  6
CONTINUOUS
 62
3
100
AcDbLine
 10
404.8891241915289
 20
317.0565548880896
 30
0.0000000000000000
 11
404.8891241915289
 21
311.2830521961936
 31
0.0000000000000000
  0
LINE
  5
3C5
100
AcDbEntity
  8
MAIN0
  6
CONTINUOUS
 62
3
100
AcDbLine
 10
404.8891241915289
 20
311.2830521961935
 30
0.0000000000000000
 11
409.8891241915289
 21
308.3963008502453
 31
0.0000000000000000
  0
LINE
  5
3C6
100
AcDbEntity
  8
MAIN0
  6
CONTINUOUS
 62
3
100
AcDbLine
 10
409.8891241915289
 20
308.3963008502454
 30
0.0000000000000000
 11
414.8891241915289
 21
311.2830521961935
 31
0.0000000000000000
  0
LINE
  5
3C7
100
AcDbEntity
  8
MAIN0
  6
CONTINUOUS
 62
3
100
AcDbLine
 10
414.8891241915289
 20
311.2830521961936
 30
0.0000000000000000
 11
414.8891241915289
 21
317.0565548880896
 31
0.0000000000000000
  0
LINE
  5
3C8
100
AcDbEntity
  8
MAIN0
  6
CONTINUOUS
 62
3
100
AcDbLine
 10
414.8891241915289
 20
317.0565548880896
 30
0.0000000000000000
 11
409.8891241915289
 21
319.9433062340378
 31
0.0000000000000000
  0
CIRCLE
  5
3C9
100
AcDbEntity
  8
MAIN0
  6
CONTINUOUS
 62
3
100
AcDbCircle
 10
350.9993967341893
 20
286.4198035421453
 30
0.0000000000000000
 40
4.000000000000000
  0
CIRCLE
  5
3CA
100
AcDbEntity
  8
MAIN0
  6
CONTINUOUS
 62
3
100
AcDbCircle
 10
350.9993967341893
 20
286.4198035421453
 30
0.0000000000000000
 40
3.400000000000000
  0
CIRCLE
  5
3CB
100
AcDbEntity
  8
MAIN0
  6
CONTINUOUS
 62
3
100
AcDbCircle
 10
329.3487616395790
 20
298.9198035421467
 30
0.0000000000000000
 40
4.000000000000000
  0
CIRCLE
  5
3CC
100
AcDbEntity
  8
MAIN0
  6
CONTINUOUS
 62
3
100
AcDbCircle
 10
329.3487616395790
 20
298.9198035421467
 30
0.0000000000000000
 40
3.400000000000000
  0
CIRCLE
  5
3CD
100
AcDbEntity
  8
MAIN0
  6
CONTINUOUS
 62
3
100
AcDbCircle
 10
294.8891241915289
 20
252.4198035421416
 30
0.0000000000000000
 40
5.000000000000000
  0
CIRCLE
  5
3CE
100
AcDbEntity
  8
MAIN0
  6
CONTINUOUS
 62
3
100
AcDbCircle
 10
294.8891241915289
 20
252.4198035421416
 30
0.0000000000000000
 40
4.250000000000000
  0
CIRCLE
  5
3CF
100
AcDbEntity
  8
MAIN0
  6
CONTINUOUS
 62
3
100
AcDbCircle
 10
352.3891241915268
 20
152.8268821069323
 30
0.0000000000000000
 40
5.000000000000000
  0
CIRCLE
  5
3D0
100
AcDbEntity
  8
MAIN0
  6
CONTINUOUS
 62
3
100
AcDbCircle
 10
352.3891241915268
 20
152.8268821069323
 30
0.0000000000000000
 40
4.250000000000000
  0
LINE
  5
3D1
100
AcDbEntity
  8
MAIN0
  6
CONTINUOUS
 62
3
100
AcDbLine
 10
84.53591334229532
 20
376.4198035421416
 30
0.0000000000000000
 11
84.53591334229532
 21
128.4198035421416
 31
0.0000000000000000
  0
LINE
  5
3D2
100
AcDbEntity
  8
MAIN0
  6
CONTINUOUS
 62
3
100
AcDbLine
 10
84.53591334229527
 20
376.4198035421416
 30
0.0000000000000000
 11
99.53591334229532
 21
376.4198035421416
 31
0.0000000000000000
  0
LINE
  5
3D3
100
AcDbEntity
  8
MAIN0
  6
CONTINUOUS
 62
3
100
AcDbLine
 10
84.53591334229527
 20
128.4198035421416
 30
0.0000000000000000
 11
99.53591334229532
 21
128.4198035421416
 31
0.0000000000000000
  0
LINE
  5
3D4
100
AcDbEntity
  8
MAIN0
  6
CONTINUOUS
 62
3
100
AcDbLine
 10
99.53591334229532
 20
376.4198035421416
 30
0.0000000000000000
 11
99.53591334229527
 21
273.9510408375576
 31
0.0000000000000000
  0
LINE
  5
3D5
100
AcDbEntity
  8
MAIN0
  6
CENTER
 62
3
100
AcDbLine
 10
83.31130510191039
 20
367.4198035421416
 30
0.0000000000000000
 11
101.3214986306963
 21
367.4198035421416
 31
0.0000000000000000
  0
LINE
  5
3D6
100
AcDbEntity
  8
MAIN0
  6
CONTINUOUS
 62
3
100
AcDbLine
 10
89.63591334229531
 20
267.4198035421416
 30
0.0000000000000000
 11
190.6359133422952
 21
267.4198035421416
 31
0.0000000000000000
  0
LINE
  5
3D7
100
AcDbEntity
  8
MAIN0
  6
CONTINUOUS
 62
3
100
AcDbLine
 10
89.63591334229531
 20
237.4198035421416
 30
0.0000000000000000
 11
190.5359133422953
 21
237.4198035421416
 31
0.0000000000000000
  0
LINE
  5
3D8
100
AcDbEntity
  8
MAIN0
  6
CONTINUOUS
 62
3
100
AcDbLine
 10
99.53591334229532
 20
357.4198035421416
 30
0.0000000000000000
 11
190.5359133422953
 21
357.4198035421416
 31
0.0000000000000000
  0
LINE
  5
3D9
100
AcDbEntity
  8
MAIN0
  6
CONTINUOUS
 62
3
100
AcDbLine
 10
195.5359133422953
 20
288.1698035421416
 30
0.0000000000000000
 11
196.5859133422953
 21
288.1698035421416
 31
0.0000000000000000
  0
LINE
  5
3DA
100
AcDbEntity
  8
MAIN0
  6
CONTINUOUS
 62
3
100
AcDbLine
 10
196.5859133422953
 20
288.1698035421416
 30
0.0000000000000000
 11
196.5859133422953
 21
268.1698035421416
 31
0.0000000000000000
  0
LINE
  5
3DB
100
AcDbEntity
  8
MAIN0
  6
CONTINUOUS
 62
3
100
AcDbLine
 10
190.6359133422952
 20
305.4198035421416
 30
0.0000000000000000
 11
194.2359133422953
 21
305.4198035421416
 31
0.0000000000000000
  0
LINE
  5
3DC
100
AcDbEntity
  8
MAIN0
  6
CONTINUOUS
 62
3
100
AcDbLine
 10
194.2359133422953
 20
305.4198035421416
 30
0.0000000000000000
 11
195.5359133422953
 21
306.1703588920873
 31
0.0000000000000000
  0
LINE
  5
3DD
100
AcDbEntity
  8
MAIN0
  6
CONTINUOUS
 62
3
100
AcDbLine
 10
194.2359133422953
 20
305.4198035421416
 30
0.0000000000000000
 11
195.5359133422954
 21
304.6692481921958
 31
0.0000000000000000
  0
LINE
  5
3DE
100
AcDbEntity
  8
MAIN0
  6
CONTINUOUS
 62
3
100
AcDbLine
 10
194.2359133422952
 20
303.9198035421416
 30
0.0000000000000000
 11
195.5359133422952
 21
304.6703588920873
 31
0.0000000000000000
  0
LINE
  5
3DF
100
AcDbEntity
  8
MAIN0
  6
CONTINUOUS
 62
3
100
AcDbLine
 10
194.2359133422953
 20
303.9198035421417
 30
0.0000000000000000
 11
194.2359133422953
 21
288.9203588920875
 31
0.0000000000000000
  0
LINE
  5
3E0
100
AcDbEntity
  8
MAIN0
  6
CONTINUOUS
 62
3
100
AcDbLine
 10
194.2359133422953
 20
306.9198035421416
 30
0.0000000000000000
 11
195.5359133422953
 21
306.1692481921959
 31
0.0000000000000000
  0
LINE
  5
3E1
100
AcDbEntity
  8
MAIN0
  6
CONTINUOUS
 62
3
100
AcDbLine
 10
194.2359133422955
 20
362.4203588920878
 30
0.0000000000000000
 11
195.5359133422953
 21
363.1709142420338
 31
0.0000000000000000
  0
LINE
  5
3E2
100
AcDbEntity
  8
MAIN0
  6
CONTINUOUS
 62
3
100
AcDbLine
 10
194.2359133422953
 20
357.9198035421416
 30
0.0000000000000000
 11
194.2359133422953
 21
306.9198035421416
 31
0.0000000000000000
  0
LINE
  5
3E3
100
AcDbEntity
  8
MAIN0
  6
CONTINUOUS
 62
3
100
AcDbLine
 10
194.2359133422953
 20
362.4203588920877
 30
0.0000000000000000
 11
194.2359133422953
 21
357.9198035421416
 31
0.0000000000000000
  0
LINE
  5
3E4
100
AcDbEntity
  8
MAIN0
  6
CONTINUOUS
 62
3
100
AcDbLine
 10
194.2359133422953
 20
288.9203588920875
 30
0.0000000000000000
 11
195.5359133422953
 21
288.1698035421417
 31
0.0000000000000000
  0
LINE
  5
3E5
100
AcDbEntity
  8
MAIN0
  6
CONTINUOUS
 62
3
100
AcDbLine
 10
195.5359133422953
 20
304.6692481921958
 30
0.0000000000000000
 11
195.5359133422953
 21
288.1698035421417
 31
0.0000000000000000
  0
LINE
  5
3E6
100
AcDbEntity
  8
MAIN0
  6
CONTINUOUS
 62
3
100
AcDbLine
 10
195.5359133422953
 20
357.1692481921956
 30
0.0000000000000000
 11
195.5359133422953
 21
304.6692481921958
 31
0.0000000000000000
  0
LINE
  5
3E7
100
AcDbEntity
  8
MAIN0
  6
CONTINUOUS
 62
3
100
AcDbLine
 10
195.5359133422953
 20
363.1698035421416
 30
0.0000000000000000
 11
195.5359133422953
 21
357.1692481921956
 31
0.0000000000000000
  0
LINE
  5
3E8
100
AcDbEntity
  8
MAIN0
  6
CONTINUOUS
 62
3
100
AcDbLine
 10
84.53591334229527
 20
270.4198035421416
 30
0.0000000000000000
 11
102.6637561153062
 21
270.4198035421416
 31
0.0000000000000000
  0
LINE
  5
3E9
100
AcDbEntity
  8
MAIN0
  6
CONTINUOUS
 62
3
100
AcDbLine
 10
84.53591334229527
 20
234.4198035421416
 30
0.0000000000000000
 11
105.7482173958559
 21
234.4198035421416
 31
0.0000000000000000
  0
LINE
  5
3EA
100
AcDbEntity
  8
MAIN0
  6
CONTINUOUS
 62
3
100
AcDbLine
 10
192.1359133422953
 20
233.9198035421416
 30
0.0000000000000000
 11
192.1359133422953
 21
270.9198035421416
 31
0.0000000000000000
  0
LINE
  5
3EB
100
AcDbEntity
  8
MAIN0
  6
CONTINUOUS
 62
3
100
AcDbLine
 10
191.4359133422954
 20
270.9198035421416
 30
0.0000000000000000
 11
192.1359133422953
 21
270.9198035421416
 31
0.0000000000000000
  0
LINE
  5
3EC
100
AcDbEntity
  8
MAIN0
  6
CONTINUOUS
 62
3
100
AcDbLine
 10
180.6359133422953
 20
237.4198035421416
 30
0.0000000000000000
 11
180.6359133422953
 21
267.4198035421416
 31
0.0000000000000000
  0
LINE
  5
3ED
100
AcDbEntity
  8
MAIN0
  6
CONTINUOUS
 62
3
100
AcDbLine
 10
182.6359133422953
 20
264.4198035421416
 30
0.0000000000000000
 11
182.6359133422953
 21
267.4198035421416
 31
0.0000000000000000
  0
LINE
  5
3EE
100
AcDbEntity
  8
MAIN0
  6
CONTINUOUS
 62
3
100
AcDbLine
 10
187.3359133422953
 20
264.4198035421416
 30
0.0000000000000000
 11
187.3359133422953
 21
267.4198035421416
 31
0.0000000000000000
  0
LINE
  5
3EF
100
AcDbEntity
  8
MAIN0
  6
CONTINUOUS
 62
3
100
AcDbLine
 10
182.6359133422953
 20
264.4198035421416
 30
0.0000000000000000
 11
187.3359133422954
 21
264.4198035421416
 31
0.0000000000000000
  0
LINE
  5
3F0
100
AcDbEntity
  8
MAIN0
  6
CONTINUOUS
 62
3
100
AcDbLine
 10
191.4359133422954
 20
233.9198035421416
 30
0.0000000000000000
 11
192.1359133422953
 21
233.9198035421416
 31
0.0000000000000000
  0
LINE
  5
3F1
100
AcDbEntity
  8
MAIN0
  6
CONTINUOUS
 62
3
100
AcDbLine
 10
182.6359133422953
 20
240.4198035421416
 30
0.0000000000000000
 11
182.6359133422953
 21
237.4198035421416
 31
0.0000000000000000
  0
LINE
  5
3F2
100
AcDbEntity
  8
MAIN0
  6
CONTINUOUS
 62
3
100
AcDbLine
 10
187.3359133422953
 20
240.4198035421416
 30
0.0000000000000000
 11
187.3359133422953
 21
237.4198035421416
 31
0.0000000000000000
  0
LINE
  5
3F3
100
AcDbEntity
  8
MAIN0
  6
CONTINUOUS
 62
3
100
AcDbLine
 10
182.6359133422953
 20
240.4198035421416
 30
0.0000000000000000
 11
187.3359133422954
 21
240.4198035421416
 31
0.0000000000000000
  0
LINE
  5
3F4
100
AcDbEntity
  8
MAIN0
  6
CONTINUOUS
 62
3
100
AcDbLine
 10
190.5359133422953
 20
147.4198035421416
 30
0.0000000000000000
 11
190.5359133422953
 21
237.4198035421416
 31
0.0000000000000000
  0
LINE
  5
3F5
100
AcDbEntity
  8
MAIN0
  6
CONTINUOUS
 62
3
100
AcDbLine
 10
190.5359133422953
 20
293.7919737790645
 30
0.0000000000000000
 11
190.5359133422953
 21
357.4198035421416
 31
0.0000000000000000
  0
LINE
  5
3F6
100
AcDbEntity
  8
MAIN0
  6
CONTINUOUS
 62
3
100
AcDbLine
 10
190.6359133422953
 20
269.5341628960865
 30
0.0000000000000000
 11
191.4359133422952
 21
270.9198035421414
 31
0.0000000000000000
  0
LINE
  5
3F7
100
AcDbEntity
  8
MAIN0
  6
CONTINUOUS
 62
3
100
AcDbLine
 10
190.5359133422953
 20
235.4786492689536
 30
0.0000000000000000
 11
191.4359133422952
 21
233.9198035421419
 31
0.0000000000000000
  0
LINE
  5
3F8
100
AcDbEntity
  8
MAIN0
  6
CONTINUOUS
 62
3
100
AcDbLine
 10
190.6359133422953
 20
305.3198035421416
 30
0.0000000000000000
 11
192.6359133422953
 21
305.3198035421416
 31
0.0000000000000000
  0
LINE
  5
3F9
100
AcDbEntity
  8
MAIN0
  6
CONTINUOUS
 62
3
100
AcDbLine
 10
190.6359133422953
 20
289.3198035421416
 30
0.0000000000000000
 11
192.6359133422953
 21
289.3198035421416
 31
0.0000000000000000
  0
LINE
  5
3FA
100
AcDbEntity
  8
MAIN0
  6
CONTINUOUS
 62
3
100
AcDbLine
 10
192.6359133422953
 20
289.3198035421416
 30
0.0000000000000000
 11
192.6359133422953
 21
305.3198035421416
 31
0.0000000000000000
  0
LINE
  5
3FB
100
AcDbEntity
  8
MAIN0
  6
CONTINUOUS
 62
3
100
AcDbLine
 10
96.53591334229532
 20
273.4198035421416
 30
0.0000000000000000
 11
96.53591334229532
 21
270.4198035421416
 31
0.0000000000000000
  0
LINE
  5
3FC
100
AcDbEntity
  8
MAIN0
  6
CONTINUOUS
 62
3
100
AcDbLine
 10
91.83591334229531
 20
273.4198035421416
 30
0.0000000000000000
 11
91.83591334229531
 21
270.4198035421416
 31
0.0000000000000000
  0
LINE
  5
3FD
100
AcDbEntity
  8
MAIN0
  6
CONTINUOUS
 62
3
100
AcDbLine
 10
91.83591334229530
 20
273.4198035421416
 30
0.0000000000000000
 11
96.53591334229536
 21
273.4198035421416
 31
0.0000000000000000
  0
LINE
  5
3FE
100
AcDbEntity
  8
MAIN0
  6
CONTINUOUS
 62
3
100
AcDbLine
 10
96.53591334229532
 20
231.4198035421416
 30
0.0000000000000000
 11
96.53591334229532
 21
234.4198035421416
 31
0.0000000000000000
  0
LINE
  5
3FF
100
AcDbEntity
  8
MAIN0
  6
CONTINUOUS
 62
3
100
AcDbLine
 10
91.83591334229531
 20
231.4198035421416
 30
0.0000000000000000
 11
91.83591334229531
 21
234.4198035421416
 31
0.0000000000000000
  0
LINE
  5
400
100
AcDbEntity
  8
MAIN0
  6
CONTINUOUS
 62
3
100
AcDbLine
 10
91.83591334229530
 20
231.4198035421416
 30
0.0000000000000000
 11
96.53591334229536
 21
231.4198035421416
 31
0.0000000000000000
  0
LINE
  5
401
100
AcDbEntity
  8
MAIN0
  6
CENTER
 62
3
100
AcDbLine
 10
92.03591334229532
 20
197.8880229197969
 30
0.0000000000000000
 11
92.03591334229532
 21
123.9694690317445
 31
0.0000000000000000
  0
LINE
  5
402
100
AcDbEntity
  8
MAIN0
  6
CENTER
 62
3
100
AcDbLine
 10
81.80778386949919
 20
172.4198035421416
 30
0.0000000000000000
 11
105.8119996423602
 21
172.4198035421416
 31
0.0000000000000000
  0
LINE
  5
403
100
AcDbEntity
  8
MAIN0
  6
HIDDEN
 62
3
100
AcDbLine
 10
84.53591334229530
 20
176.9023431573950
 30
0.0000000000000000
 11
88.53652251527618
 21
176.7626388066382
 31
0.0000000000000000
  0
LINE
  5
404
100
AcDbEntity
  8
MAIN0
  6
HIDDEN
 62
3
100
AcDbLine
 10
84.53591334229532
 20
167.9372639268854
 30
0.0000000000000000
 11
88.53652251527626
 21
168.0769682776421
 31
0.0000000000000000
  0
ELLIPSE
  5
405
100
AcDbEntity
  8
MAIN0
  6
CONTINUOUS
 62
3
100
AcDbEllipse
 10
94.18591334229532
 20
271.9198035421416
 30
0.0000000000000000
 11
-2.350000000000000
 21
0.0000000000000000
 31
0.0000000000000000
210
0.0000000000000000
220
0.0000000000000000
230
1.000000000000000
 40
0.6382978723404255
 41
0.0000000000000000
 42
6.283185307179586
  0
ELLIPSE
  5
406
100
AcDbEntity
  8
MAIN0
  6
CONTINUOUS
 62
3
100
AcDbEllipse
 10
94.18591334229532
 20
232.9198035421416
 30
0.0000000000000000
 11
-2.350000000000000
 21
0.0000000000000000
 31
0.0000000000000000
210
0.0000000000000000
220
0.0000000000000000
230
1.000000000000000
 40
0.6382978723404255
 41
0.0000000000000000
 42
6.283185307179586
  0
ELLIPSE
  5
407
100
AcDbEntity
  8
MAIN0
  6
CONTINUOUS
 62
3
100
AcDbEllipse
 10
184.9859133422953
 20
265.9198035421416
 30
0.0000000000000000
 11
-2.350000000000000
 21
0.0000000000000000
 31
0.0000000000000000
210
0.0000000000000000
220
0.0000000000000000
230
1.000000000000000
 40
0.6382978723404255
 41
0.0000000000000000
 42
6.283185307179586
  0
ELLIPSE
  5
408
100
AcDbEntity
  8
MAIN0
  6
CONTINUOUS
 62
3
100
AcDbEllipse
 10
184.9859133422953
 20
238.9198035421416
 30
0.0000000000000000
 11
-2.350000000000000
 21
0.0000000000000000
 31
0.0000000000000000
210
0.0000000000000000
220
0.0000000000000000
230
1.000000000000000
 40
0.6382978723404255
 41
0.0000000000000000
 42
6.283185307179586
  0
LINE
  5
409
100
AcDbEntity
  8
MAIN0
  6
CONTINUOUS
 62
3
100
AcDbLine
 10
129.5359133422953
 20
146.9198035421416
 30
0.0000000000000000
 11
129.5359133422953
 21
126.9198035421416
 31
0.0000000000000000
  0
LINE
  5
40A
100
AcDbEntity
  8
MAIN0
  6
CONTINUOUS
 62
3
100
AcDbLine
 10
99.53591334229532
 20
126.9198035421416
 30
0.0000000000000000
 11
129.5359133422953
 21
126.9198035421416
 31
0.0000000000000000
  0
LINE
  5
40B
100
AcDbEntity
  8
MAIN0
  6
CENTER
 62
3
100
AcDbLine
 10
114.5359133422953
 20
146.1037085014859
 30
0.0000000000000000
 11
114.5359133422953
 21
123.1687830920110
 31
0.0000000000000000
  0
LINE
  5
40C
100
AcDbEntity
  8
MAIN0
  6
HIDDEN
 62
3
100
AcDbLine
 10
108.6867056473746
 20
126.9198035421406
 30
0.0000000000000000
 11
109.0359133422934
 21
136.9198035421390
 31
0.0000000000000000
  0
LINE
  5
40D
100
AcDbEntity
  8
MAIN0
  6
HIDDEN
 62
3
100
AcDbLine
 10
108.1864008752252
 20
126.9198035421410
 30
0.0000000000000000
 11
108.5356085701441
 21
136.9198035421425
 31
0.0000000000000000
  0
LINE
  5
40E
100
AcDbEntity
  8
MAIN0
  6
HIDDEN
 62
3
100
AcDbLine
 10
120.3851210372160
 20
126.9198035421406
 30
0.0000000000000000
 11
120.0359133422973
 21
136.9198035421390
 31
0.0000000000000000
  0
LINE
  5
40F
100
AcDbEntity
  8
MAIN0
  6
HIDDEN
 62
3
100
AcDbLine
 10
120.8854258093654
 20
126.9198035421410
 30
0.0000000000000000
 11
120.5362181144466
 21
136.9198035421425
 31
0.0000000000000000
  0
LINE
  5
410
100
AcDbEntity
  8
MAIN0
  6
CONTINUOUS
 62
3
100
AcDbLine
 10
106.5359133422953
 20
125.9198035421416
 30
0.0000000000000000
 11
122.5359133422953
 21
125.9198035421416
 31
0.0000000000000000
  0
LINE
  5
411
100
AcDbEntity
  8
MAIN0
  6
CONTINUOUS
 62
3
100
AcDbLine
 10
106.5359133422953
 20
126.9198035421416
 30
0.0000000000000000
 11
106.5359133422953
 21
125.9198035421416
 31
0.0000000000000000
  0
LINE
  5
412
100
AcDbEntity
  8
MAIN0
  6
CONTINUOUS
 62
3
100
AcDbLine
 10
122.5359133422953
 20
126.9198035421416
 30
0.0000000000000000
 11
122.5359133422953
 21
125.9198035421416
 31
0.0000000000000000
  0
LINE
  5
413
100
AcDbEntity
  8
MAIN0
  6
HIDDEN
 62
3
100
AcDbLine
 10
84.53591334229529
 20
176.4020383852455
 30
0.0000000000000000
 11
89.03652251527626
 21
176.2448736497428
 31
0.0000000000000000
  0
LINE
  5
414
100
AcDbEntity
  8
MAIN0
  6
HIDDEN
 62
3
100
AcDbLine
 10
84.53591334229535
 20
168.4375686990348
 30
0.0000000000000000
 11
89.03652251527630
 21
168.5947334345376
 31
0.0000000000000000
  0
LINE
  5
415
100
AcDbEntity
  8
MAIN0
  6
CONTINUOUS
 62
3
100
AcDbLine
 10
99.53591334229532
 20
146.9198035421416
 30
0.0000000000000000
 11
129.5359133422953
 21
146.9198035421416
 31
0.0000000000000000
  0
LINE
  5
416
100
AcDbEntity
  8
MAIN0
  6
PHANTOM
 62
3
100
AcDbLine
 10
129.5359133422953
 20
146.9198035421416
 30
0.0000000000000000
 11
144.5359133422953
 21
146.9198035421416
 31
0.0000000000000000
  0
LINE
  5
417
100
AcDbEntity
  8
MAIN0
  6
CONTINUOUS
 62
3
100
AcDbLine
 10
99.53591334229532
 20
147.4198035421416
 30
0.0000000000000000
 11
129.5359133422953
 21
147.4198035421416
 31
0.0000000000000000
  0
LINE
  5
418
100
AcDbEntity
  8
MAIN0
  6
CONTINUOUS
 62
3
100
AcDbLine
 10
129.5359133422953
 20
147.4198035421416
 30
0.0000000000000000
 11
190.5359133422953
 21
147.4198035421416
 31
0.0000000000000000
  0
LINE
  5
419
100
AcDbEntity
  8
MAIN0
  6
CONTINUOUS
 62
3
100
AcDbLine
 10
99.53591334229532
 20
226.0387375940960
 30
0.0000000000000000
 11
99.53591334229532
 21
126.9198035421416
 31
0.0000000000000000
  0
LINE
  5
41A
100
AcDbEntity
  8
MAIN0
  6
CENTER
 62
3
100
AcDbLine
 10
79.43533663968269
 20
252.4198035421416
 30
0.0000000000000000
 11
99.26370801107183
 21
252.4198035421416
 31
0.0000000000000000
  0
LINE
  5
41B
100
AcDbEntity
  8
MAIN0
  6
CENTER
 62
3
100
AcDbLine
 10
105.3637079157044
 20
252.4198035421416
 30
0.0000000000000000
 11
205.5610594062607
 21
252.4198035421416
 31
0.0000000000000000
  0
LINE
  5
41C
100
AcDbEntity
  8
MAIN0
  6
CONTINUOUS
 62
3
100
AcDbLine
 10
190.5359213832000
 20
32.24604938701168
 30
0.0000000000000000
 11
190.5359213832000
 21
23.87911134664503
 31
0.0000000000000000
  0
LINE
  5
41D
100
AcDbEntity
  8
MAIN0
  6
CONTINUOUS
 62
3
100
AcDbLine
 10
190.5359213832000
 20
74.90817413189524
 30
0.0000000000000000
 11
190.5359213832000
 21
67.24604938701168
 31
0.0000000000000000
  0
SPLINE
  5
41E
100
AcDbEntity
  8
MAIN0
  6
CONTINUOUS
 62
3
100
AcDbSpline
210
0.0000000000000000
220
0.0000000000000000
230
1.000000000000000
 70
     8
 71
     3
 72
    10
 73
     6
 74
     0
 42
1.000000000000000e-007
 43
1.000000000000000e-007
 12
0.8676722831079644
 22
-0.8381441713434015
 32
0.0000000000000000
 13
0.9331404577687863
 23
-0.02206296159158683
 33
0.0000000000000000
 40
0.0000000000000000
 40
0.0000000000000000
 40
0.0000000000000000
 40
0.0000000000000000
 40
3.387635668128331
 40
6.637565489255527
 40
7.100682518605226
 40
7.100682518605226
 40
7.100682518605226
 40
7.100682518605226
 10
184.3639286548813
 20
74.96631675255586
 30
0.0000000000000000
 10
185.3437145130489
 20
74.01987438926361
 30
0.0000000000000000
 10
187.2634583804959
 20
72.16546211368706
 30
0.0000000000000000
 10
189.2479477253960
 20
74.80660892880147
 30
0.0000000000000000
 10
190.3918703042774
 20
74.91158004297222
 30
0.0000000000000000
 10
190.5359213832000
 20
74.90817413189524
 30
0.0000000000000000
  0
SPLINE
  5
41F
100
AcDbEntity
  8
MAIN0
  6
CONTINUOUS
 62
3
100
AcDbSpline
210
0.0000000000000000
220
0.0000000000000000
230
1.000000000000000
 70
     8
 71
     3
 72
    10
 73
     6
 74
     0
 42
1.000000000000000e-007
 43
1.000000000000000e-007
 12
0.9865562763451123
 22
0.4548505402596277
 32
0.0000000000000000
 13
0.9488750932334824
 23
0.5216165536072097
 33
0.0000000000000000
 40
0.0000000000000000
 40
0.0000000000000000
 40
0.0000000000000000
 40
0.0000000000000000
 40
3.104492643762190
 40
5.369151893386866
 40
7.318386231422292
 40
7.318386231422292
 40
7.318386231422292
 40
7.318386231422292
 10
183.5577207032890
 20
23.44645356965572
 30
0.0000000000000000
 10
184.5786396041460
 20
23.91714695507147
 30
0.0000000000000000
 10
186.3442964371697
 20
24.73120083488578
 30
0.0000000000000000
 10
188.5900279164893
 20
22.95979905499505
 30
0.0000000000000000
 10
189.9193947451209
 20
23.54019371411874
 30
0.0000000000000000
 10
190.5359213832000
 20
23.87911134664503
 30
0.0000000000000000
  0
LINE
  5
420
100
AcDbEntity
  8
MAIN0
  6
CONTINUOUS
 62
3
100
AcDbLine
 10
455.8399134335726
 20
230.5089051572415
 30
0.0000000000000000
 11
451.8399134336107
 21
223.5807019270311
 31
0.0000000000000000
  0
CIRCLE
  5
421
100
AcDbEntity
  8
MAIN0
  6
CONTINUOUS
 62
3
100
AcDbCircle
 10
463.3661928752035
 20
221.5448035421464
 30
0.0000000000000000
 40
6.000000000000000
  0
CIRCLE
  5
422
100
AcDbEntity
  8
MAIN0
  6
CONTINUOUS
 62
3
100
AcDbCircle
 10
463.3661928752035
 20
221.5448035421464
 30
0.0000000000000000
 40
5.100000000000000
  0
CIRCLE
  5
423
100
AcDbEntity
  8
MAIN0
  6
CONTINUOUS
 62
3
100
AcDbCircle
 10
485.0168279698145
 20
209.0448035421464
 30
0.0000000000000000
 40
6.000000000000000
  0
CIRCLE
  5
424
100
AcDbEntity
  8
MAIN0
  6
CONTINUOUS
 62
3
100
AcDbCircle
 10
485.0168279698145
 20
209.0448035421464
 30
0.0000000000000000
 40
5.100000000000000
  0
LINE
  5
425
100
AcDbEntity
  8
MAIN0
  6
CONTINUOUS
 62
3
100
AcDbLine
 10
363.9383349494854
 20
230.5089051572415
 30
0.0000000000000000
 11
367.9383349494472
 21
223.5807019270311
 31
0.0000000000000000
  0
CIRCLE
  5
426
100
AcDbEntity
  8
MAIN0
  6
CONTINUOUS
 62
3
100
AcDbCircle
 10
356.4120555078544
 20
221.5448035421464
 30
0.0000000000000000
 40
6.000000000000000
  0
CIRCLE
  5
427
100
AcDbEntity
  8
MAIN0
  6
CONTINUOUS
 62
3
100
AcDbCircle
 10
356.4120555078544
 20
221.5448035421464
 30
0.0000000000000000
 40
5.100000000000000
  0
CIRCLE
  5
428
100
AcDbEntity
  8
MAIN0
  6
CONTINUOUS
 62
3
100
AcDbCircle
 10
334.7614204132433
 20
209.0448035421464
 30
0.0000000000000000
 40
6.000000000000000
  0
CIRCLE
  5
429
100
AcDbEntity
  8
MAIN0
  6
CONTINUOUS
 62
3
100
AcDbCircle
 10
334.7614204132433
 20
209.0448035421464
 30
0.0000000000000000
 40
5.100000000000000
  0
LINE
  5
42A
100
AcDbEntity
  8
MAIN0
  6
HIDDEN
 62
3
100
AcDbLine
 10
84.53591334229530
 20
373.7198035421416
 30
0.0000000000000000
 11
85.33591334229530
 21
372.9198035421416
 31
0.0000000000000000
  0
LINE
  5
42B
100
AcDbEntity
  8
MAIN0
  6
HIDDEN
 62
3
100
AcDbLine
 10
85.33591334229531
 20
372.9198035421416
 30
0.0000000000000000
 11
98.73591334230203
 21
372.9198035421416
 31
0.0000000000000000
  0
LINE
  5
42C
100
AcDbEntity
  8
MAIN0
  6
HIDDEN
 62
3
100
AcDbLine
 10
98.73591334230201
 20
372.9198035421416
 30
0.0000000000000000
 11
99.53591334230201
 21
373.7198035421416
 31
0.0000000000000000
  0
LINE
  5
42D
100
AcDbEntity
  8
MAIN0
  6
HIDDEN
 62
3
100
AcDbLine
 10
84.53591334229532
 20
361.1198035421417
 30
0.0000000000000000
 11
85.33591334229530
 21
361.9198035421416
 31
0.0000000000000000
  0
LINE
  5
42E
100
AcDbEntity
  8
MAIN0
  6
HIDDEN
 62
3
100
AcDbLine
 10
85.33591334229531
 20
361.9198035421416
 30
0.0000000000000000
 11
98.73591334230203
 21
361.9198035421416
 31
0.0000000000000000
  0
LINE
  5
42F
100
AcDbEntity
  8
MAIN0
  6
HIDDEN
 62
3
100
AcDbLine
 10
98.73591334230203
 20
361.9198035421416
 30
0.0000000000000000
 11
99.53591334230202
 21
361.1198035421417
 31
0.0000000000000000
  0
LINE
  5
430
100
AcDbEntity
  8
WAKU0
  6
CONTINUOUS
 62
3
100
AcDbLine
 10
412.0000000000000
 20
51.00000000000000
 30
0.0000000000000000
 11
582.0000000000000
 21
51.00000000000000
 31
0.0000000000000000
  0
LINE
  5
431
100
AcDbEntity
  8
WAKU0
  6
CONTINUOUS
 62
3
100
AcDbLine
 10
412.0000000000000
 20
51.00000000000000
 30
0.0000000000000000
 11
412.0000000000000
 21
12.00000000000000
 31
0.0000000000000000
  0
LINE
  5
432
100
AcDbEntity
  8
WAKU0
  6
CONTINUOUS
 62
3
100
AcDbLine
 10
484.0000000000000
 20
51.00000000000000
 30
0.0000000000000000
 11
484.0000000000000
 21
12.00000000000000
 31
0.0000000000000000
  0
LINE
  5
433
100
AcDbEntity
  8
WAKU0
  6
CONTINUOUS
 62
3
100
AcDbLine
 10
504.0000000000000
 20
51.00000000000000
 30
0.0000000000000000
 11
504.0000000000000
 21
12.00000000000000
 31
0.0000000000000000
  0
LINE
  5
434
100
AcDbEntity
  8
WAKU0
  6
CONTINUOUS
 62
3
100
AcDbLine
 10
516.0000000000000
 20
51.00000000000000
 30
0.0000000000000000
 11
516.0000000000000
 21
12.00000000000000
 31
0.0000000000000000
  0
LINE
  5
435
100
AcDbEntity
  8
WAKU0
  6
CONTINUOUS
 62
3
100
AcDbLine
 10
516.0000000000000
 20
37.00000000000000
 30
0.0000000000000000
 11
582.0000000000000
 21
37.00000000000000
 31
0.0000000000000000
  0
LINE
  5
436
100
AcDbEntity
  8
WAKU0
  6
CONTINUOUS
 62
3
100
AcDbLine
 10
504.0000000000000
 20
23.00000000000000
 30
0.0000000000000000
 11
582.0000000000000
 21
23.00000000000000
 31
0.0000000000000000
  0
LINE
  5
437
100
AcDbEntity
  8
WAKU0
  6
CONTINUOUS
 62
3
100
AcDbLine
 10
547.0000000000000
 20
51.00000000000000
 30
0.0000000000000000
 11
547.0000000000000
 21
44.00000000000000
 31
0.0000000000000000
  0
LINE
  5
438
100
AcDbEntity
  8
WAKU0
  6
CONTINUOUS
 62
3
100
AcDbLine
 10
559.0000000000000
 20
51.00000000000000
 30
0.0000000000000000
 11
559.0000000000000
 21
44.00000000000000
 31
0.0000000000000000
  0
LINE
  5
439
100
AcDbEntity
  8
WAKU0
  6
CONTINUOUS
 62
3
100
AcDbLine
 10
484.0000000000000
 20
31.50000000000000
 30
0.0000000000000000
 11
504.0000000000000
 21
31.50000000000000
 31
0.0000000000000000
  0
LINE
  5
43A
100
AcDbEntity
  8
WAKU0
  6
CONTINUOUS
 62
3
100
AcDbLine
 10
504.0000000000000
 20
44.00000000000000
 30
0.0000000000000000
 11
582.0000000000000
 21
44.00000000000000
 31
0.0000000000000000
  0
LINE
  5
43B
100
AcDbEntity
  8
WAKU0
  6
CONTINUOUS
 62
3
100
AcDbLine
 10
412.0000000000000
 20
37.00000000000000
 30
0.0000000000000000
 11
484.0000000000000
 21
37.00000000000000
 31
0.0000000000000000
  0
LINE
  5
43C
100
AcDbEntity
  8
WAKU0
  6
CONTINUOUS
 62
3
100
AcDbLine
 10
412.0000000000000
 20
23.00000000000000
 30
0.0000000000000000
 11
484.0000000000000
 21
23.00000000000000
 31
0.0000000000000000
  0
LINE
  5
43D
100
AcDbEntity
  8
WAKU0
  6
CONTINUOUS
 62
3
100
AcDbLine
 10
460.0000000000000
 20
37.00000000000000
 30
0.0000000000000000
 11
460.0000000000000
 21
12.00000000000000
 31
0.0000000000000000
  0
LINE
  5
43E
100
AcDbEntity
  8
WAKU0
  6
CONTINUOUS
 62
3
100
AcDbLine
 10
436.0000000000000
 20
37.00000000000000
 30
0.0000000000000000
 11
436.0000000000000
 21
23.00000000000000
 31
0.0000000000000000
  0
LINE
  5
43F
100
AcDbEntity
  8
WAKU0
  6
CONTINUOUS
 62
3
100
AcDbLine
 10
472.0000000000000
 20
26.00000000000000
 30
0.0000000000000000
 11
472.0000000000000
 21
23.00000000000000
 31
0.0000000000000000
  0
LINE
  5
440
100
AcDbEntity
  8
WAKU0
  6
CONTINUOUS
 62
3
100
AcDbLine
 10
448.0000000000000
 20
26.00000000000000
 30
0.0000000000000000
 11
448.0000000000000
 21
23.00000000000000
 31
0.0000000000000000
  0
LINE
  5
441
100
AcDbEntity
  8
WAKU0
  6
CONTINUOUS
 62
3
100
AcDbLine
 10
424.0000000000000
 20
26.00000000000000
 30
0.0000000000000000
 11
424.0000000000000
 21
23.00000000000000
 31
0.0000000000000000
  0
LINE
  5
442
100
AcDbEntity
  8
WAKU0
  6
CONTINUOUS
 62
3
100
AcDbLine
 10
430.0000000000000
 20
51.00000000000000
 30
0.0000000000000000
 11
430.0000000000000
 21
37.00000000000000
 31
0.0000000000000000
  0
LINE
  5
443
100
AcDbEntity
  8
WAKU0
  6
CONTINUOUS
 62
3
100
AcDbLine
 10
412.0000000000000
 20
45.00000000000000
 30
0.0000000000000000
 11
484.0000000000000
 21
45.00000000000000
 31
0.0000000000000000
  0
LINE
  5
444
100
AcDbEntity
  8
WAKU0
  6
HIDDEN
 62
3
100
AcDbLine
 10
532.5000000000000
 20
23.00000000000000
 30
0.0000000000000000
 11
532.5000000000000
 21
12.00000000000000
 31
0.0000000000000000
  0
LINE
  5
445
100
AcDbEntity
  8
WAKU0
  6
HIDDEN
 62
3
100
AcDbLine
 10
544.9000000000000
 20
23.00000000000000
 30
0.0000000000000000
 11
544.9000000000000
 21
12.00000000000000
 31
0.0000000000000000
  0
MTEXT
  5
446
100
AcDbEntity
  8
WAKU0
  6
CONTINUOUS
 62
3
100
AcDbMText
 10
516.4820000243485
 20
49.04999995231628
 30
0.0000000000000000
 40
3.099999904632568
 41
0.0000000000000000
 71
     1
 72
     1
  1
{\H0.91x;{AS08}}
 11
1.000000000000000
 21
0.0000000000000000
 31
0.0000000000000000
  7
STANDARD
  0
MTEXT
  5
447
100
AcDbEntity
  8
WAKU0
  6
CONTINUOUS
 62
3
100
AcDbMText
 10
525.5950003862381
 20
43.50000000000000
 30
0.0000000000000000
 40
3.000000000000000
 41
0.0000000000000000
 71
     1
 72
     1
  1
{\H0.94x;{ワークグリッパ　８\PＷＯＲＫ　ＧＲＩＰＰＥＲ　８}}
 11
1.000000000000000
 21
0.0000000000000000
 31
0.0000000000000000
  7
KNJYOKO
  0
MTEXT
  5
448
100
AcDbEntity
  8
WAKU0
  6
CONTINUOUS
 62
3
100
AcDbMText
 10
528.3099995255470
 20
34.23333326975504
 30
0.0000000000000000
 40
3.099999904632568
 41
0.0000000000000000
 71
     1
 72
     1
  1
{\H0.94x;{ＡＳ０８　ガイケイ\PＯＵＴＳＩＤＥ　ＶＩＥＷ}}
 11
1.000000000000000
 21
0.0000000000000000
 31
0.0000000000000000
  7
KNJYOKO
  0
MTEXT
  5
449
100
AcDbEntity
  8
WAKU0
  6
CONTINUOUS
 62
3
100
AcDbMText
 10
490.0049998760223
 20
39.29999995231628
 30
0.0000000000000000
 40
3.099999904632568
 41
0.0000000000000000
 71
     1
 72
     1
  1
{\H0.90x;{1:1}}
 11
1.000000000000000
 21
0.0000000000000000
 31
0.0000000000000000
  7
STANDARD
  0
MTEXT
  5
44A
100
AcDbEntity
  8
WAKU0
  6
CONTINUOUS
 62
3
100
AcDbMText
 10
546.4000001549721
 20
20.15000009536743
 30
0.0000000000000000
 40
5.300000190734863
 41
0.0000000000000000
 71
     1
 72
     1
  1
{\H0.90x;{7199}}
 11
1.000000000000000
 21
0.0000000000000000
 31
0.0000000000000000
  7
STANDARD
  0
MTEXT
  5
44B
100
AcDbEntity
  8
WAKU0
  6
CONTINUOUS
 62
3
100
AcDbMText
 10
534.3000000834466
 20
20.15000009536743
 30
0.0000000000000000
 40
5.300000190734863
 41
0.0000000000000000
 71
     1
 72
     1
  1
{\H0.87x;{25}}
 11
1.000000000000000
 21
0.0000000000000000
 31
0.0000000000000000
  7
STANDARD
  0
MTEXT
  5
44C
100
AcDbEntity
  8
WAKU0
  6
CONTINUOUS
 62
3
100
AcDbMText
 10
517.5000001192093
 20
20.15000009536743
 30
0.0000000000000000
 40
5.300000190734863
 41
0.0000000000000000
 71
     1
 72
     1
  1
{\H0.89x;{61P}}
 11
1.000000000000000
 21
0.0000000000000000
 31
0.0000000000000000
  7
STANDARD
  0
MTEXT
  5
44D
100
AcDbEntity
  8
WAKU0
  6
CONTINUOUS
 62
3
100
AcDbMText
 10
572.0000000476837
 20
20.15000009536743
 30
0.0000000000000000
 40
5.300000190734863
 41
0.0000000000000000
 71
     1
 72
     1
  1
{\H0.81x;{2}}
 11
1.000000000000000
 21
0.0000000000000000
 31
0.0000000000000000
  7
STANDARD
  0
MTEXT
  5
44E
100
AcDbEntity
  8
WAKU0
  6
CONTINUOUS
 62
3
100
AcDbMText
 10
461.3850002884865
 20
33.00000000000000
 30
0.0000000000000000
 40
3.000000000000000
 41
0.0000000000000000
 71
     7
 72
     1
  1
{\H0.93x;{DRAWN BY}}
 11
1.000000000000000
 21
0.0000000000000000
 31
0.0000000000000000
  7
STANDARD
  0
MTEXT
  5
44F
100
AcDbEntity
  8
WAKU0
  6
CONTINUOUS
 62
3
100
AcDbMText
 10
441.2149997949600
 20
32.95000004768372
 30
0.0000000000000000
 40
3.099999904632568
 41
0.0000000000000000
 71
     7
 72
     1
  1
{\H0.92x;{CHIEF}}
 11
1.000000000000000
 21
0.0000000000000000
 31
0.0000000000000000
  7
STANDARD
  0
MTEXT
  5
450
100
AcDbEntity
  8
WAKU0
  6
CONTINUOUS
 62
3
100
AcDbMText
 10
414.4249997138977
 20
32.95000004768372
 30
0.0000000000000000
 40
3.099999904632568
 41
0.0000000000000000
 71
     7
 72
     1
  1
{\H0.92x;{MANAGER}}
 11
1.000000000000000
 21
0.0000000000000000
 31
0.0000000000000000
  7
STANDARD
  0
MTEXT
  5
451
100
AcDbEntity
  8
WAKU0
  6
CONTINUOUS
 62
3
100
AcDbMText
 10
416.6599994301796
 20
18.13333336512248
 30
0.0000000000000000
 40
3.099999904632568
 41
0.0000000000000000
 71
     7
 72
     1
  1
{\H0.93x;{KITAGAWA IRON\PWORKS CO.,LTD.}}
 11
1.000000000000000
 21
0.0000000000000000
 31
0.0000000000000000
  7
STANDARD
  0
MTEXT
  5
452
100
AcDbEntity
  8
WAKU0
  6
CONTINUOUS
 62
3
100
AcDbMText
 10
413.0850002169609
 20
46.50000000000000
 30
0.0000000000000000
 40
3.000000000000000
 41
0.0000000000000000
 71
     7
 72
     1
  1
{\H0.92x;{CAREER}}
 11
1.000000000000000
 21
0.0000000000000000
 31
0.0000000000000000
  7
STANDARD
  0
MTEXT
  5
453
100
AcDbEntity
  8
WAKU0
  6
CONTINUOUS
 62
3
100
AcDbMText
 10
466.6099998354912
 20
18.95000004768372
 30
0.0000000000000000
 40
3.099999904632568
 41
0.0000000000000000
 71
     7
 72
     1
  1
{\H0.91x;{DATE}}
 11
1.000000000000000
 21
0.0000000000000000
 31
0.0000000000000000
  7
STANDARD
  0
MTEXT
  5
454
100
AcDbEntity
  8
WAKU0
  6
CONTINUOUS
 62
3
100
AcDbMText
 10
485.9000002145767
 20
26.50000000000000
 30
0.0000000000000000
 40
3.000000000000000
 41
0.0000000000000000
 71
     7
 72
     1
  1
{\H0.63x;{3RD ANGLE}}
 11
1.000000000000000
 21
0.0000000000000000
 31
0.0000000000000000
  7
STANDARD
  0
MTEXT
  5
455
100
AcDbEntity
  8
WAKU0
  6
CONTINUOUS
 62
3
100
AcDbMText
 10
487.2149997949600
 20
45.95000004768372
 30
0.0000000000000000
 40
3.099999904632568
 41
0.0000000000000000
 71
     7
 72
     1
  1
{\H0.92x;{SCALE}}
 11
1.000000000000000
 21
0.0000000000000000
 31
0.0000000000000000
  7
STANDARD
  0
MTEXT
  5
456
100
AcDbEntity
  8
WAKU0
  6
CONTINUOUS
 62
3
100
AcDbMText
 10
577.7000000476837
 20
46.00000000000000
 30
0.0000000000000000
 40
3.000000000000000
 41
0.0000000000000000
 71
     7
 72
     1
  1
{\H0.63x;{kg}}
 11
1.000000000000000
 21
0.0000000000000000
 31
0.0000000000000000
  7
STANDARD
  0
MTEXT
  5
457
100
AcDbEntity
  8
WAKU0
  6
CONTINUOUS
 62
3
100
AcDbMText
 10
547.6000001430512
 20
46.00000000000000
 30
0.0000000000000000
 40
3.000000000000000
 41
0.0000000000000000
 71
     7
 72
     1
  1
{\H0.63x;{WEIGHT}}
 11
1.000000000000000
 21
0.0000000000000000
 31
0.0000000000000000
  7
STANDARD
  0
MTEXT
  5
458
100
AcDbEntity
  8
WAKU0
  6
CONTINUOUS
 62
3
100
AcDbMText
 10
506.0049998760223
 20
18.13333336512248
 30
0.0000000000000000
 40
3.099999904632568
 41
0.0000000000000000
 71
     7
 72
     1
  1
{\H0.90x;{DRW\PNO.}}
 11
1.000000000000000
 21
0.0000000000000000
 31
0.0000000000000000
  7
STANDARD
  0
MTEXT
  5
459
100
AcDbEntity
  8
WAKU0
  6
CONTINUOUS
 62
3
100
AcDbMText
 10
504.6099998354912
 20
31.95000004768372
 30
0.0000000000000000
 40
3.099999904632568
 41
0.0000000000000000
 71
     7
 72
     1
  1
{\H0.91x;{NAME}}
 11
1.000000000000000
 21
0.0000000000000000
 31
0.0000000000000000
  7
STANDARD
  0
MTEXT
  5
45A
100
AcDbEntity
  8
WAKU0
  6
CONTINUOUS
 62
3
100
AcDbMText
 10
504.6099998354912
 20
45.95000004768372
 30
0.0000000000000000
 40
3.099999904632568
 41
0.0000000000000000
 71
     7
 72
     1
  1
{\H0.91x;{TYPE}}
 11
1.000000000000000
 21
0.0000000000000000
 31
0.0000000000000000
  7
STANDARD
  0
LINE
  5
45B
100
AcDbEntity
  8
WAKU0
  6
HIDDEN
 62
3
100
AcDbLine
 10
579.1599564743885
 20
13.84999990463257
 30
0.0000000000000000
 11
568.9400436209789
 21
13.84999990463257
 31
0.0000000000000000
  0
LINE
  5
45C
100
AcDbEntity
  8
WAKU0
  6
HIDDEN
 62
3
100
AcDbLine
 10
579.1599564743885
 20
13.84999990463250
 30
0.0000000000000000
 11
574.0500000476851
 21
22.70070406014901
 31
0.0000000000000000
  0
LINE
  5
45D
100
AcDbEntity
  8
WAKU0
  6
HIDDEN
 62
3
100
AcDbLine
 10
574.0500000476851
 20
22.70070406014902
 30
0.0000000000000000
 11
568.9400436209789
 21
13.84999990463248
 31
0.0000000000000000
  0
LINE
  5
45E
100
AcDbEntity
  8
WAKU0
  6
CONTINUOUS
 62
3
100
AcDbLine
 10
502.4713877753800
 20
15.78041421262812
 30
0.0000000000000000
 11
502.4713877753800
 21
21.78041421262815
 31
0.0000000000000000
  0
LINE
  5
45F
100
AcDbEntity
  8
WAKU0
  6
CONTINUOUS
 62
3
100
AcDbLine
 10
495.9336941228225
 20
17.28041421262811
 30
0.0000000000000000
 11
495.9336941228225
 21
20.28041421262824
 31
0.0000000000000000
  0
LINE
  5
460
100
AcDbEntity
  8
WAKU0
  6
CENTER
 62
12
100
AcDbLine
 10
485.4321805514995
 20
18.78041421262813
 30
0.0000000000000000
 11
503.2765788964694
 21
18.78041421262813
 31
0.0000000000000000
  0
LINE
  5
461
100
AcDbEntity
  8
WAKU0
  6
CENTER
 62
12
100
AcDbLine
 10
489.4474565857986
 20
14.55921662918448
 30
0.0000000000000000
 11
489.4474565857986
 21
22.89865102149943
 31
0.0000000000000000
  0
LINE
  5
462
100
AcDbEntity
  8
WAKU0
  6
CONTINUOUS
 62
3
100
AcDbLine
 10
495.9336941228225
 20
20.28041421262797
 30
0.0000000000000000
 11
502.4713877753800
 21
21.78041421262795
 31
0.0000000000000000
  0
LINE
  5
463
100
AcDbEntity
  8
WAKU0
  6
CONTINUOUS
 62
3
100
AcDbLine
 10
495.9336941228225
 20
17.28041421262811
 30
0.0000000000000000
 11
502.4713877753799
 21
15.78041421262812
 31
0.0000000000000000
  0
CIRCLE
  5
464
100
AcDbEntity
  8
WAKU0
  6
CONTINUOUS
 62
3
100
AcDbCircle
 10
489.4474565857986
 20
18.78041421262813
 30
0.0000000000000000
 40
1.499999999999972
  0
CIRCLE
  5
465
100
AcDbEntity
  8
WAKU0
  6
CONTINUOUS
 62
3
100
AcDbCircle
 10
489.4474565857986
 20
18.78041421262813
 30
0.0000000000000000
 40
2.999999999999979
  0
ENDSEC
  0
SECTION
  2
OBJECTS
  0
DICTIONARY
  5
4B9
100
AcDbDictionary
  3
ACAD_GROUP
350
4BA
  3
ACAD_MLINESTYLE
350
4BB
  0
DICTIONARY
  5
4BA
102
{ACAD_REACTORS
330
4B9
102
}
100
AcDbDictionary
  0
DICTIONARY
  5
4BB
102
{ACAD_REACTORS
330
4B9
102
}
100
AcDbDictionary
  3
STANDARD
350
4BC
  0
MLINESTYLE
  5
4BC
102
{ACAD_REACTORS
330
4BB
102
}
100
AcDbMlineStyle
  2
STANDARD
 70
     0
  3

 62
   256
 51
90.00
 52
90.00
 71
     2
 49
0.50
 62
   256
  6
BYLAYER
 49
-0.50
 62
   256
  6
BYLAYER
  0
ENDSEC
  0
EOF
