  0
SECTION
  2
HEADER
  9
$ACADVER
  1
AC1014
  9
$DWGCODEPAGE
  3
ANSI_932
  9
$LTSCALE
 40
20.0
  9
$FILLMODE
 70
     1
  9
$CLAYER
  8
0
  9
$PDMODE
 70
     0
  9
$SPLFRAME
 70
     0
  9
$SPLINETYPE
 70
     6
  9
$SPLINESEGS
 70
     8
  9
$DIMASZ
 40
2.000000
  9
$DIMEXE
 40
2.000000
  9
$DIMEXO
 40
0.800000
  9
$DIMTAD
 70
     1
  9
$DIMTIH
 70
     0
  9
$DIMTOH
 70
     0
  9
$DIMTVP
 40
0.500000
  9
$DIMTXT
 40
3.100000
  9
$EXTMIN
 10
0.000000
 20
0.000000
 30
0.000000
  9
$EXTMAX
 10
420.000000
 20
594.000000
 30
0.000000
  9
$MEASUREMENT
 70
  1
  9
$LIMMIN
 10
0.000000
 20
0.000000
  9
$LIMMAX
 10
420.000000
 20
594.000000
  9
$HANDLING
 70
     1
  9
$HANDSEED
  5
475
  9
$DIMBLK
  1
_OPEN
  9
$DIMDEC
 70
     3
  9
$DIMAUNIT
 70
     1
  9
$DIMZIN
 70
     8
  9
$DIMTOFL
 70
     1
  0
ENDSEC
  0
SECTION
  2
CLASSES
  0
ENDSEC
  0
SECTION
  2
TABLES
  0
TABLE
  2
VPORT
  5
426
100
AcDbSymbolTable
 70
     1
  0
VPORT
  5
427
100
AcDbSymbolTableRecord
100
AcDbViewportTableRecord
  2
*ACTIVE
 70
     0
 12
435.335933
 22
345.694255
 40
691.388510
 41
1.259309
  0
ENDTAB
  0
TABLE
  2
LTYPE
  5
428
100
AcDbSymbolTable
 70
     4
  0
LTYPE
  5
429
100
AcDbSymbolTableRecord
100
AcDbLinetypeTableRecord
  2
BYBLOCK
 70
     0
  3

 72
    65
 73
     0
 40
0.0
  0
LTYPE
  5
42A
100
AcDbSymbolTableRecord
100
AcDbLinetypeTableRecord
  2
BYLAYER
 70
     0
  3

 72
    65
 73
     0
 40
0.0
  0
LTYPE
  5
42B
100
AcDbSymbolTableRecord
100
AcDbLinetypeTableRecord
  2
CONTINUOUS
 70
     0
  3
Solid line (NEC CAE2D for Win R12.1 : 2015.12.15)
 72
    65
 73
     0
 40
0.0
  0
LTYPE
  5
42C
100
AcDbSymbolTableRecord
100
AcDbLinetypeTableRecord
  2
DASHED
 70
     0
  3
__ __ __ __ __ __ __ __ __ __ __ __ __ _
 72
    65
 73
     2
 40
0.75
 49
0.5
 74
     0
 49
-0.25
 74
     0
  0
LTYPE
  5
42D
100
AcDbSymbolTableRecord
100
AcDbLinetypeTableRecord
  2
HIDDEN
 70
     0
  3
__ __ __ __ __ __ __ __ __ __ __ __ __ __
 72
    65
 73
     2
 40
0.375
 49
0.25
 74
     0
 49
-0.125
 74
     0
  0
LTYPE
  5
42E
100
AcDbSymbolTableRecord
100
AcDbLinetypeTableRecord
  2
CENTER
 70
     0
  3
____ _ ____ _ ____ _ ____ _ ____ _ ____
 72
    65
 73
     4
 40
2.0
 49
1.25
 74
     0
 49
-0.25
 74
     0
 49
0.25
 74
     0
 49
-0.25
 74
     0
  0
ENDTAB
  0
TABLE
  2
LAYER
  5
42F
100
AcDbSymbolTable
 70
     6
  0
LAYER
  5
430
100
AcDbSymbolTableRecord
100
AcDbLayerTableRecord
  2
0
 70
     0
 62
     7
  6
CONTINUOUS
  0
LAYER
  5
431
100
AcDbSymbolTableRecord
100
AcDbLayerTableRecord
  2
MAIN0
 70
     0
 62
     7
  6
CONTINUOUS
  0
LAYER
  5
432
100
AcDbSymbolTableRecord
100
AcDbLayerTableRecord
  2
MAIN10
 70
     0
 62
     7
  6
CONTINUOUS
  0
LAYER
  5
433
100
AcDbSymbolTableRecord
100
AcDbLayerTableRecord
  2
MAIN1023
 70
     0
 62
    16
  6
CONTINUOUS
  0
LAYER
  5
434
100
AcDbSymbolTableRecord
100
AcDbLayerTableRecord
  2
WAKU0
 70
     0
 62
     7
  6
CONTINUOUS
  0
LAYER
  5
435
100
AcDbSymbolTableRecord
100
AcDbLayerTableRecord
  2
WAKU1023
 70
     0
 62
    16
  6
CONTINUOUS
  0
ENDTAB
  0
TABLE
  2
STYLE
  5
436
100
AcDbSymbolTable
 70
     4
  0
STYLE
  5
437
100
AcDbSymbolTableRecord
100
AcDbTextStyleTableRecord
  2
STANDARD
 70
    64
 40
0.0
 41
1.0
 50
0.0
 71
     0
 42
3.099999904632568
  3
TXT
  4

  0
STYLE
  5
438
100
AcDbSymbolTableRecord
100
AcDbTextStyleTableRecord
  2
ANKTATE
 70
    68
 40
0.0
 41
1.0
 50
0.0
 71
     0
 42
3.099999904632568
  3
TXT
  4

  0
STYLE
  5
439
100
AcDbSymbolTableRecord
100
AcDbTextStyleTableRecord
  2
KNJYOKO
 70
    64
 40
0.0
 41
1.0
 50
0.0
 71
     0
 42
3.099999904632568
  3
TXT
  4
BIGFONT
  0
STYLE
  5
43A
100
AcDbSymbolTableRecord
100
AcDbTextStyleTableRecord
  2
KNJTATE
 70
    68
 40
0.0
 41
1.0
 50
0.0
 71
     0
 42
3.099999904632568
  3
TXT
  4
BIGFONT
  0
ENDTAB
  0
TABLE
  2
VIEW
  5
43B
100
AcDbSymbolTable
 70
     0
  0
ENDTAB
  0
TABLE
  2
UCS
  5
43C
100
AcDbSymbolTable
 70
     0
  0
ENDTAB
  0
TABLE
  2
APPID
  5
43D
100
AcDbSymbolTable
 70
     1
  0
APPID
  5
43E
100
AcDbSymbolTableRecord
100
AcDbRegAppTableRecord
  2
ACAD
 70
     0
  0
ENDTAB
  0
TABLE
  2
DIMSTYLE
  5
43F
100
AcDbSymbolTable
 70
     1
  0
DIMSTYLE
105
440
100
AcDbSymbolTableRecord
100
AcDbDimStyleTableRecord
  2
STANDARD
 70
     0
 41
2.000000
 44
2.000000
 42
0.800000
145
0.661290
140
3.100000
144
1.000000
146
0.903226
340
437
  0
DIMSTYLE
105
441
100
AcDbSymbolTableRecord
100
AcDbDimStyleTableRecord
  2
MAIN001
 70
     0
 41
3.000000
 44
3.000000
 42
1.200000
145
0.607527
140
4.650000
144
1.000000
146
0.903226
 77
     1
 73
     0
 74
     0
271
     3
275
     1
 78
     8
172
     1
340
437
  0
DIMSTYLE
105
442
100
AcDbSymbolTableRecord
100
AcDbDimStyleTableRecord
  2
WAKU002
 70
     0
 41
2.000000
 44
2.000000
 42
0.800000
145
0.661290
140
3.100000
144
1.000000
146
0.903226
 77
     1
 73
     0
 74
     0
271
     3
275
     1
 78
     8
172
     1
340
437
  0
ENDTAB
  0
TABLE
  2
BLOCK_RECORD
  5
443
100
AcDbSymbolTable
 70
    51
  0
BLOCK_RECORD
  5
444
100
AcDbSymbolTableRecord
100
AcDbBlockTableRecord
  2
*MODEL_SPACE
  0
BLOCK_RECORD
  5
445
100
AcDbSymbolTableRecord
100
AcDbBlockTableRecord
  2
*PAPER_SPACE
  0
BLOCK_RECORD
  5
1
100
AcDbSymbolTableRecord
100
AcDbBlockTableRecord
  2
_NONE
  0
BLOCK_RECORD
  5
4
100
AcDbSymbolTableRecord
100
AcDbBlockTableRecord
  2
_CLOSED
  0
BLOCK_RECORD
  5
B
100
AcDbSymbolTableRecord
100
AcDbBlockTableRecord
  2
_DOT
  0
BLOCK_RECORD
  5
13
100
AcDbSymbolTableRecord
100
AcDbBlockTableRecord
  2
_OPEN
  0
BLOCK_RECORD
  5
19
100
AcDbSymbolTableRecord
100
AcDbBlockTableRecord
  2
_ORIGIN
  0
BLOCK_RECORD
  5
1E
100
AcDbSymbolTableRecord
100
AcDbBlockTableRecord
  2
_OPEN30
  0
BLOCK_RECORD
  5
24
100
AcDbSymbolTableRecord
100
AcDbBlockTableRecord
  2
_BOXFILLED
  0
BLOCK_RECORD
  5
29
100
AcDbSymbolTableRecord
100
AcDbBlockTableRecord
  2
_BOXBLANK
  0
BLOCK_RECORD
  5
31
100
AcDbSymbolTableRecord
100
AcDbBlockTableRecord
  2
_OBLIQUE
  0
BLOCK_RECORD
  5
35
100
AcDbSymbolTableRecord
100
AcDbBlockTableRecord
  2
_OPEN90
  0
BLOCK_RECORD
  5
3B
100
AcDbSymbolTableRecord
100
AcDbBlockTableRecord
  2
_CLOSEDBLANK
  0
BLOCK_RECORD
  5
41
100
AcDbSymbolTableRecord
100
AcDbBlockTableRecord
  2
_DOTBLANK
  0
BLOCK_RECORD
  5
446
100
AcDbSymbolTableRecord
100
AcDbBlockTableRecord
  2
M0
  0
BLOCK_RECORD
  5
447
100
AcDbSymbolTableRecord
100
AcDbBlockTableRecord
  2
M1
  0
BLOCK_RECORD
  5
448
100
AcDbSymbolTableRecord
100
AcDbBlockTableRecord
  2
M2
  0
BLOCK_RECORD
  5
449
100
AcDbSymbolTableRecord
100
AcDbBlockTableRecord
  2
*D0
  0
BLOCK_RECORD
  5
44A
100
AcDbSymbolTableRecord
100
AcDbBlockTableRecord
  2
*D1
  0
BLOCK_RECORD
  5
44B
100
AcDbSymbolTableRecord
100
AcDbBlockTableRecord
  2
*D2
  0
BLOCK_RECORD
  5
44C
100
AcDbSymbolTableRecord
100
AcDbBlockTableRecord
  2
*D3
  0
BLOCK_RECORD
  5
44D
100
AcDbSymbolTableRecord
100
AcDbBlockTableRecord
  2
*D4
  0
BLOCK_RECORD
  5
44E
100
AcDbSymbolTableRecord
100
AcDbBlockTableRecord
  2
*D5
  0
BLOCK_RECORD
  5
44F
100
AcDbSymbolTableRecord
100
AcDbBlockTableRecord
  2
*D6
  0
BLOCK_RECORD
  5
450
100
AcDbSymbolTableRecord
100
AcDbBlockTableRecord
  2
*D7
  0
BLOCK_RECORD
  5
451
100
AcDbSymbolTableRecord
100
AcDbBlockTableRecord
  2
*D8
  0
BLOCK_RECORD
  5
452
100
AcDbSymbolTableRecord
100
AcDbBlockTableRecord
  2
*D9
  0
BLOCK_RECORD
  5
453
100
AcDbSymbolTableRecord
100
AcDbBlockTableRecord
  2
*D10
  0
BLOCK_RECORD
  5
454
100
AcDbSymbolTableRecord
100
AcDbBlockTableRecord
  2
*D11
  0
BLOCK_RECORD
  5
455
100
AcDbSymbolTableRecord
100
AcDbBlockTableRecord
  2
*D12
  0
BLOCK_RECORD
  5
456
100
AcDbSymbolTableRecord
100
AcDbBlockTableRecord
  2
*D13
  0
BLOCK_RECORD
  5
457
100
AcDbSymbolTableRecord
100
AcDbBlockTableRecord
  2
*D14
  0
BLOCK_RECORD
  5
458
100
AcDbSymbolTableRecord
100
AcDbBlockTableRecord
  2
*D15
  0
BLOCK_RECORD
  5
459
100
AcDbSymbolTableRecord
100
AcDbBlockTableRecord
  2
*D16
  0
BLOCK_RECORD
  5
45A
100
AcDbSymbolTableRecord
100
AcDbBlockTableRecord
  2
*D17
  0
BLOCK_RECORD
  5
45B
100
AcDbSymbolTableRecord
100
AcDbBlockTableRecord
  2
*D18
  0
BLOCK_RECORD
  5
45C
100
AcDbSymbolTableRecord
100
AcDbBlockTableRecord
  2
*D19
  0
BLOCK_RECORD
  5
45D
100
AcDbSymbolTableRecord
100
AcDbBlockTableRecord
  2
*D20
  0
BLOCK_RECORD
  5
45E
100
AcDbSymbolTableRecord
100
AcDbBlockTableRecord
  2
*D21
  0
BLOCK_RECORD
  5
45F
100
AcDbSymbolTableRecord
100
AcDbBlockTableRecord
  2
*D22
  0
BLOCK_RECORD
  5
460
100
AcDbSymbolTableRecord
100
AcDbBlockTableRecord
  2
*D23
  0
BLOCK_RECORD
  5
461
100
AcDbSymbolTableRecord
100
AcDbBlockTableRecord
  2
*D24
  0
BLOCK_RECORD
  5
462
100
AcDbSymbolTableRecord
100
AcDbBlockTableRecord
  2
*D25
  0
BLOCK_RECORD
  5
463
100
AcDbSymbolTableRecord
100
AcDbBlockTableRecord
  2
*D26
  0
BLOCK_RECORD
  5
464
100
AcDbSymbolTableRecord
100
AcDbBlockTableRecord
  2
*D27
  0
BLOCK_RECORD
  5
465
100
AcDbSymbolTableRecord
100
AcDbBlockTableRecord
  2
*D28
  0
BLOCK_RECORD
  5
466
100
AcDbSymbolTableRecord
100
AcDbBlockTableRecord
  2
*D29
  0
BLOCK_RECORD
  5
467
100
AcDbSymbolTableRecord
100
AcDbBlockTableRecord
  2
D30
  0
BLOCK_RECORD
  5
468
100
AcDbSymbolTableRecord
100
AcDbBlockTableRecord
  2
D31
  0
BLOCK_RECORD
  5
469
100
AcDbSymbolTableRecord
100
AcDbBlockTableRecord
  2
*D32
  0
BLOCK_RECORD
  5
46A
100
AcDbSymbolTableRecord
100
AcDbBlockTableRecord
  2
*D33
  0
BLOCK_RECORD
  5
46B
100
AcDbSymbolTableRecord
100
AcDbBlockTableRecord
  2
*D34
  0
BLOCK_RECORD
  5
46C
100
AcDbSymbolTableRecord
100
AcDbBlockTableRecord
  2
*D35
  0
ENDTAB
  0
ENDSEC
  0
SECTION
  2
BLOCKS
  0
BLOCK
  5
46D
100
AcDbEntity
  8
0
100
AcDbBlockBegin
  2
*MODEL_SPACE
 70
     0
 10
0.0
 20
0.0
 30
0.0
  3
*MODEL_SPACE
  1

  0
ENDBLK
  5
46E
100
AcDbEntity
  8
0
100
AcDbBlockEnd
  0
BLOCK
  5
46F
100
AcDbEntity
  8
0
100
AcDbBlockBegin
  2
*PAPER_SPACE
 70
     0
 10
0.0
 20
0.0
 30
0.0
  3
*PAPER_SPACE
  1

  0
ENDBLK
  5
470
100
AcDbEntity
  8
0
100
AcDbBlockEnd
  0
BLOCK
  5
2
100
AcDbEntity
  8
0
100
AcDbBlockBegin
  2
_NONE
 70
     0
 10
0.0
 20
0.0
 30
0.0
  3
_NONE
  1

  0
ENDBLK
  5
3
100
AcDbEntity
  8
0
100
AcDbBlockEnd
  0
BLOCK
  5
5
100
AcDbEntity
  8
0
100
AcDbBlockBegin
  2
_CLOSED
 70
     0
 10
0.0
 20
0.0
 30
0.0
  3
_CLOSED
  1

  0
LINE
  5
6
100
AcDbEntity
  8
0
  6
BYBLOCK
 62
     0
100
AcDbLine
 10
-1.0
 20
0.166667
 30
0.0
 11
0.0
 21
0.0
 31
0.0
  0
LINE
  5
7
100
AcDbEntity
  8
0
  6
BYBLOCK
 62
     0
100
AcDbLine
 10
0.0
 20
0.0
 30
0.0
 11
-1.0
 21
-0.166667
 31
0.0
  0
LINE
  5
8
100
AcDbEntity
  8
0
  6
BYBLOCK
 62
     0
100
AcDbLine
 10
-1.0
 20
0.166667
 30
0.0
 11
-1.0
 21
-0.166667
 31
0.0
  0
LINE
  5
9
100
AcDbEntity
  8
0
  6
BYBLOCK
 62
     0
100
AcDbLine
 10
0.0
 20
0.0
 30
0.0
 11
-1.0
 21
0.0
 31
0.0
  0
ENDBLK
  5
A
100
AcDbEntity
  8
0
100
AcDbBlockEnd
  0
BLOCK
  5
C
100
AcDbEntity
  8
0
100
AcDbBlockBegin
  2
_DOT
 70
     0
 10
0.0
 20
0.0
 30
0.0
  3
_DOT
  1

  0
POLYLINE
  5
D
100
AcDbEntity
  8
0
  6
BYBLOCK
 62
     0
100
AcDb2dPolyline
 66
     1
 10
0.0
 20
0.0
 30
0.0
 70
     1
 40
0.5
 41
0.5
  0
VERTEX
  5
E
100
AcDbEntity
  8
0
  6
BYBLOCK
 62
     0
100
AcDbVertex
100
AcDb2dVertex
 10
-0.25
 20
0.0
 30
0.0
 42
1.0
  0
VERTEX
  5
F
100
AcDbEntity
  8
0
  6
BYBLOCK
 62
     0
100
AcDbVertex
100
AcDb2dVertex
 10
0.25
 20
0.0
 30
0.0
 42
1.0
  0
SEQEND
  5
10
100
AcDbEntity
  8
0
  6
BYBLOCK
 62
     0
  0
LINE
  5
11
100
AcDbEntity
  8
0
  6
BYBLOCK
 62
     0
100
AcDbLine
 10
-0.5
 20
0.0
 30
0.0
 11
-1.0
 21
0.0
 31
0.0
  0
ENDBLK
  5
12
100
AcDbEntity
  8
0
100
AcDbBlockEnd
  0
BLOCK
  5
14
100
AcDbEntity
  8
0
100
AcDbBlockBegin
  2
_OPEN
 70
     0
 10
0.0
 20
0.0
 30
0.0
  3
_OPEN
  1

  0
LINE
  5
15
100
AcDbEntity
  8
0
  6
BYBLOCK
 62
     0
100
AcDbLine
 10
-1.0
 20
0.166667
 30
0.0
 11
0.0
 21
0.0
 31
0.0
  0
LINE
  5
16
100
AcDbEntity
  8
0
  6
BYBLOCK
 62
     0
100
AcDbLine
 10
0.0
 20
0.0
 30
0.0
 11
-1.0
 21
-0.166667
 31
0.0
  0
LINE
  5
17
100
AcDbEntity
  8
0
  6
BYBLOCK
 62
     0
100
AcDbLine
 10
0.0
 20
0.0
 30
0.0
 11
-1.0
 21
0.0
 31
0.0
  0
ENDBLK
  5
18
100
AcDbEntity
  8
0
100
AcDbBlockEnd
  0
BLOCK
  5
1A
100
AcDbEntity
  8
0
100
AcDbBlockBegin
  2
_ORIGIN
 70
     0
 10
0.0
 20
0.0
 30
0.0
  3
_ORIGIN
  1

  0
CIRCLE
  5
1B
100
AcDbEntity
  8
0
  6
BYBLOCK
 62
     0
100
AcDbCircle
 10
0.0
 20
0.0
 30
0.0
 40
0.5
  0
LINE
  5
1C
100
AcDbEntity
  8
0
  6
BYBLOCK
 62
     0
100
AcDbLine
 10
0.0
 20
0.0
 30
0.0
 11
-1.0
 21
0.0
 31
0.0
  0
ENDBLK
  5
1D
100
AcDbEntity
  8
0
100
AcDbBlockEnd
  0
BLOCK
  5
1F
100
AcDbEntity
  8
0
100
AcDbBlockBegin
  2
_OPEN30
 70
     0
 10
0.0
 20
0.0
 30
0.0
  3
_OPEN30
  1

  0
LINE
  5
20
100
AcDbEntity
  8
0
  6
BYBLOCK
 62
     0
100
AcDbLine
 10
-1.0
 20
0.267949
 30
0.0
 11
0.0
 21
0.0
 31
0.0
  0
LINE
  5
21
100
AcDbEntity
  8
0
  6
BYBLOCK
 62
     0
100
AcDbLine
 10
0.0
 20
0.0
 30
0.0
 11
-1.0
 21
-0.267949
 31
0.0
  0
LINE
  5
22
100
AcDbEntity
  8
0
  6
BYBLOCK
 62
     0
100
AcDbLine
 10
0.0
 20
0.0
 30
0.0
 11
-1.0
 21
0.0
 31
0.0
  0
ENDBLK
  5
23
100
AcDbEntity
  8
0
100
AcDbBlockEnd
  0
BLOCK
  5
25
100
AcDbEntity
  8
0
100
AcDbBlockBegin
  2
_BOXFILLED
 70
     0
 10
0.0
 20
0.0
 30
0.0
  3
_BOXFILLED
  1

  0
SOLID
  5
26
100
AcDbEntity
  8
0
  6
BYBLOCK
 62
     0
100
AcDbTrace
 10
-0.5
 20
0.5
 30
0.0
 11
0.5
 21
0.5
 31
0.0
 12
-0.5
 22
-0.5
 32
0.0
 13
0.5
 23
-0.5
 33
0.0
  0
LINE
  5
27
100
AcDbEntity
  8
0
  6
BYBLOCK
 62
     0
100
AcDbLine
 10
-0.5
 20
0.0
 30
0.0
 11
-1.0
 21
0.0
 31
0.0
  0
ENDBLK
  5
28
100
AcDbEntity
  8
0
100
AcDbBlockEnd
  0
BLOCK
  5
2A
100
AcDbEntity
  8
0
100
AcDbBlockBegin
  2
_BOXBLANK
 70
     0
 10
0.0
 20
0.0
 30
0.0
  3
_BOXBLANK
  1

  0
LINE
  5
2B
100
AcDbEntity
  8
0
  6
BYBLOCK
 62
     0
100
AcDbLine
 10
-0.5
 20
-0.5
 30
0.0
 11
0.5
 21
-0.5
 31
0.0
  0
LINE
  5
2C
100
AcDbEntity
  8
0
  6
BYBLOCK
 62
     0
100
AcDbLine
 10
0.5
 20
-0.5
 30
0.0
 11
0.5
 21
0.5
 31
0.0
  0
LINE
  5
2D
100
AcDbEntity
  8
0
  6
BYBLOCK
 62
     0
100
AcDbLine
 10
0.5
 20
0.5
 30
0.0
 11
-0.5
 21
0.5
 31
0.0
  0
LINE
  5
2E
100
AcDbEntity
  8
0
  6
BYBLOCK
 62
     0
100
AcDbLine
 10
-0.5
 20
0.5
 30
0.0
 11
-0.5
 21
-0.5
 31
0.0
  0
LINE
  5
2F
100
AcDbEntity
  8
0
  6
BYBLOCK
 62
     0
100
AcDbLine
 10
-0.5
 20
0.0
 30
0.0
 11
-1.0
 21
0.0
 31
0.0
  0
ENDBLK
  5
30
100
AcDbEntity
  8
0
100
AcDbBlockEnd
  0
BLOCK
  5
32
100
AcDbEntity
  8
0
100
AcDbBlockBegin
  2
_OBLIQUE
 70
     0
 10
0.0
 20
0.0
 30
0.0
  3
_OBLIQUE
  1

  0
LINE
  5
33
100
AcDbEntity
  8
0
  6
BYBLOCK
 62
     0
100
AcDbLine
 10
-0.5
 20
-0.5
 30
0.0
 11
0.5
 21
0.5
 31
0.0
  0
ENDBLK
  5
34
100
AcDbEntity
  8
0
100
AcDbBlockEnd
  0
BLOCK
  5
36
100
AcDbEntity
  8
0
100
AcDbBlockBegin
  2
_OPEN90
 70
     0
 10
0.0
 20
0.0
 30
0.0
  3
_OPEN90
  1

  0
LINE
  5
37
100
AcDbEntity
  8
0
  6
BYBLOCK
 62
     0
100
AcDbLine
 10
-0.5
 20
0.5
 30
0.0
 11
0.0
 21
0.0
 31
0.0
  0
LINE
  5
38
100
AcDbEntity
  8
0
  6
BYBLOCK
 62
     0
100
AcDbLine
 10
0.0
 20
0.0
 30
0.0
 11
-0.5
 21
-0.5
 31
0.0
  0
LINE
  5
39
100
AcDbEntity
  8
0
  6
BYBLOCK
 62
     0
100
AcDbLine
 10
0.0
 20
0.0
 30
0.0
 11
-1.0
 21
0.0
 31
0.0
  0
ENDBLK
  5
3A
100
AcDbEntity
  8
0
100
AcDbBlockEnd
  0
BLOCK
  5
3C
100
AcDbEntity
  8
0
100
AcDbBlockBegin
  2
_CLOSEDBLANK
 70
     0
 10
0.0
 20
0.0
 30
0.0
  3
_CLOSEDBLANK
  1

  0
LINE
  5
3D
100
AcDbEntity
  8
0
  6
BYBLOCK
 62
     0
100
AcDbLine
 10
-1.0
 20
0.1666666666666666
 30
0.0
 11
0.0
 21
0.0
 31
0.0
  0
LINE
  5
3E
100
AcDbEntity
  8
0
  6
BYBLOCK
 62
     0
100
AcDbLine
 10
0.0
 20
0.0
 30
0.0
 11
-1.0
 21
-0.1666666666666666
 31
0.0
  0
LINE
  5
3F
100
AcDbEntity
  8
0
  6
BYBLOCK
 62
     0
100
AcDbLine
 10
-1.0
 20
0.1666666666666666
 30
0.0
 11
-1.0
 21
-0.1666666666666666
 31
0.0
  0
ENDBLK
  5
40
100
AcDbEntity
  8
0
100
AcDbBlockEnd
  0
BLOCK
  5
42
100
AcDbEntity
  8
0
100
AcDbBlockBegin
  2
_DOTBLANK
 70
     0
 10
0.0
 20
0.0
 30
0.0
  3
_DOTBLANK
  1

  0
CIRCLE
  5
43
100
AcDbEntity
  8
0
  6
BYBLOCK
 62
     0
100
AcDbCircle
 10
0.0
 20
0.0
 30
0.0
 40
0.5
  0
LINE
  5
44
100
AcDbEntity
  8
0
  6
BYBLOCK
 62
     0
100
AcDbLine
 10
-0.5
 20
0.0
 30
0.0
 11
-1.0
 21
0.0
 31
0.0
  0
ENDBLK
  5
45
100
AcDbEntity
  8
0
100
AcDbBlockEnd
  0
BLOCK
  5
17E
100
AcDbEntity
  8
MAIN0
  6
BYBLOCK
 62
3
100
AcDbBlockBegin
  2
M0
 70
    64
 10
0.0
 20
0.0
 30
0.0
  0
MTEXT
  5
17F
100
AcDbEntity
  8
MAIN0
  6
BYBLOCK
 62
0
100
AcDbMText
 10
422.9290977817867
 20
162.4795332001643
 30
0.0000000000000000
 40
4.650000572204590
 41
0.0000000000000000
 71
     1
 72
     1
  1
{\H0.95x;上記仕様は標準ソフトジョー付で許容最大入力時の場合\Pまた最大静的把握力、および許容最高回転速度については\Pソフトジョーの面上高さの１／２での実測値を示す}
 11
1.000000000000000
 21
0.0000000000000000
 31
0.0000000000000000
  7
KNJYOKO
  0
CIRCLE
  5
180
100
AcDbEntity
  8
MAIN0
  6
BYBLOCK
 62
0
100
AcDbCircle
 10
419.7741027599280
 20
160.0485841953823
 30
0.0000000000000000
 40
1.500000000000000
  0
ENDBLK
  5
181
100
AcDbEntity
  8
MAIN0
  6
BYBLOCK
 62
3
100
AcDbBlockEnd
  0
BLOCK
  5
183
100
AcDbEntity
  8
MAIN0
  6
BYBLOCK
 62
3
100
AcDbBlockBegin
  2
M1
 70
    64
 10
0.0
 20
0.0
 30
0.0
  0
LINE
  5
184
100
AcDbEntity
  8
MAIN0
  6
BYBLOCK
 62
0
100
AcDbLine
 10
417.1540533964889
 20
307.6712868018199
 30
0.0000000000000000
 11
532.6540533964889
 21
307.6712868018199
 31
0.0000000000000000
  0
LINE
  5
185
100
AcDbEntity
  8
MAIN0
  6
BYBLOCK
 62
0
100
AcDbLine
 10
417.1540533964889
 20
292.6712868018199
 30
0.0000000000000000
 11
532.6540533964889
 21
292.6712868018199
 31
0.0000000000000000
  0
LINE
  5
186
100
AcDbEntity
  8
MAIN0
  6
BYBLOCK
 62
0
100
AcDbLine
 10
417.1540533964889
 20
165.1712868018200
 30
0.0000000000000000
 11
417.1540533964889
 21
307.6712868018199
 31
0.0000000000000000
  0
LINE
  5
187
100
AcDbEntity
  8
MAIN0
  6
BYBLOCK
 62
0
100
AcDbLine
 10
417.1540533964889
 20
282.1712868018203
 30
0.0000000000000000
 11
532.6540533964886
 21
282.1712868018203
 31
0.0000000000000000
  0
LINE
  5
188
100
AcDbEntity
  8
MAIN0
  6
BYBLOCK
 62
0
100
AcDbLine
 10
417.1540533964889
 20
271.6712868018203
 30
0.0000000000000000
 11
532.6540533964886
 21
271.6712868018203
 31
0.0000000000000000
  0
LINE
  5
189
100
AcDbEntity
  8
MAIN0
  6
BYBLOCK
 62
0
100
AcDbLine
 10
417.1540533964889
 20
256.6712868018200
 30
0.0000000000000000
 11
532.6540533964886
 21
256.6712868018200
 31
0.0000000000000000
  0
LINE
  5
18A
100
AcDbEntity
  8
MAIN0
  6
BYBLOCK
 62
0
100
AcDbLine
 10
417.1540533964889
 20
241.6712868018200
 30
0.0000000000000000
 11
532.6540533964886
 21
241.6712868018200
 31
0.0000000000000000
  0
LINE
  5
18B
100
AcDbEntity
  8
MAIN0
  6
BYBLOCK
 62
0
100
AcDbLine
 10
417.1540533964889
 20
231.1712868018200
 30
0.0000000000000000
 11
532.6540533964886
 21
231.1712868018200
 31
0.0000000000000000
  0
LINE
  5
18C
100
AcDbEntity
  8
MAIN0
  6
BYBLOCK
 62
0
100
AcDbLine
 10
417.1540533964889
 20
220.6712868018200
 30
0.0000000000000000
 11
532.6540533964886
 21
220.6712868018200
 31
0.0000000000000000
  0
LINE
  5
18D
100
AcDbEntity
  8
MAIN0
  6
BYBLOCK
 62
0
100
AcDbLine
 10
417.1540533964889
 20
205.6712868018200
 30
0.0000000000000000
 11
532.6540533964886
 21
205.6712868018200
 31
0.0000000000000000
  0
LINE
  5
18E
100
AcDbEntity
  8
MAIN0
  6
BYBLOCK
 62
0
100
AcDbLine
 10
417.1540533964889
 20
190.6712868018200
 30
0.0000000000000000
 11
532.6540533964886
 21
190.6712868018200
 31
0.0000000000000000
  0
LINE
  5
18F
100
AcDbEntity
  8
MAIN0
  6
BYBLOCK
 62
0
100
AcDbLine
 10
417.1540533964889
 20
180.1712868018200
 30
0.0000000000000000
 11
532.6540533964886
 21
180.1712868018200
 31
0.0000000000000000
  0
LINE
  5
190
100
AcDbEntity
  8
MAIN0
  6
BYBLOCK
 62
0
100
AcDbLine
 10
417.1540533964889
 20
165.1712868018200
 30
0.0000000000000000
 11
532.6540533964887
 21
165.1712868018197
 31
0.0000000000000000
  0
LINE
  5
191
100
AcDbEntity
  8
MAIN0
  6
BYBLOCK
 62
0
100
AcDbLine
 10
487.6540533964886
 20
165.1712868018195
 30
0.0000000000000000
 11
487.6540533964886
 21
292.6712868018200
 31
0.0000000000000000
  0
LINE
  5
192
100
AcDbEntity
  8
MAIN0
  6
BYBLOCK
 62
0
100
AcDbLine
 10
532.6540533964886
 20
165.1712868018195
 30
0.0000000000000000
 11
532.6540533964886
 21
307.6712868018199
 31
0.0000000000000000
  0
MTEXT
  5
193
100
AcDbEntity
  8
MAIN0
  6
BYBLOCK
 62
0
100
AcDbMText
 10
421.7643160776616
 20
287.0662284918326
 30
0.0000000000000000
 40
3.599999427795410
 41
0.0000000000000000
 71
     1
 72
     1
  1
{\H0.93x;プランジャストロ－ク}
 11
1.000000000000000
 21
0.0000000000000000
 31
0.0000000000000000
  7
KNJYOKO
  0
MTEXT
  5
194
100
AcDbEntity
  8
MAIN0
  6
BYBLOCK
 62
0
100
AcDbMText
 10
421.7643160776616
 20
276.5662284918329
 30
0.0000000000000000
 40
3.599999427795410
 41
0.0000000000000000
 71
     1
 72
     1
  1
{\H0.94x;ジョーストローク(直径で)}
 11
1.000000000000000
 21
0.0000000000000000
 31
0.0000000000000000
  7
KNJYOKO
  0
MTEXT
  5
195
100
AcDbEntity
  8
MAIN0
  6
BYBLOCK
 62
0
100
AcDbMText
 10
421.7643160776616
 20
263.0662284918329
 30
0.0000000000000000
 40
3.599999427795410
 41
0.0000000000000000
 71
     1
 72
     1
  1
{\H0.93x;許容最大入力　}
 11
1.000000000000000
 21
0.0000000000000000
 31
0.0000000000000000
  7
KNJYOKO
  0
MTEXT
  5
196
100
AcDbEntity
  8
MAIN0
  6
BYBLOCK
 62
0
100
AcDbMText
 10
421.7643160776616
 20
251.0662284918328
 30
0.0000000000000000
 40
3.599999427795410
 41
0.0000000000000000
 71
     1
 72
     1
  1
{\H0.93x;最大静的把握力　　}
 11
1.000000000000000
 21
0.0000000000000000
 31
0.0000000000000000
  7
KNJYOKO
  0
MTEXT
  5
197
100
AcDbEntity
  8
MAIN0
  6
BYBLOCK
 62
0
100
AcDbMText
 10
421.7643160776616
 20
236.0662284918328
 30
0.0000000000000000
 40
3.599999427795410
 41
0.0000000000000000
 71
     1
 72
     1
  1
{\H0.93x;許容最高回転速度　}
 11
1.000000000000000
 21
0.0000000000000000
 31
0.0000000000000000
  7
KNJYOKO
  0
MTEXT
  5
198
100
AcDbEntity
  8
MAIN0
  6
BYBLOCK
 62
0
100
AcDbMText
 10
421.7643160776616
 20
225.5662284918328
 30
0.0000000000000000
 40
3.599999427795410
 41
0.0000000000000000
 71
     1
 72
     1
  1
{\H0.89x;質量\P}
 11
1.000000000000000
 21
0.0000000000000000
 31
0.0000000000000000
  7
KNJYOKO
  0
MTEXT
  5
199
100
AcDbEntity
  8
MAIN0
  6
BYBLOCK
 62
0
100
AcDbMText
 10
421.8753696152170
 20
216.6346534947509
 30
0.0000000000000000
 40
3.749998569488525
 41
0.0000000000000000
 71
     1
 72
     1
  1
{\H0.75x;MOMENT OF INERTIA\P慣性モーメント}
 11
1.000000000000000
 21
0.0000000000000000
 31
0.0000000000000000
  7
KNJYOKO
  0
MTEXT
  5
19A
100
AcDbEntity
  8
MAIN0
  6
BYBLOCK
 62
0
100
AcDbMText
 10
421.7643160776616
 20
195.5662284918327
 30
0.0000000000000000
 40
3.599999427795410
 41
0.0000000000000000
 71
     1
 72
     1
  1
{\H0.94x;最高回転時の動的把握力}
 11
1.000000000000000
 21
0.0000000000000000
 31
0.0000000000000000
  7
KNJYOKO
  0
MTEXT
  5
19B
100
AcDbEntity
  8
MAIN0
  6
BYBLOCK
 62
0
100
AcDbMText
 10
421.7643160776616
 20
185.0662284918327
 30
0.0000000000000000
 40
3.599999427795410
 41
0.0000000000000000
 71
     1
 72
     1
  1
{\H0.93x;使用シリンダ}
 11
1.000000000000000
 21
0.0000000000000000
 31
0.0000000000000000
  7
KNJYOKO
  0
MTEXT
  5
19C
100
AcDbEntity
  8
MAIN0
  6
BYBLOCK
 62
0
100
AcDbMText
 10
421.4794156109853
 20
171.7420217992487
 30
0.0000000000000000
 40
3.599999427795410
 41
0.0000000000000000
 71
     1
 72
     1
  1
{\H0.93x;許容最大油圧力}
 11
1.000000000000000
 21
0.0000000000000000
 31
0.0000000000000000
  7
KNJYOKO
  0
MTEXT
  5
19D
100
AcDbEntity
  8
MAIN0
  6
BYBLOCK
 62
0
100
AcDbMText
 10
510.1540533964888
 20
287.8712856574110
 30
0.0000000000000000
 40
4.199998855590820
 41
0.0000000000000000
 71
     1
 72
     1
  1
{\H0.58x;　　　　ｍｍ}
 11
1.000000000000000
 21
0.0000000000000000
 31
0.0000000000000000
  7
KNJYOKO
  0
MTEXT
  5
19E
100
AcDbEntity
  8
MAIN0
  6
BYBLOCK
 62
0
100
AcDbMText
 10
510.1540533964888
 20
277.3712856574110
 30
0.0000000000000000
 40
4.199998855590820
 41
0.0000000000000000
 71
     1
 72
     1
  1
{\H0.58x;　　　　ｍｍ}
 11
1.000000000000000
 21
0.0000000000000000
 31
0.0000000000000000
  7
KNJYOKO
  0
MTEXT
  5
19F
100
AcDbEntity
  8
MAIN0
  6
BYBLOCK
 62
0
100
AcDbMText
 10
510.1540533964888
 20
226.3712856574109
 30
0.0000000000000000
 40
4.199998855590820
 41
0.0000000000000000
 71
     1
 72
     1
  1
{\H0.58x;　　　　ｋｇ}
 11
1.000000000000000
 21
0.0000000000000000
 31
0.0000000000000000
  7
KNJYOKO
  0
MTEXT
  5
1A0
100
AcDbEntity
  8
MAIN0
  6
BYBLOCK
 62
0
100
AcDbMText
 10
510.1540533964888
 20
236.8712856574109
 30
0.0000000000000000
 40
4.199998855590820
 41
0.0000000000000000
 71
     1
 72
     1
  1
{\H0.58x;　　ｍｉｎ}
 11
1.000000000000000
 21
0.0000000000000000
 31
0.0000000000000000
  7
KNJYOKO
  0
MTEXT
  5
1A1
100
AcDbEntity
  8
MAIN0
  6
BYBLOCK
 62
0
100
AcDbMText
 10
457.4612144404426
 20
299.1446703694909
 30
0.0000000000000000
 40
4.650000572204590
 41
0.0000000000000000
 71
     1
 72
     1
  1
{\H0.93x;仕　　　様}
 11
1.000000000000000
 21
0.0000000000000000
 31
0.0000000000000000
  7
KNJYOKO
  0
MTEXT
  5
1A2
100
AcDbEntity
  8
MAIN0
  6
BYBLOCK
 62
0
100
AcDbMText
 10
508.6540533964888
 20
261.6212856574109
 30
0.0000000000000000
 40
4.199998855590820
 41
0.0000000000000000
 71
     1
 72
     1
  1
{\H0.60x;　　　ｋｇｆ)}
 11
1.000000000000000
 21
0.0000000000000000
 31
0.0000000000000000
  7
KNJYOKO
  0
MTEXT
  5
1A3
100
AcDbEntity
  8
MAIN0
  6
BYBLOCK
 62
0
100
AcDbMText
 10
490.6540533964888
 20
261.6212856574109
 30
0.0000000000000000
 40
4.199998855590820
 41
0.0000000000000000
 71
     1
 72
     1
  1
{\H0.60x;(}
 11
1.000000000000000
 21
0.0000000000000000
 31
0.0000000000000000
  7
STANDARD
  0
MTEXT
  5
1A4
100
AcDbEntity
  8
MAIN0
  6
BYBLOCK
 62
0
100
AcDbMText
 10
510.1540533964888
 20
267.6212856574110
 30
0.0000000000000000
 40
4.199998855590820
 41
0.0000000000000000
 71
     1
 72
     1
  1
{\H0.58x;　　　　ｋＮ}
 11
1.000000000000000
 21
0.0000000000000000
 31
0.0000000000000000
  7
KNJYOKO
  0
MTEXT
  5
1A5
100
AcDbEntity
  8
MAIN0
  6
BYBLOCK
 62
0
100
AcDbMText
 10
508.6540533964888
 20
246.6212856574109
 30
0.0000000000000000
 40
4.199998855590820
 41
0.0000000000000000
 71
     1
 72
     1
  1
{\H0.60x;　　　ｋｇｆ)}
 11
1.000000000000000
 21
0.0000000000000000
 31
0.0000000000000000
  7
KNJYOKO
  0
MTEXT
  5
1A6
100
AcDbEntity
  8
MAIN0
  6
BYBLOCK
 62
0
100
AcDbMText
 10
490.6540533964888
 20
246.6212856574109
 30
0.0000000000000000
 40
4.199998855590820
 41
0.0000000000000000
 71
     1
 72
     1
  1
{\H0.60x;(}
 11
1.000000000000000
 21
0.0000000000000000
 31
0.0000000000000000
  7
STANDARD
  0
MTEXT
  5
1A7
100
AcDbEntity
  8
MAIN0
  6
BYBLOCK
 62
0
100
AcDbMText
 10
509.8235165543792
 20
211.0275223864979
 30
0.0000000000000000
 40
4.199998855590820
 41
0.0000000000000000
 71
     7
 72
     1
  1
　　ｋｇ・ｍ
 11
1.000000000000000
 21
0.0000000000000000
 31
0.0000000000000000
  7
KNJYOKO
  0
MTEXT
  5
1A8
100
AcDbEntity
  8
MAIN0
  6
BYBLOCK
 62
0
100
AcDbMText
 10
527.8235165543791
 20
213.1275218142934
 30
0.0000000000000000
 40
2.099999427795410
 41
0.0000000000000000
 71
     7
 72
     1
  1
2
 11
1.000000000000000
 21
0.0000000000000000
 31
0.0000000000000000
  7
STANDARD
  0
MTEXT
  5
1A9
100
AcDbEntity
  8
MAIN0
  6
BYBLOCK
 62
0
100
AcDbMText
 10
508.6540533964888
 20
195.6212856574109
 30
0.0000000000000000
 40
4.199998855590820
 41
0.0000000000000000
 71
     1
 72
     1
  1
{\H0.60x;　　　ｋｇｆ)}
 11
1.000000000000000
 21
0.0000000000000000
 31
0.0000000000000000
  7
KNJYOKO
  0
MTEXT
  5
1AA
100
AcDbEntity
  8
MAIN0
  6
BYBLOCK
 62
0
100
AcDbMText
 10
490.6540533964888
 20
195.6212856574109
 30
0.0000000000000000
 40
4.199998855590820
 41
0.0000000000000000
 71
     1
 72
     1
  1
{\H0.60x;(}
 11
1.000000000000000
 21
0.0000000000000000
 31
0.0000000000000000
  7
STANDARD
  0
MTEXT
  5
1AB
100
AcDbEntity
  8
MAIN0
  6
BYBLOCK
 62
0
100
AcDbMText
 10
508.6540533964888
 20
170.1212856574106
 30
0.0000000000000000
 40
4.199998855590820
 41
0.0000000000000000
 71
     1
 72
     1
  1
{\H0.62x;ｋｇｆ／ｃｍ )}
 11
1.000000000000000
 21
0.0000000000000000
 31
0.0000000000000000
  7
KNJYOKO
  0
MTEXT
  5
1AC
100
AcDbEntity
  8
MAIN0
  6
BYBLOCK
 62
0
100
AcDbMText
 10
526.7339971465374
 20
170.7368928441535
 30
0.0000000000000000
 40
3.000000000000000
 41
0.0000000000000000
 71
     1
 72
     1
  1
{\H0.81x;2}
 11
1.000000000000000
 21
0.0000000000000000
 31
0.0000000000000000
  7
STANDARD
  0
MTEXT
  5
1AD
100
AcDbEntity
  8
MAIN0
  6
BYBLOCK
 62
0
100
AcDbMText
 10
490.6540533964888
 20
170.1212856574106
 30
0.0000000000000000
 40
4.199998855590820
 41
0.0000000000000000
 71
     1
 72
     1
  1
{\H0.60x;(}
 11
1.000000000000000
 21
0.0000000000000000
 31
0.0000000000000000
  7
STANDARD
  0
MTEXT
  5
1AE
100
AcDbEntity
  8
MAIN0
  6
BYBLOCK
 62
0
100
AcDbMText
 10
510.1540533964888
 20
176.1212856574106
 30
0.0000000000000000
 40
4.199998855590820
 41
0.0000000000000000
 71
     1
 72
     1
  1
{\H0.58x;　　　ＭＰａ}
 11
1.000000000000000
 21
0.0000000000000000
 31
0.0000000000000000
  7
KNJYOKO
  0
MTEXT
  5
1AF
100
AcDbEntity
  8
MAIN0
  6
BYBLOCK
 62
0
100
AcDbMText
 10
510.1540533964888
 20
252.6212856574109
 30
0.0000000000000000
 40
4.199998855590820
 41
0.0000000000000000
 71
     1
 72
     1
  1
{\H0.58x;　　　　ｋＮ}
 11
1.000000000000000
 21
0.0000000000000000
 31
0.0000000000000000
  7
KNJYOKO
  0
MTEXT
  5
1B0
100
AcDbEntity
  8
MAIN0
  6
BYBLOCK
 62
0
100
AcDbMText
 10
510.1540533964888
 20
201.6212856574109
 30
0.0000000000000000
 40
4.199998855590820
 41
0.0000000000000000
 71
     1
 72
     1
  1
{\H0.58x;　　　　ｋＮ}
 11
1.000000000000000
 21
0.0000000000000000
 31
0.0000000000000000
  7
KNJYOKO
  0
MTEXT
  5
1B1
100
AcDbEntity
  8
MAIN0
  6
BYBLOCK
 62
0
100
AcDbMText
 10
525.3860557689686
 20
237.8756024867530
 30
0.0000000000000000
 40
3.000000000000000
 41
0.0000000000000000
 71
     1
 72
     1
  1
{\H0.88x;-1}
 11
1.000000000000000
 21
0.0000000000000000
 31
0.0000000000000000
  7
STANDARD
  0
MTEXT
  5
1B2
100
AcDbEntity
  8
MAIN0
  6
BYBLOCK
 62
0
100
AcDbMText
 10
421.7643160776616
 20
291.7162276335257
 30
0.0000000000000000
 40
3.749998569488525
 41
0.0000000000000000
 71
     1
 72
     1
  1
{\H0.75x;PLUNGER STROKE}
 11
1.000000000000000
 21
0.0000000000000000
 31
0.0000000000000000
  7
STANDARD
  0
MTEXT
  5
1B3
100
AcDbEntity
  8
MAIN0
  6
BYBLOCK
 62
0
100
AcDbMText
 10
421.7643160776616
 20
281.2162276335261
 30
0.0000000000000000
 40
3.749998569488525
 41
0.0000000000000000
 71
     1
 72
     1
  1
{\H0.75x;JAW STROKE (IN DIA)}
 11
1.000000000000000
 21
0.0000000000000000
 31
0.0000000000000000
  7
STANDARD
  0
MTEXT
  5
1B4
100
AcDbEntity
  8
MAIN0
  6
BYBLOCK
 62
0
100
AcDbMText
 10
421.7643160776616
 20
267.7162290640375
 30
0.0000000000000000
 40
3.750000000000000
 41
0.0000000000000000
 71
     1
 72
     1
  1
{\H0.63x;MAX PERMISSIBLE INPUT FORCE}
 11
1.000000000000000
 21
0.0000000000000000
 31
0.0000000000000000
  7
STANDARD
  0
MTEXT
  5
1B5
100
AcDbEntity
  8
MAIN0
  6
BYBLOCK
 62
0
100
AcDbMText
 10
421.7643160776616
 20
255.7162290640374
 30
0.0000000000000000
 40
3.750000000000000
 41
0.0000000000000000
 71
     1
 72
     1
  1
{\H0.63x;MAX STATIC GRIPPING FORCE}
 11
1.000000000000000
 21
0.0000000000000000
 31
0.0000000000000000
  7
STANDARD
  0
MTEXT
  5
1B6
100
AcDbEntity
  8
MAIN0
  6
BYBLOCK
 62
0
100
AcDbMText
 10
421.7643160776616
 20
240.7162276335259
 30
0.0000000000000000
 40
3.749998569488525
 41
0.0000000000000000
 71
     1
 72
     1
  1
{\H0.75x;MAX PERMISSIBLE SPEED}
 11
1.000000000000000
 21
0.0000000000000000
 31
0.0000000000000000
  7
STANDARD
  0
MTEXT
  5
1B7
100
AcDbEntity
  8
MAIN0
  6
BYBLOCK
 62
0
100
AcDbMText
 10
421.7643160776616
 20
230.2162276335259
 30
0.0000000000000000
 40
3.749998569488525
 41
0.0000000000000000
 71
     1
 72
     1
  1
{\H0.73x;MASS}
 11
1.000000000000000
 21
0.0000000000000000
 31
0.0000000000000000
  7
STANDARD
  0
MTEXT
  5
1B8
100
AcDbEntity
  8
MAIN0
  6
BYBLOCK
 62
0
100
AcDbMText
 10
421.8753696152170
 20
190.5017873939853
 30
0.0000000000000000
 40
3.749998569488525
 41
0.0000000000000000
 71
     1
 72
     1
  1
{\H0.75x;OPERATING CYLINDER}
 11
1.000000000000000
 21
0.0000000000000000
 31
0.0000000000000000
  7
STANDARD
  0
MTEXT
  5
1B9
100
AcDbEntity
  8
MAIN0
  6
BYBLOCK
 62
0
100
AcDbMText
 10
421.2814386088694
 20
177.2373787719981
 30
0.0000000000000000
 40
3.750000000000000
 41
0.0000000000000000
 71
     1
 72
     1
  1
{\H0.63x;MAX PERMISSIBLE OIL PRESS}
 11
1.000000000000000
 21
0.0000000000000000
 31
0.0000000000000000
  7
STANDARD
  0
MTEXT
  5
1BA
100
AcDbEntity
  8
MAIN0
  6
BYBLOCK
 62
0
100
AcDbMText
 10
421.6773926131011
 20
203.9641721030141
 30
0.0000000000000000
 40
3.750000000000000
 41
0.0000000000000000
 71
     1
 72
     1
  1
{\H0.63x;DYNAMIC GRIPPING FORCE}
 11
1.000000000000000
 21
0.0000000000000000
 31
0.0000000000000000
  7
STANDARD
  0
MTEXT
  5
1BB
100
AcDbEntity
  8
MAIN0
  6
BYBLOCK
 62
0
100
AcDbMText
 10
407.8971417157549
 20
199.9385120145465
 30
0.0000000000000000
 40
3.749998569488525
 41
0.0000000000000000
 71
     1
 72
     1
  1
{\H0.75x;            AT MAX SPEED}
 11
1.000000000000000
 21
0.0000000000000000
 31
0.0000000000000000
  7
STANDARD
  0
MTEXT
  5
1BC
100
AcDbEntity
  8
MAIN0
  6
BYBLOCK
 62
0
100
AcDbMText
 10
442.7564248069074
 20
305.2114736306934
 30
0.0000000000000000
 40
4.650000572204590
 41
0.0000000000000000
 71
     1
 72
     1
  1
{\H0.94x;SPECIFICATIONS}
 11
1.000000000000000
 21
0.0000000000000000
 31
0.0000000000000000
  7
STANDARD
  0
ENDBLK
  5
1BD
100
AcDbEntity
  8
MAIN0
  6
BYBLOCK
 62
3
100
AcDbBlockEnd
  0
BLOCK
  5
1BF
100
AcDbEntity
  8
MAIN0
  6
BYBLOCK
 62
3
100
AcDbBlockBegin
  2
M2
 70
    64
 10
0.0
 20
0.0
 30
0.0
  0
MTEXT
  5
1C0
100
AcDbEntity
  8
MAIN0
  6
BYBLOCK
 62
0
100
AcDbMText
 10
382.3354196210281
 20
145.0601206444707
 30
0.0000000000000000
 40
4.649999856948853
 41
0.0000000000000000
 71
     1
 72
     1
  3
{\H0.93x;ABOVE SPECS : WITH STD SOFT BLANK TOP JAWS\P              AT MAX PERMISSBLE INPUT FORCE.\P              MAX. STATIC GRIPPING FORCE AND\P              MAX. PERMISSIBLE SPEED ARE\P              ACTUAL VALUE AT 1/2 HEIGHT\P              OF STD 
  1
SOFT BLANK TOP JAWS\P              FROM CHUCK SURFACE.}
 11
1.000000000000000
 21
0.0000000000000000
 31
0.0000000000000000
  7
STANDARD
  0
ENDBLK
  5
1C1
100
AcDbEntity
  8
MAIN0
  6
BYBLOCK
 62
3
100
AcDbBlockEnd
  0
BLOCK
  5
1CB
100
AcDbEntity
  8
MAIN10
  6
CONTINUOUS
 62
3
100
AcDbBlockBegin
  2
*D0
 70
    65
 10
0.0
 20
0.0
 30
0.0
  0
LINE
  5
1CC
100
AcDbEntity
  8
MAIN10
  6
BYBLOCK
 62
0
100
AcDbLine
 10
763.4332406706956
 20
500.2969726632926
 30
0.0000000000000000
 11
511.4415485842688
 21
449.8074973301157
 31
0.0000000000000000
  0
INSERT
  5
1CD
100
AcDbEntity
  8
MAIN10
  6
BYBLOCK
 62
0
100
AcDbBlockReference
  2
_OPEN
 10
766.3747779324048
 20
500.8863439706838
 30
0.0000000000000000
 41
3.000000000000000
 42
3.000000000000000
 43
3.000000000000000
 50
11.32985604475294
  0
MTEXT
  5
1CE
100
AcDbEntity
  8
MAIN10
  6
BYBLOCK
 62
0
100
AcDbMText
 10
704.4207878406021
 20
491.6092545017491
 30
0.0000000000000000
 40
4.649999856948853
 41
0.0000000000000000
 71
     5
 72
     1
  1
\A1;\U+2205260\H0.903226x;\U+00B10.2
 11
0.9805124205697540
 21
0.1964571024637234
 31
0.0000000000000000
  7
STANDARD
  0
ENDBLK
  5
1CF
100
AcDbEntity
  8
MAIN10
  6
CONTINUOUS
 62
3
100
AcDbBlockEnd
  0
BLOCK
  5
1D1
100
AcDbEntity
  8
MAIN10
  6
CONTINUOUS
 62
3
100
AcDbBlockBegin
  2
*D1
 70
    65
 10
0.0
 20
0.0
 30
0.0
  0
LINE
  5
1D2
100
AcDbEntity
  8
MAIN10
  6
BYBLOCK
 62
0
100
AcDbLine
 10
750.6307461982549
 20
450.2807190786995
 30
0.0000000000000000
 11
527.1855803184187
 21
500.4131222221000
 31
0.0000000000000000
  0
INSERT
  5
1D3
100
AcDbEntity
  8
MAIN10
  6
BYBLOCK
 62
0
100
AcDbBlockReference
  2
_OPEN
 10
753.5579754455890
 20
449.6239627056418
 30
0.0000000000000000
 41
3.000000000000000
 42
3.000000000000000
 43
3.000000000000000
 50
347.3544636654066
  0
INSERT
  5
1D4
100
AcDbEntity
  8
MAIN10
  6
BYBLOCK
 62
0
100
AcDbBlockReference
  2
_OPEN
 10
524.2583510710846
 20
501.0698785951577
 30
0.0000000000000000
 41
3.000000000000000
 42
3.000000000000000
 43
3.000000000000000
 50
167.3544636654066
  0
MTEXT
  5
1D5
100
AcDbEntity
  8
MAIN10
  6
BYBLOCK
 62
0
100
AcDbMText
 10
707.8201043844210
 20
463.0372060075433
 30
0.0000000000000000
 40
4.649999856948853
 41
0.0000000000000000
 71
     5
 72
     1
  1
\A1;\U+2205235
 11
0.9757430824446999
 21
-0.2189187910192171
 31
0.0000000000000000
  7
STANDARD
  0
ENDBLK
  5
1D6
100
AcDbEntity
  8
MAIN10
  6
CONTINUOUS
 62
3
100
AcDbBlockEnd
  0
BLOCK
  5
1D8
100
AcDbEntity
  8
MAIN10
  6
CONTINUOUS
 62
3
100
AcDbBlockBegin
  2
*D2
 70
    65
 10
0.0
 20
0.0
 30
0.0
  0
LINE
  5
1D9
100
AcDbEntity
  8
MAIN10
  6
BYBLOCK
 62
0
100
AcDbLine
 10
735.5230489147938
 20
308.0050299259566
 30
0.0000000000000000
 11
742.1752786490778
 21
296.4830300425562
 31
0.0000000000000000
  0
LINE
  5
1DA
100
AcDbEntity
  8
MAIN10
  6
BYBLOCK
 62
0
100
AcDbLine
 10
759.0201719307216
 20
406.0002201104932
 30
0.0000000000000000
 11
817.7720538661802
 21
372.0798052596590
 31
0.0000000000000000
  0
ARC
  5
1DB
100
AcDbEntity
  8
MAIN10
  6
BYBLOCK
 62
0
100
AcDbCircle
 10
638.9081632583311
 20
475.3469206504045
 30
0.0000000000000000
 40
203.5342307814909
100
AcDbArc
 50
300.8445131704842
 51
329.1554868295162
  0
INSERT
  5
1DC
100
AcDbEntity
  8
MAIN10
  6
BYBLOCK
 62
0
100
AcDbBlockReference
  2
_OPEN
 10
740.6752786490779
 20
299.0811062539095
 30
0.0000000000000000
 41
3.000000000000000
 42
3.000000000000000
 43
3.000000000000000
 50
210.0000000000005
  0
INSERT
  5
1DD
100
AcDbEntity
  8
MAIN10
  6
BYBLOCK
 62
0
100
AcDbBlockReference
  2
_OPEN
 10
815.1739776548268
 20
373.5798052596590
 30
0.0000000000000000
 41
3.000000000000000
 42
3.000000000000000
 43
3.000000000000000
 50
59.99999999999994
  0
MTEXT
  5
1DE
100
AcDbEntity
  8
MAIN10
  6
BYBLOCK
 62
0
100
AcDbMText
 10
780.8310214412359
 20
333.4240624675008
 30
0.0000000000000000
 40
4.649999856948853
 41
0.0000000000000000
 71
     5
 72
     1
  1
\A1;30\U+00B0
 11
0.7071067811865450
 21
0.7071067811865500
 31
0.0000000000000000
  7
STANDARD
  0
ENDBLK
  5
1DF
100
AcDbEntity
  8
MAIN10
  6
CONTINUOUS
 62
3
100
AcDbBlockEnd
  0
BLOCK
  5
1E1
100
AcDbEntity
  8
MAIN10
  6
CONTINUOUS
 62
3
100
AcDbBlockBegin
  2
*D3
 70
    65
 10
0.0
 20
0.0
 30
0.0
  0
LINE
  5
1E2
100
AcDbEntity
  8
MAIN10
  6
BYBLOCK
 62
0
100
AcDbLine
 10
759.0201719307216
 20
406.0002201104932
 30
0.0000000000000000
 11
817.7720538661802
 21
372.0798052596590
 31
0.0000000000000000
  0
ARC
  5
1E3
100
AcDbEntity
  8
MAIN10
  6
BYBLOCK
 62
0
100
AcDbCircle
 10
638.9081632583311
 20
475.3469206504045
 30
0.0000000000000000
 40
203.5342307814909
100
AcDbArc
 50
330.8445131704837
 51
359.1554868295162
  0
INSERT
  5
1E4
100
AcDbEntity
  8
MAIN10
  6
BYBLOCK
 62
0
100
AcDbBlockReference
  2
_OPEN
 10
815.1739776548268
 20
373.5798052596590
 30
0.0000000000000000
 41
3.000000000000000
 42
3.000000000000000
 43
3.000000000000000
 50
240.0000000000000
  0
INSERT
  5
1E5
100
AcDbEntity
  8
MAIN10
  6
BYBLOCK
 62
0
100
AcDbBlockReference
  2
_OPEN
 10
842.4423940398220
 20
475.3469206504045
 30
0.0000000000000000
 41
3.000000000000000
 42
3.000000000000000
 43
3.000000000000000
 50
90.00000000000000
  0
MTEXT
  5
1E6
100
AcDbEntity
  8
MAIN10
  6
BYBLOCK
 62
0
100
AcDbMText
 10
832.7783929138743
 20
423.3995491777654
 30
0.0000000000000000
 40
4.649999856948853
 41
0.0000000000000000
 71
     5
 72
     1
  1
\A1;30\U+00B0
 11
0.2588190451025205
 21
0.9659258262890683
 31
0.0000000000000000
  7
STANDARD
  0
ENDBLK
  5
1E7
100
AcDbEntity
  8
MAIN10
  6
CONTINUOUS
 62
3
100
AcDbBlockEnd
  0
BLOCK
  5
1E9
100
AcDbEntity
  8
MAIN10
  6
CONTINUOUS
 62
3
100
AcDbBlockBegin
  2
*D4
 70
    65
 10
0.0
 20
0.0
 30
0.0
  0
LINE
  5
1EA
100
AcDbEntity
  8
MAIN10
  6
BYBLOCK
 62
0
100
AcDbLine
 10
776.7365715734608
 20
512.2779313525034
 30
0.0000000000000000
 11
838.4049107829223
 21
528.8019130422440
 31
0.0000000000000000
  0
ARC
  5
1EB
100
AcDbEntity
  8
MAIN10
  6
BYBLOCK
 62
0
100
AcDbCircle
 10
638.9081632583311
 20
475.3469206504045
 30
0.0000000000000000
 40
203.5342307814909
100
AcDbArc
 50
0.8445131704837443
 51
14.15548682951348
  0
INSERT
  5
1EC
100
AcDbEntity
  8
MAIN10
  6
BYBLOCK
 62
0
100
AcDbBlockReference
  2
_OPEN
 10
842.4423940398220
 20
475.3469206504045
 30
0.0000000000000000
 41
3.000000000000000
 42
3.000000000000000
 43
3.000000000000000
 50
270.0000000000000
  0
INSERT
  5
1ED
100
AcDbEntity
  8
MAIN10
  6
BYBLOCK
 62
0
100
AcDbBlockReference
  2
_OPEN
 10
835.5071333040552
 20
528.0254559069365
 30
0.0000000000000000
 41
3.000000000000000
 42
3.000000000000000
 43
3.000000000000000
 50
104.9999999999972
  0
MTEXT
  5
1EE
100
AcDbEntity
  8
MAIN10
  6
BYBLOCK
 62
0
100
AcDbMText
 10
837.9002988178447
 20
501.5447322970592
 30
0.0000000000000000
 40
4.649999856948853
 41
0.0000000000000000
 71
     5
 72
     1
  1
\A1;15\U+00B0
 11
-0.1305261922200274
 21
0.9914448613738136
 31
0.0000000000000000
  7
STANDARD
  0
ENDBLK
  5
1EF
100
AcDbEntity
  8
MAIN10
  6
CONTINUOUS
 62
3
100
AcDbBlockEnd
  0
BLOCK
  5
1F1
100
AcDbEntity
  8
MAIN10
  6
CONTINUOUS
 62
3
100
AcDbBlockBegin
  2
*D5
 70
    65
 10
0.0
 20
0.0
 30
0.0
  0
LINE
  5
1F2
100
AcDbEntity
  8
MAIN10
  6
BYBLOCK
 62
0
100
AcDbLine
 10
776.7365715734608
 20
512.2779313525034
 30
0.0000000000000000
 11
838.4049107829223
 21
528.8019130422440
 31
0.0000000000000000
  0
LINE
  5
1F3
100
AcDbEntity
  8
MAIN10
  6
BYBLOCK
 62
0
100
AcDbLine
 10
759.0201719307217
 20
544.6936211903062
 30
0.0000000000000000
 11
817.7720538661865
 21
578.6140360411391
 31
0.0000000000000000
  0
ARC
  5
1F4
100
AcDbEntity
  8
MAIN10
  6
BYBLOCK
 62
0
100
AcDbCircle
 10
638.9081632583311
 20
475.3469206504045
 30
0.0000000000000000
 40
203.5342307814909
100
AcDbArc
 50
15.84451317048097
 51
29.15548682951278
  0
INSERT
  5
1F5
100
AcDbEntity
  8
MAIN10
  6
BYBLOCK
 62
0
100
AcDbBlockReference
  2
_OPEN
 10
835.5071333040552
 20
528.0254559069365
 30
0.0000000000000000
 41
3.000000000000000
 42
3.000000000000000
 43
3.000000000000000
 50
284.9999999999972
  0
INSERT
  5
1F6
100
AcDbEntity
  8
MAIN10
  6
BYBLOCK
 62
0
100
AcDbBlockReference
  2
_OPEN
 10
815.1739776548330
 20
577.1140360411392
 30
0.0000000000000000
 41
3.000000000000000
 42
3.000000000000000
 43
3.000000000000000
 50
119.9999999999965
  0
MTEXT
  5
1F7
100
AcDbEntity
  8
MAIN10
  6
BYBLOCK
 62
0
100
AcDbMText
 10
824.3393136295201
 20
552.1550180205840
 30
0.0000000000000000
 40
4.649999856948853
 41
0.0000000000000000
 71
     5
 72
     1
  1
\A1;15\U+00B0
 11
-0.3826834323650392
 21
0.9238795325113077
 31
0.0000000000000000
  7
STANDARD
  0
ENDBLK
  5
1F8
100
AcDbEntity
  8
MAIN10
  6
CONTINUOUS
 62
3
100
AcDbBlockEnd
  0
BLOCK
  5
1FA
100
AcDbEntity
  8
MAIN10
  6
CONTINUOUS
 62
3
100
AcDbBlockBegin
  2
*D6
 70
    65
 10
0.0
 20
0.0
 30
0.0
  0
LINE
  5
1FB
100
AcDbEntity
  8
MAIN10
  6
BYBLOCK
 62
0
100
AcDbLine
 10
759.0201719307217
 20
544.6936211903062
 30
0.0000000000000000
 11
817.7720538661865
 21
578.6140360411391
 31
0.0000000000000000
  0
ARC
  5
1FC
100
AcDbEntity
  8
MAIN10
  6
BYBLOCK
 62
0
100
AcDbCircle
 10
638.9081632583311
 20
475.3469206504045
 30
0.0000000000000000
 40
203.5342307814909
100
AcDbArc
 50
30.84451317048026
 51
89.15548682951467
  0
INSERT
  5
1FD
100
AcDbEntity
  8
MAIN10
  6
BYBLOCK
 62
0
100
AcDbBlockReference
  2
_OPEN
 10
815.1739776548330
 20
577.1140360411392
 30
0.0000000000000000
 41
3.000000000000000
 42
3.000000000000000
 43
3.000000000000000
 50
299.9999999999965
  0
INSERT
  5
1FE
100
AcDbEntity
  8
MAIN10
  6
BYBLOCK
 62
0
100
AcDbBlockReference
  2
_OPEN
 10
638.9081632583367
 20
678.8811514318954
 30
0.0000000000000000
 41
3.000000000000000
 42
3.000000000000000
 43
3.000000000000000
 50
179.9999999999984
  0
MTEXT
  5
1FF
100
AcDbEntity
  8
MAIN10
  6
BYBLOCK
 62
0
100
AcDbMText
 10
742.0877786133217
 20
654.0592567506437
 30
0.0000000000000000
 40
4.649999856948853
 41
0.0000000000000000
 71
     5
 72
     1
  1
\A1;60\U+00B0
 11
0.8660254037844166
 21
-0.5000000000000382
 31
0.0000000000000000
  7
STANDARD
  0
ENDBLK
  5
200
100
AcDbEntity
  8
MAIN10
  6
CONTINUOUS
 62
3
100
AcDbBlockEnd
  0
BLOCK
  5
202
100
AcDbEntity
  8
MAIN10
  6
CONTINUOUS
 62
3
100
AcDbBlockBegin
  2
*D7
 70
    65
 10
0.0
 20
0.0
 30
0.0
  0
LINE
  5
203
100
AcDbEntity
  8
MAIN10
  6
BYBLOCK
 62
0
100
AcDbLine
 10
663.9081632583368
 20
667.2969206682811
 30
0.0000000000000000
 11
663.9081632583368
 21
688.9885099290790
 31
0.0000000000000000
  0
LINE
  5
204
100
AcDbEntity
  8
MAIN10
  6
BYBLOCK
 62
0
100
AcDbLine
 10
660.9081632583368
 20
685.9885099290790
 30
0.0000000000000000
 11
616.9081632583368
 21
685.9885099290790
 31
0.0000000000000000
  0
INSERT
  5
205
100
AcDbEntity
  8
MAIN10
  6
BYBLOCK
 62
0
100
AcDbBlockReference
  2
_OPEN
 10
663.9081632583368
 20
685.9885099290790
 30
0.0000000000000000
 41
3.000000000000000
 42
3.000000000000000
 43
3.000000000000000
 50
360.0000000000000
  0
INSERT
  5
206
100
AcDbEntity
  8
MAIN10
  6
BYBLOCK
 62
0
100
AcDbBlockReference
  2
_OPEN
 10
613.9081632583368
 20
685.9885099290790
 30
0.0000000000000000
 41
3.000000000000000
 42
3.000000000000000
 43
3.000000000000000
 50
180.0000000000000
  0
LINE
  5
207
100
AcDbEntity
  8
MAIN10
  6
BYBLOCK
 62
0
100
AcDbLine
 10
613.9081632583368
 20
667.2969206682810
 30
0.0000000000000000
 11
613.9081632583368
 21
688.9885099290790
 31
0.0000000000000000
  0
MTEXT
  5
208
100
AcDbEntity
  8
MAIN10
  6
BYBLOCK
 62
0
100
AcDbMText
 10
638.9081632583368
 20
688.8135098575534
 30
0.0000000000000000
 40
4.649999856948853
 41
0.0000000000000000
 71
     5
 72
     1
  1
\A1;50
 11
1.000000000000000
 21
0.0000000000000000
 31
0.0000000000000000
  7
STANDARD
  0
ENDBLK
  5
209
100
AcDbEntity
  8
MAIN10
  6
CONTINUOUS
 62
3
100
AcDbBlockEnd
  0
BLOCK
  5
20B
100
AcDbEntity
  8
MAIN10
  6
CONTINUOUS
 62
3
100
AcDbBlockBegin
  2
*D8
 70
    65
 10
0.0
 20
0.0
 30
0.0
  0
LINE
  5
20C
100
AcDbEntity
  8
MAIN10
  6
BYBLOCK
 62
0
100
AcDbLine
 10
574.5454660021808
 20
295.4829231763953
 30
0.0000000000000000
 11
704.2816181975411
 21
658.0355187875350
 31
0.0000000000000000
  0
INSERT
  5
20D
100
AcDbEntity
  8
MAIN10
  6
BYBLOCK
 62
0
100
AcDbBlockReference
  2
_OPEN
 10
573.5347083191325
 20
292.6583225132645
 30
0.0000000000000000
 41
3.000000000000000
 42
3.000000000000000
 43
3.000000000000000
 50
250.3107124763671
  0
MTEXT
  5
20E
100
AcDbEntity
  8
MAIN10
  6
BYBLOCK
 62
0
100
AcDbMText
 10
575.8095009607699
 20
308.1421331752605
 30
0.0000000000000000
 40
4.649999856948853
 41
0.0000000000000000
 71
     5
 72
     1
  1
\A1;\U+2205388
 11
0.3369192276827564
 21
0.9415335543769298
 31
0.0000000000000000
  7
STANDARD
  0
ENDBLK
  5
20F
100
AcDbEntity
  8
MAIN10
  6
CONTINUOUS
 62
3
100
AcDbBlockEnd
  0
BLOCK
  5
211
100
AcDbEntity
  8
MAIN10
  6
CONTINUOUS
 62
3
100
AcDbBlockBegin
  2
*D9
 70
    65
 10
0.0
 20
0.0
 30
0.0
  0
LINE
  5
212
100
AcDbEntity
  8
MAIN10
  6
BYBLOCK
 62
0
100
AcDbLine
 10
377.6851436460494
 20
531.0969206503995
 30
0.0000000000000000
 11
443.4851436281681
 21
531.0969206503995
 31
0.0000000000000000
  0
LINE
  5
213
100
AcDbEntity
  8
MAIN10
  6
BYBLOCK
 62
0
100
AcDbLine
 10
440.4851436281681
 20
534.0969206503995
 30
0.0000000000000000
 11
440.4851436281681
 21
663.0969206503996
 31
0.0000000000000000
  0
INSERT
  5
214
100
AcDbEntity
  8
MAIN10
  6
BYBLOCK
 62
0
100
AcDbBlockReference
  2
_OPEN
 10
440.4851436281681
 20
531.0969206503995
 30
0.0000000000000000
 41
3.000000000000000
 42
3.000000000000000
 43
3.000000000000000
 50
270.0000000000000
  0
INSERT
  5
215
100
AcDbEntity
  8
MAIN10
  6
BYBLOCK
 62
0
100
AcDbBlockReference
  2
_OPEN
 10
440.4851436281681
 20
666.0969206503996
 30
0.0000000000000000
 41
3.000000000000000
 42
3.000000000000000
 43
3.000000000000000
 50
90.00000000000000
  0
LINE
  5
216
100
AcDbEntity
  8
MAIN10
  6
BYBLOCK
 62
0
100
AcDbLine
 10
377.6851436460494
 20
666.0969206503996
 30
0.0000000000000000
 11
443.4851436281681
 21
666.0969206503996
 31
0.0000000000000000
  0
MTEXT
  5
217
100
AcDbEntity
  8
MAIN10
  6
BYBLOCK
 62
0
100
AcDbMText
 10
437.6601436996937
 20
598.5969206503995
 30
0.0000000000000000
 40
4.649999856948853
 41
0.0000000000000000
 71
     5
 72
     1
  1
\A1;135
 11
6.123233995736766e-017
 21
1.000000000000000
 31
0.0000000000000000
  7
STANDARD
  0
ENDBLK
  5
218
100
AcDbEntity
  8
MAIN10
  6
CONTINUOUS
 62
3
100
AcDbBlockEnd
  0
BLOCK
  5
21A
100
AcDbEntity
  8
MAIN10
  6
CONTINUOUS
 62
3
100
AcDbBlockBegin
  2
*D10
 70
    65
 10
0.0
 20
0.0
 30
0.0
  0
LINE
  5
21B
100
AcDbEntity
  8
MAIN10
  6
BYBLOCK
 62
0
100
AcDbLine
 10
381.1458776852190
 20
640.0969206503996
 30
0.0000000000000000
 11
423.4851436281681
 21
640.0969206503996
 31
0.0000000000000000
  0
LINE
  5
21C
100
AcDbEntity
  8
MAIN10
  6
BYBLOCK
 62
0
100
AcDbLine
 10
420.4851436281681
 20
637.0969206503996
 30
0.0000000000000000
 11
420.4851436281681
 21
600.0969206503996
 31
0.0000000000000000
  0
INSERT
  5
21D
100
AcDbEntity
  8
MAIN10
  6
BYBLOCK
 62
0
100
AcDbBlockReference
  2
_OPEN
 10
420.4851436281681
 20
640.0969206503996
 30
0.0000000000000000
 41
3.000000000000000
 42
3.000000000000000
 43
3.000000000000000
 50
90.00000000000000
  0
INSERT
  5
21E
100
AcDbEntity
  8
MAIN10
  6
BYBLOCK
 62
0
100
AcDbBlockReference
  2
_OPEN
 10
420.4851436281681
 20
597.0969206503996
 30
0.0000000000000000
 41
3.000000000000000
 42
3.000000000000000
 43
3.000000000000000
 50
270.0000000000000
  0
LINE
  5
21F
100
AcDbEntity
  8
MAIN10
  6
BYBLOCK
 62
0
100
AcDbLine
 10
383.3958757489992
 20
597.0969206503996
 30
0.0000000000000000
 11
423.4851436281681
 21
597.0969206503996
 31
0.0000000000000000
  0
MTEXT
  5
220
100
AcDbEntity
  8
MAIN10
  6
BYBLOCK
 62
0
100
AcDbMText
 10
417.6601436996937
 20
618.5969206503996
 30
0.0000000000000000
 40
4.649999856948853
 41
0.0000000000000000
 71
     5
 72
     1
  1
\A1;43
 11
6.123233995736766e-017
 21
1.000000000000000
 31
0.0000000000000000
  7
STANDARD
  0
ENDBLK
  5
221
100
AcDbEntity
  8
MAIN10
  6
CONTINUOUS
 62
3
100
AcDbBlockEnd
  0
BLOCK
  5
223
100
AcDbEntity
  8
MAIN10
  6
CONTINUOUS
 62
3
100
AcDbBlockBegin
  2
*D11
 70
    65
 10
0.0
 20
0.0
 30
0.0
  0
LINE
  5
224
100
AcDbEntity
  8
MAIN10
  6
BYBLOCK
 62
0
100
AcDbLine
 10
383.3958757489992
 20
597.0969206503996
 30
0.0000000000000000
 11
423.4851436281681
 21
597.0969206503996
 31
0.0000000000000000
  0
LINE
  5
225
100
AcDbEntity
  8
MAIN10
  6
BYBLOCK
 62
0
100
AcDbLine
 10
420.4851436281681
 20
594.0969206503996
 30
0.0000000000000000
 11
420.4851436281681
 21
534.0969206503995
 31
0.0000000000000000
  0
INSERT
  5
226
100
AcDbEntity
  8
MAIN10
  6
BYBLOCK
 62
0
100
AcDbBlockReference
  2
_OPEN
 10
420.4851436281681
 20
597.0969206503996
 30
0.0000000000000000
 41
3.000000000000000
 42
3.000000000000000
 43
3.000000000000000
 50
90.00000000000000
  0
INSERT
  5
227
100
AcDbEntity
  8
MAIN10
  6
BYBLOCK
 62
0
100
AcDbBlockReference
  2
_OPEN
 10
420.4851436281681
 20
531.0969206503995
 30
0.0000000000000000
 41
3.000000000000000
 42
3.000000000000000
 43
3.000000000000000
 50
270.0000000000000
  0
LINE
  5
228
100
AcDbEntity
  8
MAIN10
  6
BYBLOCK
 62
0
100
AcDbLine
 10
377.6851436460494
 20
531.0969206503995
 30
0.0000000000000000
 11
423.4851436281681
 21
531.0969206503995
 31
0.0000000000000000
  0
MTEXT
  5
229
100
AcDbEntity
  8
MAIN10
  6
BYBLOCK
 62
0
100
AcDbMText
 10
417.6601436996937
 20
564.0969206503995
 30
0.0000000000000000
 40
4.649999856948853
 41
0.0000000000000000
 71
     5
 72
     1
  1
\A1;66
 11
6.123233995736766e-017
 21
1.000000000000000
 31
0.0000000000000000
  7
STANDARD
  0
ENDBLK
  5
22A
100
AcDbEntity
  8
MAIN10
  6
CONTINUOUS
 62
3
100
AcDbBlockEnd
  0
BLOCK
  5
22C
100
AcDbEntity
  8
MAIN10
  6
CONTINUOUS
 62
3
100
AcDbBlockBegin
  2
*D12
 70
    65
 10
0.0
 20
0.0
 30
0.0
  0
LINE
  5
22D
100
AcDbEntity
  8
MAIN10
  6
BYBLOCK
 62
0
100
AcDbLine
 10
327.8486165686275
 20
475.3469206503997
 30
0.0000000000000000
 11
403.4851436281681
 21
475.3469206503997
 31
0.0000000000000000
  0
LINE
  5
22E
100
AcDbEntity
  8
MAIN10
  6
BYBLOCK
 62
0
100
AcDbLine
 10
400.4851436281681
 20
478.3469206503997
 30
0.0000000000000000
 11
400.4851436281681
 21
549.8469206503996
 31
0.0000000000000000
  0
INSERT
  5
22F
100
AcDbEntity
  8
MAIN10
  6
BYBLOCK
 62
0
100
AcDbBlockReference
  2
_OPEN
 10
400.4851436281681
 20
475.3469206503997
 30
0.0000000000000000
 41
3.000000000000000
 42
3.000000000000000
 43
3.000000000000000
 50
270.0000000000000
  0
INSERT
  5
230
100
AcDbEntity
  8
MAIN10
  6
BYBLOCK
 62
0
100
AcDbBlockReference
  2
_OPEN
 10
400.4851436281681
 20
552.8469206503996
 30
0.0000000000000000
 41
3.000000000000000
 42
3.000000000000000
 43
3.000000000000000
 50
90.00000000000000
  0
LINE
  5
231
100
AcDbEntity
  8
MAIN10
  6
BYBLOCK
 62
0
100
AcDbLine
 10
317.6851436460495
 20
552.8469206503996
 30
0.0000000000000000
 11
403.4851436281681
 21
552.8469206503996
 31
0.0000000000000000
  0
MTEXT
  5
232
100
AcDbEntity
  8
MAIN10
  6
BYBLOCK
 62
0
100
AcDbMText
 10
397.6601436996937
 20
514.0969206503996
 30
0.0000000000000000
 40
4.649999856948853
 41
0.0000000000000000
 71
     5
 72
     1
  1
\A1;MAX 77.5
 11
6.123233995736766e-017
 21
1.000000000000000
 31
0.0000000000000000
  7
STANDARD
  0
ENDBLK
  5
233
100
AcDbEntity
  8
MAIN10
  6
CONTINUOUS
 62
3
100
AcDbBlockEnd
  0
BLOCK
  5
235
100
AcDbEntity
  8
MAIN10
  6
CONTINUOUS
 62
3
100
AcDbBlockBegin
  2
*D13
 70
    65
 10
0.0
 20
0.0
 30
0.0
  0
LINE
  5
236
100
AcDbEntity
  8
MAIN10
  6
BYBLOCK
 62
0
100
AcDbLine
 10
317.6851436460495
 20
552.8469206503996
 30
0.0000000000000000
 11
403.4851436281681
 21
552.8469206503996
 31
0.0000000000000000
  0
LINE
  5
237
100
AcDbEntity
  8
MAIN10
  6
BYBLOCK
 62
0
100
AcDbLine
 10
400.4851436281681
 20
555.8469206503996
 30
0.0000000000000000
 11
400.4851436281681
 21
594.0969206503996
 31
0.0000000000000000
  0
INSERT
  5
238
100
AcDbEntity
  8
MAIN10
  6
BYBLOCK
 62
0
100
AcDbBlockReference
  2
_OPEN
 10
400.4851436281681
 20
552.8469206503996
 30
0.0000000000000000
 41
3.000000000000000
 42
3.000000000000000
 43
3.000000000000000
 50
270.0000000000000
  0
INSERT
  5
239
100
AcDbEntity
  8
MAIN10
  6
BYBLOCK
 62
0
100
AcDbBlockReference
  2
_OPEN
 10
400.4851436281681
 20
597.0969206503996
 30
0.0000000000000000
 41
3.000000000000000
 42
3.000000000000000
 43
3.000000000000000
 50
90.00000000000000
  0
LINE
  5
23A
100
AcDbEntity
  8
MAIN10
  6
BYBLOCK
 62
0
100
AcDbLine
 10
383.3958757489992
 20
597.0969206503996
 30
0.0000000000000000
 11
403.4851436281681
 21
597.0969206503996
 31
0.0000000000000000
  0
MTEXT
  5
23B
100
AcDbEntity
  8
MAIN10
  6
BYBLOCK
 62
0
100
AcDbMText
 10
397.6601436996937
 20
574.9719206503996
 30
0.0000000000000000
 40
4.649999856948853
 41
0.0000000000000000
 71
     5
 72
     1
  1
\A1;MAX 44.25
 11
6.123233995736766e-017
 21
1.000000000000000
 31
0.0000000000000000
  7
STANDARD
  0
ENDBLK
  5
23C
100
AcDbEntity
  8
MAIN10
  6
CONTINUOUS
 62
3
100
AcDbBlockEnd
  0
BLOCK
  5
23E
100
AcDbEntity
  8
MAIN10
  6
CONTINUOUS
 62
3
100
AcDbBlockBegin
  2
*D14
 70
    65
 10
0.0
 20
0.0
 30
0.0
  0
LINE
  5
23F
100
AcDbEntity
  8
MAIN10
  6
BYBLOCK
 62
0
100
AcDbLine
 10
376.4851436281681
 20
667.2969206682810
 30
0.0000000000000000
 11
376.4851436281681
 21
683.3469206503997
 31
0.0000000000000000
  0
LINE
  5
240
100
AcDbEntity
  8
MAIN10
  6
BYBLOCK
 62
0
100
AcDbLine
 10
373.4851436281681
 20
680.3469206503997
 30
0.0000000000000000
 11
318.4851436281680
 21
680.3469206503997
 31
0.0000000000000000
  0
INSERT
  5
241
100
AcDbEntity
  8
MAIN10
  6
BYBLOCK
 62
0
100
AcDbBlockReference
  2
_OPEN
 10
376.4851436281681
 20
680.3469206503997
 30
0.0000000000000000
 41
3.000000000000000
 42
3.000000000000000
 43
3.000000000000000
 50
360.0000000000000
  0
INSERT
  5
242
100
AcDbEntity
  8
MAIN10
  6
BYBLOCK
 62
0
100
AcDbBlockReference
  2
_OPEN
 10
315.4851436281680
 20
680.3469206503997
 30
0.0000000000000000
 41
3.000000000000000
 42
3.000000000000000
 43
3.000000000000000
 50
180.0000000000000
  0
LINE
  5
243
100
AcDbEntity
  8
MAIN10
  6
BYBLOCK
 62
0
100
AcDbLine
 10
315.4851436281680
 20
664.0469206682810
 30
0.0000000000000000
 11
315.4851436281680
 21
683.3469206503997
 31
0.0000000000000000
  0
MTEXT
  5
244
100
AcDbEntity
  8
MAIN10
  6
BYBLOCK
 62
0
100
AcDbMText
 10
345.9851436281681
 20
683.1719205788742
 30
0.0000000000000000
 40
4.649999856948853
 41
0.0000000000000000
 71
     5
 72
     1
  1
\A1;61
 11
1.000000000000000
 21
0.0000000000000000
 31
0.0000000000000000
  7
STANDARD
  0
ENDBLK
  5
245
100
AcDbEntity
  8
MAIN10
  6
CONTINUOUS
 62
3
100
AcDbBlockEnd
  0
BLOCK
  5
247
100
AcDbEntity
  8
MAIN10
  6
CONTINUOUS
 62
3
100
AcDbBlockBegin
  2
*D15
 70
    65
 10
0.0
 20
0.0
 30
0.0
  0
LINE
  5
248
100
AcDbEntity
  8
MAIN10
  6
BYBLOCK
 62
0
100
AcDbLine
 10
275.4851436281681
 20
485.8469206503997
 30
0.0000000000000000
 11
275.4851436281681
 21
464.8469206503997
 31
0.0000000000000000
  0
INSERT
  5
249
100
AcDbEntity
  8
MAIN10
  6
BYBLOCK
 62
0
100
AcDbBlockReference
  2
_OPEN
 10
275.4851436281681
 20
488.8469206503997
 30
0.0000000000000000
 41
3.000000000000000
 42
3.000000000000000
 43
3.000000000000000
 50
90.00000000000000
  0
INSERT
  5
24A
100
AcDbEntity
  8
MAIN10
  6
BYBLOCK
 62
0
100
AcDbBlockReference
  2
_OPEN
 10
275.4851436281681
 20
461.8469206503997
 30
0.0000000000000000
 41
3.000000000000000
 42
3.000000000000000
 43
3.000000000000000
 50
270.0000000000000
  0
MTEXT
  5
24B
100
AcDbEntity
  8
MAIN10
  6
BYBLOCK
 62
0
100
AcDbMText
 10
272.6601436996937
 20
475.3469206503997
 30
0.0000000000000000
 40
4.649999856948853
 41
0.0000000000000000
 71
     5
 72
     1
  1
\A1;\U+220527
 11
6.123233995736766e-017
 21
1.000000000000000
 31
0.0000000000000000
  7
STANDARD
  0
ENDBLK
  5
24C
100
AcDbEntity
  8
MAIN10
  6
CONTINUOUS
 62
3
100
AcDbBlockEnd
  0
BLOCK
  5
24E
100
AcDbEntity
  8
MAIN10
  6
CONTINUOUS
 62
3
100
AcDbBlockBegin
  2
*D16
 70
    65
 10
0.0
 20
0.0
 30
0.0
  0
LINE
  5
24F
100
AcDbEntity
  8
MAIN10
  6
BYBLOCK
 62
0
100
AcDbLine
 10
220.4851436281681
 20
511.3469206503997
 30
0.0000000000000000
 11
220.4851436281681
 21
439.3469206503998
 31
0.0000000000000000
  0
INSERT
  5
250
100
AcDbEntity
  8
MAIN10
  6
BYBLOCK
 62
0
100
AcDbBlockReference
  2
_OPEN
 10
220.4851436281681
 20
514.3469206503996
 30
0.0000000000000000
 41
3.000000000000000
 42
3.000000000000000
 43
3.000000000000000
 50
90.00000000000000
  0
INSERT
  5
251
100
AcDbEntity
  8
MAIN10
  6
BYBLOCK
 62
0
100
AcDbBlockReference
  2
_OPEN
 10
220.4851436281681
 20
436.3469206503998
 30
0.0000000000000000
 41
3.000000000000000
 42
3.000000000000000
 43
3.000000000000000
 50
270.0000000000000
  0
MTEXT
  5
252
100
AcDbEntity
  8
MAIN10
  6
BYBLOCK
 62
0
100
AcDbMText
 10
217.6601436996937
 20
475.3469206503997
 30
0.0000000000000000
 40
4.649999856948853
 41
0.0000000000000000
 71
     5
 72
     1
  1
\A1;\U+220578
 11
6.123233995736766e-017
 21
1.000000000000000
 31
0.0000000000000000
  7
STANDARD
  0
ENDBLK
  5
253
100
AcDbEntity
  8
MAIN10
  6
CONTINUOUS
 62
3
100
AcDbBlockEnd
  0
BLOCK
  5
255
100
AcDbEntity
  8
MAIN10
  6
CONTINUOUS
 62
3
100
AcDbBlockBegin
  2
*D17
 70
    65
 10
0.0
 20
0.0
 30
0.0
  0
LINE
  5
256
100
AcDbEntity
  8
MAIN10
  6
BYBLOCK
 62
0
100
AcDbLine
 10
195.4851436281681
 20
448.3469206503997
 30
0.0000000000000000
 11
195.4851436281681
 21
502.3469206503996
 31
0.0000000000000000
  0
INSERT
  5
257
100
AcDbEntity
  8
MAIN10
  6
BYBLOCK
 62
0
100
AcDbBlockReference
  2
_OPEN
 10
195.4851436281681
 20
445.3469206503997
 30
0.0000000000000000
 41
3.000000000000000
 42
3.000000000000000
 43
3.000000000000000
 50
270.0000000000000
  0
INSERT
  5
258
100
AcDbEntity
  8
MAIN10
  6
BYBLOCK
 62
0
100
AcDbBlockReference
  2
_OPEN
 10
195.4851436281681
 20
505.3469206503996
 30
0.0000000000000000
 41
3.000000000000000
 42
3.000000000000000
 43
3.000000000000000
 50
90.00000000000000
  0
MTEXT
  5
259
100
AcDbEntity
  8
MAIN10
  6
BYBLOCK
 62
0
100
AcDbMText
 10
192.6601436996937
 20
475.3469206503996
 30
0.0000000000000000
 40
4.649999856948853
 41
0.0000000000000000
 71
     5
 72
     1
  1
\A1;\U+220560
 11
6.123233995736766e-017
 21
1.000000000000000
 31
0.0000000000000000
  7
STANDARD
  0
ENDBLK
  5
25A
100
AcDbEntity
  8
MAIN10
  6
CONTINUOUS
 62
3
100
AcDbBlockEnd
  0
BLOCK
  5
25C
100
AcDbEntity
  8
MAIN10
  6
CONTINUOUS
 62
3
100
AcDbBlockBegin
  2
*D18
 70
    65
 10
0.0
 20
0.0
 30
0.0
  0
LINE
  5
25D
100
AcDbEntity
  8
MAIN10
  6
BYBLOCK
 62
0
100
AcDbLine
 10
165.4851436281681
 20
499.8469206503997
 30
0.0000000000000000
 11
165.4851436281681
 21
450.8469206504000
 31
0.0000000000000000
  0
INSERT
  5
25E
100
AcDbEntity
  8
MAIN10
  6
BYBLOCK
 62
0
100
AcDbBlockReference
  2
_OPEN
 10
165.4851436281681
 20
502.8469206503997
 30
0.0000000000000000
 41
3.000000000000000
 42
3.000000000000000
 43
3.000000000000000
 50
90.00000000000000
  0
INSERT
  5
25F
100
AcDbEntity
  8
MAIN10
  6
BYBLOCK
 62
0
100
AcDbBlockReference
  2
_OPEN
 10
165.4851436281681
 20
447.8469206504000
 30
0.0000000000000000
 41
3.000000000000000
 42
3.000000000000000
 43
3.000000000000000
 50
270.0000000000000
  0
MTEXT
  5
260
100
AcDbEntity
  8
MAIN10
  6
BYBLOCK
 62
0
100
AcDbMText
 10
162.6601436996937
 20
475.3469206503999
 30
0.0000000000000000
 40
4.649999856948853
 41
0.0000000000000000
 71
     5
 72
     1
  1
\A1;\U+220555
 11
6.123233995736766e-017
 21
1.000000000000000
 31
0.0000000000000000
  7
STANDARD
  0
ENDBLK
  5
261
100
AcDbEntity
  8
MAIN10
  6
CONTINUOUS
 62
3
100
AcDbBlockEnd
  0
BLOCK
  5
263
100
AcDbEntity
  8
MAIN10
  6
CONTINUOUS
 62
3
100
AcDbBlockBegin
  2
*D19
 70
    65
 10
0.0
 20
0.0
 30
0.0
  0
LINE
  5
264
100
AcDbEntity
  8
MAIN10
  6
BYBLOCK
 62
0
100
AcDbLine
 10
138.4851436281681
 20
502.0469206682811
 30
0.0000000000000000
 11
138.4851436281681
 21
523.3469206503997
 31
0.0000000000000000
  0
LINE
  5
265
100
AcDbEntity
  8
MAIN10
  6
BYBLOCK
 62
0
100
AcDbLine
 10
141.4851436281681
 20
520.3469206503997
 30
0.0000000000000000
 11
170.4851436281681
 21
520.3469206503997
 31
0.0000000000000000
  0
INSERT
  5
266
100
AcDbEntity
  8
MAIN10
  6
BYBLOCK
 62
0
100
AcDbBlockReference
  2
_OPEN
 10
138.4851436281681
 20
520.3469206503997
 30
0.0000000000000000
 41
3.000000000000000
 42
3.000000000000000
 43
3.000000000000000
 50
180.0000000000000
  0
INSERT
  5
267
100
AcDbEntity
  8
MAIN10
  6
BYBLOCK
 62
0
100
AcDbBlockReference
  2
_OPEN
 10
173.4851436281681
 20
520.3469206503997
 30
0.0000000000000000
 41
3.000000000000000
 42
3.000000000000000
 43
3.000000000000000
 50
0.0000000000000000
  0
LINE
  5
268
100
AcDbEntity
  8
MAIN10
  6
BYBLOCK
 62
0
100
AcDbLine
 10
173.4851436281681
 20
505.5469206682809
 30
0.0000000000000000
 11
173.4851436281681
 21
523.3469206503997
 31
0.0000000000000000
  0
MTEXT
  5
269
100
AcDbEntity
  8
MAIN10
  6
BYBLOCK
 62
0
100
AcDbMText
 10
155.9851436281681
 20
523.1719205788742
 30
0.0000000000000000
 40
4.649999856948853
 41
0.0000000000000000
 71
     5
 72
     1
  1
\A1;35
 11
1.000000000000000
 21
0.0000000000000000
 31
0.0000000000000000
  7
STANDARD
  0
ENDBLK
  5
26A
100
AcDbEntity
  8
MAIN10
  6
CONTINUOUS
 62
3
100
AcDbBlockEnd
  0
BLOCK
  5
26C
100
AcDbEntity
  8
MAIN10
  6
CONTINUOUS
 62
3
100
AcDbBlockBegin
  2
*D20
 70
    65
 10
0.0
 20
0.0
 30
0.0
  0
LINE
  5
26D
100
AcDbEntity
  8
MAIN10
  6
BYBLOCK
 62
0
100
AcDbLine
 10
315.4851436281681
 20
286.6469206325185
 30
0.0000000000000000
 11
315.4851436281681
 21
262.3469206503997
 31
0.0000000000000000
  0
LINE
  5
26E
100
AcDbEntity
  8
MAIN10
  6
BYBLOCK
 62
0
100
AcDbLine
 10
312.4851436281681
 20
265.3469206503997
 30
0.0000000000000000
 11
263.4851436281680
 21
265.3469206503997
 31
0.0000000000000000
  0
INSERT
  5
26F
100
AcDbEntity
  8
MAIN10
  6
BYBLOCK
 62
0
100
AcDbBlockReference
  2
_OPEN
 10
315.4851436281681
 20
265.3469206503997
 30
0.0000000000000000
 41
3.000000000000000
 42
3.000000000000000
 43
3.000000000000000
 50
360.0000000000000
  0
INSERT
  5
270
100
AcDbEntity
  8
MAIN10
  6
BYBLOCK
 62
0
100
AcDbBlockReference
  2
_OPEN
 10
260.4851436281680
 20
265.3469206503997
 30
0.0000000000000000
 41
3.000000000000000
 42
3.000000000000000
 43
3.000000000000000
 50
180.0000000000000
  0
LINE
  5
271
100
AcDbEntity
  8
MAIN10
  6
BYBLOCK
 62
0
100
AcDbLine
 10
260.4851436281680
 20
282.1171493374822
 30
0.0000000000000000
 11
260.4851436281680
 21
262.3469206503997
 31
0.0000000000000000
  0
MTEXT
  5
272
100
AcDbEntity
  8
MAIN10
  6
BYBLOCK
 62
0
100
AcDbMText
 10
287.9851436281680
 20
268.1719205788742
 30
0.0000000000000000
 40
4.649999856948853
 41
0.0000000000000000
 71
     5
 72
     1
  1
\A1;55
 11
1.000000000000000
 21
0.0000000000000000
 31
0.0000000000000000
  7
STANDARD
  0
ENDBLK
  5
273
100
AcDbEntity
  8
MAIN10
  6
CONTINUOUS
 62
3
100
AcDbBlockEnd
  0
BLOCK
  5
275
100
AcDbEntity
  8
MAIN10
  6
CONTINUOUS
 62
3
100
AcDbBlockBegin
  2
*D21
 70
    65
 10
0.0
 20
0.0
 30
0.0
  0
LINE
  5
276
100
AcDbEntity
  8
MAIN10
  6
BYBLOCK
 62
0
100
AcDbLine
 10
315.4851436281681
 20
286.6469206325185
 30
0.0000000000000000
 11
315.4851436281681
 21
242.3469206503997
 31
0.0000000000000000
  0
LINE
  5
277
100
AcDbEntity
  8
MAIN10
  6
BYBLOCK
 62
0
100
AcDbLine
 10
312.4851436281681
 20
245.3469206503997
 30
0.0000000000000000
 11
204.4851436281681
 21
245.3469206503997
 31
0.0000000000000000
  0
INSERT
  5
278
100
AcDbEntity
  8
MAIN10
  6
BYBLOCK
 62
0
100
AcDbBlockReference
  2
_OPEN
 10
315.4851436281681
 20
245.3469206503997
 30
0.0000000000000000
 41
3.000000000000000
 42
3.000000000000000
 43
3.000000000000000
 50
360.0000000000000
  0
INSERT
  5
279
100
AcDbEntity
  8
MAIN10
  6
BYBLOCK
 62
0
100
AcDbBlockReference
  2
_OPEN
 10
201.4851436281681
 20
245.3469206503997
 30
0.0000000000000000
 41
3.000000000000000
 42
3.000000000000000
 43
3.000000000000000
 50
180.0000000000000
  0
LINE
  5
27A
100
AcDbEntity
  8
MAIN10
  6
BYBLOCK
 62
0
100
AcDbLine
 10
201.4851436281681
 20
286.6469206325184
 30
0.0000000000000000
 11
201.4851436281681
 21
242.3469206503997
 31
0.0000000000000000
  0
MTEXT
  5
27B
100
AcDbEntity
  8
MAIN10
  6
BYBLOCK
 62
0
100
AcDbMText
 10
258.4851436281681
 20
248.1719205788742
 30
0.0000000000000000
 40
4.649999856948853
 41
0.0000000000000000
 71
     5
 72
     1
  1
\A1;114
 11
1.000000000000000
 21
0.0000000000000000
 31
0.0000000000000000
  7
STANDARD
  0
ENDBLK
  5
27C
100
AcDbEntity
  8
MAIN10
  6
CONTINUOUS
 62
3
100
AcDbBlockEnd
  0
BLOCK
  5
27E
100
AcDbEntity
  8
MAIN10
  6
CONTINUOUS
 62
3
100
AcDbBlockBegin
  2
*D22
 70
    65
 10
0.0
 20
0.0
 30
0.0
  0
LINE
  5
27F
100
AcDbEntity
  8
MAIN10
  6
BYBLOCK
 62
0
100
AcDbLine
 10
316.6851436460494
 20
373.8469206503997
 30
0.0000000000000000
 11
336.2792437309254
 21
373.8469206503997
 31
0.0000000000000000
  0
LINE
  5
280
100
AcDbEntity
  8
MAIN10
  6
BYBLOCK
 62
0
100
AcDbLine
 10
333.2792437309254
 20
370.8469206503997
 30
0.0000000000000000
 11
333.2792437309254
 21
344.8469206504003
 31
0.0000000000000000
  0
INSERT
  5
281
100
AcDbEntity
  8
MAIN10
  6
BYBLOCK
 62
0
100
AcDbBlockReference
  2
_OPEN
 10
333.2792437309254
 20
373.8469206503997
 30
0.0000000000000000
 41
3.000000000000000
 42
3.000000000000000
 43
3.000000000000000
 50
90.00000000000000
  0
INSERT
  5
282
100
AcDbEntity
  8
MAIN10
  6
BYBLOCK
 62
0
100
AcDbBlockReference
  2
_OPEN
 10
333.2792437309254
 20
341.8469206504003
 30
0.0000000000000000
 41
3.000000000000000
 42
3.000000000000000
 43
3.000000000000000
 50
270.0000000000000
  0
LINE
  5
283
100
AcDbEntity
  8
MAIN10
  6
BYBLOCK
 62
0
100
AcDbLine
 10
316.6851436460494
 20
341.8469206504003
 30
0.0000000000000000
 11
336.2792437309254
 21
341.8469206504003
 31
0.0000000000000000
  0
MTEXT
  5
284
100
AcDbEntity
  8
MAIN10
  6
BYBLOCK
 62
0
100
AcDbMText
 10
330.4542438024510
 20
357.8469206504000
 30
0.0000000000000000
 40
4.649999856948853
 41
0.0000000000000000
 71
     5
 72
     1
  1
\A1;\U+220532
 11
6.123233995736766e-017
 21
1.000000000000000
 31
0.0000000000000000
  7
STANDARD
  0
ENDBLK
  5
285
100
AcDbEntity
  8
MAIN10
  6
CONTINUOUS
 62
3
100
AcDbBlockEnd
  0
BLOCK
  5
287
100
AcDbEntity
  8
MAIN10
  6
CONTINUOUS
 62
3
100
AcDbBlockBegin
  2
*D23
 70
    65
 10
0.0
 20
0.0
 30
0.0
  0
LINE
  5
288
100
AcDbEntity
  8
MAIN10
  6
BYBLOCK
 62
0
100
AcDbLine
 10
292.4851436281681
 20
340.6469206325189
 30
0.0000000000000000
 11
292.4851436281681
 21
322.3469206503997
 31
0.0000000000000000
  0
LINE
  5
289
100
AcDbEntity
  8
MAIN10
  6
BYBLOCK
 62
0
100
AcDbLine
 10
295.4851436281681
 20
325.3469206503997
 30
0.0000000000000000
 11
312.4851436281681
 21
325.3469206503997
 31
0.0000000000000000
  0
INSERT
  5
28A
100
AcDbEntity
  8
MAIN10
  6
BYBLOCK
 62
0
100
AcDbBlockReference
  2
_OPEN
 10
292.4851436281681
 20
325.3469206503997
 30
0.0000000000000000
 41
3.000000000000000
 42
3.000000000000000
 43
3.000000000000000
 50
180.0000000000000
  0
INSERT
  5
28B
100
AcDbEntity
  8
MAIN10
  6
BYBLOCK
 62
0
100
AcDbBlockReference
  2
_OPEN
 10
315.4851436281681
 20
325.3469206503997
 30
0.0000000000000000
 41
3.000000000000000
 42
3.000000000000000
 43
3.000000000000000
 50
0.0000000000000000
  0
MTEXT
  5
28C
100
AcDbEntity
  8
MAIN10
  6
BYBLOCK
 62
0
100
AcDbMText
 10
303.9851436281681
 20
328.1719205788742
 30
0.0000000000000000
 40
4.649999856948853
 41
0.0000000000000000
 71
     5
 72
     1
  1
\A1;23
 11
1.000000000000000
 21
0.0000000000000000
 31
0.0000000000000000
  7
STANDARD
  0
ENDBLK
  5
28D
100
AcDbEntity
  8
MAIN10
  6
CONTINUOUS
 62
3
100
AcDbBlockEnd
  0
BLOCK
  5
28F
100
AcDbEntity
  8
MAIN10
  6
CONTINUOUS
 62
3
100
AcDbBlockBegin
  2
*D24
 70
    65
 10
0.0
 20
0.0
 30
0.0
  0
LINE
  5
290
100
AcDbEntity
  8
MAIN10
  6
BYBLOCK
 62
0
100
AcDbLine
 10
204.4851436281681
 20
335.3469206503997
 30
0.0000000000000000
 11
180.4851436281681
 21
335.3469206503997
 31
0.0000000000000000
  0
INSERT
  5
291
100
AcDbEntity
  8
MAIN10
  6
BYBLOCK
 62
0
100
AcDbBlockReference
  2
_OPEN
 10
207.4851436281681
 20
335.3469206503997
 30
0.0000000000000000
 41
3.000000000000000
 42
3.000000000000000
 43
3.000000000000000
 50
360.0000000000000
  0
INSERT
  5
292
100
AcDbEntity
  8
MAIN10
  6
BYBLOCK
 62
0
100
AcDbBlockReference
  2
_OPEN
 10
177.4851436281681
 20
335.3469206503997
 30
0.0000000000000000
 41
3.000000000000000
 42
3.000000000000000
 43
3.000000000000000
 50
180.0000000000000
  0
LINE
  5
293
100
AcDbEntity
  8
MAIN10
  6
BYBLOCK
 62
0
100
AcDbLine
 10
177.4851436281681
 20
346.6469206325187
 30
0.0000000000000000
 11
177.4851436281681
 21
332.3469206503997
 31
0.0000000000000000
  0
MTEXT
  5
294
100
AcDbEntity
  8
MAIN10
  6
BYBLOCK
 62
0
100
AcDbMText
 10
192.4851436281681
 20
338.1719205788742
 30
0.0000000000000000
 40
4.649999856948853
 41
0.0000000000000000
 71
     5
 72
     1
  1
\A1;30
 11
1.000000000000000
 21
0.0000000000000000
 31
0.0000000000000000
  7
STANDARD
  0
ENDBLK
  5
295
100
AcDbEntity
  8
MAIN10
  6
CONTINUOUS
 62
3
100
AcDbBlockEnd
  0
BLOCK
  5
297
100
AcDbEntity
  8
MAIN10
  6
CONTINUOUS
 62
3
100
AcDbBlockBegin
  2
*D25
 70
    65
 10
0.0
 20
0.0
 30
0.0
  0
LINE
  5
298
100
AcDbEntity
  8
MAIN10
  6
BYBLOCK
 62
0
100
AcDbLine
 10
201.4851436281681
 20
310.3469206503997
 30
0.0000000000000000
 11
207.4851436281681
 21
310.3469206503997
 31
0.0000000000000000
  0
INSERT
  5
299
100
AcDbEntity
  8
MAIN10
  6
BYBLOCK
 62
0
100
AcDbBlockReference
  2
_OPEN
 10
201.4851436281681
 20
310.3469206503997
 30
0.0000000000000000
 41
3.000000000000000
 42
3.000000000000000
 43
3.000000000000000
 50
0.0000000000000000
  0
INSERT
  5
29A
100
AcDbEntity
  8
MAIN10
  6
BYBLOCK
 62
0
100
AcDbBlockReference
  2
_OPEN
 10
207.4851436281681
 20
310.3469206503997
 30
0.0000000000000000
 41
3.000000000000000
 42
3.000000000000000
 43
3.000000000000000
 50
180.0000000000000
  0
LINE
  5
29B
100
AcDbEntity
  8
MAIN10
  6
BYBLOCK
 62
0
100
AcDbLine
 10
198.4851436281681
 20
310.3469206503997
 30
0.0000000000000000
 11
196.9851436281681
 21
310.3469206503997
 31
0.0000000000000000
  0
LINE
  5
29C
100
AcDbEntity
  8
MAIN10
  6
BYBLOCK
 62
0
100
AcDbLine
 10
210.4851436281681
 20
310.3469206503997
 30
0.0000000000000000
 11
211.9851436281681
 21
310.3469206503997
 31
0.0000000000000000
  0
LINE
  5
29D
100
AcDbEntity
  8
MAIN10
  6
BYBLOCK
 62
0
100
AcDbLine
 10
207.4851436281681
 20
324.1469206325185
 30
0.0000000000000000
 11
207.4851436281681
 21
307.3469206503997
 31
0.0000000000000000
  0
MTEXT
  5
29E
100
AcDbEntity
  8
MAIN10
  6
BYBLOCK
 62
0
100
AcDbMText
 10
204.4851436281681
 20
313.1719205788742
 30
0.0000000000000000
 40
4.649999856948853
 41
0.0000000000000000
 71
     5
 72
     1
  1
\A1;6
 11
1.000000000000000
 21
0.0000000000000000
 31
0.0000000000000000
  7
STANDARD
  0
ENDBLK
  5
29F
100
AcDbEntity
  8
MAIN10
  6
CONTINUOUS
 62
3
100
AcDbBlockEnd
  0
BLOCK
  5
2A1
100
AcDbEntity
  8
MAIN10
  6
CONTINUOUS
 62
3
100
AcDbBlockBegin
  2
*D26
 70
    65
 10
0.0
 20
0.0
 30
0.0
  0
LINE
  5
2A2
100
AcDbEntity
  8
MAIN10
  6
BYBLOCK
 62
0
100
AcDbLine
 10
265.4851436281681
 20
365.3469206503997
 30
0.0000000000000000
 11
265.4851436281681
 21
350.3469206503998
 31
0.0000000000000000
  0
INSERT
  5
2A3
100
AcDbEntity
  8
MAIN10
  6
BYBLOCK
 62
0
100
AcDbBlockReference
  2
_OPEN
 10
265.4851436281681
 20
368.3469206503997
 30
0.0000000000000000
 41
3.000000000000000
 42
3.000000000000000
 43
3.000000000000000
 50
90.00000000000000
  0
INSERT
  5
2A4
100
AcDbEntity
  8
MAIN10
  6
BYBLOCK
 62
0
100
AcDbBlockReference
  2
_OPEN
 10
265.4851436281681
 20
347.3469206503998
 30
0.0000000000000000
 41
3.000000000000000
 42
3.000000000000000
 43
3.000000000000000
 50
270.0000000000000
  0
MTEXT
  5
2A5
100
AcDbEntity
  8
MAIN10
  6
BYBLOCK
 62
0
100
AcDbMText
 10
262.6601436996937
 20
357.8469206503997
 30
0.0000000000000000
 40
4.649999856948853
 41
0.0000000000000000
 71
     5
 72
     1
  1
\A1;\U+220521
 11
6.123233995736766e-017
 21
1.000000000000000
 31
0.0000000000000000
  7
STANDARD
  0
ENDBLK
  5
2A6
100
AcDbEntity
  8
MAIN10
  6
CONTINUOUS
 62
3
100
AcDbBlockEnd
  0
BLOCK
  5
2A8
100
AcDbEntity
  8
MAIN10
  6
CONTINUOUS
 62
3
100
AcDbBlockBegin
  2
*D27
 70
    65
 10
0.0
 20
0.0
 30
0.0
  0
LINE
  5
2A9
100
AcDbEntity
  8
MAIN10
  6
BYBLOCK
 62
0
100
AcDbLine
 10
239.4851436281682
 20
415.3469206503997
 30
0.0000000000000000
 11
210.4851436281682
 21
415.3469206503997
 31
0.0000000000000000
  0
INSERT
  5
2AA
100
AcDbEntity
  8
MAIN10
  6
BYBLOCK
 62
0
100
AcDbBlockReference
  2
_OPEN
 10
242.4851436281682
 20
415.3469206503997
 30
0.0000000000000000
 41
3.000000000000000
 42
3.000000000000000
 43
3.000000000000000
 50
360.0000000000000
  0
INSERT
  5
2AB
100
AcDbEntity
  8
MAIN10
  6
BYBLOCK
 62
0
100
AcDbBlockReference
  2
_OPEN
 10
207.4851436281682
 20
415.3469206503997
 30
0.0000000000000000
 41
3.000000000000000
 42
3.000000000000000
 43
3.000000000000000
 50
180.0000000000000
  0
MTEXT
  5
2AC
100
AcDbEntity
  8
MAIN10
  6
BYBLOCK
 62
0
100
AcDbMText
 10
224.9851436281682
 20
418.1719205788742
 30
0.0000000000000000
 40
4.649999856948853
 41
0.0000000000000000
 71
     5
 72
     1
  1
\A1;35
 11
1.000000000000000
 21
0.0000000000000000
 31
0.0000000000000000
  7
STANDARD
  0
ENDBLK
  5
2AD
100
AcDbEntity
  8
MAIN10
  6
CONTINUOUS
 62
3
100
AcDbBlockEnd
  0
BLOCK
  5
2AF
100
AcDbEntity
  8
MAIN10
  6
CONTINUOUS
 62
3
100
AcDbBlockBegin
  2
*D28
 70
    65
 10
0.0
 20
0.0
 30
0.0
  0
LINE
  5
2B0
100
AcDbEntity
  8
MAIN10
  6
BYBLOCK
 62
0
100
AcDbLine
 10
204.4851436281682
 20
540.3469206503997
 30
0.0000000000000000
 11
141.4851436281681
 21
540.3469206503997
 31
0.0000000000000000
  0
INSERT
  5
2B1
100
AcDbEntity
  8
MAIN10
  6
BYBLOCK
 62
0
100
AcDbBlockReference
  2
_OPEN
 10
207.4851436281682
 20
540.3469206503997
 30
0.0000000000000000
 41
3.000000000000000
 42
3.000000000000000
 43
3.000000000000000
 50
360.0000000000000
  0
INSERT
  5
2B2
100
AcDbEntity
  8
MAIN10
  6
BYBLOCK
 62
0
100
AcDbBlockReference
  2
_OPEN
 10
138.4851436281681
 20
540.3469206503997
 30
0.0000000000000000
 41
3.000000000000000
 42
3.000000000000000
 43
3.000000000000000
 50
180.0000000000000
  0
LINE
  5
2B3
100
AcDbEntity
  8
MAIN10
  6
BYBLOCK
 62
0
100
AcDbLine
 10
138.4851436281681
 20
502.0469206682811
 30
0.0000000000000000
 11
138.4851436281681
 21
543.3469206503997
 31
0.0000000000000000
  0
MTEXT
  5
2B4
100
AcDbEntity
  8
MAIN10
  6
BYBLOCK
 62
0
100
AcDbMText
 10
172.9851436281681
 20
543.1719205788742
 30
0.0000000000000000
 40
4.649999856948853
 41
0.0000000000000000
 71
     5
 72
     1
  1
\A1;MIN  69
 11
1.000000000000000
 21
0.0000000000000000
 31
0.0000000000000000
  7
STANDARD
  0
ENDBLK
  5
2B5
100
AcDbEntity
  8
MAIN10
  6
CONTINUOUS
 62
3
100
AcDbBlockEnd
  0
BLOCK
  5
2B7
100
AcDbEntity
  8
MAIN10
  6
CONTINUOUS
 62
3
100
AcDbBlockBegin
  2
*D29
 70
    65
 10
0.0
 20
0.0
 30
0.0
  0
LINE
  5
2B8
100
AcDbEntity
  8
MAIN10
  6
BYBLOCK
 62
0
100
AcDbLine
 10
138.4851436281681
 20
502.0469206682811
 30
0.0000000000000000
 11
138.4851436281681
 21
543.3469206503997
 31
0.0000000000000000
  0
LINE
  5
2B9
100
AcDbEntity
  8
MAIN10
  6
BYBLOCK
 62
0
100
AcDbLine
 10
135.4851436281681
 20
540.3469206503997
 30
0.0000000000000000
 11
86.48514362816809
 21
540.3469206503997
 31
0.0000000000000000
  0
INSERT
  5
2BA
100
AcDbEntity
  8
MAIN10
  6
BYBLOCK
 62
0
100
AcDbBlockReference
  2
_OPEN
 10
138.4851436281681
 20
540.3469206503997
 30
0.0000000000000000
 41
3.000000000000000
 42
3.000000000000000
 43
3.000000000000000
 50
360.0000000000000
  0
INSERT
  5
2BB
100
AcDbEntity
  8
MAIN10
  6
BYBLOCK
 62
0
100
AcDbBlockReference
  2
_OPEN
 10
83.48514362816809
 20
540.3469206503997
 30
0.0000000000000000
 41
3.000000000000000
 42
3.000000000000000
 43
3.000000000000000
 50
180.0000000000000
  0
LINE
  5
2BC
100
AcDbEntity
  8
MAIN10
  6
BYBLOCK
 62
0
100
AcDbLine
 10
83.48514362816809
 20
489.5469206682812
 30
0.0000000000000000
 11
83.48514362816809
 21
543.3469206503997
 31
0.0000000000000000
  0
MTEXT
  5
2BD
100
AcDbEntity
  8
MAIN10
  6
BYBLOCK
 62
0
100
AcDbMText
 10
110.9851436281681
 20
543.1719205788742
 30
0.0000000000000000
 40
4.649999856948853
 41
0.0000000000000000
 71
     5
 72
     1
  1
\A1;55
 11
1.000000000000000
 21
0.0000000000000000
 31
0.0000000000000000
  7
STANDARD
  0
ENDBLK
  5
2BE
100
AcDbEntity
  8
MAIN10
  6
CONTINUOUS
 62
3
100
AcDbBlockEnd
  0
BLOCK
  5
2C0
100
AcDbEntity
  8
MAIN10
  6
CONTINUOUS
 62
3
100
AcDbBlockBegin
  2
D30
 70
    64
 10
0.0
 20
0.0
 30
0.0
  0
LINE
  5
2C1
100
AcDbEntity
  8
MAIN10
  6
BYBLOCK
 62
0
100
AcDbLine
 10
-8.696458695072238
 20
-11.52500395809264
 30
0.0000000000000000
 11
-8.696458695072238
 21
149.9999999999999
 31
0.0000000000000000
  0
LINE
  5
2C2
100
AcDbEntity
  8
MAIN10
  6
BYBLOCK
 62
0
100
AcDbLine
 10
-9.596458730835025
 20
146.9999999999999
 30
0.0000000000000000
 11
-8.696458695072238
 21
149.9999999999999
 31
0.0000000000000000
  0
LINE
  5
2C3
100
AcDbEntity
  8
MAIN10
  6
BYBLOCK
 62
0
100
AcDbLine
 10
-8.696458695072238
 20
149.9999999999999
 30
0.0000000000000000
 11
-7.796458659309451
 21
146.9999999999999
 31
0.0000000000000000
  0
LINE
  5
2C4
100
AcDbEntity
  8
MAIN10
  6
BYBLOCK
 62
0
100
AcDbLine
 10
118.8411921322374
 20
149.9999999999999
 30
0.0000000000000000
 11
-11.69645869507224
 21
149.9999999999999
 31
0.0000000000000000
  0
MTEXT
  5
2C5
100
AcDbEntity
  8
MAIN10
  6
BYBLOCK
 62
0
100
AcDbMText
 10
-11.77145862354666
 20
3.537500040605663
 30
0.0000000000000000
 40
4.649999856948853
 41
0.0000000000000000
 71
     5
 72
     1
  1
\A1;\U+2205300H6\H0.903226x;\S＋0.032^ 　0;
 11
6.123233995736766e-017
 21
1.000000000000000
 31
0.0000000000000000
  7
KNJYOKO
  0
ENDBLK
  5
2C6
100
AcDbEntity
  8
MAIN10
  6
CONTINUOUS
 62
3
100
AcDbBlockEnd
  0
BLOCK
  5
2C8
100
AcDbEntity
  8
MAIN10
  6
CONTINUOUS
 62
3
100
AcDbBlockBegin
  2
D31
 70
    64
 10
0.0
 20
0.0
 30
0.0
  0
LINE
  5
2C9
100
AcDbEntity
  8
MAIN10
  6
BYBLOCK
 62
0
100
AcDbLine
 10
-28.46807747759510
 20
-4.449998720915887
 30
0.0000000000000000
 11
-28.46807747759510
 21
190.5000000000000
 31
0.0000000000000000
  0
LINE
  5
2CA
100
AcDbEntity
  8
MAIN10
  6
BYBLOCK
 62
0
100
AcDbLine
 10
-29.36807751335789
 20
187.5000000000000
 30
0.0000000000000000
 11
-28.46807747759510
 21
190.5000000000000
 31
0.0000000000000000
  0
LINE
  5
2CB
100
AcDbEntity
  8
MAIN10
  6
BYBLOCK
 62
0
100
AcDbLine
 10
-28.46807747759510
 20
190.5000000000000
 30
0.0000000000000000
 11
-27.56807744183232
 21
187.5000000000000
 31
0.0000000000000000
  0
LINE
  5
2CC
100
AcDbEntity
  8
MAIN10
  6
BYBLOCK
 62
0
100
AcDbLine
 10
121.8411921322374
 20
190.5000000000000
 30
0.0000000000000000
 11
-31.46807747759510
 21
190.5000000000000
 31
0.0000000000000000
  0
MTEXT
  5
2CD
100
AcDbEntity
  8
MAIN10
  6
BYBLOCK
 62
0
100
AcDbMText
 10
-31.54307740606953
 20
-7.768010205571655e-016
 30
0.0000000000000000
 40
4.649999856948853
 41
0.0000000000000000
 71
     5
 72
     1
  1
\A1;\U+2205381
 11
6.123233995736766e-017
 21
1.000000000000000
 31
0.0000000000000000
  7
STANDARD
  0
ENDBLK
  5
2CE
100
AcDbEntity
  8
MAIN10
  6
CONTINUOUS
 62
3
100
AcDbBlockEnd
  0
BLOCK
  5
2D0
100
AcDbEntity
  8
MAIN10
  6
CONTINUOUS
 62
3
100
AcDbBlockBegin
  2
*D32
 70
    65
 10
0.0
 20
0.0
 30
0.0
  0
LINE
  5
2D1
100
AcDbEntity
  8
MAIN10
  6
BYBLOCK
 62
0
100
AcDbLine
 10
316.6851436460494
 20
154.0200723834370
 30
0.0000000000000000
 11
355.0678550554100
 21
154.0200723834370
 31
0.0000000000000000
  0
LINE
  5
2D2
100
AcDbEntity
  8
MAIN10
  6
BYBLOCK
 62
0
100
AcDbLine
 10
352.0678550554100
 20
157.0200723834370
 30
0.0000000000000000
 11
352.0678550554100
 21
213.0200723834370
 31
0.0000000000000000
  0
INSERT
  5
2D3
100
AcDbEntity
  8
MAIN10
  6
BYBLOCK
 62
0
100
AcDbBlockReference
  2
_OPEN
 10
352.0678550554100
 20
154.0200723834370
 30
0.0000000000000000
 41
3.000000000000000
 42
3.000000000000000
 43
3.000000000000000
 50
270.0000000000000
  0
INSERT
  5
2D4
100
AcDbEntity
  8
MAIN10
  6
BYBLOCK
 62
0
100
AcDbBlockReference
  2
_OPEN
 10
352.0678550554100
 20
216.0200723834370
 30
0.0000000000000000
 41
3.000000000000000
 42
3.000000000000000
 43
3.000000000000000
 50
90.00000000000000
  0
LINE
  5
2D5
100
AcDbEntity
  8
MAIN10
  6
BYBLOCK
 62
0
100
AcDbLine
 10
316.6851436460494
 20
216.0200723834370
 30
0.0000000000000000
 11
355.0678550554100
 21
216.0200723834370
 31
0.0000000000000000
  0
MTEXT
  5
2D6
100
AcDbEntity
  8
MAIN10
  6
BYBLOCK
 62
0
100
AcDbMText
 10
349.2428551269356
 20
185.0200723834370
 30
0.0000000000000000
 40
4.649999856948853
 41
0.0000000000000000
 71
     5
 72
     1
  1
\A1;62
 11
6.123233995736766e-017
 21
1.000000000000000
 31
0.0000000000000000
  7
STANDARD
  0
ENDBLK
  5
2D7
100
AcDbEntity
  8
MAIN10
  6
CONTINUOUS
 62
3
100
AcDbBlockEnd
  0
BLOCK
  5
2D9
100
AcDbEntity
  8
MAIN10
  6
CONTINUOUS
 62
3
100
AcDbBlockBegin
  2
*D33
 70
    65
 10
0.0
 20
0.0
 30
0.0
  0
LINE
  5
2DA
100
AcDbEntity
  8
MAIN10
  6
BYBLOCK
 62
0
100
AcDbLine
 10
321.9351436460493
 20
197.7700723834370
 30
0.0000000000000000
 11
336.2792437309254
 21
197.7700723834370
 31
0.0000000000000000
  0
LINE
  5
2DB
100
AcDbEntity
  8
MAIN10
  6
BYBLOCK
 62
0
100
AcDbLine
 10
333.2792437309254
 20
194.7700723834370
 30
0.0000000000000000
 11
333.2792437309254
 21
175.2700723834370
 31
0.0000000000000000
  0
INSERT
  5
2DC
100
AcDbEntity
  8
MAIN10
  6
BYBLOCK
 62
0
100
AcDbBlockReference
  2
_OPEN
 10
333.2792437309254
 20
197.7700723834370
 30
0.0000000000000000
 41
3.000000000000000
 42
3.000000000000000
 43
3.000000000000000
 50
90.00000000000000
  0
INSERT
  5
2DD
100
AcDbEntity
  8
MAIN10
  6
BYBLOCK
 62
0
100
AcDbBlockReference
  2
_OPEN
 10
333.2792437309254
 20
172.2700723834370
 30
0.0000000000000000
 41
3.000000000000000
 42
3.000000000000000
 43
3.000000000000000
 50
270.0000000000000
  0
LINE
  5
2DE
100
AcDbEntity
  8
MAIN10
  6
BYBLOCK
 62
0
100
AcDbLine
 10
321.9351436460493
 20
172.2700723834370
 30
0.0000000000000000
 11
336.2792437309254
 21
172.2700723834370
 31
0.0000000000000000
  0
MTEXT
  5
2DF
100
AcDbEntity
  8
MAIN10
  6
BYBLOCK
 62
0
100
AcDbMText
 10
330.4542438024510
 20
185.0200723834370
 30
0.0000000000000000
 40
4.649999856948853
 41
0.0000000000000000
 71
     5
 72
     1
  1
\A1;25.5
 11
6.123233995736766e-017
 21
1.000000000000000
 31
0.0000000000000000
  7
STANDARD
  0
ENDBLK
  5
2E0
100
AcDbEntity
  8
MAIN10
  6
CONTINUOUS
 62
3
100
AcDbBlockEnd
  0
BLOCK
  5
2E2
100
AcDbEntity
  8
MAIN10
  6
CONTINUOUS
 62
3
100
AcDbBlockBegin
  2
*D34
 70
    65
 10
0.0
 20
0.0
 30
0.0
  0
LINE
  5
2E3
100
AcDbEntity
  8
MAIN10
  6
BYBLOCK
 62
0
100
AcDbLine
 10
320.7351436281679
 20
171.0700723655556
 30
0.0000000000000000
 11
320.7351436281679
 21
138.1646164480767
 31
0.0000000000000000
  0
LINE
  5
2E4
100
AcDbEntity
  8
MAIN10
  6
BYBLOCK
 62
0
100
AcDbLine
 10
320.7351436281679
 20
141.1646164480767
 30
0.0000000000000000
 11
318.4851436281681
 21
141.1646164480767
 31
0.0000000000000000
  0
INSERT
  5
2E5
100
AcDbEntity
  8
MAIN10
  6
BYBLOCK
 62
0
100
AcDbBlockReference
  2
_OPEN
 10
320.7351436281679
 20
141.1646164480767
 30
0.0000000000000000
 41
3.000000000000000
 42
3.000000000000000
 43
3.000000000000000
 50
180.0000000000000
  0
INSERT
  5
2E6
100
AcDbEntity
  8
MAIN10
  6
BYBLOCK
 62
0
100
AcDbBlockReference
  2
_DOT
 10
317.4851436281681
 20
141.1646164480767
 30
0.0000000000000000
 41
1.500000000000000
 42
1.500000000000000
 43
1.500000000000000
 50
180.0000000000000
  0
LINE
  5
2E7
100
AcDbEntity
  8
MAIN10
  6
BYBLOCK
 62
0
100
AcDbLine
 10
323.7351436281679
 20
141.1646164480767
 30
0.0000000000000000
 11
337.0850857210777
 21
141.1646164480767
 31
0.0000000000000000
  0
LINE
  5
2E8
100
AcDbEntity
  8
MAIN10
  6
BYBLOCK
 62
0
100
AcDbLine
 10
317.4851436281681
 20
158.8200723655556
 30
0.0000000000000000
 11
317.4851436281681
 21
138.1646164480767
 31
0.0000000000000000
  0
MTEXT
  5
2E9
100
AcDbEntity
  8
MAIN10
  6
BYBLOCK
 62
0
100
AcDbMText
 10
331.6100855780265
 20
144.2396163765511
 30
0.0000000000000000
 40
4.649999856948853
 41
0.0000000000000000
 71
     5
 72
     1
  1
\A1;3.25
 11
1.000000000000000
 21
0.0000000000000000
 31
0.0000000000000000
  7
STANDARD
  0
ENDBLK
  5
2EA
100
AcDbEntity
  8
MAIN10
  6
CONTINUOUS
 62
3
100
AcDbBlockEnd
  0
BLOCK
  5
2EC
100
AcDbEntity
  8
MAIN10
  6
CONTINUOUS
 62
3
100
AcDbBlockBegin
  2
*D35
 70
    65
 10
0.0
 20
0.0
 30
0.0
  0
LINE
  5
2ED
100
AcDbEntity
  8
MAIN10
  6
BYBLOCK
 62
0
100
AcDbLine
 10
317.4851436281681
 20
158.8200723655556
 30
0.0000000000000000
 11
317.4851436281681
 21
138.1646164480767
 31
0.0000000000000000
  0
LINE
  5
2EE
100
AcDbEntity
  8
MAIN10
  6
BYBLOCK
 62
0
100
AcDbLine
 10
316.4851436281681
 20
141.1646164480767
 30
0.0000000000000000
 11
315.4851436281680
 21
141.1646164480767
 31
0.0000000000000000
  0
INSERT
  5
2EF
100
AcDbEntity
  8
MAIN10
  6
BYBLOCK
 62
0
100
AcDbBlockReference
  2
_DOT
 10
317.4851436281681
 20
141.1646164480767
 30
0.0000000000000000
 41
1.500000000000000
 42
1.500000000000000
 43
1.500000000000000
 50
360.0000000000000
  0
INSERT
  5
2F0
100
AcDbEntity
  8
MAIN10
  6
BYBLOCK
 62
0
100
AcDbBlockReference
  2
_OPEN
 10
315.4851436281680
 20
141.1646164480767
 30
0.0000000000000000
 41
3.000000000000000
 42
3.000000000000000
 43
3.000000000000000
 50
360.0000000000000
  0
LINE
  5
2F1
100
AcDbEntity
  8
MAIN10
  6
BYBLOCK
 62
0
100
AcDbLine
 10
312.4851436281680
 20
141.1646164480767
 30
0.0000000000000000
 11
307.4030767421277
 21
141.1646164480767
 31
0.0000000000000000
  0
MTEXT
  5
2F2
100
AcDbEntity
  8
MAIN10
  6
BYBLOCK
 62
0
100
AcDbMText
 10
308.9030767421277
 20
144.2396163765511
 30
0.0000000000000000
 40
4.649999856948853
 41
0.0000000000000000
 71
     5
 72
     1
  1
\A1;2
 11
1.000000000000000
 21
0.0000000000000000
 31
0.0000000000000000
  7
STANDARD
  0
ENDBLK
  5
2F3
100
AcDbEntity
  8
MAIN10
  6
CONTINUOUS
 62
3
100
AcDbBlockEnd
  0
ENDSEC
  0
SECTION
  2
ENTITIES
  0
LINE
  5
46
100
AcDbEntity
  8
MAIN0
  6
CONTINUOUS
 62
3
100
AcDbLine
 10
250.4851436281682
 20
665.8469206503996
 30
0.0000000000000000
 11
250.9851436281682
 21
665.8469206503996
 31
0.0000000000000000
  0
LINE
  5
47
100
AcDbEntity
  8
MAIN0
  6
CONTINUOUS
 62
3
100
AcDbLine
 10
317.4851436281681
 20
659.0969206503996
 30
0.0000000000000000
 11
320.7351436281681
 21
659.0969206503996
 31
0.0000000000000000
  0
LINE
  5
48
100
AcDbEntity
  8
MAIN0
  6
CONTINUOUS
 62
3
100
AcDbLine
 10
317.4851436281681
 20
621.0969206503996
 30
0.0000000000000000
 11
320.7351436281681
 21
621.0969206503996
 31
0.0000000000000000
  0
LINE
  5
49
100
AcDbEntity
  8
MAIN0
  6
CONTINUOUS
 62
3
100
AcDbLine
 10
320.7351436281681
 20
621.0969206503996
 30
0.0000000000000000
 11
320.7351436281681
 21
659.0969206503994
 31
0.0000000000000000
  0
LINE
  5
4A
100
AcDbEntity
  8
MAIN0
  6
CENTER
 62
12
100
AcDbLine
 10
260.4851436281680
 20
283.3171493553635
 30
0.0000000000000000
 11
260.4851436281680
 21
323.0709507080620
 31
0.0000000000000000
  0
LINE
  5
4B
100
AcDbEntity
  8
MAIN0
  6
CONTINUOUS
 62
3
100
AcDbLine
 10
292.4851436281681
 20
373.8469206503997
 30
0.0000000000000000
 11
292.4851436281681
 21
341.8469206504003
 31
0.0000000000000000
  0
LINE
  5
4C
100
AcDbEntity
  8
MAIN0
  6
CONTINUOUS
 62
3
100
AcDbLine
 10
316.4851436281683
 20
552.8469206503996
 30
0.0000000000000000
 11
317.4851436281682
 21
553.4242709195892
 31
0.0000000000000000
  0
LINE
  5
4D
100
AcDbEntity
  8
MAIN0
  6
CONTINUOUS
 62
3
100
AcDbLine
 10
317.4851436281682
 20
666.2695703812098
 30
0.0000000000000000
 11
316.4851436281682
 21
666.8469206503994
 31
0.0000000000000000
  0
LINE
  5
4E
100
AcDbEntity
  8
MAIN0
  6
CONTINUOUS
 62
3
100
AcDbLine
 10
316.4851436281679
 20
665.5195703812098
 30
0.0000000000000000
 11
317.4851436281681
 21
666.0969206503995
 31
0.0000000000000000
  0
LINE
  5
4F
100
AcDbEntity
  8
MAIN0
  6
CONTINUOUS
 62
3
100
AcDbLine
 10
316.4851436281679
 20
665.5195703812098
 30
0.0000000000000000
 11
317.4851436281682
 21
664.9422201120200
 31
0.0000000000000000
  0
LINE
  5
50
100
AcDbEntity
  8
MAIN0
  6
CONTINUOUS
 62
3
100
AcDbLine
 10
316.4851436281682
 20
531.6742709195887
 30
0.0000000000000000
 11
317.4851436281680
 21
531.0969206503992
 31
0.0000000000000000
  0
LINE
  5
51
100
AcDbEntity
  8
MAIN0
  6
CONTINUOUS
 62
3
100
AcDbLine
 10
316.4851436281682
 20
531.6742709195887
 30
0.0000000000000000
 11
317.4851436281680
 21
532.2516211887782
 31
0.0000000000000000
  0
LINE
  5
52
100
AcDbEntity
  8
MAIN0
  6
CONTINUOUS
 62
3
100
AcDbLine
 10
317.4851436281681
 20
553.4242709195889
 30
0.0000000000000000
 11
316.4851436281680
 21
554.0016211887786
 31
0.0000000000000000
  0
LINE
  5
53
100
AcDbEntity
  8
MAIN0
  6
CONTINUOUS
 62
3
100
AcDbLine
 10
225.4851436281679
 20
402.1219206504002
 30
0.0000000000000000
 11
232.7020219930382
 21
389.6219206504002
 31
0.0000000000000000
  0
LINE
  5
54
100
AcDbEntity
  8
MAIN0
  6
CONTINUOUS
 62
3
100
AcDbLine
 10
225.4851436281684
 20
377.1219206504007
 30
0.0000000000000000
 11
232.7020219930384
 21
389.6219206504002
 31
0.0000000000000000
  0
LINE
  5
55
100
AcDbEntity
  8
MAIN0
  6
CONTINUOUS
 62
3
100
AcDbLine
 10
204.4851436281683
 20
514.3469206503997
 30
0.0000000000000000
 11
203.4851436281682
 21
513.3469206503997
 31
0.0000000000000000
  0
LINE
  5
56
100
AcDbEntity
  8
MAIN0
  6
CONTINUOUS
 62
3
100
AcDbLine
 10
204.4851436281682
 20
436.3469206503996
 30
0.0000000000000000
 11
203.4851436281682
 21
437.3469206503997
 31
0.0000000000000000
  0
LINE
  5
57
100
AcDbEntity
  8
MAIN0
  6
CONTINUOUS
 62
12
100
AcDbLine
 10
203.4851436281682
 20
505.5969206503995
 30
0.0000000000000000
 11
213.4851436281682
 21
505.5969206503995
 31
0.0000000000000000
  0
LINE
  5
58
100
AcDbEntity
  8
MAIN0
  6
CONTINUOUS
 62
3
100
AcDbLine
 10
203.4851436281681
 20
445.0969206504000
 30
0.0000000000000000
 11
203.4851436281681
 21
445.3469206503997
 31
0.0000000000000000
  0
LINE
  5
59
100
AcDbEntity
  8
MAIN0
  6
CONTINUOUS
 62
3
100
AcDbLine
 10
203.4851436281682
 20
505.3469206503995
 30
0.0000000000000000
 11
203.4851436281682
 21
505.5969206503995
 31
0.0000000000000000
  0
LINE
  5
5A
100
AcDbEntity
  8
MAIN0
  6
CONTINUOUS
 62
12
100
AcDbLine
 10
213.4851436281676
 20
505.5969206503997
 30
0.0000000000000000
 11
215.6502071376288
 21
504.3469206503997
 31
0.0000000000000000
  0
LINE
  5
5B
100
AcDbEntity
  8
MAIN0
  6
CONTINUOUS
 62
12
100
AcDbLine
 10
213.4851436281679
 20
445.0969206503997
 30
0.0000000000000000
 11
215.6502071376286
 21
446.3469206503995
 31
0.0000000000000000
  0
LINE
  5
5C
100
AcDbEntity
  8
MAIN0
  6
CENTER
 62
12
100
AcDbLine
 10
209.9851436281680
 20
434.3582406945724
 30
0.0000000000000000
 11
209.9851436281680
 21
447.8095823842617
 31
0.0000000000000000
  0
LINE
  5
5D
100
AcDbEntity
  8
MAIN0
  6
CONTINUOUS
 62
3
100
AcDbLine
 10
203.4851436281680
 20
437.3469206504000
 30
0.0000000000000000
 11
203.4851436281680
 21
445.3469206503999
 31
0.0000000000000000
  0
LINE
  5
5E
100
AcDbEntity
  8
MAIN0
  6
CONTINUOUS
 62
3
100
AcDbLine
 10
203.4851436281680
 20
505.3469206503997
 30
0.0000000000000000
 11
203.4851436281680
 21
513.3469206503995
 31
0.0000000000000000
  0
LINE
  5
5F
100
AcDbEntity
  8
MAIN0
  6
CONTINUOUS
 62
12
100
AcDbLine
 10
203.4851436281681
 20
445.0969206503999
 30
0.0000000000000000
 11
208.2351436281683
 21
445.0969206503999
 31
0.0000000000000000
  0
LINE
  5
60
100
AcDbEntity
  8
MAIN0
  6
CONTINUOUS
 62
12
100
AcDbLine
 10
211.7351436281680
 20
445.0969206504000
 30
0.0000000000000000
 11
213.4851436281681
 21
445.0969206504000
 31
0.0000000000000000
  0
LINE
  5
61
100
AcDbEntity
  8
MAIN0
  6
CONTINUOUS
 62
3
100
AcDbLine
 10
250.9851436281682
 20
508.5064075445565
 30
0.0000000000000000
 11
250.9851436281682
 21
511.4250115114246
 31
0.0000000000000000
  0
LINE
  5
62
100
AcDbEntity
  8
MAIN0
  6
CONTINUOUS
 62
3
100
AcDbLine
 10
250.9851436281682
 20
665.8469206503996
 30
0.0000000000000000
 11
250.9851436281682
 21
666.8469206503994
 31
0.0000000000000000
  0
LINE
  5
63
100
AcDbEntity
  8
MAIN0
  6
CONTINUOUS
 62
3
100
AcDbLine
 10
201.4851436281681
 20
505.3469206503995
 30
0.0000000000000000
 11
201.4851436281682
 21
662.8469206503996
 31
0.0000000000000000
  0
LINE
  5
64
100
AcDbEntity
  8
MAIN0
  6
CONTINUOUS
 62
3
100
AcDbLine
 10
201.4851436281680
 20
287.8469206503998
 30
0.0000000000000000
 11
201.4851436281681
 21
347.8469223199653
 31
0.0000000000000000
  0
LINE
  5
65
100
AcDbEntity
  8
MAIN0
  6
CONTINUOUS
 62
3
100
AcDbLine
 10
201.4851436281680
 20
367.8469158504001
 30
0.0000000000000000
 11
201.4851436281681
 21
445.3469206503998
 31
0.0000000000000000
  0
LINE
  5
66
100
AcDbEntity
  8
MAIN0
  6
CENTER
 62
12
100
AcDbLine
 10
203.1697664704731
 20
389.6219206504003
 30
0.0000000000000000
 11
238.5081900334937
 21
389.6219206504003
 31
0.0000000000000000
  0
LINE
  5
67
100
AcDbEntity
  8
MAIN0
  6
CONTINUOUS
 62
3
100
AcDbLine
 10
204.4851436281682
 20
665.8469206503996
 30
0.0000000000000000
 11
312.4851436281681
 21
665.8469206503996
 31
0.0000000000000000
  0
LINE
  5
68
100
AcDbEntity
  8
MAIN0
  6
CONTINUOUS
 62
3
100
AcDbLine
 10
228.4851436281683
 20
615.8469206503995
 30
0.0000000000000000
 11
233.4851436281682
 21
615.8469206503995
 31
0.0000000000000000
  0
LINE
  5
69
100
AcDbEntity
  8
MAIN0
  6
CONTINUOUS
 62
3
100
AcDbLine
 10
228.4851436281682
 20
594.8469206503994
 30
0.0000000000000000
 11
233.4851436281682
 21
594.8469206503994
 31
0.0000000000000000
  0
LINE
  5
6A
100
AcDbEntity
  8
MAIN0
  6
CONTINUOUS
 62
3
100
AcDbLine
 10
233.4851436281682
 20
594.8469206503995
 30
0.0000000000000000
 11
233.4851436281682
 21
596.3469206503995
 31
0.0000000000000000
  0
LINE
  5
6B
100
AcDbEntity
  8
MAIN0
  6
CONTINUOUS
 62
3
100
AcDbLine
 10
233.4851436281682
 20
614.3469206503995
 30
0.0000000000000000
 11
233.4851436281682
 21
615.8469206503995
 31
0.0000000000000000
  0
SPLINE
  5
6C
100
AcDbEntity
  8
MAIN0
  6
CONTINUOUS
 62
12
100
AcDbSpline
210
0.0000000000000000
220
0.0000000000000000
230
1.000000000000000
 70
     8
 71
     3
 72
    25
 73
    21
 74
     0
 42
1.000000000000000e-007
 43
1.000000000000000e-007
 12
-1.002251572014558
 22
-0.006069643708769945
 32
0.0000000000000000
 13
-0.8450634584360444
 23
0.5388642442453318
 33
0.0000000000000000
 40
0.0000000000000000
 40
0.0000000000000000
 40
0.0000000000000000
 40
0.0000000000000000
 40
4.844682957254261
 40
15.36033154569405
 40
27.33293495238831
 40
36.56809474095121
 40
48.33780466669703
 40
58.20358730749967
 40
70.29134689477718
 40
88.34131203243931
 40
100.7911316834797
 40
110.4015348403315
 40
130.2235418134365
 40
143.2459995147947
 40
155.6835157692242
 40
168.6907118062499
 40
183.2901833152230
 40
199.8406817764653
 40
210.4853622964115
 40
221.1746195774713
 40
221.1746195774713
 40
221.1746195774713
 40
221.1746195774713
 10
309.1067032379596
 20
491.8066393301457
 30
0.0000000000000000
 10
307.4881728680195
 20
491.7968374970016
 30
0.0000000000000000
 10
302.3565340552407
 20
491.7657602504243
 30
0.0000000000000000
 10
293.4321949882428
 20
493.6804265947932
 30
0.0000000000000000
 10
282.6875589630272
 20
494.3687018650631
 30
0.0000000000000000
 10
272.9838135106670
 20
500.0197964679195
 30
0.0000000000000000
 10
262.1767360074127
 20
500.1837376880009
 30
0.0000000000000000
 10
253.1547951383060
 20
507.6396770489812
 30
0.0000000000000000
 10
245.8594091944961
 20
519.3773061864599
 30
0.0000000000000000
 10
247.2658698918050
 20
534.1206272826322
 30
0.0000000000000000
 10
245.7685076010904
 20
547.3608989141408
 30
0.0000000000000000
 10
246.5348660895366
 20
561.3191522828490
 30
0.0000000000000000
 10
246.6024525305825
 20
575.6300552990820
 30
0.0000000000000000
 10
240.5824912712915
 20
590.0825413407968
 30
0.0000000000000000
 10
244.2003688434560
 20
603.0166832382538
 30
0.0000000000000000
 10
243.5079929827388
 20
615.8892217488626
 30
0.0000000000000000
 10
238.7813925255279
 20
632.6495579823227
 30
0.0000000000000000
 10
222.2195464902281
 20
631.0779905931609
 30
0.0000000000000000
 10
210.9123788354617
 20
636.5429200641469
 30
0.0000000000000000
 10
204.9028684154026
 20
640.3749521541189
 30
0.0000000000000000
 10
201.8918348400542
 20
642.2949716695530
 30
0.0000000000000000
  0
LINE
  5
6D
100
AcDbEntity
  8
MAIN0
  6
CONTINUOUS
 62
3
100
AcDbLine
 10
287.4851436281681
 20
154.0200723834370
 30
0.0000000000000000
 11
315.4851436281680
 21
154.0200723834370
 31
0.0000000000000000
  0
LINE
  5
6E
100
AcDbEntity
  8
MAIN0
  6
CONTINUOUS
 62
3
100
AcDbLine
 10
287.4851436281681
 20
216.0200723834370
 30
0.0000000000000000
 11
315.4851436281680
 21
216.0200723834370
 31
0.0000000000000000
  0
LINE
  5
6F
100
AcDbEntity
  8
MAIN0
  6
CONTINUOUS
 62
3
100
AcDbLine
 10
259.4851436281680
 20
137.5200723834370
 30
0.0000000000000000
 11
287.4851436281681
 21
137.5200723834370
 31
0.0000000000000000
  0
LINE
  5
70
100
AcDbEntity
  8
MAIN0
  6
CONTINUOUS
 62
3
100
AcDbLine
 10
259.4851436281681
 20
232.5200723834344
 30
0.0000000000000000
 11
287.4851436281681
 21
232.5200723834344
 31
0.0000000000000000
  0
LINE
  5
71
100
AcDbEntity
  8
MAIN0
  6
CONTINUOUS
 62
3
100
AcDbLine
 10
250.9851436281680
 20
211.0200723834371
 30
0.0000000000000000
 11
250.9851436281679
 21
159.0200723834371
 31
0.0000000000000000
  0
LINE
  5
72
100
AcDbEntity
  8
MAIN0
  6
CONTINUOUS
 62
3
100
AcDbLine
 10
250.9851436281679
 20
159.0200723834370
 30
0.0000000000000000
 11
259.4851436281680
 21
159.0200723834370
 31
0.0000000000000000
  0
LINE
  5
73
100
AcDbEntity
  8
MAIN0
  6
CONTINUOUS
 62
3
100
AcDbLine
 10
250.9851436281680
 20
211.0200723834370
 30
0.0000000000000000
 11
259.4851436281682
 21
211.0200723834370
 31
0.0000000000000000
  0
LINE
  5
74
100
AcDbEntity
  8
MAIN0
  6
CONTINUOUS
 62
3
100
AcDbLine
 10
320.7351436281678
 20
197.7700723834370
 30
0.0000000000000000
 11
320.7351436281679
 21
172.2700723834370
 31
0.0000000000000000
  0
LINE
  5
75
100
AcDbEntity
  8
MAIN0
  6
CONTINUOUS
 62
3
100
AcDbLine
 10
300.4851436281680
 20
172.2700723834370
 30
0.0000000000000000
 11
320.7351436281679
 21
172.2700723834370
 31
0.0000000000000000
  0
LINE
  5
76
100
AcDbEntity
  8
MAIN0
  6
CONTINUOUS
 62
3
100
AcDbLine
 10
287.4851436281682
 20
232.5200723834344
 30
0.0000000000000000
 11
287.4851436281681
 21
216.0200723834371
 31
0.0000000000000000
  0
LINE
  5
77
100
AcDbEntity
  8
MAIN0
  6
CONTINUOUS
 62
3
100
AcDbLine
 10
287.4851436281680
 20
154.0200723834370
 30
0.0000000000000000
 11
287.4851436281680
 21
137.5200723834370
 31
0.0000000000000000
  0
LINE
  5
78
100
AcDbEntity
  8
MAIN0
  6
CONTINUOUS
 62
3
100
AcDbLine
 10
259.4851436281681
 20
232.5200723834344
 30
0.0000000000000000
 11
259.4851436281680
 21
211.0200723834372
 31
0.0000000000000000
  0
LINE
  5
79
100
AcDbEntity
  8
MAIN0
  6
CONTINUOUS
 62
3
100
AcDbLine
 10
259.4851436281680
 20
159.0200723834371
 30
0.0000000000000000
 11
259.4851436281679
 21
137.5200723834371
 31
0.0000000000000000
  0
LINE
  5
7A
100
AcDbEntity
  8
MAIN0
  6
CONTINUOUS
 62
3
100
AcDbLine
 10
315.4851436281680
 20
210.5559707682970
 30
0.0000000000000000
 11
315.4851436281680
 21
232.1733756297558
 31
0.0000000000000000
  0
LINE
  5
7B
100
AcDbEntity
  8
MAIN0
  6
CONTINUOUS
 62
3
100
AcDbLine
 10
315.4851436281680
 20
135.2024018684853
 30
0.0000000000000000
 11
315.4851436281680
 21
159.4841739985733
 31
0.0000000000000000
  0
LINE
  5
7C
100
AcDbEntity
  8
MAIN0
  6
CONTINUOUS
 62
3
100
AcDbLine
 10
300.4851436281680
 20
197.7700723834370
 30
0.0000000000000000
 11
320.7351436281679
 21
197.7700723834370
 31
0.0000000000000000
  0
LINE
  5
7D
100
AcDbEntity
  8
MAIN0
  6
CONTINUOUS
 62
3
100
AcDbLine
 10
317.4851436281681
 20
197.7700723834370
 30
0.0000000000000000
 11
317.4851436281681
 21
210.0200723834370
 31
0.0000000000000000
  0
LINE
  5
7E
100
AcDbEntity
  8
MAIN0
  6
CONTINUOUS
 62
3
100
AcDbLine
 10
317.4851436281681
 20
160.0200723834370
 30
0.0000000000000000
 11
317.4851436281681
 21
172.2700723834370
 31
0.0000000000000000
  0
LINE
  5
7F
100
AcDbEntity
  8
MAIN0
  6
CONTINUOUS
 62
3
100
AcDbLine
 10
300.4851436281680
 20
201.5200723834370
 30
0.0000000000000000
 11
300.4851436281680
 21
197.7700723834370
 31
0.0000000000000000
  0
LINE
  5
80
100
AcDbEntity
  8
MAIN0
  6
CONTINUOUS
 62
3
100
AcDbLine
 10
300.4851436281679
 20
172.2700723834371
 30
0.0000000000000000
 11
300.4851436281679
 21
168.5200723834371
 31
0.0000000000000000
  0
LINE
  5
81
100
AcDbEntity
  8
MAIN0
  6
CENTER
 62
12
100
AcDbLine
 10
239.0316199528474
 20
185.0200723834370
 30
0.0000000000000000
 11
323.1676389840067
 21
185.0200723834370
 31
0.0000000000000000
  0
LINE
  5
82
100
AcDbEntity
  8
MAIN0
  6
CENTER
 62
12
100
AcDbLine
 10
271.4851436281678
 20
171.7700723834370
 30
0.0000000000000000
 11
271.4851436281678
 21
198.2700723834370
 31
0.0000000000000000
  0
LINE
  5
83
100
AcDbEntity
  8
MAIN0
  6
CONTINUOUS
 62
12
100
AcDbLine
 10
316.4851436281681
 20
197.7700723834370
 30
0.0000000000000000
 11
316.4851436281681
 21
210.2880215758688
 31
0.0000000000000000
  0
LINE
  5
84
100
AcDbEntity
  8
MAIN0
  6
CONTINUOUS
 62
12
100
AcDbLine
 10
316.4851436281681
 20
159.7521231910051
 30
0.0000000000000000
 11
316.4851436281681
 21
172.2700723834370
 31
0.0000000000000000
  0
LINE
  5
85
100
AcDbEntity
  8
MAIN0
  6
CONTINUOUS
 62
3
100
AcDbLine
 10
317.4851436281686
 20
210.0200723834362
 30
0.0000000000000000
 11
315.4851436281684
 21
210.5559707682985
 31
0.0000000000000000
  0
LINE
  5
86
100
AcDbEntity
  8
MAIN0
  6
CONTINUOUS
 62
3
100
AcDbLine
 10
317.4851436281679
 20
160.0200723834356
 30
0.0000000000000000
 11
315.4851436281678
 21
159.4841739985733
 31
0.0000000000000000
  0
LINE
  5
87
100
AcDbEntity
  8
MAIN0
  6
CONTINUOUS
 62
3
100
AcDbLine
 10
286.4851436281681
 20
202.5200723834370
 30
0.0000000000000000
 11
299.4851436281681
 21
202.5200723834370
 31
0.0000000000000000
  0
LINE
  5
88
100
AcDbEntity
  8
MAIN0
  6
CONTINUOUS
 62
3
100
AcDbLine
 10
286.4851436281681
 20
167.5200723834370
 30
0.0000000000000000
 11
299.4851436281681
 21
167.5200723834370
 31
0.0000000000000000
  0
LINE
  5
89
100
AcDbEntity
  8
MAIN0
  6
CONTINUOUS
 62
3
100
AcDbLine
 10
281.4851436281681
 20
172.5200723834369
 30
0.0000000000000000
 11
281.4851436281681
 21
197.5200723834369
 31
0.0000000000000000
  0
LINE
  5
8A
100
AcDbEntity
  8
MAIN0
  6
CONTINUOUS
 62
3
100
AcDbLine
 10
286.4851436281681
 20
202.5200723834345
 30
0.0000000000000000
 11
281.4851436281680
 21
197.5200723834344
 31
0.0000000000000000
  0
LINE
  5
8B
100
AcDbEntity
  8
MAIN0
  6
CONTINUOUS
 62
3
100
AcDbLine
 10
286.4851436281681
 20
167.5200723834345
 30
0.0000000000000000
 11
281.4851436281681
 21
172.5200723834345
 31
0.0000000000000000
  0
LINE
  5
8C
100
AcDbEntity
  8
MAIN0
  6
CONTINUOUS
 62
3
100
AcDbLine
 10
299.4851436281680
 20
167.5200723834345
 30
0.0000000000000000
 11
300.4851436281680
 21
168.5200723834345
 31
0.0000000000000000
  0
LINE
  5
8D
100
AcDbEntity
  8
MAIN0
  6
CONTINUOUS
 62
3
100
AcDbLine
 10
299.4851436281681
 20
202.5200723834344
 30
0.0000000000000000
 11
300.4851436281681
 21
201.5200723834344
 31
0.0000000000000000
  0
LINE
  5
8E
100
AcDbEntity
  8
MAIN0
  6
CONTINUOUS
 62
3
100
AcDbLine
 10
273.5058695703316
 20
188.5200723834370
 30
0.0000000000000000
 11
269.4644176860043
 21
188.5200723834370
 31
0.0000000000000000
  0
LINE
  5
8F
100
AcDbEntity
  8
MAIN0
  6
CONTINUOUS
 62
3
100
AcDbLine
 10
269.4644176860040
 20
181.5200723834370
 30
0.0000000000000000
 11
273.5058695703316
 21
181.5200723834370
 31
0.0000000000000000
  0
LINE
  5
90
100
AcDbEntity
  8
MAIN0
  6
CONTINUOUS
 62
3
100
AcDbLine
 10
275.5265955124951
 20
185.0200723834345
 30
0.0000000000000000
 11
273.5058695703315
 21
188.5200723834344
 31
0.0000000000000000
  0
LINE
  5
91
100
AcDbEntity
  8
MAIN0
  6
CONTINUOUS
 62
3
100
AcDbLine
 10
269.4644176860059
 20
188.5200723834375
 30
0.0000000000000000
 11
267.4436917438418
 21
185.0200723834369
 31
0.0000000000000000
  0
LINE
  5
92
100
AcDbEntity
  8
MAIN0
  6
CONTINUOUS
 62
3
100
AcDbLine
 10
267.4436917438404
 20
185.0200723834343
 30
0.0000000000000000
 11
269.4644176860040
 21
181.5200723834344
 31
0.0000000000000000
  0
LINE
  5
93
100
AcDbEntity
  8
MAIN0
  6
CONTINUOUS
 62
3
100
AcDbLine
 10
273.5058695703332
 20
181.5200723834373
 30
0.0000000000000000
 11
275.5265955124954
 21
185.0200723834348
 31
0.0000000000000000
  0
CIRCLE
  5
94
100
AcDbEntity
  8
MAIN0
  6
CONTINUOUS
 62
3
100
AcDbCircle
 10
271.4851436281679
 20
185.0200723834370
 30
0.0000000000000000
 40
7.500000000000000
  0
CIRCLE
  5
95
100
AcDbEntity
  8
MAIN0
  6
CONTINUOUS
 62
3
100
AcDbCircle
 10
271.4851436281679
 20
185.0200723834370
 30
0.0000000000000000
 40
2.154065922853398
  0
CIRCLE
  5
96
100
AcDbEntity
  8
MAIN0
  6
CONTINUOUS
 62
3
100
AcDbCircle
 10
271.4851436281679
 20
185.0200723834370
 30
0.0000000000000000
 40
3.299999999999997
  0
CIRCLE
  5
97
100
AcDbEntity
  8
MAIN0
  6
CONTINUOUS
 62
3
100
AcDbCircle
 10
271.4851436281679
 20
185.0200723834370
 30
0.0000000000000000
 40
0.9914283891267653
  0
LINE
  5
98
100
AcDbEntity
  8
MAIN0
  6
CONTINUOUS
 62
3
100
AcDbLine
 10
300.4851436281679
 20
201.6200723834369
 30
0.0000000000000000
 11
300.4851436281679
 21
198.7700723834313
 31
0.0000000000000000
  0
LINE
  5
99
100
AcDbEntity
  8
MAIN0
  6
CONTINUOUS
 62
3
100
AcDbLine
 10
300.4851436281679
 20
171.2700723834425
 30
0.0000000000000000
 11
300.4851436281679
 21
168.4200723834371
 31
0.0000000000000000
  0
LINE
  5
9A
100
AcDbEntity
  8
MAIN0
  6
CONTINUOUS
 62
3
100
AcDbLine
 10
285.9836717655921
 20
167.0200723834371
 30
0.0000000000000000
 11
299.0851436281679
 21
167.0200723834371
 31
0.0000000000000000
  0
LINE
  5
9B
100
AcDbEntity
  8
MAIN0
  6
CONTINUOUS
 62
3
100
AcDbLine
 10
285.9836717655913
 20
203.0200723834370
 30
0.0000000000000000
 11
299.0851436281682
 21
203.0200723834370
 31
0.0000000000000000
  0
LINE
  5
9C
100
AcDbEntity
  8
MAIN0
  6
CONTINUOUS
 62
3
100
AcDbLine
 10
281.1608795594560
 20
171.5943364521494
 30
0.0000000000000000
 11
285.5594076968803
 21
167.1958083147251
 31
0.0000000000000000
  0
LINE
  5
9D
100
AcDbEntity
  8
MAIN0
  6
CONTINUOUS
 62
3
100
AcDbLine
 10
280.9851436281679
 20
198.0215442460134
 30
0.0000000000000000
 11
280.9851436281679
 21
172.0186005208612
 31
0.0000000000000000
  0
LINE
  5
9E
100
AcDbEntity
  8
MAIN0
  6
CONTINUOUS
 62
3
100
AcDbLine
 10
285.7351436281674
 20
203.0200723834370
 30
0.0000000000000000
 11
281.1608795594559
 21
198.4458083147255
 31
0.0000000000000000
  0
ARC
  5
9F
100
AcDbEntity
  8
MAIN0
  6
CONTINUOUS
 62
3
100
AcDbCircle
 10
299.0851436281681
 20
201.6200723834369
 30
0.0000000000000000
 40
1.399999999999992
100
AcDbArc
 50
359.9999999999997
 51
449.9999999999998
  0
ARC
  5
A0
100
AcDbEntity
  8
MAIN0
  6
CONTINUOUS
 62
3
100
AcDbCircle
 10
299.0851436281679
 20
168.4200723834371
 30
0.0000000000000000
 40
1.399999999999992
100
AcDbArc
 50
269.9999999999998
 51
359.9999999999999
  0
ARC
  5
A1
100
AcDbEntity
  8
MAIN0
  6
CONTINUOUS
 62
3
100
AcDbCircle
 10
285.9836717655921
 20
167.6200723834371
 30
0.0000000000000000
 40
0.6000000000000000
100
AcDbArc
 50
225.0000000000016
 51
269.9999999999998
  0
ARC
  5
A2
100
AcDbEntity
  8
MAIN0
  6
CONTINUOUS
 62
3
100
AcDbCircle
 10
281.5851436281678
 20
172.0186005208612
 30
0.0000000000000000
 40
0.6000000000000000
100
AcDbArc
 50
179.9999999999999
 51
225.0000000000038
  0
ARC
  5
A3
100
AcDbEntity
  8
MAIN0
  6
CONTINUOUS
 62
3
100
AcDbCircle
 10
281.5851436281678
 20
198.0215442460136
 30
0.0000000000000000
 40
0.6000000000000000
100
AcDbArc
 50
134.9999999999956
 51
179.9999999999999
  0
ARC
  5
A4
100
AcDbEntity
  8
MAIN0
  6
CONTINUOUS
 62
3
100
AcDbCircle
 10
285.9836717655912
 20
202.4200723834370
 30
0.0000000000000000
 40
0.6000000000000000
100
AcDbArc
 50
89.99999999999980
 51
134.9999999999980
  0
LINE
  5
A5
100
AcDbEntity
  8
MAIN0
  6
CONTINUOUS
 62
3
100
AcDbLine
 10
311.9851436281678
 20
197.7700723834370
 30
0.0000000000000000
 11
311.9851436281678
 21
198.0700723834369
 31
0.0000000000000000
  0
LINE
  5
A6
100
AcDbEntity
  8
MAIN0
  6
CONTINUOUS
 62
3
100
AcDbLine
 10
301.1851436281623
 20
198.0700723834369
 30
0.0000000000000000
 11
311.9851436281678
 21
198.0700723834369
 31
0.0000000000000000
  0
LINE
  5
A7
100
AcDbEntity
  8
MAIN0
  6
CONTINUOUS
 62
3
100
AcDbLine
 10
301.1851436281623
 20
171.9700723834369
 30
0.0000000000000000
 11
311.9851436281678
 21
171.9700723834369
 31
0.0000000000000000
  0
LINE
  5
A8
100
AcDbEntity
  8
MAIN0
  6
CONTINUOUS
 62
3
100
AcDbLine
 10
311.9851436281678
 20
172.2700723834370
 30
0.0000000000000000
 11
311.9851436281678
 21
171.9700723834369
 31
0.0000000000000000
  0
LINE
  5
A9
100
AcDbEntity
  8
MAIN0
  6
CONTINUOUS
 62
3
100
AcDbLine
 10
300.4851436281679
 20
171.2700723834426
 30
0.0000000000000000
 11
301.1851436281623
 21
171.9700723834370
 31
0.0000000000000000
  0
LINE
  5
AA
100
AcDbEntity
  8
MAIN0
  6
CONTINUOUS
 62
3
100
AcDbLine
 10
300.4851436281678
 20
198.7700723834314
 30
0.0000000000000000
 11
301.1851436281623
 21
198.0700723834369
 31
0.0000000000000000
  0
LINE
  5
AB
100
AcDbEntity
  8
MAIN0
  6
CENTER
 62
12
100
AcDbLine
 10
435.6293531373313
 20
475.3469206503997
 30
0.0000000000000000
 11
845.5489523634460
 21
475.3469206503997
 31
0.0000000000000000
  0
LINE
  5
AC
100
AcDbEntity
  8
MAIN0
  6
CENTER
 62
12
100
AcDbLine
 10
638.9081632583368
 20
274.4945328668229
 30
0.0000000000000000
 11
638.9081632583368
 21
682.1340024248513
 31
0.0000000000000000
  0
LINE
  5
AD
100
AcDbEntity
  8
MAIN0
  6
CENTER
 62
12
100
AcDbLine
 10
722.4005743893977
 20
523.5512866922071
 30
0.0000000000000000
 11
757.9809414306947
 21
544.0936211813656
 31
0.0000000000000000
  0
LINE
  5
AE
100
AcDbEntity
  8
MAIN0
  6
CENTER
 62
12
100
AcDbLine
 10
752.4044478473024
 20
505.7581584499452
 30
0.0000000000000000
 11
775.5774605646418
 21
511.9673484937524
 31
0.0000000000000000
  0
LINE
  5
AF
100
AcDbEntity
  8
MAIN0
  6
CENTER
 62
12
100
AcDbLine
 10
699.2455689990233
 20
510.1827380969875
 30
0.0000000000000000
 11
714.5427656809214
 21
519.0145787191281
 31
0.0000000000000000
  0
LINE
  5
B0
100
AcDbEntity
  8
MAIN0
  6
CONTINUOUS
 62
3
100
AcDbLine
 10
663.9081632583368
 20
531.0969206503996
 30
0.0000000000000000
 11
663.9081632583368
 21
666.0969206503997
 31
0.0000000000000000
  0
LINE
  5
B1
100
AcDbEntity
  8
MAIN0
  6
CONTINUOUS
 62
3
100
AcDbLine
 10
613.9081632583368
 20
531.0969206503996
 30
0.0000000000000000
 11
613.9081632583368
 21
666.0969206503996
 31
0.0000000000000000
  0
LINE
  5
B2
100
AcDbEntity
  8
MAIN0
  6
CONTINUOUS
 62
3
100
AcDbLine
 10
613.9081632583368
 20
666.0969206503997
 30
0.0000000000000000
 11
663.9081632583368
 21
666.0969206503997
 31
0.0000000000000000
  0
LINE
  5
B3
100
AcDbEntity
  8
MAIN0
  6
CONTINUOUS
 62
3
100
AcDbLine
 10
613.9081632583368
 20
531.0969206503996
 30
0.0000000000000000
 11
663.9081632583368
 21
531.0969206503996
 31
0.0000000000000000
  0
LINE
  5
B4
100
AcDbEntity
  8
MAIN0
  6
CENTER
 62
12
100
AcDbLine
 10
620.1561376958091
 20
597.0969206503997
 30
0.0000000000000000
 11
657.3031985694545
 21
597.0969206503997
 31
0.0000000000000000
  0
LINE
  5
B5
100
AcDbEntity
  8
MAIN0
  6
CENTER
 62
12
100
AcDbLine
 10
619.0517621709553
 20
640.0969206503997
 30
0.0000000000000000
 11
657.9557865208556
 21
640.0969206503997
 31
0.0000000000000000
  0
LINE
  5
B6
100
AcDbEntity
  8
MAIN0
  6
CONTINUOUS
 62
3
100
AcDbLine
 10
638.9081632583374
 20
649.9118776503985
 30
0.0000000000000000
 11
630.4081632583373
 21
645.0043986503983
 31
0.0000000000000000
  0
LINE
  5
B7
100
AcDbEntity
  8
MAIN0
  6
CONTINUOUS
 62
3
100
AcDbLine
 10
630.4081632583368
 20
645.0043986503996
 30
0.0000000000000000
 11
630.4081632583368
 21
635.1894346503997
 31
0.0000000000000000
  0
LINE
  5
B8
100
AcDbEntity
  8
MAIN0
  6
CONTINUOUS
 62
3
100
AcDbLine
 10
630.4081632583391
 20
635.1894346503991
 30
0.0000000000000000
 11
638.9081632583391
 21
630.2819636503991
 31
0.0000000000000000
  0
LINE
  5
B9
100
AcDbEntity
  8
MAIN0
  6
CONTINUOUS
 62
3
100
AcDbLine
 10
638.9081632583390
 20
630.2819636503996
 30
0.0000000000000000
 11
647.4081632583377
 21
635.1894496503990
 31
0.0000000000000000
  0
LINE
  5
BA
100
AcDbEntity
  8
MAIN0
  6
CONTINUOUS
 62
3
100
AcDbLine
 10
647.4081632583368
 20
635.1894496503996
 30
0.0000000000000000
 11
647.4081632583368
 21
645.0043986503996
 31
0.0000000000000000
  0
LINE
  5
BB
100
AcDbEntity
  8
MAIN0
  6
CONTINUOUS
 62
3
100
AcDbLine
 10
647.4081632583387
 20
645.0043986503983
 30
0.0000000000000000
 11
638.9081632583387
 21
649.9118776503984
 31
0.0000000000000000
  0
LINE
  5
BC
100
AcDbEntity
  8
MAIN0
  6
CONTINUOUS
 62
3
100
AcDbLine
 10
638.9081632583363
 20
606.9118776503979
 30
0.0000000000000000
 11
630.4081632583393
 21
602.0043986503996
 31
0.0000000000000000
  0
LINE
  5
BD
100
AcDbEntity
  8
MAIN0
  6
CONTINUOUS
 62
3
100
AcDbLine
 10
630.4081632583368
 20
602.0043986503996
 30
0.0000000000000000
 11
630.4081632583368
 21
592.1894346503997
 31
0.0000000000000000
  0
LINE
  5
BE
100
AcDbEntity
  8
MAIN0
  6
CONTINUOUS
 62
3
100
AcDbLine
 10
630.4081632583394
 20
592.1894346503997
 30
0.0000000000000000
 11
638.9081632583394
 21
587.2819636503997
 31
0.0000000000000000
  0
LINE
  5
BF
100
AcDbEntity
  8
MAIN0
  6
CONTINUOUS
 62
3
100
AcDbLine
 10
638.9081632583385
 20
587.2819636503991
 30
0.0000000000000000
 11
647.4081632583373
 21
592.1894496503985
 31
0.0000000000000000
  0
LINE
  5
C0
100
AcDbEntity
  8
MAIN0
  6
CONTINUOUS
 62
3
100
AcDbLine
 10
647.4081632583368
 20
592.1894496503996
 30
0.0000000000000000
 11
647.4081632583368
 21
602.0043986503996
 31
0.0000000000000000
  0
LINE
  5
C1
100
AcDbEntity
  8
MAIN0
  6
CONTINUOUS
 62
3
100
AcDbLine
 10
647.4081632583378
 20
602.0043986503969
 30
0.0000000000000000
 11
638.9081632583377
 21
606.9118776503968
 31
0.0000000000000000
  0
LINE
  5
C2
100
AcDbEntity
  8
MAIN0
  6
CONTINUOUS
 62
3
100
AcDbLine
 10
706.0251320516303
 20
511.7875195736397
 30
0.0000000000000000
 11
708.0251320516315
 21
512.9422201120196
 31
0.0000000000000000
  0
LINE
  5
C3
100
AcDbEntity
  8
MAIN0
  6
CONTINUOUS
 62
3
100
AcDbLine
 10
706.0251320516322
 20
516.4063217271578
 30
0.0000000000000000
 11
704.0251320516309
 21
515.2516211887778
 31
0.0000000000000000
  0
LINE
  5
C4
100
AcDbEntity
  8
MAIN0
  6
CONTINUOUS
 62
3
100
AcDbLine
 10
708.0251320516329
 20
515.2516211887786
 30
0.0000000000000000
 11
708.0251320516329
 21
512.9422201120202
 31
0.0000000000000000
  0
LINE
  5
C5
100
AcDbEntity
  8
MAIN0
  6
CONTINUOUS
 62
3
100
AcDbLine
 10
704.0251320516329
 20
515.2516211887787
 30
0.0000000000000000
 11
704.0251320516329
 21
512.9422201120202
 31
0.0000000000000000
  0
LINE
  5
C6
100
AcDbEntity
  8
MAIN0
  6
CONTINUOUS
 62
3
100
AcDbLine
 10
708.0251320516309
 20
515.2516211887801
 30
0.0000000000000000
 11
706.0251320516327
 21
516.4063217271582
 31
0.0000000000000000
  0
LINE
  5
C7
100
AcDbEntity
  8
MAIN0
  6
CONTINUOUS
 62
3
100
AcDbLine
 10
706.0251320516323
 20
511.7875195736416
 30
0.0000000000000000
 11
704.0251320516311
 21
512.9422201120216
 31
0.0000000000000000
  0
LINE
  5
C8
100
AcDbEntity
  8
MAIN0
  6
CENTER
 62
12
100
AcDbLine
 10
578.5707575176537
 20
510.1827380969882
 30
0.0000000000000000
 11
563.2735608357552
 21
519.0145787191289
 31
0.0000000000000000
  0
LINE
  5
C9
100
AcDbEntity
  8
MAIN0
  6
CONTINUOUS
 62
3
100
AcDbLine
 10
573.7911944650459
 20
515.2516211887785
 30
0.0000000000000000
 11
571.7911944650458
 21
516.4063217271578
 31
0.0000000000000000
  0
LINE
  5
CA
100
AcDbEntity
  8
MAIN0
  6
CONTINUOUS
 62
3
100
AcDbLine
 10
569.7911944650458
 20
512.9422201120200
 30
0.0000000000000000
 11
571.7911944650459
 21
511.7875195736407
 31
0.0000000000000000
  0
LINE
  5
CB
100
AcDbEntity
  8
MAIN0
  6
CONTINUOUS
 62
3
100
AcDbLine
 10
569.7911944650459
 20
515.2516211887788
 30
0.0000000000000000
 11
571.7911944650458
 21
516.4063217271580
 31
0.0000000000000000
  0
LINE
  5
CC
100
AcDbEntity
  8
MAIN0
  6
CONTINUOUS
 62
3
100
AcDbLine
 10
571.7911944650457
 20
511.7875195736410
 30
0.0000000000000000
 11
573.7911944650458
 21
512.9422201120203
 31
0.0000000000000000
  0
LINE
  5
CD
100
AcDbEntity
  8
MAIN0
  6
CONTINUOUS
 62
3
100
AcDbLine
 10
569.7911944650459
 20
515.2516211887788
 30
0.0000000000000000
 11
569.7911944650459
 21
512.9422201120201
 31
0.0000000000000000
  0
LINE
  5
CE
100
AcDbEntity
  8
MAIN0
  6
CONTINUOUS
 62
3
100
AcDbLine
 10
573.7911944650459
 20
515.2516211887784
 30
0.0000000000000000
 11
573.7911944650459
 21
512.9422201120202
 31
0.0000000000000000
  0
LINE
  5
CF
100
AcDbEntity
  8
MAIN0
  6
CONTINUOUS
 62
3
100
AcDbLine
 10
669.9081632583368
 20
538.1714941698564
 30
0.0000000000000000
 11
669.9081632583368
 21
666.8469206503993
 31
0.0000000000000000
  0
LINE
  5
D0
100
AcDbEntity
  8
MAIN0
  6
CONTINUOUS
 62
3
100
AcDbLine
 10
607.9081632583368
 20
538.1714941698564
 30
0.0000000000000000
 11
607.9081632583368
 21
666.8469206503993
 31
0.0000000000000000
  0
LINE
  5
D1
100
AcDbEntity
  8
MAIN0
  6
CONTINUOUS
 62
3
100
AcDbLine
 10
607.9081632583368
 20
541.3469206503996
 30
0.0000000000000000
 11
613.9081632583368
 21
541.3469206503996
 31
0.0000000000000000
  0
LINE
  5
D2
100
AcDbEntity
  8
MAIN0
  6
CONTINUOUS
 62
3
100
AcDbLine
 10
663.9081632583368
 20
541.3469206503997
 30
0.0000000000000000
 11
669.9081632583368
 21
541.3469206503997
 31
0.0000000000000000
  0
LINE
  5
D3
100
AcDbEntity
  8
MAIN0
  6
CENTER
 62
12
100
AcDbLine
 10
540.1392057550224
 20
646.4197732567534
 30
0.0000000000000000
 11
563.3742594416951
 21
606.1754797548451
 31
0.0000000000000000
  0
LINE
  5
D4
100
AcDbEntity
  8
MAIN0
  6
HIDDEN
 62
12
100
AcDbLine
 10
561.3543156810447
 20
621.6741249767234
 30
0.0000000000000000
 11
549.2043156810447
 21
642.7185422886853
 31
0.0000000000000000
  0
LINE
  5
D5
100
AcDbEntity
  8
MAIN0
  6
HIDDEN
 62
12
100
AcDbLine
 10
550.9620108356314
 20
615.6741249767235
 30
0.0000000000000000
 11
538.8120108356314
 21
636.7185422886853
 31
0.0000000000000000
  0
LINE
  5
D6
100
AcDbEntity
  8
MAIN0
  6
HIDDEN
 62
12
100
AcDbLine
 10
548.8748928176401
 20
641.4891194252805
 30
0.0000000000000000
 11
549.4188489434250
 21
643.5191913237971
 31
0.0000000000000000
  0
LINE
  5
D7
100
AcDbEntity
  8
MAIN0
  6
HIDDEN
 62
12
100
AcDbLine
 10
538.0113618005222
 20
636.9330755510651
 30
0.0000000000000000
 11
540.0414336990390
 21
636.3891194252803
 31
0.0000000000000000
  0
LINE
  5
D8
100
AcDbEntity
  8
MAIN0
  6
HIDDEN
 62
12
100
AcDbLine
 10
563.5748928176374
 20
616.0279725540161
 30
0.0000000000000000
 11
548.8748928176374
 21
641.4891194252787
 31
0.0000000000000000
  0
LINE
  5
D9
100
AcDbEntity
  8
MAIN0
  6
HIDDEN
 62
12
100
AcDbLine
 10
554.7414336990387
 20
610.9279725540174
 30
0.0000000000000000
 11
540.0414336990386
 21
636.3891194252799
 31
0.0000000000000000
  0
LINE
  5
DA
100
AcDbEntity
  8
MAIN0
  6
HIDDEN
 62
12
100
AcDbLine
 10
561.3543156810447
 20
621.6741249767233
 30
0.0000000000000000
 11
550.9620108356314
 21
615.6741249767233
 31
0.0000000000000000
  0
LINE
  5
DB
100
AcDbEntity
  8
MAIN0
  6
HIDDEN
 62
12
100
AcDbLine
 10
563.5748928176375
 20
616.0279725540161
 30
0.0000000000000000
 11
554.7414336990387
 21
610.9279725540176
 31
0.0000000000000000
  0
LINE
  5
DC
100
AcDbEntity
  8
MAIN0
  6
HIDDEN
 62
12
100
AcDbLine
 10
560.6304064447730
 20
610.9279725540177
 30
0.0000000000000000
 11
563.5748928176403
 21
616.0279725540177
 31
0.0000000000000000
  0
LINE
  5
DD
100
AcDbEntity
  8
MAIN0
  6
HIDDEN
 62
12
100
AcDbLine
 10
560.6304064447730
 20
610.9279725540176
 30
0.0000000000000000
 11
554.7414336990389
 21
610.9279725540177
 31
0.0000000000000000
  0
LINE
  5
DE
100
AcDbEntity
  8
MAIN0
  6
HIDDEN
 62
12
100
AcDbLine
 10
548.8748928176401
 20
641.4891194252801
 30
0.0000000000000000
 11
540.0414336990383
 21
636.3891194252797
 31
0.0000000000000000
  0
LINE
  5
DF
100
AcDbEntity
  8
MAIN0
  6
CENTER
 62
12
100
AcDbLine
 10
714.3710645235508
 20
344.6413415724928
 30
0.0000000000000000
 11
734.9230489058532
 21
309.0442604259837
 31
0.0000000000000000
  0
LINE
  5
E0
100
AcDbEntity
  8
MAIN0
  6
HIDDEN
 62
12
100
AcDbLine
 10
716.4620108356299
 20
329.0197163240777
 30
0.0000000000000000
 11
728.6120108356315
 21
307.9752990121133
 31
0.0000000000000000
  0
LINE
  5
E1
100
AcDbEntity
  8
MAIN0
  6
HIDDEN
 62
12
100
AcDbLine
 10
726.8543156810428
 20
335.0197163240761
 30
0.0000000000000000
 11
739.0043156810423
 21
313.9752990121148
 31
0.0000000000000000
  0
LINE
  5
E2
100
AcDbEntity
  8
MAIN0
  6
HIDDEN
 62
12
100
AcDbLine
 10
728.9414336990360
 20
309.2047218755198
 30
0.0000000000000000
 11
728.3974775732511
 21
307.1746499770031
 31
0.0000000000000000
  0
LINE
  5
E3
100
AcDbEntity
  8
MAIN0
  6
HIDDEN
 62
12
100
AcDbLine
 10
739.8049647161547
 20
313.7607657497351
 30
0.0000000000000000
 11
737.7748928176366
 21
314.3047218755202
 31
0.0000000000000000
  0
LINE
  5
E4
100
AcDbEntity
  8
MAIN0
  6
HIDDEN
 62
12
100
AcDbLine
 10
714.2414336990339
 20
334.6658687467827
 30
0.0000000000000000
 11
728.9414336990346
 21
309.2047218755189
 31
0.0000000000000000
  0
LINE
  5
E5
100
AcDbEntity
  8
MAIN0
  6
HIDDEN
 62
12
100
AcDbLine
 10
723.0748928176359
 20
339.7658687467835
 30
0.0000000000000000
 11
737.7748928176367
 21
314.3047218755198
 31
0.0000000000000000
  0
LINE
  5
E6
100
AcDbEntity
  8
MAIN0
  6
HIDDEN
 62
12
100
AcDbLine
 10
716.4620108356291
 20
329.0197163240754
 30
0.0000000000000000
 11
726.8543156810424
 21
335.0197163240753
 31
0.0000000000000000
  0
LINE
  5
E7
100
AcDbEntity
  8
MAIN0
  6
HIDDEN
 62
12
100
AcDbLine
 10
714.2414336990369
 20
334.6658687467839
 30
0.0000000000000000
 11
723.0748928176356
 21
339.7658687467824
 31
0.0000000000000000
  0
LINE
  5
E8
100
AcDbEntity
  8
MAIN0
  6
HIDDEN
 62
12
100
AcDbLine
 10
717.1859200719050
 20
339.7658687467823
 30
0.0000000000000000
 11
714.2414336990377
 21
334.6658687467822
 31
0.0000000000000000
  0
LINE
  5
E9
100
AcDbEntity
  8
MAIN0
  6
HIDDEN
 62
12
100
AcDbLine
 10
717.1859200719028
 20
339.7658687467817
 30
0.0000000000000000
 11
723.0748928176382
 21
339.7658687467816
 31
0.0000000000000000
  0
LINE
  5
EA
100
AcDbEntity
  8
MAIN0
  6
HIDDEN
 62
12
100
AcDbLine
 10
728.9414336990360
 20
309.2047218755204
 30
0.0000000000000000
 11
737.7748928176378
 21
314.3047218755208
 31
0.0000000000000000
  0
LINE
  5
EB
100
AcDbEntity
  8
MAIN0
  6
CONTINUOUS
 62
3
100
AcDbLine
 10
607.9081632583369
 20
552.8469206503996
 30
0.0000000000000000
 11
613.9081632583369
 21
552.8469206503996
 31
0.0000000000000000
  0
LINE
  5
EC
100
AcDbEntity
  8
MAIN0
  6
CONTINUOUS
 62
3
100
AcDbLine
 10
663.9081632583367
 20
552.8469206503997
 30
0.0000000000000000
 11
669.9081632583367
 21
552.8469206503997
 31
0.0000000000000000
  0
LINE
  5
ED
100
AcDbEntity
  8
MAIN0
  6
CONTINUOUS
 62
3
100
AcDbLine
 10
607.9081632583368
 20
538.1714941698565
 30
0.0000000000000000
 11
613.9081632583368
 21
538.1714941698564
 31
0.0000000000000000
  0
LINE
  5
EE
100
AcDbEntity
  8
MAIN0
  6
CONTINUOUS
 62
3
100
AcDbLine
 10
663.9081632583367
 20
538.1714941698565
 30
0.0000000000000000
 11
669.9081632583367
 21
538.1714941698565
 31
0.0000000000000000
  0
LINE
  5
EF
100
AcDbEntity
  8
MAIN0
  6
CONTINUOUS
 62
3
100
AcDbLine
 10
626.1581632583379
 20
397.8469206503988
 30
0.0000000000000000
 11
626.1581632583378
 21
283.8469206503987
 31
0.0000000000000000
  0
LINE
  5
F0
100
AcDbEntity
  8
MAIN0
  6
CONTINUOUS
 62
3
100
AcDbLine
 10
651.6581632583379
 20
397.8469206503987
 30
0.0000000000000000
 11
651.6581632583378
 21
283.8469206503987
 31
0.0000000000000000
  0
LINE
  5
F1
100
AcDbEntity
  8
MAIN0
  6
CONTINUOUS
 62
3
100
AcDbLine
 10
669.9081632583379
 20
412.5223471309413
 30
0.0000000000000000
 11
669.9081632583379
 21
283.8469206503991
 31
0.0000000000000000
  0
LINE
  5
F2
100
AcDbEntity
  8
MAIN0
  6
CONTINUOUS
 62
3
100
AcDbLine
 10
607.9081632583368
 20
409.3469206503972
 30
0.0000000000000000
 11
669.9081632583382
 21
409.3469206503982
 31
0.0000000000000000
  0
LINE
  5
F3
100
AcDbEntity
  8
MAIN0
  6
CONTINUOUS
 62
3
100
AcDbLine
 10
607.9081632583357
 20
412.5223471309399
 30
0.0000000000000000
 11
669.9081632583383
 21
412.5223471309411
 31
0.0000000000000000
  0
LINE
  5
F4
100
AcDbEntity
  8
MAIN0
  6
CENTER
 62
12
100
AcDbLine
 10
653.7294863925754
 20
353.8469206503991
 30
0.0000000000000000
 11
622.8363191481925
 21
353.8469206503991
 31
0.0000000000000000
  0
LINE
  5
F5
100
AcDbEntity
  8
MAIN0
  6
CENTER
 62
12
100
AcDbLine
 10
654.7886827289186
 20
310.8469206503992
 30
0.0000000000000000
 11
622.9372171078531
 21
310.8469206503992
 31
0.0000000000000000
  0
LINE
  5
F6
100
AcDbEntity
  8
MAIN0
  6
CONTINUOUS
 62
3
100
AcDbLine
 10
607.6581632583368
 20
666.8469206503994
 30
0.0000000000000000
 11
670.1581632583368
 21
666.8469206503994
 31
0.0000000000000000
  0
LINE
  5
F7
100
AcDbEntity
  8
MAIN0
  6
CONTINUOUS
 62
3
100
AcDbLine
 10
670.1581632583359
 20
666.8469206503993
 30
0.0000000000000000
 11
686.4081632583370
 21
662.4927462733932
 31
0.0000000000000000
  0
LINE
  5
F8
100
AcDbEntity
  8
MAIN0
  6
CONTINUOUS
 62
3
100
AcDbLine
 10
686.4081632583368
 20
659.8299822034863
 30
0.0000000000000000
 11
686.4081632583368
 21
662.4927462733937
 31
0.0000000000000000
  0
LINE
  5
F9
100
AcDbEntity
  8
MAIN0
  6
CONTINUOUS
 62
3
100
AcDbLine
 10
607.6581632583373
 20
666.8469206503989
 30
0.0000000000000000
 11
591.4081632583361
 21
662.4927462733928
 31
0.0000000000000000
  0
LINE
  5
FA
100
AcDbEntity
  8
MAIN0
  6
CONTINUOUS
 62
3
100
AcDbLine
 10
591.4081632583368
 20
659.8299822034863
 30
0.0000000000000000
 11
591.4081632583368
 21
662.4927462733937
 31
0.0000000000000000
  0
LINE
  5
FB
100
AcDbEntity
  8
MAIN0
  6
CONTINUOUS
 62
3
100
AcDbLine
 10
670.1581632583384
 20
283.8469206503991
 30
0.0000000000000000
 11
607.6581632583381
 21
283.8469206503991
 31
0.0000000000000000
  0
LINE
  5
FC
100
AcDbEntity
  8
MAIN0
  6
CONTINUOUS
 62
3
100
AcDbLine
 10
607.6581632583384
 20
283.8469206503991
 30
0.0000000000000000
 11
591.4081632583385
 21
288.2010950274048
 31
0.0000000000000000
  0
LINE
  5
FD
100
AcDbEntity
  8
MAIN0
  6
CONTINUOUS
 62
3
100
AcDbLine
 10
591.4081632583383
 20
290.8638590973138
 30
0.0000000000000000
 11
591.4081632583383
 21
288.2010950274058
 31
0.0000000000000000
  0
LINE
  5
FE
100
AcDbEntity
  8
MAIN0
  6
CONTINUOUS
 62
3
100
AcDbLine
 10
670.1581632583382
 20
283.8469206503984
 30
0.0000000000000000
 11
686.4081632583381
 21
288.2010950274042
 31
0.0000000000000000
  0
LINE
  5
FF
100
AcDbEntity
  8
MAIN0
  6
CONTINUOUS
 62
3
100
AcDbLine
 10
686.4081632583383
 20
290.8638590973121
 30
0.0000000000000000
 11
686.4081632583383
 21
288.2010950274041
 31
0.0000000000000000
  0
LINE
  5
100
100
AcDbEntity
  8
MAIN0
  6
CONTINUOUS
 62
3
100
AcDbLine
 10
669.9081632583383
 20
397.8469206503976
 30
0.0000000000000000
 11
651.6581632583381
 21
397.8469206503974
 31
0.0000000000000000
  0
LINE
  5
101
100
AcDbEntity
  8
MAIN0
  6
CONTINUOUS
 62
3
100
AcDbLine
 10
626.1581632583379
 20
397.8469206504004
 30
0.0000000000000000
 11
607.9081632583361
 21
397.8469206504002
 31
0.0000000000000000
  0
LINE
  5
102
100
AcDbEntity
  8
MAIN0
  6
CENTER
 62
12
100
AcDbLine
 10
602.4845680864503
 20
339.4122128745961
 30
0.0000000000000000
 11
608.6427514691862
 21
362.3948661412929
 31
0.0000000000000000
  0
LINE
  5
103
100
AcDbEntity
  8
MAIN0
  6
CONTINUOUS
 62
3
100
AcDbLine
 10
663.9081632583378
 20
397.8469206503991
 30
0.0000000000000000
 11
663.9081632583379
 21
283.8469206503991
 31
0.0000000000000000
  0
LINE
  5
104
100
AcDbEntity
  8
MAIN0
  6
CONTINUOUS
 62
3
100
AcDbLine
 10
613.9081632583381
 20
397.8469206503989
 30
0.0000000000000000
 11
613.9081632583379
 21
283.8469206503989
 31
0.0000000000000000
  0
ARC
  5
105
100
AcDbEntity
  8
MAIN0
  6
CENTER
 62
12
100
AcDbCircle
 10
638.9081632583368
 20
475.3469206503997
 30
0.0000000000000000
 40
117.4999999999999
100
AcDbArc
 50
318.2806804085747
 51
401.0394009214999
  0
CIRCLE
  5
106
100
AcDbEntity
  8
MAIN0
  6
CONTINUOUS
 62
3
100
AcDbCircle
 10
740.6661482030088
 20
534.0969206503997
 30
0.0000000000000000
 40
10.50000000000000
  0
CIRCLE
  5
107
100
AcDbEntity
  8
MAIN0
  6
CONTINUOUS
 62
3
100
AcDbCircle
 10
740.6661482030088
 20
534.0969206503997
 30
0.0000000000000000
 40
16.00000000000000
  0
CIRCLE
  5
108
100
AcDbEntity
  8
MAIN0
  6
CONTINUOUS
 62
3
100
AcDbCircle
 10
756.4081632583389
 20
475.3469206503989
 30
0.0000000000000000
 40
10.50000000000000
  0
CIRCLE
  5
109
100
AcDbEntity
  8
MAIN0
  6
CONTINUOUS
 62
3
100
AcDbCircle
 10
756.4081632583389
 20
475.3469206503989
 30
0.0000000000000000
 40
16.00000000000000
  0
ARC
  5
10A
100
AcDbEntity
  8
MAIN0
  6
CENTER
 62
12
100
AcDbCircle
 10
638.9081632583368
 20
475.3469206503997
 30
0.0000000000000000
 40
117.4999999999999
100
AcDbArc
 50
122.1747943458312
 51
220.3821552237288
  0
CIRCLE
  5
10B
100
AcDbEntity
  8
MAIN0
  6
CONTINUOUS
 62
3
100
AcDbCircle
 10
638.9081632583368
 20
640.0969206503996
 30
0.0000000000000000
 40
15.00000000000000
  0
CIRCLE
  5
10C
100
AcDbEntity
  8
MAIN0
  6
CONTINUOUS
 62
3
100
AcDbCircle
 10
638.9081632583368
 20
597.0969206503996
 30
0.0000000000000000
 40
15.00000000000000
  0
CIRCLE
  5
10D
100
AcDbEntity
  8
MAIN0
  6
CONTINUOUS
 62
3
100
AcDbCircle
 10
638.9081632583368
 20
640.0969206503996
 30
0.0000000000000000
 40
16.00000000000000
  0
CIRCLE
  5
10E
100
AcDbEntity
  8
MAIN0
  6
CONTINUOUS
 62
3
100
AcDbCircle
 10
638.9081632583368
 20
597.0969206503996
 30
0.0000000000000000
 40
16.00000000000000
  0
ARC
  5
10F
100
AcDbEntity
  8
MAIN0
  6
CENTER
 62
12
100
AcDbCircle
 10
638.9081632583368
 20
475.3469206503997
 30
0.0000000000000000
 40
77.49999999999994
100
AcDbArc
 50
23.93247965468179
 51
36.89583251851474
  0
CIRCLE
  5
110
100
AcDbEntity
  8
MAIN0
  6
CONTINUOUS
 62
3
100
AcDbCircle
 10
706.0251320516329
 20
514.0969206503997
 30
0.0000000000000000
 40
5.499999999999996
  0
ARC
  5
111
100
AcDbEntity
  8
MAIN0
  6
CENTER
 62
12
100
AcDbCircle
 10
638.9081632583368
 20
475.3469206503997
 30
0.0000000000000000
 40
77.49999999999994
100
AcDbArc
 50
143.9324796546816
 51
156.8958325185146
  0
CIRCLE
  5
112
100
AcDbEntity
  8
MAIN0
  6
CONTINUOUS
 62
3
100
AcDbCircle
 10
571.7911944650455
 20
514.0969206503995
 30
0.0000000000000000
 40
5.499999999999996
  0
ARC
  5
113
100
AcDbEntity
  8
MAIN0
  6
CONTINUOUS
 62
3
100
AcDbCircle
 10
638.9081632583368
 20
475.3469206503997
 30
0.0000000000000000
 40
84.99999999999994
100
AcDbArc
 50
111.3894833261843
 51
248.6105166738159
  0
ARC
  5
114
100
AcDbEntity
  8
MAIN0
  6
CONTINUOUS
 62
3
100
AcDbCircle
 10
638.9081632583368
 20
475.3469206503997
 30
0.0000000000000000
 40
84.99999999999994
100
AcDbArc
 50
291.3894833261857
 51
428.6105166738149
  0
CIRCLE
  5
115
100
AcDbEntity
  8
MAIN0
  6
CONTINUOUS
 62
12
100
AcDbCircle
 10
638.9081632583377
 20
310.8469206503982
 30
0.0000000000000000
 40
9.999999999999998
  0
CIRCLE
  5
116
100
AcDbEntity
  8
MAIN0
  6
CONTINUOUS
 62
3
100
AcDbCircle
 10
638.9081632583377
 20
310.8469206503982
 30
0.0000000000000000
 40
8.749999999999996
  0
CIRCLE
  5
117
100
AcDbEntity
  8
MAIN0
  6
CONTINUOUS
 62
12
100
AcDbCircle
 10
638.9081632583373
 20
353.8469206503991
 30
0.0000000000000000
 40
9.999999999999998
  0
CIRCLE
  5
118
100
AcDbEntity
  8
MAIN0
  6
CONTINUOUS
 62
3
100
AcDbCircle
 10
638.9081632583373
 20
353.8469206503991
 30
0.0000000000000000
 40
8.749999999999996
  0
ARC
  5
119
100
AcDbEntity
  8
MAIN0
  6
CONTINUOUS
 62
3
100
AcDbCircle
 10
638.9081632583377
 20
310.8469206503982
 30
0.0000000000000000
 40
18.99999999999977
100
AcDbArc
 50
227.8516405174903
 51
312.1483594825093
  0
ARC
  5
11A
100
AcDbEntity
  8
MAIN0
  6
CONTINUOUS
 62
3
100
AcDbCircle
 10
638.9081632583368
 20
475.3469206503997
 30
0.0000000000000000
 40
145.0000000000000
100
AcDbArc
 50
282.3447309729003
 51
437.6552690271000
  0
ARC
  5
11B
100
AcDbEntity
  8
MAIN0
  6
CONTINUOUS
 62
3
100
AcDbCircle
 10
638.9081632583368
 20
475.3469206503997
 30
0.0000000000000000
 40
124.9999999999999
100
AcDbArc
 50
36.68557082847572
 51
75.64080600830197
  0
ARC
  5
11C
100
AcDbEntity
  8
MAIN0
  6
CONTINUOUS
 62
3
100
AcDbCircle
 10
638.9081632583368
 20
475.3469206503997
 30
0.0000000000000000
 40
105.0000000000000
100
AcDbArc
 50
35.15361433137908
 51
72.82818485077451
  0
ARC
  5
11D
100
AcDbEntity
  8
MAIN0
  6
CONTINUOUS
 62
3
100
AcDbCircle
 10
638.9081632583368
 20
475.3469206503997
 30
0.0000000000000000
 40
105.0000000000000
100
AcDbArc
 50
107.1718151492249
 51
129.8463856686202
  0
ARC
  5
11E
100
AcDbEntity
  8
MAIN0
  6
CONTINUOUS
 62
3
100
AcDbCircle
 10
638.9081632583368
 20
475.3469206503997
 30
0.0000000000000000
 40
124.9999999999999
100
AcDbArc
 50
104.3591939916974
 51
143.3144291715243
  0
ARC
  5
11F
100
AcDbEntity
  8
MAIN0
  6
CONTINUOUS
 62
3
100
AcDbCircle
 10
638.9081632583368
 20
475.3469206503997
 30
0.0000000000000000
 40
145.0000000000000
100
AcDbArc
 50
102.3447309728996
 51
222.3447309728994
  0
ARC
  5
120
100
AcDbEntity
  8
MAIN0
  6
CONTINUOUS
 62
3
100
AcDbCircle
 10
638.9081632583368
 20
475.3469206503997
 30
0.0000000000000000
 40
124.9999999999999
100
AcDbArc
 50
6.685570828475695
 51
23.31442917152439
  0
ARC
  5
121
100
AcDbEntity
  8
MAIN0
  6
CONTINUOUS
 62
3
100
AcDbCircle
 10
638.9081632583368
 20
475.3469206503997
 30
0.0000000000000000
 40
105.0000000000000
100
AcDbArc
 50
5.153614331379432
 51
24.84638566862066
  0
ARC
  5
122
100
AcDbEntity
  8
MAIN0
  6
CONTINUOUS
 62
3
100
AcDbCircle
 10
638.9081632583368
 20
475.3469206503997
 30
0.0000000000000000
 40
105.0000000000000
100
AcDbArc
 50
107.1718151492249
 51
144.8463856686210
  0
ARC
  5
123
100
AcDbEntity
  8
MAIN0
  6
CONTINUOUS
 62
3
100
AcDbCircle
 10
638.9081632583368
 20
475.3469206503997
 30
0.0000000000000000
 40
105.0000000000000
100
AcDbArc
 50
215.1536143313790
 51
252.8281848507755
  0
ARC
  5
124
100
AcDbEntity
  8
MAIN0
  6
CONTINUOUS
 62
3
100
AcDbCircle
 10
638.9081632583368
 20
475.3469206503997
 30
0.0000000000000000
 40
124.9999999999999
100
AcDbArc
 50
216.6855708284757
 51
255.6408060083026
  0
ARC
  5
125
100
AcDbEntity
  8
MAIN0
  6
CONTINUOUS
 62
3
100
AcDbCircle
 10
638.9081632583377
 20
310.8469206503982
 30
0.0000000000000000
 40
21.00000000000000
100
AcDbArc
 50
52.61680158213497
 51
127.3831984178648
  0
ARC
  5
126
100
AcDbEntity
  8
MAIN0
  6
CONTINUOUS
 62
3
100
AcDbCircle
 10
638.9081632583373
 20
353.8469206503991
 30
0.0000000000000000
 40
21.00000000000000
100
AcDbArc
 50
52.61680158213497
 51
127.3831984178648
  0
ARC
  5
127
100
AcDbEntity
  8
MAIN0
  6
CONTINUOUS
 62
3
100
AcDbCircle
 10
638.9081632583373
 20
353.8469206503991
 30
0.0000000000000000
 40
21.00000000000000
100
AcDbArc
 50
232.6168015821348
 51
307.3831984178646
  0
ARC
  5
128
100
AcDbEntity
  8
MAIN0
  6
CONTINUOUS
 62
3
100
AcDbCircle
 10
638.9081632583368
 20
475.3469206503997
 30
0.0000000000000000
 40
190.5000000000000
100
AcDbArc
 50
99.36537104411609
 51
260.6346289558840
  0
ARC
  5
129
100
AcDbEntity
  8
MAIN0
  6
CONTINUOUS
 62
3
100
AcDbCircle
 10
638.9081632583368
 20
475.3469206503997
 30
0.0000000000000000
 40
190.5000000000000
100
AcDbArc
 50
279.3653710441167
 51
440.6346289558835
  0
ARC
  5
12A
100
AcDbEntity
  8
MAIN0
  6
CONTINUOUS
 62
12
100
AcDbCircle
 10
638.9081632583368
 20
475.3469206503997
 30
0.0000000000000000
 40
194.0330190972657
100
AcDbArc
 50
249.0507218585182
 51
260.3239244284624
  0
CIRCLE
  5
12B
100
AcDbEntity
  8
MAIN0
  6
HIDDEN
 62
12
100
AcDbCircle
 10
764.4785206759157
 20
508.9933965137274
 30
0.0000000000000000
 40
4.999999999999996
  0
CIRCLE
  5
12C
100
AcDbEntity
  8
MAIN0
  6
HIDDEN
 62
12
100
AcDbCircle
 10
764.4785206759157
 20
508.9933965137274
 30
0.0000000000000000
 40
4.249999999999996
  0
CIRCLE
  5
12D
100
AcDbEntity
  8
MAIN0
  6
HIDDEN
 62
12
100
AcDbCircle
 10
546.9842817040883
 20
567.2708022046517
 30
0.0000000000000000
 40
4.999999999999996
  0
CIRCLE
  5
12E
100
AcDbEntity
  8
MAIN0
  6
HIDDEN
 62
12
100
AcDbCircle
 10
546.9842817040883
 20
567.2708022046517
 30
0.0000000000000000
 40
4.249999999999996
  0
CIRCLE
  5
12F
100
AcDbEntity
  8
MAIN0
  6
HIDDEN
 62
12
100
AcDbCircle
 10
605.2616873950117
 20
349.7765632328216
 30
0.0000000000000000
 40
4.999999999999996
  0
CIRCLE
  5
130
100
AcDbEntity
  8
MAIN0
  6
HIDDEN
 62
12
100
AcDbCircle
 10
605.2616873950117
 20
349.7765632328216
 30
0.0000000000000000
 40
4.249999999999996
  0
ARC
  5
131
100
AcDbEntity
  8
MAIN0
  6
CENTER
 62
12
100
AcDbCircle
 10
638.9081632583368
 20
475.3469206503997
 30
0.0000000000000000
 40
130.0000000000000
100
AcDbArc
 50
130.9502128294803
 51
139.4701397148397
  0
ARC
  5
132
100
AcDbEntity
  8
MAIN0
  6
CENTER
 62
12
100
AcDbCircle
 10
638.9081632583368
 20
475.3469206503997
 30
0.0000000000000000
 40
130.0000000000000
100
AcDbArc
 50
250.7378310480255
 51
258.5784207126631
  0
ARC
  5
133
100
AcDbEntity
  8
MAIN0
  6
CENTER
 62
12
100
AcDbCircle
 10
638.9081632583368
 20
475.3469206503997
 30
0.0000000000000000
 40
130.0000000000000
100
AcDbArc
 50
9.397355141962022
 51
18.61134879249504
  0
LINE
  5
134
100
AcDbEntity
  8
MAIN0
  6
HIDDEN
 62
3
100
AcDbLine
 10
656.9081632583379
 20
283.8469206503991
 30
0.0000000000000000
 11
656.9081632583379
 21
383.3469206503991
 31
0.0000000000000000
  0
LINE
  5
135
100
AcDbEntity
  8
MAIN0
  6
HIDDEN
 62
3
100
AcDbLine
 10
620.9081632583379
 20
283.8469206503991
 30
0.0000000000000000
 11
620.9081632583379
 21
383.3469206503991
 31
0.0000000000000000
  0
LINE
  5
136
100
AcDbEntity
  8
MAIN0
  6
HIDDEN
 62
3
100
AcDbLine
 10
651.9581632583379
 20
283.8469206503991
 30
0.0000000000000000
 11
651.9581632583379
 21
390.2969206503990
 31
0.0000000000000000
  0
LINE
  5
137
100
AcDbEntity
  8
MAIN0
  6
HIDDEN
 62
3
100
AcDbLine
 10
625.8581632583380
 20
283.8469206503991
 30
0.0000000000000000
 11
625.8581632583380
 21
390.2969206503990
 31
0.0000000000000000
  0
ARC
  5
138
100
AcDbEntity
  8
MAIN0
  6
HIDDEN
 62
3
100
AcDbCircle
 10
638.9081632583379
 20
383.3469206503991
 30
0.0000000000000000
 40
17.99999999999998
100
AcDbArc
 50
5.088887490341627e-014
 51
44.90052796068927
  0
ARC
  5
139
100
AcDbEntity
  8
MAIN0
  6
HIDDEN
 62
3
100
AcDbCircle
 10
638.9081632583379
 20
390.2969206503989
 30
0.0000000000000000
 40
13.04999999999999
100
AcDbArc
 50
2.035554996136651e-013
 51
12.30916270598288
  0
ARC
  5
13A
100
AcDbEntity
  8
MAIN0
  6
CONTINUOUS
 62
3
100
AcDbCircle
 10
638.9081632583379
 20
390.2969206503989
 30
0.0000000000000000
 40
13.04999999999999
100
AcDbArc
 50
12.30916270598288
 51
167.6908372940192
  0
ARC
  5
13B
100
AcDbEntity
  8
MAIN0
  6
HIDDEN
 62
3
100
AcDbCircle
 10
638.9081632583379
 20
390.2969206503989
 30
0.0000000000000000
 40
13.04999999999999
100
AcDbArc
 50
167.6908372940192
 51
180.0000000000001
  0
ARC
  5
13C
100
AcDbEntity
  8
MAIN0
  6
CONTINUOUS
 62
3
100
AcDbCircle
 10
638.9081632583379
 20
383.3469206503991
 30
0.0000000000000000
 40
17.99999999999998
100
AcDbArc
 50
44.90052796068927
 51
135.0994720393114
  0
ARC
  5
13D
100
AcDbEntity
  8
MAIN0
  6
HIDDEN
 62
3
100
AcDbCircle
 10
638.9081632583379
 20
383.3469206503991
 30
0.0000000000000000
 40
17.99999999999998
100
AcDbArc
 50
135.0994720393114
 51
180.0000000000000
  0
CIRCLE
  5
13E
100
AcDbEntity
  8
MAIN0
  6
CONTINUOUS
 62
3
100
AcDbCircle
 10
740.6661482030088
 20
416.5969206503997
 30
0.0000000000000000
 40
16.00000000000000
  0
CIRCLE
  5
13F
100
AcDbEntity
  8
MAIN0
  6
CONTINUOUS
 62
3
100
AcDbCircle
 10
740.6661482030088
 20
416.5969206503997
 30
0.0000000000000000
 40
10.50000000000000
  0
LINE
  5
140
100
AcDbEntity
  8
MAIN0
  6
CENTER
 62
12
100
AcDbLine
 10
722.4005743893977
 20
427.1425546085923
 30
0.0000000000000000
 11
757.9809414306947
 21
406.6002201194338
 31
0.0000000000000000
  0
ARC
  5
141
100
AcDbEntity
  8
MAIN0
  6
CONTINUOUS
 62
3
100
AcDbCircle
 10
638.9081632583368
 20
475.3469206503997
 30
0.0000000000000000
 40
124.9999999999999
100
AcDbArc
 50
284.3591939916984
 51
323.3144291715243
  0
ARC
  5
142
100
AcDbEntity
  8
MAIN0
  6
CONTINUOUS
 62
3
100
AcDbCircle
 10
638.9081632583368
 20
475.3469206503997
 30
0.0000000000000000
 40
124.9999999999999
100
AcDbArc
 50
336.6855708284759
 51
353.3144291715242
  0
ARC
  5
143
100
AcDbEntity
  8
MAIN0
  6
CONTINUOUS
 62
3
100
AcDbCircle
 10
638.9081632583368
 20
475.3469206503997
 30
0.0000000000000000
 40
105.0000000000000
100
AcDbArc
 50
287.1718151492258
 51
324.8463856686209
  0
ARC
  5
144
100
AcDbEntity
  8
MAIN0
  6
CONTINUOUS
 62
3
100
AcDbCircle
 10
638.9081632583368
 20
475.3469206503997
 30
0.0000000000000000
 40
105.0000000000000
100
AcDbArc
 50
335.1536143313793
 51
354.8463856686204
  0
CIRCLE
  5
145
100
AcDbEntity
  8
MAIN0
  6
CONTINUOUS
 62
3
100
AcDbCircle
 10
537.1501783136648
 20
416.5969206503997
 30
0.0000000000000000
 40
10.50000000000000
  0
CIRCLE
  5
146
100
AcDbEntity
  8
MAIN0
  6
CONTINUOUS
 62
3
100
AcDbCircle
 10
537.1501783136648
 20
416.5969206503997
 30
0.0000000000000000
 40
16.00000000000000
  0
LINE
  5
147
100
AcDbEntity
  8
MAIN0
  6
CENTER
 62
12
100
AcDbLine
 10
555.4157521272759
 20
427.1425546085925
 30
0.0000000000000000
 11
519.8353850859789
 21
406.6002201194340
 31
0.0000000000000000
  0
CIRCLE
  5
148
100
AcDbEntity
  8
MAIN0
  6
CONTINUOUS
 62
3
100
AcDbCircle
 10
521.4081632583346
 20
475.3469206503989
 30
0.0000000000000000
 40
10.50000000000000
  0
CIRCLE
  5
149
100
AcDbEntity
  8
MAIN0
  6
CONTINUOUS
 62
3
100
AcDbCircle
 10
521.4081632583346
 20
475.3469206503989
 30
0.0000000000000000
 40
16.00000000000000
  0
CIRCLE
  5
14A
100
AcDbEntity
  8
MAIN0
  6
CONTINUOUS
 62
3
100
AcDbCircle
 10
537.1501783136648
 20
534.0969206503997
 30
0.0000000000000000
 40
10.50000000000000
  0
CIRCLE
  5
14B
100
AcDbEntity
  8
MAIN0
  6
CONTINUOUS
 62
3
100
AcDbCircle
 10
537.1501783136648
 20
534.0969206503997
 30
0.0000000000000000
 40
16.00000000000000
  0
LINE
  5
14C
100
AcDbEntity
  8
MAIN0
  6
CENTER
 62
12
100
AcDbLine
 10
555.4157521272758
 20
523.5512866922070
 30
0.0000000000000000
 11
519.8353850859788
 21
544.0936211813655
 31
0.0000000000000000
  0
ARC
  5
14D
100
AcDbEntity
  8
MAIN0
  6
CONTINUOUS
 62
3
100
AcDbCircle
 10
638.9081632583367
 20
475.3469206503997
 30
0.0000000000000000
 40
124.9999999999999
100
AcDbArc
 50
186.6855708284759
 51
203.3144291715241
  0
ARC
  5
14E
100
AcDbEntity
  8
MAIN0
  6
CONTINUOUS
 62
3
100
AcDbCircle
 10
638.9081632583367
 20
475.3469206503997
 30
0.0000000000000000
 40
105.0000000000000
100
AcDbArc
 50
185.1536143313796
 51
204.8463856686208
  0
ARC
  5
14F
100
AcDbEntity
  8
MAIN0
  6
CONTINUOUS
 62
3
100
AcDbCircle
 10
638.9081632583367
 20
475.3469206503997
 30
0.0000000000000000
 40
105.0000000000000
100
AcDbArc
 50
155.1536143313793
 51
174.8463856686206
  0
ARC
  5
150
100
AcDbEntity
  8
MAIN0
  6
CONTINUOUS
 62
3
100
AcDbCircle
 10
638.9081632583367
 20
475.3469206503997
 30
0.0000000000000000
 40
124.9999999999999
100
AcDbArc
 50
156.6855708284756
 51
173.3144291715243
  0
LINE
  5
151
100
AcDbEntity
  8
MAIN0
  6
CENTER
 62
12
100
AcDbLine
 10
699.2455689990234
 20
440.5111032038120
 30
0.0000000000000000
 11
714.5427656809216
 21
431.6792625816714
 31
0.0000000000000000
  0
LINE
  5
152
100
AcDbEntity
  8
MAIN0
  6
CONTINUOUS
 62
3
100
AcDbLine
 10
706.0251320516303
 20
438.9063217271597
 30
0.0000000000000000
 11
708.0251320516315
 21
437.7516211887797
 31
0.0000000000000000
  0
LINE
  5
153
100
AcDbEntity
  8
MAIN0
  6
CONTINUOUS
 62
3
100
AcDbLine
 10
706.0251320516322
 20
434.2875195736417
 30
0.0000000000000000
 11
704.0251320516310
 21
435.4422201120217
 31
0.0000000000000000
  0
LINE
  5
154
100
AcDbEntity
  8
MAIN0
  6
CONTINUOUS
 62
3
100
AcDbLine
 10
708.0251320516329
 20
435.4422201120209
 30
0.0000000000000000
 11
708.0251320516329
 21
437.7516211887793
 31
0.0000000000000000
  0
LINE
  5
155
100
AcDbEntity
  8
MAIN0
  6
CONTINUOUS
 62
3
100
AcDbLine
 10
704.0251320516329
 20
435.4422201120207
 30
0.0000000000000000
 11
704.0251320516329
 21
437.7516211887793
 31
0.0000000000000000
  0
LINE
  5
156
100
AcDbEntity
  8
MAIN0
  6
CONTINUOUS
 62
3
100
AcDbLine
 10
708.0251320516308
 20
435.4422201120194
 30
0.0000000000000000
 11
706.0251320516327
 21
434.2875195736412
 31
0.0000000000000000
  0
LINE
  5
157
100
AcDbEntity
  8
MAIN0
  6
CONTINUOUS
 62
3
100
AcDbLine
 10
706.0251320516325
 20
438.9063217271579
 30
0.0000000000000000
 11
704.0251320516311
 21
437.7516211887780
 31
0.0000000000000000
  0
ARC
  5
158
100
AcDbEntity
  8
MAIN0
  6
CENTER
 62
12
100
AcDbCircle
 10
638.9081632583368
 20
475.3469206503997
 30
0.0000000000000000
 40
77.49999999999994
100
AcDbArc
 50
323.1041674814853
 51
336.0675203453181
  0
CIRCLE
  5
159
100
AcDbEntity
  8
MAIN0
  6
CONTINUOUS
 62
3
100
AcDbCircle
 10
706.0251320516329
 20
436.5969206503997
 30
0.0000000000000000
 40
5.499999999999996
  0
LINE
  5
15A
100
AcDbEntity
  8
MAIN0
  6
CENTER
 62
12
100
AcDbLine
 10
578.5707575176502
 20
440.5111032038120
 30
0.0000000000000000
 11
563.2735608357521
 21
431.6792625816714
 31
0.0000000000000000
  0
LINE
  5
15B
100
AcDbEntity
  8
MAIN0
  6
CONTINUOUS
 62
3
100
AcDbLine
 10
571.7911944650432
 20
438.9063217271598
 30
0.0000000000000000
 11
569.7911944650419
 21
437.7516211887798
 31
0.0000000000000000
  0
LINE
  5
15C
100
AcDbEntity
  8
MAIN0
  6
CONTINUOUS
 62
3
100
AcDbLine
 10
571.7911944650413
 20
434.2875195736418
 30
0.0000000000000000
 11
573.7911944650425
 21
435.4422201120217
 31
0.0000000000000000
  0
LINE
  5
15D
100
AcDbEntity
  8
MAIN0
  6
CONTINUOUS
 62
3
100
AcDbLine
 10
569.7911944650406
 20
435.4422201120209
 30
0.0000000000000000
 11
569.7911944650406
 21
437.7516211887793
 31
0.0000000000000000
  0
LINE
  5
15E
100
AcDbEntity
  8
MAIN0
  6
CONTINUOUS
 62
3
100
AcDbLine
 10
573.7911944650406
 20
435.4422201120207
 30
0.0000000000000000
 11
573.7911944650406
 21
437.7516211887793
 31
0.0000000000000000
  0
LINE
  5
15F
100
AcDbEntity
  8
MAIN0
  6
CONTINUOUS
 62
3
100
AcDbLine
 10
569.7911944650427
 20
435.4422201120193
 30
0.0000000000000000
 11
571.7911944650409
 21
434.2875195736411
 31
0.0000000000000000
  0
LINE
  5
160
100
AcDbEntity
  8
MAIN0
  6
CONTINUOUS
 62
3
100
AcDbLine
 10
571.7911944650411
 20
438.9063217271578
 30
0.0000000000000000
 11
573.7911944650425
 21
437.7516211887779
 31
0.0000000000000000
  0
ARC
  5
161
100
AcDbEntity
  8
MAIN0
  6
CENTER
 62
12
100
AcDbCircle
 10
638.9081632583367
 20
475.3469206503997
 30
0.0000000000000000
 40
77.49999999999994
100
AcDbArc
 50
203.9324796546818
 51
216.8958325185147
  0
CIRCLE
  5
162
100
AcDbEntity
  8
MAIN0
  6
CONTINUOUS
 62
3
100
AcDbCircle
 10
571.7911944650406
 20
436.5969206503997
 30
0.0000000000000000
 40
5.499999999999996
  0
ARC
  5
163
100
AcDbEntity
  8
MAIN0
  6
CONTINUOUS
 62
3
100
AcDbCircle
 10
638.9081632583368
 20
475.3469206503997
 30
0.0000000000000000
 40
145.0000000000000
100
AcDbArc
 50
222.3447309728994
 51
248.4941155645303
  0
ARC
  5
164
100
AcDbEntity
  8
MAIN0
  6
CONTINUOUS
 62
3
100
AcDbCircle
 10
638.9081632583368
 20
475.3469206503997
 30
0.0000000000000000
 40
145.0000000000000
100
AcDbArc
 50
253.1611671819731
 51
255.3765858485557
  0
LINE
  5
165
100
AcDbEntity
  8
MAIN0
  6
CENTER
 62
12
100
AcDbLine
 10
555.8231164689181
 20
558.4319674398197
 30
0.0000000000000000
 11
538.8592937953860
 21
575.3957901133520
 31
0.0000000000000000
  0
MTEXT
  5
166
100
AcDbEntity
  8
MAIN0
  6
CONTINUOUS
 62
4
100
AcDbMText
 10
490.6540533964856
 20
289.8212873740250
 30
0.0000000000000000
 40
4.650000572204590
 41
0.0000000000000000
 71
     1
 72
     1
  1
{\H0.88x;{35}}
 11
1.000000000000000
 21
0.0000000000000000
 31
0.0000000000000000
  7
STANDARD
  0
MTEXT
  5
167
100
AcDbEntity
  8
MAIN0
  6
CONTINUOUS
 62
4
100
AcDbMText
 10
490.6540533964856
 20
279.3212873740250
 30
0.0000000000000000
 40
4.650000572204590
 41
0.0000000000000000
 71
     1
 72
     1
  1
{\H0.88x;{16}}
 11
1.000000000000000
 21
0.0000000000000000
 31
0.0000000000000000
  7
STANDARD
  0
MTEXT
  5
168
100
AcDbEntity
  8
MAIN0
  6
CONTINUOUS
 62
4
100
AcDbMText
 10
490.6540533964856
 20
269.5712873740250
 30
0.0000000000000000
 40
4.650000572204590
 41
0.0000000000000000
 71
     1
 72
     1
  1
{\H0.91x;{54.7\P}
 11
1.000000000000000
 21
0.0000000000000000
 31
0.0000000000000000
  7
STANDARD
  0
MTEXT
  5
169
100
AcDbEntity
  8
MAIN0
  6
CONTINUOUS
 62
4
100
AcDbMText
 10
495.1540533964856
 20
262.8212873740250
 30
0.0000000000000000
 40
4.650000572204590
 41
0.0000000000000000
 71
     1
 72
     1
  1
{\H0.91x;{5578}}
 11
1.000000000000000
 21
0.0000000000000000
 31
0.0000000000000000
  7
STANDARD
  0
MTEXT
  5
16A
100
AcDbEntity
  8
MAIN0
  6
CONTINUOUS
 62
4
100
AcDbMText
 10
490.6540533964856
 20
254.5712873740250
 30
0.0000000000000000
 40
4.650000572204590
 41
0.0000000000000000
 71
     1
 72
     1
  1
{\H0.90x;{166}}
 11
1.000000000000000
 21
0.0000000000000000
 31
0.0000000000000000
  7
STANDARD
  0
MTEXT
  5
16B
100
AcDbEntity
  8
MAIN0
  6
CONTINUOUS
 62
4
100
AcDbMText
 10
495.1540533964856
 20
247.8212873740250
 30
0.0000000000000000
 40
4.650000572204590
 41
0.0000000000000000
 71
     1
 72
     1
  1
{\H0.92x;{16927}}
 11
1.000000000000000
 21
0.0000000000000000
 31
0.0000000000000000
  7
STANDARD
  0
MTEXT
  5
16C
100
AcDbEntity
  8
MAIN0
  6
CONTINUOUS
 62
4
100
AcDbMText
 10
490.6540533964856
 20
238.8212873740250
 30
0.0000000000000000
 40
4.650000572204590
 41
0.0000000000000000
 71
     1
 72
     1
  1
{\H0.91x;{3040}}
 11
1.000000000000000
 21
0.0000000000000000
 31
0.0000000000000000
  7
STANDARD
  0
MTEXT
  5
16D
100
AcDbEntity
  8
MAIN0
  6
CONTINUOUS
 62
4
100
AcDbMText
 10
490.6540533964856
 20
228.3212873740250
 30
0.0000000000000000
 40
4.650000572204590
 41
0.0000000000000000
 71
     1
 72
     1
  1
{\H0.88x;{93}}
 11
1.000000000000000
 21
0.0000000000000000
 31
0.0000000000000000
  7
STANDARD
  0
MTEXT
  5
16E
100
AcDbEntity
  8
MAIN0
  6
CONTINUOUS
 62
3
100
AcDbMText
 10
490.6540533964886
 20
216.5712866587691
 30
0.0000000000000000
 40
4.649999856948853
 41
0.0000000000000000
 71
     1
 72
     1
  1
{\H0.81x;{1.79}}
 11
1.000000000000000
 21
0.0000000000000000
 31
0.0000000000000000
  7
STANDARD
  0
MTEXT
  5
16F
100
AcDbEntity
  8
MAIN0
  6
CONTINUOUS
 62
4
100
AcDbMText
 10
495.1540533964886
 20
171.1712868018198
 30
0.0000000000000000
 40
4.500000000000000
 41
0.0000000000000000
 71
     1
 72
     1
  1
{\H0.63x;{21.4}}
 11
1.000000000000000
 21
0.0000000000000000
 31
0.0000000000000000
  7
STANDARD
  0
MTEXT
  5
170
100
AcDbEntity
  8
MAIN0
  6
CONTINUOUS
 62
4
100
AcDbMText
 10
490.6540533964856
 20
178.0712873740264
 30
0.0000000000000000
 40
4.650000572204590
 41
0.0000000000000000
 71
     1
 72
     1
  1
{\H0.90x;{2.1}}
 11
1.000000000000000
 21
0.0000000000000000
 31
0.0000000000000000
  7
STANDARD
  0
MTEXT
  5
171
100
AcDbEntity
  8
MAIN0
  6
CONTINUOUS
 62
4
100
AcDbMText
 10
490.6540533964856
 20
187.8212873740264
 30
0.0000000000000000
 40
4.650000572204590
 41
0.0000000000000000
 71
     1
 72
     1
  1
{\H0.92x;{Y2035R}}
 11
1.000000000000000
 21
0.0000000000000000
 31
0.0000000000000000
  7
STANDARD
  0
MTEXT
  5
172
100
AcDbEntity
  8
MAIN0
  6
CONTINUOUS
 62
3
100
AcDbMText
 10
495.1540533964886
 20
196.8212866587688
 30
0.0000000000000000
 40
4.649999856948853
 41
0.0000000000000000
 71
     1
 72
     1
  1
{\H0.91x;{5649}}
 11
1.000000000000000
 21
0.0000000000000000
 31
0.0000000000000000
  7
STANDARD
  0
MTEXT
  5
173
100
AcDbEntity
  8
MAIN0
  6
CONTINUOUS
 62
3
100
AcDbMText
 10
490.6540533964886
 20
203.5712866587688
 30
0.0000000000000000
 40
4.649999856948853
 41
0.0000000000000000
 71
     1
 72
     1
  1
{\H0.81x;{55.4}}
 11
1.000000000000000
 21
0.0000000000000000
 31
0.0000000000000000
  7
STANDARD
  0
LINE
  5
174
100
AcDbEntity
  8
MAIN0
  6
CONTINUOUS
 62
3
100
AcDbLine
 10
607.9081632583379
 20
283.8469206503989
 30
0.0000000000000000
 11
607.9081632583379
 21
332.4190316588715
 31
0.0000000000000000
  0
LINE
  5
175
100
AcDbEntity
  8
MAIN0
  6
CONTINUOUS
 62
3
100
AcDbLine
 10
607.9081632583379
 20
340.0321262167519
 30
0.0000000000000000
 11
607.9081632583379
 21
412.5223471309412
 31
0.0000000000000000
  0
MTEXT
  5
176
100
AcDbEntity
  8
MAIN0
  6
CONTINUOUS
 62
3
100
AcDbMText
 10
576.6181219432033
 20
295.7239450356786
 30
0.0000000000000000
 40
4.500000000000000
 41
0.0000000000000000
 71
     1
 72
     1
  1
{\H0.63x;{(マスタジョー最大開き時)\P(MASTER JAW\P MAX OPEN POSITION)}}
 11
0.3369192276827575
 21
0.9415335543769294
 31
0.0000000000000000
  7
KNJYOKO
  0
MTEXT
  5
177
100
AcDbEntity
  8
MAIN0
  6
CONTINUOUS
 62
3
100
AcDbMText
 10
402.3030393576944
 20
561.5756074499982
 30
0.0000000000000000
 40
4.649999856948853
 41
0.0000000000000000
 71
     1
 72
     1
  1
{\H0.67x;{MIN 23.25}}
 11
6.123233995736766e-017
 21
1.000000000000000
 31
0.0000000000000000
  7
STANDARD
  0
MTEXT
  5
178
100
AcDbEntity
  8
MAIN0
  6
CONTINUOUS
 62
3
100
AcDbMText
 10
402.3030393576944
 20
502.3413587963277
 30
0.0000000000000000
 40
4.649999856948853
 41
0.0000000000000000
 71
     1
 72
     1
  1
{\H0.66x;{MIN 69.5}}
 11
6.123233995736766e-017
 21
1.000000000000000
 31
0.0000000000000000
  7
STANDARD
  0
MTEXT
  5
179
100
AcDbEntity
  8
MAIN0
  6
CONTINUOUS
 62
3
100
AcDbMText
 10
216.2024608469640
 20
414.6756856561719
 30
0.0000000000000000
 40
4.649999856948853
 41
0.0000000000000000
 71
     1
 72
     1
  1
{\H0.70x;{ストロ―ク\PSTROKE}}
 11
1.000000000000000
 21
0.0000000000000000
 31
0.0000000000000000
  7
KNJYOKO
  0
MTEXT
  5
17A
100
AcDbEntity
  8
MAIN0
  6
CONTINUOUS
 62
3
100
AcDbMText
 10
161.9886660655599
 20
539.6261308591340
 30
0.0000000000000000
 40
4.649999856948853
 41
0.0000000000000000
 71
     1
 72
     1
  1
{\H0.70x;{MAX 104}}
 11
1.000000000000000
 21
0.0000000000000000
 31
0.0000000000000000
  7
STANDARD
  0
MTEXT
  5
17B
100
AcDbEntity
  8
MAIN0
  6
CONTINUOUS
 62
3
100
AcDbMText
 10
334.5843767646404
 20
175.3641760623000
 30
0.0000000000000000
 40
4.649999856948853
 41
0.0000000000000000
 71
     1
 72
     1
  1
{\H0.70x;{Ｈ８／ｈ８}}
 11
6.123233995736766e-017
 21
1.000000000000000
 31
0.0000000000000000
  7
KNJYOKO
  0
LEADER
  5
17C
100
AcDbEntity
  8
MAIN0
  6
CONTINUOUS
 62
3
100
AcDbLeader
  3
MAIN001
 73
     0
 74
     0
 75
     1
 40
4.649999856948853
 41
43.95100002905718
 76
     3
 10
265.5851436281682
 20
301.1469206503998
 30
0.0000000000000000
 10
328.6215333579460
 20
265.3469206503997
 30
0.0000000000000000
 10
331.2995332789549
 20
265.3469206503997
 30
0.0000000000000000
340
17D
213
0.0000000000000000
223
-0.7500000000000000
233
0.0000000000000000
1001
ACAD
1000
DSTYLE
1002
{
1070
   147
1040
0.0
1070
    77
1070
     1
1070
   173
1070
     1
1070
     6
1000
_OPEN
1070
     7
1000
_OPEN
1002
}
  0
MTEXT
  5
17D
102
{ACAD_REACTORS
330
17C
102
}
100
AcDbEntity
  8
MAIN0
  6
CONTINUOUS
 62
3
100
AcDbMText
 10
331.3005332789549
 20
270.7469205073486
 30
0.0000000000000000
 40
4.649999856948853
 41
0.0000000000000000
 71
     1
 72
     1
  1
{\H0.71x;{２－Ｍ１２　ねじ深２５\P2-M12 DEPTH 25}}
 11
1.000000000000000
 21
0.0000000000000000
 31
0.0000000000000000
  7
KNJYOKO
  0
INSERT
  5
182
100
AcDbEntity
  8
MAIN0
  6
CONTINUOUS
 62
3
100
AcDbBlockReference
  2
M0
 10
0.0000000000000000
 20
0.0000000000000000
 30
0.0000000000000000
 50
0.0000000000000000
  0
INSERT
  5
1BE
100
AcDbEntity
  8
MAIN0
  6
CONTINUOUS
 62
3
100
AcDbBlockReference
  2
M1
 10
0.0000000000000000
 20
0.0000000000000000
 30
0.0000000000000000
 50
0.0000000000000000
  0
INSERT
  5
1C2
100
AcDbEntity
  8
MAIN0
  6
CONTINUOUS
 62
3
100
AcDbBlockReference
  2
M2
 10
0.0000000000000000
 20
0.0000000000000000
 30
0.0000000000000000
 50
0.0000000000000000
  0
LEADER
  5
1C3
100
AcDbEntity
  8
MAIN0
  6
CONTINUOUS
 62
3
100
AcDbLeader
  3
MAIN001
 73
     0
 74
     0
 75
     1
 40
4.649999856948853
 41
43.95100002905724
 76
     3
 10
767.8679280748174
 20
512.6692525343395
 30
0.0000000000000000
 10
824.0428656936010
 20
573.5916965935803
 30
0.0000000000000000
 10
826.7208656146099
 20
573.5916965935803
 30
0.0000000000000000
340
1C4
213
0.0000000000000000
223
-0.7500000000000000
233
0.0000000000000000
1001
ACAD
1000
DSTYLE
1002
{
1070
   147
1040
0.0
1070
    77
1070
     1
1070
   173
1070
     1
1070
     6
1000
_OPEN
1070
     7
1000
_OPEN
1002
}
  0
MTEXT
  5
1C4
102
{ACAD_REACTORS
330
1C3
102
}
100
AcDbEntity
  8
MAIN0
  6
CONTINUOUS
 62
3
100
AcDbMText
 10
826.7218656146099
 20
578.9916964505292
 30
0.0000000000000000
 40
4.649999856948853
 41
0.0000000000000000
 71
     1
 72
     1
  1
{\H0.71x;{3-M10 ねじ深20\P3-M10 DEPTH 20}}
 11
1.000000000000000
 21
0.0000000000000000
 31
0.0000000000000000
  7
KNJYOKO
  0
LEADER
  5
1C5
100
AcDbEntity
  8
MAIN0
  6
CONTINUOUS
 62
3
100
AcDbLeader
  3
MAIN001
 73
     0
 75
     1
 40
4.649999856948853
 41
20.35400061511993
 76
     3
 10
187.5518089393096
 20
347.8469213506898
 30
0.0000000000000000
 10
165.4851436281681
 20
335.3469206503997
 30
0.0000000000000000
 10
162.5951437118530
 20
335.3469206503997
 30
0.0000000000000000
340
1C6
213
0.0000000000000000
223
-0.7500000000000000
233
0.0000000000000000
1001
ACAD
1000
DSTYLE
1002
{
1070
   147
1040
0.0
1070
    77
1070
     1
1070
   173
1070
     1
1070
     6
1000
_OPEN
1070
     7
1000
_OPEN
1002
}
  0
MTEXT
  5
1C6
102
{ACAD_REACTORS
330
1C5
102
}
100
AcDbEntity
  8
MAIN0
  6
CONTINUOUS
 62
3
100
AcDbMText
 10
142.2411430967331
 20
340.7469205073486
 30
0.0000000000000000
 40
4.649999856948853
 41
0.0000000000000000
 71
     1
 72
     1
  1
{\H0.92x;{6-M20}}
 11
1.000000000000000
 21
0.0000000000000000
 31
0.0000000000000000
  7
STANDARD
  0
LEADER
  5
1C7
100
AcDbEntity
  8
MAIN0
  6
CONTINUOUS
 62
3
100
AcDbLeader
  3
MAIN001
 73
     0
 75
     1
 40
4.649999856948853
 41
9.299000004470344
 76
     3
 10
125.6072079015662
 20
460.3469206503998
 30
0.0000000000000000
 10
105.4851436281681
 20
435.3469206503997
 30
0.0000000000000000
 10
102.8051437071592
 20
435.3469206503997
 30
0.0000000000000000
340
1C8
213
0.0000000000000000
223
-0.7500000000000000
233
0.0000000000000000
1001
ACAD
1000
DSTYLE
1002
{
1070
   147
1040
0.0
1070
    77
1070
     1
1070
   173
1070
     1
1070
     6
1000
_OPEN
1070
     7
1000
_OPEN
1002
}
  0
MTEXT
  5
1C8
102
{ACAD_REACTORS
330
1C7
102
}
100
AcDbEntity
  8
MAIN0
  6
CONTINUOUS
 62
3
100
AcDbMText
 10
93.50614370268880
 20
440.7469205073486
 30
0.0000000000000000
 40
4.649999856948853
 41
0.0000000000000000
 71
     1
 72
     1
  1
{\H0.70x;{M30}}
 11
1.000000000000000
 21
0.0000000000000000
 31
0.0000000000000000
  7
STANDARD
  0
LEADER
  5
1C9
100
AcDbEntity
  8
MAIN0
  6
CONTINUOUS
 62
3
100
AcDbLeader
  3
MAIN001
 73
     0
 74
     0
 75
     1
 40
4.649999856948853
 41
58.20100004023311
 76
     3
 10
317.4851436281681
 20
654.9470447735507
 30
0.0000000000000000
 10
395.4851436281681
 20
680.3469206503997
 30
0.0000000000000000
 10
398.1631435491771
 20
680.3469206503997
 30
0.0000000000000000
340
1CA
213
0.0000000000000000
223
-0.7500000000000000
233
0.0000000000000000
1001
ACAD
1000
DSTYLE
1002
{
1070
   147
1040
0.0
1070
    77
1070
     1
1070
   173
1070
     1
1070
     6
1000
_OPEN
1070
     7
1000
_OPEN
1002
}
  0
MTEXT
  5
1CA
102
{ACAD_REACTORS
330
1C9
102
}
100
AcDbEntity
  8
MAIN0
  6
CONTINUOUS
 62
3
100
AcDbMText
 10
398.1641435491770
 20
685.7469205073486
 30
0.0000000000000000
 40
4.649999856948853
 41
0.0000000000000000
 71
     1
 72
     1
  1
{\H0.69x;{セレーションピッチ　１．５\PSERRATION PITCH 1.5}}
 11
1.000000000000000
 21
0.0000000000000000
 31
0.0000000000000000
  7
KNJYOKO
  0
DIMENSION
  5
1D0
100
AcDbEntity
  8
MAIN10
  6
CONTINUOUS
 62
3
100
AcDbDimension
  2
*D0
 10
766.3747779324048
 20
500.8863439706838
 30
0.0000000000000000
 11
700.2078601911984
 21
488.3939362444509
 31
0.0000000000000000
 70
163
  3
MAIN001
100
AcDbDiametricDimension
 15
511.4415485842688
 25
449.8074973301157
 35
0.0000000000000000
1001
ACAD
1000
DSTYLE
1002
{
1070
   287
1070
     2
1070
   173
1070
     1
1070
     6
1000
_OPEN
1070
     7
1000
_NONE
1070
    41
1040
3.000000
1070
   272
1070
     1
1070
    47
1040
0.200000
1070
    48
1040
0.200000
1070
    71
1070
     1
1002
}
  0
DIMENSION
  5
1D7
100
AcDbEntity
  8
MAIN10
  6
CONTINUOUS
 62
3
100
AcDbDimension
  2
*D1
 10
753.5579754455890
 20
449.6239627056418
 30
0.0000000000000000
 11
707.3111182109597
 21
460.7686034106500
 31
0.0000000000000000
 70
163
  3
MAIN001
100
AcDbDiametricDimension
 15
524.2583510710846
 25
501.0698785951577
 35
0.0000000000000000
1001
ACAD
1000
DSTYLE
1002
{
1070
   287
1070
     2
1070
   173
1070
     1
1070
     6
1000
_OPEN
1070
     7
1000
_OPEN
1070
    41
1040
3.000000
1002
}
  0
DIMENSION
  5
1E0
100
AcDbEntity
  8
MAIN10
  6
CONTINUOUS
 62
3
100
AcDbDimension
  2
*D2
 10
757.9809414306945
 20
406.6002201194339
 30
0.0000000000000000
 11
782.4750446569183
 21
331.7800392518183
 31
0.0000000000000000
 70
162
  3
MAIN001
100
AcDb2LineAngularDimension
 13
734.9230489058531
 23
309.0442604259836
 33
0.0000000000000000
 14
734.4230489058531
 24
309.9102858297680
 34
0.0000000000000000
 15
757.1149160269101
 25
407.1002201194339
 35
0.0000000000000000
 16
782.8285980475116
 26
331.4264858612251
 36
0.0000000000000000
1001
ACAD
1000
DSTYLE
1002
{
1070
   173
1070
     1
1070
     6
1000
_OPEN
1070
     7
1000
_OPEN
1070
    41
1040
3.000000
1002
}
  0
DIMENSION
  5
1E8
100
AcDbEntity
  8
MAIN10
  6
CONTINUOUS
 62
3
100
AcDbDimension
  2
*D3
 10
842.4423940398220
 20
475.3469206504045
 30
0.0000000000000000
 11
835.0241703909080
 21
422.7977949164143
 31
0.0000000000000000
 70
162
  3
MAIN001
100
AcDb2LineAngularDimension
 13
757.9809414306945
 23
406.6002201194339
 33
0.0000000000000000
 14
757.1149160269101
 24
407.1002201194339
 34
0.0000000000000000
 15
638.9081632583311
 25
475.3469206504045
 35
0.0000000000000000
 16
835.5071333040526
 26
422.6683853938630
 36
0.0000000000000000
1001
ACAD
1000
DSTYLE
1002
{
1070
   173
1070
     1
1070
     6
1000
_OPEN
1070
     7
1000
_OPEN
1070
    41
1040
3.000000
1002
}
  0
DIMENSION
  5
1F0
100
AcDbEntity
  8
MAIN10
  6
CONTINUOUS
 62
3
100
AcDbDimension
  2
*D4
 10
775.5774605646418
 20
511.9673484937524
 30
0.0000000000000000
 11
840.2054080496253
 21
501.8482056846348
 31
0.0000000000000000
 70
162
  3
MAIN001
100
AcDb2LineAngularDimension
 13
842.4423940398220
 23
475.3469206504045
 33
0.0000000000000000
 14
638.9081632583311
 24
475.3469206504045
 34
0.0000000000000000
 15
774.6115347383527
 25
511.7085294486499
 35
0.0000000000000000
 16
840.7011304803121
 26
501.9134687807448
 36
0.0000000000000000
1001
ACAD
1000
DSTYLE
1002
{
1070
   173
1070
     1
1070
     6
1000
_OPEN
1070
     7
1000
_OPEN
1070
    41
1040
3.000000
1002
}
  0
DIMENSION
  5
1F9
100
AcDbEntity
  8
MAIN10
  6
CONTINUOUS
 62
3
100
AcDbDimension
  2
*D5
 10
757.9809414306947
 20
544.0936211813655
 30
0.0000000000000000
 11
826.4873334765280
 21
553.0447569734611
 31
0.0000000000000000
 70
162
  3
MAIN001
100
AcDb2LineAngularDimension
 13
775.5774605646418
 23
511.9673484937524
 33
0.0000000000000000
 14
774.6115347383527
 24
511.7085294486499
 34
0.0000000000000000
 15
757.1149160269102
 25
543.5936211813656
 35
0.0000000000000000
 16
826.9492732427835
 26
553.2360986896434
 36
0.0000000000000000
1001
ACAD
1000
DSTYLE
1002
{
1070
   173
1070
     1
1070
     6
1000
_OPEN
1070
     7
1000
_OPEN
1070
    41
1040
3.000000
1002
}
  0
DIMENSION
  5
201
100
AcDbEntity
  8
MAIN10
  6
CONTINUOUS
 62
3
100
AcDbDimension
  2
*D6
 10
638.9081632583368
 20
678.8811514318954
 30
0.0000000000000000
 11
740.9252786490844
 21
652.0457477487880
 31
0.0000000000000000
 70
162
  3
MAIN001
100
AcDb2LineAngularDimension
 13
757.9809414306947
 23
544.0936211813655
 33
0.0000000000000000
 14
757.1149160269102
 24
543.5936211813656
 34
0.0000000000000000
 15
638.9081632583311
 25
475.3469206504045
 35
0.0000000000000000
 16
740.6752786490844
 26
651.6127350468958
 36
0.0000000000000000
1001
ACAD
1000
DSTYLE
1002
{
1070
   173
1070
     1
1070
     6
1000
_OPEN
1070
     7
1000
_OPEN
1070
    41
1040
3.000000
1002
}
  0
DIMENSION
  5
20A
100
AcDbEntity
  8
MAIN10
  6
CONTINUOUS
 62
3
100
AcDbDimension
  2
*D7
 10
663.9081632583368
 20
685.9885099290790
 30
0.0000000000000000
 11
638.9081632583368
 21
686.4885099290790
 31
0.0000000000000000
 70
32
  3
MAIN001
100
AcDbAlignedDimension
 13
613.9081632583368
 23
666.0969206503996
 33
0.0000000000000000
 14
663.9081632583368
 24
666.0969206503997
 34
0.0000000000000000
100
AcDbRotatedDimension
1001
ACAD
1000
DSTYLE
1002
{
1070
   173
1070
     1
1070
     6
1000
_OPEN
1070
     7
1000
_OPEN
1070
    41
1040
3.000000
1002
}
  0
DIMENSION
  5
210
100
AcDbEntity
  8
MAIN10
  6
CONTINUOUS
 62
3
100
AcDbDimension
  2
*D8
 10
573.5347083191325
 20
292.6583225132645
 30
0.0000000000000000
 11
577.9985664073525
 21
307.3587959949964
 31
0.0000000000000000
 70
163
  3
MAIN001
100
AcDbDiametricDimension
 15
704.2816181975411
 25
658.0355187875350
 35
0.0000000000000000
1001
ACAD
1000
DSTYLE
1002
{
1070
   287
1070
     2
1070
   173
1070
     1
1070
     6
1000
_OPEN
1070
     7
1000
_NONE
1070
    41
1040
3.000000
1002
}
  0
DIMENSION
  5
219
100
AcDbEntity
  8
MAIN10
  6
CONTINUOUS
 62
3
100
AcDbDimension
  2
*D9
 10
440.4851436281681
 20
531.0969206503995
 30
0.0000000000000000
 11
439.9851436281681
 21
598.5969206503995
 31
0.0000000000000000
 70
32
  3
MAIN001
100
AcDbAlignedDimension
 13
376.4851436281680
 23
666.0969206503996
 33
0.0000000000000000
 14
376.4851436281680
 24
531.0969206503995
 34
0.0000000000000000
 50
90.00000000000000
100
AcDbRotatedDimension
1001
ACAD
1000
DSTYLE
1002
{
1070
   173
1070
     1
1070
     6
1000
_OPEN
1070
     7
1000
_OPEN
1070
    41
1040
3.000000
1002
}
  0
DIMENSION
  5
222
100
AcDbEntity
  8
MAIN10
  6
CONTINUOUS
 62
3
100
AcDbDimension
  2
*D10
 10
420.4851436281681
 20
640.0969206503996
 30
0.0000000000000000
 11
419.9851436281681
 21
618.5969206503996
 31
0.0000000000000000
 70
32
  3
MAIN001
100
AcDbAlignedDimension
 13
382.1958757311178
 23
597.0969206503996
 33
0.0000000000000000
 14
379.9458776673376
 24
640.0969206503996
 34
0.0000000000000000
 50
90.00000000000000
100
AcDbRotatedDimension
1001
ACAD
1000
DSTYLE
1002
{
1070
   173
1070
     1
1070
     6
1000
_OPEN
1070
     7
1000
_OPEN
1070
    41
1040
3.000000
1002
}
  0
DIMENSION
  5
22B
100
AcDbEntity
  8
MAIN10
  6
CONTINUOUS
 62
3
100
AcDbDimension
  2
*D11
 10
420.4851436281681
 20
597.0969206503996
 30
0.0000000000000000
 11
419.9851436281681
 21
564.0969206503995
 31
0.0000000000000000
 70
32
  3
MAIN001
100
AcDbAlignedDimension
 13
376.4851436281680
 23
531.0969206503995
 33
0.0000000000000000
 14
382.1958757311178
 24
597.0969206503996
 34
0.0000000000000000
 50
90.00000000000000
100
AcDbRotatedDimension
1001
ACAD
1000
DSTYLE
1002
{
1070
   173
1070
     1
1070
     6
1000
_OPEN
1070
     7
1000
_OPEN
1070
    41
1040
3.000000
1002
}
  0
DIMENSION
  5
234
100
AcDbEntity
  8
MAIN10
  6
CONTINUOUS
 62
3
100
AcDbDimension
  2
*D12
 10
400.4851436281681
 20
475.3469206503997
 30
0.0000000000000000
 11
399.9851436281681
 21
514.0969206503996
 31
0.0000000000000000
 70
32
  1
\A1;MAX 77.5
  3
MAIN001
100
AcDbAlignedDimension
 13
316.4851436281682
 23
552.8469206503996
 33
0.0000000000000000
 14
326.6486165507461
 24
475.3469206503997
 34
0.0000000000000000
 50
90.00000000000000
100
AcDbRotatedDimension
1001
ACAD
1000
DSTYLE
1002
{
1070
   173
1070
     1
1070
     6
1000
_OPEN
1070
     7
1000
_OPEN
1070
    41
1040
3.000000
1002
}
  0
DIMENSION
  5
23D
100
AcDbEntity
  8
MAIN10
  6
CONTINUOUS
 62
3
100
AcDbDimension
  2
*D13
 10
400.4851436281681
 20
552.8469206503996
 30
0.0000000000000000
 11
399.9851436281681
 21
574.9719206503996
 31
0.0000000000000000
 70
32
  1
\A1;MAX 44.25
  3
MAIN001
100
AcDbAlignedDimension
 13
382.1958757311178
 23
597.0969206503996
 33
0.0000000000000000
 14
316.4851436281682
 24
552.8469206503996
 34
0.0000000000000000
 50
90.00000000000000
100
AcDbRotatedDimension
1001
ACAD
1000
DSTYLE
1002
{
1070
   173
1070
     1
1070
     6
1000
_OPEN
1070
     7
1000
_OPEN
1070
    41
1040
3.000000
1002
}
  0
DIMENSION
  5
246
100
AcDbEntity
  8
MAIN10
  6
CONTINUOUS
 62
3
100
AcDbDimension
  2
*D14
 10
376.4851436281681
 20
680.3469206503997
 30
0.0000000000000000
 11
345.9851436281681
 21
680.8469206503997
 31
0.0000000000000000
 70
32
  3
MAIN001
100
AcDbAlignedDimension
 13
315.4851436281680
 23
662.8469206503996
 33
0.0000000000000000
 14
376.4851436281681
 24
666.0969206503996
 34
0.0000000000000000
100
AcDbRotatedDimension
1001
ACAD
1000
DSTYLE
1002
{
1070
   173
1070
     1
1070
     6
1000
_OPEN
1070
     7
1000
_OPEN
1070
    41
1040
3.000000
1002
}
  0
DIMENSION
  5
24D
100
AcDbEntity
  8
MAIN10
  6
CONTINUOUS
 62
3
100
AcDbDimension
  2
*D15
 10
275.4851436281681
 20
488.8469206503997
 30
0.0000000000000000
 11
274.9851436281681
 21
475.3469206503997
 31
0.0000000000000000
 70
32
  1
\A1;\U+220527
  3
MAIN001
100
AcDbAlignedDimension
 13
243.4851436281682
 23
461.8469206503997
 33
0.0000000000000000
 14
243.4851436281682
 24
488.8469206503997
 34
0.0000000000000000
 50
90.00000000000000
100
AcDbRotatedDimension
1001
ACAD
1000
DSTYLE
1002
{
1070
   173
1070
     1
1070
     6
1000
_OPEN
1070
     7
1000
_OPEN
1070
    41
1040
3.000000
1002
}
  0
DIMENSION
  5
254
100
AcDbEntity
  8
MAIN10
  6
CONTINUOUS
 62
3
100
AcDbDimension
  2
*D16
 10
220.4851436281681
 20
514.3469206503996
 30
0.0000000000000000
 11
219.9851436281681
 21
475.3469206503997
 31
0.0000000000000000
 70
32
  1
\A1;\U+220578
  3
MAIN001
100
AcDbAlignedDimension
 13
204.4851436281681
 23
436.3469206503998
 33
0.0000000000000000
 14
204.4851436281682
 24
514.3469206503996
 34
0.0000000000000000
 50
90.00000000000000
100
AcDbRotatedDimension
1001
ACAD
1000
DSTYLE
1002
{
1070
   173
1070
     1
1070
     6
1000
_OPEN
1070
     7
1000
_OPEN
1070
    41
1040
3.000000
1002
}
  0
DIMENSION
  5
25B
100
AcDbEntity
  8
MAIN10
  6
CONTINUOUS
 62
3
100
AcDbDimension
  2
*D17
 10
195.4851436281681
 20
445.3469206503997
 30
0.0000000000000000
 11
194.9851436281681
 21
475.3469206503996
 31
0.0000000000000000
 70
32
  1
\A1;\U+220560
  3
MAIN001
100
AcDbAlignedDimension
 13
174.4851436281681
 23
505.3469206503996
 33
0.0000000000000000
 14
174.4851436281681
 24
445.3469206503997
 34
0.0000000000000000
 50
90.00000000000000
100
AcDbRotatedDimension
1001
ACAD
1000
DSTYLE
1002
{
1070
   173
1070
     1
1070
     6
1000
_OPEN
1070
     7
1000
_OPEN
1070
    41
1040
3.000000
1002
}
  0
DIMENSION
  5
262
100
AcDbEntity
  8
MAIN10
  6
CONTINUOUS
 62
3
100
AcDbDimension
  2
*D18
 10
165.4851436281681
 20
502.8469206503997
 30
0.0000000000000000
 11
164.9851436281681
 21
475.3469206503999
 31
0.0000000000000000
 70
32
  1
\A1;\U+220555
  3
MAIN001
100
AcDbAlignedDimension
 13
140.4851436281681
 23
447.8469206504000
 33
0.0000000000000000
 14
140.4851436281681
 24
502.8469206503997
 34
0.0000000000000000
 50
90.00000000000000
100
AcDbRotatedDimension
1001
ACAD
1000
DSTYLE
1002
{
1070
   173
1070
     1
1070
     6
1000
_OPEN
1070
     7
1000
_OPEN
1070
    41
1040
3.000000
1002
}
  0
DIMENSION
  5
26B
100
AcDbEntity
  8
MAIN10
  6
CONTINUOUS
 62
3
100
AcDbDimension
  2
*D19
 10
138.4851436281681
 20
520.3469206503997
 30
0.0000000000000000
 11
155.9851436281681
 21
520.8469206503997
 31
0.0000000000000000
 70
32
  3
MAIN001
100
AcDbAlignedDimension
 13
173.4851436281681
 23
504.3469206503995
 33
0.0000000000000000
 14
138.4851436281681
 24
500.8469206503997
 34
0.0000000000000000
100
AcDbRotatedDimension
1001
ACAD
1000
DSTYLE
1002
{
1070
   173
1070
     1
1070
     6
1000
_OPEN
1070
     7
1000
_OPEN
1070
    41
1040
3.000000
1002
}
  0
DIMENSION
  5
274
100
AcDbEntity
  8
MAIN10
  6
CONTINUOUS
 62
3
100
AcDbDimension
  2
*D20
 10
315.4851436281681
 20
265.3469206503997
 30
0.0000000000000000
 11
287.9851436281680
 21
265.8469206503997
 31
0.0000000000000000
 70
32
  3
MAIN001
100
AcDbAlignedDimension
 13
260.4851436281680
 23
283.3171493553635
 33
0.0000000000000000
 14
315.4851436281681
 24
287.8469206503999
 34
0.0000000000000000
100
AcDbRotatedDimension
1001
ACAD
1000
DSTYLE
1002
{
1070
   173
1070
     1
1070
     6
1000
_OPEN
1070
     7
1000
_OPEN
1070
    41
1040
3.000000
1002
}
  0
DIMENSION
  5
27D
100
AcDbEntity
  8
MAIN10
  6
CONTINUOUS
 62
3
100
AcDbDimension
  2
*D21
 10
315.4851436281681
 20
245.3469206503997
 30
0.0000000000000000
 11
258.4851436281681
 21
245.8469206503997
 31
0.0000000000000000
 70
32
  3
MAIN001
100
AcDbAlignedDimension
 13
201.4851436281681
 23
287.8469206503998
 33
0.0000000000000000
 14
315.4851436281681
 24
287.8469206503999
 34
0.0000000000000000
100
AcDbRotatedDimension
1001
ACAD
1000
DSTYLE
1002
{
1070
   173
1070
     1
1070
     6
1000
_OPEN
1070
     7
1000
_OPEN
1070
    41
1040
3.000000
1002
}
  0
DIMENSION
  5
286
100
AcDbEntity
  8
MAIN10
  6
CONTINUOUS
 62
3
100
AcDbDimension
  2
*D22
 10
333.2792437309254
 20
373.8469206503997
 30
0.0000000000000000
 11
332.7792437309254
 21
357.8469206504000
 31
0.0000000000000000
 70
32
  1
\A1;\U+220532
  3
MAIN001
100
AcDbAlignedDimension
 13
315.4851436281680
 23
341.8469206504003
 33
0.0000000000000000
 14
315.4851436281680
 24
373.8469206503997
 34
0.0000000000000000
 50
90.00000000000000
100
AcDbRotatedDimension
1001
ACAD
1000
DSTYLE
1002
{
1070
   173
1070
     1
1070
     6
1000
_OPEN
1070
     7
1000
_OPEN
1070
    41
1040
3.000000
1002
}
  0
DIMENSION
  5
28E
100
AcDbEntity
  8
MAIN10
  6
CONTINUOUS
 62
3
100
AcDbDimension
  2
*D23
 10
292.4851436281681
 20
325.3469206503997
 30
0.0000000000000000
 11
303.9851436281681
 21
325.8469206503997
 31
0.0000000000000000
 70
32
  3
MAIN001
100
AcDbAlignedDimension
 13
315.4851436281681
 23
287.8469206503999
 33
0.0000000000000000
 14
292.4851436281681
 24
341.8469206504003
 34
0.0000000000000000
100
AcDbRotatedDimension
1001
ACAD
1000
DSTYLE
1002
{
1070
   173
1070
     1
1070
     6
1000
_OPEN
1070
     7
1000
_OPEN
1070
    41
1040
3.000000
1002
}
  0
DIMENSION
  5
296
100
AcDbEntity
  8
MAIN10
  6
CONTINUOUS
 62
3
100
AcDbDimension
  2
*D24
 10
207.4851436281681
 20
335.3469206503997
 30
0.0000000000000000
 11
192.4851436281681
 21
335.8469206503997
 31
0.0000000000000000
 70
32
  3
MAIN001
100
AcDbAlignedDimension
 13
177.4851436281681
 23
347.8469206504001
 33
0.0000000000000000
 14
207.4851436281681
 24
325.3469206503999
 34
0.0000000000000000
100
AcDbRotatedDimension
1001
ACAD
1000
DSTYLE
1002
{
1070
   173
1070
     1
1070
     6
1000
_OPEN
1070
     7
1000
_OPEN
1070
    41
1040
3.000000
1002
}
  0
DIMENSION
  5
2A0
100
AcDbEntity
  8
MAIN10
  6
CONTINUOUS
 62
3
100
AcDbDimension
  2
*D25
 10
201.4851436281681
 20
310.3469206503997
 30
0.0000000000000000
 11
204.4851436281681
 21
310.8469206503997
 31
0.0000000000000000
 70
32
  3
MAIN001
100
AcDbAlignedDimension
 13
207.4851436281681
 23
325.3469206503999
 33
0.0000000000000000
 14
201.4851436281681
 24
287.8469206503998
 34
0.0000000000000000
100
AcDbRotatedDimension
1001
ACAD
1000
DSTYLE
1002
{
1070
   173
1070
     1
1070
     6
1000
_OPEN
1070
     7
1000
_OPEN
1070
    41
1040
3.000000
1070
   287
1070
     0
1002
}
  0
DIMENSION
  5
2A7
100
AcDbEntity
  8
MAIN10
  6
CONTINUOUS
 62
3
100
AcDbDimension
  2
*D26
 10
265.4851436281681
 20
368.3469206503997
 30
0.0000000000000000
 11
264.9851436281681
 21
357.8469206503997
 31
0.0000000000000000
 70
32
  1
\A1;\U+220521
  3
MAIN001
100
AcDbAlignedDimension
 13
207.4851436281682
 23
347.3469206503998
 33
0.0000000000000000
 14
207.4851436281682
 24
368.3469206503997
 34
0.0000000000000000
 50
90.00000000000000
100
AcDbRotatedDimension
1001
ACAD
1000
DSTYLE
1002
{
1070
   173
1070
     1
1070
     6
1000
_OPEN
1070
     7
1000
_OPEN
1070
    41
1040
3.000000
1002
}
  0
DIMENSION
  5
2AE
100
AcDbEntity
  8
MAIN10
  6
CONTINUOUS
 62
3
100
AcDbDimension
  2
*D27
 10
242.4851436281682
 20
415.3469206503997
 30
0.0000000000000000
 11
224.9851436281682
 21
415.8469206503997
 31
0.0000000000000000
 70
32
  3
MAIN001
100
AcDbAlignedDimension
 13
207.4851436281682
 23
367.8469146504001
 33
0.0000000000000000
 14
242.4851436281682
 24
406.8469204722200
 34
0.0000000000000000
100
AcDbRotatedDimension
1001
ACAD
1000
DSTYLE
1002
{
1070
   173
1070
     1
1070
     6
1000
_OPEN
1070
     7
1000
_OPEN
1070
    41
1040
3.000000
1002
}
  0
DIMENSION
  5
2B6
100
AcDbEntity
  8
MAIN10
  6
CONTINUOUS
 62
3
100
AcDbDimension
  2
*D28
 10
207.4851436281682
 20
540.3469206503997
 30
0.0000000000000000
 11
172.9851436281681
 21
540.8469206503997
 31
0.0000000000000000
 70
32
  1
\A1;MIN  69
  3
MAIN001
100
AcDbAlignedDimension
 13
138.4851436281681
 23
500.8469206503997
 33
0.0000000000000000
 14
207.4851436281682
 24
523.3969206503992
 34
0.0000000000000000
100
AcDbRotatedDimension
1001
ACAD
1000
DSTYLE
1002
{
1070
   173
1070
     1
1070
     6
1000
_OPEN
1070
     7
1000
_OPEN
1070
    41
1040
3.000000
1002
}
  0
DIMENSION
  5
2BF
100
AcDbEntity
  8
MAIN10
  6
CONTINUOUS
 62
3
100
AcDbDimension
  2
*D29
 10
138.4851436281681
 20
540.3469206503997
 30
0.0000000000000000
 11
110.9851436281681
 21
540.8469206503997
 31
0.0000000000000000
 70
32
  3
MAIN001
100
AcDbAlignedDimension
 13
83.48514362816809
 23
488.3469206503998
 33
0.0000000000000000
 14
138.4851436281681
 24
500.8469206503997
 34
0.0000000000000000
100
AcDbRotatedDimension
1001
ACAD
1000
DSTYLE
1002
{
1070
   173
1070
     1
1070
     6
1000
_OPEN
1070
     7
1000
_OPEN
1070
    41
1040
3.000000
1002
}
  0
INSERT
  5
2C7
100
AcDbEntity
  8
MAIN10
  6
CONTINUOUS
 62
3
100
AcDbBlockReference
  2
D30
 10
81.44395147804937
 20
475.3469206503997
 30
0.0000000000000000
 50
0.0000000000000000
  0
INSERT
  5
2CF
100
AcDbEntity
  8
MAIN10
  6
CONTINUOUS
 62
3
100
AcDbBlockReference
  2
D31
 10
81.44395147804937
 20
475.3469206503997
 30
0.0000000000000000
 50
0.0000000000000000
  0
DIMENSION
  5
2D8
100
AcDbEntity
  8
MAIN10
  6
CONTINUOUS
 62
3
100
AcDbDimension
  2
*D32
 10
352.0678550554100
 20
154.0200723834370
 30
0.0000000000000000
 11
351.5678550554100
 21
185.0200723834370
 31
0.0000000000000000
 70
32
  3
MAIN001
100
AcDbAlignedDimension
 13
315.4851436281680
 23
216.0200723834370
 33
0.0000000000000000
 14
315.4851436281680
 24
154.0200723834370
 34
0.0000000000000000
 50
90.00000000000000
100
AcDbRotatedDimension
1001
ACAD
1000
DSTYLE
1002
{
1070
   173
1070
     1
1070
     6
1000
_OPEN
1070
     7
1000
_OPEN
1070
    41
1040
3.000000
1002
}
  0
DIMENSION
  5
2E1
100
AcDbEntity
  8
MAIN10
  6
CONTINUOUS
 62
3
100
AcDbDimension
  2
*D33
 10
333.2792437309254
 20
197.7700723834370
 30
0.0000000000000000
 11
332.7792437309254
 21
185.0200723834370
 31
0.0000000000000000
 70
32
  3
MAIN001
100
AcDbAlignedDimension
 13
320.7351436281679
 23
172.2700723834370
 33
0.0000000000000000
 14
320.7351436281679
 24
197.7700723834370
 34
0.0000000000000000
 50
90.00000000000000
100
AcDbRotatedDimension
1001
ACAD
1000
DSTYLE
1002
{
1070
   173
1070
     1
1070
     6
1000
_OPEN
1070
     7
1000
_OPEN
1070
    41
1040
3.000000
1002
}
  0
DIMENSION
  5
2EB
100
AcDbEntity
  8
MAIN10
  6
CONTINUOUS
 62
3
100
AcDbDimension
  2
*D34
 10
320.7351436281679
 20
141.1646164480767
 30
0.0000000000000000
 11
331.6100855780265
 21
141.9146164480767
 31
0.0000000000000000
 70
160
  3
MAIN001
100
AcDbAlignedDimension
 13
317.4851436281681
 23
160.0200723834370
 33
0.0000000000000000
 14
320.7351436281679
 24
172.2700723834370
 34
0.0000000000000000
100
AcDbRotatedDimension
1001
ACAD
1000
DSTYLE
1002
{
1070
   173
1070
     1
1070
     6
1000
_DOT
1070
     7
1000
_OPEN
1070
    41
1040
3.000000
1070
   287
1070
     0
1002
}
  0
DIMENSION
  5
2F4
100
AcDbEntity
  8
MAIN10
  6
CONTINUOUS
 62
3
100
AcDbDimension
  2
*D35
 10
317.4851436281681
 20
141.1646164480767
 30
0.0000000000000000
 11
308.9030767421277
 21
141.9146164480767
 31
0.0000000000000000
 70
160
  3
MAIN001
100
AcDbAlignedDimension
 13
315.4851436281680
 23
135.2024018684853
 33
0.0000000000000000
 14
317.4851436281681
 24
160.0200723834370
 34
0.0000000000000000
100
AcDbRotatedDimension
1001
ACAD
1000
DSTYLE
1002
{
1070
   173
1070
     1
1070
     6
1000
_OPEN
1070
     7
1000
_DOT
1070
    41
1040
3.000000
1070
   287
1070
     0
1002
}
  0
LINE
  5
2F5
100
AcDbEntity
  8
MAIN0
  6
CONTINUOUS
 62
3
100
AcDbLine
 10
204.4851436281680
 20
284.8469206503997
 30
0.0000000000000000
 11
312.4851436281681
 21
284.8469206503997
 31
0.0000000000000000
  0
LINE
  5
2F6
100
AcDbEntity
  8
MAIN0
  6
CONTINUOUS
 62
3
100
AcDbLine
 10
207.4851436281682
 20
368.3469206503997
 30
0.0000000000000000
 11
292.4851436281681
 21
368.3469206503997
 31
0.0000000000000000
  0
LINE
  5
2F7
100
AcDbEntity
  8
MAIN0
  6
CONTINUOUS
 62
3
100
AcDbLine
 10
207.4851436281682
 20
347.3469206503998
 30
0.0000000000000000
 11
292.4851436281681
 21
347.3469206503998
 31
0.0000000000000000
  0
LINE
  5
2F8
100
AcDbEntity
  8
MAIN0
  6
CONTINUOUS
 62
3
100
AcDbLine
 10
292.4851436281681
 20
373.8469206503997
 30
0.0000000000000000
 11
315.4851436281680
 21
373.8469206503997
 31
0.0000000000000000
  0
LINE
  5
2F9
100
AcDbEntity
  8
MAIN0
  6
CONTINUOUS
 62
3
100
AcDbLine
 10
292.4851436281681
 20
341.8469206504003
 30
0.0000000000000000
 11
315.4851436281680
 21
341.8469206504003
 31
0.0000000000000000
  0
LINE
  5
2FA
100
AcDbEntity
  8
MAIN0
  6
CONTINUOUS
 62
3
100
AcDbLine
 10
225.4851436281682
 20
377.1219206504001
 30
0.0000000000000000
 11
225.4851436281682
 21
402.1219206504001
 31
0.0000000000000000
  0
LINE
  5
2FB
100
AcDbEntity
  8
MAIN0
  6
CENTER
 62
12
100
AcDbLine
 10
292.8951697300536
 20
397.8469206503997
 30
0.0000000000000000
 11
318.8151828299635
 21
397.8469206503997
 31
0.0000000000000000
  0
LINE
  5
2FC
100
AcDbEntity
  8
MAIN0
  6
CENTER
 62
12
100
AcDbLine
 10
204.3442973244124
 20
605.3469206503995
 30
0.0000000000000000
 11
252.5121177936857
 21
605.3469206503995
 31
0.0000000000000000
  0
LINE
  5
2FD
100
AcDbEntity
  8
MAIN0
  6
CONTINUOUS
 62
3
100
AcDbLine
 10
207.4851436281682
 20
402.1219206504000
 30
0.0000000000000000
 11
225.4851436281682
 21
402.1219206504000
 31
0.0000000000000000
  0
LINE
  5
2FE
100
AcDbEntity
  8
MAIN0
  6
CONTINUOUS
 62
3
100
AcDbLine
 10
207.4851436281682
 20
377.1219206504000
 30
0.0000000000000000
 11
225.4851436281682
 21
377.1219206504000
 31
0.0000000000000000
  0
LINE
  5
2FF
100
AcDbEntity
  8
MAIN0
  6
CONTINUOUS
 62
3
100
AcDbLine
 10
207.4851436281682
 20
543.8286700439425
 30
0.0000000000000000
 11
246.3763146552393
 21
543.8286700439425
 31
0.0000000000000000
  0
LINE
  5
300
100
AcDbEntity
  8
MAIN0
  6
CONTINUOUS
 62
3
100
AcDbLine
 10
315.4851436281680
 20
551.3469206503995
 30
0.0000000000000000
 11
315.4851436281680
 21
662.8469206503996
 31
0.0000000000000000
  0
LINE
  5
301
100
AcDbEntity
  8
MAIN0
  6
CONTINUOUS
 62
3
100
AcDbLine
 10
204.4851436281681
 20
665.8469206503996
 30
0.0000000000000000
 11
201.4851436281681
 21
662.8469206503996
 31
0.0000000000000000
  0
LINE
  5
302
100
AcDbEntity
  8
MAIN0
  6
CONTINUOUS
 62
3
100
AcDbLine
 10
312.4851436281681
 20
284.8469206503999
 30
0.0000000000000000
 11
315.4851436281680
 21
287.8469206503998
 31
0.0000000000000000
  0
LINE
  5
303
100
AcDbEntity
  8
MAIN0
  6
CONTINUOUS
 62
3
100
AcDbLine
 10
204.4851436281680
 20
284.8469206503997
 30
0.0000000000000000
 11
201.4851436281680
 21
287.8469206503998
 31
0.0000000000000000
  0
LINE
  5
304
100
AcDbEntity
  8
MAIN0
  6
CONTINUOUS
 62
3
100
AcDbLine
 10
207.4851436281682
 20
325.3469206503999
 30
0.0000000000000000
 11
207.4851436281682
 21
347.8469227373566
 31
0.0000000000000000
  0
LINE
  5
305
100
AcDbEntity
  8
MAIN0
  6
CONTINUOUS
 62
3
100
AcDbLine
 10
207.4851436281682
 20
367.8469146504001
 30
0.0000000000000000
 11
207.4851436281682
 21
427.2969206503994
 31
0.0000000000000000
  0
LINE
  5
306
100
AcDbEntity
  8
MAIN0
  6
CONTINUOUS
 62
3
100
AcDbLine
 10
312.4851436281682
 20
665.8469206503996
 30
0.0000000000000000
 11
314.4851436281682
 21
663.8469206503996
 31
0.0000000000000000
  0
LINE
  5
307
100
AcDbEntity
  8
MAIN0
  6
DASHED
 62
3
100
AcDbLine
 10
314.4851436281682
 20
663.8469206503996
 30
0.0000000000000000
 11
315.4851436281680
 21
662.8469206503996
 31
0.0000000000000000
  0
LINE
  5
308
100
AcDbEntity
  8
MAIN0
  6
CONTINUOUS
 62
3
100
AcDbLine
 10
207.4851436281682
 20
523.3969206503992
 30
0.0000000000000000
 11
207.4851436281682
 21
625.3469206503996
 31
0.0000000000000000
  0
LINE
  5
309
100
AcDbEntity
  8
MAIN0
  6
CONTINUOUS
 62
3
100
AcDbLine
 10
315.4851436281681
 20
287.8469206503999
 30
0.0000000000000000
 11
315.4851436281681
 21
551.3469206503996
 31
0.0000000000000000
  0
LINE
  5
30A
100
AcDbEntity
  8
MAIN0
  6
CONTINUOUS
 62
3
100
AcDbLine
 10
201.4851436281682
 20
625.3469206503996
 30
0.0000000000000000
 11
207.4851436281679
 21
625.3469206503996
 31
0.0000000000000000
  0
LINE
  5
30B
100
AcDbEntity
  8
MAIN0
  6
CONTINUOUS
 62
3
100
AcDbLine
 10
201.4851436281680
 20
325.3469206503997
 30
0.0000000000000000
 11
207.4851436281679
 21
325.3469206503997
 31
0.0000000000000000
  0
LINE
  5
30C
100
AcDbEntity
  8
MAIN0
  6
CENTER
 62
12
100
AcDbLine
 10
173.4475406763769
 20
357.8469206504000
 30
0.0000000000000000
 11
257.8351437712192
 21
357.8469206504000
 31
0.0000000000000000
  0
LINE
  5
30D
100
AcDbEntity
  8
MAIN0
  6
CENTER
 62
12
100
AcDbLine
 10
266.9851436281681
 20
357.8469206504000
 30
0.0000000000000000
 11
320.1001131380203
 21
357.8469206504000
 31
0.0000000000000000
  0
LINE
  5
30E
100
AcDbEntity
  8
MAIN0
  6
CONTINUOUS
 62
3
100
AcDbLine
 10
207.4851436281682
 20
405.3469206503997
 30
0.0000000000000000
 11
214.7024608469640
 21
405.3469206503997
 31
0.0000000000000000
  0
LINE
  5
30F
100
AcDbEntity
  8
MAIN0
  6
CONTINUOUS
 62
3
100
AcDbLine
 10
237.0524602747594
 20
405.3469206503997
 30
0.0000000000000000
 11
308.9851436281680
 21
405.3469206503997
 31
0.0000000000000000
  0
LINE
  5
310
100
AcDbEntity
  8
MAIN0
  6
CONTINUOUS
 62
3
100
AcDbLine
 10
308.9851436281680
 20
541.3469206503996
 30
0.0000000000000000
 11
309.9851436281680
 21
541.3469206503996
 31
0.0000000000000000
  0
LINE
  5
311
100
AcDbEntity
  8
MAIN0
  6
CONTINUOUS
 62
3
100
AcDbLine
 10
309.9851436281680
 20
541.3469206503994
 30
0.0000000000000000
 11
315.4851436281680
 21
538.1714941698564
 31
0.0000000000000000
  0
LINE
  5
312
100
AcDbEntity
  8
MAIN0
  6
CONTINUOUS
 62
3
100
AcDbLine
 10
308.9851436281680
 20
390.3469206503997
 30
0.0000000000000000
 11
315.4851436281680
 21
390.3469206503997
 31
0.0000000000000000
  0
LINE
  5
313
100
AcDbEntity
  8
MAIN0
  6
CONTINUOUS
 62
3
100
AcDbLine
 10
310.9851436281680
 20
403.3469206503997
 30
0.0000000000000000
 11
315.4851436281680
 21
403.3469206503997
 31
0.0000000000000000
  0
LINE
  5
314
100
AcDbEntity
  8
MAIN0
  6
CONTINUOUS
 62
3
100
AcDbLine
 10
310.9851436281680
 20
392.3469206503997
 30
0.0000000000000000
 11
315.4851436281680
 21
392.3469206503997
 31
0.0000000000000000
  0
LINE
  5
315
100
AcDbEntity
  8
MAIN0
  6
CONTINUOUS
 62
3
100
AcDbLine
 10
308.9851436281680
 20
390.3469206503998
 30
0.0000000000000000
 11
308.9851436281680
 21
394.8469206503998
 31
0.0000000000000000
  0
LINE
  5
316
100
AcDbEntity
  8
MAIN0
  6
CONTINUOUS
 62
3
100
AcDbLine
 10
308.9851436281680
 20
400.8469206503997
 30
0.0000000000000000
 11
308.9851436281680
 21
552.8469206503996
 31
0.0000000000000000
  0
LINE
  5
317
100
AcDbEntity
  8
MAIN0
  6
CONTINUOUS
 62
3
100
AcDbLine
 10
310.9851436281680
 20
392.3469206503998
 30
0.0000000000000000
 11
310.9851436281680
 21
403.3469206503999
 31
0.0000000000000000
  0
LINE
  5
318
100
AcDbEntity
  8
MAIN0
  6
CONTINUOUS
 62
3
100
AcDbLine
 10
310.9851436281680
 20
401.1469206503998
 30
0.0000000000000000
 11
308.9851436281680
 21
401.1469206503998
 31
0.0000000000000000
  0
LINE
  5
319
100
AcDbEntity
  8
MAIN0
  6
CONTINUOUS
 62
3
100
AcDbLine
 10
310.9851436281680
 20
394.5469206503997
 30
0.0000000000000000
 11
308.9851436281680
 21
394.5469206503997
 31
0.0000000000000000
  0
LINE
  5
31A
100
AcDbEntity
  8
MAIN0
  6
CONTINUOUS
 62
3
100
AcDbLine
 10
243.4851436281682
 20
488.8469206503997
 30
0.0000000000000000
 11
300.9851436281680
 21
488.8469206503997
 31
0.0000000000000000
  0
LINE
  5
31B
100
AcDbEntity
  8
MAIN0
  6
CONTINUOUS
 62
3
100
AcDbLine
 10
243.4851436281682
 20
461.8469206503997
 30
0.0000000000000000
 11
300.9851436281680
 21
461.8469206503997
 31
0.0000000000000000
  0
LINE
  5
31C
100
AcDbEntity
  8
MAIN0
  6
CONTINUOUS
 62
3
100
AcDbLine
 10
242.4851436281682
 20
530.9948693249917
 30
0.0000000000000000
 11
246.5813498004208
 21
530.0491856155263
 31
0.0000000000000000
  0
LINE
  5
31D
100
AcDbEntity
  8
MAIN0
  6
CONTINUOUS
 62
3
100
AcDbLine
 10
307.9851436281680
 20
406.8469205672448
 30
0.0000000000000000
 11
307.9851436281680
 21
491.9680868702061
 31
0.0000000000000000
  0
LINE
  5
31E
100
AcDbEntity
  8
MAIN0
  6
CONTINUOUS
 62
3
100
AcDbLine
 10
242.4851436281682
 20
406.8469204722200
 30
0.0000000000000000
 11
242.4851436281682
 21
426.3469206503997
 31
0.0000000000000000
  0
LINE
  5
31F
100
AcDbEntity
  8
MAIN0
  6
CONTINUOUS
 62
3
100
AcDbLine
 10
242.4851436281682
 20
524.3469206503996
 30
0.0000000000000000
 11
242.4851436281682
 21
542.3286699415737
 31
0.0000000000000000
  0
LINE
  5
320
100
AcDbEntity
  8
MAIN0
  6
CONTINUOUS
 62
3
100
AcDbLine
 10
243.4851436281682
 20
444.8469206504000
 30
0.0000000000000000
 11
243.4851436281682
 21
505.8469206503995
 31
0.0000000000000000
  0
LINE
  5
321
100
AcDbEntity
  8
MAIN0
  6
CONTINUOUS
 62
3
100
AcDbLine
 10
204.4851436281682
 20
514.3469206503996
 30
0.0000000000000000
 11
232.4851436281682
 21
514.3469206503997
 31
0.0000000000000000
  0
LINE
  5
322
100
AcDbEntity
  8
MAIN0
  6
CONTINUOUS
 62
3
100
AcDbLine
 10
204.4851436281681
 20
436.3469206503998
 30
0.0000000000000000
 11
232.4851436281682
 21
436.3469206503998
 31
0.0000000000000000
  0
LINE
  5
323
100
AcDbEntity
  8
MAIN0
  6
CONTINUOUS
 62
3
100
AcDbLine
 10
300.9851436281679
 20
432.3469206503997
 30
0.0000000000000000
 11
307.9851436281679
 21
432.3469206503997
 31
0.0000000000000000
  0
LINE
  5
324
100
AcDbEntity
  8
MAIN0
  6
CONTINUOUS
 62
3
100
AcDbLine
 10
300.9851436281680
 20
432.3469206503999
 30
0.0000000000000000
 11
300.9851436281680
 21
492.3717588281005
 31
0.0000000000000000
  0
LINE
  5
325
100
AcDbEntity
  8
MAIN0
  6
CONTINUOUS
 62
3
100
AcDbLine
 10
225.6871020167689
 20
514.3469206503996
 30
0.0000000000000000
 11
253.2690449951411
 21
507.9791273672544
 31
0.0000000000000000
  0
LINE
  5
326
100
AcDbEntity
  8
MAIN0
  6
CONTINUOUS
 62
3
100
AcDbLine
 10
223.4643962754760
 20
514.3469206503996
 30
0.0000000000000000
 11
253.9054877681348
 21
507.3190409216016
 31
0.0000000000000000
  0
LINE
  5
327
100
AcDbEntity
  8
MAIN0
  6
CONTINUOUS
 62
3
100
AcDbLine
 10
238.4851436281682
 20
505.8469206503995
 30
0.0000000000000000
 11
243.4851436281682
 21
505.8469206503995
 31
0.0000000000000000
  0
LINE
  5
328
100
AcDbEntity
  8
MAIN0
  6
CONTINUOUS
 62
3
100
AcDbLine
 10
238.4851436281682
 20
444.8469206503997
 30
0.0000000000000000
 11
243.4851436281682
 21
444.8469206503997
 31
0.0000000000000000
  0
LINE
  5
329
100
AcDbEntity
  8
MAIN0
  6
CONTINUOUS
 62
3
100
AcDbLine
 10
238.4851436281682
 20
504.3469206503995
 30
0.0000000000000000
 11
238.4851436281682
 21
505.8469206503995
 31
0.0000000000000000
  0
LINE
  5
32A
100
AcDbEntity
  8
MAIN0
  6
CONTINUOUS
 62
3
100
AcDbLine
 10
238.4851436281681
 20
444.8469206503997
 30
0.0000000000000000
 11
238.4851436281681
 21
446.3469206504000
 31
0.0000000000000000
  0
ARC
  5
32B
100
AcDbEntity
  8
MAIN0
  6
CONTINUOUS
 62
3
100
AcDbCircle
 10
232.4851436281682
 20
524.3469206503996
 30
0.0000000000000000
 40
9.999999999999998
100
AcDbArc
 50
269.9999999999999
 51
359.9999999999998
  0
ARC
  5
32C
100
AcDbEntity
  8
MAIN0
  6
CONTINUOUS
 62
3
100
AcDbCircle
 10
232.4851436281682
 20
426.3469206503997
 30
0.0000000000000000
 40
9.999999999999998
100
AcDbArc
 50
0.0000000000000000
 51
89.99999999999970
  0
ARC
  5
32D
100
AcDbEntity
  8
MAIN0
  6
CONTINUOUS
 62
3
100
AcDbCircle
 10
243.9851436281682
 20
542.3286700439423
 30
0.0000000000000000
 40
1.499999999999986
100
AcDbArc
 50
89.99999999999970
 51
179.9999999999998
  0
ARC
  5
32E
100
AcDbEntity
  8
MAIN0
  6
CONTINUOUS
 62
3
100
AcDbCircle
 10
243.9851436281682
 20
406.8469206503997
 30
0.0000000000000000
 40
1.499999999999986
100
AcDbArc
 50
179.9999999999998
 51
269.9999999999999
  0
ARC
  5
32F
100
AcDbEntity
  8
MAIN0
  6
CONTINUOUS
 62
3
100
AcDbCircle
 10
306.4851436281680
 20
406.8469206503997
 30
0.0000000000000000
 40
1.499999999999986
100
AcDbArc
 50
269.9999999999999
 51
359.9999999999998
  0
LINE
  5
330
100
AcDbEntity
  8
MAIN0
  6
CONTINUOUS
 62
3
100
AcDbLine
 10
250.9851436281682
 20
666.8469206503996
 30
0.0000000000000000
 11
316.4851436281681
 21
666.8469206503996
 31
0.0000000000000000
  0
LINE
  5
331
100
AcDbEntity
  8
MAIN0
  6
CONTINUOUS
 62
3
100
AcDbLine
 10
308.9851436281680
 20
552.8469206503996
 30
0.0000000000000000
 11
316.4851436281682
 21
552.8469206503996
 31
0.0000000000000000
  0
LINE
  5
332
100
AcDbEntity
  8
MAIN0
  6
CONTINUOUS
 62
12
100
AcDbLine
 10
208.4851436281682
 20
504.3469206503995
 30
0.0000000000000000
 11
243.4851436281683
 21
504.3469206503995
 31
0.0000000000000000
  0
LINE
  5
333
100
AcDbEntity
  8
MAIN0
  6
CONTINUOUS
 62
12
100
AcDbLine
 10
208.4851436281682
 20
446.3469206503997
 30
0.0000000000000000
 11
243.4851436281683
 21
446.3469206503997
 31
0.0000000000000000
  0
LINE
  5
334
100
AcDbEntity
  8
MAIN0
  6
CONTINUOUS
 62
12
100
AcDbLine
 10
208.4851436281677
 20
504.3469206503997
 30
0.0000000000000000
 11
206.7530928205987
 21
505.3469206503997
 31
0.0000000000000000
  0
LINE
  5
335
100
AcDbEntity
  8
MAIN0
  6
CONTINUOUS
 62
12
100
AcDbLine
 10
208.4851436281678
 20
446.3469206503997
 30
0.0000000000000000
 11
206.7530928205988
 21
445.3469206503997
 31
0.0000000000000000
  0
LINE
  5
336
100
AcDbEntity
  8
MAIN0
  6
CONTINUOUS
 62
3
100
AcDbLine
 10
208.4851436281682
 20
498.8469206503995
 30
0.0000000000000000
 11
243.4851436281682
 21
498.8469206503995
 31
0.0000000000000000
  0
LINE
  5
337
100
AcDbEntity
  8
MAIN0
  6
CONTINUOUS
 62
3
100
AcDbLine
 10
208.4851436281682
 20
451.8469206503997
 30
0.0000000000000000
 11
243.4851436281682
 21
451.8469206503997
 31
0.0000000000000000
  0
LINE
  5
338
100
AcDbEntity
  8
MAIN0
  6
CONTINUOUS
 62
3
100
AcDbLine
 10
173.4851436281681
 20
489.3469206503997
 30
0.0000000000000000
 11
173.4851436281681
 21
504.3469206503995
 31
0.0000000000000000
  0
LINE
  5
339
100
AcDbEntity
  8
MAIN0
  6
CONTINUOUS
 62
3
100
AcDbLine
 10
174.4851436281682
 20
505.3469206503997
 30
0.0000000000000000
 11
173.4851436281682
 21
504.3469206503997
 31
0.0000000000000000
  0
LINE
  5
33A
100
AcDbEntity
  8
MAIN0
  6
CENTER
 62
12
100
AcDbLine
 10
192.8371778066557
 20
453.3469206503997
 30
0.0000000000000000
 11
168.3622087031919
 21
453.3469206503997
 31
0.0000000000000000
  0
LINE
  5
33B
100
AcDbEntity
  8
MAIN0
  6
CONTINUOUS
 62
3
100
AcDbLine
 10
173.4851436281682
 20
455.8469206503997
 30
0.0000000000000000
 11
188.4851436281682
 21
455.8469206503997
 31
0.0000000000000000
  0
LINE
  5
33C
100
AcDbEntity
  8
MAIN0
  6
CONTINUOUS
 62
3
100
AcDbLine
 10
173.4851436281682
 20
450.8469206503997
 30
0.0000000000000000
 11
188.4851436281682
 21
450.8469206503997
 31
0.0000000000000000
  0
LINE
  5
33D
100
AcDbEntity
  8
MAIN0
  6
CONTINUOUS
 62
3
100
AcDbLine
 10
188.4851436281682
 20
455.8469206503996
 30
0.0000000000000000
 11
189.9285193011422
 21
453.3469206503996
 31
0.0000000000000000
  0
LINE
  5
33E
100
AcDbEntity
  8
MAIN0
  6
CONTINUOUS
 62
3
100
AcDbLine
 10
188.4851436281679
 20
450.8469206503996
 30
0.0000000000000000
 11
189.9285193011421
 21
453.3469206503998
 31
0.0000000000000000
  0
LINE
  5
33F
100
AcDbEntity
  8
MAIN0
  6
CONTINUOUS
 62
3
100
AcDbLine
 10
173.4851436281682
 20
446.3469206503997
 30
0.0000000000000000
 11
173.4851436281682
 21
450.8469206503997
 31
0.0000000000000000
  0
LINE
  5
340
100
AcDbEntity
  8
MAIN0
  6
CONTINUOUS
 62
3
100
AcDbLine
 10
173.4851436281681
 20
455.8469206503997
 30
0.0000000000000000
 11
173.4851436281681
 21
461.3469206503998
 31
0.0000000000000000
  0
LINE
  5
341
100
AcDbEntity
  8
MAIN0
  6
CONTINUOUS
 62
3
100
AcDbLine
 10
174.4851436281682
 20
445.3469206503997
 30
0.0000000000000000
 11
173.4851436281682
 21
446.3469206503997
 31
0.0000000000000000
  0
LINE
  5
342
100
AcDbEntity
  8
MAIN0
  6
CONTINUOUS
 62
3
100
AcDbLine
 10
213.9181563300599
 20
505.3469206503995
 30
0.0000000000000000
 11
243.4851436281683
 21
505.3469206503995
 31
0.0000000000000000
  0
LINE
  5
343
100
AcDbEntity
  8
MAIN0
  6
CONTINUOUS
 62
3
100
AcDbLine
 10
174.4851436281681
 20
505.3469206503996
 30
0.0000000000000000
 11
203.4851436281680
 21
505.3469206503995
 31
0.0000000000000000
  0
LINE
  5
344
100
AcDbEntity
  8
MAIN0
  6
CONTINUOUS
 62
12
100
AcDbLine
 10
203.4851436281681
 20
505.3469206503997
 30
0.0000000000000000
 11
213.9181563300599
 21
505.3469206503997
 31
0.0000000000000000
  0
LINE
  5
345
100
AcDbEntity
  8
MAIN0
  6
CONTINUOUS
 62
3
100
AcDbLine
 10
213.9181563300598
 20
445.3469206503998
 30
0.0000000000000000
 11
243.4851436281682
 21
445.3469206503997
 31
0.0000000000000000
  0
LINE
  5
346
100
AcDbEntity
  8
MAIN0
  6
CONTINUOUS
 62
3
100
AcDbLine
 10
174.4851436281681
 20
445.3469206503997
 30
0.0000000000000000
 11
203.4851436281680
 21
445.3469206503997
 31
0.0000000000000000
  0
LINE
  5
347
100
AcDbEntity
  8
MAIN0
  6
CONTINUOUS
 62
12
100
AcDbLine
 10
203.4851436281680
 20
445.3469206503998
 30
0.0000000000000000
 11
213.9181563300598
 21
445.3469206503998
 31
0.0000000000000000
  0
LINE
  5
348
100
AcDbEntity
  8
MAIN0
  6
CONTINUOUS
 62
3
100
AcDbLine
 10
208.4851436281681
 20
451.8469206504000
 30
0.0000000000000000
 11
208.4851436281681
 21
498.8469206503997
 31
0.0000000000000000
  0
LINE
  5
349
100
AcDbEntity
  8
MAIN0
  6
CONTINUOUS
 62
3
100
AcDbLine
 10
208.4851436281681
 20
497.8469206503997
 30
0.0000000000000000
 11
235.4851436281682
 21
497.8469206503997
 31
0.0000000000000000
  0
LINE
  5
34A
100
AcDbEntity
  8
MAIN0
  6
CONTINUOUS
 62
3
100
AcDbLine
 10
208.4851436281681
 20
452.8469206504000
 30
0.0000000000000000
 11
235.4851436281682
 21
452.8469206504000
 31
0.0000000000000000
  0
LINE
  5
34B
100
AcDbEntity
  8
MAIN0
  6
CONTINUOUS
 62
3
100
AcDbLine
 10
85.48514362816832
 20
490.3469206503997
 30
0.0000000000000000
 11
208.4851436281682
 21
490.3469206503997
 31
0.0000000000000000
  0
LINE
  5
34C
100
AcDbEntity
  8
MAIN0
  6
CONTINUOUS
 62
3
100
AcDbLine
 10
85.48514362816832
 20
460.3469206503998
 30
0.0000000000000000
 11
208.4851436281682
 21
460.3469206503998
 31
0.0000000000000000
  0
LINE
  5
34D
100
AcDbEntity
  8
MAIN0
  6
CONTINUOUS
 62
3
100
AcDbLine
 10
83.48514362816809
 20
462.3469206503996
 30
0.0000000000000000
 11
83.48514362816809
 21
488.3469206503998
 31
0.0000000000000000
  0
LINE
  5
34E
100
AcDbEntity
  8
MAIN0
  6
CONTINUOUS
 62
3
100
AcDbLine
 10
183.4851436281681
 20
460.3469206503998
 30
0.0000000000000000
 11
183.4851436281681
 21
490.3469206503997
 31
0.0000000000000000
  0
LINE
  5
34F
100
AcDbEntity
  8
MAIN0
  6
CONTINUOUS
 62
12
100
AcDbLine
 10
84.48514362816820
 20
489.3469206503997
 30
0.0000000000000000
 11
183.4851436281681
 21
489.3469206503997
 31
0.0000000000000000
  0
LINE
  5
350
100
AcDbEntity
  8
MAIN0
  6
CONTINUOUS
 62
12
100
AcDbLine
 10
84.48514362816820
 20
461.3469206503997
 30
0.0000000000000000
 11
183.4851436281681
 21
461.3469206503997
 31
0.0000000000000000
  0
LINE
  5
351
100
AcDbEntity
  8
MAIN0
  6
CONTINUOUS
 62
3
100
AcDbLine
 10
238.4851436281682
 20
455.8469206503995
 30
0.0000000000000000
 11
238.4851436281682
 21
494.8469206503995
 31
0.0000000000000000
  0
LINE
  5
352
100
AcDbEntity
  8
MAIN0
  6
CONTINUOUS
 62
3
100
AcDbLine
 10
85.48514362816809
 20
460.3469206503997
 30
0.0000000000000000
 11
85.48514362816809
 21
490.3469206503997
 31
0.0000000000000000
  0
LINE
  5
353
100
AcDbEntity
  8
MAIN0
  6
CONTINUOUS
 62
3
100
AcDbLine
 10
85.48514362816809
 20
460.3469206503996
 30
0.0000000000000000
 11
83.48514362816809
 21
462.3469206503996
 31
0.0000000000000000
  0
LINE
  5
354
100
AcDbEntity
  8
MAIN0
  6
CONTINUOUS
 62
3
100
AcDbLine
 10
83.48514362816832
 20
488.3469206503999
 30
0.0000000000000000
 11
85.48514362816832
 21
490.3469206503999
 31
0.0000000000000000
  0
LINE
  5
355
100
AcDbEntity
  8
MAIN0
  6
CONTINUOUS
 62
3
100
AcDbLine
 10
235.4851436281682
 20
452.8469206503993
 30
0.0000000000000000
 11
235.4851436281682
 21
497.8469206503997
 31
0.0000000000000000
  0
LINE
  5
356
100
AcDbEntity
  8
MAIN0
  6
CONTINUOUS
 62
3
100
AcDbLine
 10
235.4851436281683
 20
497.8469206503996
 30
0.0000000000000000
 11
238.4851436281683
 21
494.8469206503996
 31
0.0000000000000000
  0
LINE
  5
357
100
AcDbEntity
  8
MAIN0
  6
CONTINUOUS
 62
3
100
AcDbLine
 10
235.4851436281684
 20
452.8469206503996
 30
0.0000000000000000
 11
238.4851436281683
 21
455.8469206503994
 31
0.0000000000000000
  0
LINE
  5
358
100
AcDbEntity
  8
MAIN0
  6
CENTER
 62
12
100
AcDbLine
 10
276.9851436281681
 20
475.3469206503997
 30
0.0000000000000000
 11
326.6486165507461
 21
475.3469206503997
 31
0.0000000000000000
  0
LINE
  5
359
100
AcDbEntity
  8
MAIN0
  6
CENTER
 62
12
100
AcDbLine
 10
221.9851436281681
 20
475.3469206503997
 30
0.0000000000000000
 11
267.8351437712192
 21
475.3469206503997
 31
0.0000000000000000
  0
LINE
  5
35A
100
AcDbEntity
  8
MAIN0
  6
CENTER
 62
12
100
AcDbLine
 10
196.9851436281681
 20
475.3469206503997
 30
0.0000000000000000
 11
212.8351437712192
 21
475.3469206503997
 31
0.0000000000000000
  0
LINE
  5
35B
100
AcDbEntity
  8
MAIN0
  6
CENTER
 62
12
100
AcDbLine
 10
81.44395147804937
 20
475.3469206503997
 30
0.0000000000000000
 11
157.8351437712192
 21
475.3469206503997
 31
0.0000000000000000
  0
LINE
  5
35C
100
AcDbEntity
  8
MAIN0
  6
CENTER
 62
12
100
AcDbLine
 10
166.9851436281681
 20
475.3469206503997
 30
0.0000000000000000
 11
187.8351437712192
 21
475.3469206503997
 31
0.0000000000000000
  0
LINE
  5
35D
100
AcDbEntity
  8
MAIN0
  6
CONTINUOUS
 62
3
100
AcDbLine
 10
140.4851436281681
 20
502.8469206503997
 30
0.0000000000000000
 11
173.4851436281682
 21
502.8469206503997
 31
0.0000000000000000
  0
LINE
  5
35E
100
AcDbEntity
  8
MAIN0
  6
CONTINUOUS
 62
3
100
AcDbLine
 10
140.4851436281681
 20
447.8469206504000
 30
0.0000000000000000
 11
173.4851436281681
 21
447.8469206504000
 31
0.0000000000000000
  0
LINE
  5
35F
100
AcDbEntity
  8
MAIN0
  6
CONTINUOUS
 62
3
100
AcDbLine
 10
138.4851436281681
 20
449.8469206504000
 30
0.0000000000000000
 11
138.4851436281681
 21
461.3469206503998
 31
0.0000000000000000
  0
LINE
  5
360
100
AcDbEntity
  8
MAIN0
  6
CONTINUOUS
 62
3
100
AcDbLine
 10
138.4851436281681
 20
489.3469206503997
 30
0.0000000000000000
 11
138.4851436281681
 21
500.8469206503997
 31
0.0000000000000000
  0
LINE
  5
361
100
AcDbEntity
  8
MAIN0
  6
CONTINUOUS
 62
3
100
AcDbLine
 10
140.4851436281682
 20
502.8469206503997
 30
0.0000000000000000
 11
138.4851436281682
 21
500.8469206503997
 31
0.0000000000000000
  0
LINE
  5
362
100
AcDbEntity
  8
MAIN0
  6
CONTINUOUS
 62
3
100
AcDbLine
 10
140.4851436281682
 20
447.8469206503997
 30
0.0000000000000000
 11
138.4851436281681
 21
449.8469206503997
 31
0.0000000000000000
  0
LINE
  5
363
100
AcDbEntity
  8
MAIN0
  6
CONTINUOUS
 62
3
100
AcDbLine
 10
172.0417679551940
 20
453.3469206504000
 30
0.0000000000000000
 11
173.4851436281679
 21
455.8469206503997
 31
0.0000000000000000
  0
LINE
  5
364
100
AcDbEntity
  8
MAIN0
  6
CONTINUOUS
 62
3
100
AcDbLine
 10
172.0417679551940
 20
453.3469206503999
 30
0.0000000000000000
 11
173.4851436281682
 21
450.8469206503997
 31
0.0000000000000000
  0
LINE
  5
365
100
AcDbEntity
  8
MAIN0
  6
CENTER
 62
12
100
AcDbLine
 10
153.4851436281681
 20
446.4619733944484
 30
0.0000000000000000
 11
153.4851436281681
 21
462.5338635764861
 31
0.0000000000000000
  0
LINE
  5
366
100
AcDbEntity
  8
MAIN0
  6
CONTINUOUS
 62
3
100
AcDbLine
 10
376.4851436281681
 20
531.0969206503995
 30
0.0000000000000000
 11
376.4851436281681
 21
666.0969206503996
 31
0.0000000000000000
  0
LINE
  5
367
100
AcDbEntity
  8
MAIN0
  6
CONTINUOUS
 62
3
100
AcDbLine
 10
317.4851436281681
 20
531.0969206503995
 30
0.0000000000000000
 11
376.4851436281680
 21
531.0969206503995
 31
0.0000000000000000
  0
LINE
  5
368
100
AcDbEntity
  8
MAIN0
  6
CENTER
 62
12
100
AcDbLine
 10
296.8351500688104
 20
597.0969206503996
 30
0.0000000000000000
 11
382.1958757311178
 21
597.0969206503996
 31
0.0000000000000000
  0
LINE
  5
369
100
AcDbEntity
  8
MAIN0
  6
CENTER
 62
12
100
AcDbLine
 10
296.9965976088708
 20
640.0969206503996
 30
0.0000000000000000
 11
379.9458776673376
 21
640.0969206503996
 31
0.0000000000000000
  0
LINE
  5
36A
100
AcDbEntity
  8
MAIN0
  6
CONTINUOUS
 62
3
100
AcDbLine
 10
317.4851436281681
 20
666.0969206503996
 30
0.0000000000000000
 11
376.4851436281680
 21
666.0969206503996
 31
0.0000000000000000
  0
LINE
  5
36B
100
AcDbEntity
  8
MAIN0
  6
CONTINUOUS
 62
3
100
AcDbLine
 10
321.4851436281681
 20
531.0969206503995
 30
0.0000000000000000
 11
321.4851436281681
 21
666.0969206503995
 31
0.0000000000000000
  0
LINE
  5
36C
100
AcDbEntity
  8
MAIN0
  6
CONTINUOUS
 62
3
100
AcDbLine
 10
376.4851436281680
 20
613.0969206503996
 30
0.0000000000000000
 11
337.4851436281681
 21
613.0969206503996
 31
0.0000000000000000
  0
LINE
  5
36D
100
AcDbEntity
  8
MAIN0
  6
CONTINUOUS
 62
3
100
AcDbLine
 10
337.4851436281681
 20
607.5969206503996
 30
0.0000000000000000
 11
321.4851436281681
 21
607.5969206503996
 31
0.0000000000000000
  0
LINE
  5
36E
100
AcDbEntity
  8
MAIN0
  6
CONTINUOUS
 62
3
100
AcDbLine
 10
337.4851436281681
 20
586.5969206503996
 30
0.0000000000000000
 11
321.4851436281681
 21
586.5969206503996
 31
0.0000000000000000
  0
LINE
  5
36F
100
AcDbEntity
  8
MAIN0
  6
CONTINUOUS
 62
3
100
AcDbLine
 10
337.4851436281681
 20
581.0969206503996
 30
0.0000000000000000
 11
376.4851436281680
 21
581.0969206503996
 31
0.0000000000000000
  0
LINE
  5
370
100
AcDbEntity
  8
MAIN0
  6
CONTINUOUS
 62
3
100
AcDbLine
 10
337.4851436281679
 20
656.0969206503996
 30
0.0000000000000000
 11
376.4851436281680
 21
656.0969206503996
 31
0.0000000000000000
  0
LINE
  5
371
100
AcDbEntity
  8
MAIN0
  6
CONTINUOUS
 62
3
100
AcDbLine
 10
321.4851436281681
 20
650.5969206503996
 30
0.0000000000000000
 11
337.4851436281679
 21
650.5969206503996
 31
0.0000000000000000
  0
LINE
  5
372
100
AcDbEntity
  8
MAIN0
  6
CONTINUOUS
 62
3
100
AcDbLine
 10
321.4851436281681
 20
629.5969206503996
 30
0.0000000000000000
 11
337.4851436281679
 21
629.5969206503996
 31
0.0000000000000000
  0
LINE
  5
373
100
AcDbEntity
  8
MAIN0
  6
CONTINUOUS
 62
3
100
AcDbLine
 10
337.4851436281679
 20
624.0969206503996
 30
0.0000000000000000
 11
376.4851436281680
 21
624.0969206503996
 31
0.0000000000000000
  0
LINE
  5
374
100
AcDbEntity
  8
MAIN0
  6
CONTINUOUS
 62
3
100
AcDbLine
 10
337.4851436281679
 20
581.0969206503995
 30
0.0000000000000000
 11
337.4851436281679
 21
613.0969206503996
 31
0.0000000000000000
  0
LINE
  5
375
100
AcDbEntity
  8
MAIN0
  6
CONTINUOUS
 62
3
100
AcDbLine
 10
337.4851436281679
 20
624.0969206503996
 30
0.0000000000000000
 11
337.4851436281679
 21
656.0969206503996
 31
0.0000000000000000
  0
LINE
  5
376
100
AcDbEntity
  8
MAIN0
  6
CONTINUOUS
 62
3
100
AcDbLine
 10
316.4851436281681
 20
531.6742709195887
 30
0.0000000000000000
 11
316.4851436281681
 21
551.3469206503996
 31
0.0000000000000000
  0
LINE
  5
377
100
AcDbEntity
  8
MAIN0
  6
CONTINUOUS
 62
12
100
AcDbLine
 10
316.4851436281681
 20
552.5016211887786
 30
0.0000000000000000
 11
316.4851436281681
 21
666.8469206503995
 31
0.0000000000000000
  0
LINE
  5
378
100
AcDbEntity
  8
MAIN0
  6
CONTINUOUS
 62
12
100
AcDbLine
 10
317.4851436281681
 20
532.2516211887784
 30
0.0000000000000000
 11
317.4851436281681
 21
553.4242709195892
 31
0.0000000000000000
  0
LINE
  5
379
100
AcDbEntity
  8
MAIN0
  6
CONTINUOUS
 62
3
100
AcDbLine
 10
317.4851436281681
 20
553.4242709195892
 30
0.0000000000000000
 11
317.4851436281681
 21
666.2695703812096
 31
0.0000000000000000
  0
LINE
  5
37A
100
AcDbEntity
  8
MAIN0
  6
CONTINUOUS
 62
3
100
AcDbLine
 10
317.4851436281681
 20
616.0969206503996
 30
0.0000000000000000
 11
320.7351436281681
 21
616.0969206503996
 31
0.0000000000000000
  0
LINE
  5
37B
100
AcDbEntity
  8
MAIN0
  6
CONTINUOUS
 62
3
100
AcDbLine
 10
317.4851436281681
 20
578.0969206503996
 30
0.0000000000000000
 11
320.7351436281681
 21
578.0969206503996
 31
0.0000000000000000
  0
LINE
  5
37C
100
AcDbEntity
  8
MAIN0
  6
CONTINUOUS
 62
3
100
AcDbLine
 10
320.7351436281681
 20
578.0969206503995
 30
0.0000000000000000
 11
320.7351436281681
 21
616.0969206503996
 31
0.0000000000000000
  0
LINE
  5
37D
100
AcDbEntity
  8
MAIN0
  6
CONTINUOUS
 62
3
100
AcDbLine
 10
188.4851436281682
 20
450.8469206504000
 30
0.0000000000000000
 11
188.4851436281682
 21
455.8469206503997
 31
0.0000000000000000
  0
LINE
  5
37E
100
AcDbEntity
  8
MAIN0
  6
CONTINUOUS
 62
3
100
AcDbLine
 10
188.4851436281679
 20
455.8469206503996
 30
0.0000000000000000
 11
187.1453976660123
 21
450.8469206503997
 31
0.0000000000000000
  0
LINE
  5
37F
100
AcDbEntity
  8
MAIN0
  6
CONTINUOUS
 62
3
100
AcDbLine
 10
187.1453976660122
 20
450.8469206503996
 30
0.0000000000000000
 11
185.8056517038566
 21
455.8469206503997
 31
0.0000000000000000
  0
LINE
  5
380
100
AcDbEntity
  8
MAIN0
  6
CONTINUOUS
 62
3
100
AcDbLine
 10
184.4659057417005
 20
450.8469206503997
 30
0.0000000000000000
 11
183.1261597795449
 21
455.8469206503997
 31
0.0000000000000000
  0
LINE
  5
381
100
AcDbEntity
  8
MAIN0
  6
CONTINUOUS
 62
3
100
AcDbLine
 10
183.1261597795448
 20
455.8469206503997
 30
0.0000000000000000
 11
181.7864138173892
 21
450.8469206503999
 31
0.0000000000000000
  0
LINE
  5
382
100
AcDbEntity
  8
MAIN0
  6
CONTINUOUS
 62
3
100
AcDbLine
 10
180.4466678552334
 20
455.8469206503995
 30
0.0000000000000000
 11
181.7864138173890
 21
450.8469206503997
 31
0.0000000000000000
  0
LINE
  5
383
100
AcDbEntity
  8
MAIN0
  6
CONTINUOUS
 62
3
100
AcDbLine
 10
180.4466678552332
 20
455.8469206503997
 30
0.0000000000000000
 11
179.1069218930775
 21
450.8469206503997
 31
0.0000000000000000
  0
LINE
  5
384
100
AcDbEntity
  8
MAIN0
  6
CONTINUOUS
 62
3
100
AcDbLine
 10
179.1069218930774
 20
450.8469206503997
 30
0.0000000000000000
 11
177.7671759309218
 21
455.8469206503995
 31
0.0000000000000000
  0
LINE
  5
385
100
AcDbEntity
  8
MAIN0
  6
CONTINUOUS
 62
3
100
AcDbLine
 10
177.7671759309216
 20
450.8469206504000
 30
0.0000000000000000
 11
177.7671759309216
 21
455.8469206503997
 31
0.0000000000000000
  0
LINE
  5
386
100
AcDbEntity
  8
MAIN0
  6
CONTINUOUS
 62
3
100
AcDbLine
 10
184.4659057417009
 20
450.8469206503997
 30
0.0000000000000000
 11
185.8056517038565
 21
455.8469206503996
 31
0.0000000000000000
  0
LINE
  5
387
100
AcDbEntity
  8
MAIN0
  6
CONTINUOUS
 62
3
100
AcDbLine
 10
337.4851586281681
 20
655.0969206503996
 30
0.0000000000000000
 11
356.4851736281680
 21
655.0969056503996
 31
0.0000000000000000
  0
LINE
  5
388
100
AcDbEntity
  8
MAIN0
  6
CONTINUOUS
 62
3
100
AcDbLine
 10
356.4852196281681
 20
625.0969136503995
 30
0.0000000000000000
 11
337.4851286281679
 21
625.0969206503996
 31
0.0000000000000000
  0
LINE
  5
389
100
AcDbEntity
  8
MAIN0
  6
CONTINUOUS
 62
3
100
AcDbLine
 10
356.4851506281681
 20
655.0969056503996
 30
0.0000000000000000
 11
356.4851356281681
 21
625.0969136503995
 31
0.0000000000000000
  0
LINE
  5
38A
100
AcDbEntity
  8
MAIN0
  6
CONTINUOUS
 62
3
100
AcDbLine
 10
357.4851896281681
 20
653.3648656503996
 30
0.0000000000000000
 11
356.4851506281681
 21
655.0969056503996
 31
0.0000000000000000
  0
LINE
  5
38B
100
AcDbEntity
  8
MAIN0
  6
CONTINUOUS
 62
3
100
AcDbLine
 10
357.4851736281681
 20
626.8291516503996
 30
0.0000000000000000
 11
356.4851356281681
 21
625.0969136503995
 31
0.0000000000000000
  0
LINE
  5
38C
100
AcDbEntity
  8
MAIN0
  6
CONTINUOUS
 62
3
100
AcDbLine
 10
357.4851436281680
 20
626.8290996852343
 30
0.0000000000000000
 11
357.4851436281680
 21
653.3649453211323
 31
0.0000000000000000
  0
LINE
  5
38D
100
AcDbEntity
  8
MAIN0
  6
CONTINUOUS
 62
3
100
AcDbLine
 10
328.4851436281681
 20
630.0969206503996
 30
0.0000000000000000
 11
328.4851436281681
 21
650.0969206503996
 31
0.0000000000000000
  0
LINE
  5
38E
100
AcDbEntity
  8
MAIN0
  6
CONTINUOUS
 62
3
100
AcDbLine
 10
320.7351436281682
 20
650.0969046549451
 30
0.0000000000000000
 11
337.4851436281679
 21
650.0968976503996
 31
0.0000000000000000
  0
LINE
  5
38F
100
AcDbEntity
  8
MAIN0
  6
CONTINUOUS
 62
12
100
AcDbLine
 10
320.7351436281681
 20
649.0969206503996
 30
0.0000000000000000
 11
328.4851436281681
 21
649.0969206503996
 31
0.0000000000000000
  0
LINE
  5
390
100
AcDbEntity
  8
MAIN0
  6
CONTINUOUS
 62
12
100
AcDbLine
 10
320.7351436281681
 20
631.0969206503996
 30
0.0000000000000000
 11
328.4851436281681
 21
631.0969206503996
 31
0.0000000000000000
  0
LINE
  5
391
100
AcDbEntity
  8
MAIN0
  6
CONTINUOUS
 62
3
100
AcDbLine
 10
320.7351436281679
 20
630.0969262140360
 30
0.0000000000000000
 11
337.4851436281679
 21
630.0969286503996
 31
0.0000000000000000
  0
LINE
  5
392
100
AcDbEntity
  8
MAIN0
  6
CONTINUOUS
 62
3
100
AcDbLine
 10
337.4851586281679
 20
612.0969206503996
 30
0.0000000000000000
 11
356.4851736281680
 21
612.0969056503996
 31
0.0000000000000000
  0
LINE
  5
393
100
AcDbEntity
  8
MAIN0
  6
CONTINUOUS
 62
3
100
AcDbLine
 10
356.4852196281681
 20
582.0969136503995
 30
0.0000000000000000
 11
337.4851286281681
 21
582.0969206503996
 31
0.0000000000000000
  0
LINE
  5
394
100
AcDbEntity
  8
MAIN0
  6
CONTINUOUS
 62
3
100
AcDbLine
 10
356.4851506281680
 20
612.0969056503996
 30
0.0000000000000000
 11
356.4851356281680
 21
582.0969136503995
 31
0.0000000000000000
  0
LINE
  5
395
100
AcDbEntity
  8
MAIN0
  6
CONTINUOUS
 62
3
100
AcDbLine
 10
357.4851896281681
 20
610.3648656503997
 30
0.0000000000000000
 11
356.4851506281681
 21
612.0969056503996
 31
0.0000000000000000
  0
LINE
  5
396
100
AcDbEntity
  8
MAIN0
  6
CONTINUOUS
 62
3
100
AcDbLine
 10
357.4851736281682
 20
583.8291516503996
 30
0.0000000000000000
 11
356.4851356281682
 21
582.0969136503995
 31
0.0000000000000000
  0
LINE
  5
397
100
AcDbEntity
  8
MAIN0
  6
CONTINUOUS
 62
3
100
AcDbLine
 10
357.4851436281680
 20
583.8290996852342
 30
0.0000000000000000
 11
357.4851436281680
 21
610.3649453211323
 31
0.0000000000000000
  0
LINE
  5
398
100
AcDbEntity
  8
MAIN0
  6
CONTINUOUS
 62
3
100
AcDbLine
 10
328.4851436281681
 20
587.0969206503996
 30
0.0000000000000000
 11
328.4851436281681
 21
607.0969206503996
 31
0.0000000000000000
  0
LINE
  5
399
100
AcDbEntity
  8
MAIN0
  6
CONTINUOUS
 62
3
100
AcDbLine
 10
320.7351436281682
 20
607.0969046549451
 30
0.0000000000000000
 11
337.4851436281680
 21
607.0968976503996
 31
0.0000000000000000
  0
LINE
  5
39A
100
AcDbEntity
  8
MAIN0
  6
CONTINUOUS
 62
12
100
AcDbLine
 10
320.7351436281681
 20
606.0969206503996
 30
0.0000000000000000
 11
328.4851436281681
 21
606.0969206503996
 31
0.0000000000000000
  0
LINE
  5
39B
100
AcDbEntity
  8
MAIN0
  6
CONTINUOUS
 62
12
100
AcDbLine
 10
320.7351436281681
 20
588.0969206503996
 30
0.0000000000000000
 11
328.4851436281681
 21
588.0969206503996
 31
0.0000000000000000
  0
LINE
  5
39C
100
AcDbEntity
  8
MAIN0
  6
CONTINUOUS
 62
3
100
AcDbLine
 10
320.7351436281680
 20
587.0969262140360
 30
0.0000000000000000
 11
337.4851436281678
 21
587.0969286503996
 31
0.0000000000000000
  0
LINE
  5
39D
100
AcDbEntity
  8
MAIN0
  6
CONTINUOUS
 62
3
100
AcDbLine
 10
208.6851436281682
 20
621.3469206503994
 30
0.0000000000000000
 11
228.4851436281683
 21
621.3469206503994
 31
0.0000000000000000
  0
LINE
  5
39E
100
AcDbEntity
  8
MAIN0
  6
CONTINUOUS
 62
3
100
AcDbLine
 10
208.6851436281681
 20
589.3469206503994
 30
0.0000000000000000
 11
228.4851436281682
 21
589.3469206503994
 31
0.0000000000000000
  0
LINE
  5
39F
100
AcDbEntity
  8
MAIN0
  6
CONTINUOUS
 62
3
100
AcDbLine
 10
228.4851436281682
 20
621.3469206503994
 30
0.0000000000000000
 11
228.4851436281681
 21
589.3469206503994
 31
0.0000000000000000
  0
LINE
  5
3A0
100
AcDbEntity
  8
MAIN0
  6
CONTINUOUS
 62
3
100
AcDbLine
 10
207.4851436281681
 20
622.5469206503993
 30
0.0000000000000000
 11
208.6851436281681
 21
621.3469206503994
 31
0.0000000000000000
  0
LINE
  5
3A1
100
AcDbEntity
  8
MAIN0
  6
CONTINUOUS
 62
3
100
AcDbLine
 10
207.4851436281682
 20
588.1469206503994
 30
0.0000000000000000
 11
208.6851436281681
 21
589.3469206503993
 31
0.0000000000000000
  0
LINE
  5
3A2
100
AcDbEntity
  8
MAIN0
  6
CONTINUOUS
 62
3
100
AcDbLine
 10
228.4851436281682
 20
615.3469126503995
 30
0.0000000000000000
 11
243.3084396398879
 21
615.3469126503995
 31
0.0000000000000000
  0
LINE
  5
3A3
100
AcDbEntity
  8
MAIN0
  6
CONTINUOUS
 62
3
100
AcDbLine
 10
228.4851436281682
 20
595.3469436503995
 30
0.0000000000000000
 11
242.5010957240991
 21
595.3469436503995
 31
0.0000000000000000
  0
LINE
  5
3A4
100
AcDbEntity
  8
MAIN0
  6
CONTINUOUS
 62
12
100
AcDbLine
 10
228.4851436281682
 20
614.3469206503995
 30
0.0000000000000000
 11
243.3891634099181
 21
614.3469206503995
 31
0.0000000000000000
  0
LINE
  5
3A5
100
AcDbEntity
  8
MAIN0
  6
CONTINUOUS
 62
12
100
AcDbLine
 10
228.4851436281682
 20
596.3469206503994
 30
0.0000000000000000
 11
242.8240439119633
 21
596.3469206503994
 31
0.0000000000000000
  0
LINE
  5
3A6
100
AcDbEntity
  8
MAIN0
  6
CONTINUOUS
 62
3
100
AcDbLine
 10
228.4851286281681
 20
590.3469206503995
 30
0.0000000000000000
 11
209.4851136281681
 21
590.3469356503995
 31
0.0000000000000000
  0
LINE
  5
3A7
100
AcDbEntity
  8
MAIN0
  6
CONTINUOUS
 62
3
100
AcDbLine
 10
209.4850676281682
 20
620.3469276503995
 30
0.0000000000000000
 11
228.4851586281683
 21
620.3469206503994
 31
0.0000000000000000
  0
LINE
  5
3A8
100
AcDbEntity
  8
MAIN0
  6
CONTINUOUS
 62
3
100
AcDbLine
 10
209.4851366281681
 20
590.3469356503995
 30
0.0000000000000000
 11
209.4851516281681
 21
620.3469276503995
 31
0.0000000000000000
  0
LINE
  5
3A9
100
AcDbEntity
  8
MAIN0
  6
CONTINUOUS
 62
3
100
AcDbLine
 10
208.4850976281682
 20
592.0789756503995
 30
0.0000000000000000
 11
209.4851366281681
 21
590.3469356503995
 31
0.0000000000000000
  0
LINE
  5
3AA
100
AcDbEntity
  8
MAIN0
  6
CONTINUOUS
 62
3
100
AcDbLine
 10
208.4851136281682
 20
618.6146896503994
 30
0.0000000000000000
 11
209.4851516281681
 21
620.3469276503995
 31
0.0000000000000000
  0
LINE
  5
3AB
100
AcDbEntity
  8
MAIN0
  6
CONTINUOUS
 62
3
100
AcDbLine
 10
208.4851436281682
 20
618.6147416155649
 30
0.0000000000000000
 11
208.4851436281682
 21
592.0788959796668
 31
0.0000000000000000
  0
LINE
  5
3AC
100
AcDbEntity
  8
MAIN0
  6
CONTINUOUS
 62
3
100
AcDbLine
 10
292.4851436281682
 20
347.8469286504000
 30
0.0000000000000000
 11
177.4851436281682
 21
347.8469206504001
 31
0.0000000000000000
  0
LINE
  5
3AD
100
AcDbEntity
  8
MAIN0
  6
CONTINUOUS
 62
3
100
AcDbLine
 10
177.4851436281681
 20
347.8469206504001
 30
0.0000000000000000
 11
177.4851436281681
 21
367.8469206504001
 31
0.0000000000000000
  0
LINE
  5
3AE
100
AcDbEntity
  8
MAIN0
  6
CONTINUOUS
 62
3
100
AcDbLine
 10
177.4851436281682
 20
367.8469206504001
 30
0.0000000000000000
 11
292.4851436281683
 21
367.8468976504000
 31
0.0000000000000000
  0
LINE
  5
3AF
100
AcDbEntity
  8
MAIN0
  6
CONTINUOUS
 62
12
100
AcDbLine
 10
223.4851436281681
 20
348.8469206504001
 30
0.0000000000000000
 11
177.4851436281681
 21
348.8469206504001
 31
0.0000000000000000
  0
LINE
  5
3B0
100
AcDbEntity
  8
MAIN0
  6
CONTINUOUS
 62
12
100
AcDbLine
 10
223.4851436281681
 20
366.8469206504001
 30
0.0000000000000000
 11
177.4851436281681
 21
366.8469206504001
 31
0.0000000000000000
  0
LINE
  5
3B1
100
AcDbEntity
  8
MAIN0
  6
CONTINUOUS
 62
3
100
AcDbLine
 10
292.4851586281682
 20
372.8469206504000
 30
0.0000000000000000
 11
311.4851736281680
 21
372.8469056504000
 31
0.0000000000000000
  0
LINE
  5
3B2
100
AcDbEntity
  8
MAIN0
  6
CONTINUOUS
 62
3
100
AcDbLine
 10
311.4852196281681
 20
342.8469136504000
 30
0.0000000000000000
 11
292.4851286281682
 21
342.8469206504001
 31
0.0000000000000000
  0
LINE
  5
3B3
100
AcDbEntity
  8
MAIN0
  6
CONTINUOUS
 62
3
100
AcDbLine
 10
311.4851506281680
 20
372.8469056504001
 30
0.0000000000000000
 11
311.4851356281681
 21
342.8469136504000
 31
0.0000000000000000
  0
LINE
  5
3B4
100
AcDbEntity
  8
MAIN0
  6
CONTINUOUS
 62
3
100
AcDbLine
 10
312.4851896281681
 20
371.1148656504001
 30
0.0000000000000000
 11
311.4851506281681
 21
372.8469056504001
 31
0.0000000000000000
  0
LINE
  5
3B5
100
AcDbEntity
  8
MAIN0
  6
CONTINUOUS
 62
3
100
AcDbLine
 10
312.4851736281681
 20
344.5791516504000
 30
0.0000000000000000
 11
311.4851356281681
 21
342.8469136504000
 31
0.0000000000000000
  0
LINE
  5
3B6
100
AcDbEntity
  8
MAIN0
  6
CONTINUOUS
 62
3
100
AcDbLine
 10
312.4851436281681
 20
344.5790996852346
 30
0.0000000000000000
 11
312.4851436281681
 21
371.1149453211327
 31
0.0000000000000000
  0
LINE
  5
3B7
100
AcDbEntity
  8
MAIN0
  6
CONTINUOUS
 62
3
100
AcDbLine
 10
223.4851436281682
 20
347.8469206504000
 30
0.0000000000000000
 11
223.4851436281682
 21
367.8469206504000
 31
0.0000000000000000
  0
LINE
  5
3B8
100
AcDbEntity
  8
MAIN0
  6
HIDDEN
 62
12
100
AcDbLine
 10
227.4851436281682
 20
610.3469206503992
 30
0.0000000000000000
 11
207.9351436281681
 21
610.3469206503993
 31
0.0000000000000000
  0
LINE
  5
3B9
100
AcDbEntity
  8
MAIN0
  6
HIDDEN
 62
12
100
AcDbLine
 10
227.4851436281682
 20
600.3469206503993
 30
0.0000000000000000
 11
207.9351436281681
 21
600.3469206503993
 31
0.0000000000000000
  0
LINE
  5
3BA
100
AcDbEntity
  8
MAIN0
  6
HIDDEN
 62
3
100
AcDbLine
 10
208.6851436281680
 20
609.5969206503992
 30
0.0000000000000000
 11
207.4851436281682
 21
610.7969206503994
 31
0.0000000000000000
  0
LINE
  5
3BB
100
AcDbEntity
  8
MAIN0
  6
HIDDEN
 62
3
100
AcDbLine
 10
208.6851436281681
 20
601.0969206503993
 30
0.0000000000000000
 11
207.4851436281682
 21
599.8969206503995
 31
0.0000000000000000
  0
LINE
  5
3BC
100
AcDbEntity
  8
MAIN0
  6
HIDDEN
 62
3
100
AcDbLine
 10
237.4851436281682
 20
609.5969206503993
 30
0.0000000000000000
 11
208.6851436281680
 21
609.5969206503994
 31
0.0000000000000000
  0
LINE
  5
3BD
100
AcDbEntity
  8
MAIN0
  6
HIDDEN
 62
3
100
AcDbLine
 10
237.4851436281682
 20
601.0969206503993
 30
0.0000000000000000
 11
208.6851436281681
 21
601.0969206503993
 31
0.0000000000000000
  0
LINE
  5
3BE
100
AcDbEntity
  8
MAIN0
  6
HIDDEN
 62
3
100
AcDbLine
 10
227.4851436281682
 20
610.3469206503993
 30
0.0000000000000000
 11
227.4851436281682
 21
600.3469206503993
 31
0.0000000000000000
  0
LINE
  5
3BF
100
AcDbEntity
  8
MAIN0
  6
HIDDEN
 62
3
100
AcDbLine
 10
237.4851436281682
 20
609.5969206503993
 30
0.0000000000000000
 11
237.4851436281681
 21
601.0969206503993
 31
0.0000000000000000
  0
LINE
  5
3C0
100
AcDbEntity
  8
MAIN0
  6
HIDDEN
 62
3
100
AcDbLine
 10
239.9388822722241
 20
605.3469206503991
 30
0.0000000000000000
 11
237.4851436281683
 21
609.5969206503993
 31
0.0000000000000000
  0
LINE
  5
3C1
100
AcDbEntity
  8
MAIN0
  6
HIDDEN
 62
3
100
AcDbLine
 10
239.9388822722241
 20
605.3469206503991
 30
0.0000000000000000
 11
237.4851436281682
 21
601.0969206503993
 31
0.0000000000000000
  0
LINE
  5
3C2
100
AcDbEntity
  8
MAIN0
  6
HIDDEN
 62
3
100
AcDbLine
 10
208.6851436281680
 20
609.5969206503993
 30
0.0000000000000000
 11
208.6851436281681
 21
601.0969206503994
 31
0.0000000000000000
  0
CIRCLE
  5
3C3
100
AcDbEntity
  8
MAIN0
  6
CONTINUOUS
 62
3
100
AcDbCircle
 10
174.9285193011421
 20
453.3469206504000
 30
0.0000000000000000
 40
2.499999999999993
  0
LINE
  5
3C4
100
AcDbEntity
  8
MAIN0
  6
HIDDEN
 62
12
100
AcDbLine
 10
254.4851436281683
 20
309.8469206503998
 30
0.0000000000000000
 11
254.4851436281683
 21
285.5469206503998
 31
0.0000000000000000
  0
LINE
  5
3C5
100
AcDbEntity
  8
MAIN0
  6
HIDDEN
 62
12
100
AcDbLine
 10
266.4851436281683
 20
309.8469206503998
 30
0.0000000000000000
 11
266.4851436281683
 21
285.5469206503998
 31
0.0000000000000000
  0
LINE
  5
3C6
100
AcDbEntity
  8
MAIN0
  6
HIDDEN
 62
12
100
AcDbLine
 10
255.3851436281682
 20
286.4469206503997
 30
0.0000000000000000
 11
253.7851436281679
 21
284.8469206503999
 31
0.0000000000000000
  0
LINE
  5
3C7
100
AcDbEntity
  8
MAIN0
  6
HIDDEN
 62
12
100
AcDbLine
 10
265.5851436281681
 20
286.4469206503998
 30
0.0000000000000000
 11
267.1851436281679
 21
284.8469206503997
 31
0.0000000000000000
  0
LINE
  5
3C8
100
AcDbEntity
  8
MAIN0
  6
HIDDEN
 62
12
100
AcDbLine
 10
255.3851436281682
 20
315.8469206503998
 30
0.0000000000000000
 11
255.3851436281682
 21
286.4469206503997
 31
0.0000000000000000
  0
LINE
  5
3C9
100
AcDbEntity
  8
MAIN0
  6
HIDDEN
 62
12
100
AcDbLine
 10
265.5851436281683
 20
315.8469206503997
 30
0.0000000000000000
 11
265.5851436281682
 21
286.4469206503998
 31
0.0000000000000000
  0
LINE
  5
3CA
100
AcDbEntity
  8
MAIN0
  6
HIDDEN
 62
12
100
AcDbLine
 10
254.4851436281683
 20
309.8469206503997
 30
0.0000000000000000
 11
266.4851436281683
 21
309.8469206503997
 31
0.0000000000000000
  0
LINE
  5
3CB
100
AcDbEntity
  8
MAIN0
  6
HIDDEN
 62
12
100
AcDbLine
 10
255.3851436281682
 20
315.8469206503999
 30
0.0000000000000000
 11
265.5851436281682
 21
315.8469206503998
 31
0.0000000000000000
  0
LINE
  5
3CC
100
AcDbEntity
  8
MAIN0
  6
HIDDEN
 62
12
100
AcDbLine
 10
260.4851436281684
 20
318.7914070232670
 30
0.0000000000000000
 11
255.3851436281682
 21
315.8469206503999
 31
0.0000000000000000
  0
LINE
  5
3CD
100
AcDbEntity
  8
MAIN0
  6
HIDDEN
 62
12
100
AcDbLine
 10
260.4851436281682
 20
318.7914070232670
 30
0.0000000000000000
 11
265.5851436281681
 21
315.8469206503999
 31
0.0000000000000000
  0
LINE
  5
3CE
100
AcDbEntity
  8
MAIN0
  6
HIDDEN
 62
12
100
AcDbLine
 10
255.3851436281682
 20
286.4469206503997
 30
0.0000000000000000
 11
265.5851436281682
 21
286.4469206503998
 31
0.0000000000000000
  0
LINE
  5
3CF
100
AcDbEntity
  8
MAIN0
  6
CONTINUOUS
 62
3
100
AcDbLine
 10
310.9851436281680
 20
394.8469206503997
 30
0.0000000000000000
 11
298.9851436281681
 21
394.8469206503997
 31
0.0000000000000000
  0
LINE
  5
3D0
100
AcDbEntity
  8
MAIN0
  6
CONTINUOUS
 62
3
100
AcDbLine
 10
310.9851436281680
 20
400.8469206503996
 30
0.0000000000000000
 11
298.9851436281681
 21
400.8469206503996
 31
0.0000000000000000
  0
LINE
  5
3D1
100
AcDbEntity
  8
MAIN0
  6
CONTINUOUS
 62
3
100
AcDbLine
 10
315.1851436281680
 20
395.8469206503993
 30
0.0000000000000000
 11
315.1851436281680
 21
399.8469206504002
 31
0.0000000000000000
  0
LINE
  5
3D2
100
AcDbEntity
  8
MAIN0
  6
CONTINUOUS
 62
3
100
AcDbLine
 10
298.9851436281680
 20
394.8469206503997
 30
0.0000000000000000
 11
298.9851436281680
 21
400.8469206503996
 31
0.0000000000000000
  0
LINE
  5
3D3
100
AcDbEntity
  8
MAIN0
  6
CONTINUOUS
 62
12
100
AcDbLine
 10
298.9851436281681
 20
395.8469206503997
 30
0.0000000000000000
 11
310.9851436281680
 21
395.8469206503997
 31
0.0000000000000000
  0
LINE
  5
3D4
100
AcDbEntity
  8
MAIN0
  6
CONTINUOUS
 62
12
100
AcDbLine
 10
298.9851436281681
 20
399.8469206503996
 30
0.0000000000000000
 11
310.9851436281680
 21
399.8469206503996
 31
0.0000000000000000
  0
ARC
  5
3D5
100
AcDbEntity
  8
MAIN0
  6
CONTINUOUS
 62
3
100
AcDbCircle
 10
310.2800841043585
 20
397.8469206503998
 30
0.0000000000000000
 40
5.297132142217585
100
AcDbArc
 50
277.6488890354127
 51
337.8172021529632
  0
ARC
  5
3D6
100
AcDbEntity
  8
MAIN0
  6
CONTINUOUS
 62
3
100
AcDbCircle
 10
310.2800841043585
 20
397.8469206503998
 30
0.0000000000000000
 40
5.297132142217585
100
AcDbArc
 50
22.18279784703669
 51
82.35111096458650
  0
LINE
  5
3D7
100
AcDbEntity
  8
MAIN0
  6
CONTINUOUS
 62
3
100
AcDbLine
 10
206.9851436281682
 20
436.3469206503999
 30
0.0000000000000000
 11
206.9851436281682
 21
445.0969206504000
 31
0.0000000000000000
  0
LINE
  5
3D8
100
AcDbEntity
  8
MAIN0
  6
CONTINUOUS
 62
3
100
AcDbLine
 10
212.9851436281682
 20
436.3469206503999
 30
0.0000000000000000
 11
212.9851436281682
 21
445.0969206504000
 31
0.0000000000000000
  0
LINE
  5
3D9
100
AcDbEntity
  8
MAIN0
  6
CONTINUOUS
 62
12
100
AcDbLine
 10
207.5266436281681
 20
436.3469206503999
 30
0.0000000000000000
 11
207.5266436281681
 21
445.0969206504000
 31
0.0000000000000000
  0
LINE
  5
3DA
100
AcDbEntity
  8
MAIN0
  6
CONTINUOUS
 62
12
100
AcDbLine
 10
212.4436436281682
 20
436.3469206503999
 30
0.0000000000000000
 11
212.4436436281682
 21
445.0969206504000
 31
0.0000000000000000
  0
LINE
  5
3DB
100
AcDbEntity
  8
MAIN0
  6
CONTINUOUS
 62
12
100
AcDbLine
 10
208.4851436281682
 20
445.3469206503999
 30
0.0000000000000000
 11
211.4851436281680
 21
445.3469206503999
 31
0.0000000000000000
  0
LINE
  5
3DC
100
AcDbEntity
  8
MAIN0
  6
CONTINUOUS
 62
3
100
AcDbLine
 10
207.8511690319525
 20
437.3469206503997
 30
0.0000000000000000
 11
212.1191182243838
 21
437.3469206503997
 31
0.0000000000000000
  0
LINE
  5
3DD
100
AcDbEntity
  8
MAIN0
  6
CONTINUOUS
 62
3
100
AcDbLine
 10
206.9851436281682
 20
443.8469206503998
 30
0.0000000000000000
 11
212.9851436281681
 21
443.8469206503998
 31
0.0000000000000000
  0
LINE
  5
3DE
100
AcDbEntity
  8
MAIN0
  6
CONTINUOUS
 62
3
100
AcDbLine
 10
206.9851436281681
 20
437.8469206503997
 30
0.0000000000000000
 11
212.9851436281682
 21
437.8469206503997
 31
0.0000000000000000
  0
LINE
  5
3DF
100
AcDbEntity
  8
MAIN0
  6
CONTINUOUS
 62
3
100
AcDbLine
 10
206.9851436281682
 20
443.8469206503996
 30
0.0000000000000000
 11
208.4851436281683
 21
445.3469206503997
 31
0.0000000000000000
  0
LINE
  5
3E0
100
AcDbEntity
  8
MAIN0
  6
CONTINUOUS
 62
3
100
AcDbLine
 10
211.4851436281682
 20
445.3469206503997
 30
0.0000000000000000
 11
212.9851436281683
 21
443.8469206503995
 31
0.0000000000000000
  0
LINE
  5
3E1
100
AcDbEntity
  8
MAIN0
  6
CONTINUOUS
 62
3
100
AcDbLine
 10
207.8511690319526
 20
437.3469206503997
 30
0.0000000000000000
 11
206.9851436281683
 21
437.8469206503996
 31
0.0000000000000000
  0
LINE
  5
3E2
100
AcDbEntity
  8
MAIN0
  6
CONTINUOUS
 62
3
100
AcDbLine
 10
212.9851436281683
 20
437.8469206503994
 30
0.0000000000000000
 11
212.1191182243841
 21
437.3469206503996
 31
0.0000000000000000
  0
LINE
  5
3E3
100
AcDbEntity
  8
MAIN0
  6
CONTINUOUS
 62
3
100
AcDbLine
 10
149.4851436281681
 20
447.8469206504000
 30
0.0000000000000000
 11
149.4851436281681
 21
461.3469206503998
 31
0.0000000000000000
  0
LINE
  5
3E4
100
AcDbEntity
  8
MAIN0
  6
CONTINUOUS
 62
3
100
AcDbLine
 10
157.4851436281681
 20
447.8469206504000
 30
0.0000000000000000
 11
157.4851436281681
 21
461.3469206503998
 31
0.0000000000000000
  0
LINE
  5
3E5
100
AcDbEntity
  8
MAIN0
  6
CONTINUOUS
 62
12
100
AcDbLine
 10
150.1616436281681
 20
447.8469206504000
 30
0.0000000000000000
 11
150.1616436281681
 21
461.3469206503998
 31
0.0000000000000000
  0
LINE
  5
3E6
100
AcDbEntity
  8
MAIN0
  6
CONTINUOUS
 62
12
100
AcDbLine
 10
156.8086436281681
 20
447.8469206504000
 30
0.0000000000000000
 11
156.8086436281681
 21
461.3469206503998
 31
0.0000000000000000
  0
LINE
  5
3E7
100
AcDbEntity
  8
MAIN0
  6
CONTINUOUS
 62
3
100
AcDbLine
 10
150.9851436281682
 20
460.3469206503997
 30
0.0000000000000000
 11
155.9851436281680
 21
460.3469206503997
 31
0.0000000000000000
  0
LINE
  5
3E8
100
AcDbEntity
  8
MAIN0
  6
CONTINUOUS
 62
3
100
AcDbLine
 10
150.5243741127094
 20
448.3469206503999
 30
0.0000000000000000
 11
156.4459131436269
 21
448.3469206503999
 31
0.0000000000000000
  0
LINE
  5
3E9
100
AcDbEntity
  8
MAIN0
  6
CONTINUOUS
 62
3
100
AcDbLine
 10
157.4851436281680
 20
458.8469206503998
 30
0.0000000000000000
 11
149.4851436281682
 21
458.8469206503998
 31
0.0000000000000000
  0
LINE
  5
3EA
100
AcDbEntity
  8
MAIN0
  6
CONTINUOUS
 62
3
100
AcDbLine
 10
149.4851436281681
 20
448.9469206503997
 30
0.0000000000000000
 11
157.4851436281682
 21
448.9469206503997
 31
0.0000000000000000
  0
LINE
  5
3EB
100
AcDbEntity
  8
MAIN0
  6
CONTINUOUS
 62
3
100
AcDbLine
 10
149.4851436281682
 20
458.8469206503996
 30
0.0000000000000000
 11
150.9851436281682
 21
460.3469206503997
 31
0.0000000000000000
  0
LINE
  5
3EC
100
AcDbEntity
  8
MAIN0
  6
CONTINUOUS
 62
3
100
AcDbLine
 10
155.9851436281681
 20
460.3469206503997
 30
0.0000000000000000
 11
157.4851436281682
 21
458.8469206503996
 31
0.0000000000000000
  0
LINE
  5
3ED
100
AcDbEntity
  8
MAIN0
  6
CONTINUOUS
 62
3
100
AcDbLine
 10
150.5243741127093
 20
448.3469206503997
 30
0.0000000000000000
 11
149.4851436281680
 21
448.9469206503998
 31
0.0000000000000000
  0
LINE
  5
3EE
100
AcDbEntity
  8
MAIN0
  6
CONTINUOUS
 62
3
100
AcDbLine
 10
157.4851436281681
 20
448.9469206503996
 30
0.0000000000000000
 11
156.4459131436268
 21
448.3469206503996
 31
0.0000000000000000
  0
LINE
  5
3EF
100
AcDbEntity
  8
WAKU0
  6
CONTINUOUS
 62
3
100
AcDbLine
 10
412.0000000000000
 20
51.00000000000000
 30
0.0000000000000000
 11
582.0000000000000
 21
51.00000000000000
 31
0.0000000000000000
  0
LINE
  5
3F0
100
AcDbEntity
  8
WAKU0
  6
CONTINUOUS
 62
3
100
AcDbLine
 10
412.0000000000000
 20
51.00000000000000
 30
0.0000000000000000
 11
412.0000000000000
 21
12.00000000000000
 31
0.0000000000000000
  0
LINE
  5
3F1
100
AcDbEntity
  8
WAKU0
  6
CONTINUOUS
 62
3
100
AcDbLine
 10
484.0000000000000
 20
51.00000000000000
 30
0.0000000000000000
 11
484.0000000000000
 21
12.00000000000000
 31
0.0000000000000000
  0
LINE
  5
3F2
100
AcDbEntity
  8
WAKU0
  6
CONTINUOUS
 62
3
100
AcDbLine
 10
504.0000000000000
 20
51.00000000000000
 30
0.0000000000000000
 11
504.0000000000000
 21
12.00000000000000
 31
0.0000000000000000
  0
LINE
  5
3F3
100
AcDbEntity
  8
WAKU0
  6
CONTINUOUS
 62
3
100
AcDbLine
 10
516.0000000000000
 20
51.00000000000000
 30
0.0000000000000000
 11
516.0000000000000
 21
12.00000000000000
 31
0.0000000000000000
  0
LINE
  5
3F4
100
AcDbEntity
  8
WAKU0
  6
CONTINUOUS
 62
3
100
AcDbLine
 10
516.0000000000000
 20
37.00000000000000
 30
0.0000000000000000
 11
582.0000000000000
 21
37.00000000000000
 31
0.0000000000000000
  0
LINE
  5
3F5
100
AcDbEntity
  8
WAKU0
  6
CONTINUOUS
 62
3
100
AcDbLine
 10
504.0000000000000
 20
23.00000000000000
 30
0.0000000000000000
 11
582.0000000000000
 21
23.00000000000000
 31
0.0000000000000000
  0
LINE
  5
3F6
100
AcDbEntity
  8
WAKU0
  6
CONTINUOUS
 62
3
100
AcDbLine
 10
547.0000000000000
 20
51.00000000000000
 30
0.0000000000000000
 11
547.0000000000000
 21
44.00000000000000
 31
0.0000000000000000
  0
LINE
  5
3F7
100
AcDbEntity
  8
WAKU0
  6
CONTINUOUS
 62
3
100
AcDbLine
 10
559.0000000000000
 20
51.00000000000000
 30
0.0000000000000000
 11
559.0000000000000
 21
44.00000000000000
 31
0.0000000000000000
  0
LINE
  5
3F8
100
AcDbEntity
  8
WAKU0
  6
CONTINUOUS
 62
3
100
AcDbLine
 10
484.0000000000000
 20
31.50000000000000
 30
0.0000000000000000
 11
504.0000000000000
 21
31.50000000000000
 31
0.0000000000000000
  0
LINE
  5
3F9
100
AcDbEntity
  8
WAKU0
  6
CONTINUOUS
 62
3
100
AcDbLine
 10
504.0000000000000
 20
44.00000000000000
 30
0.0000000000000000
 11
582.0000000000000
 21
44.00000000000000
 31
0.0000000000000000
  0
LINE
  5
3FA
100
AcDbEntity
  8
WAKU0
  6
CONTINUOUS
 62
3
100
AcDbLine
 10
412.0000000000000
 20
37.00000000000000
 30
0.0000000000000000
 11
484.0000000000000
 21
37.00000000000000
 31
0.0000000000000000
  0
LINE
  5
3FB
100
AcDbEntity
  8
WAKU0
  6
CONTINUOUS
 62
3
100
AcDbLine
 10
412.0000000000000
 20
23.00000000000000
 30
0.0000000000000000
 11
484.0000000000000
 21
23.00000000000000
 31
0.0000000000000000
  0
LINE
  5
3FC
100
AcDbEntity
  8
WAKU0
  6
CONTINUOUS
 62
3
100
AcDbLine
 10
460.0000000000000
 20
37.00000000000000
 30
0.0000000000000000
 11
460.0000000000000
 21
12.00000000000000
 31
0.0000000000000000
  0
LINE
  5
3FD
100
AcDbEntity
  8
WAKU0
  6
CONTINUOUS
 62
3
100
AcDbLine
 10
436.0000000000000
 20
37.00000000000000
 30
0.0000000000000000
 11
436.0000000000000
 21
23.00000000000000
 31
0.0000000000000000
  0
LINE
  5
3FE
100
AcDbEntity
  8
WAKU0
  6
CONTINUOUS
 62
3
100
AcDbLine
 10
472.0000000000000
 20
26.00000000000000
 30
0.0000000000000000
 11
472.0000000000000
 21
23.00000000000000
 31
0.0000000000000000
  0
LINE
  5
3FF
100
AcDbEntity
  8
WAKU0
  6
CONTINUOUS
 62
3
100
AcDbLine
 10
448.0000000000000
 20
26.00000000000000
 30
0.0000000000000000
 11
448.0000000000000
 21
23.00000000000000
 31
0.0000000000000000
  0
LINE
  5
400
100
AcDbEntity
  8
WAKU0
  6
CONTINUOUS
 62
3
100
AcDbLine
 10
424.0000000000000
 20
26.00000000000000
 30
0.0000000000000000
 11
424.0000000000000
 21
23.00000000000000
 31
0.0000000000000000
  0
LINE
  5
401
100
AcDbEntity
  8
WAKU0
  6
CONTINUOUS
 62
3
100
AcDbLine
 10
430.0000000000000
 20
51.00000000000000
 30
0.0000000000000000
 11
430.0000000000000
 21
37.00000000000000
 31
0.0000000000000000
  0
LINE
  5
402
100
AcDbEntity
  8
WAKU0
  6
CONTINUOUS
 62
3
100
AcDbLine
 10
412.0000000000000
 20
45.00000000000000
 30
0.0000000000000000
 11
484.0000000000000
 21
45.00000000000000
 31
0.0000000000000000
  0
LINE
  5
403
100
AcDbEntity
  8
WAKU0
  6
HIDDEN
 62
3
100
AcDbLine
 10
532.5000000000000
 20
23.00000000000000
 30
0.0000000000000000
 11
532.5000000000000
 21
12.00000000000000
 31
0.0000000000000000
  0
LINE
  5
404
100
AcDbEntity
  8
WAKU0
  6
HIDDEN
 62
3
100
AcDbLine
 10
544.9000000000000
 20
23.00000000000000
 30
0.0000000000000000
 11
544.9000000000000
 21
12.00000000000000
 31
0.0000000000000000
  0
MTEXT
  5
405
100
AcDbEntity
  8
WAKU0
  6
CONTINUOUS
 62
3
100
AcDbMText
 10
516.4820000243485
 20
49.04999995231628
 30
0.0000000000000000
 40
3.099999904632568
 41
0.0000000000000000
 71
     1
 72
     1
  1
{\H0.91x;{NT15}}
 11
1.000000000000000
 21
0.0000000000000000
 31
0.0000000000000000
  7
STANDARD
  0
MTEXT
  5
406
100
AcDbEntity
  8
WAKU0
  6
CONTINUOUS
 62
3
100
AcDbMText
 10
516.4659999916852
 20
43.50000000000000
 30
0.0000000000000000
 40
3.000000000000000
 41
0.0000000000000000
 71
     1
 72
     1
  1
{\H0.94x;{パワーチャック　１５\PＰＯＷＥＲ　ＣＨＵＣＫ　１５}}
 11
1.000000000000000
 21
0.0000000000000000
 31
0.0000000000000000
  7
KNJYOKO
  0
MTEXT
  5
407
100
AcDbEntity
  8
WAKU0
  6
CONTINUOUS
 62
3
100
AcDbMText
 10
516.4820000243485
 20
34.23333326975504
 30
0.0000000000000000
 40
3.099999904632568
 41
0.0000000000000000
 71
     1
 72
     1
  1
{\H0.94x;{ＮＴ１５　ガイケイ\PＮＴ１５　ＯＵＴＳＩＤＥ　ＶＩＥＷ}}
 11
1.000000000000000
 21
0.0000000000000000
 31
0.0000000000000000
  7
KNJYOKO
  0
MTEXT
  5
408
100
AcDbEntity
  8
WAKU0
  6
CONTINUOUS
 62
3
100
AcDbMText
 10
490.0049998760223
 20
39.29999995231628
 30
0.0000000000000000
 40
3.099999904632568
 41
0.0000000000000000
 71
     1
 72
     1
  1
{\H0.90x;{2:3}}
 11
1.000000000000000
 21
0.0000000000000000
 31
0.0000000000000000
  7
STANDARD
  0
MTEXT
  5
409
100
AcDbEntity
  8
WAKU0
  6
CONTINUOUS
 62
3
100
AcDbMText
 10
546.4000001549721
 20
20.15000009536743
 30
0.0000000000000000
 40
5.300000190734863
 41
0.0000000000000000
 71
     1
 72
     1
  1
{\H0.90x;{9541}}
 11
1.000000000000000
 21
0.0000000000000000
 31
0.0000000000000000
  7
STANDARD
  0
MTEXT
  5
40A
100
AcDbEntity
  8
WAKU0
  6
CONTINUOUS
 62
3
100
AcDbMText
 10
534.3000000834466
 20
20.15000009536743
 30
0.0000000000000000
 40
5.300000190734863
 41
0.0000000000000000
 71
     1
 72
     1
  1
{\H0.87x;{25}}
 11
1.000000000000000
 21
0.0000000000000000
 31
0.0000000000000000
  7
STANDARD
  0
MTEXT
  5
40B
100
AcDbEntity
  8
WAKU0
  6
CONTINUOUS
 62
3
100
AcDbMText
 10
517.5000001192093
 20
20.15000009536743
 30
0.0000000000000000
 40
5.300000190734863
 41
0.0000000000000000
 71
     1
 72
     1
  1
{\H0.89x;{61P}}
 11
1.000000000000000
 21
0.0000000000000000
 31
0.0000000000000000
  7
STANDARD
  0
MTEXT
  5
40C
100
AcDbEntity
  8
WAKU0
  6
CONTINUOUS
 62
3
100
AcDbMText
 10
572.0000000476837
 20
20.15000009536743
 30
0.0000000000000000
 40
5.300000190734863
 41
0.0000000000000000
 71
     1
 72
     1
  1
{\H0.81x;{1}}
 11
1.000000000000000
 21
0.0000000000000000
 31
0.0000000000000000
  7
STANDARD
  0
MTEXT
  5
40D
100
AcDbEntity
  8
WAKU0
  6
CONTINUOUS
 62
3
100
AcDbMText
 10
572.0000000819564
 20
44.84999990463257
 30
0.0000000000000000
 40
5.300000190734863
 41
0.0000000000000000
 71
     7
 72
     1
  1
{\H0.81x;{ }}
 11
1.000000000000000
 21
0.0000000000000000
 31
0.0000000000000000
  7
STANDARD
  0
MTEXT
  5
40E
100
AcDbEntity
  8
WAKU0
  6
CONTINUOUS
 62
3
100
AcDbMText
 10
461.3850002884865
 20
33.00000000000000
 30
0.0000000000000000
 40
3.000000000000000
 41
0.0000000000000000
 71
     7
 72
     1
  1
{\H0.93x;{DRAWN BY}}
 11
1.000000000000000
 21
0.0000000000000000
 31
0.0000000000000000
  7
STANDARD
  0
MTEXT
  5
40F
100
AcDbEntity
  8
WAKU0
  6
CONTINUOUS
 62
3
100
AcDbMText
 10
441.2149997949600
 20
32.95000004768372
 30
0.0000000000000000
 40
3.099999904632568
 41
0.0000000000000000
 71
     7
 72
     1
  1
{\H0.92x;{CHIEF}}
 11
1.000000000000000
 21
0.0000000000000000
 31
0.0000000000000000
  7
STANDARD
  0
MTEXT
  5
410
100
AcDbEntity
  8
WAKU0
  6
CONTINUOUS
 62
3
100
AcDbMText
 10
414.4249997138977
 20
32.95000004768372
 30
0.0000000000000000
 40
3.099999904632568
 41
0.0000000000000000
 71
     7
 72
     1
  1
{\H0.92x;{MANAGER}}
 11
1.000000000000000
 21
0.0000000000000000
 31
0.0000000000000000
  7
STANDARD
  0
MTEXT
  5
411
100
AcDbEntity
  8
WAKU0
  6
CONTINUOUS
 62
3
100
AcDbMText
 10
416.6599994301796
 20
18.13333336512248
 30
0.0000000000000000
 40
3.099999904632568
 41
0.0000000000000000
 71
     7
 72
     1
  1
{\H0.93x;{KITAGAWA IRON\PWORKS CO.,LTD.}}
 11
1.000000000000000
 21
0.0000000000000000
 31
0.0000000000000000
  7
STANDARD
  0
MTEXT
  5
412
100
AcDbEntity
  8
WAKU0
  6
CONTINUOUS
 62
3
100
AcDbMText
 10
413.0850002169609
 20
46.50000000000000
 30
0.0000000000000000
 40
3.000000000000000
 41
0.0000000000000000
 71
     7
 72
     1
  1
{\H0.92x;{CAREER}}
 11
1.000000000000000
 21
0.0000000000000000
 31
0.0000000000000000
  7
STANDARD
  0
MTEXT
  5
413
100
AcDbEntity
  8
WAKU0
  6
CONTINUOUS
 62
3
100
AcDbMText
 10
466.6099998354912
 20
18.95000004768372
 30
0.0000000000000000
 40
3.099999904632568
 41
0.0000000000000000
 71
     7
 72
     1
  1
{\H0.91x;{DATE}}
 11
1.000000000000000
 21
0.0000000000000000
 31
0.0000000000000000
  7
STANDARD
  0
MTEXT
  5
414
100
AcDbEntity
  8
WAKU0
  6
CONTINUOUS
 62
3
100
AcDbMText
 10
485.9000002145767
 20
26.50000000000000
 30
0.0000000000000000
 40
3.000000000000000
 41
0.0000000000000000
 71
     7
 72
     1
  1
{\H0.63x;{3RD ANGLE}}
 11
1.000000000000000
 21
0.0000000000000000
 31
0.0000000000000000
  7
STANDARD
  0
MTEXT
  5
415
100
AcDbEntity
  8
WAKU0
  6
CONTINUOUS
 62
3
100
AcDbMText
 10
487.2149997949600
 20
45.95000004768372
 30
0.0000000000000000
 40
3.099999904632568
 41
0.0000000000000000
 71
     7
 72
     1
  1
{\H0.92x;{SCALE}}
 11
1.000000000000000
 21
0.0000000000000000
 31
0.0000000000000000
  7
STANDARD
  0
MTEXT
  5
416
100
AcDbEntity
  8
WAKU0
  6
CONTINUOUS
 62
3
100
AcDbMText
 10
577.7000000476837
 20
46.00000000000000
 30
0.0000000000000000
 40
3.000000000000000
 41
0.0000000000000000
 71
     7
 72
     1
  1
{\H0.63x;{kg}}
 11
1.000000000000000
 21
0.0000000000000000
 31
0.0000000000000000
  7
STANDARD
  0
MTEXT
  5
417
100
AcDbEntity
  8
WAKU0
  6
CONTINUOUS
 62
3
100
AcDbMText
 10
547.6000001430512
 20
46.00000000000000
 30
0.0000000000000000
 40
3.000000000000000
 41
0.0000000000000000
 71
     7
 72
     1
  1
{\H0.63x;{WEIGHT}}
 11
1.000000000000000
 21
0.0000000000000000
 31
0.0000000000000000
  7
STANDARD
  0
MTEXT
  5
418
100
AcDbEntity
  8
WAKU0
  6
CONTINUOUS
 62
3
100
AcDbMText
 10
506.0049998760223
 20
18.13333336512248
 30
0.0000000000000000
 40
3.099999904632568
 41
0.0000000000000000
 71
     7
 72
     1
  1
{\H0.90x;{DRW\PNO.}}
 11
1.000000000000000
 21
0.0000000000000000
 31
0.0000000000000000
  7
STANDARD
  0
MTEXT
  5
419
100
AcDbEntity
  8
WAKU0
  6
CONTINUOUS
 62
3
100
AcDbMText
 10
504.6099998354912
 20
31.95000004768372
 30
0.0000000000000000
 40
3.099999904632568
 41
0.0000000000000000
 71
     7
 72
     1
  1
{\H0.91x;{NAME}}
 11
1.000000000000000
 21
0.0000000000000000
 31
0.0000000000000000
  7
STANDARD
  0
MTEXT
  5
41A
100
AcDbEntity
  8
WAKU0
  6
CONTINUOUS
 62
3
100
AcDbMText
 10
504.6099998354912
 20
45.95000004768372
 30
0.0000000000000000
 40
3.099999904632568
 41
0.0000000000000000
 71
     7
 72
     1
  1
{\H0.91x;{TYPE}}
 11
1.000000000000000
 21
0.0000000000000000
 31
0.0000000000000000
  7
STANDARD
  0
LINE
  5
41B
100
AcDbEntity
  8
WAKU0
  6
HIDDEN
 62
3
100
AcDbLine
 10
579.1599564743885
 20
13.84999990463257
 30
0.0000000000000000
 11
568.9400436209789
 21
13.84999990463257
 31
0.0000000000000000
  0
LINE
  5
41C
100
AcDbEntity
  8
WAKU0
  6
HIDDEN
 62
3
100
AcDbLine
 10
579.1599564743885
 20
13.84999990463250
 30
0.0000000000000000
 11
574.0500000476851
 21
22.70070406014901
 31
0.0000000000000000
  0
LINE
  5
41D
100
AcDbEntity
  8
WAKU0
  6
HIDDEN
 62
3
100
AcDbLine
 10
574.0500000476851
 20
22.70070406014902
 30
0.0000000000000000
 11
568.9400436209789
 21
13.84999990463248
 31
0.0000000000000000
  0
LINE
  5
41E
100
AcDbEntity
  8
WAKU0
  6
CONTINUOUS
 62
3
100
AcDbLine
 10
502.4713877753800
 20
15.78041421262812
 30
0.0000000000000000
 11
502.4713877753800
 21
21.78041421262815
 31
0.0000000000000000
  0
LINE
  5
41F
100
AcDbEntity
  8
WAKU0
  6
CONTINUOUS
 62
3
100
AcDbLine
 10
495.9336941228225
 20
17.28041421262811
 30
0.0000000000000000
 11
495.9336941228225
 21
20.28041421262824
 31
0.0000000000000000
  0
LINE
  5
420
100
AcDbEntity
  8
WAKU0
  6
CENTER
 62
12
100
AcDbLine
 10
485.4321805514995
 20
18.78041421262813
 30
0.0000000000000000
 11
503.2765788964694
 21
18.78041421262813
 31
0.0000000000000000
  0
LINE
  5
421
100
AcDbEntity
  8
WAKU0
  6
CENTER
 62
12
100
AcDbLine
 10
489.4474565857986
 20
14.55921662918448
 30
0.0000000000000000
 11
489.4474565857986
 21
22.89865102149943
 31
0.0000000000000000
  0
LINE
  5
422
100
AcDbEntity
  8
WAKU0
  6
CONTINUOUS
 62
3
100
AcDbLine
 10
495.9336941228225
 20
20.28041421262797
 30
0.0000000000000000
 11
502.4713877753800
 21
21.78041421262795
 31
0.0000000000000000
  0
LINE
  5
423
100
AcDbEntity
  8
WAKU0
  6
CONTINUOUS
 62
3
100
AcDbLine
 10
495.9336941228225
 20
17.28041421262811
 30
0.0000000000000000
 11
502.4713877753799
 21
15.78041421262812
 31
0.0000000000000000
  0
CIRCLE
  5
424
100
AcDbEntity
  8
WAKU0
  6
CONTINUOUS
 62
3
100
AcDbCircle
 10
489.4474565857986
 20
18.78041421262813
 30
0.0000000000000000
 40
1.499999999999972
  0
CIRCLE
  5
425
100
AcDbEntity
  8
WAKU0
  6
CONTINUOUS
 62
3
100
AcDbCircle
 10
489.4474565857986
 20
18.78041421262813
 30
0.0000000000000000
 40
2.999999999999979
  0
ENDSEC
  0
SECTION
  2
OBJECTS
  0
DICTIONARY
  5
471
100
AcDbDictionary
  3
ACAD_GROUP
350
472
  3
ACAD_MLINESTYLE
350
473
  0
DICTIONARY
  5
472
102
{ACAD_REACTORS
330
471
102
}
100
AcDbDictionary
  0
DICTIONARY
  5
473
102
{ACAD_REACTORS
330
471
102
}
100
AcDbDictionary
  3
STANDARD
350
474
  0
MLINESTYLE
  5
474
102
{ACAD_REACTORS
330
473
102
}
100
AcDbMlineStyle
  2
STANDARD
 70
     0
  3

 62
   256
 51
90.00
 52
90.00
 71
     2
 49
0.50
 62
   256
  6
BYLAYER
 49
-0.50
 62
   256
  6
BYLAYER
  0
ENDSEC
  0
EOF
