  0
SECTION
  2
HEADER
  9
$ACADVER
  1
AC1014
  9
$DWGCODEPAGE
  3
ANSI_932
  9
$LTSCALE
 40
20.0
  9
$FILLMODE
 70
     1
  9
$CLAYER
  8
0
  9
$PDMODE
 70
     0
  9
$SPLFRAME
 70
     0
  9
$SPLINETYPE
 70
     6
  9
$SPLINESEGS
 70
     8
  9
$DIMASZ
 40
2.000000
  9
$DIMEXE
 40
2.000000
  9
$DIMEXO
 40
0.800000
  9
$DIMTAD
 70
     1
  9
$DIMTIH
 70
     0
  9
$DIMTOH
 70
     0
  9
$DIMTVP
 40
0.500000
  9
$DIMTXT
 40
3.100000
  9
$EXTMIN
 10
0.000000
 20
0.000000
 30
0.000000
  9
$EXTMAX
 10
420.000000
 20
594.000000
 30
0.000000
  9
$MEASUREMENT
 70
  1
  9
$LIMMIN
 10
0.000000
 20
0.000000
  9
$LIMMAX
 10
420.000000
 20
594.000000
  9
$HANDLING
 70
     1
  9
$HANDSEED
  5
4DB
  9
$DIMBLK
  1
_OPEN
  9
$DIMDEC
 70
     3
  9
$DIMAUNIT
 70
     1
  9
$DIMZIN
 70
     8
  9
$DIMTOFL
 70
     1
  0
ENDSEC
  0
SECTION
  2
CLASSES
  0
ENDSEC
  0
SECTION
  2
TABLES
  0
TABLE
  2
VPORT
  5
481
100
AcDbSymbolTable
 70
     1
  0
VPORT
  5
482
100
AcDbSymbolTableRecord
100
AcDbViewportTableRecord
  2
*ACTIVE
 70
     0
 12
1293.869169
 22
337.265984
 40
1296.163152
 41
1.996460
  0
ENDTAB
  0
TABLE
  2
LTYPE
  5
483
100
AcDbSymbolTable
 70
     4
  0
LTYPE
  5
484
100
AcDbSymbolTableRecord
100
AcDbLinetypeTableRecord
  2
BYBLOCK
 70
     0
  3

 72
    65
 73
     0
 40
0.0
  0
LTYPE
  5
485
100
AcDbSymbolTableRecord
100
AcDbLinetypeTableRecord
  2
BYLAYER
 70
     0
  3

 72
    65
 73
     0
 40
0.0
  0
LTYPE
  5
486
100
AcDbSymbolTableRecord
100
AcDbLinetypeTableRecord
  2
CONTINUOUS
 70
     0
  3
Solid line (NEC CAE2D for Win R12.1 : 2018.06.08)
 72
    65
 73
     0
 40
0.0
  0
LTYPE
  5
487
100
AcDbSymbolTableRecord
100
AcDbLinetypeTableRecord
  2
HIDDEN
 70
     0
  3
__ __ __ __ __ __ __ __ __ __ __ __ __ __
 72
    65
 73
     2
 40
0.375
 49
0.25
 74
     0
 49
-0.125
 74
     0
  0
LTYPE
  5
488
100
AcDbSymbolTableRecord
100
AcDbLinetypeTableRecord
  2
CENTER
 70
     0
  3
____ _ ____ _ ____ _ ____ _ ____ _ ____
 72
    65
 73
     4
 40
2.0
 49
1.25
 74
     0
 49
-0.25
 74
     0
 49
0.25
 74
     0
 49
-0.25
 74
     0
  0
LTYPE
  5
489
100
AcDbSymbolTableRecord
100
AcDbLinetypeTableRecord
  2
PHANTOM
 70
     0
  3
______  __  __  ______  __  __  ______ 
 72
    65
 73
     6
 40
2.5
 49
1.25
 74
     0
 49
-0.25
 74
     0
 49
0.25
 74
     0
 49
-0.25
 74
     0
 49
0.25
 74
     0
 49
-0.25
 74
     0
  0
ENDTAB
  0
TABLE
  2
LAYER
  5
48A
100
AcDbSymbolTable
 70
    15
  0
LAYER
  5
48B
100
AcDbSymbolTableRecord
100
AcDbLayerTableRecord
  2
0
 70
     0
 62
     7
  6
CONTINUOUS
  0
LAYER
  5
48C
100
AcDbSymbolTableRecord
100
AcDbLayerTableRecord
  2
MAIN0
 70
     0
 62
     7
  6
CONTINUOUS
  0
LAYER
  5
48D
100
AcDbSymbolTableRecord
100
AcDbLayerTableRecord
  2
MAIN1
 70
     0
 62
     7
  6
CONTINUOUS
  0
LAYER
  5
48E
100
AcDbSymbolTableRecord
100
AcDbLayerTableRecord
  2
MAIN2
 70
     0
 62
     7
  6
CONTINUOUS
  0
LAYER
  5
48F
100
AcDbSymbolTableRecord
100
AcDbLayerTableRecord
  2
MAIN3
 70
     0
 62
     7
  6
CONTINUOUS
  0
LAYER
  5
490
100
AcDbSymbolTableRecord
100
AcDbLayerTableRecord
  2
MAIN4
 70
     0
 62
     7
  6
CONTINUOUS
  0
LAYER
  5
491
100
AcDbSymbolTableRecord
100
AcDbLayerTableRecord
  2
MAIN5
 70
     0
 62
     7
  6
CONTINUOUS
  0
LAYER
  5
492
100
AcDbSymbolTableRecord
100
AcDbLayerTableRecord
  2
MAIN6
 70
     0
 62
     7
  6
CONTINUOUS
  0
LAYER
  5
493
100
AcDbSymbolTableRecord
100
AcDbLayerTableRecord
  2
MAIN7
 70
     0
 62
     7
  6
CONTINUOUS
  0
LAYER
  5
494
100
AcDbSymbolTableRecord
100
AcDbLayerTableRecord
  2
MAIN8
 70
     0
 62
     7
  6
CONTINUOUS
  0
LAYER
  5
495
100
AcDbSymbolTableRecord
100
AcDbLayerTableRecord
  2
MAIN9
 70
     0
 62
     7
  6
CONTINUOUS
  0
LAYER
  5
496
100
AcDbSymbolTableRecord
100
AcDbLayerTableRecord
  2
MAIN10
 70
     0
 62
     7
  6
CONTINUOUS
  0
LAYER
  5
497
100
AcDbSymbolTableRecord
100
AcDbLayerTableRecord
  2
MAIN1023
 70
     0
 62
    16
  6
CONTINUOUS
  0
LAYER
  5
498
100
AcDbSymbolTableRecord
100
AcDbLayerTableRecord
  2
WAKU0
 70
     0
 62
     7
  6
CONTINUOUS
  0
LAYER
  5
499
100
AcDbSymbolTableRecord
100
AcDbLayerTableRecord
  2
WAKU1023
 70
     0
 62
    16
  6
CONTINUOUS
  0
ENDTAB
  0
TABLE
  2
STYLE
  5
49A
100
AcDbSymbolTable
 70
     4
  0
STYLE
  5
49B
100
AcDbSymbolTableRecord
100
AcDbTextStyleTableRecord
  2
STANDARD
 70
    64
 40
0.0
 41
1.0
 50
0.0
 71
     0
 42
3.099999904632568
  3
TXT
  4

  0
STYLE
  5
49C
100
AcDbSymbolTableRecord
100
AcDbTextStyleTableRecord
  2
ANKTATE
 70
    68
 40
0.0
 41
1.0
 50
0.0
 71
     0
 42
3.099999904632568
  3
TXT
  4

  0
STYLE
  5
387
100
AcDbSymbolTableRecord
100
AcDbTextStyleTableRecord
  2
KNJYOKO
 70
    64
 40
0.0
 41
1.0
 50
0.0
 71
     0
 42
3.099999904632568
  3
TXT
  4
BIGFONT
  0
STYLE
  5
49D
100
AcDbSymbolTableRecord
100
AcDbTextStyleTableRecord
  2
KNJTATE
 70
    68
 40
0.0
 41
1.0
 50
0.0
 71
     0
 42
3.099999904632568
  3
TXT
  4
BIGFONT
  0
ENDTAB
  0
TABLE
  2
VIEW
  5
49E
100
AcDbSymbolTable
 70
     0
  0
ENDTAB
  0
TABLE
  2
UCS
  5
49F
100
AcDbSymbolTable
 70
     0
  0
ENDTAB
  0
TABLE
  2
APPID
  5
4A0
100
AcDbSymbolTable
 70
     1
  0
APPID
  5
4A1
100
AcDbSymbolTableRecord
100
AcDbRegAppTableRecord
  2
ACAD
 70
     0
  0
ENDTAB
  0
TABLE
  2
DIMSTYLE
  5
4A2
100
AcDbSymbolTable
 70
     1
  0
DIMSTYLE
105
4A3
100
AcDbSymbolTableRecord
100
AcDbDimStyleTableRecord
  2
STANDARD
 70
     0
 41
2.000000
 44
2.000000
 42
0.800000
145
0.661290
140
3.100000
144
1.000000
146
0.903226
340
49B
  0
DIMSTYLE
105
4A4
100
AcDbSymbolTableRecord
100
AcDbDimStyleTableRecord
  2
MAIN001
 70
     0
 41
3.000000
 44
3.000000
 42
1.200000
145
0.607527
140
4.650000
144
1.000000
146
0.903226
 77
     1
 73
     0
 74
     0
271
     3
275
     1
 78
     8
172
     1
340
49B
  0
DIMSTYLE
105
4A5
100
AcDbSymbolTableRecord
100
AcDbDimStyleTableRecord
  2
WAKU002
 70
     0
 41
2.000000
 44
2.000000
 42
0.800000
145
0.661290
140
3.100000
144
1.000000
146
0.903226
 77
     1
 73
     0
 74
     0
271
     3
275
     1
 78
     8
172
     1
340
49B
  0
ENDTAB
  0
TABLE
  2
BLOCK_RECORD
  5
4A6
100
AcDbSymbolTable
 70
    53
  0
BLOCK_RECORD
  5
4A7
100
AcDbSymbolTableRecord
100
AcDbBlockTableRecord
  2
*MODEL_SPACE
  0
BLOCK_RECORD
  5
4A8
100
AcDbSymbolTableRecord
100
AcDbBlockTableRecord
  2
*PAPER_SPACE
  0
BLOCK_RECORD
  5
1
100
AcDbSymbolTableRecord
100
AcDbBlockTableRecord
  2
_NONE
  0
BLOCK_RECORD
  5
4
100
AcDbSymbolTableRecord
100
AcDbBlockTableRecord
  2
_CLOSED
  0
BLOCK_RECORD
  5
B
100
AcDbSymbolTableRecord
100
AcDbBlockTableRecord
  2
_DOT
  0
BLOCK_RECORD
  5
13
100
AcDbSymbolTableRecord
100
AcDbBlockTableRecord
  2
_OPEN
  0
BLOCK_RECORD
  5
19
100
AcDbSymbolTableRecord
100
AcDbBlockTableRecord
  2
_ORIGIN
  0
BLOCK_RECORD
  5
1E
100
AcDbSymbolTableRecord
100
AcDbBlockTableRecord
  2
_OPEN30
  0
BLOCK_RECORD
  5
24
100
AcDbSymbolTableRecord
100
AcDbBlockTableRecord
  2
_BOXFILLED
  0
BLOCK_RECORD
  5
29
100
AcDbSymbolTableRecord
100
AcDbBlockTableRecord
  2
_BOXBLANK
  0
BLOCK_RECORD
  5
31
100
AcDbSymbolTableRecord
100
AcDbBlockTableRecord
  2
_OBLIQUE
  0
BLOCK_RECORD
  5
35
100
AcDbSymbolTableRecord
100
AcDbBlockTableRecord
  2
_OPEN90
  0
BLOCK_RECORD
  5
3B
100
AcDbSymbolTableRecord
100
AcDbBlockTableRecord
  2
_CLOSEDBLANK
  0
BLOCK_RECORD
  5
41
100
AcDbSymbolTableRecord
100
AcDbBlockTableRecord
  2
_DOTBLANK
  0
BLOCK_RECORD
  5
4A9
100
AcDbSymbolTableRecord
100
AcDbBlockTableRecord
  2
*D0
  0
BLOCK_RECORD
  5
4AA
100
AcDbSymbolTableRecord
100
AcDbBlockTableRecord
  2
*D1
  0
BLOCK_RECORD
  5
4AB
100
AcDbSymbolTableRecord
100
AcDbBlockTableRecord
  2
*D2
  0
BLOCK_RECORD
  5
4AC
100
AcDbSymbolTableRecord
100
AcDbBlockTableRecord
  2
*D3
  0
BLOCK_RECORD
  5
4AD
100
AcDbSymbolTableRecord
100
AcDbBlockTableRecord
  2
*D4
  0
BLOCK_RECORD
  5
4AE
100
AcDbSymbolTableRecord
100
AcDbBlockTableRecord
  2
*D5
  0
BLOCK_RECORD
  5
4AF
100
AcDbSymbolTableRecord
100
AcDbBlockTableRecord
  2
*D6
  0
BLOCK_RECORD
  5
4B0
100
AcDbSymbolTableRecord
100
AcDbBlockTableRecord
  2
*D7
  0
BLOCK_RECORD
  5
4B1
100
AcDbSymbolTableRecord
100
AcDbBlockTableRecord
  2
*D8
  0
BLOCK_RECORD
  5
4B2
100
AcDbSymbolTableRecord
100
AcDbBlockTableRecord
  2
*D9
  0
BLOCK_RECORD
  5
4B3
100
AcDbSymbolTableRecord
100
AcDbBlockTableRecord
  2
*D10
  0
BLOCK_RECORD
  5
4B4
100
AcDbSymbolTableRecord
100
AcDbBlockTableRecord
  2
*D11
  0
BLOCK_RECORD
  5
4B5
100
AcDbSymbolTableRecord
100
AcDbBlockTableRecord
  2
*D12
  0
BLOCK_RECORD
  5
4B6
100
AcDbSymbolTableRecord
100
AcDbBlockTableRecord
  2
*D13
  0
BLOCK_RECORD
  5
4B7
100
AcDbSymbolTableRecord
100
AcDbBlockTableRecord
  2
*D14
  0
BLOCK_RECORD
  5
4B8
100
AcDbSymbolTableRecord
100
AcDbBlockTableRecord
  2
*D15
  0
BLOCK_RECORD
  5
4B9
100
AcDbSymbolTableRecord
100
AcDbBlockTableRecord
  2
*D16
  0
BLOCK_RECORD
  5
4BA
100
AcDbSymbolTableRecord
100
AcDbBlockTableRecord
  2
*D17
  0
BLOCK_RECORD
  5
4BB
100
AcDbSymbolTableRecord
100
AcDbBlockTableRecord
  2
*D18
  0
BLOCK_RECORD
  5
4BC
100
AcDbSymbolTableRecord
100
AcDbBlockTableRecord
  2
*D19
  0
BLOCK_RECORD
  5
4BD
100
AcDbSymbolTableRecord
100
AcDbBlockTableRecord
  2
*D20
  0
BLOCK_RECORD
  5
4BE
100
AcDbSymbolTableRecord
100
AcDbBlockTableRecord
  2
*D21
  0
BLOCK_RECORD
  5
4BF
100
AcDbSymbolTableRecord
100
AcDbBlockTableRecord
  2
*D22
  0
BLOCK_RECORD
  5
4C0
100
AcDbSymbolTableRecord
100
AcDbBlockTableRecord
  2
*D23
  0
BLOCK_RECORD
  5
4C1
100
AcDbSymbolTableRecord
100
AcDbBlockTableRecord
  2
*D24
  0
BLOCK_RECORD
  5
4C2
100
AcDbSymbolTableRecord
100
AcDbBlockTableRecord
  2
D25
  0
BLOCK_RECORD
  5
4C3
100
AcDbSymbolTableRecord
100
AcDbBlockTableRecord
  2
*D26
  0
BLOCK_RECORD
  5
4C4
100
AcDbSymbolTableRecord
100
AcDbBlockTableRecord
  2
*D27
  0
BLOCK_RECORD
  5
4C5
100
AcDbSymbolTableRecord
100
AcDbBlockTableRecord
  2
*D28
  0
BLOCK_RECORD
  5
4C6
100
AcDbSymbolTableRecord
100
AcDbBlockTableRecord
  2
*D29
  0
BLOCK_RECORD
  5
4C7
100
AcDbSymbolTableRecord
100
AcDbBlockTableRecord
  2
*D30
  0
BLOCK_RECORD
  5
4C8
100
AcDbSymbolTableRecord
100
AcDbBlockTableRecord
  2
*D31
  0
BLOCK_RECORD
  5
4C9
100
AcDbSymbolTableRecord
100
AcDbBlockTableRecord
  2
*D32
  0
BLOCK_RECORD
  5
4CA
100
AcDbSymbolTableRecord
100
AcDbBlockTableRecord
  2
*D33
  0
BLOCK_RECORD
  5
4CB
100
AcDbSymbolTableRecord
100
AcDbBlockTableRecord
  2
*D34
  0
BLOCK_RECORD
  5
4CC
100
AcDbSymbolTableRecord
100
AcDbBlockTableRecord
  2
*D35
  0
BLOCK_RECORD
  5
4CD
100
AcDbSymbolTableRecord
100
AcDbBlockTableRecord
  2
*D36
  0
BLOCK_RECORD
  5
4CE
100
AcDbSymbolTableRecord
100
AcDbBlockTableRecord
  2
*D37
  0
BLOCK_RECORD
  5
4CF
100
AcDbSymbolTableRecord
100
AcDbBlockTableRecord
  2
*D38
  0
BLOCK_RECORD
  5
4D0
100
AcDbSymbolTableRecord
100
AcDbBlockTableRecord
  2
*D39
  0
BLOCK_RECORD
  5
4D1
100
AcDbSymbolTableRecord
100
AcDbBlockTableRecord
  2
*D40
  0
ENDTAB
  0
ENDSEC
  0
SECTION
  2
BLOCKS
  0
BLOCK
  5
4D2
100
AcDbEntity
  8
0
100
AcDbBlockBegin
  2
*MODEL_SPACE
 70
     0
 10
0.0
 20
0.0
 30
0.0
  3
*MODEL_SPACE
  1

  0
ENDBLK
  5
4D3
100
AcDbEntity
  8
0
100
AcDbBlockEnd
  0
BLOCK
  5
4D4
100
AcDbEntity
  8
0
100
AcDbBlockBegin
  2
*PAPER_SPACE
 70
     0
 10
0.0
 20
0.0
 30
0.0
  3
*PAPER_SPACE
  1

  0
ENDBLK
  5
4D5
100
AcDbEntity
  8
0
100
AcDbBlockEnd
  0
BLOCK
  5
2
100
AcDbEntity
  8
0
100
AcDbBlockBegin
  2
_NONE
 70
     0
 10
0.0
 20
0.0
 30
0.0
  3
_NONE
  1

  0
ENDBLK
  5
3
100
AcDbEntity
  8
0
100
AcDbBlockEnd
  0
BLOCK
  5
5
100
AcDbEntity
  8
0
100
AcDbBlockBegin
  2
_CLOSED
 70
     0
 10
0.0
 20
0.0
 30
0.0
  3
_CLOSED
  1

  0
LINE
  5
6
100
AcDbEntity
  8
0
  6
BYBLOCK
 62
     0
100
AcDbLine
 10
-1.0
 20
0.166667
 30
0.0
 11
0.0
 21
0.0
 31
0.0
  0
LINE
  5
7
100
AcDbEntity
  8
0
  6
BYBLOCK
 62
     0
100
AcDbLine
 10
0.0
 20
0.0
 30
0.0
 11
-1.0
 21
-0.166667
 31
0.0
  0
LINE
  5
8
100
AcDbEntity
  8
0
  6
BYBLOCK
 62
     0
100
AcDbLine
 10
-1.0
 20
0.166667
 30
0.0
 11
-1.0
 21
-0.166667
 31
0.0
  0
LINE
  5
9
100
AcDbEntity
  8
0
  6
BYBLOCK
 62
     0
100
AcDbLine
 10
0.0
 20
0.0
 30
0.0
 11
-1.0
 21
0.0
 31
0.0
  0
ENDBLK
  5
A
100
AcDbEntity
  8
0
100
AcDbBlockEnd
  0
BLOCK
  5
C
100
AcDbEntity
  8
0
100
AcDbBlockBegin
  2
_DOT
 70
     0
 10
0.0
 20
0.0
 30
0.0
  3
_DOT
  1

  0
POLYLINE
  5
D
100
AcDbEntity
  8
0
  6
BYBLOCK
 62
     0
100
AcDb2dPolyline
 66
     1
 10
0.0
 20
0.0
 30
0.0
 70
     1
 40
0.5
 41
0.5
  0
VERTEX
  5
E
100
AcDbEntity
  8
0
  6
BYBLOCK
 62
     0
100
AcDbVertex
100
AcDb2dVertex
 10
-0.25
 20
0.0
 30
0.0
 42
1.0
  0
VERTEX
  5
F
100
AcDbEntity
  8
0
  6
BYBLOCK
 62
     0
100
AcDbVertex
100
AcDb2dVertex
 10
0.25
 20
0.0
 30
0.0
 42
1.0
  0
SEQEND
  5
10
100
AcDbEntity
  8
0
  6
BYBLOCK
 62
     0
  0
LINE
  5
11
100
AcDbEntity
  8
0
  6
BYBLOCK
 62
     0
100
AcDbLine
 10
-0.5
 20
0.0
 30
0.0
 11
-1.0
 21
0.0
 31
0.0
  0
ENDBLK
  5
12
100
AcDbEntity
  8
0
100
AcDbBlockEnd
  0
BLOCK
  5
14
100
AcDbEntity
  8
0
100
AcDbBlockBegin
  2
_OPEN
 70
     0
 10
0.0
 20
0.0
 30
0.0
  3
_OPEN
  1

  0
LINE
  5
15
100
AcDbEntity
  8
0
  6
BYBLOCK
 62
     0
100
AcDbLine
 10
-1.0
 20
0.166667
 30
0.0
 11
0.0
 21
0.0
 31
0.0
  0
LINE
  5
16
100
AcDbEntity
  8
0
  6
BYBLOCK
 62
     0
100
AcDbLine
 10
0.0
 20
0.0
 30
0.0
 11
-1.0
 21
-0.166667
 31
0.0
  0
LINE
  5
17
100
AcDbEntity
  8
0
  6
BYBLOCK
 62
     0
100
AcDbLine
 10
0.0
 20
0.0
 30
0.0
 11
-1.0
 21
0.0
 31
0.0
  0
ENDBLK
  5
18
100
AcDbEntity
  8
0
100
AcDbBlockEnd
  0
BLOCK
  5
1A
100
AcDbEntity
  8
0
100
AcDbBlockBegin
  2
_ORIGIN
 70
     0
 10
0.0
 20
0.0
 30
0.0
  3
_ORIGIN
  1

  0
CIRCLE
  5
1B
100
AcDbEntity
  8
0
  6
BYBLOCK
 62
     0
100
AcDbCircle
 10
0.0
 20
0.0
 30
0.0
 40
0.5
  0
LINE
  5
1C
100
AcDbEntity
  8
0
  6
BYBLOCK
 62
     0
100
AcDbLine
 10
0.0
 20
0.0
 30
0.0
 11
-1.0
 21
0.0
 31
0.0
  0
ENDBLK
  5
1D
100
AcDbEntity
  8
0
100
AcDbBlockEnd
  0
BLOCK
  5
1F
100
AcDbEntity
  8
0
100
AcDbBlockBegin
  2
_OPEN30
 70
     0
 10
0.0
 20
0.0
 30
0.0
  3
_OPEN30
  1

  0
LINE
  5
20
100
AcDbEntity
  8
0
  6
BYBLOCK
 62
     0
100
AcDbLine
 10
-1.0
 20
0.267949
 30
0.0
 11
0.0
 21
0.0
 31
0.0
  0
LINE
  5
21
100
AcDbEntity
  8
0
  6
BYBLOCK
 62
     0
100
AcDbLine
 10
0.0
 20
0.0
 30
0.0
 11
-1.0
 21
-0.267949
 31
0.0
  0
LINE
  5
22
100
AcDbEntity
  8
0
  6
BYBLOCK
 62
     0
100
AcDbLine
 10
0.0
 20
0.0
 30
0.0
 11
-1.0
 21
0.0
 31
0.0
  0
ENDBLK
  5
23
100
AcDbEntity
  8
0
100
AcDbBlockEnd
  0
BLOCK
  5
25
100
AcDbEntity
  8
0
100
AcDbBlockBegin
  2
_BOXFILLED
 70
     0
 10
0.0
 20
0.0
 30
0.0
  3
_BOXFILLED
  1

  0
SOLID
  5
26
100
AcDbEntity
  8
0
  6
BYBLOCK
 62
     0
100
AcDbTrace
 10
-0.5
 20
0.5
 30
0.0
 11
0.5
 21
0.5
 31
0.0
 12
-0.5
 22
-0.5
 32
0.0
 13
0.5
 23
-0.5
 33
0.0
  0
LINE
  5
27
100
AcDbEntity
  8
0
  6
BYBLOCK
 62
     0
100
AcDbLine
 10
-0.5
 20
0.0
 30
0.0
 11
-1.0
 21
0.0
 31
0.0
  0
ENDBLK
  5
28
100
AcDbEntity
  8
0
100
AcDbBlockEnd
  0
BLOCK
  5
2A
100
AcDbEntity
  8
0
100
AcDbBlockBegin
  2
_BOXBLANK
 70
     0
 10
0.0
 20
0.0
 30
0.0
  3
_BOXBLANK
  1

  0
LINE
  5
2B
100
AcDbEntity
  8
0
  6
BYBLOCK
 62
     0
100
AcDbLine
 10
-0.5
 20
-0.5
 30
0.0
 11
0.5
 21
-0.5
 31
0.0
  0
LINE
  5
2C
100
AcDbEntity
  8
0
  6
BYBLOCK
 62
     0
100
AcDbLine
 10
0.5
 20
-0.5
 30
0.0
 11
0.5
 21
0.5
 31
0.0
  0
LINE
  5
2D
100
AcDbEntity
  8
0
  6
BYBLOCK
 62
     0
100
AcDbLine
 10
0.5
 20
0.5
 30
0.0
 11
-0.5
 21
0.5
 31
0.0
  0
LINE
  5
2E
100
AcDbEntity
  8
0
  6
BYBLOCK
 62
     0
100
AcDbLine
 10
-0.5
 20
0.5
 30
0.0
 11
-0.5
 21
-0.5
 31
0.0
  0
LINE
  5
2F
100
AcDbEntity
  8
0
  6
BYBLOCK
 62
     0
100
AcDbLine
 10
-0.5
 20
0.0
 30
0.0
 11
-1.0
 21
0.0
 31
0.0
  0
ENDBLK
  5
30
100
AcDbEntity
  8
0
100
AcDbBlockEnd
  0
BLOCK
  5
32
100
AcDbEntity
  8
0
100
AcDbBlockBegin
  2
_OBLIQUE
 70
     0
 10
0.0
 20
0.0
 30
0.0
  3
_OBLIQUE
  1

  0
LINE
  5
33
100
AcDbEntity
  8
0
  6
BYBLOCK
 62
     0
100
AcDbLine
 10
-0.5
 20
-0.5
 30
0.0
 11
0.5
 21
0.5
 31
0.0
  0
ENDBLK
  5
34
100
AcDbEntity
  8
0
100
AcDbBlockEnd
  0
BLOCK
  5
36
100
AcDbEntity
  8
0
100
AcDbBlockBegin
  2
_OPEN90
 70
     0
 10
0.0
 20
0.0
 30
0.0
  3
_OPEN90
  1

  0
LINE
  5
37
100
AcDbEntity
  8
0
  6
BYBLOCK
 62
     0
100
AcDbLine
 10
-0.5
 20
0.5
 30
0.0
 11
0.0
 21
0.0
 31
0.0
  0
LINE
  5
38
100
AcDbEntity
  8
0
  6
BYBLOCK
 62
     0
100
AcDbLine
 10
0.0
 20
0.0
 30
0.0
 11
-0.5
 21
-0.5
 31
0.0
  0
LINE
  5
39
100
AcDbEntity
  8
0
  6
BYBLOCK
 62
     0
100
AcDbLine
 10
0.0
 20
0.0
 30
0.0
 11
-1.0
 21
0.0
 31
0.0
  0
ENDBLK
  5
3A
100
AcDbEntity
  8
0
100
AcDbBlockEnd
  0
BLOCK
  5
3C
100
AcDbEntity
  8
0
100
AcDbBlockBegin
  2
_CLOSEDBLANK
 70
     0
 10
0.0
 20
0.0
 30
0.0
  3
_CLOSEDBLANK
  1

  0
LINE
  5
3D
100
AcDbEntity
  8
0
  6
BYBLOCK
 62
     0
100
AcDbLine
 10
-1.0
 20
0.1666666666666666
 30
0.0
 11
0.0
 21
0.0
 31
0.0
  0
LINE
  5
3E
100
AcDbEntity
  8
0
  6
BYBLOCK
 62
     0
100
AcDbLine
 10
0.0
 20
0.0
 30
0.0
 11
-1.0
 21
-0.1666666666666666
 31
0.0
  0
LINE
  5
3F
100
AcDbEntity
  8
0
  6
BYBLOCK
 62
     0
100
AcDbLine
 10
-1.0
 20
0.1666666666666666
 30
0.0
 11
-1.0
 21
-0.1666666666666666
 31
0.0
  0
ENDBLK
  5
40
100
AcDbEntity
  8
0
100
AcDbBlockEnd
  0
BLOCK
  5
42
100
AcDbEntity
  8
0
100
AcDbBlockBegin
  2
_DOTBLANK
 70
     0
 10
0.0
 20
0.0
 30
0.0
  3
_DOTBLANK
  1

  0
CIRCLE
  5
43
100
AcDbEntity
  8
0
  6
BYBLOCK
 62
     0
100
AcDbCircle
 10
0.0
 20
0.0
 30
0.0
 40
0.5
  0
LINE
  5
44
100
AcDbEntity
  8
0
  6
BYBLOCK
 62
     0
100
AcDbLine
 10
-0.5
 20
0.0
 30
0.0
 11
-1.0
 21
0.0
 31
0.0
  0
ENDBLK
  5
45
100
AcDbEntity
  8
0
100
AcDbBlockEnd
  0
BLOCK
  5
DD
100
AcDbEntity
  8
MAIN0
  6
CONTINUOUS
 62
3
100
AcDbBlockBegin
  2
*D0
 70
    65
 10
0.0
 20
0.0
 30
0.0
  0
LINE
  5
DE
100
AcDbEntity
  8
MAIN0
  6
BYBLOCK
 62
0
100
AcDbLine
 10
294.3991313182349
 20
249.1159186804240
 30
0.0000000000000000
 11
333.6155689548532
 21
249.1159186804240
 31
0.0000000000000000
  0
LINE
  5
DF
100
AcDbEntity
  8
MAIN0
  6
BYBLOCK
 62
0
100
AcDbLine
 10
330.6155689548532
 20
252.1159186804240
 30
0.0000000000000000
 11
330.6155689548532
 21
503.1159186804240
 31
0.0000000000000000
  0
INSERT
  5
E0
100
AcDbEntity
  8
MAIN0
  6
BYBLOCK
 62
0
100
AcDbBlockReference
  2
_OPEN
 10
330.6155689548532
 20
249.1159186804240
 30
0.0000000000000000
 41
3.000000000000000
 42
3.000000000000000
 43
3.000000000000000
 50
270.0000000000000
  0
MTEXT
  5
E1
100
AcDbEntity
  8
MAIN0
  6
BYBLOCK
 62
0
100
AcDbMText
 10
327.5405690263757
 20
279.7279817541587
 30
0.0000000000000000
 40
4.649999856948853
 41
0.0000000000000000
 71
     5
 72
     1
  1
\A1;\U+2205254
 11
6.123233995736766e-017
 21
1.000000000000000
 31
0.0000000000000000
  7
STANDARD
  0
ENDBLK
  5
E2
100
AcDbEntity
  8
MAIN0
  6
CONTINUOUS
 62
3
100
AcDbBlockEnd
  0
BLOCK
  5
E4
100
AcDbEntity
  8
MAIN0
  6
CONTINUOUS
 62
3
100
AcDbBlockBegin
  2
*D1
 70
    65
 10
0.0
 20
0.0
 30
0.0
  0
LINE
  5
E5
100
AcDbEntity
  8
MAIN0
  6
BYBLOCK
 62
0
100
AcDbLine
 10
185.1991313003535
 20
224.9159186625426
 30
0.0000000000000000
 11
185.1991313003535
 21
183.4555404812980
 31
0.0000000000000000
  0
LINE
  5
E6
100
AcDbEntity
  8
MAIN0
  6
BYBLOCK
 62
0
100
AcDbLine
 10
188.1991313003535
 20
186.4555404812980
 30
0.0000000000000000
 11
213.1991313003535
 21
186.4555404812980
 31
0.0000000000000000
  0
INSERT
  5
E7
100
AcDbEntity
  8
MAIN0
  6
BYBLOCK
 62
0
100
AcDbBlockReference
  2
_OPEN
 10
185.1991313003535
 20
186.4555404812980
 30
0.0000000000000000
 41
3.000000000000000
 42
3.000000000000000
 43
3.000000000000000
 50
180.0000000000000
  0
INSERT
  5
E8
100
AcDbEntity
  8
MAIN0
  6
BYBLOCK
 62
0
100
AcDbBlockReference
  2
_OPEN
 10
216.1991313003535
 20
186.4555404812980
 30
0.0000000000000000
 41
3.000000000000000
 42
3.000000000000000
 43
3.000000000000000
 50
0.0000000000000000
  0
LINE
  5
E9
100
AcDbEntity
  8
MAIN0
  6
BYBLOCK
 62
0
100
AcDbLine
 10
216.1991313003535
 20
224.9159186625426
 30
0.0000000000000000
 11
216.1991313003535
 21
183.4555404812980
 31
0.0000000000000000
  0
MTEXT
  5
EA
100
AcDbEntity
  8
MAIN0
  6
BYBLOCK
 62
0
100
AcDbMText
 10
207.0390333751484
 20
189.5305404097724
 30
0.0000000000000000
 40
4.649999856948853
 41
0.0000000000000000
 71
     5
 72
     1
  1
\A1;31
 11
1.000000000000000
 21
0.0000000000000000
 31
0.0000000000000000
  7
STANDARD
  0
ENDBLK
  5
EB
100
AcDbEntity
  8
MAIN0
  6
CONTINUOUS
 62
3
100
AcDbBlockEnd
  0
BLOCK
  5
ED
100
AcDbEntity
  8
MAIN0
  6
CONTINUOUS
 62
3
100
AcDbBlockBegin
  2
*D2
 70
    65
 10
0.0
 20
0.0
 30
0.0
  0
LINE
  5
EE
100
AcDbEntity
  8
MAIN0
  6
BYBLOCK
 62
0
100
AcDbLine
 10
185.1991313003535
 20
224.9159186625426
 30
0.0000000000000000
 11
185.1991313003535
 21
173.2070337743940
 31
0.0000000000000000
  0
LINE
  5
EF
100
AcDbEntity
  8
MAIN0
  6
BYBLOCK
 62
0
100
AcDbLine
 10
188.1991313003535
 20
176.2070337743940
 30
0.0000000000000000
 11
198.1991313003535
 21
176.2070337743940
 31
0.0000000000000000
  0
INSERT
  5
F0
100
AcDbEntity
  8
MAIN0
  6
BYBLOCK
 62
0
100
AcDbBlockReference
  2
_OPEN
 10
185.1991313003535
 20
176.2070337743940
 30
0.0000000000000000
 41
3.000000000000000
 42
3.000000000000000
 43
3.000000000000000
 50
180.0000000000000
  0
INSERT
  5
F1
100
AcDbEntity
  8
MAIN0
  6
BYBLOCK
 62
0
100
AcDbBlockReference
  2
_OPEN
 10
201.1991313003535
 20
176.2070337743940
 30
0.0000000000000000
 41
3.000000000000000
 42
3.000000000000000
 43
3.000000000000000
 50
0.0000000000000000
  0
LINE
  5
F2
100
AcDbEntity
  8
MAIN0
  6
BYBLOCK
 62
0
100
AcDbLine
 10
201.1991313003535
 20
203.7986293280070
 30
0.0000000000000000
 11
201.1991313003535
 21
173.2070337743940
 31
0.0000000000000000
  0
MTEXT
  5
F3
100
AcDbEntity
  8
MAIN0
  6
BYBLOCK
 62
0
100
AcDbMText
 10
193.1991313003535
 20
179.0320337028685
 30
0.0000000000000000
 40
4.649999856948853
 41
0.0000000000000000
 71
     5
 72
     1
  1
\A1;16
 11
1.000000000000000
 21
0.0000000000000000
 31
0.0000000000000000
  7
STANDARD
  0
ENDBLK
  5
F4
100
AcDbEntity
  8
MAIN0
  6
CONTINUOUS
 62
3
100
AcDbBlockEnd
  0
BLOCK
  5
F6
100
AcDbEntity
  8
MAIN0
  6
CONTINUOUS
 62
3
100
AcDbBlockBegin
  2
*D3
 70
    65
 10
0.0
 20
0.0
 30
0.0
  0
LINE
  5
F7
100
AcDbEntity
  8
MAIN0
  6
BYBLOCK
 62
0
100
AcDbLine
 10
201.1991313003535
 20
203.7986293280070
 30
0.0000000000000000
 11
201.1991313003535
 21
173.2070337743940
 31
0.0000000000000000
  0
LINE
  5
F8
100
AcDbEntity
  8
MAIN0
  6
BYBLOCK
 62
0
100
AcDbLine
 10
204.1991313003535
 20
176.2070337743940
 30
0.0000000000000000
 11
228.1991313003535
 21
176.2070337743940
 31
0.0000000000000000
  0
INSERT
  5
F9
100
AcDbEntity
  8
MAIN0
  6
BYBLOCK
 62
0
100
AcDbBlockReference
  2
_OPEN
 10
201.1991313003535
 20
176.2070337743940
 30
0.0000000000000000
 41
3.000000000000000
 42
3.000000000000000
 43
3.000000000000000
 50
180.0000000000000
  0
INSERT
  5
FA
100
AcDbEntity
  8
MAIN0
  6
BYBLOCK
 62
0
100
AcDbBlockReference
  2
_OPEN
 10
231.1991313003535
 20
176.2070337743940
 30
0.0000000000000000
 41
3.000000000000000
 42
3.000000000000000
 43
3.000000000000000
 50
0.0000000000000000
  0
LINE
  5
FB
100
AcDbEntity
  8
MAIN0
  6
BYBLOCK
 62
0
100
AcDbLine
 10
231.1991313003535
 20
227.4159186625426
 30
0.0000000000000000
 11
231.1991313003535
 21
173.2070337743940
 31
0.0000000000000000
  0
MTEXT
  5
FC
100
AcDbEntity
  8
MAIN0
  6
BYBLOCK
 62
0
100
AcDbMText
 10
216.1991313003535
 20
179.0320337028685
 30
0.0000000000000000
 40
4.649999856948853
 41
0.0000000000000000
 71
     5
 72
     1
  1
\A1;30
 11
1.000000000000000
 21
0.0000000000000000
 31
0.0000000000000000
  7
STANDARD
  0
ENDBLK
  5
FD
100
AcDbEntity
  8
MAIN0
  6
CONTINUOUS
 62
3
100
AcDbBlockEnd
  0
BLOCK
  5
FF
100
AcDbEntity
  8
MAIN0
  6
CONTINUOUS
 62
3
100
AcDbBlockBegin
  2
*D4
 70
    65
 10
0.0
 20
0.0
 30
0.0
  0
LINE
  5
100
100
AcDbEntity
  8
MAIN0
  6
BYBLOCK
 62
0
100
AcDbLine
 10
231.1991313003535
 20
227.4159186625426
 30
0.0000000000000000
 11
231.1991313003535
 21
173.2070337743940
 31
0.0000000000000000
  0
LINE
  5
101
100
AcDbEntity
  8
MAIN0
  6
BYBLOCK
 62
0
100
AcDbLine
 10
234.1991313003535
 20
176.2070337743941
 30
0.0000000000000000
 11
292.1991313003535
 21
176.2070337743941
 31
0.0000000000000000
  0
INSERT
  5
102
100
AcDbEntity
  8
MAIN0
  6
BYBLOCK
 62
0
100
AcDbBlockReference
  2
_OPEN
 10
231.1991313003535
 20
176.2070337743941
 30
0.0000000000000000
 41
3.000000000000000
 42
3.000000000000000
 43
3.000000000000000
 50
180.0000000000000
  0
INSERT
  5
103
100
AcDbEntity
  8
MAIN0
  6
BYBLOCK
 62
0
100
AcDbBlockReference
  2
_OPEN
 10
295.1991313003535
 20
176.2070337743941
 30
0.0000000000000000
 41
3.000000000000000
 42
3.000000000000000
 43
3.000000000000000
 50
0.0000000000000000
  0
LINE
  5
104
100
AcDbEntity
  8
MAIN0
  6
BYBLOCK
 62
0
100
AcDbLine
 10
295.1991313003535
 20
249.9159186625427
 30
0.0000000000000000
 11
295.1991313003535
 21
173.2070337743941
 31
0.0000000000000000
  0
MTEXT
  5
105
100
AcDbEntity
  8
MAIN0
  6
BYBLOCK
 62
0
100
AcDbMText
 10
263.1991313003535
 20
179.0320337028685
 30
0.0000000000000000
 40
4.649999856948853
 41
0.0000000000000000
 71
     5
 72
     1
  1
\A1;64
 11
1.000000000000000
 21
0.0000000000000000
 31
0.0000000000000000
  7
STANDARD
  0
ENDBLK
  5
106
100
AcDbEntity
  8
MAIN0
  6
CONTINUOUS
 62
3
100
AcDbBlockEnd
  0
BLOCK
  5
108
100
AcDbEntity
  8
MAIN0
  6
CONTINUOUS
 62
3
100
AcDbBlockBegin
  2
*D5
 70
    65
 10
0.0
 20
0.0
 30
0.0
  0
LINE
  5
109
100
AcDbEntity
  8
MAIN0
  6
BYBLOCK
 62
0
100
AcDbLine
 10
185.1991313003535
 20
224.9159186625426
 30
0.0000000000000000
 11
185.1991313003535
 21
162.0750349937827
 31
0.0000000000000000
  0
LINE
  5
10A
100
AcDbEntity
  8
MAIN0
  6
BYBLOCK
 62
0
100
AcDbLine
 10
188.1991313003535
 20
165.0750349937827
 30
0.0000000000000000
 11
292.1991313003535
 21
165.0750349937827
 31
0.0000000000000000
  0
INSERT
  5
10B
100
AcDbEntity
  8
MAIN0
  6
BYBLOCK
 62
0
100
AcDbBlockReference
  2
_OPEN
 10
185.1991313003535
 20
165.0750349937827
 30
0.0000000000000000
 41
3.000000000000000
 42
3.000000000000000
 43
3.000000000000000
 50
180.0000000000000
  0
INSERT
  5
10C
100
AcDbEntity
  8
MAIN0
  6
BYBLOCK
 62
0
100
AcDbBlockReference
  2
_OPEN
 10
295.1991313003535
 20
165.0750349937827
 30
0.0000000000000000
 41
3.000000000000000
 42
3.000000000000000
 43
3.000000000000000
 50
0.0000000000000000
  0
LINE
  5
10D
100
AcDbEntity
  8
MAIN0
  6
BYBLOCK
 62
0
100
AcDbLine
 10
295.1991313003535
 20
249.9159186625427
 30
0.0000000000000000
 11
295.1991313003535
 21
162.0750349937827
 31
0.0000000000000000
  0
MTEXT
  5
10E
100
AcDbEntity
  8
MAIN0
  6
BYBLOCK
 62
0
100
AcDbMText
 10
240.1991313003535
 20
167.9000349222571
 30
0.0000000000000000
 40
4.649999856948853
 41
0.0000000000000000
 71
     5
 72
     1
  1
\A1;110
 11
1.000000000000000
 21
0.0000000000000000
 31
0.0000000000000000
  7
STANDARD
  0
ENDBLK
  5
10F
100
AcDbEntity
  8
MAIN0
  6
CONTINUOUS
 62
3
100
AcDbBlockEnd
  0
BLOCK
  5
111
100
AcDbEntity
  8
MAIN0
  6
CONTINUOUS
 62
3
100
AcDbBlockBegin
  2
*D6
 70
    65
 10
0.0
 20
0.0
 30
0.0
  0
LINE
  5
112
100
AcDbEntity
  8
MAIN0
  6
BYBLOCK
 62
0
100
AcDbLine
 10
295.1991313003535
 20
78.87522445308360
 30
0.0000000000000000
 11
295.1991313003535
 21
64.32057184107970
 31
0.0000000000000000
  0
LINE
  5
113
100
AcDbEntity
  8
MAIN0
  6
BYBLOCK
 62
0
100
AcDbLine
 10
295.1991313003535
 20
67.32057184107970
 30
0.0000000000000000
 11
299.1991313003535
 21
67.32057184107970
 31
0.0000000000000000
  0
INSERT
  5
114
100
AcDbEntity
  8
MAIN0
  6
BYBLOCK
 62
0
100
AcDbBlockReference
  2
_OPEN
 10
295.1991313003535
 20
67.32057184107970
 30
0.0000000000000000
 41
3.000000000000000
 42
3.000000000000000
 43
3.000000000000000
 50
0.0000000000000000
  0
INSERT
  5
115
100
AcDbEntity
  8
MAIN0
  6
BYBLOCK
 62
0
100
AcDbBlockReference
  2
_DOT
 10
300.1991313003535
 20
67.32057184107970
 30
0.0000000000000000
 41
1.500000000000000
 42
1.500000000000000
 43
1.500000000000000
 50
0.0000000000000000
  0
LINE
  5
116
100
AcDbEntity
  8
MAIN0
  6
BYBLOCK
 62
0
100
AcDbLine
 10
292.1991313003535
 20
67.32057184107970
 30
0.0000000000000000
 11
290.6991313003535
 21
67.32057184107970
 31
0.0000000000000000
  0
LINE
  5
117
100
AcDbEntity
  8
MAIN0
  6
BYBLOCK
 62
0
100
AcDbLine
 10
300.1991313003535
 20
91.72404436798894
 30
0.0000000000000000
 11
300.1991313003535
 21
64.32057184107970
 31
0.0000000000000000
  0
MTEXT
  5
118
100
AcDbEntity
  8
MAIN0
  6
BYBLOCK
 62
0
100
AcDbMText
 10
297.6991313003535
 20
70.14557176955412
 30
0.0000000000000000
 40
4.649999856948853
 41
0.0000000000000000
 71
     5
 72
     1
  1
\A1;5
 11
1.000000000000000
 21
0.0000000000000000
 31
0.0000000000000000
  7
STANDARD
  0
ENDBLK
  5
119
100
AcDbEntity
  8
MAIN0
  6
CONTINUOUS
 62
3
100
AcDbBlockEnd
  0
BLOCK
  5
11B
100
AcDbEntity
  8
MAIN0
  6
CONTINUOUS
 62
3
100
AcDbBlockBegin
  2
*D7
 70
    65
 10
0.0
 20
0.0
 30
0.0
  0
LINE
  5
11C
100
AcDbEntity
  8
MAIN0
  6
BYBLOCK
 62
0
100
AcDbLine
 10
300.1991313003535
 20
91.72404436798894
 30
0.0000000000000000
 11
300.1991313003535
 21
64.32057184107970
 31
0.0000000000000000
  0
LINE
  5
11D
100
AcDbEntity
  8
MAIN0
  6
BYBLOCK
 62
0
100
AcDbLine
 10
301.1991313003535
 20
67.32057184107981
 30
0.0000000000000000
 11
303.1991313003535
 21
67.32057184107981
 31
0.0000000000000000
  0
INSERT
  5
11E
100
AcDbEntity
  8
MAIN0
  6
BYBLOCK
 62
0
100
AcDbBlockReference
  2
_DOT
 10
300.1991313003535
 20
67.32057184107981
 30
0.0000000000000000
 41
1.500000000000000
 42
1.500000000000000
 43
1.500000000000000
 50
180.0000000000000
  0
INSERT
  5
11F
100
AcDbEntity
  8
MAIN0
  6
BYBLOCK
 62
0
100
AcDbBlockReference
  2
_OPEN
 10
303.1991313003535
 20
67.32057184107981
 30
0.0000000000000000
 41
3.000000000000000
 42
3.000000000000000
 43
3.000000000000000
 50
180.0000000000000
  0
LINE
  5
120
100
AcDbEntity
  8
MAIN0
  6
BYBLOCK
 62
0
100
AcDbLine
 10
306.1991313003535
 20
67.32057184107981
 30
0.0000000000000000
 11
309.2038341141399
 21
67.32057184107981
 31
0.0000000000000000
  0
LINE
  5
121
100
AcDbEntity
  8
MAIN0
  6
BYBLOCK
 62
0
100
AcDbLine
 10
303.1991313003535
 20
102.8780641870330
 30
0.0000000000000000
 11
303.1991313003535
 21
64.32057184107981
 31
0.0000000000000000
  0
MTEXT
  5
122
100
AcDbEntity
  8
MAIN0
  6
BYBLOCK
 62
0
100
AcDbMText
 10
307.7038342035468
 20
70.39557176955424
 30
0.0000000000000000
 40
4.649999856948853
 41
0.0000000000000000
 71
     5
 72
     1
  1
\A1;3
 11
1.000000000000000
 21
0.0000000000000000
 31
0.0000000000000000
  7
STANDARD
  0
ENDBLK
  5
123
100
AcDbEntity
  8
MAIN0
  6
CONTINUOUS
 62
3
100
AcDbBlockEnd
  0
BLOCK
  5
125
100
AcDbEntity
  8
MAIN0
  6
CONTINUOUS
 62
3
100
AcDbBlockBegin
  2
*D8
 70
    65
 10
0.0
 20
0.0
 30
0.0
  0
LINE
  5
126
100
AcDbEntity
  8
MAIN0
  6
BYBLOCK
 62
0
100
AcDbLine
 10
304.1991313182350
 20
103.9240443858705
 30
0.0000000000000000
 11
332.4555160002807
 21
103.9240443858705
 31
0.0000000000000000
  0
LINE
  5
127
100
AcDbEntity
  8
MAIN0
  6
BYBLOCK
 62
0
100
AcDbLine
 10
329.4555160002807
 20
106.9240443858705
 30
0.0000000000000000
 11
329.4555160002807
 21
116.9240443858704
 31
0.0000000000000000
  0
INSERT
  5
128
100
AcDbEntity
  8
MAIN0
  6
BYBLOCK
 62
0
100
AcDbBlockReference
  2
_OPEN
 10
329.4555160002807
 20
103.9240443858705
 30
0.0000000000000000
 41
3.000000000000000
 42
3.000000000000000
 43
3.000000000000000
 50
270.0000000000000
  0
INSERT
  5
129
100
AcDbEntity
  8
MAIN0
  6
BYBLOCK
 62
0
100
AcDbBlockReference
  2
_OPEN
 10
329.4555160002807
 20
119.9240443858704
 30
0.0000000000000000
 41
3.000000000000000
 42
3.000000000000000
 43
3.000000000000000
 50
90.00000000000000
  0
LINE
  5
12A
100
AcDbEntity
  8
MAIN0
  6
BYBLOCK
 62
0
100
AcDbLine
 10
304.1991313182350
 20
119.9240443858704
 30
0.0000000000000000
 11
332.4555160002807
 21
119.9240443858704
 31
0.0000000000000000
  0
MTEXT
  5
12B
100
AcDbEntity
  8
MAIN0
  6
BYBLOCK
 62
0
100
AcDbMText
 10
326.6305160718063
 20
111.9240443858704
 30
0.0000000000000000
 40
4.649999856948853
 41
0.0000000000000000
 71
     5
 72
     1
  1
\A1;16\H0.903226x;\SH8^ h8;
 11
6.123233995736766e-017
 21
1.000000000000000
 31
0.0000000000000000
  7
STANDARD
  0
ENDBLK
  5
12C
100
AcDbEntity
  8
MAIN0
  6
CONTINUOUS
 62
3
100
AcDbBlockEnd
  0
BLOCK
  5
12E
100
AcDbEntity
  8
MAIN0
  6
CONTINUOUS
 62
3
100
AcDbBlockBegin
  2
*D9
 70
    65
 10
0.0
 20
0.0
 30
0.0
  0
LINE
  5
12F
100
AcDbEntity
  8
MAIN0
  6
BYBLOCK
 62
0
100
AcDbLine
 10
299.6670805106637
 20
91.92404438587039
 30
0.0000000000000000
 11
346.4888660024292
 21
91.92404438587039
 31
0.0000000000000000
  0
LINE
  5
130
100
AcDbEntity
  8
MAIN0
  6
BYBLOCK
 62
0
100
AcDbLine
 10
343.4888660024292
 20
94.92404438587039
 30
0.0000000000000000
 11
343.4888660024292
 21
128.9240443858704
 31
0.0000000000000000
  0
INSERT
  5
131
100
AcDbEntity
  8
MAIN0
  6
BYBLOCK
 62
0
100
AcDbBlockReference
  2
_OPEN
 10
343.4888660024292
 20
91.92404438587039
 30
0.0000000000000000
 41
3.000000000000000
 42
3.000000000000000
 43
3.000000000000000
 50
270.0000000000000
  0
INSERT
  5
132
100
AcDbEntity
  8
MAIN0
  6
BYBLOCK
 62
0
100
AcDbBlockReference
  2
_OPEN
 10
343.4888660024292
 20
131.9240443858704
 30
0.0000000000000000
 41
3.000000000000000
 42
3.000000000000000
 43
3.000000000000000
 50
90.00000000000000
  0
LINE
  5
133
100
AcDbEntity
  8
MAIN0
  6
BYBLOCK
 62
0
100
AcDbLine
 10
299.6670805106637
 20
131.9240443858704
 30
0.0000000000000000
 11
346.4888660024292
 21
131.9240443858704
 31
0.0000000000000000
  0
MTEXT
  5
134
100
AcDbEntity
  8
MAIN0
  6
BYBLOCK
 62
0
100
AcDbMText
 10
340.6638660739548
 20
111.9240443858704
 30
0.0000000000000000
 40
4.649999856948853
 41
0.0000000000000000
 71
     5
 72
     1
  1
\A1;40
 11
6.123233995736766e-017
 21
1.000000000000000
 31
0.0000000000000000
  7
STANDARD
  0
ENDBLK
  5
135
100
AcDbEntity
  8
MAIN0
  6
CONTINUOUS
 62
3
100
AcDbBlockEnd
  0
BLOCK
  5
139
100
AcDbEntity
  8
MAIN0
  6
CONTINUOUS
 62
3
100
AcDbBlockBegin
  2
*D10
 70
    65
 10
0.0
 20
0.0
 30
0.0
  0
LINE
  5
13A
100
AcDbEntity
  8
MAIN0
  6
BYBLOCK
 62
0
100
AcDbLine
 10
258.1728806930971
 20
357.6159186804240
 30
0.0000000000000000
 11
258.1728806930971
 21
394.6159186804240
 31
0.0000000000000000
  0
INSERT
  5
13B
100
AcDbEntity
  8
MAIN0
  6
BYBLOCK
 62
0
100
AcDbBlockReference
  2
_OPEN
 10
258.1728806930971
 20
354.6159186804240
 30
0.0000000000000000
 41
3.000000000000000
 42
3.000000000000000
 43
3.000000000000000
 50
270.0000000000000
  0
INSERT
  5
13C
100
AcDbEntity
  8
MAIN0
  6
BYBLOCK
 62
0
100
AcDbBlockReference
  2
_OPEN
 10
258.1728806930971
 20
397.6159186804240
 30
0.0000000000000000
 41
3.000000000000000
 42
3.000000000000000
 43
3.000000000000000
 50
90.00000000000000
  0
MTEXT
  5
13D
100
AcDbEntity
  8
MAIN0
  6
BYBLOCK
 62
0
100
AcDbMText
 10
255.3478807646226
 20
376.1159186804240
 30
0.0000000000000000
 40
4.649999856948853
 41
0.0000000000000000
 71
     5
 72
     1
  1
\A1;\U+220543
 11
6.123233995736766e-017
 21
1.000000000000000
 31
0.0000000000000000
  7
STANDARD
  0
ENDBLK
  5
13E
100
AcDbEntity
  8
MAIN0
  6
CONTINUOUS
 62
3
100
AcDbBlockEnd
  0
BLOCK
  5
140
100
AcDbEntity
  8
MAIN0
  6
CONTINUOUS
 62
3
100
AcDbBlockBegin
  2
*D11
 70
    65
 10
0.0
 20
0.0
 30
0.0
  0
LINE
  5
141
100
AcDbEntity
  8
MAIN0
  6
BYBLOCK
 62
0
100
AcDbLine
 10
295.1991313003535
 20
502.3159186983054
 30
0.0000000000000000
 11
295.1991313003535
 21
542.4598146674862
 31
0.0000000000000000
  0
LINE
  5
142
100
AcDbEntity
  8
MAIN0
  6
BYBLOCK
 62
0
100
AcDbLine
 10
298.1991313003535
 20
539.4598146674862
 30
0.0000000000000000
 11
338.1991313003535
 21
539.4598146674862
 31
0.0000000000000000
  0
INSERT
  5
143
100
AcDbEntity
  8
MAIN0
  6
BYBLOCK
 62
0
100
AcDbBlockReference
  2
_OPEN
 10
295.1991313003535
 20
539.4598146674862
 30
0.0000000000000000
 41
3.000000000000000
 42
3.000000000000000
 43
3.000000000000000
 50
180.0000000000000
  0
INSERT
  5
144
100
AcDbEntity
  8
MAIN0
  6
BYBLOCK
 62
0
100
AcDbBlockReference
  2
_OPEN
 10
341.1991313003535
 20
539.4598146674862
 30
0.0000000000000000
 41
3.000000000000000
 42
3.000000000000000
 43
3.000000000000000
 50
0.0000000000000000
  0
LINE
  5
145
100
AcDbEntity
  8
MAIN0
  6
BYBLOCK
 62
0
100
AcDbLine
 10
341.1991313003535
 20
511.8159186983054
 30
0.0000000000000000
 11
341.1991313003535
 21
542.4598146674862
 31
0.0000000000000000
  0
MTEXT
  5
146
100
AcDbEntity
  8
MAIN0
  6
BYBLOCK
 62
0
100
AcDbMText
 10
318.1991313003535
 20
542.2848145959606
 30
0.0000000000000000
 40
4.649999856948853
 41
0.0000000000000000
 71
     5
 72
     1
  1
\A1;46
 11
1.000000000000000
 21
0.0000000000000000
 31
0.0000000000000000
  7
STANDARD
  0
ENDBLK
  5
147
100
AcDbEntity
  8
MAIN0
  6
CONTINUOUS
 62
3
100
AcDbBlockEnd
  0
BLOCK
  5
149
100
AcDbEntity
  8
MAIN0
  6
CONTINUOUS
 62
3
100
AcDbBlockBegin
  2
*D12
 70
    65
 10
0.0
 20
0.0
 30
0.0
  0
LINE
  5
14A
100
AcDbEntity
  8
MAIN0
  6
BYBLOCK
 62
0
100
AcDbLine
 10
342.3991313182349
 20
400.6159186804240
 30
0.0000000000000000
 11
391.2715280442888
 21
400.6159186804240
 31
0.0000000000000000
  0
LINE
  5
14B
100
AcDbEntity
  8
MAIN0
  6
BYBLOCK
 62
0
100
AcDbLine
 10
388.2715280442888
 20
403.6159186804240
 30
0.0000000000000000
 11
388.2715280442888
 21
447.6159186804240
 31
0.0000000000000000
  0
INSERT
  5
14C
100
AcDbEntity
  8
MAIN0
  6
BYBLOCK
 62
0
100
AcDbBlockReference
  2
_OPEN
 10
388.2715280442888
 20
400.6159186804240
 30
0.0000000000000000
 41
3.000000000000000
 42
3.000000000000000
 43
3.000000000000000
 50
270.0000000000000
  0
INSERT
  5
14D
100
AcDbEntity
  8
MAIN0
  6
BYBLOCK
 62
0
100
AcDbBlockReference
  2
_OPEN
 10
388.2715280442888
 20
450.6159186804240
 30
0.0000000000000000
 41
3.000000000000000
 42
3.000000000000000
 43
3.000000000000000
 50
90.00000000000000
  0
LINE
  5
14E
100
AcDbEntity
  8
MAIN0
  6
BYBLOCK
 62
0
100
AcDbLine
 10
355.9631010214394
 20
450.6159186804240
 30
0.0000000000000000
 11
391.2715280442888
 21
450.6159186804240
 31
0.0000000000000000
  0
MTEXT
  5
14F
100
AcDbEntity
  8
MAIN0
  6
BYBLOCK
 62
0
100
AcDbMText
 10
385.4465281158144
 20
425.6159186804240
 30
0.0000000000000000
 40
4.649999856948853
 41
0.0000000000000000
 71
     5
 72
     1
  1
\A1;50
 11
6.123233995736766e-017
 21
1.000000000000000
 31
0.0000000000000000
  7
STANDARD
  0
ENDBLK
  5
150
100
AcDbEntity
  8
MAIN0
  6
CONTINUOUS
 62
3
100
AcDbBlockEnd
  0
BLOCK
  5
152
100
AcDbEntity
  8
MAIN0
  6
CONTINUOUS
 62
3
100
AcDbBlockBegin
  2
*D13
 70
    65
 10
0.0
 20
0.0
 30
0.0
  0
LINE
  5
153
100
AcDbEntity
  8
MAIN0
  6
BYBLOCK
 62
0
100
AcDbLine
 10
355.9631010214394
 20
450.6159186804240
 30
0.0000000000000000
 11
391.2715280442888
 21
450.6159186804240
 31
0.0000000000000000
  0
LINE
  5
154
100
AcDbEntity
  8
MAIN0
  6
BYBLOCK
 62
0
100
AcDbLine
 10
388.2715280442888
 20
453.6159186804240
 30
0.0000000000000000
 11
388.2715280442888
 21
477.6159186804240
 31
0.0000000000000000
  0
INSERT
  5
155
100
AcDbEntity
  8
MAIN0
  6
BYBLOCK
 62
0
100
AcDbBlockReference
  2
_OPEN
 10
388.2715280442888
 20
450.6159186804240
 30
0.0000000000000000
 41
3.000000000000000
 42
3.000000000000000
 43
3.000000000000000
 50
270.0000000000000
  0
INSERT
  5
156
100
AcDbEntity
  8
MAIN0
  6
BYBLOCK
 62
0
100
AcDbBlockReference
  2
_OPEN
 10
388.2715280442888
 20
480.6159186804240
 30
0.0000000000000000
 41
3.000000000000000
 42
3.000000000000000
 43
3.000000000000000
 50
90.00000000000000
  0
LINE
  5
157
100
AcDbEntity
  8
MAIN0
  6
BYBLOCK
 62
0
100
AcDbLine
 10
355.9631010214393
 20
480.6159186804240
 30
0.0000000000000000
 11
391.2715280442888
 21
480.6159186804240
 31
0.0000000000000000
  0
MTEXT
  5
158
100
AcDbEntity
  8
MAIN0
  6
BYBLOCK
 62
0
100
AcDbMText
 10
385.4465281158144
 20
465.6159186804240
 30
0.0000000000000000
 40
4.649999856948853
 41
0.0000000000000000
 71
     5
 72
     1
  1
\A1;30
 11
6.123233995736766e-017
 21
1.000000000000000
 31
0.0000000000000000
  7
STANDARD
  0
ENDBLK
  5
159
100
AcDbEntity
  8
MAIN0
  6
CONTINUOUS
 62
3
100
AcDbBlockEnd
  0
BLOCK
  5
15B
100
AcDbEntity
  8
MAIN0
  6
CONTINUOUS
 62
3
100
AcDbBlockBegin
  2
*D14
 70
    65
 10
0.0
 20
0.0
 30
0.0
  0
LINE
  5
15C
100
AcDbEntity
  8
MAIN0
  6
BYBLOCK
 62
0
100
AcDbLine
 10
342.3991313182349
 20
400.6159186804240
 30
0.0000000000000000
 11
408.2933921481142
 21
400.6159186804240
 31
0.0000000000000000
  0
LINE
  5
15D
100
AcDbEntity
  8
MAIN0
  6
BYBLOCK
 62
0
100
AcDbLine
 10
405.2933921481142
 20
403.6159186804240
 30
0.0000000000000000
 11
405.2933921481142
 21
507.6159186804240
 31
0.0000000000000000
  0
INSERT
  5
15E
100
AcDbEntity
  8
MAIN0
  6
BYBLOCK
 62
0
100
AcDbBlockReference
  2
_OPEN
 10
405.2933921481142
 20
400.6159186804240
 30
0.0000000000000000
 41
3.000000000000000
 42
3.000000000000000
 43
3.000000000000000
 50
270.0000000000000
  0
INSERT
  5
15F
100
AcDbEntity
  8
MAIN0
  6
BYBLOCK
 62
0
100
AcDbBlockReference
  2
_OPEN
 10
405.2933921481142
 20
510.6159186804240
 30
0.0000000000000000
 41
3.000000000000000
 42
3.000000000000000
 43
3.000000000000000
 50
90.00000000000000
  0
LINE
  5
160
100
AcDbEntity
  8
MAIN0
  6
BYBLOCK
 62
0
100
AcDbLine
 10
342.3991313182349
 20
510.6159186804240
 30
0.0000000000000000
 11
408.2933921481142
 21
510.6159186804240
 31
0.0000000000000000
  0
MTEXT
  5
161
100
AcDbEntity
  8
MAIN0
  6
BYBLOCK
 62
0
100
AcDbMText
 10
402.4683922196398
 20
455.6159186804240
 30
0.0000000000000000
 40
4.649999856948853
 41
0.0000000000000000
 71
     5
 72
     1
  1
\A1;110
 11
6.123233995736766e-017
 21
1.000000000000000
 31
0.0000000000000000
  7
STANDARD
  0
ENDBLK
  5
162
100
AcDbEntity
  8
MAIN0
  6
CONTINUOUS
 62
3
100
AcDbBlockEnd
  0
BLOCK
  5
179
100
AcDbEntity
  8
MAIN0
  6
CONTINUOUS
 62
3
100
AcDbBlockBegin
  2
*D15
 70
    65
 10
0.0
 20
0.0
 30
0.0
  0
LINE
  5
17A
100
AcDbEntity
  8
MAIN0
  6
BYBLOCK
 62
0
100
AcDbLine
 10
204.1991313003535
 20
203.2418898817386
 30
0.0000000000000000
 11
243.1991313003535
 21
203.2418898817386
 31
0.0000000000000000
  0
INSERT
  5
17B
100
AcDbEntity
  8
MAIN0
  6
BYBLOCK
 62
0
100
AcDbBlockReference
  2
_OPEN
 10
201.1991313003535
 20
203.2418898817386
 30
0.0000000000000000
 41
3.000000000000000
 42
3.000000000000000
 43
3.000000000000000
 50
180.0000000000000
  0
INSERT
  5
17C
100
AcDbEntity
  8
MAIN0
  6
BYBLOCK
 62
0
100
AcDbBlockReference
  2
_OPEN
 10
246.1991313003535
 20
203.2418898817386
 30
0.0000000000000000
 41
3.000000000000000
 42
3.000000000000000
 43
3.000000000000000
 50
0.0000000000000000
  0
MTEXT
  5
17D
100
AcDbEntity
  8
MAIN0
  6
BYBLOCK
 62
0
100
AcDbMText
 10
223.6991313003535
 20
206.0668898102130
 30
0.0000000000000000
 40
4.649999856948853
 41
0.0000000000000000
 71
     5
 72
     1
  1
\A1;45
 11
1.000000000000000
 21
0.0000000000000000
 31
0.0000000000000000
  7
STANDARD
  0
ENDBLK
  5
17E
100
AcDbEntity
  8
MAIN0
  6
CONTINUOUS
 62
3
100
AcDbBlockEnd
  0
BLOCK
  5
181
100
AcDbEntity
  8
MAIN0
  6
CONTINUOUS
 62
3
100
AcDbBlockBegin
  2
*D16
 70
    65
 10
0.0
 20
0.0
 30
0.0
  0
LINE
  5
182
100
AcDbEntity
  8
MAIN0
  6
BYBLOCK
 62
0
100
AcDbLine
 10
247.3991313182349
 20
248.6159186804240
 30
0.0000000000000000
 11
265.1794689858047
 21
248.6159186804240
 31
0.0000000000000000
  0
LINE
  5
183
100
AcDbEntity
  8
MAIN0
  6
BYBLOCK
 62
0
100
AcDbLine
 10
262.1794689858047
 20
245.6159186804240
 30
0.0000000000000000
 11
262.1794689858047
 21
196.6159186804240
 31
0.0000000000000000
  0
INSERT
  5
184
100
AcDbEntity
  8
MAIN0
  6
BYBLOCK
 62
0
100
AcDbBlockReference
  2
_OPEN
 10
262.1794689858047
 20
248.6159186804240
 30
0.0000000000000000
 41
3.000000000000000
 42
3.000000000000000
 43
3.000000000000000
 50
90.00000000000000
  0
INSERT
  5
185
100
AcDbEntity
  8
MAIN0
  6
BYBLOCK
 62
0
100
AcDbBlockReference
  2
_OPEN
 10
262.1794689858047
 20
193.6159186804240
 30
0.0000000000000000
 41
3.000000000000000
 42
3.000000000000000
 43
3.000000000000000
 50
270.0000000000000
  0
LINE
  5
186
100
AcDbEntity
  8
MAIN0
  6
BYBLOCK
 62
0
100
AcDbLine
 10
247.3991313182349
 20
193.6159186804240
 30
0.0000000000000000
 11
265.1794689858047
 21
193.6159186804240
 31
0.0000000000000000
  0
MTEXT
  5
187
100
AcDbEntity
  8
MAIN0
  6
BYBLOCK
 62
0
100
AcDbMText
 10
259.3544690573302
 20
221.1159186804240
 30
0.0000000000000000
 40
4.649999856948853
 41
0.0000000000000000
 71
     5
 72
     1
  1
\A1;55
 11
6.123233995736766e-017
 21
1.000000000000000
 31
0.0000000000000000
  7
STANDARD
  0
ENDBLK
  5
188
100
AcDbEntity
  8
MAIN0
  6
CONTINUOUS
 62
3
100
AcDbBlockEnd
  0
BLOCK
  5
18A
100
AcDbEntity
  8
MAIN0
  6
CONTINUOUS
 62
3
100
AcDbBlockBegin
  2
*D17
 70
    65
 10
0.0
 20
0.0
 30
0.0
  0
LINE
  5
18B
100
AcDbEntity
  8
MAIN0
  6
BYBLOCK
 62
0
100
AcDbLine
 10
184.4991312824722
 20
351.1159186804240
 30
0.0000000000000000
 11
149.6185200528378
 21
351.1159186804240
 31
0.0000000000000000
  0
LINE
  5
18C
100
AcDbEntity
  8
MAIN0
  6
BYBLOCK
 62
0
100
AcDbLine
 10
152.6185200528378
 20
354.1159186804240
 30
0.0000000000000000
 11
152.6185200528378
 21
398.1159186804240
 31
0.0000000000000000
  0
INSERT
  5
18D
100
AcDbEntity
  8
MAIN0
  6
BYBLOCK
 62
0
100
AcDbBlockReference
  2
_OPEN
 10
152.6185200528378
 20
351.1159186804240
 30
0.0000000000000000
 41
3.000000000000000
 42
3.000000000000000
 43
3.000000000000000
 50
270.0000000000000
  0
INSERT
  5
18E
100
AcDbEntity
  8
MAIN0
  6
BYBLOCK
 62
0
100
AcDbBlockReference
  2
_OPEN
 10
152.6185200528378
 20
401.1159186804240
 30
0.0000000000000000
 41
3.000000000000000
 42
3.000000000000000
 43
3.000000000000000
 50
90.00000000000000
  0
LINE
  5
18F
100
AcDbEntity
  8
MAIN0
  6
BYBLOCK
 62
0
100
AcDbLine
 10
184.4991312824722
 20
401.1159186804240
 30
0.0000000000000000
 11
149.6185200528378
 21
401.1159186804240
 31
0.0000000000000000
  0
MTEXT
  5
190
100
AcDbEntity
  8
MAIN0
  6
BYBLOCK
 62
0
100
AcDbMText
 10
149.7935201243634
 20
376.1159186804240
 30
0.0000000000000000
 40
4.649999856948853
 41
0.0000000000000000
 71
     5
 72
     1
  1
\A1;\U+220550H7
 11
6.123233995736766e-017
 21
1.000000000000000
 31
0.0000000000000000
  7
STANDARD
  0
ENDBLK
  5
191
100
AcDbEntity
  8
MAIN0
  6
CONTINUOUS
 62
3
100
AcDbBlockEnd
  0
BLOCK
  5
193
100
AcDbEntity
  8
MAIN0
  6
CONTINUOUS
 62
3
100
AcDbBlockBegin
  2
*D18
 70
    65
 10
0.0
 20
0.0
 30
0.0
  0
LINE
  5
194
100
AcDbEntity
  8
MAIN0
  6
BYBLOCK
 62
0
100
AcDbLine
 10
183.9991312824722
 20
226.1159186804240
 30
0.0000000000000000
 11
126.9830569846654
 21
226.1159186804240
 31
0.0000000000000000
  0
LINE
  5
195
100
AcDbEntity
  8
MAIN0
  6
BYBLOCK
 62
0
100
AcDbLine
 10
129.9830569846654
 20
229.1159186804240
 30
0.0000000000000000
 11
129.9830569846654
 21
523.1159186804240
 31
0.0000000000000000
  0
INSERT
  5
196
100
AcDbEntity
  8
MAIN0
  6
BYBLOCK
 62
0
100
AcDbBlockReference
  2
_OPEN
 10
129.9830569846654
 20
226.1159186804240
 30
0.0000000000000000
 41
3.000000000000000
 42
3.000000000000000
 43
3.000000000000000
 50
270.0000000000000
  0
INSERT
  5
197
100
AcDbEntity
  8
MAIN0
  6
BYBLOCK
 62
0
100
AcDbBlockReference
  2
_OPEN
 10
129.9830569846654
 20
526.1159186804240
 30
0.0000000000000000
 41
3.000000000000000
 42
3.000000000000000
 43
3.000000000000000
 50
90.00000000000000
  0
LINE
  5
198
100
AcDbEntity
  8
MAIN0
  6
BYBLOCK
 62
0
100
AcDbLine
 10
183.9991312824722
 20
526.1159186804240
 30
0.0000000000000000
 11
126.9830569846654
 21
526.1159186804240
 31
0.0000000000000000
  0
MTEXT
  5
199
100
AcDbEntity
  8
MAIN0
  6
BYBLOCK
 62
0
100
AcDbMText
 10
127.1580570561910
 20
376.1159186804240
 30
0.0000000000000000
 40
4.649999856948853
 41
0.0000000000000000
 71
     5
 72
     1
  1
\A1;\U+2205300h7
 11
6.123233995736766e-017
 21
1.000000000000000
 31
0.0000000000000000
  7
STANDARD
  0
ENDBLK
  5
19A
100
AcDbEntity
  8
MAIN0
  6
CONTINUOUS
 62
3
100
AcDbBlockEnd
  0
BLOCK
  5
19C
100
AcDbEntity
  8
MAIN0
  6
CONTINUOUS
 62
3
100
AcDbBlockBegin
  2
*D19
 70
    65
 10
0.0
 20
0.0
 30
0.0
  0
LINE
  5
19D
100
AcDbEntity
  8
MAIN0
  6
BYBLOCK
 62
0
100
AcDbLine
 10
185.1991313003535
 20
381.1709607270744
 30
0.0000000000000000
 11
190.2991313003535
 21
381.1709607270744
 31
0.0000000000000000
  0
INSERT
  5
19E
100
AcDbEntity
  8
MAIN0
  6
BYBLOCK
 62
0
100
AcDbBlockReference
  2
_OPEN
 10
185.1991313003535
 20
381.1709607270744
 30
0.0000000000000000
 41
3.000000000000000
 42
3.000000000000000
 43
3.000000000000000
 50
0.0000000000000000
  0
INSERT
  5
19F
100
AcDbEntity
  8
MAIN0
  6
BYBLOCK
 62
0
100
AcDbBlockReference
  2
_OPEN
 10
190.2991313003535
 20
381.1709607270744
 30
0.0000000000000000
 41
3.000000000000000
 42
3.000000000000000
 43
3.000000000000000
 50
180.0000000000000
  0
LINE
  5
1A0
100
AcDbEntity
  8
MAIN0
  6
BYBLOCK
 62
0
100
AcDbLine
 10
182.1991313003535
 20
381.1709607270744
 30
0.0000000000000000
 11
180.6991313003535
 21
381.1709607270744
 31
0.0000000000000000
  0
LINE
  5
1A1
100
AcDbEntity
  8
MAIN0
  6
BYBLOCK
 62
0
100
AcDbLine
 10
193.2991313003535
 20
381.1709607270744
 30
0.0000000000000000
 11
200.1546743553780
 21
381.1709607270744
 31
0.0000000000000000
  0
MTEXT
  5
1A2
100
AcDbEntity
  8
MAIN0
  6
BYBLOCK
 62
0
100
AcDbMText
 10
196.2546744984291
 20
384.2459606555489
 30
0.0000000000000000
 40
4.649999856948853
 41
0.0000000000000000
 71
     5
 72
     1
  1
\A1;5.1
 11
1.000000000000000
 21
0.0000000000000000
 31
0.0000000000000000
  7
STANDARD
  0
ENDBLK
  5
1A3
100
AcDbEntity
  8
MAIN0
  6
CONTINUOUS
 62
3
100
AcDbBlockEnd
  0
BLOCK
  5
1B6
100
AcDbEntity
  8
MAIN0
  6
CONTINUOUS
 62
3
100
AcDbBlockBegin
  2
*D20
 70
    65
 10
0.0
 20
0.0
 30
0.0
  0
LINE
  5
1B7
100
AcDbEntity
  8
MAIN0
  6
BYBLOCK
 62
0
100
AcDbLine
 10
652.0484940783297
 20
203.6499339710550
 30
0.0000000000000000
 11
716.1343739583788
 21
240.6499339710538
 31
0.0000000000000000
  0
INSERT
  5
1B8
100
AcDbEntity
  8
MAIN0
  6
BYBLOCK
 62
0
100
AcDbBlockReference
  2
_OPEN
 10
649.4504178669763
 20
202.1499339710551
 30
0.0000000000000000
 41
3.000000000000000
 42
3.000000000000000
 43
3.000000000000000
 50
209.9999999999989
  0
INSERT
  5
1B9
100
AcDbEntity
  8
MAIN0
  6
BYBLOCK
 62
0
100
AcDbBlockReference
  2
_OPEN
 10
718.7324501697322
 20
242.1499339710537
 30
0.0000000000000000
 41
3.000000000000000
 42
3.000000000000000
 43
3.000000000000000
 50
29.99999999999893
  0
MTEXT
  5
1BA
100
AcDbEntity
  8
MAIN0
  6
BYBLOCK
 62
0
100
AcDbMText
 10
682.6789340541170
 20
224.5964556748025
 30
0.0000000000000000
 40
4.649999856948853
 41
0.0000000000000000
 71
     5
 72
     1
  1
\A1;80
 11
0.8660254037844483
 21
0.4999999999999834
 31
0.0000000000000000
  7
STANDARD
  0
ENDBLK
  5
1BB
100
AcDbEntity
  8
MAIN0
  6
CONTINUOUS
 62
3
100
AcDbBlockEnd
  0
BLOCK
  5
1BD
100
AcDbEntity
  8
MAIN0
  6
CONTINUOUS
 62
3
100
AcDbBlockBegin
  2
*D21
 70
    65
 10
0.0
 20
0.0
 30
0.0
  0
LINE
  5
1BE
100
AcDbEntity
  8
MAIN0
  6
BYBLOCK
 62
0
100
AcDbLine
 10
666.2693007308188
 20
493.2399171483937
 30
0.0000000000000000
 11
524.1289618698881
 21
258.9919202124544
 31
0.0000000000000000
  0
INSERT
  5
1BF
100
AcDbEntity
  8
MAIN0
  6
BYBLOCK
 62
0
100
AcDbBlockReference
  2
_OPEN
 10
667.8255818132378
 20
495.8046762389332
 30
0.0000000000000000
 41
3.000000000000000
 42
3.000000000000000
 43
3.000000000000000
 50
58.75086437047588
  0
INSERT
  5
1C0
100
AcDbEntity
  8
MAIN0
  6
BYBLOCK
 62
0
100
AcDbBlockReference
  2
_OPEN
 10
522.5726807874693
 20
256.4271611219149
 30
0.0000000000000000
 41
3.000000000000000
 42
3.000000000000000
 43
3.000000000000000
 50
238.7508643704759
  0
MTEXT
  5
1C1
100
AcDbEntity
  8
MAIN0
  6
BYBLOCK
 62
0
100
AcDbMText
 10
642.3948876184602
 20
459.8223559743169
 30
0.0000000000000000
 40
4.649999856948853
 41
0.0000000000000000
 71
     5
 72
     1
  1
\A1;\U+2205280\H0.903226x;\U+00B10.2
 11
0.5187603608063163
 21
0.8549196968464936
 31
0.0000000000000000
  7
STANDARD
  0
ENDBLK
  5
1C2
100
AcDbEntity
  8
MAIN0
  6
CONTINUOUS
 62
3
100
AcDbBlockEnd
  0
BLOCK
  5
1C4
100
AcDbEntity
  8
MAIN0
  6
CONTINUOUS
 62
3
100
AcDbBlockBegin
  2
*D22
 70
    65
 10
0.0
 20
0.0
 30
0.0
  0
LINE
  5
1C5
100
AcDbEntity
  8
MAIN0
  6
BYBLOCK
 62
0
100
AcDbLine
 10
443.7928802816289
 20
285.2373772826337
 30
0.0000000000000000
 11
532.0428802816285
 21
132.3838935146804
 31
0.0000000000000000
  0
INSERT
  5
1C6
100
AcDbEntity
  8
MAIN0
  6
BYBLOCK
 62
0
100
AcDbBlockReference
  2
_OPEN
 10
442.2928802816289
 20
287.8354534939871
 30
0.0000000000000000
 41
3.000000000000000
 42
3.000000000000000
 43
3.000000000000000
 50
119.9999999999999
  0
INSERT
  5
1C7
100
AcDbEntity
  8
MAIN0
  6
BYBLOCK
 62
0
100
AcDbBlockReference
  2
_OPEN
 10
533.5428802816285
 20
129.7858173033271
 30
0.0000000000000000
 41
3.000000000000000
 42
3.000000000000000
 43
3.000000000000000
 50
299.9999999999999
  0
LINE
  5
1C8
100
AcDbEntity
  8
MAIN0
  6
BYBLOCK
 62
0
100
AcDbLine
 10
487.9178802816287
 20
208.8106353986571
 30
0.0000000000000000
 11
483.2676813905167
 21
200.7562546539510
 31
0.0000000000000000
  0
LINE
  5
1C9
100
AcDbEntity
  8
MAIN0
  6
BYBLOCK
 62
0
100
AcDbLine
 10
483.2676813905168
 20
200.7562546539510
 30
0.0000000000000000
 11
471.7676813830662
 21
200.7562546539510
 31
0.0000000000000000
  0
LINE
  5
1CA
100
AcDbEntity
  8
MAIN0
  6
BYBLOCK
 62
0
100
AcDbLine
 10
650.7688846489490
 20
197.4662824808235
 30
0.0000000000000000
 11
530.9448040702753
 21
128.2858173033271
 31
0.0000000000000000
  0
MTEXT
  5
1CB
100
AcDbEntity
  8
MAIN0
  6
BYBLOCK
 62
0
100
AcDbMText
 10
477.5176813867915
 20
203.5812545824253
 30
0.0000000000000000
 40
4.649999856948853
 41
0.0000000000000000
 71
     5
 72
     1
  1
\A1;182.5
 11
1.000000000000000
 21
0.0000000000000000
 31
0.0000000000000000
  7
STANDARD
  0
ENDBLK
  5
1CC
100
AcDbEntity
  8
MAIN0
  6
CONTINUOUS
 62
3
100
AcDbBlockEnd
  0
BLOCK
  5
1CF
100
AcDbEntity
  8
MAIN0
  6
CONTINUOUS
 62
3
100
AcDbBlockBegin
  2
*D23
 70
    65
 10
0.0
 20
0.0
 30
0.0
  0
LINE
  5
1D0
100
AcDbEntity
  8
MAIN0
  6
BYBLOCK
 62
0
100
AcDbLine
 10
320.9130358545120
 20
376.1159186804240
 30
0.0000000000000000
 11
372.1865776645926
 21
376.1159186804240
 31
0.0000000000000000
  0
LINE
  5
1D1
100
AcDbEntity
  8
MAIN0
  6
BYBLOCK
 62
0
100
AcDbLine
 10
369.1865776645926
 20
379.1159186804240
 30
0.0000000000000000
 11
369.1865776645926
 21
439.1159186804240
 31
0.0000000000000000
  0
INSERT
  5
1D2
100
AcDbEntity
  8
MAIN0
  6
BYBLOCK
 62
0
100
AcDbBlockReference
  2
_OPEN
 10
369.1865776645926
 20
376.1159186804240
 30
0.0000000000000000
 41
3.000000000000000
 42
3.000000000000000
 43
3.000000000000000
 50
270.0000000000000
  0
INSERT
  5
1D3
100
AcDbEntity
  8
MAIN0
  6
BYBLOCK
 62
0
100
AcDbBlockReference
  2
_OPEN
 10
369.1865776645926
 20
442.1159186804240
 30
0.0000000000000000
 41
3.000000000000000
 42
3.000000000000000
 43
3.000000000000000
 50
90.00000000000000
  0
LINE
  5
1D4
100
AcDbEntity
  8
MAIN0
  6
BYBLOCK
 62
0
100
AcDbLine
 10
300.3991313182349
 20
442.1159186804240
 30
0.0000000000000000
 11
372.1865776645926
 21
442.1159186804240
 31
0.0000000000000000
  0
MTEXT
  5
1D5
100
AcDbEntity
  8
MAIN0
  6
BYBLOCK
 62
0
100
AcDbMText
 10
366.1115777361182
 20
418.4013533953365
 30
0.0000000000000000
 40
4.649999856948853
 41
0.0000000000000000
 71
     5
 72
     1
  1
\A1;66
 11
6.123233995736766e-017
 21
1.000000000000000
 31
0.0000000000000000
  7
STANDARD
  0
ENDBLK
  5
1D6
100
AcDbEntity
  8
MAIN0
  6
CONTINUOUS
 62
3
100
AcDbBlockEnd
  0
BLOCK
  5
1D8
100
AcDbEntity
  8
MAIN0
  6
CONTINUOUS
 62
3
100
AcDbBlockBegin
  2
*D24
 70
    65
 10
0.0
 20
0.0
 30
0.0
  0
LINE
  5
1D9
100
AcDbEntity
  8
MAIN0
  6
BYBLOCK
 62
0
100
AcDbLine
 10
300.3991313182349
 20
442.1159186804240
 30
0.0000000000000000
 11
372.1865776645926
 21
442.1159186804240
 31
0.0000000000000000
  0
LINE
  5
1DA
100
AcDbEntity
  8
MAIN0
  6
BYBLOCK
 62
0
100
AcDbLine
 10
369.1865776645926
 20
442.1159186804240
 30
0.0000000000000000
 11
369.1865776645926
 21
450.6159186804240
 31
0.0000000000000000
  0
INSERT
  5
1DB
100
AcDbEntity
  8
MAIN0
  6
BYBLOCK
 62
0
100
AcDbBlockReference
  2
_OPEN
 10
369.1865776645926
 20
442.1159186804240
 30
0.0000000000000000
 41
3.000000000000000
 42
3.000000000000000
 43
3.000000000000000
 50
90.00000000000000
  0
INSERT
  5
1DC
100
AcDbEntity
  8
MAIN0
  6
BYBLOCK
 62
0
100
AcDbBlockReference
  2
_OPEN
 10
369.1865776645926
 20
450.6159186804240
 30
0.0000000000000000
 41
3.000000000000000
 42
3.000000000000000
 43
3.000000000000000
 50
270.0000000000000
  0
LINE
  5
1DD
100
AcDbEntity
  8
MAIN0
  6
BYBLOCK
 62
0
100
AcDbLine
 10
369.1865776645926
 20
439.1159186804240
 30
0.0000000000000000
 11
369.1865776645926
 21
437.6159186804240
 31
0.0000000000000000
  0
LINE
  5
1DE
100
AcDbEntity
  8
MAIN0
  6
BYBLOCK
 62
0
100
AcDbLine
 10
369.1865776645926
 20
453.6159186804240
 30
0.0000000000000000
 11
369.1865776645926
 21
468.2165979754485
 31
0.0000000000000000
  0
LINE
  5
1DF
100
AcDbEntity
  8
MAIN0
  6
BYBLOCK
 62
0
100
AcDbLine
 10
355.9631010214394
 20
450.6159186804240
 30
0.0000000000000000
 11
372.1865776645926
 21
450.6159186804240
 31
0.0000000000000000
  0
MTEXT
  5
1E0
100
AcDbEntity
  8
MAIN0
  6
BYBLOCK
 62
0
100
AcDbMText
 10
366.1115777361182
 20
465.1415980469740
 30
0.0000000000000000
 40
4.649999856948853
 41
0.0000000000000000
 71
     5
 72
     1
  1
\A1;16
 11
6.123233995736766e-017
 21
1.000000000000000
 31
0.0000000000000000
  7
STANDARD
  0
ENDBLK
  5
1E1
100
AcDbEntity
  8
MAIN0
  6
CONTINUOUS
 62
3
100
AcDbBlockEnd
  0
BLOCK
  5
1F1
100
AcDbEntity
  8
MAIN0
  6
CONTINUOUS
 62
3
100
AcDbBlockBegin
  2
D25
 70
    64
 10
0.0
 20
0.0
 30
0.0
  0
LINE
  5
1F2
100
AcDbEntity
  8
MAIN0
  6
BYBLOCK
 62
0
100
AcDbLine
 10
-3.613172042359452
 20
-29.52009686439544
 30
0.0000000000000000
 11
-3.613172042359452
 21
-69.50000000000900
 31
0.0000000000000000
  0
LINE
  5
1F3
100
AcDbEntity
  8
MAIN0
  6
BYBLOCK
 62
0
100
AcDbLine
 10
-2.713172006596665
 20
-66.50000000000900
 30
0.0000000000000000
 11
-3.613172042359452
 21
-69.50000000000900
 31
0.0000000000000000
  0
LINE
  5
1F4
100
AcDbEntity
  8
MAIN0
  6
BYBLOCK
 62
0
100
AcDbLine
 10
-3.613172042359452
 20
-69.50000000000900
 30
0.0000000000000000
 11
-4.513172078122238
 21
-66.50000000000900
 31
0.0000000000000000
  0
LINE
  5
1F5
100
AcDbEntity
  8
MAIN0
  6
BYBLOCK
 62
0
100
AcDbLine
 10
-22.31390451839570
 20
-69.50000000000900
 30
0.0000000000000000
 11
-0.6131720423594516
 21
-69.50000000000900
 31
0.0000000000000000
  0
MTEXT
  5
1F6
100
AcDbEntity
  8
MAIN0
  6
BYBLOCK
 62
0
100
AcDbMText
 10
-6.438171970833878
 20
-35.97009686737567
 30
0.0000000000000000
 40
4.649999856948853
 41
0.0000000000000000
 71
     5
 72
     1
  1
\A1;\U+2205139
 11
6.123233995736766e-017
 21
1.000000000000000
 31
0.0000000000000000
  7
STANDARD
  0
ENDBLK
  5
1F7
100
AcDbEntity
  8
MAIN0
  6
CONTINUOUS
 62
3
100
AcDbBlockEnd
  0
BLOCK
  5
1F9
100
AcDbEntity
  8
MAIN0
  6
CONTINUOUS
 62
3
100
AcDbBlockBegin
  2
*D26
 70
    65
 10
0.0
 20
0.0
 30
0.0
  0
LINE
  5
1FA
100
AcDbEntity
  8
MAIN0
  6
BYBLOCK
 62
0
100
AcDbLine
 10
295.1991313003535
 20
289.1943999895443
 30
0.0000000000000000
 11
296.1991313003535
 21
289.1943999895443
 31
0.0000000000000000
  0
INSERT
  5
1FB
100
AcDbEntity
  8
MAIN0
  6
BYBLOCK
 62
0
100
AcDbBlockReference
  2
_OPEN
 10
295.1991313003535
 20
289.1943999895443
 30
0.0000000000000000
 41
3.000000000000000
 42
3.000000000000000
 43
3.000000000000000
 50
0.0000000000000000
  0
INSERT
  5
1FC
100
AcDbEntity
  8
MAIN0
  6
BYBLOCK
 62
0
100
AcDbBlockReference
  2
_OPEN
 10
296.1991313003535
 20
289.1943999895443
 30
0.0000000000000000
 41
3.000000000000000
 42
3.000000000000000
 43
3.000000000000000
 50
180.0000000000000
  0
LINE
  5
1FD
100
AcDbEntity
  8
MAIN0
  6
BYBLOCK
 62
0
100
AcDbLine
 10
292.1991313003535
 20
289.1943999895443
 30
0.0000000000000000
 11
290.6991313003535
 21
289.1943999895443
 31
0.0000000000000000
  0
LINE
  5
1FE
100
AcDbEntity
  8
MAIN0
  6
BYBLOCK
 62
0
100
AcDbLine
 10
299.1991313003535
 20
289.1943999895443
 30
0.0000000000000000
 11
307.6364777374423
 21
289.1943999895443
 31
0.0000000000000000
  0
LINE
  5
1FF
100
AcDbEntity
  8
MAIN0
  6
BYBLOCK
 62
0
100
AcDbLine
 10
296.1991313003535
 20
305.4159186625336
 30
0.0000000000000000
 11
296.1991313003535
 21
286.1943999895443
 31
0.0000000000000000
  0
MTEXT
  5
200
100
AcDbEntity
  8
MAIN0
  6
BYBLOCK
 62
0
100
AcDbMText
 10
303.7364778804935
 20
292.2693999180187
 30
0.0000000000000000
 40
4.649999856948853
 41
0.0000000000000000
 71
     5
 72
     1
  1
\A1;0.1
 11
1.000000000000000
 21
0.0000000000000000
 31
0.0000000000000000
  7
STANDARD
  0
ENDBLK
  5
201
100
AcDbEntity
  8
MAIN0
  6
CONTINUOUS
 62
3
100
AcDbBlockEnd
  0
BLOCK
  5
207
100
AcDbEntity
  8
MAIN0
  6
CONTINUOUS
 62
3
100
AcDbBlockBegin
  2
*D27
 70
    65
 10
0.0
 20
0.0
 30
0.0
  0
LINE
  5
208
100
AcDbEntity
  8
MAIN0
  6
BYBLOCK
 62
0
100
AcDbLine
 10
295.2991313003536
 20
408.7289983874916
 30
0.0000000000000000
 11
297.2991313003536
 21
408.7289983874916
 31
0.0000000000000000
  0
INSERT
  5
209
100
AcDbEntity
  8
MAIN0
  6
BYBLOCK
 62
0
100
AcDbBlockReference
  2
_OPEN
 10
295.2991313003536
 20
408.7289983874916
 30
0.0000000000000000
 41
3.000000000000000
 42
3.000000000000000
 43
3.000000000000000
 50
0.0000000000000000
  0
INSERT
  5
20A
100
AcDbEntity
  8
MAIN0
  6
BYBLOCK
 62
0
100
AcDbBlockReference
  2
_OPEN
 10
297.2991313003536
 20
408.7289983874916
 30
0.0000000000000000
 41
3.000000000000000
 42
3.000000000000000
 43
3.000000000000000
 50
180.0000000000000
  0
LINE
  5
20B
100
AcDbEntity
  8
MAIN0
  6
BYBLOCK
 62
0
100
AcDbLine
 10
292.2991313003536
 20
408.7289983874916
 30
0.0000000000000000
 11
287.7077529788408
 21
408.7289983874916
 31
0.0000000000000000
  0
LINE
  5
20C
100
AcDbEntity
  8
MAIN0
  6
BYBLOCK
 62
0
100
AcDbLine
 10
300.2991313003536
 20
408.7289983874916
 30
0.0000000000000000
 11
301.7991313003536
 21
408.7289983874916
 31
0.0000000000000000
  0
LINE
  5
20D
100
AcDbEntity
  8
MAIN0
  6
BYBLOCK
 62
0
100
AcDbLine
 10
297.2991313003536
 20
424.8159186625426
 30
0.0000000000000000
 11
297.2991313003536
 21
405.7289983874916
 31
0.0000000000000000
  0
MTEXT
  5
20E
100
AcDbEntity
  8
MAIN0
  6
BYBLOCK
 62
0
100
AcDbMText
 10
289.2077529788408
 20
411.8039983159661
 30
0.0000000000000000
 40
4.649999856948853
 41
0.0000000000000000
 71
     5
 72
     1
  1
\A1;2
 11
1.000000000000000
 21
0.0000000000000000
 31
0.0000000000000000
  7
STANDARD
  0
ENDBLK
  5
20F
100
AcDbEntity
  8
MAIN0
  6
CONTINUOUS
 62
3
100
AcDbBlockEnd
  0
BLOCK
  5
211
100
AcDbEntity
  8
MAIN0
  6
CONTINUOUS
 62
3
100
AcDbBlockBegin
  2
*D28
 70
    65
 10
0.0
 20
0.0
 30
0.0
  0
LINE
  5
212
100
AcDbEntity
  8
MAIN0
  6
BYBLOCK
 62
0
100
AcDbLine
 10
294.0991312824722
 20
442.0159186804240
 30
0.0000000000000000
 11
265.3974490560507
 21
442.0159186804240
 31
0.0000000000000000
  0
LINE
  5
213
100
AcDbEntity
  8
MAIN0
  6
BYBLOCK
 62
0
100
AcDbLine
 10
268.3974490560507
 20
439.0159186804240
 30
0.0000000000000000
 11
268.3974490560507
 21
429.0159186804240
 31
0.0000000000000000
  0
INSERT
  5
214
100
AcDbEntity
  8
MAIN0
  6
BYBLOCK
 62
0
100
AcDbBlockReference
  2
_OPEN
 10
268.3974490560507
 20
442.0159186804240
 30
0.0000000000000000
 41
3.000000000000000
 42
3.000000000000000
 43
3.000000000000000
 50
90.00000000000000
  0
INSERT
  5
215
100
AcDbEntity
  8
MAIN0
  6
BYBLOCK
 62
0
100
AcDbBlockReference
  2
_OPEN
 10
268.3974490560507
 20
426.0159186804240
 30
0.0000000000000000
 41
3.000000000000000
 42
3.000000000000000
 43
3.000000000000000
 50
270.0000000000000
  0
LINE
  5
216
100
AcDbEntity
  8
MAIN0
  6
BYBLOCK
 62
0
100
AcDbLine
 10
294.0991312824722
 20
426.0159186804240
 30
0.0000000000000000
 11
265.3974490560507
 21
426.0159186804240
 31
0.0000000000000000
  0
MTEXT
  5
217
100
AcDbEntity
  8
MAIN0
  6
BYBLOCK
 62
0
100
AcDbMText
 10
265.5724491275763
 20
434.0159186804240
 30
0.0000000000000000
 40
4.649999856948853
 41
0.0000000000000000
 71
     5
 72
     1
  1
\A1;16
 11
6.123233995736766e-017
 21
1.000000000000000
 31
0.0000000000000000
  7
STANDARD
  0
ENDBLK
  5
218
100
AcDbEntity
  8
MAIN0
  6
CONTINUOUS
 62
3
100
AcDbBlockEnd
  0
BLOCK
  5
21A
100
AcDbEntity
  8
MAIN0
  6
CONTINUOUS
 62
3
100
AcDbBlockBegin
  2
*D29
 70
    65
 10
0.0
 20
0.0
 30
0.0
  0
LINE
  5
21B
100
AcDbEntity
  8
MAIN0
  6
BYBLOCK
 62
0
100
AcDbLine
 10
294.0991312824722
 20
426.0159186804240
 30
0.0000000000000000
 11
265.3974490560507
 21
426.0159186804240
 31
0.0000000000000000
  0
LINE
  5
21C
100
AcDbEntity
  8
MAIN0
  6
BYBLOCK
 62
0
100
AcDbLine
 10
268.3974490560507
 20
423.0159186804240
 30
0.0000000000000000
 11
268.3974490560507
 21
379.1159186804240
 31
0.0000000000000000
  0
INSERT
  5
21D
100
AcDbEntity
  8
MAIN0
  6
BYBLOCK
 62
0
100
AcDbBlockReference
  2
_OPEN
 10
268.3974490560507
 20
426.0159186804240
 30
0.0000000000000000
 41
3.000000000000000
 42
3.000000000000000
 43
3.000000000000000
 50
90.00000000000000
  0
INSERT
  5
21E
100
AcDbEntity
  8
MAIN0
  6
BYBLOCK
 62
0
100
AcDbBlockReference
  2
_OPEN
 10
268.3974490560507
 20
376.1159186804240
 30
0.0000000000000000
 41
3.000000000000000
 42
3.000000000000000
 43
3.000000000000000
 50
270.0000000000000
  0
MTEXT
  5
21F
100
AcDbEntity
  8
MAIN0
  6
BYBLOCK
 62
0
100
AcDbMText
 10
265.3224491275763
 20
411.8423490323340
 30
0.0000000000000000
 40
4.649999856948853
 41
0.0000000000000000
 71
     5
 72
     1
  1
\A1;MAX 49.9
 11
6.123233995736766e-017
 21
1.000000000000000
 31
0.0000000000000000
  7
STANDARD
  0
ENDBLK
  5
220
100
AcDbEntity
  8
MAIN0
  6
CONTINUOUS
 62
3
100
AcDbBlockEnd
  0
BLOCK
  5
225
100
AcDbEntity
  8
MAIN0
  6
CONTINUOUS
 62
3
100
AcDbBlockBegin
  2
*D30
 70
    65
 10
0.0
 20
0.0
 30
0.0
  0
LINE
  5
226
100
AcDbEntity
  8
MAIN0
  6
BYBLOCK
 62
0
100
AcDbLine
 10
546.4991313182347
 20
398.6159186804243
 30
0.0000000000000000
 11
558.1387623340656
 21
398.6159186804243
 31
0.0000000000000000
  0
LINE
  5
227
100
AcDbEntity
  8
MAIN0
  6
BYBLOCK
 62
0
100
AcDbLine
 10
555.1387623340656
 20
395.6159186804243
 30
0.0000000000000000
 11
555.1387623340656
 21
356.6159186804243
 31
0.0000000000000000
  0
INSERT
  5
228
100
AcDbEntity
  8
MAIN0
  6
BYBLOCK
 62
0
100
AcDbBlockReference
  2
_OPEN
 10
555.1387623340656
 20
398.6159186804243
 30
0.0000000000000000
 41
3.000000000000000
 42
3.000000000000000
 43
3.000000000000000
 50
90.00000000000000
  0
INSERT
  5
229
100
AcDbEntity
  8
MAIN0
  6
BYBLOCK
 62
0
100
AcDbBlockReference
  2
_OPEN
 10
555.1387623340656
 20
353.6159186804243
 30
0.0000000000000000
 41
3.000000000000000
 42
3.000000000000000
 43
3.000000000000000
 50
270.0000000000000
  0
LINE
  5
22A
100
AcDbEntity
  8
MAIN0
  6
BYBLOCK
 62
0
100
AcDbLine
 10
546.4991313182347
 20
353.6159186804243
 30
0.0000000000000000
 11
558.1387623340656
 21
353.6159186804243
 31
0.0000000000000000
  0
MTEXT
  5
22B
100
AcDbEntity
  8
MAIN0
  6
BYBLOCK
 62
0
100
AcDbMText
 10
552.3137624055912
 20
376.1159186804243
 30
0.0000000000000000
 40
4.649999856948853
 41
0.0000000000000000
 71
     5
 72
     1
  1
\A1;45
 11
6.123233995736766e-017
 21
1.000000000000000
 31
0.0000000000000000
  7
STANDARD
  0
ENDBLK
  5
22C
100
AcDbEntity
  8
MAIN0
  6
CONTINUOUS
 62
3
100
AcDbBlockEnd
  0
BLOCK
  5
36E
100
AcDbEntity
  8
MAIN0
  6
CONTINUOUS
 62
3
100
AcDbBlockBegin
  2
*D31
 70
    65
 10
0.0
 20
0.0
 30
0.0
  0
LINE
  5
36F
100
AcDbEntity
  8
MAIN0
  6
BYBLOCK
 62
0
100
AcDbLine
 10
651.8292176775763
 20
231.0297318380602
 30
0.0000000000000000
 11
661.8309649996004
 21
213.7061973118485
 31
0.0000000000000000
  0
LINE
  5
370
100
AcDbEntity
  8
MAIN0
  6
BYBLOCK
 62
0
100
AcDbLine
 10
662.9290412109538
 20
217.8042735232018
 30
0.0000000000000000
 11
698.4360827661157
 21
238.3042735232017
 31
0.0000000000000000
  0
INSERT
  5
371
100
AcDbEntity
  8
MAIN0
  6
BYBLOCK
 62
0
100
AcDbBlockReference
  2
_OPEN
 10
660.3309649996004
 20
216.3042735232018
 30
0.0000000000000000
 41
3.000000000000000
 42
3.000000000000000
 43
3.000000000000000
 50
210.0000000000000
  0
INSERT
  5
372
100
AcDbEntity
  8
MAIN0
  6
BYBLOCK
 62
0
100
AcDbBlockReference
  2
_OPEN
 10
701.0341589774689
 20
239.8042735232017
 30
0.0000000000000000
 41
3.000000000000000
 42
3.000000000000000
 43
3.000000000000000
 50
29.99999999999997
  0
LINE
  5
373
100
AcDbEntity
  8
MAIN0
  6
BYBLOCK
 62
0
100
AcDbLine
 10
692.5324116554448
 20
254.5297318380601
 30
0.0000000000000000
 11
702.5341589774689
 21
237.2061973118484
 31
0.0000000000000000
  0
MTEXT
  5
374
100
AcDbEntity
  8
MAIN0
  6
BYBLOCK
 62
0
100
AcDbMText
 10
679.2700620242974
 20
230.5007952269498
 30
0.0000000000000000
 40
4.649999856948853
 41
0.0000000000000000
 71
     5
 72
     1
  1
\A1;47
 11
0.8660254037844387
 21
0.4999999999999999
 31
0.0000000000000000
  7
STANDARD
  0
ENDBLK
  5
375
100
AcDbEntity
  8
MAIN0
  6
CONTINUOUS
 62
3
100
AcDbBlockEnd
  0
BLOCK
  5
377
100
AcDbEntity
  8
MAIN0
  6
CONTINUOUS
 62
3
100
AcDbBlockBegin
  2
*D32
 70
    65
 10
0.0
 20
0.0
 30
0.0
  0
LINE
  5
378
100
AcDbEntity
  8
MAIN0
  6
BYBLOCK
 62
0
100
AcDbLine
 10
460.7651943539090
 20
295.0363473810354
 30
0.0000000000000000
 11
531.5151943539089
 21
172.4937527455373
 31
0.0000000000000000
  0
INSERT
  5
379
100
AcDbEntity
  8
MAIN0
  6
BYBLOCK
 62
0
100
AcDbBlockReference
  2
_OPEN
 10
459.2651943539090
 20
297.6344235923887
 30
0.0000000000000000
 41
3.000000000000000
 42
3.000000000000000
 43
3.000000000000000
 50
120.0000000000000
  0
INSERT
  5
37A
100
AcDbEntity
  8
MAIN0
  6
BYBLOCK
 62
0
100
AcDbBlockReference
  2
_OPEN
 10
533.0151943539089
 20
169.8956765341840
 30
0.0000000000000000
 41
3.000000000000000
 42
3.000000000000000
 43
3.000000000000000
 50
300.0000000000000
  0
LINE
  5
37B
100
AcDbEntity
  8
MAIN0
  6
BYBLOCK
 62
0
100
AcDbLine
 10
496.1401943539089
 20
233.7650500632864
 30
0.0000000000000000
 11
499.2038772713948
 21
239.0715045346531
 31
0.0000000000000000
  0
LINE
  5
37C
100
AcDbEntity
  8
MAIN0
  6
BYBLOCK
 62
0
100
AcDbLine
 10
499.2038772713949
 20
239.0715045346532
 30
0.0000000000000000
 11
511.7038772788455
 21
239.0715045346532
 31
0.0000000000000000
  0
LINE
  5
37D
100
AcDbEntity
  8
MAIN0
  6
BYBLOCK
 62
0
100
AcDbLine
 10
633.2688846489489
 20
227.7771716132788
 30
0.0000000000000000
 11
530.4171181425555
 21
168.3956765341841
 31
0.0000000000000000
  0
MTEXT
  5
37E
100
AcDbEntity
  8
MAIN0
  6
BYBLOCK
 62
0
100
AcDbMText
 10
505.4538772751202
 20
241.8965044631276
 30
0.0000000000000000
 40
4.649999856948853
 41
0.0000000000000000
 71
     5
 72
     1
  1
\A1;147.5
 11
1.000000000000000
 21
0.0000000000000000
 31
0.0000000000000000
  7
STANDARD
  0
ENDBLK
  5
37F
100
AcDbEntity
  8
MAIN0
  6
CONTINUOUS
 62
3
100
AcDbBlockEnd
  0
BLOCK
  5
381
100
AcDbEntity
  8
MAIN0
  6
CONTINUOUS
 62
3
100
AcDbBlockBegin
  2
*D33
 70
    65
 10
0.0
 20
0.0
 30
0.0
  0
LINE
  5
382
100
AcDbEntity
  8
MAIN0
  6
BYBLOCK
 62
0
100
AcDbLine
 10
595.1991313003535
 20
376.1159186804240
 30
0.0000000000000000
 11
607.6693190308038
 21
457.1621673164178
 31
0.0000000000000000
  0
INSERT
  5
383
100
AcDbEntity
  8
MAIN0
  6
BYBLOCK
 62
0
100
AcDbBlockReference
  2
_OPEN
 10
608.1255454111861
 20
460.1272739738322
 30
0.0000000000000000
 41
3.000000000000000
 42
3.000000000000000
 43
3.000000000000000
 50
81.25277828591409
  0
MTEXT
  5
384
100
AcDbEntity
  8
MAIN0
  6
BYBLOCK
 62
0
100
AcDbMText
 10
598.8701963240649
 20
418.5512094911109
 30
0.0000000000000000
 40
4.649999856948853
 41
0.0000000000000000
 71
     5
 72
     1
  1
\A1;Ｒ85
 11
0.1520754601274415
 21
0.9883688858048026
 31
0.0000000000000000
  7
KNJYOKO
  0
ENDBLK
  5
385
100
AcDbEntity
  8
MAIN0
  6
CONTINUOUS
 62
3
100
AcDbBlockEnd
  0
BLOCK
  5
388
100
AcDbEntity
  8
MAIN0
  6
CONTINUOUS
 62
3
100
AcDbBlockBegin
  2
*D34
 70
    65
 10
0.0
 20
0.0
 30
0.0
  0
LINE
  5
389
100
AcDbEntity
  8
MAIN0
  6
BYBLOCK
 62
0
100
AcDbLine
 10
608.5817717915685
 20
463.0923806312466
 30
0.0000000000000000
 11
612.2315828346270
 21
486.8132338905618
 31
0.0000000000000000
  0
INSERT
  5
38A
100
AcDbEntity
  8
MAIN0
  6
BYBLOCK
 62
0
100
AcDbBlockReference
  2
_OPEN
 10
608.1255454111861
 20
460.1272739738322
 30
0.0000000000000000
 41
3.000000000000000
 42
3.000000000000000
 43
3.000000000000000
 50
261.2527782859142
  0
INSERT
  5
38B
100
AcDbEntity
  8
MAIN0
  6
BYBLOCK
 62
0
100
AcDbBlockReference
  2
_OPEN
 10
612.6878092150093
 20
489.7783405479762
 30
0.0000000000000000
 41
3.000000000000000
 42
3.000000000000000
 43
3.000000000000000
 50
81.25277828591420
  0
MTEXT
  5
38C
100
AcDbEntity
  8
MAIN0
  6
BYBLOCK
 62
0
100
AcDbMText
 10
607.6145352813928
 20
475.3824204248870
 30
0.0000000000000000
 40
4.649999856948853
 41
0.0000000000000000
 71
     5
 72
     1
  1
\A1;30
 11
0.1520754601274417
 21
0.9883688858048025
 31
0.0000000000000000
  7
STANDARD
  0
ENDBLK
  5
38D
100
AcDbEntity
  8
MAIN0
  6
CONTINUOUS
 62
3
100
AcDbBlockEnd
  0
BLOCK
  5
38F
100
AcDbEntity
  8
MAIN0
  6
CONTINUOUS
 62
3
100
AcDbBlockBegin
  2
*D35
 70
    65
 10
0.0
 20
0.0
 30
0.0
  0
LINE
  5
390
100
AcDbEntity
  8
MAIN0
  6
BYBLOCK
 62
0
100
AcDbLine
 10
627.0877785704121
 20
287.8831614240403
 30
0.0000000000000000
 11
619.9717373111319
 21
300.2085064338700
 31
0.0000000000000000
  0
LINE
  5
391
100
AcDbEntity
  8
MAIN0
  6
BYBLOCK
 62
0
100
AcDbLine
 10
624.0698135224852
 20
299.1104302225166
 30
0.0000000000000000
 11
647.4524994246651
 21
312.6104302225166
 31
0.0000000000000000
  0
INSERT
  5
392
100
AcDbEntity
  8
MAIN0
  6
BYBLOCK
 62
0
100
AcDbBlockReference
  2
_OPEN
 10
621.4717373111319
 20
297.6104302225166
 30
0.0000000000000000
 41
3.000000000000000
 42
3.000000000000000
 43
3.000000000000000
 50
209.9999999999999
  0
INSERT
  5
393
100
AcDbEntity
  8
MAIN0
  6
BYBLOCK
 62
0
100
AcDbBlockReference
  2
_OPEN
 10
650.0505756360185
 20
314.1104302225166
 30
0.0000000000000000
 41
3.000000000000000
 42
3.000000000000000
 43
3.000000000000000
 50
29.99999999999994
  0
LINE
  5
394
100
AcDbEntity
  8
MAIN0
  6
BYBLOCK
 62
0
100
AcDbLine
 10
655.6666168952986
 20
304.3831614240403
 30
0.0000000000000000
 11
648.5505756360185
 21
316.7085064338700
 31
0.0000000000000000
  0
MTEXT
  5
395
100
AcDbEntity
  8
MAIN0
  6
BYBLOCK
 62
0
100
AcDbMText
 10
634.3486565093380
 20
308.3069519262647
 30
0.0000000000000000
 40
4.649999856948853
 41
0.0000000000000000
 71
     5
 72
     1
  1
\A1;33
 11
0.8660254037844390
 21
0.4999999999999993
 31
0.0000000000000000
  7
STANDARD
  0
ENDBLK
  5
396
100
AcDbEntity
  8
MAIN0
  6
CONTINUOUS
 62
3
100
AcDbBlockEnd
  0
BLOCK
  5
398
100
AcDbEntity
  8
MAIN0
  6
CONTINUOUS
 62
3
100
AcDbBlockBegin
  2
*D36
 70
    65
 10
0.0
 20
0.0
 30
0.0
  0
LINE
  5
399
100
AcDbEntity
  8
MAIN0
  6
BYBLOCK
 62
0
100
AcDbLine
 10
595.1991313003537
 20
376.1159186804242
 30
0.0000000000000000
 11
615.8783212098381
 21
286.4701094940072
 31
0.0000000000000000
  0
INSERT
  5
39A
100
AcDbEntity
  8
MAIN0
  6
BYBLOCK
 62
0
100
AcDbBlockReference
  2
_OPEN
 10
616.5526426199299
 20
283.5468765857544
 30
0.0000000000000000
 41
3.000000000000000
 42
3.000000000000000
 43
3.000000000000000
 50
282.9895773482430
  0
MTEXT
  5
39B
100
AcDbEntity
  8
MAIN0
  6
BYBLOCK
 62
0
100
AcDbMText
 10
603.1231760412325
 20
329.1964116546632
 30
0.0000000000000000
 40
4.649999856948853
 41
0.0000000000000000
 71
     5
 72
     1
  1
\A1;Ｒ95
 11
-0.2247738033639604
 21
0.9744109694175757
 31
0.0000000000000000
  7
KNJYOKO
  0
ENDBLK
  5
39C
100
AcDbEntity
  8
MAIN0
  6
CONTINUOUS
 62
3
100
AcDbBlockEnd
  0
BLOCK
  5
39E
100
AcDbEntity
  8
MAIN0
  6
CONTINUOUS
 62
3
100
AcDbBlockBegin
  2
*D37
 70
    65
 10
0.0
 20
0.0
 30
0.0
  0
LINE
  5
39F
100
AcDbEntity
  8
MAIN0
  6
BYBLOCK
 62
0
100
AcDbLine
 10
740.3015387357875
 20
337.2358457882280
 30
0.0000000000000000
 11
764.6866377002989
 21
330.7018782133240
 31
0.0000000000000000
  0
ARC
  5
3A0
100
AcDbEntity
  8
MAIN0
  6
BYBLOCK
 62
0
100
AcDbCircle
 10
595.1991313003555
 20
376.1159186804239
 30
0.0000000000000000
 40
172.4663782529811
100
AcDbArc
 50
345.9966425936266
 51
359.0033574063513
  0
INSERT
  5
3A1
100
AcDbEntity
  8
MAIN0
  6
BYBLOCK
 62
0
100
AcDbBlockReference
  2
_OPEN
 10
761.7888602214321
 20
331.4783353486326
 30
0.0000000000000000
 41
3.000000000000000
 42
3.000000000000000
 43
3.000000000000000
 50
254.9999999999778
  0
INSERT
  5
3A2
100
AcDbEntity
  8
MAIN0
  6
BYBLOCK
 62
0
100
AcDbBlockReference
  2
_OPEN
 10
767.6655095533366
 20
376.1159186804238
 30
0.0000000000000000
 41
3.000000000000000
 42
3.000000000000000
 43
3.000000000000000
 50
90.00000000000000
  0
MTEXT
  5
3A3
100
AcDbEntity
  8
MAIN0
  6
BYBLOCK
 62
0
100
AcDbMText
 10
763.3892041165540
 20
353.9732755247322
 30
0.0000000000000000
 40
4.649999856948853
 41
0.0000000000000000
 71
     5
 72
     1
  1
\A1;15\U+00B0
 11
0.1305261922202435
 21
0.9914448613737852
 31
0.0000000000000000
  7
STANDARD
  0
ENDBLK
  5
3A4
100
AcDbEntity
  8
MAIN0
  6
CONTINUOUS
 62
3
100
AcDbBlockEnd
  0
BLOCK
  5
3A6
100
AcDbEntity
  8
MAIN0
  6
CONTINUOUS
 62
3
100
AcDbBlockBegin
  2
*D38
 70
    65
 10
0.0
 20
0.0
 30
0.0
  0
ARC
  5
3A7
100
AcDbEntity
  8
MAIN0
  6
BYBLOCK
 62
0
100
AcDbCircle
 10
595.1991313003555
 20
376.1159186804239
 30
0.0000000000000000
 40
172.4663782529811
100
AcDbArc
 50
0.9966425936486889
 51
29.00335740635165
  0
INSERT
  5
3A8
100
AcDbEntity
  8
MAIN0
  6
BYBLOCK
 62
0
100
AcDbBlockReference
  2
_OPEN
 10
767.6655095533366
 20
376.1159186804239
 30
0.0000000000000000
 41
3.000000000000000
 42
3.000000000000000
 43
3.000000000000000
 50
270.0000000000000
  0
INSERT
  5
3A9
100
AcDbEntity
  8
MAIN0
  6
BYBLOCK
 62
0
100
AcDbBlockReference
  2
_OPEN
 10
744.5593961661327
 20
462.3491078069153
 30
0.0000000000000000
 41
3.000000000000000
 42
3.000000000000000
 43
3.000000000000000
 50
120.0000000000003
  0
MTEXT
  5
3AA
100
AcDbEntity
  8
MAIN0
  6
BYBLOCK
 62
0
100
AcDbMText
 10
759.0601198312708
 20
420.0223382282486
 30
0.0000000000000000
 40
4.649999856948853
 41
0.0000000000000000
 71
     5
 72
     1
  1
\A1;30\U+00B0
 11
-0.2588190451025234
 21
0.9659258262890675
 31
0.0000000000000000
  7
STANDARD
  0
ENDBLK
  5
3AB
100
AcDbEntity
  8
MAIN0
  6
CONTINUOUS
 62
3
100
AcDbBlockEnd
  0
BLOCK
  5
3AD
100
AcDbEntity
  8
MAIN0
  6
CONTINUOUS
 62
3
100
AcDbBlockBegin
  2
*D39
 70
    65
 10
0.0
 20
0.0
 30
0.0
  0
ARC
  5
3AE
100
AcDbEntity
  8
MAIN0
  6
BYBLOCK
 62
0
100
AcDbCircle
 10
595.1991313003555
 20
376.1159186804239
 30
0.0000000000000000
 40
172.4663782529811
100
AcDbArc
 50
30.99664259364902
 51
89.00335740634462
  0
INSERT
  5
3AF
100
AcDbEntity
  8
MAIN0
  6
BYBLOCK
 62
0
100
AcDbBlockReference
  2
_OPEN
 10
744.5593961661327
 20
462.3491078069153
 30
0.0000000000000000
 41
3.000000000000000
 42
3.000000000000000
 43
3.000000000000000
 50
300.0000000000003
  0
INSERT
  5
3B0
100
AcDbEntity
  8
MAIN0
  6
BYBLOCK
 62
0
100
AcDbBlockReference
  2
_OPEN
 10
595.1991313003756
 20
548.5822969334050
 30
0.0000000000000000
 41
3.000000000000000
 42
3.000000000000000
 43
3.000000000000000
 50
179.9999999999933
  0
MTEXT
  5
3B1
100
AcDbEntity
  8
MAIN0
  6
BYBLOCK
 62
0
100
AcDbMText
 10
682.8448203910916
 20
527.9227052499448
 30
0.0000000000000000
 40
4.649999856948853
 41
0.0000000000000000
 71
     5
 72
     1
  1
\A1;60\U+00B0
 11
0.8660254037844108
 21
-0.5000000000000482
 31
0.0000000000000000
  7
STANDARD
  0
ENDBLK
  5
3B2
100
AcDbEntity
  8
MAIN0
  6
CONTINUOUS
 62
3
100
AcDbBlockEnd
  0
BLOCK
  5
3B4
100
AcDbEntity
  8
MAIN0
  6
CONTINUOUS
 62
3
100
AcDbBlockBegin
  2
*D40
 70
    65
 10
0.0
 20
0.0
 30
0.0
  0
ARC
  5
3B5
100
AcDbEntity
  8
MAIN0
  6
BYBLOCK
 62
0
100
AcDbCircle
 10
595.1991313002513
 20
376.1159186806009
 30
0.0000000000000000
 40
60.66394790442817
100
AcDbArc
 50
272.8334347577846
 51
297.1665652421758
  0
INSERT
  5
3B6
100
AcDbEntity
  8
MAIN0
  6
BYBLOCK
 62
0
100
AcDbBlockReference
  2
_OPEN
 10
595.1991313002093
 20
315.4519707761727
 30
0.0000000000000000
 41
3.000000000000000
 42
3.000000000000000
 43
3.000000000000000
 50
179.9999999999603
  0
INSERT
  5
3B7
100
AcDbEntity
  8
MAIN0
  6
BYBLOCK
 62
0
100
AcDbBlockReference
  2
_OPEN
 10
625.5311052524655
 20
323.5793987015104
 30
0.0000000000000000
 41
3.000000000000000
 42
3.000000000000000
 43
3.000000000000000
 50
30.00000000000006
  0
MTEXT
  5
3B8
100
AcDbEntity
  8
MAIN0
  6
BYBLOCK
 62
0
100
AcDbMText
 10
616.7066948660371
 20
322.4244983936614
 30
0.0000000000000000
 40
4.649999856948853
 41
0.0000000000000000
 71
     5
 72
     1
  1
\A1;30\U+00B0
 11
0.9282917854809776
 21
0.3718526065641316
 31
0.0000000000000000
  7
STANDARD
  0
ENDBLK
  5
3B9
100
AcDbEntity
  8
MAIN0
  6
CONTINUOUS
 62
3
100
AcDbBlockEnd
  0
ENDSEC
  0
SECTION
  2
ENTITIES
  0
LINE
  5
46
100
AcDbEntity
  8
MAIN0
  6
CONTINUOUS
 62
3
100
AcDbLine
 10
341.1991313003535
 20
510.6159186804240
 30
0.0000000000000000
 11
341.1991313003535
 21
400.6159186804240
 31
0.0000000000000000
  0
LINE
  5
47
100
AcDbEntity
  8
MAIN0
  6
CONTINUOUS
 62
3
100
AcDbLine
 10
185.1991313003535
 20
526.1159186804240
 30
0.0000000000000000
 11
185.1991313003535
 21
226.1159186804240
 31
0.0000000000000000
  0
LINE
  5
48
100
AcDbEntity
  8
MAIN0
  6
CONTINUOUS
 62
3
100
AcDbLine
 10
295.2991313003535
 20
442.1159186804240
 30
0.0000000000000000
 11
299.1991313003535
 21
442.1159186804240
 31
0.0000000000000000
  0
LINE
  5
49
100
AcDbEntity
  8
MAIN0
  6
CONTINUOUS
 62
3
100
AcDbLine
 10
185.1991313003535
 20
526.1159186804240
 30
0.0000000000000000
 11
201.1991313003535
 21
526.1159186804240
 31
0.0000000000000000
  0
LINE
  5
4A
100
AcDbEntity
  8
MAIN0
  6
CONTINUOUS
 62
3
100
AcDbLine
 10
201.1991313003536
 20
249.1159186804240
 30
0.0000000000000000
 11
293.1991313003535
 21
249.1159186804240
 31
0.0000000000000000
  0
LINE
  5
4B
100
AcDbEntity
  8
MAIN0
  6
CONTINUOUS
 62
3
100
AcDbLine
 10
185.1991313003535
 20
226.1159186804240
 30
0.0000000000000000
 11
201.1991313003535
 21
226.1159186804240
 31
0.0000000000000000
  0
LINE
  5
4C
100
AcDbEntity
  8
MAIN0
  6
CENTER
 62
3
100
AcDbLine
 10
179.6723889373610
 20
516.1159186804240
 30
0.0000000000000000
 11
205.7779456071069
 21
516.1159186804240
 31
0.0000000000000000
  0
LINE
  5
4D
100
AcDbEntity
  8
MAIN0
  6
CONTINUOUS
 62
3
100
AcDbLine
 10
300.3991313003535
 20
510.6159186804240
 30
0.0000000000000000
 11
341.1991313003535
 21
510.6159186804240
 31
0.0000000000000000
  0
LINE
  5
4E
100
AcDbEntity
  8
MAIN0
  6
CONTINUOUS
 62
3
100
AcDbLine
 10
293.1991313003536
 20
503.1159186804240
 30
0.0000000000000000
 11
295.1991313003536
 21
501.1159186804240
 31
0.0000000000000000
  0
LINE
  5
4F
100
AcDbEntity
  8
MAIN0
  6
CONTINUOUS
 62
3
100
AcDbLine
 10
295.1991313003535
 20
251.1159186804240
 30
0.0000000000000000
 11
293.1991313003535
 21
249.1159186804240
 31
0.0000000000000000
  0
LINE
  5
50
100
AcDbEntity
  8
MAIN0
  6
CENTER
 62
3
100
AcDbLine
 10
216.1991313003535
 20
247.9159356819181
 30
0.0000000000000000
 11
216.1991313003535
 21
226.1159186804240
 31
0.0000000000000000
  0
LINE
  5
51
100
AcDbEntity
  8
MAIN0
  6
CONTINUOUS
 62
3
100
AcDbLine
 10
231.1991313003535
 20
248.6159186804240
 30
0.0000000000000000
 11
231.1991313003535
 21
228.6159186804240
 31
0.0000000000000000
  0
LINE
  5
52
100
AcDbEntity
  8
MAIN0
  6
CONTINUOUS
 62
3
100
AcDbLine
 10
201.1991313003535
 20
228.6159186804240
 30
0.0000000000000000
 11
231.1991313003535
 21
228.6159186804240
 31
0.0000000000000000
  0
LINE
  5
53
100
AcDbEntity
  8
MAIN0
  6
CENTER
 62
3
100
AcDbLine
 10
188.3731913254773
 20
241.1159186804240
 30
0.0000000000000000
 11
233.6442596060216
 21
241.1159186804240
 31
0.0000000000000000
  0
LINE
  5
54
100
AcDbEntity
  8
MAIN0
  6
HIDDEN
 62
3
100
AcDbLine
 10
185.1991313003535
 20
522.6159186804240
 30
0.0000000000000000
 11
201.1991313003535
 21
522.6159186804240
 31
0.0000000000000000
  0
LINE
  5
55
100
AcDbEntity
  8
MAIN0
  6
HIDDEN
 62
3
100
AcDbLine
 10
185.1991313003535
 20
509.6159186804240
 30
0.0000000000000000
 11
201.1991313003535
 21
509.6159186804240
 31
0.0000000000000000
  0
LINE
  5
56
100
AcDbEntity
  8
MAIN0
  6
CONTINUOUS
 62
3
100
AcDbLine
 10
190.8991313003535
 20
397.6159186804240
 30
0.0000000000000000
 11
295.2991313003535
 21
397.6159186804240
 31
0.0000000000000000
  0
LINE
  5
57
100
AcDbEntity
  8
MAIN0
  6
CONTINUOUS
 62
3
100
AcDbLine
 10
296.0991313003536
 20
401.1159186804240
 30
0.0000000000000000
 11
296.5991313003536
 21
401.1159186804240
 31
0.0000000000000000
  0
LINE
  5
58
100
AcDbEntity
  8
MAIN0
  6
CONTINUOUS
 62
3
100
AcDbLine
 10
294.1991313003535
 20
502.1159186804240
 30
0.0000000000000000
 11
299.1991313003536
 21
502.1159186804240
 31
0.0000000000000000
  0
LINE
  5
59
100
AcDbEntity
  8
MAIN0
  6
CONTINUOUS
 62
3
100
AcDbLine
 10
190.8991313003535
 20
354.6159186804240
 30
0.0000000000000000
 11
295.1991313003535
 21
354.6159186804240
 31
0.0000000000000000
  0
LINE
  5
5A
100
AcDbEntity
  8
MAIN0
  6
CONTINUOUS
 62
3
100
AcDbLine
 10
296.7991313003536
 20
400.9159186804240
 30
0.0000000000000000
 11
296.7991313003536
 21
376.1159186804240
 31
0.0000000000000000
  0
LINE
  5
5B
100
AcDbEntity
  8
MAIN0
  6
CONTINUOUS
 62
3
100
AcDbLine
 10
285.2991313003536
 20
397.4159186804240
 30
0.0000000000000000
 11
285.2991313003536
 21
376.1159186804240
 31
0.0000000000000000
  0
LINE
  5
5C
100
AcDbEntity
  8
MAIN0
  6
CONTINUOUS
 62
3
100
AcDbLine
 10
287.2991313003536
 20
397.4159186804240
 30
0.0000000000000000
 11
287.2991313003536
 21
394.8659186804240
 31
0.0000000000000000
  0
LINE
  5
5D
100
AcDbEntity
  8
MAIN0
  6
CONTINUOUS
 62
3
100
AcDbLine
 10
291.9991313003536
 20
397.4159186804240
 30
0.0000000000000000
 11
291.9991313003536
 21
394.8659186804240
 31
0.0000000000000000
  0
LINE
  5
5E
100
AcDbEntity
  8
MAIN0
  6
CONTINUOUS
 62
3
100
AcDbLine
 10
287.4991313003535
 20
394.6659186804240
 30
0.0000000000000000
 11
291.7991313003536
 21
394.6659186804240
 31
0.0000000000000000
  0
LINE
  5
5F
100
AcDbEntity
  8
MAIN0
  6
CONTINUOUS
 62
3
100
AcDbLine
 10
295.2991313003536
 20
399.7302780343688
 30
0.0000000000000000
 11
296.0991313003536
 21
401.1159186804239
 31
0.0000000000000000
  0
ARC
  5
60
100
AcDbEntity
  8
MAIN0
  6
CONTINUOUS
 62
3
100
AcDbCircle
 10
291.7991313003536
 20
394.8659186804240
 30
0.0000000000000000
 40
0.2000000000000000
100
AcDbArc
 50
269.9999999999945
 51
359.9999999999934
  0
ARC
  5
61
100
AcDbEntity
  8
MAIN0
  6
CONTINUOUS
 62
3
100
AcDbCircle
 10
287.4991313003536
 20
394.8659186804240
 30
0.0000000000000000
 40
0.2000000000000000
100
AcDbArc
 50
179.9999999999964
 51
269.9999999999906
  0
LINE
  5
62
100
AcDbEntity
  8
MAIN0
  6
CONTINUOUS
 62
3
100
AcDbLine
 10
296.5991313003535
 20
401.1159186804240
 30
0.0000000000000000
 11
296.7991313003536
 21
400.9159186804240
 31
0.0000000000000000
  0
LINE
  5
63
100
AcDbEntity
  8
MAIN0
  6
CONTINUOUS
 62
3
100
AcDbLine
 10
285.2991313003536
 20
397.4159186804240
 30
0.0000000000000000
 11
285.4991313003536
 21
397.6159186804240
 31
0.0000000000000000
  0
LINE
  5
64
100
AcDbEntity
  8
MAIN0
  6
CONTINUOUS
 62
3
100
AcDbLine
 10
287.2991313003536
 20
397.4159186804240
 30
0.0000000000000000
 11
287.0991313003535
 21
397.6159186804240
 31
0.0000000000000000
  0
LINE
  5
65
100
AcDbEntity
  8
MAIN0
  6
CONTINUOUS
 62
3
100
AcDbLine
 10
291.9991313003536
 20
397.4159186804240
 30
0.0000000000000000
 11
292.1991313003535
 21
397.6159186804240
 31
0.0000000000000000
  0
LINE
  5
66
100
AcDbEntity
  8
MAIN0
  6
CONTINUOUS
 62
3
100
AcDbLine
 10
294.6991313003535
 20
397.6159186804240
 30
0.0000000000000000
 11
295.2991313003535
 21
398.2159186804240
 31
0.0000000000000000
  0
ELLIPSE
  5
67
100
AcDbEntity
  8
MAIN0
  6
CONTINUOUS
 62
3
100
AcDbEllipse
 10
289.6491313003535
 20
396.1409186804240
 30
0.0000000000000000
 11
2.350000000000000
 21
0.0000000000000000
 31
0.0000000000000000
210
0.0000000000000000
220
0.0000000000000000
230
1.000000000000000
 40
0.6276595744680851
 41
0.0000000000000000
 42
6.283185307179586
  0
LINE
  5
68
100
AcDbEntity
  8
MAIN0
  6
CONTINUOUS
 62
3
100
AcDbLine
 10
296.0991313003536
 20
351.1159186804240
 30
0.0000000000000000
 11
296.5991313003536
 21
351.1159186804240
 31
0.0000000000000000
  0
LINE
  5
69
100
AcDbEntity
  8
MAIN0
  6
CONTINUOUS
 62
3
100
AcDbLine
 10
296.7991313003536
 20
351.3159186804240
 30
0.0000000000000000
 11
296.7991313003536
 21
376.1159186804240
 31
0.0000000000000000
  0
LINE
  5
6A
100
AcDbEntity
  8
MAIN0
  6
CONTINUOUS
 62
3
100
AcDbLine
 10
285.2991313003536
 20
354.8159186804240
 30
0.0000000000000000
 11
285.2991313003536
 21
376.1159186804240
 31
0.0000000000000000
  0
LINE
  5
6B
100
AcDbEntity
  8
MAIN0
  6
CONTINUOUS
 62
3
100
AcDbLine
 10
287.2991313003536
 20
354.8159186804240
 30
0.0000000000000000
 11
287.2991313003536
 21
357.3659186804240
 31
0.0000000000000000
  0
LINE
  5
6C
100
AcDbEntity
  8
MAIN0
  6
CONTINUOUS
 62
3
100
AcDbLine
 10
291.9991313003536
 20
354.8159186804240
 30
0.0000000000000000
 11
291.9991313003536
 21
357.3659186804240
 31
0.0000000000000000
  0
LINE
  5
6D
100
AcDbEntity
  8
MAIN0
  6
CONTINUOUS
 62
3
100
AcDbLine
 10
287.4991313003535
 20
357.5659186804240
 30
0.0000000000000000
 11
291.7991313003536
 21
357.5659186804240
 31
0.0000000000000000
  0
LINE
  5
6E
100
AcDbEntity
  8
MAIN0
  6
CONTINUOUS
 62
3
100
AcDbLine
 10
295.1991313003535
 20
352.6747644072361
 30
0.0000000000000000
 11
296.0991313003536
 21
351.1159186804241
 31
0.0000000000000000
  0
ARC
  5
6F
100
AcDbEntity
  8
MAIN0
  6
CONTINUOUS
 62
3
100
AcDbCircle
 10
291.7991313003536
 20
357.3659186804240
 30
0.0000000000000000
 40
0.2000000000000000
100
AcDbArc
 50
0.0000000000000000
 51
89.99999999999882
  0
ARC
  5
70
100
AcDbEntity
  8
MAIN0
  6
CONTINUOUS
 62
3
100
AcDbCircle
 10
287.4991313003536
 20
357.3659186804240
 30
0.0000000000000000
 40
0.2000000000000000
100
AcDbArc
 50
90.00000000000281
 51
179.9999999999969
  0
LINE
  5
71
100
AcDbEntity
  8
MAIN0
  6
CONTINUOUS
 62
3
100
AcDbLine
 10
296.5991313003535
 20
351.1159186804240
 30
0.0000000000000000
 11
296.7991313003536
 21
351.3159186804240
 31
0.0000000000000000
  0
LINE
  5
72
100
AcDbEntity
  8
MAIN0
  6
CONTINUOUS
 62
3
100
AcDbLine
 10
285.2991313003536
 20
354.8159186804240
 30
0.0000000000000000
 11
285.4991313003536
 21
354.6159186804240
 31
0.0000000000000000
  0
LINE
  5
73
100
AcDbEntity
  8
MAIN0
  6
CONTINUOUS
 62
3
100
AcDbLine
 10
287.2991313003536
 20
354.8159186804240
 30
0.0000000000000000
 11
287.0991313003535
 21
354.6159186804240
 31
0.0000000000000000
  0
LINE
  5
74
100
AcDbEntity
  8
MAIN0
  6
CONTINUOUS
 62
3
100
AcDbLine
 10
291.9991313003536
 20
354.8159186804240
 30
0.0000000000000000
 11
292.1991313003535
 21
354.6159186804240
 31
0.0000000000000000
  0
LINE
  5
75
100
AcDbEntity
  8
MAIN0
  6
CONTINUOUS
 62
3
100
AcDbLine
 10
294.6991313003535
 20
354.6159186804240
 30
0.0000000000000000
 11
295.1991313003535
 21
354.1159186804239
 31
0.0000000000000000
  0
ELLIPSE
  5
76
100
AcDbEntity
  8
MAIN0
  6
CONTINUOUS
 62
3
100
AcDbEllipse
 10
289.6491313003535
 20
356.0909186804240
 30
0.0000000000000000
 11
2.350000000000000
 21
0.0000000000000000
 31
0.0000000000000000
210
0.0000000000000000
220
0.0000000000000000
230
1.000000000000000
 40
0.6276595744680851
 41
0.0000000000000000
 42
6.283185307179586
  0
LINE
  5
77
100
AcDbEntity
  8
MAIN0
  6
CONTINUOUS
 62
3
100
AcDbLine
 10
190.2991313003535
 20
400.6540384650722
 30
0.0000000000000000
 11
190.2991313003535
 21
351.5777988957763
 31
0.0000000000000000
  0
LINE
  5
78
100
AcDbEntity
  8
MAIN0
  6
CENTER
 62
3
100
AcDbLine
 10
291.2709251866065
 20
437.6159186804240
 30
0.0000000000000000
 11
298.8745876653870
 21
437.6159186804240
 31
0.0000000000000000
  0
LINE
  5
79
100
AcDbEntity
  8
MAIN0
  6
CONTINUOUS
 62
3
100
AcDbLine
 10
295.2991313003536
 20
426.0159186804240
 30
0.0000000000000000
 11
297.2991313003536
 21
426.0159186804240
 31
0.0000000000000000
  0
LINE
  5
7A
100
AcDbEntity
  8
MAIN0
  6
CONTINUOUS
 62
3
100
AcDbLine
 10
297.2991313003536
 20
442.0159186804240
 30
0.0000000000000000
 11
297.2991313003536
 21
426.0159186804240
 31
0.0000000000000000
  0
LINE
  5
7B
100
AcDbEntity
  8
MAIN0
  6
CONTINUOUS
 62
3
100
AcDbLine
 10
295.2991313003536
 20
442.0159186804240
 30
0.0000000000000000
 11
297.2991313003536
 21
442.0159186804240
 31
0.0000000000000000
  0
LINE
  5
7C
100
AcDbEntity
  8
MAIN0
  6
CONTINUOUS
 62
3
100
AcDbLine
 10
299.1991313003535
 20
442.1159186804239
 30
0.0000000000000000
 11
300.1991313003535
 21
442.6932689496147
 31
0.0000000000000000
  0
LINE
  5
7D
100
AcDbEntity
  8
MAIN0
  6
CONTINUOUS
 62
3
100
AcDbLine
 10
299.1991313003534
 20
443.6159186804241
 30
0.0000000000000000
 11
300.1991313003535
 21
443.0385684112350
 31
0.0000000000000000
  0
LINE
  5
7E
100
AcDbEntity
  8
MAIN0
  6
CONTINUOUS
 62
3
100
AcDbLine
 10
299.1991313003534
 20
442.1159186804241
 30
0.0000000000000000
 11
300.1991313003534
 21
441.5385684112351
 31
0.0000000000000000
  0
LINE
  5
7F
100
AcDbEntity
  8
MAIN0
  6
CONTINUOUS
 62
3
100
AcDbLine
 10
299.1991313003535
 20
443.6159186804240
 30
0.0000000000000000
 11
300.1991313003536
 21
444.1932689496148
 31
0.0000000000000000
  0
LINE
  5
80
100
AcDbEntity
  8
MAIN0
  6
CONTINUOUS
 62
3
100
AcDbLine
 10
299.1991313003536
 20
440.6159186804240
 30
0.0000000000000000
 11
300.1991313003535
 21
441.1932689496148
 31
0.0000000000000000
  0
LINE
  5
81
100
AcDbEntity
  8
MAIN0
  6
CONTINUOUS
 62
3
100
AcDbLine
 10
300.3991313003535
 20
400.6159186804240
 30
0.0000000000000000
 11
341.1991313003535
 21
400.6159186804240
 31
0.0000000000000000
  0
LINE
  5
82
100
AcDbEntity
  8
MAIN0
  6
CONTINUOUS
 62
3
100
AcDbLine
 10
299.1991313003535
 20
508.1159186804239
 30
0.0000000000000000
 11
300.1991313003534
 21
508.6932689496146
 31
0.0000000000000000
  0
LINE
  5
83
100
AcDbEntity
  8
MAIN0
  6
CONTINUOUS
 62
3
100
AcDbLine
 10
299.1991313003534
 20
509.6159186804241
 30
0.0000000000000000
 11
300.1991313003535
 21
509.0385684112350
 31
0.0000000000000000
  0
LINE
  5
84
100
AcDbEntity
  8
MAIN0
  6
CONTINUOUS
 62
3
100
AcDbLine
 10
299.1991313003534
 20
508.1159186804241
 30
0.0000000000000000
 11
300.1991313003534
 21
507.5385684112350
 31
0.0000000000000000
  0
LINE
  5
85
100
AcDbEntity
  8
MAIN0
  6
CONTINUOUS
 62
3
100
AcDbLine
 10
299.1991313003535
 20
509.6159186804239
 30
0.0000000000000000
 11
300.1991313003536
 21
510.1932689496148
 31
0.0000000000000000
  0
LINE
  5
86
100
AcDbEntity
  8
MAIN0
  6
CONTINUOUS
 62
3
100
AcDbLine
 10
299.1991313003536
 20
506.6159186804240
 30
0.0000000000000000
 11
300.1991313003535
 21
507.1932689496148
 31
0.0000000000000000
  0
LINE
  5
87
100
AcDbEntity
  8
MAIN0
  6
CONTINUOUS
 62
3
100
AcDbLine
 10
300.3991313003536
 20
510.6159186804239
 30
0.0000000000000000
 11
300.1991313003535
 21
510.4159186804239
 31
0.0000000000000000
  0
LINE
  5
88
100
AcDbEntity
  8
MAIN0
  6
CONTINUOUS
 62
3
100
AcDbLine
 10
300.1991313003535
 20
510.4159186804240
 30
0.0000000000000000
 11
300.1991313003535
 21
510.1932689496148
 31
0.0000000000000000
  0
LINE
  5
89
100
AcDbEntity
  8
MAIN0
  6
CONTINUOUS
 62
3
100
AcDbLine
 10
299.1991313003534
 20
401.6159186804240
 30
0.0000000000000000
 11
300.1991313003533
 21
402.1932689496147
 31
0.0000000000000000
  0
LINE
  5
8A
100
AcDbEntity
  8
MAIN0
  6
CONTINUOUS
 62
3
100
AcDbLine
 10
299.1991313003533
 20
403.1159186804242
 30
0.0000000000000000
 11
300.1991313003534
 21
402.5385684112351
 31
0.0000000000000000
  0
LINE
  5
8B
100
AcDbEntity
  8
MAIN0
  6
CONTINUOUS
 62
3
100
AcDbLine
 10
299.1991313003533
 20
401.6159186804242
 30
0.0000000000000000
 11
300.1991313003533
 21
401.0385684112351
 31
0.0000000000000000
  0
LINE
  5
8C
100
AcDbEntity
  8
MAIN0
  6
CONTINUOUS
 62
3
100
AcDbLine
 10
299.1991313003534
 20
403.1159186804240
 30
0.0000000000000000
 11
300.1991313003535
 21
403.6932689496149
 31
0.0000000000000000
  0
LINE
  5
8D
100
AcDbEntity
  8
MAIN0
  6
CONTINUOUS
 62
3
100
AcDbLine
 10
300.1991313003535
 20
400.8159186804240
 30
0.0000000000000000
 11
300.3991313003535
 21
400.6159186804240
 31
0.0000000000000000
  0
LINE
  5
8E
100
AcDbEntity
  8
MAIN0
  6
CONTINUOUS
 62
3
100
AcDbLine
 10
300.1991313003535
 20
440.0385684112351
 30
0.0000000000000000
 11
300.1991313003535
 21
401.0385684112350
 31
0.0000000000000000
  0
LINE
  5
8F
100
AcDbEntity
  8
MAIN0
  6
CONTINUOUS
 62
3
100
AcDbLine
 10
300.1991313003535
 20
401.0385684112350
 30
0.0000000000000000
 11
300.1991313003535
 21
400.8159186804240
 31
0.0000000000000000
  0
LINE
  5
90
100
AcDbEntity
  8
MAIN0
  6
CONTINUOUS
 62
3
100
AcDbLine
 10
295.1991313003535
 20
501.1159186804240
 30
0.0000000000000000
 11
295.1991313003535
 21
434.3049611746662
 31
0.0000000000000000
  0
LINE
  5
91
100
AcDbEntity
  8
MAIN0
  6
CONTINUOUS
 62
3
100
AcDbLine
 10
299.1991313003535
 20
500.6159186804239
 30
0.0000000000000000
 11
300.1991313003534
 21
501.1932689496147
 31
0.0000000000000000
  0
LINE
  5
92
100
AcDbEntity
  8
MAIN0
  6
CONTINUOUS
 62
3
100
AcDbLine
 10
299.1991313003534
 20
502.1159186804241
 30
0.0000000000000000
 11
300.1991313003534
 21
501.5385684112350
 31
0.0000000000000000
  0
LINE
  5
93
100
AcDbEntity
  8
MAIN0
  6
CONTINUOUS
 62
3
100
AcDbLine
 10
299.1991313003533
 20
500.6159186804241
 30
0.0000000000000000
 11
300.1991313003534
 21
500.0385684112350
 31
0.0000000000000000
  0
LINE
  5
94
100
AcDbEntity
  8
MAIN0
  6
CONTINUOUS
 62
3
100
AcDbLine
 10
299.1991313003535
 20
502.1159186804240
 30
0.0000000000000000
 11
300.1991313003535
 21
502.6932689496148
 31
0.0000000000000000
  0
LINE
  5
95
100
AcDbEntity
  8
MAIN0
  6
CONTINUOUS
 62
3
100
AcDbLine
 10
299.1991313003535
 20
499.1159186804240
 30
0.0000000000000000
 11
300.1991313003534
 21
499.6932689496148
 31
0.0000000000000000
  0
LINE
  5
96
100
AcDbEntity
  8
MAIN0
  6
CONTINUOUS
 62
3
100
AcDbLine
 10
300.1991313003535
 20
502.9159186804241
 30
0.0000000000000000
 11
300.1991313003535
 21
502.6932689496148
 31
0.0000000000000000
  0
LINE
  5
97
100
AcDbEntity
  8
MAIN0
  6
CONTINUOUS
 62
3
100
AcDbLine
 10
299.1991313003535
 20
499.1159186804240
 30
0.0000000000000000
 11
299.1991313003535
 21
403.1159186804240
 31
0.0000000000000000
  0
LINE
  5
98
100
AcDbEntity
  8
MAIN0
  6
CONTINUOUS
 62
3
100
AcDbLine
 10
299.1991313003535
 20
506.6159186804240
 30
0.0000000000000000
 11
299.1991313003535
 21
502.1159186804240
 31
0.0000000000000000
  0
LINE
  5
99
100
AcDbEntity
  8
MAIN0
  6
CONTINUOUS
 62
3
100
AcDbLine
 10
300.1991313003535
 20
510.1932689496148
 30
0.0000000000000000
 11
300.1991313003535
 21
502.6932689496148
 31
0.0000000000000000
  0
LINE
  5
9A
100
AcDbEntity
  8
MAIN0
  6
CONTINUOUS
 62
3
100
AcDbLine
 10
300.1991313003535
 20
504.1932689496148
 30
0.0000000000000000
 11
300.1991313003535
 21
441.5385684112350
 31
0.0000000000000000
  0
LINE
  5
9B
100
AcDbEntity
  8
MAIN0
  6
PHANTOM
 62
3
100
AcDbLine
 10
303.1991313003535
 20
494.6159186804240
 30
0.0000000000000000
 11
303.1991313003535
 21
439.6159186804240
 31
0.0000000000000000
  0
LINE
  5
9C
100
AcDbEntity
  8
MAIN0
  6
PHANTOM
 62
3
100
AcDbLine
 10
296.4250493548244
 20
494.6159186804240
 30
0.0000000000000000
 11
303.1991313003537
 21
494.6159186804240
 31
0.0000000000000000
  0
LINE
  5
9D
100
AcDbEntity
  8
MAIN0
  6
PHANTOM
 62
3
100
AcDbLine
 10
295.8574465903540
 20
439.6159186804240
 30
0.0000000000000000
 11
303.1991313003535
 21
439.6159186804240
 31
0.0000000000000000
  0
LINE
  5
9E
100
AcDbEntity
  8
MAIN0
  6
HIDDEN
 62
3
100
AcDbLine
 10
341.1991313003529
 20
440.0159186804240
 30
0.0000000000000000
 11
340.5991313003529
 21
440.6159186804240
 31
0.0000000000000000
  0
LINE
  5
9F
100
AcDbEntity
  8
MAIN0
  6
HIDDEN
 62
3
100
AcDbLine
 10
340.5991313003529
 20
440.6159186804240
 30
0.0000000000000000
 11
314.1991313003529
 21
440.6159186804257
 31
0.0000000000000000
  0
LINE
  5
A0
100
AcDbEntity
  8
MAIN0
  6
HIDDEN
 62
3
100
AcDbLine
 10
314.1991313003529
 20
440.6159186804257
 30
0.0000000000000000
 11
314.1991313003542
 21
460.6159186804257
 31
0.0000000000000000
  0
LINE
  5
A1
100
AcDbEntity
  8
MAIN0
  6
HIDDEN
 62
3
100
AcDbLine
 10
314.1991313003542
 20
460.6159186804257
 30
0.0000000000000000
 11
340.5991313003542
 21
460.6159186804240
 31
0.0000000000000000
  0
LINE
  5
A2
100
AcDbEntity
  8
MAIN0
  6
HIDDEN
 62
3
100
AcDbLine
 10
340.5991313003542
 20
460.6159186804241
 30
0.0000000000000000
 11
341.1991313003542
 21
461.2159186804240
 31
0.0000000000000000
  0
LINE
  5
A3
100
AcDbEntity
  8
MAIN0
  6
HIDDEN
 62
3
100
AcDbLine
 10
314.1991313003531
 20
443.8659186804257
 30
0.0000000000000000
 11
304.7991313003531
 21
443.8659186804263
 31
0.0000000000000000
  0
LINE
  5
A4
100
AcDbEntity
  8
MAIN0
  6
HIDDEN
 62
3
100
AcDbLine
 10
304.7991313003531
 20
443.8659186804263
 30
0.0000000000000000
 11
304.1991313003531
 21
443.2659186804264
 31
0.0000000000000000
  0
LINE
  5
A5
100
AcDbEntity
  8
MAIN0
  6
HIDDEN
 62
3
100
AcDbLine
 10
314.1991313003540
 20
457.3659186804257
 30
0.0000000000000000
 11
304.7991313003540
 21
457.3659186804263
 31
0.0000000000000000
  0
LINE
  5
A6
100
AcDbEntity
  8
MAIN0
  6
HIDDEN
 62
3
100
AcDbLine
 10
304.7991313003540
 20
457.3659186804263
 30
0.0000000000000000
 11
304.1991313003540
 21
457.9659186804263
 31
0.0000000000000000
  0
LINE
  5
A7
100
AcDbEntity
  8
MAIN0
  6
HIDDEN
 62
3
100
AcDbLine
 10
314.1991313003530
 20
441.6159186804240
 30
0.0000000000000000
 11
324.9991313003530
 21
441.6159186804233
 31
0.0000000000000000
  0
LINE
  5
A8
100
AcDbEntity
  8
MAIN0
  6
HIDDEN
 62
3
100
AcDbLine
 10
324.9991313003530
 20
441.6159186804233
 30
0.0000000000000000
 11
326.1991313003531
 21
443.6943796495059
 31
0.0000000000000000
  0
LINE
  5
A9
100
AcDbEntity
  8
MAIN0
  6
HIDDEN
 62
3
100
AcDbLine
 10
326.1991313003532
 20
443.6943796495060
 30
0.0000000000000000
 11
326.1991313003541
 21
457.5374577113406
 31
0.0000000000000000
  0
LINE
  5
AA
100
AcDbEntity
  8
MAIN0
  6
HIDDEN
 62
3
100
AcDbLine
 10
326.1991313003541
 20
457.5374577113405
 30
0.0000000000000000
 11
324.9991313003542
 21
459.6159186804233
 31
0.0000000000000000
  0
LINE
  5
AB
100
AcDbEntity
  8
MAIN0
  6
HIDDEN
 62
3
100
AcDbLine
 10
324.9991313003542
 20
459.6159186804233
 30
0.0000000000000000
 11
314.1991313003542
 21
459.6159186804240
 31
0.0000000000000000
  0
LINE
  5
AC
100
AcDbEntity
  8
MAIN0
  6
HIDDEN
 62
3
100
AcDbLine
 10
324.9991313003530
 20
441.6159186804233
 30
0.0000000000000000
 11
324.9991313003542
 21
459.6159186804233
 31
0.0000000000000000
  0
LINE
  5
AD
100
AcDbEntity
  8
MAIN0
  6
HIDDEN
 62
3
100
AcDbLine
 10
314.1991313003533
 20
444.6159186804240
 30
0.0000000000000000
 11
292.4518733077426
 21
444.6159186804254
 31
0.0000000000000000
  0
LINE
  5
AE
100
AcDbEntity
  8
MAIN0
  6
HIDDEN
 62
3
100
AcDbLine
 10
292.4518733077434
 20
456.6159186804254
 30
0.0000000000000000
 11
314.1991313003540
 21
456.6159186804240
 31
0.0000000000000000
  0
LINE
  5
AF
100
AcDbEntity
  8
MAIN0
  6
HIDDEN
 62
3
100
AcDbLine
 10
314.1991313003533
 20
445.5631341804240
 30
0.0000000000000000
 11
292.4518733077426
 21
445.5631341804254
 31
0.0000000000000000
  0
LINE
  5
B0
100
AcDbEntity
  8
MAIN0
  6
HIDDEN
 62
3
100
AcDbLine
 10
314.1991313003539
 20
455.6687031804240
 30
0.0000000000000000
 11
292.4518733077433
 21
455.6687031804254
 31
0.0000000000000000
  0
LINE
  5
B1
100
AcDbEntity
  8
MAIN0
  6
HIDDEN
 62
3
100
AcDbLine
 10
304.1991313003535
 20
510.6159186804240
 30
0.0000000000000000
 11
304.1991313003535
 21
486.6159186804247
 31
0.0000000000000000
  0
LINE
  5
B2
100
AcDbEntity
  8
MAIN0
  6
HIDDEN
 62
3
100
AcDbLine
 10
304.1991313003535
 20
444.6159186804246
 30
0.0000000000000000
 11
304.1991313003535
 21
400.6159186804240
 31
0.0000000000000000
  0
LINE
  5
B3
100
AcDbEntity
  8
MAIN0
  6
HIDDEN
 62
3
100
AcDbLine
 10
304.1991313003535
 20
474.6159186804246
 30
0.0000000000000000
 11
304.1991313003535
 21
456.6159186804246
 31
0.0000000000000000
  0
LINE
  5
B4
100
AcDbEntity
  8
MAIN0
  6
CENTER
 62
3
100
AcDbLine
 10
279.9056626074529
 20
480.6159186804240
 30
0.0000000000000000
 11
354.7631010035580
 21
480.6159186804240
 31
0.0000000000000000
  0
LINE
  5
B5
100
AcDbEntity
  8
MAIN0
  6
CENTER
 62
3
100
AcDbLine
 10
279.6217164074694
 20
450.6159186804240
 30
0.0000000000000000
 11
354.7631010035580
 21
450.6159186804240
 31
0.0000000000000000
  0
LINE
  5
B6
100
AcDbEntity
  8
MAIN0
  6
CONTINUOUS
 62
3
100
AcDbLine
 10
185.1991313003535
 20
401.1159186804240
 30
0.0000000000000000
 11
221.6914455957549
 21
401.1159186804240
 31
0.0000000000000000
  0
LINE
  5
B7
100
AcDbEntity
  8
MAIN0
  6
CONTINUOUS
 62
3
100
AcDbLine
 10
190.2991313003537
 20
351.5777988957764
 30
0.0000000000000000
 11
191.0991313003534
 21
351.1159186804241
 31
0.0000000000000000
  0
LINE
  5
B8
100
AcDbEntity
  8
MAIN0
  6
CONTINUOUS
 62
3
100
AcDbLine
 10
190.2991313003536
 20
400.6540384650722
 30
0.0000000000000000
 11
191.0991313003538
 21
401.1159186804240
 31
0.0000000000000000
  0
LINE
  5
B9
100
AcDbEntity
  8
MAIN0
  6
CONTINUOUS
 62
3
100
AcDbLine
 10
190.8991313003535
 20
397.6159186804240
 30
0.0000000000000000
 11
190.2991313003535
 21
398.2159186804240
 31
0.0000000000000000
  0
LINE
  5
BA
100
AcDbEntity
  8
MAIN0
  6
CONTINUOUS
 62
3
100
AcDbLine
 10
190.8991313003535
 20
354.6159186804240
 30
0.0000000000000000
 11
190.2991313003535
 21
354.0159186804240
 31
0.0000000000000000
  0
LINE
  5
BB
100
AcDbEntity
  8
MAIN0
  6
CENTER
 62
3
100
AcDbLine
 10
247.6459976569012
 20
111.9240443858704
 30
0.0000000000000000
 11
315.2987309363625
 21
111.9240443858704
 31
0.0000000000000000
  0
LINE
  5
BC
100
AcDbEntity
  8
MAIN0
  6
CONTINUOUS
 62
3
100
AcDbLine
 10
295.1991313003535
 20
143.7728643007758
 30
0.0000000000000000
 11
295.1991313003535
 21
131.9240443858704
 31
0.0000000000000000
  0
LINE
  5
BD
100
AcDbEntity
  8
MAIN0
  6
CONTINUOUS
 62
3
100
AcDbLine
 10
295.1991313003535
 20
354.6159186804240
 30
0.0000000000000000
 11
295.1991313003535
 21
251.1159186804240
 31
0.0000000000000000
  0
LINE
  5
BE
100
AcDbEntity
  8
MAIN0
  6
CONTINUOUS
 62
3
100
AcDbLine
 10
295.1991313003535
 20
80.07522447096500
 30
0.0000000000000000
 11
295.1991313003535
 21
91.92404438587039
 31
0.0000000000000000
  0
LINE
  5
BF
100
AcDbEntity
  8
MAIN0
  6
CONTINUOUS
 62
3
100
AcDbLine
 10
210.1991313003535
 20
405.9204657061672
 30
0.0000000000000000
 11
210.1991313003535
 21
401.1159186804240
 31
0.0000000000000000
  0
LINE
  5
C0
100
AcDbEntity
  8
MAIN0
  6
CONTINUOUS
 62
3
100
AcDbLine
 10
207.6991313003535
 20
407.2448601276499
 30
0.0000000000000000
 11
207.6991313003535
 21
401.1159186804240
 31
0.0000000000000000
  0
LINE
  5
C1
100
AcDbEntity
  8
MAIN0
  6
CONTINUOUS
 62
3
100
AcDbLine
 10
200.1991313003535
 20
412.7567445433009
 30
0.0000000000000000
 11
200.1991313003535
 21
401.1159186804240
 31
0.0000000000000000
  0
LINE
  5
C2
100
AcDbEntity
  8
MAIN0
  6
CONTINUOUS
 62
3
100
AcDbLine
 10
197.2991313003535
 20
403.4159186804240
 30
0.0000000000000000
 11
197.2991313003535
 21
401.1159186804240
 31
0.0000000000000000
  0
LINE
  5
C3
100
AcDbEntity
  8
MAIN0
  6
CONTINUOUS
 62
3
100
AcDbLine
 10
193.1991313003535
 20
403.4159186804240
 30
0.0000000000000000
 11
193.1991313003535
 21
401.1159186804240
 31
0.0000000000000000
  0
LINE
  5
C4
100
AcDbEntity
  8
MAIN0
  6
CONTINUOUS
 62
3
100
AcDbLine
 10
193.3991313003537
 20
403.6159186804240
 30
0.0000000000000000
 11
197.0991313003534
 21
403.6159186804240
 31
0.0000000000000000
  0
ARC
  5
C5
100
AcDbEntity
  8
MAIN0
  6
CONTINUOUS
 62
3
100
AcDbCircle
 10
193.3991313003536
 20
403.4159186804240
 30
0.0000000000000000
 40
0.2000000000000000
100
AcDbArc
 50
89.99999999999186
 51
179.9999999999964
  0
ARC
  5
C6
100
AcDbEntity
  8
MAIN0
  6
CONTINUOUS
 62
3
100
AcDbCircle
 10
197.0991313003535
 20
403.4159186804240
 30
0.0000000000000000
 40
0.2000000000000000
100
AcDbArc
 50
0.0000000000000000
 51
90.00000000000452
  0
LINE
  5
C7
100
AcDbEntity
  8
MAIN0
  6
CONTINUOUS
 62
3
100
AcDbLine
 10
201.1991313003535
 20
526.1159186804240
 30
0.0000000000000000
 11
201.1991313003536
 21
411.9946099824160
 31
0.0000000000000000
  0
LINE
  5
C8
100
AcDbEntity
  8
MAIN0
  6
CONTINUOUS
 62
3
100
AcDbLine
 10
216.1991542954299
 20
403.3180219510406
 30
0.0000000000000000
 11
216.1991542954299
 21
401.7159186804240
 31
0.0000000000000000
  0
ELLIPSE
  5
C9
100
AcDbEntity
  8
MAIN0
  6
CONTINUOUS
 62
3
100
AcDbEllipse
 10
195.2491313003536
 20
402.3659186804240
 30
0.0000000000000000
 11
2.050000000000000
 21
0.0000000000000000
 31
0.0000000000000000
210
0.0000000000000000
220
0.0000000000000000
230
1.000000000000000
 40
0.6097560975609757
 41
0.0000000000000000
 42
6.283185178131745
  0
LINE
  5
CA
100
AcDbEntity
  8
MAIN0
  6
CONTINUOUS
 62
3
100
AcDbLine
 10
216.1991542954298
 20
401.7159186804240
 30
0.0000000000000000
 11
216.7991542954298
 21
401.1159186804240
 31
0.0000000000000000
  0
LINE
  5
CB
100
AcDbEntity
  8
MAIN0
  6
CONTINUOUS
 62
3
100
AcDbLine
 10
200.1991313003535
 20
339.0214529666122
 30
0.0000000000000000
 11
200.1991313003535
 21
351.1159186804240
 31
0.0000000000000000
  0
LINE
  5
CC
100
AcDbEntity
  8
MAIN0
  6
CONTINUOUS
 62
3
100
AcDbLine
 10
197.2991313003535
 20
348.8159186804240
 30
0.0000000000000000
 11
197.2991313003535
 21
351.1159186804240
 31
0.0000000000000000
  0
LINE
  5
CD
100
AcDbEntity
  8
MAIN0
  6
CONTINUOUS
 62
3
100
AcDbLine
 10
193.1991313003535
 20
348.8159186804240
 30
0.0000000000000000
 11
193.1991313003535
 21
351.1159186804240
 31
0.0000000000000000
  0
LINE
  5
CE
100
AcDbEntity
  8
MAIN0
  6
CONTINUOUS
 62
3
100
AcDbLine
 10
193.3991313003537
 20
348.6159186804240
 30
0.0000000000000000
 11
197.0991313003534
 21
348.6159186804240
 31
0.0000000000000000
  0
ARC
  5
CF
100
AcDbEntity
  8
MAIN0
  6
CONTINUOUS
 62
3
100
AcDbCircle
 10
193.3991313003536
 20
348.8159186804240
 30
0.0000000000000000
 40
0.2000000000000000
100
AcDbArc
 50
179.9999999999969
 51
270.0000000000015
  0
ARC
  5
D0
100
AcDbEntity
  8
MAIN0
  6
CONTINUOUS
 62
3
100
AcDbCircle
 10
197.0991313003535
 20
348.8159186804240
 30
0.0000000000000000
 40
0.2000000000000000
100
AcDbArc
 50
269.9999999999888
 51
359.9999999999934
  0
LINE
  5
D1
100
AcDbEntity
  8
MAIN0
  6
CONTINUOUS
 62
3
100
AcDbLine
 10
216.1991542954299
 20
345.2886784605250
 30
0.0000000000000000
 11
216.1991542954299
 21
350.5159186804240
 31
0.0000000000000000
  0
ELLIPSE
  5
D2
100
AcDbEntity
  8
MAIN0
  6
CONTINUOUS
 62
3
100
AcDbEllipse
 10
195.2491313003536
 20
349.8659186804240
 30
0.0000000000000000
 11
2.050000000000000
 21
0.0000000000000000
 31
0.0000000000000000
210
0.0000000000000000
220
0.0000000000000000
230
1.000000000000000
 40
0.6097560975609757
 41
0.0000000000000000
 42
6.283185178131745
  0
LINE
  5
D3
100
AcDbEntity
  8
MAIN0
  6
CONTINUOUS
 62
3
100
AcDbLine
 10
216.1991542954298
 20
350.5159186804240
 30
0.0000000000000000
 11
216.7991542954298
 21
351.1159186804240
 31
0.0000000000000000
  0
LINE
  5
D4
100
AcDbEntity
  8
MAIN0
  6
CONTINUOUS
 62
3
100
AcDbLine
 10
200.1991313003535
 20
339.0316672002660
 30
0.0000000000000000
 11
200.1991313003535
 21
351.1159186804240
 31
0.0000000000000000
  0
LINE
  5
D5
100
AcDbEntity
  8
MAIN0
  6
CENTER
 62
3
100
AcDbLine
 10
181.7215888959891
 20
281.1159186804240
 30
0.0000000000000000
 11
207.4298730733085
 21
281.1159186804240
 31
0.0000000000000000
  0
LINE
  5
D6
100
AcDbEntity
  8
MAIN0
  6
PHANTOM
 62
3
100
AcDbLine
 10
188.1152043878437
 20
305.1159186804240
 30
0.0000000000000000
 11
209.2121274323843
 21
305.1159186804240
 31
0.0000000000000000
  0
LINE
  5
D7
100
AcDbEntity
  8
MAIN0
  6
HIDDEN
 62
3
100
AcDbLine
 10
188.1991313003535
 20
227.1159186804240
 30
0.0000000000000000
 11
198.1991313003535
 21
227.1159186804240
 31
0.0000000000000000
  0
LINE
  5
D8
100
AcDbEntity
  8
MAIN0
  6
HIDDEN
 62
3
100
AcDbLine
 10
188.1991313003535
 20
227.1159186804240
 30
0.0000000000000000
 11
188.1991313003535
 21
226.1159186804240
 31
0.0000000000000000
  0
LINE
  5
D9
100
AcDbEntity
  8
MAIN0
  6
HIDDEN
 62
3
100
AcDbLine
 10
198.1991313003535
 20
227.1159186804240
 30
0.0000000000000000
 11
198.1991313003535
 21
226.1159186804240
 31
0.0000000000000000
  0
LINE
  5
DA
100
AcDbEntity
  8
MAIN0
  6
PHANTOM
 62
3
100
AcDbLine
 10
206.1991313003535
 20
227.6159186804240
 30
0.0000000000000000
 11
226.1991313003535
 21
227.6159186804240
 31
0.0000000000000000
  0
LINE
  5
DB
100
AcDbEntity
  8
MAIN0
  6
PHANTOM
 62
3
100
AcDbLine
 10
226.1991313003535
 20
228.6159186804240
 30
0.0000000000000000
 11
226.1991313003535
 21
227.6159186804240
 31
0.0000000000000000
  0
LINE
  5
DC
100
AcDbEntity
  8
MAIN0
  6
PHANTOM
 62
3
100
AcDbLine
 10
206.1991313003535
 20
228.6159186804240
 30
0.0000000000000000
 11
206.1991313003535
 21
227.6159186804240
 31
0.0000000000000000
  0
DIMENSION
  5
E3
100
AcDbEntity
  8
MAIN0
  6
CONTINUOUS
 62
3
100
AcDbDimension
  2
*D0
 10
330.6155689548532
 20
249.1159186804240
 30
0.0000000000000000
 11
329.8655689548501
 21
279.7279817541587
 31
0.0000000000000000
 70
160
  1
\A1;\U+2205254
  3
MAIN001
100
AcDbAlignedDimension
 13
293.1991313003535
 23
503.1159186804240
 33
0.0000000000000000
 14
293.1991313003535
 24
249.1159186804240
 34
0.0000000000000000
 50
90.00000000000000
100
AcDbRotatedDimension
1001
ACAD
1000
DSTYLE
1002
{
1070
   173
1070
     1
1070
     6
1000
_NONE
1070
     7
1000
_OPEN
1070
    41
1040
3.000000
1002
}
  0
DIMENSION
  5
EC
100
AcDbEntity
  8
MAIN0
  6
CONTINUOUS
 62
3
100
AcDbDimension
  2
*D1
 10
185.1991313003535
 20
186.4555404812980
 30
0.0000000000000000
 11
207.0390333751484
 21
187.2055404812980
 31
0.0000000000000000
 70
160
  3
MAIN001
100
AcDbAlignedDimension
 13
216.1991313003535
 23
226.1159186804240
 33
0.0000000000000000
 14
185.1991313003535
 24
226.1159186804240
 34
0.0000000000000000
100
AcDbRotatedDimension
1001
ACAD
1000
DSTYLE
1002
{
1070
   173
1070
     1
1070
     6
1000
_OPEN
1070
     7
1000
_OPEN
1070
    41
1040
3.000000
1002
}
  0
DIMENSION
  5
F5
100
AcDbEntity
  8
MAIN0
  6
CONTINUOUS
 62
3
100
AcDbDimension
  2
*D2
 10
185.1991313003535
 20
176.2070337743940
 30
0.0000000000000000
 11
193.1991313003535
 21
176.7070337743940
 31
0.0000000000000000
 70
32
  3
MAIN001
100
AcDbAlignedDimension
 13
201.1991313003535
 23
226.1159186804240
 33
0.0000000000000000
 14
185.1991313003535
 24
226.1159186804240
 34
0.0000000000000000
100
AcDbRotatedDimension
1001
ACAD
1000
DSTYLE
1002
{
1070
   173
1070
     1
1070
     6
1000
_OPEN
1070
     7
1000
_OPEN
1070
    41
1040
3.000000
1002
}
  0
DIMENSION
  5
FE
100
AcDbEntity
  8
MAIN0
  6
CONTINUOUS
 62
3
100
AcDbDimension
  2
*D3
 10
201.1991313003535
 20
176.2070337743940
 30
0.0000000000000000
 11
216.1991313003535
 21
176.7070337743940
 31
0.0000000000000000
 70
32
  3
MAIN001
100
AcDbAlignedDimension
 13
231.1991313003535
 23
228.6159186804240
 33
0.0000000000000000
 14
201.1991313003535
 24
226.1159186804240
 34
0.0000000000000000
100
AcDbRotatedDimension
1001
ACAD
1000
DSTYLE
1002
{
1070
   173
1070
     1
1070
     6
1000
_OPEN
1070
     7
1000
_OPEN
1070
    41
1040
3.000000
1002
}
  0
DIMENSION
  5
107
100
AcDbEntity
  8
MAIN0
  6
CONTINUOUS
 62
3
100
AcDbDimension
  2
*D4
 10
231.1991313003535
 20
176.2070337743941
 30
0.0000000000000000
 11
263.1991313003535
 21
176.7070337743941
 31
0.0000000000000000
 70
32
  3
MAIN001
100
AcDbAlignedDimension
 13
295.1991313003535
 23
251.1159186804240
 33
0.0000000000000000
 14
231.1991313003535
 24
228.6159186804240
 34
0.0000000000000000
100
AcDbRotatedDimension
1001
ACAD
1000
DSTYLE
1002
{
1070
   173
1070
     1
1070
     6
1000
_OPEN
1070
     7
1000
_OPEN
1070
    41
1040
3.000000
1002
}
  0
DIMENSION
  5
110
100
AcDbEntity
  8
MAIN0
  6
CONTINUOUS
 62
3
100
AcDbDimension
  2
*D5
 10
185.1991313003535
 20
165.0750349937827
 30
0.0000000000000000
 11
240.1991313003535
 21
165.5750349937827
 31
0.0000000000000000
 70
32
  3
MAIN001
100
AcDbAlignedDimension
 13
295.1991313003535
 23
251.1159186804240
 33
0.0000000000000000
 14
185.1991313003535
 24
226.1159186804240
 34
0.0000000000000000
100
AcDbRotatedDimension
1001
ACAD
1000
DSTYLE
1002
{
1070
   173
1070
     1
1070
     6
1000
_OPEN
1070
     7
1000
_OPEN
1070
    41
1040
3.000000
1002
}
  0
DIMENSION
  5
11A
100
AcDbEntity
  8
MAIN0
  6
CONTINUOUS
 62
3
100
AcDbDimension
  2
*D6
 10
295.1991313003535
 20
67.32057184107970
 30
0.0000000000000000
 11
297.6991313003535
 21
67.82057184107970
 31
0.0000000000000000
 70
32
  3
MAIN001
100
AcDbAlignedDimension
 13
300.1991313003535
 23
92.92404438587033
 33
0.0000000000000000
 14
295.1991313003535
 24
80.07522447096500
 34
0.0000000000000000
100
AcDbRotatedDimension
1001
ACAD
1000
DSTYLE
1002
{
1070
   173
1070
     1
1070
     6
1000
_DOT
1070
     7
1000
_OPEN
1070
    41
1040
3.000000
1070
   287
1070
     0
1002
}
  0
DIMENSION
  5
124
100
AcDbEntity
  8
MAIN0
  6
CONTINUOUS
 62
3
100
AcDbDimension
  2
*D7
 10
300.1991313003535
 20
67.32057184107981
 30
0.0000000000000000
 11
307.7038342035468
 21
68.07057184107981
 31
0.0000000000000000
 70
160
  3
MAIN001
100
AcDbAlignedDimension
 13
303.1991313003535
 23
104.0780642049144
 33
0.0000000000000000
 14
300.1991313003535
 24
92.92404438587033
 34
0.0000000000000000
100
AcDbRotatedDimension
1001
ACAD
1000
DSTYLE
1002
{
1070
   173
1070
     1
1070
     6
1000
_OPEN
1070
     7
1000
_DOT
1070
    41
1040
3.000000
1070
   287
1070
     0
1002
}
  0
DIMENSION
  5
12D
100
AcDbEntity
  8
MAIN0
  6
CONTINUOUS
 62
3
100
AcDbDimension
  2
*D8
 10
329.4555160002807
 20
103.9240443858705
 30
0.0000000000000000
 11
328.9555160002807
 21
110.1240443366966
 31
0.0000000000000000
 70
32
  1
\A1;16\H0.903226x;\SH8^ h8;
  3
MAIN001
100
AcDbAlignedDimension
 13
302.9991313003536
 23
119.9240443858704
 33
0.0000000000000000
 14
302.9991313003536
 24
103.9240443858705
 34
0.0000000000000000
 50
90.00000000000000
100
AcDbRotatedDimension
1001
ACAD
1000
DSTYLE
1002
{
1070
   173
1070
     1
1070
     6
1000
_OPEN
1070
     7
1000
_OPEN
1070
    41
1040
3.000000
1002
}
  0
DIMENSION
  5
136
100
AcDbEntity
  8
MAIN0
  6
CONTINUOUS
 62
3
100
AcDbDimension
  2
*D9
 10
343.4888660024292
 20
91.92404438587039
 30
0.0000000000000000
 11
342.9888660024292
 21
111.9240443858704
 31
0.0000000000000000
 70
32
  3
MAIN001
100
AcDbAlignedDimension
 13
298.4670804927823
 23
131.9240443858704
 33
0.0000000000000000
 14
298.4670804927823
 24
91.92404438587039
 34
0.0000000000000000
 50
90.00000000000000
100
AcDbRotatedDimension
1001
ACAD
1000
DSTYLE
1002
{
1070
   173
1070
     1
1070
     6
1000
_OPEN
1070
     7
1000
_OPEN
1070
    41
1040
3.000000
1002
}
  0
SPLINE
  5
137
100
AcDbEntity
  8
MAIN0
  6
CONTINUOUS
 62
3
100
AcDbSpline
210
0.0000000000000000
220
0.0000000000000000
230
1.000000000000000
 70
     8
 71
     3
 72
     9
 73
     5
 74
     0
 42
1.000000000000000e-007
 43
1.000000000000000e-007
 12
-0.8107181653194289
 22
0.4109566471867368
 32
0.0000000000000000
 13
-0.04921875218690275
 23
-0.01070988267960615
 33
0.0000000000000000
 40
0.0000000000000000
 40
0.0000000000000000
 40
0.0000000000000000
 40
0.0000000000000000
 40
4.264889842613945
 40
8.036253722150818
 40
8.036253722150818
 40
8.036253722150818
 40
8.036253722150818
 10
295.1991313003535
 20
143.7913844360437
 30
0.0000000000000000
 10
294.0465900775224
 20
144.3756127128242
 30
0.0000000000000000
 10
291.8748777863010
 20
145.4764633413565
 30
0.0000000000000000
 10
287.4173399352329
 20
144.5065137732825
 30
0.0000000000000000
 10
287.3554659938350
 20
144.4930501517185
 30
0.0000000000000000
  0
SPLINE
  5
138
100
AcDbEntity
  8
MAIN0
  6
CONTINUOUS
 62
3
100
AcDbSpline
210
0.0000000000000000
220
0.0000000000000000
230
1.000000000000000
 70
     8
 71
     3
 72
    10
 73
     6
 74
     0
 42
1.000000000000000e-007
 43
1.000000000000000e-007
 12
-0.9494125293417142
 22
-0.3755563589311279
 32
0.0000000000000000
 13
-0.9946583278784260
 23
-0.1169179577696724
 33
0.0000000000000000
 40
0.0000000000000000
 40
0.0000000000000000
 40
0.0000000000000000
 40
0.0000000000000000
 40
5.003909636143367
 40
10.38844978651544
 40
13.43798081612112
 40
13.43798081612112
 40
13.43798081612112
 40
13.43798081612112
 10
295.1991313003535
 20
80.17352930853758
 30
0.0000000000000000
 10
293.6155397989375
 20
79.54711261408079
 30
0.0000000000000000
 10
290.3278983363525
 20
78.24662982182662
 30
0.0000000000000000
 10
285.7834460568761
 20
79.21773985550107
 30
0.0000000000000000
 10
282.9871063445148
 20
78.88904172948531
 30
0.0000000000000000
 10
281.9760258662745
 20
78.77019341610640
 30
0.0000000000000000
  0
DIMENSION
  5
13F
100
AcDbEntity
  8
MAIN0
  6
CONTINUOUS
 62
3
100
AcDbDimension
  2
*D10
 10
258.1728806930971
 20
354.6159186804240
 30
0.0000000000000000
 11
257.6728806930971
 21
376.1159186804240
 31
0.0000000000000000
 70
32
  1
\A1;\U+220543
  3
MAIN001
100
AcDbAlignedDimension
 13
190.8991313003535
 23
397.6159186804240
 33
0.0000000000000000
 14
190.8991313003535
 24
354.6159186804240
 34
0.0000000000000000
 50
90.00000000000000
100
AcDbRotatedDimension
1001
ACAD
1000
DSTYLE
1002
{
1070
   173
1070
     1
1070
     6
1000
_OPEN
1070
     7
1000
_OPEN
1070
    41
1040
3.000000
1002
}
  0
DIMENSION
  5
148
100
AcDbEntity
  8
MAIN0
  6
CONTINUOUS
 62
3
100
AcDbDimension
  2
*D11
 10
295.1991313003535
 20
539.4598146674862
 30
0.0000000000000000
 11
318.1991313003535
 21
539.9598146674862
 31
0.0000000000000000
 70
32
  3
MAIN001
100
AcDbAlignedDimension
 13
341.1991313003535
 23
510.6159186804240
 33
0.0000000000000000
 14
295.1991313003535
 24
501.1159186804240
 34
0.0000000000000000
100
AcDbRotatedDimension
1001
ACAD
1000
DSTYLE
1002
{
1070
   173
1070
     1
1070
     6
1000
_OPEN
1070
     7
1000
_OPEN
1070
    41
1040
3.000000
1002
}
  0
DIMENSION
  5
151
100
AcDbEntity
  8
MAIN0
  6
CONTINUOUS
 62
3
100
AcDbDimension
  2
*D12
 10
388.2715280442888
 20
400.6159186804240
 30
0.0000000000000000
 11
387.7715280442888
 21
425.6159186804240
 31
0.0000000000000000
 70
32
  3
MAIN001
100
AcDbAlignedDimension
 13
354.7631010035580
 23
450.6159186804240
 33
0.0000000000000000
 14
341.1991313003535
 24
400.6159186804240
 34
0.0000000000000000
 50
90.00000000000000
100
AcDbRotatedDimension
1001
ACAD
1000
DSTYLE
1002
{
1070
   173
1070
     1
1070
     6
1000
_OPEN
1070
     7
1000
_OPEN
1070
    41
1040
3.000000
1002
}
  0
DIMENSION
  5
15A
100
AcDbEntity
  8
MAIN0
  6
CONTINUOUS
 62
3
100
AcDbDimension
  2
*D13
 10
388.2715280442888
 20
450.6159186804240
 30
0.0000000000000000
 11
387.7715280442888
 21
465.6159186804240
 31
0.0000000000000000
 70
32
  3
MAIN001
100
AcDbAlignedDimension
 13
354.7631010035580
 23
480.6159186804240
 33
0.0000000000000000
 14
354.7631010035580
 24
450.6159186804240
 34
0.0000000000000000
 50
90.00000000000000
100
AcDbRotatedDimension
1001
ACAD
1000
DSTYLE
1002
{
1070
   173
1070
     1
1070
     6
1000
_OPEN
1070
     7
1000
_OPEN
1070
    41
1040
3.000000
1002
}
  0
DIMENSION
  5
163
100
AcDbEntity
  8
MAIN0
  6
CONTINUOUS
 62
3
100
AcDbDimension
  2
*D14
 10
405.2933921481142
 20
400.6159186804240
 30
0.0000000000000000
 11
404.7933921481142
 21
455.6159186804240
 31
0.0000000000000000
 70
32
  3
MAIN001
100
AcDbAlignedDimension
 13
341.1991313003535
 23
510.6159186804240
 33
0.0000000000000000
 14
341.1991313003535
 24
400.6159186804240
 34
0.0000000000000000
 50
90.00000000000000
100
AcDbRotatedDimension
1001
ACAD
1000
DSTYLE
1002
{
1070
   173
1070
     1
1070
     6
1000
_OPEN
1070
     7
1000
_OPEN
1070
    41
1040
3.000000
1002
}
  0
MTEXT
  5
164
100
AcDbEntity
  8
MAIN0
  6
CONTINUOUS
 62
3
100
AcDbMText
 10
363.7953250502218
 20
402.6973416506233
 30
0.0000000000000000
 40
4.500000000000000
 41
0.0000000000000000
 71
     1
 72
     1
  1
{\H0.59x;{ＭＡＸ}}
 11
1.002670741233467e-011
 21
1.000000000000000
 31
0.0000000000000000
  7
KNJYOKO
  0
MTEXT
  5
165
100
AcDbEntity
  8
MAIN0
  6
CONTINUOUS
 62
3
100
AcDbMText
 10
370.6558395751915
 20
402.8879086714469
 30
0.0000000000000000
 40
4.500000000000000
 41
0.0000000000000000
 71
     1
 72
     1
  1
{\H0.59x;{ＭＩＮ}}
 11
1.002670741233467e-011
 21
1.000000000000000
 31
0.0000000000000000
  7
KNJYOKO
  0
MTEXT
  5
166
100
AcDbEntity
  8
MAIN0
  6
CONTINUOUS
 62
3
100
AcDbMText
 10
370.6558395751915
 20
414.5126750484968
 30
0.0000000000000000
 40
4.500000000000000
 41
0.0000000000000000
 71
     1
 72
     1
  1
{\H0.92x;{62.85}}
 11
1.002670741233467e-011
 21
1.000000000000000
 31
0.0000000000000000
  7
STANDARD
  0
MTEXT
  5
167
100
AcDbEntity
  8
MAIN0
  6
CONTINUOUS
 62
3
100
AcDbMText
 10
364.1484457625375
 20
451.0233368602235
 30
0.0000000000000000
 40
4.500000000000000
 41
0.0000000000000000
 71
     1
 72
     1
  1
{\H0.59x;{ＭＡＸ}}
 11
1.002670741233467e-011
 21
1.000000000000000
 31
0.0000000000000000
  7
KNJYOKO
  0
MTEXT
  5
168
100
AcDbEntity
  8
MAIN0
  6
CONTINUOUS
 62
3
100
AcDbMText
 10
370.5474853194580
 20
450.9691467609944
 30
0.0000000000000000
 40
4.500000000000000
 41
0.0000000000000000
 71
     1
 72
     1
  1
{\H0.59x;{ＭＩＮ}}
 11
1.002670741233467e-011
 21
1.000000000000000
 31
0.0000000000000000
  7
KNJYOKO
  0
MTEXT
  5
169
100
AcDbEntity
  8
MAIN0
  6
CONTINUOUS
 62
3
100
AcDbMText
 10
370.1365676756788
 20
465.1671857576313
 30
0.0000000000000000
 40
4.649999856948853
 41
0.0000000000000000
 71
     1
 72
     1
  1
{\H0.70x;{8.5}}
 11
6.123233995736766e-017
 21
1.000000000000000
 31
0.0000000000000000
  7
STANDARD
  0
LEADER
  5
16A
100
AcDbEntity
  8
MAIN0
  6
CONTINUOUS
 62
3
100
AcDbLeader
  3
MAIN001
 73
     0
 75
     1
 40
4.649999856948853
 41
47.54900002682206
 76
     3
 10
299.1991313003535
 20
498.3612434733487
 30
0.0000000000000000
 10
280.2524404538540
 20
534.2593971539438
 30
0.0000000000000000
 10
277.5724405328451
 20
534.2593971539438
 30
0.0000000000000000
340
16B
213
0.0000000000000000
223
-0.7500000000000000
233
0.0000000000000000
1001
ACAD
1000
DSTYLE
1002
{
1070
   147
1040
0.0
1070
    77
1070
     1
1070
   173
1070
     1
1070
     6
1000
_OPEN
1070
     7
1000
_OPEN
1002
}
  0
MTEXT
  5
16B
102
{ACAD_REACTORS
330
16A
102
}
100
AcDbEntity
  8
MAIN0
  6
CONTINUOUS
 62
3
100
AcDbMText
 10
230.0234405060230
 20
539.6593970108927
 30
0.0000000000000000
 40
4.649999856948853
 41
0.0000000000000000
 71
     1
 72
     1
  1
{\H0.70x;{セレーションピッチ 1.5}}
 11
1.000000000000000
 21
0.0000000000000000
 31
0.0000000000000000
  7
KNJYOKO
  0
SPLINE
  5
16C
100
AcDbEntity
  8
MAIN0
  6
CONTINUOUS
 62
3
100
AcDbSpline
210
0.0000000000000000
220
0.0000000000000000
230
1.000000000000000
 70
     8
 71
     3
 72
    15
 73
    11
 74
     0
 42
1.000000000000000e-007
 43
1.000000000000000e-007
 12
0.8445253342426895
 22
-0.5447712663909528
 32
0.0000000000000000
 13
0.9676467019290271
 23
0.2630976511618144
 33
0.0000000000000000
 40
0.0000000000000000
 40
0.0000000000000000
 40
0.0000000000000000
 40
0.0000000000000000
 40
10.70272731724490
 40
23.51036128214168
 40
36.99236115581717
 40
48.33155986257807
 40
64.79021238140294
 40
90.85296972551748
 40
112.1109068552150
 40
118.0101360987360
 40
118.0101360987360
 40
118.0101360987360
 40
118.0101360987360
 10
185.1991313003535
 20
425.7712848784400
 30
0.0000000000000000
 10
188.2120394219884
 20
423.8277721069559
 30
0.0000000000000000
 10
194.8304046619774
 20
419.5585156772958
 30
0.0000000000000000
 10
202.3967519934665
 20
409.3982152845009
 30
0.0000000000000000
 10
214.0758208202073
 20
404.1740252405480
 30
0.0000000000000000
 10
226.9276529809319
 20
398.9252661434887
 30
0.0000000000000000
 10
245.2554353003346
 20
400.1046419218955
 30
0.0000000000000000
 10
266.2542056114672
 20
399.6671638636631
 30
0.0000000000000000
 10
284.2990828042658
 20
398.2168986662113
 30
0.0000000000000000
 10
293.0585969625267
 20
400.5985608945456
 30
0.0000000000000000
 10
294.9613868696655
 20
401.1159186804240
 30
0.0000000000000000
  0
SPLINE
  5
16D
100
AcDbEntity
  8
MAIN0
  6
CONTINUOUS
 62
3
100
AcDbSpline
210
0.0000000000000000
220
0.0000000000000000
230
1.000000000000000
 70
     8
 71
     3
 72
    17
 73
    13
 74
     0
 42
1.000000000000000e-007
 43
1.000000000000000e-007
 12
0.8914854995778256
 22
0.4879617522219633
 32
0.0000000000000000
 13
0.8894470891185904
 23
-0.4970965347065999
 33
0.0000000000000000
 40
0.0000000000000000
 40
0.0000000000000000
 40
0.0000000000000000
 40
0.0000000000000000
 40
9.310343196286864
 40
18.61231930013345
 40
29.52787575135833
 40
38.94663218949043
 40
53.44557727753065
 40
65.29881173636416
 40
79.72571642833381
 40
98.03165568732148
 40
111.8934315721133
 40
117.9832894358502
 40
117.9832894358502
 40
117.9832894358502
 40
117.9832894358502
 10
185.1991313003535
 20
325.7816705991970
 30
0.0000000000000000
 10
187.9658099522144
 20
327.2960343924796
 30
0.0000000000000000
 10
193.4966808754082
 20
330.3234010386823
 30
0.0000000000000000
 10
198.7178722483176
 20
339.1330727887489
 30
0.0000000000000000
 10
208.1500607103052
 20
343.3243038550960
 30
0.0000000000000000
 10
219.3687583001389
 20
345.9862840034336
 30
0.0000000000000000
 10
230.6242534371851
 20
350.1142089098885
 30
0.0000000000000000
 10
244.0185465238828
 20
352.6426901432646
 30
0.0000000000000000
 10
258.9765071467409
 20
353.1416764974145
 30
0.0000000000000000
 10
274.2554933992684
 20
351.2278793199429
 30
0.0000000000000000
 10
287.5782883300749
 20
353.9389800713706
 30
0.0000000000000000
 10
293.4935958503380
 20
350.6330174053279
 30
0.0000000000000000
 10
295.2991313003536
 20
349.6239349916881
 30
0.0000000000000000
  0
LINE
  5
16E
100
AcDbEntity
  8
MAIN0
  6
CENTER
 62
3
100
AcDbLine
 10
193.1991313003535
 20
308.9041921149921
 30
0.0000000000000000
 11
193.1991313003535
 21
222.8062444691793
 31
0.0000000000000000
  0
LINE
  5
16F
100
AcDbEntity
  8
MAIN0
  6
PHANTOM
 62
3
100
AcDbLine
 10
246.1991313003535
 20
248.6159186804240
 30
0.0000000000000000
 11
246.1991313003535
 21
193.6159186804240
 31
0.0000000000000000
  0
LINE
  5
170
100
AcDbEntity
  8
MAIN0
  6
PHANTOM
 62
3
100
AcDbLine
 10
201.1991313003535
 20
193.6159186804240
 30
0.0000000000000000
 11
246.1991313003535
 21
193.6159186804240
 31
0.0000000000000000
  0
LINE
  5
171
100
AcDbEntity
  8
MAIN0
  6
CONTINUOUS
 62
3
100
AcDbLine
 10
185.1991313003535
 20
351.1159186804240
 30
0.0000000000000000
 11
236.4272967874613
 21
351.1159186804240
 31
0.0000000000000000
  0
LINE
  5
172
100
AcDbEntity
  8
MAIN0
  6
CONTINUOUS
 62
3
100
AcDbLine
 10
292.5107606643358
 20
351.1159186804240
 30
0.0000000000000000
 11
295.1991313003535
 21
351.1159186804240
 31
0.0000000000000000
  0
LINE
  5
173
100
AcDbEntity
  8
MAIN0
  6
PHANTOM
 62
3
100
AcDbLine
 10
201.1991313003535
 20
193.6159186804240
 30
0.0000000000000000
 11
201.1991313003535
 21
226.1159186804240
 31
0.0000000000000000
  0
LINE
  5
174
100
AcDbEntity
  8
MAIN0
  6
CONTINUOUS
 62
3
100
AcDbLine
 10
201.1991313003535
 20
226.1159186804240
 30
0.0000000000000000
 11
201.1991313003535
 21
339.5319202956458
 31
0.0000000000000000
  0
LINE
  5
175
100
AcDbEntity
  8
MAIN0
  6
CONTINUOUS
 62
3
100
AcDbLine
 10
201.1991313003535
 20
248.6159186804240
 30
0.0000000000000000
 11
231.1991313003535
 21
248.6159186804240
 31
0.0000000000000000
  0
LINE
  5
176
100
AcDbEntity
  8
MAIN0
  6
PHANTOM
 62
3
100
AcDbLine
 10
231.1991313003535
 20
248.6159186804240
 30
0.0000000000000000
 11
246.1991313003535
 21
248.6159186804240
 31
0.0000000000000000
  0
LEADER
  5
177
100
AcDbEntity
  8
MAIN0
  6
CONTINUOUS
 62
3
100
AcDbLeader
  3
MAIN001
 73
     0
 74
     0
 75
     1
 40
4.649999856948853
 41
12.45100000670550
 76
     3
 10
246.1991313003535
 20
220.7350423778585
 30
0.0000000000000000
 10
268.7804686670289
 20
203.2418898816256
 30
0.0000000000000000
 10
271.4584685880379
 20
203.2418898816256
 30
0.0000000000000000
340
178
213
0.0000000000000000
223
-0.7500000000000000
233
0.0000000000000000
1001
ACAD
1000
DSTYLE
1002
{
1070
   147
1040
0.0
1070
    77
1070
     1
1070
   173
1070
     1
1070
     6
1000
_OPEN
1070
     7
1000
_OPEN
1002
}
  0
MTEXT
  5
178
102
{ACAD_REACTORS
330
177
102
}
100
AcDbEntity
  8
MAIN0
  6
CONTINUOUS
 62
3
100
AcDbMText
 10
271.4594685880379
 20
208.6418897385744
 30
0.0000000000000000
 40
4.649999856948853
 41
0.0000000000000000
 71
     1
 72
     1
  1
{\H0.70x;{LV-3}}
 11
1.000000000000000
 21
0.0000000000000000
 31
0.0000000000000000
  7
STANDARD
  0
DIMENSION
  5
17F
100
AcDbEntity
  8
MAIN0
  6
CONTINUOUS
 62
3
100
AcDbDimension
  2
*D15
 10
201.1991313003535
 20
203.2418898817386
 30
0.0000000000000000
 11
223.6991313003535
 21
203.7418898817386
 31
0.0000000000000000
 70
32
  3
MAIN001
100
AcDbAlignedDimension
 13
246.1991313003535
 23
193.6159186804240
 33
0.0000000000000000
 14
201.1991313003535
 24
193.6159186804240
 34
0.0000000000000000
100
AcDbRotatedDimension
1001
ACAD
1000
DSTYLE
1002
{
1070
   173
1070
     1
1070
     6
1000
_OPEN
1070
     7
1000
_OPEN
1070
    41
1040
3.000000
1002
}
  0
LINE
  5
180
100
AcDbEntity
  8
MAIN0
  6
CONTINUOUS
 62
3
100
AcDbLine
 10
201.1991313003536
 20
503.1159186804240
 30
0.0000000000000000
 11
293.1991313003536
 21
503.1159186804240
 31
0.0000000000000000
  0
DIMENSION
  5
189
100
AcDbEntity
  8
MAIN0
  6
CONTINUOUS
 62
3
100
AcDbDimension
  2
*D16
 10
262.1794689858047
 20
248.6159186804240
 30
0.0000000000000000
 11
261.6794689858047
 21
221.1159186804240
 31
0.0000000000000000
 70
32
  3
MAIN001
100
AcDbAlignedDimension
 13
246.1991313003535
 23
193.6159186804240
 33
0.0000000000000000
 14
246.1991313003535
 24
248.6159186804240
 34
0.0000000000000000
 50
90.00000000000000
100
AcDbRotatedDimension
1001
ACAD
1000
DSTYLE
1002
{
1070
   173
1070
     1
1070
     6
1000
_OPEN
1070
     7
1000
_OPEN
1070
    41
1040
3.000000
1002
}
  0
DIMENSION
  5
192
100
AcDbEntity
  8
MAIN0
  6
CONTINUOUS
 62
3
100
AcDbDimension
  2
*D17
 10
152.6185200528378
 20
351.1159186804240
 30
0.0000000000000000
 11
152.1185200528378
 21
376.1159186804240
 31
0.0000000000000000
 70
32
  1
\A1;\U+220550H7
  3
MAIN001
100
AcDbAlignedDimension
 13
185.6991313003535
 23
401.1159186804240
 33
0.0000000000000000
 14
185.6991313003536
 24
351.1159186804240
 34
0.0000000000000000
 50
90.00000000000000
100
AcDbRotatedDimension
1001
ACAD
1000
DSTYLE
1002
{
1070
   173
1070
     1
1070
     6
1000
_OPEN
1070
     7
1000
_OPEN
1070
    41
1040
3.000000
1002
}
  0
DIMENSION
  5
19B
100
AcDbEntity
  8
MAIN0
  6
CONTINUOUS
 62
3
100
AcDbDimension
  2
*D18
 10
129.9830569846654
 20
226.1159186804240
 30
0.0000000000000000
 11
129.4830569846654
 21
376.1159186804240
 31
0.0000000000000000
 70
32
  1
\A1;\U+2205300h7
  3
MAIN001
100
AcDbAlignedDimension
 13
185.1991313003535
 23
526.1159186804240
 33
0.0000000000000000
 14
185.1991313003535
 24
226.1159186804240
 34
0.0000000000000000
 50
90.00000000000000
100
AcDbRotatedDimension
1001
ACAD
1000
DSTYLE
1002
{
1070
   173
1070
     1
1070
     6
1000
_OPEN
1070
     7
1000
_OPEN
1070
    41
1040
3.000000
1002
}
  0
DIMENSION
  5
1A4
100
AcDbEntity
  8
MAIN0
  6
CONTINUOUS
 62
3
100
AcDbDimension
  2
*D19
 10
185.1991313003535
 20
381.1709607270744
 30
0.0000000000000000
 11
196.2546744984291
 21
381.9209607270744
 31
0.0000000000000000
 70
160
  3
MAIN001
100
AcDbAlignedDimension
 13
190.2991313003535
 23
400.6540384650722
 33
0.0000000000000000
 14
185.1991313003535
 24
526.1159186804240
 34
0.0000000000000000
100
AcDbRotatedDimension
1001
ACAD
1000
DSTYLE
1002
{
1070
   173
1070
     1
1070
     6
1000
_OPEN
1070
     7
1000
_OPEN
1070
    41
1040
3.000000
1070
   287
1070
     0
1002
}
  0
MTEXT
  5
1A5
100
AcDbEntity
  8
MAIN0
  6
CONTINUOUS
 62
3
100
AcDbMText
 10
751.2367542753398
 20
274.7680200490605
 30
0.0000000000000000
 40
4.649999856948853
 41
0.0000000000000000
 71
     1
 72
     1
  1
{\H0.70x;{（マルチプレートに\P　取付以外は止栓とする）}}
 11
1.000000000000000
 21
0.0000000000000000
 31
0.0000000000000000
  7
KNJYOKO
  0
LINE
  5
1A6
100
AcDbEntity
  8
MAIN0
  6
PHANTOM
 62
3
100
AcDbLine
 10
681.1404742514434
 20
254.2611462184349
 30
0.0000000000000000
 11
698.4609823271321
 21
264.2611462184349
 31
0.0000000000000000
  0
LINE
  5
1A7
100
AcDbEntity
  8
MAIN0
  6
PHANTOM
 62
3
100
AcDbLine
 10
682.1480913596118
 20
261.7710974573515
 30
0.0000000000000000
 11
691.4533652189641
 21
267.1434998249317
 31
0.0000000000000000
  0
LINE
  5
1A8
100
AcDbEntity
  8
MAIN0
  6
PHANTOM
 62
3
100
AcDbLine
 10
682.9427962708462
 20
261.6525702825894
 30
0.0000000000000000
 11
691.0964838845387
 21
266.3601040212429
 31
0.0000000000000000
  0
LINE
  5
1A9
100
AcDbEntity
  8
MAIN0
  6
PHANTOM
 62
3
100
AcDbLine
 10
697.9609823271321
 20
265.1271716222193
 30
0.0000000000000000
 11
698.4609823271321
 21
264.2611462184349
 31
0.0000000000000000
  0
LINE
  5
1AA
100
AcDbEntity
  8
MAIN0
  6
PHANTOM
 62
3
100
AcDbLine
 10
680.6404742514434
 20
255.1271716222193
 30
0.0000000000000000
 11
681.1404742514434
 21
254.2611462184349
 31
0.0000000000000000
  0
LINE
  5
1AB
100
AcDbEntity
  8
MAIN0
  6
PHANTOM
 62
3
100
AcDbLine
 10
682.8695911900893
 20
261.3793652018325
 30
0.0000000000000000
 11
685.5195911900893
 21
256.7894305617749
 31
0.0000000000000000
  0
LINE
  5
1AC
100
AcDbEntity
  8
MAIN0
  6
PHANTOM
 62
3
100
AcDbLine
 10
691.3696889652956
 20
266.2868989404860
 30
0.0000000000000000
 11
694.0196889652957
 21
261.6969643004284
 31
0.0000000000000000
  0
ARC
  5
1AD
100
AcDbEntity
  8
MAIN0
  6
PHANTOM
 62
3
100
AcDbCircle
 10
691.1964838845387
 20
266.1868989404860
 30
0.0000000000000000
 40
0.2000000000000000
100
AcDbArc
 50
30.00000000000000
 51
119.9999999994255
  0
ARC
  5
1AE
100
AcDbEntity
  8
MAIN0
  6
PHANTOM
 62
3
100
AcDbCircle
 10
683.0427962708461
 20
261.4793652018325
 30
0.0000000000000000
 40
0.2000000000000000
100
AcDbArc
 50
119.9999999994255
 51
209.9999999999964
  0
ARC
  5
1AF
100
AcDbEntity
  8
MAIN0
  6
PHANTOM
 62
3
100
AcDbCircle
 10
691.5533652189640
 20
266.9702947441749
 30
0.0000000000000000
 40
0.2000000000000000
100
AcDbArc
 50
31.78991060824546
 51
119.9999999994255
  0
ARC
  5
1B0
100
AcDbEntity
  8
MAIN0
  6
PHANTOM
 62
3
100
AcDbCircle
 10
682.2480913596119
 20
261.5978923765946
 30
0.0000000000000000
 40
0.2000000000000000
100
AcDbArc
 50
119.9999999994255
 51
208.2100893917509
  0
MTEXT
  5
1B1
100
AcDbEntity
  8
MAIN0
  6
CONTINUOUS
 62
3
100
AcDbMText
 10
698.0861172871450
 20
257.1925375130905
 30
0.0000000000000000
 40
6.000000000000000
 41
0.0000000000000000
 71
     1
 72
     1
  1
{\H0.91x;{開\POPEN}}
 11
0.8660254037844387
 21
0.4999999999999999
 31
0.0000000000000000
  7
KNJYOKO
  0
LINE
  5
1B2
100
AcDbEntity
  8
MAIN0
  6
PHANTOM
 62
3
100
AcDbLine
 10
721.0901474517311
 20
238.0662824897642
 30
0.0000000000000000
 11
703.5901474517310
 21
268.3771716222196
 31
0.0000000000000000
  0
LINE
  5
1B3
100
AcDbEntity
  8
MAIN0
  6
PHANTOM
 62
3
100
AcDbLine
 10
651.8081151489760
 20
198.0662824897642
 30
0.0000000000000000
 11
721.0901474517310
 21
238.0662824897641
 31
0.0000000000000000
  0
LINE
  5
1B4
100
AcDbEntity
  8
MAIN0
  6
PHANTOM
 62
3
100
AcDbLine
 10
651.8081151489762
 20
198.0662824897642
 30
0.0000000000000000
 11
634.3081151489760
 21
228.3771716222196
 31
0.0000000000000000
  0
MTEXT
  5
1B5
100
AcDbEntity
  8
MAIN0
  6
CONTINUOUS
 62
3
100
AcDbMText
 10
643.3328883404060
 20
225.5807460416896
 30
0.0000000000000000
 40
6.000000000000000
 41
0.0000000000000000
 71
     1
 72
     1
  1
{\H0.92x;{閉\PCLOSE}}
 11
0.8660254037844387
 21
0.4999999999999999
 31
0.0000000000000000
  7
KNJYOKO
  0
DIMENSION
  5
1BC
100
AcDbEntity
  8
MAIN0
  6
CONTINUOUS
 62
3
100
AcDbDimension
  2
*D20
 10
649.4504178669763
 20
202.1499339710551
 30
0.0000000000000000
 11
683.8414340183542
 21
222.5829466729467
 31
0.0000000000000000
 70
33
  3
MAIN001
100
AcDbAlignedDimension
 13
721.0901474517311
 23
238.0662824897642
 33
0.0000000000000000
 14
651.8081151489761
 24
198.0662824897642
 34
0.0000000000000000
 50
29.99999999999890
1001
ACAD
1000
DSTYLE
1002
{
1070
   173
1070
     1
1070
     6
1000
_OPEN
1070
     7
1000
_OPEN
1070
    41
1040
3.000000
1002
}
  0
DIMENSION
  5
1C3
100
AcDbEntity
  8
MAIN0
  6
CONTINUOUS
 62
3
100
AcDbDimension
  2
*D21
 10
667.8255818132378
 20
495.8046762389332
 30
0.0000000000000000
 11
641.9119796364586
 21
454.5446831201372
 31
0.0000000000000000
 70
163
  3
MAIN001
100
AcDbDiametricDimension
 15
522.5726807874693
 25
256.4271611219149
 35
0.0000000000000000
1001
ACAD
1000
DSTYLE
1002
{
1070
   287
1070
     2
1070
   173
1070
     1
1070
     6
1000
_OPEN
1070
     7
1000
_OPEN
1070
    41
1040
3.000000
1070
   272
1070
     1
1070
    47
1040
0.200000
1070
    48
1040
0.200000
1070
    71
1070
     1
1002
}
  0
DIMENSION
  5
1CD
100
AcDbEntity
  8
MAIN0
  6
CONTINUOUS
 62
3
100
AcDbDimension
  2
*D22
 10
442.2928802816289
 20
287.8354534939871
 30
0.0000000000000000
 11
477.5176813867915
 21
201.2562546539509
 31
0.0000000000000000
 70
160
  3
MAIN001
100
AcDbAlignedDimension
 13
651.8081151489760
 23
198.0662824897642
 33
0.0000000000000000
 14
445.9559103391903
 24
289.9503048837697
 34
0.0000000000000000
 50
119.9999999999999
100
AcDbRotatedDimension
1001
ACAD
1000
DSTYLE
1002
{
1070
    73
1070
     1
1070
    74
1070
     1
1070
   287
1070
     4
1070
   173
1070
     1
1070
     6
1000
_OPEN
1070
     7
1000
_OPEN
1070
    41
1040
3.000000
1002
}
  0
LINE
  5
1CE
100
AcDbEntity
  8
MAIN0
  6
CONTINUOUS
 62
3
100
AcDbLine
 10
323.7498442249533
 20
376.1159186804240
 30
0.0000000000000000
 11
375.4210039148455
 21
376.1159186804240
 31
0.0000000000000000
  0
DIMENSION
  5
1D7
100
AcDbEntity
  8
MAIN0
  6
CONTINUOUS
 62
3
100
AcDbDimension
  2
*D23
 10
369.1865776645926
 20
376.1159186804240
 30
0.0000000000000000
 11
368.4365776645926
 21
418.4013533953365
 31
0.0000000000000000
 70
160
  3
MAIN001
100
AcDbAlignedDimension
 13
299.1991313003535
 23
442.1159186804240
 33
0.0000000000000000
 14
319.7130358366306
 24
376.1159186804240
 34
0.0000000000000000
 50
90.00000000000000
100
AcDbRotatedDimension
1001
ACAD
1000
DSTYLE
1002
{
1070
   173
1070
     1
1070
     6
1000
_OPEN
1070
     7
1000
_OPEN
1070
    41
1040
3.000000
1002
}
  0
DIMENSION
  5
1E2
100
AcDbEntity
  8
MAIN0
  6
CONTINUOUS
 62
3
100
AcDbDimension
  2
*D24
 10
369.1865776645926
 20
442.1159186804240
 30
0.0000000000000000
 11
368.4365776645926
 21
465.1415980469740
 31
0.0000000000000000
 70
160
  1
\A1;16
  3
MAIN001
100
AcDbAlignedDimension
 13
354.7631010035580
 23
450.6159186804240
 33
0.0000000000000000
 14
299.1991313003535
 24
442.1159186804240
 34
0.0000000000000000
 50
90.00000000000000
100
AcDbRotatedDimension
1001
ACAD
1000
DSTYLE
1002
{
1070
   173
1070
     1
1070
     6
1000
_OPEN
1070
     7
1000
_OPEN
1070
    41
1040
3.000000
1070
   287
1070
     0
1002
}
  0
LINE
  5
1E3
100
AcDbEntity
  8
MAIN0
  6
HIDDEN
 62
3
100
AcDbLine
 10
718.7848808832223
 20
405.3659186802532
 30
0.0000000000000000
 11
706.9560688533798
 21
405.3659186802695
 31
0.0000000000000000
  0
LINE
  5
1E4
100
AcDbEntity
  8
MAIN0
  6
HIDDEN
 62
3
100
AcDbLine
 10
718.7848808831412
 20
346.8659186802531
 30
0.0000000000000000
 11
706.9560688532988
 21
346.8659186802695
 31
0.0000000000000000
  0
LEADER
  5
1E5
100
AcDbEntity
  8
MAIN2
  6
CONTINUOUS
 62
3
100
AcDbLeader
  3
MAIN001
 73
     0
 74
     0
 75
     1
 40
4.649999856948853
 41
27.15100001341102
 76
     3
 10
319.1651959438812
 20
483.4848743932515
 30
0.0000000000000000
 10
353.0317094212416
 20
545.1255130766417
 30
0.0000000000000000
 10
355.7097093422506
 20
545.1255130766417
 30
0.0000000000000000
340
1E6
213
0.0000000000000000
223
-0.7500000000000000
233
0.0000000000000000
1001
ACAD
1000
DSTYLE
1002
{
1070
   147
1040
0.0
1070
    77
1070
     1
1070
   173
1070
     1
1070
     6
1000
_DOT
1070
     7
1000
_DOT
1002
}
  0
MTEXT
  5
1E6
102
{ACAD_REACTORS
330
1E5
102
}
100
AcDbEntity
  8
MAIN2
  6
CONTINUOUS
 62
3
100
AcDbMText
 10
355.7107093422505
 20
550.5255129335906
 30
0.0000000000000000
 40
4.649999856948853
 41
0.0000000000000000
 71
     1
 72
     1
  1
{\H0.70x;{六角穴付ボルト\PM12×35}}
 11
1.000000000000000
 21
0.0000000000000000
 31
0.0000000000000000
  7
KNJYOKO
  0
LEADER
  5
1E7
100
AcDbEntity
  8
MAIN2
  6
CONTINUOUS
 62
3
100
AcDbLeader
  3
MAIN001
 73
     0
 74
     0
 75
     1
 40
4.649999856948853
 41
23.25100001117585
 76
     3
 10
336.3567275503131
 20
495.1005674638563
 30
0.0000000000000000
 10
353.3405071187650
 20
525.6713753768365
 30
0.0000000000000000
 10
356.0185070397740
 20
525.6713753768365
 30
0.0000000000000000
340
1E8
213
0.0000000000000000
223
-0.7500000000000000
233
0.0000000000000000
1001
ACAD
1000
DSTYLE
1002
{
1070
   147
1040
0.0
1070
    77
1070
     1
1070
   173
1070
     1
1070
     6
1000
_DOT
1070
     7
1000
_DOT
1002
}
  0
MTEXT
  5
1E8
102
{ACAD_REACTORS
330
1E7
102
}
100
AcDbEntity
  8
MAIN2
  6
CONTINUOUS
 62
3
100
AcDbMText
 10
356.0195070397739
 20
531.0713752337854
 30
0.0000000000000000
 40
4.649999856948853
 41
0.0000000000000000
 71
     1
 72
     1
  1
{\H0.70x;{ソフトジョー\PSB10A1T}}
 11
1.000000000000000
 21
0.0000000000000000
 31
0.0000000000000000
  7
KNJYOKO
  0
LINE
  5
1E9
100
AcDbEntity
  8
MAIN0
  6
PHANTOM
 62
3
100
AcDbLine
 10
296.1991313003535
 20
306.6159186804150
 30
0.0000000000000000
 11
296.1991313003535
 21
344.5537883780359
 31
0.0000000000000000
  0
LINE
  5
1EA
100
AcDbEntity
  8
MAIN0
  6
CONTINUOUS
 62
3
100
AcDbLine
 10
295.2991313003536
 20
397.6159186804240
 30
0.0000000000000000
 11
295.2991313003536
 21
442.1159186804240
 31
0.0000000000000000
  0
LINE
  5
1EB
100
AcDbEntity
  8
MAIN0
  6
PHANTOM
 62
3
100
AcDbLine
 10
287.1991313003535
 20
306.6159186804150
 30
0.0000000000000000
 11
296.1991313003535
 21
306.6159186804150
 31
0.0000000000000000
  0
LINE
  5
1EC
100
AcDbEntity
  8
MAIN0
  6
PHANTOM
 62
3
100
AcDbLine
 10
287.1991313003535
 20
306.6159186804150
 30
0.0000000000000000
 11
287.1991313003535
 21
317.1159186804258
 31
0.0000000000000000
  0
LINE
  5
1ED
100
AcDbEntity
  8
MAIN0
  6
PHANTOM
 62
3
100
AcDbLine
 10
288.1991313003537
 20
318.1159186804258
 30
0.0000000000000000
 11
287.1991313003536
 21
317.1159186804258
 31
0.0000000000000000
  0
LINE
  5
1EE
100
AcDbEntity
  8
MAIN0
  6
PHANTOM
 62
3
100
AcDbLine
 10
290.1991313003536
 20
318.1159186804259
 30
0.0000000000000000
 11
288.1991313003535
 21
318.1159186804259
 31
0.0000000000000000
  0
ARC
  5
1EF
100
AcDbEntity
  8
MAIN0
  6
PHANTOM
 62
3
100
AcDbCircle
 10
290.1991313003536
 20
319.1159186804259
 30
0.0000000000000000
 40
1.000000000000000
100
AcDbArc
 50
270.0000000000000
 51
360.0000000000000
  0
LINE
  5
1F0
100
AcDbEntity
  8
MAIN0
  6
PHANTOM
 62
3
100
AcDbLine
 10
291.1991313003535
 20
319.1159186804259
 30
0.0000000000000000
 11
291.1991313003535
 21
351.7076145587056
 31
0.0000000000000000
  0
INSERT
  5
1F8
100
AcDbEntity
  8
MAIN0
  6
CONTINUOUS
 62
3
100
AcDbBlockReference
  2
D25
 10
319.7130358366306
 20
376.1159186804240
 30
0.0000000000000000
 50
0.0000000000000000
  0
DIMENSION
  5
202
100
AcDbEntity
  8
MAIN0
  6
CONTINUOUS
 62
3
100
AcDbDimension
  2
*D26
 10
295.1991313003535
 20
289.1943999895443
 30
0.0000000000000000
 11
303.7364778804935
 21
289.9443999895443
 31
0.0000000000000000
 70
160
  1
\A1;0.1
  3
MAIN001
100
AcDbAlignedDimension
 13
296.1991313003535
 23
306.6159186804150
 33
0.0000000000000000
 14
295.1991313003535
 24
354.6159186804240
 34
0.0000000000000000
100
AcDbRotatedDimension
1001
ACAD
1000
DSTYLE
1002
{
1070
   173
1070
     1
1070
     6
1000
_OPEN
1070
     7
1000
_OPEN
1070
    41
1040
3.000000
1070
   287
1070
     0
1002
}
  0
LEADER
  5
203
100
AcDbEntity
  8
MAIN0
  6
CONTINUOUS
 62
3
100
AcDbLeader
  3
MAIN001
 73
     0
 74
     0
 75
     1
 40
4.649999856948853
 41
34.95100001788137
 76
     3
 10
296.1991313003535
 20
338.4864180284262
 30
0.0000000000000000
 10
315.2013284868154
 20
356.9824383049460
 30
0.0000000000000000
 10
317.8793284078244
 20
356.9824383049460
 30
0.0000000000000000
340
204
213
0.0000000000000000
223
-0.7500000000000000
233
0.0000000000000000
1001
ACAD
1000
DSTYLE
1002
{
1070
   147
1040
0.0
1070
    77
1070
     1
1070
   173
1070
     1
1070
     6
1000
_OPEN
1070
     7
1000
_OPEN
1002
}
  0
MTEXT
  5
204
102
{ACAD_REACTORS
330
203
102
}
100
AcDbEntity
  8
MAIN0
  6
CONTINUOUS
 62
3
100
AcDbMText
 10
317.8803284078243
 20
362.3824381618948
 30
0.0000000000000000
 40
4.649999856948853
 41
0.0000000000000000
 71
     1
 72
     1
  1
{\H0.70x;{スリーブカバー端面}}
 11
1.000000000000000
 21
0.0000000000000000
 31
0.0000000000000000
  7
KNJYOKO
  0
LEADER
  5
205
100
AcDbEntity
  8
MAIN0
  6
CONTINUOUS
 62
3
100
AcDbLeader
  3
MAIN001
 73
     0
 74
     0
 75
     1
 40
4.649999856948853
 41
19.35100000894067
 76
     3
 10
295.1991313003535
 20
260.5130197353468
 30
0.0000000000000000
 10
311.2119975300163
 20
228.9609859559778
 30
0.0000000000000000
 10
313.8899974510252
 20
228.9609859559778
 30
0.0000000000000000
340
206
213
0.0000000000000000
223
-0.7500000000000000
233
0.0000000000000000
1001
ACAD
1000
DSTYLE
1002
{
1070
   147
1040
0.0
1070
    77
1070
     1
1070
   173
1070
     1
1070
     6
1000
_OPEN
1070
     7
1000
_OPEN
1002
}
  0
MTEXT
  5
206
102
{ACAD_REACTORS
330
205
102
}
100
AcDbEntity
  8
MAIN0
  6
CONTINUOUS
 62
3
100
AcDbMText
 10
313.8909974510252
 20
234.3609858129267
 30
0.0000000000000000
 40
4.649999856948853
 41
0.0000000000000000
 71
     1
 72
     1
  1
{\H0.70x;{ボデー端面}}
 11
1.000000000000000
 21
0.0000000000000000
 31
0.0000000000000000
  7
KNJYOKO
  0
DIMENSION
  5
210
100
AcDbEntity
  8
MAIN0
  6
CONTINUOUS
 62
3
100
AcDbDimension
  2
*D27
 10
295.2991313003536
 20
408.7289983874916
 30
0.0000000000000000
 11
289.2077529788408
 21
409.4789983874916
 31
0.0000000000000000
 70
160
  3
MAIN001
100
AcDbAlignedDimension
 13
297.2991313003536
 23
426.0159186804240
 33
0.0000000000000000
 14
295.2991313003536
 24
442.1159186804240
 34
0.0000000000000000
100
AcDbRotatedDimension
1001
ACAD
1000
DSTYLE
1002
{
1070
   173
1070
     1
1070
     6
1000
_OPEN
1070
     7
1000
_OPEN
1070
    41
1040
3.000000
1070
   287
1070
     0
1002
}
  0
DIMENSION
  5
219
100
AcDbEntity
  8
MAIN0
  6
CONTINUOUS
 62
3
100
AcDbDimension
  2
*D28
 10
268.3974490560507
 20
442.0159186804240
 30
0.0000000000000000
 11
267.8974490560507
 21
434.0159186804240
 31
0.0000000000000000
 70
32
  3
MAIN001
100
AcDbAlignedDimension
 13
295.2991313003536
 23
426.0159186804240
 33
0.0000000000000000
 14
295.2991313003536
 24
442.0159186804240
 34
0.0000000000000000
 50
90.00000000000000
100
AcDbRotatedDimension
1001
ACAD
1000
DSTYLE
1002
{
1070
   173
1070
     1
1070
     6
1000
_OPEN
1070
     7
1000
_OPEN
1070
    41
1040
3.000000
1002
}
  0
DIMENSION
  5
221
100
AcDbEntity
  8
MAIN0
  6
CONTINUOUS
 62
3
100
AcDbDimension
  2
*D29
 10
268.3974490560507
 20
426.0159186804240
 30
0.0000000000000000
 11
267.6474490560507
 21
411.8423490323340
 31
0.0000000000000000
 70
160
  1
\A1;MAX 49.9
  3
MAIN001
100
AcDbAlignedDimension
 13
319.7130358366306
 23
376.1159186804240
 33
0.0000000000000000
 14
295.2991313003536
 24
426.0159186804240
 34
0.0000000000000000
 50
90.00000000000000
100
AcDbRotatedDimension
1001
ACAD
1000
DSTYLE
1002
{
1070
   173
1070
     1
1070
     6
1000
_OPEN
1070
     7
1000
_OPEN
1070
    41
1040
3.000000
1002
}
  0
LINE
  5
222
100
AcDbEntity
  8
MAIN0
  6
CENTER
 62
3
100
AcDbLine
 10
165.7605104436777
 20
376.1159186804240
 30
0.0000000000000000
 11
250.5228808361482
 21
376.1159186804240
 31
0.0000000000000000
  0
LINE
  5
223
100
AcDbEntity
  8
MAIN0
  6
CENTER
 62
3
100
AcDbLine
 10
259.6728806930971
 20
376.1159186804240
 30
0.0000000000000000
 11
319.7130358366306
 21
376.1159186804240
 31
0.0000000000000000
  0
MTEXT
  5
224
100
AcDbEntity
  8
MAIN0
  6
CONTINUOUS
 62
3
100
AcDbMText
 10
270.5611879462527
 20
399.6248401646549
 30
0.0000000000000000
 40
4.649999856948853
 41
0.0000000000000000
 71
     1
 72
     1
  1
{\H0.67x;{MIN 46.75}}
 11
6.123233995736766e-017
 21
1.000000000000000
 31
0.0000000000000000
  7
STANDARD
  0
DIMENSION
  5
22D
100
AcDbEntity
  8
MAIN0
  6
CONTINUOUS
 62
3
100
AcDbDimension
  2
*D30
 10
555.1387623340656
 20
398.6159186804243
 30
0.0000000000000000
 11
554.6387623340656
 21
376.1159186804243
 31
0.0000000000000000
 70
32
  3
MAIN001
100
AcDbAlignedDimension
 13
545.2991313003533
 23
353.6159186804243
 33
0.0000000000000000
 14
545.2991313003533
 24
398.6159186804243
 34
0.0000000000000000
 50
90.00000000000000
100
AcDbRotatedDimension
1001
ACAD
1000
DSTYLE
1002
{
1070
   173
1070
     1
1070
     6
1000
_OPEN
1070
     7
1000
_OPEN
1070
    41
1040
3.000000
1002
}
  0
MTEXT
  5
22E
100
AcDbEntity
  8
MAIN0
  6
CONTINUOUS
 62
3
100
AcDbMText
 10
311.6731346498768
 20
228.4102246265572
 30
0.0000000000000000
 40
4.500000000000000
 41
0.0000000000000000
 71
     1
 72
     1
  1
{\H0.63x;{BODY SURFACE}}
 11
1.000000000000000
 21
0.0000000000000000
 31
0.0000000000000000
  7
STANDARD
  0
MTEXT
  5
22F
100
AcDbEntity
  8
MAIN0
  6
CONTINUOUS
 62
3
100
AcDbMText
 10
317.8548425016634
 20
356.3144513101189
 30
0.0000000000000000
 40
4.500000000000000
 41
0.0000000000000000
 71
     1
 72
     1
  1
{\H0.63x;{COVER SURFACE}}
 11
1.000000000000000
 21
0.0000000000000000
 31
0.0000000000000000
  7
STANDARD
  0
MTEXT
  5
230
100
AcDbEntity
  8
MAIN0
  6
CONTINUOUS
 62
3
100
AcDbMText
 10
356.6008812261279
 20
535.7841501548553
 30
0.0000000000000000
 40
4.500000000000000
 41
0.0000000000000000
 71
     1
 72
     1
  1
{\H0.63x;{SOFT JAW}}
 11
1.000000000000000
 21
0.0000000000000000
 31
0.0000000000000000
  7
STANDARD
  0
MTEXT
  5
231
100
AcDbEntity
  8
MAIN0
  6
CONTINUOUS
 62
3
100
AcDbMText
 10
227.7604854973745
 20
533.4627055534871
 30
0.0000000000000000
 40
4.500000000000000
 41
0.0000000000000000
 71
     1
 72
     1
  1
{\H0.61x;{SERRATION PITCH 1.5}}
 11
1.000000000000000
 21
0.0000000000000000
 31
0.0000000000000000
  7
STANDARD
  0
MTEXT
  5
232
100
AcDbEntity
  8
MAIN0
  6
CONTINUOUS
 62
3
100
AcDbMText
 10
346.5896352005674
 20
555.2262824328392
 30
0.0000000000000000
 40
4.500000000000000
 41
0.0000000000000000
 71
     1
 72
     1
  1
{\H0.63x;{HEX SOCKET HEAD CAP SCREW}}
 11
1.000000000000000
 21
0.0000000000000000
 31
0.0000000000000000
  7
STANDARD
  0
MTEXT
  5
233
100
AcDbEntity
  8
MAIN0
  6
CONTINUOUS
 62
3
100
AcDbMText
 10
475.6817570326140
 20
32.47275670688470
 30
0.0000000000000000
 40
4.649999856948853
 41
0.0000000000000000
 71
     1
 72
     1
  1
{\H0.69x;{ 6}}
 11
1.000000000000000
 21
0.0000000000000000
 31
0.0000000000000000
  7
STANDARD
  0
MTEXT
  5
234
100
AcDbEntity
  8
MAIN0
  6
CONTINUOUS
 62
3
100
AcDbMText
 10
481.6817570326116
 20
76.72275670688418
 30
0.0000000000000000
 40
4.649999856948853
 41
0.0000000000000000
 71
     1
 72
     1
  1
{\H0.88x;{15}}
 11
1.000000000000000
 21
0.0000000000000000
 31
0.0000000000000000
  7
STANDARD
  0
MTEXT
  5
235
100
AcDbEntity
  8
MAIN0
  6
CONTINUOUS
 62
3
100
AcDbMText
 10
481.6817570326136
 20
66.22275670688418
 30
0.0000000000000000
 40
4.649999856948853
 41
0.0000000000000000
 71
     1
 72
     1
  1
{\H0.90x;{6.3}}
 11
1.000000000000000
 21
0.0000000000000000
 31
0.0000000000000000
  7
STANDARD
  0
MTEXT
  5
236
100
AcDbEntity
  8
MAIN0
  6
CONTINUOUS
 62
3
100
AcDbMText
 10
477.1817570326174
 20
48.22280670688423
 30
0.0000000000000000
 40
4.649999856948853
 41
0.0000000000000000
 71
     1
 72
     1
  1
{\H0.91x;{4895}}
 11
1.000000000000000
 21
0.0000000000000000
 31
0.0000000000000000
  7
STANDARD
  0
MTEXT
  5
237
100
AcDbEntity
  8
MAIN0
  6
CONTINUOUS
 62
3
100
AcDbMText
 10
481.6817570326174
 20
55.72280670688423
 30
0.0000000000000000
 40
4.649999856948853
 41
0.0000000000000000
 71
     1
 72
     1
  1
{\H0.88x;{48}}
 11
1.000000000000000
 21
0.0000000000000000
 31
0.0000000000000000
  7
STANDARD
  0
MTEXT
  5
238
100
AcDbEntity
  8
MAIN0
  6
CONTINUOUS
 62
3
100
AcDbMText
 10
481.6817570326157
 20
1.722756705617485
 30
0.0000000000000000
 40
4.649999856948853
 41
0.0000000000000000
 71
     1
 72
     1
  1
{\H0.81x;{40.8}}
 11
1.000000000000000
 21
0.0000000000000000
 31
0.0000000000000000
  7
STANDARD
  0
LINE
  5
239
100
AcDbEntity
  8
MAIN0
  6
CONTINUOUS
 62
3
100
AcDbLine
 10
394.0714115808470
 20
-4.427169265912539
 30
0.0000000000000000
 11
514.6817570326166
 21
-4.427169265912539
 31
0.0000000000000000
  0
MTEXT
  5
23A
100
AcDbEntity
  8
MAIN0
  6
CONTINUOUS
 62
3
100
AcDbMText
 10
398.9899718271425
 20
78.61769768116187
 30
0.0000000000000000
 40
3.749998569488525
 41
0.0000000000000000
 71
     1
 72
     1
  1
{\H0.75x;{PLUNGER STROKE}}
 11
1.000000000000000
 21
0.0000000000000000
 31
0.0000000000000000
  7
STANDARD
  0
MTEXT
  5
23B
100
AcDbEntity
  8
MAIN0
  6
CONTINUOUS
 62
3
100
AcDbMText
 10
398.9899718271425
 20
73.96769853946876
 30
0.0000000000000000
 40
3.599999427795410
 41
0.0000000000000000
 71
     1
 72
     1
  1
{\H0.93x;{プランジャストロ－ク}}
 11
1.000000000000000
 21
0.0000000000000000
 31
0.0000000000000000
  7
KNJYOKO
  0
MTEXT
  5
23C
100
AcDbEntity
  8
MAIN0
  6
CONTINUOUS
 62
3
100
AcDbMText
 10
398.9899718271425
 20
68.11769768116187
 30
0.0000000000000000
 40
3.749998569488525
 41
0.0000000000000000
 71
     1
 72
     1
  1
{\H0.75x;{JAW STROKE (IN DIA)}}
 11
1.000000000000000
 21
0.0000000000000000
 31
0.0000000000000000
  7
STANDARD
  0
MTEXT
  5
23D
100
AcDbEntity
  8
MAIN0
  6
CONTINUOUS
 62
3
100
AcDbMText
 10
398.9899718271425
 20
63.46769853946876
 30
0.0000000000000000
 40
3.599999427795410
 41
0.0000000000000000
 71
     1
 72
     1
  1
{\H0.94x;{ジョーストローク(直径で)}}
 11
1.000000000000000
 21
0.0000000000000000
 31
0.0000000000000000
  7
KNJYOKO
  0
MTEXT
  5
23E
100
AcDbEntity
  8
MAIN0
  6
CONTINUOUS
 62
3
100
AcDbMText
 10
398.9899718271435
 20
37.57269911167418
 30
0.0000000000000000
 40
3.750000000000000
 41
0.0000000000000000
 71
     1
 72
     1
  1
{\H0.63x;{MAX PERMISSIBLE AIR PRESS}}
 11
1.000000000000000
 21
0.0000000000000000
 31
0.0000000000000000
  7
STANDARD
  0
MTEXT
  5
23F
100
AcDbEntity
  8
MAIN0
  6
CONTINUOUS
 62
3
100
AcDbMText
 10
399.1879488292593
 20
32.92274213892478
 30
0.0000000000000000
 40
3.599999427795410
 41
0.0000000000000000
 71
     1
 72
     1
  1
{\H0.93x;{許容最大エア圧力}}
 11
1.000000000000000
 21
0.0000000000000000
 31
0.0000000000000000
  7
KNJYOKO
  0
MTEXT
  5
240
100
AcDbEntity
  8
MAIN0
  6
CONTINUOUS
 62
3
100
AcDbMText
 10
398.9899718271428
 20
5.322821565792879
 30
0.0000000000000000
 40
3.749998569488525
 41
0.0000000000000000
 71
     1
 72
     1
  1
{\H0.73x;{MASS}}
 11
1.000000000000000
 21
0.0000000000000000
 31
0.0000000000000000
  7
STANDARD
  0
MTEXT
  5
241
100
AcDbEntity
  8
MAIN0
  6
CONTINUOUS
 62
3
100
AcDbMText
 10
398.9899718271428
 20
0.6728224240997633
 30
0.0000000000000000
 40
3.599999427795410
 41
0.0000000000000000
 71
     1
 72
     1
  1
{\H0.89x;{質量\P}
 11
1.000000000000000
 21
0.0000000000000000
 31
0.0000000000000000
  7
KNJYOKO
  0
MTEXT
  5
242
100
AcDbEntity
  8
MAIN0
  6
CONTINUOUS
 62
3
100
AcDbMText
 10
437.8397149809933
 20
45.07263267048342
 30
0.0000000000000000
 40
3.750000000000000
 41
0.0000000000000000
 71
     7
 72
     1
  1
{( 6 Kgf/cm}
 11
1.000000000000000
 21
0.0000000000000000
 31
0.0000000000000000
  7
STANDARD
  0
MTEXT
  5
243
100
AcDbEntity
  8
MAIN0
  6
CONTINUOUS
 62
3
100
AcDbMText
 10
460.3397149809933
 20
46.94763267048342
 30
0.0000000000000000
 40
1.875000000000000
 41
0.0000000000000000
 71
     7
 72
     1
  1
{2}
 11
1.000000000000000
 21
0.0000000000000000
 31
0.0000000000000000
  7
STANDARD
  0
MTEXT
  5
244
100
AcDbEntity
  8
MAIN0
  6
CONTINUOUS
 62
3
100
AcDbMText
 10
461.4647149809933
 20
45.07263267048342
 30
0.0000000000000000
 40
3.750000000000000
 41
0.0000000000000000
 71
     7
 72
     1
  1
{)}
 11
1.000000000000000
 21
0.0000000000000000
 31
0.0000000000000000
  7
STANDARD
  0
MTEXT
  5
245
100
AcDbEntity
  8
MAIN0
  6
CONTINUOUS
 62
3
100
AcDbMText
 10
398.9899127811821
 20
48.82263267048342
 30
0.0000000000000000
 40
3.750000000000000
 41
0.0000000000000000
 71
     1
 72
     1
  1
{\H0.59x;{(エア圧 0.6 MPa時)}}
 11
1.000000000000000
 21
0.0000000000000000
 31
0.0000000000000000
  7
KNJYOKO
  0
MTEXT
  5
246
100
AcDbEntity
  8
MAIN0
  6
CONTINUOUS
 62
3
100
AcDbMText
 10
398.9899718271425
 20
57.82269911167384
 30
0.0000000000000000
 40
3.750000000000000
 41
0.0000000000000000
 71
     1
 72
     1
  1
{\H0.63x;{MAX GRIPPING FORCE}}
 11
1.000000000000000
 21
0.0000000000000000
 31
0.0000000000000000
  7
STANDARD
  0
MTEXT
  5
247
100
AcDbEntity
  8
MAIN0
  6
CONTINUOUS
 62
3
100
AcDbMText
 10
398.9899718271425
 20
53.17269853946925
 30
0.0000000000000000
 40
3.599999427795410
 41
0.0000000000000000
 71
     1
 72
     1
  1
{\H0.93x;{最大把握力　　}}
 11
1.000000000000000
 21
0.0000000000000000
 31
0.0000000000000000
  7
KNJYOKO
  0
MTEXT
  5
248
100
AcDbEntity
  8
MAIN0
  6
CONTINUOUS
 62
3
100
AcDbMText
 10
398.9899127811821
 20
44.32268267048346
 30
0.0000000000000000
 40
3.750000000000000
 41
0.0000000000000000
 71
     1
 72
     1
  1
{\H0.62x;{(ON AIR PRESSURE OF 0.6 MPa)}}
 11
1.000000000000000
 21
0.0000000000000000
 31
0.0000000000000000
  7
STANDARD
  0
LINE
  5
249
100
AcDbEntity
  8
MAIN0
  6
CONTINUOUS
 62
3
100
AcDbLine
 10
514.6817570326116
 20
91.57275684993579
 30
0.0000000000000000
 11
394.1817570326120
 21
91.57275684993579
 31
0.0000000000000000
  0
LINE
  5
24A
100
AcDbEntity
  8
MAIN0
  6
CONTINUOUS
 62
3
100
AcDbLine
 10
514.6817570326116
 20
79.57275684993584
 30
0.0000000000000000
 11
394.1817570326111
 21
79.57275684993584
 31
0.0000000000000000
  0
LINE
  5
24B
100
AcDbEntity
  8
MAIN0
  6
CONTINUOUS
 62
3
100
AcDbLine
 10
514.6817570326109
 20
69.07275684993567
 30
0.0000000000000000
 11
394.1817570326111
 21
69.07275684993567
 31
0.0000000000000000
  0
LINE
  5
24C
100
AcDbEntity
  8
MAIN0
  6
CONTINUOUS
 62
3
100
AcDbLine
 10
514.6817570326130
 20
58.57275684993567
 30
0.0000000000000000
 11
394.1817570326111
 21
58.57275684993567
 31
0.0000000000000000
  0
LINE
  5
24D
100
AcDbEntity
  8
MAIN0
  6
CONTINUOUS
 62
3
100
AcDbLine
 10
514.6817570326141
 20
39.07275684993567
 30
0.0000000000000000
 11
394.1817570326140
 21
39.07275684993567
 31
0.0000000000000000
  0
LINE
  5
24E
100
AcDbEntity
  8
MAIN0
  6
CONTINUOUS
 62
3
100
AcDbLine
 10
514.6817570326105
 20
27.07275684993601
 30
0.0000000000000000
 11
394.1817570326148
 21
27.07275684993601
 31
0.0000000000000000
  0
LINE
  5
24F
100
AcDbEntity
  8
MAIN0
  6
CONTINUOUS
 62
3
100
AcDbLine
 10
514.6817570326159
 20
6.072756849935672
 30
0.0000000000000000
 11
394.1817570326114
 21
6.072756849935672
 31
0.0000000000000000
  0
LINE
  5
250
100
AcDbEntity
  8
MAIN0
  6
CONTINUOUS
 62
3
100
AcDbLine
 10
469.6817570326109
 20
79.57275684993584
 30
0.0000000000000000
 11
469.6817570326160
 21
-4.427169265912710
 31
0.0000000000000000
  0
LINE
  5
251
100
AcDbEntity
  8
MAIN0
  6
CONTINUOUS
 62
3
100
AcDbLine
 10
514.6817570326110
 20
91.57275684993545
 30
0.0000000000000000
 11
514.6817570326170
 21
-4.427169265912767
 31
0.0000000000000000
  0
LINE
  5
252
100
AcDbEntity
  8
MAIN0
  6
CONTINUOUS
 62
3
100
AcDbLine
 10
394.1817570326110
 20
91.57275684993545
 30
0.0000000000000000
 11
394.1817570326169
 21
-4.427169265912767
 31
0.0000000000000000
  0
MTEXT
  5
253
100
AcDbEntity
  8
MAIN0
  6
CONTINUOUS
 62
4
100
AcDbMText
 10
492.1817570326116
 20
74.77275570552615
 30
0.0000000000000000
 40
4.199998855590820
 41
0.0000000000000000
 71
     1
 72
     1
  1
{\H0.58x;{　　　　ｍｍ}}
 11
1.000000000000000
 21
0.0000000000000000
 31
0.0000000000000000
  7
KNJYOKO
  0
MTEXT
  5
254
100
AcDbEntity
  8
MAIN0
  6
CONTINUOUS
 62
4
100
AcDbMText
 10
492.1817570326136
 20
64.27275570552615
 30
0.0000000000000000
 40
4.199998855590820
 41
0.0000000000000000
 71
     1
 72
     1
  1
{\H0.58x;{　　　　ｍｍ}}
 11
1.000000000000000
 21
0.0000000000000000
 31
0.0000000000000000
  7
KNJYOKO
  0
MTEXT
  5
255
100
AcDbEntity
  8
MAIN0
  6
CONTINUOUS
 62
4
100
AcDbMText
 10
472.6817570326174
 20
47.77280570552620
 30
0.0000000000000000
 40
4.199998855590820
 41
0.0000000000000000
 71
     1
 72
     1
  1
{\H0.60x;{(}}
 11
1.000000000000000
 21
0.0000000000000000
 31
0.0000000000000000
  7
STANDARD
  0
MTEXT
  5
256
100
AcDbEntity
  8
MAIN0
  6
CONTINUOUS
 62
4
100
AcDbMText
 10
490.6817570326174
 20
47.77280570552620
 30
0.0000000000000000
 40
4.199998855590820
 41
0.0000000000000000
 71
     1
 72
     1
  1
{\H0.60x;{　　　ｋｇｆ)}}
 11
1.000000000000000
 21
0.0000000000000000
 31
0.0000000000000000
  7
KNJYOKO
  0
MTEXT
  5
257
100
AcDbEntity
  8
MAIN0
  6
CONTINUOUS
 62
4
100
AcDbMText
 10
492.1817570326174
 20
53.77280570552620
 30
0.0000000000000000
 40
4.199998855590820
 41
0.0000000000000000
 71
     1
 72
     1
  1
{\H0.58x;{　　　　ｋＮ}}
 11
1.000000000000000
 21
0.0000000000000000
 31
0.0000000000000000
  7
KNJYOKO
  0
MTEXT
  5
258
100
AcDbEntity
  8
MAIN0
  6
CONTINUOUS
 62
4
100
AcDbMText
 10
472.6817570326140
 20
32.02275570552666
 30
0.0000000000000000
 40
4.199998855590820
 41
0.0000000000000000
 71
     1
 72
     1
  1
{\H0.60x;{(}}
 11
1.000000000000000
 21
0.0000000000000000
 31
0.0000000000000000
  7
STANDARD
  0
MTEXT
  5
259
100
AcDbEntity
  8
MAIN0
  6
CONTINUOUS
 62
4
100
AcDbMText
 10
492.1817570326140
 20
38.02275570552666
 30
0.0000000000000000
 40
4.199998855590820
 41
0.0000000000000000
 71
     1
 72
     1
  1
{\H0.58x;{　　　ＭＰａ}}
 11
1.000000000000000
 21
0.0000000000000000
 31
0.0000000000000000
  7
KNJYOKO
  0
MTEXT
  5
25A
100
AcDbEntity
  8
MAIN0
  6
CONTINUOUS
 62
4
100
AcDbMText
 10
508.7617007826623
 20
32.63836289226953
 30
0.0000000000000000
 40
3.000000000000000
 41
0.0000000000000000
 71
     1
 72
     1
  1
{\H0.81x;{2}}
 11
1.000000000000000
 21
0.0000000000000000
 31
0.0000000000000000
  7
STANDARD
  0
MTEXT
  5
25B
100
AcDbEntity
  8
MAIN0
  6
CONTINUOUS
 62
4
100
AcDbMText
 10
490.6817570326140
 20
32.02275570552666
 30
0.0000000000000000
 40
4.199998855590820
 41
0.0000000000000000
 71
     1
 72
     1
  1
{\H0.62x;{ｋｇｆ／ｃｍ )}}
 11
1.000000000000000
 21
0.0000000000000000
 31
0.0000000000000000
  7
KNJYOKO
  0
MTEXT
  5
25C
100
AcDbEntity
  8
MAIN0
  6
CONTINUOUS
 62
4
100
AcDbMText
 10
492.1817570326163
 20
1.272829589677599
 30
0.0000000000000000
 40
4.199998855590820
 41
0.0000000000000000
 71
     1
 72
     1
  1
{\H0.58x;{　　　　ｋｇ}}
 11
1.000000000000000
 21
0.0000000000000000
 31
0.0000000000000000
  7
KNJYOKO
  0
MTEXT
  5
25D
100
AcDbEntity
  8
MAIN0
  6
CONTINUOUS
 62
3
100
AcDbMText
 10
427.2841284430306
 20
90.61294367880896
 30
0.0000000000000000
 40
4.650000572204590
 41
0.0000000000000000
 71
     1
 72
     1
  1
{\H0.94x;{SPECIFICATIONS}}
 11
1.000000000000000
 21
0.0000000000000000
 31
0.0000000000000000
  7
STANDARD
  0
MTEXT
  5
25E
100
AcDbEntity
  8
MAIN0
  6
CONTINUOUS
 62
3
100
AcDbMText
 10
441.9889180765658
 20
85.29614041760658
 30
0.0000000000000000
 40
4.650000572204590
 41
0.0000000000000000
 71
     1
 72
     1
  1
{\H0.93x;{仕　　　様}}
 11
1.000000000000000
 21
0.0000000000000000
 31
0.0000000000000000
  7
KNJYOKO
  0
MTEXT
  5
25F
100
AcDbEntity
  8
MAIN0
  6
CONTINUOUS
 62
3
100
AcDbMText
 10
398.9899718271463
 20
25.57269911167396
 30
0.0000000000000000
 40
3.000000000000000
 41
0.0000000000000000
 71
     1
 72
     1
  1
{\H0.63x;{AIR CONSUMPTION (PER 10mm OF PLUNGER }}
 11
1.000000000000000
 21
0.0000000000000000
 31
0.0000000000000000
  7
STANDARD
  0
MTEXT
  5
260
100
AcDbEntity
  8
MAIN0
  6
CONTINUOUS
 62
3
100
AcDbMText
 10
398.9899718271466
 20
15.67269853946959
 30
0.0000000000000000
 40
3.599999427795410
 41
0.0000000000000000
 71
     1
 72
     1
  1
{\H0.92x;{空気消費量}}
 11
1.000000000000000
 21
0.0000000000000000
 31
0.0000000000000000
  7
KNJYOKO
  0
MTEXT
  5
261
100
AcDbEntity
  8
MAIN0
  6
CONTINUOUS
 62
3
100
AcDbMText
 10
398.9899718271463
 20
11.32269911167418
 30
0.0000000000000000
 40
3.750000000000000
 41
0.0000000000000000
 71
     1
 72
     1
  1
{\H0.59x;{(プランジャストローク10mm当り圧力0.6MPa時)}}
 11
1.000000000000000
 21
0.0000000000000000
 31
0.0000000000000000
  7
KNJYOKO
  0
MTEXT
  5
262
100
AcDbEntity
  8
MAIN0
  6
CONTINUOUS
 62
3
100
AcDbMText
 10
398.9899718271463
 20
21.07269911167396
 30
0.0000000000000000
 40
3.000000000000000
 41
0.0000000000000000
 71
     1
 72
     1
  1
{\H0.62x;{STROKE ON PRESSURE OF 0.6MPa)}}
 11
1.000000000000000
 21
0.0000000000000000
 31
0.0000000000000000
  7
STANDARD
  0
MTEXT
  5
263
100
AcDbEntity
  8
MAIN0
  6
CONTINUOUS
 62
4
100
AcDbMText
 10
492.1817570326145
 20
19.27275570553195
 30
0.0000000000000000
 40
4.199998855590820
 41
0.0000000000000000
 71
     1
 72
     1
  1
{\H0.58x;{　　　　Ｎ}}
 11
1.000000000000000
 21
0.0000000000000000
 31
0.0000000000000000
  7
KNJYOKO
  0
MTEXT
  5
264
100
AcDbEntity
  8
MAIN0
  6
CONTINUOUS
 62
3
100
AcDbMText
 10
481.6817570326140
 20
38.47275670688470
 30
0.0000000000000000
 40
4.649999856948853
 41
0.0000000000000000
 71
     1
 72
     1
  1
{\H0.76x;{0.6}}
 11
1.000000000000000
 21
0.0000000000000000
 31
0.0000000000000000
  7
STANDARD
  0
MTEXT
  5
265
100
AcDbEntity
  8
MAIN0
  6
CONTINUOUS
 62
3
100
AcDbMText
 10
481.6817570326145
 20
19.72275670688998
 30
0.0000000000000000
 40
4.649999856948853
 41
0.0000000000000000
 71
     1
 72
     1
  1
{\H0.81x;{2.52}}
 11
1.000000000000000
 21
0.0000000000000000
 31
0.0000000000000000
  7
STANDARD
  0
SPLINE
  5
266
100
AcDbEntity
  8
MAIN0
  6
CONTINUOUS
 62
3
100
AcDbSpline
210
0.0000000000000000
220
0.0000000000000000
230
1.000000000000000
 70
     8
 71
     3
 72
    14
 73
    10
 74
     0
 42
1.000000000000000e-007
 43
1.000000000000000e-007
 12
1.807970906279479
 22
0.4518295875578531
 32
0.0000000000000000
 13
1.367805717125975
 23
1.099255858267810
 33
0.0000000000000000
 40
0.0000000000000000
 40
0.0000000000000000
 40
0.0000000000000000
 40
0.0000000000000000
 40
0.5828484074954654
 40
2.017389827489209
 40
3.123506893394179
 40
4.885508420049012
 40
6.048697447303496
 40
6.384151807376483
 40
6.831490023551860
 40
6.831490023551860
 40
6.831490023551860
 40
6.831490023551860
 10
508.2424544463447
 20
15.39104704569718
 30
0.0000000000000000
 10
508.5937121008523
 20
15.47882976421965
 30
0.0000000000000000
 10
509.8095061390930
 20
15.78266856878577
 30
0.0000000000000000
 10
510.6070960997874
 20
17.52213052074001
 30
0.0000000000000000
 10
510.8153067907755
 20
21.28439975143147
 30
0.0000000000000000
 10
508.9429384568765
 20
17.64517704581158
 30
0.0000000000000000
 10
508.8064271548280
 20
14.78828913808195
 30
0.0000000000000000
 10
510.0868759787989
 20
15.23059676068851
 30
0.0000000000000000
 10
510.4437786991705
 20
15.51742653577230
 30
0.0000000000000000
 10
510.6477359556951
 20
15.68133958735825
 30
0.0000000000000000
  0
MTEXT
  5
267
100
AcDbEntity
  8
MAIN0
  6
CONTINUOUS
 62
3
100
AcDbMText
 10
737.9383061676258
 20
259.7271961084526
 30
0.0000000000000000
 40
4.500000000000000
 41
0.0000000000000000
 71
     1
 72
     1
  1
{\H0.63x;{(WHEN SETTING ON MULTI-PLATE,\P THIS SOCKET SET SCREW MUST BE\P TAKEN OFF.)}}
 11
1.000000000000000
 21
0.0000000000000000
 31
0.0000000000000000
  7
STANDARD
  0
LINE
  5
268
100
AcDbEntity
  8
MAIN0
  6
CONTINUOUS
 62
3
100
AcDbLine
 10
720.6144413705360
 20
396.1159186804242
 30
0.0000000000000000
 11
661.0991313003539
 21
396.1159186804242
 31
0.0000000000000000
  0
LINE
  5
269
100
AcDbEntity
  8
MAIN0
  6
CENTER
 62
3
100
AcDbLine
 10
660.5398376515971
 20
391.1159186804242
 30
0.0000000000000000
 11
652.6647588537712
 21
391.1159186804242
 31
0.0000000000000000
  0
LINE
  5
26A
100
AcDbEntity
  8
MAIN0
  6
CENTER
 62
3
100
AcDbLine
 10
660.5398376515971
 20
361.1159186804242
 30
0.0000000000000000
 11
652.6647588537712
 21
361.1159186804242
 31
0.0000000000000000
  0
LINE
  5
26B
100
AcDbEntity
  8
MAIN0
  6
HIDDEN
 62
3
100
AcDbLine
 10
657.9365681674302
 20
359.8784818133477
 30
0.0000000000000000
 11
655.4616944332774
 21
362.3533555475007
 31
0.0000000000000000
  0
LINE
  5
26C
100
AcDbEntity
  8
MAIN0
  6
HIDDEN
 62
3
100
AcDbLine
 10
655.4616944332773
 20
359.8784818133477
 30
0.0000000000000000
 11
657.9365681674302
 21
362.3533555475007
 31
0.0000000000000000
  0
LINE
  5
26D
100
AcDbEntity
  8
MAIN0
  6
CENTER
 62
3
100
AcDbLine
 10
656.6991313003541
 20
394.6461476284410
 30
0.0000000000000000
 11
656.6991313003541
 21
387.6691048024740
 31
0.0000000000000000
  0
LINE
  5
26E
100
AcDbEntity
  8
MAIN0
  6
CENTER
 62
3
100
AcDbLine
 10
656.6991313003541
 20
365.4945435236480
 30
0.0000000000000000
 11
656.6991313003541
 21
357.2740665791662
 31
0.0000000000000000
  0
LINE
  5
26F
100
AcDbEntity
  8
MAIN0
  6
HIDDEN
 62
3
100
AcDbLine
 10
655.4616944332773
 20
392.3533555475007
 30
0.0000000000000000
 11
657.9365681674303
 21
389.8784818133476
 31
0.0000000000000000
  0
LINE
  5
270
100
AcDbEntity
  8
MAIN0
  6
HIDDEN
 62
3
100
AcDbLine
 10
657.9365681674302
 20
392.3533555475005
 30
0.0000000000000000
 11
655.4616944332773
 21
389.8784818133476
 31
0.0000000000000000
  0
ARC
  5
271
100
AcDbEntity
  8
MAIN0
  6
CONTINUOUS
 62
3
100
AcDbCircle
 10
595.1991313003537
 20
376.1159186804241
 30
0.0000000000000000
 40
69.50000000000000
100
AcDbArc
 50
16.72448326535599
 51
18.52205595052457
  0
ARC
  5
272
100
AcDbEntity
  8
MAIN0
  6
CONTINUOUS
 62
3
100
AcDbCircle
 10
595.1991313003537
 20
376.1159186804241
 30
0.0000000000000000
 40
69.50000000000000
100
AcDbArc
 50
341.4779440494748
 51
343.2755167346310
  0
LINE
  5
273
100
AcDbEntity
  8
MAIN0
  6
CONTINUOUS
 62
3
100
AcDbLine
 10
279.1991313011157
 20
140.7240443859999
 30
0.0000000000000000
 11
279.1991313011157
 21
131.9240443859998
 31
0.0000000000000000
  0
LINE
  5
274
100
AcDbEntity
  8
MAIN0
  6
CONTINUOUS
 62
3
100
AcDbLine
 10
263.1991313002986
 20
140.7240443860116
 30
0.0000000000000000
 11
263.1991313003181
 21
131.9240443860119
 31
0.0000000000000000
  0
LINE
  5
275
100
AcDbEntity
  8
MAIN0
  6
CONTINUOUS
 62
3
100
AcDbLine
 10
257.6991313011157
 20
131.7240443860158
 30
0.0000000000000000
 11
257.6991313011157
 21
92.12404438601584
 31
0.0000000000000000
  0
LINE
  5
276
100
AcDbEntity
  8
MAIN0
  6
CONTINUOUS
 62
3
100
AcDbLine
 10
263.3991313002982
 20
140.9240443860116
 30
0.0000000000000000
 11
278.9991313011157
 21
140.9240443860000
 31
0.0000000000000000
  0
LINE
  5
277
100
AcDbEntity
  8
MAIN0
  6
CONTINUOUS
 62
3
100
AcDbLine
 10
257.8991313011157
 20
131.9240443860159
 30
0.0000000000000000
 11
263.1991313003181
 21
131.9240443860119
 31
0.0000000000000000
  0
LINE
  5
278
100
AcDbEntity
  8
MAIN0
  6
CONTINUOUS
 62
3
100
AcDbLine
 10
279.1991313011157
 20
131.9240443859998
 30
0.0000000000000000
 11
299.3331058970448
 21
131.9240443859849
 31
0.0000000000000000
  0
LINE
  5
279
100
AcDbEntity
  8
MAIN0
  6
CONTINUOUS
 62
3
100
AcDbLine
 10
280.2733953689751
 20
123.4983084547139
 30
0.0000000000000000
 11
277.3748672316507
 21
120.5997803173914
 31
0.0000000000000000
  0
LINE
  5
27A
100
AcDbEntity
  8
MAIN0
  6
CONTINUOUS
 62
3
100
AcDbLine
 10
285.9991313003625
 20
123.6740443860013
 30
0.0000000000000000
 11
280.6976594376868
 21
123.6740443860013
 31
0.0000000000000000
  0
ARC
  5
27B
100
AcDbEntity
  8
MAIN0
  6
CONTINUOUS
 62
3
100
AcDbCircle
 10
277.7991313003626
 20
120.1755162486791
 30
0.0000000000000000
 40
0.6000000000000000
100
AcDbArc
 50
134.9999999999808
 51
180.0000000000000
  0
ARC
  5
27C
100
AcDbEntity
  8
MAIN0
  6
CONTINUOUS
 62
3
100
AcDbCircle
 10
285.9991313003626
 20
122.4740443860015
 30
0.0000000000000000
 40
1.200000000000000
100
AcDbArc
 50
0.0000000000000000
 51
90.00000000000000
  0
LINE
  5
27D
100
AcDbEntity
  8
MAIN0
  6
CONTINUOUS
 62
3
100
AcDbLine
 10
287.7991313002413
 20
120.2240443860016
 30
0.0000000000000000
 11
287.1991313003624
 21
120.8240443858813
 31
0.0000000000000000
  0
LINE
  5
27E
100
AcDbEntity
  8
MAIN0
  6
CONTINUOUS
 62
3
100
AcDbLine
 10
296.2991313007432
 20
120.2240443860015
 30
0.0000000000000000
 11
287.7991313002414
 21
120.2240443860015
 31
0.0000000000000000
  0
LINE
  5
27F
100
AcDbEntity
  8
MAIN0
  6
CONTINUOUS
 62
3
100
AcDbLine
 10
277.1991313005370
 20
120.1755162486782
 30
0.0000000000000000
 11
277.1991313005645
 21
103.6725725233239
 31
0.0000000000000000
  0
LINE
  5
280
100
AcDbEntity
  8
MAIN0
  6
CONTINUOUS
 62
3
100
AcDbLine
 10
279.1991313010732
 20
83.12404438600004
 30
0.0000000000000000
 11
279.1991313010863
 21
91.92404438599976
 31
0.0000000000000000
  0
LINE
  5
281
100
AcDbEntity
  8
MAIN0
  6
CONTINUOUS
 62
3
100
AcDbLine
 10
263.1991313002561
 20
83.12404438601192
 30
0.0000000000000000
 11
263.1991313002886
 21
91.92404438601182
 31
0.0000000000000000
  0
LINE
  5
282
100
AcDbEntity
  8
MAIN0
  6
CONTINUOUS
 62
3
100
AcDbLine
 10
263.3991313002551
 20
82.92404438601159
 30
0.0000000000000000
 11
278.9991313010728
 21
82.92404438600005
 31
0.0000000000000000
  0
LINE
  5
283
100
AcDbEntity
  8
MAIN0
  6
CONTINUOUS
 62
3
100
AcDbLine
 10
257.8991313011157
 20
91.92404438601579
 30
0.0000000000000000
 11
263.1991313002886
 21
91.92404438601182
 31
0.0000000000000000
  0
LINE
  5
284
100
AcDbEntity
  8
MAIN0
  6
CONTINUOUS
 62
3
100
AcDbLine
 10
279.1991313010863
 20
91.92404438599982
 30
0.0000000000000000
 11
299.3331058970153
 21
91.92404438598487
 31
0.0000000000000000
  0
LINE
  5
285
100
AcDbEntity
  8
MAIN0
  6
CONTINUOUS
 62
3
100
AcDbLine
 10
280.2733953689585
 20
100.3497803172850
 30
0.0000000000000000
 11
277.3748672316386
 21
103.2483084546115
 31
0.0000000000000000
  0
LINE
  5
286
100
AcDbEntity
  8
MAIN0
  6
CONTINUOUS
 62
3
100
AcDbLine
 10
285.9991313003452
 20
100.1740443859885
 30
0.0000000000000000
 11
280.6976594376702
 21
100.1740443859963
 31
0.0000000000000000
  0
ARC
  5
287
100
AcDbEntity
  8
MAIN0
  6
CONTINUOUS
 62
3
100
AcDbCircle
 10
277.7991313003510
 20
103.6725725233230
 30
0.0000000000000000
 40
0.6000000000000000
100
AcDbArc
 50
179.9999999999152
 51
224.9999999999344
  0
ARC
  5
288
100
AcDbEntity
  8
MAIN0
  6
CONTINUOUS
 62
3
100
AcDbCircle
 10
285.9991313003469
 20
101.3740443859886
 30
0.0000000000000000
 40
1.200000000000000
100
AcDbArc
 50
269.9999999999152
 51
359.9999999999152
  0
LINE
  5
289
100
AcDbEntity
  8
MAIN0
  6
CONTINUOUS
 62
3
100
AcDbLine
 10
287.7991313002293
 20
103.6240443859861
 30
0.0000000000000000
 11
287.1991313003496
 21
103.0240443861072
 31
0.0000000000000000
  0
LINE
  5
28A
100
AcDbEntity
  8
MAIN0
  6
CONTINUOUS
 62
3
100
AcDbLine
 10
296.2991313007433
 20
103.6240443859733
 30
0.0000000000000000
 11
287.7991313002292
 21
103.6240443859859
 31
0.0000000000000000
  0
LINE
  5
28B
100
AcDbEntity
  8
MAIN0
  6
CONTINUOUS
 62
3
100
AcDbLine
 10
287.1991313003625
 20
122.4740443860015
 30
0.0000000000000000
 11
287.1991313003613
 21
120.8240443858811
 31
0.0000000000000000
  0
LINE
  5
28C
100
AcDbEntity
  8
MAIN0
  6
CONTINUOUS
 62
3
100
AcDbLine
 10
287.1991313003482
 20
103.0240443861070
 30
0.0000000000000000
 11
287.1991313003470
 21
101.3740443859866
 31
0.0000000000000000
  0
LINE
  5
28D
100
AcDbEntity
  8
MAIN0
  6
CONTINUOUS
 62
3
100
AcDbLine
 10
298.8991313008114
 20
131.9240443859844
 30
0.0000000000000000
 11
298.8991313007981
 21
119.9240443859853
 31
0.0000000000000000
  0
LINE
  5
28E
100
AcDbEntity
  8
MAIN0
  6
CONTINUOUS
 62
3
100
AcDbLine
 10
299.3331058970460
 20
131.9240443859845
 30
0.0000000000000000
 11
300.1991313007170
 21
131.4240443860504
 31
0.0000000000000000
  0
LINE
  5
28F
100
AcDbEntity
  8
MAIN0
  6
CONTINUOUS
 62
3
100
AcDbLine
 10
299.3331058970699
 20
119.9240443860014
 30
0.0000000000000000
 11
300.1991313007299
 21
120.4240443859283
 31
0.0000000000000000
  0
LINE
  5
290
100
AcDbEntity
  8
MAIN0
  6
CONTINUOUS
 62
3
100
AcDbLine
 10
300.1991313007175
 20
131.4240443860501
 30
0.0000000000000000
 11
300.1991313007297
 21
120.4240443859283
 31
0.0000000000000000
  0
LINE
  5
291
100
AcDbEntity
  8
MAIN0
  6
CONTINUOUS
 62
3
100
AcDbLine
 10
298.8991313007817
 20
91.92404438598624
 30
0.0000000000000000
 11
298.8991313007861
 21
103.9240443859853
 31
0.0000000000000000
  0
LINE
  5
292
100
AcDbEntity
  8
MAIN0
  6
CONTINUOUS
 62
3
100
AcDbLine
 10
299.3331058970165
 20
91.92404438598578
 30
0.0000000000000000
 11
300.1991313006882
 21
92.42404438591848
 31
0.0000000000000000
  0
LINE
  5
293
100
AcDbEntity
  8
MAIN0
  6
CONTINUOUS
 62
3
100
AcDbLine
 10
299.3331058970577
 20
103.9240443859689
 30
0.0000000000000000
 11
300.1991313007171
 21
103.4240443860406
 31
0.0000000000000000
  0
LINE
  5
294
100
AcDbEntity
  8
MAIN0
  6
CONTINUOUS
 62
3
100
AcDbLine
 10
300.1991313006886
 20
92.42404438591876
 30
0.0000000000000000
 11
300.1991313007171
 21
103.4240443860404
 31
0.0000000000000000
  0
LINE
  5
295
100
AcDbEntity
  8
MAIN0
  6
CONTINUOUS
 62
3
100
AcDbLine
 10
296.2991313007433
 20
103.9240443859874
 30
0.0000000000000000
 11
299.3331058970292
 21
103.9240443859851
 31
0.0000000000000000
  0
LINE
  5
296
100
AcDbEntity
  8
MAIN0
  6
CONTINUOUS
 62
3
100
AcDbLine
 10
296.2991313007433
 20
119.9240443859874
 30
0.0000000000000000
 11
299.3331058970416
 21
119.9240443859852
 31
0.0000000000000000
  0
LINE
  5
297
100
AcDbEntity
  8
MAIN0
  6
CONTINUOUS
 62
3
100
AcDbLine
 10
296.2991313007432
 20
120.2240443860015
 30
0.0000000000000000
 11
296.2991313007432
 21
119.9240443859871
 31
0.0000000000000000
  0
LINE
  5
298
100
AcDbEntity
  8
MAIN0
  6
CONTINUOUS
 62
3
100
AcDbLine
 10
296.2991313007432
 20
103.9240443859871
 30
0.0000000000000000
 11
296.2991313007432
 21
103.6240443859747
 31
0.0000000000000000
  0
LINE
  5
299
100
AcDbEntity
  8
MAIN0
  6
CONTINUOUS
 62
3
100
AcDbLine
 10
263.3991313002983
 20
140.9240443860116
 30
0.0000000000000000
 11
263.1991313002988
 21
140.7240443860117
 31
0.0000000000000000
  0
LINE
  5
29A
100
AcDbEntity
  8
MAIN0
  6
CONTINUOUS
 62
3
100
AcDbLine
 10
257.8991313011157
 20
131.9240443860160
 30
0.0000000000000000
 11
257.6991313011156
 21
131.7240443860161
 31
0.0000000000000000
  0
LINE
  5
29B
100
AcDbEntity
  8
MAIN0
  6
CONTINUOUS
 62
3
100
AcDbLine
 10
257.6991313011157
 20
92.12404438601590
 30
0.0000000000000000
 11
257.8991313011156
 21
91.92404438601591
 31
0.0000000000000000
  0
LINE
  5
29C
100
AcDbEntity
  8
MAIN0
  6
CONTINUOUS
 62
3
100
AcDbLine
 10
263.1991313002562
 20
83.12404438601186
 30
0.0000000000000000
 11
263.3991313002554
 21
82.92404438601182
 31
0.0000000000000000
  0
LINE
  5
29D
100
AcDbEntity
  8
MAIN0
  6
CONTINUOUS
 62
3
100
AcDbLine
 10
278.9991313011157
 20
140.9240443860001
 30
0.0000000000000000
 11
279.1991313011155
 21
140.7240443860000
 31
0.0000000000000000
  0
LINE
  5
29E
100
AcDbEntity
  8
MAIN0
  6
CONTINUOUS
 62
3
100
AcDbLine
 10
279.1991313010731
 20
83.12404438599992
 30
0.0000000000000000
 11
278.9991313010729
 21
82.92404438600022
 31
0.0000000000000000
  0
ARC
  5
29F
100
AcDbEntity
  8
MAIN0
  6
CONTINUOUS
 62
3
100
AcDbCircle
 10
280.6976594376869
 20
123.0740443860015
 30
0.0000000000000000
 40
0.6000000000000000
100
AcDbArc
 50
90.00000000000000
 51
134.9999999999808
  0
ARC
  5
2A0
100
AcDbEntity
  8
MAIN0
  6
CONTINUOUS
 62
3
100
AcDbCircle
 10
280.6976594376710
 20
100.7740443859964
 30
0.0000000000000000
 40
0.6000000000000000
100
AcDbArc
 50
224.9999999999338
 51
270.0000000000000
  0
LINE
  5
2A1
100
AcDbEntity
  8
MAIN0
  6
CONTINUOUS
 62
3
100
AcDbLine
 10
287.1991313003535
 20
119.9240443858703
 30
0.0000000000000000
 11
302.7991313003536
 21
119.9240443858703
 31
0.0000000000000000
  0
LINE
  5
2A2
100
AcDbEntity
  8
MAIN0
  6
CONTINUOUS
 62
3
100
AcDbLine
 10
277.6991313003538
 20
118.9240443861161
 30
0.0000000000000000
 11
277.6991313003551
 21
104.9240443858703
 31
0.0000000000000000
  0
LINE
  5
2A3
100
AcDbEntity
  8
MAIN0
  6
CONTINUOUS
 62
3
100
AcDbLine
 10
303.1991313003537
 20
119.5240443858702
 30
0.0000000000000000
 11
303.1991313003551
 21
104.3240443858702
 31
0.0000000000000000
  0
LINE
  5
2A4
100
AcDbEntity
  8
MAIN0
  6
CONTINUOUS
 62
3
100
AcDbLine
 10
287.1991313003546
 20
103.9240443858703
 30
0.0000000000000000
 11
302.7991313003549
 21
103.9240443858703
 31
0.0000000000000000
  0
LINE
  5
2A5
100
AcDbEntity
  8
MAIN0
  6
CONTINUOUS
 62
3
100
AcDbLine
 10
281.6991313003553
 20
100.9240443858703
 30
0.0000000000000000
 11
286.5991313003549
 21
100.9240443858703
 31
0.0000000000000000
  0
LINE
  5
2A6
100
AcDbEntity
  8
MAIN0
  6
CONTINUOUS
 62
3
100
AcDbLine
 10
287.1991313003534
 20
122.3240443861178
 30
0.0000000000000000
 11
287.1991313003537
 21
119.9240443858702
 31
0.0000000000000000
  0
LINE
  5
2A7
100
AcDbEntity
  8
MAIN0
  6
CONTINUOUS
 62
3
100
AcDbLine
 10
287.1991313003546
 20
103.9240443858705
 30
0.0000000000000000
 11
287.1991313003548
 21
101.5240443858704
 31
0.0000000000000000
  0
LINE
  5
2A8
100
AcDbEntity
  8
MAIN0
  6
CONTINUOUS
 62
3
100
AcDbLine
 10
281.6991313003534
 20
122.9240443861169
 30
0.0000000000000000
 11
286.5991313003534
 21
122.9240443861177
 31
0.0000000000000000
  0
LINE
  5
2A9
100
AcDbEntity
  8
MAIN0
  6
HIDDEN
 62
3
100
AcDbLine
 10
303.1991313003549
 20
105.9240443859953
 30
0.0000000000000000
 11
277.6991313003548
 21
105.9240443859953
 31
0.0000000000000000
  0
LINE
  5
2AA
100
AcDbEntity
  8
MAIN0
  6
HIDDEN
 62
3
100
AcDbLine
 10
303.1991313003539
 20
117.9240443859953
 30
0.0000000000000000
 11
277.6991313003538
 21
117.9240443859953
 31
0.0000000000000000
  0
LINE
  5
2AB
100
AcDbEntity
  8
MAIN0
  6
HIDDEN
 62
3
100
AcDbLine
 10
303.1991313003549
 20
106.8240443859954
 30
0.0000000000000000
 11
277.6991313003547
 21
106.8240443859954
 31
0.0000000000000000
  0
LINE
  5
2AC
100
AcDbEntity
  8
MAIN0
  6
HIDDEN
 62
3
100
AcDbLine
 10
277.6991313003538
 20
117.0240443859955
 30
0.0000000000000000
 11
303.1991313003539
 21
117.0240443859955
 31
0.0000000000000000
  0
LINE
  5
2AD
100
AcDbEntity
  8
MAIN0
  6
CONTINUOUS
 62
3
100
AcDbLine
 10
302.7991313003538
 20
119.9240443858704
 30
0.0000000000000000
 11
303.1991313003538
 21
119.5240443858704
 31
0.0000000000000000
  0
LINE
  5
2AE
100
AcDbEntity
  8
MAIN0
  6
CONTINUOUS
 62
3
100
AcDbLine
 10
303.1991313003550
 20
104.3240443858704
 30
0.0000000000000000
 11
302.7991313003552
 21
103.9240443858704
 31
0.0000000000000000
  0
LINE
  5
2AF
100
AcDbEntity
  8
MAIN0
  6
CONTINUOUS
 62
3
100
AcDbLine
 10
277.6991313003539
 20
118.9240443861163
 30
0.0000000000000000
 11
281.6991313003535
 21
122.9240443861170
 31
0.0000000000000000
  0
LINE
  5
2B0
100
AcDbEntity
  8
MAIN0
  6
CONTINUOUS
 62
3
100
AcDbLine
 10
277.6991313003550
 20
104.9240443858703
 30
0.0000000000000000
 11
281.6991313003552
 21
100.9240443858705
 31
0.0000000000000000
  0
LINE
  5
2B1
100
AcDbEntity
  8
MAIN0
  6
CONTINUOUS
 62
3
100
AcDbLine
 10
287.1991313003533
 20
122.3240443861180
 30
0.0000000000000000
 11
286.5991313003533
 21
122.9240443861178
 31
0.0000000000000000
  0
LINE
  5
2B2
100
AcDbEntity
  8
MAIN0
  6
CONTINUOUS
 62
3
100
AcDbLine
 10
287.1991313003548
 20
101.5240443858705
 30
0.0000000000000000
 11
286.5991313003549
 21
100.9240443858706
 31
0.0000000000000000
  0
LINE
  5
2B3
100
AcDbEntity
  8
MAIN0
  6
HIDDEN
 62
3
100
AcDbLine
 10
209.6206313003536
 20
228.6159186804243
 30
0.0000000000000000
 11
209.9143813003539
 21
238.0159186804243
 31
0.0000000000000000
  0
LINE
  5
2B4
100
AcDbEntity
  8
MAIN0
  6
HIDDEN
 62
3
100
AcDbLine
 10
222.4838813003538
 20
238.0159186804239
 30
0.0000000000000000
 11
222.7776313003535
 21
228.6159186804239
 31
0.0000000000000000
  0
LINE
  5
2B5
100
AcDbEntity
  8
MAIN0
  6
HIDDEN
 62
3
100
AcDbLine
 10
210.4766313003536
 20
228.6159186804242
 30
0.0000000000000000
 11
210.7703813003539
 21
238.0159186804243
 31
0.0000000000000000
  0
LINE
  5
2B6
100
AcDbEntity
  8
MAIN0
  6
HIDDEN
 62
3
100
AcDbLine
 10
221.9216313003535
 20
228.6159186804239
 30
0.0000000000000000
 11
221.6278813003538
 21
238.0159186804239
 31
0.0000000000000000
  0
LINE
  5
2B7
100
AcDbEntity
  8
MAIN0
  6
HIDDEN
 62
3
100
AcDbLine
 10
341.1991313003529
 20
470.0159186804240
 30
0.0000000000000000
 11
340.5991313003529
 21
470.6159186804240
 31
0.0000000000000000
  0
LINE
  5
2B8
100
AcDbEntity
  8
MAIN0
  6
HIDDEN
 62
3
100
AcDbLine
 10
340.5991313003529
 20
470.6159186804240
 30
0.0000000000000000
 11
314.1991313003529
 21
470.6159186804257
 31
0.0000000000000000
  0
LINE
  5
2B9
100
AcDbEntity
  8
MAIN0
  6
HIDDEN
 62
3
100
AcDbLine
 10
314.1991313003529
 20
470.6159186804257
 30
0.0000000000000000
 11
314.1991313003542
 21
490.6159186804257
 31
0.0000000000000000
  0
LINE
  5
2BA
100
AcDbEntity
  8
MAIN0
  6
HIDDEN
 62
3
100
AcDbLine
 10
314.1991313003542
 20
490.6159186804257
 30
0.0000000000000000
 11
340.5991313003542
 21
490.6159186804240
 31
0.0000000000000000
  0
LINE
  5
2BB
100
AcDbEntity
  8
MAIN0
  6
HIDDEN
 62
3
100
AcDbLine
 10
340.5991313003542
 20
490.6159186804241
 30
0.0000000000000000
 11
341.1991313003542
 21
491.2159186804240
 31
0.0000000000000000
  0
LINE
  5
2BC
100
AcDbEntity
  8
MAIN0
  6
HIDDEN
 62
3
100
AcDbLine
 10
314.1991313003531
 20
473.8659186804257
 30
0.0000000000000000
 11
304.7991313003531
 21
473.8659186804263
 31
0.0000000000000000
  0
LINE
  5
2BD
100
AcDbEntity
  8
MAIN0
  6
HIDDEN
 62
3
100
AcDbLine
 10
304.7991313003531
 20
473.8659186804263
 30
0.0000000000000000
 11
304.1991313003531
 21
473.2659186804264
 31
0.0000000000000000
  0
LINE
  5
2BE
100
AcDbEntity
  8
MAIN0
  6
HIDDEN
 62
3
100
AcDbLine
 10
314.1991313003540
 20
487.3659186804257
 30
0.0000000000000000
 11
304.7991313003540
 21
487.3659186804263
 31
0.0000000000000000
  0
LINE
  5
2BF
100
AcDbEntity
  8
MAIN0
  6
HIDDEN
 62
3
100
AcDbLine
 10
304.7991313003540
 20
487.3659186804263
 30
0.0000000000000000
 11
304.1991313003540
 21
487.9659186804263
 31
0.0000000000000000
  0
LINE
  5
2C0
100
AcDbEntity
  8
MAIN0
  6
HIDDEN
 62
3
100
AcDbLine
 10
314.1991313003530
 20
471.6159186804240
 30
0.0000000000000000
 11
324.9991313003530
 21
471.6159186804233
 31
0.0000000000000000
  0
LINE
  5
2C1
100
AcDbEntity
  8
MAIN0
  6
HIDDEN
 62
3
100
AcDbLine
 10
324.9991313003530
 20
471.6159186804233
 30
0.0000000000000000
 11
326.1991313003531
 21
473.6943796495060
 31
0.0000000000000000
  0
LINE
  5
2C2
100
AcDbEntity
  8
MAIN0
  6
HIDDEN
 62
3
100
AcDbLine
 10
326.1991313003532
 20
473.6943796495060
 30
0.0000000000000000
 11
326.1991313003541
 21
487.5374577113406
 31
0.0000000000000000
  0
LINE
  5
2C3
100
AcDbEntity
  8
MAIN0
  6
HIDDEN
 62
3
100
AcDbLine
 10
326.1991313003541
 20
487.5374577113406
 30
0.0000000000000000
 11
324.9991313003542
 21
489.6159186804233
 31
0.0000000000000000
  0
LINE
  5
2C4
100
AcDbEntity
  8
MAIN0
  6
HIDDEN
 62
3
100
AcDbLine
 10
324.9991313003542
 20
489.6159186804233
 30
0.0000000000000000
 11
314.1991313003542
 21
489.6159186804240
 31
0.0000000000000000
  0
LINE
  5
2C5
100
AcDbEntity
  8
MAIN0
  6
HIDDEN
 62
3
100
AcDbLine
 10
324.9991313003530
 20
471.6159186804233
 30
0.0000000000000000
 11
324.9991313003542
 21
489.6159186804233
 31
0.0000000000000000
  0
LINE
  5
2C6
100
AcDbEntity
  8
MAIN0
  6
HIDDEN
 62
3
100
AcDbLine
 10
314.1991313003533
 20
474.6159186804240
 30
0.0000000000000000
 11
292.4518733077445
 21
474.6159186804254
 31
0.0000000000000000
  0
LINE
  5
2C7
100
AcDbEntity
  8
MAIN0
  6
HIDDEN
 62
3
100
AcDbLine
 10
292.4518733077453
 20
486.6159186804254
 30
0.0000000000000000
 11
314.1991313003540
 21
486.6159186804240
 31
0.0000000000000000
  0
LINE
  5
2C8
100
AcDbEntity
  8
MAIN0
  6
HIDDEN
 62
3
100
AcDbLine
 10
314.1991313003533
 20
475.5631341804240
 30
0.0000000000000000
 11
292.4518733077446
 21
475.5631341804254
 31
0.0000000000000000
  0
LINE
  5
2C9
100
AcDbEntity
  8
MAIN0
  6
HIDDEN
 62
3
100
AcDbLine
 10
314.1991313003539
 20
485.6687031804240
 30
0.0000000000000000
 11
292.4518733077452
 21
485.6687031804254
 31
0.0000000000000000
  0
LINE
  5
2CA
100
AcDbEntity
  8
MAIN0
  6
HIDDEN
 62
3
100
AcDbLine
 10
185.1991313003535
 20
285.9955436804240
 30
0.0000000000000000
 11
191.8991313003535
 21
285.7861686804240
 31
0.0000000000000000
  0
LINE
  5
2CB
100
AcDbEntity
  8
MAIN0
  6
HIDDEN
 62
3
100
AcDbLine
 10
191.8991313003535
 20
276.4456686804240
 30
0.0000000000000000
 11
185.1991313003535
 21
276.2362936804240
 31
0.0000000000000000
  0
LINE
  5
2CC
100
AcDbEntity
  8
MAIN0
  6
HIDDEN
 62
3
100
AcDbLine
 10
185.6991313003535
 20
285.3989186804240
 30
0.0000000000000000
 11
191.8991313003536
 21
285.2051686804240
 31
0.0000000000000000
  0
LINE
  5
2CD
100
AcDbEntity
  8
MAIN0
  6
HIDDEN
 62
3
100
AcDbLine
 10
185.6991313003535
 20
276.8329186804240
 30
0.0000000000000000
 11
191.8991313003535
 21
277.0266686804240
 31
0.0000000000000000
  0
LINE
  5
2CE
100
AcDbEntity
  8
MAIN0
  6
HIDDEN
 62
3
100
AcDbLine
 10
189.3096313003535
 20
227.1159186804241
 30
0.0000000000000000
 11
189.4627563003537
 21
232.0159186804241
 31
0.0000000000000000
  0
LINE
  5
2CF
100
AcDbEntity
  8
MAIN0
  6
HIDDEN
 62
3
100
AcDbLine
 10
196.9355063003537
 20
232.0159186804239
 30
0.0000000000000000
 11
197.0886313003535
 21
227.1159186804239
 31
0.0000000000000000
  0
LINE
  5
2D0
100
AcDbEntity
  8
MAIN0
  6
HIDDEN
 62
3
100
AcDbLine
 10
189.9466313003535
 20
227.1159186804241
 30
0.0000000000000000
 11
190.0997563003537
 21
232.0159186804241
 31
0.0000000000000000
  0
LINE
  5
2D1
100
AcDbEntity
  8
MAIN0
  6
HIDDEN
 62
3
100
AcDbLine
 10
196.4516313003535
 20
227.1159186804239
 30
0.0000000000000000
 11
196.2985063003537
 21
232.0159186804239
 31
0.0000000000000000
  0
CIRCLE
  5
2D2
100
AcDbEntity
  8
MAIN0
  6
CENTER
 62
3
100
AcDbCircle
 10
595.1991313003534
 20
376.1159186804241
 30
0.0000000000000000
 40
140.0000000000000
  0
LINE
  5
2D3
100
AcDbEntity
  8
MAIN0
  6
CONTINUOUS
 62
3
100
AcDbLine
 10
570.6991313003534
 20
356.1159186804243
 30
0.0000000000000000
 11
570.6991313003534
 21
396.1159186804242
 31
0.0000000000000000
  0
LINE
  5
2D4
100
AcDbEntity
  8
MAIN0
  6
CONTINUOUS
 62
3
100
AcDbLine
 10
460.6991313003535
 20
356.1159186804243
 30
0.0000000000000000
 11
570.6991313003534
 21
356.1159186804243
 31
0.0000000000000000
  0
LINE
  5
2D5
100
AcDbEntity
  8
MAIN0
  6
CONTINUOUS
 62
3
100
AcDbLine
 10
460.6991313003535
 20
396.1159186804243
 30
0.0000000000000000
 11
570.6991313003534
 21
396.1159186804243
 31
0.0000000000000000
  0
LINE
  5
2D6
100
AcDbEntity
  8
MAIN0
  6
CONTINUOUS
 62
3
100
AcDbLine
 10
460.6991313003535
 20
356.1159186804243
 30
0.0000000000000000
 11
460.6991313003535
 21
396.1159186804243
 31
0.0000000000000000
  0
LINE
  5
2D7
100
AcDbEntity
  8
MAIN0
  6
CENTER
 62
3
100
AcDbLine
 10
650.0503136147024
 20
259.1108840567484
 30
0.0000000000000000
 11
656.2714812130896
 21
248.3355056939407
 31
0.0000000000000000
  0
LINE
  5
2D8
100
AcDbEntity
  8
MAIN0
  6
CENTER
 62
3
100
AcDbLine
 10
638.2611548477604
 20
254.5303060195881
 30
0.0000000000000000
 11
651.2292176686356
 21
232.0689623380873
 31
0.0000000000000000
  0
LINE
  5
2D9
100
AcDbEntity
  8
MAIN0
  6
CONTINUOUS
 62
3
100
AcDbLine
 10
624.3081151489761
 20
245.6976796979082
 30
0.0000000000000000
 11
634.3081151489761
 21
228.3771716222194
 31
0.0000000000000000
  0
LINE
  5
2DA
100
AcDbEntity
  8
MAIN0
  6
CONTINUOUS
 62
3
100
AcDbLine
 10
634.3081151489761
 20
228.3771716222194
 30
0.0000000000000000
 11
668.9491313003537
 21
248.3771716222194
 31
0.0000000000000000
  0
LINE
  5
2DB
100
AcDbEntity
  8
MAIN0
  6
CENTER
 62
3
100
AcDbLine
 10
625.2533117680039
 20
237.5831351824967
 30
0.0000000000000000
 11
662.6991313003535
 21
259.2024891695249
 31
0.0000000000000000
  0
LINE
  5
2DC
100
AcDbEntity
  8
MAIN0
  6
CONTINUOUS
 62
3
100
AcDbLine
 10
624.3081151489761
 20
245.6976796979082
 30
0.0000000000000000
 11
658.9491313003537
 21
265.6976796979082
 31
0.0000000000000000
  0
LINE
  5
2DD
100
AcDbEntity
  8
MAIN0
  6
CENTER
 62
3
100
AcDbLine
 10
669.1028724979600
 20
270.1108840567483
 30
0.0000000000000000
 11
675.3240400963471
 21
259.3355056939407
 31
0.0000000000000000
  0
LINE
  5
2DE
100
AcDbEntity
  8
MAIN0
  6
CENTER
 62
3
100
AcDbLine
 10
678.9643488256289
 20
278.0303060195880
 30
0.0000000000000000
 11
691.9324116465041
 21
255.5689623380872
 31
0.0000000000000000
  0
LINE
  5
2DF
100
AcDbEntity
  8
MAIN0
  6
CONTINUOUS
 62
3
100
AcDbLine
 10
693.5901474517310
 20
285.6976796979081
 30
0.0000000000000000
 11
703.5901474517310
 21
268.3771716222193
 31
0.0000000000000000
  0
LINE
  5
2E0
100
AcDbEntity
  8
MAIN0
  6
CONTINUOUS
 62
3
100
AcDbLine
 10
703.5901474517310
 20
268.3771716222193
 30
0.0000000000000000
 11
668.9491313003534
 21
248.3771716222193
 31
0.0000000000000000
  0
LINE
  5
2E1
100
AcDbEntity
  8
MAIN0
  6
CENTER
 62
3
100
AcDbLine
 10
700.1449508327032
 20
280.8218431565531
 30
0.0000000000000000
 11
662.6991313003534
 21
259.2024891695248
 31
0.0000000000000000
  0
LINE
  5
2E2
100
AcDbEntity
  8
MAIN0
  6
CONTINUOUS
 62
3
100
AcDbLine
 10
693.5901474517310
 20
285.6976796979081
 30
0.0000000000000000
 11
658.9491313003534
 21
265.6976796979081
 31
0.0000000000000000
  0
CIRCLE
  5
2E3
100
AcDbEntity
  8
MAIN0
  6
CONTINUOUS
 62
3
100
AcDbCircle
 10
672.2254107419824
 20
264.7024891695248
 30
0.0000000000000000
 40
5.000000000000000
  0
LINE
  5
2E4
100
AcDbEntity
  8
MAIN0
  6
CONTINUOUS
 62
3
100
AcDbLine
 10
670.7820350690082
 20
267.2024891695248
 30
0.0000000000000000
 11
673.6687864149563
 21
267.2024891695248
 31
0.0000000000000000
  0
LINE
  5
2E5
100
AcDbEntity
  8
MAIN0
  6
CONTINUOUS
 62
3
100
AcDbLine
 10
673.6687864149565
 20
267.2024891695248
 30
0.0000000000000000
 11
675.1121620879304
 21
264.7024891695248
 31
0.0000000000000000
  0
LINE
  5
2E6
100
AcDbEntity
  8
MAIN0
  6
CONTINUOUS
 62
3
100
AcDbLine
 10
675.1121620879303
 20
264.7024891695249
 30
0.0000000000000000
 11
673.6687864149562
 21
262.2024891695249
 31
0.0000000000000000
  0
LINE
  5
2E7
100
AcDbEntity
  8
MAIN0
  6
CONTINUOUS
 62
3
100
AcDbLine
 10
673.6687864149563
 20
262.2024891695248
 30
0.0000000000000000
 11
670.7820350690082
 21
262.2024891695248
 31
0.0000000000000000
  0
LINE
  5
2E8
100
AcDbEntity
  8
MAIN0
  6
CONTINUOUS
 62
3
100
AcDbLine
 10
670.7820350690082
 20
262.2024891695248
 30
0.0000000000000000
 11
669.3386593960343
 21
264.7024891695248
 31
0.0000000000000000
  0
LINE
  5
2E9
100
AcDbEntity
  8
MAIN0
  6
CONTINUOUS
 62
3
100
AcDbLine
 10
669.3386593960341
 20
264.7024891695248
 30
0.0000000000000000
 11
670.7820350690082
 21
267.2024891695248
 31
0.0000000000000000
  0
LINE
  5
2EA
100
AcDbEntity
  8
MAIN0
  6
HIDDEN
 62
3
100
AcDbLine
 10
694.9978764080836
 20
263.4164216222195
 30
0.0000000000000000
 11
690.0434814457217
 21
271.4101854177931
 31
0.0000000000000000
  0
LINE
  5
2EB
100
AcDbEntity
  8
MAIN0
  6
HIDDEN
 62
3
100
AcDbLine
 10
690.0434814457217
 20
271.4101854177931
 30
0.0000000000000000
 11
679.1579751328534
 21
265.1254354177928
 31
0.0000000000000000
  0
LINE
  5
2EC
100
AcDbEntity
  8
MAIN0
  6
HIDDEN
 62
3
100
AcDbLine
 10
679.1579751328534
 20
265.1254354177927
 30
0.0000000000000000
 11
683.6035801704919
 21
256.8379216222191
 31
0.0000000000000000
  0
LINE
  5
2ED
100
AcDbEntity
  8
MAIN0
  6
HIDDEN
 62
3
100
AcDbLine
 10
694.2565586624442
 20
262.9884216222195
 30
0.0000000000000000
 11
689.3021637000823
 21
270.9821854177931
 31
0.0000000000000000
  0
LINE
  5
2EE
100
AcDbEntity
  8
MAIN0
  6
HIDDEN
 62
3
100
AcDbLine
 10
684.3448979161315
 20
257.2659216222192
 30
0.0000000000000000
 11
679.8992928784928
 21
265.5534354177928
 31
0.0000000000000000
  0
LINE
  5
2EF
100
AcDbEntity
  8
MAIN0
  6
HIDDEN
 62
3
100
AcDbLine
 10
689.2772654697235
 20
270.9678104177930
 30
0.0000000000000000
 11
686.4772654697233
 21
275.8175526789858
 31
0.0000000000000000
  0
LINE
  5
2F0
100
AcDbEntity
  8
MAIN0
  6
HIDDEN
 62
3
100
AcDbLine
 10
686.4772654697233
 20
275.8175526789858
 30
0.0000000000000000
 11
677.1241911088515
 21
270.4175526789855
 31
0.0000000000000000
  0
LINE
  5
2F1
100
AcDbEntity
  8
MAIN0
  6
HIDDEN
 62
3
100
AcDbLine
 10
677.1241911088515
 20
270.4175526789855
 30
0.0000000000000000
 11
679.9241911088517
 21
265.5678104177928
 31
0.0000000000000000
  0
LINE
  5
2F2
100
AcDbEntity
  8
MAIN0
  6
HIDDEN
 62
3
100
AcDbLine
 10
686.4772654697234
 20
275.8175526789858
 30
0.0000000000000000
 11
680.2418825624754
 21
275.8175526789855
 31
0.0000000000000000
  0
LINE
  5
2F3
100
AcDbEntity
  8
MAIN0
  6
HIDDEN
 62
3
100
AcDbLine
 10
680.2418825624752
 20
275.8175526789856
 30
0.0000000000000000
 11
677.1241911088514
 21
270.4175526789856
 31
0.0000000000000000
  0
ARC
  5
2F4
100
AcDbEntity
  8
MAIN0
  6
CONTINUOUS
 62
3
100
AcDbCircle
 10
595.1991313003534
 20
376.1159186804241
 30
0.0000000000000000
 40
150.0000000000000
100
AcDbArc
 50
315.4660099534139
 51
644.5339900465662
  0
ARC
  5
2F5
100
AcDbEntity
  8
MAIN0
  6
CONTINUOUS
 62
3
100
AcDbCircle
 10
595.1991313003534
 20
376.1159186804241
 30
0.0000000000000000
 40
150.0000000000000
100
AcDbArc
 50
291.8903855440058
 51
308.1096144559942
  0
ARC
  5
2F6
100
AcDbEntity
  8
MAIN0
  6
CENTER
 62
3
100
AcDbCircle
 10
595.1991313003534
 20
376.1159186804241
 30
0.0000000000000000
 40
63.75000000000000
100
AcDbArc
 50
28.82241084310279
 51
41.39735748167861
  0
ARC
  5
2F7
100
AcDbEntity
  8
MAIN0
  6
CENTER
 62
3
100
AcDbCircle
 10
595.1991313003537
 20
376.1159186804239
 30
0.0000000000000000
 40
110.0000000000000
100
AcDbArc
 50
213.2537129688904
 51
226.4285896412022
  0
LINE
  5
2F8
100
AcDbEntity
  8
MAIN0
  6
CENTER
 62
3
100
AcDbLine
 10
519.9800068967174
 20
312.9995791359085
 30
0.0000000000000000
 11
501.5688267244605
 21
297.5507646438422
 31
0.0000000000000000
  0
ARC
  5
2F9
100
AcDbEntity
  8
MAIN0
  6
CENTER
 62
3
100
AcDbCircle
 10
595.1991313003535
 20
376.1159186804240
 30
0.0000000000000000
 40
85.00000000000000
100
AcDbArc
 50
80.43454396046315
 51
95.35605492829872
  0
ARC
  5
2FA
100
AcDbEntity
  8
MAIN0
  6
CENTER
 62
3
100
AcDbCircle
 10
595.1991313003535
 20
376.1159186804240
 30
0.0000000000000000
 40
115.0000000000000
100
AcDbArc
 50
80.43454396046323
 51
96.15252734529970
  0
CIRCLE
  5
2FB
100
AcDbEntity
  8
MAIN0
  6
CONTINUOUS
 62
3
100
AcDbCircle
 10
510.9342425572365
 20
305.4092816149397
 30
0.0000000000000000
 40
7.500000000000000
  0
CIRCLE
  5
2FC
100
AcDbEntity
  8
MAIN0
  6
CONTINUOUS
 62
3
100
AcDbCircle
 10
490.6991313003535
 20
376.1159186804243
 30
0.0000000000000000
 40
9.500000000000000
  0
CIRCLE
  5
2FD
100
AcDbEntity
  8
MAIN0
  6
CONTINUOUS
 62
3
100
AcDbCircle
 10
520.6991313003535
 20
376.1159186804243
 30
0.0000000000000000
 40
9.000000000000000
  0
LINE
  5
2FE
100
AcDbEntity
  8
MAIN0
  6
CONTINUOUS
 62
3
100
AcDbLine
 10
514.9256286084574
 20
376.1159186804243
 30
0.0000000000000000
 11
517.8123799544055
 21
371.1159186804243
 31
0.0000000000000000
  0
LINE
  5
2FF
100
AcDbEntity
  8
MAIN0
  6
CONTINUOUS
 62
3
100
AcDbLine
 10
517.8123799544055
 20
371.1159186804243
 30
0.0000000000000000
 11
523.5858826463016
 21
371.1159186804243
 31
0.0000000000000000
  0
LINE
  5
300
100
AcDbEntity
  8
MAIN0
  6
CONTINUOUS
 62
3
100
AcDbLine
 10
523.5858826463016
 20
371.1159186804243
 30
0.0000000000000000
 11
526.4726339922497
 21
376.1159186804243
 31
0.0000000000000000
  0
LINE
  5
301
100
AcDbEntity
  8
MAIN0
  6
CONTINUOUS
 62
3
100
AcDbLine
 10
526.4726339922498
 20
376.1159186804243
 30
0.0000000000000000
 11
523.5858826463016
 21
381.1159186804243
 31
0.0000000000000000
  0
LINE
  5
302
100
AcDbEntity
  8
MAIN0
  6
CONTINUOUS
 62
3
100
AcDbLine
 10
523.5858826463016
 20
381.1159186804243
 30
0.0000000000000000
 11
517.8123799544055
 21
381.1159186804243
 31
0.0000000000000000
  0
LINE
  5
303
100
AcDbEntity
  8
MAIN0
  6
CONTINUOUS
 62
3
100
AcDbLine
 10
517.8123799544055
 20
381.1159186804243
 30
0.0000000000000000
 11
514.9256286084573
 21
376.1159186804243
 31
0.0000000000000000
  0
CIRCLE
  5
304
100
AcDbEntity
  8
MAIN0
  6
CONTINUOUS
 62
3
100
AcDbCircle
 10
520.6991313003535
 20
376.1159186804243
 30
0.0000000000000000
 40
9.500000000000000
  0
CIRCLE
  5
305
100
AcDbEntity
  8
MAIN0
  6
CONTINUOUS
 62
3
100
AcDbCircle
 10
510.9342425572365
 20
305.4092816149397
 30
0.0000000000000000
 40
5.000000000000000
  0
CIRCLE
  5
306
100
AcDbEntity
  8
MAIN0
  6
CONTINUOUS
 62
3
100
AcDbCircle
 10
510.9342425572365
 20
305.4092816149397
 30
0.0000000000000000
 40
3.000000000000000
  0
CIRCLE
  5
307
100
AcDbEntity
  8
MAIN0
  6
CONTINUOUS
 62
3
100
AcDbCircle
 10
510.9342425572365
 20
305.4092816149397
 30
0.0000000000000000
 40
2.000000000000000
  0
CIRCLE
  5
308
100
AcDbEntity
  8
MAIN0
  6
CONTINUOUS
 62
3
100
AcDbCircle
 10
473.9555747705322
 20
306.1159186804241
 30
0.0000000000000000
 40
6.000000000000000
  0
CIRCLE
  5
309
100
AcDbEntity
  8
MAIN0
  6
CONTINUOUS
 62
3
100
AcDbCircle
 10
473.9555747705322
 20
306.1159186804241
 30
0.0000000000000000
 40
5.100000000000000
  0
LINE
  5
30A
100
AcDbEntity
  8
MAIN0
  6
CENTER
 62
3
100
AcDbLine
 10
628.8646720291395
 20
501.7574271443391
 30
0.0000000000000000
 11
633.7686213337981
 21
520.0592151070390
 31
0.0000000000000000
  0
CIRCLE
  5
30B
100
AcDbEntity
  8
MAIN0
  6
CONTINUOUS
 62
3
100
AcDbCircle
 10
631.4337976147585
 20
511.3455343608797
 30
0.0000000000000000
 40
6.500000000000000
  0
LINE
  5
30C
100
AcDbEntity
  8
MAIN0
  6
CENTER
 62
3
100
AcDbLine
 10
482.7071086157685
 20
441.0632182590555
 30
0.0000000000000000
 11
466.5390862397667
 21
450.3978303301042
 31
0.0000000000000000
  0
CIRCLE
  5
30D
100
AcDbEntity
  8
MAIN0
  6
CONTINUOUS
 62
3
100
AcDbCircle
 10
473.9555747705325
 20
446.1159186804247
 30
0.0000000000000000
 40
6.000000000000000
  0
CIRCLE
  5
30E
100
AcDbEntity
  8
MAIN0
  6
CONTINUOUS
 62
3
100
AcDbCircle
 10
473.9555747705325
 20
446.1159186804247
 30
0.0000000000000000
 40
5.100000000000000
  0
CIRCLE
  5
30F
100
AcDbEntity
  8
MAIN0
  6
CONTINUOUS
 62
3
100
AcDbCircle
 10
595.0203713738877
 20
235.7456998056636
 30
0.0000000000000000
 40
6.000000000000000
  0
CIRCLE
  5
310
100
AcDbEntity
  8
MAIN0
  6
CONTINUOUS
 62
3
100
AcDbCircle
 10
595.0203713738877
 20
235.7456998056636
 30
0.0000000000000000
 40
5.100000000000000
  0
LINE
  5
311
100
AcDbEntity
  8
MAIN0
  6
CENTER
 62
3
100
AcDbLine
 10
707.9913825773258
 20
310.7662619517617
 30
0.0000000000000000
 11
724.1594049533275
 21
301.4316498807130
 31
0.0000000000000000
  0
CIRCLE
  5
312
100
AcDbEntity
  8
MAIN0
  6
CONTINUOUS
 62
3
100
AcDbCircle
 10
716.7429164225616
 20
305.7135615303923
 30
0.0000000000000000
 40
6.000000000000000
  0
CIRCLE
  5
313
100
AcDbEntity
  8
MAIN0
  6
CONTINUOUS
 62
3
100
AcDbCircle
 10
716.7429164225616
 20
305.7135615303923
 30
0.0000000000000000
 40
5.100000000000000
  0
ARC
  5
314
100
AcDbEntity
  8
MAIN0
  6
CENTER
 62
3
100
AcDbCircle
 10
595.1991313003538
 20
376.1159186804239
 30
0.0000000000000000
 40
85.00000000000000
100
AcDbArc
 50
263.3224114415577
 51
275.5167126592623
  0
ARC
  5
315
100
AcDbEntity
  8
MAIN0
  6
CENTER
 62
3
100
AcDbCircle
 10
595.1991313003538
 20
376.1159186804239
 30
0.0000000000000000
 40
115.0000000000000
100
AcDbArc
 50
265.4229279292188
 51
273.6697805621744
  0
CIRCLE
  5
316
100
AcDbEntity
  8
MAIN0
  6
CONTINUOUS
 62
3
100
AcDbCircle
 10
595.1991313002384
 20
291.1159186804239
 30
0.0000000000000000
 40
5.000000000000000
  0
CIRCLE
  5
317
100
AcDbEntity
  8
MAIN0
  6
CONTINUOUS
 62
3
100
AcDbCircle
 10
595.1991313002384
 20
291.1159186804239
 30
0.0000000000000000
 40
4.250000000000000
  0
CIRCLE
  5
318
100
AcDbEntity
  8
MAIN0
  6
CONTINUOUS
 62
3
100
AcDbCircle
 10
595.1991313001976
 20
261.1159186804239
 30
0.0000000000000000
 40
5.000000000000000
  0
CIRCLE
  5
319
100
AcDbEntity
  8
MAIN0
  6
CONTINUOUS
 62
3
100
AcDbCircle
 10
595.1991313001976
 20
261.1159186804239
 30
0.0000000000000000
 40
4.250000000000000
  0
LINE
  5
31A
100
AcDbEntity
  8
MAIN0
  6
CENTER
 62
3
100
AcDbLine
 10
469.5576228364385
 20
409.7814594092100
 30
0.0000000000000000
 11
451.2558348737385
 21
414.6854087138687
 31
0.0000000000000000
  0
CIRCLE
  5
31B
100
AcDbEntity
  8
MAIN0
  6
CONTINUOUS
 62
3
100
AcDbCircle
 10
459.9695156198979
 20
412.3505849948291
 30
0.0000000000000000
 40
6.500000000000000
  0
LINE
  5
31C
100
AcDbEntity
  8
MAIN0
  6
CENTER
 62
3
100
AcDbLine
 10
561.5335905715676
 20
250.4744102165091
 30
0.0000000000000000
 11
556.6296412669090
 21
232.1726222538091
 31
0.0000000000000000
  0
CIRCLE
  5
31D
100
AcDbEntity
  8
MAIN0
  6
CONTINUOUS
 62
3
100
AcDbCircle
 10
558.9644649859486
 20
240.8863029999685
 30
0.0000000000000000
 40
6.500000000000000
  0
LINE
  5
31E
100
AcDbEntity
  8
MAIN0
  6
CENTER
 62
3
100
AcDbLine
 10
720.8406397642686
 20
342.4503779516382
 30
0.0000000000000000
 11
739.1424277269686
 21
337.5464286469795
 31
0.0000000000000000
  0
CIRCLE
  5
31F
100
AcDbEntity
  8
MAIN0
  6
CONTINUOUS
 62
3
100
AcDbCircle
 10
730.4287469808091
 20
339.8812523660191
 30
0.0000000000000000
 40
6.500000000000000
  0
LINE
  5
320
100
AcDbEntity
  8
MAIN0
  6
CONTINUOUS
 62
3
100
AcDbLine
 10
529.2991313003535
 20
398.6159186804243
 30
0.0000000000000000
 11
545.2991313003533
 21
398.6159186804243
 31
0.0000000000000000
  0
LINE
  5
321
100
AcDbEntity
  8
MAIN0
  6
CONTINUOUS
 62
3
100
AcDbLine
 10
529.2991313003535
 20
353.6159186804243
 30
0.0000000000000000
 11
545.2991313003533
 21
353.6159186804243
 31
0.0000000000000000
  0
LINE
  5
322
100
AcDbEntity
  8
MAIN0
  6
CENTER
 62
3
100
AcDbLine
 10
529.8584249491105
 20
361.1159186804243
 30
0.0000000000000000
 11
537.7335037469363
 21
361.1159186804243
 31
0.0000000000000000
  0
LINE
  5
323
100
AcDbEntity
  8
MAIN0
  6
CENTER
 62
3
100
AcDbLine
 10
529.8584249491105
 20
391.1159186804243
 30
0.0000000000000000
 11
537.7335037469363
 21
391.1159186804243
 31
0.0000000000000000
  0
LINE
  5
324
100
AcDbEntity
  8
MAIN0
  6
CONTINUOUS
 62
3
100
AcDbLine
 10
545.2991313003533
 20
396.1159186804243
 30
0.0000000000000000
 11
545.2991313003533
 21
398.6159186804243
 31
0.0000000000000000
  0
LINE
  5
325
100
AcDbEntity
  8
MAIN0
  6
CONTINUOUS
 62
3
100
AcDbLine
 10
545.2991313003533
 20
353.6159186804243
 30
0.0000000000000000
 11
545.2991313003533
 21
356.1159186804243
 31
0.0000000000000000
  0
LINE
  5
326
100
AcDbEntity
  8
MAIN0
  6
HIDDEN
 62
3
100
AcDbLine
 10
545.2991313003533
 20
356.1159186804243
 30
0.0000000000000000
 11
545.2991313003533
 21
396.1159186804243
 31
0.0000000000000000
  0
LINE
  5
327
100
AcDbEntity
  8
MAIN0
  6
CENTER
 62
3
100
AcDbLine
 10
533.6991313003534
 20
357.5856897324075
 30
0.0000000000000000
 11
533.6991313003534
 21
364.5627325583745
 31
0.0000000000000000
  0
LINE
  5
328
100
AcDbEntity
  8
MAIN0
  6
CENTER
 62
3
100
AcDbLine
 10
533.6991313003534
 20
386.7372938372005
 30
0.0000000000000000
 11
533.6991313003534
 21
394.9577707816823
 31
0.0000000000000000
  0
LINE
  5
329
100
AcDbEntity
  8
MAIN0
  6
CONTINUOUS
 62
3
100
AcDbLine
 10
529.2991313003535
 20
353.6159186804242
 30
0.0000000000000000
 11
529.2991313003535
 21
356.1159186804243
 31
0.0000000000000000
  0
LINE
  5
32A
100
AcDbEntity
  8
MAIN0
  6
CONTINUOUS
 62
3
100
AcDbLine
 10
529.2991313003535
 20
396.1159186804243
 30
0.0000000000000000
 11
529.2991313003535
 21
398.6159186804243
 31
0.0000000000000000
  0
LINE
  5
32B
100
AcDbEntity
  8
MAIN0
  6
CENTER
 62
3
100
AcDbLine
 10
490.6991313003535
 20
361.0190728769119
 30
0.0000000000000000
 11
490.6991313003535
 21
390.5368467926412
 31
0.0000000000000000
  0
LINE
  5
32C
100
AcDbEntity
  8
MAIN0
  6
CENTER
 62
3
100
AcDbLine
 10
520.6991313003534
 20
361.0190728769119
 30
0.0000000000000000
 11
520.6991313003534
 21
390.5368467926412
 31
0.0000000000000000
  0
LINE
  5
32D
100
AcDbEntity
  8
MAIN0
  6
HIDDEN
 62
3
100
AcDbLine
 10
471.6133817173210
 20
346.8659186804243
 30
0.0000000000000000
 11
531.9324611490860
 21
346.8659186804243
 31
0.0000000000000000
  0
LINE
  5
32E
100
AcDbEntity
  8
MAIN0
  6
HIDDEN
 62
3
100
AcDbLine
 10
471.6133817173211
 20
405.3659186804243
 30
0.0000000000000000
 11
531.9324611490860
 21
405.3659186804243
 31
0.0000000000000000
  0
LINE
  5
32F
100
AcDbEntity
  8
MAIN0
  6
CENTER
 62
3
100
AcDbLine
 10
660.5398376515968
 20
391.1159186804242
 30
0.0000000000000000
 11
652.6647588537709
 21
391.1159186804242
 31
0.0000000000000000
  0
LINE
  5
330
100
AcDbEntity
  8
MAIN0
  6
CENTER
 62
3
100
AcDbLine
 10
660.5398376515968
 20
361.1159186804242
 30
0.0000000000000000
 11
652.6647588537709
 21
361.1159186804242
 31
0.0000000000000000
  0
CIRCLE
  5
331
100
AcDbEntity
  8
MAIN0
  6
HIDDEN
 62
3
100
AcDbCircle
 10
656.6991313003535
 20
361.1159186804242
 30
0.0000000000000000
 40
3.000000000000000
  0
LINE
  5
332
100
AcDbEntity
  8
MAIN0
  6
HIDDEN
 62
3
100
AcDbLine
 10
657.9365681674301
 20
359.8784818133477
 30
0.0000000000000000
 11
655.4616944332772
 21
362.3533555475007
 31
0.0000000000000000
  0
LINE
  5
333
100
AcDbEntity
  8
MAIN0
  6
HIDDEN
 62
3
100
AcDbLine
 10
655.4616944332772
 20
359.8784818133477
 30
0.0000000000000000
 11
657.9365681674300
 21
362.3533555475007
 31
0.0000000000000000
  0
LINE
  5
334
100
AcDbEntity
  8
MAIN0
  6
CENTER
 62
3
100
AcDbLine
 10
656.6991313003538
 20
394.6461476284410
 30
0.0000000000000000
 11
656.6991313003538
 21
387.6691048024740
 31
0.0000000000000000
  0
LINE
  5
335
100
AcDbEntity
  8
MAIN0
  6
CENTER
 62
3
100
AcDbLine
 10
656.6991313003538
 20
365.4945435236480
 30
0.0000000000000000
 11
656.6991313003538
 21
357.2740665791662
 31
0.0000000000000000
  0
CIRCLE
  5
336
100
AcDbEntity
  8
MAIN0
  6
CONTINUOUS
 62
3
100
AcDbCircle
 10
735.1991313003535
 20
376.1159186802339
 30
0.0000000000000000
 40
5.000000000000000
  0
ARC
  5
337
100
AcDbEntity
  8
MAIN0
  6
CONTINUOUS
 62
3
100
AcDbCircle
 10
595.1991313003534
 20
376.1159186804241
 30
0.0000000000000000
 40
127.0000000000000
100
AcDbArc
 50
189.0606748312042
 51
350.9393251687634
  0
ARC
  5
338
100
AcDbEntity
  8
MAIN0
  6
CONTINUOUS
 62
3
100
AcDbCircle
 10
595.1991313003534
 20
376.1159186804241
 30
0.0000000000000000
 40
127.0000000000000
100
AcDbArc
 50
9.060674831171825
 51
170.9393251687957
  0
LINE
  5
339
100
AcDbEntity
  8
MAIN0
  6
CENTER
 62
3
100
AcDbLine
 10
636.8178795260642
 20
326.2874593157321
 30
0.0000000000000000
 11
697.3835700906678
 21
253.7745851940511
 31
0.0000000000000000
  0
LINE
  5
33A
100
AcDbEntity
  8
MAIN0
  6
CENTER
 62
3
100
AcDbLine
 10
625.0714761265214
 20
294.6181481191670
 30
0.0000000000000000
 11
647.6152304325262
 21
233.1142478826272
 31
0.0000000000000000
  0
CIRCLE
  5
33B
100
AcDbEntity
  8
MAIN0
  6
PHANTOM
 62
3
100
AcDbCircle
 10
640.7135291420943
 20
321.6233541499855
 30
0.0000000000000000
 40
2.500000000000000
  0
ARC
  5
33C
100
AcDbEntity
  8
MAIN0
  6
CENTER
 62
3
100
AcDbCircle
 10
595.1991313003537
 20
376.1159186804242
 30
0.0000000000000000
 40
95.00000000000000
100
AcDbArc
 50
281.2708060757943
 51
295.0004375688422
  0
ARC
  5
33D
100
AcDbEntity
  8
MAIN0
  6
CENTER
 62
3
100
AcDbCircle
 10
595.1991313003537
 20
376.1159186804242
 30
0.0000000000000000
 40
95.00000000000000
100
AcDbArc
 50
305.0509666155753
 51
315.9469764217104
  0
LEADER
  5
33E
100
AcDbEntity
  8
MAIN0
  6
CONTINUOUS
 62
3
100
AcDbLeader
  3
MAIN001
 73
     0
 75
     1
 40
4.649999856948853
 41
28.72400085830680
 76
     3
 10
640.3751565594187
 20
238.0454642952624
 30
0.0000000000000000
 10
606.4085350200319
 20
179.5250846097572
 30
0.0000000000000000
 10
603.5185351037168
 20
179.5250846097572
 30
0.0000000000000000
340
33F
213
0.0000000000000000
223
-0.7500000000000000
233
0.0000000000000000
1001
ACAD
1000
DSTYLE
1002
{
1070
   147
1040
0.0
1070
    77
1070
     1
1070
   173
1070
     1
1070
     6
1000
_OPEN
1070
     7
1000
_OPEN
1002
}
  0
MTEXT
  5
33F
102
{ACAD_REACTORS
330
33E
102
}
100
AcDbEntity
  8
MAIN0
  6
CONTINUOUS
 62
3
100
AcDbMText
 10
574.7945342454100
 20
180.2750846097572
 30
0.0000000000000000
 40
4.649999856948853
 41
0.0000000000000000
 71
     7
 72
     1
  1
{\H0.92x;{2-Rc1/4}}
 11
1.000000000000000
 21
0.0000000000000000
 31
0.0000000000000000
  7
STANDARD
  0
LEADER
  5
340
100
AcDbEntity
  8
MAIN0
  6
CONTINUOUS
 62
3
100
AcDbLeader
  3
MAIN001
 73
     0
 74
     0
 75
     1
 40
4.649999856948853
 41
40.80100002682218
 76
     3
 10
597.7047660739574
 20
495.4427875693655
 30
0.0000000000000000
 10
639.6192361396156
 20
567.8230156985767
 30
0.0000000000000000
 10
642.2972360606245
 20
567.8230156985767
 30
0.0000000000000000
340
341
213
-0.001000000000090040
223
-0.7500000000000000
233
0.0000000000000000
1001
ACAD
1000
DSTYLE
1002
{
1070
   147
1040
0.0
1070
    77
1070
     1
1070
   173
1070
     1
1070
     6
1000
_OPEN
1070
     7
1000
_OPEN
1002
}
  0
MTEXT
  5
341
102
{ACAD_REACTORS
330
340
102
}
100
AcDbEntity
  8
MAIN0
  6
CONTINUOUS
 62
3
100
AcDbMText
 10
642.2982360606246
 20
573.2230155555255
 30
0.0000000000000000
 40
4.649999856948853
 41
0.0000000000000000
 71
     1
 72
     1
  1
{\H0.71x;{4-M10 深18\P4-M10 DEPTH18}}
 11
1.000000000000000
 21
0.0000000000000000
 31
0.0000000000000000
  7
KNJYOKO
  0
LEADER
  5
342
100
AcDbEntity
  8
MAIN0
  6
CONTINUOUS
 62
3
100
AcDbLeader
  3
MAIN001
 73
     0
 74
     0
 75
     1
 40
4.649999856948853
 41
16.35100000894067
 76
     3
 10
635.9830757481759
 20
515.9881703001721
 30
0.0000000000000000
 10
666.6585584086338
 20
547.2931584934532
 30
0.0000000000000000
 10
669.3365583296427
 20
547.2931584934532
 30
0.0000000000000000
340
343
213
-0.001000000000090040
223
-0.7500000000000000
233
0.0000000000000000
1001
ACAD
1000
DSTYLE
1002
{
1070
   147
1040
0.0
1070
    77
1070
     1
1070
   173
1070
     1
1070
     6
1000
_OPEN
1070
     7
1000
_OPEN
1002
}
  0
MTEXT
  5
343
102
{ACAD_REACTORS
330
342
102
}
100
AcDbEntity
  8
MAIN0
  6
CONTINUOUS
 62
3
100
AcDbMText
 10
669.3375583296428
 20
552.6931583504021
 30
0.0000000000000000
 40
4.649999856948853
 41
0.0000000000000000
 71
     1
 72
     1
  1
{\H0.70x;{4-\U+220513}}
 11
1.000000000000000
 21
0.0000000000000000
 31
0.0000000000000000
  7
STANDARD
  0
LEADER
  5
344
100
AcDbEntity
  8
MAIN0
  6
CONTINUOUS
 62
3
100
AcDbLeader
  3
MAIN001
 73
     0
 75
     1
 40
4.649999856948853
 41
15.59900000894061
 76
     3
 10
591.1391159853954
 20
520.5336415828140
 30
0.0000000000000000
 10
569.7676314309647
 20
543.7880604581460
 30
0.0000000000000000
 10
567.0876315099557
 20
543.7880604581460
 30
0.0000000000000000
340
345
213
0.0000000000000000
223
-0.7500000000000000
233
0.0000000000000000
1001
ACAD
1000
DSTYLE
1002
{
1070
   147
1040
0.0
1070
    77
1070
     1
1070
   173
1070
     1
1070
     6
1000
_OPEN
1070
     7
1000
_OPEN
1002
}
  0
MTEXT
  5
345
102
{ACAD_REACTORS
330
344
102
}
100
AcDbEntity
  8
MAIN0
  6
CONTINUOUS
 62
3
100
AcDbMText
 10
551.4886315010151
 20
549.1880603150948
 30
0.0000000000000000
 40
4.649999856948853
 41
0.0000000000000000
 71
     1
 72
     1
  1
{\H0.70x;{6-M12}}
 11
1.000000000000000
 21
0.0000000000000000
 31
0.0000000000000000
  7
STANDARD
  0
LEADER
  5
346
100
AcDbEntity
  8
MAIN0
  6
CONTINUOUS
 62
3
100
AcDbLeader
  3
MAIN001
 73
     0
 74
     0
 75
     1
 40
4.649999856948853
 41
22.65100001341114
 76
     3
 10
738.5008830689058
 20
379.8707069910262
 30
0.0000000000000000
 10
772.7700854579313
 20
408.4471834051208
 30
0.0000000000000000
 10
775.4480853789402
 20
408.4471834051208
 30
0.0000000000000000
340
347
213
-0.001000000000090040
223
-0.7500000000000000
233
0.0000000000000000
1001
ACAD
1000
DSTYLE
1002
{
1070
   147
1040
0.0
1070
    77
1070
     1
1070
   173
1070
     1
1070
     6
1000
_OPEN
1070
     7
1000
_OPEN
1002
}
  0
MTEXT
  5
347
102
{ACAD_REACTORS
330
346
102
}
100
AcDbEntity
  8
MAIN0
  6
CONTINUOUS
 62
3
100
AcDbMText
 10
775.4490853789403
 20
413.8471832620697
 30
0.0000000000000000
 40
4.649999856948853
 41
0.0000000000000000
 71
     1
 72
     1
  1
{\H0.70x;{2-\U+220510H7}}
 11
1.000000000000000
 21
0.0000000000000000
 31
0.0000000000000000
  7
STANDARD
  0
LEADER
  5
348
100
AcDbEntity
  8
MAIN0
  6
CONTINUOUS
 62
3
100
AcDbLeader
  3
MAIN001
 73
     0
 74
     0
 75
     1
 40
4.649999856948853
 41
21.90100001341114
 76
     3
 10
661.1271077738156
 20
303.1592027270200
 30
0.0000000000000000
 10
752.8783367183888
 20
275.7585203222354
 30
0.0000000000000000
 10
755.5563366393977
 20
275.7585203222354
 30
0.0000000000000000
340
349
213
-0.001000000000090040
223
-0.7500000000000000
233
0.0000000000000000
1001
ACAD
1000
DSTYLE
1002
{
1070
   147
1040
0.0
1070
    77
1070
     1
1070
   173
1070
     1
1070
     6
1000
_OPEN
1070
     7
1000
_OPEN
1002
}
  0
MTEXT
  5
349
102
{ACAD_REACTORS
330
348
102
}
100
AcDbEntity
  8
MAIN0
  6
CONTINUOUS
 62
3
100
AcDbMText
 10
755.5573366393978
 20
281.1585201791843
 30
0.0000000000000000
 40
4.649999856948853
 41
0.0000000000000000
 71
     1
 72
     1
  1
{\H0.70x;{2-Rc1/8}}
 11
1.000000000000000
 21
0.0000000000000000
 31
0.0000000000000000
  7
STANDARD
  0
CIRCLE
  5
34A
100
AcDbEntity
  8
MAIN0
  6
HIDDEN
 62
3
100
AcDbCircle
 10
656.6991313003537
 20
391.1159186804241
 30
0.0000000000000000
 40
3.000000000000000
  0
LINE
  5
34B
100
AcDbEntity
  8
MAIN0
  6
HIDDEN
 62
3
100
AcDbLine
 10
655.4616944332772
 20
392.3533555475006
 30
0.0000000000000000
 11
657.9365681674301
 21
389.8784818133476
 31
0.0000000000000000
  0
LINE
  5
34C
100
AcDbEntity
  8
MAIN0
  6
HIDDEN
 62
3
100
AcDbLine
 10
657.9365681674301
 20
392.3533555475005
 30
0.0000000000000000
 11
655.4616944332772
 21
389.8784818133476
 31
0.0000000000000000
  0
LINE
  5
34D
100
AcDbEntity
  8
MAIN0
  6
HIDDEN
 62
3
100
AcDbLine
 10
534.9365681674301
 20
359.8784818133479
 30
0.0000000000000000
 11
532.4616944332772
 21
362.3533555475009
 31
0.0000000000000000
  0
LINE
  5
34E
100
AcDbEntity
  8
MAIN0
  6
HIDDEN
 62
3
100
AcDbLine
 10
532.4616944332772
 20
359.8784818133479
 30
0.0000000000000000
 11
534.9365681674300
 21
362.3533555475009
 31
0.0000000000000000
  0
CIRCLE
  5
34F
100
AcDbEntity
  8
MAIN0
  6
HIDDEN
 62
3
100
AcDbCircle
 10
533.6991313003535
 20
361.1159186804244
 30
0.0000000000000000
 40
3.000000000000000
  0
ARC
  5
350
100
AcDbEntity
  8
MAIN0
  6
CENTER
 62
3
100
AcDbCircle
 10
595.1991313003534
 20
376.1159186804240
 30
0.0000000000000000
 40
71.00000000000205
100
AcDbArc
 50
305.4314903090315
 51
314.3085096911325
  0
LINE
  5
351
100
AcDbEntity
  8
MAIN0
  6
CENTER
 62
3
100
AcDbLine
 10
595.1991313001397
 20
214.7352909069818
 30
0.0000000000000000
 11
595.1991313003765
 21
556.7706032317639
 31
0.0000000000000000
  0
LINE
  5
352
100
AcDbEntity
  8
MAIN0
  6
CENTER
 62
3
100
AcDbLine
 10
640.1232066997717
 20
407.5720949221980
 30
0.0000000000000000
 11
655.0618551072325
 21
418.0322491477665
 31
0.0000000000000000
  0
ARC
  5
353
100
AcDbEntity
  8
MAIN0
  6
CENTER
 62
3
100
AcDbCircle
 10
595.1991313003534
 20
376.1159186804239
 30
0.0000000000000000
 40
63.75000000000000
100
AcDbArc
 50
318.6026425181658
 51
331.1775891567415
  0
CIRCLE
  5
354
100
AcDbEntity
  8
MAIN0
  6
CONTINUOUS
 62
3
100
AcDbCircle
 10
647.4200741237271
 20
339.5504208629738
 30
0.0000000000000000
 40
4.250000000000000
  0
LINE
  5
355
100
AcDbEntity
  8
MAIN0
  6
CONTINUOUS
 62
3
100
AcDbLine
 10
647.2187965575736
 20
337.2498077545401
 30
0.0000000000000000
 11
645.3270459444673
 21
338.5744257942577
 31
0.0000000000000000
  0
LINE
  5
356
100
AcDbEntity
  8
MAIN0
  6
CONTINUOUS
 62
3
100
AcDbLine
 10
645.3270459444674
 20
338.5744257942577
 30
0.0000000000000000
 11
645.5283235106208
 21
340.8750389026913
 31
0.0000000000000000
  0
LINE
  5
357
100
AcDbEntity
  8
MAIN0
  6
CONTINUOUS
 62
3
100
AcDbLine
 10
645.5283235106208
 20
340.8750389026913
 30
0.0000000000000000
 11
647.6213516898804
 21
341.8510339714074
 31
0.0000000000000000
  0
LINE
  5
358
100
AcDbEntity
  8
MAIN0
  6
CONTINUOUS
 62
3
100
AcDbLine
 10
647.6213516898804
 20
341.8510339714075
 30
0.0000000000000000
 11
649.5131023029867
 21
340.5264159316898
 31
0.0000000000000000
  0
LINE
  5
359
100
AcDbEntity
  8
MAIN0
  6
CONTINUOUS
 62
3
100
AcDbLine
 10
649.5131023029868
 20
340.5264159316898
 30
0.0000000000000000
 11
649.3118247368334
 21
338.2258028232562
 31
0.0000000000000000
  0
LINE
  5
35A
100
AcDbEntity
  8
MAIN0
  6
CONTINUOUS
 62
3
100
AcDbLine
 10
649.3118247368334
 20
338.2258028232562
 30
0.0000000000000000
 11
647.2187965575737
 21
337.2498077545401
 31
0.0000000000000000
  0
LINE
  5
35B
100
AcDbEntity
  8
MAIN0
  6
CENTER
 62
3
100
AcDbLine
 10
640.1232066996862
 20
344.6597424385280
 30
0.0000000000000000
 11
655.0618551071186
 21
334.1995882129189
 31
0.0000000000000000
  0
ARC
  5
35C
100
AcDbEntity
  8
MAIN0
  6
CENTER
 62
3
100
AcDbCircle
 10
595.1991313001494
 20
376.1159186804239
 30
0.0000000000000000
 40
63.75000000000000
100
AcDbArc
 50
208.8224108431791
 51
221.3973574817549
  0
CIRCLE
  5
35D
100
AcDbEntity
  8
MAIN0
  6
CONTINUOUS
 62
3
100
AcDbCircle
 10
542.9781884767251
 20
339.5504208630461
 30
0.0000000000000000
 40
4.250000000000000
  0
LINE
  5
35E
100
AcDbEntity
  8
MAIN0
  6
CONTINUOUS
 62
3
100
AcDbLine
 10
543.1794660428753
 20
337.2498077546122
 30
0.0000000000000000
 11
545.0712166559836
 21
338.5744257943271
 31
0.0000000000000000
  0
LINE
  5
35F
100
AcDbEntity
  8
MAIN0
  6
CONTINUOUS
 62
3
100
AcDbLine
 10
545.0712166559835
 20
338.5744257943271
 30
0.0000000000000000
 11
544.8699390898332
 21
340.8750389027610
 31
0.0000000000000000
  0
LINE
  5
360
100
AcDbEntity
  8
MAIN0
  6
CONTINUOUS
 62
3
100
AcDbLine
 10
544.8699390898333
 20
340.8750389027610
 30
0.0000000000000000
 11
542.7769109105750
 21
341.8510339714800
 31
0.0000000000000000
  0
LINE
  5
361
100
AcDbEntity
  8
MAIN0
  6
CONTINUOUS
 62
3
100
AcDbLine
 10
542.7769109105750
 20
341.8510339714800
 30
0.0000000000000000
 11
540.8851602974668
 21
340.5264159317651
 31
0.0000000000000000
  0
LINE
  5
362
100
AcDbEntity
  8
MAIN0
  6
CONTINUOUS
 62
3
100
AcDbLine
 10
540.8851602974668
 20
340.5264159317650
 30
0.0000000000000000
 11
541.0864378636170
 21
338.2258028233312
 31
0.0000000000000000
  0
LINE
  5
363
100
AcDbEntity
  8
MAIN0
  6
CONTINUOUS
 62
3
100
AcDbLine
 10
541.0864378636170
 20
338.2258028233312
 30
0.0000000000000000
 11
543.1794660428753
 21
337.2498077546122
 31
0.0000000000000000
  0
LINE
  5
364
100
AcDbEntity
  8
MAIN0
  6
CENTER
 62
3
100
AcDbLine
 10
550.2750559007731
 20
344.6597424385902
 30
0.0000000000000000
 11
535.3364074933262
 21
334.1995882130018
 31
0.0000000000000000
  0
ARC
  5
365
100
AcDbEntity
  8
MAIN0
  6
CENTER
 62
3
100
AcDbCircle
 10
595.1991313001494
 20
376.1159186804241
 30
0.0000000000000000
 40
63.75000000000000
100
AcDbArc
 50
138.6026425180895
 51
151.1775891566653
  0
CIRCLE
  5
366
100
AcDbEntity
  8
MAIN0
  6
CONTINUOUS
 62
3
100
AcDbCircle
 10
542.9781884768245
 20
412.6814164979438
 30
0.0000000000000000
 40
4.250000000000000
  0
LINE
  5
367
100
AcDbEntity
  8
MAIN0
  6
CONTINUOUS
 62
3
100
AcDbLine
 10
543.1794660429810
 20
414.9820296063772
 30
0.0000000000000000
 11
545.0712166560855
 21
413.6574115666571
 31
0.0000000000000000
  0
LINE
  5
368
100
AcDbEntity
  8
MAIN0
  6
CONTINUOUS
 62
3
100
AcDbLine
 10
545.0712166560854
 20
413.6574115666571
 30
0.0000000000000000
 11
544.8699390899291
 21
411.3567984582238
 31
0.0000000000000000
  0
LINE
  5
369
100
AcDbEntity
  8
MAIN0
  6
CONTINUOUS
 62
3
100
AcDbLine
 10
544.8699390899292
 20
411.3567984582238
 30
0.0000000000000000
 11
542.7769109106681
 21
410.3808033895105
 31
0.0000000000000000
  0
LINE
  5
36A
100
AcDbEntity
  8
MAIN0
  6
CONTINUOUS
 62
3
100
AcDbLine
 10
542.7769109106680
 20
410.3808033895104
 30
0.0000000000000000
 11
540.8851602975635
 21
411.7054214292305
 31
0.0000000000000000
  0
LINE
  5
36B
100
AcDbEntity
  8
MAIN0
  6
CONTINUOUS
 62
3
100
AcDbLine
 10
540.8851602975635
 20
411.7054214292305
 30
0.0000000000000000
 11
541.0864378637199
 21
414.0060345376638
 31
0.0000000000000000
  0
LINE
  5
36C
100
AcDbEntity
  8
MAIN0
  6
CONTINUOUS
 62
3
100
AcDbLine
 10
541.0864378637200
 20
414.0060345376638
 30
0.0000000000000000
 11
543.1794660429810
 21
414.9820296063772
 31
0.0000000000000000
  0
LINE
  5
36D
100
AcDbEntity
  8
MAIN0
  6
CENTER
 62
3
100
AcDbLine
 10
550.2750559008584
 20
407.5720949223799
 30
0.0000000000000000
 11
535.3364074934400
 21
418.0322491480088
 31
0.0000000000000000
  0
DIMENSION
  5
376
100
AcDbEntity
  8
MAIN0
  6
CONTINUOUS
 62
3
100
AcDbDimension
  2
*D31
 10
660.3309649996004
 20
216.3042735232018
 30
0.0000000000000000
 11
680.4325619885346
 21
228.4872862250940
 31
0.0000000000000000
 70
33
  3
MAIN001
100
AcDbAlignedDimension
 13
691.9324116465041
 23
255.5689623380872
 33
0.0000000000000000
 14
651.2292176686356
 24
232.0689623380873
 34
0.0000000000000000
 50
29.99999999999996
1001
ACAD
1000
DSTYLE
1002
{
1070
   173
1070
     1
1070
     6
1000
_OPEN
1070
     7
1000
_OPEN
1070
    41
1040
3.000000
1002
}
  0
DIMENSION
  5
380
100
AcDbEntity
  8
MAIN0
  6
CONTINUOUS
 62
3
100
AcDbDimension
  2
*D32
 10
459.2651943539090
 20
297.6344235923887
 30
0.0000000000000000
 11
505.4538772751202
 21
239.5715045346532
 31
0.0000000000000000
 70
160
  3
MAIN001
100
AcDbAlignedDimension
 13
634.3081151489760
 23
228.3771716222195
 33
0.0000000000000000
 14
216.8878810911635
 24
157.6978165346843
 34
0.0000000000000000
 50
120.0000000000000
100
AcDbRotatedDimension
1001
ACAD
1000
DSTYLE
1002
{
1070
    73
1070
     1
1070
    74
1070
     1
1070
   287
1070
     4
1070
   173
1070
     1
1070
     6
1000
_OPEN
1070
     7
1000
_OPEN
1070
    41
1040
3.000000
1002
}
  0
DIMENSION
  5
386
100
AcDbEntity
  8
MAIN0
  6
CONTINUOUS
 62
3
100
AcDbDimension
  2
*D33
 10
595.1991313003535
 20
376.1159186804240
 30
0.0000000000000000
 11
601.1681539128674
 21
418.1976340571918
 31
0.0000000000000000
 70
164
  3
MAIN001
100
AcDbRadialDimension
 15
608.1255454111861
 25
460.1272739738322
 35
0.0000000000000000
1001
ACAD
1000
DSTYLE
1002
{
1070
   173
1070
     1
1070
     6
1000
_OPEN
1070
     7
1000
_OPEN
1070
    41
1040
3.000000
1070
   340
1005
387
1002
}
  0
DIMENSION
  5
38E
100
AcDbEntity
  8
MAIN0
  6
CONTINUOUS
 62
3
100
AcDbDimension
  2
*D34
 10
608.1255454111861
 20
460.1272739738322
 30
0.0000000000000000
 11
609.9124928701954
 21
475.0288449909680
 31
0.0000000000000000
 70
33
  3
MAIN001
100
AcDbAlignedDimension
 13
612.6878092150093
 23
489.7783405479763
 33
0.0000000000000000
 14
608.1255454111862
 24
460.1272739738323
 34
0.0000000000000000
 50
81.25277828591405
1001
ACAD
1000
DSTYLE
1002
{
1070
   173
1070
     1
1070
     6
1000
_OPEN
1070
     7
1000
_OPEN
1070
    41
1040
3.000000
1002
}
  0
DIMENSION
  5
397
100
AcDbEntity
  8
MAIN0
  6
CONTINUOUS
 62
3
100
AcDbDimension
  2
*D35
 10
621.4717373111319
 20
297.6104302225166
 30
0.0000000000000000
 11
635.5111564735752
 21
306.2934429244089
 31
0.0000000000000000
 70
33
  3
MAIN001
100
AcDbAlignedDimension
 13
656.2666169042393
 23
303.3439309240132
 33
0.0000000000000000
 14
627.6877785793528
 24
286.8439309240132
 34
0.0000000000000000
 50
29.99999999999985
1001
ACAD
1000
DSTYLE
1002
{
1070
   173
1070
     1
1070
     6
1000
_OPEN
1070
     7
1000
_OPEN
1070
    41
1040
3.000000
1002
}
  0
DIMENSION
  5
39D
100
AcDbEntity
  8
MAIN0
  6
CONTINUOUS
 62
3
100
AcDbDimension
  2
*D36
 10
595.1991313003537
 20
376.1159186804242
 30
0.0000000000000000
 11
605.3886814754330
 21
329.7190107314073
 31
0.0000000000000000
 70
164
  3
MAIN001
100
AcDbRadialDimension
 15
616.5526426199299
 25
283.5468765857544
 35
0.0000000000000000
1001
ACAD
1000
DSTYLE
1002
{
1070
   173
1070
     1
1070
     6
1000
_OPEN
1070
     7
1000
_OPEN
1070
    41
1040
3.000000
1070
   340
1005
387
1002
}
  0
DIMENSION
  5
3A5
100
AcDbEntity
  8
MAIN0
  6
CONTINUOUS
 62
3
100
AcDbDimension
  2
*D37
 10
767.6655095533365
 20
376.1159186804239
 30
0.0000000000000000
 11
765.6943133483344
 21
353.6698021371561
 31
0.0000000000000000
 70
162
  3
MAIN001
100
AcDb2LineAngularDimension
 13
739.1424277269686
 23
337.5464286469795
 33
0.0000000000000000
 14
738.1765019006796
 24
337.8052476920824
 34
0.0000000000000000
 15
595.1991313003555
 25
376.1159186804239
 35
0.0000000000000000
 16
766.1900357790212
 26
353.6045390410461
 36
0.0000000000000000
1001
ACAD
1000
DSTYLE
1002
{
1070
   173
1070
     1
1070
     6
1000
_OPEN
1070
     7
1000
_OPEN
1070
    41
1040
3.000000
1002
}
  0
DIMENSION
  5
3AC
100
AcDbEntity
  8
MAIN0
  6
CONTINUOUS
 62
3
100
AcDbDimension
  2
*D38
 10
744.5593961661327
 20
462.3491078069153
 30
0.0000000000000000
 11
761.3058973083045
 21
420.6240924895998
 31
0.0000000000000000
 70
162
  3
MAIN001
100
AcDb2LineAngularDimension
 13
767.6655095533365
 23
376.1159186804239
 33
0.0000000000000000
 14
595.1991313003555
 24
376.1159186804239
 34
0.0000000000000000
 15
595.1991313003555
 25
376.1159186804239
 35
0.0000000000000000
 16
761.7888602214491
 26
420.7535020121511
 36
0.0000000000000000
1001
ACAD
1000
DSTYLE
1002
{
1070
   173
1070
     1
1070
     6
1000
_OPEN
1070
     7
1000
_OPEN
1070
    41
1040
3.000000
1002
}
  0
DIMENSION
  5
3B3
100
AcDbEntity
  8
MAIN0
  6
CONTINUOUS
 62
3
100
AcDbDimension
  2
*D39
 10
595.1991313003756
 20
548.5822969334050
 30
0.0000000000000000
 11
681.6823204268543
 21
525.9091962480891
 31
0.0000000000000000
 70
162
  3
MAIN001
100
AcDb2LineAngularDimension
 13
744.5593961661327
 23
462.3491078069153
 33
0.0000000000000000
 14
595.1991313003555
 24
376.1159186804239
 34
0.0000000000000000
 15
595.1991313003555
 25
376.1159186804239
 35
0.0000000000000000
 16
681.4323204268543
 26
525.4761835461968
 36
0.0000000000000000
1001
ACAD
1000
DSTYLE
1002
{
1070
   173
1070
     1
1070
     6
1000
_OPEN
1070
     7
1000
_OPEN
1070
    41
1040
3.000000
1002
}
  0
DIMENSION
  5
3BA
100
AcDbEntity
  8
MAIN0
  6
CONTINUOUS
 62
3
100
AcDbDimension
  2
*D40
 10
625.5311052524655
 20
323.5793987015104
 30
0.0000000000000000
 11
617.5712521497017
 21
320.2662200588147
 31
0.0000000000000000
 70
162
  3
MAIN001
100
AcDb2LineAngularDimension
 13
595.1991313002093
 23
315.4519707761727
 33
0.0000000000000000
 14
595.1991313002513
 24
376.1159186806009
 34
0.0000000000000000
 15
622.0153420447774
 25
329.6688792046075
 35
0.0000000000000000
 16
610.9001163690043
 26
317.5190446750538
 36
0.0000000000000000
1001
ACAD
1000
DSTYLE
1002
{
1070
   173
1070
     1
1070
     6
1000
_OPEN
1070
     7
1000
_OPEN
1070
    41
1040
3.000000
1002
}
  0
LINE
  5
3BB
100
AcDbEntity
  8
MAIN0
  6
CENTER
 62
3
100
AcDbLine
 10
699.9745359727267
 20
436.6080267724707
 30
0.0000000000000000
 11
725.9014066980529
 21
451.5769125649824
 31
0.0000000000000000
  0
LINE
  5
3BC
100
AcDbEntity
  8
MAIN0
  6
CONTINUOUS
 62
3
100
AcDbLine
 10
729.0226860245871
 20
453.3789840243729
 30
0.0000000000000000
 11
751.5708601833409
 21
466.3971784446640
 31
0.0000000000000000
  0
LINE
  5
3BD
100
AcDbEntity
  8
MAIN0
  6
CONTINUOUS
 62
3
100
AcDbLine
 10
487.1418237769977
 20
313.7290030939085
 30
0.0000000000000000
 11
595.1991313003534
 21
376.1159186804240
 31
0.0000000000000000
  0
LINE
  5
3BE
100
AcDbEntity
  8
MAIN0
  6
CONTINUOUS
 62
3
100
AcDbLine
 10
439.2880257557189
 20
286.1005999245772
 30
0.0000000000000000
 11
463.2889258732971
 21
299.9575260682543
 31
0.0000000000000000
  0
LINE
  5
3BF
100
AcDbEntity
  8
MAIN0
  6
CENTER
 62
3
100
AcDbLine
 10
465.1991713996740
 20
301.0604068371263
 30
0.0000000000000000
 11
484.0205311143635
 21
311.9269239349170
 31
0.0000000000000000
  0
CIRCLE
  5
3C0
100
AcDbEntity
  8
MAIN0
  6
CONTINUOUS
 62
3
100
AcDbCircle
 10
455.1991313003535
 20
376.1159186806141
 30
0.0000000000000000
 40
5.000000000000000
  0
ARC
  5
3C1
100
AcDbEntity
  8
MAIN0
  6
HIDDEN
 62
3
100
AcDbCircle
 10
595.1991313003534
 20
376.1159186804241
 30
0.0000000000000000
 40
25.00000000000000
100
AcDbArc
 50
168.5216590454664
 51
178.1852627412053
  0
ARC
  5
3C2
100
AcDbEntity
  8
MAIN0
  6
HIDDEN
 62
3
100
AcDbCircle
 10
595.1991313003534
 20
376.1159186804241
 30
0.0000000000000000
 40
25.00000000000000
100
AcDbArc
 50
180.3495782112992
 51
191.4783409545335
  0
ARC
  5
3C3
100
AcDbEntity
  8
MAIN0
  6
CONTINUOUS
 62
3
100
AcDbCircle
 10
595.1991313003534
 20
376.1159186804241
 30
0.0000000000000000
 40
25.00000000000000
100
AcDbArc
 50
191.4783409545335
 51
528.5216590454664
  0
LINE
  5
3C4
100
AcDbEntity
  8
MAIN0
  6
CENTER
 62
3
100
AcDbLine
 10
430.9598773014623
 20
376.1159186806471
 30
0.0000000000000000
 11
547.4887624771168
 21
376.1159186804888
 31
0.0000000000000000
  0
LINE
  5
3C5
100
AcDbEntity
  8
MAIN0
  6
CENTER
 62
3
100
AcDbLine
 10
556.6387623340656
 20
376.1159186804764
 30
0.0000000000000000
 11
784.7675000122151
 21
376.1159186801665
 31
0.0000000000000000
  0
LINE
  5
3C6
100
AcDbEntity
  8
MAIN0
  6
CENTER
 62
3
100
AcDbLine
 10
622.0153420447774
 20
329.6688792046075
 30
0.0000000000000000
 11
631.9361565451006
 21
312.4855244375817
 31
0.0000000000000000
  0
LINE
  5
3C7
100
AcDbEntity
  8
MAIN0
  6
CENTER
 62
3
100
AcDbLine
 10
636.5111564735751
 20
304.5613921168400
 30
0.0000000000000000
 11
674.9861100060299
 21
237.9208177797765
 31
0.0000000000000000
  0
ARC
  5
3C8
100
AcDbEntity
  8
MAIN0
  6
CONTINUOUS
 62
3
100
AcDbCircle
 10
595.1991313003534
 20
376.1159186804241
 30
0.0000000000000000
 40
69.50000000000000
100
AcDbArc
 50
196.7244832653623
 51
341.1106832679830
  0
ARC
  5
3C9
100
AcDbEntity
  8
MAIN0
  6
CONTINUOUS
 62
3
100
AcDbCircle
 10
595.1991313003534
 20
376.1159186804241
 30
0.0000000000000000
 40
69.50000000000000
100
AcDbArc
 50
341.4779440494755
 51
343.2755167346310
  0
ARC
  5
3CA
100
AcDbEntity
  8
MAIN0
  6
CONTINUOUS
 62
3
100
AcDbCircle
 10
595.1991313003534
 20
376.1159186804241
 30
0.0000000000000000
 40
69.50000000000000
100
AcDbArc
 50
16.72448326535599
 51
18.52205595052396
  0
ARC
  5
3CB
100
AcDbEntity
  8
MAIN0
  6
CONTINUOUS
 62
3
100
AcDbCircle
 10
595.1991313003534
 20
376.1159186804241
 30
0.0000000000000000
 40
69.50000000000000
100
AcDbArc
 50
18.88931673201728
 51
163.2755167346373
  0
LINE
  5
3CC
100
AcDbEntity
  8
MAIN0
  6
CONTINUOUS
 62
3
100
AcDbLine
 10
661.1991313003410
 20
367.7159186804191
 30
0.0000000000000000
 11
661.1991313003058
 21
356.1159186804190
 31
0.0000000000000000
  0
LINE
  5
3CD
100
AcDbEntity
  8
MAIN0
  6
CONTINUOUS
 62
3
100
AcDbLine
 10
721.1991313003163
 20
368.1159186803526
 30
0.0000000000000000
 11
661.5991313003418
 21
368.1159186804186
 31
0.0000000000000000
  0
LINE
  5
3CE
100
AcDbEntity
  8
MAIN0
  6
CONTINUOUS
 62
3
100
AcDbLine
 10
661.1991313003592
 20
384.5159186804193
 30
0.0000000000000000
 11
661.1991313003497
 21
396.1159186804192
 31
0.0000000000000000
  0
LINE
  5
3CF
100
AcDbEntity
  8
MAIN0
  6
CONTINUOUS
 62
3
100
AcDbLine
 10
721.1991313003473
 20
396.3659186801702
 30
0.0000000000000000
 11
721.1991313003025
 21
355.8659186805377
 31
0.0000000000000000
  0
LINE
  5
3D0
100
AcDbEntity
  8
MAIN0
  6
HIDDEN
 62
3
100
AcDbLine
 10
653.6991313004271
 20
396.1159186804274
 30
0.0000000000000000
 11
653.6991313003057
 21
356.1159186804420
 31
0.0000000000000000
  0
LINE
  5
3D1
100
AcDbEntity
  8
MAIN0
  6
CONTINUOUS
 62
3
100
AcDbLine
 10
661.5991313003417
 20
368.1159186804184
 30
0.0000000000000000
 11
661.1991313003407
 21
367.7159186804190
 31
0.0000000000000000
  0
LINE
  5
3D2
100
AcDbEntity
  8
MAIN0
  6
CONTINUOUS
 62
3
100
AcDbLine
 10
661.5991313003596
 20
384.1159186804189
 30
0.0000000000000000
 11
661.1991313003592
 21
384.5159186804193
 31
0.0000000000000000
  0
LINE
  5
3D3
100
AcDbEntity
  8
MAIN0
  6
CONTINUOUS
 62
3
100
AcDbLine
 10
721.1991313003340
 20
384.1159186803527
 30
0.0000000000000000
 11
663.0305076170629
 21
384.1159186804172
 31
0.0000000000000000
  0
LINE
  5
3D4
100
AcDbEntity
  8
MAIN0
  6
CONTINUOUS
 62
3
100
AcDbLine
 10
663.0305076170629
 20
384.1159186804171
 30
0.0000000000000000
 11
661.5991313003596
 21
384.1159186804187
 31
0.0000000000000000
  0
ARC
  5
3D5
100
AcDbEntity
  8
MAIN0
  6
CONTINUOUS
 62
3
100
AcDbCircle
 10
663.9991313005181
 20
376.1159186804161
 30
0.0000000000000000
 40
8.300000000000011
100
AcDbArc
 50
105.4516934308825
 51
135.3035760056660
  0
ARC
  5
3D6
100
AcDbEntity
  8
MAIN0
  6
HIDDEN
 62
3
100
AcDbCircle
 10
663.9991313005181
 20
376.1159186804161
 30
0.0000000000000000
 40
8.300000000000011
100
AcDbArc
 50
135.3035760056660
 51
224.6964239943685
  0
ARC
  5
3D7
100
AcDbEntity
  8
MAIN0
  6
CONTINUOUS
 62
3
100
AcDbCircle
 10
663.9991313005181
 20
376.1159186804161
 30
0.0000000000000000
 40
8.300000000000011
100
AcDbArc
 50
224.6964239943685
 51
254.5483065689932
  0
LINE
  5
3D8
100
AcDbEntity
  8
MAIN0
  6
HIDDEN
 62
3
100
AcDbLine
 10
653.6991313003055
 20
356.1159186804275
 30
0.0000000000000000
 11
661.0991313003526
 21
356.1159186804193
 31
0.0000000000000000
  0
LINE
  5
3D9
100
AcDbEntity
  8
MAIN0
  6
CONTINUOUS
 62
3
100
AcDbLine
 10
661.0991313003526
 20
356.1159186804192
 30
0.0000000000000000
 11
721.1991313003032
 21
356.1159186803525
 31
0.0000000000000000
  0
LINE
  5
3DA
100
AcDbEntity
  8
MAIN0
  6
HIDDEN
 62
3
100
AcDbLine
 10
653.6991313004271
 20
396.1159186804274
 30
0.0000000000000000
 11
661.0991313003528
 21
396.1159186804192
 31
0.0000000000000000
  0
LINE
  5
3DB
100
AcDbEntity
  8
MAIN0
  6
CONTINUOUS
 62
3
100
AcDbLine
 10
661.0991313003528
 20
396.1159186804192
 30
0.0000000000000000
 11
721.1991313003475
 21
396.1159186803525
 31
0.0000000000000000
  0
LINE
  5
3DC
100
AcDbEntity
  8
MAIN0
  6
HIDDEN
 62
3
100
AcDbLine
 10
717.9233991919604
 20
405.3659186802543
 30
0.0000000000000000
 11
719.9949712555854
 21
399.6743212126041
 31
0.0000000000000000
  0
LINE
  5
3DD
100
AcDbEntity
  8
MAIN0
  6
CONTINUOUS
 62
3
100
AcDbLine
 10
719.9949712555851
 20
399.6743212126040
 30
0.0000000000000000
 11
721.1991313003483
 21
396.3659186801684
 31
0.0000000000000000
  0
LINE
  5
3DE
100
AcDbEntity
  8
MAIN0
  6
HIDDEN
 62
3
100
AcDbLine
 10
717.9233991918202
 20
346.8659186802543
 30
0.0000000000000000
 11
719.9949712555872
 21
352.5575161482553
 31
0.0000000000000000
  0
LINE
  5
3DF
100
AcDbEntity
  8
MAIN0
  6
CONTINUOUS
 62
3
100
AcDbLine
 10
719.9949712555872
 20
352.5575161482553
 30
0.0000000000000000
 11
721.1991313003015
 21
355.8659186805335
 31
0.0000000000000000
  0
LINE
  5
3E0
100
AcDbEntity
  8
MAIN0
  6
HIDDEN
 62
3
100
AcDbLine
 10
472.4748634086421
 20
346.8659186804243
 30
0.0000000000000000
 11
470.4032913448830
 21
352.5575161484281
 31
0.0000000000000000
  0
LINE
  5
3E1
100
AcDbEntity
  8
MAIN0
  6
CONTINUOUS
 62
3
100
AcDbLine
 10
470.4032913448829
 20
352.5575161484281
 30
0.0000000000000000
 11
469.1991313001732
 21
355.8659186807080
 31
0.0000000000000000
  0
LINE
  5
3E2
100
AcDbEntity
  8
MAIN0
  6
CONTINUOUS
 62
3
100
AcDbLine
 10
470.4032913449501
 20
399.6743212127769
 30
0.0000000000000000
 11
469.1991313001823
 21
396.3659186803430
 31
0.0000000000000000
  0
LINE
  5
3E3
100
AcDbEntity
  8
MAIN0
  6
HIDDEN
 62
3
100
AcDbLine
 10
472.4748634085831
 20
405.3659186804243
 30
0.0000000000000000
 11
470.4032913449502
 21
399.6743212127770
 31
0.0000000000000000
  0
LINE
  5
3E4
100
AcDbEntity
  8
MAIN0
  6
CONTINUOUS
 62
3
100
AcDbLine
 10
469.1991313001834
 20
396.1159186804243
 30
0.0000000000000000
 11
469.1991313001835
 21
396.3659186803448
 31
0.0000000000000000
  0
LINE
  5
3E5
100
AcDbEntity
  8
MAIN0
  6
CONTINUOUS
 62
3
100
AcDbLine
 10
469.1991313001723
 20
355.8659186807122
 30
0.0000000000000000
 11
469.1991313001724
 21
356.1159186804243
 31
0.0000000000000000
  0
LINE
  5
3E6
100
AcDbEntity
  8
MAIN0
  6
HIDDEN
 62
3
100
AcDbLine
 10
469.1991313001724
 20
356.1159186804243
 30
0.0000000000000000
 11
469.1991313001834
 21
396.1159186804243
 31
0.0000000000000000
  0
CIRCLE
  5
3E7
100
AcDbEntity
  8
MAIN0
  6
CONTINUOUS
 62
3
100
AcDbCircle
 10
653.1728518587247
 20
253.7024891695249
 30
0.0000000000000000
 40
5.000000000000000
  0
LINE
  5
3E8
100
AcDbEntity
  8
MAIN0
  6
CONTINUOUS
 62
3
100
AcDbLine
 10
651.7294761857506
 20
256.2024891695249
 30
0.0000000000000000
 11
650.2861005127766
 21
253.7024891695249
 31
0.0000000000000000
  0
LINE
  5
3E9
100
AcDbEntity
  8
MAIN0
  6
CONTINUOUS
 62
3
100
AcDbLine
 10
650.2861005127767
 20
253.7024891695249
 30
0.0000000000000000
 11
651.7294761857506
 21
251.2024891695249
 31
0.0000000000000000
  0
LINE
  5
3EA
100
AcDbEntity
  8
MAIN0
  6
CONTINUOUS
 62
3
100
AcDbLine
 10
651.7294761857506
 20
251.2024891695249
 30
0.0000000000000000
 11
654.6162275316988
 21
251.2024891695249
 31
0.0000000000000000
  0
LINE
  5
3EB
100
AcDbEntity
  8
MAIN0
  6
CONTINUOUS
 62
3
100
AcDbLine
 10
654.6162275316988
 20
251.2024891695249
 30
0.0000000000000000
 11
656.0596032046728
 21
253.7024891695249
 31
0.0000000000000000
  0
LINE
  5
3EC
100
AcDbEntity
  8
MAIN0
  6
CONTINUOUS
 62
3
100
AcDbLine
 10
656.0596032046728
 20
253.7024891695249
 30
0.0000000000000000
 11
654.6162275316989
 21
256.2024891695249
 31
0.0000000000000000
  0
LINE
  5
3ED
100
AcDbEntity
  8
MAIN0
  6
CONTINUOUS
 62
3
100
AcDbLine
 10
654.6162275316988
 20
256.2024891695249
 30
0.0000000000000000
 11
651.7294761857506
 21
256.2024891695249
 31
0.0000000000000000
  0
LINE
  5
3EE
100
AcDbEntity
  8
MAIN0
  6
HIDDEN
 62
3
100
AcDbLine
 10
642.9003861926233
 20
233.3379216222196
 30
0.0000000000000000
 11
638.4547811549853
 21
241.6254354177935
 31
0.0000000000000000
  0
LINE
  5
3EF
100
AcDbEntity
  8
MAIN0
  6
HIDDEN
 62
3
100
AcDbLine
 10
638.4547811549852
 20
241.6254354177935
 30
0.0000000000000000
 11
649.3402874678538
 21
247.9101854177931
 31
0.0000000000000000
  0
LINE
  5
3F0
100
AcDbEntity
  8
MAIN0
  6
HIDDEN
 62
3
100
AcDbLine
 10
649.3402874678538
 20
247.9101854177931
 30
0.0000000000000000
 11
654.2946824302153
 21
239.9164216222193
 31
0.0000000000000000
  0
LINE
  5
3F1
100
AcDbEntity
  8
MAIN0
  6
HIDDEN
 62
3
100
AcDbLine
 10
643.6417039382627
 20
233.7659216222195
 30
0.0000000000000000
 11
639.1960989006246
 21
242.0534354177935
 31
0.0000000000000000
  0
LINE
  5
3F2
100
AcDbEntity
  8
MAIN0
  6
HIDDEN
 62
3
100
AcDbLine
 10
653.5533646845759
 20
239.4884216222193
 30
0.0000000000000000
 11
648.5989697222143
 21
247.4821854177932
 31
0.0000000000000000
  0
LINE
  5
3F3
100
AcDbEntity
  8
MAIN0
  6
HIDDEN
 62
3
100
AcDbLine
 10
639.2209971309835
 20
242.0678104177935
 30
0.0000000000000000
 11
636.4209971309837
 21
246.9175526789864
 31
0.0000000000000000
  0
LINE
  5
3F4
100
AcDbEntity
  8
MAIN0
  6
HIDDEN
 62
3
100
AcDbLine
 10
636.4209971309837
 20
246.9175526789864
 30
0.0000000000000000
 11
645.7740714918557
 21
252.3175526789861
 31
0.0000000000000000
  0
LINE
  5
3F5
100
AcDbEntity
  8
MAIN0
  6
HIDDEN
 62
3
100
AcDbLine
 10
645.7740714918557
 20
252.3175526789861
 30
0.0000000000000000
 11
648.5740714918555
 21
247.4678104177932
 31
0.0000000000000000
  0
LINE
  5
3F6
100
AcDbEntity
  8
MAIN0
  6
HIDDEN
 62
3
100
AcDbLine
 10
636.4209971309837
 20
246.9175526789864
 30
0.0000000000000000
 11
639.5386885846078
 21
252.3175526789862
 31
0.0000000000000000
  0
LINE
  5
3F7
100
AcDbEntity
  8
MAIN0
  6
HIDDEN
 62
3
100
AcDbLine
 10
639.5386885846078
 20
252.3175526789862
 30
0.0000000000000000
 11
645.7740714918557
 21
252.3175526789861
 31
0.0000000000000000
  0
CIRCLE
  5
3F8
100
AcDbEntity
  8
MAIN0
  6
CONTINUOUS
 62
3
100
AcDbCircle
 10
647.4200741238263
 20
412.6814164977324
 30
0.0000000000000000
 40
4.250000000000000
  0
LINE
  5
3F9
100
AcDbEntity
  8
MAIN0
  6
CONTINUOUS
 62
3
100
AcDbLine
 10
647.2187965576792
 20
414.9820296061666
 30
0.0000000000000000
 11
645.3270459445693
 21
413.6574115664542
 31
0.0000000000000000
  0
LINE
  5
3FA
100
AcDbEntity
  8
MAIN0
  6
CONTINUOUS
 62
3
100
AcDbLine
 10
645.3270459445694
 20
413.6574115664542
 30
0.0000000000000000
 11
645.5283235107165
 21
411.3567984580200
 31
0.0000000000000000
  0
LINE
  5
3FB
100
AcDbEntity
  8
MAIN0
  6
CONTINUOUS
 62
3
100
AcDbLine
 10
645.5283235107165
 20
411.3567984580200
 30
0.0000000000000000
 11
647.6213516899735
 21
410.3808033892983
 31
0.0000000000000000
  0
LINE
  5
3FC
100
AcDbEntity
  8
MAIN0
  6
CONTINUOUS
 62
3
100
AcDbLine
 10
647.6213516899735
 20
410.3808033892982
 30
0.0000000000000000
 11
649.5131023030834
 21
411.7054214290107
 31
0.0000000000000000
  0
LINE
  5
3FD
100
AcDbEntity
  8
MAIN0
  6
CONTINUOUS
 62
3
100
AcDbLine
 10
649.5131023030834
 20
411.7054214290107
 30
0.0000000000000000
 11
649.3118247369363
 21
414.0060345374448
 31
0.0000000000000000
  0
LINE
  5
3FE
100
AcDbEntity
  8
MAIN0
  6
CONTINUOUS
 62
3
100
AcDbLine
 10
649.3118247369364
 20
414.0060345374448
 30
0.0000000000000000
 11
647.2187965576793
 21
414.9820296061666
 31
0.0000000000000000
  0
CIRCLE
  5
3FF
100
AcDbEntity
  8
MAIN0
  6
CONTINUOUS
 62
3
100
AcDbCircle
 10
595.1991313004689
 20
461.1159186804240
 30
0.0000000000000000
 40
5.000000000000000
  0
CIRCLE
  5
400
100
AcDbEntity
  8
MAIN0
  6
CONTINUOUS
 62
3
100
AcDbCircle
 10
595.1991313004689
 20
461.1159186804240
 30
0.0000000000000000
 40
4.250000000000000
  0
CIRCLE
  5
401
100
AcDbEntity
  8
MAIN0
  6
CONTINUOUS
 62
3
100
AcDbCircle
 10
595.1991313005096
 20
491.1159186804239
 30
0.0000000000000000
 40
5.000000000000000
  0
CIRCLE
  5
402
100
AcDbEntity
  8
MAIN0
  6
CONTINUOUS
 62
3
100
AcDbCircle
 10
595.1991313005096
 20
491.1159186804239
 30
0.0000000000000000
 40
4.250000000000000
  0
CIRCLE
  5
403
100
AcDbEntity
  8
MAIN0
  6
CONTINUOUS
 62
3
100
AcDbCircle
 10
490.6991313003535
 20
376.1159186804243
 30
0.0000000000000000
 40
9.000000000000000
  0
LINE
  5
404
100
AcDbEntity
  8
MAIN0
  6
CONTINUOUS
 62
3
100
AcDbLine
 10
484.9256286084573
 20
376.1159186804243
 30
0.0000000000000000
 11
487.8123799544055
 21
371.1159186804243
 31
0.0000000000000000
  0
LINE
  5
405
100
AcDbEntity
  8
MAIN0
  6
CONTINUOUS
 62
3
100
AcDbLine
 10
487.8123799544055
 20
371.1159186804243
 30
0.0000000000000000
 11
493.5858826463016
 21
371.1159186804243
 31
0.0000000000000000
  0
LINE
  5
406
100
AcDbEntity
  8
MAIN0
  6
CONTINUOUS
 62
3
100
AcDbLine
 10
493.5858826463016
 20
371.1159186804243
 30
0.0000000000000000
 11
496.4726339922497
 21
376.1159186804243
 31
0.0000000000000000
  0
LINE
  5
407
100
AcDbEntity
  8
MAIN0
  6
CONTINUOUS
 62
3
100
AcDbLine
 10
496.4726339922498
 20
376.1159186804243
 30
0.0000000000000000
 11
493.5858826463016
 21
381.1159186804243
 31
0.0000000000000000
  0
LINE
  5
408
100
AcDbEntity
  8
MAIN0
  6
CONTINUOUS
 62
3
100
AcDbLine
 10
493.5858826463016
 20
381.1159186804243
 30
0.0000000000000000
 11
487.8123799544055
 21
381.1159186804243
 31
0.0000000000000000
  0
LINE
  5
409
100
AcDbEntity
  8
MAIN0
  6
CONTINUOUS
 62
3
100
AcDbLine
 10
487.8123799544055
 20
381.1159186804243
 30
0.0000000000000000
 11
484.9256286084573
 21
376.1159186804243
 31
0.0000000000000000
  0
LINE
  5
40A
100
AcDbEntity
  8
MAIN0
  6
CONTINUOUS
 62
3
100
AcDbLine
 10
513.8209939031847
 20
300.4092816149398
 30
0.0000000000000000
 11
516.7077452491328
 21
305.4092816149398
 31
0.0000000000000000
  0
LINE
  5
40B
100
AcDbEntity
  8
MAIN0
  6
CONTINUOUS
 62
3
100
AcDbLine
 10
516.7077452491328
 20
305.4092816149398
 30
0.0000000000000000
 11
513.8209939031847
 21
310.4092816149397
 31
0.0000000000000000
  0
LINE
  5
40C
100
AcDbEntity
  8
MAIN0
  6
CONTINUOUS
 62
3
100
AcDbLine
 10
513.8209939031847
 20
310.4092816149397
 30
0.0000000000000000
 11
508.0474912112884
 21
310.4092816149397
 31
0.0000000000000000
  0
LINE
  5
40D
100
AcDbEntity
  8
MAIN0
  6
CONTINUOUS
 62
3
100
AcDbLine
 10
508.0474912112885
 20
310.4092816149398
 30
0.0000000000000000
 11
505.1607398653404
 21
305.4092816149397
 31
0.0000000000000000
  0
LINE
  5
40E
100
AcDbEntity
  8
MAIN0
  6
CONTINUOUS
 62
3
100
AcDbLine
 10
505.1607398653404
 20
305.4092816149397
 30
0.0000000000000000
 11
508.0474912112884
 21
300.4092816149398
 31
0.0000000000000000
  0
LINE
  5
40F
100
AcDbEntity
  8
MAIN0
  6
CONTINUOUS
 62
3
100
AcDbLine
 10
508.0474912112883
 20
300.4092816149398
 30
0.0000000000000000
 11
513.8209939031847
 21
300.4092816149398
 31
0.0000000000000000
  0
CIRCLE
  5
410
100
AcDbEntity
  8
MAIN0
  6
CONTINUOUS
 62
3
100
AcDbCircle
 10
716.4426878301749
 20
446.1159186804240
 30
0.0000000000000000
 40
6.000000000000000
  0
CIRCLE
  5
411
100
AcDbEntity
  8
MAIN0
  6
CONTINUOUS
 62
3
100
AcDbCircle
 10
716.4426878301749
 20
446.1159186804240
 30
0.0000000000000000
 40
5.100000000000000
  0
CIRCLE
  5
412
100
AcDbEntity
  8
MAIN0
  6
CONTINUOUS
 62
3
100
AcDbCircle
 10
595.1991313003542
 20
516.1159186804241
 30
0.0000000000000000
 40
6.000000000000000
  0
CIRCLE
  5
413
100
AcDbEntity
  8
MAIN0
  6
CONTINUOUS
 62
3
100
AcDbCircle
 10
595.1991313003542
 20
516.1159186804241
 30
0.0000000000000000
 40
5.100000000000000
  0
CIRCLE
  5
414
100
AcDbEntity
  8
MAIN0
  6
HIDDEN
 62
3
100
AcDbCircle
 10
533.6991313003535
 20
391.1159186804243
 30
0.0000000000000000
 40
3.000000000000000
  0
LINE
  5
415
100
AcDbEntity
  8
MAIN0
  6
HIDDEN
 62
3
100
AcDbLine
 10
532.4616944332772
 20
392.3533555475008
 30
0.0000000000000000
 11
534.9365681674300
 21
389.8784818133478
 31
0.0000000000000000
  0
LINE
  5
416
100
AcDbEntity
  8
MAIN0
  6
HIDDEN
 62
3
100
AcDbLine
 10
534.9365681674301
 20
392.3533555475008
 30
0.0000000000000000
 11
532.4616944332772
 21
389.8784818133478
 31
0.0000000000000000
  0
CIRCLE
  5
417
100
AcDbEntity
  8
MAIN0
  6
PHANTOM
 62
3
100
AcDbCircle
 10
627.6877785793528
 20
286.8439309240132
 30
0.0000000000000000
 40
4.864000000000000
  0
CIRCLE
  5
418
100
AcDbEntity
  8
MAIN0
  6
PHANTOM
 62
3
100
AcDbCircle
 10
627.6877785793528
 20
286.8439309240132
 30
0.0000000000000000
 40
4.283000000000000
  0
CIRCLE
  5
419
100
AcDbEntity
  8
MAIN0
  6
PHANTOM
 62
3
100
AcDbCircle
 10
656.2666169042393
 20
303.3439309240132
 30
0.0000000000000000
 40
4.864000000000000
  0
CIRCLE
  5
41A
100
AcDbEntity
  8
MAIN0
  6
PHANTOM
 62
3
100
AcDbCircle
 10
656.2666169042393
 20
303.3439309240132
 30
0.0000000000000000
 40
4.283000000000000
  0
LINE
  5
41B
100
AcDbEntity
  8
MAIN0
  6
PHANTOM
 62
3
100
AcDbLine
 10
671.1726661623413
 20
280.3200176507573
 30
0.0000000000000000
 11
636.7316566822567
 21
321.5548580657182
 31
0.0000000000000000
  0
LINE
  5
41C
100
AcDbEntity
  8
MAIN0
  6
PHANTOM
 62
3
100
AcDbLine
 10
636.7316566822567
 20
321.5548580657181
 30
0.0000000000000000
 11
641.4901623173092
 21
325.5293547786584
 31
0.0000000000000000
  0
LINE
  5
41D
100
AcDbEntity
  8
MAIN0
  6
PHANTOM
 62
3
100
AcDbLine
 10
641.4901623173093
 20
325.5293547786584
 30
0.0000000000000000
 11
674.5981856640827
 21
285.8904452412239
 31
0.0000000000000000
  0
LINE
  5
41E
100
AcDbEntity
  8
MAIN0
  6
PHANTOM
 62
3
100
AcDbLine
 10
636.7316566822567
 20
321.5548580657182
 30
0.0000000000000000
 11
637.9635711262283
 21
324.9157686768572
 31
0.0000000000000000
  0
LINE
  5
41F
100
AcDbEntity
  8
MAIN0
  6
PHANTOM
 62
3
100
AcDbLine
 10
637.9635711262283
 20
324.9157686768572
 30
0.0000000000000000
 11
641.4901623173092
 21
325.5293547786584
 31
0.0000000000000000
  0
LINE
  5
420
100
AcDbEntity
  8
MAIN0
  6
PHANTOM
 62
3
100
AcDbLine
 10
634.3412000452717
 20
260.3208104578959
 30
0.0000000000000000
 11
623.2621193761412
 21
290.5467729545364
 31
0.0000000000000000
  0
LINE
  5
421
100
AcDbEntity
  8
MAIN0
  6
PHANTOM
 62
3
100
AcDbLine
 10
623.2621193761411
 20
290.5467729545364
 30
0.0000000000000000
 11
629.0833873143315
 21
292.6805113620727
 31
0.0000000000000000
  0
LINE
  5
422
100
AcDbEntity
  8
MAIN0
  6
PHANTOM
 62
3
100
AcDbLine
 10
629.0833873143315
 20
292.6805113620727
 30
0.0000000000000000
 11
640.4580327990982
 21
261.6481885455148
 31
0.0000000000000000
  0
LINE
  5
423
100
AcDbEntity
  8
MAIN0
  6
PHANTOM
 62
3
100
AcDbLine
 10
623.2621193761411
 20
290.5467729545364
 30
0.0000000000000000
 11
625.5567961232507
 21
293.2940974638742
 31
0.0000000000000000
  0
LINE
  5
424
100
AcDbEntity
  8
MAIN0
  6
PHANTOM
 62
3
100
AcDbLine
 10
625.5567961232507
 20
293.2940974638741
 30
0.0000000000000000
 11
629.0833873143315
 21
292.6805113620727
 31
0.0000000000000000
  0
LINE
  5
425
100
AcDbEntity
  8
MAIN0
  6
PHANTOM
 62
3
100
AcDbLine
 10
640.4372802735749
 20
230.7611462184350
 30
0.0000000000000000
 11
657.7577883492636
 21
240.7611462184350
 31
0.0000000000000000
  0
LINE
  5
426
100
AcDbEntity
  8
MAIN0
  6
PHANTOM
 62
3
100
AcDbLine
 10
641.4448973817433
 20
238.2710974573516
 30
0.0000000000000000
 11
650.7501712410956
 21
243.6434998249318
 31
0.0000000000000000
  0
LINE
  5
427
100
AcDbEntity
  8
MAIN0
  6
PHANTOM
 62
3
100
AcDbLine
 10
642.2396022929777
 20
238.1525702825894
 30
0.0000000000000000
 11
650.3932899066701
 21
242.8601040212429
 31
0.0000000000000000
  0
LINE
  5
428
100
AcDbEntity
  8
MAIN0
  6
PHANTOM
 62
3
100
AcDbLine
 10
657.2577883492636
 20
241.6271716222194
 30
0.0000000000000000
 11
657.7577883492636
 21
240.7611462184350
 31
0.0000000000000000
  0
LINE
  5
429
100
AcDbEntity
  8
MAIN0
  6
PHANTOM
 62
3
100
AcDbLine
 10
639.9372802735749
 20
231.6271716222194
 30
0.0000000000000000
 11
640.4372802735749
 21
230.7611462184350
 31
0.0000000000000000
  0
LINE
  5
42A
100
AcDbEntity
  8
MAIN0
  6
PHANTOM
 62
3
100
AcDbLine
 10
642.1663972122208
 20
237.8793652018326
 30
0.0000000000000000
 11
644.8163972122208
 21
233.2894305617750
 31
0.0000000000000000
  0
LINE
  5
42B
100
AcDbEntity
  8
MAIN0
  6
PHANTOM
 62
3
100
AcDbLine
 10
650.6664949874271
 20
242.7868989404861
 30
0.0000000000000000
 11
653.3164949874272
 21
238.1969643004285
 31
0.0000000000000000
  0
ARC
  5
42C
100
AcDbEntity
  8
MAIN0
  6
PHANTOM
 62
3
100
AcDbCircle
 10
650.4932899066702
 20
242.6868989404861
 30
0.0000000000000000
 40
0.2000000000000000
100
AcDbArc
 50
30.00000000000000
 51
119.9999999994255
  0
ARC
  5
42D
100
AcDbEntity
  8
MAIN0
  6
PHANTOM
 62
3
100
AcDbCircle
 10
642.3396022929776
 20
237.9793652018326
 30
0.0000000000000000
 40
0.2000000000000000
100
AcDbArc
 50
119.9999999994255
 51
209.9999999999964
  0
ARC
  5
42E
100
AcDbEntity
  8
MAIN0
  6
PHANTOM
 62
3
100
AcDbCircle
 10
650.8501712410955
 20
243.4702947441749
 30
0.0000000000000000
 40
0.2000000000000000
100
AcDbArc
 50
31.78991060824546
 51
119.9999999994255
  0
ARC
  5
42F
100
AcDbEntity
  8
MAIN0
  6
PHANTOM
 62
3
100
AcDbCircle
 10
641.5448973817433
 20
238.0978923765947
 30
0.0000000000000000
 40
0.2000000000000000
100
AcDbArc
 50
119.9999999994255
 51
208.2100893917509
  0
LINE
  5
430
100
AcDbEntity
  8
MAIN0
  6
CONTINUOUS
 62
3
100
AcDbLine
 10
713.6991313003668
 20
384.1159186803610
 30
0.0000000000000000
 11
713.6991313003712
 21
368.1159186803610
 31
0.0000000000000000
  0
LINE
  5
431
100
AcDbEntity
  8
MAIN0
  6
CENTER
 62
3
100
AcDbLine
 10
699.6991313003476
 20
388.9330112003892
 30
0.0000000000000000
 11
699.6991313003476
 21
363.3074242450043
 31
0.0000000000000000
  0
LINE
  5
432
100
AcDbEntity
  8
MAIN0
  6
CENTER
 62
3
100
AcDbLine
 10
669.6991313003476
 20
388.9330112003892
 30
0.0000000000000000
 11
669.6991313003476
 21
363.3074242450043
 31
0.0000000000000000
  0
LINE
  5
433
100
AcDbEntity
  8
MAIN0
  6
CONTINUOUS
 62
3
100
AcDbLine
 10
662.6991313004151
 20
384.1159186804177
 30
0.0000000000000000
 11
658.6991313003672
 21
380.1159186803719
 31
0.0000000000000000
  0
LINE
  5
434
100
AcDbEntity
  8
MAIN0
  6
CONTINUOUS
 62
3
100
AcDbLine
 10
662.6991313004071
 20
368.1159186804098
 30
0.0000000000000000
 11
658.6991313003672
 21
372.1159186804478
 31
0.0000000000000000
  0
LINE
  5
435
100
AcDbEntity
  8
MAIN0
  6
CONTINUOUS
 62
3
100
AcDbLine
 10
713.6991313003665
 20
384.1159186804098
 30
0.0000000000000000
 11
662.6991313004072
 21
384.1159186804098
 31
0.0000000000000000
  0
LINE
  5
436
100
AcDbEntity
  8
MAIN0
  6
CONTINUOUS
 62
3
100
AcDbLine
 10
713.6991313003661
 20
368.1159186804098
 30
0.0000000000000000
 11
662.6991313004070
 21
368.1159186804098
 31
0.0000000000000000
  0
LINE
  5
437
100
AcDbEntity
  8
MAIN0
  6
CONTINUOUS
 62
3
100
AcDbLine
 10
645.0991313003505
 20
398.6159186804242
 30
0.0000000000000000
 11
661.0991313003518
 21
398.6159186804242
 31
0.0000000000000000
  0
LINE
  5
438
100
AcDbEntity
  8
MAIN0
  6
CONTINUOUS
 62
3
100
AcDbLine
 10
661.0991313003522
 20
398.6159186804244
 30
0.0000000000000000
 11
661.0991313003565
 21
384.2659186803190
 31
0.0000000000000000
  0
LINE
  5
439
100
AcDbEntity
  8
MAIN0
  6
CONTINUOUS
 62
3
100
AcDbLine
 10
645.0991313003567
 20
376.1159186803844
 30
0.0000000000000000
 11
645.0991313003633
 21
353.6159186804242
 31
0.0000000000000000
  0
CIRCLE
  5
43A
100
AcDbEntity
  8
MAIN0
  6
CONTINUOUS
 62
3
100
AcDbCircle
 10
656.6991313003540
 20
391.1159186804242
 30
0.0000000000000000
 40
3.150000000000000
  0
LINE
  5
43B
100
AcDbEntity
  8
MAIN0
  6
CENTER
 62
3
100
AcDbLine
 10
656.6991313003538
 20
385.9659186804242
 30
0.0000000000000000
 11
656.6991313003538
 21
396.2659186804243
 31
0.0000000000000000
  0
LINE
  5
43C
100
AcDbEntity
  8
MAIN0
  6
CENTER
 62
3
100
AcDbLine
 10
661.8491313003539
 20
391.1159186804242
 30
0.0000000000000000
 11
651.5491313003539
 21
391.1159186804242
 31
0.0000000000000000
  0
LINE
  5
43D
100
AcDbEntity
  8
MAIN0
  6
CONTINUOUS
 62
3
100
AcDbLine
 10
645.0991313003623
 20
353.6159186804242
 30
0.0000000000000000
 11
661.0991313003518
 21
353.6159186804242
 31
0.0000000000000000
  0
LINE
  5
43E
100
AcDbEntity
  8
MAIN0
  6
CONTINUOUS
 62
3
100
AcDbLine
 10
661.0991313003519
 20
353.6159186804243
 30
0.0000000000000000
 11
661.0991313003563
 21
367.9659186803189
 31
0.0000000000000000
  0
CIRCLE
  5
43F
100
AcDbEntity
  8
MAIN0
  6
CONTINUOUS
 62
3
100
AcDbCircle
 10
656.6991313003540
 20
361.1159186804242
 30
0.0000000000000000
 40
3.150000000000000
  0
LINE
  5
440
100
AcDbEntity
  8
MAIN0
  6
CENTER
 62
3
100
AcDbLine
 10
656.6991313003538
 20
366.2659186804243
 30
0.0000000000000000
 11
656.6991313003538
 21
355.9659186804242
 31
0.0000000000000000
  0
LINE
  5
441
100
AcDbEntity
  8
MAIN0
  6
CENTER
 62
3
100
AcDbLine
 10
661.8491313003539
 20
361.1159186804242
 30
0.0000000000000000
 11
651.5491313003539
 21
361.1159186804242
 31
0.0000000000000000
  0
LINE
  5
442
100
AcDbEntity
  8
MAIN0
  6
CONTINUOUS
 62
3
100
AcDbLine
 10
658.0991313003560
 20
384.2659186803189
 30
0.0000000000000000
 11
658.0991313003608
 21
367.9659186803190
 31
0.0000000000000000
  0
LINE
  5
443
100
AcDbEntity
  8
MAIN0
  6
CONTINUOUS
 62
3
100
AcDbLine
 10
658.0991313003557
 20
384.2659186803189
 30
0.0000000000000000
 11
661.0991313003557
 21
384.2659186803189
 31
0.0000000000000000
  0
LINE
  5
444
100
AcDbEntity
  8
MAIN0
  6
CONTINUOUS
 62
3
100
AcDbLine
 10
658.0991313003552
 20
367.9659186803190
 30
0.0000000000000000
 11
661.0991313003557
 21
367.9659186803190
 31
0.0000000000000000
  0
LINE
  5
445
100
AcDbEntity
  8
MAIN0
  6
CONTINUOUS
 62
3
100
AcDbLine
 10
645.0991313003567
 20
376.1159186803844
 30
0.0000000000000000
 11
645.0991313003503
 21
398.6159186803445
 31
0.0000000000000000
  0
LINE
  5
446
100
AcDbEntity
  8
MAIN0
  6
CONTINUOUS
 62
3
100
AcDbLine
 10
658.6991313003672
 20
380.1159186803718
 30
0.0000000000000000
 11
658.6991313003676
 21
372.1159186804472
 31
0.0000000000000000
  0
CIRCLE
  5
447
100
AcDbEntity
  8
MAIN0
  6
CONTINUOUS
 62
3
100
AcDbCircle
 10
669.6991313003476
 20
376.1159186804097
 30
0.0000000000000000
 40
6.000000000000000
  0
CIRCLE
  5
448
100
AcDbEntity
  8
MAIN0
  6
CONTINUOUS
 62
3
100
AcDbCircle
 10
669.6991313003476
 20
376.1159186804097
 30
0.0000000000000000
 40
5.100000000000000
  0
CIRCLE
  5
449
100
AcDbEntity
  8
MAIN0
  6
CONTINUOUS
 62
3
100
AcDbCircle
 10
699.6991313003476
 20
376.1159186804097
 30
0.0000000000000000
 40
6.000000000000000
  0
CIRCLE
  5
44A
100
AcDbEntity
  8
MAIN0
  6
CONTINUOUS
 62
3
100
AcDbCircle
 10
699.6991313003476
 20
376.1159186804097
 30
0.0000000000000000
 40
5.100000000000000
  0
LINE
  5
44B
100
AcDbEntity
  8
WAKU0
  6
CONTINUOUS
 62
3
100
AcDbLine
 10
562.1525233226325
 20
51.27965425084217
 30
0.0000000000000000
 11
732.1525233226325
 21
51.27965425084217
 31
0.0000000000000000
  0
LINE
  5
44C
100
AcDbEntity
  8
WAKU0
  6
CONTINUOUS
 62
3
100
AcDbLine
 10
562.1525233226325
 20
51.27965425084217
 30
0.0000000000000000
 11
562.1525233226325
 21
12.27965425084217
 31
0.0000000000000000
  0
LINE
  5
44D
100
AcDbEntity
  8
WAKU0
  6
CONTINUOUS
 62
3
100
AcDbLine
 10
634.1525233226325
 20
51.27965425084217
 30
0.0000000000000000
 11
634.1525233226325
 21
12.27965425084217
 31
0.0000000000000000
  0
LINE
  5
44E
100
AcDbEntity
  8
WAKU0
  6
CONTINUOUS
 62
3
100
AcDbLine
 10
654.1525233226325
 20
51.27965425084217
 30
0.0000000000000000
 11
654.1525233226325
 21
12.27965425084217
 31
0.0000000000000000
  0
LINE
  5
44F
100
AcDbEntity
  8
WAKU0
  6
CONTINUOUS
 62
3
100
AcDbLine
 10
666.1525233226325
 20
51.27965425084217
 30
0.0000000000000000
 11
666.1525233226325
 21
12.27965425084217
 31
0.0000000000000000
  0
LINE
  5
450
100
AcDbEntity
  8
WAKU0
  6
CONTINUOUS
 62
3
100
AcDbLine
 10
666.1525233226325
 20
37.27965425084217
 30
0.0000000000000000
 11
732.1525233226325
 21
37.27965425084217
 31
0.0000000000000000
  0
LINE
  5
451
100
AcDbEntity
  8
WAKU0
  6
CONTINUOUS
 62
3
100
AcDbLine
 10
654.1525233226325
 20
23.27965425084217
 30
0.0000000000000000
 11
732.1525233226325
 21
23.27965425084217
 31
0.0000000000000000
  0
LINE
  5
452
100
AcDbEntity
  8
WAKU0
  6
CONTINUOUS
 62
3
100
AcDbLine
 10
697.1525233226325
 20
51.27965425084217
 30
0.0000000000000000
 11
697.1525233226325
 21
44.27965425084217
 31
0.0000000000000000
  0
LINE
  5
453
100
AcDbEntity
  8
WAKU0
  6
CONTINUOUS
 62
3
100
AcDbLine
 10
709.1525233226325
 20
51.27965425084217
 30
0.0000000000000000
 11
709.1525233226325
 21
44.27965425084217
 31
0.0000000000000000
  0
LINE
  5
454
100
AcDbEntity
  8
WAKU0
  6
CONTINUOUS
 62
3
100
AcDbLine
 10
634.1525233226325
 20
31.77965425084217
 30
0.0000000000000000
 11
654.1525233226325
 21
31.77965425084217
 31
0.0000000000000000
  0
LINE
  5
455
100
AcDbEntity
  8
WAKU0
  6
CONTINUOUS
 62
3
100
AcDbLine
 10
654.1525233226325
 20
44.27965425084217
 30
0.0000000000000000
 11
732.1525233226325
 21
44.27965425084217
 31
0.0000000000000000
  0
LINE
  5
456
100
AcDbEntity
  8
WAKU0
  6
CONTINUOUS
 62
3
100
AcDbLine
 10
562.1525233226325
 20
37.27965425084217
 30
0.0000000000000000
 11
634.1525233226325
 21
37.27965425084217
 31
0.0000000000000000
  0
LINE
  5
457
100
AcDbEntity
  8
WAKU0
  6
CONTINUOUS
 62
3
100
AcDbLine
 10
562.1525233226325
 20
23.27965425084217
 30
0.0000000000000000
 11
634.1525233226325
 21
23.27965425084217
 31
0.0000000000000000
  0
LINE
  5
458
100
AcDbEntity
  8
WAKU0
  6
CONTINUOUS
 62
3
100
AcDbLine
 10
610.1525233226325
 20
37.27965425084217
 30
0.0000000000000000
 11
610.1525233226325
 21
12.27965425084217
 31
0.0000000000000000
  0
LINE
  5
459
100
AcDbEntity
  8
WAKU0
  6
CONTINUOUS
 62
3
100
AcDbLine
 10
586.1525233226325
 20
37.27965425084217
 30
0.0000000000000000
 11
586.1525233226325
 21
23.27965425084217
 31
0.0000000000000000
  0
LINE
  5
45A
100
AcDbEntity
  8
WAKU0
  6
CONTINUOUS
 62
3
100
AcDbLine
 10
622.1525233226325
 20
26.27965425084217
 30
0.0000000000000000
 11
622.1525233226325
 21
23.27965425084217
 31
0.0000000000000000
  0
LINE
  5
45B
100
AcDbEntity
  8
WAKU0
  6
CONTINUOUS
 62
3
100
AcDbLine
 10
598.1525233226325
 20
26.27965425084217
 30
0.0000000000000000
 11
598.1525233226325
 21
23.27965425084217
 31
0.0000000000000000
  0
LINE
  5
45C
100
AcDbEntity
  8
WAKU0
  6
CONTINUOUS
 62
3
100
AcDbLine
 10
574.1525233226325
 20
26.27965425084217
 30
0.0000000000000000
 11
574.1525233226325
 21
23.27965425084217
 31
0.0000000000000000
  0
LINE
  5
45D
100
AcDbEntity
  8
WAKU0
  6
CONTINUOUS
 62
3
100
AcDbLine
 10
580.1525233226325
 20
51.27965425084217
 30
0.0000000000000000
 11
580.1525233226325
 21
37.27965425084217
 31
0.0000000000000000
  0
LINE
  5
45E
100
AcDbEntity
  8
WAKU0
  6
CONTINUOUS
 62
3
100
AcDbLine
 10
562.1525233226325
 20
45.27965425084217
 30
0.0000000000000000
 11
634.1525233226325
 21
45.27965425084217
 31
0.0000000000000000
  0
LINE
  5
45F
100
AcDbEntity
  8
WAKU0
  6
HIDDEN
 62
3
100
AcDbLine
 10
682.6525233226325
 20
23.27965425084217
 30
0.0000000000000000
 11
682.6525233226325
 21
12.27965425084217
 31
0.0000000000000000
  0
LINE
  5
460
100
AcDbEntity
  8
WAKU0
  6
HIDDEN
 62
3
100
AcDbLine
 10
695.0525233226325
 20
23.27965425084217
 30
0.0000000000000000
 11
695.0525233226325
 21
12.27965425084217
 31
0.0000000000000000
  0
MTEXT
  5
461
100
AcDbEntity
  8
WAKU0
  6
CONTINUOUS
 62
3
100
AcDbMText
 10
666.6345233469810
 20
49.32965420315846
 30
0.0000000000000000
 40
3.099999904632568
 41
0.0000000000000000
 71
     1
 72
     1
  1
{\H0.91x;{AT10}}
 11
1.000000000000000
 21
0.0000000000000000
 31
0.0000000000000000
  7
STANDARD
  0
MTEXT
  5
462
100
AcDbEntity
  8
WAKU0
  6
CONTINUOUS
 62
3
100
AcDbMText
 10
674.0625237362888
 20
43.77965425084217
 30
0.0000000000000000
 40
3.000000000000000
 41
0.0000000000000000
 71
     1
 72
     1
  1
{\H0.94x;{ワークグリッパ　１０\PＷＯＲＫ　ＧＲＩＰＰＥＲ　１０}}
 11
1.000000000000000
 21
0.0000000000000000
 31
0.0000000000000000
  7
KNJYOKO
  0
MTEXT
  5
463
100
AcDbEntity
  8
WAKU0
  6
CONTINUOUS
 62
3
100
AcDbMText
 10
678.4625228481796
 20
34.51298752059721
 30
0.0000000000000000
 40
3.099999904632568
 41
0.0000000000000000
 71
     1
 72
     1
  1
{\H0.94x;{ＡＴ１０　ガイケイ\PＯＵＴＳＩＤＥ　ＶＩＥＷ}}
 11
1.000000000000000
 21
0.0000000000000000
 31
0.0000000000000000
  7
KNJYOKO
  0
MTEXT
  5
464
100
AcDbEntity
  8
WAKU0
  6
CONTINUOUS
 62
3
100
AcDbMText
 10
640.1575231986549
 20
39.57965420315846
 30
0.0000000000000000
 40
3.099999904632568
 41
0.0000000000000000
 71
     1
 72
     1
  1
{\H0.90x;{2:3}}
 11
1.000000000000000
 21
0.0000000000000000
 31
0.0000000000000000
  7
STANDARD
  0
MTEXT
  5
465
100
AcDbEntity
  8
WAKU0
  6
CONTINUOUS
 62
3
100
AcDbMText
 10
696.5525234776046
 20
20.42965434620960
 30
0.0000000000000000
 40
5.300000190734863
 41
0.0000000000000000
 71
     1
 72
     1
  1
{\H0.90x;{3464}}
 11
1.000000000000000
 21
0.0000000000000000
 31
0.0000000000000000
  7
STANDARD
  0
MTEXT
  5
466
100
AcDbEntity
  8
WAKU0
  6
CONTINUOUS
 62
3
100
AcDbMText
 10
684.4525234060791
 20
20.42965434620960
 30
0.0000000000000000
 40
5.300000190734863
 41
0.0000000000000000
 71
     1
 72
     1
  1
{\H0.87x;{26}}
 11
1.000000000000000
 21
0.0000000000000000
 31
0.0000000000000000
  7
STANDARD
  0
MTEXT
  5
467
100
AcDbEntity
  8
WAKU0
  6
CONTINUOUS
 62
3
100
AcDbMText
 10
667.6525234418418
 20
20.42965434620960
 30
0.0000000000000000
 40
5.300000190734863
 41
0.0000000000000000
 71
     1
 72
     1
  1
{\H0.89x;{61P}}
 11
1.000000000000000
 21
0.0000000000000000
 31
0.0000000000000000
  7
STANDARD
  0
MTEXT
  5
468
100
AcDbEntity
  8
WAKU0
  6
CONTINUOUS
 62
3
100
AcDbMText
 10
722.1525233703162
 20
20.42965434620960
 30
0.0000000000000000
 40
5.300000190734863
 41
0.0000000000000000
 71
     1
 72
     1
  1
{\H0.81x;{1}}
 11
1.000000000000000
 21
0.0000000000000000
 31
0.0000000000000000
  7
STANDARD
  0
MTEXT
  5
469
100
AcDbEntity
  8
WAKU0
  6
CONTINUOUS
 62
3
100
AcDbMText
 10
611.5375236111190
 20
33.27965425084217
 30
0.0000000000000000
 40
3.000000000000000
 41
0.0000000000000000
 71
     7
 72
     1
  1
{\H0.93x;{DRAWN BY}}
 11
1.000000000000000
 21
0.0000000000000000
 31
0.0000000000000000
  7
STANDARD
  0
MTEXT
  5
46A
100
AcDbEntity
  8
WAKU0
  6
CONTINUOUS
 62
3
100
AcDbMText
 10
591.3675231175926
 20
33.22965429852589
 30
0.0000000000000000
 40
3.099999904632568
 41
0.0000000000000000
 71
     7
 72
     1
  1
{\H0.92x;{CHIEF}}
 11
1.000000000000000
 21
0.0000000000000000
 31
0.0000000000000000
  7
STANDARD
  0
MTEXT
  5
46B
100
AcDbEntity
  8
WAKU0
  6
CONTINUOUS
 62
3
100
AcDbMText
 10
564.5775230365302
 20
33.22965429852589
 30
0.0000000000000000
 40
3.099999904632568
 41
0.0000000000000000
 71
     7
 72
     1
  1
{\H0.92x;{MANAGER}}
 11
1.000000000000000
 21
0.0000000000000000
 31
0.0000000000000000
  7
STANDARD
  0
MTEXT
  5
46C
100
AcDbEntity
  8
WAKU0
  6
CONTINUOUS
 62
3
100
AcDbMText
 10
566.8125227528121
 20
18.41298761596465
 30
0.0000000000000000
 40
3.099999904632568
 41
0.0000000000000000
 71
     7
 72
     1
  1
{\H0.93x;{KITAGAWA IRON\PWORKS CO.,LTD.}}
 11
1.000000000000000
 21
0.0000000000000000
 31
0.0000000000000000
  7
STANDARD
  0
MTEXT
  5
46D
100
AcDbEntity
  8
WAKU0
  6
CONTINUOUS
 62
3
100
AcDbMText
 10
563.2375235395934
 20
46.77965425084217
 30
0.0000000000000000
 40
3.000000000000000
 41
0.0000000000000000
 71
     7
 72
     1
  1
{\H0.92x;{CAREER}}
 11
1.000000000000000
 21
0.0000000000000000
 31
0.0000000000000000
  7
STANDARD
  0
MTEXT
  5
46E
100
AcDbEntity
  8
WAKU0
  6
CONTINUOUS
 62
3
100
AcDbMText
 10
616.7625231581237
 20
19.22965429852589
 30
0.0000000000000000
 40
3.099999904632568
 41
0.0000000000000000
 71
     7
 72
     1
  1
{\H0.91x;{DATE}}
 11
1.000000000000000
 21
0.0000000000000000
 31
0.0000000000000000
  7
STANDARD
  0
MTEXT
  5
46F
100
AcDbEntity
  8
WAKU0
  6
CONTINUOUS
 62
3
100
AcDbMText
 10
636.0525235372093
 20
26.77965425084217
 30
0.0000000000000000
 40
3.000000000000000
 41
0.0000000000000000
 71
     7
 72
     1
  1
{\H0.63x;{3RD ANGLE}}
 11
1.000000000000000
 21
0.0000000000000000
 31
0.0000000000000000
  7
STANDARD
  0
MTEXT
  5
470
100
AcDbEntity
  8
WAKU0
  6
CONTINUOUS
 62
3
100
AcDbMText
 10
637.3675231175926
 20
46.22965429852589
 30
0.0000000000000000
 40
3.099999904632568
 41
0.0000000000000000
 71
     7
 72
     1
  1
{\H0.92x;{SCALE}}
 11
1.000000000000000
 21
0.0000000000000000
 31
0.0000000000000000
  7
STANDARD
  0
MTEXT
  5
471
100
AcDbEntity
  8
WAKU0
  6
CONTINUOUS
 62
3
100
AcDbMText
 10
727.8525233703163
 20
46.27965425084217
 30
0.0000000000000000
 40
3.000000000000000
 41
0.0000000000000000
 71
     7
 72
     1
  1
{\H0.63x;{kg}}
 11
1.000000000000000
 21
0.0000000000000000
 31
0.0000000000000000
  7
STANDARD
  0
MTEXT
  5
472
100
AcDbEntity
  8
WAKU0
  6
CONTINUOUS
 62
3
100
AcDbMText
 10
697.7525234656837
 20
46.27965425084217
 30
0.0000000000000000
 40
3.000000000000000
 41
0.0000000000000000
 71
     7
 72
     1
  1
{\H0.63x;{WEIGHT}}
 11
1.000000000000000
 21
0.0000000000000000
 31
0.0000000000000000
  7
STANDARD
  0
MTEXT
  5
473
100
AcDbEntity
  8
WAKU0
  6
CONTINUOUS
 62
3
100
AcDbMText
 10
656.1575231986549
 20
18.41298761596465
 30
0.0000000000000000
 40
3.099999904632568
 41
0.0000000000000000
 71
     7
 72
     1
  1
{\H0.90x;{DRW\PNO.}}
 11
1.000000000000000
 21
0.0000000000000000
 31
0.0000000000000000
  7
STANDARD
  0
MTEXT
  5
474
100
AcDbEntity
  8
WAKU0
  6
CONTINUOUS
 62
3
100
AcDbMText
 10
654.7625231581237
 20
32.22965429852589
 30
0.0000000000000000
 40
3.099999904632568
 41
0.0000000000000000
 71
     7
 72
     1
  1
{\H0.91x;{NAME}}
 11
1.000000000000000
 21
0.0000000000000000
 31
0.0000000000000000
  7
STANDARD
  0
MTEXT
  5
475
100
AcDbEntity
  8
WAKU0
  6
CONTINUOUS
 62
3
100
AcDbMText
 10
654.7625231581237
 20
46.22965429852589
 30
0.0000000000000000
 40
3.099999904632568
 41
0.0000000000000000
 71
     7
 72
     1
  1
{\H0.91x;{TYPE}}
 11
1.000000000000000
 21
0.0000000000000000
 31
0.0000000000000000
  7
STANDARD
  0
LINE
  5
476
100
AcDbEntity
  8
WAKU0
  6
HIDDEN
 62
3
100
AcDbLine
 10
729.3124797970211
 20
14.12965415547474
 30
0.0000000000000000
 11
719.0925669436115
 21
14.12965415547474
 31
0.0000000000000000
  0
LINE
  5
477
100
AcDbEntity
  8
WAKU0
  6
HIDDEN
 62
3
100
AcDbLine
 10
729.3124797970211
 20
14.12965415547467
 30
0.0000000000000000
 11
724.2025233703176
 21
22.98035831099118
 31
0.0000000000000000
  0
LINE
  5
478
100
AcDbEntity
  8
WAKU0
  6
HIDDEN
 62
3
100
AcDbLine
 10
724.2025233703176
 20
22.98035831099119
 30
0.0000000000000000
 11
719.0925669436115
 21
14.12965415547465
 31
0.0000000000000000
  0
LINE
  5
479
100
AcDbEntity
  8
WAKU0
  6
CONTINUOUS
 62
3
100
AcDbLine
 10
652.6239110980125
 20
16.06006846347029
 30
0.0000000000000000
 11
652.6239110980125
 21
22.06006846347032
 31
0.0000000000000000
  0
LINE
  5
47A
100
AcDbEntity
  8
WAKU0
  6
CONTINUOUS
 62
3
100
AcDbLine
 10
646.0862174454551
 20
17.56006846347028
 30
0.0000000000000000
 11
646.0862174454551
 21
20.56006846347042
 31
0.0000000000000000
  0
LINE
  5
47B
100
AcDbEntity
  8
WAKU0
  6
CENTER
 62
12
100
AcDbLine
 10
635.5847038741321
 20
19.06006846347030
 30
0.0000000000000000
 11
653.4291022191019
 21
19.06006846347030
 31
0.0000000000000000
  0
LINE
  5
47C
100
AcDbEntity
  8
WAKU0
  6
CENTER
 62
12
100
AcDbLine
 10
639.5999799084311
 20
14.83887088002665
 30
0.0000000000000000
 11
639.5999799084311
 21
23.17830527234160
 31
0.0000000000000000
  0
LINE
  5
47D
100
AcDbEntity
  8
WAKU0
  6
CONTINUOUS
 62
3
100
AcDbLine
 10
646.0862174454551
 20
20.56006846347015
 30
0.0000000000000000
 11
652.6239110980125
 21
22.06006846347012
 31
0.0000000000000000
  0
LINE
  5
47E
100
AcDbEntity
  8
WAKU0
  6
CONTINUOUS
 62
3
100
AcDbLine
 10
646.0862174454551
 20
17.56006846347028
 30
0.0000000000000000
 11
652.6239110980124
 21
16.06006846347029
 31
0.0000000000000000
  0
CIRCLE
  5
47F
100
AcDbEntity
  8
WAKU0
  6
CONTINUOUS
 62
3
100
AcDbCircle
 10
639.5999799084311
 20
19.06006846347031
 30
0.0000000000000000
 40
1.499999999999972
  0
CIRCLE
  5
480
100
AcDbEntity
  8
WAKU0
  6
CONTINUOUS
 62
3
100
AcDbCircle
 10
639.5999799084311
 20
19.06006846347031
 30
0.0000000000000000
 40
2.999999999999979
  0
ENDSEC
  0
SECTION
  2
OBJECTS
  0
DICTIONARY
  5
4D6
100
AcDbDictionary
  3
ACAD_GROUP
350
4D7
  3
ACAD_MLINESTYLE
350
4D8
  3
DWGPROPS
350
4D9
  0
DICTIONARY
  5
4D7
102
{ACAD_REACTORS
330
4D6
102
}
100
AcDbDictionary
  0
DICTIONARY
  5
4D8
102
{ACAD_REACTORS
330
4D6
102
}
100
AcDbDictionary
  3
STANDARD
350
4DA
  0
MLINESTYLE
  5
4DA
102
{ACAD_REACTORS
330
4D8
102
}
100
AcDbMlineStyle
  2
STANDARD
 70
     0
  3

 62
   256
 51
90.00
 52
90.00
 71
     2
 49
0.50
 62
   256
  6
BYLAYER
 49
-0.50
 62
   256
  6
BYLAYER
  0
XRECORD
  5
4D9
102
{ACAD_REACTORS
330
4D6
102
}
100
AcDbXrecord
280
     1
  1
DWGPROPS COOKIE
  2
ワークグリッパ　１０
  3

  4

  6
ＡＴ１０　ガイケイ
  7

  8

  9

300
=
301
=
302
=
303
=
304
=
305
=
306
=
307
=
308
=
309
=
 40
0.000000
 41
0.000000
 42
0.000000
  1

 90
        0
  0
ENDSEC
  0
EOF
