  0
SECTION
  2
HEADER
  9
$ACADVER
  1
AC1014
  9
$DWGCODEPAGE
  3
ANSI_932
  9
$LTSCALE
 40
20.0
  9
$FILLMODE
 70
     1
  9
$CLAYER
  8
0
  9
$PDMODE
 70
     0
  9
$SPLFRAME
 70
     0
  9
$SPLINETYPE
 70
     6
  9
$SPLINESEGS
 70
     8
  9
$DIMASZ
 40
2.000000
  9
$DIMEXE
 40
2.000000
  9
$DIMEXO
 40
0.800000
  9
$DIMTAD
 70
     1
  9
$DIMTIH
 70
     0
  9
$DIMTOH
 70
     0
  9
$DIMTVP
 40
0.500000
  9
$DIMTXT
 40
3.100000
  9
$EXTMIN
 10
0.000000
 20
0.000000
 30
0.000000
  9
$EXTMAX
 10
420.000000
 20
594.000000
 30
0.000000
  9
$MEASUREMENT
 70
  1
  9
$LIMMIN
 10
0.000000
 20
0.000000
  9
$LIMMAX
 10
420.000000
 20
594.000000
  9
$HANDLING
 70
     1
  9
$HANDSEED
  5
631
  9
$DIMBLK
  1
_OPEN
  9
$DIMDEC
 70
     3
  9
$DIMAUNIT
 70
     1
  9
$DIMZIN
 70
     8
  9
$DIMTOFL
 70
     1
  0
ENDSEC
  0
SECTION
  2
CLASSES
  0
ENDSEC
  0
SECTION
  2
TABLES
  0
TABLE
  2
VPORT
  5
5D8
100
AcDbSymbolTable
 70
     1
  0
VPORT
  5
5D9
100
AcDbSymbolTableRecord
100
AcDbViewportTableRecord
  2
*ACTIVE
 70
     0
 12
297.000000
 22
210.000000
 40
420.000000
 41
1.414286
  0
ENDTAB
  0
TABLE
  2
LTYPE
  5
5DA
100
AcDbSymbolTable
 70
     4
  0
LTYPE
  5
5DB
100
AcDbSymbolTableRecord
100
AcDbLinetypeTableRecord
  2
BYBLOCK
 70
     0
  3

 72
    65
 73
     0
 40
0.0
  0
LTYPE
  5
5DC
100
AcDbSymbolTableRecord
100
AcDbLinetypeTableRecord
  2
BYLAYER
 70
     0
  3

 72
    65
 73
     0
 40
0.0
  0
LTYPE
  5
5DD
100
AcDbSymbolTableRecord
100
AcDbLinetypeTableRecord
  2
CONTINUOUS
 70
     0
  3
Solid line (NEC CAE2D for Win R12.1 : 2018.11.16)
 72
    65
 73
     0
 40
0.0
  0
LTYPE
  5
5DE
100
AcDbSymbolTableRecord
100
AcDbLinetypeTableRecord
  2
HIDDEN
 70
     0
  3
__ __ __ __ __ __ __ __ __ __ __ __ __ __
 72
    65
 73
     2
 40
0.375
 49
0.25
 74
     0
 49
-0.125
 74
     0
  0
LTYPE
  5
5DF
100
AcDbSymbolTableRecord
100
AcDbLinetypeTableRecord
  2
CENTER
 70
     0
  3
____ _ ____ _ ____ _ ____ _ ____ _ ____
 72
    65
 73
     4
 40
2.0
 49
1.25
 74
     0
 49
-0.25
 74
     0
 49
0.25
 74
     0
 49
-0.25
 74
     0
  0
LTYPE
  5
5E0
100
AcDbSymbolTableRecord
100
AcDbLinetypeTableRecord
  2
PHANTOM
 70
     0
  3
______  __  __  ______  __  __  ______ 
 72
    65
 73
     6
 40
2.5
 49
1.25
 74
     0
 49
-0.25
 74
     0
 49
0.25
 74
     0
 49
-0.25
 74
     0
 49
0.25
 74
     0
 49
-0.25
 74
     0
  0
ENDTAB
  0
TABLE
  2
LAYER
  5
5E1
100
AcDbSymbolTable
 70
    11
  0
LAYER
  5
5E2
100
AcDbSymbolTableRecord
100
AcDbLayerTableRecord
  2
0
 70
     0
 62
     7
  6
CONTINUOUS
  0
LAYER
  5
5E3
100
AcDbSymbolTableRecord
100
AcDbLayerTableRecord
  2
MAIN0
 70
     0
 62
     7
  6
CONTINUOUS
  0
LAYER
  5
5E4
100
AcDbSymbolTableRecord
100
AcDbLayerTableRecord
  2
MAIN1
 70
     0
 62
     7
  6
CONTINUOUS
  0
LAYER
  5
5E5
100
AcDbSymbolTableRecord
100
AcDbLayerTableRecord
  2
MAIN2
 70
     0
 62
     7
  6
CONTINUOUS
  0
LAYER
  5
5E6
100
AcDbSymbolTableRecord
100
AcDbLayerTableRecord
  2
MAIN3
 70
     0
 62
     7
  6
CONTINUOUS
  0
LAYER
  5
5E7
100
AcDbSymbolTableRecord
100
AcDbLayerTableRecord
  2
MAIN5
 70
     0
 62
     7
  6
CONTINUOUS
  0
LAYER
  5
5E8
100
AcDbSymbolTableRecord
100
AcDbLayerTableRecord
  2
MAIN6
 70
     0
 62
     7
  6
CONTINUOUS
  0
LAYER
  5
5E9
100
AcDbSymbolTableRecord
100
AcDbLayerTableRecord
  2
MAIN10
 70
     0
 62
     7
  6
CONTINUOUS
  0
LAYER
  5
5EA
100
AcDbSymbolTableRecord
100
AcDbLayerTableRecord
  2
MAIN1023
 70
     0
 62
    16
  6
CONTINUOUS
  0
LAYER
  5
5EB
100
AcDbSymbolTableRecord
100
AcDbLayerTableRecord
  2
WAKU0
 70
     0
 62
     7
  6
CONTINUOUS
  0
LAYER
  5
5EC
100
AcDbSymbolTableRecord
100
AcDbLayerTableRecord
  2
WAKU1023
 70
     0
 62
    16
  6
CONTINUOUS
  0
ENDTAB
  0
TABLE
  2
STYLE
  5
5ED
100
AcDbSymbolTable
 70
     4
  0
STYLE
  5
5EE
100
AcDbSymbolTableRecord
100
AcDbTextStyleTableRecord
  2
STANDARD
 70
    64
 40
0.0
 41
1.0
 50
0.0
 71
     0
 42
3.099999904632568
  3
TXT
  4

  0
STYLE
  5
5EF
100
AcDbSymbolTableRecord
100
AcDbTextStyleTableRecord
  2
ANKTATE
 70
    68
 40
0.0
 41
1.0
 50
0.0
 71
     0
 42
3.099999904632568
  3
TXT
  4

  0
STYLE
  5
77
100
AcDbSymbolTableRecord
100
AcDbTextStyleTableRecord
  2
KNJYOKO
 70
    64
 40
0.0
 41
1.0
 50
0.0
 71
     0
 42
3.099999904632568
  3
TXT
  4
BIGFONT
  0
STYLE
  5
5F0
100
AcDbSymbolTableRecord
100
AcDbTextStyleTableRecord
  2
KNJTATE
 70
    68
 40
0.0
 41
1.0
 50
0.0
 71
     0
 42
3.099999904632568
  3
TXT
  4
BIGFONT
  0
ENDTAB
  0
TABLE
  2
VIEW
  5
5F1
100
AcDbSymbolTable
 70
     0
  0
ENDTAB
  0
TABLE
  2
UCS
  5
5F2
100
AcDbSymbolTable
 70
     0
  0
ENDTAB
  0
TABLE
  2
APPID
  5
5F3
100
AcDbSymbolTable
 70
     1
  0
APPID
  5
5F4
100
AcDbSymbolTableRecord
100
AcDbRegAppTableRecord
  2
ACAD
 70
     0
  0
ENDTAB
  0
TABLE
  2
DIMSTYLE
  5
5F5
100
AcDbSymbolTable
 70
     1
  0
DIMSTYLE
105
5F6
100
AcDbSymbolTableRecord
100
AcDbDimStyleTableRecord
  2
STANDARD
 70
     0
 41
2.000000
 44
2.000000
 42
0.800000
145
0.661290
140
3.100000
144
1.000000
146
0.903226
340
5EE
  0
DIMSTYLE
105
5F7
100
AcDbSymbolTableRecord
100
AcDbDimStyleTableRecord
  2
MAIN001
 70
     0
 41
2.000000
 44
2.000000
 42
0.800000
145
0.661290
140
3.100000
144
1.000000
146
0.903226
 77
     1
 73
     0
 74
     0
271
     3
275
     1
 78
     8
172
     1
340
5EE
  0
DIMSTYLE
105
5F8
100
AcDbSymbolTableRecord
100
AcDbDimStyleTableRecord
  2
WAKU002
 70
     0
 41
2.000000
 44
2.000000
 42
0.800000
145
0.661290
140
3.100000
144
1.000000
146
0.903226
 77
     1
 73
     0
 74
     0
271
     3
275
     1
 78
     8
172
     1
340
5EE
  0
ENDTAB
  0
TABLE
  2
BLOCK_RECORD
  5
5F9
100
AcDbSymbolTable
 70
    57
  0
BLOCK_RECORD
  5
5FA
100
AcDbSymbolTableRecord
100
AcDbBlockTableRecord
  2
*MODEL_SPACE
  0
BLOCK_RECORD
  5
5FB
100
AcDbSymbolTableRecord
100
AcDbBlockTableRecord
  2
*PAPER_SPACE
  0
BLOCK_RECORD
  5
1
100
AcDbSymbolTableRecord
100
AcDbBlockTableRecord
  2
_NONE
  0
BLOCK_RECORD
  5
4
100
AcDbSymbolTableRecord
100
AcDbBlockTableRecord
  2
_CLOSED
  0
BLOCK_RECORD
  5
B
100
AcDbSymbolTableRecord
100
AcDbBlockTableRecord
  2
_DOT
  0
BLOCK_RECORD
  5
13
100
AcDbSymbolTableRecord
100
AcDbBlockTableRecord
  2
_OPEN
  0
BLOCK_RECORD
  5
19
100
AcDbSymbolTableRecord
100
AcDbBlockTableRecord
  2
_ORIGIN
  0
BLOCK_RECORD
  5
1E
100
AcDbSymbolTableRecord
100
AcDbBlockTableRecord
  2
_OPEN30
  0
BLOCK_RECORD
  5
24
100
AcDbSymbolTableRecord
100
AcDbBlockTableRecord
  2
_BOXFILLED
  0
BLOCK_RECORD
  5
29
100
AcDbSymbolTableRecord
100
AcDbBlockTableRecord
  2
_BOXBLANK
  0
BLOCK_RECORD
  5
31
100
AcDbSymbolTableRecord
100
AcDbBlockTableRecord
  2
_OBLIQUE
  0
BLOCK_RECORD
  5
35
100
AcDbSymbolTableRecord
100
AcDbBlockTableRecord
  2
_OPEN90
  0
BLOCK_RECORD
  5
3B
100
AcDbSymbolTableRecord
100
AcDbBlockTableRecord
  2
_CLOSEDBLANK
  0
BLOCK_RECORD
  5
41
100
AcDbSymbolTableRecord
100
AcDbBlockTableRecord
  2
_DOTBLANK
  0
BLOCK_RECORD
  5
5FC
100
AcDbSymbolTableRecord
100
AcDbBlockTableRecord
  2
*D0
  0
BLOCK_RECORD
  5
5FD
100
AcDbSymbolTableRecord
100
AcDbBlockTableRecord
  2
*D1
  0
BLOCK_RECORD
  5
5FE
100
AcDbSymbolTableRecord
100
AcDbBlockTableRecord
  2
*D2
  0
BLOCK_RECORD
  5
5FF
100
AcDbSymbolTableRecord
100
AcDbBlockTableRecord
  2
*D3
  0
BLOCK_RECORD
  5
600
100
AcDbSymbolTableRecord
100
AcDbBlockTableRecord
  2
*D4
  0
BLOCK_RECORD
  5
601
100
AcDbSymbolTableRecord
100
AcDbBlockTableRecord
  2
*D5
  0
BLOCK_RECORD
  5
602
100
AcDbSymbolTableRecord
100
AcDbBlockTableRecord
  2
*D6
  0
BLOCK_RECORD
  5
603
100
AcDbSymbolTableRecord
100
AcDbBlockTableRecord
  2
*D7
  0
BLOCK_RECORD
  5
604
100
AcDbSymbolTableRecord
100
AcDbBlockTableRecord
  2
*D8
  0
BLOCK_RECORD
  5
605
100
AcDbSymbolTableRecord
100
AcDbBlockTableRecord
  2
*D9
  0
BLOCK_RECORD
  5
606
100
AcDbSymbolTableRecord
100
AcDbBlockTableRecord
  2
*D10
  0
BLOCK_RECORD
  5
607
100
AcDbSymbolTableRecord
100
AcDbBlockTableRecord
  2
*D11
  0
BLOCK_RECORD
  5
608
100
AcDbSymbolTableRecord
100
AcDbBlockTableRecord
  2
*D12
  0
BLOCK_RECORD
  5
609
100
AcDbSymbolTableRecord
100
AcDbBlockTableRecord
  2
*D13
  0
BLOCK_RECORD
  5
60A
100
AcDbSymbolTableRecord
100
AcDbBlockTableRecord
  2
*D14
  0
BLOCK_RECORD
  5
60B
100
AcDbSymbolTableRecord
100
AcDbBlockTableRecord
  2
D15
  0
BLOCK_RECORD
  5
60C
100
AcDbSymbolTableRecord
100
AcDbBlockTableRecord
  2
*D16
  0
BLOCK_RECORD
  5
60D
100
AcDbSymbolTableRecord
100
AcDbBlockTableRecord
  2
*D17
  0
BLOCK_RECORD
  5
60E
100
AcDbSymbolTableRecord
100
AcDbBlockTableRecord
  2
*D18
  0
BLOCK_RECORD
  5
60F
100
AcDbSymbolTableRecord
100
AcDbBlockTableRecord
  2
*D19
  0
BLOCK_RECORD
  5
610
100
AcDbSymbolTableRecord
100
AcDbBlockTableRecord
  2
*D20
  0
BLOCK_RECORD
  5
611
100
AcDbSymbolTableRecord
100
AcDbBlockTableRecord
  2
*D21
  0
BLOCK_RECORD
  5
612
100
AcDbSymbolTableRecord
100
AcDbBlockTableRecord
  2
*D22
  0
BLOCK_RECORD
  5
613
100
AcDbSymbolTableRecord
100
AcDbBlockTableRecord
  2
*D23
  0
BLOCK_RECORD
  5
614
100
AcDbSymbolTableRecord
100
AcDbBlockTableRecord
  2
*D24
  0
BLOCK_RECORD
  5
615
100
AcDbSymbolTableRecord
100
AcDbBlockTableRecord
  2
*D25
  0
BLOCK_RECORD
  5
616
100
AcDbSymbolTableRecord
100
AcDbBlockTableRecord
  2
*D26
  0
BLOCK_RECORD
  5
617
100
AcDbSymbolTableRecord
100
AcDbBlockTableRecord
  2
*D27
  0
BLOCK_RECORD
  5
618
100
AcDbSymbolTableRecord
100
AcDbBlockTableRecord
  2
*D28
  0
BLOCK_RECORD
  5
619
100
AcDbSymbolTableRecord
100
AcDbBlockTableRecord
  2
*D29
  0
BLOCK_RECORD
  5
61A
100
AcDbSymbolTableRecord
100
AcDbBlockTableRecord
  2
*D30
  0
BLOCK_RECORD
  5
61B
100
AcDbSymbolTableRecord
100
AcDbBlockTableRecord
  2
*D31
  0
BLOCK_RECORD
  5
61C
100
AcDbSymbolTableRecord
100
AcDbBlockTableRecord
  2
*D32
  0
BLOCK_RECORD
  5
61D
100
AcDbSymbolTableRecord
100
AcDbBlockTableRecord
  2
*D33
  0
BLOCK_RECORD
  5
61E
100
AcDbSymbolTableRecord
100
AcDbBlockTableRecord
  2
*D34
  0
BLOCK_RECORD
  5
61F
100
AcDbSymbolTableRecord
100
AcDbBlockTableRecord
  2
*D35
  0
BLOCK_RECORD
  5
620
100
AcDbSymbolTableRecord
100
AcDbBlockTableRecord
  2
*D36
  0
BLOCK_RECORD
  5
621
100
AcDbSymbolTableRecord
100
AcDbBlockTableRecord
  2
*D37
  0
BLOCK_RECORD
  5
622
100
AcDbSymbolTableRecord
100
AcDbBlockTableRecord
  2
*D38
  0
BLOCK_RECORD
  5
623
100
AcDbSymbolTableRecord
100
AcDbBlockTableRecord
  2
D39
  0
BLOCK_RECORD
  5
624
100
AcDbSymbolTableRecord
100
AcDbBlockTableRecord
  2
*D40
  0
BLOCK_RECORD
  5
625
100
AcDbSymbolTableRecord
100
AcDbBlockTableRecord
  2
*D41
  0
BLOCK_RECORD
  5
626
100
AcDbSymbolTableRecord
100
AcDbBlockTableRecord
  2
M0
  0
BLOCK_RECORD
  5
627
100
AcDbSymbolTableRecord
100
AcDbBlockTableRecord
  2
M1
  0
BLOCK_RECORD
  5
628
100
AcDbSymbolTableRecord
100
AcDbBlockTableRecord
  2
*D42
  0
ENDTAB
  0
ENDSEC
  0
SECTION
  2
BLOCKS
  0
BLOCK
  5
629
100
AcDbEntity
  8
0
100
AcDbBlockBegin
  2
*MODEL_SPACE
 70
     0
 10
0.0
 20
0.0
 30
0.0
  3
*MODEL_SPACE
  1

  0
ENDBLK
  5
62A
100
AcDbEntity
  8
0
100
AcDbBlockEnd
  0
BLOCK
  5
62B
100
AcDbEntity
  8
0
100
AcDbBlockBegin
  2
*PAPER_SPACE
 70
     0
 10
0.0
 20
0.0
 30
0.0
  3
*PAPER_SPACE
  1

  0
ENDBLK
  5
62C
100
AcDbEntity
  8
0
100
AcDbBlockEnd
  0
BLOCK
  5
2
100
AcDbEntity
  8
0
100
AcDbBlockBegin
  2
_NONE
 70
     0
 10
0.0
 20
0.0
 30
0.0
  3
_NONE
  1

  0
ENDBLK
  5
3
100
AcDbEntity
  8
0
100
AcDbBlockEnd
  0
BLOCK
  5
5
100
AcDbEntity
  8
0
100
AcDbBlockBegin
  2
_CLOSED
 70
     0
 10
0.0
 20
0.0
 30
0.0
  3
_CLOSED
  1

  0
LINE
  5
6
100
AcDbEntity
  8
0
  6
BYBLOCK
 62
     0
100
AcDbLine
 10
-1.0
 20
0.166667
 30
0.0
 11
0.0
 21
0.0
 31
0.0
  0
LINE
  5
7
100
AcDbEntity
  8
0
  6
BYBLOCK
 62
     0
100
AcDbLine
 10
0.0
 20
0.0
 30
0.0
 11
-1.0
 21
-0.166667
 31
0.0
  0
LINE
  5
8
100
AcDbEntity
  8
0
  6
BYBLOCK
 62
     0
100
AcDbLine
 10
-1.0
 20
0.166667
 30
0.0
 11
-1.0
 21
-0.166667
 31
0.0
  0
LINE
  5
9
100
AcDbEntity
  8
0
  6
BYBLOCK
 62
     0
100
AcDbLine
 10
0.0
 20
0.0
 30
0.0
 11
-1.0
 21
0.0
 31
0.0
  0
ENDBLK
  5
A
100
AcDbEntity
  8
0
100
AcDbBlockEnd
  0
BLOCK
  5
C
100
AcDbEntity
  8
0
100
AcDbBlockBegin
  2
_DOT
 70
     0
 10
0.0
 20
0.0
 30
0.0
  3
_DOT
  1

  0
POLYLINE
  5
D
100
AcDbEntity
  8
0
  6
BYBLOCK
 62
     0
100
AcDb2dPolyline
 66
     1
 10
0.0
 20
0.0
 30
0.0
 70
     1
 40
0.5
 41
0.5
  0
VERTEX
  5
E
100
AcDbEntity
  8
0
  6
BYBLOCK
 62
     0
100
AcDbVertex
100
AcDb2dVertex
 10
-0.25
 20
0.0
 30
0.0
 42
1.0
  0
VERTEX
  5
F
100
AcDbEntity
  8
0
  6
BYBLOCK
 62
     0
100
AcDbVertex
100
AcDb2dVertex
 10
0.25
 20
0.0
 30
0.0
 42
1.0
  0
SEQEND
  5
10
100
AcDbEntity
  8
0
  6
BYBLOCK
 62
     0
  0
LINE
  5
11
100
AcDbEntity
  8
0
  6
BYBLOCK
 62
     0
100
AcDbLine
 10
-0.5
 20
0.0
 30
0.0
 11
-1.0
 21
0.0
 31
0.0
  0
ENDBLK
  5
12
100
AcDbEntity
  8
0
100
AcDbBlockEnd
  0
BLOCK
  5
14
100
AcDbEntity
  8
0
100
AcDbBlockBegin
  2
_OPEN
 70
     0
 10
0.0
 20
0.0
 30
0.0
  3
_OPEN
  1

  0
LINE
  5
15
100
AcDbEntity
  8
0
  6
BYBLOCK
 62
     0
100
AcDbLine
 10
-1.0
 20
0.166667
 30
0.0
 11
0.0
 21
0.0
 31
0.0
  0
LINE
  5
16
100
AcDbEntity
  8
0
  6
BYBLOCK
 62
     0
100
AcDbLine
 10
0.0
 20
0.0
 30
0.0
 11
-1.0
 21
-0.166667
 31
0.0
  0
LINE
  5
17
100
AcDbEntity
  8
0
  6
BYBLOCK
 62
     0
100
AcDbLine
 10
0.0
 20
0.0
 30
0.0
 11
-1.0
 21
0.0
 31
0.0
  0
ENDBLK
  5
18
100
AcDbEntity
  8
0
100
AcDbBlockEnd
  0
BLOCK
  5
1A
100
AcDbEntity
  8
0
100
AcDbBlockBegin
  2
_ORIGIN
 70
     0
 10
0.0
 20
0.0
 30
0.0
  3
_ORIGIN
  1

  0
CIRCLE
  5
1B
100
AcDbEntity
  8
0
  6
BYBLOCK
 62
     0
100
AcDbCircle
 10
0.0
 20
0.0
 30
0.0
 40
0.5
  0
LINE
  5
1C
100
AcDbEntity
  8
0
  6
BYBLOCK
 62
     0
100
AcDbLine
 10
0.0
 20
0.0
 30
0.0
 11
-1.0
 21
0.0
 31
0.0
  0
ENDBLK
  5
1D
100
AcDbEntity
  8
0
100
AcDbBlockEnd
  0
BLOCK
  5
1F
100
AcDbEntity
  8
0
100
AcDbBlockBegin
  2
_OPEN30
 70
     0
 10
0.0
 20
0.0
 30
0.0
  3
_OPEN30
  1

  0
LINE
  5
20
100
AcDbEntity
  8
0
  6
BYBLOCK
 62
     0
100
AcDbLine
 10
-1.0
 20
0.267949
 30
0.0
 11
0.0
 21
0.0
 31
0.0
  0
LINE
  5
21
100
AcDbEntity
  8
0
  6
BYBLOCK
 62
     0
100
AcDbLine
 10
0.0
 20
0.0
 30
0.0
 11
-1.0
 21
-0.267949
 31
0.0
  0
LINE
  5
22
100
AcDbEntity
  8
0
  6
BYBLOCK
 62
     0
100
AcDbLine
 10
0.0
 20
0.0
 30
0.0
 11
-1.0
 21
0.0
 31
0.0
  0
ENDBLK
  5
23
100
AcDbEntity
  8
0
100
AcDbBlockEnd
  0
BLOCK
  5
25
100
AcDbEntity
  8
0
100
AcDbBlockBegin
  2
_BOXFILLED
 70
     0
 10
0.0
 20
0.0
 30
0.0
  3
_BOXFILLED
  1

  0
SOLID
  5
26
100
AcDbEntity
  8
0
  6
BYBLOCK
 62
     0
100
AcDbTrace
 10
-0.5
 20
0.5
 30
0.0
 11
0.5
 21
0.5
 31
0.0
 12
-0.5
 22
-0.5
 32
0.0
 13
0.5
 23
-0.5
 33
0.0
  0
LINE
  5
27
100
AcDbEntity
  8
0
  6
BYBLOCK
 62
     0
100
AcDbLine
 10
-0.5
 20
0.0
 30
0.0
 11
-1.0
 21
0.0
 31
0.0
  0
ENDBLK
  5
28
100
AcDbEntity
  8
0
100
AcDbBlockEnd
  0
BLOCK
  5
2A
100
AcDbEntity
  8
0
100
AcDbBlockBegin
  2
_BOXBLANK
 70
     0
 10
0.0
 20
0.0
 30
0.0
  3
_BOXBLANK
  1

  0
LINE
  5
2B
100
AcDbEntity
  8
0
  6
BYBLOCK
 62
     0
100
AcDbLine
 10
-0.5
 20
-0.5
 30
0.0
 11
0.5
 21
-0.5
 31
0.0
  0
LINE
  5
2C
100
AcDbEntity
  8
0
  6
BYBLOCK
 62
     0
100
AcDbLine
 10
0.5
 20
-0.5
 30
0.0
 11
0.5
 21
0.5
 31
0.0
  0
LINE
  5
2D
100
AcDbEntity
  8
0
  6
BYBLOCK
 62
     0
100
AcDbLine
 10
0.5
 20
0.5
 30
0.0
 11
-0.5
 21
0.5
 31
0.0
  0
LINE
  5
2E
100
AcDbEntity
  8
0
  6
BYBLOCK
 62
     0
100
AcDbLine
 10
-0.5
 20
0.5
 30
0.0
 11
-0.5
 21
-0.5
 31
0.0
  0
LINE
  5
2F
100
AcDbEntity
  8
0
  6
BYBLOCK
 62
     0
100
AcDbLine
 10
-0.5
 20
0.0
 30
0.0
 11
-1.0
 21
0.0
 31
0.0
  0
ENDBLK
  5
30
100
AcDbEntity
  8
0
100
AcDbBlockEnd
  0
BLOCK
  5
32
100
AcDbEntity
  8
0
100
AcDbBlockBegin
  2
_OBLIQUE
 70
     0
 10
0.0
 20
0.0
 30
0.0
  3
_OBLIQUE
  1

  0
LINE
  5
33
100
AcDbEntity
  8
0
  6
BYBLOCK
 62
     0
100
AcDbLine
 10
-0.5
 20
-0.5
 30
0.0
 11
0.5
 21
0.5
 31
0.0
  0
ENDBLK
  5
34
100
AcDbEntity
  8
0
100
AcDbBlockEnd
  0
BLOCK
  5
36
100
AcDbEntity
  8
0
100
AcDbBlockBegin
  2
_OPEN90
 70
     0
 10
0.0
 20
0.0
 30
0.0
  3
_OPEN90
  1

  0
LINE
  5
37
100
AcDbEntity
  8
0
  6
BYBLOCK
 62
     0
100
AcDbLine
 10
-0.5
 20
0.5
 30
0.0
 11
0.0
 21
0.0
 31
0.0
  0
LINE
  5
38
100
AcDbEntity
  8
0
  6
BYBLOCK
 62
     0
100
AcDbLine
 10
0.0
 20
0.0
 30
0.0
 11
-0.5
 21
-0.5
 31
0.0
  0
LINE
  5
39
100
AcDbEntity
  8
0
  6
BYBLOCK
 62
     0
100
AcDbLine
 10
0.0
 20
0.0
 30
0.0
 11
-1.0
 21
0.0
 31
0.0
  0
ENDBLK
  5
3A
100
AcDbEntity
  8
0
100
AcDbBlockEnd
  0
BLOCK
  5
3C
100
AcDbEntity
  8
0
100
AcDbBlockBegin
  2
_CLOSEDBLANK
 70
     0
 10
0.0
 20
0.0
 30
0.0
  3
_CLOSEDBLANK
  1

  0
LINE
  5
3D
100
AcDbEntity
  8
0
  6
BYBLOCK
 62
     0
100
AcDbLine
 10
-1.0
 20
0.1666666666666666
 30
0.0
 11
0.0
 21
0.0
 31
0.0
  0
LINE
  5
3E
100
AcDbEntity
  8
0
  6
BYBLOCK
 62
     0
100
AcDbLine
 10
0.0
 20
0.0
 30
0.0
 11
-1.0
 21
-0.1666666666666666
 31
0.0
  0
LINE
  5
3F
100
AcDbEntity
  8
0
  6
BYBLOCK
 62
     0
100
AcDbLine
 10
-1.0
 20
0.1666666666666666
 30
0.0
 11
-1.0
 21
-0.1666666666666666
 31
0.0
  0
ENDBLK
  5
40
100
AcDbEntity
  8
0
100
AcDbBlockEnd
  0
BLOCK
  5
42
100
AcDbEntity
  8
0
100
AcDbBlockBegin
  2
_DOTBLANK
 70
     0
 10
0.0
 20
0.0
 30
0.0
  3
_DOTBLANK
  1

  0
CIRCLE
  5
43
100
AcDbEntity
  8
0
  6
BYBLOCK
 62
     0
100
AcDbCircle
 10
0.0
 20
0.0
 30
0.0
 40
0.5
  0
LINE
  5
44
100
AcDbEntity
  8
0
  6
BYBLOCK
 62
     0
100
AcDbLine
 10
-0.5
 20
0.0
 30
0.0
 11
-1.0
 21
0.0
 31
0.0
  0
ENDBLK
  5
45
100
AcDbEntity
  8
0
100
AcDbBlockEnd
  0
BLOCK
  5
6E
100
AcDbEntity
  8
MAIN0
  6
CONTINUOUS
 62
3
100
AcDbBlockBegin
  2
*D0
 70
    65
 10
0.0
 20
0.0
 30
0.0
  0
LINE
  5
6F
100
AcDbEntity
  8
MAIN0
  6
BYBLOCK
 62
0
100
AcDbLine
 10
91.48054801819164
 20
183.3046203159536
 30
0.0000000000000000
 11
71.57468531847317
 21
183.3046203159536
 31
0.0000000000000000
  0
LINE
  5
70
100
AcDbEntity
  8
MAIN0
  6
BYBLOCK
 62
0
100
AcDbLine
 10
73.57468531847317
 20
185.3046203159536
 30
0.0000000000000000
 11
73.57468531847317
 21
384.3046203159536
 31
0.0000000000000000
  0
INSERT
  5
71
100
AcDbEntity
  8
MAIN0
  6
BYBLOCK
 62
0
100
AcDbBlockReference
  2
_OPEN
 10
73.57468531847317
 20
183.3046203159536
 30
0.0000000000000000
 41
2.000000000000000
 42
2.000000000000000
 43
2.000000000000000
 50
270.0000000000000
  0
INSERT
  5
72
100
AcDbEntity
  8
MAIN0
  6
BYBLOCK
 62
0
100
AcDbBlockReference
  2
_OPEN
 10
73.57468531847317
 20
386.3046203159536
 30
0.0000000000000000
 41
2.000000000000000
 42
2.000000000000000
 43
2.000000000000000
 50
90.00000000000000
  0
LINE
  5
73
100
AcDbEntity
  8
MAIN0
  6
BYBLOCK
 62
0
100
AcDbLine
 10
91.48054801819279
 20
386.3046203159535
 30
0.0000000000000000
 11
71.57468531847317
 21
386.3046203159536
 31
0.0000000000000000
  0
MTEXT
  5
74
100
AcDbEntity
  8
MAIN0
  6
BYBLOCK
 62
0
100
AcDbMText
 10
71.52468536615689
 20
284.8046202973271
 30
0.0000000000000000
 40
3.099999904632568
 41
0.0000000000000000
 71
     5
 72
     1
  1
\A1;\U+2205203h7\H0.903226x;\S　0^ －0.046;
 11
6.123233995736766e-017
 21
1.000000000000000
 31
0.0000000000000000
  7
KNJYOKO
  0
ENDBLK
  5
75
100
AcDbEntity
  8
MAIN0
  6
CONTINUOUS
 62
3
100
AcDbBlockEnd
  0
BLOCK
  5
78
100
AcDbEntity
  8
MAIN0
  6
CONTINUOUS
 62
3
100
AcDbBlockBegin
  2
*D1
 70
    65
 10
0.0
 20
0.0
 30
0.0
  0
LINE
  5
79
100
AcDbEntity
  8
MAIN0
  6
BYBLOCK
 62
0
100
AcDbLine
 10
106.6805480301119
 20
181.0046203040409
 30
0.0000000000000000
 11
106.6805480301119
 21
165.0259933305985
 31
0.0000000000000000
  0
LINE
  5
7A
100
AcDbEntity
  8
MAIN0
  6
BYBLOCK
 62
0
100
AcDbLine
 10
108.6805480301119
 20
167.0259933305985
 30
0.0000000000000000
 11
134.6805480301119
 21
167.0259933305985
 31
0.0000000000000000
  0
INSERT
  5
7B
100
AcDbEntity
  8
MAIN0
  6
BYBLOCK
 62
0
100
AcDbBlockReference
  2
_OPEN
 10
106.6805480301119
 20
167.0259933305985
 30
0.0000000000000000
 41
2.000000000000000
 42
2.000000000000000
 43
2.000000000000000
 50
180.0000000000000
  0
INSERT
  5
7C
100
AcDbEntity
  8
MAIN0
  6
BYBLOCK
 62
0
100
AcDbBlockReference
  2
_OPEN
 10
136.6805480301119
 20
167.0259933305985
 30
0.0000000000000000
 41
2.000000000000000
 42
2.000000000000000
 43
2.000000000000000
 50
0.0000000000000000
  0
LINE
  5
7D
100
AcDbEntity
  8
MAIN0
  6
BYBLOCK
 62
0
100
AcDbLine
 10
136.6805480301119
 20
181.0046203040452
 30
0.0000000000000000
 11
136.6805480301119
 21
165.0259933305985
 31
0.0000000000000000
  0
MTEXT
  5
7E
100
AcDbEntity
  8
MAIN0
  6
BYBLOCK
 62
0
100
AcDbMText
 10
121.6805480301119
 20
169.0759932829148
 30
0.0000000000000000
 40
3.099999904632568
 41
0.0000000000000000
 71
     5
 72
     1
  1
\A1;30
 11
1.000000000000000
 21
0.0000000000000000
 31
0.0000000000000000
  7
STANDARD
  0
ENDBLK
  5
7F
100
AcDbEntity
  8
MAIN0
  6
CONTINUOUS
 62
3
100
AcDbBlockEnd
  0
BLOCK
  5
81
100
AcDbEntity
  8
MAIN0
  6
CONTINUOUS
 62
3
100
AcDbBlockBegin
  2
*D2
 70
    65
 10
0.0
 20
0.0
 30
0.0
  0
LINE
  5
82
100
AcDbEntity
  8
MAIN0
  6
BYBLOCK
 62
0
100
AcDbLine
 10
100.1805480301117
 20
179.8380440958758
 30
0.0000000000000000
 11
100.1805480301117
 21
171.3539095021375
 31
0.0000000000000000
  0
LINE
  5
83
100
AcDbEntity
  8
MAIN0
  6
BYBLOCK
 62
0
100
AcDbLine
 10
100.1805480301117
 20
173.3539095021375
 30
0.0000000000000000
 11
106.6805480301116
 21
173.3539095021375
 31
0.0000000000000000
  0
INSERT
  5
84
100
AcDbEntity
  8
MAIN0
  6
BYBLOCK
 62
0
100
AcDbBlockReference
  2
_OPEN
 10
100.1805480301117
 20
173.3539095021375
 30
0.0000000000000000
 41
2.000000000000000
 42
2.000000000000000
 43
2.000000000000000
 50
0.0000000000000000
  0
INSERT
  5
85
100
AcDbEntity
  8
MAIN0
  6
BYBLOCK
 62
0
100
AcDbBlockReference
  2
_OPEN
 10
106.6805480301116
 20
173.3539095021375
 30
0.0000000000000000
 41
2.000000000000000
 42
2.000000000000000
 43
2.000000000000000
 50
180.0000000000000
  0
LINE
  5
86
100
AcDbEntity
  8
MAIN0
  6
BYBLOCK
 62
0
100
AcDbLine
 10
98.18054803011167
 20
173.3539095021375
 30
0.0000000000000000
 11
97.18054803011167
 21
173.3539095021375
 31
0.0000000000000000
  0
LINE
  5
87
100
AcDbEntity
  8
MAIN0
  6
BYBLOCK
 62
0
100
AcDbLine
 10
108.6805480301116
 20
173.3539095021375
 30
0.0000000000000000
 11
109.6805480301116
 21
173.3539095021375
 31
0.0000000000000000
  0
LINE
  5
88
100
AcDbEntity
  8
MAIN0
  6
BYBLOCK
 62
0
100
AcDbLine
 10
106.6805480301116
 20
183.1046203040325
 30
0.0000000000000000
 11
106.6805480301116
 21
171.3539095021375
 31
0.0000000000000000
  0
MTEXT
  5
89
100
AcDbEntity
  8
MAIN0
  6
BYBLOCK
 62
0
100
AcDbMText
 10
103.4305480301117
 20
175.4039094544538
 30
0.0000000000000000
 40
3.099999904632568
 41
0.0000000000000000
 71
     5
 72
     1
  1
\A1;6.5
 11
1.000000000000000
 21
0.0000000000000000
 31
0.0000000000000000
  7
STANDARD
  0
ENDBLK
  5
8A
100
AcDbEntity
  8
MAIN0
  6
CONTINUOUS
 62
3
100
AcDbBlockEnd
  0
BLOCK
  5
8C
100
AcDbEntity
  8
MAIN0
  6
CONTINUOUS
 62
3
100
AcDbBlockBegin
  2
*D3
 70
    65
 10
0.0
 20
0.0
 30
0.0
  0
LINE
  5
8D
100
AcDbEntity
  8
MAIN0
  6
BYBLOCK
 62
0
100
AcDbLine
 10
106.6805480301116
 20
183.1046203040325
 30
0.0000000000000000
 11
106.6805480301116
 21
171.3539095021375
 31
0.0000000000000000
  0
LINE
  5
8E
100
AcDbEntity
  8
MAIN0
  6
BYBLOCK
 62
0
100
AcDbLine
 10
108.6805480301116
 20
173.3539095021375
 30
0.0000000000000000
 11
119.6805480300143
 21
173.3539095021375
 31
0.0000000000000000
  0
INSERT
  5
8F
100
AcDbEntity
  8
MAIN0
  6
BYBLOCK
 62
0
100
AcDbBlockReference
  2
_OPEN
 10
106.6805480301116
 20
173.3539095021375
 30
0.0000000000000000
 41
2.000000000000000
 42
2.000000000000000
 43
2.000000000000000
 50
180.0000000000000
  0
INSERT
  5
90
100
AcDbEntity
  8
MAIN0
  6
BYBLOCK
 62
0
100
AcDbBlockReference
  2
_OPEN
 10
121.6805480300143
 20
173.3539095021375
 30
0.0000000000000000
 41
2.000000000000000
 42
2.000000000000000
 43
2.000000000000000
 50
0.0000000000000000
  0
LINE
  5
91
100
AcDbEntity
  8
MAIN0
  6
BYBLOCK
 62
0
100
AcDbLine
 10
121.6805480300143
 20
174.9925479454147
 30
0.0000000000000000
 11
121.6805480300143
 21
171.3539095021375
 31
0.0000000000000000
  0
MTEXT
  5
92
100
AcDbEntity
  8
MAIN0
  6
BYBLOCK
 62
0
100
AcDbMText
 10
114.1805480300629
 20
175.4039094544538
 30
0.0000000000000000
 40
3.099999904632568
 41
0.0000000000000000
 71
     5
 72
     1
  1
\A1;15
 11
1.000000000000000
 21
0.0000000000000000
 31
0.0000000000000000
  7
STANDARD
  0
ENDBLK
  5
93
100
AcDbEntity
  8
MAIN0
  6
CONTINUOUS
 62
3
100
AcDbBlockEnd
  0
BLOCK
  5
95
100
AcDbEntity
  8
MAIN0
  6
CONTINUOUS
 62
3
100
AcDbBlockBegin
  2
*D4
 70
    65
 10
0.0
 20
0.0
 30
0.0
  0
LINE
  5
96
100
AcDbEntity
  8
MAIN0
  6
BYBLOCK
 62
0
100
AcDbLine
 10
209.6805480301236
 20
365.6046203278740
 30
0.0000000000000000
 11
209.6805480301236
 21
375.7862373194377
 31
0.0000000000000000
  0
LINE
  5
97
100
AcDbEntity
  8
MAIN0
  6
BYBLOCK
 62
0
100
AcDbLine
 10
211.6805480301236
 20
373.7862373194377
 30
0.0000000000000000
 11
226.9805480301234
 21
373.7862373194377
 31
0.0000000000000000
  0
INSERT
  5
98
100
AcDbEntity
  8
MAIN0
  6
BYBLOCK
 62
0
100
AcDbBlockReference
  2
_OPEN
 10
209.6805480301236
 20
373.7862373194377
 30
0.0000000000000000
 41
2.000000000000000
 42
2.000000000000000
 43
2.000000000000000
 50
180.0000000000000
  0
INSERT
  5
99
100
AcDbEntity
  8
MAIN0
  6
BYBLOCK
 62
0
100
AcDbBlockReference
  2
_OPEN
 10
228.9805480301234
 20
373.7862373194377
 30
0.0000000000000000
 41
2.000000000000000
 42
2.000000000000000
 43
2.000000000000000
 50
0.0000000000000000
  0
LINE
  5
9A
100
AcDbEntity
  8
MAIN0
  6
BYBLOCK
 62
0
100
AcDbLine
 10
228.9805480301234
 20
358.6296203278741
 30
0.0000000000000000
 11
228.9805480301234
 21
375.7862373194377
 31
0.0000000000000000
  0
MTEXT
  5
9B
100
AcDbEntity
  8
MAIN0
  6
BYBLOCK
 62
0
100
AcDbMText
 10
219.3305480301235
 20
375.8362372717539
 30
0.0000000000000000
 40
3.099999904632568
 41
0.0000000000000000
 71
     5
 72
     1
  1
\A1;19.3
 11
1.000000000000000
 21
0.0000000000000000
 31
0.0000000000000000
  7
STANDARD
  0
ENDBLK
  5
9C
100
AcDbEntity
  8
MAIN0
  6
CONTINUOUS
 62
3
100
AcDbBlockEnd
  0
BLOCK
  5
9E
100
AcDbEntity
  8
MAIN0
  6
CONTINUOUS
 62
3
100
AcDbBlockBegin
  2
*D5
 70
    65
 10
0.0
 20
0.0
 30
0.0
  0
LINE
  5
9F
100
AcDbEntity
  8
MAIN0
  6
BYBLOCK
 62
0
100
AcDbLine
 10
228.9805480301234
 20
358.6296203278741
 30
0.0000000000000000
 11
228.9805480301234
 21
375.7862373194377
 31
0.0000000000000000
  0
LINE
  5
A0
100
AcDbEntity
  8
MAIN0
  6
BYBLOCK
 62
0
100
AcDbLine
 10
230.9805480301234
 20
373.7862373194377
 30
0.0000000000000000
 11
274.6805480301236
 21
373.7862373194377
 31
0.0000000000000000
  0
INSERT
  5
A1
100
AcDbEntity
  8
MAIN0
  6
BYBLOCK
 62
0
100
AcDbBlockReference
  2
_OPEN
 10
228.9805480301234
 20
373.7862373194377
 30
0.0000000000000000
 41
2.000000000000000
 42
2.000000000000000
 43
2.000000000000000
 50
180.0000000000000
  0
INSERT
  5
A2
100
AcDbEntity
  8
MAIN0
  6
BYBLOCK
 62
0
100
AcDbBlockReference
  2
_OPEN
 10
276.6805480301236
 20
373.7862373194377
 30
0.0000000000000000
 41
2.000000000000000
 42
2.000000000000000
 43
2.000000000000000
 50
0.0000000000000000
  0
LINE
  5
A3
100
AcDbEntity
  8
MAIN0
  6
BYBLOCK
 62
0
100
AcDbLine
 10
276.6805480301236
 20
357.6296203278740
 30
0.0000000000000000
 11
276.6805480301236
 21
375.7862373194377
 31
0.0000000000000000
  0
MTEXT
  5
A4
100
AcDbEntity
  8
MAIN0
  6
BYBLOCK
 62
0
100
AcDbMText
 10
252.8305480301235
 20
375.8362372717539
 30
0.0000000000000000
 40
3.099999904632568
 41
0.0000000000000000
 71
     5
 72
     1
  1
\A1;47.7
 11
1.000000000000000
 21
0.0000000000000000
 31
0.0000000000000000
  7
STANDARD
  0
ENDBLK
  5
A5
100
AcDbEntity
  8
MAIN0
  6
CONTINUOUS
 62
3
100
AcDbBlockEnd
  0
BLOCK
  5
A7
100
AcDbEntity
  8
MAIN0
  6
CONTINUOUS
 62
3
100
AcDbBlockBegin
  2
*D6
 70
    65
 10
0.0
 20
0.0
 30
0.0
  0
LINE
  5
A8
100
AcDbEntity
  8
MAIN0
  6
BYBLOCK
 62
0
100
AcDbLine
 10
228.9805480301234
 20
358.6296203278741
 30
0.0000000000000000
 11
228.9805480301234
 21
369.0472812097768
 31
0.0000000000000000
  0
LINE
  5
A9
100
AcDbEntity
  8
MAIN0
  6
BYBLOCK
 62
0
100
AcDbLine
 10
230.9805480301234
 20
367.0472812097768
 30
0.0000000000000000
 11
251.8805480301236
 21
367.0472812097768
 31
0.0000000000000000
  0
INSERT
  5
AA
100
AcDbEntity
  8
MAIN0
  6
BYBLOCK
 62
0
100
AcDbBlockReference
  2
_OPEN
 10
228.9805480301234
 20
367.0472812097768
 30
0.0000000000000000
 41
2.000000000000000
 42
2.000000000000000
 43
2.000000000000000
 50
180.0000000000000
  0
INSERT
  5
AB
100
AcDbEntity
  8
MAIN0
  6
BYBLOCK
 62
0
100
AcDbBlockReference
  2
_OPEN
 10
253.8805480301236
 20
367.0472812097768
 30
0.0000000000000000
 41
2.000000000000000
 42
2.000000000000000
 43
2.000000000000000
 50
0.0000000000000000
  0
LINE
  5
AC
100
AcDbEntity
  8
MAIN0
  6
BYBLOCK
 62
0
100
AcDbLine
 10
253.8805480301236
 20
336.2296203278739
 30
0.0000000000000000
 11
253.8805480301236
 21
369.0472812097768
 31
0.0000000000000000
  0
MTEXT
  5
AD
100
AcDbEntity
  8
MAIN0
  6
BYBLOCK
 62
0
100
AcDbMText
 10
241.4305480301235
 20
369.0972811620931
 30
0.0000000000000000
 40
3.099999904632568
 41
0.0000000000000000
 71
     5
 72
     1
  1
\A1;24.9
 11
1.000000000000000
 21
0.0000000000000000
 31
0.0000000000000000
  7
STANDARD
  0
ENDBLK
  5
AE
100
AcDbEntity
  8
MAIN0
  6
CONTINUOUS
 62
3
100
AcDbBlockEnd
  0
BLOCK
  5
B0
100
AcDbEntity
  8
MAIN0
  6
CONTINUOUS
 62
3
100
AcDbBlockBegin
  2
*D7
 70
    65
 10
0.0
 20
0.0
 30
0.0
  0
LINE
  5
B1
100
AcDbEntity
  8
MAIN0
  6
BYBLOCK
 62
0
100
AcDbLine
 10
91.68054803011253
 20
183.1046203040326
 30
0.0000000000000000
 11
91.68054803011253
 21
159.0798400110507
 31
0.0000000000000000
  0
LINE
  5
B2
100
AcDbEntity
  8
MAIN0
  6
BYBLOCK
 62
0
100
AcDbLine
 10
93.68054803011253
 20
161.0798400110507
 30
0.0000000000000000
 11
104.6805480301119
 21
161.0798400110507
 31
0.0000000000000000
  0
INSERT
  5
B3
100
AcDbEntity
  8
MAIN0
  6
BYBLOCK
 62
0
100
AcDbBlockReference
  2
_OPEN
 10
91.68054803011253
 20
161.0798400110507
 30
0.0000000000000000
 41
2.000000000000000
 42
2.000000000000000
 43
2.000000000000000
 50
180.0000000000000
  0
INSERT
  5
B4
100
AcDbEntity
  8
MAIN0
  6
BYBLOCK
 62
0
100
AcDbBlockReference
  2
_OPEN
 10
106.6805480301119
 20
161.0798400110507
 30
0.0000000000000000
 41
2.000000000000000
 42
2.000000000000000
 43
2.000000000000000
 50
0.0000000000000000
  0
LINE
  5
B5
100
AcDbEntity
  8
MAIN0
  6
BYBLOCK
 62
0
100
AcDbLine
 10
106.6805480301119
 20
181.0046203040409
 30
0.0000000000000000
 11
106.6805480301119
 21
159.0798400110507
 31
0.0000000000000000
  0
MTEXT
  5
B6
100
AcDbEntity
  8
MAIN0
  6
BYBLOCK
 62
0
100
AcDbMText
 10
99.18054803011219
 20
163.1298399633670
 30
0.0000000000000000
 40
3.099999904632568
 41
0.0000000000000000
 71
     5
 72
     1
  1
\A1;15
 11
1.000000000000000
 21
0.0000000000000000
 31
0.0000000000000000
  7
STANDARD
  0
ENDBLK
  5
B7
100
AcDbEntity
  8
MAIN0
  6
CONTINUOUS
 62
3
100
AcDbBlockEnd
  0
BLOCK
  5
B9
100
AcDbEntity
  8
MAIN0
  6
CONTINUOUS
 62
3
100
AcDbBlockBegin
  2
*D8
 70
    65
 10
0.0
 20
0.0
 30
0.0
  0
LINE
  5
BA
100
AcDbEntity
  8
MAIN0
  6
BYBLOCK
 62
0
100
AcDbLine
 10
106.6805480301119
 20
181.0046203040409
 30
0.0000000000000000
 11
106.6805480301119
 21
159.0798400110507
 31
0.0000000000000000
  0
LINE
  5
BB
100
AcDbEntity
  8
MAIN0
  6
BYBLOCK
 62
0
100
AcDbLine
 10
108.6805480301119
 20
161.0798400110507
 30
0.0000000000000000
 11
143.6805480301237
 21
161.0798400110507
 31
0.0000000000000000
  0
INSERT
  5
BC
100
AcDbEntity
  8
MAIN0
  6
BYBLOCK
 62
0
100
AcDbBlockReference
  2
_OPEN
 10
106.6805480301119
 20
161.0798400110507
 30
0.0000000000000000
 41
2.000000000000000
 42
2.000000000000000
 43
2.000000000000000
 50
180.0000000000000
  0
INSERT
  5
BD
100
AcDbEntity
  8
MAIN0
  6
BYBLOCK
 62
0
100
AcDbBlockReference
  2
_OPEN
 10
145.6805480301237
 20
161.0798400110507
 30
0.0000000000000000
 41
2.000000000000000
 42
2.000000000000000
 43
2.000000000000000
 50
0.0000000000000000
  0
LINE
  5
BE
100
AcDbEntity
  8
MAIN0
  6
BYBLOCK
 62
0
100
AcDbLine
 10
145.6805480301237
 20
203.4046203040324
 30
0.0000000000000000
 11
145.6805480301237
 21
159.0798400110507
 31
0.0000000000000000
  0
MTEXT
  5
BF
100
AcDbEntity
  8
MAIN0
  6
BYBLOCK
 62
0
100
AcDbMText
 10
126.1805480301178
 20
163.1298399633670
 30
0.0000000000000000
 40
3.099999904632568
 41
0.0000000000000000
 71
     5
 72
     1
  1
\A1;39
 11
1.000000000000000
 21
0.0000000000000000
 31
0.0000000000000000
  7
STANDARD
  0
ENDBLK
  5
C0
100
AcDbEntity
  8
MAIN0
  6
CONTINUOUS
 62
3
100
AcDbBlockEnd
  0
BLOCK
  5
C2
100
AcDbEntity
  8
MAIN0
  6
CONTINUOUS
 62
3
100
AcDbBlockBegin
  2
*D9
 70
    65
 10
0.0
 20
0.0
 30
0.0
  0
LINE
  5
C3
100
AcDbEntity
  8
MAIN0
  6
BYBLOCK
 62
0
100
AcDbLine
 10
145.6805480301237
 20
203.4046203040324
 30
0.0000000000000000
 11
145.6805480301237
 21
159.0798400110507
 31
0.0000000000000000
  0
LINE
  5
C4
100
AcDbEntity
  8
MAIN0
  6
BYBLOCK
 62
0
100
AcDbLine
 10
147.6805480301237
 20
161.0798400110507
 30
0.0000000000000000
 11
207.6805480301007
 21
161.0798400110507
 31
0.0000000000000000
  0
INSERT
  5
C5
100
AcDbEntity
  8
MAIN0
  6
BYBLOCK
 62
0
100
AcDbBlockReference
  2
_OPEN
 10
145.6805480301237
 20
161.0798400110507
 30
0.0000000000000000
 41
2.000000000000000
 42
2.000000000000000
 43
2.000000000000000
 50
180.0000000000000
  0
INSERT
  5
C6
100
AcDbEntity
  8
MAIN0
  6
BYBLOCK
 62
0
100
AcDbBlockReference
  2
_OPEN
 10
209.6805480301007
 20
161.0798400110507
 30
0.0000000000000000
 41
2.000000000000000
 42
2.000000000000000
 43
2.000000000000000
 50
0.0000000000000000
  0
LINE
  5
C7
100
AcDbEntity
  8
MAIN0
  6
BYBLOCK
 62
0
100
AcDbLine
 10
209.6805480301007
 20
204.0046203040095
 30
0.0000000000000000
 11
209.6805480301007
 21
159.0798400110507
 31
0.0000000000000000
  0
MTEXT
  5
C8
100
AcDbEntity
  8
MAIN0
  6
BYBLOCK
 62
0
100
AcDbMText
 10
177.6805480301122
 20
163.1298399633670
 30
0.0000000000000000
 40
3.099999904632568
 41
0.0000000000000000
 71
     5
 72
     1
  1
\A1;64
 11
1.000000000000000
 21
0.0000000000000000
 31
0.0000000000000000
  7
STANDARD
  0
ENDBLK
  5
C9
100
AcDbEntity
  8
MAIN0
  6
CONTINUOUS
 62
3
100
AcDbBlockEnd
  0
BLOCK
  5
CB
100
AcDbEntity
  8
MAIN0
  6
CONTINUOUS
 62
3
100
AcDbBlockBegin
  2
*D10
 70
    65
 10
0.0
 20
0.0
 30
0.0
  0
LINE
  5
CC
100
AcDbEntity
  8
MAIN0
  6
BYBLOCK
 62
0
100
AcDbLine
 10
394.6805480301438
 20
181.0046203040322
 30
0.0000000000000000
 11
394.6805480301438
 21
158.2366750345286
 31
0.0000000000000000
  0
LINE
  5
CD
100
AcDbEntity
  8
MAIN0
  6
BYBLOCK
 62
0
100
AcDbLine
 10
396.6805480301438
 20
160.2366750345286
 30
0.0000000000000000
 11
472.6805480301438
 21
160.2366750345286
 31
0.0000000000000000
  0
INSERT
  5
CE
100
AcDbEntity
  8
MAIN0
  6
BYBLOCK
 62
0
100
AcDbBlockReference
  2
_OPEN
 10
394.6805480301438
 20
160.2366750345286
 30
0.0000000000000000
 41
2.000000000000000
 42
2.000000000000000
 43
2.000000000000000
 50
180.0000000000000
  0
INSERT
  5
CF
100
AcDbEntity
  8
MAIN0
  6
BYBLOCK
 62
0
100
AcDbBlockReference
  2
_OPEN
 10
474.6805480301438
 20
160.2366750345286
 30
0.0000000000000000
 41
2.000000000000000
 42
2.000000000000000
 43
2.000000000000000
 50
0.0000000000000000
  0
LINE
  5
D0
100
AcDbEntity
  8
MAIN0
  6
BYBLOCK
 62
0
100
AcDbLine
 10
474.6805480301438
 20
181.0046203040322
 30
0.0000000000000000
 11
474.6805480301438
 21
158.2366750345286
 31
0.0000000000000000
  0
MTEXT
  5
D1
100
AcDbEntity
  8
MAIN0
  6
BYBLOCK
 62
0
100
AcDbMText
 10
434.6805480301438
 20
162.2866749868448
 30
0.0000000000000000
 40
3.099999904632568
 41
0.0000000000000000
 71
     5
 72
     1
  1
\A1;80
 11
1.000000000000000
 21
0.0000000000000000
 31
0.0000000000000000
  7
STANDARD
  0
ENDBLK
  5
D2
100
AcDbEntity
  8
MAIN0
  6
CONTINUOUS
 62
3
100
AcDbBlockEnd
  0
BLOCK
  5
D4
100
AcDbEntity
  8
MAIN0
  6
CONTINUOUS
 62
3
100
AcDbBlockBegin
  2
*D11
 70
    65
 10
0.0
 20
0.0
 30
0.0
  0
LINE
  5
D5
100
AcDbEntity
  8
MAIN0
  6
BYBLOCK
 62
0
100
AcDbLine
 10
409.2805480301131
 20
357.6046203278742
 30
0.0000000000000000
 11
409.2805480301131
 21
403.9573060175595
 31
0.0000000000000000
  0
LINE
  5
D6
100
AcDbEntity
  8
MAIN0
  6
BYBLOCK
 62
0
100
AcDbLine
 10
411.2805480301131
 20
401.9573060175595
 30
0.0000000000000000
 11
458.0805480301129
 21
401.9573060175595
 31
0.0000000000000000
  0
INSERT
  5
D7
100
AcDbEntity
  8
MAIN0
  6
BYBLOCK
 62
0
100
AcDbBlockReference
  2
_OPEN
 10
409.2805480301131
 20
401.9573060175595
 30
0.0000000000000000
 41
2.000000000000000
 42
2.000000000000000
 43
2.000000000000000
 50
180.0000000000000
  0
INSERT
  5
D8
100
AcDbEntity
  8
MAIN0
  6
BYBLOCK
 62
0
100
AcDbBlockReference
  2
_OPEN
 10
460.0805480301129
 20
401.9573060175595
 30
0.0000000000000000
 41
2.000000000000000
 42
2.000000000000000
 43
2.000000000000000
 50
0.0000000000000000
  0
LINE
  5
D9
100
AcDbEntity
  8
MAIN0
  6
BYBLOCK
 62
0
100
AcDbLine
 10
460.0805480301129
 20
357.6046203278742
 30
0.0000000000000000
 11
460.0805480301129
 21
403.9573060175595
 31
0.0000000000000000
  0
MTEXT
  5
DA
100
AcDbEntity
  8
MAIN0
  6
BYBLOCK
 62
0
100
AcDbMText
 10
434.6805480301130
 20
404.0073059698757
 30
0.0000000000000000
 40
3.099999904632568
 41
0.0000000000000000
 71
     5
 72
     1
  1
\A1;50.8
 11
1.000000000000000
 21
0.0000000000000000
 31
0.0000000000000000
  7
STANDARD
  0
ENDBLK
  5
DB
100
AcDbEntity
  8
MAIN0
  6
CONTINUOUS
 62
3
100
AcDbBlockEnd
  0
BLOCK
  5
E1
100
AcDbEntity
  8
MAIN0
  6
CONTINUOUS
 62
3
100
AcDbBlockBegin
  2
*D12
 70
    65
 10
0.0
 20
0.0
 30
0.0
  0
LINE
  5
E2
100
AcDbEntity
  8
MAIN0
  6
BYBLOCK
 62
0
100
AcDbLine
 10
523.3148285251448
 20
266.5230908086101
 30
0.0000000000000000
 11
346.0462675350794
 21
303.0861498232964
 31
0.0000000000000000
  0
INSERT
  5
E3
100
AcDbEntity
  8
MAIN0
  6
BYBLOCK
 62
0
100
AcDbBlockReference
  2
_OPEN
 10
525.2735971548692
 20
266.1190791067903
 30
0.0000000000000000
 41
2.000000000000000
 42
2.000000000000000
 43
2.000000000000000
 50
348.3457197012697
  0
INSERT
  5
E4
100
AcDbEntity
  8
MAIN0
  6
BYBLOCK
 62
0
100
AcDbBlockReference
  2
_OPEN
 10
344.0874989053549
 20
303.4901615251161
 30
0.0000000000000000
 41
2.000000000000000
 42
2.000000000000000
 43
2.000000000000000
 50
168.3457197012696
  0
MTEXT
  5
E5
100
AcDbEntity
  8
MAIN0
  6
BYBLOCK
 62
0
100
AcDbMText
 10
375.4778354089966
 20
299.1088051787541
 30
0.0000000000000000
 40
3.099999904632568
 41
0.0000000000000000
 71
     5
 72
     1
  1
\A1;\U+2205185\H0.903226x;\U+00B10.2
 11
0.9793843148622401
 21
-0.2020058509098696
 31
0.0000000000000000
  7
STANDARD
  0
ENDBLK
  5
E6
100
AcDbEntity
  8
MAIN0
  6
CONTINUOUS
 62
3
100
AcDbBlockEnd
  0
BLOCK
  5
123
100
AcDbEntity
  8
MAIN0
  6
CONTINUOUS
 62
3
100
AcDbBlockBegin
  2
*D13
 70
    65
 10
0.0
 20
0.0
 30
0.0
  0
LINE
  5
124
100
AcDbEntity
  8
MAIN0
  6
BYBLOCK
 62
0
100
AcDbLine
 10
235.8405480420329
 20
65.76962031595326
 30
0.0000000000000000
 11
255.0496994224264
 21
65.76962031595326
 31
0.0000000000000000
  0
LINE
  5
125
100
AcDbEntity
  8
MAIN0
  6
BYBLOCK
 62
0
100
AcDbLine
 10
253.0496994224264
 20
67.76962031595326
 30
0.0000000000000000
 11
253.0496994224264
 21
101.8396203159533
 31
0.0000000000000000
  0
INSERT
  5
126
100
AcDbEntity
  8
MAIN0
  6
BYBLOCK
 62
0
100
AcDbBlockReference
  2
_OPEN
 10
253.0496994224264
 20
65.76962031595326
 30
0.0000000000000000
 41
2.000000000000000
 42
2.000000000000000
 43
2.000000000000000
 50
270.0000000000000
  0
INSERT
  5
127
100
AcDbEntity
  8
MAIN0
  6
BYBLOCK
 62
0
100
AcDbBlockReference
  2
_OPEN
 10
253.0496994224264
 20
103.8396203159533
 30
0.0000000000000000
 41
2.000000000000000
 42
2.000000000000000
 43
2.000000000000000
 50
90.00000000000000
  0
LINE
  5
128
100
AcDbEntity
  8
MAIN0
  6
BYBLOCK
 62
0
100
AcDbLine
 10
235.8405480420327
 20
103.8396203159533
 30
0.0000000000000000
 11
255.0496994224264
 21
103.8396203159533
 31
0.0000000000000000
  0
MTEXT
  5
129
100
AcDbEntity
  8
MAIN0
  6
BYBLOCK
 62
0
100
AcDbMText
 10
250.9996994701102
 20
84.80462038859645
 30
0.0000000000000000
 40
3.099999904632568
 41
0.0000000000000000
 71
     5
 72
     1
  1
\A1;38.07h7
 11
6.123233995736766e-017
 21
1.000000000000000
 31
0.0000000000000000
  7
STANDARD
  0
ENDBLK
  5
12A
100
AcDbEntity
  8
MAIN0
  6
CONTINUOUS
 62
3
100
AcDbBlockEnd
  0
BLOCK
  5
12C
100
AcDbEntity
  8
MAIN0
  6
CONTINUOUS
 62
3
100
AcDbBlockBegin
  2
*D14
 70
    65
 10
0.0
 20
0.0
 30
0.0
  0
LINE
  5
12D
100
AcDbEntity
  8
MAIN0
  6
BYBLOCK
 62
0
100
AcDbLine
 10
235.8405480420329
 20
91.15462031595340
 30
0.0000000000000000
 11
246.3592130429878
 21
91.15462031595340
 31
0.0000000000000000
  0
LINE
  5
12E
100
AcDbEntity
  8
MAIN0
  6
BYBLOCK
 62
0
100
AcDbLine
 10
244.3592130429878
 20
89.15462031595340
 30
0.0000000000000000
 11
244.3592130429878
 21
80.45462031595326
 31
0.0000000000000000
  0
INSERT
  5
12F
100
AcDbEntity
  8
MAIN0
  6
BYBLOCK
 62
0
100
AcDbBlockReference
  2
_OPEN
 10
244.3592130429878
 20
91.15462031595340
 30
0.0000000000000000
 41
2.000000000000000
 42
2.000000000000000
 43
2.000000000000000
 50
90.00000000000000
  0
INSERT
  5
130
100
AcDbEntity
  8
MAIN0
  6
BYBLOCK
 62
0
100
AcDbBlockReference
  2
_OPEN
 10
244.3592130429878
 20
78.45462031595326
 30
0.0000000000000000
 41
2.000000000000000
 42
2.000000000000000
 43
2.000000000000000
 50
270.0000000000000
  0
LINE
  5
131
100
AcDbEntity
  8
MAIN0
  6
BYBLOCK
 62
0
100
AcDbLine
 10
235.8405480420329
 20
78.45462031595326
 30
0.0000000000000000
 11
246.3592130429878
 21
78.45462031595326
 31
0.0000000000000000
  0
MTEXT
  5
132
100
AcDbEntity
  8
MAIN0
  6
BYBLOCK
 62
0
100
AcDbMText
 10
242.3092130906715
 20
84.80462031595334
 30
0.0000000000000000
 40
3.099999904632568
 41
0.0000000000000000
 71
     5
 72
     1
  1
\A1;12.7
 11
6.123233995736766e-017
 21
1.000000000000000
 31
0.0000000000000000
  7
STANDARD
  0
ENDBLK
  5
133
100
AcDbEntity
  8
MAIN0
  6
CONTINUOUS
 62
3
100
AcDbBlockEnd
  0
BLOCK
  5
137
100
AcDbEntity
  8
MAIN0
  6
CONTINUOUS
 62
3
100
AcDbBlockBegin
  2
D15
 70
    64
 10
0.0
 20
0.0
 30
0.0
  0
LINE
  5
138
100
AcDbEntity
  8
MAIN0
  6
BYBLOCK
 62
0
100
AcDbLine
 10
-89.29769961508907
 20
-50.71985085607625
 30
0.0000000000000000
 11
-89.29769961508913
 21
-81.00000000000001
 31
0.0000000000000000
  0
LINE
  5
139
100
AcDbEntity
  8
MAIN0
  6
BYBLOCK
 62
0
100
AcDbLine
 10
-88.69769959124727
 20
-79.00000000000001
 30
0.0000000000000000
 11
-89.29769961508913
 21
-81.00000000000001
 31
0.0000000000000000
  0
LINE
  5
13A
100
AcDbEntity
  8
MAIN0
  6
BYBLOCK
 62
0
100
AcDbLine
 10
-89.29769961508913
 20
-81.00000000000001
 30
0.0000000000000000
 11
-89.89769963893099
 21
-79.00000000000001
 31
0.0000000000000000
  0
MTEXT
  5
13B
100
AcDbEntity
  8
MAIN0
  6
BYBLOCK
 62
0
100
AcDbMText
 10
-91.34769956740537
 20
-57.16985085905648
 30
0.0000000000000000
 40
3.099999904632568
 41
0.0000000000000000
 71
     5
 72
     1
  1
\A1;\U+2205162
 11
6.123233995736766e-017
 21
1.000000000000000
 31
0.0000000000000000
  7
STANDARD
  0
ENDBLK
  5
13C
100
AcDbEntity
  8
MAIN0
  6
CONTINUOUS
 62
3
100
AcDbBlockEnd
  0
BLOCK
  5
13E
100
AcDbEntity
  8
MAIN0
  6
CONTINUOUS
 62
3
100
AcDbBlockBegin
  2
*D16
 70
    65
 10
0.0
 20
0.0
 30
0.0
  0
LINE
  5
13F
100
AcDbEntity
  8
MAIN0
  6
BYBLOCK
 62
0
100
AcDbLine
 10
393.8805480182228
 20
181.8046203159531
 30
0.0000000000000000
 11
324.3485501481139
 21
181.8046203159531
 31
0.0000000000000000
  0
LINE
  5
140
100
AcDbEntity
  8
MAIN0
  6
BYBLOCK
 62
0
100
AcDbLine
 10
326.3485501481139
 20
183.8046203159531
 30
0.0000000000000000
 11
326.3485501481139
 21
282.8046203159532
 31
0.0000000000000000
  0
INSERT
  5
141
100
AcDbEntity
  8
MAIN0
  6
BYBLOCK
 62
0
100
AcDbBlockReference
  2
_OPEN
 10
326.3485501481139
 20
181.8046203159531
 30
0.0000000000000000
 41
2.000000000000000
 42
2.000000000000000
 43
2.000000000000000
 50
270.0000000000000
  0
INSERT
  5
142
100
AcDbEntity
  8
MAIN0
  6
BYBLOCK
 62
0
100
AcDbBlockReference
  2
_OPEN
 10
326.3485501481139
 20
284.8046203159532
 30
0.0000000000000000
 41
2.000000000000000
 42
2.000000000000000
 43
2.000000000000000
 50
90.00000000000000
  0
LINE
  5
143
100
AcDbEntity
  8
MAIN0
  6
BYBLOCK
 62
0
100
AcDbLine
 10
330.3805480181912
 20
284.8046203159532
 30
0.0000000000000000
 11
324.3485501481139
 21
284.8046203159532
 31
0.0000000000000000
  0
MTEXT
  5
144
100
AcDbEntity
  8
MAIN0
  6
BYBLOCK
 62
0
100
AcDbMText
 10
324.2985501957976
 20
233.3046203159532
 30
0.0000000000000000
 40
3.099999904632568
 41
0.0000000000000000
 71
     5
 72
     1
  1
\A1;103
 11
6.123233995736766e-017
 21
1.000000000000000
 31
0.0000000000000000
  7
STANDARD
  0
ENDBLK
  5
145
100
AcDbEntity
  8
MAIN0
  6
CONTINUOUS
 62
3
100
AcDbBlockEnd
  0
BLOCK
  5
14B
100
AcDbEntity
  8
MAIN0
  6
CONTINUOUS
 62
3
100
AcDbBlockBegin
  2
*D17
 70
    65
 10
0.0
 20
0.0
 30
0.0
  0
LINE
  5
14C
100
AcDbEntity
  8
MAIN0
  6
BYBLOCK
 62
0
100
AcDbLine
 10
411.1805480301009
 20
177.7667089628612
 30
0.0000000000000000
 11
411.1805480301009
 21
163.8052663637258
 31
0.0000000000000000
  0
LINE
  5
14D
100
AcDbEntity
  8
MAIN0
  6
BYBLOCK
 62
0
100
AcDbLine
 10
413.1805480301009
 20
165.8052663637258
 30
0.0000000000000000
 11
456.1805480301007
 21
165.8052663637258
 31
0.0000000000000000
  0
INSERT
  5
14E
100
AcDbEntity
  8
MAIN0
  6
BYBLOCK
 62
0
100
AcDbBlockReference
  2
_OPEN
 10
411.1805480301009
 20
165.8052663637258
 30
0.0000000000000000
 41
2.000000000000000
 42
2.000000000000000
 43
2.000000000000000
 50
180.0000000000000
  0
INSERT
  5
14F
100
AcDbEntity
  8
MAIN0
  6
BYBLOCK
 62
0
100
AcDbBlockReference
  2
_OPEN
 10
458.1805480301007
 20
165.8052663637258
 30
0.0000000000000000
 41
2.000000000000000
 42
2.000000000000000
 43
2.000000000000000
 50
0.0000000000000000
  0
LINE
  5
150
100
AcDbEntity
  8
MAIN0
  6
BYBLOCK
 62
0
100
AcDbLine
 10
458.1805480301007
 20
177.7667089628540
 30
0.0000000000000000
 11
458.1805480301007
 21
163.8052663637258
 31
0.0000000000000000
  0
MTEXT
  5
151
100
AcDbEntity
  8
MAIN0
  6
BYBLOCK
 62
0
100
AcDbMText
 10
434.6805480301008
 20
167.8552663160421
 30
0.0000000000000000
 40
3.099999904632568
 41
0.0000000000000000
 71
     5
 72
     1
  1
\A1;47
 11
1.000000000000000
 21
0.0000000000000000
 31
0.0000000000000000
  7
STANDARD
  0
ENDBLK
  5
152
100
AcDbEntity
  8
MAIN0
  6
CONTINUOUS
 62
3
100
AcDbBlockEnd
  0
BLOCK
  5
154
100
AcDbEntity
  8
MAIN0
  6
CONTINUOUS
 62
3
100
AcDbBlockBegin
  2
*D18
 70
    65
 10
0.0
 20
0.0
 30
0.0
  0
LINE
  5
155
100
AcDbEntity
  8
MAIN0
  6
BYBLOCK
 62
0
100
AcDbLine
 10
91.68054803011253
 20
183.1046203040326
 30
0.0000000000000000
 11
91.68054803011253
 21
152.4614623697014
 31
0.0000000000000000
  0
LINE
  5
156
100
AcDbEntity
  8
MAIN0
  6
BYBLOCK
 62
0
100
AcDbLine
 10
93.68054803011253
 20
154.4614623697014
 30
0.0000000000000000
 11
207.6805480301007
 21
154.4614623697014
 31
0.0000000000000000
  0
INSERT
  5
157
100
AcDbEntity
  8
MAIN0
  6
BYBLOCK
 62
0
100
AcDbBlockReference
  2
_OPEN
 10
91.68054803011253
 20
154.4614623697014
 30
0.0000000000000000
 41
2.000000000000000
 42
2.000000000000000
 43
2.000000000000000
 50
180.0000000000000
  0
INSERT
  5
158
100
AcDbEntity
  8
MAIN0
  6
BYBLOCK
 62
0
100
AcDbBlockReference
  2
_OPEN
 10
209.6805480301007
 20
154.4614623697014
 30
0.0000000000000000
 41
2.000000000000000
 42
2.000000000000000
 43
2.000000000000000
 50
0.0000000000000000
  0
LINE
  5
159
100
AcDbEntity
  8
MAIN0
  6
BYBLOCK
 62
0
100
AcDbLine
 10
209.6805480301007
 20
204.0046203040095
 30
0.0000000000000000
 11
209.6805480301007
 21
152.4614623697014
 31
0.0000000000000000
  0
MTEXT
  5
15A
100
AcDbEntity
  8
MAIN0
  6
BYBLOCK
 62
0
100
AcDbMText
 10
155.6027800027967
 20
156.5114623220177
 30
0.0000000000000000
 40
3.099999904632568
 41
0.0000000000000000
 71
     5
 72
     1
  1
\A1;118
 11
1.000000000000000
 21
0.0000000000000000
 31
0.0000000000000000
  7
STANDARD
  0
ENDBLK
  5
15B
100
AcDbEntity
  8
MAIN0
  6
CONTINUOUS
 62
3
100
AcDbBlockEnd
  0
BLOCK
  5
1A1
100
AcDbEntity
  8
MAIN0
  6
CONTINUOUS
 62
3
100
AcDbBlockBegin
  2
*D19
 70
    65
 10
0.0
 20
0.0
 30
0.0
  0
LINE
  5
1A2
100
AcDbEntity
  8
MAIN0
  6
BYBLOCK
 62
0
100
AcDbLine
 10
90.88054801819303
 20
332.3046203159536
 30
0.0000000000000000
 11
78.58595954073942
 21
332.3046203159536
 31
0.0000000000000000
  0
LINE
  5
1A3
100
AcDbEntity
  8
MAIN0
  6
BYBLOCK
 62
0
100
AcDbLine
 10
80.58595954073942
 20
330.3046203159536
 30
0.0000000000000000
 11
80.58595954073942
 21
239.3046203159536
 31
0.0000000000000000
  0
INSERT
  5
1A4
100
AcDbEntity
  8
MAIN0
  6
BYBLOCK
 62
0
100
AcDbBlockReference
  2
_OPEN
 10
80.58595954073942
 20
332.3046203159536
 30
0.0000000000000000
 41
2.000000000000000
 42
2.000000000000000
 43
2.000000000000000
 50
90.00000000000000
  0
INSERT
  5
1A5
100
AcDbEntity
  8
MAIN0
  6
BYBLOCK
 62
0
100
AcDbBlockReference
  2
_OPEN
 10
80.58595954073942
 20
237.3046203159536
 30
0.0000000000000000
 41
2.000000000000000
 42
2.000000000000000
 43
2.000000000000000
 50
270.0000000000000
  0
LINE
  5
1A6
100
AcDbEntity
  8
MAIN0
  6
BYBLOCK
 62
0
100
AcDbLine
 10
90.88054801819180
 20
237.3046203159536
 30
0.0000000000000000
 11
78.58595954073942
 21
237.3046203159536
 31
0.0000000000000000
  0
MTEXT
  5
1A7
100
AcDbEntity
  8
MAIN0
  6
BYBLOCK
 62
0
100
AcDbMText
 10
78.53595958842314
 20
284.8046203159536
 30
0.0000000000000000
 40
3.099999904632568
 41
0.0000000000000000
 71
     5
 72
     1
  1
\A1;\U+220595
 11
6.123233995736766e-017
 21
1.000000000000000
 31
0.0000000000000000
  7
STANDARD
  0
ENDBLK
  5
1A8
100
AcDbEntity
  8
MAIN0
  6
CONTINUOUS
 62
3
100
AcDbBlockEnd
  0
BLOCK
  5
1AA
100
AcDbEntity
  8
MAIN0
  6
CONTINUOUS
 62
3
100
AcDbBlockBegin
  2
*D20
 70
    65
 10
0.0
 20
0.0
 30
0.0
  0
LINE
  5
1AB
100
AcDbEntity
  8
MAIN0
  6
BYBLOCK
 62
0
100
AcDbLine
 10
91.68054803011367
 20
322.2090066014717
 30
0.0000000000000000
 11
92.18054803011346
 21
322.2090066014717
 31
0.0000000000000000
  0
INSERT
  5
1AC
100
AcDbEntity
  8
MAIN0
  6
BYBLOCK
 62
0
100
AcDbBlockReference
  2
_OPEN
 10
91.68054803011367
 20
322.2090066014717
 30
0.0000000000000000
 41
2.000000000000000
 42
2.000000000000000
 43
2.000000000000000
 50
0.0000000000000000
  0
INSERT
  5
1AD
100
AcDbEntity
  8
MAIN0
  6
BYBLOCK
 62
0
100
AcDbBlockReference
  2
_OPEN
 10
92.18054803011346
 20
322.2090066014717
 30
0.0000000000000000
 41
2.000000000000000
 42
2.000000000000000
 43
2.000000000000000
 50
180.0000000000000
  0
LINE
  5
1AE
100
AcDbEntity
  8
MAIN0
  6
BYBLOCK
 62
0
100
AcDbLine
 10
89.68054803011367
 20
322.2090066014717
 30
0.0000000000000000
 11
83.55433495638320
 21
322.2090066014717
 31
0.0000000000000000
  0
LINE
  5
1AF
100
AcDbEntity
  8
MAIN0
  6
BYBLOCK
 62
0
100
AcDbLine
 10
94.18054803011346
 20
322.2090066014717
 30
0.0000000000000000
 11
95.18054803011346
 21
322.2090066014717
 31
0.0000000000000000
  0
MTEXT
  5
1B0
100
AcDbEntity
  8
MAIN0
  6
BYBLOCK
 62
0
100
AcDbMText
 10
86.20433508195475
 20
324.2590065537880
 30
0.0000000000000000
 40
3.099999904632568
 41
0.0000000000000000
 71
     5
 72
     1
  1
\A1;0.5
 11
1.000000000000000
 21
0.0000000000000000
 31
0.0000000000000000
  7
STANDARD
  0
ENDBLK
  5
1B1
100
AcDbEntity
  8
MAIN0
  6
CONTINUOUS
 62
3
100
AcDbBlockEnd
  0
BLOCK
  5
1B3
100
AcDbEntity
  8
MAIN0
  6
CONTINUOUS
 62
3
100
AcDbBlockBegin
  2
*D21
 70
    65
 10
0.0
 20
0.0
 30
0.0
  0
LINE
  5
1B4
100
AcDbEntity
  8
MAIN0
  6
BYBLOCK
 62
0
100
AcDbLine
 10
90.88054801819200
 20
233.8402778217829
 30
0.0000000000000000
 11
78.58595954073942
 21
233.8402778217829
 31
0.0000000000000000
  0
LINE
  5
1B5
100
AcDbEntity
  8
MAIN0
  6
BYBLOCK
 62
0
100
AcDbLine
 10
80.58595954073942
 20
231.8402778217829
 30
0.0000000000000000
 11
80.58595954073942
 21
221.8402778217827
 31
0.0000000000000000
  0
INSERT
  5
1B6
100
AcDbEntity
  8
MAIN0
  6
BYBLOCK
 62
0
100
AcDbBlockReference
  2
_OPEN
 10
80.58595954073942
 20
233.8402778217829
 30
0.0000000000000000
 41
2.000000000000000
 42
2.000000000000000
 43
2.000000000000000
 50
90.00000000000000
  0
INSERT
  5
1B7
100
AcDbEntity
  8
MAIN0
  6
BYBLOCK
 62
0
100
AcDbBlockReference
  2
_OPEN
 10
80.58595954073942
 20
219.8402778217827
 30
0.0000000000000000
 41
2.000000000000000
 42
2.000000000000000
 43
2.000000000000000
 50
270.0000000000000
  0
LINE
  5
1B8
100
AcDbEntity
  8
MAIN0
  6
BYBLOCK
 62
0
100
AcDbLine
 10
90.88054801819183
 20
219.8402778217827
 30
0.0000000000000000
 11
78.58595954073942
 21
219.8402778217827
 31
0.0000000000000000
  0
MTEXT
  5
1B9
100
AcDbEntity
  8
MAIN0
  6
BYBLOCK
 62
0
100
AcDbMText
 10
78.53595958842314
 20
226.8402778217828
 30
0.0000000000000000
 40
3.099999904632568
 41
0.0000000000000000
 71
     5
 72
     1
  1
\A1;\U+220514
 11
6.123233995736766e-017
 21
1.000000000000000
 31
0.0000000000000000
  7
STANDARD
  0
ENDBLK
  5
1BA
100
AcDbEntity
  8
MAIN0
  6
CONTINUOUS
 62
3
100
AcDbBlockEnd
  0
BLOCK
  5
1C9
100
AcDbEntity
  8
MAIN0
  6
CONTINUOUS
 62
3
100
AcDbBlockBegin
  2
*D22
 70
    65
 10
0.0
 20
0.0
 30
0.0
  0
LINE
  5
1CA
100
AcDbEntity
  8
MAIN0
  6
BYBLOCK
 62
0
100
AcDbLine
 10
209.8805480420445
 20
299.8896203159532
 30
0.0000000000000000
 11
222.3384638461811
 21
299.8896203159532
 31
0.0000000000000000
  0
LINE
  5
1CB
100
AcDbEntity
  8
MAIN0
  6
BYBLOCK
 62
0
100
AcDbLine
 10
220.3384638461811
 20
297.8896203159532
 30
0.0000000000000000
 11
220.3384638461811
 21
271.7196203159533
 31
0.0000000000000000
  0
INSERT
  5
1CC
100
AcDbEntity
  8
MAIN0
  6
BYBLOCK
 62
0
100
AcDbBlockReference
  2
_OPEN
 10
220.3384638461811
 20
299.8896203159532
 30
0.0000000000000000
 41
2.000000000000000
 42
2.000000000000000
 43
2.000000000000000
 50
90.00000000000000
  0
INSERT
  5
1CD
100
AcDbEntity
  8
MAIN0
  6
BYBLOCK
 62
0
100
AcDbBlockReference
  2
_OPEN
 10
220.3384638461811
 20
269.7196203159533
 30
0.0000000000000000
 41
2.000000000000000
 42
2.000000000000000
 43
2.000000000000000
 50
270.0000000000000
  0
LINE
  5
1CE
100
AcDbEntity
  8
MAIN0
  6
BYBLOCK
 62
0
100
AcDbLine
 10
209.8805480420445
 20
269.7196203159533
 30
0.0000000000000000
 11
222.3384638461811
 21
269.7196203159533
 31
0.0000000000000000
  0
MTEXT
  5
1CF
100
AcDbEntity
  8
MAIN0
  6
BYBLOCK
 62
0
100
AcDbMText
 10
218.2884638938648
 20
284.8046203103653
 30
0.0000000000000000
 40
3.099999904632568
 41
0.0000000000000000
 71
     5
 72
     1
  1
\A1;\U+220530.17\H0.903226x;\S+0.02^  0;
 11
6.123233995736766e-017
 21
1.000000000000000
 31
0.0000000000000000
  7
STANDARD
  0
ENDBLK
  5
1D0
100
AcDbEntity
  8
MAIN0
  6
CONTINUOUS
 62
3
100
AcDbBlockEnd
  0
BLOCK
  5
1D2
100
AcDbEntity
  8
MAIN0
  6
CONTINUOUS
 62
3
100
AcDbBlockBegin
  2
*D23
 70
    65
 10
0.0
 20
0.0
 30
0.0
  0
LINE
  5
1D3
100
AcDbEntity
  8
MAIN0
  6
BYBLOCK
 62
0
100
AcDbLine
 10
280.8751681176152
 20
313.4696203159532
 30
0.0000000000000000
 11
286.1569150621369
 21
313.4696203159532
 31
0.0000000000000000
  0
LINE
  5
1D4
100
AcDbEntity
  8
MAIN0
  6
BYBLOCK
 62
0
100
AcDbLine
 10
284.1569150621369
 20
315.4696203159532
 30
0.0000000000000000
 11
284.1569150621369
 21
340.8296203159531
 31
0.0000000000000000
  0
INSERT
  5
1D5
100
AcDbEntity
  8
MAIN0
  6
BYBLOCK
 62
0
100
AcDbBlockReference
  2
_OPEN
 10
284.1569150621369
 20
313.4696203159532
 30
0.0000000000000000
 41
2.000000000000000
 42
2.000000000000000
 43
2.000000000000000
 50
270.0000000000000
  0
INSERT
  5
1D6
100
AcDbEntity
  8
MAIN0
  6
BYBLOCK
 62
0
100
AcDbBlockReference
  2
_OPEN
 10
284.1569150621369
 20
342.8296203159531
 30
0.0000000000000000
 41
2.000000000000000
 42
2.000000000000000
 43
2.000000000000000
 50
90.00000000000000
  0
LINE
  5
1D7
100
AcDbEntity
  8
MAIN0
  6
BYBLOCK
 62
0
100
AcDbLine
 10
280.9820630939269
 20
342.8296203159531
 30
0.0000000000000000
 11
286.1569150621369
 21
342.8296203159531
 31
0.0000000000000000
  0
MTEXT
  5
1D8
100
AcDbEntity
  8
MAIN0
  6
BYBLOCK
 62
0
100
AcDbMText
 10
282.1069151098206
 20
328.1496203159531
 30
0.0000000000000000
 40
3.099999904632568
 41
0.0000000000000000
 71
     5
 72
     1
  1
\A1;29.36
 11
6.123233995736766e-017
 21
1.000000000000000
 31
0.0000000000000000
  7
STANDARD
  0
ENDBLK
  5
1D9
100
AcDbEntity
  8
MAIN0
  6
CONTINUOUS
 62
3
100
AcDbBlockEnd
  0
BLOCK
  5
1DB
100
AcDbEntity
  8
MAIN0
  6
CONTINUOUS
 62
3
100
AcDbBlockBegin
  2
*D24
 70
    65
 10
0.0
 20
0.0
 30
0.0
  0
LINE
  5
1DC
100
AcDbEntity
  8
MAIN0
  6
BYBLOCK
 62
0
100
AcDbLine
 10
280.9820630939269
 20
342.8296203159531
 30
0.0000000000000000
 11
286.1569150621369
 21
342.8296203159531
 31
0.0000000000000000
  0
LINE
  5
1DD
100
AcDbEntity
  8
MAIN0
  6
BYBLOCK
 62
0
100
AcDbLine
 10
284.1569150621369
 20
344.8296203159531
 30
0.0000000000000000
 11
284.1569150621369
 21
355.8296203159531
 31
0.0000000000000000
  0
INSERT
  5
1DE
100
AcDbEntity
  8
MAIN0
  6
BYBLOCK
 62
0
100
AcDbBlockReference
  2
_OPEN
 10
284.1569150621369
 20
342.8296203159531
 30
0.0000000000000000
 41
2.000000000000000
 42
2.000000000000000
 43
2.000000000000000
 50
270.0000000000000
  0
INSERT
  5
1DF
100
AcDbEntity
  8
MAIN0
  6
BYBLOCK
 62
0
100
AcDbBlockReference
  2
_OPEN
 10
284.1569150621369
 20
357.8296203159531
 30
0.0000000000000000
 41
2.000000000000000
 42
2.000000000000000
 43
2.000000000000000
 50
90.00000000000000
  0
LINE
  5
1E0
100
AcDbEntity
  8
MAIN0
  6
BYBLOCK
 62
0
100
AcDbLine
 10
276.5305480420444
 20
357.8296203159531
 30
0.0000000000000000
 11
286.1569150621369
 21
357.8296203159531
 31
0.0000000000000000
  0
MTEXT
  5
1E1
100
AcDbEntity
  8
MAIN0
  6
BYBLOCK
 62
0
100
AcDbMText
 10
282.1069151098206
 20
350.3296203159531
 30
0.0000000000000000
 40
3.099999904632568
 41
0.0000000000000000
 71
     5
 72
     1
  1
\A1;15
 11
6.123233995736766e-017
 21
1.000000000000000
 31
0.0000000000000000
  7
STANDARD
  0
ENDBLK
  5
1E2
100
AcDbEntity
  8
MAIN0
  6
CONTINUOUS
 62
3
100
AcDbBlockEnd
  0
BLOCK
  5
1E4
100
AcDbEntity
  8
MAIN0
  6
CONTINUOUS
 62
3
100
AcDbBlockBegin
  2
*D25
 70
    65
 10
0.0
 20
0.0
 30
0.0
  0
LINE
  5
1E5
100
AcDbEntity
  8
MAIN0
  6
BYBLOCK
 62
0
100
AcDbLine
 10
223.9759596997310
 20
284.8046203159533
 30
0.0000000000000000
 11
264.1285488562922
 21
284.8046203159533
 31
0.0000000000000000
  0
LINE
  5
1E6
100
AcDbEntity
  8
MAIN0
  6
BYBLOCK
 62
0
100
AcDbLine
 10
262.1285488562922
 20
286.8046203159533
 30
0.0000000000000000
 11
262.1285488562922
 21
330.4296203159530
 31
0.0000000000000000
  0
INSERT
  5
1E7
100
AcDbEntity
  8
MAIN0
  6
BYBLOCK
 62
0
100
AcDbBlockReference
  2
_OPEN
 10
262.1285488562922
 20
284.8046203159533
 30
0.0000000000000000
 41
2.000000000000000
 42
2.000000000000000
 43
2.000000000000000
 50
270.0000000000000
  0
INSERT
  5
1E8
100
AcDbEntity
  8
MAIN0
  6
BYBLOCK
 62
0
100
AcDbBlockReference
  2
_OPEN
 10
262.1285488562922
 20
332.4296203159530
 30
0.0000000000000000
 41
2.000000000000000
 42
2.000000000000000
 43
2.000000000000000
 50
90.00000000000000
  0
LINE
  5
1E9
100
AcDbEntity
  8
MAIN0
  6
BYBLOCK
 62
0
100
AcDbLine
 10
257.6805480420444
 20
332.4296203159530
 30
0.0000000000000000
 11
264.1285488562922
 21
332.4296203159530
 31
0.0000000000000000
  0
MTEXT
  5
1EA
100
AcDbEntity
  8
MAIN0
  6
BYBLOCK
 62
0
100
AcDbMText
 10
260.0785489039760
 20
312.4904478867005
 30
0.0000000000000000
 40
3.099999904632568
 41
0.0000000000000000
 71
     5
 72
     1
  1
\A1;47.625
 11
6.123233995736766e-017
 21
1.000000000000000
 31
0.0000000000000000
  7
STANDARD
  0
ENDBLK
  5
1EB
100
AcDbEntity
  8
MAIN0
  6
CONTINUOUS
 62
3
100
AcDbBlockEnd
  0
BLOCK
  5
1ED
100
AcDbEntity
  8
MAIN0
  6
CONTINUOUS
 62
3
100
AcDbBlockBegin
  2
*D26
 70
    65
 10
0.0
 20
0.0
 30
0.0
  0
LINE
  5
1EE
100
AcDbEntity
  8
MAIN0
  6
BYBLOCK
 62
0
100
AcDbLine
 10
257.6805480420444
 20
332.4296203159530
 30
0.0000000000000000
 11
264.1285488562922
 21
332.4296203159530
 31
0.0000000000000000
  0
LINE
  5
1EF
100
AcDbEntity
  8
MAIN0
  6
BYBLOCK
 62
0
100
AcDbLine
 10
262.1285488562922
 20
334.4296203159530
 30
0.0000000000000000
 11
262.1285488562922
 21
355.8296203159531
 31
0.0000000000000000
  0
INSERT
  5
1F0
100
AcDbEntity
  8
MAIN0
  6
BYBLOCK
 62
0
100
AcDbBlockReference
  2
_OPEN
 10
262.1285488562922
 20
332.4296203159530
 30
0.0000000000000000
 41
2.000000000000000
 42
2.000000000000000
 43
2.000000000000000
 50
270.0000000000000
  0
INSERT
  5
1F1
100
AcDbEntity
  8
MAIN0
  6
BYBLOCK
 62
0
100
AcDbBlockReference
  2
_OPEN
 10
262.1285488562922
 20
357.8296203159531
 30
0.0000000000000000
 41
2.000000000000000
 42
2.000000000000000
 43
2.000000000000000
 50
90.00000000000000
  0
MTEXT
  5
1F2
100
AcDbEntity
  8
MAIN0
  6
BYBLOCK
 62
0
100
AcDbMText
 10
260.0785489039760
 20
345.1296203159531
 30
0.0000000000000000
 40
3.099999904632568
 41
0.0000000000000000
 71
     5
 72
     1
  1
\A1;25.4
 11
6.123233995736766e-017
 21
1.000000000000000
 31
0.0000000000000000
  7
STANDARD
  0
ENDBLK
  5
1F3
100
AcDbEntity
  8
MAIN0
  6
CONTINUOUS
 62
3
100
AcDbBlockEnd
  0
BLOCK
  5
1F5
100
AcDbEntity
  8
MAIN0
  6
CONTINUOUS
 62
3
100
AcDbBlockBegin
  2
*D27
 70
    65
 10
0.0
 20
0.0
 30
0.0
  0
LINE
  5
1F6
100
AcDbEntity
  8
MAIN0
  6
BYBLOCK
 62
0
100
AcDbLine
 10
276.5305480420446
 20
290.3296203159532
 30
0.0000000000000000
 11
294.5467279716226
 21
290.3296203159532
 31
0.0000000000000000
  0
LINE
  5
1F7
100
AcDbEntity
  8
MAIN0
  6
BYBLOCK
 62
0
100
AcDbLine
 10
292.5467279716226
 20
292.3296203159532
 30
0.0000000000000000
 11
292.5467279716226
 21
355.8296203159531
 31
0.0000000000000000
  0
INSERT
  5
1F8
100
AcDbEntity
  8
MAIN0
  6
BYBLOCK
 62
0
100
AcDbBlockReference
  2
_OPEN
 10
292.5467279716226
 20
290.3296203159532
 30
0.0000000000000000
 41
2.000000000000000
 42
2.000000000000000
 43
2.000000000000000
 50
270.0000000000000
  0
INSERT
  5
1F9
100
AcDbEntity
  8
MAIN0
  6
BYBLOCK
 62
0
100
AcDbBlockReference
  2
_OPEN
 10
292.5467279716226
 20
357.8296203159531
 30
0.0000000000000000
 41
2.000000000000000
 42
2.000000000000000
 43
2.000000000000000
 50
90.00000000000000
  0
LINE
  5
1FA
100
AcDbEntity
  8
MAIN0
  6
BYBLOCK
 62
0
100
AcDbLine
 10
276.5305480420444
 20
357.8296203159531
 30
0.0000000000000000
 11
294.5467279716226
 21
357.8296203159531
 31
0.0000000000000000
  0
MTEXT
  5
1FB
100
AcDbEntity
  8
MAIN0
  6
BYBLOCK
 62
0
100
AcDbMText
 10
290.4967280193063
 20
324.0796203159532
 30
0.0000000000000000
 40
3.099999904632568
 41
0.0000000000000000
 71
     5
 72
     1
  1
\A1;67.5
 11
6.123233995736766e-017
 21
1.000000000000000
 31
0.0000000000000000
  7
STANDARD
  0
ENDBLK
  5
1FC
100
AcDbEntity
  8
MAIN0
  6
CONTINUOUS
 62
3
100
AcDbBlockEnd
  0
BLOCK
  5
200
100
AcDbEntity
  8
MAIN0
  6
CONTINUOUS
 62
3
100
AcDbBlockBegin
  2
*D28
 70
    65
 10
0.0
 20
0.0
 30
0.0
  0
LINE
  5
201
100
AcDbEntity
  8
MAIN0
  6
BYBLOCK
 62
0
100
AcDbLine
 10
187.1797324424838
 20
291.3046203159532
 30
0.0000000000000000
 11
187.1797324424838
 21
278.3046203159532
 31
0.0000000000000000
  0
INSERT
  5
202
100
AcDbEntity
  8
MAIN0
  6
BYBLOCK
 62
0
100
AcDbBlockReference
  2
_OPEN
 10
187.1797324424838
 20
293.3046203159532
 30
0.0000000000000000
 41
2.000000000000000
 42
2.000000000000000
 43
2.000000000000000
 50
90.00000000000000
  0
INSERT
  5
203
100
AcDbEntity
  8
MAIN0
  6
BYBLOCK
 62
0
100
AcDbBlockReference
  2
_OPEN
 10
187.1797324424838
 20
276.3046203159532
 30
0.0000000000000000
 41
2.000000000000000
 42
2.000000000000000
 43
2.000000000000000
 50
270.0000000000000
  0
MTEXT
  5
204
100
AcDbEntity
  8
MAIN0
  6
BYBLOCK
 62
0
100
AcDbMText
 10
185.1297324901675
 20
284.8046203159532
 30
0.0000000000000000
 40
3.099999904632568
 41
0.0000000000000000
 71
     5
 72
     1
  1
\A1;\U+220517
 11
6.123233995736766e-017
 21
1.000000000000000
 31
0.0000000000000000
  7
STANDARD
  0
ENDBLK
  5
205
100
AcDbEntity
  8
MAIN0
  6
CONTINUOUS
 62
3
100
AcDbBlockEnd
  0
BLOCK
  5
207
100
AcDbEntity
  8
MAIN0
  6
CONTINUOUS
 62
3
100
AcDbBlockBegin
  2
*D29
 70
    65
 10
0.0
 20
0.0
 30
0.0
  0
LINE
  5
208
100
AcDbEntity
  8
MAIN0
  6
BYBLOCK
 62
0
100
AcDbLine
 10
128.1138003583458
 20
289.3046203159530
 30
0.0000000000000000
 11
128.1138003583458
 21
280.3046203159530
 31
0.0000000000000000
  0
INSERT
  5
209
100
AcDbEntity
  8
MAIN0
  6
BYBLOCK
 62
0
100
AcDbBlockReference
  2
_OPEN
 10
128.1138003583458
 20
291.3046203159530
 30
0.0000000000000000
 41
2.000000000000000
 42
2.000000000000000
 43
2.000000000000000
 50
90.00000000000000
  0
INSERT
  5
20A
100
AcDbEntity
  8
MAIN0
  6
BYBLOCK
 62
0
100
AcDbBlockReference
  2
_OPEN
 10
128.1138003583458
 20
278.3046203159530
 30
0.0000000000000000
 41
2.000000000000000
 42
2.000000000000000
 43
2.000000000000000
 50
270.0000000000000
  0
MTEXT
  5
20B
100
AcDbEntity
  8
MAIN0
  6
BYBLOCK
 62
0
100
AcDbMText
 10
126.0638004060295
 20
284.8046203159530
 30
0.0000000000000000
 40
3.099999904632568
 41
0.0000000000000000
 71
     5
 72
     1
  1
\A1;\U+220513
 11
6.123233995736766e-017
 21
1.000000000000000
 31
0.0000000000000000
  7
STANDARD
  0
ENDBLK
  5
20C
100
AcDbEntity
  8
MAIN0
  6
CONTINUOUS
 62
3
100
AcDbBlockEnd
  0
BLOCK
  5
20E
100
AcDbEntity
  8
MAIN0
  6
CONTINUOUS
 62
3
100
AcDbBlockBegin
  2
*D30
 70
    65
 10
0.0
 20
0.0
 30
0.0
  0
LINE
  5
20F
100
AcDbEntity
  8
MAIN0
  6
BYBLOCK
 62
0
100
AcDbLine
 10
140.9902687249729
 20
293.8046203159532
 30
0.0000000000000000
 11
140.9902687249729
 21
275.8046203159532
 31
0.0000000000000000
  0
INSERT
  5
210
100
AcDbEntity
  8
MAIN0
  6
BYBLOCK
 62
0
100
AcDbBlockReference
  2
_OPEN
 10
140.9902687249729
 20
295.8046203159532
 30
0.0000000000000000
 41
2.000000000000000
 42
2.000000000000000
 43
2.000000000000000
 50
90.00000000000000
  0
INSERT
  5
211
100
AcDbEntity
  8
MAIN0
  6
BYBLOCK
 62
0
100
AcDbBlockReference
  2
_OPEN
 10
140.9902687249729
 20
273.8046203159532
 30
0.0000000000000000
 41
2.000000000000000
 42
2.000000000000000
 43
2.000000000000000
 50
270.0000000000000
  0
MTEXT
  5
212
100
AcDbEntity
  8
MAIN0
  6
BYBLOCK
 62
0
100
AcDbMText
 10
138.9402687726566
 20
284.8046203159532
 30
0.0000000000000000
 40
3.099999904632568
 41
0.0000000000000000
 71
     5
 72
     1
  1
\A1;\U+220522
 11
6.123233995736766e-017
 21
1.000000000000000
 31
0.0000000000000000
  7
STANDARD
  0
ENDBLK
  5
213
100
AcDbEntity
  8
MAIN0
  6
CONTINUOUS
 62
3
100
AcDbBlockEnd
  0
BLOCK
  5
218
100
AcDbEntity
  8
MAIN0
  6
CONTINUOUS
 62
3
100
AcDbBlockBegin
  2
*D31
 70
    65
 10
0.0
 20
0.0
 30
0.0
  0
LINE
  5
219
100
AcDbEntity
  8
MAIN0
  6
BYBLOCK
 62
0
100
AcDbLine
 10
434.6805480301122
 20
177.7667089628571
 30
0.0000000000000000
 11
434.6805480301122
 21
169.9413378072673
 31
0.0000000000000000
  0
LINE
  5
21A
100
AcDbEntity
  8
MAIN0
  6
BYBLOCK
 62
0
100
AcDbLine
 10
486.5180860039939
 20
195.0193708059079
 30
0.0000000000000000
 11
492.1121892844545
 21
185.3300997013621
 31
0.0000000000000000
  0
ARC
  5
21B
100
AcDbEntity
  8
MAIN0
  6
BYBLOCK
 62
0
100
AcDbCircle
 10
434.6805480301122
 20
284.8046203159530
 30
0.0000000000000000
 40
112.8632825086857
100
AcDbArc
 50
271.0153130095020
 51
298.9846869904978
  0
INSERT
  5
21C
100
AcDbEntity
  8
MAIN0
  6
BYBLOCK
 62
0
100
AcDbBlockReference
  2
_OPEN
 10
434.6805480301122
 20
171.9413378072673
 30
0.0000000000000000
 41
2.000000000000000
 42
2.000000000000000
 43
2.000000000000000
 50
180.0000000000000
  0
INSERT
  5
21D
100
AcDbEntity
  8
MAIN0
  6
BYBLOCK
 62
0
100
AcDbBlockReference
  2
_OPEN
 10
491.1121892844546
 20
187.0621505089310
 30
0.0000000000000000
 41
2.000000000000000
 42
2.000000000000000
 43
2.000000000000000
 50
29.99999999999972
  0
MTEXT
  5
21E
100
AcDbEntity
  8
MAIN0
  6
BYBLOCK
 62
0
100
AcDbMText
 10
463.3611360060273
 20
177.7672087988877
 30
0.0000000000000000
 40
3.099999904632568
 41
0.0000000000000000
 71
     5
 72
     1
  1
\A1;30\U+00B0
 11
0.9659258262890689
 21
0.2588190451025187
 31
0.0000000000000000
  7
STANDARD
  0
ENDBLK
  5
21F
100
AcDbEntity
  8
MAIN0
  6
CONTINUOUS
 62
3
100
AcDbBlockEnd
  0
BLOCK
  5
221
100
AcDbEntity
  8
MAIN0
  6
CONTINUOUS
 62
3
100
AcDbBlockBegin
  2
*D32
 70
    65
 10
0.0
 20
0.0
 30
0.0
  0
LINE
  5
222
100
AcDbEntity
  8
MAIN0
  6
BYBLOCK
 62
0
100
AcDbLine
 10
486.5180860039939
 20
195.0193708059079
 30
0.0000000000000000
 11
492.1121892844545
 21
185.3300997013621
 31
0.0000000000000000
  0
LINE
  5
223
100
AcDbEntity
  8
MAIN0
  6
BYBLOCK
 62
0
100
AcDbLine
 10
507.6889421953616
 20
211.7962261506472
 30
0.0000000000000000
 11
515.9011540013187
 21
203.5840143446838
 31
0.0000000000000000
  0
ARC
  5
224
100
AcDbEntity
  8
MAIN0
  6
BYBLOCK
 62
0
100
AcDbCircle
 10
434.6805480301122
 20
284.8046203159530
 30
0.0000000000000000
 40
112.8632825086857
100
AcDbArc
 50
301.0153130095017
 51
313.9846869904760
  0
INSERT
  5
225
100
AcDbEntity
  8
MAIN0
  6
BYBLOCK
 62
0
100
AcDbBlockReference
  2
_OPEN
 10
491.1121892844546
 20
187.0621505089310
 30
0.0000000000000000
 41
2.000000000000000
 42
2.000000000000000
 43
2.000000000000000
 50
209.9999999999998
  0
INSERT
  5
226
100
AcDbEntity
  8
MAIN0
  6
BYBLOCK
 62
0
100
AcDbBlockReference
  2
_OPEN
 10
514.4869404389461
 20
204.9982279070575
 30
0.0000000000000000
 41
2.000000000000000
 42
2.000000000000000
 43
2.000000000000000
 50
44.99999999997795
  0
MTEXT
  5
227
100
AcDbEntity
  8
MAIN0
  6
BYBLOCK
 62
0
100
AcDbMText
 10
502.1394002722576
 20
196.8905324512076
 30
0.0000000000000000
 40
3.099999904632568
 41
0.0000000000000000
 71
     5
 72
     1
  1
\A1;15\U+00B0
 11
0.7933533402913541
 21
0.6087614290085657
 31
0.0000000000000000
  7
STANDARD
  0
ENDBLK
  5
228
100
AcDbEntity
  8
MAIN0
  6
CONTINUOUS
 62
3
100
AcDbBlockEnd
  0
BLOCK
  5
22A
100
AcDbEntity
  8
MAIN0
  6
CONTINUOUS
 62
3
100
AcDbBlockBegin
  2
*D33
 70
    65
 10
0.0
 20
0.0
 30
0.0
  0
LINE
  5
22B
100
AcDbEntity
  8
MAIN0
  6
BYBLOCK
 62
0
100
AcDbLine
 10
507.6889421953616
 20
211.7962261506472
 30
0.0000000000000000
 11
515.9011540013187
 21
203.5840143446838
 31
0.0000000000000000
  0
LINE
  5
22C
100
AcDbEntity
  8
MAIN0
  6
BYBLOCK
 62
0
100
AcDbLine
 10
525.0069976551529
 20
232.6546203099928
 30
0.0000000000000000
 11
534.1550686447029
 21
227.3729790616103
 31
0.0000000000000000
  0
ARC
  5
22D
100
AcDbEntity
  8
MAIN0
  6
BYBLOCK
 62
0
100
AcDbCircle
 10
434.6805480301122
 20
284.8046203159530
 30
0.0000000000000000
 40
112.8632825086857
100
AcDbArc
 50
316.0153130094799
 51
328.9846869904982
  0
INSERT
  5
22E
100
AcDbEntity
  8
MAIN0
  6
BYBLOCK
 62
0
100
AcDbBlockReference
  2
_OPEN
 10
514.4869404389461
 20
204.9982279070575
 30
0.0000000000000000
 41
2.000000000000000
 42
2.000000000000000
 43
2.000000000000000
 50
224.9999999999779
  0
INSERT
  5
22F
100
AcDbEntity
  8
MAIN0
  6
BYBLOCK
 62
0
100
AcDbBlockReference
  2
_OPEN
 10
532.4230178371340
 20
228.3729790616103
 30
0.0000000000000000
 41
2.000000000000000
 42
2.000000000000000
 43
2.000000000000000
 50
60.00000000000011
  0
MTEXT
  5
230
100
AcDbEntity
  8
MAIN0
  6
BYBLOCK
 62
0
100
AcDbMText
 10
522.5946358948313
 20
217.3457680737734
 30
0.0000000000000000
 40
3.099999904632568
 41
0.0000000000000000
 71
     5
 72
     1
  1
\A1;15\U+00B0
 11
0.6087614290088730
 21
0.7933533402911183
 31
0.0000000000000000
  7
STANDARD
  0
ENDBLK
  5
231
100
AcDbEntity
  8
MAIN0
  6
CONTINUOUS
 62
3
100
AcDbBlockEnd
  0
BLOCK
  5
233
100
AcDbEntity
  8
MAIN0
  6
CONTINUOUS
 62
3
100
AcDbBlockBegin
  2
*D34
 70
    65
 10
0.0
 20
0.0
 30
0.0
  0
LINE
  5
234
100
AcDbEntity
  8
MAIN0
  6
BYBLOCK
 62
0
100
AcDbLine
 10
525.0069976551529
 20
232.6546203099928
 30
0.0000000000000000
 11
534.1550686447029
 21
227.3729790616103
 31
0.0000000000000000
  0
LINE
  5
235
100
AcDbEntity
  8
MAIN0
  6
BYBLOCK
 62
0
100
AcDbLine
 10
538.9805480420331
 20
284.8046203159532
 30
0.0000000000000000
 11
549.5438305387979
 21
284.8046203159528
 31
0.0000000000000000
  0
ARC
  5
236
100
AcDbEntity
  8
MAIN0
  6
BYBLOCK
 62
0
100
AcDbCircle
 10
434.6805480301122
 20
284.8046203159530
 30
0.0000000000000000
 40
112.8632825086857
100
AcDbArc
 50
331.0153130095021
 51
358.9846869904981
  0
INSERT
  5
237
100
AcDbEntity
  8
MAIN0
  6
BYBLOCK
 62
0
100
AcDbBlockReference
  2
_OPEN
 10
532.4230178371340
 20
228.3729790616103
 30
0.0000000000000000
 41
2.000000000000000
 42
2.000000000000000
 43
2.000000000000000
 50
240.0000000000001
  0
INSERT
  5
238
100
AcDbEntity
  8
MAIN0
  6
BYBLOCK
 62
0
100
AcDbBlockReference
  2
_OPEN
 10
547.5438305387978
 20
284.8046203159530
 30
0.0000000000000000
 41
2.000000000000000
 42
2.000000000000000
 43
2.000000000000000
 50
90.00000000000000
  0
MTEXT
  5
239
100
AcDbEntity
  8
MAIN0
  6
BYBLOCK
 62
0
100
AcDbMText
 10
541.7179595471773
 20
256.1240323400377
 30
0.0000000000000000
 40
3.099999904632568
 41
0.0000000000000000
 71
     5
 72
     1
  1
\A1;30\U+00B0
 11
0.2588190451025197
 21
0.9659258262890685
 31
0.0000000000000000
  7
STANDARD
  0
ENDBLK
  5
23A
100
AcDbEntity
  8
MAIN0
  6
CONTINUOUS
 62
3
100
AcDbBlockEnd
  0
BLOCK
  5
23C
100
AcDbEntity
  8
MAIN0
  6
CONTINUOUS
 62
3
100
AcDbBlockBegin
  2
*D35
 70
    65
 10
0.0
 20
0.0
 30
0.0
  0
LINE
  5
23D
100
AcDbEntity
  8
MAIN0
  6
BYBLOCK
 62
0
100
AcDbLine
 10
538.9805480420331
 20
284.8046203159532
 30
0.0000000000000000
 11
549.5438305387979
 21
284.8046203159528
 31
0.0000000000000000
  0
LINE
  5
23E
100
AcDbEntity
  8
MAIN0
  6
BYBLOCK
 62
0
100
AcDbLine
 10
506.3902265929831
 20
356.5142988787686
 30
0.0000000000000000
 11
515.9011540013813
 21
366.0252262871595
 31
0.0000000000000000
  0
ARC
  5
23F
100
AcDbEntity
  8
MAIN0
  6
BYBLOCK
 62
0
100
AcDbCircle
 10
434.6805480301122
 20
284.8046203159530
 30
0.0000000000000000
 40
112.8632825086857
100
AcDbArc
 50
1.015313009501969
 51
43.98468699047596
  0
INSERT
  5
240
100
AcDbEntity
  8
MAIN0
  6
BYBLOCK
 62
0
100
AcDbBlockReference
  2
_OPEN
 10
547.5438305387978
 20
284.8046203159530
 30
0.0000000000000000
 41
2.000000000000000
 42
2.000000000000000
 43
2.000000000000000
 50
270.0000000000000
  0
INSERT
  5
241
100
AcDbEntity
  8
MAIN0
  6
BYBLOCK
 62
0
100
AcDbBlockReference
  2
_OPEN
 10
514.4869404390076
 20
364.6110127247869
 30
0.0000000000000000
 41
2.000000000000000
 42
2.000000000000000
 43
2.000000000000000
 50
134.9999999999779
  0
MTEXT
  5
242
100
AcDbEntity
  8
MAIN0
  6
BYBLOCK
 62
0
100
AcDbMText
 10
537.0586717143400
 20
327.2110276362472
 30
0.0000000000000000
 40
3.099999904632568
 41
0.0000000000000000
 71
     5
 72
     1
  1
\A1;45\U+00B0
 11
-0.3826834323649119
 21
0.9238795325113605
 31
0.0000000000000000
  7
STANDARD
  0
ENDBLK
  5
243
100
AcDbEntity
  8
MAIN0
  6
CONTINUOUS
 62
3
100
AcDbBlockEnd
  0
BLOCK
  5
245
100
AcDbEntity
  8
MAIN0
  6
CONTINUOUS
 62
3
100
AcDbBlockBegin
  2
*D36
 70
    65
 10
0.0
 20
0.0
 30
0.0
  0
LINE
  5
246
100
AcDbEntity
  8
MAIN0
  6
BYBLOCK
 62
0
100
AcDbLine
 10
506.3902265929831
 20
356.5142988787686
 30
0.0000000000000000
 11
515.9011540013813
 21
366.0252262871595
 31
0.0000000000000000
  0
LINE
  5
247
100
AcDbEntity
  8
MAIN0
  6
BYBLOCK
 62
0
100
AcDbLine
 10
485.0435945681711
 20
372.0359757438264
 30
0.0000000000000000
 11
492.1121892844553
 21
384.2791409305434
 31
0.0000000000000000
  0
ARC
  5
248
100
AcDbEntity
  8
MAIN0
  6
BYBLOCK
 62
0
100
AcDbCircle
 10
434.6805480301122
 20
284.8046203159530
 30
0.0000000000000000
 40
112.8632825086857
100
AcDbArc
 50
46.01531300947990
 51
58.98468699049788
  0
INSERT
  5
249
100
AcDbEntity
  8
MAIN0
  6
BYBLOCK
 62
0
100
AcDbBlockReference
  2
_OPEN
 10
514.4869404390076
 20
364.6110127247869
 30
0.0000000000000000
 41
2.000000000000000
 42
2.000000000000000
 43
2.000000000000000
 50
314.9999999999779
  0
INSERT
  5
24A
100
AcDbEntity
  8
MAIN0
  6
BYBLOCK
 62
0
100
AcDbBlockReference
  2
_OPEN
 10
491.1121892844553
 20
382.5470901229745
 30
0.0000000000000000
 41
2.000000000000000
 42
2.000000000000000
 43
2.000000000000000
 50
149.9999999999999
  0
MTEXT
  5
24B
100
AcDbEntity
  8
MAIN0
  6
BYBLOCK
 62
0
100
AcDbMText
 10
504.6353220731721
 20
375.9714568002055
 30
0.0000000000000000
 40
3.099999904632568
 41
0.0000000000000000
 71
     5
 72
     1
  1
\A1;15\U+00B0
 11
0.7933533402911170
 21
-0.6087614290088745
 31
0.0000000000000000
  7
STANDARD
  0
ENDBLK
  5
24C
100
AcDbEntity
  8
MAIN0
  6
CONTINUOUS
 62
3
100
AcDbBlockEnd
  0
BLOCK
  5
24E
100
AcDbEntity
  8
MAIN0
  6
CONTINUOUS
 62
3
100
AcDbBlockBegin
  2
*D37
 70
    65
 10
0.0
 20
0.0
 30
0.0
  0
LINE
  5
24F
100
AcDbEntity
  8
MAIN0
  6
BYBLOCK
 62
0
100
AcDbLine
 10
485.0435945681711
 20
372.0359757438264
 30
0.0000000000000000
 11
492.1121892844553
 21
384.2791409305434
 31
0.0000000000000000
  0
LINE
  5
250
100
AcDbEntity
  8
MAIN0
  6
BYBLOCK
 62
0
100
AcDbLine
 10
434.6805480301122
 20
389.1046203278742
 30
0.0000000000000000
 11
434.6805480301122
 21
399.6679028246387
 31
0.0000000000000000
  0
ARC
  5
251
100
AcDbEntity
  8
MAIN0
  6
BYBLOCK
 62
0
100
AcDbCircle
 10
434.6805480301122
 20
284.8046203159530
 30
0.0000000000000000
 40
112.8632825086857
100
AcDbArc
 50
61.01531300950183
 51
88.98468699049803
  0
INSERT
  5
252
100
AcDbEntity
  8
MAIN0
  6
BYBLOCK
 62
0
100
AcDbBlockReference
  2
_OPEN
 10
491.1121892844553
 20
382.5470901229745
 30
0.0000000000000000
 41
2.000000000000000
 42
2.000000000000000
 43
2.000000000000000
 50
329.9999999999999
  0
INSERT
  5
253
100
AcDbEntity
  8
MAIN0
  6
BYBLOCK
 62
0
100
AcDbBlockReference
  2
_OPEN
 10
434.6805480301122
 20
397.6679028246387
 30
0.0000000000000000
 41
2.000000000000000
 42
2.000000000000000
 43
2.000000000000000
 50
180.0000000000000
  0
MTEXT
  5
254
100
AcDbEntity
  8
MAIN0
  6
BYBLOCK
 62
0
100
AcDbMText
 10
464.4222940662651
 20
395.8023276286854
 30
0.0000000000000000
 40
3.099999904632568
 41
0.0000000000000000
 71
     5
 72
     1
  1
\A1;30\U+00B0
 11
0.9659258262890679
 21
-0.2588190451025224
 31
0.0000000000000000
  7
STANDARD
  0
ENDBLK
  5
255
100
AcDbEntity
  8
MAIN0
  6
CONTINUOUS
 62
3
100
AcDbBlockEnd
  0
BLOCK
  5
260
100
AcDbEntity
  8
MAIN0
  6
CONTINUOUS
 62
3
100
AcDbBlockBegin
  2
*D38
 70
    65
 10
0.0
 20
0.0
 30
0.0
  0
LINE
  5
261
100
AcDbEntity
  8
MAIN0
  6
BYBLOCK
 62
0
100
AcDbLine
 10
434.6805480301122
 20
284.8046203159532
 30
0.0000000000000000
 11
422.1319070417821
 21
228.1783754347499
 31
0.0000000000000000
  0
INSERT
  5
262
100
AcDbEntity
  8
MAIN0
  6
BYBLOCK
 62
0
100
AcDbBlockReference
  2
_OPEN
 10
421.6991952835639
 20
226.2257463009153
 30
0.0000000000000000
 41
2.000000000000000
 42
2.000000000000000
 43
2.000000000000000
 50
257.5049140902531
  0
MTEXT
  5
263
100
AcDbEntity
  8
MAIN0
  6
BYBLOCK
 62
0
100
AcDbMText
 10
421.8341968509872
 20
236.3100756851320
 30
0.0000000000000000
 40
3.099999904632568
 41
0.0000000000000000
 71
     5
 72
     1
  1
\A1;Ｒ60
 11
0.2163558791091381
 21
0.9763145669172985
 31
0.0000000000000000
  7
KNJYOKO
  0
ENDBLK
  5
264
100
AcDbEntity
  8
MAIN0
  6
CONTINUOUS
 62
3
100
AcDbBlockEnd
  0
BLOCK
  5
267
100
AcDbEntity
  8
MAIN0
  6
CONTINUOUS
 62
3
100
AcDbBlockBegin
  2
D39
 70
    64
 10
0.0
 20
0.0
 30
0.0
  0
LINE
  5
268
100
AcDbEntity
  8
MAIN0
  6
BYBLOCK
 62
0
100
AcDbLine
 10
-7.380601136129258
 20
-57.81316743450930
 30
0.0000000000000000
 11
-7.380601136129300
 21
-82.25000000000023
 31
0.0000000000000000
  0
LINE
  5
269
100
AcDbEntity
  8
MAIN0
  6
BYBLOCK
 62
0
100
AcDbLine
 10
-6.780601112287439
 20
-80.25000000000023
 30
0.0000000000000000
 11
-7.380601136129300
 21
-82.25000000000023
 31
0.0000000000000000
  0
LINE
  5
26A
100
AcDbEntity
  8
MAIN0
  6
BYBLOCK
 62
0
100
AcDbLine
 10
-7.380601136129300
 20
-82.25000000000023
 30
0.0000000000000000
 11
-7.980601159971155
 21
-80.25000000000023
 31
0.0000000000000000
  0
MTEXT
  5
26B
100
AcDbEntity
  8
MAIN0
  6
BYBLOCK
 62
0
100
AcDbMText
 10
-9.430601088445556
 20
-65.86316743897966
 30
0.0000000000000000
 40
3.099999904632568
 41
0.0000000000000000
 71
     5
 72
     1
  1
\A1;\U+2205164.5
 11
6.123233995736766e-017
 21
1.000000000000000
 31
0.0000000000000000
  7
STANDARD
  0
ENDBLK
  5
26C
100
AcDbEntity
  8
MAIN0
  6
CONTINUOUS
 62
3
100
AcDbBlockEnd
  0
BLOCK
  5
273
100
AcDbEntity
  8
MAIN0
  6
CONTINUOUS
 62
3
100
AcDbBlockBegin
  2
*D40
 70
    65
 10
0.0
 20
0.0
 30
0.0
  0
LINE
  5
274
100
AcDbEntity
  8
MAIN0
  6
BYBLOCK
 62
0
100
AcDbLine
 10
393.8805480181915
 20
146.8046203159531
 30
0.0000000000000000
 11
317.0743345241651
 21
146.8046203159531
 31
0.0000000000000000
  0
LINE
  5
275
100
AcDbEntity
  8
MAIN0
  6
BYBLOCK
 62
0
100
AcDbLine
 10
319.0743345241651
 20
148.8046203159531
 30
0.0000000000000000
 11
319.0743345241651
 21
282.8046203159532
 31
0.0000000000000000
  0
INSERT
  5
276
100
AcDbEntity
  8
MAIN0
  6
BYBLOCK
 62
0
100
AcDbBlockReference
  2
_OPEN
 10
319.0743345241651
 20
146.8046203159531
 30
0.0000000000000000
 41
2.000000000000000
 42
2.000000000000000
 43
2.000000000000000
 50
270.0000000000000
  0
INSERT
  5
277
100
AcDbEntity
  8
MAIN0
  6
BYBLOCK
 62
0
100
AcDbBlockReference
  2
_OPEN
 10
319.0743345241651
 20
284.8046203159532
 30
0.0000000000000000
 41
2.000000000000000
 42
2.000000000000000
 43
2.000000000000000
 50
90.00000000000000
  0
LINE
  5
278
100
AcDbEntity
  8
MAIN0
  6
BYBLOCK
 62
0
100
AcDbLine
 10
330.3805480181912
 20
284.8046203159532
 30
0.0000000000000000
 11
317.0743345241651
 21
284.8046203159532
 31
0.0000000000000000
  0
MTEXT
  5
279
100
AcDbEntity
  8
MAIN0
  6
BYBLOCK
 62
0
100
AcDbMText
 10
317.0243345718488
 20
215.8046203159532
 30
0.0000000000000000
 40
3.099999904632568
 41
0.0000000000000000
 71
     5
 72
     1
  1
\A1;（138）
 11
6.123233995736766e-017
 21
1.000000000000000
 31
0.0000000000000000
  7
KNJYOKO
  0
ENDBLK
  5
27A
100
AcDbEntity
  8
MAIN0
  6
CONTINUOUS
 62
3
100
AcDbBlockEnd
  0
BLOCK
  5
282
100
AcDbEntity
  8
MAIN0
  6
CONTINUOUS
 62
3
100
AcDbBlockBegin
  2
*D41
 70
    65
 10
0.0
 20
0.0
 30
0.0
  0
LINE
  5
283
100
AcDbEntity
  8
MAIN0
  6
BYBLOCK
 62
0
100
AcDbLine
 10
106.6805480300142
 20
146.0046203040434
 30
0.0000000000000000
 11
106.6805480300142
 21
138.7618589658615
 31
0.0000000000000000
  0
LINE
  5
284
100
AcDbEntity
  8
MAIN0
  6
BYBLOCK
 62
0
100
AcDbLine
 10
108.6805480300142
 20
140.7618589658615
 30
0.0000000000000000
 11
149.6805480300142
 21
140.7618589658615
 31
0.0000000000000000
  0
INSERT
  5
285
100
AcDbEntity
  8
MAIN0
  6
BYBLOCK
 62
0
100
AcDbBlockReference
  2
_OPEN
 10
106.6805480300142
 20
140.7618589658615
 30
0.0000000000000000
 41
2.000000000000000
 42
2.000000000000000
 43
2.000000000000000
 50
180.0000000000000
  0
INSERT
  5
286
100
AcDbEntity
  8
MAIN0
  6
BYBLOCK
 62
0
100
AcDbBlockReference
  2
_OPEN
 10
151.6805480300142
 20
140.7618589658615
 30
0.0000000000000000
 41
2.000000000000000
 42
2.000000000000000
 43
2.000000000000000
 50
0.0000000000000000
  0
LINE
  5
287
100
AcDbEntity
  8
MAIN0
  6
BYBLOCK
 62
0
100
AcDbLine
 10
151.6805480300142
 20
146.0046203040656
 30
0.0000000000000000
 11
151.6805480300142
 21
138.7618589658615
 31
0.0000000000000000
  0
MTEXT
  5
288
100
AcDbEntity
  8
MAIN0
  6
BYBLOCK
 62
0
100
AcDbMText
 10
129.1805480300142
 20
142.8118589181778
 30
0.0000000000000000
 40
3.099999904632568
 41
0.0000000000000000
 71
     5
 72
     1
  1
\A1;（45）
 11
1.000000000000000
 21
0.0000000000000000
 31
0.0000000000000000
  7
KNJYOKO
  0
ENDBLK
  5
289
100
AcDbEntity
  8
MAIN0
  6
CONTINUOUS
 62
3
100
AcDbBlockEnd
  0
BLOCK
  5
28B
100
AcDbEntity
  8
MAIN0
  6
BYBLOCK
 62
3
100
AcDbBlockBegin
  2
M0
 70
    64
 10
0.0
 20
0.0
 30
0.0
  0
LINE
  5
28C
100
AcDbEntity
  8
MAIN0
  6
BYBLOCK
 62
0
100
AcDbLine
 10
337.2673312599202
 20
119.9546194201725
 30
0.0000000000000000
 11
487.2673312599512
 21
119.9546194201725
 31
0.0000000000000000
  0
LINE
  5
28D
100
AcDbEntity
  8
MAIN0
  6
BYBLOCK
 62
0
100
AcDbLine
 10
337.2673312599202
 20
114.9546194201725
 30
0.0000000000000000
 11
487.2673312599512
 21
114.9546194201725
 31
0.0000000000000000
  0
LINE
  5
28E
100
AcDbEntity
  8
MAIN0
  6
BYBLOCK
 62
0
100
AcDbLine
 10
337.2673312599202
 20
109.9546194201725
 30
0.0000000000000000
 11
487.2673312599512
 21
109.9546194201725
 31
0.0000000000000000
  0
LINE
  5
28F
100
AcDbEntity
  8
MAIN0
  6
BYBLOCK
 62
0
100
AcDbLine
 10
337.2673312599202
 20
104.9546194201725
 30
0.0000000000000000
 11
487.2673312599512
 21
104.9546194201725
 31
0.0000000000000000
  0
MTEXT
  5
290
100
AcDbEntity
  8
MAIN0
  6
BYBLOCK
 62
0
100
AcDbMText
 10
338.2673312599202
 20
123.5546193248050
 30
0.0000000000000000
 40
3.099999904632568
 41
0.0000000000000000
 71
     1
 72
     1
  1
{\H0.88x;1.}
 11
1.000000000000000
 21
0.0000000000000000
 31
0.0000000000000000
  7
STANDARD
  0
MTEXT
  5
291
100
AcDbEntity
  8
MAIN0
  6
BYBLOCK
 62
0
100
AcDbMText
 10
338.2673312599202
 20
118.5546193248050
 30
0.0000000000000000
 40
3.099999904632568
 41
0.0000000000000000
 71
     1
 72
     1
  1
{\H0.88x;2.}
 11
1.000000000000000
 21
0.0000000000000000
 31
0.0000000000000000
  7
STANDARD
  0
MTEXT
  5
292
100
AcDbEntity
  8
MAIN0
  6
BYBLOCK
 62
0
100
AcDbMText
 10
338.7673312599202
 20
133.9546194201728
 30
0.0000000000000000
 40
6.000000000000000
 41
0.0000000000000000
 71
     1
 72
     1
  1
{\H0.80x;注　記}
 11
1.000000000000000
 21
0.0000000000000000
 31
0.0000000000000000
  7
KNJYOKO
  0
LINE
  5
293
100
AcDbEntity
  8
MAIN0
  6
BYBLOCK
 62
0
100
AcDbLine
 10
357.2673312599202
 20
135.4546194201728
 30
0.0000000000000000
 11
357.2673312599202
 21
126.4546194201728
 31
0.0000000000000000
  0
LINE
  5
294
100
AcDbEntity
  8
MAIN0
  6
BYBLOCK
 62
0
100
AcDbLine
 10
337.2673312599202
 20
126.4546194201728
 30
0.0000000000000000
 11
357.2673312599202
 21
126.4546194201728
 31
0.0000000000000000
  0
LINE
  5
295
100
AcDbEntity
  8
MAIN0
  6
BYBLOCK
 62
0
100
AcDbLine
 10
337.2673312599202
 20
135.4546194201728
 30
0.0000000000000000
 11
337.2673312599202
 21
126.4546194201728
 31
0.0000000000000000
  0
LINE
  5
296
100
AcDbEntity
  8
MAIN0
  6
BYBLOCK
 62
0
100
AcDbLine
 10
337.2673312599202
 20
135.4546194201728
 30
0.0000000000000000
 11
357.2673312599202
 21
135.4546194201728
 31
0.0000000000000000
  0
ENDBLK
  5
297
100
AcDbEntity
  8
MAIN0
  6
BYBLOCK
 62
3
100
AcDbBlockEnd
  0
BLOCK
  5
2AB
100
AcDbEntity
  8
MAIN0
  6
BYBLOCK
 62
3
100
AcDbBlockBegin
  2
M1
 70
    64
 10
0.0
 20
0.0
 30
0.0
  0
LINE
  5
2AC
100
AcDbEntity
  8
MAIN0
  6
BYBLOCK
 62
0
100
AcDbLine
 10
337.2673312599202
 20
84.95461942017241
 30
0.0000000000000000
 11
487.2673312599512
 21
84.95461942017241
 31
0.0000000000000000
  0
LINE
  5
2AD
100
AcDbEntity
  8
MAIN0
  6
BYBLOCK
 62
0
100
AcDbLine
 10
337.2673312599202
 20
79.95461942017241
 30
0.0000000000000000
 11
487.2673312599512
 21
79.95461942017241
 31
0.0000000000000000
  0
LINE
  5
2AE
100
AcDbEntity
  8
MAIN0
  6
BYBLOCK
 62
0
100
AcDbLine
 10
337.2673312599202
 20
74.95461942017252
 30
0.0000000000000000
 11
487.2673312599512
 21
74.95461942017252
 31
0.0000000000000000
  0
LINE
  5
2AF
100
AcDbEntity
  8
MAIN0
  6
BYBLOCK
 62
0
100
AcDbLine
 10
337.2673312599202
 20
69.95461942017252
 30
0.0000000000000000
 11
487.2673312599512
 21
69.95461942017252
 31
0.0000000000000000
  0
MTEXT
  5
2B0
100
AcDbEntity
  8
MAIN0
  6
BYBLOCK
 62
0
100
AcDbMText
 10
338.2673312599202
 20
88.55461932480498
 30
0.0000000000000000
 40
3.099999904632568
 41
0.0000000000000000
 71
     1
 72
     1
  1
{\H0.88x;1.}
 11
1.000000000000000
 21
0.0000000000000000
 31
0.0000000000000000
  7
STANDARD
  0
MTEXT
  5
2B1
100
AcDbEntity
  8
MAIN0
  6
BYBLOCK
 62
0
100
AcDbMText
 10
338.2673312599202
 20
78.55461932480509
 30
0.0000000000000000
 40
3.099999904632568
 41
0.0000000000000000
 71
     1
 72
     1
  1
{\H0.88x;2.}
 11
1.000000000000000
 21
0.0000000000000000
 31
0.0000000000000000
  7
STANDARD
  0
MTEXT
  5
2B2
100
AcDbEntity
  8
MAIN0
  6
BYBLOCK
 62
0
100
AcDbMText
 10
338.2132611568464
 20
98.36676275775551
 30
0.0000000000000000
 40
5.000000000000000
 41
0.0000000000000000
 71
     1
 72
     1
  1
{\H0.63x;NOTICE}
 11
1.000000000000000
 21
0.0000000000000000
 31
0.0000000000000000
  7
STANDARD
  0
LINE
  5
2B3
100
AcDbEntity
  8
MAIN0
  6
BYBLOCK
 62
0
100
AcDbLine
 10
357.2673312599202
 20
100.4546194201728
 30
0.0000000000000000
 11
357.2673312599202
 21
91.45461942017275
 31
0.0000000000000000
  0
LINE
  5
2B4
100
AcDbEntity
  8
MAIN0
  6
BYBLOCK
 62
0
100
AcDbLine
 10
337.2673312599202
 20
91.45461942017275
 30
0.0000000000000000
 11
357.2673312599202
 21
91.45461942017275
 31
0.0000000000000000
  0
LINE
  5
2B5
100
AcDbEntity
  8
MAIN0
  6
BYBLOCK
 62
0
100
AcDbLine
 10
337.2673312599202
 20
100.4546194201728
 30
0.0000000000000000
 11
337.2673312599202
 21
91.45461942017275
 31
0.0000000000000000
  0
LINE
  5
2B6
100
AcDbEntity
  8
MAIN0
  6
BYBLOCK
 62
0
100
AcDbLine
 10
337.2673312599202
 20
100.4546194201728
 30
0.0000000000000000
 11
357.2673312599202
 21
100.4546194201728
 31
0.0000000000000000
  0
ENDBLK
  5
2B7
100
AcDbEntity
  8
MAIN0
  6
BYBLOCK
 62
3
100
AcDbBlockEnd
  0
BLOCK
  5
2C4
100
AcDbEntity
  8
MAIN0
  6
CONTINUOUS
 62
3
100
AcDbBlockBegin
  2
*D42
 70
    65
 10
0.0
 20
0.0
 30
0.0
  0
LINE
  5
2C5
100
AcDbEntity
  8
MAIN0
  6
BYBLOCK
 62
0
100
AcDbLine
 10
204.1805480300826
 20
299.5349197894954
 30
0.0000000000000000
 11
204.1805480300826
 21
312.8786131783193
 31
0.0000000000000000
  0
LINE
  5
2C6
100
AcDbEntity
  8
MAIN0
  6
BYBLOCK
 62
0
100
AcDbLine
 10
204.1805480300826
 20
310.8786131783193
 30
0.0000000000000000
 11
209.6805480301122
 21
310.8786131783193
 31
0.0000000000000000
  0
INSERT
  5
2C7
100
AcDbEntity
  8
MAIN0
  6
BYBLOCK
 62
0
100
AcDbBlockReference
  2
_OPEN
 10
204.1805480300826
 20
310.8786131783193
 30
0.0000000000000000
 41
2.000000000000000
 42
2.000000000000000
 43
2.000000000000000
 50
0.0000000000000000
  0
INSERT
  5
2C8
100
AcDbEntity
  8
MAIN0
  6
BYBLOCK
 62
0
100
AcDbBlockReference
  2
_OPEN
 10
209.6805480301122
 20
310.8786131783193
 30
0.0000000000000000
 41
2.000000000000000
 42
2.000000000000000
 43
2.000000000000000
 50
180.0000000000000
  0
LINE
  5
2C9
100
AcDbEntity
  8
MAIN0
  6
BYBLOCK
 62
0
100
AcDbLine
 10
202.1805480300826
 20
310.8786131783193
 30
0.0000000000000000
 11
188.0784743606490
 21
310.8786131783193
 31
0.0000000000000000
  0
LINE
  5
2CA
100
AcDbEntity
  8
MAIN0
  6
BYBLOCK
 62
0
100
AcDbLine
 10
211.6805480301122
 20
310.8786131783193
 30
0.0000000000000000
 11
212.6805480301122
 21
310.8786131783193
 31
0.0000000000000000
  0
LINE
  5
2CB
100
AcDbEntity
  8
MAIN0
  6
BYBLOCK
 62
0
100
AcDbLine
 10
209.6805480301122
 20
306.6046203278739
 30
0.0000000000000000
 11
209.6805480301122
 21
312.8786131783193
 31
0.0000000000000000
  0
MTEXT
  5
2CC
100
AcDbEntity
  8
MAIN0
  6
BYBLOCK
 62
0
100
AcDbMText
 10
194.9284742446622
 20
312.9286131306356
 30
0.0000000000000000
 40
3.099999904632568
 41
0.0000000000000000
 71
     5
 72
     1
  1
\A1;MIN 5.5
 11
1.000000000000000
 21
0.0000000000000000
 31
0.0000000000000000
  7
STANDARD
  0
ENDBLK
  5
2CD
100
AcDbEntity
  8
MAIN0
  6
CONTINUOUS
 62
3
100
AcDbBlockEnd
  0
ENDSEC
  0
SECTION
  2
ENTITIES
  0
CIRCLE
  5
46
100
AcDbEntity
  8
MAIN0
  6
CONTINUOUS
 62
3
100
AcDbCircle
 10
434.6805480301122
 20
284.8046203159532
 30
0.0000000000000000
 40
80.99999999999989
  0
CIRCLE
  5
47
100
AcDbEntity
  8
MAIN0
  6
HIDDEN
 62
4
100
AcDbCircle
 10
434.6805480301122
 20
284.8046203159532
 30
0.0000000000000000
 40
15.08499999999995
  0
LINE
  5
48
100
AcDbEntity
  8
MAIN0
  6
CENTER
 62
12
100
AcDbLine
 10
165.4805480301236
 20
200.4498198586505
 30
0.0000000000000000
 11
165.4805480301236
 21
227.5712140741695
 31
0.0000000000000000
  0
LINE
  5
49
100
AcDbEntity
  8
MAIN0
  6
HIDDEN
 62
12
100
AcDbLine
 10
157.9805480301236
 20
204.3046203159533
 30
0.0000000000000000
 11
157.9805480301236
 21
213.6046203159532
 31
0.0000000000000000
  0
LINE
  5
4A
100
AcDbEntity
  8
MAIN0
  6
HIDDEN
 62
12
100
AcDbLine
 10
172.9805480301236
 20
204.3046203159533
 30
0.0000000000000000
 11
172.9805480301236
 21
213.6046203159532
 31
0.0000000000000000
  0
LINE
  5
4B
100
AcDbEntity
  8
MAIN0
  6
HIDDEN
 62
12
100
AcDbLine
 10
157.9805480301236
 20
213.6046203159532
 30
0.0000000000000000
 11
172.9805480301236
 21
213.6046203159532
 31
0.0000000000000000
  0
LINE
  5
4C
100
AcDbEntity
  8
MAIN0
  6
CONTINUOUS
 62
3
100
AcDbLine
 10
208.6805480301237
 20
365.8046203159531
 30
0.0000000000000000
 11
209.6805480301236
 21
364.8046203159532
 31
0.0000000000000000
  0
LINE
  5
4D
100
AcDbEntity
  8
MAIN0
  6
CONTINUOUS
 62
3
100
AcDbLine
 10
208.6805480301236
 20
203.8046203159533
 30
0.0000000000000000
 11
209.6805480301236
 21
204.8046203159533
 31
0.0000000000000000
  0
LINE
  5
4E
100
AcDbEntity
  8
MAIN0
  6
CONTINUOUS
 62
3
100
AcDbLine
 10
146.0805480301237
 20
365.8046203159532
 30
0.0000000000000000
 11
145.6805480301237
 21
365.4046203159532
 31
0.0000000000000000
  0
LINE
  5
4F
100
AcDbEntity
  8
MAIN0
  6
CONTINUOUS
 62
3
100
AcDbLine
 10
146.0805480301237
 20
203.8046203159533
 30
0.0000000000000000
 11
145.6805480301237
 21
204.2046203159533
 31
0.0000000000000000
  0
LINE
  5
50
100
AcDbEntity
  8
MAIN0
  6
CONTINUOUS
 62
3
100
AcDbLine
 10
209.0805480301236
 20
299.8896203159533
 30
0.0000000000000000
 11
209.6805480301236
 21
300.4896203159532
 31
0.0000000000000000
  0
LINE
  5
51
100
AcDbEntity
  8
MAIN0
  6
CONTINUOUS
 62
3
100
AcDbLine
 10
209.0805480301236
 20
269.7196203159533
 30
0.0000000000000000
 11
209.6805480301236
 21
269.1196203159532
 31
0.0000000000000000
  0
LINE
  5
52
100
AcDbEntity
  8
MAIN0
  6
HIDDEN
 62
12
100
AcDbLine
 10
162.4805480301238
 20
221.6046203159533
 30
0.0000000000000000
 11
162.4805480301238
 21
213.9046203159533
 31
0.0000000000000000
  0
LINE
  5
53
100
AcDbEntity
  8
MAIN0
  6
HIDDEN
 62
12
100
AcDbLine
 10
168.4805480301238
 20
221.6046203159534
 30
0.0000000000000000
 11
168.4805480301238
 21
213.9046203159533
 31
0.0000000000000000
  0
LINE
  5
54
100
AcDbEntity
  8
MAIN0
  6
HIDDEN
 62
12
100
AcDbLine
 10
162.9805480301237
 20
214.4046203159533
 30
0.0000000000000000
 11
162.1805480301236
 21
213.6046203159534
 31
0.0000000000000000
  0
LINE
  5
55
100
AcDbEntity
  8
MAIN0
  6
HIDDEN
 62
12
100
AcDbLine
 10
167.9805480301236
 20
214.4046203159534
 30
0.0000000000000000
 11
168.7805480301236
 21
213.6046203159533
 31
0.0000000000000000
  0
LINE
  5
56
100
AcDbEntity
  8
MAIN0
  6
HIDDEN
 62
12
100
AcDbLine
 10
162.9805480301237
 20
214.4046203159532
 30
0.0000000000000000
 11
162.9805480301237
 21
225.4159263575667
 31
0.0000000000000000
  0
LINE
  5
57
100
AcDbEntity
  8
MAIN0
  6
HIDDEN
 62
12
100
AcDbLine
 10
167.9805480301237
 20
214.4046203159533
 30
0.0000000000000000
 11
167.9805480301237
 21
225.4272914146632
 31
0.0000000000000000
  0
LINE
  5
58
100
AcDbEntity
  8
MAIN0
  6
HIDDEN
 62
12
100
AcDbLine
 10
162.4805480301238
 20
221.6046203159534
 30
0.0000000000000000
 11
168.4805480301238
 21
221.6046203159534
 31
0.0000000000000000
  0
LINE
  5
59
100
AcDbEntity
  8
MAIN0
  6
HIDDEN
 62
12
100
AcDbLine
 10
162.9805480301238
 20
214.4046203159532
 30
0.0000000000000000
 11
167.9805480301238
 21
214.4046203159533
 31
0.0000000000000000
  0
LINE
  5
5A
100
AcDbEntity
  8
MAIN0
  6
CENTER
 62
12
100
AcDbLine
 10
180.4805480301237
 20
368.7315705710907
 30
0.0000000000000000
 11
180.4805480301237
 21
349.9997894794968
 31
0.0000000000000000
  0
LINE
  5
5B
100
AcDbEntity
  8
MAIN0
  6
CONTINUOUS
 62
3
100
AcDbLine
 10
193.9712134677646
 20
269.7196203159533
 30
0.0000000000000000
 11
209.0805480301236
 21
269.7196203159533
 31
0.0000000000000000
  0
LINE
  5
5C
100
AcDbEntity
  8
MAIN0
  6
CONTINUOUS
 62
3
100
AcDbLine
 10
191.9805480301236
 20
299.8896203159532
 30
0.0000000000000000
 11
209.0805480301236
 21
299.8896203159532
 31
0.0000000000000000
  0
LINE
  5
5D
100
AcDbEntity
  8
MAIN0
  6
CONTINUOUS
 62
3
100
AcDbLine
 10
145.6805480301237
 20
204.2046203159533
 30
0.0000000000000000
 11
145.6805480301237
 21
269.7960383856606
 31
0.0000000000000000
  0
LINE
  5
5E
100
AcDbEntity
  8
MAIN0
  6
CONTINUOUS
 62
3
100
AcDbLine
 10
145.6805480301237
 20
300.1052394401987
 30
0.0000000000000000
 11
145.6805480301237
 21
365.4046203159531
 31
0.0000000000000000
  0
LINE
  5
5F
100
AcDbEntity
  8
MAIN0
  6
CONTINUOUS
 62
3
100
AcDbLine
 10
209.6805480301086
 20
259.8046203159533
 30
0.0000000000000000
 11
209.6805480301007
 21
204.8046203159305
 31
0.0000000000000000
  0
LINE
  5
60
100
AcDbEntity
  8
MAIN0
  6
CONTINUOUS
 62
3
100
AcDbLine
 10
156.6410390936092
 20
204.3046203159532
 30
0.0000000000000000
 11
174.7200569666381
 21
204.3046203159532
 31
0.0000000000000000
  0
LINE
  5
61
100
AcDbEntity
  8
MAIN0
  6
CONTINUOUS
 62
3
100
AcDbLine
 10
174.7200569666381
 20
204.3046203159532
 30
0.0000000000000000
 11
175.6805480301237
 21
203.8046203159533
 31
0.0000000000000000
  0
LINE
  5
62
100
AcDbEntity
  8
MAIN0
  6
CONTINUOUS
 62
3
100
AcDbLine
 10
175.6805480301237
 20
203.8046203159532
 30
0.0000000000000000
 11
208.6805480301236
 21
203.8046203159532
 31
0.0000000000000000
  0
LINE
  5
63
100
AcDbEntity
  8
MAIN0
  6
CONTINUOUS
 62
3
100
AcDbLine
 10
146.0805480301237
 20
203.8046203159532
 30
0.0000000000000000
 11
155.6805480301237
 21
203.8046203159532
 31
0.0000000000000000
  0
LINE
  5
64
100
AcDbEntity
  8
MAIN0
  6
CONTINUOUS
 62
3
100
AcDbLine
 10
155.6805480301237
 20
203.8046203159532
 30
0.0000000000000000
 11
156.6410390936092
 21
204.3046203159532
 31
0.0000000000000000
  0
LINE
  5
65
100
AcDbEntity
  8
MAIN0
  6
CENTER
 62
3
100
AcDbLine
 10
538.1805480301122
 20
284.8046203159532
 30
0.0000000000000000
 11
331.1805480301122
 21
284.8046203159532
 31
0.0000000000000000
  0
LINE
  5
66
100
AcDbEntity
  8
MAIN0
  6
CENTER
 62
3
100
AcDbLine
 10
434.6805480301122
 20
388.3046203159532
 30
0.0000000000000000
 11
434.6805480301122
 21
178.5667089747780
 31
0.0000000000000000
  0
LINE
  5
67
100
AcDbEntity
  8
MAIN0
  6
CENTER
 62
3
100
AcDbLine
 10
434.6805480301123
 20
284.8046203159533
 30
0.0000000000000000
 11
345.0469187384227
 21
233.0546203159533
 31
0.0000000000000000
  0
LINE
  5
68
100
AcDbEntity
  8
MAIN0
  6
CENTER
 62
3
100
AcDbLine
 10
341.8173651084268
 20
338.4192039735937
 30
0.0000000000000000
 11
524.3141773218015
 21
233.0546203159533
 31
0.0000000000000000
  0
LINE
  5
69
100
AcDbEntity
  8
MAIN0
  6
CONTINUOUS
 62
3
100
AcDbLine
 10
156.6410390936092
 20
365.3046203159532
 30
0.0000000000000000
 11
174.7200569666381
 21
365.3046203159532
 31
0.0000000000000000
  0
LINE
  5
6A
100
AcDbEntity
  8
MAIN0
  6
CONTINUOUS
 62
3
100
AcDbLine
 10
174.7200569666381
 20
365.3046203159532
 30
0.0000000000000000
 11
175.6805480301237
 21
365.8046203159532
 31
0.0000000000000000
  0
LINE
  5
6B
100
AcDbEntity
  8
MAIN0
  6
CONTINUOUS
 62
3
100
AcDbLine
 10
175.6805480301237
 20
365.8046203159532
 30
0.0000000000000000
 11
208.6805480301237
 21
365.8046203159532
 31
0.0000000000000000
  0
LINE
  5
6C
100
AcDbEntity
  8
MAIN0
  6
CONTINUOUS
 62
3
100
AcDbLine
 10
146.0805480301238
 20
365.8046203159532
 30
0.0000000000000000
 11
155.6805480301237
 21
365.8046203159532
 31
0.0000000000000000
  0
LINE
  5
6D
100
AcDbEntity
  8
MAIN0
  6
CONTINUOUS
 62
3
100
AcDbLine
 10
155.6805480301237
 20
365.8046203159531
 30
0.0000000000000000
 11
156.6410390936092
 21
365.3046203159532
 31
0.0000000000000000
  0
DIMENSION
  5
76
100
AcDbEntity
  8
MAIN0
  6
CONTINUOUS
 62
3
100
AcDbDimension
  2
*D0
 10
73.57468531847317
 20
183.3046203159536
 30
0.0000000000000000
 11
73.07468531847317
 21
277.7296201788629
 31
0.0000000000000000
 70
32
  1
\A1;\U+2205203h7\H0.903226x;\S　0^ －0.046;
  3
MAIN001
100
AcDbAlignedDimension
 13
92.28054803011372
 23
386.3046203159535
 33
0.0000000000000000
 14
92.28054803011257
 24
183.3046203159536
 34
0.0000000000000000
 50
90.00000000000000
100
AcDbRotatedDimension
1001
ACAD
1000
DSTYLE
1002
{
1070
   173
1070
     1
1070
     6
1000
_OPEN
1070
     7
1000
_OPEN
1070
    41
1040
2.000000
1070
   272
1070
     3
1070
    47
1040
0.000000
1070
    48
1040
0.046000
1070
    71
1070
     1
1070
   340
1005
77
1002
}
  0
DIMENSION
  5
80
100
AcDbEntity
  8
MAIN0
  6
CONTINUOUS
 62
3
100
AcDbDimension
  2
*D1
 10
106.6805480301119
 20
167.0259933305985
 30
0.0000000000000000
 11
121.6805480301119
 21
167.5259933305985
 31
0.0000000000000000
 70
32
  3
MAIN001
100
AcDbAlignedDimension
 13
136.6805480301119
 23
181.8046203159661
 33
0.0000000000000000
 14
106.6805480301119
 24
181.8046203159618
 34
0.0000000000000000
100
AcDbRotatedDimension
1001
ACAD
1000
DSTYLE
1002
{
1070
   173
1070
     1
1070
     6
1000
_OPEN
1070
     7
1000
_OPEN
1070
    41
1040
2.000000
1002
}
  0
DIMENSION
  5
8B
100
AcDbEntity
  8
MAIN0
  6
CONTINUOUS
 62
3
100
AcDbDimension
  2
*D2
 10
100.1805480301117
 20
173.3539095021375
 30
0.0000000000000000
 11
103.4305480301117
 21
173.8539095021375
 31
0.0000000000000000
 70
32
  3
MAIN001
100
AcDbAlignedDimension
 13
106.6805480301116
 23
183.9046203159534
 33
0.0000000000000000
 14
100.1805480301117
 24
180.6380441077967
 34
0.0000000000000000
100
AcDbRotatedDimension
1001
ACAD
1000
DSTYLE
1002
{
1070
   173
1070
     1
1070
     6
1000
_OPEN
1070
     7
1000
_OPEN
1070
    41
1040
2.000000
1070
   287
1070
     0
1002
}
  0
DIMENSION
  5
94
100
AcDbEntity
  8
MAIN0
  6
CONTINUOUS
 62
3
100
AcDbDimension
  2
*D3
 10
106.6805480301116
 20
173.3539095021375
 30
0.0000000000000000
 11
114.1805480300629
 21
173.8539095021375
 31
0.0000000000000000
 70
32
  3
MAIN001
100
AcDbAlignedDimension
 13
121.6805480300143
 23
175.7925479573357
 33
0.0000000000000000
 14
106.6805480301116
 24
183.9046203159534
 34
0.0000000000000000
100
AcDbRotatedDimension
1001
ACAD
1000
DSTYLE
1002
{
1070
   173
1070
     1
1070
     6
1000
_OPEN
1070
     7
1000
_OPEN
1070
    41
1040
2.000000
1002
}
  0
DIMENSION
  5
9D
100
AcDbEntity
  8
MAIN0
  6
CONTINUOUS
 62
3
100
AcDbDimension
  2
*D4
 10
209.6805480301236
 20
373.7862373194377
 30
0.0000000000000000
 11
219.3305480301235
 21
374.2862373194377
 31
0.0000000000000000
 70
32
  3
MAIN001
100
AcDbAlignedDimension
 13
228.9805480301234
 23
357.8296203159532
 33
0.0000000000000000
 14
209.6805480301236
 24
364.8046203159531
 34
0.0000000000000000
100
AcDbRotatedDimension
1001
ACAD
1000
DSTYLE
1002
{
1070
   173
1070
     1
1070
     6
1000
_OPEN
1070
     7
1000
_OPEN
1070
    41
1040
2.000000
1002
}
  0
DIMENSION
  5
A6
100
AcDbEntity
  8
MAIN0
  6
CONTINUOUS
 62
3
100
AcDbDimension
  2
*D5
 10
228.9805480301234
 20
373.7862373194377
 30
0.0000000000000000
 11
252.8305480301235
 21
374.2862373194377
 31
0.0000000000000000
 70
32
  3
MAIN001
100
AcDbAlignedDimension
 13
276.6805480301236
 23
356.8296203159531
 33
0.0000000000000000
 14
228.9805480301234
 24
357.8296203159532
 34
0.0000000000000000
100
AcDbRotatedDimension
1001
ACAD
1000
DSTYLE
1002
{
1070
   173
1070
     1
1070
     6
1000
_OPEN
1070
     7
1000
_OPEN
1070
    41
1040
2.000000
1002
}
  0
DIMENSION
  5
AF
100
AcDbEntity
  8
MAIN0
  6
CONTINUOUS
 62
3
100
AcDbDimension
  2
*D6
 10
228.9805480301234
 20
367.0472812097768
 30
0.0000000000000000
 11
241.4305480301235
 21
367.5472812097768
 31
0.0000000000000000
 70
32
  3
MAIN001
100
AcDbAlignedDimension
 13
253.8805480301236
 23
335.4296203159530
 33
0.0000000000000000
 14
228.9805480301234
 24
357.8296203159532
 34
0.0000000000000000
100
AcDbRotatedDimension
1001
ACAD
1000
DSTYLE
1002
{
1070
   173
1070
     1
1070
     6
1000
_OPEN
1070
     7
1000
_OPEN
1070
    41
1040
2.000000
1002
}
  0
DIMENSION
  5
B8
100
AcDbEntity
  8
MAIN0
  6
CONTINUOUS
 62
3
100
AcDbDimension
  2
*D7
 10
91.68054803011253
 20
161.0798400110507
 30
0.0000000000000000
 11
99.18054803011219
 21
161.5798400110507
 31
0.0000000000000000
 70
32
  3
MAIN001
100
AcDbAlignedDimension
 13
106.6805480301119
 23
181.8046203159618
 33
0.0000000000000000
 14
91.68054803011253
 24
183.9046203159536
 34
0.0000000000000000
100
AcDbRotatedDimension
1001
ACAD
1000
DSTYLE
1002
{
1070
   173
1070
     1
1070
     6
1000
_OPEN
1070
     7
1000
_OPEN
1070
    41
1040
2.000000
1002
}
  0
DIMENSION
  5
C1
100
AcDbEntity
  8
MAIN0
  6
CONTINUOUS
 62
3
100
AcDbDimension
  2
*D8
 10
106.6805480301119
 20
161.0798400110507
 30
0.0000000000000000
 11
126.1805480301178
 21
161.5798400110507
 31
0.0000000000000000
 70
32
  3
MAIN001
100
AcDbAlignedDimension
 13
145.6805480301237
 23
204.2046203159533
 33
0.0000000000000000
 14
106.6805480301119
 24
181.8046203159618
 34
0.0000000000000000
100
AcDbRotatedDimension
1001
ACAD
1000
DSTYLE
1002
{
1070
   173
1070
     1
1070
     6
1000
_OPEN
1070
     7
1000
_OPEN
1070
    41
1040
2.000000
1002
}
  0
DIMENSION
  5
CA
100
AcDbEntity
  8
MAIN0
  6
CONTINUOUS
 62
3
100
AcDbDimension
  2
*D9
 10
145.6805480301237
 20
161.0798400110507
 30
0.0000000000000000
 11
177.6805480301122
 21
161.5798400110507
 31
0.0000000000000000
 70
32
  3
MAIN001
100
AcDbAlignedDimension
 13
209.6805480301007
 23
204.8046203159305
 33
0.0000000000000000
 14
145.6805480301237
 24
204.2046203159533
 34
0.0000000000000000
100
AcDbRotatedDimension
1001
ACAD
1000
DSTYLE
1002
{
1070
   173
1070
     1
1070
     6
1000
_OPEN
1070
     7
1000
_OPEN
1070
    41
1040
2.000000
1002
}
  0
DIMENSION
  5
D3
100
AcDbEntity
  8
MAIN0
  6
CONTINUOUS
 62
3
100
AcDbDimension
  2
*D10
 10
394.6805480301438
 20
160.2366750345286
 30
0.0000000000000000
 11
434.6805480301438
 21
160.7366750345286
 31
0.0000000000000000
 70
32
  3
MAIN001
100
AcDbAlignedDimension
 13
474.6805480301438
 23
181.8046203159531
 33
0.0000000000000000
 14
394.6805480301438
 24
181.8046203159531
 34
0.0000000000000000
100
AcDbRotatedDimension
1001
ACAD
1000
DSTYLE
1002
{
1070
   173
1070
     1
1070
     6
1000
_OPEN
1070
     7
1000
_OPEN
1070
    41
1040
2.000000
1002
}
  0
DIMENSION
  5
DC
100
AcDbEntity
  8
MAIN0
  6
CONTINUOUS
 62
3
100
AcDbDimension
  2
*D11
 10
409.2805480301131
 20
401.9573060175595
 30
0.0000000000000000
 11
434.6805480301130
 21
402.4573060175595
 31
0.0000000000000000
 70
32
  3
MAIN001
100
AcDbAlignedDimension
 13
460.0805480301129
 23
356.8046203159532
 33
0.0000000000000000
 14
409.2805480301131
 24
356.8046203159532
 34
0.0000000000000000
100
AcDbRotatedDimension
1001
ACAD
1000
DSTYLE
1002
{
1070
   173
1070
     1
1070
     6
1000
_OPEN
1070
     7
1000
_OPEN
1070
    41
1040
2.000000
1002
}
  0
MTEXT
  5
DD
100
AcDbEntity
  8
MAIN0
  6
CONTINUOUS
 62
3
100
AcDbMText
 10
452.9585515478339
 20
180.0177605431305
 30
0.0000000000000000
 40
4.000000000000000
 41
0.0000000000000000
 71
     1
 72
     1
  1
{\H0.84x;{開}}
 11
1.000000000000000
 21
0.0000000000000000
 31
0.0000000000000000
  7
KNJYOKO
  0
MTEXT
  5
DE
100
AcDbEntity
  8
MAIN0
  6
CONTINUOUS
 62
3
100
AcDbMText
 10
405.9585515478341
 20
180.0177605431305
 30
0.0000000000000000
 40
4.000000000000000
 41
0.0000000000000000
 71
     1
 72
     1
  1
{\H0.84x;{閉}}
 11
1.000000000000000
 21
0.0000000000000000
 31
0.0000000000000000
  7
KNJYOKO
  0
LEADER
  5
DF
100
AcDbEntity
  8
MAIN0
  6
CONTINUOUS
 62
3
100
AcDbLeader
  3
MAIN001
 73
     0
 74
     0
 75
     1
 40
3.099999904632568
 41
15.10100000894079
 76
     3
 10
519.6669039959422
 20
239.6479177696566
 30
0.0000000000000000
 10
545.9591693196367
 20
245.5395411963172
 30
0.0000000000000000
 10
547.7441692669760
 20
245.5395411963172
 30
0.0000000000000000
340
E0
213
-0.001000000000090040
223
-0.5000000000000000
233
0.0000000000000000
1001
ACAD
1000
DSTYLE
1002
{
1070
   147
1040
0.0
1070
    77
1070
     1
1070
   173
1070
     1
1070
     6
1000
_OPEN
1070
     7
1000
_OPEN
1002
}
  0
MTEXT
  5
E0
102
{ACAD_REACTORS
330
DF
102
}
100
AcDbEntity
  8
MAIN0
  6
CONTINUOUS
 62
3
100
AcDbMText
 10
547.7451692669761
 20
249.1395411009498
 30
0.0000000000000000
 40
3.099999904632568
 41
0.0000000000000000
 71
     1
 72
     1
  1
{\H0.70x;{2-\U+220510H7}}
 11
1.000000000000000
 21
0.0000000000000000
 31
0.0000000000000000
  7
STANDARD
  0
DIMENSION
  5
E7
100
AcDbEntity
  8
MAIN0
  6
CONTINUOUS
 62
3
100
AcDbDimension
  2
*D12
 10
525.2735971548692
 20
266.1190791067903
 30
0.0000000000000000
 11
372.0551811529499
 21
298.2321281134551
 31
0.0000000000000000
 70
163
  3
MAIN001
100
AcDbDiametricDimension
 15
344.0874989053549
 25
303.4901615251161
 35
0.0000000000000000
1001
ACAD
1000
DSTYLE
1002
{
1070
   287
1070
     2
1070
   173
1070
     1
1070
     6
1000
_OPEN
1070
     7
1000
_OPEN
1070
    41
1040
2.000000
1070
   272
1070
     1
1070
    47
1040
0.200000
1070
    48
1040
0.200000
1070
    71
1070
     1
1002
}
  0
LEADER
  5
E8
100
AcDbEntity
  8
MAIN0
  6
CONTINUOUS
 62
3
100
AcDbLeader
  3
MAIN001
 73
     0
 74
     0
 75
     1
 40
3.099999904632568
 41
10.90100000596044
 76
     3
 10
502.5047645517668
 20
355.1525327675697
 30
0.0000000000000000
 10
512.7766742974343
 20
376.1505082585036
 30
0.0000000000000000
 10
514.5616742447736
 20
376.1505082585036
 30
0.0000000000000000
340
E9
213
0.0000000000000000
223
-0.5000000000000000
233
0.0000000000000000
1001
ACAD
1000
DSTYLE
1002
{
1070
   147
1040
0.0
1070
    77
1070
     1
1070
   173
1070
     1
1070
     6
1000
_OPEN
1070
     7
1000
_OPEN
1002
}
  0
MTEXT
  5
E9
102
{ACAD_REACTORS
330
E8
102
}
100
AcDbEntity
  8
MAIN0
  6
CONTINUOUS
 62
3
100
AcDbMText
 10
514.5626742447736
 20
379.7505081631362
 30
0.0000000000000000
 40
3.099999904632568
 41
0.0000000000000000
 71
     1
 72
     1
  1
{\H0.70x;{4-\U+220511}}
 11
1.000000000000000
 21
0.0000000000000000
 31
0.0000000000000000
  7
STANDARD
  0
LINE
  5
EA
100
AcDbEntity
  8
MAIN0
  6
CONTINUOUS
 62
3
100
AcDbLine
 10
209.6805480301120
 20
61.37302474912212
 30
0.0000000000000000
 11
209.6805480301120
 21
107.8913463674036
 31
0.0000000000000000
  0
LINE
  5
EB
100
AcDbEntity
  8
MAIN0
  6
CONTINUOUS
 62
3
100
AcDbLine
 10
212.6605480301121
 20
66.16462031595319
 30
0.0000000000000000
 11
212.6605480301120
 21
103.4446203159532
 31
0.0000000000000000
  0
LINE
  5
EC
100
AcDbEntity
  8
MAIN0
  6
CONTINUOUS
 62
3
100
AcDbLine
 10
222.9605480301121
 20
78.45462031595324
 30
0.0000000000000000
 11
235.0405480301120
 21
78.45462031595326
 31
0.0000000000000000
  0
LINE
  5
ED
100
AcDbEntity
  8
MAIN0
  6
CENTER
 62
12
100
AcDbLine
 10
193.9931632841165
 20
84.80462031595326
 30
0.0000000000000000
 11
238.1747023250611
 21
84.80462031595326
 31
0.0000000000000000
  0
LINE
  5
EE
100
AcDbEntity
  8
MAIN0
  6
CONTINUOUS
 62
3
100
AcDbLine
 10
213.0605480301121
 20
103.8396203159533
 30
0.0000000000000000
 11
235.0405480301118
 21
103.8396203159533
 31
0.0000000000000000
  0
LINE
  5
EF
100
AcDbEntity
  8
MAIN0
  6
CONTINUOUS
 62
3
100
AcDbLine
 10
222.9605480301121
 20
91.15462031595337
 30
0.0000000000000000
 11
235.0405480301120
 21
91.15462031595340
 31
0.0000000000000000
  0
LINE
  5
F0
100
AcDbEntity
  8
MAIN0
  6
CONTINUOUS
 62
3
100
AcDbLine
 10
235.4405480301120
 20
103.4396203159533
 30
0.0000000000000000
 11
235.0405480301120
 21
103.8396203159533
 31
0.0000000000000000
  0
LINE
  5
F1
100
AcDbEntity
  8
MAIN0
  6
CONTINUOUS
 62
3
100
AcDbLine
 10
212.6605480301121
 20
103.4396203159533
 30
0.0000000000000000
 11
213.0605480301121
 21
103.8396203159533
 31
0.0000000000000000
  0
LINE
  5
F2
100
AcDbEntity
  8
MAIN0
  6
CONTINUOUS
 62
3
100
AcDbLine
 10
212.6605480301121
 20
66.16962031595324
 30
0.0000000000000000
 11
213.0605480301121
 21
65.76962031595321
 31
0.0000000000000000
  0
LINE
  5
F3
100
AcDbEntity
  8
MAIN0
  6
CONTINUOUS
 62
3
100
AcDbLine
 10
235.4405480301121
 20
66.16962031595327
 30
0.0000000000000000
 11
235.0405480301121
 21
65.76962031595326
 31
0.0000000000000000
  0
LINE
  5
F4
100
AcDbEntity
  8
MAIN0
  6
CONTINUOUS
 62
3
100
AcDbLine
 10
229.0405480301120
 20
102.8396203159534
 30
0.0000000000000000
 11
228.0405480301120
 21
103.8396203159534
 31
0.0000000000000000
  0
LINE
  5
F5
100
AcDbEntity
  8
MAIN0
  6
CONTINUOUS
 62
3
100
AcDbLine
 10
222.5405480301121
 20
91.55462031595337
 30
0.0000000000000000
 11
222.5405480301121
 21
92.43962001053725
 31
0.0000000000000000
  0
LINE
  5
F6
100
AcDbEntity
  8
MAIN0
  6
CONTINUOUS
 62
3
100
AcDbLine
 10
222.5405480301121
 20
77.16962012029552
 30
0.0000000000000000
 11
222.5405480301121
 21
78.05462031595323
 31
0.0000000000000000
  0
LINE
  5
F7
100
AcDbEntity
  8
MAIN0
  6
CONTINUOUS
 62
3
100
AcDbLine
 10
229.0405480301120
 20
102.8446203159533
 30
0.0000000000000000
 11
229.0405480301120
 21
92.15462031595340
 31
0.0000000000000000
  0
LINE
  5
F8
100
AcDbEntity
  8
MAIN0
  6
CONTINUOUS
 62
3
100
AcDbLine
 10
229.0405480301118
 20
66.76462031595298
 30
0.0000000000000000
 11
229.0405480301118
 21
77.45462031595324
 31
0.0000000000000000
  0
LINE
  5
F9
100
AcDbEntity
  8
MAIN0
  6
CONTINUOUS
 62
3
100
AcDbLine
 10
235.4405480301119
 20
103.4446203159533
 30
0.0000000000000000
 11
235.4405480301119
 21
91.55462031595340
 31
0.0000000000000000
  0
LINE
  5
FA
100
AcDbEntity
  8
MAIN0
  6
CONTINUOUS
 62
3
100
AcDbLine
 10
235.4405480301119
 20
78.05462031595323
 30
0.0000000000000000
 11
235.4405480301119
 21
66.16462031595324
 31
0.0000000000000000
  0
LINE
  5
FB
100
AcDbEntity
  8
MAIN0
  6
CONTINUOUS
 62
3
100
AcDbLine
 10
235.4405480301121
 20
78.05462031595326
 30
0.0000000000000000
 11
235.0405480301121
 21
78.45462031595324
 31
0.0000000000000000
  0
LINE
  5
FC
100
AcDbEntity
  8
MAIN0
  6
CONTINUOUS
 62
3
100
AcDbLine
 10
235.4405480301120
 20
91.55462031595346
 30
0.0000000000000000
 11
235.0405480301120
 21
91.15462031595348
 31
0.0000000000000000
  0
LINE
  5
FD
100
AcDbEntity
  8
MAIN0
  6
CONTINUOUS
 62
3
100
AcDbLine
 10
229.0405480301120
 20
92.15462031595342
 30
0.0000000000000000
 11
228.0405480301120
 21
91.15462031595342
 31
0.0000000000000000
  0
LINE
  5
FE
100
AcDbEntity
  8
MAIN0
  6
CONTINUOUS
 62
3
100
AcDbLine
 10
229.0405480301121
 20
77.45462031595332
 30
0.0000000000000000
 11
228.0405480301121
 21
78.45462031595332
 31
0.0000000000000000
  0
LINE
  5
FF
100
AcDbEntity
  8
MAIN0
  6
CONTINUOUS
 62
3
100
AcDbLine
 10
214.0405480301120
 20
103.8446203159533
 30
0.0000000000000000
 11
214.0405480301121
 21
65.76462031595318
 31
0.0000000000000000
  0
LINE
  5
100
100
AcDbEntity
  8
MAIN0
  6
CONTINUOUS
 62
3
100
AcDbLine
 10
222.5405480301121
 20
78.05462031595326
 30
0.0000000000000000
 11
222.9405480301121
 21
78.45462031595326
 31
0.0000000000000000
  0
LINE
  5
101
100
AcDbEntity
  8
MAIN0
  6
CONTINUOUS
 62
3
100
AcDbLine
 10
222.5405480301121
 20
91.55462031595337
 30
0.0000000000000000
 11
222.9405480301120
 21
91.15462031595337
 31
0.0000000000000000
  0
LINE
  5
102
100
AcDbEntity
  8
MAIN0
  6
CONTINUOUS
 62
3
100
AcDbLine
 10
213.0605480301121
 20
65.76962031595321
 30
0.0000000000000000
 11
235.0405480301120
 21
65.76962031595326
 31
0.0000000000000000
  0
LINE
  5
103
100
AcDbEntity
  8
MAIN0
  6
CONTINUOUS
 62
3
100
AcDbLine
 10
229.0405480301120
 20
66.76962031595292
 30
0.0000000000000000
 11
228.0405480301120
 21
65.76962031595292
 31
0.0000000000000000
  0
LINE
  5
104
100
AcDbEntity
  8
MAIN0
  6
CONTINUOUS
 62
3
100
AcDbLine
 10
217.0405480301121
 20
90.30462031595326
 30
0.0000000000000000
 11
217.3405480301121
 21
90.30462031595326
 31
0.0000000000000000
  0
LINE
  5
105
100
AcDbEntity
  8
MAIN0
  6
CONTINUOUS
 62
3
100
AcDbLine
 10
217.0405480301121
 20
79.30462031595326
 30
0.0000000000000000
 11
217.3405480301121
 21
79.30462031595326
 31
0.0000000000000000
  0
LINE
  5
106
100
AcDbEntity
  8
MAIN0
  6
CONTINUOUS
 62
3
100
AcDbLine
 10
217.0405480301121
 20
79.30462031595326
 30
0.0000000000000000
 11
217.0405480301121
 21
90.30462031595326
 31
0.0000000000000000
  0
LINE
  5
107
100
AcDbEntity
  8
MAIN0
  6
CONTINUOUS
 62
3
100
AcDbLine
 10
217.3405480301121
 20
77.16961980774809
 30
0.0000000000000000
 11
217.3405480301121
 21
79.30462031595326
 31
0.0000000000000000
  0
LINE
  5
108
100
AcDbEntity
  8
MAIN0
  6
CONTINUOUS
 62
3
100
AcDbLine
 10
217.3405480301121
 20
90.30462031595326
 30
0.0000000000000000
 11
217.3405480301121
 21
92.43961980798980
 31
0.0000000000000000
  0
LINE
  5
109
100
AcDbEntity
  8
MAIN0
  6
CONTINUOUS
 62
3
100
AcDbLine
 10
222.5405480301120
 20
91.12962031595330
 30
0.0000000000000000
 11
228.4005480301119
 21
91.12962031595330
 31
0.0000000000000000
  0
LINE
  5
10A
100
AcDbEntity
  8
MAIN0
  6
CONTINUOUS
 62
3
100
AcDbLine
 10
217.8405480301109
 20
77.40461772597953
 30
0.0000000000000000
 11
217.8405480301109
 21
92.20461976277599
 31
0.0000000000000000
  0
LINE
  5
10B
100
AcDbEntity
  8
MAIN0
  6
CONTINUOUS
 62
3
100
AcDbLine
 10
222.5405480301120
 20
91.12962031595328
 30
0.0000000000000000
 11
222.5405480301120
 21
92.20461995914999
 31
0.0000000000000000
  0
LINE
  5
10C
100
AcDbEntity
  8
MAIN0
  6
CONTINUOUS
 62
3
100
AcDbLine
 10
228.4005480301118
 20
78.47962031595324
 30
0.0000000000000000
 11
228.4005480301119
 21
91.12962031595328
 31
0.0000000000000000
  0
LINE
  5
10D
100
AcDbEntity
  8
MAIN0
  6
CONTINUOUS
 62
3
100
AcDbLine
 10
222.5405480301120
 20
78.47962031595324
 30
0.0000000000000000
 11
228.4005480301118
 21
78.47962031595324
 31
0.0000000000000000
  0
LINE
  5
10E
100
AcDbEntity
  8
MAIN0
  6
CONTINUOUS
 62
3
100
AcDbLine
 10
222.5405480301120
 20
78.47962031595327
 30
0.0000000000000000
 11
222.5405480301120
 21
77.40462067275655
 31
0.0000000000000000
  0
LINE
  5
10F
100
AcDbEntity
  8
MAIN0
  6
HIDDEN
 62
12
100
AcDbLine
 10
218.0405480301109
 20
79.80462031595326
 30
0.0000000000000000
 11
228.2005505001126
 21
79.80462031595326
 31
0.0000000000000000
  0
LINE
  5
110
100
AcDbEntity
  8
MAIN0
  6
HIDDEN
 62
12
100
AcDbLine
 10
218.0405480301109
 20
89.80462031595326
 30
0.0000000000000000
 11
228.2005455601124
 21
89.80462031595326
 31
0.0000000000000000
  0
LINE
  5
111
100
AcDbEntity
  8
MAIN0
  6
HIDDEN
 62
4
100
AcDbLine
 10
227.2005480301118
 20
80.80462031595329
 30
0.0000000000000000
 11
219.0405480301109
 21
80.80462031595329
 31
0.0000000000000000
  0
LINE
  5
112
100
AcDbEntity
  8
MAIN0
  6
HIDDEN
 62
4
100
AcDbLine
 10
227.2005480301118
 20
88.80462031595329
 30
0.0000000000000000
 11
219.0405480301109
 21
88.80462031595329
 31
0.0000000000000000
  0
LINE
  5
113
100
AcDbEntity
  8
MAIN0
  6
HIDDEN
 62
4
100
AcDbLine
 10
219.0405480301109
 20
88.80462031595332
 30
0.0000000000000000
 11
217.8405480301109
 21
90.00462031595333
 31
0.0000000000000000
  0
LINE
  5
114
100
AcDbEntity
  8
MAIN0
  6
HIDDEN
 62
4
100
AcDbLine
 10
219.0405480301109
 20
80.80462031595323
 30
0.0000000000000000
 11
217.8405480301109
 21
79.60462031595324
 31
0.0000000000000000
  0
LINE
  5
115
100
AcDbEntity
  8
MAIN0
  6
HIDDEN
 62
4
100
AcDbLine
 10
227.2005480301120
 20
80.80462031595326
 30
0.0000000000000000
 11
228.4005480301120
 21
79.60462031595327
 31
0.0000000000000000
  0
LINE
  5
116
100
AcDbEntity
  8
MAIN0
  6
HIDDEN
 62
4
100
AcDbLine
 10
227.2005480301120
 20
88.80462031595332
 30
0.0000000000000000
 11
228.4005480301120
 21
90.00462031595333
 31
0.0000000000000000
  0
LINE
  5
117
100
AcDbEntity
  8
MAIN0
  6
HIDDEN
 62
4
100
AcDbLine
 10
227.2005480301118
 20
80.80462031595329
 30
0.0000000000000000
 11
227.2005480301118
 21
82.44022817280134
 31
0.0000000000000000
  0
LINE
  5
118
100
AcDbEntity
  8
MAIN0
  6
HIDDEN
 62
4
100
AcDbLine
 10
227.2005480301118
 20
87.14051130345857
 30
0.0000000000000000
 11
227.2005480301118
 21
88.80462031595329
 31
0.0000000000000000
  0
LINE
  5
119
100
AcDbEntity
  8
MAIN0
  6
HIDDEN
 62
4
100
AcDbLine
 10
219.0405480301109
 20
80.80462031595326
 30
0.0000000000000000
 11
219.0405480301109
 21
82.03345826320620
 31
0.0000000000000000
  0
LINE
  5
11A
100
AcDbEntity
  8
MAIN0
  6
HIDDEN
 62
4
100
AcDbLine
 10
219.0405480301109
 20
87.29116026901929
 30
0.0000000000000000
 11
219.0405480301109
 21
88.80462031595329
 31
0.0000000000000000
  0
ARC
  5
11B
100
AcDbEntity
  8
MAIN0
  6
CONTINUOUS
 62
3
100
AcDbCircle
 10
209.1605480301121
 20
66.16946000003424
 30
0.0000000000000000
 40
3.500000000000000
100
AcDbArc
 50
1.017777498068325e-013
 51
81.45585217256408
  0
ARC
  5
11C
100
AcDbEntity
  8
MAIN0
  6
CONTINUOUS
 62
3
100
AcDbCircle
 10
209.1605480301120
 20
103.4397806318721
 30
0.0000000000000000
 40
3.500000000000000
100
AcDbArc
 50
278.5441478274373
 51
360.0000000000000
  0
ARC
  5
11D
100
AcDbEntity
  8
MAIN0
  6
CONTINUOUS
 62
3
100
AcDbCircle
 10
219.9405480301121
 20
77.16962031595318
 30
0.0000000000000000
 40
2.599999999999973
100
AcDbArc
 50
179.9998909668130
 51
360.0001143549707
  0
ARC
  5
11E
100
AcDbEntity
  8
MAIN0
  6
CONTINUOUS
 62
3
100
AcDbCircle
 10
219.9405480301121
 20
92.43962031595331
 30
0.0000000000000000
 40
2.599999999999973
100
AcDbArc
 50
8.445674344189020e-005
 51
179.9999155432564
  0
ARC
  5
11F
100
AcDbEntity
  8
MAIN0
  6
CONTINUOUS
 62
3
100
AcDbCircle
 10
220.1905480301121
 20
92.20462031595332
 30
0.0000000000000000
 40
2.349999999999923
100
AcDbArc
 50
0.0000000000000000
 51
180.0000744836925
  0
ARC
  5
120
100
AcDbEntity
  8
MAIN0
  6
CONTINUOUS
 62
3
100
AcDbCircle
 10
220.1905480301121
 20
77.40462031595322
 30
0.0000000000000000
 40
2.349999999999923
100
AcDbArc
 50
179.9999255163071
 51
359.9999999999998
  0
SPLINE
  5
121
100
AcDbEntity
  8
MAIN0
  6
CONTINUOUS
 62
12
100
AcDbSpline
210
0.0000000000000000
220
0.0000000000000000
230
1.000000000000000
 70
     8
 71
     3
 72
    10
 73
     6
 74
     0
 42
1.000000000000000e-007
 43
1.000000000000000e-007
 12
-0.9644659099145656
 22
0.6455866157006369
 32
0.0000000000000000
 13
-0.9628512440880854
 23
0.6959320155807518
 33
0.0000000000000000
 40
0.0000000000000000
 40
0.0000000000000000
 40
0.0000000000000000
 40
0.0000000000000000
 40
1.930640788371704
 40
3.441557806632972
 40
5.870963066661343
 40
5.870963066661343
 40
5.870963066661343
 40
5.870963066661343
 10
209.6805480301120
 20
107.8913463674036
 30
0.0000000000000000
 10
209.0598689552203
 20
108.3068116516365
 30
0.0000000000000000
 10
207.9534472280543
 20
109.0474195373438
 30
0.0000000000000000
 10
206.3434062402110
 20
107.1832805335442
 30
0.0000000000000000
 10
205.0787581709579
 20
108.0973460086001
 30
0.0000000000000000
 10
204.2990395452871
 20
108.6609129750248
 30
0.0000000000000000
  0
SPLINE
  5
122
100
AcDbEntity
  8
MAIN0
  6
CONTINUOUS
 62
12
100
AcDbSpline
210
0.0000000000000000
220
0.0000000000000000
230
1.000000000000000
 70
     8
 71
     3
 72
    10
 73
     6
 74
     0
 42
1.000000000000000e-007
 43
1.000000000000000e-007
 12
-0.8648345975180405
 22
-0.8428705232481519
 32
0.0000000000000000
 13
-0.8674409044047025
 23
-0.8181014033454659
 33
0.0000000000000000
 40
0.0000000000000000
 40
0.0000000000000000
 40
0.0000000000000000
 40
0.0000000000000000
 40
1.829418537991415
 40
3.821040043549111
 40
5.480864415616413
 40
5.480864415616413
 40
5.480864415616413
 40
5.480864415616413
 10
209.6805480301120
 20
61.37302474912212
 30
0.0000000000000000
 10
209.1531665484467
 20
60.85903709566989
 30
0.0000000000000000
 10
208.0516440057256
 20
59.78548975538377
 30
0.0000000000000000
 10
206.5021999493339
 20
62.09479048497028
 30
0.0000000000000000
 10
205.4463954445100
 20
61.09903948606191
 30
0.0000000000000000
 10
204.9664622596903
 20
60.64640460336349
 30
0.0000000000000000
  0
DIMENSION
  5
12B
100
AcDbEntity
  8
MAIN0
  6
CONTINUOUS
 62
3
100
AcDbDimension
  2
*D13
 10
253.0496994224264
 20
65.76962031595326
 30
0.0000000000000000
 11
252.5496994224264
 21
82.70462031446317
 31
0.0000000000000000
 70
32
  1
\A1;38.07h7
  3
MAIN001
100
AcDbAlignedDimension
 13
235.0405480301118
 23
103.8396203159533
 33
0.0000000000000000
 14
235.0405480301120
 24
65.76962031595326
 34
0.0000000000000000
 50
90.00000000000000
100
AcDbRotatedDimension
1001
ACAD
1000
DSTYLE
1002
{
1070
   173
1070
     1
1070
     6
1000
_OPEN
1070
     7
1000
_OPEN
1070
    41
1040
2.000000
1002
}
  0
DIMENSION
  5
134
100
AcDbEntity
  8
MAIN0
  6
CONTINUOUS
 62
3
100
AcDbDimension
  2
*D14
 10
244.3592130429878
 20
91.15462031595340
 30
0.0000000000000000
 11
243.8592130429878
 21
84.80462031595334
 31
0.0000000000000000
 70
32
  3
MAIN001
100
AcDbAlignedDimension
 13
235.0405480301120
 23
78.45462031595326
 33
0.0000000000000000
 14
235.0405480301120
 24
91.15462031595340
 34
0.0000000000000000
 50
90.00000000000000
100
AcDbRotatedDimension
1001
ACAD
1000
DSTYLE
1002
{
1070
   173
1070
     1
1070
     6
1000
_OPEN
1070
     7
1000
_OPEN
1070
    41
1040
2.000000
1002
}
  0
LINE
  5
135
100
AcDbEntity
  8
MAIN0
  6
CONTINUOUS
 62
3
100
AcDbLine
 10
157.1805480301237
 20
203.8046203159532
 30
0.0000000000000000
 11
174.1805480301237
 21
203.8046203159532
 31
0.0000000000000000
  0
LINE
  5
136
100
AcDbEntity
  8
MAIN0
  6
CONTINUOUS
 62
3
100
AcDbLine
 10
157.1805480301239
 20
365.8046203159536
 30
0.0000000000000000
 11
174.1805480301239
 21
365.8046203159536
 31
0.0000000000000000
  0
INSERT
  5
13D
100
AcDbEntity
  8
MAIN0
  6
CONTINUOUS
 62
3
100
AcDbBlockReference
  2
D15
 10
281.3697457010665
 20
284.8046203159532
 30
0.0000000000000000
 50
0.0000000000000000
  0
DIMENSION
  5
146
100
AcDbEntity
  8
MAIN0
  6
CONTINUOUS
 62
3
100
AcDbDimension
  2
*D16
 10
326.3485501481139
 20
181.8046203159531
 30
0.0000000000000000
 11
325.8485501481139
 21
233.3046203159532
 31
0.0000000000000000
 70
32
  3
MAIN001
100
AcDbAlignedDimension
 13
331.1805480301122
 23
284.8046203159532
 33
0.0000000000000000
 14
394.6805480301438
 24
181.8046203159531
 34
0.0000000000000000
 50
90.00000000000000
100
AcDbRotatedDimension
1001
ACAD
1000
DSTYLE
1002
{
1070
   173
1070
     1
1070
     6
1000
_OPEN
1070
     7
1000
_OPEN
1070
    41
1040
2.000000
1002
}
  0
LEADER
  5
147
100
AcDbEntity
  8
MAIN0
  6
CONTINUOUS
 62
3
100
AcDbLeader
  3
MAIN001
 73
     0
 75
     1
 40
3.099999904632568
 41
10.39900000596049
 76
     3
 10
387.0764594128546
 20
369.7251233961338
 30
0.0000000000000000
 10
383.7229466674288
 20
381.6452964905513
 30
0.0000000000000000
 10
381.9359467200895
 20
381.6452964905513
 30
0.0000000000000000
340
148
213
0.0000000000000000
223
-0.5000000000000000
233
0.0000000000000000
1001
ACAD
1000
DSTYLE
1002
{
1070
   147
1040
0.0
1070
    77
1070
     1
1070
   173
1070
     1
1070
     6
1000
_OPEN
1070
     7
1000
_OPEN
1002
}
  0
MTEXT
  5
148
102
{ACAD_REACTORS
330
147
102
}
100
AcDbEntity
  8
MAIN0
  6
CONTINUOUS
 62
3
100
AcDbMText
 10
371.5369467141290
 20
385.2452963951839
 30
0.0000000000000000
 40
3.099999904632568
 41
0.0000000000000000
 71
     1
 72
     1
  1
{\H0.70x;{6-M10}}
 11
1.000000000000000
 21
0.0000000000000000
 31
0.0000000000000000
  7
STANDARD
  0
LEADER
  5
149
100
AcDbEntity
  8
MAIN0
  6
CONTINUOUS
 62
3
100
AcDbLeader
  3
MAIN001
 73
     0
 75
     1
 40
3.099999904632568
 41
14.59900000894072
 76
     3
 10
411.1805480301014
 20
181.8046203159531
 30
0.0000000000000000
 10
391.7511145928958
 20
162.4309147867934
 30
0.0000000000000000
 10
389.9641146455566
 20
162.4309147867934
 30
0.0000000000000000
340
14A
213
0.0000000000000000
223
-0.5000000000000000
233
0.0000000000000000
1001
ACAD
1000
DSTYLE
1002
{
1070
   147
1040
0.0
1070
    77
1070
     1
1070
   173
1070
     1
1070
     6
1000
_OPEN
1070
     7
1000
_OPEN
1002
}
  0
MTEXT
  5
14A
102
{ACAD_REACTORS
330
149
102
}
100
AcDbEntity
  8
MAIN0
  6
CONTINUOUS
 62
3
100
AcDbMText
 10
375.3651146366158
 20
166.0309146914260
 30
0.0000000000000000
 40
3.099999904632568
 41
0.0000000000000000
 71
     1
 72
     1
  1
{\H0.70x;{2-Rc1/4}}
 11
1.000000000000000
 21
0.0000000000000000
 31
0.0000000000000000
  7
STANDARD
  0
DIMENSION
  5
153
100
AcDbEntity
  8
MAIN0
  6
CONTINUOUS
 62
3
100
AcDbDimension
  2
*D17
 10
411.1805480301009
 20
165.8052663637258
 30
0.0000000000000000
 11
434.6805480301008
 21
166.3052663637258
 31
0.0000000000000000
 70
32
  3
MAIN001
100
AcDbAlignedDimension
 13
458.1805480301007
 23
178.5667089747749
 33
0.0000000000000000
 14
411.1805480301009
 24
178.5667089747821
 34
0.0000000000000000
100
AcDbRotatedDimension
1001
ACAD
1000
DSTYLE
1002
{
1070
   173
1070
     1
1070
     6
1000
_OPEN
1070
     7
1000
_OPEN
1070
    41
1040
2.000000
1002
}
  0
DIMENSION
  5
15C
100
AcDbEntity
  8
MAIN0
  6
CONTINUOUS
 62
3
100
AcDbDimension
  2
*D18
 10
91.68054803011253
 20
154.4614623697014
 30
0.0000000000000000
 11
155.6027800027967
 21
154.9614623697014
 31
0.0000000000000000
 70
160
  3
MAIN001
100
AcDbAlignedDimension
 13
209.6805480301007
 23
204.8046203159305
 33
0.0000000000000000
 14
91.68054803011253
 24
183.9046203159536
 34
0.0000000000000000
100
AcDbRotatedDimension
1001
ACAD
1000
DSTYLE
1002
{
1070
   173
1070
     1
1070
     6
1000
_OPEN
1070
     7
1000
_OPEN
1070
    41
1040
2.000000
1002
}
  0
LINE
  5
15D
100
AcDbEntity
  8
MAIN0
  6
CONTINUOUS
 62
3
100
AcDbLine
 10
45.54916609312622
 20
33.07488485148886
 30
0.0000000000000000
 11
151.5491660931262
 21
33.07488485148886
 31
0.0000000000000000
  0
LINE
  5
15E
100
AcDbEntity
  8
MAIN0
  6
CONTINUOUS
 62
3
100
AcDbLine
 10
72.54916609312622
 20
76.07488485148886
 30
0.0000000000000000
 11
151.5491660931262
 21
76.07488485148886
 31
0.0000000000000000
  0
MTEXT
  5
15F
100
AcDbEntity
  8
MAIN0
  6
CONTINUOUS
 62
3
100
AcDbMText
 10
47.68590230396896
 20
25.25567489298027
 30
0.0000000000000000
 40
3.099999904632568
 41
0.0000000000000000
 71
     1
 72
     1
  1
{\H0.71x;{○把握力はジョーおよびワークの把握部状態により変化します。\P　THE GRIPPING FORCE IS DIFFERENT DEPENDING ON\P　THE GRIPPING STATE.}}
 11
1.000000000000000
 21
0.0000000000000000
 31
0.0000000000000000
  7
KNJYOKO
  0
LINE
  5
160
100
AcDbEntity
  8
MAIN0
  6
CONTINUOUS
 62
3
100
AcDbLine
 10
45.54916609312616
 20
69.07488485148886
 30
0.0000000000000000
 11
151.5491660931262
 21
69.07488485148886
 31
0.0000000000000000
  0
MTEXT
  5
161
100
AcDbEntity
  8
MAIN0
  6
CONTINUOUS
 62
3
100
AcDbMText
 10
104.0491660931263
 20
65.87488475612136
 30
0.0000000000000000
 40
3.099999904632568
 41
0.0000000000000000
 71
     1
 72
     1
  1
{\H0.71x;{0.2 MPa　(　2kgf/cm )}}
 11
1.000000000000000
 21
0.0000000000000000
 31
0.0000000000000000
  7
KNJYOKO
  0
MTEXT
  5
162
100
AcDbEntity
  8
MAIN0
  6
CONTINUOUS
 62
3
100
AcDbMText
 10
125.6418841600087
 20
123.0827919003037
 30
0.0000000000000000
 40
3.099999904632568
 41
0.0000000000000000
 71
     1
 72
     1
  1
{\H0.87x;{11.1　mm}}
 11
1.000000000000000
 21
0.0000000000000000
 31
0.0000000000000000
  7
KNJYOKO
  0
MTEXT
  5
163
100
AcDbEntity
  8
MAIN0
  6
CONTINUOUS
 62
3
100
AcDbMText
 10
125.6418841600087
 20
116.0827919003037
 30
0.0000000000000000
 40
3.099999904632568
 41
0.0000000000000000
 71
     1
 72
     1
  1
{\H0.87x;{ 7.7　mm}}
 11
1.000000000000000
 21
0.0000000000000000
 31
0.0000000000000000
  7
KNJYOKO
  0
LINE
  5
164
100
AcDbEntity
  8
MAIN0
  6
CONTINUOUS
 62
3
100
AcDbLine
 10
66.54916609312622
 20
111.0748848514889
 30
0.0000000000000000
 11
66.54916609312622
 21
83.07488485148897
 31
0.0000000000000000
  0
MTEXT
  5
165
100
AcDbEntity
  8
MAIN0
  6
CONTINUOUS
 62
3
100
AcDbMText
 10
68.54916609312616
 20
107.1748844700191
 30
0.0000000000000000
 40
2.399999618530273
 41
0.0000000000000000
 71
     1
 72
     1
  1
{\H0.92x;{エア圧力}}
 11
1.000000000000000
 21
0.0000000000000000
 31
0.0000000000000000
  7
KNJYOKO
  0
MTEXT
  5
166
100
AcDbEntity
  8
MAIN0
  6
CONTINUOUS
 62
3
100
AcDbMText
 10
68.54916609312616
 20
90.17488447001918
 30
0.0000000000000000
 40
2.399999618530273
 41
0.0000000000000000
 71
     1
 72
     1
  1
{\H0.93x;{1.3 MPa\P(13kgf/cm )}}
 11
1.000000000000000
 21
0.0000000000000000
 31
0.0000000000000000
  7
STANDARD
  0
MTEXT
  5
167
100
AcDbEntity
  8
MAIN0
  6
CONTINUOUS
 62
3
100
AcDbMText
 10
68.54916609312616
 20
93.17488447001907
 30
0.0000000000000000
 40
2.399999618530273
 41
0.0000000000000000
 71
     1
 72
     1
  1
{\H0.91x;{油圧力}}
 11
1.000000000000000
 21
0.0000000000000000
 31
0.0000000000000000
  7
KNJYOKO
  0
MTEXT
  5
168
100
AcDbEntity
  8
MAIN0
  6
CONTINUOUS
 62
3
100
AcDbMText
 10
88.38734296764156
 20
88.36098616366135
 30
0.0000000000000000
 40
2.000000000000000
 41
0.0000000000000000
 71
     1
 72
     1
  1
{\H0.82x;{2}}
 11
1.000000000000000
 21
0.0000000000000000
 31
0.0000000000000000
  7
STANDARD
  0
LINE
  5
169
100
AcDbEntity
  8
MAIN0
  6
CONTINUOUS
 62
3
100
AcDbLine
 10
72.54916609312622
 20
83.07488485148886
 30
0.0000000000000000
 11
72.54916609312622
 21
69.07488485148897
 31
0.0000000000000000
  0
MTEXT
  5
16A
100
AcDbEntity
  8
MAIN0
  6
CONTINUOUS
 62
3
100
AcDbMText
 10
74.54916609312622
 20
72.17488447001907
 30
0.0000000000000000
 40
2.399999618530273
 41
0.0000000000000000
 71
     1
 72
     1
  1
{\H0.91x;{油圧力}}
 11
1.000000000000000
 21
0.0000000000000000
 31
0.0000000000000000
  7
KNJYOKO
  0
MTEXT
  5
16B
100
AcDbEntity
  8
MAIN0
  6
CONTINUOUS
 62
3
100
AcDbMText
 10
74.54916609312616
 20
79.17488447001907
 30
0.0000000000000000
 40
2.399999618530273
 41
0.0000000000000000
 71
     1
 72
     1
  1
{\H0.92x;{エア圧力}}
 11
1.000000000000000
 21
0.0000000000000000
 31
0.0000000000000000
  7
KNJYOKO
  0
MTEXT
  5
16C
100
AcDbEntity
  8
MAIN0
  6
CONTINUOUS
 62
3
100
AcDbMText
 10
104.0491660931262
 20
79.87488475612136
 30
0.0000000000000000
 40
3.099999904632568
 41
0.0000000000000000
 71
     1
 72
     1
  1
{\H0.71x;{0.7 MPa　( 7kgf/cm )}}
 11
1.000000000000000
 21
0.0000000000000000
 31
0.0000000000000000
  7
KNJYOKO
  0
MTEXT
  5
16D
100
AcDbEntity
  8
MAIN0
  6
CONTINUOUS
 62
3
100
AcDbMText
 10
140.3708549089064
 20
80.70883341371908
 30
0.0000000000000000
 40
2.000000000000000
 41
0.0000000000000000
 71
     1
 72
     1
  1
{\H0.82x;{2}}
 11
1.000000000000000
 21
0.0000000000000000
 31
0.0000000000000000
  7
STANDARD
  0
LINE
  5
16E
100
AcDbEntity
  8
MAIN0
  6
CONTINUOUS
 62
3
100
AcDbLine
 10
45.54916609312627
 20
135.0748848514889
 30
0.0000000000000000
 11
151.5491660931263
 21
135.0748848514889
 31
0.0000000000000000
  0
LINE
  5
16F
100
AcDbEntity
  8
MAIN0
  6
CONTINUOUS
 62
3
100
AcDbLine
 10
45.54916609312622
 20
125.0748848514890
 30
0.0000000000000000
 11
151.5491660931262
 21
125.0748848514889
 31
0.0000000000000000
  0
LINE
  5
170
100
AcDbEntity
  8
MAIN0
  6
CONTINUOUS
 62
3
100
AcDbLine
 10
45.54916609312625
 20
118.0748848514889
 30
0.0000000000000000
 11
151.5491660931263
 21
118.0748848514889
 31
0.0000000000000000
  0
LINE
  5
171
100
AcDbEntity
  8
MAIN0
  6
CONTINUOUS
 62
3
100
AcDbLine
 10
45.54916609312625
 20
111.0748848514889
 30
0.0000000000000000
 11
151.5491660931263
 21
111.0748848514889
 31
0.0000000000000000
  0
LINE
  5
172
100
AcDbEntity
  8
MAIN0
  6
CONTINUOUS
 62
3
100
AcDbLine
 10
66.54916609312622
 20
97.07488485148886
 30
0.0000000000000000
 11
151.5491660931262
 21
97.07488485148886
 31
0.0000000000000000
  0
LINE
  5
173
100
AcDbEntity
  8
MAIN0
  6
CONTINUOUS
 62
3
100
AcDbLine
 10
45.54916609312616
 20
62.07488485148886
 30
0.0000000000000000
 11
151.5491660931262
 21
62.07488485148886
 31
0.0000000000000000
  0
LINE
  5
174
100
AcDbEntity
  8
MAIN0
  6
CONTINUOUS
 62
3
100
AcDbLine
 10
45.54916609312616
 20
26.07488485148889
 30
0.0000000000000000
 11
151.5491660931262
 21
26.07488485148889
 31
0.0000000000000000
  0
MTEXT
  5
175
100
AcDbEntity
  8
MAIN0
  6
CONTINUOUS
 62
3
100
AcDbMText
 10
47.54916609312616
 20
94.57488485148886
 30
0.0000000000000000
 40
3.099999904632568
 41
0.0000000000000000
 71
     4
 72
     1
  1
{\H0.70x;{把握力}}
 11
1.000000000000000
 21
0.0000000000000000
 31
0.0000000000000000
  7
KNJYOKO
  0
LINE
  5
176
100
AcDbEntity
  8
MAIN0
  6
CONTINUOUS
 62
3
100
AcDbLine
 10
45.54916609312619
 20
135.0748848514889
 30
0.0000000000000000
 11
45.54916609312627
 21
26.07488485148900
 31
0.0000000000000000
  0
MTEXT
  5
177
100
AcDbEntity
  8
MAIN0
  6
CONTINUOUS
 62
3
100
AcDbMText
 10
125.0491660931080
 20
29.07488485148889
 30
0.0000000000000000
 40
3.099999904632568
 41
0.0000000000000000
 71
     4
 72
     1
  1
{\H0.92x;{24 kg}}
 11
1.000000000000000
 21
0.0000000000000000
 31
0.0000000000000000
  7
STANDARD
  0
LINE
  5
178
100
AcDbEntity
  8
MAIN0
  6
CONTINUOUS
 62
3
100
AcDbLine
 10
151.5491660931262
 20
135.0748848514889
 30
0.0000000000000000
 11
151.5491660931262
 21
26.07488485148889
 31
0.0000000000000000
  0
MTEXT
  5
179
100
AcDbEntity
  8
MAIN0
  6
CONTINUOUS
 62
3
100
AcDbMText
 10
68.54916609312616
 20
104.1748844700191
 30
0.0000000000000000
 40
2.399999618530273
 41
0.0000000000000000
 71
     1
 72
     1
  1
{\H0.93x;{0.6 MPa\P( 6kgf/cm )}}
 11
1.000000000000000
 21
0.0000000000000000
 31
0.0000000000000000
  7
STANDARD
  0
MTEXT
  5
17A
100
AcDbEntity
  8
MAIN0
  6
CONTINUOUS
 62
3
100
AcDbMText
 10
88.38734296764133
 20
102.3609861636614
 30
0.0000000000000000
 40
2.000000000000000
 41
0.0000000000000000
 71
     1
 72
     1
  1
{\H0.82x;{2}}
 11
1.000000000000000
 21
0.0000000000000000
 31
0.0000000000000000
  7
STANDARD
  0
MTEXT
  5
17B
100
AcDbEntity
  8
MAIN0
  6
CONTINUOUS
 62
3
100
AcDbMText
 10
104.0491660931263
 20
72.87488475612136
 30
0.0000000000000000
 40
3.099999904632568
 41
0.0000000000000000
 71
     1
 72
     1
  1
{\H0.71x;{1.3 MPa　(13kgf/cm )}}
 11
1.000000000000000
 21
0.0000000000000000
 31
0.0000000000000000
  7
KNJYOKO
  0
MTEXT
  5
17C
100
AcDbEntity
  8
MAIN0
  6
CONTINUOUS
 62
3
100
AcDbMText
 10
140.5044025973830
 20
73.56567523752122
 30
0.0000000000000000
 40
2.000000000000000
 41
0.0000000000000000
 71
     1
 72
     1
  1
{\H0.82x;{2}}
 11
1.000000000000000
 21
0.0000000000000000
 31
0.0000000000000000
  7
STANDARD
  0
LINE
  5
17D
100
AcDbEntity
  8
MAIN0
  6
CONTINUOUS
 62
3
100
AcDbLine
 10
45.54916609312616
 20
47.07488485148886
 30
0.0000000000000000
 11
151.5491660931262
 21
47.07488485148886
 31
0.0000000000000000
  0
MTEXT
  5
17E
100
AcDbEntity
  8
MAIN0
  6
CONTINUOUS
 62
4
100
AcDbMText
 10
121.6418841600087
 20
55.58279190030376
 30
0.0000000000000000
 40
3.099999904632568
 41
0.0000000000000000
 71
     1
 72
     1
  1
{\H0.92x;{0.54　N}}
 11
1.000000000000000
 21
0.0000000000000000
 31
0.0000000000000000
  7
KNJYOKO
  0
SPLINE
  5
17F
100
AcDbEntity
  8
MAIN0
  6
CONTINUOUS
 62
3
100
AcDbSpline
210
0.0000000000000000
220
0.0000000000000000
230
1.000000000000000
 70
     8
 71
     3
 72
    14
 73
    10
 74
     0
 42
1.000000000000000e-007
 43
1.000000000000000e-007
 12
1.205313937519463
 22
0.3012197250380382
 32
0.0000000000000000
 13
0.9118704780836424
 23
0.7328372388452067
 33
0.0000000000000000
 40
0.0000000000000000
 40
0.0000000000000000
 40
0.0000000000000000
 40
0.0000000000000000
 40
0.5828484074954654
 40
2.017389827489209
 40
3.123506893394179
 40
4.885508420049012
 40
6.048697447303496
 40
6.384151807376483
 40
6.831490023551860
 40
6.831490023551860
 40
6.831490023551860
 40
6.831490023551860
 10
139.4028541527072
 20
52.76707221455391
 30
0.0000000000000000
 10
139.6370259223790
 20
52.82559402690211
 30
0.0000000000000000
 10
140.4475552812062
 20
53.02815322994618
 30
0.0000000000000000
 10
140.9792819216690
 20
54.18779453124913
 30
0.0000000000000000
 10
141.1180890489945
 20
56.69597401837669
 30
0.0000000000000000
 10
139.8698434930617
 20
54.26982554796339
 30
0.0000000000000000
 10
139.7788359583628
 20
52.36523360947709
 30
0.0000000000000000
 10
140.6324685076767
 20
52.66010535788146
 30
0.0000000000000000
 10
140.8704036545911
 20
52.85132520793721
 30
0.0000000000000000
 10
141.0063751589408
 20
52.96060057566118
 30
0.0000000000000000
  0
LINE
  5
180
100
AcDbEntity
  8
MAIN0
  6
CONTINUOUS
 62
3
100
AcDbLine
 10
96.54916609312629
 20
26.07488485148906
 30
0.0000000000000000
 11
96.54916609312622
 21
125.0748848514714
 31
0.0000000000000000
  0
MTEXT
  5
181
100
AcDbEntity
  8
MAIN0
  6
CONTINUOUS
 62
3
100
AcDbMText
 10
91.42060678909618
 20
129.3904738966029
 30
0.0000000000000000
 40
3.100000381469727
 41
0.0000000000000000
 71
     1
 72
     1
  1
{\H0.93x;{仕　　　様}}
 11
1.000000000000000
 21
0.0000000000000000
 31
0.0000000000000000
  7
KNJYOKO
  0
MTEXT
  5
182
100
AcDbEntity
  8
MAIN0
  6
CONTINUOUS
 62
3
100
AcDbMText
 10
81.61741370007266
 20
133.4350094040712
 30
0.0000000000000000
 40
3.100000381469727
 41
0.0000000000000000
 71
     1
 72
     1
  1
{\H0.94x;{SPECIFICATIONS}}
 11
1.000000000000000
 21
0.0000000000000000
 31
0.0000000000000000
  7
STANDARD
  0
MTEXT
  5
183
100
AcDbEntity
  8
MAIN0
  6
CONTINUOUS
 62
3
100
AcDbMText
 10
48.75464262281386
 20
114.3381793111775
 30
0.0000000000000000
 40
2.399999618530273
 41
0.0000000000000000
 71
     1
 72
     1
  1
{\H0.94x;{ジョーストローク(直径で)}}
 11
1.000000000000000
 21
0.0000000000000000
 31
0.0000000000000000
  7
KNJYOKO
  0
MTEXT
  5
184
100
AcDbEntity
  8
MAIN0
  6
CONTINUOUS
 62
3
100
AcDbMText
 10
48.75464262281386
 20
117.4381787389729
 30
0.0000000000000000
 40
2.499999046325684
 41
0.0000000000000000
 71
     1
 72
     1
  1
{\H0.75x;{JAW STROKE (IN DIA)}}
 11
1.000000000000000
 21
0.0000000000000000
 31
0.0000000000000000
  7
STANDARD
  0
MTEXT
  5
185
100
AcDbEntity
  8
MAIN0
  6
CONTINUOUS
 62
3
100
AcDbMText
 10
48.75464262281386
 20
121.3381793111775
 30
0.0000000000000000
 40
2.399999618530273
 41
0.0000000000000000
 71
     1
 72
     1
  1
{\H0.93x;{プランジャストロ－ク}}
 11
1.000000000000000
 21
0.0000000000000000
 31
0.0000000000000000
  7
KNJYOKO
  0
MTEXT
  5
186
100
AcDbEntity
  8
MAIN0
  6
CONTINUOUS
 62
3
100
AcDbMText
 10
48.75464262281386
 20
124.4381787389729
 30
0.0000000000000000
 40
2.499999046325684
 41
0.0000000000000000
 71
     1
 72
     1
  1
{\H0.75x;{PLUNGER STROKE}}
 11
1.000000000000000
 21
0.0000000000000000
 31
0.0000000000000000
  7
STANDARD
  0
MTEXT
  5
187
100
AcDbEntity
  8
MAIN0
  6
CONTINUOUS
 62
3
100
AcDbMText
 10
48.75464262281386
 20
57.07484635931419
 30
0.0000000000000000
 40
2.000000000000000
 41
0.0000000000000000
 71
     1
 72
     1
  1
{\H0.62x;{STROKE ON PRESSURE OF 0.6MPa)}}
 11
1.000000000000000
 21
0.0000000000000000
 31
0.0000000000000000
  7
STANDARD
  0
MTEXT
  5
188
100
AcDbEntity
  8
MAIN0
  6
CONTINUOUS
 62
3
100
AcDbMText
 10
48.75464262281386
 20
60.07484635931419
 30
0.0000000000000000
 40
2.000000000000000
 41
0.0000000000000000
 71
     1
 72
     1
  1
{\H0.63x;{AIR CONSUMPTION (PER 5mm OF PLUNGER }}
 11
1.000000000000000
 21
0.0000000000000000
 31
0.0000000000000000
  7
STANDARD
  0
MTEXT
  5
189
100
AcDbEntity
  8
MAIN0
  6
CONTINUOUS
 62
3
100
AcDbMText
 10
48.75464262281409
 20
53.47484597784447
 30
0.0000000000000000
 40
2.399999618530273
 41
0.0000000000000000
 71
     1
 72
     1
  1
{\H0.92x;{空気消費量}}
 11
1.000000000000000
 21
0.0000000000000000
 31
0.0000000000000000
  7
KNJYOKO
  0
MTEXT
  5
18A
100
AcDbEntity
  8
MAIN0
  6
CONTINUOUS
 62
3
100
AcDbMText
 10
48.75464262281386
 20
50.57484635931419
 30
0.0000000000000000
 40
2.500000000000000
 41
0.0000000000000000
 71
     1
 72
     1
  1
{\H0.59x;{(プランジャストローク5mm当り圧力0.6MPa時)}}
 11
1.000000000000000
 21
0.0000000000000000
 31
0.0000000000000000
  7
KNJYOKO
  0
MTEXT
  5
18B
100
AcDbEntity
  8
MAIN0
  6
CONTINUOUS
 62
3
100
AcDbMText
 10
48.75464262281381
 20
42.93817873897288
 30
0.0000000000000000
 40
2.499999046325684
 41
0.0000000000000000
 71
     1
 72
     1
  1
{\H0.75x;{GRIPPING RANGE}}
 11
1.000000000000000
 21
0.0000000000000000
 31
0.0000000000000000
  7
STANDARD
  0
MTEXT
  5
18C
100
AcDbEntity
  8
MAIN0
  6
CONTINUOUS
 62
3
100
AcDbMText
 10
48.75464262281381
 20
39.83817931117747
 30
0.0000000000000000
 40
2.399999618530273
 41
0.0000000000000000
 71
     1
 72
     1
  1
{\H0.92x;{把握範囲}}
 11
1.000000000000000
 21
0.0000000000000000
 31
0.0000000000000000
  7
KNJYOKO
  0
MTEXT
  5
18D
100
AcDbEntity
  8
MAIN0
  6
CONTINUOUS
 62
3
100
AcDbMText
 10
48.75464262281386
 20
32.57492799539381
 30
0.0000000000000000
 40
2.499999046325684
 41
0.0000000000000000
 71
     1
 72
     1
  1
{\H0.73x;{MASS}}
 11
1.000000000000000
 21
0.0000000000000000
 31
0.0000000000000000
  7
STANDARD
  0
MTEXT
  5
18E
100
AcDbEntity
  8
MAIN0
  6
CONTINUOUS
 62
3
100
AcDbMText
 10
48.75464262281386
 20
29.47492856759840
 30
0.0000000000000000
 40
2.399999618530273
 41
0.0000000000000000
 71
     1
 72
     1
  1
{\H0.94x;{質量 (標準ソフトジョー付)}}
 11
1.000000000000000
 21
0.0000000000000000
 31
0.0000000000000000
  7
KNJYOKO
  0
MTEXT
  5
18F
100
AcDbEntity
  8
MAIN0
  6
CONTINUOUS
 62
3
100
AcDbMText
 10
58.75464262281386
 20
32.07492894906812
 30
0.0000000000000000
 40
2.000000000000000
 41
0.0000000000000000
 71
     1
 72
     1
  1
{\H0.63x;{(INCLUDE STANDARD SOFT JAW)}}
 11
1.000000000000000
 21
0.0000000000000000
 31
0.0000000000000000
  7
STANDARD
  0
MTEXT
  5
190
100
AcDbEntity
  8
MAIN0
  6
CONTINUOUS
 62
3
100
AcDbMText
 10
48.75464262281381
 20
68.43817969264720
 30
0.0000000000000000
 40
2.500000000000000
 41
0.0000000000000000
 71
     1
 72
     1
  1
{\H0.63x;{MIN PERMISSIBLE PRESS}}
 11
1.000000000000000
 21
0.0000000000000000
 31
0.0000000000000000
  7
STANDARD
  0
MTEXT
  5
191
100
AcDbEntity
  8
MAIN0
  6
CONTINUOUS
 62
3
100
AcDbMText
 10
48.75464262281381
 20
65.33817931117747
 30
0.0000000000000000
 40
2.399999618530273
 41
0.0000000000000000
 71
     1
 72
     1
  1
{\H0.93x;{最低使用圧力}}
 11
1.000000000000000
 21
0.0000000000000000
 31
0.0000000000000000
  7
KNJYOKO
  0
MTEXT
  5
192
100
AcDbEntity
  8
MAIN0
  6
CONTINUOUS
 62
3
100
AcDbMText
 10
48.75464262281381
 20
80.94038562683366
 30
0.0000000000000000
 40
2.500000000000000
 41
0.0000000000000000
 71
     1
 72
     1
  1
{\H0.63x;{MAX PERMISSIBLE\PPRESS}}
 11
1.000000000000000
 21
0.0000000000000000
 31
0.0000000000000000
  7
STANDARD
  0
MTEXT
  5
193
100
AcDbEntity
  8
MAIN0
  6
CONTINUOUS
 62
3
100
AcDbMText
 10
48.75464262281381
 20
73.84038524536393
 30
0.0000000000000000
 40
2.399999618530273
 41
0.0000000000000000
 71
     1
 72
     1
  1
{\H0.93x;{最高使用圧力}}
 11
1.000000000000000
 21
0.0000000000000000
 31
0.0000000000000000
  7
KNJYOKO
  0
MTEXT
  5
194
100
AcDbEntity
  8
MAIN0
  6
CONTINUOUS
 62
3
100
AcDbMText
 10
74.54916609312616
 20
82.27488389781448
 30
0.0000000000000000
 40
2.499999046325684
 41
0.0000000000000000
 71
     1
 72
     1
  1
{\H0.74x;{AIR PRESSURE}}
 11
1.000000000000000
 21
0.0000000000000000
 31
0.0000000000000000
  7
STANDARD
  0
MTEXT
  5
195
100
AcDbEntity
  8
MAIN0
  6
CONTINUOUS
 62
3
100
AcDbMText
 10
74.54916609312622
 20
75.27488389781448
 30
0.0000000000000000
 40
2.499999046325684
 41
0.0000000000000000
 71
     1
 72
     1
  1
{\H0.74x;{OIL PRESSURE}}
 11
1.000000000000000
 21
0.0000000000000000
 31
0.0000000000000000
  7
STANDARD
  0
MTEXT
  5
196
100
AcDbEntity
  8
MAIN0
  6
CONTINUOUS
 62
3
100
AcDbMText
 10
68.54916609312616
 20
110.2748838978145
 30
0.0000000000000000
 40
2.499999046325684
 41
0.0000000000000000
 71
     1
 72
     1
  1
{\H0.74x;{AIR PRESSURE}}
 11
1.000000000000000
 21
0.0000000000000000
 31
0.0000000000000000
  7
STANDARD
  0
MTEXT
  5
197
100
AcDbEntity
  8
MAIN0
  6
CONTINUOUS
 62
3
100
AcDbMText
 10
68.54916609312616
 20
96.27488389781448
 30
0.0000000000000000
 40
2.499999046325684
 41
0.0000000000000000
 71
     1
 72
     1
  1
{\H0.74x;{OIL PRESSURE}}
 11
1.000000000000000
 21
0.0000000000000000
 31
0.0000000000000000
  7
STANDARD
  0
MTEXT
  5
198
100
AcDbEntity
  8
MAIN0
  6
CONTINUOUS
 62
3
100
AcDbMText
 10
47.54916609312616
 20
103.0748838978146
 30
0.0000000000000000
 40
2.499999046325684
 41
0.0000000000000000
 71
     1
 72
     1
  1
{\H0.74x;{GRIPPING\PFORCE}}
 11
1.000000000000000
 21
0.0000000000000000
 31
0.0000000000000000
  7
STANDARD
  0
MTEXT
  5
199
100
AcDbEntity
  8
MAIN0
  6
CONTINUOUS
 62
3
100
AcDbMText
 10
140.3708549089064
 20
66.70883341371908
 30
0.0000000000000000
 40
2.000000000000000
 41
0.0000000000000000
 71
     1
 72
     1
  1
{\H0.82x;{2}}
 11
1.000000000000000
 21
0.0000000000000000
 31
0.0000000000000000
  7
STANDARD
  0
SPLINE
  5
19A
100
AcDbEntity
  8
MAIN0
  6
CONTINUOUS
 62
3
100
AcDbSpline
210
0.0000000000000000
220
0.0000000000000000
230
1.000000000000000
 70
     8
 71
     3
 72
    18
 73
    14
 74
     0
 42
1.000000000000000e-007
 43
1.000000000000000e-007
 12
0.9447016766232821
 22
-0.3138203332090370
 32
0.0000000000000000
 13
0.9986177947169779
 23
-0.01090932492897423
 33
0.0000000000000000
 40
0.0000000000000000
 40
0.0000000000000000
 40
0.0000000000000000
 40
0.0000000000000000
 40
2.878718337841614
 40
7.795440625391271
 40
13.96187827043794
 40
20.46749080601360
 40
28.68119926260071
 40
33.93599595612788
 40
43.86415034194070
 40
66.72336873932187
 40
79.67874108968938
 40
106.8649462221585
 40
120.6195771539380
 40
120.6195771539380
 40
120.6195771539380
 40
120.6195771539380
 10
91.68054803011316
 20
295.1913161584874
 30
0.0000000000000000
 10
92.58705804354155
 20
294.8901827091553
 30
0.0000000000000000
 10
95.04184665314968
 20
294.0747267842982
 30
0.0000000000000000
 10
99.58582711831654
 20
292.5137217526529
 30
0.0000000000000000
 10
105.4329063029757
 20
294.4823970268037
 30
0.0000000000000000
 10
112.5413287455732
 20
290.9214825847460
 30
0.0000000000000000
 10
117.9135497913451
 20
296.3917497489790
 30
0.0000000000000000
 10
124.9886181688200
 20
299.9022339426241
 30
0.0000000000000000
 10
138.0573530165369
 20
296.7844658763155
 30
0.0000000000000000
 10
153.1730412523599
 20
303.8016777163397
 30
0.0000000000000000
 10
173.3883574851311
 20
294.7062796657395
 30
0.0000000000000000
 10
191.4739258192493
 20
301.2218169713899
 30
0.0000000000000000
 10
205.1020082940323
 20
301.0729380102269
 30
0.0000000000000000
 10
209.6805480301122
 20
301.0229200975226
 30
0.0000000000000000
  0
LINE
  5
19B
100
AcDbEntity
  8
MAIN0
  6
CONTINUOUS
 62
3
100
AcDbLine
 10
209.6805480301095
 20
265.8046203159533
 30
0.0000000000000000
 11
209.6805480301236
 21
364.8046203159531
 31
0.0000000000000000
  0
SPLINE
  5
19C
100
AcDbEntity
  8
MAIN0
  6
CONTINUOUS
 62
3
100
AcDbSpline
210
0.0000000000000000
220
0.0000000000000000
230
1.000000000000000
 70
     8
 71
     3
 72
    19
 73
    15
 74
     0
 42
1.000000000000000e-007
 43
1.000000000000000e-007
 12
0.9924742487344389
 22
0.2847103569682332
 32
0.0000000000000000
 13
1.070967185320768
 23
-0.05577451719484827
 33
0.0000000000000000
 40
0.0000000000000000
 40
0.0000000000000000
 40
0.0000000000000000
 40
0.0000000000000000
 40
6.956023169613930
 40
16.43749988310069
 40
23.90566621028628
 40
27.01832690824396
 40
32.70632626352241
 40
52.65361338572163
 40
68.19317413226590
 40
95.12298034790135
 40
104.8646443104257
 40
111.9534356913867
 40
123.3532477992220
 40
132.3479191810516
 40
132.3479191810516
 40
132.3479191810516
 40
132.3479191810516
 10
91.68054803011304
 20
275.9734764567821
 30
0.0000000000000000
 10
93.98177265326035
 20
276.6336270700155
 30
0.0000000000000000
 10
99.41970443577787
 20
278.1936025564766
 30
0.0000000000000000
 10
106.8920425967570
 20
274.2062965925641
 30
0.0000000000000000
 10
114.4652140351760
 20
277.1146222253564
 30
0.0000000000000000
 10
118.2124859546244
 20
272.7218015796261
 30
0.0000000000000000
 10
126.5435378439071
 20
267.6101682101252
 30
0.0000000000000000
 10
141.0650534084544
 20
271.0729440803593
 30
0.0000000000000000
 10
162.0132138561411
 20
267.4869554560423
 30
0.0000000000000000
 10
177.3534010240406
 20
273.9474174462239
 30
0.0000000000000000
 10
195.2125551853456
 20
271.6657898689466
 30
0.0000000000000000
 10
195.0982511490103
 20
261.1426642322339
 30
0.0000000000000000
 10
199.1889412062138
 20
251.4539170313184
 30
0.0000000000000000
 10
206.4695487325462
 20
251.0747528746270
 30
0.0000000000000000
 10
209.6805480301073
 20
250.9075283900777
 30
0.0000000000000000
  0
LINE
  5
19D
100
AcDbEntity
  8
MAIN0
  6
CONTINUOUS
 62
3
100
AcDbLine
 10
156.6410390936092
 20
365.3046203159532
 30
0.0000000000000000
 11
156.6410390936092
 21
300.9355876910792
 31
0.0000000000000000
  0
LINE
  5
19E
100
AcDbEntity
  8
MAIN0
  6
CONTINUOUS
 62
3
100
AcDbLine
 10
174.7200569666381
 20
365.3046203159532
 30
0.0000000000000000
 11
174.7200569666381
 21
297.4478636151316
 31
0.0000000000000000
  0
LINE
  5
19F
100
AcDbEntity
  8
MAIN0
  6
CONTINUOUS
 62
3
100
AcDbLine
 10
156.6410390936092
 20
204.3046203159537
 30
0.0000000000000000
 11
156.6410390936094
 21
269.1578322641014
 31
0.0000000000000000
  0
LINE
  5
1A0
100
AcDbEntity
  8
MAIN0
  6
CONTINUOUS
 62
3
100
AcDbLine
 10
174.7200569666381
 20
204.3046203159536
 30
0.0000000000000000
 11
174.7200569666384
 21
271.7585530164166
 31
0.0000000000000000
  0
DIMENSION
  5
1A9
100
AcDbEntity
  8
MAIN0
  6
CONTINUOUS
 62
3
100
AcDbDimension
  2
*D19
 10
80.58595954073942
 20
332.3046203159536
 30
0.0000000000000000
 11
80.08595954073942
 21
284.8046203159536
 31
0.0000000000000000
 70
32
  1
\A1;\U+220595
  3
MAIN001
100
AcDbAlignedDimension
 13
91.68054803011273
 23
237.3046203159536
 33
0.0000000000000000
 14
91.68054803011395
 24
332.3046203159536
 34
0.0000000000000000
 50
90.00000000000000
100
AcDbRotatedDimension
1001
ACAD
1000
DSTYLE
1002
{
1070
   173
1070
     1
1070
     6
1000
_OPEN
1070
     7
1000
_OPEN
1070
    41
1040
2.000000
1002
}
  0
DIMENSION
  5
1B2
100
AcDbEntity
  8
MAIN0
  6
CONTINUOUS
 62
3
100
AcDbDimension
  2
*D20
 10
91.68054803011367
 20
322.2090066014717
 30
0.0000000000000000
 11
86.20433508195475
 21
322.7090066014717
 31
0.0000000000000000
 70
160
  3
MAIN001
100
AcDbAlignedDimension
 13
92.18054803011346
 23
331.3441292524701
 33
0.0000000000000000
 14
91.68054803011367
 24
385.7046203159536
 34
0.0000000000000000
100
AcDbRotatedDimension
1001
ACAD
1000
DSTYLE
1002
{
1070
   173
1070
     1
1070
     6
1000
_OPEN
1070
     7
1000
_OPEN
1070
    41
1040
2.000000
1070
   287
1070
     0
1002
}
  0
DIMENSION
  5
1BB
100
AcDbEntity
  8
MAIN0
  6
CONTINUOUS
 62
3
100
AcDbDimension
  2
*D21
 10
80.58595954073942
 20
233.8402778217829
 30
0.0000000000000000
 11
80.08595954073942
 21
226.8402778217828
 31
0.0000000000000000
 70
32
  1
\A1;\U+220514
  3
MAIN001
100
AcDbAlignedDimension
 13
91.68054803011276
 23
219.8402778217827
 33
0.0000000000000000
 14
91.68054803011293
 24
233.8402778217829
 34
0.0000000000000000
 50
90.00000000000000
100
AcDbRotatedDimension
1001
ACAD
1000
DSTYLE
1002
{
1070
   173
1070
     1
1070
     6
1000
_OPEN
1070
     7
1000
_OPEN
1070
    41
1040
2.000000
1002
}
  0
LEADER
  5
1BC
100
AcDbEntity
  8
MAIN0
  6
CONTINUOUS
 62
3
100
AcDbLeader
  3
MAIN001
 73
     0
 75
     1
 40
3.099999904632568
 41
14.59900000894072
 76
     3
 10
407.7649144492459
 20
226.1352510042012
 30
0.0000000000000000
 10
353.5732454888257
 20
171.1930524812933
 30
0.0000000000000000
 10
351.7862455414864
 20
171.1930524812933
 30
0.0000000000000000
340
1BD
213
0.0000000000000000
223
-0.5000000000000000
233
0.0000000000000000
1001
ACAD
1000
DSTYLE
1002
{
1070
   147
1040
0.0
1070
    77
1070
     1
1070
   173
1070
     1
1070
     6
1000
_OPEN
1070
     7
1000
_OPEN
1002
}
  0
MTEXT
  5
1BD
102
{ACAD_REACTORS
330
1BC
102
}
100
AcDbEntity
  8
MAIN0
  6
CONTINUOUS
 62
3
100
AcDbMText
 10
337.1872455325457
 20
174.7930523859258
 30
0.0000000000000000
 40
3.099999904632568
 41
0.0000000000000000
 71
     1
 72
     1
  1
{\H0.70x;{2-Rc1/8}}
 11
1.000000000000000
 21
0.0000000000000000
 31
0.0000000000000000
  7
STANDARD
  0
LEADER
  5
1BE
100
AcDbEntity
  8
MAIN0
  6
CONTINUOUS
 62
3
100
AcDbLeader
  3
MAIN001
 73
     0
 75
     1
 40
3.099999904632568
 41
10.39900000596055
 76
     3
 10
434.6805480301122
 20
181.8046203159531
 30
0.0000000000000000
 10
412.3412840435651
 20
154.6297414631729
 30
0.0000000000000000
 10
410.5542840962258
 20
154.6297414631729
 30
0.0000000000000000
340
1BF
213
0.0000000000000000
223
-0.5000000000000000
233
0.0000000000000000
1001
ACAD
1000
DSTYLE
1002
{
1070
   147
1040
0.0
1070
    77
1070
     1
1070
   173
1070
     1
1070
     6
1000
_OPEN
1070
     7
1000
_OPEN
1002
}
  0
MTEXT
  5
1BF
102
{ACAD_REACTORS
330
1BE
102
}
100
AcDbEntity
  8
MAIN0
  6
CONTINUOUS
 62
3
100
AcDbMText
 10
400.1552840902652
 20
158.2297413678055
 30
0.0000000000000000
 40
3.099999904632568
 41
0.0000000000000000
 71
     1
 72
     1
  1
{\H0.70x;{Rc1/8}}
 11
1.000000000000000
 21
0.0000000000000000
 31
0.0000000000000000
  7
STANDARD
  0
MTEXT
  5
1C0
100
AcDbEntity
  8
MAIN0
  6
CONTINUOUS
 62
3
100
AcDbMText
 10
453.0860427763166
 20
175.1692613982987
 30
0.0000000000000000
 40
3.099999904632568
 41
0.0000000000000000
 71
     1
 72
     1
  1
{\H0.70x;{OPEN}}
 11
1.000000000000000
 21
0.0000000000000000
 31
0.0000000000000000
  7
STANDARD
  0
MTEXT
  5
1C1
100
AcDbEntity
  8
MAIN0
  6
CONTINUOUS
 62
3
100
AcDbMText
 10
406.0208713317348
 20
175.5447820948927
 30
0.0000000000000000
 40
3.099999904632568
 41
0.0000000000000000
 71
     1
 72
     1
  1
{\H0.70x;{CLOSE}}
 11
1.000000000000000
 21
0.0000000000000000
 31
0.0000000000000000
  7
STANDARD
  0
LINE
  5
1C2
100
AcDbEntity
  8
MAIN0
  6
CONTINUOUS
 62
3
100
AcDbLine
 10
96.54916609312627
 20
40.07488485148886
 30
0.0000000000000000
 11
151.5491660931263
 21
40.07488485148886
 31
0.0000000000000000
  0
MTEXT
  5
1C3
100
AcDbEntity
  8
MAIN0
  6
CONTINUOUS
 62
3
100
AcDbMText
 10
98.54916609302299
 20
39.27488389781448
 30
0.0000000000000000
 40
2.499999046325684
 41
0.0000000000000000
 71
     1
 72
     1
  1
{\H0.73x;{INNER}}
 11
1.000000000000000
 21
0.0000000000000000
 31
0.0000000000000000
  7
STANDARD
  0
MTEXT
  5
1C4
100
AcDbEntity
  8
MAIN0
  6
CONTINUOUS
 62
3
100
AcDbMText
 10
98.54916609302299
 20
36.17488447001907
 30
0.0000000000000000
 40
2.399999618530273
 41
0.0000000000000000
 71
     1
 72
     1
  1
{\H0.92x;{内径把握}}
 11
1.000000000000000
 21
0.0000000000000000
 31
0.0000000000000000
  7
KNJYOKO
  0
MTEXT
  5
1C5
100
AcDbEntity
  8
MAIN0
  6
CONTINUOUS
 62
3
100
AcDbMText
 10
98.54916609302299
 20
46.27488389781451
 30
0.0000000000000000
 40
2.499999046325684
 41
0.0000000000000000
 71
     1
 72
     1
  1
{\H0.73x;{OUTER}}
 11
1.000000000000000
 21
0.0000000000000000
 31
0.0000000000000000
  7
STANDARD
  0
MTEXT
  5
1C6
100
AcDbEntity
  8
MAIN0
  6
CONTINUOUS
 62
3
100
AcDbMText
 10
98.54916609302299
 20
43.17488447001909
 30
0.0000000000000000
 40
2.399999618530273
 41
0.0000000000000000
 71
     1
 72
     1
  1
{\H0.92x;{外径把握}}
 11
1.000000000000000
 21
0.0000000000000000
 31
0.0000000000000000
  7
KNJYOKO
  0
MTEXT
  5
1C7
100
AcDbEntity
  8
MAIN0
  6
CONTINUOUS
 62
3
100
AcDbMText
 10
121.0491660931263
 20
43.87488475612136
 30
0.0000000000000000
 40
3.099999904632568
 41
0.0000000000000000
 71
     1
 72
     1
  1
{\H0.93x;{\U+220513～\U+2205120}}
 11
1.000000000000000
 21
0.0000000000000000
 31
0.0000000000000000
  7
KNJYOKO
  0
MTEXT
  5
1C8
100
AcDbEntity
  8
MAIN0
  6
CONTINUOUS
 62
3
100
AcDbMText
 10
121.0491660931262
 20
36.87488475612136
 30
0.0000000000000000
 40
3.099999904632568
 41
0.0000000000000000
 71
     1
 72
     1
  1
{\H0.93x;{\U+220570～\U+2205160}}
 11
1.000000000000000
 21
0.0000000000000000
 31
0.0000000000000000
  7
KNJYOKO
  0
DIMENSION
  5
1D1
100
AcDbEntity
  8
MAIN0
  6
CONTINUOUS
 62
3
100
AcDbDimension
  2
*D22
 10
220.3384638461811
 20
299.8896203159532
 30
0.0000000000000000
 11
219.8384638461811
 21
280.7296202049396
 31
0.0000000000000000
 70
32
  1
\A1;\U+220530.17\H0.903226x;\S+0.02^  0;
  3
MAIN001
100
AcDbAlignedDimension
 13
209.0805480301236
 23
269.7196203159533
 33
0.0000000000000000
 14
209.0805480301236
 24
299.8896203159532
 34
0.0000000000000000
 50
90.00000000000000
100
AcDbRotatedDimension
1001
ACAD
1000
DSTYLE
1002
{
1070
   173
1070
     1
1070
     6
1000
_OPEN
1070
     7
1000
_OPEN
1070
    41
1040
2.000000
1070
   272
1070
     2
1070
    47
1040
0.020000
1070
    48
1040
0.000000
1070
    71
1070
     1
1002
}
  0
DIMENSION
  5
1DA
100
AcDbEntity
  8
MAIN0
  6
CONTINUOUS
 62
3
100
AcDbDimension
  2
*D23
 10
284.1569150621369
 20
313.4696203159532
 30
0.0000000000000000
 11
283.6569150621369
 21
328.1496203159531
 31
0.0000000000000000
 70
32
  3
MAIN001
100
AcDbAlignedDimension
 13
280.1820630820059
 23
342.8296203159531
 33
0.0000000000000000
 14
280.0751681056943
 24
313.4696203159532
 34
0.0000000000000000
 50
90.00000000000000
100
AcDbRotatedDimension
1001
ACAD
1000
DSTYLE
1002
{
1070
   173
1070
     1
1070
     6
1000
_OPEN
1070
     7
1000
_OPEN
1070
    41
1040
2.000000
1002
}
  0
DIMENSION
  5
1E3
100
AcDbEntity
  8
MAIN0
  6
CONTINUOUS
 62
3
100
AcDbDimension
  2
*D24
 10
284.1569150621369
 20
342.8296203159531
 30
0.0000000000000000
 11
283.6569150621369
 21
350.3296203159531
 31
0.0000000000000000
 70
32
  3
MAIN001
100
AcDbAlignedDimension
 13
275.7305480301235
 23
357.8296203159531
 33
0.0000000000000000
 14
280.1820630820059
 24
342.8296203159531
 34
0.0000000000000000
 50
90.00000000000000
100
AcDbRotatedDimension
1001
ACAD
1000
DSTYLE
1002
{
1070
   173
1070
     1
1070
     6
1000
_OPEN
1070
     7
1000
_OPEN
1070
    41
1040
2.000000
1002
}
  0
DIMENSION
  5
1EC
100
AcDbEntity
  8
MAIN0
  6
CONTINUOUS
 62
3
100
AcDbDimension
  2
*D25
 10
262.1285488562922
 20
284.8046203159533
 30
0.0000000000000000
 11
261.6285488562922
 21
312.4904478867005
 31
0.0000000000000000
 70
160
  3
MAIN001
100
AcDbAlignedDimension
 13
256.8805480301235
 23
332.4296203159530
 33
0.0000000000000000
 14
223.1759596878101
 24
284.8046203159533
 34
0.0000000000000000
 50
90.00000000000000
100
AcDbRotatedDimension
1001
ACAD
1000
DSTYLE
1002
{
1070
   173
1070
     1
1070
     6
1000
_OPEN
1070
     7
1000
_OPEN
1070
    41
1040
2.000000
1002
}
  0
DIMENSION
  5
1F4
100
AcDbEntity
  8
MAIN0
  6
CONTINUOUS
 62
3
100
AcDbDimension
  2
*D26
 10
262.1285488562922
 20
332.4296203159530
 30
0.0000000000000000
 11
261.6285488562922
 21
345.1296203159531
 31
0.0000000000000000
 70
32
  3
MAIN001
100
AcDbAlignedDimension
 13
275.7305480301235
 23
357.8296203159531
 33
0.0000000000000000
 14
256.8805480301235
 24
332.4296203159530
 34
0.0000000000000000
 50
90.00000000000000
100
AcDbRotatedDimension
1001
ACAD
1000
DSTYLE
1002
{
1070
   173
1070
     1
1070
     6
1000
_OPEN
1070
     7
1000
_OPEN
1070
    41
1040
2.000000
1002
}
  0
DIMENSION
  5
1FD
100
AcDbEntity
  8
MAIN0
  6
CONTINUOUS
 62
3
100
AcDbDimension
  2
*D27
 10
292.5467279716226
 20
290.3296203159532
 30
0.0000000000000000
 11
292.0467279716226
 21
324.0796203159532
 31
0.0000000000000000
 70
32
  3
MAIN001
100
AcDbAlignedDimension
 13
275.7305480301235
 23
357.8296203159531
 33
0.0000000000000000
 14
275.7305480301237
 24
290.3296203159532
 34
0.0000000000000000
 50
90.00000000000000
100
AcDbRotatedDimension
1001
ACAD
1000
DSTYLE
1002
{
1070
   173
1070
     1
1070
     6
1000
_OPEN
1070
     7
1000
_OPEN
1070
    41
1040
2.000000
1002
}
  0
LEADER
  5
1FE
100
AcDbEntity
  8
MAIN0
  6
CONTINUOUS
 62
3
100
AcDbLeader
  3
MAIN001
 73
     0
 74
     0
 75
     1
 40
3.099999904632568
 41
25.00100001490117
 76
     3
 10
204.5555460858674
 20
259.8046203159536
 30
0.0000000000000000
 10
223.8639050715428
 20
235.7432366002143
 30
0.0000000000000000
 10
225.6489050188821
 20
235.7432366002143
 30
0.0000000000000000
340
1FF
213
-0.001000000000004775
223
-0.5000000000000000
233
0.0000000000000000
1001
ACAD
1000
DSTYLE
1002
{
1070
   147
1040
0.0
1070
    77
1070
     1
1070
   173
1070
     1
1070
     6
1000
_OPEN
1070
     7
1000
_OPEN
1002
}
  0
MTEXT
  5
1FF
102
{ACAD_REACTORS
330
1FE
102
}
100
AcDbEntity
  8
MAIN0
  6
CONTINUOUS
 62
3
100
AcDbMText
 10
225.6499050188821
 20
239.3432365048468
 30
0.0000000000000000
 40
3.099999904632568
 41
0.0000000000000000
 71
     1
 72
     1
  1
{\H0.70x;{3-M6 ねじ深さ12}}
 11
1.000000000000000
 21
0.0000000000000000
 31
0.0000000000000000
  7
KNJYOKO
  0
DIMENSION
  5
206
100
AcDbEntity
  8
MAIN0
  6
CONTINUOUS
 62
3
100
AcDbDimension
  2
*D28
 10
187.1797324424838
 20
293.3046203159532
 30
0.0000000000000000
 11
186.6797324424838
 21
284.8046203159532
 31
0.0000000000000000
 70
32
  1
\A1;\U+220517
  3
MAIN001
100
AcDbAlignedDimension
 13
197.1305480301236
 23
276.3046203159532
 33
0.0000000000000000
 14
197.1305480301236
 24
293.3046203159532
 34
0.0000000000000000
 50
90.00000000000000
100
AcDbRotatedDimension
1001
ACAD
1000
DSTYLE
1002
{
1070
   173
1070
     1
1070
     6
1000
_OPEN
1070
     7
1000
_OPEN
1070
    41
1040
2.000000
1002
}
  0
DIMENSION
  5
20D
100
AcDbEntity
  8
MAIN0
  6
CONTINUOUS
 62
3
100
AcDbDimension
  2
*D29
 10
128.1138003583458
 20
291.3046203159530
 30
0.0000000000000000
 11
127.6138003583458
 21
284.8046203159530
 31
0.0000000000000000
 70
32
  1
\A1;\U+220513
  3
MAIN001
100
AcDbAlignedDimension
 13
133.1805480301131
 23
278.3046203159530
 33
0.0000000000000000
 14
133.1805480301252
 24
291.3046203159530
 34
0.0000000000000000
 50
90.00000000000000
100
AcDbRotatedDimension
1001
ACAD
1000
DSTYLE
1002
{
1070
   173
1070
     1
1070
     6
1000
_OPEN
1070
     7
1000
_OPEN
1070
    41
1040
2.000000
1002
}
  0
DIMENSION
  5
214
100
AcDbEntity
  8
MAIN0
  6
CONTINUOUS
 62
3
100
AcDbDimension
  2
*D30
 10
140.9902687249729
 20
295.8046203159532
 30
0.0000000000000000
 11
140.4902687249729
 21
284.8046203159532
 31
0.0000000000000000
 70
32
  1
\A1;\U+220522
  3
MAIN001
100
AcDbAlignedDimension
 13
144.5305480300353
 23
273.8046203159532
 33
0.0000000000000000
 14
144.5305480300353
 24
295.8046203159532
 34
0.0000000000000000
 50
90.00000000000000
100
AcDbRotatedDimension
1001
ACAD
1000
DSTYLE
1002
{
1070
   173
1070
     1
1070
     6
1000
_OPEN
1070
     7
1000
_OPEN
1070
    41
1040
2.000000
1002
}
  0
LINE
  5
215
100
AcDbEntity
  8
MAIN0
  6
CENTER
 62
12
100
AcDbLine
 10
87.87736260152892
 20
284.8046203159536
 30
0.0000000000000000
 11
123.0138004537132
 21
284.8046203159535
 31
0.0000000000000000
  0
LINE
  5
216
100
AcDbEntity
  8
MAIN0
  6
CENTER
 62
12
100
AcDbLine
 10
129.1138003583458
 20
284.8046203159535
 30
0.0000000000000000
 11
135.8902688203403
 21
284.8046203159535
 31
0.0000000000000000
  0
LINE
  5
217
100
AcDbEntity
  8
MAIN0
  6
CONTINUOUS
 62
3
100
AcDbLine
 10
116.5491660930230
 20
47.07488485148883
 30
0.0000000000000000
 11
116.5491660930230
 21
33.07488485148889
 31
0.0000000000000000
  0
DIMENSION
  5
220
100
AcDbEntity
  8
MAIN0
  6
CONTINUOUS
 62
3
100
AcDbDimension
  2
*D31
 10
486.1180859980335
 20
195.7121911392593
 30
0.0000000000000000
 11
463.7623055135948
 21
176.2700238141986
 31
0.0000000000000000
 70
162
  3
MAIN001
100
AcDb2LineAngularDimension
 13
434.6805480301122
 23
178.5667089747780
 33
0.0000000000000000
 14
434.6805480301122
 24
179.5667089747780
 34
0.0000000000000000
 15
485.6180859980335
 25
196.5782165430437
 35
0.0000000000000000
 16
463.8917150361460
 26
175.7870609010541
 36
0.0000000000000000
1001
ACAD
1000
DSTYLE
1002
{
1070
   173
1070
     1
1070
     6
1000
_OPEN
1070
     7
1000
_OPEN
1070
    41
1040
2.000000
1002
}
  0
DIMENSION
  5
229
100
AcDbEntity
  8
MAIN0
  6
CONTINUOUS
 62
3
100
AcDbDimension
  2
*D32
 10
507.1232567619833
 20
212.3619115840261
 30
0.0000000000000000
 11
503.0829804581929
 21
195.6608348115860
 31
0.0000000000000000
 70
162
  3
MAIN001
100
AcDb2LineAngularDimension
 13
486.1180859980335
 23
195.7121911392593
 33
0.0000000000000000
 14
485.6180859980335
 24
196.5782165430437
 34
0.0000000000000000
 15
506.4161499807970
 25
213.0690183652129
 35
0.0000000000000000
 16
503.3873611726971
 26
195.2641581414404
 36
0.0000000000000000
1001
ACAD
1000
DSTYLE
1002
{
1070
   173
1070
     1
1070
     6
1000
_OPEN
1070
     7
1000
_OPEN
1070
    41
1040
2.000000
1002
}
  0
DIMENSION
  5
232
100
AcDbEntity
  8
MAIN0
  6
CONTINUOUS
 62
3
100
AcDbDimension
  2
*D33
 10
524.3141773218015
 20
233.0546203159533
 30
0.0000000000000000
 11
523.8243335344525
 21
216.4021878878377
 31
0.0000000000000000
 70
162
  3
MAIN001
100
AcDb2LineAngularDimension
 13
507.1232567619833
 23
212.3619115840261
 33
0.0000000000000000
 14
506.4161499807970
 24
213.0690183652129
 34
0.0000000000000000
 15
523.4481519180170
 25
233.5546203159533
 35
0.0000000000000000
 16
524.2210102045981
 26
216.0978071733333
 36
0.0000000000000000
1001
ACAD
1000
DSTYLE
1002
{
1070
   173
1070
     1
1070
     6
1000
_OPEN
1070
     7
1000
_OPEN
1070
    41
1040
2.000000
1002
}
  0
DIMENSION
  5
23B
100
AcDbEntity
  8
MAIN0
  6
CONTINUOUS
 62
3
100
AcDbDimension
  2
*D34
 10
538.1805480301122
 20
284.8046203159532
 30
0.0000000000000000
 11
543.2151445318664
 21
255.7228628324702
 31
0.0000000000000000
 70
162
  3
MAIN001
100
AcDb2LineAngularDimension
 13
524.3141773218015
 23
233.0546203159533
 33
0.0000000000000000
 14
523.4481519180170
 24
233.5546203159533
 34
0.0000000000000000
 15
537.1805480301122
 25
284.8046203159532
 35
0.0000000000000000
 16
543.6981074450109
 26
255.5934533099190
 36
0.0000000000000000
1001
ACAD
1000
DSTYLE
1002
{
1070
   173
1070
     1
1070
     6
1000
_OPEN
1070
     7
1000
_OPEN
1070
    41
1040
2.000000
1002
}
  0
DIMENSION
  5
244
100
AcDbEntity
  8
MAIN0
  6
CONTINUOUS
 62
3
100
AcDbDimension
  2
*D35
 10
505.8245411596043
 20
355.9486134453902
 30
0.0000000000000000
 11
538.4906849456786
 21
327.8041869381650
 31
0.0000000000000000
 70
162
  3
MAIN001
100
AcDb2LineAngularDimension
 13
538.1805480301122
 23
284.8046203159532
 33
0.0000000000000000
 14
537.1805480301122
 24
284.8046203159532
 34
0.0000000000000000
 15
505.1174343784174
 25
355.2415066642039
 35
0.0000000000000000
 16
538.9526247119343
 26
327.9955286543475
 36
0.0000000000000000
1001
ACAD
1000
DSTYLE
1002
{
1070
   173
1070
     1
1070
     6
1000
_OPEN
1070
     7
1000
_OPEN
1070
    41
1040
2.000000
1002
}
  0
DIMENSION
  5
24D
100
AcDbEntity
  8
MAIN0
  6
CONTINUOUS
 62
3
100
AcDbDimension
  2
*D36
 10
484.6435945622106
 20
371.3431554104750
 30
0.0000000000000000
 11
503.6917418872364
 21
374.7417591605843
 31
0.0000000000000000
 70
162
  3
MAIN001
100
AcDb2LineAngularDimension
 13
505.8245411596043
 23
355.9486134453902
 33
0.0000000000000000
 14
505.1174343784174
 24
355.2415066642039
 34
0.0000000000000000
 15
484.1435945622106
 25
370.4771300066906
 35
0.0000000000000000
 16
503.3873611727320
 26
374.3450824904387
 36
0.0000000000000000
1001
ACAD
1000
DSTYLE
1002
{
1070
   173
1070
     1
1070
     6
1000
_OPEN
1070
     7
1000
_OPEN
1070
    41
1040
2.000000
1002
}
  0
DIMENSION
  5
256
100
AcDbEntity
  8
MAIN0
  6
CONTINUOUS
 62
3
100
AcDbDimension
  2
*D37
 10
434.6805480301122
 20
388.3046203159532
 30
0.0000000000000000
 11
464.0211245586976
 21
394.3051426439962
 31
0.0000000000000000
 70
162
  3
MAIN001
100
AcDb2LineAngularDimension
 13
484.6435945622106
 23
371.3431554104750
 33
0.0000000000000000
 14
484.1435945622106
 24
370.4771300066906
 34
0.0000000000000000
 15
434.6805480301122
 25
387.3046203159532
 35
0.0000000000000000
 16
463.8917150361464
 26
393.8221797308516
 36
0.0000000000000000
1001
ACAD
1000
DSTYLE
1002
{
1070
   173
1070
     1
1070
     6
1000
_OPEN
1070
     7
1000
_OPEN
1070
    41
1040
2.000000
1002
}
  0
LINE
  5
257
100
AcDbEntity
  8
MAIN0
  6
CONTINUOUS
 62
3
100
AcDbLine
 10
45.54916609312625
 20
83.07488485148892
 30
0.0000000000000000
 11
151.5491660931263
 21
83.07488485148889
 31
0.0000000000000000
  0
MTEXT
  5
258
100
AcDbEntity
  8
MAIN0
  6
CONTINUOUS
 62
4
100
AcDbMText
 10
132.0491660931262
 20
107.3748840885493
 30
0.0000000000000000
 40
2.799999237060547
 41
0.0000000000000000
 71
     1
 72
     1
  1
{\H0.58x;{　　　　ｋＮ}}
 11
1.000000000000000
 21
0.0000000000000000
 31
0.0000000000000000
  7
KNJYOKO
  0
MTEXT
  5
259
100
AcDbEntity
  8
MAIN0
  6
CONTINUOUS
 62
4
100
AcDbMText
 10
131.0491660931262
 20
101.8748840885493
 30
0.0000000000000000
 40
2.799999237060547
 41
0.0000000000000000
 71
     1
 72
     1
  1
{\H0.60x;{　　　ｋｇｆ)}}
 11
1.000000000000000
 21
0.0000000000000000
 31
0.0000000000000000
  7
KNJYOKO
  0
MTEXT
  5
25A
100
AcDbEntity
  8
MAIN0
  6
CONTINUOUS
 62
4
100
AcDbMText
 10
119.0491660931262
 20
101.8748840885493
 30
0.0000000000000000
 40
2.799999237060547
 41
0.0000000000000000
 71
     1
 72
     1
  1
{\H0.60x;{(}}
 11
1.000000000000000
 21
0.0000000000000000
 31
0.0000000000000000
  7
STANDARD
  0
MTEXT
  5
25B
100
AcDbEntity
  8
MAIN0
  6
CONTINUOUS
 62
4
100
AcDbMText
 10
119.0491660931262
 20
94.67488475612129
 30
0.0000000000000000
 40
3.099999904632568
 41
0.0000000000000000
 71
     1
 72
     1
  1
{\H0.88x;{53}}
 11
1.000000000000000
 21
0.0000000000000000
 31
0.0000000000000000
  7
STANDARD
  0
MTEXT
  5
25C
100
AcDbEntity
  8
MAIN0
  6
CONTINUOUS
 62
4
100
AcDbMText
 10
122.0491660931262
 20
88.07488485148872
 30
0.0000000000000000
 40
3.000000000000000
 41
0.0000000000000000
 71
     1
 72
     1
  1
{\H0.63x;{5404}}
 11
1.000000000000000
 21
0.0000000000000000
 31
0.0000000000000000
  7
STANDARD
  0
MTEXT
  5
25D
100
AcDbEntity
  8
MAIN0
  6
CONTINUOUS
 62
4
100
AcDbMText
 10
119.0491660931262
 20
87.87488408854927
 30
0.0000000000000000
 40
2.799999237060547
 41
0.0000000000000000
 71
     1
 72
     1
  1
{\H0.60x;{(}}
 11
1.000000000000000
 21
0.0000000000000000
 31
0.0000000000000000
  7
STANDARD
  0
MTEXT
  5
25E
100
AcDbEntity
  8
MAIN0
  6
CONTINUOUS
 62
4
100
AcDbMText
 10
132.0491660931262
 20
93.37488408854927
 30
0.0000000000000000
 40
2.799999237060547
 41
0.0000000000000000
 71
     1
 72
     1
  1
{\H0.58x;{　　　　ｋＮ}}
 11
1.000000000000000
 21
0.0000000000000000
 31
0.0000000000000000
  7
KNJYOKO
  0
MTEXT
  5
25F
100
AcDbEntity
  8
MAIN0
  6
CONTINUOUS
 62
4
100
AcDbMText
 10
131.0491660931262
 20
87.87488408854927
 30
0.0000000000000000
 40
2.799999237060547
 41
0.0000000000000000
 71
     1
 72
     1
  1
{\H0.60x;{　　　ｋｇｆ)}}
 11
1.000000000000000
 21
0.0000000000000000
 31
0.0000000000000000
  7
KNJYOKO
  0
DIMENSION
  5
265
100
AcDbEntity
  8
MAIN0
  6
CONTINUOUS
 62
3
100
AcDbDimension
  2
*D38
 10
434.6805480301122
 20
284.8046203159532
 30
0.0000000000000000
 11
423.3474843831547
 21
235.9747240828294
 31
0.0000000000000000
 70
164
  3
MAIN001
100
AcDbRadialDimension
 15
421.6991952835639
 25
226.2257463009153
 35
0.0000000000000000
1001
ACAD
1000
DSTYLE
1002
{
1070
   173
1070
     1
1070
     6
1000
_OPEN
1070
     7
1000
_OPEN
1070
    41
1040
2.000000
1070
   340
1005
77
1002
}
  0
ARC
  5
266
100
AcDbEntity
  8
MAIN0
  6
CENTER
 62
3
100
AcDbCircle
 10
434.6805480301122
 20
284.8046203159532
 30
0.0000000000000000
 40
60.00000000000000
100
AcDbArc
 50
285.5719755137196
 51
300.2557707693819
  0
INSERT
  5
26D
100
AcDbEntity
  8
MAIN0
  6
CONTINUOUS
 62
3
100
AcDbBlockReference
  2
D39
 10
141.9902687249729
 20
284.8046203159535
 30
0.0000000000000000
 50
0.0000000000000000
  0
LEADER
  5
26E
100
AcDbEntity
  8
MAIN0
  6
CONTINUOUS
 62
3
100
AcDbLeader
  3
MAIN001
 73
     0
 74
     0
 75
     1
 40
3.099999904632568
 41
31.10100001639128
 76
     3
 10
210.1486565329759
 20
276.9351916307387
 30
0.0000000000000000
 10
221.5499899259730
 20
264.4670617067126
 30
0.0000000000000000
 10
223.3349898733123
 20
264.4670617067126
 30
0.0000000000000000
340
26F
213
-0.001000000000004775
223
-0.5000000000000000
233
0.0000000000000000
1001
ACAD
1000
DSTYLE
1002
{
1070
   147
1040
0.0
1070
    77
1070
     1
1070
   173
1070
     1
1070
     6
1000
_OPEN
1070
     7
1000
_OPEN
1002
}
  0
MTEXT
  5
26F
102
{ACAD_REACTORS
330
26E
102
}
100
AcDbEntity
  8
MAIN0
  6
CONTINUOUS
 62
3
100
AcDbMText
 10
223.3359898733123
 20
268.0670616113452
 30
0.0000000000000000
 40
3.099999904632568
 41
0.0000000000000000
 71
     1
 72
     1
  1
{\H0.70x;{簡易カバー\P使用時は専用ロケータにて\Pシールが必要です}}
 11
1.000000000000000
 21
0.0000000000000000
 31
0.0000000000000000
  7
KNJYOKO
  0
LINE
  5
270
100
AcDbEntity
  8
MAIN0
  6
PHANTOM
 62
3
100
AcDbLine
 10
394.6805480301125
 20
146.8046203159531
 30
0.0000000000000000
 11
394.6805480301125
 21
181.8046203159531
 31
0.0000000000000000
  0
LINE
  5
271
100
AcDbEntity
  8
MAIN0
  6
PHANTOM
 62
3
100
AcDbLine
 10
394.6805480301124
 20
146.8046203159531
 30
0.0000000000000000
 11
474.6805480301124
 21
146.8046203159531
 31
0.0000000000000000
  0
LINE
  5
272
100
AcDbEntity
  8
MAIN0
  6
PHANTOM
 62
3
100
AcDbLine
 10
474.6805480301124
 20
146.8046203159531
 30
0.0000000000000000
 11
474.6805480301124
 21
181.8046203159531
 31
0.0000000000000000
  0
DIMENSION
  5
27B
100
AcDbEntity
  8
MAIN0
  6
CONTINUOUS
 62
3
100
AcDbDimension
  2
*D40
 10
319.0743345241651
 20
146.8046203159531
 30
0.0000000000000000
 11
318.5743345241651
 21
215.8046203159532
 31
0.0000000000000000
 70
32
  1
\A1;（138）
  3
MAIN001
100
AcDbAlignedDimension
 13
331.1805480301122
 23
284.8046203159532
 33
0.0000000000000000
 14
394.6805480301124
 24
146.8046203159531
 34
0.0000000000000000
 50
90.00000000000000
100
AcDbRotatedDimension
1001
ACAD
1000
DSTYLE
1002
{
1070
   173
1070
     1
1070
     6
1000
_OPEN
1070
     7
1000
_OPEN
1070
    41
1040
2.000000
1070
   340
1005
77
1002
}
  0
LEADER
  5
27C
100
AcDbEntity
  8
MAIN0
  6
CONTINUOUS
 62
3
100
AcDbLeader
  3
MAIN001
 73
     0
 75
     1
 40
3.099999904632568
 41
31.09900001639130
 76
     3
 10
314.4790017857443
 20
212.8542129234115
 30
0.0000000000000000
 10
306.3715276235650
 20
202.0442402415237
 30
0.0000000000000000
 10
304.5845276762258
 20
202.0442402415237
 30
0.0000000000000000
340
27D
213
0.0000000000000000
223
-0.5000000000000000
233
0.0000000000000000
1001
ACAD
1000
DSTYLE
1002
{
1070
   147
1040
0.0
1070
    77
1070
     1
1070
   173
1070
     1
1070
     6
1000
_OPEN
1070
     7
1000
_OPEN
1002
}
  0
MTEXT
  5
27D
102
{ACAD_REACTORS
330
27C
102
}
100
AcDbEntity
  8
MAIN0
  6
CONTINUOUS
 62
3
100
AcDbMText
 10
273.4855276598345
 20
205.6442401461562
 30
0.0000000000000000
 40
3.099999904632568
 41
0.0000000000000000
 71
     1
 72
     1
  1
{\H0.70x;{ロックバルブユニット使用\P（エア専用）}}
 11
1.000000000000000
 21
0.0000000000000000
 31
0.0000000000000000
  7
KNJYOKO
  0
LINE
  5
27E
100
AcDbEntity
  8
MAIN0
  6
PHANTOM
 62
3
100
AcDbLine
 10
136.6805480300144
 20
201.8046203159641
 30
0.0000000000000000
 11
151.6805480299983
 21
201.8046203159640
 31
0.0000000000000000
  0
LINE
  5
27F
100
AcDbEntity
  8
MAIN0
  6
PHANTOM
 62
3
100
AcDbLine
 10
151.6805480300142
 20
201.8046203159865
 30
0.0000000000000000
 11
151.6805480300142
 21
146.8046203159865
 31
0.0000000000000000
  0
LINE
  5
280
100
AcDbEntity
  8
MAIN0
  6
PHANTOM
 62
3
100
AcDbLine
 10
151.6805480299983
 20
146.8046203159641
 30
0.0000000000000000
 11
106.6805480299983
 21
146.8046203159644
 31
0.0000000000000000
  0
LINE
  5
281
100
AcDbEntity
  8
MAIN0
  6
PHANTOM
 62
3
100
AcDbLine
 10
106.6805480300142
 20
146.8046203159643
 30
0.0000000000000000
 11
106.6805480300142
 21
181.8046203159646
 31
0.0000000000000000
  0
DIMENSION
  5
28A
100
AcDbEntity
  8
MAIN0
  6
CONTINUOUS
 62
3
100
AcDbDimension
  2
*D41
 10
106.6805480300142
 20
140.7618589658615
 30
0.0000000000000000
 11
129.1805480300142
 21
141.2618589658615
 31
0.0000000000000000
 70
32
  1
\A1;（45）
  3
MAIN001
100
AcDbAlignedDimension
 13
151.6805480300142
 23
146.8046203159865
 33
0.0000000000000000
 14
106.6805480300142
 24
146.8046203159643
 34
0.0000000000000000
100
AcDbRotatedDimension
1001
ACAD
1000
DSTYLE
1002
{
1070
   173
1070
     1
1070
     6
1000
_OPEN
1070
     7
1000
_OPEN
1070
    41
1040
2.000000
1070
   340
1005
77
1002
}
  0
INSERT
  5
298
100
AcDbEntity
  8
MAIN0
  6
CONTINUOUS
 62
3
100
AcDbBlockReference
  2
M0
 10
0.0000000000000000
 20
0.0000000000000000
 30
0.0000000000000000
 50
0.0000000000000000
  0
MTEXT
  5
299
100
AcDbEntity
  8
MAIN0
  6
CONTINUOUS
 62
3
100
AcDbMText
 10
347.2673312599202
 20
123.5546193248050
 30
0.0000000000000000
 40
3.099999904632568
 41
0.0000000000000000
 71
     1
 72
     1
  1
{\H0.94x;{北川チャック専用グリスを取扱説明書にしたがってグリスアップしてください。}}
 11
1.000000000000000
 21
0.0000000000000000
 31
0.0000000000000000
  7
KNJYOKO
  0
MTEXT
  5
29A
100
AcDbEntity
  8
MAIN0
  6
CONTINUOUS
 62
3
100
AcDbMText
 10
347.2673312599202
 20
118.5546193248050
 30
0.0000000000000000
 40
3.099999904632568
 41
0.0000000000000000
 71
     1
 72
     1
  1
{\H0.94x;{シリンダは内径把握、外径把握にかかわらず常に引き側（閉側）で使用してください。}}
 11
1.000000000000000
 21
0.0000000000000000
 31
0.0000000000000000
  7
KNJYOKO
  0
MTEXT
  5
29B
100
AcDbEntity
  8
MAIN0
  6
CONTINUOUS
 62
3
100
AcDbMText
 10
347.2673312599202
 20
113.5546193248051
 30
0.0000000000000000
 40
3.099999904632568
 41
0.0000000000000000
 71
     1
 72
     1
  1
{\H0.94x;{押し側（開側）で使用することは避けてください。内外径把握の切替えは、取扱説明書に}}
 11
1.000000000000000
 21
0.0000000000000000
 31
0.0000000000000000
  7
KNJYOKO
  0
MTEXT
  5
29C
100
AcDbEntity
  8
MAIN0
  6
CONTINUOUS
 62
3
100
AcDbMText
 10
347.2673312599202
 20
108.5546193248051
 30
0.0000000000000000
 40
3.099999904632568
 41
0.0000000000000000
 71
     1
 72
     1
  1
{\H0.94x;{したがって作業を行う必要があります。}}
 11
1.000000000000000
 21
0.0000000000000000
 31
0.0000000000000000
  7
KNJYOKO
  0
LINE
  5
29D
100
AcDbEntity
  8
MAIN0
  6
CENTER
 62
12
100
AcDbLine
 10
141.9902687249729
 20
284.8046203159535
 30
0.0000000000000000
 11
182.0797325378512
 21
284.8046203159534
 31
0.0000000000000000
  0
LINE
  5
29E
100
AcDbEntity
  8
MAIN0
  6
CENTER
 62
12
100
AcDbLine
 10
188.1797324424838
 20
284.8046203159534
 30
0.0000000000000000
 11
214.9481518266415
 21
284.8046203159533
 31
0.0000000000000000
  0
MTEXT
  5
29F
100
AcDbEntity
  8
MAIN0
  6
CONTINUOUS
 62
3
100
AcDbMText
 10
400.2915481519227
 20
154.0133191057995
 30
0.0000000000000000
 40
3.099999904632568
 41
0.0000000000000000
 71
     1
 72
     1
  1
{\H0.70x;{着座確認}}
 11
1.000000000000000
 21
0.0000000000000000
 31
0.0000000000000000
  7
KNJYOKO
  0
MTEXT
  5
2A0
100
AcDbEntity
  8
MAIN0
  6
CONTINUOUS
 62
3
100
AcDbMText
 10
337.4671968748489
 20
170.5700764555579
 30
0.0000000000000000
 40
3.099999904632568
 41
0.0000000000000000
 71
     1
 72
     1
  1
{\H0.70x;{開閉底面配管}}
 11
1.000000000000000
 21
0.0000000000000000
 31
0.0000000000000000
  7
KNJYOKO
  0
LEADER
  5
2A1
100
AcDbEntity
  8
MAIN0
  6
CONTINUOUS
 62
3
100
AcDbLeader
  3
MAIN001
 73
     0
 75
     1
 40
3.099999904632568
 41
10.39900000596047
 76
     3
 10
94.71245234246085
 20
280.0353673257141
 30
0.0000000000000000
 10
63.88024873097598
 20
236.0331335765791
 30
0.0000000000000000
 10
62.09324878363668
 20
236.0331335765791
 30
0.0000000000000000
340
2A2
213
0.0000000000000000
223
-0.5000000000000000
233
0.0000000000000000
1001
ACAD
1000
DSTYLE
1002
{
1070
   147
1040
0.0
1070
    77
1070
     1
1070
   173
1070
     1
1070
     6
1000
_OPEN
1070
     7
1000
_OPEN
1002
}
  0
MTEXT
  5
2A2
102
{ACAD_REACTORS
330
2A1
102
}
100
AcDbEntity
  8
MAIN0
  6
CONTINUOUS
 62
3
100
AcDbMText
 10
51.69424877767622
 20
239.6331334812116
 30
0.0000000000000000
 40
3.099999904632568
 41
0.0000000000000000
 71
     1
 72
     1
  1
{\H0.70x;{Rc1/8}}
 11
1.000000000000000
 21
0.0000000000000000
 31
0.0000000000000000
  7
STANDARD
  0
MTEXT
  5
2A3
100
AcDbEntity
  8
MAIN0
  6
CONTINUOUS
 62
3
100
AcDbMText
 10
43.16180391796371
 20
235.1657741590516
 30
0.0000000000000000
 40
3.099999904632568
 41
0.0000000000000000
 71
     1
 72
     1
  1
{\H0.70x;{着座確認底面配管}}
 11
1.000000000000000
 21
0.0000000000000000
 31
0.0000000000000000
  7
KNJYOKO
  0
MTEXT
  5
2A4
100
AcDbEntity
  8
MAIN0
  6
CONTINUOUS
 62
4
100
AcDbMText
 10
119.0491660931262
 20
108.6748847561213
 30
0.0000000000000000
 40
3.099999904632568
 41
0.0000000000000000
 71
     1
 72
     1
  1
{\H0.88x;{19}}
 11
1.000000000000000
 21
0.0000000000000000
 31
0.0000000000000000
  7
STANDARD
  0
MTEXT
  5
2A5
100
AcDbEntity
  8
MAIN0
  6
CONTINUOUS
 62
4
100
AcDbMText
 10
122.0491660931262
 20
102.0748848514888
 30
0.0000000000000000
 40
3.000000000000000
 41
0.0000000000000000
 71
     1
 72
     1
  1
{\H0.63x;{1937}}
 11
1.000000000000000
 21
0.0000000000000000
 31
0.0000000000000000
  7
STANDARD
  0
MTEXT
  5
2A6
100
AcDbEntity
  8
MAIN0
  6
CONTINUOUS
 62
3
100
AcDbMText
 10
273.6019981268433
 20
196.7955078188923
 30
0.0000000000000000
 40
2.799999952316284
 41
0.0000000000000000
 71
     1
 72
     1
  1
{\H0.67x;{LOCK VALVE UNIT \P(FOR AIR)}}
 11
1.000000000000000
 21
0.0000000000000000
 31
0.0000000000000000
  7
STANDARD
  0
MTEXT
  5
2A7
100
AcDbEntity
  8
MAIN0
  6
CONTINUOUS
 62
3
100
AcDbMText
 10
225.5011579804815
 20
235.1658863193178
 30
0.0000000000000000
 40
3.099999904632568
 41
0.0000000000000000
 71
     1
 72
     1
  1
{\H0.71x;{3-M6 DEPTH 12}}
 11
1.000000000000000
 21
0.0000000000000000
 31
0.0000000000000000
  7
STANDARD
  0
MTEXT
  5
2A8
100
AcDbEntity
  8
MAIN0
  6
CONTINUOUS
 62
3
100
AcDbMText
 10
223.4886205495570
 20
255.5075907284307
 30
0.0000000000000000
 40
2.799999952316284
 41
0.0000000000000000
 71
     1
 72
     1
  1
{\H0.67x;{COVER:\PPREPARE THE LOCATOR\PFOR SEAL}}
 11
1.000000000000000
 21
0.0000000000000000
 31
0.0000000000000000
  7
STANDARD
  0
LINE
  5
2A9
100
AcDbEntity
  8
MAIN0
  6
CONTINUOUS
 62
3
100
AcDbLine
 10
337.2673312599202
 20
64.95461942017246
 30
0.0000000000000000
 11
487.2673312599512
 21
64.95461942017246
 31
0.0000000000000000
  0
LINE
  5
2AA
100
AcDbEntity
  8
MAIN0
  6
CONTINUOUS
 62
3
100
AcDbLine
 10
337.2673312599202
 20
59.95461942017246
 30
0.0000000000000000
 11
487.2673312599512
 21
59.95461942017246
 31
0.0000000000000000
  0
INSERT
  5
2B8
100
AcDbEntity
  8
MAIN0
  6
CONTINUOUS
 62
3
100
AcDbBlockReference
  2
M1
 10
0.0000000000000000
 20
0.0000000000000000
 30
0.0000000000000000
 50
0.0000000000000000
  0
MTEXT
  5
2B9
100
AcDbEntity
  8
MAIN0
  6
CONTINUOUS
 62
3
100
AcDbMText
 10
347.2673312599202
 20
78.45461942017252
 30
0.0000000000000000
 40
3.000000000000000
 41
0.0000000000000000
 71
     1
 72
     1
  1
{\H0.63x;{CYLINDER SHOULD BE ALWAYS USED AT RETRACTING-WARD (CLOSE) REGARDLESS OF}}
 11
1.000000000000000
 21
0.0000000000000000
 31
0.0000000000000000
  7
STANDARD
  0
MTEXT
  5
2BA
100
AcDbEntity
  8
MAIN0
  6
CONTINUOUS
 62
3
100
AcDbMText
 10
347.2673312599202
 20
73.45461942017252
 30
0.0000000000000000
 40
3.000000000000000
 41
0.0000000000000000
 71
     1
 72
     1
  1
{\H0.62x;{GRIPPING DIAMETER OF INNER OR OUTER.}}
 11
1.000000000000000
 21
0.0000000000000000
 31
0.0000000000000000
  7
STANDARD
  0
MTEXT
  5
2BB
100
AcDbEntity
  8
MAIN0
  6
CONTINUOUS
 62
3
100
AcDbMText
 10
347.2673312599305
 20
58.45461941840287
 30
0.0000000000000000
 40
3.000000000000000
 41
0.0000000000000000
 71
     1
 72
     1
  1
{\H0.62x;{SHOULD BE DONE WITH REFERING INSTRUCTION MANUAL.}}
 11
1.000000000000000
 21
0.0000000000000000
 31
0.0000000000000000
  7
STANDARD
  0
MTEXT
  5
2BC
100
AcDbEntity
  8
MAIN0
  6
CONTINUOUS
 62
3
100
AcDbMText
 10
347.2673312599202
 20
88.45461942017241
 30
0.0000000000000000
 40
3.000000000000000
 41
0.0000000000000000
 71
     1
 72
     1
  1
{\H0.63x;{KITAGAWA CHUCK GREASE SHOULD BE LUBRICATED INTO THE CHUCK BODY }}
 11
1.000000000000000
 21
0.0000000000000000
 31
0.0000000000000000
  7
STANDARD
  0
MTEXT
  5
2BD
100
AcDbEntity
  8
MAIN0
  6
CONTINUOUS
 62
3
100
AcDbMText
 10
347.2673312599202
 20
83.45461942017241
 30
0.0000000000000000
 40
3.000000000000000
 41
0.0000000000000000
 71
     1
 72
     1
  1
{\H0.62x;{AT APPROPRIATE INTERVAL REFERRED TO THE INSTRUCTION MANUAL.}}
 11
1.000000000000000
 21
0.0000000000000000
 31
0.0000000000000000
  7
STANDARD
  0
MTEXT
  5
2BE
100
AcDbEntity
  8
MAIN0
  6
CONTINUOUS
 62
3
100
AcDbMText
 10
32.82167146577527
 20
230.0112512451122
 30
0.0000000000000000
 40
2.799999952316284
 41
0.0000000000000000
 71
     1
 72
     1
  1
{\H0.67x;{THE BOTTOM PIPING\PBECAUSE OF THE\PAIR CONFIRMATION\PFOR THE JAW LIFTING}}
 11
1.000000000000000
 21
0.0000000000000000
 31
0.0000000000000000
  7
STANDARD
  0
MTEXT
  5
2BF
100
AcDbEntity
  8
MAIN0
  6
CONTINUOUS
 62
3
100
AcDbMText
 10
400.2043487425394
 20
150.0770574769366
 30
0.0000000000000000
 40
2.799999952316284
 41
0.0000000000000000
 71
     1
 72
     1
  1
{\H0.67x;{THE AIR CONFIRMATION\PFOR THE JAW LIFTING}}
 11
1.000000000000000
 21
0.0000000000000000
 31
0.0000000000000000
  7
STANDARD
  0
MTEXT
  5
2C0
100
AcDbEntity
  8
MAIN0
  6
CONTINUOUS
 62
3
100
AcDbMText
 10
337.4842630661750
 20
166.2653636314805
 30
0.0000000000000000
 40
2.799999952316284
 41
0.0000000000000000
 71
     1
 72
     1
  1
{\H0.67x;{THE BOTTOM PIPING\PFOR OPEN / CLOSE}}
 11
1.000000000000000
 21
0.0000000000000000
 31
0.0000000000000000
  7
STANDARD
  0
MTEXT
  5
2C1
100
AcDbEntity
  8
MAIN0
  6
CONTINUOUS
 62
3
100
AcDbMText
 10
347.2673312599254
 20
68.45461941928770
 30
0.0000000000000000
 40
3.000000000000000
 41
0.0000000000000000
 71
     1
 72
     1
  1
{\H0.62x;{PLEASE AVOID TO USE AT EXTRACTING-WARD (OPEN).}}
 11
1.000000000000000
 21
0.0000000000000000
 31
0.0000000000000000
  7
STANDARD
  0
MTEXT
  5
2C2
100
AcDbEntity
  8
MAIN0
  6
CONTINUOUS
 62
3
100
AcDbMText
 10
347.2673312599254
 20
63.45461941928770
 30
0.0000000000000000
 40
3.000000000000000
 41
0.0000000000000000
 71
     1
 72
     1
  1
{\H0.63x;{THE CHANGE OF GRIPPING DIAMETER OF GRIPPING DIAMETER OF INNER OR OUTER }}
 11
1.000000000000000
 21
0.0000000000000000
 31
0.0000000000000000
  7
STANDARD
  0
LINE
  5
2C3
100
AcDbEntity
  8
MAIN0
  6
CONTINUOUS
 62
3
100
AcDbLine
 10
337.2673312599254
 20
54.95461941928764
 30
0.0000000000000000
 11
487.2673312599563
 21
54.95461941928764
 31
0.0000000000000000
  0
DIMENSION
  5
2CE
100
AcDbEntity
  8
MAIN0
  6
CONTINUOUS
 62
3
100
AcDbDimension
  2
*D42
 10
204.1805480300826
 20
310.8786131783193
 30
0.0000000000000000
 11
194.9284742446622
 21
311.3786131783193
 31
0.0000000000000000
 70
160
  1
\A1;MIN 5.5
  3
MAIN001
100
AcDbAlignedDimension
 13
209.6805480301122
 23
305.8046203159530
 33
0.0000000000000000
 14
204.1805480300826
 24
298.7349197775744
 34
0.0000000000000000
100
AcDbRotatedDimension
1001
ACAD
1000
DSTYLE
1002
{
1070
   173
1070
     1
1070
     6
1000
_OPEN
1070
     7
1000
_OPEN
1070
    41
1040
2.000000
1070
   287
1070
     0
1002
}
  0
ARC
  5
2CF
100
AcDbEntity
  8
MAIN0
  6
CONTINUOUS
 62
3
100
AcDbCircle
 10
434.7065287922267
 20
284.8196203159533
 30
0.0000000000000000
 40
79.72999999999996
100
AcDbArc
 50
196.1839215247321
 51
223.8160784752606
  0
LINE
  5
2D0
100
AcDbEntity
  8
MAIN0
  6
CONTINUOUS
 62
3
100
AcDbLine
 10
414.7912577370734
 20
280.6538816299845
 30
0.0000000000000000
 11
362.7026627547858
 21
250.5805172952514
 31
0.0000000000000000
  0
LINE
  5
2D1
100
AcDbEntity
  8
MAIN0
  6
CONTINUOUS
 62
3
100
AcDbLine
 10
368.2856935538488
 20
253.8038816299844
 30
0.0000000000000000
 11
361.9406935538489
 21
264.7937440040089
 31
0.0000000000000000
  0
LINE
  5
2D2
100
AcDbEntity
  8
MAIN0
  6
CONTINUOUS
 62
3
100
AcDbLine
 10
358.1360740957819
 20
262.5971459357299
 30
0.0000000000000000
 11
402.3862577370737
 21
288.1450013727201
 31
0.0000000000000000
  0
LINE
  5
2D3
100
AcDbEntity
  8
MAIN0
  6
CONTINUOUS
 62
3
100
AcDbLine
 10
402.3862577370736
 20
288.1450013727201
 30
0.0000000000000000
 11
410.4662577370733
 21
288.1450013727201
 31
0.0000000000000000
  0
LINE
  5
2D4
100
AcDbEntity
  8
MAIN0
  6
CONTINUOUS
 62
3
100
AcDbLine
 10
425.4662577370730
 20
262.1642392591870
 30
0.0000000000000000
 11
410.4662577370731
 21
288.1450013727199
 31
0.0000000000000000
  0
LINE
  5
2D5
100
AcDbEntity
  8
MAIN0
  6
CONTINUOUS
 62
3
100
AcDbLine
 10
421.1412577370733
 20
269.6553590019222
 30
0.0000000000000000
 11
369.0526627547857
 21
239.5819946671891
 31
0.0000000000000000
  0
LINE
  5
2D6
100
AcDbEntity
  8
MAIN0
  6
CONTINUOUS
 62
3
100
AcDbLine
 10
377.1760740957818
 20
229.6188985596184
 30
0.0000000000000000
 11
423.3166186366581
 21
256.2581543708493
 31
0.0000000000000000
  0
LINE
  5
2D7
100
AcDbEntity
  8
MAIN0
  6
CONTINUOUS
 62
3
100
AcDbLine
 10
423.3166186366582
 20
256.2581543708494
 30
0.0000000000000000
 11
425.4662577370730
 21
262.1642392591871
 31
0.0000000000000000
  0
ARC
  5
2D8
100
AcDbEntity
  8
MAIN0
  6
CONTINUOUS
 62
3
100
AcDbCircle
 10
393.4577388099737
 20
261.0046203159540
 30
0.0000000000000000
 40
31.00000000000000
100
AcDbArc
 50
247.8933454254140
 51
356.7702292718256
  0
ARC
  5
2D9
100
AcDbEntity
  8
MAIN0
  6
CONTINUOUS
 62
3
100
AcDbCircle
 10
393.4577388099737
 20
261.0046203159540
 30
0.0000000000000000
 40
31.00000000000000
100
AcDbArc
 50
61.10375085827494
 51
172.1066545745882
  0
ARC
  5
2DA
100
AcDbEntity
  8
MAIN0
  6
CONTINUOUS
 62
3
100
AcDbCircle
 10
391.6440704926262
 20
286.9412856227092
 30
0.0000000000000000
 40
4.500000000000000
100
AcDbArc
 50
315.8623434205802
 51
644.1376565794188
  0
CIRCLE
  5
2DB
100
AcDbEntity
  8
MAIN0
  6
CONTINUOUS
 62
3
100
AcDbCircle
 10
391.6440704926266
 20
286.9412856227079
 30
0.0000000000000000
 40
4.249999999999996
  0
LINE
  5
2DC
100
AcDbEntity
  8
MAIN0
  6
CONTINUOUS
 62
3
100
AcDbLine
 10
393.5586507231575
 20
288.2326867765954
 30
0.0000000000000000
 11
391.4829747526490
 21
289.2450620355062
 31
0.0000000000000000
  0
LINE
  5
2DD
100
AcDbEntity
  8
MAIN0
  6
CONTINUOUS
 62
3
100
AcDbLine
 10
393.7197462538659
 20
285.9289133564891
 30
0.0000000000000000
 11
393.5586507231577
 21
288.2326867765951
 31
0.0000000000000000
  0
LINE
  5
2DE
100
AcDbEntity
  8
MAIN0
  6
CONTINUOUS
 62
3
100
AcDbLine
 10
391.8051661628479
 20
284.6375102074738
 30
0.0000000000000000
 11
393.7197462538658
 21
285.9289133564892
 31
0.0000000000000000
  0
LINE
  5
2DF
100
AcDbEntity
  8
MAIN0
  6
CONTINUOUS
 62
3
100
AcDbLine
 10
389.7294902620960
 20
285.6498844688207
 30
0.0000000000000000
 11
391.8051661628480
 21
284.6375102074739
 31
0.0000000000000000
  0
LINE
  5
2E0
100
AcDbEntity
  8
MAIN0
  6
CONTINUOUS
 62
3
100
AcDbLine
 10
389.5683945221185
 20
287.9536608816187
 30
0.0000000000000000
 11
389.7294902620961
 21
285.6498844688205
 31
0.0000000000000000
  0
LINE
  5
2E1
100
AcDbEntity
  8
MAIN0
  6
CONTINUOUS
 62
3
100
AcDbLine
 10
391.4829747526491
 20
289.2450620355061
 30
0.0000000000000000
 11
389.5683945221182
 21
287.9536608816187
 31
0.0000000000000000
  0
LINE
  5
2E2
100
AcDbEntity
  8
MAIN0
  6
CENTER
 62
12
100
AcDbLine
 10
391.2383529225999
 20
292.7433171861472
 30
0.0000000000000000
 11
392.0541570095284
 21
281.0767752081227
 31
0.0000000000000000
  0
ARC
  5
2E3
100
AcDbEntity
  8
MAIN0
  6
CENTER
 62
12
100
AcDbCircle
 10
393.4577388099739
 20
261.0046203159535
 30
0.0000000000000000
 40
25.99999999999909
100
AcDbArc
 50
80.86376904609715
 51
107.0165591601378
  0
ARC
  5
2E4
100
AcDbEntity
  8
MAIN0
  6
CONTINUOUS
 62
3
100
AcDbCircle
 10
371.9027619235427
 20
275.5436358061934
 30
0.0000000000000000
 40
4.500000000000000
100
AcDbArc
 50
315.8623434205810
 51
644.1376565794195
  0
CIRCLE
  5
2E5
100
AcDbEntity
  8
MAIN0
  6
CONTINUOUS
 62
3
100
AcDbCircle
 10
371.9027619235434
 20
275.5436358061922
 30
0.0000000000000000
 40
4.249999999999996
  0
ARC
  5
2E6
100
AcDbEntity
  8
MAIN0
  6
CENTER
 62
12
100
AcDbCircle
 10
393.4577388099739
 20
261.0046203159535
 30
0.0000000000000000
 40
25.99999999999909
100
AcDbArc
 50
133.3968132805817
 51
158.1199541705764
  0
LINE
  5
2E7
100
AcDbEntity
  8
MAIN0
  6
CONTINUOUS
 62
3
100
AcDbLine
 10
372.0638572164181
 20
277.8474115561329
 30
0.0000000000000000
 11
373.9784382445519
 21
276.5560103464717
 31
0.0000000000000000
  0
LINE
  5
2E8
100
AcDbEntity
  8
MAIN0
  6
CONTINUOUS
 62
3
100
AcDbLine
 10
373.9784382445516
 20
276.5560103464719
 30
0.0000000000000000
 11
373.8173421226394
 21
274.2522351557241
 31
0.0000000000000000
  0
LINE
  5
2E9
100
AcDbEntity
  8
MAIN0
  6
CENTER
 62
12
100
AcDbLine
 10
377.0278365032972
 20
272.0867293526959
 30
0.0000000000000000
 11
366.9005932653512
 21
278.9176411688253
 31
0.0000000000000000
  0
LINE
  5
2EA
100
AcDbEntity
  8
MAIN0
  6
CONTINUOUS
 62
3
100
AcDbLine
 10
373.8173421226395
 20
274.2522351557240
 30
0.0000000000000000
 11
371.7416641435560
 21
273.2398617338303
 31
0.0000000000000000
  0
LINE
  5
2EB
100
AcDbEntity
  8
MAIN0
  6
CONTINUOUS
 62
3
100
AcDbLine
 10
371.7416641435559
 20
273.2398617338303
 30
0.0000000000000000
 11
369.8270856025349
 21
274.5312612659127
 31
0.0000000000000000
  0
LINE
  5
2EC
100
AcDbEntity
  8
MAIN0
  6
CONTINUOUS
 62
3
100
AcDbLine
 10
369.8270856025350
 20
274.5312612659128
 30
0.0000000000000000
 11
369.9881808954096
 21
276.8350370158534
 31
0.0000000000000000
  0
LINE
  5
2ED
100
AcDbEntity
  8
MAIN0
  6
CONTINUOUS
 62
3
100
AcDbLine
 10
369.9881808954098
 20
276.8350370158534
 30
0.0000000000000000
 11
372.0638572164182
 21
277.8474115561330
 31
0.0000000000000000
  0
LINE
  5
2EE
100
AcDbEntity
  8
MAIN0
  6
CONTINUOUS
 62
3
100
AcDbLine
 10
380.9806935538488
 20
231.8154966278974
 30
0.0000000000000000
 11
374.6356935538488
 21
242.8053590019220
 31
0.0000000000000000
  0
ARC
  5
2EF
100
AcDbEntity
  8
MAIN0
  6
CONTINUOUS
 62
3
100
AcDbCircle
 10
415.0127156964044
 20
246.4656048257143
 30
0.0000000000000000
 40
4.500000000000000
100
AcDbArc
 50
135.8623434205808
 51
464.1376565794194
  0
CIRCLE
  5
2F0
100
AcDbEntity
  8
MAIN0
  6
CONTINUOUS
 62
3
100
AcDbCircle
 10
415.0127156964044
 20
246.4656048257145
 30
0.0000000000000000
 40
4.249999999999996
  0
ARC
  5
2F1
100
AcDbEntity
  8
MAIN0
  6
CENTER
 62
12
100
AcDbCircle
 10
393.4577388099739
 20
261.0046203159533
 30
0.0000000000000000
 40
25.99999999999909
100
AcDbArc
 50
312.9834408398616
 51
339.4169371686236
  0
LINE
  5
2F2
100
AcDbEntity
  8
MAIN0
  6
CONTINUOUS
 62
3
100
AcDbLine
 10
415.1738134763916
 20
248.7693788980763
 30
0.0000000000000000
 11
417.0883920174126
 21
247.4779793659939
 31
0.0000000000000000
  0
LINE
  5
2F3
100
AcDbEntity
  8
MAIN0
  6
CONTINUOUS
 62
3
100
AcDbLine
 10
417.0883920174127
 20
247.4779793659941
 30
0.0000000000000000
 11
416.9272967245381
 21
245.1742036160533
 31
0.0000000000000000
  0
LINE
  5
2F4
100
AcDbEntity
  8
MAIN0
  6
CONTINUOUS
 62
3
100
AcDbLine
 10
416.9272967245381
 20
245.1742036160533
 30
0.0000000000000000
 11
414.8516204035299
 21
244.1618290757738
 31
0.0000000000000000
  0
LINE
  5
2F5
100
AcDbEntity
  8
MAIN0
  6
CONTINUOUS
 62
3
100
AcDbLine
 10
414.8516204035297
 20
244.1618290757736
 30
0.0000000000000000
 11
412.9370393753960
 21
245.4532302854346
 31
0.0000000000000000
  0
LINE
  5
2F6
100
AcDbEntity
  8
MAIN0
  6
CONTINUOUS
 62
3
100
AcDbLine
 10
412.9370393753957
 20
245.4532302854352
 30
0.0000000000000000
 11
413.0981354973079
 21
247.7570054761829
 31
0.0000000000000000
  0
LINE
  5
2F7
100
AcDbEntity
  8
MAIN0
  6
CONTINUOUS
 62
3
100
AcDbLine
 10
413.0981354973080
 20
247.7570054761826
 30
0.0000000000000000
 11
415.1738134763915
 21
248.7693788980763
 31
0.0000000000000000
  0
LINE
  5
2F8
100
AcDbEntity
  8
MAIN0
  6
CENTER
 62
12
100
AcDbLine
 10
420.4749110732325
 20
242.7813075233866
 30
0.0000000000000000
 11
410.1671130893947
 21
249.7340050533764
 31
0.0000000000000000
  0
ARC
  5
2F9
100
AcDbEntity
  8
MAIN0
  6
CONTINUOUS
 62
3
100
AcDbCircle
 10
395.2714071273211
 20
235.0679550091986
 30
0.0000000000000000
 40
4.500000000000000
100
AcDbArc
 50
135.8623434205804
 51
464.1376565794190
  0
CIRCLE
  5
2FA
100
AcDbEntity
  8
MAIN0
  6
CONTINUOUS
 62
3
100
AcDbCircle
 10
395.2714071273209
 20
235.0679550091988
 30
0.0000000000000000
 40
4.249999999999996
  0
LINE
  5
2FB
100
AcDbEntity
  8
MAIN0
  6
CENTER
 62
12
100
AcDbLine
 10
394.8802255961076
 20
240.6621115328812
 30
0.0000000000000000
 11
395.6841101087585
 21
229.1660274085211
 31
0.0000000000000000
  0
LINE
  5
2FC
100
AcDbEntity
  8
MAIN0
  6
CONTINUOUS
 62
3
100
AcDbLine
 10
395.1103114570998
 20
237.3717304244327
 30
0.0000000000000000
 11
393.1957313660818
 21
236.0803272754172
 31
0.0000000000000000
  0
LINE
  5
2FD
100
AcDbEntity
  8
MAIN0
  6
CONTINUOUS
 62
3
100
AcDbLine
 10
393.1957313660820
 20
236.0803272754173
 30
0.0000000000000000
 11
393.3568268967903
 21
233.7765538553113
 31
0.0000000000000000
  0
LINE
  5
2FE
100
AcDbEntity
  8
MAIN0
  6
CONTINUOUS
 62
3
100
AcDbLine
 10
393.3568268967900
 20
233.7765538553115
 30
0.0000000000000000
 11
395.4325028672985
 21
232.7641785964007
 31
0.0000000000000000
  0
LINE
  5
2FF
100
AcDbEntity
  8
MAIN0
  6
CONTINUOUS
 62
3
100
AcDbLine
 10
395.4325028672986
 20
232.7641785964006
 30
0.0000000000000000
 11
397.3470830978294
 21
234.0555797502879
 31
0.0000000000000000
  0
ARC
  5
300
100
AcDbEntity
  8
MAIN0
  6
CENTER
 62
12
100
AcDbCircle
 10
393.4577388099739
 20
261.0046203159533
 30
0.0000000000000000
 40
25.99999999999909
100
AcDbArc
 50
260.5272381924135
 51
286.6031867194181
  0
LINE
  5
301
100
AcDbEntity
  8
MAIN0
  6
CONTINUOUS
 62
3
100
AcDbLine
 10
397.3470830978296
 20
234.0555797502879
 30
0.0000000000000000
 11
397.1859873578520
 21
236.3593561630860
 31
0.0000000000000000
  0
LINE
  5
302
100
AcDbEntity
  8
MAIN0
  6
CONTINUOUS
 62
3
100
AcDbLine
 10
397.1859873578519
 20
236.3593561630861
 30
0.0000000000000000
 11
395.1103114571000
 21
237.3717304244328
 31
0.0000000000000000
  0
LINE
  5
303
100
AcDbEntity
  8
MAIN0
  6
CENTER
 62
12
100
AcDbLine
 10
411.1952117443867
 20
230.2824159956721
 30
0.0000000000000000
 11
375.5420185859918
 21
292.0355579980792
 31
0.0000000000000000
  0
LINE
  5
304
100
AcDbEntity
  8
MAIN0
  6
CONTINUOUS
 62
3
100
AcDbLine
 10
460.0805480301128
 20
302.1599160766112
 30
0.0000000000000000
 11
460.0805480301129
 21
356.8046203159532
 31
0.0000000000000000
  0
LINE
  5
305
100
AcDbEntity
  8
MAIN0
  6
CONTINUOUS
 62
3
100
AcDbLine
 10
460.0805480301129
 20
356.8046203159532
 30
0.0000000000000000
 11
459.0805480301129
 21
357.8046203159532
 31
0.0000000000000000
  0
LINE
  5
306
100
AcDbEntity
  8
MAIN0
  6
CONTINUOUS
 62
3
100
AcDbLine
 10
410.2805480301131
 20
357.8046203159532
 30
0.0000000000000000
 11
459.0805480301131
 21
357.8046203159533
 31
0.0000000000000000
  0
LINE
  5
307
100
AcDbEntity
  8
MAIN0
  6
CONTINUOUS
 62
3
100
AcDbLine
 10
409.2805480301130
 20
356.8046203159532
 30
0.0000000000000000
 11
410.2805480301130
 21
357.8046203159532
 31
0.0000000000000000
  0
LINE
  5
308
100
AcDbEntity
  8
MAIN0
  6
CONTINUOUS
 62
3
100
AcDbLine
 10
409.2805480301132
 20
302.1599160766111
 30
0.0000000000000000
 11
409.2805480301131
 21
356.8046203159532
 31
0.0000000000000000
  0
LINE
  5
309
100
AcDbEntity
  8
MAIN0
  6
CONTINUOUS
 62
3
100
AcDbLine
 10
430.6805480301132
 20
289.8046203159533
 30
0.0000000000000000
 11
409.2805480301130
 21
302.1599160766114
 31
0.0000000000000000
  0
LINE
  5
30A
100
AcDbEntity
  8
MAIN0
  6
CONTINUOUS
 62
3
100
AcDbLine
 10
430.6805480301132
 20
289.8046203159532
 30
0.0000000000000000
 11
438.6805480301127
 21
289.8046203159532
 31
0.0000000000000000
  0
LINE
  5
30B
100
AcDbEntity
  8
MAIN0
  6
CONTINUOUS
 62
3
100
AcDbLine
 10
438.6805480301126
 20
289.8046203159531
 30
0.0000000000000000
 11
460.0805480301128
 21
302.1599160766111
 31
0.0000000000000000
  0
CIRCLE
  5
30C
100
AcDbEntity
  8
MAIN0
  6
CONTINUOUS
 62
3
100
AcDbCircle
 10
434.6805480301130
 20
313.4446203159533
 30
0.0000000000000000
 40
8.500000000000000
  0
CIRCLE
  5
30D
100
AcDbEntity
  8
MAIN0
  6
CONTINUOUS
 62
3
100
AcDbCircle
 10
434.6805480301130
 20
313.4446203159533
 30
0.0000000000000000
 40
8.000000000000000
  0
LINE
  5
30E
100
AcDbEntity
  8
MAIN0
  6
CENTER
 62
12
100
AcDbLine
 10
421.4145873209012
 20
313.4446203159532
 30
0.0000000000000000
 11
446.6549633308648
 21
313.4446203159532
 31
0.0000000000000000
  0
LINE
  5
30F
100
AcDbEntity
  8
MAIN0
  6
CONTINUOUS
 62
3
100
AcDbLine
 10
438.6805480301130
 20
311.1352213159533
 30
0.0000000000000000
 11
438.6805480301130
 21
315.7540223159532
 31
0.0000000000000000
  0
LINE
  5
310
100
AcDbEntity
  8
MAIN0
  6
CONTINUOUS
 62
3
100
AcDbLine
 10
434.6805480301130
 20
308.8258183159534
 30
0.0000000000000000
 11
438.6805480301130
 21
311.1352213159534
 31
0.0000000000000000
  0
LINE
  5
311
100
AcDbEntity
  8
MAIN0
  6
CONTINUOUS
 62
3
100
AcDbLine
 10
430.6805480301132
 20
311.1352173159535
 30
0.0000000000000000
 11
434.6805480301132
 21
308.8258183159535
 31
0.0000000000000000
  0
LINE
  5
312
100
AcDbEntity
  8
MAIN0
  6
CONTINUOUS
 62
3
100
AcDbLine
 10
430.6805480301130
 20
315.7540183159532
 30
0.0000000000000000
 11
430.6805480301130
 21
311.1352173159534
 31
0.0000000000000000
  0
LINE
  5
313
100
AcDbEntity
  8
MAIN0
  6
CONTINUOUS
 62
3
100
AcDbLine
 10
434.6805480301131
 20
318.0634213159535
 30
0.0000000000000000
 11
430.6805480301131
 21
315.7540183159534
 31
0.0000000000000000
  0
LINE
  5
314
100
AcDbEntity
  8
MAIN0
  6
CONTINUOUS
 62
3
100
AcDbLine
 10
438.6805480301130
 20
315.7540223159535
 30
0.0000000000000000
 11
434.6805480301130
 21
318.0634213159535
 31
0.0000000000000000
  0
CIRCLE
  5
315
100
AcDbEntity
  8
MAIN0
  6
CONTINUOUS
 62
3
100
AcDbCircle
 10
434.6805480301130
 20
342.8046203159532
 30
0.0000000000000000
 40
8.500000000000000
  0
CIRCLE
  5
316
100
AcDbEntity
  8
MAIN0
  6
CONTINUOUS
 62
3
100
AcDbCircle
 10
434.6805480301130
 20
342.8046203159532
 30
0.0000000000000000
 40
8.000000000000000
  0
LINE
  5
317
100
AcDbEntity
  8
MAIN0
  6
CENTER
 62
12
100
AcDbLine
 10
422.1641539206020
 20
342.8046203159533
 30
0.0000000000000000
 11
447.4112390297813
 21
342.8046203159533
 31
0.0000000000000000
  0
LINE
  5
318
100
AcDbEntity
  8
MAIN0
  6
CONTINUOUS
 62
3
100
AcDbLine
 10
438.6805480301130
 20
340.4952213159532
 30
0.0000000000000000
 11
438.6805480301130
 21
345.1140223159532
 31
0.0000000000000000
  0
LINE
  5
319
100
AcDbEntity
  8
MAIN0
  6
CONTINUOUS
 62
3
100
AcDbLine
 10
434.6805480301129
 20
338.1858183159533
 30
0.0000000000000000
 11
438.6805480301130
 21
340.4952213159534
 31
0.0000000000000000
  0
LINE
  5
31A
100
AcDbEntity
  8
MAIN0
  6
CONTINUOUS
 62
3
100
AcDbLine
 10
430.6805480301131
 20
340.4952173159535
 30
0.0000000000000000
 11
434.6805480301132
 21
338.1858183159534
 31
0.0000000000000000
  0
LINE
  5
31B
100
AcDbEntity
  8
MAIN0
  6
CONTINUOUS
 62
3
100
AcDbLine
 10
430.6805480301130
 20
345.1140183159532
 30
0.0000000000000000
 11
430.6805480301130
 21
340.4952173159533
 31
0.0000000000000000
  0
LINE
  5
31C
100
AcDbEntity
  8
MAIN0
  6
CONTINUOUS
 62
3
100
AcDbLine
 10
434.6805480301131
 20
347.4234213159534
 30
0.0000000000000000
 11
430.6805480301130
 21
345.1140183159533
 31
0.0000000000000000
  0
LINE
  5
31D
100
AcDbEntity
  8
MAIN0
  6
CONTINUOUS
 62
3
100
AcDbLine
 10
438.6805480301130
 20
345.1140223159533
 30
0.0000000000000000
 11
434.6805480301130
 21
347.4234213159534
 31
0.0000000000000000
  0
ARC
  5
31E
100
AcDbEntity
  8
MAIN0
  6
CONTINUOUS
 62
3
100
AcDbCircle
 10
434.6805480301131
 20
284.8046203159533
 30
0.0000000000000000
 40
30.00000000000000
100
AcDbArc
 50
255.5729959991943
 51
284.4270040008053
  0
CIRCLE
  5
31F
100
AcDbEntity
  8
MAIN0
  6
CONTINUOUS
 62
3
100
AcDbCircle
 10
434.6805480301130
 20
262.8046203159535
 30
0.0000000000000000
 40
5.250000000000000
  0
ARC
  5
320
100
AcDbEntity
  8
MAIN0
  6
CENTER
 62
12
100
AcDbCircle
 10
434.6805480301131
 20
284.8046203159533
 30
0.0000000000000000
 40
21.99999999999977
100
AcDbArc
 50
252.0223618204240
 51
287.9674327802618
  0
LINE
  5
321
100
AcDbEntity
  8
MAIN0
  6
CONTINUOUS
 62
3
100
AcDbLine
 10
436.6805480301130
 20
261.6499197775743
 30
0.0000000000000000
 11
436.6805480301130
 21
263.9593208543328
 31
0.0000000000000000
  0
LINE
  5
322
100
AcDbEntity
  8
MAIN0
  6
CONTINUOUS
 62
3
100
AcDbLine
 10
434.6805480301130
 20
260.4952192391950
 30
0.0000000000000000
 11
436.6805480301130
 21
261.6499197775743
 31
0.0000000000000000
  0
LINE
  5
323
100
AcDbEntity
  8
MAIN0
  6
CONTINUOUS
 62
3
100
AcDbLine
 10
432.6805480301131
 20
261.6499197775743
 30
0.0000000000000000
 11
434.6805480301130
 21
260.4952192391951
 31
0.0000000000000000
  0
LINE
  5
324
100
AcDbEntity
  8
MAIN0
  6
CONTINUOUS
 62
3
100
AcDbLine
 10
434.6805480301130
 20
265.1140213927121
 30
0.0000000000000000
 11
432.6805480301130
 21
263.9593208543328
 31
0.0000000000000000
  0
LINE
  5
325
100
AcDbEntity
  8
MAIN0
  6
CONTINUOUS
 62
3
100
AcDbLine
 10
432.6805480301130
 20
263.9593208543328
 30
0.0000000000000000
 11
432.6805480301130
 21
261.6499197775743
 31
0.0000000000000000
  0
LINE
  5
326
100
AcDbEntity
  8
MAIN0
  6
CONTINUOUS
 62
3
100
AcDbLine
 10
436.6805480301130
 20
263.9593208543328
 30
0.0000000000000000
 11
434.6805480301131
 21
265.1140213927121
 31
0.0000000000000000
  0
LINE
  5
327
100
AcDbEntity
  8
MAIN0
  6
HIDDEN
 62
12
100
AcDbLine
 10
413.2562627444845
 20
305.8046203159530
 30
0.0000000000000000
 11
456.1048333157416
 21
305.8046203159530
 31
0.0000000000000000
  0
ARC
  5
328
100
AcDbEntity
  8
MAIN0
  6
CENTER
 62
12
100
AcDbCircle
 10
434.6805480301131
 20
284.8046203159533
 30
0.0000000000000000
 40
21.99999999999977
100
AcDbArc
 50
132.4916742244985
 51
167.1034322112636
  0
LINE
  5
329
100
AcDbEntity
  8
MAIN0
  6
CONTINUOUS
 62
3
100
AcDbLine
 10
413.6279891468553
 20
294.6499197775735
 30
0.0000000000000000
 11
415.6279891468553
 21
293.4952192391942
 31
0.0000000000000000
  0
LINE
  5
32A
100
AcDbEntity
  8
MAIN0
  6
CONTINUOUS
 62
3
100
AcDbLine
 10
413.6279891468553
 20
296.9593208543319
 30
0.0000000000000000
 11
413.6279891468553
 21
294.6499197775734
 31
0.0000000000000000
  0
LINE
  5
32B
100
AcDbEntity
  8
MAIN0
  6
CONTINUOUS
 62
3
100
AcDbLine
 10
415.6279891468553
 20
298.1140213927112
 30
0.0000000000000000
 11
413.6279891468553
 21
296.9593208543319
 31
0.0000000000000000
  0
LINE
  5
32C
100
AcDbEntity
  8
MAIN0
  6
CONTINUOUS
 62
3
100
AcDbLine
 10
417.6279891468553
 20
296.9593208543319
 30
0.0000000000000000
 11
415.6279891468553
 21
298.1140213927112
 31
0.0000000000000000
  0
LINE
  5
32D
100
AcDbEntity
  8
MAIN0
  6
CONTINUOUS
 62
3
100
AcDbLine
 10
417.6279891468553
 20
294.6499197775734
 30
0.0000000000000000
 11
417.6279891468553
 21
296.9593208543319
 31
0.0000000000000000
  0
LINE
  5
32E
100
AcDbEntity
  8
MAIN0
  6
CONTINUOUS
 62
3
100
AcDbLine
 10
415.6279891468553
 20
293.4952192391942
 30
0.0000000000000000
 11
417.6279891468553
 21
294.6499197775734
 31
0.0000000000000000
  0
LINE
  5
32F
100
AcDbEntity
  8
MAIN0
  6
CONTINUOUS
 62
3
100
AcDbLine
 10
451.7331069133705
 20
294.6499197775741
 30
0.0000000000000000
 11
453.7331069133704
 21
293.4952192391949
 31
0.0000000000000000
  0
LINE
  5
330
100
AcDbEntity
  8
MAIN0
  6
CONTINUOUS
 62
3
100
AcDbLine
 10
453.7331069133704
 20
293.4952192391948
 30
0.0000000000000000
 11
455.7331069133704
 21
294.6499197775740
 31
0.0000000000000000
  0
LINE
  5
331
100
AcDbEntity
  8
MAIN0
  6
CONTINUOUS
 62
3
100
AcDbLine
 10
455.7331069133704
 20
294.6499197775741
 30
0.0000000000000000
 11
455.7331069133704
 21
296.9593208543326
 31
0.0000000000000000
  0
LINE
  5
332
100
AcDbEntity
  8
MAIN0
  6
CONTINUOUS
 62
3
100
AcDbLine
 10
455.7331069133704
 20
296.9593208543326
 30
0.0000000000000000
 11
453.7331069133704
 21
298.1140213927118
 31
0.0000000000000000
  0
LINE
  5
333
100
AcDbEntity
  8
MAIN0
  6
CONTINUOUS
 62
3
100
AcDbLine
 10
453.7331069133704
 20
298.1140213927118
 30
0.0000000000000000
 11
451.7331069133704
 21
296.9593208543325
 31
0.0000000000000000
  0
LINE
  5
334
100
AcDbEntity
  8
MAIN0
  6
CONTINUOUS
 62
3
100
AcDbLine
 10
451.7331069133704
 20
296.9593208543325
 30
0.0000000000000000
 11
451.7331069133704
 21
294.6499197775741
 31
0.0000000000000000
  0
ARC
  5
335
100
AcDbEntity
  8
MAIN0
  6
CENTER
 62
12
100
AcDbCircle
 10
434.6805480301131
 20
284.8046203159533
 30
0.0000000000000000
 40
21.99999999999977
100
AcDbArc
 50
12.51077085772128
 51
48.75969346250110
  0
LINE
  5
336
100
AcDbEntity
  8
MAIN0
  6
CONTINUOUS
 62
3
100
AcDbLine
 10
460.8578292383975
 20
288.1450013727201
 30
0.0000000000000000
 11
463.5792241524005
 21
292.8585956312328
 31
0.0000000000000000
  0
LINE
  5
337
100
AcDbEntity
  8
MAIN0
  6
CONTINUOUS
 62
3
100
AcDbLine
 10
442.1549388667719
 20
255.7506450006738
 30
0.0000000000000000
 11
444.6538468230870
 21
260.0788805444498
 31
0.0000000000000000
  0
LINE
  5
338
100
AcDbEntity
  8
MAIN0
  6
HIDDEN
 62
12
100
AcDbLine
 10
444.6538468230871
 20
260.0788805444497
 30
0.0000000000000000
 11
460.8578292383975
 21
288.1450013727200
 31
0.0000000000000000
  0
LINE
  5
339
100
AcDbEntity
  8
MAIN0
  6
CONTINUOUS
 62
3
100
AcDbLine
 10
405.7818719078255
 20
292.8585956312327
 30
0.0000000000000000
 11
408.5032668218285
 21
288.1450013727201
 31
0.0000000000000000
  0
LINE
  5
33A
100
AcDbEntity
  8
MAIN0
  6
HIDDEN
 62
12
100
AcDbLine
 10
408.5032668218286
 20
288.1450013727201
 30
0.0000000000000000
 11
424.7072492371379
 21
260.0788805444516
 31
0.0000000000000000
  0
LINE
  5
33B
100
AcDbEntity
  8
MAIN0
  6
CONTINUOUS
 62
3
100
AcDbLine
 10
424.7072492371380
 20
260.0788805444516
 30
0.0000000000000000
 11
427.2061571934543
 21
255.7506450006738
 31
0.0000000000000000
  0
ARC
  5
33C
100
AcDbEntity
  8
MAIN0
  6
CONTINUOUS
 62
3
100
AcDbCircle
 10
434.6805480301131
 20
284.8046203159533
 30
0.0000000000000000
 40
30.00000000000000
100
AcDbArc
 50
15.57299599919447
 51
34.45470150760522
  0
ARC
  5
33D
100
AcDbEntity
  8
MAIN0
  6
HIDDEN
 62
12
100
AcDbCircle
 10
434.6805480301131
 20
284.8046203159533
 30
0.0000000000000000
 40
30.00000000000000
100
AcDbArc
 50
34.45470150760522
 51
44.42700400080501
  0
ARC
  5
33E
100
AcDbEntity
  8
MAIN0
  6
HIDDEN
 62
12
100
AcDbCircle
 10
434.6805480301131
 20
284.8046203159533
 30
0.0000000000000000
 40
30.00000000000000
100
AcDbArc
 50
135.5729959991950
 51
145.5452984923945
  0
ARC
  5
33F
100
AcDbEntity
  8
MAIN0
  6
CONTINUOUS
 62
3
100
AcDbCircle
 10
434.6805480301131
 20
284.8046203159533
 30
0.0000000000000000
 40
30.00000000000000
100
AcDbArc
 50
145.5452984923945
 51
164.4270040008054
  0
ARC
  5
340
100
AcDbEntity
  8
MAIN0
  6
HIDDEN
 62
3
100
AcDbCircle
 10
415.6279891468553
 20
295.8046203159527
 30
0.0000000000000000
 40
5.250000000000000
100
AcDbArc
 50
356.3487444911530
 51
483.6512555088472
  0
ARC
  5
341
100
AcDbEntity
  8
MAIN0
  6
CONTINUOUS
 62
3
100
AcDbCircle
 10
415.6279891468553
 20
295.8046203159527
 30
0.0000000000000000
 40
5.250000000000000
100
AcDbArc
 50
123.6512555088472
 51
356.3487444911531
  0
ARC
  5
342
100
AcDbEntity
  8
MAIN0
  6
HIDDEN
 62
3
100
AcDbCircle
 10
453.7331069133704
 20
295.8046203159533
 30
0.0000000000000000
 40
5.250000000000000
100
AcDbArc
 50
56.34874449114153
 51
183.6512555088583
  0
ARC
  5
343
100
AcDbEntity
  8
MAIN0
  6
CONTINUOUS
 62
3
100
AcDbCircle
 10
453.7331069133704
 20
295.8046203159533
 30
0.0000000000000000
 40
5.250000000000000
100
AcDbArc
 50
183.6512555088583
 51
416.3487444911415
  0
LINE
  5
344
100
AcDbEntity
  8
MAIN0
  6
CONTINUOUS
 62
3
100
AcDbLine
 10
106.6805480301118
 20
367.0546203159532
 30
0.0000000000000000
 11
143.7484972225485
 21
367.0546203159532
 31
0.0000000000000000
  0
LINE
  5
345
100
AcDbEntity
  8
MAIN0
  6
CONTINUOUS
 62
3
100
AcDbLine
 10
145.4805480301137
 20
366.0546203159532
 30
0.0000000000000000
 11
143.7484972225485
 21
367.0546203159532
 31
0.0000000000000000
  0
LINE
  5
346
100
AcDbEntity
  8
MAIN0
  6
CONTINUOUS
 62
3
100
AcDbLine
 10
145.4805480301039
 20
360.8046203159541
 30
0.0000000000000000
 11
145.4805480301137
 21
366.0546203159532
 31
0.0000000000000000
  0
LINE
  5
347
100
AcDbEntity
  8
MAIN0
  6
CONTINUOUS
 62
3
100
AcDbLine
 10
145.4805480303199
 20
360.8046203159541
 30
0.0000000000000000
 11
145.6805480301237
 21
360.8046203159541
 31
0.0000000000000000
  0
LINE
  5
348
100
AcDbEntity
  8
MAIN0
  6
CONTINUOUS
 62
3
100
AcDbLine
 10
145.4805480303199
 20
208.8046203159524
 30
0.0000000000000000
 11
145.6805480301237
 21
208.8046203159524
 31
0.0000000000000000
  0
LINE
  5
349
100
AcDbEntity
  8
MAIN0
  6
CONTINUOUS
 62
3
100
AcDbLine
 10
145.4805480301039
 20
208.8046203159524
 30
0.0000000000000000
 11
145.4805480301138
 21
203.5546203159532
 31
0.0000000000000000
  0
LINE
  5
34A
100
AcDbEntity
  8
MAIN0
  6
CONTINUOUS
 62
3
100
AcDbLine
 10
145.4805480301136
 20
203.5546203159531
 30
0.0000000000000000
 11
143.7484972225484
 21
202.5546203159530
 31
0.0000000000000000
  0
LINE
  5
34B
100
AcDbEntity
  8
MAIN0
  6
CONTINUOUS
 62
3
100
AcDbLine
 10
106.6805480301117
 20
202.5546203159532
 30
0.0000000000000000
 11
143.7484972225485
 21
202.5546203159532
 31
0.0000000000000000
  0
LINE
  5
34C
100
AcDbEntity
  8
MAIN0
  6
CONTINUOUS
 62
3
100
AcDbLine
 10
106.6805480301118
 20
202.5546203159532
 30
0.0000000000000000
 11
106.6805480301118
 21
214.8046203159532
 31
0.0000000000000000
  0
LINE
  5
34D
100
AcDbEntity
  8
MAIN0
  6
CONTINUOUS
 62
3
100
AcDbLine
 10
106.6805480301118
 20
363.5546203159531
 30
0.0000000000000000
 11
106.6805480301118
 21
367.0546203159532
 31
0.0000000000000000
  0
LINE
  5
34E
100
AcDbEntity
  8
MAIN0
  6
CONTINUOUS
 62
3
100
AcDbLine
 10
235.2805480301236
 20
358.1296203159532
 30
0.0000000000000000
 11
235.2805480301236
 21
363.5296203159532
 31
0.0000000000000000
  0
LINE
  5
34F
100
AcDbEntity
  8
MAIN0
  6
CONTINUOUS
 62
3
100
AcDbLine
 10
230.0405480301236
 20
357.8296203159532
 30
0.0000000000000000
 11
235.0405480301236
 21
357.8296203159532
 31
0.0000000000000000
  0
LINE
  5
350
100
AcDbEntity
  8
MAIN0
  6
CONTINUOUS
 62
3
100
AcDbLine
 10
217.3005480301236
 20
304.1296203159531
 30
0.0000000000000000
 11
217.3005480301236
 21
364.5296203159532
 31
0.0000000000000000
  0
LINE
  5
351
100
AcDbEntity
  8
MAIN0
  6
CONTINUOUS
 62
3
100
AcDbLine
 10
234.9805480301234
 20
357.8296203159530
 30
0.0000000000000000
 11
235.2805480301234
 21
358.1296203159531
 31
0.0000000000000000
  0
LINE
  5
352
100
AcDbEntity
  8
MAIN0
  6
CONTINUOUS
 62
3
100
AcDbLine
 10
212.6805480301235
 20
307.1296203159526
 30
0.0000000000000000
 11
212.6805480301235
 21
313.7959813798783
 31
0.0000000000000000
  0
LINE
  5
353
100
AcDbEntity
  8
MAIN0
  6
CONTINUOUS
 62
3
100
AcDbLine
 10
212.6805480301236
 20
351.0632592520279
 30
0.0000000000000000
 11
212.6805480301236
 21
361.0296203159533
 31
0.0000000000000000
  0
LINE
  5
354
100
AcDbEntity
  8
MAIN0
  6
CONTINUOUS
 62
3
100
AcDbLine
 10
276.6805480301235
 20
291.3296203159532
 30
0.0000000000000000
 11
276.6805480301236
 21
356.8296203159531
 31
0.0000000000000000
  0
LINE
  5
355
100
AcDbEntity
  8
MAIN0
  6
CONTINUOUS
 62
3
100
AcDbLine
 10
226.6805480301235
 20
290.3296203159533
 30
0.0000000000000000
 11
275.7305480301237
 21
290.3296203159532
 31
0.0000000000000000
  0
LINE
  5
356
100
AcDbEntity
  8
MAIN0
  6
CENTER
 62
12
100
AcDbLine
 10
215.8057251216978
 20
313.4696203159532
 30
0.0000000000000000
 11
280.0751681056943
 21
313.4696203159532
 31
0.0000000000000000
  0
LINE
  5
357
100
AcDbEntity
  8
MAIN0
  6
CONTINUOUS
 62
3
100
AcDbLine
 10
276.1305480301236
 20
304.9696203159533
 30
0.0000000000000000
 11
234.2605480301234
 21
304.9696203159532
 31
0.0000000000000000
  0
LINE
  5
358
100
AcDbEntity
  8
MAIN0
  6
CONTINUOUS
 62
3
100
AcDbLine
 10
276.1305480301236
 20
321.9696203159533
 30
0.0000000000000000
 11
234.2605480301236
 21
321.9696203159532
 31
0.0000000000000000
  0
LINE
  5
359
100
AcDbEntity
  8
MAIN0
  6
CONTINUOUS
 62
3
100
AcDbLine
 10
229.3805480301235
 20
307.9696203159532
 30
0.0000000000000000
 11
234.2605480301234
 21
307.9696203159532
 31
0.0000000000000000
  0
LINE
  5
35A
100
AcDbEntity
  8
MAIN0
  6
CONTINUOUS
 62
3
100
AcDbLine
 10
229.3805480301235
 20
318.9696203159533
 30
0.0000000000000000
 11
234.2605480301236
 21
318.9696203159533
 31
0.0000000000000000
  0
LINE
  5
35B
100
AcDbEntity
  8
MAIN0
  6
CONTINUOUS
 62
3
100
AcDbLine
 10
234.2605480301233
 20
304.9696203159532
 30
0.0000000000000000
 11
234.2605480301233
 21
321.9696203159533
 31
0.0000000000000000
  0
LINE
  5
35C
100
AcDbEntity
  8
MAIN0
  6
CONTINUOUS
 62
3
100
AcDbLine
 10
276.6805480301234
 20
304.3696203159533
 30
0.0000000000000000
 11
276.0805480301234
 21
304.9696203159533
 31
0.0000000000000000
  0
LINE
  5
35D
100
AcDbEntity
  8
MAIN0
  6
CONTINUOUS
 62
3
100
AcDbLine
 10
276.6805480301235
 20
322.5696203159533
 30
0.0000000000000000
 11
276.0805480301235
 21
321.9696203159534
 31
0.0000000000000000
  0
LINE
  5
35E
100
AcDbEntity
  8
MAIN0
  6
CONTINUOUS
 62
3
100
AcDbLine
 10
228.9805480301234
 20
307.5696203159534
 30
0.0000000000000000
 11
229.3805480301234
 21
307.9696203159534
 31
0.0000000000000000
  0
LINE
  5
35F
100
AcDbEntity
  8
MAIN0
  6
CONTINUOUS
 62
3
100
AcDbLine
 10
228.9805480301235
 20
319.3696203159532
 30
0.0000000000000000
 11
229.3805480301235
 21
318.9696203159532
 31
0.0000000000000000
  0
LINE
  5
360
100
AcDbEntity
  8
MAIN0
  6
CONTINUOUS
 62
3
100
AcDbLine
 10
276.1305480301236
 20
334.3296203159533
 30
0.0000000000000000
 11
234.2605480301236
 21
334.3296203159532
 31
0.0000000000000000
  0
LINE
  5
361
100
AcDbEntity
  8
MAIN0
  6
CONTINUOUS
 62
3
100
AcDbLine
 10
276.1305480301235
 20
351.3296203159533
 30
0.0000000000000000
 11
234.2605480301236
 21
351.3296203159533
 31
0.0000000000000000
  0
LINE
  5
362
100
AcDbEntity
  8
MAIN0
  6
CONTINUOUS
 62
3
100
AcDbLine
 10
229.3805480301235
 20
337.3296203159533
 30
0.0000000000000000
 11
234.2605480301234
 21
337.3296203159533
 31
0.0000000000000000
  0
LINE
  5
363
100
AcDbEntity
  8
MAIN0
  6
CONTINUOUS
 62
3
100
AcDbLine
 10
229.3805480301235
 20
348.3296203159533
 30
0.0000000000000000
 11
234.2605480301234
 21
348.3296203159533
 31
0.0000000000000000
  0
LINE
  5
364
100
AcDbEntity
  8
MAIN0
  6
CONTINUOUS
 62
3
100
AcDbLine
 10
234.2605480301233
 20
334.3296203159532
 30
0.0000000000000000
 11
234.2605480301234
 21
351.3296203159533
 31
0.0000000000000000
  0
LINE
  5
365
100
AcDbEntity
  8
MAIN0
  6
CONTINUOUS
 62
3
100
AcDbLine
 10
276.6805480301236
 20
333.7296203159534
 30
0.0000000000000000
 11
276.0805480301235
 21
334.3296203159534
 31
0.0000000000000000
  0
LINE
  5
366
100
AcDbEntity
  8
MAIN0
  6
CONTINUOUS
 62
3
100
AcDbLine
 10
276.6805480301235
 20
351.9296203159532
 30
0.0000000000000000
 11
276.0805480301235
 21
351.3296203159533
 31
0.0000000000000000
  0
LINE
  5
367
100
AcDbEntity
  8
MAIN0
  6
CONTINUOUS
 62
3
100
AcDbLine
 10
228.9805480301236
 20
336.9296203159533
 30
0.0000000000000000
 11
229.3805480301236
 21
337.3296203159533
 31
0.0000000000000000
  0
LINE
  5
368
100
AcDbEntity
  8
MAIN0
  6
CONTINUOUS
 62
3
100
AcDbLine
 10
228.9805480301237
 20
348.7296203159532
 30
0.0000000000000000
 11
229.3805480301236
 21
348.3296203159533
 31
0.0000000000000000
  0
LINE
  5
369
100
AcDbEntity
  8
MAIN0
  6
CONTINUOUS
 62
3
100
AcDbLine
 10
276.6805480301236
 20
356.8296203159532
 30
0.0000000000000000
 11
275.6805480301236
 21
357.8296203159532
 31
0.0000000000000000
  0
LINE
  5
36A
100
AcDbEntity
  8
MAIN0
  6
CONTINUOUS
 62
3
100
AcDbLine
 10
276.6805480301234
 20
291.3296203159532
 30
0.0000000000000000
 11
275.6805480301234
 21
290.3296203159532
 31
0.0000000000000000
  0
LINE
  5
36B
100
AcDbEntity
  8
MAIN0
  6
CONTINUOUS
 62
3
100
AcDbLine
 10
225.6805480301235
 20
291.3296203159533
 30
0.0000000000000000
 11
226.6805480301235
 21
290.3296203159533
 31
0.0000000000000000
  0
LINE
  5
36C
100
AcDbEntity
  8
MAIN0
  6
HIDDEN
 62
4
100
AcDbLine
 10
225.6805480301236
 20
356.8296203159533
 30
0.0000000000000000
 11
226.6805480301236
 21
357.8296203159533
 31
0.0000000000000000
  0
LINE
  5
36D
100
AcDbEntity
  8
MAIN0
  6
CONTINUOUS
 62
3
100
AcDbLine
 10
234.3205480301236
 20
337.8296163159532
 30
0.0000000000000000
 11
218.3205460301237
 21
337.8296203159532
 31
0.0000000000000000
  0
LINE
  5
36E
100
AcDbEntity
  8
MAIN0
  6
CONTINUOUS
 62
3
100
AcDbLine
 10
218.3205460301236
 20
337.8296203159532
 30
0.0000000000000000
 11
218.3205460301236
 21
347.8296203159532
 31
0.0000000000000000
  0
LINE
  5
36F
100
AcDbEntity
  8
MAIN0
  6
CONTINUOUS
 62
3
100
AcDbLine
 10
218.3205460301236
 20
347.8296203159532
 30
0.0000000000000000
 11
234.3205480301236
 21
347.8296163159532
 31
0.0000000000000000
  0
LINE
  5
370
100
AcDbEntity
  8
MAIN0
  6
CONTINUOUS
 62
12
100
AcDbLine
 10
234.3205480301235
 20
338.8296203159532
 30
0.0000000000000000
 11
218.3205460301236
 21
338.8296203159532
 31
0.0000000000000000
  0
LINE
  5
371
100
AcDbEntity
  8
MAIN0
  6
CONTINUOUS
 62
12
100
AcDbLine
 10
234.3205480301235
 20
346.8296203159532
 30
0.0000000000000000
 11
218.3205460301236
 21
346.8296203159532
 31
0.0000000000000000
  0
LINE
  5
372
100
AcDbEntity
  8
MAIN0
  6
CONTINUOUS
 62
3
100
AcDbLine
 10
234.3205520301235
 20
350.8296203159532
 30
0.0000000000000000
 11
243.7205610301236
 21
350.8296123159532
 31
0.0000000000000000
  0
LINE
  5
373
100
AcDbEntity
  8
MAIN0
  6
CONTINUOUS
 62
3
100
AcDbLine
 10
243.7205520301237
 20
334.8296163159532
 30
0.0000000000000000
 11
234.3205440301236
 21
334.8296203159532
 31
0.0000000000000000
  0
LINE
  5
374
100
AcDbEntity
  8
MAIN0
  6
CONTINUOUS
 62
3
100
AcDbLine
 10
243.7205540301235
 20
350.8296123159532
 30
0.0000000000000000
 11
243.7205440301235
 21
334.8296163159532
 31
0.0000000000000000
  0
LINE
  5
375
100
AcDbEntity
  8
MAIN0
  6
CONTINUOUS
 62
3
100
AcDbLine
 10
244.3205360301236
 20
349.7904663159531
 30
0.0000000000000000
 11
243.7205540301235
 21
350.8296123159531
 31
0.0000000000000000
  0
LINE
  5
376
100
AcDbEntity
  8
MAIN0
  6
CONTINUOUS
 62
3
100
AcDbLine
 10
244.3205280301236
 20
335.8687853159532
 30
0.0000000000000000
 11
243.7205440301236
 21
334.8296163159532
 31
0.0000000000000000
  0
LINE
  5
377
100
AcDbEntity
  8
MAIN0
  6
CONTINUOUS
 62
3
100
AcDbLine
 10
244.3205480301234
 20
335.8688199558436
 30
0.0000000000000000
 11
244.3205480301234
 21
349.7904455324097
 31
0.0000000000000000
  0
LINE
  5
378
100
AcDbEntity
  8
MAIN0
  6
CONTINUOUS
 62
3
100
AcDbLine
 10
234.3205480301234
 20
308.4696163159532
 30
0.0000000000000000
 11
218.3205460301236
 21
308.4696203159533
 31
0.0000000000000000
  0
LINE
  5
379
100
AcDbEntity
  8
MAIN0
  6
CONTINUOUS
 62
3
100
AcDbLine
 10
218.3205460301236
 20
308.4696203159532
 30
0.0000000000000000
 11
218.3205460301237
 21
318.4696203159532
 31
0.0000000000000000
  0
LINE
  5
37A
100
AcDbEntity
  8
MAIN0
  6
CONTINUOUS
 62
3
100
AcDbLine
 10
218.3205460301236
 20
318.4696203159532
 30
0.0000000000000000
 11
234.3205480301234
 21
318.4696163159532
 31
0.0000000000000000
  0
LINE
  5
37B
100
AcDbEntity
  8
MAIN0
  6
CONTINUOUS
 62
12
100
AcDbLine
 10
234.3205480301236
 20
309.4696203159532
 30
0.0000000000000000
 11
218.3205460301236
 21
309.4696203159532
 31
0.0000000000000000
  0
LINE
  5
37C
100
AcDbEntity
  8
MAIN0
  6
CONTINUOUS
 62
12
100
AcDbLine
 10
234.3205480301236
 20
317.4696203159532
 30
0.0000000000000000
 11
218.3205460301236
 21
317.4696203159532
 31
0.0000000000000000
  0
LINE
  5
37D
100
AcDbEntity
  8
MAIN0
  6
CONTINUOUS
 62
3
100
AcDbLine
 10
234.3205520301236
 20
321.4696203159532
 30
0.0000000000000000
 11
243.7205610301235
 21
321.4696123159532
 31
0.0000000000000000
  0
LINE
  5
37E
100
AcDbEntity
  8
MAIN0
  6
CONTINUOUS
 62
3
100
AcDbLine
 10
243.7205520301235
 20
305.4696163159530
 30
0.0000000000000000
 11
234.3205440301235
 21
305.4696203159530
 31
0.0000000000000000
  0
LINE
  5
37F
100
AcDbEntity
  8
MAIN0
  6
CONTINUOUS
 62
3
100
AcDbLine
 10
243.7205540301236
 20
321.4696123159532
 30
0.0000000000000000
 11
243.7205440301236
 21
305.4696163159532
 31
0.0000000000000000
  0
LINE
  5
380
100
AcDbEntity
  8
MAIN0
  6
CONTINUOUS
 62
3
100
AcDbLine
 10
244.3205360301235
 20
320.4304663159531
 30
0.0000000000000000
 11
243.7205540301235
 21
321.4696123159531
 31
0.0000000000000000
  0
LINE
  5
381
100
AcDbEntity
  8
MAIN0
  6
CONTINUOUS
 62
3
100
AcDbLine
 10
244.3205280301235
 20
306.5087853159532
 30
0.0000000000000000
 11
243.7205440301235
 21
305.4696163159532
 31
0.0000000000000000
  0
LINE
  5
382
100
AcDbEntity
  8
MAIN0
  6
CONTINUOUS
 62
3
100
AcDbLine
 10
244.3205480301236
 20
306.5088199558435
 30
0.0000000000000000
 11
244.3205480301237
 21
320.4304455324096
 31
0.0000000000000000
  0
LINE
  5
383
100
AcDbEntity
  8
MAIN0
  6
CONTINUOUS
 62
3
100
AcDbLine
 10
217.8005480301235
 20
304.9696203159532
 30
0.0000000000000000
 11
228.4005480301234
 21
304.9696203159532
 31
0.0000000000000000
  0
LINE
  5
384
100
AcDbEntity
  8
MAIN0
  6
CONTINUOUS
 62
3
100
AcDbLine
 10
217.8005480301235
 20
350.9696203159532
 30
0.0000000000000000
 11
228.4005480301235
 21
350.9696203159532
 31
0.0000000000000000
  0
LINE
  5
385
100
AcDbEntity
  8
MAIN0
  6
CONTINUOUS
 62
3
100
AcDbLine
 10
217.8005480301236
 20
304.9696203159532
 30
0.0000000000000000
 11
217.8005480301236
 21
350.9696203159532
 31
0.0000000000000000
  0
LINE
  5
386
100
AcDbEntity
  8
MAIN0
  6
CONTINUOUS
 62
3
100
AcDbLine
 10
222.5005480301236
 20
350.9696203159532
 30
0.0000000000000000
 11
222.5005480301236
 21
364.5296203159531
 31
0.0000000000000000
  0
LINE
  5
387
100
AcDbEntity
  8
MAIN0
  6
CONTINUOUS
 62
3
100
AcDbLine
 10
222.5005480301236
 20
304.1296203159531
 30
0.0000000000000000
 11
222.5005480301236
 21
304.9696203159532
 31
0.0000000000000000
  0
LINE
  5
388
100
AcDbEntity
  8
MAIN0
  6
HIDDEN
 62
4
100
AcDbLine
 10
222.5005480301236
 20
304.9696203159532
 30
0.0000000000000000
 11
222.5005480301236
 21
350.9696203159532
 31
0.0000000000000000
  0
LINE
  5
389
100
AcDbEntity
  8
MAIN0
  6
CONTINUOUS
 62
3
100
AcDbLine
 10
225.6805480301235
 20
291.3296203159533
 30
0.0000000000000000
 11
225.6805480301235
 21
304.1296203159531
 31
0.0000000000000000
  0
LINE
  5
38A
100
AcDbEntity
  8
MAIN0
  6
HIDDEN
 62
4
100
AcDbLine
 10
225.6805480301236
 20
304.1296203159531
 30
0.0000000000000000
 11
225.6805480301236
 21
356.8296203159532
 31
0.0000000000000000
  0
LINE
  5
38B
100
AcDbEntity
  8
MAIN0
  6
HIDDEN
 62
4
100
AcDbLine
 10
226.6805480301234
 20
357.8296203159532
 30
0.0000000000000000
 11
228.9805480301233
 21
357.8296203159532
 31
0.0000000000000000
  0
LINE
  5
38C
100
AcDbEntity
  8
MAIN0
  6
CONTINUOUS
 62
3
100
AcDbLine
 10
228.9805480301234
 20
357.8296203159532
 30
0.0000000000000000
 11
275.7305480301235
 21
357.8296203159531
 31
0.0000000000000000
  0
LINE
  5
38D
100
AcDbEntity
  8
MAIN0
  6
CONTINUOUS
 62
3
100
AcDbLine
 10
228.9805480301234
 20
305.1296203159531
 30
0.0000000000000000
 11
228.9805480301234
 21
308.4696176359529
 31
0.0000000000000000
  0
LINE
  5
38E
100
AcDbEntity
  8
MAIN0
  6
CONTINUOUS
 62
3
100
AcDbLine
 10
228.9805480301234
 20
318.4696176359530
 30
0.0000000000000000
 11
228.9805480301234
 21
337.8296176359530
 31
0.0000000000000000
  0
LINE
  5
38F
100
AcDbEntity
  8
MAIN0
  6
CONTINUOUS
 62
3
100
AcDbLine
 10
228.9805480301234
 20
347.8296176359530
 30
0.0000000000000000
 11
228.9805480301234
 21
357.8296203159532
 31
0.0000000000000000
  0
LINE
  5
390
100
AcDbEntity
  8
MAIN0
  6
CONTINUOUS
 62
3
100
AcDbLine
 10
228.9805480301234
 20
290.3296203159532
 30
0.0000000000000000
 11
228.9805480301234
 21
308.4696176359529
 31
0.0000000000000000
  0
LINE
  5
391
100
AcDbEntity
  8
MAIN0
  6
CONTINUOUS
 62
3
100
AcDbLine
 10
228.9805480301233
 20
318.4696176359531
 30
0.0000000000000000
 11
228.9805480301233
 21
337.8296176359531
 31
0.0000000000000000
  0
LINE
  5
392
100
AcDbEntity
  8
MAIN0
  6
CONTINUOUS
 62
3
100
AcDbLine
 10
228.4005480301236
 20
346.8296203159531
 30
0.0000000000000000
 11
228.4005480301236
 21
350.9696203159532
 31
0.0000000000000000
  0
LINE
  5
393
100
AcDbEntity
  8
MAIN0
  6
CONTINUOUS
 62
3
100
AcDbLine
 10
228.4005480301235
 20
304.9696203159532
 30
0.0000000000000000
 11
228.4005480301235
 21
309.4696203159532
 31
0.0000000000000000
  0
LINE
  5
394
100
AcDbEntity
  8
MAIN0
  6
CONTINUOUS
 62
3
100
AcDbLine
 10
228.4005480301235
 20
317.4696203159532
 30
0.0000000000000000
 11
228.4005480301235
 21
338.8296203159531
 31
0.0000000000000000
  0
LINE
  5
395
100
AcDbEntity
  8
MAIN0
  6
CONTINUOUS
 62
3
100
AcDbLine
 10
212.6805480301236
 20
307.1296203159527
 30
0.0000000000000000
 11
213.4843956074168
 21
304.1296203159532
 31
0.0000000000000000
  0
LINE
  5
396
100
AcDbEntity
  8
MAIN0
  6
CONTINUOUS
 62
3
100
AcDbLine
 10
253.8805480301236
 20
329.4296203159530
 30
0.0000000000000000
 11
253.8805480301236
 21
335.4296203159530
 31
0.0000000000000000
  0
LINE
  5
397
100
AcDbEntity
  8
MAIN0
  6
CONTINUOUS
 62
3
100
AcDbLine
 10
256.0018683736827
 20
334.5509406595123
 30
0.0000000000000000
 11
251.7592276865643
 21
330.3082999723938
 31
0.0000000000000000
  0
LINE
  5
398
100
AcDbEntity
  8
MAIN0
  6
CONTINUOUS
 62
3
100
AcDbLine
 10
256.0018683736818
 20
330.3082999723944
 30
0.0000000000000000
 11
251.7592276865648
 21
334.5509406595113
 31
0.0000000000000000
  0
LINE
  5
399
100
AcDbEntity
  8
MAIN0
  6
CONTINUOUS
 62
3
100
AcDbLine
 10
250.8805480301235
 20
332.4296203159530
 30
0.0000000000000000
 11
256.8805480301235
 21
332.4296203159530
 31
0.0000000000000000
  0
ARC
  5
39A
100
AcDbEntity
  8
MAIN0
  6
CONTINUOUS
 62
3
100
AcDbCircle
 10
209.1805480301235
 20
313.7959813798783
 30
0.0000000000000000
 40
3.500000000000000
100
AcDbArc
 50
0.0000000000000000
 51
81.78678929837263
  0
ARC
  5
39B
100
AcDbEntity
  8
MAIN0
  6
CONTINUOUS
 62
3
100
AcDbCircle
 10
209.1805480301237
 20
351.0632592520279
 30
0.0000000000000000
 40
3.500000000000000
100
AcDbArc
 50
278.2132107016982
 51
359.9999999999998
  0
LINE
  5
39C
100
AcDbEntity
  8
MAIN0
  6
CONTINUOUS
 62
3
100
AcDbLine
 10
213.9544438500546
 20
364.5296203159533
 30
0.0000000000000000
 11
234.2805480301236
 21
364.5296203159532
 31
0.0000000000000000
  0
LINE
  5
39D
100
AcDbEntity
  8
MAIN0
  6
CONTINUOUS
 62
3
100
AcDbLine
 10
213.4843956074169
 20
304.1296203159531
 30
0.0000000000000000
 11
227.9805480301234
 21
304.1296203159531
 31
0.0000000000000000
  0
LINE
  5
39E
100
AcDbEntity
  8
MAIN0
  6
CONTINUOUS
 62
3
100
AcDbLine
 10
234.2805480301236
 20
364.5296203159530
 30
0.0000000000000000
 11
235.2805480301236
 21
363.5296203159530
 31
0.0000000000000000
  0
LINE
  5
39F
100
AcDbEntity
  8
MAIN0
  6
CONTINUOUS
 62
3
100
AcDbLine
 10
228.9805480301234
 20
305.1296203159529
 30
0.0000000000000000
 11
227.9805480301234
 21
304.1296203159531
 31
0.0000000000000000
  0
LINE
  5
3A0
100
AcDbEntity
  8
MAIN0
  6
CONTINUOUS
 62
3
100
AcDbLine
 10
212.6805480301236
 20
361.0296203159533
 30
0.0000000000000000
 11
213.9544438500545
 21
364.5296203159532
 31
0.0000000000000000
  0
LINE
  5
3A1
100
AcDbEntity
  8
MAIN0
  6
CENTER
 62
12
100
AcDbLine
 10
206.2517303443474
 20
332.4296203159532
 30
0.0000000000000000
 11
240.5968957657619
 21
332.4296203159531
 31
0.0000000000000000
  0
LINE
  5
3A2
100
AcDbEntity
  8
MAIN0
  6
CENTER
 62
12
100
AcDbLine
 10
215.2415084553816
 20
342.8296203159531
 30
0.0000000000000000
 11
257.0285489516597
 21
342.8296203159531
 31
0.0000000000000000
  0
LINE
  5
3A3
100
AcDbEntity
  8
MAIN0
  6
CENTER
 62
12
100
AcDbLine
 10
263.1285488562922
 20
342.8296203159531
 30
0.0000000000000000
 11
280.1820630820059
 21
342.8296203159531
 31
0.0000000000000000
  0
LINE
  5
3A4
100
AcDbEntity
  8
MAIN0
  6
CONTINUOUS
 62
3
100
AcDbLine
 10
198.1305480301236
 20
298.7349197775745
 30
0.0000000000000000
 11
198.1305480301236
 21
270.8743208543322
 31
0.0000000000000000
  0
LINE
  5
3A5
100
AcDbEntity
  8
MAIN0
  6
CONTINUOUS
 62
3
100
AcDbLine
 10
191.1976393528952
 20
299.8896203159532
 30
0.0000000000000000
 11
197.8625988376927
 21
299.8896203159532
 31
0.0000000000000000
  0
LINE
  5
3A6
100
AcDbEntity
  8
MAIN0
  6
CONTINUOUS
 62
3
100
AcDbLine
 10
193.9712134740398
 20
269.7196203159533
 30
0.0000000000000000
 11
197.8625987089773
 21
269.7196203159533
 31
0.0000000000000000
  0
LINE
  5
3A7
100
AcDbEntity
  8
MAIN0
  6
CONTINUOUS
 62
3
100
AcDbLine
 10
144.5305480300355
 20
293.3046203159532
 30
0.0000000000000000
 11
197.1305480301236
 21
293.3046203159532
 31
0.0000000000000000
  0
LINE
  5
3A8
100
AcDbEntity
  8
MAIN0
  6
CONTINUOUS
 62
3
100
AcDbLine
 10
144.5305480300353
 20
295.8046203159532
 30
0.0000000000000000
 11
144.5305480300353
 21
273.8046203159532
 31
0.0000000000000000
  0
LINE
  5
3A9
100
AcDbEntity
  8
MAIN0
  6
CONTINUOUS
 62
3
100
AcDbLine
 10
144.5305480300355
 20
276.3046203159532
 30
0.0000000000000000
 11
197.1305480301236
 21
276.3046203159532
 31
0.0000000000000000
  0
LINE
  5
3AA
100
AcDbEntity
  8
MAIN0
  6
CONTINUOUS
 62
3
100
AcDbLine
 10
196.3625988264495
 20
299.7556457262290
 30
0.0000000000000000
 11
198.1305480301237
 21
298.7349197775745
 31
0.0000000000000000
  0
ARC
  5
3AB
100
AcDbEntity
  8
MAIN0
  6
CONTINUOUS
 62
3
100
AcDbCircle
 10
195.8625988376927
 20
298.8896203159534
 30
0.0000000000000000
 40
1.000000000000000
100
AcDbArc
 50
60.00000000000877
 51
89.99999999942553
  0
LINE
  5
3AC
100
AcDbEntity
  8
MAIN0
  6
CONTINUOUS
 62
3
100
AcDbLine
 10
196.3625988376925
 20
269.8535949121689
 30
0.0000000000000000
 11
198.1305480301236
 21
270.8743208543322
 31
0.0000000000000000
  0
ARC
  5
3AD
100
AcDbEntity
  8
MAIN0
  6
CONTINUOUS
 62
3
100
AcDbCircle
 10
195.8625988376927
 20
270.7196203159534
 30
0.0000000000000000
 40
1.000000000000000
100
AcDbArc
 50
270.0000000005745
 51
299.9999999999912
  0
LINE
  5
3AE
100
AcDbEntity
  8
MAIN0
  6
CONTINUOUS
 62
3
100
AcDbLine
 10
197.1305480301236
 20
293.3046203159534
 30
0.0000000000000000
 11
197.1305480301236
 21
276.3046203159534
 31
0.0000000000000000
  0
LINE
  5
3AF
100
AcDbEntity
  8
MAIN0
  6
CONTINUOUS
 62
3
100
AcDbLine
 10
197.1305480301236
 20
293.3046203159534
 30
0.0000000000000000
 11
198.1305480301236
 21
293.8819705851431
 31
0.0000000000000000
  0
LINE
  5
3B0
100
AcDbEntity
  8
MAIN0
  6
CONTINUOUS
 62
3
100
AcDbLine
 10
197.1305480301236
 20
276.3046203159534
 30
0.0000000000000000
 11
198.1305480301236
 21
275.7272700467638
 31
0.0000000000000000
  0
LINE
  5
3B1
100
AcDbEntity
  8
MAIN0
  6
CONTINUOUS
 62
3
100
AcDbLine
 10
122.7305480301985
 20
297.8046203159532
 30
0.0000000000000000
 11
125.5305480300538
 21
297.8046203159532
 31
0.0000000000000000
  0
LINE
  5
3B2
100
AcDbEntity
  8
MAIN0
  6
CONTINUOUS
 62
3
100
AcDbLine
 10
117.8021343386382
 20
295.8046203159532
 30
0.0000000000000000
 11
122.5305480301984
 21
295.8046203159532
 31
0.0000000000000000
  0
LINE
  5
3B3
100
AcDbEntity
  8
MAIN0
  6
CONTINUOUS
 62
3
100
AcDbLine
 10
125.7305480300538
 20
295.8046203159532
 30
0.0000000000000000
 11
144.5305480300353
 21
295.8046203159532
 31
0.0000000000000000
  0
LINE
  5
3B4
100
AcDbEntity
  8
MAIN0
  6
CONTINUOUS
 62
3
100
AcDbLine
 10
122.7305480301985
 20
271.8046203159532
 30
0.0000000000000000
 11
125.5305480300538
 21
271.8046203159532
 31
0.0000000000000000
  0
LINE
  5
3B5
100
AcDbEntity
  8
MAIN0
  6
CONTINUOUS
 62
3
100
AcDbLine
 10
117.3900774544625
 20
273.8046203159532
 30
0.0000000000000000
 11
122.5305480301979
 21
273.8046203159532
 31
0.0000000000000000
  0
LINE
  5
3B6
100
AcDbEntity
  8
MAIN0
  6
CONTINUOUS
 62
3
100
AcDbLine
 10
125.7305480300538
 20
273.8046203159532
 30
0.0000000000000000
 11
144.5305480300353
 21
273.8046203159532
 31
0.0000000000000000
  0
ELLIPSE
  5
3B7
100
AcDbEntity
  8
MAIN0
  6
CONTINUOUS
 62
3
100
AcDbEllipse
 10
124.1305480301261
 20
296.8046203159532
 30
0.0000000000000000
 11
-1.599999999950001
 21
0.0000000000000000
 31
0.0000000000000000
210
0.0000000000000000
220
0.0000000000000000
230
1.000000000000000
 40
0.6250000000195310
 41
0.0000000000000000
 42
6.283185307179586
  0
ELLIPSE
  5
3B8
100
AcDbEntity
  8
MAIN0
  6
CONTINUOUS
 62
3
100
AcDbEllipse
 10
124.1305480301261
 20
272.8046203159532
 30
0.0000000000000000
 11
1.599999999950001
 21
0.0000000000000000
 31
0.0000000000000000
210
0.0000000000000000
220
0.0000000000000000
230
1.000000000000000
 40
0.6250000000195310
 41
0.0000000000000000
 42
6.283185307179586
  0
ARC
  5
3B9
100
AcDbEntity
  8
MAIN0
  6
CONTINUOUS
 62
3
100
AcDbCircle
 10
122.7305480301985
 20
297.6046203159532
 30
0.0000000000000000
 40
0.2000000000000000
100
AcDbArc
 50
90.00000000000000
 51
180.0000000000000
  0
ARC
  5
3BA
100
AcDbEntity
  8
MAIN0
  6
CONTINUOUS
 62
3
100
AcDbCircle
 10
125.5305480300538
 20
297.6046203159532
 30
0.0000000000000000
 40
0.2000000000000000
100
AcDbArc
 50
0.0000000000000000
 51
90.00000000000000
  0
ARC
  5
3BB
100
AcDbEntity
  8
MAIN0
  6
CONTINUOUS
 62
3
100
AcDbCircle
 10
122.7305480301985
 20
272.0046203159532
 30
0.0000000000000000
 40
0.2000000000000000
100
AcDbArc
 50
180.0000000000000
 51
270.0000000000000
  0
ARC
  5
3BC
100
AcDbEntity
  8
MAIN0
  6
CONTINUOUS
 62
3
100
AcDbCircle
 10
125.5305480300538
 20
272.0046203159532
 30
0.0000000000000000
 40
0.2000000000000000
100
AcDbArc
 50
270.0000000000000
 51
360.0000000000000
  0
LINE
  5
3BD
100
AcDbEntity
  8
MAIN0
  6
CONTINUOUS
 62
3
100
AcDbLine
 10
122.5305480301984
 20
272.0046203159532
 30
0.0000000000000000
 11
122.5305480301984
 21
273.8046203159532
 31
0.0000000000000000
  0
LINE
  5
3BE
100
AcDbEntity
  8
MAIN0
  6
CONTINUOUS
 62
3
100
AcDbLine
 10
122.5305480301984
 20
295.8046203159532
 30
0.0000000000000000
 11
122.5305480301984
 21
297.6046203159532
 31
0.0000000000000000
  0
LINE
  5
3BF
100
AcDbEntity
  8
MAIN0
  6
CONTINUOUS
 62
3
100
AcDbLine
 10
125.7305480300538
 20
272.0046203159532
 30
0.0000000000000000
 11
125.7305480300538
 21
273.8046203159532
 31
0.0000000000000000
  0
LINE
  5
3C0
100
AcDbEntity
  8
MAIN0
  6
CONTINUOUS
 62
3
100
AcDbLine
 10
125.7305480300538
 20
295.8046203159532
 30
0.0000000000000000
 11
125.7305480300538
 21
297.6046203159532
 31
0.0000000000000000
  0
LINE
  5
3C1
100
AcDbEntity
  8
MAIN0
  6
CONTINUOUS
 62
3
100
AcDbLine
 10
209.6805480301122
 20
254.8046203159532
 30
0.0000000000000000
 11
210.6805480301122
 21
254.8046203159532
 31
0.0000000000000000
  0
LINE
  5
3C2
100
AcDbEntity
  8
MAIN0
  6
CONTINUOUS
 62
3
100
AcDbLine
 10
210.6805480301122
 20
254.8046203159535
 30
0.0000000000000000
 11
210.6805480301122
 21
305.8046203159530
 31
0.0000000000000000
  0
LINE
  5
3C3
100
AcDbEntity
  8
MAIN0
  6
CONTINUOUS
 62
3
100
AcDbLine
 10
209.6805480301122
 20
305.8046203159530
 30
0.0000000000000000
 11
210.6805480301122
 21
305.8046203159530
 31
0.0000000000000000
  0
LINE
  5
3C4
100
AcDbEntity
  8
MAIN0
  6
CONTINUOUS
 62
3
100
AcDbLine
 10
209.6805480301122
 20
258.3046203159532
 30
0.0000000000000000
 11
210.6805480301122
 21
258.3046203159532
 31
0.0000000000000000
  0
LINE
  5
3C5
100
AcDbEntity
  8
MAIN0
  6
CONTINUOUS
 62
3
100
AcDbLine
 10
209.6805480301122
 20
267.3046203159532
 30
0.0000000000000000
 11
210.6805480301122
 21
267.3046203159532
 31
0.0000000000000000
  0
ARC
  5
3C6
100
AcDbEntity
  8
MAIN0
  6
CONTINUOUS
 62
3
100
AcDbCircle
 10
210.6805480301123
 20
264.7546203159532
 30
0.0000000000000000
 40
3.300000000000000
100
AcDbArc
 50
0.0000000000000000
 51
89.99999999999639
  0
LINE
  5
3C7
100
AcDbEntity
  8
MAIN0
  6
CONTINUOUS
 62
3
100
AcDbLine
 10
213.9805480301120
 20
260.8546203159530
 30
0.0000000000000000
 11
213.9805480301123
 21
264.7546203159530
 31
0.0000000000000000
  0
ARC
  5
3C8
100
AcDbEntity
  8
MAIN0
  6
CONTINUOUS
 62
3
100
AcDbCircle
 10
210.6805480301121
 20
260.8546203159532
 30
0.0000000000000000
 40
3.300000000000001
100
AcDbArc
 50
269.9999999999928
 51
359.9999999999934
  0
LINE
  5
3C9
100
AcDbEntity
  8
MAIN0
  6
CONTINUOUS
 62
3
100
AcDbLine
 10
210.6805480301122
 20
259.8046203159532
 30
0.0000000000000000
 11
200.6805480301120
 21
259.8046203159539
 31
0.0000000000000000
  0
LINE
  5
3CA
100
AcDbEntity
  8
MAIN0
  6
CONTINUOUS
 62
3
100
AcDbLine
 10
210.6805480301122
 20
260.3458863159532
 30
0.0000000000000000
 11
200.6805480301120
 21
260.3458863159539
 31
0.0000000000000000
  0
LINE
  5
3CB
100
AcDbEntity
  8
MAIN0
  6
CONTINUOUS
 62
3
100
AcDbLine
 10
200.6805480301120
 20
259.8046203159539
 30
0.0000000000000000
 11
200.6805480301124
 21
265.8046203159539
 31
0.0000000000000000
  0
LINE
  5
3CC
100
AcDbEntity
  8
MAIN0
  6
CONTINUOUS
 62
3
100
AcDbLine
 10
210.6805480301122
 20
265.2633543159532
 30
0.0000000000000000
 11
200.6805480301123
 21
265.2633543159539
 31
0.0000000000000000
  0
LINE
  5
3CD
100
AcDbEntity
  8
MAIN0
  6
CONTINUOUS
 62
3
100
AcDbLine
 10
200.6805480301124
 20
265.8046203159539
 30
0.0000000000000000
 11
210.6805480301122
 21
265.8046203159532
 31
0.0000000000000000
  0
LINE
  5
3CE
100
AcDbEntity
  8
MAIN0
  6
CONTINUOUS
 62
3
100
AcDbLine
 10
209.6805480301122
 20
254.8046203159532
 30
0.0000000000000000
 11
209.6805480301122
 21
259.8046203159533
 31
0.0000000000000000
  0
LINE
  5
3CF
100
AcDbEntity
  8
MAIN0
  6
CONTINUOUS
 62
3
100
AcDbLine
 10
209.6805480301122
 20
265.8046203159533
 30
0.0000000000000000
 11
209.6805480301122
 21
305.8046203159530
 31
0.0000000000000000
  0
LINE
  5
3D0
100
AcDbEntity
  8
MAIN0
  6
CENTER
 62
12
100
AcDbLine
 10
195.5312577757210
 20
262.8046203159532
 30
0.0000000000000000
 11
215.4503332339960
 21
262.8046203159532
 31
0.0000000000000000
  0
LINE
  5
3D1
100
AcDbEntity
  8
MAIN0
  6
CONTINUOUS
 62
3
100
AcDbLine
 10
136.6805480301119
 20
181.8046203159661
 30
0.0000000000000000
 11
136.6805480301119
 21
201.8046203159783
 31
0.0000000000000000
  0
LINE
  5
3D2
100
AcDbEntity
  8
MAIN0
  6
CONTINUOUS
 62
3
100
AcDbLine
 10
106.6805480301119
 20
181.8046203159618
 30
0.0000000000000000
 11
106.6805480301119
 21
201.8046203159783
 31
0.0000000000000000
  0
LINE
  5
3D3
100
AcDbEntity
  8
MAIN0
  6
CONTINUOUS
 62
3
100
AcDbLine
 10
106.6805480301118
 20
201.8046203159784
 30
0.0000000000000000
 11
136.6805480301118
 21
201.8046203159783
 31
0.0000000000000000
  0
LINE
  5
3D4
100
AcDbEntity
  8
MAIN0
  6
CONTINUOUS
 62
3
100
AcDbLine
 10
106.6805480301118
 20
181.8046203159618
 30
0.0000000000000000
 11
136.6805480301118
 21
181.8046203159661
 31
0.0000000000000000
  0
LINE
  5
3D5
100
AcDbEntity
  8
MAIN0
  6
CENTER
 62
3
100
AcDbLine
 10
121.6805480300143
 20
175.7925479573357
 30
0.0000000000000000
 11
121.6805480300143
 21
201.1817046043060
 31
0.0000000000000000
  0
LINE
  5
3D6
100
AcDbEntity
  8
MAIN0
  6
HIDDEN
 62
3
100
AcDbLine
 10
115.1020480300142
 20
181.8046203159640
 30
0.0000000000000000
 11
115.3957980300142
 21
191.2046203159640
 31
0.0000000000000000
  0
LINE
  5
3D7
100
AcDbEntity
  8
MAIN0
  6
HIDDEN
 62
3
100
AcDbLine
 10
115.3957980300143
 20
191.2046203159640
 30
0.0000000000000000
 11
127.9652980300143
 21
191.2046203159640
 31
0.0000000000000000
  0
LINE
  5
3D8
100
AcDbEntity
  8
MAIN0
  6
HIDDEN
 62
3
100
AcDbLine
 10
127.9652980300142
 20
191.2046203159640
 30
0.0000000000000000
 11
128.2590480300142
 21
181.8046203159639
 31
0.0000000000000000
  0
LINE
  5
3D9
100
AcDbEntity
  8
MAIN0
  6
HIDDEN
 62
3
100
AcDbLine
 10
115.9580480300142
 20
181.8046203159640
 30
0.0000000000000000
 11
116.2517980300142
 21
191.2046203159640
 31
0.0000000000000000
  0
LINE
  5
3DA
100
AcDbEntity
  8
MAIN0
  6
HIDDEN
 62
3
100
AcDbLine
 10
127.4030480300142
 20
181.8046203159639
 30
0.0000000000000000
 11
127.1092980300142
 21
191.2046203159640
 31
0.0000000000000000
  0
LINE
  5
3DB
100
AcDbEntity
  8
MAIN0
  6
CENTER
 62
3
100
AcDbLine
 10
98.13742077481209
 20
194.3046203159535
 30
0.0000000000000000
 11
124.5922588294989
 21
194.3046203159535
 31
0.0000000000000000
  0
CIRCLE
  5
3DC
100
AcDbEntity
  8
MAIN0
  6
CONTINUOUS
 62
3
100
AcDbCircle
 10
434.6805480301122
 20
284.8046203159532
 30
0.0000000000000000
 40
82.24999999999994
  0
ARC
  5
3DD
100
AcDbEntity
  8
MAIN0
  6
CENTER
 62
3
100
AcDbCircle
 10
434.6805480301122
 20
284.8046203159532
 30
0.0000000000000000
 40
92.50000000000000
100
AcDbArc
 50
294.9333262012172
 51
605.6949408125853
  0
CIRCLE
  5
3DE
100
AcDbEntity
  8
MAIN0
  6
CONTINUOUS
 62
3
100
AcDbCircle
 10
500.0879252898932
 20
350.2119975756835
 30
0.0000000000000000
 40
5.500000000000000
  0
LINE
  5
3DF
100
AcDbEntity
  8
MAIN0
  6
CENTER
 62
3
100
AcDbLine
 10
382.7916703411359
 20
194.9304478109201
 30
0.0000000000000000
 11
392.6729710737137
 21
212.0453627246122
 31
0.0000000000000000
  0
LINE
  5
3E0
100
AcDbEntity
  8
MAIN0
  6
CENTER
 62
3
100
AcDbLine
 10
477.0744172045538
 20
358.2329556555135
 30
0.0000000000000000
 11
484.6435945622106
 21
371.3431554104750
 31
0.0000000000000000
  0
CIRCLE
  5
3E1
100
AcDbEntity
  8
MAIN0
  6
CONTINUOUS
 62
3
100
AcDbCircle
 10
369.2731707703819
 20
350.2119975757341
 30
0.0000000000000000
 40
5.500000000000000
  0
LINE
  5
3E2
100
AcDbEntity
  8
MAIN0
  6
CENTER
 62
3
100
AcDbLine
 10
375.3848497804632
 20
225.5089220663505
 30
0.0000000000000000
 11
362.2378392981849
 21
212.3619115840823
 31
0.0000000000000000
  0
CIRCLE
  5
3E3
100
AcDbEntity
  8
MAIN0
  6
CONTINUOUS
 62
3
100
AcDbCircle
 10
369.2731707703312
 20
219.3972430562230
 30
0.0000000000000000
 40
5.500000000000000
  0
LINE
  5
3E4
100
AcDbEntity
  8
MAIN0
  6
CENTER
 62
3
100
AcDbLine
 10
493.9762462797150
 20
225.5089220663044
 30
0.0000000000000000
 11
507.1232567619832
 21
212.3619115840261
 31
0.0000000000000000
  0
CIRCLE
  5
3E5
100
AcDbEntity
  8
MAIN0
  6
CONTINUOUS
 62
3
100
AcDbCircle
 10
500.0879252898425
 20
219.3972430561722
 30
0.0000000000000000
 40
5.500000000000000
  0
LINE
  5
3E6
100
AcDbEntity
  8
MAIN0
  6
CENTER
 62
3
100
AcDbLine
 10
486.1180859980335
 20
195.7121911392593
 30
0.0000000000000000
 11
476.6881249865099
 21
212.0453627246118
 31
0.0000000000000000
  0
CIRCLE
  5
3E7
100
AcDbEntity
  8
MAIN0
  6
CONTINUOUS
 62
3
100
AcDbCircle
 10
480.9305480301117
 20
204.6972704658924
 30
0.0000000000000000
 40
5.000000000000000
  0
LINE
  5
3E8
100
AcDbEntity
  8
MAIN0
  6
CENTER
 62
3
100
AcDbLine
 10
392.8302209838844
 20
357.2915130733944
 30
0.0000000000000000
 11
384.3382894532483
 21
371.9999699388522
 31
0.0000000000000000
  0
CIRCLE
  5
3E9
100
AcDbEntity
  8
MAIN0
  6
CONTINUOUS
 62
3
100
AcDbCircle
 10
388.4305480301125
 20
364.9119701660139
 30
0.0000000000000000
 40
5.000000000000000
  0
CIRCLE
  5
3EA
100
AcDbEntity
  8
MAIN0
  6
CONTINUOUS
 62
3
100
AcDbCircle
 10
388.4305480301125
 20
364.9119701660139
 30
0.0000000000000000
 40
4.250000000000000
  0
CIRCLE
  5
3EB
100
AcDbEntity
  8
MAIN0
  6
CONTINUOUS
 62
3
100
AcDbCircle
 10
480.9305480301117
 20
204.6972704658924
 30
0.0000000000000000
 40
4.250000000000000
  0
CIRCLE
  5
3EC
100
AcDbEntity
  8
MAIN0
  6
CONTINUOUS
 62
3
100
AcDbCircle
 10
527.1805480301122
 20
284.8046203159527
 30
0.0000000000000000
 40
5.000000000000000
  0
CIRCLE
  5
3ED
100
AcDbEntity
  8
MAIN0
  6
CONTINUOUS
 62
3
100
AcDbCircle
 10
342.1805480301122
 20
284.8046203159536
 30
0.0000000000000000
 40
5.000000000000000
  0
CIRCLE
  5
3EE
100
AcDbEntity
  8
MAIN0
  6
CONTINUOUS
 62
3
100
AcDbCircle
 10
342.1805480301122
 20
284.8046203159536
 30
0.0000000000000000
 40
4.250000000000000
  0
CIRCLE
  5
3EF
100
AcDbEntity
  8
MAIN0
  6
CONTINUOUS
 62
3
100
AcDbCircle
 10
527.1805480301122
 20
284.8046203159527
 30
0.0000000000000000
 40
4.250000000000000
  0
CIRCLE
  5
3F0
100
AcDbEntity
  8
MAIN0
  6
CONTINUOUS
 62
3
100
AcDbCircle
 10
480.9305480301125
 20
364.9119701660136
 30
0.0000000000000000
 40
5.000000000000000
  0
CIRCLE
  5
3F1
100
AcDbEntity
  8
MAIN0
  6
CONTINUOUS
 62
3
100
AcDbCircle
 10
480.9305480301125
 20
364.9119701660136
 30
0.0000000000000000
 40
4.250000000000000
  0
CIRCLE
  5
3F2
100
AcDbEntity
  8
MAIN0
  6
CONTINUOUS
 62
3
100
AcDbCircle
 10
388.4305480301118
 20
204.6972704658929
 30
0.0000000000000000
 40
5.000000000000000
  0
CIRCLE
  5
3F3
100
AcDbEntity
  8
MAIN0
  6
CONTINUOUS
 62
3
100
AcDbCircle
 10
388.4305480301118
 20
204.6972704658929
 30
0.0000000000000000
 40
4.250000000000000
  0
CIRCLE
  5
3F4
100
AcDbEntity
  8
MAIN0
  6
HIDDEN
 62
3
100
AcDbCircle
 10
411.1805480301132
 20
229.5981895311248
 30
0.0000000000000000
 40
4.864000000000000
  0
CIRCLE
  5
3F5
100
AcDbEntity
  8
MAIN0
  6
HIDDEN
 62
3
100
AcDbCircle
 10
411.1805480301132
 20
229.5981895311248
 30
0.0000000000000000
 40
4.283000000000000
  0
LINE
  5
3F6
100
AcDbEntity
  8
MAIN0
  6
CENTER
 62
3
100
AcDbLine
 10
494.0324651357749
 20
344.1565374215699
 30
0.0000000000000000
 11
505.8245411596042
 21
355.9486134453902
 31
0.0000000000000000
  0
LINE
  5
3F7
100
AcDbEntity
  8
MAIN0
  6
CENTER
 62
3
100
AcDbLine
 10
375.1380478542505
 20
344.3471204918612
 30
0.0000000000000000
 11
363.5952536344377
 21
355.8899147116830
 31
0.0000000000000000
  0
ARC
  5
3F8
100
AcDbEntity
  8
MAIN0
  6
CENTER
 62
3
100
AcDbCircle
 10
434.6805480301122
 20
284.8046203159532
 30
0.0000000000000000
 40
60.00000000000000
100
AcDbArc
 50
239.7442292306182
 51
260.9378869688861
  0
LINE
  5
3F9
100
AcDbEntity
  8
MAIN0
  6
CENTER
 62
3
100
AcDbLine
 10
462.6805480301117
 20
251.2077454612911
 30
0.0000000000000000
 11
453.6805480301117
 21
251.2077454612911
 31
0.0000000000000000
  0
CIRCLE
  5
3FA
100
AcDbEntity
  8
MAIN0
  6
HIDDEN
 62
3
100
AcDbCircle
 10
458.1805480301110
 20
229.5981895311248
 30
0.0000000000000000
 40
4.864000000000000
  0
CIRCLE
  5
3FB
100
AcDbEntity
  8
MAIN0
  6
HIDDEN
 62
3
100
AcDbCircle
 10
458.1805480301110
 20
229.5981895311248
 30
0.0000000000000000
 40
4.283000000000000
  0
LINE
  5
3FC
100
AcDbEntity
  8
MAIN0
  6
CENTER
 62
3
100
AcDbLine
 10
403.0397965168230
 20
229.5981895311249
 30
0.0000000000000000
 11
466.3212995434013
 21
229.5981895311249
 31
0.0000000000000000
  0
CIRCLE
  5
3FD
100
AcDbEntity
  8
MAIN0
  6
CONTINUOUS
 62
3
100
AcDbCircle
 10
354.5731981800522
 20
331.0546203159541
 30
0.0000000000000000
 40
5.000000000000000
  0
CIRCLE
  5
3FE
100
AcDbEntity
  8
MAIN0
  6
CONTINUOUS
 62
3
100
AcDbCircle
 10
514.7878978801720
 20
238.5546203159520
 30
0.0000000000000000
 40
5.000000000000000
  0
ARC
  5
3FF
100
AcDbEntity
  8
MAIN0
  6
CENTER
 62
3
100
AcDbCircle
 10
434.6805480301122
 20
284.8046203159532
 30
0.0000000000000000
 40
41.00000000000000
100
AcDbArc
 50
294.0003728948692
 51
316.1883825985094
  0
CIRCLE
  5
400
100
AcDbEntity
  8
MAIN0
  6
HIDDEN
 62
3
100
AcDbCircle
 10
458.1805480301123
 20
251.2077454612886
 30
0.0000000000000000
 40
3.100000000000000
  0
ARC
  5
401
100
AcDbEntity
  8
MAIN0
  6
CONTINUOUS
 62
3
100
AcDbCircle
 10
434.6805480301122
 20
284.8046203159532
 30
0.0000000000000000
 40
101.5000000000000
100
AcDbArc
 50
293.2091488561660
 51
606.7908511438689
  0
LINE
  5
402
100
AcDbEntity
  8
MAIN0
  6
CENTER
 62
3
100
AcDbLine
 10
458.1805480301007
 20
178.5667089747749
 30
0.0000000000000000
 11
458.1805480301123
 21
266.4994368221405
 31
0.0000000000000000
  0
LINE
  5
403
100
AcDbEntity
  8
MAIN0
  6
CENTER
 62
3
100
AcDbLine
 10
411.1805480301009
 20
178.5667089747821
 30
0.0000000000000000
 11
411.1805480301135
 21
250.4049223809554
 31
0.0000000000000000
  0
LINE
  5
404
100
AcDbEntity
  8
MAIN0
  6
CONTINUOUS
 62
3
100
AcDbLine
 10
394.6805480301371
 20
201.8046203159531
 30
0.0000000000000000
 11
474.6805480301371
 21
201.8046203159531
 31
0.0000000000000000
  0
LINE
  5
405
100
AcDbEntity
  8
MAIN0
  6
CONTINUOUS
 62
3
100
AcDbLine
 10
394.6805480301438
 20
181.8046203159531
 30
0.0000000000000000
 11
474.6805480301438
 21
181.8046203159531
 31
0.0000000000000000
  0
LINE
  5
406
100
AcDbEntity
  8
MAIN0
  6
CONTINUOUS
 62
3
100
AcDbLine
 10
474.6805480301438
 20
181.8046203159531
 30
0.0000000000000000
 11
474.6805480301371
 21
201.8046203159531
 31
0.0000000000000000
  0
CIRCLE
  5
407
100
AcDbEntity
  8
MAIN0
  6
HIDDEN
 62
3
100
AcDbCircle
 10
411.1805480301004
 20
194.3046203159531
 30
0.0000000000000000
 40
2.500000000000000
  0
CIRCLE
  5
408
100
AcDbEntity
  8
MAIN0
  6
CONTINUOUS
 62
3
100
AcDbCircle
 10
423.6805480301003
 20
194.3046203159531
 30
0.0000000000000000
 40
5.500000000000000
  0
LINE
  5
409
100
AcDbEntity
  8
MAIN0
  6
HIDDEN
 62
3
100
AcDbLine
 10
404.6020480301004
 20
181.8046203159532
 30
0.0000000000000000
 11
404.8957980301004
 21
191.2046203159532
 31
0.0000000000000000
  0
LINE
  5
40A
100
AcDbEntity
  8
MAIN0
  6
HIDDEN
 62
3
100
AcDbLine
 10
404.8957980301004
 20
191.2046203159532
 30
0.0000000000000000
 11
417.4652980301004
 21
191.2046203159532
 31
0.0000000000000000
  0
LINE
  5
40B
100
AcDbEntity
  8
MAIN0
  6
HIDDEN
 62
3
100
AcDbLine
 10
417.4652980301004
 20
191.2046203159532
 30
0.0000000000000000
 11
417.7590480301004
 21
181.8046203159531
 31
0.0000000000000000
  0
LINE
  5
40C
100
AcDbEntity
  8
MAIN0
  6
HIDDEN
 62
3
100
AcDbLine
 10
405.4580480301004
 20
181.8046203159532
 30
0.0000000000000000
 11
405.7517980301004
 21
191.2046203159532
 31
0.0000000000000000
  0
LINE
  5
40D
100
AcDbEntity
  8
MAIN0
  6
HIDDEN
 62
3
100
AcDbLine
 10
416.9030480301004
 20
181.8046203159531
 30
0.0000000000000000
 11
416.6092980301004
 21
191.2046203159532
 31
0.0000000000000000
  0
CIRCLE
  5
40E
100
AcDbEntity
  8
MAIN0
  6
HIDDEN
 62
3
100
AcDbCircle
 10
458.1805480301003
 20
194.3046203159531
 30
0.0000000000000000
 40
2.500000000000000
  0
CIRCLE
  5
40F
100
AcDbEntity
  8
MAIN0
  6
CONTINUOUS
 62
3
100
AcDbCircle
 10
445.6805480301003
 20
194.3046203159531
 30
0.0000000000000000
 40
5.500000000000000
  0
LINE
  5
410
100
AcDbEntity
  8
MAIN0
  6
HIDDEN
 62
3
100
AcDbLine
 10
464.7590480301004
 20
181.8046203159531
 30
0.0000000000000000
 11
464.4652980301004
 21
191.2046203159531
 31
0.0000000000000000
  0
LINE
  5
411
100
AcDbEntity
  8
MAIN0
  6
HIDDEN
 62
3
100
AcDbLine
 10
464.4652980301004
 20
191.2046203159532
 30
0.0000000000000000
 11
451.8957980301004
 21
191.2046203159532
 31
0.0000000000000000
  0
LINE
  5
412
100
AcDbEntity
  8
MAIN0
  6
HIDDEN
 62
3
100
AcDbLine
 10
451.8957980301004
 20
191.2046203159532
 30
0.0000000000000000
 11
451.6020480301004
 21
181.8046203159531
 31
0.0000000000000000
  0
LINE
  5
413
100
AcDbEntity
  8
MAIN0
  6
HIDDEN
 62
3
100
AcDbLine
 10
463.9030480301004
 20
181.8046203159531
 30
0.0000000000000000
 11
463.6092980301004
 21
191.2046203159531
 31
0.0000000000000000
  0
LINE
  5
414
100
AcDbEntity
  8
MAIN0
  6
HIDDEN
 62
3
100
AcDbLine
 10
452.4580480301005
 20
181.8046203159531
 30
0.0000000000000000
 11
452.7517980301005
 21
191.2046203159532
 31
0.0000000000000000
  0
CIRCLE
  5
415
100
AcDbEntity
  8
MAIN0
  6
HIDDEN
 62
3
100
AcDbCircle
 10
434.6805480301003
 20
194.3046203159531
 30
0.0000000000000000
 40
2.500000000000000
  0
LINE
  5
416
100
AcDbEntity
  8
MAIN0
  6
HIDDEN
 62
3
100
AcDbLine
 10
429.8165480301003
 20
181.8046203159531
 30
0.0000000000000000
 11
430.0102980301003
 21
188.0046203159531
 31
0.0000000000000000
  0
LINE
  5
417
100
AcDbEntity
  8
MAIN0
  6
HIDDEN
 62
3
100
AcDbLine
 10
430.0102980301004
 20
188.0046203159531
 30
0.0000000000000000
 11
439.3507980301005
 21
188.0046203159531
 31
0.0000000000000000
  0
LINE
  5
418
100
AcDbEntity
  8
MAIN0
  6
HIDDEN
 62
3
100
AcDbLine
 10
439.3507980301005
 20
188.0046203159531
 30
0.0000000000000000
 11
439.5445480301005
 21
181.8046203159532
 31
0.0000000000000000
  0
LINE
  5
419
100
AcDbEntity
  8
MAIN0
  6
HIDDEN
 62
3
100
AcDbLine
 10
430.3975480301004
 20
181.8046203159531
 30
0.0000000000000000
 11
430.5912980301004
 21
188.0046203159532
 31
0.0000000000000000
  0
LINE
  5
41A
100
AcDbEntity
  8
MAIN0
  6
HIDDEN
 62
3
100
AcDbLine
 10
438.9635480301005
 20
181.8046203159532
 30
0.0000000000000000
 11
438.7697980301005
 21
188.0046203159531
 31
0.0000000000000000
  0
LINE
  5
41B
100
AcDbEntity
  8
MAIN0
  6
CONTINUOUS
 62
3
100
AcDbLine
 10
394.6805480301437
 20
181.8046203159531
 30
0.0000000000000000
 11
394.6805480301370
 21
201.8046203159531
 31
0.0000000000000000
  0
LINE
  5
41C
100
AcDbEntity
  8
MAIN0
  6
CENTER
 62
3
100
AcDbLine
 10
445.6805480301003
 20
186.8046203159531
 30
0.0000000000000000
 11
445.6805480301003
 21
201.8046203159531
 31
0.0000000000000000
  0
LINE
  5
41D
100
AcDbEntity
  8
MAIN0
  6
CENTER
 62
3
100
AcDbLine
 10
423.6805480301003
 20
186.8046203159531
 30
0.0000000000000000
 11
423.6805480301003
 21
201.8046203159531
 31
0.0000000000000000
  0
LINE
  5
41E
100
AcDbEntity
  8
MAIN0
  6
CENTER
 62
3
100
AcDbLine
 10
406.2929917204356
 20
194.3046203159531
 30
0.0000000000000000
 11
462.2216871975318
 21
194.3046203159530
 31
0.0000000000000000
  0
LINE
  5
41F
100
AcDbEntity
  8
MAIN0
  6
CONTINUOUS
 62
3
100
AcDbLine
 10
106.0805480301137
 20
386.3046203159534
 30
0.0000000000000000
 11
92.28054803011372
 21
386.3046203159535
 31
0.0000000000000000
  0
LINE
  5
420
100
AcDbEntity
  8
MAIN0
  6
CENTER
 62
3
100
AcDbLine
 10
87.97744160734098
 20
377.3046203159535
 30
0.0000000000000000
 11
110.1270525937985
 21
377.3046203159535
 31
0.0000000000000000
  0
LINE
  5
421
100
AcDbEntity
  8
MAIN0
  6
CONTINUOUS
 62
3
100
AcDbLine
 10
106.0805480301116
 20
183.3046203159535
 30
0.0000000000000000
 11
92.28054803011257
 21
183.3046203159536
 31
0.0000000000000000
  0
LINE
  5
422
100
AcDbEntity
  8
MAIN0
  6
CONTINUOUS
 62
3
100
AcDbLine
 10
106.0805480301117
 20
183.3046203159535
 30
0.0000000000000000
 11
106.6805480301117
 21
183.9046203159534
 31
0.0000000000000000
  0
LINE
  5
423
100
AcDbEntity
  8
MAIN0
  6
CONTINUOUS
 62
3
100
AcDbLine
 10
92.28054803011254
 20
183.3046203159536
 30
0.0000000000000000
 11
91.68054803011252
 21
183.9046203159536
 31
0.0000000000000000
  0
LINE
  5
424
100
AcDbEntity
  8
MAIN0
  6
CONTINUOUS
 62
3
100
AcDbLine
 10
91.68054803011374
 20
385.7046203159535
 30
0.0000000000000000
 11
92.28054803011374
 21
386.3046203159535
 31
0.0000000000000000
  0
LINE
  5
425
100
AcDbEntity
  8
MAIN0
  6
CONTINUOUS
 62
3
100
AcDbLine
 10
106.0805480301136
 20
386.3046203159535
 30
0.0000000000000000
 11
106.6805480301137
 21
385.7046203159534
 31
0.0000000000000000
  0
LINE
  5
426
100
AcDbEntity
  8
MAIN0
  6
CONTINUOUS
 62
3
100
AcDbLine
 10
92.08054803011368
 20
382.8046203159535
 30
0.0000000000000000
 11
106.2805480301136
 21
382.8046203159535
 31
0.0000000000000000
  0
LINE
  5
427
100
AcDbEntity
  8
MAIN0
  6
CONTINUOUS
 62
3
100
AcDbLine
 10
92.08054803011362
 20
371.8046203159535
 30
0.0000000000000000
 11
106.2805480301135
 21
371.8046203159535
 31
0.0000000000000000
  0
LINE
  5
428
100
AcDbEntity
  8
MAIN0
  6
CONTINUOUS
 62
3
100
AcDbLine
 10
92.08054803011370
 20
382.8046203159535
 30
0.0000000000000000
 11
91.68054803011368
 21
383.2046203159535
 31
0.0000000000000000
  0
LINE
  5
429
100
AcDbEntity
  8
MAIN0
  6
CONTINUOUS
 62
3
100
AcDbLine
 10
92.08054803011365
 20
371.8046203159535
 30
0.0000000000000000
 11
91.68054803011367
 21
371.4046203159535
 31
0.0000000000000000
  0
LINE
  5
42A
100
AcDbEntity
  8
MAIN0
  6
CONTINUOUS
 62
3
100
AcDbLine
 10
106.2805480301135
 20
371.8046203159535
 30
0.0000000000000000
 11
106.6805480301135
 21
371.4046203159534
 31
0.0000000000000000
  0
LINE
  5
42B
100
AcDbEntity
  8
MAIN0
  6
CONTINUOUS
 62
3
100
AcDbLine
 10
106.2805480301137
 20
382.8046203159535
 30
0.0000000000000000
 11
106.6805480301136
 21
383.2046203159535
 31
0.0000000000000000
  0
LINE
  5
42C
100
AcDbEntity
  8
MAIN0
  6
CONTINUOUS
 62
3
100
AcDbLine
 10
109.1805480301131
 20
279.3046203159533
 30
0.0000000000000000
 11
109.1805480301131
 21
290.3046203159533
 31
0.0000000000000000
  0
LINE
  5
42D
100
AcDbEntity
  8
MAIN0
  6
CONTINUOUS
 62
3
100
AcDbLine
 10
134.1805480301131
 20
274.3819705851362
 30
0.0000000000000000
 11
134.1805480301131
 21
295.2272700467698
 31
0.0000000000000000
  0
LINE
  5
42E
100
AcDbEntity
  8
MAIN0
  6
CONTINUOUS
 62
3
100
AcDbLine
 10
133.1805480301252
 20
291.3046203159530
 30
0.0000000000000000
 11
110.1805480301132
 21
291.3046203159533
 31
0.0000000000000000
  0
LINE
  5
42F
100
AcDbEntity
  8
MAIN0
  6
CONTINUOUS
 62
3
100
AcDbLine
 10
133.1805480301131
 20
278.3046203159530
 30
0.0000000000000000
 11
110.1805480301131
 21
278.3046203159533
 31
0.0000000000000000
  0
LINE
  5
430
100
AcDbEntity
  8
MAIN0
  6
CENTER
 62
3
100
AcDbLine
 10
100.1805480301126
 20
276.9808151402960
 30
0.0000000000000000
 11
100.1805480301126
 21
285.8065053525103
 31
0.0000000000000000
  0
LINE
  5
431
100
AcDbEntity
  8
MAIN0
  6
CONTINUOUS
 62
3
100
AcDbLine
 10
97.08054803011132
 20
280.1093703159532
 30
0.0000000000000000
 11
97.08054803011130
 21
277.1560256006425
 31
0.0000000000000000
  0
LINE
  5
432
100
AcDbEntity
  8
MAIN0
  6
CONTINUOUS
 62
3
100
AcDbLine
 10
103.2805480301120
 20
280.7046203159534
 30
0.0000000000000000
 11
103.2805480301119
 21
276.2247238142244
 31
0.0000000000000000
  0
LINE
  5
433
100
AcDbEntity
  8
MAIN0
  6
CONTINUOUS
 62
3
100
AcDbLine
 10
117.8021343386385
 20
295.8046203159535
 30
0.0000000000000000
 11
133.1805480301132
 21
295.8046203159534
 31
0.0000000000000000
  0
LINE
  5
434
100
AcDbEntity
  8
MAIN0
  6
CONTINUOUS
 62
3
100
AcDbLine
 10
117.3889452585732
 20
273.8046203159535
 30
0.0000000000000000
 11
133.1805480301131
 21
273.8046203159535
 31
0.0000000000000000
  0
LINE
  5
435
100
AcDbEntity
  8
MAIN0
  6
CONTINUOUS
 62
3
100
AcDbLine
 10
133.1805480301252
 20
273.8046203159535
 30
0.0000000000000000
 11
134.1805480301132
 21
274.3819705851362
 31
0.0000000000000000
  0
LINE
  5
436
100
AcDbEntity
  8
MAIN0
  6
CONTINUOUS
 62
3
100
AcDbLine
 10
133.1805480301254
 20
295.8046203159526
 30
0.0000000000000000
 11
134.1805480301133
 21
295.2272700467698
 31
0.0000000000000000
  0
LINE
  5
437
100
AcDbEntity
  8
MAIN0
  6
HIDDEN
 62
3
100
AcDbLine
 10
91.68054803011273
 20
237.3046203159536
 30
0.0000000000000000
 11
92.18054803011276
 21
238.2651113794379
 31
0.0000000000000000
  0
LINE
  5
438
100
AcDbEntity
  8
MAIN0
  6
HIDDEN
 62
3
100
AcDbLine
 10
91.68054803011395
 20
332.3046203159536
 30
0.0000000000000000
 11
92.18054803011344
 21
331.3441292524702
 31
0.0000000000000000
  0
LINE
  5
439
100
AcDbEntity
  8
MAIN0
  6
CONTINUOUS
 62
3
100
AcDbLine
 10
92.68054803011287
 20
289.6373703159537
 30
0.0000000000000000
 11
97.88054803011282
 21
289.4748703159538
 31
0.0000000000000000
  0
LINE
  5
43A
100
AcDbEntity
  8
MAIN0
  6
CONTINUOUS
 62
3
100
AcDbLine
 10
92.68054803011300
 20
289.0563703159534
 30
0.0000000000000000
 11
97.88054803011295
 21
288.8938703159534
 31
0.0000000000000000
  0
LINE
  5
43B
100
AcDbEntity
  8
MAIN0
  6
CONTINUOUS
 62
3
100
AcDbLine
 10
92.68054803011285
 20
291.8046203159363
 30
0.0000000000000000
 11
92.68054803011285
 21
277.8046203159363
 31
0.0000000000000000
  0
LINE
  5
43C
100
AcDbEntity
  8
MAIN0
  6
CONTINUOUS
 62
3
100
AcDbLine
 10
92.18054803011292
 20
291.8046203159535
 30
0.0000000000000000
 11
92.68054803012338
 21
291.8046203159535
 31
0.0000000000000000
  0
LINE
  5
43D
100
AcDbEntity
  8
MAIN0
  6
CONTINUOUS
 62
3
100
AcDbLine
 10
92.18054803011295
 20
277.8046203159534
 30
0.0000000000000000
 11
92.68054803012340
 21
277.8046203159534
 31
0.0000000000000000
  0
LINE
  5
43E
100
AcDbEntity
  8
MAIN0
  6
CONTINUOUS
 62
3
100
AcDbLine
 10
97.88054803011302
 20
280.1343703159532
 30
0.0000000000000000
 11
92.68054803011285
 21
279.9718703159533
 31
0.0000000000000000
  0
LINE
  5
43F
100
AcDbEntity
  8
MAIN0
  6
CONTINUOUS
 62
3
100
AcDbLine
 10
92.68054803011312
 20
280.5528703159532
 30
0.0000000000000000
 11
97.88054803011306
 21
280.7153703159532
 31
0.0000000000000000
  0
LINE
  5
440
100
AcDbEntity
  8
MAIN0
  6
CONTINUOUS
 62
3
100
AcDbLine
 10
97.08054803011400
 20
277.1560256006427
 30
0.0000000000000000
 11
97.08054803011403
 21
280.0781203159535
 31
0.0000000000000000
  0
LINE
  5
441
100
AcDbEntity
  8
MAIN0
  6
CONTINUOUS
 62
3
100
AcDbLine
 10
97.88054803011292
 20
289.4748703159534
 30
0.0000000000000000
 11
97.88054803011292
 21
280.1343703159534
 31
0.0000000000000000
  0
LINE
  5
442
100
AcDbEntity
  8
MAIN0
  6
CONTINUOUS
 62
3
100
AcDbLine
 10
97.88054803011298
 20
288.9046203159534
 30
0.0000000000000000
 11
108.1805480302046
 21
288.9046203159534
 31
0.0000000000000000
  0
LINE
  5
443
100
AcDbEntity
  8
MAIN0
  6
CONTINUOUS
 62
3
100
AcDbLine
 10
108.1805480302046
 20
288.9046203159712
 30
0.0000000000000000
 11
108.1805480302046
 21
280.7046203159595
 31
0.0000000000000000
  0
LINE
  5
444
100
AcDbEntity
  8
MAIN0
  6
CONTINUOUS
 62
3
100
AcDbLine
 10
101.9645889352824
 20
282.1850742976392
 30
0.0000000000000000
 11
103.2805480301138
 21
280.7046203159539
 31
0.0000000000000000
  0
LINE
  5
445
100
AcDbEntity
  8
MAIN0
  6
CONTINUOUS
 62
3
100
AcDbLine
 10
108.1805480302044
 20
280.7046203159533
 30
0.0000000000000000
 11
103.2805480301120
 21
280.7046203159533
 31
0.0000000000000000
  0
LINE
  5
446
100
AcDbEntity
  8
MAIN0
  6
CONTINUOUS
 62
3
100
AcDbLine
 10
109.1805480302044
 20
279.7046203159541
 30
0.0000000000000000
 11
108.1805480302046
 21
280.7046203159539
 31
0.0000000000000000
  0
LINE
  5
447
100
AcDbEntity
  8
MAIN0
  6
CONTINUOUS
 62
3
100
AcDbLine
 10
109.1805480302044
 20
289.9046203159534
 30
0.0000000000000000
 11
108.1805480302044
 21
288.9046203159534
 31
0.0000000000000000
  0
LINE
  5
448
100
AcDbEntity
  8
MAIN0
  6
CONTINUOUS
 62
3
100
AcDbLine
 10
133.1805480302044
 20
291.3046203159538
 30
0.0000000000000000
 11
134.1805480302044
 21
292.3046203159539
 31
0.0000000000000000
  0
LINE
  5
449
100
AcDbEntity
  8
MAIN0
  6
CONTINUOUS
 62
3
100
AcDbLine
 10
133.1805480302045
 20
291.3046203159377
 30
0.0000000000000000
 11
133.1805480302045
 21
278.3046203159377
 31
0.0000000000000000
  0
LINE
  5
44A
100
AcDbEntity
  8
MAIN0
  6
CONTINUOUS
 62
3
100
AcDbLine
 10
133.1805480302044
 20
278.3046203159539
 30
0.0000000000000000
 11
134.1805480302044
 21
277.3046203159539
 31
0.0000000000000000
  0
ARC
  5
44B
100
AcDbEntity
  8
MAIN0
  6
CONTINUOUS
 62
3
100
AcDbCircle
 10
110.1805480301131
 20
290.3046203159533
 30
0.0000000000000000
 40
1.000000000000000
100
AcDbArc
 50
90.00000000000000
 51
180.0000000000000
  0
ARC
  5
44C
100
AcDbEntity
  8
MAIN0
  6
CONTINUOUS
 62
3
100
AcDbCircle
 10
110.1805480301131
 20
279.3046203159533
 30
0.0000000000000000
 40
1.000000000000000
100
AcDbArc
 50
180.0000000000000
 51
270.0000000000000
  0
LINE
  5
44D
100
AcDbEntity
  8
MAIN0
  6
CONTINUOUS
 62
3
100
AcDbLine
 10
91.68054803011253
 20
183.9046203159536
 30
0.0000000000000000
 11
91.68054803011367
 21
385.7046203159536
 31
0.0000000000000000
  0
LINE
  5
44E
100
AcDbEntity
  8
MAIN0
  6
HIDDEN
 62
3
100
AcDbLine
 10
92.68054803011293
 20
233.8402778217828
 30
0.0000000000000000
 11
91.68054803011293
 21
233.8402778217829
 31
0.0000000000000000
  0
LINE
  5
44F
100
AcDbEntity
  8
MAIN0
  6
HIDDEN
 62
3
100
AcDbLine
 10
92.68054803011270
 20
219.8402778217828
 30
0.0000000000000000
 11
92.68054803011279
 21
233.8402778217829
 31
0.0000000000000000
  0
LINE
  5
450
100
AcDbEntity
  8
MAIN0
  6
HIDDEN
 62
3
100
AcDbLine
 10
92.68054803011276
 20
219.8402778217827
 30
0.0000000000000000
 11
91.68054803011276
 21
219.8402778217827
 31
0.0000000000000000
  0
LINE
  5
451
100
AcDbEntity
  8
MAIN0
  6
HIDDEN
 62
3
100
AcDbLine
 10
99.38054803011279
 20
222.1700278217828
 30
0.0000000000000000
 11
92.68054803011279
 21
221.9606528217828
 31
0.0000000000000000
  0
LINE
  5
452
100
AcDbEntity
  8
MAIN0
  6
HIDDEN
 62
3
100
AcDbLine
 10
92.68054803011279
 20
222.5416528217827
 30
0.0000000000000000
 11
99.38054803011281
 21
222.7510278217827
 31
0.0000000000000000
  0
LINE
  5
453
100
AcDbEntity
  8
MAIN0
  6
HIDDEN
 62
3
100
AcDbLine
 10
99.38054803011278
 20
231.5105278217828
 30
0.0000000000000000
 11
99.38054803011278
 21
222.1700278217828
 31
0.0000000000000000
  0
LINE
  5
454
100
AcDbEntity
  8
MAIN0
  6
CENTER
 62
3
100
AcDbLine
 10
100.1805480301117
 20
180.6380441077967
 30
0.0000000000000000
 11
100.1805480301122
 21
234.9279835309699
 31
0.0000000000000000
  0
LINE
  5
455
100
AcDbEntity
  8
MAIN0
  6
HIDDEN
 62
3
100
AcDbLine
 10
92.68054803011280
 20
231.1389028217828
 30
0.0000000000000000
 11
99.38054803011276
 21
230.9295278217828
 31
0.0000000000000000
  0
LINE
  5
456
100
AcDbEntity
  8
MAIN0
  6
HIDDEN
 62
3
100
AcDbLine
 10
92.68054803011280
 20
231.7199028217828
 30
0.0000000000000000
 11
99.38054803011282
 21
231.5105278217828
 31
0.0000000000000000
  0
LINE
  5
457
100
AcDbEntity
  8
MAIN0
  6
CENTER
 62
3
100
AcDbLine
 10
112.5558723169106
 20
226.8402778217828
 30
0.0000000000000000
 11
88.84748345341529
 21
226.8402778217830
 31
0.0000000000000000
  0
LINE
  5
458
100
AcDbEntity
  8
MAIN0
  6
HIDDEN
 62
3
100
AcDbLine
 10
92.18054803011317
 20
295.0251968415469
 30
0.0000000000000000
 11
92.18054803011346
 21
331.3441292524701
 31
0.0000000000000000
  0
LINE
  5
459
100
AcDbEntity
  8
MAIN0
  6
HIDDEN
 62
3
100
AcDbLine
 10
92.18054803011280
 20
238.2651113794379
 30
0.0000000000000000
 11
92.18054803011304
 21
276.1166242541511
 31
0.0000000000000000
  0
LINE
  5
45A
100
AcDbEntity
  8
MAIN0
  6
CONTINUOUS
 62
3
100
AcDbLine
 10
92.18054803011304
 20
276.1166242541511
 30
0.0000000000000000
 11
92.18054803011317
 21
295.0251968415469
 31
0.0000000000000000
  0
LINE
  5
45B
100
AcDbEntity
  8
MAIN0
  6
CONTINUOUS
 62
3
100
AcDbLine
 10
106.6805480301116
 20
183.9046203159534
 30
0.0000000000000000
 11
106.6805480301126
 21
275.5648878942125
 31
0.0000000000000000
  0
LINE
  5
45C
100
AcDbEntity
  8
MAIN0
  6
CONTINUOUS
 62
3
100
AcDbLine
 10
106.6805480301127
 20
293.3972689832067
 30
0.0000000000000000
 11
106.6805480301137
 21
385.7046203159534
 31
0.0000000000000000
  0
LINE
  5
45D
100
AcDbEntity
  8
MAIN0
  6
HIDDEN
 62
12
100
AcDbLine
 10
514.7260797557414
 20
282.3046203159533
 30
0.0000000000000000
 11
497.4180275760285
 21
282.3046203159533
 31
0.0000000000000000
  0
LINE
  5
45E
100
AcDbEntity
  8
MAIN0
  6
HIDDEN
 62
12
100
AcDbLine
 10
507.5260797557406
 20
276.8046203159534
 30
0.0000000000000000
 11
507.5260797557406
 21
282.8046203159533
 31
0.0000000000000000
  0
LINE
  5
45F
100
AcDbEntity
  8
MAIN0
  6
HIDDEN
 62
12
100
AcDbLine
 10
514.7260797557414
 20
277.3046203159533
 30
0.0000000000000000
 11
500.3819127734663
 21
277.3046203159533
 31
0.0000000000000000
  0
LINE
  5
460
100
AcDbEntity
  8
MAIN0
  6
HIDDEN
 62
12
100
AcDbLine
 10
507.5260797557406
 20
276.8046203159534
 30
0.0000000000000000
 11
514.7820461434434
 21
276.8046203159534
 31
0.0000000000000000
  0
LINE
  5
461
100
AcDbEntity
  8
MAIN0
  6
HIDDEN
 62
12
100
AcDbLine
 10
507.5260797557406
 20
282.8046203159533
 30
0.0000000000000000
 11
515.1556994745176
 21
282.8046203159533
 31
0.0000000000000000
  0
LINE
  5
462
100
AcDbEntity
  8
MAIN0
  6
HIDDEN
 62
12
100
AcDbLine
 10
514.7260797557415
 20
277.3046203159533
 30
0.0000000000000000
 11
514.7260797557415
 21
282.3046203159533
 31
0.0000000000000000
  0
LINE
  5
463
100
AcDbEntity
  8
MAIN0
  6
HIDDEN
 62
12
100
AcDbLine
 10
514.8214282433457
 20
277.2092718283503
 30
0.0000000000000000
 11
514.7260797557429
 21
277.3046203159533
 31
0.0000000000000000
  0
LINE
  5
464
100
AcDbEntity
  8
MAIN0
  6
HIDDEN
 62
12
100
AcDbLine
 10
515.1538725373298
 20
282.7324130975404
 30
0.0000000000000000
 11
514.7260797557427
 21
282.3046203159533
 31
0.0000000000000000
  0
LINE
  5
465
100
AcDbEntity
  8
MAIN0
  6
HIDDEN
 62
12
100
AcDbLine
 10
363.3350163044815
 20
287.3046203159532
 30
0.0000000000000000
 11
354.2193772705464
 21
287.3046203159532
 31
0.0000000000000000
  0
LINE
  5
466
100
AcDbEntity
  8
MAIN0
  6
HIDDEN
 62
12
100
AcDbLine
 10
363.3350163044815
 20
272.3046203159532
 30
0.0000000000000000
 11
363.3350163044815
 21
287.3046203159532
 31
0.0000000000000000
  0
LINE
  5
467
100
AcDbEntity
  8
MAIN0
  6
HIDDEN
 62
12
100
AcDbLine
 10
372.3120447752559
 20
282.8046203159533
 30
0.0000000000000000
 11
368.2350163044818
 21
282.8046203159533
 31
0.0000000000000000
  0
LINE
  5
468
100
AcDbEntity
  8
MAIN0
  6
HIDDEN
 62
12
100
AcDbLine
 10
371.9430684841924
 20
282.3046203159533
 30
0.0000000000000000
 11
364.1350163044815
 21
282.3046203159533
 31
0.0000000000000000
  0
LINE
  5
469
100
AcDbEntity
  8
MAIN0
  6
HIDDEN
 62
12
100
AcDbLine
 10
364.1350163044814
 20
277.3046203159533
 30
0.0000000000000000
 11
363.3350163044815
 21
276.5046203159533
 31
0.0000000000000000
  0
LINE
  5
46A
100
AcDbEntity
  8
MAIN0
  6
HIDDEN
 62
12
100
AcDbLine
 10
368.7465178749461
 20
276.8046203159533
 30
0.0000000000000000
 11
368.2350163044805
 21
276.8046203159533
 31
0.0000000000000000
  0
LINE
  5
46B
100
AcDbEntity
  8
MAIN0
  6
HIDDEN
 62
12
100
AcDbLine
 10
368.9791832867555
 20
277.3046203159533
 30
0.0000000000000000
 11
364.1350163044814
 21
277.3046203159533
 31
0.0000000000000000
  0
LINE
  5
46C
100
AcDbEntity
  8
MAIN0
  6
HIDDEN
 62
12
100
AcDbLine
 10
363.3350163044815
 20
272.3046203159532
 30
0.0000000000000000
 11
355.1569666218280
 21
272.3046203159532
 31
0.0000000000000000
  0
CIRCLE
  5
46D
100
AcDbEntity
  8
MAIN0
  6
HIDDEN
 62
3
100
AcDbCircle
 10
434.6805480301122
 20
284.8046203159532
 30
0.0000000000000000
 40
80.50000000000000
  0
LINE
  5
46E
100
AcDbEntity
  8
MAIN0
  6
HIDDEN
 62
12
100
AcDbLine
 10
363.3350163044816
 20
283.1046203159531
 30
0.0000000000000000
 11
364.1350163044815
 21
282.3046203159533
 31
0.0000000000000000
  0
LINE
  5
46F
100
AcDbEntity
  8
MAIN0
  6
HIDDEN
 62
12
100
AcDbLine
 10
364.1350163044815
 20
282.3046203159533
 30
0.0000000000000000
 11
364.1350163044818
 21
277.3046203159533
 31
0.0000000000000000
  0
LINE
  5
470
100
AcDbEntity
  8
MAIN0
  6
CENTER
 62
12
100
AcDbLine
 10
374.8892443146051
 20
279.8046203159532
 30
0.0000000000000000
 11
350.5213688006900
 21
279.8046203159532
 31
0.0000000000000000
  0
LINE
  5
471
100
AcDbEntity
  8
MAIN0
  6
CENTER
 62
12
100
AcDbLine
 10
520.3337325046435
 20
279.8046203159532
 30
0.0000000000000000
 11
494.4718517456191
 21
279.8046203159532
 31
0.0000000000000000
  0
LINE
  5
472
100
AcDbEntity
  8
MAIN0
  6
HIDDEN
 62
12
100
AcDbLine
 10
396.8228456767587
 20
355.3760842497813
 30
0.0000000000000000
 11
405.4768717666151
 21
340.3868713721234
 31
0.0000000000000000
  0
LINE
  5
473
100
AcDbEntity
  8
MAIN0
  6
HIDDEN
 62
12
100
AcDbLine
 10
405.1859853975734
 20
351.8907013425327
 30
0.0000000000000000
 11
399.9898329748669
 21
348.8907013425328
 31
0.0000000000000000
  0
LINE
  5
474
100
AcDbEntity
  8
MAIN0
  6
HIDDEN
 62
12
100
AcDbLine
 10
401.1529726956809
 20
357.8760842497813
 30
0.0000000000000000
 11
408.3250561868184
 21
345.4536712470052
 31
0.0000000000000000
  0
LINE
  5
475
100
AcDbEntity
  8
MAIN0
  6
HIDDEN
 62
12
100
AcDbLine
 10
405.1859853975734
 20
351.8907013425328
 30
0.0000000000000000
 11
401.5580022037220
 21
358.1745525632894
 31
0.0000000000000000
  0
LINE
  5
476
100
AcDbEntity
  8
MAIN0
  6
HIDDEN
 62
12
100
AcDbLine
 10
399.9898329748668
 20
348.8907013425328
 30
0.0000000000000000
 11
396.1750231154783
 21
355.4981458402083
 31
0.0000000000000000
  0
LINE
  5
477
100
AcDbEntity
  8
MAIN0
  6
HIDDEN
 62
12
100
AcDbLine
 10
401.1529726956808
 20
357.8760842497815
 30
0.0000000000000000
 11
396.8228456767587
 21
355.3760842497814
 31
0.0000000000000000
  0
LINE
  5
478
100
AcDbEntity
  8
MAIN0
  6
HIDDEN
 62
12
100
AcDbLine
 10
401.1878726643553
 20
358.0063327060607
 30
0.0000000000000000
 11
401.1529726956801
 21
357.8760842497828
 31
0.0000000000000000
  0
LINE
  5
479
100
AcDbEntity
  8
MAIN0
  6
HIDDEN
 62
12
100
AcDbLine
 10
396.2384698695545
 20
355.5326672753990
 30
0.0000000000000000
 11
396.8228456767580
 21
355.3760842497825
 31
0.0000000000000000
  0
LINE
  5
47A
100
AcDbEntity
  8
MAIN0
  6
HIDDEN
 62
12
100
AcDbLine
 10
468.1882503834662
 20
221.7675773950485
 30
0.0000000000000000
 11
472.7460699004338
 21
213.8732024199316
 31
0.0000000000000000
  0
LINE
  5
47B
100
AcDbEntity
  8
MAIN0
  6
HIDDEN
 62
12
100
AcDbLine
 10
481.1786314402329
 20
229.2675773950485
 30
0.0000000000000000
 11
468.1882503834663
 21
221.7675773950485
 31
0.0000000000000000
  0
LINE
  5
47C
100
AcDbEntity
  8
MAIN0
  6
HIDDEN
 62
12
100
AcDbLine
 10
472.1183774023885
 20
224.9603977180759
 30
0.0000000000000000
 11
471.8255570793610
 21
223.8675773950485
 31
0.0000000000000000
  0
LINE
  5
47D
100
AcDbEntity
  8
MAIN0
  6
HIDDEN
 62
12
100
AcDbLine
 10
467.5968504651089
 20
231.7919121012351
 30
0.0000000000000000
 11
469.6353647004960
 21
228.2611018735923
 31
0.0000000000000000
  0
LINE
  5
47E
100
AcDbEntity
  8
MAIN0
  6
HIDDEN
 62
12
100
AcDbLine
 10
476.4485044213106
 20
227.4603977180759
 30
0.0000000000000000
 11
472.1183774023883
 21
224.9603977180760
 31
0.0000000000000000
  0
LINE
  5
47F
100
AcDbEntity
  8
MAIN0
  6
HIDDEN
 62
12
100
AcDbLine
 10
468.2143513125329
 20
231.7223692597800
 30
0.0000000000000000
 11
472.1183774023883
 21
224.9603977180760
 31
0.0000000000000000
  0
LINE
  5
480
100
AcDbEntity
  8
MAIN0
  6
HIDDEN
 62
12
100
AcDbLine
 10
476.4485044213105
 20
227.4603977180758
 30
0.0000000000000000
 11
477.5413247443381
 21
227.1675773950484
 31
0.0000000000000000
  0
LINE
  5
481
100
AcDbEntity
  8
MAIN0
  6
HIDDEN
 62
12
100
AcDbLine
 10
474.7255584215598
 20
231.4446277283417
 30
0.0000000000000000
 11
477.1315171232027
 21
227.2773850161838
 31
0.0000000000000000
  0
LINE
  5
482
100
AcDbEntity
  8
MAIN0
  6
HIDDEN
 62
12
100
AcDbLine
 10
474.0264209301736
 20
231.6555693848990
 30
0.0000000000000000
 11
476.4485044213103
 21
227.4603977180760
 31
0.0000000000000000
  0
LINE
  5
483
100
AcDbEntity
  8
MAIN0
  6
HIDDEN
 62
12
100
AcDbLine
 10
481.1786314402328
 20
229.2675773950484
 30
0.0000000000000000
 11
485.2676562815596
 21
222.1851786164592
 31
0.0000000000000000
  0
LINE
  5
484
100
AcDbEntity
  8
MAIN0
  6
CENTER
 62
12
100
AcDbLine
 10
396.1840828117688
 20
361.4824539859324
 30
0.0000000000000000
 11
409.1150231912809
 21
339.0854082589733
 31
0.0000000000000000
  0
LINE
  5
485
100
AcDbEntity
  8
MAIN0
  6
CENTER
 62
12
100
AcDbLine
 10
468.9063269067877
 20
235.5238323729333
 30
0.0000000000000000
 11
481.0902646637453
 21
214.4206331416259
 31
0.0000000000000000
  0
LINE
  5
486
100
AcDbEntity
  8
MAIN0
  6
HIDDEN
 62
12
100
AcDbLine
 10
392.4927186578362
 20
216.7331563821253
 30
0.0000000000000000
 11
401.1467447476927
 21
231.7223692597832
 31
0.0000000000000000
  0
LINE
  5
487
100
AcDbEntity
  8
MAIN0
  6
HIDDEN
 62
12
100
AcDbLine
 10
391.3295789370223
 20
225.7185392893738
 30
0.0000000000000000
 11
396.5257313597289
 21
222.7185392893738
 31
0.0000000000000000
  0
LINE
  5
488
100
AcDbEntity
  8
MAIN0
  6
HIDDEN
 62
12
100
AcDbLine
 10
388.1625916389140
 20
219.2331563821253
 30
0.0000000000000000
 11
395.3346751300517
 21
231.6555693849014
 31
0.0000000000000000
  0
LINE
  5
489
100
AcDbEntity
  8
MAIN0
  6
HIDDEN
 62
12
100
AcDbLine
 10
391.3295789370224
 20
225.7185392893737
 30
0.0000000000000000
 11
387.7015957431709
 21
219.4346880686172
 31
0.0000000000000000
  0
LINE
  5
48A
100
AcDbEntity
  8
MAIN0
  6
HIDDEN
 62
12
100
AcDbLine
 10
396.5257313597289
 20
222.7185392893738
 30
0.0000000000000000
 11
392.7109215003403
 21
216.1110947916982
 31
0.0000000000000000
  0
LINE
  5
48B
100
AcDbEntity
  8
MAIN0
  6
HIDDEN
 62
12
100
AcDbLine
 10
388.1625916389141
 20
219.2331563821252
 30
0.0000000000000000
 11
392.4927186578363
 21
216.7331563821252
 31
0.0000000000000000
  0
LINE
  5
48C
100
AcDbEntity
  8
MAIN0
  6
HIDDEN
 62
12
100
AcDbLine
 10
388.0323431826352
 20
219.1982564134489
 30
0.0000000000000000
 11
388.1625916389132
 21
219.2331563821239
 31
0.0000000000000000
  0
LINE
  5
48D
100
AcDbEntity
  8
MAIN0
  6
HIDDEN
 62
12
100
AcDbLine
 10
392.6493016834522
 20
216.1487805749205
 30
0.0000000000000000
 11
392.4927186578357
 21
216.7331563821240
 31
0.0000000000000000
  0
LINE
  5
48E
100
AcDbEntity
  8
MAIN0
  6
HIDDEN
 62
12
100
AcDbLine
 10
472.5183774023888
 20
345.3416632368578
 30
0.0000000000000000
 11
477.0761969193564
 21
353.2360382119747
 31
0.0000000000000000
  0
LINE
  5
48F
100
AcDbEntity
  8
MAIN0
  6
HIDDEN
 62
12
100
AcDbLine
 10
459.5279963456221
 20
352.8416632368579
 30
0.0000000000000000
 11
472.5183774023887
 21
345.3416632368579
 31
0.0000000000000000
  0
LINE
  5
490
100
AcDbEntity
  8
MAIN0
  6
HIDDEN
 62
12
100
AcDbLine
 10
467.7882503834666
 20
347.1488429138303
 30
0.0000000000000000
 11
468.8810707064940
 21
347.4416632368579
 31
0.0000000000000000
  0
LINE
  5
491
100
AcDbEntity
  8
MAIN0
  6
HIDDEN
 62
12
100
AcDbLine
 10
464.1327488499717
 20
339.8173285306710
 30
0.0000000000000000
 11
468.4712630853589
 21
347.3318556157224
 31
0.0000000000000000
  0
LINE
  5
492
100
AcDbEntity
  8
MAIN0
  6
HIDDEN
 62
12
100
AcDbLine
 10
463.4581233645445
 20
349.6488429138303
 30
0.0000000000000000
 11
467.7882503834666
 21
347.1488429138302
 31
0.0000000000000000
  0
LINE
  5
493
100
AcDbEntity
  8
MAIN0
  6
HIDDEN
 62
12
100
AcDbLine
 10
463.8842242936112
 20
340.3868713721262
 30
0.0000000000000000
 11
467.7882503834666
 21
347.1488429138302
 31
0.0000000000000000
  0
LINE
  5
494
100
AcDbEntity
  8
MAIN0
  6
HIDDEN
 62
12
100
AcDbLine
 10
463.4581233645446
 20
349.6488429138303
 30
0.0000000000000000
 11
463.1653030415170
 21
350.7416632368578
 31
0.0000000000000000
  0
LINE
  5
495
100
AcDbEntity
  8
MAIN0
  6
HIDDEN
 62
12
100
AcDbLine
 10
460.7193598774200
 20
345.9051654042161
 30
0.0000000000000000
 11
463.2751106626523
 21
350.3318556157224
 31
0.0000000000000000
  0
LINE
  5
496
100
AcDbEntity
  8
MAIN0
  6
HIDDEN
 62
12
100
AcDbLine
 10
461.0360398734075
 20
345.4536712470072
 30
0.0000000000000000
 11
463.4581233645445
 21
349.6488429138303
 31
0.0000000000000000
  0
LINE
  5
497
100
AcDbEntity
  8
MAIN0
  6
HIDDEN
 62
12
100
AcDbLine
 10
459.5279963456222
 20
352.8416632368579
 30
0.0000000000000000
 11
463.6170211869490
 21
359.9240620154470
 31
0.0000000000000000
  0
LINE
  5
498
100
AcDbEntity
  8
MAIN0
  6
CENTER
 62
12
100
AcDbLine
 10
387.5238287739239
 20
213.1267866459744
 30
0.0000000000000000
 11
400.4547691534363
 21
235.5238323729335
 31
0.0000000000000000
  0
LINE
  5
499
100
AcDbEntity
  8
MAIN0
  6
CENTER
 62
12
100
AcDbLine
 10
460.2460728689437
 20
339.0854082589732
 30
0.0000000000000000
 11
472.4300106259013
 21
360.1886074902804
 31
0.0000000000000000
  0
LINE
  5
49A
100
AcDbEntity
  8
MAIN0
  6
HIDDEN
 62
12
100
AcDbLine
 10
168.4805480301233
 20
218.5046203159529
 30
0.0000000000000000
 11
168.4805480301234
 21
213.6046203159532
 31
0.0000000000000000
  0
LINE
  5
49B
100
AcDbEntity
  8
MAIN0
  6
HIDDEN
 62
12
100
AcDbLine
 10
168.4805480301232
 20
218.5046203159529
 30
0.0000000000000000
 11
162.4805480301230
 21
218.5046203159529
 31
0.0000000000000000
  0
LINE
  5
49C
100
AcDbEntity
  8
MAIN0
  6
HIDDEN
 62
12
100
AcDbLine
 10
167.9805480301226
 20
219.0046203159529
 30
0.0000000000000000
 11
168.4805480301223
 21
218.5046203159531
 31
0.0000000000000000
  0
LINE
  5
49D
100
AcDbEntity
  8
MAIN0
  6
HIDDEN
 62
12
100
AcDbLine
 10
167.9805480301233
 20
219.0046203159530
 30
0.0000000000000000
 11
162.9805480301231
 21
219.0046203159530
 31
0.0000000000000000
  0
LINE
  5
49E
100
AcDbEntity
  8
MAIN0
  6
HIDDEN
 62
12
100
AcDbLine
 10
162.9805480301233
 20
219.0046203159529
 30
0.0000000000000000
 11
162.4805480301231
 21
218.5046203159529
 31
0.0000000000000000
  0
LINE
  5
49F
100
AcDbEntity
  8
MAIN0
  6
HIDDEN
 62
12
100
AcDbLine
 10
162.4805480301229
 20
218.5046203159531
 30
0.0000000000000000
 11
162.4805480301229
 21
213.6046203159532
 31
0.0000000000000000
  0
LINE
  5
4A0
100
AcDbEntity
  8
MAIN0
  6
HIDDEN
 62
12
100
AcDbLine
 10
168.4805480301235
 20
214.6776439784808
 30
0.0000000000000000
 11
162.4805480301230
 21
214.6776439784808
 31
0.0000000000000000
  0
LINE
  5
4A1
100
AcDbEntity
  8
MAIN0
  6
HIDDEN
 62
12
100
AcDbLine
 10
161.4390961457953
 20
213.6046203159530
 30
0.0000000000000000
 11
169.5219999144501
 21
213.6046203159530
 31
0.0000000000000000
  0
LINE
  5
4A2
100
AcDbEntity
  8
MAIN0
  6
HIDDEN
 62
12
100
AcDbLine
 10
169.5219999144501
 20
211.3046203159531
 30
0.0000000000000000
 11
169.5219999144501
 21
213.6046203159533
 31
0.0000000000000000
  0
LINE
  5
4A3
100
AcDbEntity
  8
MAIN0
  6
HIDDEN
 62
12
100
AcDbLine
 10
169.5219999144505
 20
211.3046203159529
 30
0.0000000000000000
 11
161.4390961457956
 21
211.3046203159529
 31
0.0000000000000000
  0
ARC
  5
4A4
100
AcDbEntity
  8
MAIN0
  6
HIDDEN
 62
12
100
AcDbCircle
 10
169.2231523620623
 20
210.3046203159529
 30
0.0000000000000000
 40
1.000000000000000
100
AcDbArc
 50
89.99999999999972
 51
199.7717992487710
  0
ARC
  5
4A5
100
AcDbEntity
  8
MAIN0
  6
HIDDEN
 62
12
100
AcDbCircle
 10
165.4805480301231
 20
208.0046203159532
 30
0.0000000000000000
 40
3.299999999999997
100
AcDbArc
 50
310.7490543774720
 51
379.7718095177823
  0
LINE
  5
4A6
100
AcDbEntity
  8
MAIN0
  6
HIDDEN
 62
12
100
AcDbLine
 10
167.6346139529768
 20
205.5046203159532
 30
0.0000000000000000
 11
163.3264821072700
 21
205.5046203159531
 31
0.0000000000000000
  0
LINE
  5
4A7
100
AcDbEntity
  8
MAIN0
  6
HIDDEN
 62
12
100
AcDbLine
 10
168.2821049816465
 20
209.9663455344337
 30
0.0000000000000000
 11
168.5860041858264
 21
209.1209276504299
 31
0.0000000000000000
  0
ARC
  5
4A8
100
AcDbEntity
  8
MAIN0
  6
HIDDEN
 62
12
100
AcDbCircle
 10
165.4805480301231
 20
205.6352715663618
 30
0.0000000000000000
 40
1.000000000000000
100
AcDbArc
 50
187.5072271955753
 51
352.4927728044244
  0
ARC
  5
4A9
100
AcDbEntity
  8
MAIN0
  6
HIDDEN
 62
12
100
AcDbCircle
 10
165.4805480301231
 20
208.0046203159532
 30
0.0000000000000000
 40
3.299999999999997
100
AcDbArc
 50
160.2282116100356
 51
229.2509456225276
  0
LINE
  5
4AA
100
AcDbEntity
  8
MAIN0
  6
HIDDEN
 62
12
100
AcDbLine
 10
162.3750912062536
 20
209.1209257916557
 30
0.0000000000000000
 11
162.6789910786003
 21
209.9663455344340
 31
0.0000000000000000
  0
ARC
  5
4AB
100
AcDbEntity
  8
MAIN0
  6
HIDDEN
 62
12
100
AcDbCircle
 10
161.7379436981839
 20
210.3046203159529
 30
0.0000000000000000
 40
1.000000000000000
100
AcDbArc
 50
340.2282007512279
 51
449.9999999999998
  0
LINE
  5
4AC
100
AcDbEntity
  8
MAIN0
  6
HIDDEN
 62
12
100
AcDbLine
 10
161.4390961457953
 20
211.3046203159531
 30
0.0000000000000000
 11
161.4390961457953
 21
213.6046203159532
 31
0.0000000000000000
  0
LINE
  5
4AD
100
AcDbEntity
  8
MAIN0
  6
HIDDEN
 62
12
100
AcDbLine
 10
163.4598220879593
 20
211.3046203159531
 30
0.0000000000000000
 11
163.4598220879593
 21
213.6046203159532
 31
0.0000000000000000
  0
LINE
  5
4AE
100
AcDbEntity
  8
MAIN0
  6
HIDDEN
 62
12
100
AcDbLine
 10
167.5012739722865
 20
211.3046203159531
 30
0.0000000000000000
 11
167.5012739722865
 21
213.6046203159532
 31
0.0000000000000000
  0
LINE
  5
4AF
100
AcDbEntity
  8
MAIN0
  6
HIDDEN
 62
12
100
AcDbLine
 10
368.2350163044814
 20
276.8046203159535
 30
0.0000000000000000
 11
363.3350163044818
 21
276.8046203159535
 31
0.0000000000000000
  0
LINE
  5
4B0
100
AcDbEntity
  8
MAIN0
  6
HIDDEN
 62
12
100
AcDbLine
 10
368.2350163044814
 20
276.8046203159536
 30
0.0000000000000000
 11
368.2350163044814
 21
282.8046203159539
 31
0.0000000000000000
  0
LINE
  5
4B1
100
AcDbEntity
  8
MAIN0
  6
HIDDEN
 62
12
100
AcDbLine
 10
368.7350163044815
 20
277.3046203159542
 30
0.0000000000000000
 11
368.2350163044816
 21
276.8046203159545
 31
0.0000000000000000
  0
LINE
  5
4B2
100
AcDbEntity
  8
MAIN0
  6
HIDDEN
 62
12
100
AcDbLine
 10
368.7350163044815
 20
277.3046203159535
 30
0.0000000000000000
 11
368.7350163044815
 21
282.3046203159537
 31
0.0000000000000000
  0
LINE
  5
4B3
100
AcDbEntity
  8
MAIN0
  6
HIDDEN
 62
12
100
AcDbLine
 10
368.7350163044814
 20
282.3046203159535
 30
0.0000000000000000
 11
368.2350163044814
 21
282.8046203159537
 31
0.0000000000000000
  0
LINE
  5
4B4
100
AcDbEntity
  8
MAIN0
  6
HIDDEN
 62
12
100
AcDbLine
 10
368.2350163044816
 20
282.8046203159540
 30
0.0000000000000000
 11
363.3350163044817
 21
282.8046203159539
 31
0.0000000000000000
  0
LINE
  5
4B5
100
AcDbEntity
  8
MAIN0
  6
HIDDEN
 62
12
100
AcDbLine
 10
364.4080399670092
 20
276.8046203159534
 30
0.0000000000000000
 11
364.4080399670092
 21
282.8046203159539
 31
0.0000000000000000
  0
LINE
  5
4B6
100
AcDbEntity
  8
MAIN0
  6
HIDDEN
 62
12
100
AcDbLine
 10
363.3350163044815
 20
283.8460722002816
 30
0.0000000000000000
 11
363.3350163044815
 21
275.7631684316268
 31
0.0000000000000000
  0
LINE
  5
4B7
100
AcDbEntity
  8
MAIN0
  6
HIDDEN
 62
12
100
AcDbLine
 10
361.0350163044816
 20
275.7631684316267
 30
0.0000000000000000
 11
363.3350163044818
 21
275.7631684316267
 31
0.0000000000000000
  0
LINE
  5
4B8
100
AcDbEntity
  8
MAIN0
  6
HIDDEN
 62
12
100
AcDbLine
 10
361.0350163044814
 20
275.7631684316264
 30
0.0000000000000000
 11
361.0350163044814
 21
283.8460722002812
 31
0.0000000000000000
  0
ARC
  5
4B9
100
AcDbEntity
  8
MAIN0
  6
HIDDEN
 62
12
100
AcDbCircle
 10
360.0350163044814
 20
276.0620159840146
 30
0.0000000000000000
 40
1.000000000000000
100
AcDbArc
 50
359.9999999999998
 51
469.7717992487711
  0
ARC
  5
4BA
100
AcDbEntity
  8
MAIN0
  6
HIDDEN
 62
12
100
AcDbCircle
 10
357.7350163044817
 20
279.8046203159537
 30
0.0000000000000000
 40
3.299999999999997
100
AcDbArc
 50
220.7490543774721
 51
289.7718095177825
  0
LINE
  5
4BB
100
AcDbEntity
  8
MAIN0
  6
HIDDEN
 62
12
100
AcDbLine
 10
355.2350163044816
 20
277.6505543931000
 30
0.0000000000000000
 11
355.2350163044816
 21
281.9586862388069
 31
0.0000000000000000
  0
LINE
  5
4BC
100
AcDbEntity
  8
MAIN0
  6
HIDDEN
 62
12
100
AcDbLine
 10
359.6967415229623
 20
277.0030633644303
 30
0.0000000000000000
 11
358.8513236389584
 21
276.6991641602505
 31
0.0000000000000000
  0
ARC
  5
4BD
100
AcDbEntity
  8
MAIN0
  6
HIDDEN
 62
12
100
AcDbCircle
 10
355.3656675548903
 20
279.8046203159537
 30
0.0000000000000000
 40
1.000000000000000
100
AcDbArc
 50
97.50722719557543
 51
262.4927728044245
  0
ARC
  5
4BE
100
AcDbEntity
  8
MAIN0
  6
HIDDEN
 62
12
100
AcDbCircle
 10
357.7350163044817
 20
279.8046203159537
 30
0.0000000000000000
 40
3.299999999999997
100
AcDbArc
 50
70.22821161003569
 51
139.2509456225276
  0
LINE
  5
4BF
100
AcDbEntity
  8
MAIN0
  6
HIDDEN
 62
12
100
AcDbLine
 10
358.8513217801842
 20
282.9100771398232
 30
0.0000000000000000
 11
359.6967415229625
 21
282.6061772674765
 31
0.0000000000000000
  0
ARC
  5
4C0
100
AcDbEntity
  8
MAIN0
  6
HIDDEN
 62
12
100
AcDbCircle
 10
360.0350163044814
 20
283.5472246478930
 30
0.0000000000000000
 40
1.000000000000000
100
AcDbArc
 50
250.2282007512279
 51
359.9999999999999
  0
LINE
  5
4C1
100
AcDbEntity
  8
MAIN0
  6
HIDDEN
 62
12
100
AcDbLine
 10
361.0350163044815
 20
283.8460722002816
 30
0.0000000000000000
 11
363.3350163044817
 21
283.8460722002816
 31
0.0000000000000000
  0
LINE
  5
4C2
100
AcDbEntity
  8
MAIN0
  6
HIDDEN
 62
12
100
AcDbLine
 10
361.0350163044815
 20
281.8253462581175
 30
0.0000000000000000
 11
363.3350163044817
 21
281.8253462581175
 31
0.0000000000000000
  0
LINE
  5
4C3
100
AcDbEntity
  8
MAIN0
  6
HIDDEN
 62
12
100
AcDbLine
 10
361.0350163044816
 20
277.7838943737903
 30
0.0000000000000000
 11
363.3350163044818
 21
277.7838943737903
 31
0.0000000000000000
  0
LINE
  5
4C4
100
AcDbEntity
  8
MAIN0
  6
HIDDEN
 62
12
100
AcDbLine
 10
474.8315171232028
 20
231.2611018735920
 30
0.0000000000000000
 11
477.2815171232027
 21
227.0175773950486
 31
0.0000000000000000
  0
LINE
  5
4C5
100
AcDbEntity
  8
MAIN0
  6
HIDDEN
 62
12
100
AcDbLine
 10
474.8315171232027
 20
231.2611018735920
 30
0.0000000000000000
 11
469.6353647004958
 21
228.2611018735918
 31
0.0000000000000000
  0
LINE
  5
4C6
100
AcDbEntity
  8
MAIN0
  6
HIDDEN
 62
12
100
AcDbLine
 10
474.1485044213100
 20
231.4441145754839
 30
0.0000000000000000
 11
474.8315171232018
 21
231.2611018735917
 31
0.0000000000000000
  0
LINE
  5
4C7
100
AcDbEntity
  8
MAIN0
  6
HIDDEN
 62
12
100
AcDbLine
 10
474.1485044213105
 20
231.4441145754843
 30
0.0000000000000000
 11
469.8183774023881
 21
228.9441145754842
 31
0.0000000000000000
  0
LINE
  5
4C8
100
AcDbEntity
  8
MAIN0
  6
HIDDEN
 62
12
100
AcDbLine
 10
469.8183774023883
 20
228.9441145754842
 30
0.0000000000000000
 11
469.6353647004959
 21
228.2611018735919
 31
0.0000000000000000
  0
LINE
  5
4C9
100
AcDbEntity
  8
MAIN0
  6
HIDDEN
 62
12
100
AcDbLine
 10
469.6353647004956
 20
228.2611018735919
 30
0.0000000000000000
 11
472.0853647004956
 21
224.0175773950483
 31
0.0000000000000000
  0
LINE
  5
4CA
100
AcDbEntity
  8
MAIN0
  6
HIDDEN
 62
12
100
AcDbLine
 10
476.7450052919389
 20
227.9468431456593
 30
0.0000000000000000
 11
471.5488528692320
 21
224.9468431456590
 31
0.0000000000000000
  0
LINE
  5
4CB
100
AcDbEntity
  8
MAIN0
  6
HIDDEN
 62
12
100
AcDbLine
 10
471.1834409118488
 20
223.4968514528843
 30
0.0000000000000000
 11
478.1834409118488
 21
227.5383033372117
 31
0.0000000000000000
  0
LINE
  5
4CC
100
AcDbEntity
  8
MAIN0
  6
HIDDEN
 62
12
100
AcDbLine
 10
479.3334409118489
 20
225.5464449085076
 30
0.0000000000000000
 11
478.1834409118488
 21
227.5383033372120
 31
0.0000000000000000
  0
LINE
  5
4CD
100
AcDbEntity
  8
MAIN0
  6
HIDDEN
 62
12
100
AcDbLine
 10
479.3334409118492
 20
225.5464449085076
 30
0.0000000000000000
 11
472.3334409118492
 21
221.5049930241801
 31
0.0000000000000000
  0
ARC
  5
4CE
100
AcDbEntity
  8
MAIN0
  6
HIDDEN
 62
12
100
AcDbCircle
 10
479.5746313396223
 20
224.5309957285290
 30
0.0000000000000000
 40
1.000000000000000
100
AcDbArc
 50
119.9999999999998
 51
229.7717992487710
  0
ARC
  5
4CF
100
AcDbEntity
  8
MAIN0
  6
HIDDEN
 62
12
100
AcDbCircle
 10
477.4834409118491
 20
220.6678351338555
 30
0.0000000000000000
 40
3.299999999999997
100
AcDbArc
 50
340.7490543774721
 51
409.7718095177824
  0
LINE
  5
4D0
100
AcDbEntity
  8
MAIN0
  6
HIDDEN
 62
12
100
AcDbLine
 10
480.5989167224668
 20
219.5798045858213
 30
0.0000000000000000
 11
476.8679651012319
 21
217.4257386629678
 31
0.0000000000000000
  0
LINE
  5
4D1
100
AcDbEntity
  8
MAIN0
  6
HIDDEN
 62
12
100
AcDbLine
 10
478.9287977927771
 20
223.7675174840659
 30
0.0000000000000000
 11
479.6146911657887
 21
223.1873137217949
 31
0.0000000000000000
  0
ARC
  5
4D2
100
AcDbEntity
  8
MAIN0
  6
HIDDEN
 62
12
100
AcDbCircle
 10
478.6681152866448
 20
218.6159189262845
 30
0.0000000000000000
 40
1.000000000000000
100
AcDbArc
 50
217.5072271955754
 51
382.4927728044245
  0
ARC
  5
4D3
100
AcDbEntity
  8
MAIN0
  6
HIDDEN
 62
12
100
AcDbCircle
 10
477.4834409118491
 20
220.6678351338555
 30
0.0000000000000000
 40
3.299999999999997
100
AcDbArc
 50
190.2282116100357
 51
259.2509456225276
  0
LINE
  5
4D4
100
AcDbEntity
  8
MAIN0
  6
HIDDEN
 62
12
100
AcDbLine
 10
474.2358836741711
 20
220.0818556222628
 30
0.0000000000000000
 11
474.0763588124411
 21
220.9659605325431
 31
0.0000000000000000
  0
ARC
  5
4D5
100
AcDbEntity
  8
MAIN0
  6
HIDDEN
 62
12
100
AcDbCircle
 10
473.0922504840762
 20
220.7883913965898
 30
0.0000000000000000
 40
1.000000000000000
100
AcDbArc
 50
10.22820075122792
 51
119.9999999999999
  0
LINE
  5
4D6
100
AcDbEntity
  8
MAIN0
  6
HIDDEN
 62
12
100
AcDbLine
 10
472.3334409118488
 20
221.5049930241801
 30
0.0000000000000000
 11
471.1834409118487
 21
223.4968514528845
 31
0.0000000000000000
  0
LINE
  5
4D7
100
AcDbEntity
  8
MAIN0
  6
HIDDEN
 62
12
100
AcDbLine
 10
474.0834409118491
 20
222.5153559952622
 30
0.0000000000000000
 11
472.9334409118490
 21
224.5072144239665
 31
0.0000000000000000
  0
LINE
  5
4D8
100
AcDbEntity
  8
MAIN0
  6
HIDDEN
 62
12
100
AcDbLine
 10
477.5834409118489
 20
224.5360819374258
 30
0.0000000000000000
 11
476.4334409118488
 21
226.5279403661302
 31
0.0000000000000000
  0
LINE
  5
4D9
100
AcDbEntity
  8
MAIN0
  6
HIDDEN
 62
12
100
AcDbLine
 10
460.9751106626524
 20
346.3481387583142
 30
0.0000000000000000
 11
463.4251106626522
 21
350.5916632368576
 31
0.0000000000000000
  0
LINE
  5
4DA
100
AcDbEntity
  8
MAIN0
  6
HIDDEN
 62
12
100
AcDbLine
 10
460.9751106626525
 20
346.3481387583141
 30
0.0000000000000000
 11
466.1712630853593
 21
343.3481387583140
 31
0.0000000000000000
  0
LINE
  5
4DB
100
AcDbEntity
  8
MAIN0
  6
HIDDEN
 62
12
100
AcDbLine
 10
461.1581233645451
 20
345.6651260564216
 30
0.0000000000000000
 11
460.9751106626531
 21
346.3481387583135
 31
0.0000000000000000
  0
LINE
  5
4DC
100
AcDbEntity
  8
MAIN0
  6
HIDDEN
 62
12
100
AcDbLine
 10
461.1581233645445
 20
345.6651260564219
 30
0.0000000000000000
 11
465.4882503834669
 21
343.1651260564217
 31
0.0000000000000000
  0
LINE
  5
4DD
100
AcDbEntity
  8
MAIN0
  6
HIDDEN
 62
12
100
AcDbLine
 10
465.4882503834667
 20
343.1651260564220
 30
0.0000000000000000
 11
466.1712630853591
 21
343.3481387583140
 31
0.0000000000000000
  0
LINE
  5
4DE
100
AcDbEntity
  8
MAIN0
  6
HIDDEN
 62
12
100
AcDbLine
 10
466.1712630853593
 20
343.3481387583138
 30
0.0000000000000000
 11
468.6212630853592
 21
347.5916632368574
 31
0.0000000000000000
  0
LINE
  5
4DF
100
AcDbEntity
  8
MAIN0
  6
HIDDEN
 62
12
100
AcDbLine
 10
462.8885988313883
 20
349.6623974862470
 30
0.0000000000000000
 11
468.0847512540954
 21
346.6623974862469
 31
0.0000000000000000
  0
LINE
  5
4E0
100
AcDbEntity
  8
MAIN0
  6
HIDDEN
 62
12
100
AcDbLine
 10
469.5231868740062
 20
347.0709372946938
 30
0.0000000000000000
 11
462.5231868740061
 21
351.1123891790213
 31
0.0000000000000000
  0
LINE
  5
4E1
100
AcDbEntity
  8
MAIN0
  6
HIDDEN
 62
12
100
AcDbLine
 10
463.6731868740061
 20
353.1042476077254
 30
0.0000000000000000
 11
462.5231868740060
 21
351.1123891790210
 31
0.0000000000000000
  0
LINE
  5
4E2
100
AcDbEntity
  8
MAIN0
  6
HIDDEN
 62
12
100
AcDbLine
 10
463.6731868740059
 20
353.1042476077257
 30
0.0000000000000000
 11
470.6731868740060
 21
349.0627957233983
 31
0.0000000000000000
  0
ARC
  5
4E3
100
AcDbEntity
  8
MAIN0
  6
HIDDEN
 62
12
100
AcDbCircle
 10
464.4319964462329
 20
353.8208492353161
 30
0.0000000000000000
 40
1.000000000000000
100
AcDbArc
 50
239.9999999999997
 51
349.7717992487710
  0
ARC
  5
4E4
100
AcDbEntity
  8
MAIN0
  6
HIDDEN
 62
12
100
AcDbCircle
 10
468.8231868740057
 20
353.9414054980504
 30
0.0000000000000000
 40
3.299999999999997
100
AcDbArc
 50
100.7490543774721
 51
169.7718095177824
  0
LINE
  5
4E5
100
AcDbEntity
  8
MAIN0
  6
HIDDEN
 62
12
100
AcDbLine
 10
468.2077110633881
 20
357.1835019689384
 30
0.0000000000000000
 11
471.9386626846230
 21
355.0294360460850
 31
0.0000000000000000
  0
LINE
  5
4E6
100
AcDbEntity
  8
MAIN0
  6
HIDDEN
 62
12
100
AcDbLine
 10
465.4161047745973
 20
353.6432800993634
 30
0.0000000000000000
 11
465.5756292855896
 21
354.5273830658144
 31
0.0000000000000000
  0
ARC
  5
4E7
100
AcDbEntity
  8
MAIN0
  6
HIDDEN
 62
12
100
AcDbCircle
 10
470.0078612488014
 20
355.9933217056214
 30
0.0000000000000000
 40
1.000000000000000
100
AcDbArc
 50
337.5072271955754
 51
502.4927728044245
  0
ARC
  5
4E8
100
AcDbEntity
  8
MAIN0
  6
HIDDEN
 62
12
100
AcDbCircle
 10
468.8231868740057
 20
353.9414054980504
 30
0.0000000000000000
 40
3.299999999999997
100
AcDbArc
 50
310.2282116100357
 51
379.2509456225276
  0
LINE
  5
4E9
100
AcDbEntity
  8
MAIN0
  6
HIDDEN
 62
12
100
AcDbLine
 10
470.9544386359812
 20
351.4219281857737
 30
0.0000000000000000
 11
470.2685437549330
 21
350.8417231478401
 31
0.0000000000000000
  0
ARC
  5
4EA
100
AcDbEntity
  8
MAIN0
  6
HIDDEN
 62
12
100
AcDbCircle
 10
470.9143773017789
 20
350.0782449033769
 30
0.0000000000000000
 40
1.000000000000000
100
AcDbArc
 50
130.2282007512279
 51
239.9999999999999
  0
LINE
  5
4EB
100
AcDbEntity
  8
MAIN0
  6
HIDDEN
 62
12
100
AcDbLine
 10
470.6731868740062
 20
349.0627957233980
 30
0.0000000000000000
 11
469.5231868740061
 21
347.0709372946936
 31
0.0000000000000000
  0
LINE
  5
4EC
100
AcDbEntity
  8
MAIN0
  6
HIDDEN
 62
12
100
AcDbLine
 10
468.9231868740059
 20
350.0731586944800
 30
0.0000000000000000
 11
467.7731868740058
 21
348.0813002657756
 31
0.0000000000000000
  0
LINE
  5
4ED
100
AcDbEntity
  8
MAIN0
  6
HIDDEN
 62
12
100
AcDbLine
 10
465.4231868740060
 20
352.0938846366436
 30
0.0000000000000000
 11
464.2731868740059
 21
350.1020262079392
 31
0.0000000000000000
  0
LINE
  5
4EE
100
AcDbEntity
  8
MAIN0
  6
HIDDEN
 62
3
100
AcDbLine
 10
506.5260797557414
 20
278.3046203159532
 30
0.0000000000000000
 11
508.0260797557415
 21
276.8046203159531
 31
0.0000000000000000
  0
LINE
  5
4EF
100
AcDbEntity
  8
MAIN0
  6
HIDDEN
 62
3
100
AcDbLine
 10
508.0260797557414
 20
276.8046203159532
 30
0.0000000000000000
 11
514.0260797557414
 21
276.8046203159532
 31
0.0000000000000000
  0
LINE
  5
4F0
100
AcDbEntity
  8
MAIN0
  6
HIDDEN
 62
3
100
AcDbLine
 10
514.0260797557414
 20
276.8046203159532
 30
0.0000000000000000
 11
514.5260797557414
 21
277.6706457197375
 31
0.0000000000000000
  0
LINE
  5
4F1
100
AcDbEntity
  8
MAIN0
  6
HIDDEN
 62
3
100
AcDbLine
 10
514.5260797557414
 20
277.6706457197377
 30
0.0000000000000000
 11
514.5260797557414
 21
281.9385949121688
 31
0.0000000000000000
  0
LINE
  5
4F2
100
AcDbEntity
  8
MAIN0
  6
HIDDEN
 62
3
100
AcDbLine
 10
514.5260797557414
 20
281.9385949121688
 30
0.0000000000000000
 11
514.0260797557414
 21
282.8046203159531
 31
0.0000000000000000
  0
LINE
  5
4F3
100
AcDbEntity
  8
MAIN0
  6
HIDDEN
 62
3
100
AcDbLine
 10
514.0260797557414
 20
282.8046203159532
 30
0.0000000000000000
 11
508.0260797557414
 21
282.8046203159532
 31
0.0000000000000000
  0
LINE
  5
4F4
100
AcDbEntity
  8
MAIN0
  6
HIDDEN
 62
3
100
AcDbLine
 10
508.0260797557415
 20
282.8046203159532
 30
0.0000000000000000
 11
506.5260797557415
 21
281.3046203159532
 31
0.0000000000000000
  0
LINE
  5
4F5
100
AcDbEntity
  8
MAIN0
  6
HIDDEN
 62
3
100
AcDbLine
 10
506.5260797557414
 20
281.3046203159532
 30
0.0000000000000000
 11
506.5260797557414
 21
278.3046203159532
 31
0.0000000000000000
  0
LINE
  5
4F6
100
AcDbEntity
  8
MAIN0
  6
HIDDEN
 62
3
100
AcDbLine
 10
508.0260797557414
 20
276.8046203159532
 30
0.0000000000000000
 11
508.0260797557414
 21
282.8046203159532
 31
0.0000000000000000
  0
LINE
  5
4F7
100
AcDbEntity
  8
MAIN0
  6
HIDDEN
 62
3
100
AcDbLine
 10
514.0260797557414
 20
276.8046203159532
 30
0.0000000000000000
 11
514.0260797557414
 21
282.8046203159532
 31
0.0000000000000000
  0
LINE
  5
4F8
100
AcDbEntity
  8
MAIN0
  6
HIDDEN
 62
3
100
AcDbLine
 10
507.4848137557414
 20
277.3458863159532
 30
0.0000000000000000
 11
514.3385798265447
 21
277.3458863159532
 31
0.0000000000000000
  0
LINE
  5
4F9
100
AcDbEntity
  8
MAIN0
  6
HIDDEN
 62
3
100
AcDbLine
 10
507.4848137557414
 20
282.2633543159532
 30
0.0000000000000000
 11
514.3385798265447
 21
282.2633543159532
 31
0.0000000000000000
  0
LINE
  5
4FA
100
AcDbEntity
  8
MAIN0
  6
HIDDEN
 62
3
100
AcDbLine
 10
506.5260797557415
 20
278.3046203159532
 30
0.0000000000000000
 11
508.0260797557414
 21
279.8046203159532
 31
0.0000000000000000
  0
LINE
  5
4FB
100
AcDbEntity
  8
MAIN0
  6
HIDDEN
 62
3
100
AcDbLine
 10
508.0260797557414
 20
279.8046203159532
 30
0.0000000000000000
 11
506.5260797557415
 21
281.3046203159531
 31
0.0000000000000000
  0
LINE
  5
4FC
100
AcDbEntity
  8
MAIN0
  6
HIDDEN
 62
3
100
AcDbLine
 10
404.3869472918964
 20
350.2746759387491
 30
0.0000000000000000
 11
404.9359853975731
 21
352.3237140444257
 31
0.0000000000000000
  0
LINE
  5
4FD
100
AcDbEntity
  8
MAIN0
  6
HIDDEN
 62
3
100
AcDbLine
 10
404.9359853975731
 20
352.3237140444257
 30
0.0000000000000000
 11
401.9359853975731
 21
357.5198664671323
 31
0.0000000000000000
  0
LINE
  5
4FE
100
AcDbEntity
  8
MAIN0
  6
HIDDEN
 62
3
100
AcDbLine
 10
401.9359853975731
 20
357.5198664671323
 30
0.0000000000000000
 11
400.9359853975732
 21
357.5198664671323
 31
0.0000000000000000
  0
LINE
  5
4FF
100
AcDbEntity
  8
MAIN0
  6
HIDDEN
 62
3
100
AcDbLine
 10
400.9359853975731
 20
357.5198664671323
 30
0.0000000000000000
 11
397.2398329748665
 21
355.3858918709167
 31
0.0000000000000000
  0
LINE
  5
500
100
AcDbEntity
  8
MAIN0
  6
HIDDEN
 62
3
100
AcDbLine
 10
397.2398329748665
 20
355.3858918709167
 30
0.0000000000000000
 11
396.7398329748665
 21
354.5198664671324
 31
0.0000000000000000
  0
LINE
  5
501
100
AcDbEntity
  8
MAIN0
  6
HIDDEN
 62
3
100
AcDbLine
 10
396.7398329748664
 20
354.5198664671323
 30
0.0000000000000000
 11
399.7398329748664
 21
349.3237140444257
 31
0.0000000000000000
  0
LINE
  5
502
100
AcDbEntity
  8
MAIN0
  6
HIDDEN
 62
3
100
AcDbLine
 10
399.7398329748664
 20
349.3237140444257
 30
0.0000000000000000
 11
401.7888710805431
 21
348.7746759387491
 31
0.0000000000000000
  0
LINE
  5
503
100
AcDbEntity
  8
MAIN0
  6
HIDDEN
 62
3
100
AcDbLine
 10
401.7888710805431
 20
348.7746759387490
 30
0.0000000000000000
 11
404.3869472918964
 21
350.2746759387490
 31
0.0000000000000000
  0
LINE
  5
504
100
AcDbEntity
  8
MAIN0
  6
HIDDEN
 62
3
100
AcDbLine
 10
404.9359853975731
 20
352.3237140444256
 30
0.0000000000000000
 11
399.7398329748664
 21
349.3237140444256
 31
0.0000000000000000
  0
LINE
  5
505
100
AcDbEntity
  8
MAIN0
  6
HIDDEN
 62
3
100
AcDbLine
 10
401.9359853975731
 20
357.5198664671323
 30
0.0000000000000000
 11
396.7398329748664
 21
354.5198664671323
 31
0.0000000000000000
  0
LINE
  5
506
100
AcDbEntity
  8
MAIN0
  6
HIDDEN
 62
3
100
AcDbLine
 10
404.7378682913683
 20
351.5843309382209
 30
0.0000000000000000
 11
401.3109852559667
 21
357.5198664671323
 31
0.0000000000000000
  0
LINE
  5
507
100
AcDbEntity
  8
MAIN0
  6
HIDDEN
 62
3
100
AcDbLine
 10
400.4792160810712
 20
349.1255969382209
 30
0.0000000000000000
 11
397.0523330456696
 21
355.0611324671323
 31
0.0000000000000000
  0
LINE
  5
508
100
AcDbEntity
  8
MAIN0
  6
HIDDEN
 62
3
100
AcDbLine
 10
404.3869472918964
 20
350.2746759387491
 30
0.0000000000000000
 11
402.3379091862198
 21
350.8237140444257
 31
0.0000000000000000
  0
LINE
  5
509
100
AcDbEntity
  8
MAIN0
  6
HIDDEN
 62
3
100
AcDbLine
 10
402.3379091862198
 20
350.8237140444257
 30
0.0000000000000000
 11
401.7888710805431
 21
348.7746759387491
 31
0.0000000000000000
  0
LINE
  5
50A
100
AcDbEntity
  8
MAIN0
  6
HIDDEN
 62
3
100
AcDbLine
 10
393.1286170426987
 20
225.8345646931575
 30
0.0000000000000000
 11
391.0795789370220
 21
225.2855265874808
 31
0.0000000000000000
  0
LINE
  5
50B
100
AcDbEntity
  8
MAIN0
  6
HIDDEN
 62
3
100
AcDbLine
 10
391.0795789370220
 20
225.2855265874808
 30
0.0000000000000000
 11
388.0795789370220
 21
220.0893741647742
 31
0.0000000000000000
  0
LINE
  5
50C
100
AcDbEntity
  8
MAIN0
  6
HIDDEN
 62
3
100
AcDbLine
 10
388.0795789370220
 20
220.0893741647742
 30
0.0000000000000000
 11
388.5795789370220
 21
219.2233487609898
 31
0.0000000000000000
  0
LINE
  5
50D
100
AcDbEntity
  8
MAIN0
  6
HIDDEN
 62
3
100
AcDbLine
 10
388.5795789370220
 20
219.2233487609898
 30
0.0000000000000000
 11
392.2757313597286
 21
217.0893741647742
 31
0.0000000000000000
  0
LINE
  5
50E
100
AcDbEntity
  8
MAIN0
  6
HIDDEN
 62
3
100
AcDbLine
 10
392.2757313597286
 20
217.0893741647742
 30
0.0000000000000000
 11
393.2757313597285
 21
217.0893741647742
 31
0.0000000000000000
  0
LINE
  5
50F
100
AcDbEntity
  8
MAIN0
  6
HIDDEN
 62
3
100
AcDbLine
 10
393.2757313597286
 20
217.0893741647742
 30
0.0000000000000000
 11
396.2757313597286
 21
222.2855265874808
 31
0.0000000000000000
  0
LINE
  5
510
100
AcDbEntity
  8
MAIN0
  6
HIDDEN
 62
3
100
AcDbLine
 10
396.2757313597286
 20
222.2855265874808
 30
0.0000000000000000
 11
395.7266932540520
 21
224.3345646931574
 31
0.0000000000000000
  0
LINE
  5
511
100
AcDbEntity
  8
MAIN0
  6
HIDDEN
 62
3
100
AcDbLine
 10
395.7266932540520
 20
224.3345646931575
 30
0.0000000000000000
 11
393.1286170426986
 21
225.8345646931575
 31
0.0000000000000000
  0
LINE
  5
512
100
AcDbEntity
  8
MAIN0
  6
HIDDEN
 62
3
100
AcDbLine
 10
391.0795789370220
 20
225.2855265874808
 30
0.0000000000000000
 11
396.2757313597286
 21
222.2855265874809
 31
0.0000000000000000
  0
LINE
  5
513
100
AcDbEntity
  8
MAIN0
  6
HIDDEN
 62
3
100
AcDbLine
 10
388.0795789370220
 20
220.0893741647742
 30
0.0000000000000000
 11
393.2757313597286
 21
217.0893741647742
 31
0.0000000000000000
  0
LINE
  5
514
100
AcDbEntity
  8
MAIN0
  6
HIDDEN
 62
3
100
AcDbLine
 10
391.8189620432268
 20
225.4836436936856
 30
0.0000000000000000
 11
388.3920790078252
 21
219.5481081647742
 31
0.0000000000000000
  0
LINE
  5
515
100
AcDbEntity
  8
MAIN0
  6
HIDDEN
 62
3
100
AcDbLine
 10
396.0776142535239
 20
223.0249096936856
 30
0.0000000000000000
 11
392.6507312181223
 21
217.0893741647742
 31
0.0000000000000000
  0
LINE
  5
516
100
AcDbEntity
  8
MAIN0
  6
HIDDEN
 62
3
100
AcDbLine
 10
393.1286170426986
 20
225.8345646931575
 30
0.0000000000000000
 11
393.6776551483753
 21
223.7855265874808
 31
0.0000000000000000
  0
LINE
  5
517
100
AcDbEntity
  8
MAIN0
  6
HIDDEN
 62
3
100
AcDbLine
 10
393.6776551483753
 20
223.7855265874808
 30
0.0000000000000000
 11
395.7266932540520
 21
224.3345646931575
 31
0.0000000000000000
  0
LINE
  5
518
100
AcDbEntity
  8
MAIN0
  6
CONTINUOUS
 62
3
100
AcDbLine
 10
403.1805480301014
 20
181.8046203159531
 30
0.0000000000000000
 11
419.1805480301014
 21
181.8046203159531
 31
0.0000000000000000
  0
LINE
  5
519
100
AcDbEntity
  8
MAIN0
  6
CONTINUOUS
 62
3
100
AcDbLine
 10
403.1805480301009
 20
180.8046203159531
 30
0.0000000000000000
 11
419.1805480301009
 21
180.8046203159531
 31
0.0000000000000000
  0
LINE
  5
51A
100
AcDbEntity
  8
MAIN0
  6
CONTINUOUS
 62
3
100
AcDbLine
 10
403.1805480301009
 20
180.8046203159531
 30
0.0000000000000000
 11
403.1805480301015
 21
181.8046203159531
 31
0.0000000000000000
  0
LINE
  5
51B
100
AcDbEntity
  8
MAIN0
  6
CONTINUOUS
 62
3
100
AcDbLine
 10
419.1805480301009
 20
180.8046203159531
 30
0.0000000000000000
 11
419.1805480301015
 21
181.8046203159531
 31
0.0000000000000000
  0
LINE
  5
51C
100
AcDbEntity
  8
MAIN0
  6
CONTINUOUS
 62
3
100
AcDbLine
 10
450.1805480301011
 20
181.8046203159531
 30
0.0000000000000000
 11
466.1805480301011
 21
181.8046203159531
 31
0.0000000000000000
  0
LINE
  5
51D
100
AcDbEntity
  8
MAIN0
  6
CONTINUOUS
 62
3
100
AcDbLine
 10
450.1805480301006
 20
180.8046203159531
 30
0.0000000000000000
 11
466.1805480301006
 21
180.8046203159531
 31
0.0000000000000000
  0
LINE
  5
51E
100
AcDbEntity
  8
MAIN0
  6
CONTINUOUS
 62
3
100
AcDbLine
 10
450.1805480301006
 20
180.8046203159531
 30
0.0000000000000000
 11
450.1805480301011
 21
181.8046203159531
 31
0.0000000000000000
  0
LINE
  5
51F
100
AcDbEntity
  8
MAIN0
  6
CONTINUOUS
 62
3
100
AcDbLine
 10
466.1805480301006
 20
180.8046203159531
 30
0.0000000000000000
 11
466.1805480301011
 21
181.8046203159531
 31
0.0000000000000000
  0
LINE
  5
520
100
AcDbEntity
  8
MAIN0
  6
CONTINUOUS
 62
3
100
AcDbLine
 10
113.6805480300143
 20
181.8046203159640
 30
0.0000000000000000
 11
129.6805480300143
 21
181.8046203159640
 31
0.0000000000000000
  0
LINE
  5
521
100
AcDbEntity
  8
MAIN0
  6
CONTINUOUS
 62
3
100
AcDbLine
 10
113.6805480300138
 20
180.8046203159640
 30
0.0000000000000000
 11
129.6805480300138
 21
180.8046203159640
 31
0.0000000000000000
  0
LINE
  5
522
100
AcDbEntity
  8
MAIN0
  6
CONTINUOUS
 62
3
100
AcDbLine
 10
113.6805480300137
 20
180.8046203159640
 30
0.0000000000000000
 11
113.6805480300143
 21
181.8046203159640
 31
0.0000000000000000
  0
LINE
  5
523
100
AcDbEntity
  8
MAIN0
  6
CONTINUOUS
 62
3
100
AcDbLine
 10
129.6805480300137
 20
180.8046203159640
 30
0.0000000000000000
 11
129.6805480300143
 21
181.8046203159640
 31
0.0000000000000000
  0
LINE
  5
524
100
AcDbEntity
  8
MAIN0
  6
HIDDEN
 62
3
100
AcDbLine
 10
181.9805480301237
 20
356.8046203159532
 30
0.0000000000000000
 11
183.4805480301237
 21
358.3046203159532
 31
0.0000000000000000
  0
LINE
  5
525
100
AcDbEntity
  8
MAIN0
  6
HIDDEN
 62
3
100
AcDbLine
 10
183.4805480301237
 20
358.3046203159532
 30
0.0000000000000000
 11
183.4805480301237
 21
364.3046203159532
 31
0.0000000000000000
  0
LINE
  5
526
100
AcDbEntity
  8
MAIN0
  6
HIDDEN
 62
3
100
AcDbLine
 10
183.4805480301237
 20
364.3046203159532
 30
0.0000000000000000
 11
182.6145226263393
 21
364.8046203159532
 31
0.0000000000000000
  0
LINE
  5
527
100
AcDbEntity
  8
MAIN0
  6
HIDDEN
 62
3
100
AcDbLine
 10
182.6145226263393
 20
364.8046203159532
 30
0.0000000000000000
 11
178.3465734339082
 21
364.8046203159532
 31
0.0000000000000000
  0
LINE
  5
528
100
AcDbEntity
  8
MAIN0
  6
HIDDEN
 62
3
100
AcDbLine
 10
178.3465734339082
 20
364.8046203159532
 30
0.0000000000000000
 11
177.4805480301237
 21
364.3046203159532
 31
0.0000000000000000
  0
LINE
  5
529
100
AcDbEntity
  8
MAIN0
  6
HIDDEN
 62
3
100
AcDbLine
 10
177.4805480301237
 20
364.3046203159532
 30
0.0000000000000000
 11
177.4805480301237
 21
358.3046203159532
 31
0.0000000000000000
  0
LINE
  5
52A
100
AcDbEntity
  8
MAIN0
  6
HIDDEN
 62
3
100
AcDbLine
 10
177.4805480301237
 20
358.3046203159532
 30
0.0000000000000000
 11
178.9805480301237
 21
356.8046203159532
 31
0.0000000000000000
  0
LINE
  5
52B
100
AcDbEntity
  8
MAIN0
  6
HIDDEN
 62
3
100
AcDbLine
 10
178.9805480301237
 20
356.8046203159532
 30
0.0000000000000000
 11
181.9805480301237
 21
356.8046203159532
 31
0.0000000000000000
  0
LINE
  5
52C
100
AcDbEntity
  8
MAIN0
  6
HIDDEN
 62
3
100
AcDbLine
 10
183.4805480301237
 20
358.3046203159532
 30
0.0000000000000000
 11
177.4805480301237
 21
358.3046203159532
 31
0.0000000000000000
  0
LINE
  5
52D
100
AcDbEntity
  8
MAIN0
  6
HIDDEN
 62
3
100
AcDbLine
 10
183.4805480301237
 20
364.3046203159532
 30
0.0000000000000000
 11
177.4805480301237
 21
364.3046203159532
 31
0.0000000000000000
  0
LINE
  5
52E
100
AcDbEntity
  8
MAIN0
  6
HIDDEN
 62
3
100
AcDbLine
 10
182.9392820301237
 20
357.7633543159532
 30
0.0000000000000000
 11
182.9392820301237
 21
364.6171203867564
 31
0.0000000000000000
  0
LINE
  5
52F
100
AcDbEntity
  8
MAIN0
  6
HIDDEN
 62
3
100
AcDbLine
 10
178.0218140301237
 20
357.7633543159532
 30
0.0000000000000000
 11
178.0218140301237
 21
364.6171203867564
 31
0.0000000000000000
  0
LINE
  5
530
100
AcDbEntity
  8
MAIN0
  6
HIDDEN
 62
3
100
AcDbLine
 10
181.9805480301237
 20
356.8046203159532
 30
0.0000000000000000
 11
180.4805480301237
 21
358.3046203159532
 31
0.0000000000000000
  0
LINE
  5
531
100
AcDbEntity
  8
MAIN0
  6
HIDDEN
 62
3
100
AcDbLine
 10
180.4805480301237
 20
358.3046203159532
 30
0.0000000000000000
 11
178.9805480301237
 21
356.8046203159532
 31
0.0000000000000000
  0
LINE
  5
532
100
AcDbEntity
  8
MAIN0
  6
HIDDEN
 62
3
100
AcDbLine
 10
183.7805480301237
 20
365.8046203159532
 30
0.0000000000000000
 11
182.9805480301237
 21
365.0046203159532
 31
0.0000000000000000
  0
LINE
  5
533
100
AcDbEntity
  8
MAIN0
  6
HIDDEN
 62
3
100
AcDbLine
 10
182.9805480301237
 20
365.0046203159532
 30
0.0000000000000000
 11
177.9805480301237
 21
365.0046203159532
 31
0.0000000000000000
  0
LINE
  5
534
100
AcDbEntity
  8
MAIN0
  6
HIDDEN
 62
3
100
AcDbLine
 10
177.9805480301237
 20
365.0046203159532
 30
0.0000000000000000
 11
177.1805480301237
 21
365.8046203159532
 31
0.0000000000000000
  0
LINE
  5
535
100
AcDbEntity
  8
MAIN0
  6
HIDDEN
 62
3
100
AcDbLine
 10
183.4805480301237
 20
365.5046203159532
 30
0.0000000000000000
 11
183.4805480301237
 21
357.8046203159532
 31
0.0000000000000000
  0
LINE
  5
536
100
AcDbEntity
  8
MAIN0
  6
HIDDEN
 62
3
100
AcDbLine
 10
183.4805480301237
 20
357.8046203159532
 30
0.0000000000000000
 11
177.4805480301237
 21
357.8046203159532
 31
0.0000000000000000
  0
LINE
  5
537
100
AcDbEntity
  8
MAIN0
  6
HIDDEN
 62
3
100
AcDbLine
 10
177.4805480301237
 20
357.8046203159532
 30
0.0000000000000000
 11
177.4805480301237
 21
365.5046203159532
 31
0.0000000000000000
  0
LINE
  5
538
100
AcDbEntity
  8
MAIN0
  6
HIDDEN
 62
3
100
AcDbLine
 10
182.9805480301237
 20
365.0046203159532
 30
0.0000000000000000
 11
182.9805480301237
 21
355.8046203159532
 31
0.0000000000000000
  0
LINE
  5
539
100
AcDbEntity
  8
MAIN0
  6
HIDDEN
 62
3
100
AcDbLine
 10
177.9805480301237
 20
355.8046203159532
 30
0.0000000000000000
 11
177.9805480301237
 21
365.0046203159532
 31
0.0000000000000000
  0
ARC
  5
53A
100
AcDbEntity
  8
MAIN0
  6
CONTINUOUS
 62
3
100
AcDbCircle
 10
434.6545672679977
 20
284.8196203159533
 30
0.0000000000000000
 40
79.72999999999996
100
AcDbArc
 50
316.1839215247394
 51
343.8160784752679
  0
LINE
  5
53B
100
AcDbEntity
  8
MAIN0
  6
CONTINUOUS
 62
3
100
AcDbLine
 10
454.5698383231510
 20
280.6538816299845
 30
0.0000000000000000
 11
506.6584333054386
 21
250.5805172952514
 31
0.0000000000000000
  0
LINE
  5
53C
100
AcDbEntity
  8
MAIN0
  6
CONTINUOUS
 62
3
100
AcDbLine
 10
501.0754025063755
 20
253.8038816299844
 30
0.0000000000000000
 11
507.4204025063755
 21
264.7937440040089
 31
0.0000000000000000
  0
LINE
  5
53D
100
AcDbEntity
  8
MAIN0
  6
CONTINUOUS
 62
3
100
AcDbLine
 10
511.2250219644425
 20
262.5971459357299
 30
0.0000000000000000
 11
466.9748383231507
 21
288.1450013727201
 31
0.0000000000000000
  0
LINE
  5
53E
100
AcDbEntity
  8
MAIN0
  6
CONTINUOUS
 62
3
100
AcDbLine
 10
466.9748383231508
 20
288.1450013727201
 30
0.0000000000000000
 11
458.8948383231511
 21
288.1450013727201
 31
0.0000000000000000
  0
LINE
  5
53F
100
AcDbEntity
  8
MAIN0
  6
CONTINUOUS
 62
3
100
AcDbLine
 10
443.8948383231515
 20
262.1642392591870
 30
0.0000000000000000
 11
458.8948383231513
 21
288.1450013727199
 31
0.0000000000000000
  0
LINE
  5
540
100
AcDbEntity
  8
MAIN0
  6
CONTINUOUS
 62
3
100
AcDbLine
 10
448.2198383231511
 20
269.6553590019222
 30
0.0000000000000000
 11
500.3084333054386
 21
239.5819946671891
 31
0.0000000000000000
  0
LINE
  5
541
100
AcDbEntity
  8
MAIN0
  6
CONTINUOUS
 62
3
100
AcDbLine
 10
492.1850219644426
 20
229.6188985596184
 30
0.0000000000000000
 11
446.0444774235663
 21
256.2581543708493
 31
0.0000000000000000
  0
LINE
  5
542
100
AcDbEntity
  8
MAIN0
  6
CONTINUOUS
 62
3
100
AcDbLine
 10
446.0444774235661
 20
256.2581543708493
 30
0.0000000000000000
 11
443.8948383231514
 21
262.1642392591871
 31
0.0000000000000000
  0
ARC
  5
543
100
AcDbEntity
  8
MAIN0
  6
CONTINUOUS
 62
3
100
AcDbCircle
 10
475.9033572502507
 20
261.0046203159540
 30
0.0000000000000000
 40
31.00000000000000
100
AcDbArc
 50
183.2297707281744
 51
292.1066545745861
  0
ARC
  5
544
100
AcDbEntity
  8
MAIN0
  6
CONTINUOUS
 62
3
100
AcDbCircle
 10
475.9033572502507
 20
261.0046203159540
 30
0.0000000000000000
 40
31.00000000000000
100
AcDbArc
 50
7.893345425411797
 51
118.8962491417251
  0
ARC
  5
545
100
AcDbEntity
  8
MAIN0
  6
CONTINUOUS
 62
3
100
AcDbCircle
 10
477.7170255675982
 20
286.9412856227092
 30
0.0000000000000000
 40
4.500000000000000
100
AcDbArc
 50
255.8623434205812
 51
584.1376565794199
  0
CIRCLE
  5
546
100
AcDbEntity
  8
MAIN0
  6
CONTINUOUS
 62
3
100
AcDbCircle
 10
477.7170255675978
 20
286.9412856227079
 30
0.0000000000000000
 40
4.249999999999996
  0
LINE
  5
547
100
AcDbEntity
  8
MAIN0
  6
CONTINUOUS
 62
3
100
AcDbLine
 10
475.8024453370668
 20
288.2326867765954
 30
0.0000000000000000
 11
477.8781213075753
 21
289.2450620355062
 31
0.0000000000000000
  0
LINE
  5
548
100
AcDbEntity
  8
MAIN0
  6
CONTINUOUS
 62
3
100
AcDbLine
 10
475.6413498063584
 20
285.9289133564891
 30
0.0000000000000000
 11
475.8024453370666
 21
288.2326867765951
 31
0.0000000000000000
  0
LINE
  5
549
100
AcDbEntity
  8
MAIN0
  6
CONTINUOUS
 62
3
100
AcDbLine
 10
477.5559298973764
 20
284.6375102074738
 30
0.0000000000000000
 11
475.6413498063586
 21
285.9289133564892
 31
0.0000000000000000
  0
LINE
  5
54A
100
AcDbEntity
  8
MAIN0
  6
CONTINUOUS
 62
3
100
AcDbLine
 10
479.6316057981284
 20
285.6498844688207
 30
0.0000000000000000
 11
477.5559298973764
 21
284.6375102074739
 31
0.0000000000000000
  0
LINE
  5
54B
100
AcDbEntity
  8
MAIN0
  6
CONTINUOUS
 62
3
100
AcDbLine
 10
479.7927015381059
 20
287.9536608816187
 30
0.0000000000000000
 11
479.6316057981283
 21
285.6498844688205
 31
0.0000000000000000
  0
LINE
  5
54C
100
AcDbEntity
  8
MAIN0
  6
CONTINUOUS
 62
3
100
AcDbLine
 10
477.8781213075753
 20
289.2450620355060
 30
0.0000000000000000
 11
479.7927015381063
 21
287.9536608816186
 31
0.0000000000000000
  0
LINE
  5
54D
100
AcDbEntity
  8
MAIN0
  6
CENTER
 62
12
100
AcDbLine
 10
478.1227431376244
 20
292.7433171861472
 30
0.0000000000000000
 11
477.3069390506960
 21
281.0767752081227
 31
0.0000000000000000
  0
ARC
  5
54E
100
AcDbEntity
  8
MAIN0
  6
CENTER
 62
12
100
AcDbCircle
 10
475.9033572502505
 20
261.0046203159535
 30
0.0000000000000000
 40
25.99999999999909
100
AcDbArc
 50
72.98344083986227
 51
99.13623095390284
  0
ARC
  5
54F
100
AcDbEntity
  8
MAIN0
  6
CONTINUOUS
 62
3
100
AcDbCircle
 10
497.4583341366817
 20
275.5436358061934
 30
0.0000000000000000
 40
4.500000000000000
100
AcDbArc
 50
255.8623434205805
 51
584.1376565794189
  0
CIRCLE
  5
550
100
AcDbEntity
  8
MAIN0
  6
CONTINUOUS
 62
3
100
AcDbCircle
 10
497.4583341366810
 20
275.5436358061922
 30
0.0000000000000000
 40
4.249999999999996
  0
ARC
  5
551
100
AcDbEntity
  8
MAIN0
  6
CENTER
 62
12
100
AcDbCircle
 10
475.9033572502505
 20
261.0046203159535
 30
0.0000000000000000
 40
25.99999999999909
100
AcDbArc
 50
21.88004582942359
 51
46.60318671941834
  0
LINE
  5
552
100
AcDbEntity
  8
MAIN0
  6
CONTINUOUS
 62
3
100
AcDbLine
 10
497.2972388438062
 20
277.8474115561328
 30
0.0000000000000000
 11
495.3826578156725
 21
276.5560103464717
 31
0.0000000000000000
  0
LINE
  5
553
100
AcDbEntity
  8
MAIN0
  6
CONTINUOUS
 62
3
100
AcDbLine
 10
495.3826578156727
 20
276.5560103464719
 30
0.0000000000000000
 11
495.5437539375849
 21
274.2522351557241
 31
0.0000000000000000
  0
LINE
  5
554
100
AcDbEntity
  8
MAIN0
  6
CENTER
 62
12
100
AcDbLine
 10
492.3332595569272
 20
272.0867293526959
 30
0.0000000000000000
 11
502.4605027948732
 21
278.9176411688253
 31
0.0000000000000000
  0
LINE
  5
555
100
AcDbEntity
  8
MAIN0
  6
CONTINUOUS
 62
3
100
AcDbLine
 10
495.5437539375848
 20
274.2522351557240
 30
0.0000000000000000
 11
497.6194319166683
 21
273.2398617338303
 31
0.0000000000000000
  0
LINE
  5
556
100
AcDbEntity
  8
MAIN0
  6
CONTINUOUS
 62
3
100
AcDbLine
 10
497.6194319166684
 20
273.2398617338303
 30
0.0000000000000000
 11
499.5340104576894
 21
274.5312612659127
 31
0.0000000000000000
  0
LINE
  5
557
100
AcDbEntity
  8
MAIN0
  6
CONTINUOUS
 62
3
100
AcDbLine
 10
499.5340104576894
 20
274.5312612659128
 30
0.0000000000000000
 11
499.3729151648147
 21
276.8350370158534
 31
0.0000000000000000
  0
LINE
  5
558
100
AcDbEntity
  8
MAIN0
  6
CONTINUOUS
 62
3
100
AcDbLine
 10
499.3729151648146
 20
276.8350370158534
 30
0.0000000000000000
 11
497.2972388438062
 21
277.8474115561330
 31
0.0000000000000000
  0
LINE
  5
559
100
AcDbEntity
  8
MAIN0
  6
CONTINUOUS
 62
3
100
AcDbLine
 10
488.3804025063754
 20
231.8154966278974
 30
0.0000000000000000
 11
494.7254025063754
 21
242.8053590019220
 31
0.0000000000000000
  0
ARC
  5
55A
100
AcDbEntity
  8
MAIN0
  6
CONTINUOUS
 62
3
100
AcDbCircle
 10
454.3483803638200
 20
246.4656048257143
 30
0.0000000000000000
 40
4.500000000000000
100
AcDbArc
 50
75.86234342058066
 51
404.1376565794192
  0
CIRCLE
  5
55B
100
AcDbEntity
  8
MAIN0
  6
CONTINUOUS
 62
3
100
AcDbCircle
 10
454.3483803638200
 20
246.4656048257145
 30
0.0000000000000000
 40
4.249999999999996
  0
ARC
  5
55C
100
AcDbEntity
  8
MAIN0
  6
CENTER
 62
12
100
AcDbCircle
 10
475.9033572502505
 20
261.0046203159533
 30
0.0000000000000000
 40
25.99999999999909
100
AcDbArc
 50
200.5830628313764
 51
227.0165591601384
  0
LINE
  5
55D
100
AcDbEntity
  8
MAIN0
  6
CONTINUOUS
 62
3
100
AcDbLine
 10
454.1872825838328
 20
248.7693788980763
 30
0.0000000000000000
 11
452.2727040428118
 21
247.4779793659939
 31
0.0000000000000000
  0
LINE
  5
55E
100
AcDbEntity
  8
MAIN0
  6
CONTINUOUS
 62
3
100
AcDbLine
 10
452.2727040428117
 20
247.4779793659941
 30
0.0000000000000000
 11
452.4337993356863
 21
245.1742036160533
 31
0.0000000000000000
  0
LINE
  5
55F
100
AcDbEntity
  8
MAIN0
  6
CONTINUOUS
 62
3
100
AcDbLine
 10
452.4337993356863
 20
245.1742036160533
 30
0.0000000000000000
 11
454.5094756566946
 21
244.1618290757738
 31
0.0000000000000000
  0
LINE
  5
560
100
AcDbEntity
  8
MAIN0
  6
CONTINUOUS
 62
3
100
AcDbLine
 10
454.5094756566947
 20
244.1618290757736
 30
0.0000000000000000
 11
456.4240566848284
 21
245.4532302854346
 31
0.0000000000000000
  0
LINE
  5
561
100
AcDbEntity
  8
MAIN0
  6
CONTINUOUS
 62
3
100
AcDbLine
 10
456.4240566848286
 20
245.4532302854352
 30
0.0000000000000000
 11
456.2629605629164
 21
247.7570054761829
 31
0.0000000000000000
  0
LINE
  5
562
100
AcDbEntity
  8
MAIN0
  6
CONTINUOUS
 62
3
100
AcDbLine
 10
456.2629605629163
 20
247.7570054761826
 30
0.0000000000000000
 11
454.1872825838328
 21
248.7693788980763
 31
0.0000000000000000
  0
LINE
  5
563
100
AcDbEntity
  8
MAIN0
  6
CENTER
 62
12
100
AcDbLine
 10
448.8861849869920
 20
242.7813075233866
 30
0.0000000000000000
 11
459.1939829708298
 21
249.7340050533764
 31
0.0000000000000000
  0
ARC
  5
564
100
AcDbEntity
  8
MAIN0
  6
CONTINUOUS
 62
3
100
AcDbCircle
 10
474.0896889329032
 20
235.0679550091986
 30
0.0000000000000000
 40
4.500000000000000
100
AcDbArc
 50
75.86234342058097
 51
404.1376565794196
  0
CIRCLE
  5
565
100
AcDbEntity
  8
MAIN0
  6
CONTINUOUS
 62
3
100
AcDbCircle
 10
474.0896889329035
 20
235.0679550091988
 30
0.0000000000000000
 40
4.249999999999996
  0
LINE
  5
566
100
AcDbEntity
  8
MAIN0
  6
CENTER
 62
12
100
AcDbLine
 10
474.4808704641167
 20
240.6621115328812
 30
0.0000000000000000
 11
473.6769859514657
 21
229.1660274085211
 31
0.0000000000000000
  0
LINE
  5
567
100
AcDbEntity
  8
MAIN0
  6
CONTINUOUS
 62
3
100
AcDbLine
 10
474.2507846031245
 20
237.3717304244327
 30
0.0000000000000000
 11
476.1653646941425
 21
236.0803272754172
 31
0.0000000000000000
  0
LINE
  5
568
100
AcDbEntity
  8
MAIN0
  6
CONTINUOUS
 62
3
100
AcDbLine
 10
476.1653646941422
 20
236.0803272754173
 30
0.0000000000000000
 11
476.0042691634340
 21
233.7765538553113
 31
0.0000000000000000
  0
LINE
  5
569
100
AcDbEntity
  8
MAIN0
  6
CONTINUOUS
 62
3
100
AcDbLine
 10
476.0042691634343
 20
233.7765538553115
 30
0.0000000000000000
 11
473.9285931929258
 21
232.7641785964007
 31
0.0000000000000000
  0
LINE
  5
56A
100
AcDbEntity
  8
MAIN0
  6
CONTINUOUS
 62
3
100
AcDbLine
 10
473.9285931929258
 20
232.7641785964006
 30
0.0000000000000000
 11
472.0140129623950
 21
234.0555797502879
 31
0.0000000000000000
  0
ARC
  5
56B
100
AcDbEntity
  8
MAIN0
  6
CENTER
 62
12
100
AcDbCircle
 10
475.9033572502505
 20
261.0046203159533
 30
0.0000000000000000
 40
25.99999999999909
100
AcDbArc
 50
253.3968132805819
 51
279.4727618075866
  0
LINE
  5
56C
100
AcDbEntity
  8
MAIN0
  6
CONTINUOUS
 62
3
100
AcDbLine
 10
472.0140129623948
 20
234.0555797502879
 30
0.0000000000000000
 11
472.1751087023724
 21
236.3593561630860
 31
0.0000000000000000
  0
LINE
  5
56D
100
AcDbEntity
  8
MAIN0
  6
CONTINUOUS
 62
3
100
AcDbLine
 10
472.1751087023725
 20
236.3593561630860
 30
0.0000000000000000
 11
474.2507846031244
 21
237.3717304244328
 31
0.0000000000000000
  0
LINE
  5
56E
100
AcDbEntity
  8
MAIN0
  6
CENTER
 62
12
100
AcDbLine
 10
458.1658843158376
 20
230.2824159956722
 30
0.0000000000000000
 11
493.8190774742325
 21
292.0355579980792
 31
0.0000000000000000
  0
ARC
  5
56F
100
AcDbEntity
  8
MAIN0
  6
CONTINUOUS
 62
3
100
AcDbCircle
 10
434.6805480301126
 20
284.7746203159525
 30
0.0000000000000000
 40
79.72999999999996
100
AcDbArc
 50
76.18392152473926
 51
103.8160784752678
  0
LINE
  5
570
100
AcDbEntity
  8
MAIN0
  6
CONTINUOUS
 62
3
100
AcDbLine
 10
428.3305480301127
 20
357.8046203159527
 30
0.0000000000000000
 11
428.3305480301127
 21
364.2513489854188
 31
0.0000000000000000
  0
LINE
  5
571
100
AcDbEntity
  8
MAIN0
  6
CONTINUOUS
 62
3
100
AcDbLine
 10
415.6405480301126
 20
362.1978164525108
 30
0.0000000000000000
 11
415.6405480301126
 21
357.8046203159528
 31
0.0000000000000000
  0
LINE
  5
572
100
AcDbEntity
  8
MAIN0
  6
CONTINUOUS
 62
3
100
AcDbLine
 10
441.0305480301125
 20
357.8046203159528
 30
0.0000000000000000
 11
441.0305480301125
 21
364.2513489854188
 31
0.0000000000000000
  0
LINE
  5
573
100
AcDbEntity
  8
MAIN0
  6
CONTINUOUS
 62
3
100
AcDbLine
 10
453.7205480301125
 20
362.1978164525109
 30
0.0000000000000000
 11
453.7205480301125
 21
357.8046203159527
 31
0.0000000000000000
  0
ARC
  5
574
100
AcDbEntity
  8
MAIN0
  6
CONTINUOUS
 62
3
100
AcDbCircle
 10
434.6805480301119
 20
332.4046203159523
 30
0.0000000000000000
 40
31.00000000000000
100
AcDbArc
 50
325.0202626867264
 51
394.9797373132733
  0
ARC
  5
575
100
AcDbEntity
  8
MAIN0
  6
CONTINUOUS
 62
3
100
AcDbCircle
 10
434.6805480301119
 20
332.4046203159523
 30
0.0000000000000000
 40
31.00000000000000
100
AcDbArc
 50
145.0202626867197
 51
214.9797373132804
  0
ARC
  5
576
100
AcDbEntity
  8
MAIN0
  6
CONTINUOUS
 62
3
100
AcDbCircle
 10
411.3119028263337
 20
321.0069704994367
 30
0.0000000000000000
 40
4.500000000000000
100
AcDbArc
 50
116.8343239129988
 51
243.1656760870013
  0
ARC
  5
577
100
AcDbEntity
  8
MAIN0
  6
CONTINUOUS
 62
3
100
AcDbCircle
 10
411.3119028263350
 20
321.0069704994369
 30
0.0000000000000000
 40
4.249999999999996
100
AcDbArc
 50
118.5526315233514
 51
241.4473684766486
  0
LINE
  5
578
100
AcDbEntity
  8
MAIN0
  6
CONTINUOUS
 62
3
100
AcDbLine
 10
409.2805480301131
 20
319.9646997599400
 30
0.0000000000000000
 11
409.2362260582233
 21
319.9945952962997
 31
0.0000000000000000
  0
LINE
  5
579
100
AcDbEntity
  8
MAIN0
  6
CONTINUOUS
 62
3
100
AcDbLine
 10
409.2362260582237
 20
319.9945952962998
 30
0.0000000000000000
 11
409.2805480301132
 21
320.6284274473699
 31
0.0000000000000000
  0
LINE
  5
57A
100
AcDbEntity
  8
MAIN0
  6
CENTER
 62
12
100
AcDbLine
 10
406.0843373138241
 20
318.4573164401220
 30
0.0000000000000000
 11
416.5957610845751
 21
323.5840803653430
 31
0.0000000000000000
  0
ARC
  5
57B
100
AcDbEntity
  8
MAIN0
  6
CENTER
 62
12
100
AcDbCircle
 10
434.6805480301125
 20
332.4046203159523
 30
0.0000000000000000
 40
25.99999999999909
100
AcDbArc
 50
192.9834408398621
 51
219.1362309539027
  0
ARC
  5
57C
100
AcDbEntity
  8
MAIN0
  6
CONTINUOUS
 62
3
100
AcDbCircle
 10
411.3119028263337
 20
343.8022701324682
 30
0.0000000000000000
 40
4.500000000000000
100
AcDbArc
 50
116.8343239129982
 51
243.1656760870017
  0
ARC
  5
57D
100
AcDbEntity
  8
MAIN0
  6
CONTINUOUS
 62
3
100
AcDbCircle
 10
411.3119028263351
 20
343.8022701324682
 30
0.0000000000000000
 40
4.249999999999996
100
AcDbArc
 50
118.5526315233539
 51
241.4473684766462
  0
ARC
  5
57E
100
AcDbEntity
  8
MAIN0
  6
CENTER
 62
12
100
AcDbCircle
 10
434.6805480301125
 20
332.4046203159523
 30
0.0000000000000000
 40
25.99999999999909
100
AcDbArc
 50
141.8800458294235
 51
166.6031867194182
  0
LINE
  5
57F
100
AcDbEntity
  8
MAIN0
  6
CENTER
 62
12
100
AcDbLine
 10
416.8682089234461
 20
341.0922785768597
 30
0.0000000000000000
 11
405.8888441406937
 21
346.4472725831605
 31
0.0000000000000000
  0
LINE
  5
580
100
AcDbEntity
  8
MAIN0
  6
CONTINUOUS
 62
3
100
AcDbLine
 10
409.2805480301131
 20
344.8445408719649
 30
0.0000000000000000
 11
409.2362260582235
 21
344.8146453356052
 31
0.0000000000000000
  0
LINE
  5
581
100
AcDbEntity
  8
MAIN0
  6
CONTINUOUS
 62
3
100
AcDbLine
 10
409.2362260582237
 20
344.8146453356051
 30
0.0000000000000000
 11
409.2805480301131
 21
344.1808131845342
 31
0.0000000000000000
  0
ARC
  5
582
100
AcDbEntity
  8
MAIN0
  6
CONTINUOUS
 62
3
100
AcDbCircle
 10
458.0491932338903
 20
321.0069704994367
 30
0.0000000000000000
 40
4.500000000000000
100
AcDbArc
 50
296.8343239130277
 51
423.1656760869722
  0
ARC
  5
583
100
AcDbEntity
  8
MAIN0
  6
CONTINUOUS
 62
3
100
AcDbCircle
 10
458.0491932338902
 20
321.0069704994366
 30
0.0000000000000000
 40
4.249999999999996
100
AcDbArc
 50
298.5526315233644
 51
421.4473684766356
  0
ARC
  5
584
100
AcDbEntity
  8
MAIN0
  6
CENTER
 62
12
100
AcDbCircle
 10
434.6805480301126
 20
332.4046203159525
 30
0.0000000000000000
 40
25.99999999999909
100
AcDbArc
 50
320.5830628313763
 51
347.0165591601383
  0
LINE
  5
585
100
AcDbEntity
  8
MAIN0
  6
CONTINUOUS
 62
3
100
AcDbLine
 10
460.0805480301129
 20
319.9646997599408
 30
0.0000000000000000
 11
460.1248700020013
 21
319.9945952962996
 31
0.0000000000000000
  0
LINE
  5
586
100
AcDbEntity
  8
MAIN0
  6
CONTINUOUS
 62
3
100
AcDbLine
 10
460.1248700020015
 20
319.9945952962997
 30
0.0000000000000000
 11
460.0805480301128
 21
320.6284274473599
 31
0.0000000000000000
  0
LINE
  5
587
100
AcDbEntity
  8
MAIN0
  6
CENTER
 62
12
100
AcDbLine
 10
463.9709859812147
 20
318.1187191938335
 30
0.0000000000000000
 11
452.7958743034952
 21
323.5691853399202
 31
0.0000000000000000
  0
ARC
  5
588
100
AcDbEntity
  8
MAIN0
  6
CONTINUOUS
 62
3
100
AcDbCircle
 10
458.0491932338904
 20
343.8022701324680
 30
0.0000000000000000
 40
4.500000000000000
100
AcDbArc
 50
296.8343239130263
 51
423.1656760869728
  0
ARC
  5
589
100
AcDbEntity
  8
MAIN0
  6
CONTINUOUS
 62
3
100
AcDbCircle
 10
458.0491932338902
 20
343.8022701324682
 30
0.0000000000000000
 40
4.249999999999996
100
AcDbArc
 50
298.5526315233653
 51
421.4473684766339
  0
LINE
  5
58A
100
AcDbEntity
  8
MAIN0
  6
CENTER
 62
12
100
AcDbLine
 10
453.0089208060281
 20
341.3439650141489
 30
0.0000000000000000
 11
463.3667639580924
 21
346.3958226666643
 31
0.0000000000000000
  0
LINE
  5
58B
100
AcDbEntity
  8
MAIN0
  6
CONTINUOUS
 62
3
100
AcDbLine
 10
460.0805480301129
 20
344.8445408719639
 30
0.0000000000000000
 11
460.1248700020013
 21
344.8146453356051
 31
0.0000000000000000
  0
LINE
  5
58C
100
AcDbEntity
  8
MAIN0
  6
CONTINUOUS
 62
3
100
AcDbLine
 10
460.1248700020016
 20
344.8146453356051
 30
0.0000000000000000
 11
460.0805480301129
 21
344.1808131845460
 31
0.0000000000000000
  0
ARC
  5
58D
100
AcDbEntity
  8
MAIN0
  6
CENTER
 62
12
100
AcDbCircle
 10
434.6805480301126
 20
332.4046203159525
 30
0.0000000000000000
 40
25.99999999999909
100
AcDbArc
 50
13.39681328058179
 51
39.47276180758644
  0
LINE
  5
58E
100
AcDbEntity
  8
MAIN0
  6
CENTER
 62
12
100
AcDbLine
 10
470.1554938989384
 20
332.4046203159526
 30
0.0000000000000000
 11
398.8491075821488
 21
332.4046203159526
 31
0.0000000000000000
  0
LINE
  5
58F
100
AcDbEntity
  8
MAIN0
  6
CONTINUOUS
 62
3
100
AcDbLine
 10
415.6405480301127
 20
357.8046203159528
 30
0.0000000000000000
 11
453.7205480301126
 21
357.8046203159527
 31
0.0000000000000000
  0
LINE
  5
590
100
AcDbEntity
  8
MAIN2
  6
PHANTOM
 62
3
100
AcDbLine
 10
204.1805480300826
 20
298.7349197775744
 30
0.0000000000000000
 11
204.1805480300826
 21
270.8743208543320
 31
0.0000000000000000
  0
LINE
  5
591
100
AcDbEntity
  8
MAIN0
  6
PHANTOM
 62
3
100
AcDbLine
 10
202.4125988264085
 20
299.7556457262289
 30
0.0000000000000000
 11
204.1805480300827
 21
298.7349197775744
 31
0.0000000000000000
  0
LINE
  5
592
100
AcDbEntity
  8
MAIN0
  6
PHANTOM
 62
3
100
AcDbLine
 10
202.4125988376515
 20
269.8535949121687
 30
0.0000000000000000
 11
204.1805480300826
 21
270.8743208543320
 31
0.0000000000000000
  0
CIRCLE
  5
593
100
AcDbEntity
  8
MAIN0
  6
CONTINUOUS
 62
3
100
AcDbCircle
 10
445.6805480301005
 20
194.3046203159531
 30
0.0000000000000000
 40
5.000000000000000
  0
LINE
  5
594
100
AcDbEntity
  8
MAIN0
  6
CONTINUOUS
 62
3
100
AcDbLine
 10
445.6805480301004
 20
197.1913716619013
 30
0.0000000000000000
 11
443.1805480301004
 21
195.7479959889272
 31
0.0000000000000000
  0
LINE
  5
595
100
AcDbEntity
  8
MAIN0
  6
CONTINUOUS
 62
3
100
AcDbLine
 10
443.1805480301005
 20
195.7479959889272
 30
0.0000000000000000
 11
443.1805480301005
 21
192.8612446429791
 31
0.0000000000000000
  0
LINE
  5
596
100
AcDbEntity
  8
MAIN0
  6
CONTINUOUS
 62
3
100
AcDbLine
 10
443.1805480301003
 20
192.8612446429791
 30
0.0000000000000000
 11
445.6805480301003
 21
191.4178689700050
 31
0.0000000000000000
  0
LINE
  5
597
100
AcDbEntity
  8
MAIN0
  6
CONTINUOUS
 62
3
100
AcDbLine
 10
445.6805480301004
 20
191.4178689700050
 30
0.0000000000000000
 11
448.1805480301004
 21
192.8612446429791
 31
0.0000000000000000
  0
LINE
  5
598
100
AcDbEntity
  8
MAIN0
  6
CONTINUOUS
 62
3
100
AcDbLine
 10
448.1805480301005
 20
192.8612446429791
 30
0.0000000000000000
 11
448.1805480301005
 21
195.7479959889272
 31
0.0000000000000000
  0
LINE
  5
599
100
AcDbEntity
  8
MAIN0
  6
CONTINUOUS
 62
3
100
AcDbLine
 10
448.1805480301003
 20
195.7479959889272
 30
0.0000000000000000
 11
445.6805480301003
 21
197.1913716619013
 31
0.0000000000000000
  0
CIRCLE
  5
59A
100
AcDbEntity
  8
MAIN0
  6
CONTINUOUS
 62
3
100
AcDbCircle
 10
423.6805480301005
 20
194.3046203159531
 30
0.0000000000000000
 40
5.000000000000000
  0
LINE
  5
59B
100
AcDbEntity
  8
MAIN0
  6
CONTINUOUS
 62
3
100
AcDbLine
 10
423.6805480301004
 20
197.1913716619014
 30
0.0000000000000000
 11
421.1805480301004
 21
195.7479959889273
 31
0.0000000000000000
  0
LINE
  5
59C
100
AcDbEntity
  8
MAIN0
  6
CONTINUOUS
 62
3
100
AcDbLine
 10
421.1805480301005
 20
195.7479959889272
 30
0.0000000000000000
 11
421.1805480301005
 21
192.8612446429791
 31
0.0000000000000000
  0
LINE
  5
59D
100
AcDbEntity
  8
MAIN0
  6
CONTINUOUS
 62
3
100
AcDbLine
 10
421.1805480301004
 20
192.8612446429791
 30
0.0000000000000000
 11
423.6805480301004
 21
191.4178689700050
 31
0.0000000000000000
  0
LINE
  5
59E
100
AcDbEntity
  8
MAIN0
  6
CONTINUOUS
 62
3
100
AcDbLine
 10
423.6805480301003
 20
191.4178689700051
 30
0.0000000000000000
 11
426.1805480301004
 21
192.8612446429792
 31
0.0000000000000000
  0
LINE
  5
59F
100
AcDbEntity
  8
MAIN0
  6
CONTINUOUS
 62
3
100
AcDbLine
 10
426.1805480301005
 20
192.8612446429791
 30
0.0000000000000000
 11
426.1805480301005
 21
195.7479959889272
 31
0.0000000000000000
  0
LINE
  5
5A0
100
AcDbEntity
  8
MAIN0
  6
CONTINUOUS
 62
3
100
AcDbLine
 10
426.1805480301003
 20
195.7479959889272
 30
0.0000000000000000
 11
423.6805480301004
 21
197.1913716619013
 31
0.0000000000000000
  0
LINE
  5
5A1
100
AcDbEntity
  8
WAKU0
  6
CONTINUOUS
 62
3
100
AcDbLine
 10
412.0000000000000
 20
51.00000000000000
 30
0.0000000000000000
 11
582.0000000000000
 21
51.00000000000000
 31
0.0000000000000000
  0
LINE
  5
5A2
100
AcDbEntity
  8
WAKU0
  6
CONTINUOUS
 62
3
100
AcDbLine
 10
412.0000000000000
 20
51.00000000000000
 30
0.0000000000000000
 11
412.0000000000000
 21
12.00000000000000
 31
0.0000000000000000
  0
LINE
  5
5A3
100
AcDbEntity
  8
WAKU0
  6
CONTINUOUS
 62
3
100
AcDbLine
 10
484.0000000000000
 20
51.00000000000000
 30
0.0000000000000000
 11
484.0000000000000
 21
12.00000000000000
 31
0.0000000000000000
  0
LINE
  5
5A4
100
AcDbEntity
  8
WAKU0
  6
CONTINUOUS
 62
3
100
AcDbLine
 10
504.0000000000000
 20
51.00000000000000
 30
0.0000000000000000
 11
504.0000000000000
 21
12.00000000000000
 31
0.0000000000000000
  0
LINE
  5
5A5
100
AcDbEntity
  8
WAKU0
  6
CONTINUOUS
 62
3
100
AcDbLine
 10
516.0000000000000
 20
51.00000000000000
 30
0.0000000000000000
 11
516.0000000000000
 21
12.00000000000000
 31
0.0000000000000000
  0
LINE
  5
5A6
100
AcDbEntity
  8
WAKU0
  6
CONTINUOUS
 62
3
100
AcDbLine
 10
516.0000000000000
 20
37.00000000000000
 30
0.0000000000000000
 11
582.0000000000000
 21
37.00000000000000
 31
0.0000000000000000
  0
LINE
  5
5A7
100
AcDbEntity
  8
WAKU0
  6
CONTINUOUS
 62
3
100
AcDbLine
 10
504.0000000000000
 20
23.00000000000000
 30
0.0000000000000000
 11
582.0000000000000
 21
23.00000000000000
 31
0.0000000000000000
  0
LINE
  5
5A8
100
AcDbEntity
  8
WAKU0
  6
CONTINUOUS
 62
3
100
AcDbLine
 10
547.0000000000000
 20
51.00000000000000
 30
0.0000000000000000
 11
547.0000000000000
 21
44.00000000000000
 31
0.0000000000000000
  0
LINE
  5
5A9
100
AcDbEntity
  8
WAKU0
  6
CONTINUOUS
 62
3
100
AcDbLine
 10
559.0000000000000
 20
51.00000000000000
 30
0.0000000000000000
 11
559.0000000000000
 21
44.00000000000000
 31
0.0000000000000000
  0
LINE
  5
5AA
100
AcDbEntity
  8
WAKU0
  6
CONTINUOUS
 62
3
100
AcDbLine
 10
484.0000000000000
 20
31.50000000000000
 30
0.0000000000000000
 11
504.0000000000000
 21
31.50000000000000
 31
0.0000000000000000
  0
LINE
  5
5AB
100
AcDbEntity
  8
WAKU0
  6
CONTINUOUS
 62
3
100
AcDbLine
 10
504.0000000000000
 20
44.00000000000000
 30
0.0000000000000000
 11
582.0000000000000
 21
44.00000000000000
 31
0.0000000000000000
  0
LINE
  5
5AC
100
AcDbEntity
  8
WAKU0
  6
CONTINUOUS
 62
3
100
AcDbLine
 10
412.0000000000000
 20
37.00000000000000
 30
0.0000000000000000
 11
484.0000000000000
 21
37.00000000000000
 31
0.0000000000000000
  0
LINE
  5
5AD
100
AcDbEntity
  8
WAKU0
  6
CONTINUOUS
 62
3
100
AcDbLine
 10
412.0000000000000
 20
23.00000000000000
 30
0.0000000000000000
 11
484.0000000000000
 21
23.00000000000000
 31
0.0000000000000000
  0
LINE
  5
5AE
100
AcDbEntity
  8
WAKU0
  6
CONTINUOUS
 62
3
100
AcDbLine
 10
460.0000000000000
 20
37.00000000000000
 30
0.0000000000000000
 11
460.0000000000000
 21
12.00000000000000
 31
0.0000000000000000
  0
LINE
  5
5AF
100
AcDbEntity
  8
WAKU0
  6
CONTINUOUS
 62
3
100
AcDbLine
 10
436.0000000000000
 20
37.00000000000000
 30
0.0000000000000000
 11
436.0000000000000
 21
23.00000000000000
 31
0.0000000000000000
  0
LINE
  5
5B0
100
AcDbEntity
  8
WAKU0
  6
CONTINUOUS
 62
3
100
AcDbLine
 10
472.0000000000000
 20
26.00000000000000
 30
0.0000000000000000
 11
472.0000000000000
 21
23.00000000000000
 31
0.0000000000000000
  0
LINE
  5
5B1
100
AcDbEntity
  8
WAKU0
  6
CONTINUOUS
 62
3
100
AcDbLine
 10
448.0000000000000
 20
26.00000000000000
 30
0.0000000000000000
 11
448.0000000000000
 21
23.00000000000000
 31
0.0000000000000000
  0
LINE
  5
5B2
100
AcDbEntity
  8
WAKU0
  6
CONTINUOUS
 62
3
100
AcDbLine
 10
424.0000000000000
 20
26.00000000000000
 30
0.0000000000000000
 11
424.0000000000000
 21
23.00000000000000
 31
0.0000000000000000
  0
LINE
  5
5B3
100
AcDbEntity
  8
WAKU0
  6
CONTINUOUS
 62
3
100
AcDbLine
 10
430.0000000000000
 20
51.00000000000000
 30
0.0000000000000000
 11
430.0000000000000
 21
37.00000000000000
 31
0.0000000000000000
  0
LINE
  5
5B4
100
AcDbEntity
  8
WAKU0
  6
CONTINUOUS
 62
3
100
AcDbLine
 10
412.0000000000000
 20
45.00000000000000
 30
0.0000000000000000
 11
484.0000000000000
 21
45.00000000000000
 31
0.0000000000000000
  0
LINE
  5
5B5
100
AcDbEntity
  8
WAKU0
  6
HIDDEN
 62
3
100
AcDbLine
 10
532.5000000000000
 20
23.00000000000000
 30
0.0000000000000000
 11
532.5000000000000
 21
12.00000000000000
 31
0.0000000000000000
  0
LINE
  5
5B6
100
AcDbEntity
  8
WAKU0
  6
HIDDEN
 62
3
100
AcDbLine
 10
544.9000000000000
 20
23.00000000000000
 30
0.0000000000000000
 11
544.9000000000000
 21
12.00000000000000
 31
0.0000000000000000
  0
MTEXT
  5
5B7
100
AcDbEntity
  8
WAKU0
  6
CONTINUOUS
 62
3
100
AcDbMText
 10
516.4820000243485
 20
49.04999995231628
 30
0.0000000000000000
 40
3.099999904632568
 41
0.0000000000000000
 71
     1
 72
     1
  1
{\H0.92x;{PWS06}}
 11
1.000000000000000
 21
0.0000000000000000
 31
0.0000000000000000
  7
STANDARD
  0
MTEXT
  5
5B8
100
AcDbEntity
  8
WAKU0
  6
CONTINUOUS
 62
3
100
AcDbMText
 10
516.4659999916852
 20
43.50000000000000
 30
0.0000000000000000
 40
3.000000000000000
 41
0.0000000000000000
 71
     1
 72
     1
  1
{\H0.94x;{ワークグリッパ　６\PＷＯＲＫ　ＧＲＩＰＰＥＲ　６}}
 11
1.000000000000000
 21
0.0000000000000000
 31
0.0000000000000000
  7
KNJYOKO
  0
MTEXT
  5
5B9
100
AcDbEntity
  8
WAKU0
  6
CONTINUOUS
 62
3
100
AcDbMText
 10
516.4820000243485
 20
34.23333326975504
 30
0.0000000000000000
 40
3.099999904632568
 41
0.0000000000000000
 71
     1
 72
     1
  1
{\H0.94x;{ＰＷＳ０６　ガイケイ\PＯＵＴＳＩＤＥ　ＶＩＥＷ}}
 11
1.000000000000000
 21
0.0000000000000000
 31
0.0000000000000000
  7
KNJYOKO
  0
MTEXT
  5
5BA
100
AcDbEntity
  8
WAKU0
  6
CONTINUOUS
 62
3
100
AcDbMText
 10
490.0049998760223
 20
39.29999995231628
 30
0.0000000000000000
 40
3.099999904632568
 41
0.0000000000000000
 71
     1
 72
     1
  1
{\H0.90x;{1:1}}
 11
1.000000000000000
 21
0.0000000000000000
 31
0.0000000000000000
  7
STANDARD
  0
MTEXT
  5
5BB
100
AcDbEntity
  8
WAKU0
  6
CONTINUOUS
 62
3
100
AcDbMText
 10
546.4000001549721
 20
20.15000009536743
 30
0.0000000000000000
 40
5.300000190734863
 41
0.0000000000000000
 71
     1
 72
     1
  1
{\H0.90x;{5896}}
 11
1.000000000000000
 21
0.0000000000000000
 31
0.0000000000000000
  7
STANDARD
  0
MTEXT
  5
5BC
100
AcDbEntity
  8
WAKU0
  6
CONTINUOUS
 62
3
100
AcDbMText
 10
534.3000000834466
 20
20.15000009536743
 30
0.0000000000000000
 40
5.300000190734863
 41
0.0000000000000000
 71
     1
 72
     1
  1
{\H0.87x;{26}}
 11
1.000000000000000
 21
0.0000000000000000
 31
0.0000000000000000
  7
STANDARD
  0
MTEXT
  5
5BD
100
AcDbEntity
  8
WAKU0
  6
CONTINUOUS
 62
3
100
AcDbMText
 10
517.5000001192093
 20
20.15000009536743
 30
0.0000000000000000
 40
5.300000190734863
 41
0.0000000000000000
 71
     1
 72
     1
  1
{\H0.89x;{61P}}
 11
1.000000000000000
 21
0.0000000000000000
 31
0.0000000000000000
  7
STANDARD
  0
MTEXT
  5
5BE
100
AcDbEntity
  8
WAKU0
  6
CONTINUOUS
 62
3
100
AcDbMText
 10
572.0000000476837
 20
20.15000009536743
 30
0.0000000000000000
 40
5.300000190734863
 41
0.0000000000000000
 71
     1
 72
     1
  1
{\H0.81x;{3}}
 11
1.000000000000000
 21
0.0000000000000000
 31
0.0000000000000000
  7
STANDARD
  0
MTEXT
  5
5BF
100
AcDbEntity
  8
WAKU0
  6
CONTINUOUS
 62
3
100
AcDbMText
 10
572.0000000819564
 20
44.84999990463257
 30
0.0000000000000000
 40
5.300000190734863
 41
0.0000000000000000
 71
     7
 72
     1
  1
{\H0.81x;{ }}
 11
1.000000000000000
 21
0.0000000000000000
 31
0.0000000000000000
  7
STANDARD
  0
MTEXT
  5
5C0
100
AcDbEntity
  8
WAKU0
  6
CONTINUOUS
 62
3
100
AcDbMText
 10
461.3850002884865
 20
33.00000000000000
 30
0.0000000000000000
 40
3.000000000000000
 41
0.0000000000000000
 71
     7
 72
     1
  1
{\H0.93x;{DRAWN BY}}
 11
1.000000000000000
 21
0.0000000000000000
 31
0.0000000000000000
  7
STANDARD
  0
MTEXT
  5
5C1
100
AcDbEntity
  8
WAKU0
  6
CONTINUOUS
 62
3
100
AcDbMText
 10
441.2149997949600
 20
32.95000004768372
 30
0.0000000000000000
 40
3.099999904632568
 41
0.0000000000000000
 71
     7
 72
     1
  1
{\H0.92x;{CHIEF}}
 11
1.000000000000000
 21
0.0000000000000000
 31
0.0000000000000000
  7
STANDARD
  0
MTEXT
  5
5C2
100
AcDbEntity
  8
WAKU0
  6
CONTINUOUS
 62
3
100
AcDbMText
 10
414.4249997138977
 20
32.95000004768372
 30
0.0000000000000000
 40
3.099999904632568
 41
0.0000000000000000
 71
     7
 72
     1
  1
{\H0.92x;{MANAGER}}
 11
1.000000000000000
 21
0.0000000000000000
 31
0.0000000000000000
  7
STANDARD
  0
MTEXT
  5
5C3
100
AcDbEntity
  8
WAKU0
  6
CONTINUOUS
 62
3
100
AcDbMText
 10
416.6599994301796
 20
18.13333336512248
 30
0.0000000000000000
 40
3.099999904632568
 41
0.0000000000000000
 71
     7
 72
     1
  1
{\H0.93x;{KITAGAWA IRON\PWORKS CO.,LTD.}}
 11
1.000000000000000
 21
0.0000000000000000
 31
0.0000000000000000
  7
STANDARD
  0
MTEXT
  5
5C4
100
AcDbEntity
  8
WAKU0
  6
CONTINUOUS
 62
3
100
AcDbMText
 10
413.0850002169609
 20
46.50000000000000
 30
0.0000000000000000
 40
3.000000000000000
 41
0.0000000000000000
 71
     7
 72
     1
  1
{\H0.92x;{CAREER}}
 11
1.000000000000000
 21
0.0000000000000000
 31
0.0000000000000000
  7
STANDARD
  0
MTEXT
  5
5C5
100
AcDbEntity
  8
WAKU0
  6
CONTINUOUS
 62
3
100
AcDbMText
 10
466.6099998354912
 20
18.95000004768372
 30
0.0000000000000000
 40
3.099999904632568
 41
0.0000000000000000
 71
     7
 72
     1
  1
{\H0.91x;{DATE}}
 11
1.000000000000000
 21
0.0000000000000000
 31
0.0000000000000000
  7
STANDARD
  0
MTEXT
  5
5C6
100
AcDbEntity
  8
WAKU0
  6
CONTINUOUS
 62
3
100
AcDbMText
 10
485.9000002145767
 20
26.50000000000000
 30
0.0000000000000000
 40
3.000000000000000
 41
0.0000000000000000
 71
     7
 72
     1
  1
{\H0.63x;{3RD ANGLE}}
 11
1.000000000000000
 21
0.0000000000000000
 31
0.0000000000000000
  7
STANDARD
  0
MTEXT
  5
5C7
100
AcDbEntity
  8
WAKU0
  6
CONTINUOUS
 62
3
100
AcDbMText
 10
487.2149997949600
 20
45.95000004768372
 30
0.0000000000000000
 40
3.099999904632568
 41
0.0000000000000000
 71
     7
 72
     1
  1
{\H0.92x;{SCALE}}
 11
1.000000000000000
 21
0.0000000000000000
 31
0.0000000000000000
  7
STANDARD
  0
MTEXT
  5
5C8
100
AcDbEntity
  8
WAKU0
  6
CONTINUOUS
 62
3
100
AcDbMText
 10
577.7000000476837
 20
46.00000000000000
 30
0.0000000000000000
 40
3.000000000000000
 41
0.0000000000000000
 71
     7
 72
     1
  1
{\H0.63x;{kg}}
 11
1.000000000000000
 21
0.0000000000000000
 31
0.0000000000000000
  7
STANDARD
  0
MTEXT
  5
5C9
100
AcDbEntity
  8
WAKU0
  6
CONTINUOUS
 62
3
100
AcDbMText
 10
547.6000001430512
 20
46.00000000000000
 30
0.0000000000000000
 40
3.000000000000000
 41
0.0000000000000000
 71
     7
 72
     1
  1
{\H0.63x;{WEIGHT}}
 11
1.000000000000000
 21
0.0000000000000000
 31
0.0000000000000000
  7
STANDARD
  0
MTEXT
  5
5CA
100
AcDbEntity
  8
WAKU0
  6
CONTINUOUS
 62
3
100
AcDbMText
 10
506.0049998760223
 20
18.13333336512248
 30
0.0000000000000000
 40
3.099999904632568
 41
0.0000000000000000
 71
     7
 72
     1
  1
{\H0.90x;{DRW\PNO.}}
 11
1.000000000000000
 21
0.0000000000000000
 31
0.0000000000000000
  7
STANDARD
  0
MTEXT
  5
5CB
100
AcDbEntity
  8
WAKU0
  6
CONTINUOUS
 62
3
100
AcDbMText
 10
504.6099998354912
 20
31.95000004768372
 30
0.0000000000000000
 40
3.099999904632568
 41
0.0000000000000000
 71
     7
 72
     1
  1
{\H0.91x;{NAME}}
 11
1.000000000000000
 21
0.0000000000000000
 31
0.0000000000000000
  7
STANDARD
  0
MTEXT
  5
5CC
100
AcDbEntity
  8
WAKU0
  6
CONTINUOUS
 62
3
100
AcDbMText
 10
504.6099998354912
 20
45.95000004768372
 30
0.0000000000000000
 40
3.099999904632568
 41
0.0000000000000000
 71
     7
 72
     1
  1
{\H0.91x;{TYPE}}
 11
1.000000000000000
 21
0.0000000000000000
 31
0.0000000000000000
  7
STANDARD
  0
LINE
  5
5CD
100
AcDbEntity
  8
WAKU0
  6
HIDDEN
 62
3
100
AcDbLine
 10
579.1599564743885
 20
13.84999990463257
 30
0.0000000000000000
 11
568.9400436209789
 21
13.84999990463257
 31
0.0000000000000000
  0
LINE
  5
5CE
100
AcDbEntity
  8
WAKU0
  6
HIDDEN
 62
3
100
AcDbLine
 10
579.1599564743885
 20
13.84999990463250
 30
0.0000000000000000
 11
574.0500000476851
 21
22.70070406014901
 31
0.0000000000000000
  0
LINE
  5
5CF
100
AcDbEntity
  8
WAKU0
  6
HIDDEN
 62
3
100
AcDbLine
 10
574.0500000476851
 20
22.70070406014902
 30
0.0000000000000000
 11
568.9400436209789
 21
13.84999990463248
 31
0.0000000000000000
  0
LINE
  5
5D0
100
AcDbEntity
  8
WAKU0
  6
CONTINUOUS
 62
3
100
AcDbLine
 10
502.4713877753800
 20
15.78041421262812
 30
0.0000000000000000
 11
502.4713877753800
 21
21.78041421262815
 31
0.0000000000000000
  0
LINE
  5
5D1
100
AcDbEntity
  8
WAKU0
  6
CONTINUOUS
 62
3
100
AcDbLine
 10
495.9336941228225
 20
17.28041421262811
 30
0.0000000000000000
 11
495.9336941228225
 21
20.28041421262824
 31
0.0000000000000000
  0
LINE
  5
5D2
100
AcDbEntity
  8
WAKU0
  6
CENTER
 62
12
100
AcDbLine
 10
485.4321805514995
 20
18.78041421262813
 30
0.0000000000000000
 11
503.2765788964694
 21
18.78041421262813
 31
0.0000000000000000
  0
LINE
  5
5D3
100
AcDbEntity
  8
WAKU0
  6
CENTER
 62
12
100
AcDbLine
 10
489.4474565857986
 20
14.55921662918448
 30
0.0000000000000000
 11
489.4474565857986
 21
22.89865102149943
 31
0.0000000000000000
  0
LINE
  5
5D4
100
AcDbEntity
  8
WAKU0
  6
CONTINUOUS
 62
3
100
AcDbLine
 10
495.9336941228225
 20
20.28041421262797
 30
0.0000000000000000
 11
502.4713877753800
 21
21.78041421262795
 31
0.0000000000000000
  0
LINE
  5
5D5
100
AcDbEntity
  8
WAKU0
  6
CONTINUOUS
 62
3
100
AcDbLine
 10
495.9336941228225
 20
17.28041421262811
 30
0.0000000000000000
 11
502.4713877753799
 21
15.78041421262812
 31
0.0000000000000000
  0
CIRCLE
  5
5D6
100
AcDbEntity
  8
WAKU0
  6
CONTINUOUS
 62
3
100
AcDbCircle
 10
489.4474565857986
 20
18.78041421262813
 30
0.0000000000000000
 40
1.499999999999972
  0
CIRCLE
  5
5D7
100
AcDbEntity
  8
WAKU0
  6
CONTINUOUS
 62
3
100
AcDbCircle
 10
489.4474565857986
 20
18.78041421262813
 30
0.0000000000000000
 40
2.999999999999979
  0
ENDSEC
  0
SECTION
  2
OBJECTS
  0
DICTIONARY
  5
62D
100
AcDbDictionary
  3
ACAD_GROUP
350
62E
  3
ACAD_MLINESTYLE
350
62F
  0
DICTIONARY
  5
62E
102
{ACAD_REACTORS
330
62D
102
}
100
AcDbDictionary
  0
DICTIONARY
  5
62F
102
{ACAD_REACTORS
330
62D
102
}
100
AcDbDictionary
  3
STANDARD
350
630
  0
MLINESTYLE
  5
630
102
{ACAD_REACTORS
330
62F
102
}
100
AcDbMlineStyle
  2
STANDARD
 70
     0
  3

 62
   256
 51
90.00
 52
90.00
 71
     2
 49
0.50
 62
   256
  6
BYLAYER
 49
-0.50
 62
   256
  6
BYLAYER
  0
ENDSEC
  0
EOF
