  0
SECTION
  2
HEADER
  9
$ACADVER
  1
AC1014
  9
$DWGCODEPAGE
  3
ANSI_932
  9
$LTSCALE
 40
20.0
  9
$FILLMODE
 70
     1
  9
$CLAYER
  8
0
  9
$PDMODE
 70
     0
  9
$SPLFRAME
 70
     0
  9
$SPLINETYPE
 70
     6
  9
$SPLINESEGS
 70
     8
  9
$DIMASZ
 40
2.000000
  9
$DIMEXE
 40
2.000000
  9
$DIMEXO
 40
0.800000
  9
$DIMTAD
 70
     1
  9
$DIMTIH
 70
     0
  9
$DIMTOH
 70
     0
  9
$DIMTVP
 40
0.500000
  9
$DIMTXT
 40
3.100000
  9
$EXTMIN
 10
0.000000
 20
0.000000
 30
0.000000
  9
$EXTMAX
 10
420.000000
 20
594.000000
 30
0.000000
  9
$MEASUREMENT
 70
  1
  9
$LIMMIN
 10
0.000000
 20
0.000000
  9
$LIMMAX
 10
420.000000
 20
594.000000
  9
$HANDLING
 70
     1
  9
$HANDSEED
  5
5CC
  9
$DIMBLK
  1
_OPEN
  9
$DIMDEC
 70
     3
  9
$DIMAUNIT
 70
     1
  9
$DIMZIN
 70
     8
  9
$DIMTOFL
 70
     1
  0
ENDSEC
  0
SECTION
  2
CLASSES
  0
ENDSEC
  0
SECTION
  2
TABLES
  0
TABLE
  2
VPORT
  5
569
100
AcDbSymbolTable
 70
     1
  0
VPORT
  5
56A
100
AcDbSymbolTableRecord
100
AcDbViewportTableRecord
  2
*ACTIVE
 70
     0
 12
297.000000
 22
210.000000
 40
420.000000
 41
1.414286
  0
ENDTAB
  0
TABLE
  2
LTYPE
  5
56B
100
AcDbSymbolTable
 70
     5
  0
LTYPE
  5
56C
100
AcDbSymbolTableRecord
100
AcDbLinetypeTableRecord
  2
BYBLOCK
 70
     0
  3

 72
    65
 73
     0
 40
0.0
  0
LTYPE
  5
56D
100
AcDbSymbolTableRecord
100
AcDbLinetypeTableRecord
  2
BYLAYER
 70
     0
  3

 72
    65
 73
     0
 40
0.0
  0
LTYPE
  5
56E
100
AcDbSymbolTableRecord
100
AcDbLinetypeTableRecord
  2
CONTINUOUS
 70
     0
  3
Solid line (NEC CAE2D for Win R12.1 : 2018.11.16)
 72
    65
 73
     0
 40
0.0
  0
LTYPE
  5
56F
100
AcDbSymbolTableRecord
100
AcDbLinetypeTableRecord
  2
DASHED
 70
     0
  3
__ __ __ __ __ __ __ __ __ __ __ __ __ _
 72
    65
 73
     2
 40
0.75
 49
0.5
 74
     0
 49
-0.25
 74
     0
  0
LTYPE
  5
570
100
AcDbSymbolTableRecord
100
AcDbLinetypeTableRecord
  2
HIDDEN
 70
     0
  3
__ __ __ __ __ __ __ __ __ __ __ __ __ __
 72
    65
 73
     2
 40
0.375
 49
0.25
 74
     0
 49
-0.125
 74
     0
  0
LTYPE
  5
571
100
AcDbSymbolTableRecord
100
AcDbLinetypeTableRecord
  2
CENTER
 70
     0
  3
____ _ ____ _ ____ _ ____ _ ____ _ ____
 72
    65
 73
     4
 40
2.0
 49
1.25
 74
     0
 49
-0.25
 74
     0
 49
0.25
 74
     0
 49
-0.25
 74
     0
  0
LTYPE
  5
572
100
AcDbSymbolTableRecord
100
AcDbLinetypeTableRecord
  2
PHANTOM
 70
     0
  3
______  __  __  ______  __  __  ______ 
 72
    65
 73
     6
 40
2.5
 49
1.25
 74
     0
 49
-0.25
 74
     0
 49
0.25
 74
     0
 49
-0.25
 74
     0
 49
0.25
 74
     0
 49
-0.25
 74
     0
  0
ENDTAB
  0
TABLE
  2
LAYER
  5
573
100
AcDbSymbolTable
 70
    13
  0
LAYER
  5
574
100
AcDbSymbolTableRecord
100
AcDbLayerTableRecord
  2
0
 70
     0
 62
     7
  6
CONTINUOUS
  0
LAYER
  5
575
100
AcDbSymbolTableRecord
100
AcDbLayerTableRecord
  2
MAIN0
 70
     0
 62
     7
  6
CONTINUOUS
  0
LAYER
  5
576
100
AcDbSymbolTableRecord
100
AcDbLayerTableRecord
  2
MAIN1
 70
     0
 62
     7
  6
CONTINUOUS
  0
LAYER
  5
577
100
AcDbSymbolTableRecord
100
AcDbLayerTableRecord
  2
MAIN2
 70
     0
 62
     7
  6
CONTINUOUS
  0
LAYER
  5
578
100
AcDbSymbolTableRecord
100
AcDbLayerTableRecord
  2
MAIN3
 70
     0
 62
     7
  6
CONTINUOUS
  0
LAYER
  5
579
100
AcDbSymbolTableRecord
100
AcDbLayerTableRecord
  2
MAIN4
 70
     0
 62
     7
  6
CONTINUOUS
  0
LAYER
  5
57A
100
AcDbSymbolTableRecord
100
AcDbLayerTableRecord
  2
MAIN5
 70
     0
 62
     7
  6
CONTINUOUS
  0
LAYER
  5
57B
100
AcDbSymbolTableRecord
100
AcDbLayerTableRecord
  2
MAIN6
 70
     0
 62
     7
  6
CONTINUOUS
  0
LAYER
  5
57C
100
AcDbSymbolTableRecord
100
AcDbLayerTableRecord
  2
MAIN7
 70
     0
 62
     7
  6
CONTINUOUS
  0
LAYER
  5
57D
100
AcDbSymbolTableRecord
100
AcDbLayerTableRecord
  2
MAIN10
 70
     0
 62
     7
  6
CONTINUOUS
  0
LAYER
  5
57E
100
AcDbSymbolTableRecord
100
AcDbLayerTableRecord
  2
MAIN1023
 70
     0
 62
    16
  6
CONTINUOUS
  0
LAYER
  5
57F
100
AcDbSymbolTableRecord
100
AcDbLayerTableRecord
  2
WAKU0
 70
     0
 62
     7
  6
CONTINUOUS
  0
LAYER
  5
580
100
AcDbSymbolTableRecord
100
AcDbLayerTableRecord
  2
WAKU1023
 70
     0
 62
    16
  6
CONTINUOUS
  0
ENDTAB
  0
TABLE
  2
STYLE
  5
581
100
AcDbSymbolTable
 70
     4
  0
STYLE
  5
582
100
AcDbSymbolTableRecord
100
AcDbTextStyleTableRecord
  2
STANDARD
 70
    64
 40
0.0
 41
1.0
 50
0.0
 71
     0
 42
3.099999904632568
  3
TXT
  4

  0
STYLE
  5
583
100
AcDbSymbolTableRecord
100
AcDbTextStyleTableRecord
  2
ANKTATE
 70
    68
 40
0.0
 41
1.0
 50
0.0
 71
     0
 42
3.099999904632568
  3
TXT
  4

  0
STYLE
  5
208
100
AcDbSymbolTableRecord
100
AcDbTextStyleTableRecord
  2
KNJYOKO
 70
    64
 40
0.0
 41
1.0
 50
0.0
 71
     0
 42
3.099999904632568
  3
TXT
  4
BIGFONT
  0
STYLE
  5
584
100
AcDbSymbolTableRecord
100
AcDbTextStyleTableRecord
  2
KNJTATE
 70
    68
 40
0.0
 41
1.0
 50
0.0
 71
     0
 42
3.099999904632568
  3
TXT
  4
BIGFONT
  0
ENDTAB
  0
TABLE
  2
VIEW
  5
585
100
AcDbSymbolTable
 70
     0
  0
ENDTAB
  0
TABLE
  2
UCS
  5
586
100
AcDbSymbolTable
 70
     0
  0
ENDTAB
  0
TABLE
  2
APPID
  5
587
100
AcDbSymbolTable
 70
     1
  0
APPID
  5
588
100
AcDbSymbolTableRecord
100
AcDbRegAppTableRecord
  2
ACAD
 70
     0
  0
ENDTAB
  0
TABLE
  2
DIMSTYLE
  5
589
100
AcDbSymbolTable
 70
     1
  0
DIMSTYLE
105
58A
100
AcDbSymbolTableRecord
100
AcDbDimStyleTableRecord
  2
STANDARD
 70
     0
 41
2.000000
 44
2.000000
 42
0.800000
145
0.661290
140
3.100000
144
1.000000
146
0.903226
340
582
  0
DIMSTYLE
105
58B
100
AcDbSymbolTableRecord
100
AcDbDimStyleTableRecord
  2
MAIN001
 70
     0
 41
2.000000
 44
2.000000
 42
0.800000
145
0.661290
140
3.100000
144
1.000000
146
0.903226
 77
     1
 73
     0
 74
     0
271
     3
275
     1
 78
     8
172
     1
340
582
  0
DIMSTYLE
105
58C
100
AcDbSymbolTableRecord
100
AcDbDimStyleTableRecord
  2
WAKU002
 70
     0
 41
2.000000
 44
2.000000
 42
0.800000
145
0.661290
140
3.100000
144
1.000000
146
0.903226
 77
     1
 73
     0
 74
     0
271
     3
275
     1
 78
     8
172
     1
340
582
  0
ENDTAB
  0
TABLE
  2
BLOCK_RECORD
  5
58D
100
AcDbSymbolTable
 70
    64
  0
BLOCK_RECORD
  5
58E
100
AcDbSymbolTableRecord
100
AcDbBlockTableRecord
  2
*MODEL_SPACE
  0
BLOCK_RECORD
  5
58F
100
AcDbSymbolTableRecord
100
AcDbBlockTableRecord
  2
*PAPER_SPACE
  0
BLOCK_RECORD
  5
1
100
AcDbSymbolTableRecord
100
AcDbBlockTableRecord
  2
_NONE
  0
BLOCK_RECORD
  5
4
100
AcDbSymbolTableRecord
100
AcDbBlockTableRecord
  2
_CLOSED
  0
BLOCK_RECORD
  5
B
100
AcDbSymbolTableRecord
100
AcDbBlockTableRecord
  2
_DOT
  0
BLOCK_RECORD
  5
13
100
AcDbSymbolTableRecord
100
AcDbBlockTableRecord
  2
_OPEN
  0
BLOCK_RECORD
  5
19
100
AcDbSymbolTableRecord
100
AcDbBlockTableRecord
  2
_ORIGIN
  0
BLOCK_RECORD
  5
1E
100
AcDbSymbolTableRecord
100
AcDbBlockTableRecord
  2
_OPEN30
  0
BLOCK_RECORD
  5
24
100
AcDbSymbolTableRecord
100
AcDbBlockTableRecord
  2
_BOXFILLED
  0
BLOCK_RECORD
  5
29
100
AcDbSymbolTableRecord
100
AcDbBlockTableRecord
  2
_BOXBLANK
  0
BLOCK_RECORD
  5
31
100
AcDbSymbolTableRecord
100
AcDbBlockTableRecord
  2
_OBLIQUE
  0
BLOCK_RECORD
  5
35
100
AcDbSymbolTableRecord
100
AcDbBlockTableRecord
  2
_OPEN90
  0
BLOCK_RECORD
  5
3B
100
AcDbSymbolTableRecord
100
AcDbBlockTableRecord
  2
_CLOSEDBLANK
  0
BLOCK_RECORD
  5
41
100
AcDbSymbolTableRecord
100
AcDbBlockTableRecord
  2
_DOTBLANK
  0
BLOCK_RECORD
  5
590
100
AcDbSymbolTableRecord
100
AcDbBlockTableRecord
  2
*D0
  0
BLOCK_RECORD
  5
591
100
AcDbSymbolTableRecord
100
AcDbBlockTableRecord
  2
*D1
  0
BLOCK_RECORD
  5
592
100
AcDbSymbolTableRecord
100
AcDbBlockTableRecord
  2
D2
  0
BLOCK_RECORD
  5
593
100
AcDbSymbolTableRecord
100
AcDbBlockTableRecord
  2
D3
  0
BLOCK_RECORD
  5
594
100
AcDbSymbolTableRecord
100
AcDbBlockTableRecord
  2
*D4
  0
BLOCK_RECORD
  5
595
100
AcDbSymbolTableRecord
100
AcDbBlockTableRecord
  2
*D5
  0
BLOCK_RECORD
  5
596
100
AcDbSymbolTableRecord
100
AcDbBlockTableRecord
  2
D6
  0
BLOCK_RECORD
  5
597
100
AcDbSymbolTableRecord
100
AcDbBlockTableRecord
  2
*D7
  0
BLOCK_RECORD
  5
598
100
AcDbSymbolTableRecord
100
AcDbBlockTableRecord
  2
*D8
  0
BLOCK_RECORD
  5
599
100
AcDbSymbolTableRecord
100
AcDbBlockTableRecord
  2
*D9
  0
BLOCK_RECORD
  5
59A
100
AcDbSymbolTableRecord
100
AcDbBlockTableRecord
  2
*D10
  0
BLOCK_RECORD
  5
59B
100
AcDbSymbolTableRecord
100
AcDbBlockTableRecord
  2
*D11
  0
BLOCK_RECORD
  5
59C
100
AcDbSymbolTableRecord
100
AcDbBlockTableRecord
  2
*D12
  0
BLOCK_RECORD
  5
59D
100
AcDbSymbolTableRecord
100
AcDbBlockTableRecord
  2
*D13
  0
BLOCK_RECORD
  5
59E
100
AcDbSymbolTableRecord
100
AcDbBlockTableRecord
  2
*D14
  0
BLOCK_RECORD
  5
59F
100
AcDbSymbolTableRecord
100
AcDbBlockTableRecord
  2
*D15
  0
BLOCK_RECORD
  5
5A0
100
AcDbSymbolTableRecord
100
AcDbBlockTableRecord
  2
*D16
  0
BLOCK_RECORD
  5
5A1
100
AcDbSymbolTableRecord
100
AcDbBlockTableRecord
  2
*D17
  0
BLOCK_RECORD
  5
5A2
100
AcDbSymbolTableRecord
100
AcDbBlockTableRecord
  2
*D18
  0
BLOCK_RECORD
  5
5A3
100
AcDbSymbolTableRecord
100
AcDbBlockTableRecord
  2
*D19
  0
BLOCK_RECORD
  5
5A4
100
AcDbSymbolTableRecord
100
AcDbBlockTableRecord
  2
*D20
  0
BLOCK_RECORD
  5
5A5
100
AcDbSymbolTableRecord
100
AcDbBlockTableRecord
  2
*D21
  0
BLOCK_RECORD
  5
5A6
100
AcDbSymbolTableRecord
100
AcDbBlockTableRecord
  2
*D22
  0
BLOCK_RECORD
  5
5A7
100
AcDbSymbolTableRecord
100
AcDbBlockTableRecord
  2
*D23
  0
BLOCK_RECORD
  5
5A8
100
AcDbSymbolTableRecord
100
AcDbBlockTableRecord
  2
*D24
  0
BLOCK_RECORD
  5
5A9
100
AcDbSymbolTableRecord
100
AcDbBlockTableRecord
  2
*D25
  0
BLOCK_RECORD
  5
5AA
100
AcDbSymbolTableRecord
100
AcDbBlockTableRecord
  2
*D26
  0
BLOCK_RECORD
  5
5AB
100
AcDbSymbolTableRecord
100
AcDbBlockTableRecord
  2
*D27
  0
BLOCK_RECORD
  5
5AC
100
AcDbSymbolTableRecord
100
AcDbBlockTableRecord
  2
*D28
  0
BLOCK_RECORD
  5
5AD
100
AcDbSymbolTableRecord
100
AcDbBlockTableRecord
  2
*D29
  0
BLOCK_RECORD
  5
5AE
100
AcDbSymbolTableRecord
100
AcDbBlockTableRecord
  2
*D30
  0
BLOCK_RECORD
  5
5AF
100
AcDbSymbolTableRecord
100
AcDbBlockTableRecord
  2
*D31
  0
BLOCK_RECORD
  5
5B0
100
AcDbSymbolTableRecord
100
AcDbBlockTableRecord
  2
*D32
  0
BLOCK_RECORD
  5
5B1
100
AcDbSymbolTableRecord
100
AcDbBlockTableRecord
  2
*D33
  0
BLOCK_RECORD
  5
5B2
100
AcDbSymbolTableRecord
100
AcDbBlockTableRecord
  2
*D34
  0
BLOCK_RECORD
  5
5B3
100
AcDbSymbolTableRecord
100
AcDbBlockTableRecord
  2
*D35
  0
BLOCK_RECORD
  5
5B4
100
AcDbSymbolTableRecord
100
AcDbBlockTableRecord
  2
*D36
  0
BLOCK_RECORD
  5
5B5
100
AcDbSymbolTableRecord
100
AcDbBlockTableRecord
  2
*D37
  0
BLOCK_RECORD
  5
5B6
100
AcDbSymbolTableRecord
100
AcDbBlockTableRecord
  2
*D38
  0
BLOCK_RECORD
  5
5B7
100
AcDbSymbolTableRecord
100
AcDbBlockTableRecord
  2
*D39
  0
BLOCK_RECORD
  5
5B8
100
AcDbSymbolTableRecord
100
AcDbBlockTableRecord
  2
*D40
  0
BLOCK_RECORD
  5
5B9
100
AcDbSymbolTableRecord
100
AcDbBlockTableRecord
  2
*D41
  0
BLOCK_RECORD
  5
5BA
100
AcDbSymbolTableRecord
100
AcDbBlockTableRecord
  2
*D42
  0
BLOCK_RECORD
  5
5BB
100
AcDbSymbolTableRecord
100
AcDbBlockTableRecord
  2
*D43
  0
BLOCK_RECORD
  5
5BC
100
AcDbSymbolTableRecord
100
AcDbBlockTableRecord
  2
D44
  0
BLOCK_RECORD
  5
5BD
100
AcDbSymbolTableRecord
100
AcDbBlockTableRecord
  2
*D45
  0
BLOCK_RECORD
  5
5BE
100
AcDbSymbolTableRecord
100
AcDbBlockTableRecord
  2
*D46
  0
BLOCK_RECORD
  5
5BF
100
AcDbSymbolTableRecord
100
AcDbBlockTableRecord
  2
*D47
  0
BLOCK_RECORD
  5
5C0
100
AcDbSymbolTableRecord
100
AcDbBlockTableRecord
  2
M0
  0
BLOCK_RECORD
  5
5C1
100
AcDbSymbolTableRecord
100
AcDbBlockTableRecord
  2
M1
  0
BLOCK_RECORD
  5
5C2
100
AcDbSymbolTableRecord
100
AcDbBlockTableRecord
  2
*D48
  0
BLOCK_RECORD
  5
5C3
100
AcDbSymbolTableRecord
100
AcDbBlockTableRecord
  2
*D49
  0
ENDTAB
  0
ENDSEC
  0
SECTION
  2
BLOCKS
  0
BLOCK
  5
5C4
100
AcDbEntity
  8
0
100
AcDbBlockBegin
  2
*MODEL_SPACE
 70
     0
 10
0.0
 20
0.0
 30
0.0
  3
*MODEL_SPACE
  1

  0
ENDBLK
  5
5C5
100
AcDbEntity
  8
0
100
AcDbBlockEnd
  0
BLOCK
  5
5C6
100
AcDbEntity
  8
0
100
AcDbBlockBegin
  2
*PAPER_SPACE
 70
     0
 10
0.0
 20
0.0
 30
0.0
  3
*PAPER_SPACE
  1

  0
ENDBLK
  5
5C7
100
AcDbEntity
  8
0
100
AcDbBlockEnd
  0
BLOCK
  5
2
100
AcDbEntity
  8
0
100
AcDbBlockBegin
  2
_NONE
 70
     0
 10
0.0
 20
0.0
 30
0.0
  3
_NONE
  1

  0
ENDBLK
  5
3
100
AcDbEntity
  8
0
100
AcDbBlockEnd
  0
BLOCK
  5
5
100
AcDbEntity
  8
0
100
AcDbBlockBegin
  2
_CLOSED
 70
     0
 10
0.0
 20
0.0
 30
0.0
  3
_CLOSED
  1

  0
LINE
  5
6
100
AcDbEntity
  8
0
  6
BYBLOCK
 62
     0
100
AcDbLine
 10
-1.0
 20
0.166667
 30
0.0
 11
0.0
 21
0.0
 31
0.0
  0
LINE
  5
7
100
AcDbEntity
  8
0
  6
BYBLOCK
 62
     0
100
AcDbLine
 10
0.0
 20
0.0
 30
0.0
 11
-1.0
 21
-0.166667
 31
0.0
  0
LINE
  5
8
100
AcDbEntity
  8
0
  6
BYBLOCK
 62
     0
100
AcDbLine
 10
-1.0
 20
0.166667
 30
0.0
 11
-1.0
 21
-0.166667
 31
0.0
  0
LINE
  5
9
100
AcDbEntity
  8
0
  6
BYBLOCK
 62
     0
100
AcDbLine
 10
0.0
 20
0.0
 30
0.0
 11
-1.0
 21
0.0
 31
0.0
  0
ENDBLK
  5
A
100
AcDbEntity
  8
0
100
AcDbBlockEnd
  0
BLOCK
  5
C
100
AcDbEntity
  8
0
100
AcDbBlockBegin
  2
_DOT
 70
     0
 10
0.0
 20
0.0
 30
0.0
  3
_DOT
  1

  0
POLYLINE
  5
D
100
AcDbEntity
  8
0
  6
BYBLOCK
 62
     0
100
AcDb2dPolyline
 66
     1
 10
0.0
 20
0.0
 30
0.0
 70
     1
 40
0.5
 41
0.5
  0
VERTEX
  5
E
100
AcDbEntity
  8
0
  6
BYBLOCK
 62
     0
100
AcDbVertex
100
AcDb2dVertex
 10
-0.25
 20
0.0
 30
0.0
 42
1.0
  0
VERTEX
  5
F
100
AcDbEntity
  8
0
  6
BYBLOCK
 62
     0
100
AcDbVertex
100
AcDb2dVertex
 10
0.25
 20
0.0
 30
0.0
 42
1.0
  0
SEQEND
  5
10
100
AcDbEntity
  8
0
  6
BYBLOCK
 62
     0
  0
LINE
  5
11
100
AcDbEntity
  8
0
  6
BYBLOCK
 62
     0
100
AcDbLine
 10
-0.5
 20
0.0
 30
0.0
 11
-1.0
 21
0.0
 31
0.0
  0
ENDBLK
  5
12
100
AcDbEntity
  8
0
100
AcDbBlockEnd
  0
BLOCK
  5
14
100
AcDbEntity
  8
0
100
AcDbBlockBegin
  2
_OPEN
 70
     0
 10
0.0
 20
0.0
 30
0.0
  3
_OPEN
  1

  0
LINE
  5
15
100
AcDbEntity
  8
0
  6
BYBLOCK
 62
     0
100
AcDbLine
 10
-1.0
 20
0.166667
 30
0.0
 11
0.0
 21
0.0
 31
0.0
  0
LINE
  5
16
100
AcDbEntity
  8
0
  6
BYBLOCK
 62
     0
100
AcDbLine
 10
0.0
 20
0.0
 30
0.0
 11
-1.0
 21
-0.166667
 31
0.0
  0
LINE
  5
17
100
AcDbEntity
  8
0
  6
BYBLOCK
 62
     0
100
AcDbLine
 10
0.0
 20
0.0
 30
0.0
 11
-1.0
 21
0.0
 31
0.0
  0
ENDBLK
  5
18
100
AcDbEntity
  8
0
100
AcDbBlockEnd
  0
BLOCK
  5
1A
100
AcDbEntity
  8
0
100
AcDbBlockBegin
  2
_ORIGIN
 70
     0
 10
0.0
 20
0.0
 30
0.0
  3
_ORIGIN
  1

  0
CIRCLE
  5
1B
100
AcDbEntity
  8
0
  6
BYBLOCK
 62
     0
100
AcDbCircle
 10
0.0
 20
0.0
 30
0.0
 40
0.5
  0
LINE
  5
1C
100
AcDbEntity
  8
0
  6
BYBLOCK
 62
     0
100
AcDbLine
 10
0.0
 20
0.0
 30
0.0
 11
-1.0
 21
0.0
 31
0.0
  0
ENDBLK
  5
1D
100
AcDbEntity
  8
0
100
AcDbBlockEnd
  0
BLOCK
  5
1F
100
AcDbEntity
  8
0
100
AcDbBlockBegin
  2
_OPEN30
 70
     0
 10
0.0
 20
0.0
 30
0.0
  3
_OPEN30
  1

  0
LINE
  5
20
100
AcDbEntity
  8
0
  6
BYBLOCK
 62
     0
100
AcDbLine
 10
-1.0
 20
0.267949
 30
0.0
 11
0.0
 21
0.0
 31
0.0
  0
LINE
  5
21
100
AcDbEntity
  8
0
  6
BYBLOCK
 62
     0
100
AcDbLine
 10
0.0
 20
0.0
 30
0.0
 11
-1.0
 21
-0.267949
 31
0.0
  0
LINE
  5
22
100
AcDbEntity
  8
0
  6
BYBLOCK
 62
     0
100
AcDbLine
 10
0.0
 20
0.0
 30
0.0
 11
-1.0
 21
0.0
 31
0.0
  0
ENDBLK
  5
23
100
AcDbEntity
  8
0
100
AcDbBlockEnd
  0
BLOCK
  5
25
100
AcDbEntity
  8
0
100
AcDbBlockBegin
  2
_BOXFILLED
 70
     0
 10
0.0
 20
0.0
 30
0.0
  3
_BOXFILLED
  1

  0
SOLID
  5
26
100
AcDbEntity
  8
0
  6
BYBLOCK
 62
     0
100
AcDbTrace
 10
-0.5
 20
0.5
 30
0.0
 11
0.5
 21
0.5
 31
0.0
 12
-0.5
 22
-0.5
 32
0.0
 13
0.5
 23
-0.5
 33
0.0
  0
LINE
  5
27
100
AcDbEntity
  8
0
  6
BYBLOCK
 62
     0
100
AcDbLine
 10
-0.5
 20
0.0
 30
0.0
 11
-1.0
 21
0.0
 31
0.0
  0
ENDBLK
  5
28
100
AcDbEntity
  8
0
100
AcDbBlockEnd
  0
BLOCK
  5
2A
100
AcDbEntity
  8
0
100
AcDbBlockBegin
  2
_BOXBLANK
 70
     0
 10
0.0
 20
0.0
 30
0.0
  3
_BOXBLANK
  1

  0
LINE
  5
2B
100
AcDbEntity
  8
0
  6
BYBLOCK
 62
     0
100
AcDbLine
 10
-0.5
 20
-0.5
 30
0.0
 11
0.5
 21
-0.5
 31
0.0
  0
LINE
  5
2C
100
AcDbEntity
  8
0
  6
BYBLOCK
 62
     0
100
AcDbLine
 10
0.5
 20
-0.5
 30
0.0
 11
0.5
 21
0.5
 31
0.0
  0
LINE
  5
2D
100
AcDbEntity
  8
0
  6
BYBLOCK
 62
     0
100
AcDbLine
 10
0.5
 20
0.5
 30
0.0
 11
-0.5
 21
0.5
 31
0.0
  0
LINE
  5
2E
100
AcDbEntity
  8
0
  6
BYBLOCK
 62
     0
100
AcDbLine
 10
-0.5
 20
0.5
 30
0.0
 11
-0.5
 21
-0.5
 31
0.0
  0
LINE
  5
2F
100
AcDbEntity
  8
0
  6
BYBLOCK
 62
     0
100
AcDbLine
 10
-0.5
 20
0.0
 30
0.0
 11
-1.0
 21
0.0
 31
0.0
  0
ENDBLK
  5
30
100
AcDbEntity
  8
0
100
AcDbBlockEnd
  0
BLOCK
  5
32
100
AcDbEntity
  8
0
100
AcDbBlockBegin
  2
_OBLIQUE
 70
     0
 10
0.0
 20
0.0
 30
0.0
  3
_OBLIQUE
  1

  0
LINE
  5
33
100
AcDbEntity
  8
0
  6
BYBLOCK
 62
     0
100
AcDbLine
 10
-0.5
 20
-0.5
 30
0.0
 11
0.5
 21
0.5
 31
0.0
  0
ENDBLK
  5
34
100
AcDbEntity
  8
0
100
AcDbBlockEnd
  0
BLOCK
  5
36
100
AcDbEntity
  8
0
100
AcDbBlockBegin
  2
_OPEN90
 70
     0
 10
0.0
 20
0.0
 30
0.0
  3
_OPEN90
  1

  0
LINE
  5
37
100
AcDbEntity
  8
0
  6
BYBLOCK
 62
     0
100
AcDbLine
 10
-0.5
 20
0.5
 30
0.0
 11
0.0
 21
0.0
 31
0.0
  0
LINE
  5
38
100
AcDbEntity
  8
0
  6
BYBLOCK
 62
     0
100
AcDbLine
 10
0.0
 20
0.0
 30
0.0
 11
-0.5
 21
-0.5
 31
0.0
  0
LINE
  5
39
100
AcDbEntity
  8
0
  6
BYBLOCK
 62
     0
100
AcDbLine
 10
0.0
 20
0.0
 30
0.0
 11
-1.0
 21
0.0
 31
0.0
  0
ENDBLK
  5
3A
100
AcDbEntity
  8
0
100
AcDbBlockEnd
  0
BLOCK
  5
3C
100
AcDbEntity
  8
0
100
AcDbBlockBegin
  2
_CLOSEDBLANK
 70
     0
 10
0.0
 20
0.0
 30
0.0
  3
_CLOSEDBLANK
  1

  0
LINE
  5
3D
100
AcDbEntity
  8
0
  6
BYBLOCK
 62
     0
100
AcDbLine
 10
-1.0
 20
0.1666666666666666
 30
0.0
 11
0.0
 21
0.0
 31
0.0
  0
LINE
  5
3E
100
AcDbEntity
  8
0
  6
BYBLOCK
 62
     0
100
AcDbLine
 10
0.0
 20
0.0
 30
0.0
 11
-1.0
 21
-0.1666666666666666
 31
0.0
  0
LINE
  5
3F
100
AcDbEntity
  8
0
  6
BYBLOCK
 62
     0
100
AcDbLine
 10
-1.0
 20
0.1666666666666666
 30
0.0
 11
-1.0
 21
-0.1666666666666666
 31
0.0
  0
ENDBLK
  5
40
100
AcDbEntity
  8
0
100
AcDbBlockEnd
  0
BLOCK
  5
42
100
AcDbEntity
  8
0
100
AcDbBlockBegin
  2
_DOTBLANK
 70
     0
 10
0.0
 20
0.0
 30
0.0
  3
_DOTBLANK
  1

  0
CIRCLE
  5
43
100
AcDbEntity
  8
0
  6
BYBLOCK
 62
     0
100
AcDbCircle
 10
0.0
 20
0.0
 30
0.0
 40
0.5
  0
LINE
  5
44
100
AcDbEntity
  8
0
  6
BYBLOCK
 62
     0
100
AcDbLine
 10
-0.5
 20
0.0
 30
0.0
 11
-1.0
 21
0.0
 31
0.0
  0
ENDBLK
  5
45
100
AcDbEntity
  8
0
100
AcDbBlockEnd
  0
BLOCK
  5
FB
100
AcDbEntity
  8
MAIN0
  6
CONTINUOUS
 62
3
100
AcDbBlockBegin
  2
*D0
 70
    65
 10
0.0
 20
0.0
 30
0.0
  0
LINE
  5
FC
100
AcDbEntity
  8
MAIN0
  6
BYBLOCK
 62
0
100
AcDbLine
 10
234.9339075846915
 20
299.3072471165229
 30
0.0000000000000000
 11
246.4973192537327
 21
299.3072471165229
 31
0.0000000000000000
  0
LINE
  5
FD
100
AcDbEntity
  8
MAIN0
  6
BYBLOCK
 62
0
100
AcDbLine
 10
244.4973192537327
 20
299.3072471165229
 30
0.0000000000000000
 11
244.4973192537327
 21
303.3072471165224
 31
0.0000000000000000
  0
INSERT
  5
FE
100
AcDbEntity
  8
MAIN0
  6
BYBLOCK
 62
0
100
AcDbBlockReference
  2
_OPEN
 10
244.4973192537327
 20
299.3072471165229
 30
0.0000000000000000
 41
2.000000000000000
 42
2.000000000000000
 43
2.000000000000000
 50
90.00000000000000
  0
INSERT
  5
FF
100
AcDbEntity
  8
MAIN0
  6
BYBLOCK
 62
0
100
AcDbBlockReference
  2
_OPEN
 10
244.4973192537327
 20
303.3072471165224
 30
0.0000000000000000
 41
2.000000000000000
 42
2.000000000000000
 43
2.000000000000000
 50
270.0000000000000
  0
LINE
  5
100
100
AcDbEntity
  8
MAIN0
  6
BYBLOCK
 62
0
100
AcDbLine
 10
244.4973192537327
 20
297.3072471165229
 30
0.0000000000000000
 11
244.4973192537327
 21
296.3072471165229
 31
0.0000000000000000
  0
LINE
  5
101
100
AcDbEntity
  8
MAIN0
  6
BYBLOCK
 62
0
100
AcDbLine
 10
244.4973192537327
 20
305.3072471165224
 30
0.0000000000000000
 11
244.4973192537327
 21
306.3072471165224
 31
0.0000000000000000
  0
LINE
  5
102
100
AcDbEntity
  8
MAIN0
  6
BYBLOCK
 62
0
100
AcDbLine
 10
227.4339075846882
 20
303.3072471165224
 30
0.0000000000000000
 11
246.4973192537327
 21
303.3072471165224
 31
0.0000000000000000
  0
MTEXT
  5
103
100
AcDbEntity
  8
MAIN0
  6
BYBLOCK
 62
0
100
AcDbMText
 10
242.4473193014164
 20
301.3072471165227
 30
0.0000000000000000
 40
3.099999904632568
 41
0.0000000000000000
 71
     5
 72
     1
  1
\A1;4
 11
6.123233995736766e-017
 21
1.000000000000000
 31
0.0000000000000000
  7
STANDARD
  0
ENDBLK
  5
104
100
AcDbEntity
  8
MAIN0
  6
CONTINUOUS
 62
3
100
AcDbBlockEnd
  0
BLOCK
  5
106
100
AcDbEntity
  8
MAIN0
  6
CONTINUOUS
 62
3
100
AcDbBlockBegin
  2
*D1
 70
    65
 10
0.0
 20
0.0
 30
0.0
  0
LINE
  5
107
100
AcDbEntity
  8
MAIN0
  6
BYBLOCK
 62
0
100
AcDbLine
 10
234.9339075846938
 20
299.3072471165230
 30
0.0000000000000000
 11
252.6384817408414
 21
299.3072471165230
 31
0.0000000000000000
  0
LINE
  5
108
100
AcDbEntity
  8
MAIN0
  6
BYBLOCK
 62
0
100
AcDbLine
 10
250.6384817408414
 20
301.3072471165230
 30
0.0000000000000000
 11
250.6384817408414
 21
311.3072471165230
 31
0.0000000000000000
  0
INSERT
  5
109
100
AcDbEntity
  8
MAIN0
  6
BYBLOCK
 62
0
100
AcDbBlockReference
  2
_OPEN
 10
250.6384817408414
 20
299.3072471165230
 30
0.0000000000000000
 41
2.000000000000000
 42
2.000000000000000
 43
2.000000000000000
 50
270.0000000000000
  0
INSERT
  5
10A
100
AcDbEntity
  8
MAIN0
  6
BYBLOCK
 62
0
100
AcDbBlockReference
  2
_OPEN
 10
250.6384817408414
 20
313.3072471165230
 30
0.0000000000000000
 41
2.000000000000000
 42
2.000000000000000
 43
2.000000000000000
 50
90.00000000000000
  0
LINE
  5
10B
100
AcDbEntity
  8
MAIN0
  6
BYBLOCK
 62
0
100
AcDbLine
 10
213.8621122806602
 20
313.3072471165230
 30
0.0000000000000000
 11
252.6384817408414
 21
313.3072471165230
 31
0.0000000000000000
  0
MTEXT
  5
10C
100
AcDbEntity
  8
MAIN0
  6
BYBLOCK
 62
0
100
AcDbMText
 10
248.5884817885251
 20
306.3072471165230
 30
0.0000000000000000
 40
3.099999904632568
 41
0.0000000000000000
 71
     5
 72
     1
  1
\A1;14
 11
6.123233995736766e-017
 21
1.000000000000000
 31
0.0000000000000000
  7
STANDARD
  0
ENDBLK
  5
10D
100
AcDbEntity
  8
MAIN0
  6
CONTINUOUS
 62
3
100
AcDbBlockEnd
  0
BLOCK
  5
10F
100
AcDbEntity
  8
MAIN0
  6
CONTINUOUS
 62
3
100
AcDbBlockBegin
  2
D2
 70
    64
 10
0.0
 20
0.0
 30
0.0
  0
LINE
  5
110
100
AcDbEntity
  8
MAIN0
  6
BYBLOCK
 62
0
100
AcDbLine
 10
13.70588390638406
 20
3.280450391382033
 30
0.0000000000000000
 11
13.70588390638406
 21
22.69999999999999
 31
0.0000000000000000
  0
LINE
  5
111
100
AcDbEntity
  8
MAIN0
  6
BYBLOCK
 62
0
100
AcDbLine
 10
13.10588388254220
 20
20.69999999999999
 30
0.0000000000000000
 11
13.70588390638406
 21
22.69999999999999
 31
0.0000000000000000
  0
LINE
  5
112
100
AcDbEntity
  8
MAIN0
  6
BYBLOCK
 62
0
100
AcDbLine
 10
13.70588390638406
 20
22.69999999999999
 30
0.0000000000000000
 11
14.30588393022592
 21
20.69999999999999
 31
0.0000000000000000
  0
LINE
  5
113
100
AcDbEntity
  8
MAIN0
  6
BYBLOCK
 62
0
100
AcDbLine
 10
-1.998690249765855
 20
22.69999999999999
 30
0.0000000000000000
 11
15.70588390638406
 21
22.69999999999999
 31
0.0000000000000000
  0
MTEXT
  5
114
100
AcDbEntity
  8
MAIN0
  6
BYBLOCK
 62
0
100
AcDbMText
 10
11.65588395406778
 20
11.96782172588274
 30
0.0000000000000000
 40
3.099999904632568
 41
0.0000000000000000
 71
     5
 72
     1
  1
\A1;\U+220545.4h6
 11
6.123233995736766e-017
 21
1.000000000000000
 31
0.0000000000000000
  7
STANDARD
  0
ENDBLK
  5
115
100
AcDbEntity
  8
MAIN0
  6
CONTINUOUS
 62
3
100
AcDbBlockEnd
  0
BLOCK
  5
117
100
AcDbEntity
  8
MAIN0
  6
CONTINUOUS
 62
3
100
AcDbBlockBegin
  2
D3
 70
    64
 10
0.0
 20
0.0
 30
0.0
  0
LINE
  5
118
100
AcDbEntity
  8
MAIN0
  6
BYBLOCK
 62
0
100
AcDbLine
 10
22.82890179340902
 20
-4.441626827212303
 30
0.0000000000000000
 11
22.82890179340902
 21
44.50000000000000
 31
0.0000000000000000
  0
LINE
  5
119
100
AcDbEntity
  8
MAIN0
  6
BYBLOCK
 62
0
100
AcDbLine
 10
22.22890176956716
 20
42.50000000000000
 30
0.0000000000000000
 11
22.82890179340902
 21
44.50000000000000
 31
0.0000000000000000
  0
LINE
  5
11A
100
AcDbEntity
  8
MAIN0
  6
BYBLOCK
 62
0
100
AcDbLine
 10
22.82890179340902
 20
44.50000000000000
 30
0.0000000000000000
 11
23.42890181725088
 21
42.50000000000000
 31
0.0000000000000000
  0
LINE
  5
11B
100
AcDbEntity
  8
MAIN0
  6
BYBLOCK
 62
0
100
AcDbLine
 10
-24.99869024976349
 20
44.50000000000000
 30
0.0000000000000000
 11
24.82890179340902
 21
44.50000000000000
 31
0.0000000000000000
  0
MTEXT
  5
11C
100
AcDbEntity
  8
MAIN0
  6
BYBLOCK
 62
0
100
AcDbMText
 10
20.77890184109273
 20
15.44275548451537
 30
0.0000000000000000
 40
3.099999904632568
 41
0.0000000000000000
 71
     5
 72
     1
  1
\A1;\U+220589
 11
6.123233995736766e-017
 21
1.000000000000000
 31
0.0000000000000000
  7
STANDARD
  0
ENDBLK
  5
11D
100
AcDbEntity
  8
MAIN0
  6
CONTINUOUS
 62
3
100
AcDbBlockEnd
  0
BLOCK
  5
11F
100
AcDbEntity
  8
MAIN0
  6
CONTINUOUS
 62
3
100
AcDbBlockBegin
  2
*D4
 70
    65
 10
0.0
 20
0.0
 30
0.0
  0
LINE
  5
120
100
AcDbEntity
  8
MAIN0
  6
BYBLOCK
 62
0
100
AcDbLine
 10
237.7325978463782
 20
276.6072471165230
 30
0.0000000000000000
 11
270.8845097758206
 21
276.6072471165230
 31
0.0000000000000000
  0
LINE
  5
121
100
AcDbEntity
  8
MAIN0
  6
BYBLOCK
 62
0
100
AcDbLine
 10
268.8845097758206
 20
278.6072471165230
 30
0.0000000000000000
 11
268.8845097758206
 21
320.3072471165229
 31
0.0000000000000000
  0
INSERT
  5
122
100
AcDbEntity
  8
MAIN0
  6
BYBLOCK
 62
0
100
AcDbBlockReference
  2
_OPEN
 10
268.8845097758206
 20
276.6072471165230
 30
0.0000000000000000
 41
2.000000000000000
 42
2.000000000000000
 43
2.000000000000000
 50
270.0000000000000
  0
INSERT
  5
123
100
AcDbEntity
  8
MAIN0
  6
BYBLOCK
 62
0
100
AcDbBlockReference
  2
_OPEN
 10
268.8845097758206
 20
322.3072471165229
 30
0.0000000000000000
 41
2.000000000000000
 42
2.000000000000000
 43
2.000000000000000
 50
90.00000000000000
  0
LINE
  5
124
100
AcDbEntity
  8
MAIN0
  6
BYBLOCK
 62
0
100
AcDbLine
 10
234.9339075846963
 20
322.3072471165229
 30
0.0000000000000000
 11
270.8845097758206
 21
322.3072471165229
 31
0.0000000000000000
  0
MTEXT
  5
125
100
AcDbEntity
  8
MAIN0
  6
BYBLOCK
 62
0
100
AcDbMText
 10
266.8345098235043
 20
299.4572471165229
 30
0.0000000000000000
 40
3.099999904632568
 41
0.0000000000000000
 71
     5
 72
     1
  1
\A1;MAX.46.9
 11
6.123233995736766e-017
 21
1.000000000000000
 31
0.0000000000000000
  7
STANDARD
  0
ENDBLK
  5
126
100
AcDbEntity
  8
MAIN0
  6
CONTINUOUS
 62
3
100
AcDbBlockEnd
  0
BLOCK
  5
12A
100
AcDbEntity
  8
MAIN0
  6
CONTINUOUS
 62
3
100
AcDbBlockBegin
  2
*D5
 70
    65
 10
0.0
 20
0.0
 30
0.0
  0
LINE
  5
12B
100
AcDbEntity
  8
MAIN0
  6
BYBLOCK
 62
0
100
AcDbLine
 10
221.1339075727672
 20
324.6043616765842
 30
0.0000000000000000
 11
221.1339075727672
 21
345.1002766075509
 31
0.0000000000000000
  0
LINE
  5
12C
100
AcDbEntity
  8
MAIN0
  6
BYBLOCK
 62
0
100
AcDbLine
 10
223.1339075727672
 20
343.1002766075509
 30
0.0000000000000000
 11
232.1339075727755
 21
343.1002766075509
 31
0.0000000000000000
  0
INSERT
  5
12D
100
AcDbEntity
  8
MAIN0
  6
BYBLOCK
 62
0
100
AcDbBlockReference
  2
_OPEN
 10
221.1339075727672
 20
343.1002766075509
 30
0.0000000000000000
 41
2.000000000000000
 42
2.000000000000000
 43
2.000000000000000
 50
180.0000000000000
  0
INSERT
  5
12E
100
AcDbEntity
  8
MAIN0
  6
BYBLOCK
 62
0
100
AcDbBlockReference
  2
_OPEN
 10
234.1339075727755
 20
343.1002766075509
 30
0.0000000000000000
 41
2.000000000000000
 42
2.000000000000000
 43
2.000000000000000
 50
0.0000000000000000
  0
LINE
  5
12F
100
AcDbEntity
  8
MAIN0
  6
BYBLOCK
 62
0
100
AcDbLine
 10
234.1339075727755
 20
323.1072471284439
 30
0.0000000000000000
 11
234.1339075727755
 21
345.1002766075509
 31
0.0000000000000000
  0
MTEXT
  5
130
100
AcDbEntity
  8
MAIN0
  6
BYBLOCK
 62
0
100
AcDbMText
 10
227.6339075727714
 20
345.1502765598672
 30
0.0000000000000000
 40
3.099999904632568
 41
0.0000000000000000
 71
     5
 72
     1
  1
\A1;13
 11
1.000000000000000
 21
0.0000000000000000
 31
0.0000000000000000
  7
STANDARD
  0
ENDBLK
  5
131
100
AcDbEntity
  8
MAIN0
  6
CONTINUOUS
 62
3
100
AcDbBlockEnd
  0
BLOCK
  5
136
100
AcDbEntity
  8
MAIN0
  6
CONTINUOUS
 62
3
100
AcDbBlockBegin
  2
D6
 70
    64
 10
0.0
 20
0.0
 30
0.0
  0
LINE
  5
137
100
AcDbEntity
  8
MAIN0
  6
BYBLOCK
 62
0
100
AcDbLine
 10
10.51464563948466
 20
-5.399096096754903
 30
0.0000000000000000
 11
10.51464563948466
 21
-20.00000000000000
 31
0.0000000000000000
  0
LINE
  5
138
100
AcDbEntity
  8
MAIN0
  6
BYBLOCK
 62
0
100
AcDbLine
 10
11.11464566332651
 20
-18.00000000000000
 30
0.0000000000000000
 11
10.51464563948466
 21
-20.00000000000000
 31
0.0000000000000000
  0
LINE
  5
139
100
AcDbEntity
  8
MAIN0
  6
BYBLOCK
 62
0
100
AcDbLine
 10
10.51464563948466
 20
-20.00000000000000
 30
0.0000000000000000
 11
9.914645615642797
 21
-18.00000000000000
 31
0.0000000000000000
  0
LINE
  5
13A
100
AcDbEntity
  8
MAIN0
  6
BYBLOCK
 62
0
100
AcDbLine
 10
-28.41567692111974
 20
-20.00000000000000
 30
0.0000000000000000
 11
12.51464563948466
 21
-20.00000000000000
 31
0.0000000000000000
  0
MTEXT
  5
13B
100
AcDbEntity
  8
MAIN0
  6
BYBLOCK
 62
0
100
AcDbMText
 10
8.464645687168371
 20
-10.79909609899008
 30
0.0000000000000000
 40
3.099999904632568
 41
0.0000000000000000
 71
     5
 72
     1
  1
\A1;\U+220540
 11
6.123233995736766e-017
 21
1.000000000000000
 31
0.0000000000000000
  7
STANDARD
  0
ENDBLK
  5
13C
100
AcDbEntity
  8
MAIN0
  6
CONTINUOUS
 62
3
100
AcDbBlockEnd
  0
BLOCK
  5
164
100
AcDbEntity
  8
MAIN0
  6
CONTINUOUS
 62
3
100
AcDbBlockBegin
  2
*D7
 70
    65
 10
0.0
 20
0.0
 30
0.0
  0
LINE
  5
165
100
AcDbEntity
  8
MAIN0
  6
BYBLOCK
 62
0
100
AcDbLine
 10
204.1339075727729
 20
324.3743172184078
 30
0.0000000000000000
 11
204.1339075727729
 21
345.1002766075509
 31
0.0000000000000000
  0
LINE
  5
166
100
AcDbEntity
  8
MAIN0
  6
BYBLOCK
 62
0
100
AcDbLine
 10
206.1339075727729
 20
343.1002766075509
 30
0.0000000000000000
 11
209.1339075727729
 21
343.1002766075509
 31
0.0000000000000000
  0
INSERT
  5
167
100
AcDbEntity
  8
MAIN0
  6
BYBLOCK
 62
0
100
AcDbBlockReference
  2
_OPEN
 10
204.1339075727729
 20
343.1002766075509
 30
0.0000000000000000
 41
2.000000000000000
 42
2.000000000000000
 43
2.000000000000000
 50
180.0000000000000
  0
INSERT
  5
168
100
AcDbEntity
  8
MAIN0
  6
BYBLOCK
 62
0
100
AcDbBlockReference
  2
_OPEN
 10
211.1339075727729
 20
343.1002766075509
 30
0.0000000000000000
 41
2.000000000000000
 42
2.000000000000000
 43
2.000000000000000
 50
0.0000000000000000
  0
LINE
  5
169
100
AcDbEntity
  8
MAIN0
  6
BYBLOCK
 62
0
100
AcDbLine
 10
211.1339075727729
 20
321.9072471284439
 30
0.0000000000000000
 11
211.1339075727729
 21
345.1002766075509
 31
0.0000000000000000
  0
MTEXT
  5
16A
100
AcDbEntity
  8
MAIN0
  6
BYBLOCK
 62
0
100
AcDbMText
 10
207.6339075727729
 20
345.1502765598672
 30
0.0000000000000000
 40
3.099999904632568
 41
0.0000000000000000
 71
     5
 72
     1
  1
\A1;7
 11
1.000000000000000
 21
0.0000000000000000
 31
0.0000000000000000
  7
STANDARD
  0
ENDBLK
  5
16B
100
AcDbEntity
  8
MAIN0
  6
CONTINUOUS
 62
3
100
AcDbBlockEnd
  0
BLOCK
  5
16D
100
AcDbEntity
  8
MAIN0
  6
CONTINUOUS
 62
3
100
AcDbBlockBegin
  2
*D8
 70
    65
 10
0.0
 20
0.0
 30
0.0
  0
LINE
  5
16E
100
AcDbEntity
  8
MAIN0
  6
BYBLOCK
 62
0
100
AcDbLine
 10
211.1339075727729
 20
321.9072471284439
 30
0.0000000000000000
 11
211.1339075727729
 21
345.1002766075509
 31
0.0000000000000000
  0
LINE
  5
16F
100
AcDbEntity
  8
MAIN0
  6
BYBLOCK
 62
0
100
AcDbLine
 10
213.1339075727729
 20
343.1002766075509
 30
0.0000000000000000
 11
219.1339075727672
 21
343.1002766075509
 31
0.0000000000000000
  0
INSERT
  5
170
100
AcDbEntity
  8
MAIN0
  6
BYBLOCK
 62
0
100
AcDbBlockReference
  2
_OPEN
 10
211.1339075727729
 20
343.1002766075509
 30
0.0000000000000000
 41
2.000000000000000
 42
2.000000000000000
 43
2.000000000000000
 50
180.0000000000000
  0
INSERT
  5
171
100
AcDbEntity
  8
MAIN0
  6
BYBLOCK
 62
0
100
AcDbBlockReference
  2
_OPEN
 10
221.1339075727672
 20
343.1002766075509
 30
0.0000000000000000
 41
2.000000000000000
 42
2.000000000000000
 43
2.000000000000000
 50
0.0000000000000000
  0
LINE
  5
172
100
AcDbEntity
  8
MAIN0
  6
BYBLOCK
 62
0
100
AcDbLine
 10
221.1339075727672
 20
324.6043616765842
 30
0.0000000000000000
 11
221.1339075727672
 21
345.1002766075509
 31
0.0000000000000000
  0
MTEXT
  5
173
100
AcDbEntity
  8
MAIN0
  6
BYBLOCK
 62
0
100
AcDbMText
 10
216.1339075727701
 20
345.1502765598672
 30
0.0000000000000000
 40
3.099999904632568
 41
0.0000000000000000
 71
     5
 72
     1
  1
\A1;10
 11
1.000000000000000
 21
0.0000000000000000
 31
0.0000000000000000
  7
STANDARD
  0
ENDBLK
  5
174
100
AcDbEntity
  8
MAIN0
  6
CONTINUOUS
 62
3
100
AcDbBlockEnd
  0
BLOCK
  5
17A
100
AcDbEntity
  8
MAIN0
  6
CONTINUOUS
 62
3
100
AcDbBlockBegin
  2
*D9
 70
    65
 10
0.0
 20
0.0
 30
0.0
  0
LINE
  5
17B
100
AcDbEntity
  8
MAIN0
  6
BYBLOCK
 62
0
100
AcDbLine
 10
85.34127655458551
 20
171.6406708964455
 30
0.0000000000000000
 11
85.34127655458551
 21
163.0241081431610
 31
0.0000000000000000
  0
LINE
  5
17C
100
AcDbEntity
  8
MAIN0
  6
BYBLOCK
 62
0
100
AcDbLine
 10
85.34127655458551
 20
165.0241081431610
 30
0.0000000000000000
 11
91.84127655458551
 21
165.0241081431610
 31
0.0000000000000000
  0
INSERT
  5
17D
100
AcDbEntity
  8
MAIN0
  6
BYBLOCK
 62
0
100
AcDbBlockReference
  2
_OPEN
 10
85.34127655458551
 20
165.0241081431610
 30
0.0000000000000000
 41
2.000000000000000
 42
2.000000000000000
 43
2.000000000000000
 50
0.0000000000000000
  0
INSERT
  5
17E
100
AcDbEntity
  8
MAIN0
  6
BYBLOCK
 62
0
100
AcDbBlockReference
  2
_OPEN
 10
91.84127655458551
 20
165.0241081431610
 30
0.0000000000000000
 41
2.000000000000000
 42
2.000000000000000
 43
2.000000000000000
 50
180.0000000000000
  0
LINE
  5
17F
100
AcDbEntity
  8
MAIN0
  6
BYBLOCK
 62
0
100
AcDbLine
 10
83.34127655458551
 20
165.0241081431610
 30
0.0000000000000000
 11
82.34127655458551
 21
165.0241081431610
 31
0.0000000000000000
  0
LINE
  5
180
100
AcDbEntity
  8
MAIN0
  6
BYBLOCK
 62
0
100
AcDbLine
 10
93.84127655458551
 20
165.0241081431610
 30
0.0000000000000000
 11
94.84127655458551
 21
165.0241081431610
 31
0.0000000000000000
  0
LINE
  5
181
100
AcDbEntity
  8
MAIN0
  6
BYBLOCK
 62
0
100
AcDbLine
 10
91.84127655458551
 20
172.8072471046102
 30
0.0000000000000000
 11
91.84127655458551
 21
163.0241081431610
 31
0.0000000000000000
  0
MTEXT
  5
182
100
AcDbEntity
  8
MAIN0
  6
BYBLOCK
 62
0
100
AcDbMText
 10
88.59127655458551
 20
167.0741080954773
 30
0.0000000000000000
 40
3.099999904632568
 41
0.0000000000000000
 71
     5
 72
     1
  1
\A1;6.5
 11
1.000000000000000
 21
0.0000000000000000
 31
0.0000000000000000
  7
STANDARD
  0
ENDBLK
  5
183
100
AcDbEntity
  8
MAIN0
  6
CONTINUOUS
 62
3
100
AcDbBlockEnd
  0
BLOCK
  5
185
100
AcDbEntity
  8
MAIN0
  6
CONTINUOUS
 62
3
100
AcDbBlockBegin
  2
*D10
 70
    65
 10
0.0
 20
0.0
 30
0.0
  0
LINE
  5
186
100
AcDbEntity
  8
MAIN0
  6
BYBLOCK
 62
0
100
AcDbLine
 10
91.84127655458551
 20
172.8072471046102
 30
0.0000000000000000
 11
91.84127655458551
 21
163.0241081431610
 31
0.0000000000000000
  0
LINE
  5
187
100
AcDbEntity
  8
MAIN0
  6
BYBLOCK
 62
0
100
AcDbLine
 10
93.84127655458551
 20
165.0241081431610
 30
0.0000000000000000
 11
104.8412765544879
 21
165.0241081431610
 31
0.0000000000000000
  0
INSERT
  5
188
100
AcDbEntity
  8
MAIN0
  6
BYBLOCK
 62
0
100
AcDbBlockReference
  2
_OPEN
 10
91.84127655458551
 20
165.0241081431610
 30
0.0000000000000000
 41
2.000000000000000
 42
2.000000000000000
 43
2.000000000000000
 50
180.0000000000000
  0
INSERT
  5
189
100
AcDbEntity
  8
MAIN0
  6
BYBLOCK
 62
0
100
AcDbBlockReference
  2
_OPEN
 10
106.8412765544879
 20
165.0241081431610
 30
0.0000000000000000
 41
2.000000000000000
 42
2.000000000000000
 43
2.000000000000000
 50
0.0000000000000000
  0
LINE
  5
18A
100
AcDbEntity
  8
MAIN0
  6
BYBLOCK
 62
0
100
AcDbLine
 10
106.8412765544879
 20
166.7951747459841
 30
0.0000000000000000
 11
106.8412765544879
 21
163.0241081431610
 31
0.0000000000000000
  0
MTEXT
  5
18B
100
AcDbEntity
  8
MAIN0
  6
BYBLOCK
 62
0
100
AcDbMText
 10
99.34127655453671
 20
167.0741080954773
 30
0.0000000000000000
 40
3.099999904632568
 41
0.0000000000000000
 71
     5
 72
     1
  1
\A1;15
 11
1.000000000000000
 21
0.0000000000000000
 31
0.0000000000000000
  7
STANDARD
  0
ENDBLK
  5
18C
100
AcDbEntity
  8
MAIN0
  6
CONTINUOUS
 62
3
100
AcDbBlockEnd
  0
BLOCK
  5
18E
100
AcDbEntity
  8
MAIN0
  6
CONTINUOUS
 62
3
100
AcDbBlockBegin
  2
*D11
 70
    65
 10
0.0
 20
0.0
 30
0.0
  0
LINE
  5
18F
100
AcDbEntity
  8
MAIN0
  6
BYBLOCK
 62
0
100
AcDbLine
 10
91.84127655458551
 20
172.8072471046102
 30
0.0000000000000000
 11
91.84127655458551
 21
156.2953729253463
 31
0.0000000000000000
  0
LINE
  5
190
100
AcDbEntity
  8
MAIN0
  6
BYBLOCK
 62
0
100
AcDbLine
 10
93.84127655458551
 20
158.2953729253463
 30
0.0000000000000000
 11
119.8412765545855
 21
158.2953729253463
 31
0.0000000000000000
  0
INSERT
  5
191
100
AcDbEntity
  8
MAIN0
  6
BYBLOCK
 62
0
100
AcDbBlockReference
  2
_OPEN
 10
91.84127655458551
 20
158.2953729253463
 30
0.0000000000000000
 41
2.000000000000000
 42
2.000000000000000
 43
2.000000000000000
 50
180.0000000000000
  0
INSERT
  5
192
100
AcDbEntity
  8
MAIN0
  6
BYBLOCK
 62
0
100
AcDbBlockReference
  2
_OPEN
 10
121.8412765545855
 20
158.2953729253463
 30
0.0000000000000000
 41
2.000000000000000
 42
2.000000000000000
 43
2.000000000000000
 50
0.0000000000000000
  0
LINE
  5
193
100
AcDbEntity
  8
MAIN0
  6
BYBLOCK
 62
0
100
AcDbLine
 10
121.8412765545855
 20
172.8072471046145
 30
0.0000000000000000
 11
121.8412765545855
 21
156.2953729253463
 31
0.0000000000000000
  0
MTEXT
  5
194
100
AcDbEntity
  8
MAIN0
  6
BYBLOCK
 62
0
100
AcDbMText
 10
106.8412765545855
 20
160.3453728776626
 30
0.0000000000000000
 40
3.099999904632568
 41
0.0000000000000000
 71
     5
 72
     1
  1
\A1;30
 11
1.000000000000000
 21
0.0000000000000000
 31
0.0000000000000000
  7
STANDARD
  0
ENDBLK
  5
195
100
AcDbEntity
  8
MAIN0
  6
CONTINUOUS
 62
3
100
AcDbBlockEnd
  0
BLOCK
  5
197
100
AcDbEntity
  8
MAIN0
  6
CONTINUOUS
 62
3
100
AcDbBlockBegin
  2
*D12
 70
    65
 10
0.0
 20
0.0
 30
0.0
  0
LINE
  5
198
100
AcDbEntity
  8
MAIN0
  6
BYBLOCK
 62
0
100
AcDbLine
 10
76.84127655458639
 20
174.9072471046024
 30
0.0000000000000000
 11
76.84127655458639
 21
149.0872366771540
 31
0.0000000000000000
  0
LINE
  5
199
100
AcDbEntity
  8
MAIN0
  6
BYBLOCK
 62
0
100
AcDbLine
 10
78.84127655458639
 20
151.0872366771540
 30
0.0000000000000000
 11
89.84127655458551
 21
151.0872366771540
 31
0.0000000000000000
  0
INSERT
  5
19A
100
AcDbEntity
  8
MAIN0
  6
BYBLOCK
 62
0
100
AcDbBlockReference
  2
_OPEN
 10
76.84127655458639
 20
151.0872366771540
 30
0.0000000000000000
 41
2.000000000000000
 42
2.000000000000000
 43
2.000000000000000
 50
180.0000000000000
  0
INSERT
  5
19B
100
AcDbEntity
  8
MAIN0
  6
BYBLOCK
 62
0
100
AcDbBlockReference
  2
_OPEN
 10
91.84127655458551
 20
151.0872366771540
 30
0.0000000000000000
 41
2.000000000000000
 42
2.000000000000000
 43
2.000000000000000
 50
0.0000000000000000
  0
LINE
  5
19C
100
AcDbEntity
  8
MAIN0
  6
BYBLOCK
 62
0
100
AcDbLine
 10
91.84127655458551
 20
172.8072471046102
 30
0.0000000000000000
 11
91.84127655458551
 21
149.0872366771540
 31
0.0000000000000000
  0
MTEXT
  5
19D
100
AcDbEntity
  8
MAIN0
  6
BYBLOCK
 62
0
100
AcDbMText
 10
84.34127655458593
 20
153.1372366294703
 30
0.0000000000000000
 40
3.099999904632568
 41
0.0000000000000000
 71
     5
 72
     1
  1
\A1;15
 11
1.000000000000000
 21
0.0000000000000000
 31
0.0000000000000000
  7
STANDARD
  0
ENDBLK
  5
19E
100
AcDbEntity
  8
MAIN0
  6
CONTINUOUS
 62
3
100
AcDbBlockEnd
  0
BLOCK
  5
1A0
100
AcDbEntity
  8
MAIN0
  6
CONTINUOUS
 62
3
100
AcDbBlockBegin
  2
*D13
 70
    65
 10
0.0
 20
0.0
 30
0.0
  0
LINE
  5
1A1
100
AcDbEntity
  8
MAIN0
  6
BYBLOCK
 62
0
100
AcDbLine
 10
91.84127655458551
 20
172.8072471046102
 30
0.0000000000000000
 11
91.84127655458551
 21
149.0872366771540
 31
0.0000000000000000
  0
LINE
  5
1A2
100
AcDbEntity
  8
MAIN0
  6
BYBLOCK
 62
0
100
AcDbLine
 10
93.84127655458551
 20
151.0872366771540
 30
0.0000000000000000
 11
129.8412765545863
 21
151.0872366771540
 31
0.0000000000000000
  0
INSERT
  5
1A3
100
AcDbEntity
  8
MAIN0
  6
BYBLOCK
 62
0
100
AcDbBlockReference
  2
_OPEN
 10
91.84127655458551
 20
151.0872366771540
 30
0.0000000000000000
 41
2.000000000000000
 42
2.000000000000000
 43
2.000000000000000
 50
180.0000000000000
  0
INSERT
  5
1A4
100
AcDbEntity
  8
MAIN0
  6
BYBLOCK
 62
0
100
AcDbBlockReference
  2
_OPEN
 10
131.8412765545863
 20
151.0872366771540
 30
0.0000000000000000
 41
2.000000000000000
 42
2.000000000000000
 43
2.000000000000000
 50
0.0000000000000000
  0
LINE
  5
1A5
100
AcDbEntity
  8
MAIN0
  6
BYBLOCK
 62
0
100
AcDbLine
 10
131.8412765545863
 20
193.9072471046019
 30
0.0000000000000000
 11
131.8412765545863
 21
149.0872366771540
 31
0.0000000000000000
  0
MTEXT
  5
1A6
100
AcDbEntity
  8
MAIN0
  6
BYBLOCK
 62
0
100
AcDbMText
 10
111.8412765545859
 20
153.1372366294703
 30
0.0000000000000000
 40
3.099999904632568
 41
0.0000000000000000
 71
     5
 72
     1
  1
\A1;40
 11
1.000000000000000
 21
0.0000000000000000
 31
0.0000000000000000
  7
STANDARD
  0
ENDBLK
  5
1A7
100
AcDbEntity
  8
MAIN0
  6
CONTINUOUS
 62
3
100
AcDbBlockEnd
  0
BLOCK
  5
1A9
100
AcDbEntity
  8
MAIN0
  6
CONTINUOUS
 62
3
100
AcDbBlockBegin
  2
*D14
 70
    65
 10
0.0
 20
0.0
 30
0.0
  0
LINE
  5
1AA
100
AcDbEntity
  8
MAIN0
  6
BYBLOCK
 62
0
100
AcDbLine
 10
131.8412765545863
 20
193.9072471046019
 30
0.0000000000000000
 11
131.8412765545863
 21
149.0872366771540
 31
0.0000000000000000
  0
LINE
  5
1AB
100
AcDbEntity
  8
MAIN0
  6
BYBLOCK
 62
0
100
AcDbLine
 10
133.8412765545863
 20
151.0872366771540
 30
0.0000000000000000
 11
199.8412765545862
 21
151.0872366771540
 31
0.0000000000000000
  0
INSERT
  5
1AC
100
AcDbEntity
  8
MAIN0
  6
BYBLOCK
 62
0
100
AcDbBlockReference
  2
_OPEN
 10
131.8412765545863
 20
151.0872366771540
 30
0.0000000000000000
 41
2.000000000000000
 42
2.000000000000000
 43
2.000000000000000
 50
180.0000000000000
  0
INSERT
  5
1AD
100
AcDbEntity
  8
MAIN0
  6
BYBLOCK
 62
0
100
AcDbBlockReference
  2
_OPEN
 10
201.8412765545862
 20
151.0872366771540
 30
0.0000000000000000
 41
2.000000000000000
 42
2.000000000000000
 43
2.000000000000000
 50
0.0000000000000000
  0
LINE
  5
1AE
100
AcDbEntity
  8
MAIN0
  6
BYBLOCK
 62
0
100
AcDbLine
 10
201.8412765545862
 20
194.3072471046020
 30
0.0000000000000000
 11
201.8412765545862
 21
149.0872366771540
 31
0.0000000000000000
  0
MTEXT
  5
1AF
100
AcDbEntity
  8
MAIN0
  6
BYBLOCK
 62
0
100
AcDbMText
 10
166.8412765545863
 20
153.1372366294703
 30
0.0000000000000000
 40
3.099999904632568
 41
0.0000000000000000
 71
     5
 72
     1
  1
\A1;70
 11
1.000000000000000
 21
0.0000000000000000
 31
0.0000000000000000
  7
STANDARD
  0
ENDBLK
  5
1B0
100
AcDbEntity
  8
MAIN0
  6
CONTINUOUS
 62
3
100
AcDbBlockEnd
  0
BLOCK
  5
1B2
100
AcDbEntity
  8
MAIN0
  6
CONTINUOUS
 62
3
100
AcDbBlockBegin
  2
*D15
 70
    65
 10
0.0
 20
0.0
 30
0.0
  0
LINE
  5
1B3
100
AcDbEntity
  8
MAIN0
  6
BYBLOCK
 62
0
100
AcDbLine
 10
201.8412765545862
 20
194.3072471046020
 30
0.0000000000000000
 11
201.8412765545862
 21
149.0872366771540
 31
0.0000000000000000
  0
LINE
  5
1B4
100
AcDbEntity
  8
MAIN0
  6
BYBLOCK
 62
0
100
AcDbLine
 10
203.8412765545862
 20
151.0872366771540
 30
0.0000000000000000
 11
231.8412765545863
 21
151.0872366771540
 31
0.0000000000000000
  0
INSERT
  5
1B5
100
AcDbEntity
  8
MAIN0
  6
BYBLOCK
 62
0
100
AcDbBlockReference
  2
_OPEN
 10
201.8412765545862
 20
151.0872366771540
 30
0.0000000000000000
 41
2.000000000000000
 42
2.000000000000000
 43
2.000000000000000
 50
180.0000000000000
  0
INSERT
  5
1B6
100
AcDbEntity
  8
MAIN0
  6
BYBLOCK
 62
0
100
AcDbBlockReference
  2
_OPEN
 10
233.8412765545863
 20
151.0872366771540
 30
0.0000000000000000
 41
2.000000000000000
 42
2.000000000000000
 43
2.000000000000000
 50
0.0000000000000000
  0
LINE
  5
1B7
100
AcDbEntity
  8
MAIN0
  6
BYBLOCK
 62
0
100
AcDbLine
 10
233.8412765545863
 20
262.8072471046020
 30
0.0000000000000000
 11
233.8412765545863
 21
149.0872366771540
 31
0.0000000000000000
  0
MTEXT
  5
1B8
100
AcDbEntity
  8
MAIN0
  6
BYBLOCK
 62
0
100
AcDbMText
 10
217.8412765545863
 20
153.1372366294703
 30
0.0000000000000000
 40
3.099999904632568
 41
0.0000000000000000
 71
     5
 72
     1
  1
\A1;32
 11
1.000000000000000
 21
0.0000000000000000
 31
0.0000000000000000
  7
STANDARD
  0
ENDBLK
  5
1B9
100
AcDbEntity
  8
MAIN0
  6
CONTINUOUS
 62
3
100
AcDbBlockEnd
  0
BLOCK
  5
1BB
100
AcDbEntity
  8
MAIN0
  6
CONTINUOUS
 62
3
100
AcDbBlockBegin
  2
*D16
 70
    65
 10
0.0
 20
0.0
 30
0.0
  0
LINE
  5
1BC
100
AcDbEntity
  8
MAIN0
  6
BYBLOCK
 62
0
100
AcDbLine
 10
76.84127655458639
 20
174.9072471046024
 30
0.0000000000000000
 11
76.84127655458639
 21
141.3350980840782
 31
0.0000000000000000
  0
LINE
  5
1BD
100
AcDbEntity
  8
MAIN0
  6
BYBLOCK
 62
0
100
AcDbLine
 10
78.84127655458639
 20
143.3350980840782
 30
0.0000000000000000
 11
231.8412765545863
 21
143.3350980840782
 31
0.0000000000000000
  0
INSERT
  5
1BE
100
AcDbEntity
  8
MAIN0
  6
BYBLOCK
 62
0
100
AcDbBlockReference
  2
_OPEN
 10
76.84127655458639
 20
143.3350980840782
 30
0.0000000000000000
 41
2.000000000000000
 42
2.000000000000000
 43
2.000000000000000
 50
180.0000000000000
  0
INSERT
  5
1BF
100
AcDbEntity
  8
MAIN0
  6
BYBLOCK
 62
0
100
AcDbBlockReference
  2
_OPEN
 10
233.8412765545863
 20
143.3350980840782
 30
0.0000000000000000
 41
2.000000000000000
 42
2.000000000000000
 43
2.000000000000000
 50
0.0000000000000000
  0
LINE
  5
1C0
100
AcDbEntity
  8
MAIN0
  6
BYBLOCK
 62
0
100
AcDbLine
 10
233.8412765545863
 20
262.8072471046020
 30
0.0000000000000000
 11
233.8412765545863
 21
141.3350980840782
 31
0.0000000000000000
  0
MTEXT
  5
1C1
100
AcDbEntity
  8
MAIN0
  6
BYBLOCK
 62
0
100
AcDbMText
 10
155.3412765545863
 20
145.3850980363945
 30
0.0000000000000000
 40
3.099999904632568
 41
0.0000000000000000
 71
     5
 72
     1
  1
\A1;157
 11
1.000000000000000
 21
0.0000000000000000
 31
0.0000000000000000
  7
STANDARD
  0
ENDBLK
  5
1C2
100
AcDbEntity
  8
MAIN0
  6
CONTINUOUS
 62
3
100
AcDbBlockEnd
  0
BLOCK
  5
1C4
100
AcDbEntity
  8
MAIN0
  6
CONTINUOUS
 62
3
100
AcDbBlockBegin
  2
*D17
 70
    65
 10
0.0
 20
0.0
 30
0.0
  0
LINE
  5
1C5
100
AcDbEntity
  8
MAIN0
  6
BYBLOCK
 62
0
100
AcDbLine
 10
393.8412765546178
 20
172.8072471046019
 30
0.0000000000000000
 11
393.8412765546178
 21
143.9732598783326
 31
0.0000000000000000
  0
LINE
  5
1C6
100
AcDbEntity
  8
MAIN0
  6
BYBLOCK
 62
0
100
AcDbLine
 10
395.8412765546178
 20
145.9732598783326
 30
0.0000000000000000
 11
471.8412765546179
 21
145.9732598783326
 31
0.0000000000000000
  0
INSERT
  5
1C7
100
AcDbEntity
  8
MAIN0
  6
BYBLOCK
 62
0
100
AcDbBlockReference
  2
_OPEN
 10
393.8412765546178
 20
145.9732598783326
 30
0.0000000000000000
 41
2.000000000000000
 42
2.000000000000000
 43
2.000000000000000
 50
180.0000000000000
  0
INSERT
  5
1C8
100
AcDbEntity
  8
MAIN0
  6
BYBLOCK
 62
0
100
AcDbBlockReference
  2
_OPEN
 10
473.8412765546179
 20
145.9732598783326
 30
0.0000000000000000
 41
2.000000000000000
 42
2.000000000000000
 43
2.000000000000000
 50
0.0000000000000000
  0
LINE
  5
1C9
100
AcDbEntity
  8
MAIN0
  6
BYBLOCK
 62
0
100
AcDbLine
 10
473.8412765546179
 20
172.8072471046019
 30
0.0000000000000000
 11
473.8412765546179
 21
143.9732598783326
 31
0.0000000000000000
  0
MTEXT
  5
1CA
100
AcDbEntity
  8
MAIN0
  6
BYBLOCK
 62
0
100
AcDbMText
 10
433.8412765546178
 20
148.0232598306489
 30
0.0000000000000000
 40
3.099999904632568
 41
0.0000000000000000
 71
     5
 72
     1
  1
\A1;80
 11
1.000000000000000
 21
0.0000000000000000
 31
0.0000000000000000
  7
STANDARD
  0
ENDBLK
  5
1CB
100
AcDbEntity
  8
MAIN0
  6
CONTINUOUS
 62
3
100
AcDbBlockEnd
  0
BLOCK
  5
1CD
100
AcDbEntity
  8
MAIN0
  6
CONTINUOUS
 62
3
100
AcDbBlockBegin
  2
*D18
 70
    65
 10
0.0
 20
0.0
 30
0.0
  0
LINE
  5
1CE
100
AcDbEntity
  8
MAIN0
  6
BYBLOCK
 62
0
100
AcDbLine
 10
410.3412765545750
 20
169.5693357634309
 30
0.0000000000000000
 11
410.3412765545750
 21
149.4529873101533
 31
0.0000000000000000
  0
LINE
  5
1CF
100
AcDbEntity
  8
MAIN0
  6
BYBLOCK
 62
0
100
AcDbLine
 10
412.3412765545750
 20
151.4529873101533
 30
0.0000000000000000
 11
455.3412765545748
 21
151.4529873101533
 31
0.0000000000000000
  0
INSERT
  5
1D0
100
AcDbEntity
  8
MAIN0
  6
BYBLOCK
 62
0
100
AcDbBlockReference
  2
_OPEN
 10
410.3412765545750
 20
151.4529873101533
 30
0.0000000000000000
 41
2.000000000000000
 42
2.000000000000000
 43
2.000000000000000
 50
180.0000000000000
  0
INSERT
  5
1D1
100
AcDbEntity
  8
MAIN0
  6
BYBLOCK
 62
0
100
AcDbBlockReference
  2
_OPEN
 10
457.3412765545748
 20
151.4529873101533
 30
0.0000000000000000
 41
2.000000000000000
 42
2.000000000000000
 43
2.000000000000000
 50
0.0000000000000000
  0
LINE
  5
1D2
100
AcDbEntity
  8
MAIN0
  6
BYBLOCK
 62
0
100
AcDbLine
 10
457.3412765545748
 20
169.5693357634237
 30
0.0000000000000000
 11
457.3412765545748
 21
149.4529873101533
 31
0.0000000000000000
  0
MTEXT
  5
1D3
100
AcDbEntity
  8
MAIN0
  6
BYBLOCK
 62
0
100
AcDbMText
 10
433.8412765545749
 20
153.5029872624696
 30
0.0000000000000000
 40
3.099999904632568
 41
0.0000000000000000
 71
     5
 72
     1
  1
\A1;47
 11
1.000000000000000
 21
0.0000000000000000
 31
0.0000000000000000
  7
STANDARD
  0
ENDBLK
  5
1D4
100
AcDbEntity
  8
MAIN0
  6
CONTINUOUS
 62
3
100
AcDbBlockEnd
  0
BLOCK
  5
1DA
100
AcDbEntity
  8
MAIN0
  6
CONTINUOUS
 62
3
100
AcDbBlockBegin
  2
*D19
 70
    65
 10
0.0
 20
0.0
 30
0.0
  0
LINE
  5
1DB
100
AcDbEntity
  8
MAIN0
  6
BYBLOCK
 62
0
100
AcDbLine
 10
201.8412765545863
 20
358.9072471284439
 30
0.0000000000000000
 11
201.8412765545863
 21
365.2835677899190
 31
0.0000000000000000
  0
LINE
  5
1DC
100
AcDbEntity
  8
MAIN0
  6
BYBLOCK
 62
0
100
AcDbLine
 10
203.8412765545863
 20
363.2835677899190
 30
0.0000000000000000
 11
232.1339075727755
 21
363.2835677899190
 31
0.0000000000000000
  0
INSERT
  5
1DD
100
AcDbEntity
  8
MAIN0
  6
BYBLOCK
 62
0
100
AcDbBlockReference
  2
_OPEN
 10
201.8412765545863
 20
363.2835677899190
 30
0.0000000000000000
 41
2.000000000000000
 42
2.000000000000000
 43
2.000000000000000
 50
180.0000000000000
  0
INSERT
  5
1DE
100
AcDbEntity
  8
MAIN0
  6
BYBLOCK
 62
0
100
AcDbBlockReference
  2
_OPEN
 10
234.1339075727755
 20
363.2835677899190
 30
0.0000000000000000
 41
2.000000000000000
 42
2.000000000000000
 43
2.000000000000000
 50
0.0000000000000000
  0
LINE
  5
1DF
100
AcDbEntity
  8
MAIN0
  6
BYBLOCK
 62
0
100
AcDbLine
 10
234.1339075727755
 20
323.1072471284439
 30
0.0000000000000000
 11
234.1339075727755
 21
365.2835677899190
 31
0.0000000000000000
  0
MTEXT
  5
1E0
100
AcDbEntity
  8
MAIN0
  6
BYBLOCK
 62
0
100
AcDbMText
 10
217.9875920636809
 20
365.3335677422352
 30
0.0000000000000000
 40
3.099999904632568
 41
0.0000000000000000
 71
     5
 72
     1
  1
\A1;32.29
 11
1.000000000000000
 21
0.0000000000000000
 31
0.0000000000000000
  7
STANDARD
  0
ENDBLK
  5
1E1
100
AcDbEntity
  8
MAIN0
  6
CONTINUOUS
 62
3
100
AcDbBlockEnd
  0
BLOCK
  5
1E7
100
AcDbEntity
  8
MAIN0
  6
CONTINUOUS
 62
3
100
AcDbBlockBegin
  2
*D20
 70
    65
 10
0.0
 20
0.0
 30
0.0
  0
LINE
  5
1E8
100
AcDbEntity
  8
MAIN0
  6
BYBLOCK
 62
0
100
AcDbLine
 10
418.3412765545863
 20
323.0809260352818
 30
0.0000000000000000
 11
418.3412765545863
 21
398.1165013138003
 31
0.0000000000000000
  0
LINE
  5
1E9
100
AcDbEntity
  8
MAIN0
  6
BYBLOCK
 62
0
100
AcDbLine
 10
420.3412765545863
 20
396.1165013138003
 30
0.0000000000000000
 11
447.3412765545863
 21
396.1165013138003
 31
0.0000000000000000
  0
INSERT
  5
1EA
100
AcDbEntity
  8
MAIN0
  6
BYBLOCK
 62
0
100
AcDbBlockReference
  2
_OPEN
 10
418.3412765545863
 20
396.1165013138003
 30
0.0000000000000000
 41
2.000000000000000
 42
2.000000000000000
 43
2.000000000000000
 50
180.0000000000000
  0
INSERT
  5
1EB
100
AcDbEntity
  8
MAIN0
  6
BYBLOCK
 62
0
100
AcDbBlockReference
  2
_OPEN
 10
449.3412765545863
 20
396.1165013138003
 30
0.0000000000000000
 41
2.000000000000000
 42
2.000000000000000
 43
2.000000000000000
 50
0.0000000000000000
  0
LINE
  5
1EC
100
AcDbEntity
  8
MAIN0
  6
BYBLOCK
 62
0
100
AcDbLine
 10
449.3412765545863
 20
323.0809260352818
 30
0.0000000000000000
 11
449.3412765545863
 21
398.1165013138003
 31
0.0000000000000000
  0
MTEXT
  5
1ED
100
AcDbEntity
  8
MAIN0
  6
BYBLOCK
 62
0
100
AcDbMText
 10
433.8412765545863
 20
398.1665012661165
 30
0.0000000000000000
 40
3.099999904632568
 41
0.0000000000000000
 71
     5
 72
     1
  1
\A1;31
 11
1.000000000000000
 21
0.0000000000000000
 31
0.0000000000000000
  7
STANDARD
  0
ENDBLK
  5
1EE
100
AcDbEntity
  8
MAIN0
  6
CONTINUOUS
 62
3
100
AcDbBlockEnd
  0
BLOCK
  5
1F0
100
AcDbEntity
  8
MAIN0
  6
CONTINUOUS
 62
3
100
AcDbBlockBegin
  2
*D21
 70
    65
 10
0.0
 20
0.0
 30
0.0
  0
LINE
  5
1F1
100
AcDbEntity
  8
MAIN0
  6
BYBLOCK
 62
0
100
AcDbLine
 10
329.5412765426653
 20
276.6072471165230
 30
0.0000000000000000
 11
322.0125252174145
 21
276.6072471165229
 31
0.0000000000000000
  0
LINE
  5
1F2
100
AcDbEntity
  8
MAIN0
  6
BYBLOCK
 62
0
100
AcDbLine
 10
324.0125252174145
 20
274.6072471165230
 30
0.0000000000000000
 11
324.0125252174145
 21
241.6072471165230
 31
0.0000000000000000
  0
INSERT
  5
1F3
100
AcDbEntity
  8
MAIN0
  6
BYBLOCK
 62
0
100
AcDbBlockReference
  2
_OPEN
 10
324.0125252174145
 20
276.6072471165230
 30
0.0000000000000000
 41
2.000000000000000
 42
2.000000000000000
 43
2.000000000000000
 50
90.00000000000000
  0
INSERT
  5
1F4
100
AcDbEntity
  8
MAIN0
  6
BYBLOCK
 62
0
100
AcDbBlockReference
  2
_OPEN
 10
324.0125252174145
 20
239.6072471165230
 30
0.0000000000000000
 41
2.000000000000000
 42
2.000000000000000
 43
2.000000000000000
 50
270.0000000000000
  0
LINE
  5
1F5
100
AcDbEntity
  8
MAIN0
  6
BYBLOCK
 62
0
100
AcDbLine
 10
412.2424510558362
 20
239.6072471165230
 30
0.0000000000000000
 11
322.0125252174145
 21
239.6072471165230
 31
0.0000000000000000
  0
MTEXT
  5
1F6
100
AcDbEntity
  8
MAIN0
  6
BYBLOCK
 62
0
100
AcDbMText
 10
321.9625252650982
 20
258.1072471165230
 30
0.0000000000000000
 40
3.099999904632568
 41
0.0000000000000000
 71
     5
 72
     1
  1
\A1;37
 11
6.123233995736766e-017
 21
1.000000000000000
 31
0.0000000000000000
  7
STANDARD
  0
ENDBLK
  5
1F7
100
AcDbEntity
  8
MAIN0
  6
CONTINUOUS
 62
3
100
AcDbBlockEnd
  0
BLOCK
  5
1F9
100
AcDbEntity
  8
MAIN0
  6
CONTINUOUS
 62
3
100
AcDbBlockBegin
  2
*D22
 70
    65
 10
0.0
 20
0.0
 30
0.0
  0
LINE
  5
1FA
100
AcDbEntity
  8
MAIN0
  6
BYBLOCK
 62
0
100
AcDbLine
 10
412.2424510558362
 20
239.6072471165230
 30
0.0000000000000000
 11
322.0125252174145
 21
239.6072471165230
 31
0.0000000000000000
  0
LINE
  5
1FB
100
AcDbEntity
  8
MAIN0
  6
BYBLOCK
 62
0
100
AcDbLine
 10
324.0125252174145
 20
237.6072471165230
 30
0.0000000000000000
 11
324.0125252174145
 21
208.6072471165230
 31
0.0000000000000000
  0
INSERT
  5
1FC
100
AcDbEntity
  8
MAIN0
  6
BYBLOCK
 62
0
100
AcDbBlockReference
  2
_OPEN
 10
324.0125252174145
 20
239.6072471165230
 30
0.0000000000000000
 41
2.000000000000000
 42
2.000000000000000
 43
2.000000000000000
 50
90.00000000000000
  0
INSERT
  5
1FD
100
AcDbEntity
  8
MAIN0
  6
BYBLOCK
 62
0
100
AcDbBlockReference
  2
_OPEN
 10
324.0125252174145
 20
206.6072471165230
 30
0.0000000000000000
 41
2.000000000000000
 42
2.000000000000000
 43
2.000000000000000
 50
270.0000000000000
  0
LINE
  5
1FE
100
AcDbEntity
  8
MAIN0
  6
BYBLOCK
 62
0
100
AcDbLine
 10
412.8939221807420
 20
206.6072471165230
 30
0.0000000000000000
 11
322.0125252174145
 21
206.6072471165230
 31
0.0000000000000000
  0
MTEXT
  5
1FF
100
AcDbEntity
  8
MAIN0
  6
BYBLOCK
 62
0
100
AcDbMText
 10
321.9625252650982
 20
223.1072471165230
 30
0.0000000000000000
 40
3.099999904632568
 41
0.0000000000000000
 71
     5
 72
     1
  1
\A1;33
 11
6.123233995736766e-017
 21
1.000000000000000
 31
0.0000000000000000
  7
STANDARD
  0
ENDBLK
  5
200
100
AcDbEntity
  8
MAIN0
  6
CONTINUOUS
 62
3
100
AcDbBlockEnd
  0
BLOCK
  5
202
100
AcDbEntity
  8
MAIN0
  6
CONTINUOUS
 62
3
100
AcDbBlockBegin
  2
*D23
 70
    65
 10
0.0
 20
0.0
 30
0.0
  0
LINE
  5
203
100
AcDbEntity
  8
MAIN0
  6
BYBLOCK
 62
0
100
AcDbLine
 10
433.8412765545863
 20
276.6072471165230
 30
0.0000000000000000
 11
374.3771961982823
 21
255.7980388812482
 31
0.0000000000000000
  0
INSERT
  5
204
100
AcDbEntity
  8
MAIN0
  6
BYBLOCK
 62
0
100
AcDbBlockReference
  2
_OPEN
 10
372.4894476155425
 20
255.1374290960014
 30
0.0000000000000000
 41
2.000000000000000
 42
2.000000000000000
 43
2.000000000000000
 50
199.2872822711963
  0
MTEXT
  5
205
100
AcDbEntity
  8
MAIN0
  6
BYBLOCK
 62
0
100
AcDbMText
 10
377.9072787724372
 20
259.2052759755616
 30
0.0000000000000000
 40
3.099999904632568
 41
0.0000000000000000
 71
     5
 72
     1
  1
\A1;Ｒ65
 11
0.9438742913699040
 21
0.3303048926234090
 31
0.0000000000000000
  7
KNJYOKO
  0
ENDBLK
  5
206
100
AcDbEntity
  8
MAIN0
  6
CONTINUOUS
 62
3
100
AcDbBlockEnd
  0
BLOCK
  5
215
100
AcDbEntity
  8
MAIN0
  6
CONTINUOUS
 62
3
100
AcDbBlockBegin
  2
*D24
 70
    65
 10
0.0
 20
0.0
 30
0.0
  0
LINE
  5
216
100
AcDbEntity
  8
MAIN0
  6
BYBLOCK
 62
0
100
AcDbLine
 10
418.8412765545862
 20
199.5107160582640
 30
0.0000000000000000
 11
418.8412765545863
 21
154.5183769482009
 31
0.0000000000000000
  0
LINE
  5
217
100
AcDbEntity
  8
MAIN0
  6
BYBLOCK
 62
0
100
AcDbLine
 10
420.8412765545863
 20
156.5183769482009
 30
0.0000000000000000
 11
446.8412765545863
 21
156.5183769482009
 31
0.0000000000000000
  0
INSERT
  5
218
100
AcDbEntity
  8
MAIN0
  6
BYBLOCK
 62
0
100
AcDbBlockReference
  2
_OPEN
 10
418.8412765545863
 20
156.5183769482009
 30
0.0000000000000000
 41
2.000000000000000
 42
2.000000000000000
 43
2.000000000000000
 50
180.0000000000000
  0
INSERT
  5
219
100
AcDbEntity
  8
MAIN0
  6
BYBLOCK
 62
0
100
AcDbBlockReference
  2
_OPEN
 10
448.8412765545863
 20
156.5183769482009
 30
0.0000000000000000
 41
2.000000000000000
 42
2.000000000000000
 43
2.000000000000000
 50
0.0000000000000000
  0
LINE
  5
21A
100
AcDbEntity
  8
MAIN0
  6
BYBLOCK
 62
0
100
AcDbLine
 10
448.8412765545863
 20
199.1849867087002
 30
0.0000000000000000
 11
448.8412765545863
 21
154.5183769482009
 31
0.0000000000000000
  0
MTEXT
  5
21B
100
AcDbEntity
  8
MAIN0
  6
BYBLOCK
 62
0
100
AcDbMText
 10
433.8412765545863
 20
158.5683769005172
 30
0.0000000000000000
 40
3.099999904632568
 41
0.0000000000000000
 71
     5
 72
     1
  1
\A1;30
 11
1.000000000000000
 21
0.0000000000000000
 31
0.0000000000000000
  7
STANDARD
  0
ENDBLK
  5
21C
100
AcDbEntity
  8
MAIN0
  6
CONTINUOUS
 62
3
100
AcDbBlockEnd
  0
BLOCK
  5
22E
100
AcDbEntity
  8
MAIN0
  6
CONTINUOUS
 62
3
100
AcDbBlockBegin
  2
*D25
 70
    65
 10
0.0
 20
0.0
 30
0.0
  0
LINE
  5
22F
100
AcDbEntity
  8
MAIN0
  6
BYBLOCK
 62
0
100
AcDbLine
 10
91.84127655448788
 20
137.8072471046128
 30
0.0000000000000000
 11
91.84127655448788
 21
130.0589477235403
 31
0.0000000000000000
  0
LINE
  5
230
100
AcDbEntity
  8
MAIN0
  6
BYBLOCK
 62
0
100
AcDbLine
 10
93.84127655448788
 20
132.0589477235403
 30
0.0000000000000000
 11
134.8412765544879
 21
132.0589477235403
 31
0.0000000000000000
  0
INSERT
  5
231
100
AcDbEntity
  8
MAIN0
  6
BYBLOCK
 62
0
100
AcDbBlockReference
  2
_OPEN
 10
91.84127655448788
 20
132.0589477235403
 30
0.0000000000000000
 41
2.000000000000000
 42
2.000000000000000
 43
2.000000000000000
 50
180.0000000000000
  0
INSERT
  5
232
100
AcDbEntity
  8
MAIN0
  6
BYBLOCK
 62
0
100
AcDbBlockReference
  2
_OPEN
 10
136.8412765544879
 20
132.0589477235403
 30
0.0000000000000000
 41
2.000000000000000
 42
2.000000000000000
 43
2.000000000000000
 50
0.0000000000000000
  0
LINE
  5
233
100
AcDbEntity
  8
MAIN0
  6
BYBLOCK
 62
0
100
AcDbLine
 10
136.8412765544879
 20
137.8072471046349
 30
0.0000000000000000
 11
136.8412765544879
 21
130.0589477235403
 31
0.0000000000000000
  0
MTEXT
  5
234
100
AcDbEntity
  8
MAIN0
  6
BYBLOCK
 62
0
100
AcDbMText
 10
114.3412765544879
 20
134.1089476758566
 30
0.0000000000000000
 40
3.099999904632568
 41
0.0000000000000000
 71
     5
 72
     1
  1
\A1;（45）
 11
1.000000000000000
 21
0.0000000000000000
 31
0.0000000000000000
  7
KNJYOKO
  0
ENDBLK
  5
235
100
AcDbEntity
  8
MAIN0
  6
CONTINUOUS
 62
3
100
AcDbBlockEnd
  0
BLOCK
  5
245
100
AcDbEntity
  8
MAIN0
  6
CONTINUOUS
 62
3
100
AcDbBlockBegin
  2
*D26
 70
    65
 10
0.0
 20
0.0
 30
0.0
  0
LINE
  5
246
100
AcDbEntity
  8
MAIN0
  6
BYBLOCK
 62
0
100
AcDbLine
 10
76.64127654266665
 20
378.1072471165232
 30
0.0000000000000000
 11
63.91545871942475
 21
378.1072471165232
 31
0.0000000000000000
  0
LINE
  5
247
100
AcDbEntity
  8
MAIN0
  6
BYBLOCK
 62
0
100
AcDbLine
 10
65.91545871942475
 20
376.1072471165232
 30
0.0000000000000000
 11
65.91545871942475
 21
177.1072471165233
 31
0.0000000000000000
  0
INSERT
  5
248
100
AcDbEntity
  8
MAIN0
  6
BYBLOCK
 62
0
100
AcDbBlockReference
  2
_OPEN
 10
65.91545871942475
 20
378.1072471165232
 30
0.0000000000000000
 41
2.000000000000000
 42
2.000000000000000
 43
2.000000000000000
 50
90.00000000000000
  0
INSERT
  5
249
100
AcDbEntity
  8
MAIN0
  6
BYBLOCK
 62
0
100
AcDbBlockReference
  2
_OPEN
 10
65.91545871942475
 20
175.1072471165233
 30
0.0000000000000000
 41
2.000000000000000
 42
2.000000000000000
 43
2.000000000000000
 50
270.0000000000000
  0
LINE
  5
24A
100
AcDbEntity
  8
MAIN0
  6
BYBLOCK
 62
0
100
AcDbLine
 10
76.64127654266551
 20
175.1072471165233
 30
0.0000000000000000
 11
63.91545871942475
 21
175.1072471165233
 31
0.0000000000000000
  0
MTEXT
  5
24B
100
AcDbEntity
  8
MAIN0
  6
BYBLOCK
 62
0
100
AcDbMText
 10
63.86545876710846
 20
276.6072470978969
 30
0.0000000000000000
 40
3.099999904632568
 41
0.0000000000000000
 71
     5
 72
     1
  1
\A1;\U+2205203h7\H0.903226x;\S　0^ －0.046;
 11
6.123233995736766e-017
 21
1.000000000000000
 31
0.0000000000000000
  7
KNJYOKO
  0
ENDBLK
  5
24C
100
AcDbEntity
  8
MAIN0
  6
CONTINUOUS
 62
3
100
AcDbBlockEnd
  0
BLOCK
  5
24E
100
AcDbEntity
  8
MAIN0
  6
CONTINUOUS
 62
3
100
AcDbBlockBegin
  2
*D27
 70
    65
 10
0.0
 20
0.0
 30
0.0
  0
LINE
  5
24F
100
AcDbEntity
  8
MAIN0
  6
BYBLOCK
 62
0
100
AcDbLine
 10
329.5412765426653
 20
276.6072471165230
 30
0.0000000000000000
 11
302.1662813074893
 21
276.6072471165230
 31
0.0000000000000000
  0
LINE
  5
250
100
AcDbEntity
  8
MAIN0
  6
BYBLOCK
 62
0
100
AcDbLine
 10
304.1662813074893
 20
274.6072471165230
 30
0.0000000000000000
 11
304.1662813074893
 21
140.6072471165228
 31
0.0000000000000000
  0
INSERT
  5
251
100
AcDbEntity
  8
MAIN0
  6
BYBLOCK
 62
0
100
AcDbBlockReference
  2
_OPEN
 10
304.1662813074893
 20
276.6072471165230
 30
0.0000000000000000
 41
2.000000000000000
 42
2.000000000000000
 43
2.000000000000000
 50
90.00000000000000
  0
INSERT
  5
252
100
AcDbEntity
  8
MAIN0
  6
BYBLOCK
 62
0
100
AcDbBlockReference
  2
_OPEN
 10
304.1662813074893
 20
138.6072471165228
 30
0.0000000000000000
 41
2.000000000000000
 42
2.000000000000000
 43
2.000000000000000
 50
270.0000000000000
  0
LINE
  5
253
100
AcDbEntity
  8
MAIN0
  6
BYBLOCK
 62
0
100
AcDbLine
 10
393.0412765426655
 20
138.6072471165228
 30
0.0000000000000000
 11
302.1662813074893
 21
138.6072471165228
 31
0.0000000000000000
  0
MTEXT
  5
254
100
AcDbEntity
  8
MAIN0
  6
BYBLOCK
 62
0
100
AcDbMText
 10
302.1162813551730
 20
207.6072471165229
 30
0.0000000000000000
 40
3.099999904632568
 41
0.0000000000000000
 71
     5
 72
     1
  1
\A1;（138）
 11
6.123233995736766e-017
 21
1.000000000000000
 31
0.0000000000000000
  7
KNJYOKO
  0
ENDBLK
  5
255
100
AcDbEntity
  8
MAIN0
  6
CONTINUOUS
 62
3
100
AcDbBlockEnd
  0
BLOCK
  5
257
100
AcDbEntity
  8
MAIN0
  6
CONTINUOUS
 62
3
100
AcDbBlockBegin
  2
*D28
 70
    65
 10
0.0
 20
0.0
 30
0.0
  0
LINE
  5
258
100
AcDbEntity
  8
MAIN0
  6
BYBLOCK
 62
0
100
AcDbLine
 10
329.5412765426653
 20
276.6072471165230
 30
0.0000000000000000
 11
311.6579916930502
 21
276.6072471165230
 31
0.0000000000000000
  0
LINE
  5
259
100
AcDbEntity
  8
MAIN0
  6
BYBLOCK
 62
0
100
AcDbLine
 10
313.6579916930502
 20
274.6072471165230
 30
0.0000000000000000
 11
313.6579916930502
 21
175.6072471165228
 31
0.0000000000000000
  0
INSERT
  5
25A
100
AcDbEntity
  8
MAIN0
  6
BYBLOCK
 62
0
100
AcDbBlockReference
  2
_OPEN
 10
313.6579916930502
 20
276.6072471165230
 30
0.0000000000000000
 41
2.000000000000000
 42
2.000000000000000
 43
2.000000000000000
 50
90.00000000000000
  0
INSERT
  5
25B
100
AcDbEntity
  8
MAIN0
  6
BYBLOCK
 62
0
100
AcDbBlockReference
  2
_OPEN
 10
313.6579916930502
 20
173.6072471165228
 30
0.0000000000000000
 41
2.000000000000000
 42
2.000000000000000
 43
2.000000000000000
 50
270.0000000000000
  0
LINE
  5
25C
100
AcDbEntity
  8
MAIN0
  6
BYBLOCK
 62
0
100
AcDbLine
 10
393.0412765426969
 20
173.6072471165228
 30
0.0000000000000000
 11
311.6579916930502
 21
173.6072471165228
 31
0.0000000000000000
  0
MTEXT
  5
25D
100
AcDbEntity
  8
MAIN0
  6
BYBLOCK
 62
0
100
AcDbMText
 10
311.6079917407340
 20
225.1072471165229
 30
0.0000000000000000
 40
3.099999904632568
 41
0.0000000000000000
 71
     5
 72
     1
  1
\A1;（103）
 11
6.123233995736766e-017
 21
1.000000000000000
 31
0.0000000000000000
  7
KNJYOKO
  0
ENDBLK
  5
25E
100
AcDbEntity
  8
MAIN0
  6
CONTINUOUS
 62
3
100
AcDbBlockEnd
  0
BLOCK
  5
278
100
AcDbEntity
  8
MAIN0
  6
CONTINUOUS
 62
3
100
AcDbBlockBegin
  2
*D29
 70
    65
 10
0.0
 20
0.0
 30
0.0
  0
LINE
  5
279
100
AcDbEntity
  8
MAIN0
  6
BYBLOCK
 62
0
100
AcDbLine
 10
76.04127654266691
 20
324.1072471165233
 30
0.0000000000000000
 11
69.81946476992778
 21
324.1072471165233
 31
0.0000000000000000
  0
LINE
  5
27A
100
AcDbEntity
  8
MAIN0
  6
BYBLOCK
 62
0
100
AcDbLine
 10
71.81946476992778
 20
322.1072471165233
 30
0.0000000000000000
 11
71.81946476992778
 21
231.1072471165233
 31
0.0000000000000000
  0
INSERT
  5
27B
100
AcDbEntity
  8
MAIN0
  6
BYBLOCK
 62
0
100
AcDbBlockReference
  2
_OPEN
 10
71.81946476992778
 20
324.1072471165233
 30
0.0000000000000000
 41
2.000000000000000
 42
2.000000000000000
 43
2.000000000000000
 50
90.00000000000000
  0
INSERT
  5
27C
100
AcDbEntity
  8
MAIN0
  6
BYBLOCK
 62
0
100
AcDbBlockReference
  2
_OPEN
 10
71.81946476992778
 20
229.1072471165233
 30
0.0000000000000000
 41
2.000000000000000
 42
2.000000000000000
 43
2.000000000000000
 50
270.0000000000000
  0
LINE
  5
27D
100
AcDbEntity
  8
MAIN0
  6
BYBLOCK
 62
0
100
AcDbLine
 10
76.04127654266569
 20
229.1072471165233
 30
0.0000000000000000
 11
69.81946476992778
 21
229.1072471165233
 31
0.0000000000000000
  0
MTEXT
  5
27E
100
AcDbEntity
  8
MAIN0
  6
BYBLOCK
 62
0
100
AcDbMText
 10
69.76946481761149
 20
276.6072471165233
 30
0.0000000000000000
 40
3.099999904632568
 41
0.0000000000000000
 71
     5
 72
     1
  1
\A1;\U+220595
 11
6.123233995736766e-017
 21
1.000000000000000
 31
0.0000000000000000
  7
STANDARD
  0
ENDBLK
  5
27F
100
AcDbEntity
  8
MAIN0
  6
CONTINUOUS
 62
3
100
AcDbBlockEnd
  0
BLOCK
  5
281
100
AcDbEntity
  8
MAIN0
  6
CONTINUOUS
 62
3
100
AcDbBlockBegin
  2
*D30
 70
    65
 10
0.0
 20
0.0
 30
0.0
  0
LINE
  5
282
100
AcDbEntity
  8
MAIN0
  6
BYBLOCK
 62
0
100
AcDbLine
 10
76.04127654266586
 20
225.6429046223526
 30
0.0000000000000000
 11
69.81946476992778
 21
225.6429046223526
 31
0.0000000000000000
  0
LINE
  5
283
100
AcDbEntity
  8
MAIN0
  6
BYBLOCK
 62
0
100
AcDbLine
 10
71.81946476992778
 20
223.6429046223526
 30
0.0000000000000000
 11
71.81946476992778
 21
213.6429046223525
 31
0.0000000000000000
  0
INSERT
  5
284
100
AcDbEntity
  8
MAIN0
  6
BYBLOCK
 62
0
100
AcDbBlockReference
  2
_OPEN
 10
71.81946476992778
 20
225.6429046223526
 30
0.0000000000000000
 41
2.000000000000000
 42
2.000000000000000
 43
2.000000000000000
 50
90.00000000000000
  0
INSERT
  5
285
100
AcDbEntity
  8
MAIN0
  6
BYBLOCK
 62
0
100
AcDbBlockReference
  2
_OPEN
 10
71.81946476992778
 20
211.6429046223525
 30
0.0000000000000000
 41
2.000000000000000
 42
2.000000000000000
 43
2.000000000000000
 50
270.0000000000000
  0
LINE
  5
286
100
AcDbEntity
  8
MAIN0
  6
BYBLOCK
 62
0
100
AcDbLine
 10
76.04127654266569
 20
211.6429046223525
 30
0.0000000000000000
 11
69.81946476992778
 21
211.6429046223525
 31
0.0000000000000000
  0
MTEXT
  5
287
100
AcDbEntity
  8
MAIN0
  6
BYBLOCK
 62
0
100
AcDbMText
 10
69.76946481761149
 20
218.6429046223525
 30
0.0000000000000000
 40
3.099999904632568
 41
0.0000000000000000
 71
     5
 72
     1
  1
\A1;\U+220514
 11
6.123233995736766e-017
 21
1.000000000000000
 31
0.0000000000000000
  7
STANDARD
  0
ENDBLK
  5
288
100
AcDbEntity
  8
MAIN0
  6
CONTINUOUS
 62
3
100
AcDbBlockEnd
  0
BLOCK
  5
28A
100
AcDbEntity
  8
MAIN0
  6
CONTINUOUS
 62
3
100
AcDbBlockBegin
  2
*D31
 70
    65
 10
0.0
 20
0.0
 30
0.0
  0
LINE
  5
28B
100
AcDbEntity
  8
MAIN0
  6
BYBLOCK
 62
0
100
AcDbLine
 10
433.8412765545862
 20
276.6072471165229
 30
0.0000000000000000
 11
404.3148405078556
 21
226.6854124709660
 31
0.0000000000000000
  0
INSERT
  5
28C
100
AcDbEntity
  8
MAIN0
  6
BYBLOCK
 62
0
100
AcDbBlockReference
  2
_OPEN
 10
403.2966875407269
 20
224.9639698969813
 30
0.0000000000000000
 41
2.000000000000000
 42
2.000000000000000
 43
2.000000000000000
 50
239.3976656630211
  0
MTEXT
  5
28D
100
AcDbEntity
  8
MAIN0
  6
BYBLOCK
 62
0
100
AcDbMText
 10
405.8358674583689
 20
233.2839891783259
 30
0.0000000000000000
 40
3.099999904632568
 41
0.0000000000000000
 71
     5
 72
     1
  1
\A1;Ｒ60
 11
0.5090764835643219
 21
0.8607212869923601
 31
0.0000000000000000
  7
KNJYOKO
  0
ENDBLK
  5
28E
100
AcDbEntity
  8
MAIN0
  6
CONTINUOUS
 62
3
100
AcDbBlockEnd
  0
BLOCK
  5
290
100
AcDbEntity
  8
MAIN0
  6
CONTINUOUS
 62
3
100
AcDbBlockBegin
  2
*D32
 70
    65
 10
0.0
 20
0.0
 30
0.0
  0
LINE
  5
291
100
AcDbEntity
  8
MAIN0
  6
BYBLOCK
 62
0
100
AcDbLine
 10
517.8834416709333
 20
243.0339767581461
 30
0.0000000000000000
 11
349.7991114382393
 21
310.1805174748997
 31
0.0000000000000000
  0
INSERT
  5
292
100
AcDbEntity
  8
MAIN0
  6
BYBLOCK
 62
0
100
AcDbBlockReference
  2
_OPEN
 10
519.7407270878691
 20
242.2920260319941
 30
0.0000000000000000
 41
2.000000000000000
 42
2.000000000000000
 43
2.000000000000000
 50
338.2242169732323
  0
INSERT
  5
293
100
AcDbEntity
  8
MAIN0
  6
BYBLOCK
 62
0
100
AcDbBlockReference
  2
_OPEN
 10
347.9418260213034
 20
310.9224682010517
 30
0.0000000000000000
 41
2.000000000000000
 42
2.000000000000000
 43
2.000000000000000
 50
158.2242169732323
  0
MTEXT
  5
294
100
AcDbEntity
  8
MAIN0
  6
BYBLOCK
 62
0
100
AcDbMText
 10
494.9335686182037
 20
254.4095438565286
 30
0.0000000000000000
 40
3.099999904632568
 41
0.0000000000000000
 71
     5
 72
     1
  1
\A1;\U+2205185\H0.903226x;\U+00B10.2
 11
0.9286427084679227
 21
-0.3709753630759873
 31
0.0000000000000000
  7
STANDARD
  0
ENDBLK
  5
295
100
AcDbEntity
  8
MAIN0
  6
CONTINUOUS
 62
3
100
AcDbBlockEnd
  0
BLOCK
  5
297
100
AcDbEntity
  8
MAIN0
  6
CONTINUOUS
 62
3
100
AcDbBlockBegin
  2
*D33
 70
    65
 10
0.0
 20
0.0
 30
0.0
  0
LINE
  5
298
100
AcDbEntity
  8
MAIN0
  6
BYBLOCK
 62
0
100
AcDbLine
 10
433.8412765545861
 20
169.5693357634309
 30
0.0000000000000000
 11
433.8412765545861
 21
160.6625695209855
 31
0.0000000000000000
  0
LINE
  5
299
100
AcDbEntity
  8
MAIN0
  6
BYBLOCK
 62
0
100
AcDbLine
 10
485.6788145284681
 20
186.8219976064776
 30
0.0000000000000000
 11
491.8136153523545
 21
176.1962108851909
 31
0.0000000000000000
  0
ARC
  5
29A
100
AcDbEntity
  8
MAIN0
  6
BYBLOCK
 62
0
100
AcDbCircle
 10
433.8412765545862
 20
276.6072471165229
 30
0.0000000000000000
 40
113.9446775955373
100
AcDbArc
 50
271.0056771535474
 51
298.9943228464523
  0
INSERT
  5
29B
100
AcDbEntity
  8
MAIN0
  6
BYBLOCK
 62
0
100
AcDbBlockReference
  2
_OPEN
 10
433.8412765545861
 20
162.6625695209856
 30
0.0000000000000000
 41
2.000000000000000
 42
2.000000000000000
 43
2.000000000000000
 50
180.0000000000000
  0
INSERT
  5
29C
100
AcDbEntity
  8
MAIN0
  6
BYBLOCK
 62
0
100
AcDbBlockReference
  2
_OPEN
 10
490.8136153523545
 20
177.9282616927598
 30
0.0000000000000000
 41
2.000000000000000
 42
2.000000000000000
 43
2.000000000000000
 50
29.99999999999972
  0
MTEXT
  5
29D
100
AcDbEntity
  8
MAIN0
  6
BYBLOCK
 62
0
100
AcDbMText
 10
462.8017501742588
 20
168.5252881566456
 30
0.0000000000000000
 40
3.099999904632568
 41
0.0000000000000000
 71
     5
 72
     1
  1
\A1;30\U+00B0
 11
0.9659258262890689
 21
0.2588190451025187
 31
0.0000000000000000
  7
STANDARD
  0
ENDBLK
  5
29E
100
AcDbEntity
  8
MAIN0
  6
CONTINUOUS
 62
3
100
AcDbBlockEnd
  0
BLOCK
  5
2A0
100
AcDbEntity
  8
MAIN0
  6
CONTINUOUS
 62
3
100
AcDbBlockBegin
  2
*D34
 70
    65
 10
0.0
 20
0.0
 30
0.0
  0
LINE
  5
2A1
100
AcDbEntity
  8
MAIN0
  6
BYBLOCK
 62
0
100
AcDbLine
 10
485.6788145284681
 20
186.8219976064776
 30
0.0000000000000000
 11
491.8136153523545
 21
176.1962108851909
 31
0.0000000000000000
  0
LINE
  5
2A2
100
AcDbEntity
  8
MAIN0
  6
BYBLOCK
 62
0
100
AcDbLine
 10
506.8496707198357
 20
203.5988529512169
 30
0.0000000000000000
 11
515.8265443248470
 21
194.6219793461988
 31
0.0000000000000000
  0
ARC
  5
2A3
100
AcDbEntity
  8
MAIN0
  6
BYBLOCK
 62
0
100
AcDbCircle
 10
433.8412765545862
 20
276.6072471165229
 30
0.0000000000000000
 40
113.9446775955373
100
AcDbArc
 50
301.0056771535473
 51
313.9943228464304
  0
INSERT
  5
2A4
100
AcDbEntity
  8
MAIN0
  6
BYBLOCK
 62
0
100
AcDbBlockReference
  2
_OPEN
 10
490.8136153523544
 20
177.9282616927598
 30
0.0000000000000000
 41
2.000000000000000
 42
2.000000000000000
 43
2.000000000000000
 50
209.9999999999998
  0
INSERT
  5
2A5
100
AcDbEntity
  8
MAIN0
  6
BYBLOCK
 62
0
100
AcDbBlockReference
  2
_OPEN
 10
514.4123307624744
 20
196.0361929085725
 30
0.0000000000000000
 41
2.000000000000000
 42
2.000000000000000
 43
2.000000000000000
 50
44.99999999997783
  0
MTEXT
  5
2A6
100
AcDbEntity
  8
MAIN0
  6
BYBLOCK
 62
0
100
AcDbMText
 10
501.9584404151263
 20
187.8352308474492
 30
0.0000000000000000
 40
3.099999904632568
 41
0.0000000000000000
 71
     5
 72
     1
  1
\A1;15\U+00B0
 11
0.7933533402913541
 21
0.6087614290085657
 31
0.0000000000000000
  7
STANDARD
  0
ENDBLK
  5
2A7
100
AcDbEntity
  8
MAIN0
  6
CONTINUOUS
 62
3
100
AcDbBlockEnd
  0
BLOCK
  5
2A9
100
AcDbEntity
  8
MAIN0
  6
CONTINUOUS
 62
3
100
AcDbBlockBegin
  2
*D35
 70
    65
 10
0.0
 20
0.0
 30
0.0
  0
LINE
  5
2AA
100
AcDbEntity
  8
MAIN0
  6
BYBLOCK
 62
0
100
AcDbLine
 10
506.8496707198357
 20
203.5988529512169
 30
0.0000000000000000
 11
515.8265443248470
 21
194.6219793461988
 31
0.0000000000000000
  0
LINE
  5
2AB
100
AcDbEntity
  8
MAIN0
  6
BYBLOCK
 62
0
100
AcDbLine
 10
524.1677261796272
 20
224.4572471105624
 30
0.0000000000000000
 11
534.2523127859181
 21
218.6349083187543
 31
0.0000000000000000
  0
ARC
  5
2AC
100
AcDbEntity
  8
MAIN0
  6
BYBLOCK
 62
0
100
AcDbCircle
 10
433.8412765545862
 20
276.6072471165229
 30
0.0000000000000000
 40
113.9446775955373
100
AcDbArc
 50
316.0056771535254
 51
328.9943228464526
  0
INSERT
  5
2AD
100
AcDbEntity
  8
MAIN0
  6
BYBLOCK
 62
0
100
AcDbBlockReference
  2
_OPEN
 10
514.4123307624744
 20
196.0361929085725
 30
0.0000000000000000
 41
2.000000000000000
 42
2.000000000000000
 43
2.000000000000000
 50
224.9999999999778
  0
INSERT
  5
2AE
100
AcDbEntity
  8
MAIN0
  6
BYBLOCK
 62
0
100
AcDbBlockReference
  2
_OPEN
 10
532.5202619783491
 20
219.6349083187544
 30
0.0000000000000000
 41
2.000000000000000
 42
2.000000000000000
 43
2.000000000000000
 50
60.00000000000011
  0
MTEXT
  5
2AF
100
AcDbEntity
  8
MAIN0
  6
BYBLOCK
 62
0
100
AcDbMText
 10
522.6132928236336
 20
208.4900832559484
 30
0.0000000000000000
 40
3.099999904632568
 41
0.0000000000000000
 71
     5
 72
     1
  1
\A1;15\U+00B0
 11
0.6087614290088730
 21
0.7933533402911183
 31
0.0000000000000000
  7
STANDARD
  0
ENDBLK
  5
2B0
100
AcDbEntity
  8
MAIN0
  6
CONTINUOUS
 62
3
100
AcDbBlockEnd
  0
BLOCK
  5
2B2
100
AcDbEntity
  8
MAIN0
  6
CONTINUOUS
 62
3
100
AcDbBlockBegin
  2
*D36
 70
    65
 10
0.0
 20
0.0
 30
0.0
  0
LINE
  5
2B3
100
AcDbEntity
  8
MAIN0
  6
BYBLOCK
 62
0
100
AcDbLine
 10
524.1677261796272
 20
224.4572471105624
 30
0.0000000000000000
 11
534.2523127859181
 21
218.6349083187543
 31
0.0000000000000000
  0
LINE
  5
2B4
100
AcDbEntity
  8
MAIN0
  6
BYBLOCK
 62
0
100
AcDbLine
 10
538.1412765665073
 20
276.6072471165229
 30
0.0000000000000000
 11
549.7859541501235
 21
276.6072471165228
 31
0.0000000000000000
  0
ARC
  5
2B5
100
AcDbEntity
  8
MAIN0
  6
BYBLOCK
 62
0
100
AcDbCircle
 10
433.8412765545862
 20
276.6072471165229
 30
0.0000000000000000
 40
113.9446775955373
100
AcDbArc
 50
331.0056771535476
 51
358.9943228464525
  0
INSERT
  5
2B6
100
AcDbEntity
  8
MAIN0
  6
BYBLOCK
 62
0
100
AcDbBlockReference
  2
_OPEN
 10
532.5202619783491
 20
219.6349083187544
 30
0.0000000000000000
 41
2.000000000000000
 42
2.000000000000000
 43
2.000000000000000
 50
240.0000000000001
  0
INSERT
  5
2B7
100
AcDbEntity
  8
MAIN0
  6
BYBLOCK
 62
0
100
AcDbBlockReference
  2
_OPEN
 10
547.7859541501235
 20
276.6072471165229
 30
0.0000000000000000
 41
2.000000000000000
 42
2.000000000000000
 43
2.000000000000000
 50
90.00000000000000
  0
MTEXT
  5
2B8
100
AcDbEntity
  8
MAIN0
  6
BYBLOCK
 62
0
100
AcDbMText
 10
541.9232355144634
 20
247.6467734968501
 30
0.0000000000000000
 40
3.099999904632568
 41
0.0000000000000000
 71
     5
 72
     1
  1
\A1;30\U+00B0
 11
0.2588190451025205
 21
0.9659258262890683
 31
0.0000000000000000
  7
STANDARD
  0
ENDBLK
  5
2B9
100
AcDbEntity
  8
MAIN0
  6
CONTINUOUS
 62
3
100
AcDbBlockEnd
  0
BLOCK
  5
2BB
100
AcDbEntity
  8
MAIN0
  6
CONTINUOUS
 62
3
100
AcDbBlockBegin
  2
*D37
 70
    65
 10
0.0
 20
0.0
 30
0.0
  0
LINE
  5
2BC
100
AcDbEntity
  8
MAIN0
  6
BYBLOCK
 62
0
100
AcDbLine
 10
538.1412765665073
 20
276.6072471165229
 30
0.0000000000000000
 11
549.7859541501235
 21
276.6072471165228
 31
0.0000000000000000
  0
LINE
  5
2BD
100
AcDbEntity
  8
MAIN0
  6
BYBLOCK
 62
0
100
AcDbLine
 10
524.1677261796272
 20
328.7572471224834
 30
0.0000000000000000
 11
534.2523127859180
 21
334.5795859142916
 31
0.0000000000000000
  0
ARC
  5
2BE
100
AcDbEntity
  8
MAIN0
  6
BYBLOCK
 62
0
100
AcDbCircle
 10
433.8412765545862
 20
276.6072471165229
 30
0.0000000000000000
 40
113.9446775955373
100
AcDbArc
 50
1.005677153547474
 51
28.99432284645252
  0
INSERT
  5
2BF
100
AcDbEntity
  8
MAIN0
  6
BYBLOCK
 62
0
100
AcDbBlockReference
  2
_OPEN
 10
547.7859541501235
 20
276.6072471165229
 30
0.0000000000000000
 41
2.000000000000000
 42
2.000000000000000
 43
2.000000000000000
 50
270.0000000000000
  0
INSERT
  5
2C0
100
AcDbEntity
  8
MAIN0
  6
BYBLOCK
 62
0
100
AcDbBlockReference
  2
_OPEN
 10
532.5202619783491
 20
333.5795859142916
 30
0.0000000000000000
 41
2.000000000000000
 42
2.000000000000000
 43
2.000000000000000
 50
120.0000000000000
  0
MTEXT
  5
2C1
100
AcDbEntity
  8
MAIN0
  6
BYBLOCK
 62
0
100
AcDbMText
 10
541.9232355144634
 20
305.5677207361957
 30
0.0000000000000000
 40
3.099999904632568
 41
0.0000000000000000
 71
     5
 72
     1
  1
\A1;30\U+00B0
 11
-0.2588190451025206
 21
0.9659258262890683
 31
0.0000000000000000
  7
STANDARD
  0
ENDBLK
  5
2C2
100
AcDbEntity
  8
MAIN0
  6
CONTINUOUS
 62
3
100
AcDbBlockEnd
  0
BLOCK
  5
2C4
100
AcDbEntity
  8
MAIN0
  6
CONTINUOUS
 62
3
100
AcDbBlockBegin
  2
*D38
 70
    65
 10
0.0
 20
0.0
 30
0.0
  0
LINE
  5
2C5
100
AcDbEntity
  8
MAIN0
  6
BYBLOCK
 62
0
100
AcDbLine
 10
524.1677261796272
 20
328.7572471224834
 30
0.0000000000000000
 11
534.2523127859180
 21
334.5795859142916
 31
0.0000000000000000
  0
LINE
  5
2C6
100
AcDbEntity
  8
MAIN0
  6
BYBLOCK
 62
0
100
AcDbLine
 10
505.5509551174572
 20
348.3169256793384
 30
0.0000000000000000
 11
515.8265443249104
 21
358.5925148867837
 31
0.0000000000000000
  0
ARC
  5
2C7
100
AcDbEntity
  8
MAIN0
  6
BYBLOCK
 62
0
100
AcDbCircle
 10
433.8412765545862
 20
276.6072471165229
 30
0.0000000000000000
 40
113.9446775955373
100
AcDbArc
 50
31.00567715354746
 51
43.99432284643036
  0
INSERT
  5
2C8
100
AcDbEntity
  8
MAIN0
  6
BYBLOCK
 62
0
100
AcDbBlockReference
  2
_OPEN
 10
532.5202619783491
 20
333.5795859142916
 30
0.0000000000000000
 41
2.000000000000000
 42
2.000000000000000
 43
2.000000000000000
 50
300.0000000000000
  0
INSERT
  5
2C9
100
AcDbEntity
  8
MAIN0
  6
BYBLOCK
 62
0
100
AcDbBlockReference
  2
_OPEN
 10
514.4123307625367
 20
357.1783013244111
 30
0.0000000000000000
 41
2.000000000000000
 42
2.000000000000000
 43
2.000000000000000
 50
134.9999999999778
  0
MTEXT
  5
2CA
100
AcDbEntity
  8
MAIN0
  6
BYBLOCK
 62
0
100
AcDbMText
 10
525.8660414431943
 20
347.2203327779422
 30
0.0000000000000000
 40
3.099999904632568
 41
0.0000000000000000
 71
     5
 72
     1
  1
\A1;15\U+00B0
 11
0.6087614290085670
 21
-0.7933533402913531
 31
0.0000000000000000
  7
STANDARD
  0
ENDBLK
  5
2CB
100
AcDbEntity
  8
MAIN0
  6
CONTINUOUS
 62
3
100
AcDbBlockEnd
  0
BLOCK
  5
2CD
100
AcDbEntity
  8
MAIN0
  6
CONTINUOUS
 62
3
100
AcDbBlockBegin
  2
*D39
 70
    65
 10
0.0
 20
0.0
 30
0.0
  0
LINE
  5
2CE
100
AcDbEntity
  8
MAIN0
  6
BYBLOCK
 62
0
100
AcDbLine
 10
505.5509551174572
 20
348.3169256793384
 30
0.0000000000000000
 11
515.8265443249104
 21
358.5925148867837
 31
0.0000000000000000
  0
LINE
  5
2CF
100
AcDbEntity
  8
MAIN0
  6
BYBLOCK
 62
0
100
AcDbLine
 10
484.2043230926452
 20
363.8386025443961
 30
0.0000000000000000
 11
491.8136153523552
 21
377.0182833478544
 31
0.0000000000000000
  0
ARC
  5
2D0
100
AcDbEntity
  8
MAIN0
  6
BYBLOCK
 62
0
100
AcDbCircle
 10
433.8412765545862
 20
276.6072471165229
 30
0.0000000000000000
 40
113.9446775955373
100
AcDbArc
 50
46.00567715352531
 51
58.99432284645232
  0
INSERT
  5
2D1
100
AcDbEntity
  8
MAIN0
  6
BYBLOCK
 62
0
100
AcDbBlockReference
  2
_OPEN
 10
514.4123307625367
 20
357.1783013244111
 30
0.0000000000000000
 41
2.000000000000000
 42
2.000000000000000
 43
2.000000000000000
 50
314.9999999999778
  0
INSERT
  5
2D2
100
AcDbEntity
  8
MAIN0
  6
BYBLOCK
 62
0
100
AcDbBlockReference
  2
_OPEN
 10
490.8136153523552
 20
375.2862325402856
 30
0.0000000000000000
 41
2.000000000000000
 42
2.000000000000000
 43
2.000000000000000
 50
149.9999999999998
  0
MTEXT
  5
2D3
100
AcDbEntity
  8
MAIN0
  6
BYBLOCK
 62
0
100
AcDbMText
 10
504.4543622160413
 20
368.6320120051034
 30
0.0000000000000000
 40
3.099999904632568
 41
0.0000000000000000
 71
     5
 72
     1
  1
\A1;15\U+00B0
 11
0.7933533402911160
 21
-0.6087614290088760
 31
0.0000000000000000
  7
STANDARD
  0
ENDBLK
  5
2D4
100
AcDbEntity
  8
MAIN0
  6
CONTINUOUS
 62
3
100
AcDbBlockEnd
  0
BLOCK
  5
2D6
100
AcDbEntity
  8
MAIN0
  6
CONTINUOUS
 62
3
100
AcDbBlockBegin
  2
*D40
 70
    65
 10
0.0
 20
0.0
 30
0.0
  0
LINE
  5
2D7
100
AcDbEntity
  8
MAIN0
  6
BYBLOCK
 62
0
100
AcDbLine
 10
484.2043230926452
 20
363.8386025443961
 30
0.0000000000000000
 11
491.8136153523552
 21
377.0182833478544
 31
0.0000000000000000
  0
LINE
  5
2D8
100
AcDbEntity
  8
MAIN0
  6
BYBLOCK
 62
0
100
AcDbLine
 10
433.8412765545863
 20
380.9072471284438
 30
0.0000000000000000
 11
433.8412765545863
 21
392.5519247120602
 31
0.0000000000000000
  0
ARC
  5
2D9
100
AcDbEntity
  8
MAIN0
  6
BYBLOCK
 62
0
100
AcDbCircle
 10
433.8412765545862
 20
276.6072471165229
 30
0.0000000000000000
 40
113.9446775955373
100
AcDbArc
 50
61.00567715354728
 51
88.99432284645251
  0
INSERT
  5
2DA
100
AcDbEntity
  8
MAIN0
  6
BYBLOCK
 62
0
100
AcDbBlockReference
  2
_OPEN
 10
490.8136153523552
 20
375.2862325402856
 30
0.0000000000000000
 41
2.000000000000000
 42
2.000000000000000
 43
2.000000000000000
 50
329.9999999999998
  0
INSERT
  5
2DB
100
AcDbEntity
  8
MAIN0
  6
BYBLOCK
 62
0
100
AcDbBlockReference
  2
_OPEN
 10
433.8412765545863
 20
390.5519247120602
 30
0.0000000000000000
 41
2.000000000000000
 42
2.000000000000000
 43
2.000000000000000
 50
180.0000000000000
  0
MTEXT
  5
2DC
100
AcDbEntity
  8
MAIN0
  6
BYBLOCK
 62
0
100
AcDbMText
 10
463.8629082344967
 20
388.6495018720673
 30
0.0000000000000000
 40
3.099999904632568
 41
0.0000000000000000
 71
     5
 72
     1
  1
\A1;30\U+00B0
 11
0.9659258262890679
 21
-0.2588190451025224
 31
0.0000000000000000
  7
STANDARD
  0
ENDBLK
  5
2DD
100
AcDbEntity
  8
MAIN0
  6
CONTINUOUS
 62
3
100
AcDbBlockEnd
  0
BLOCK
  5
2E1
100
AcDbEntity
  8
MAIN0
  6
CONTINUOUS
 62
3
100
AcDbBlockBegin
  2
*D41
 70
    65
 10
0.0
 20
0.0
 30
0.0
  0
LINE
  5
2E2
100
AcDbEntity
  8
MAIN0
  6
BYBLOCK
 62
0
100
AcDbLine
 10
157.8869394160319
 20
283.6072471165198
 30
0.0000000000000000
 11
157.8869394160319
 21
269.6072471165198
 31
0.0000000000000000
  0
INSERT
  5
2E3
100
AcDbEntity
  8
MAIN0
  6
BYBLOCK
 62
0
100
AcDbBlockReference
  2
_OPEN
 10
157.8869394160319
 20
285.6072471165198
 30
0.0000000000000000
 41
2.000000000000000
 42
2.000000000000000
 43
2.000000000000000
 50
90.00000000000000
  0
INSERT
  5
2E4
100
AcDbEntity
  8
MAIN0
  6
BYBLOCK
 62
0
100
AcDbBlockReference
  2
_OPEN
 10
157.8869394160319
 20
267.6072471165198
 30
0.0000000000000000
 41
2.000000000000000
 42
2.000000000000000
 43
2.000000000000000
 50
270.0000000000000
  0
MTEXT
  5
2E5
100
AcDbEntity
  8
MAIN0
  6
BYBLOCK
 62
0
100
AcDbMText
 10
155.8369394637156
 20
276.6072471165198
 30
0.0000000000000000
 40
3.099999904632568
 41
0.0000000000000000
 71
     5
 72
     1
  1
\A1;\U+220518
 11
6.123233995736766e-017
 21
1.000000000000000
 31
0.0000000000000000
  7
STANDARD
  0
ENDBLK
  5
2E6
100
AcDbEntity
  8
MAIN0
  6
CONTINUOUS
 62
3
100
AcDbBlockEnd
  0
BLOCK
  5
2E8
100
AcDbEntity
  8
MAIN0
  6
CONTINUOUS
 62
3
100
AcDbBlockBegin
  2
*D42
 70
    65
 10
0.0
 20
0.0
 30
0.0
  0
LINE
  5
2E9
100
AcDbEntity
  8
MAIN0
  6
BYBLOCK
 62
0
100
AcDbLine
 10
109.5164459615674
 20
281.1072471165227
 30
0.0000000000000000
 11
109.5164459615674
 21
272.1072471165227
 31
0.0000000000000000
  0
INSERT
  5
2EA
100
AcDbEntity
  8
MAIN0
  6
BYBLOCK
 62
0
100
AcDbBlockReference
  2
_OPEN
 10
109.5164459615674
 20
283.1072471165227
 30
0.0000000000000000
 41
2.000000000000000
 42
2.000000000000000
 43
2.000000000000000
 50
90.00000000000000
  0
INSERT
  5
2EB
100
AcDbEntity
  8
MAIN0
  6
BYBLOCK
 62
0
100
AcDbBlockReference
  2
_OPEN
 10
109.5164459615674
 20
270.1072471165227
 30
0.0000000000000000
 41
2.000000000000000
 42
2.000000000000000
 43
2.000000000000000
 50
270.0000000000000
  0
MTEXT
  5
2EC
100
AcDbEntity
  8
MAIN0
  6
BYBLOCK
 62
0
100
AcDbMText
 10
107.4664460092511
 20
276.6072471165227
 30
0.0000000000000000
 40
3.099999904632568
 41
0.0000000000000000
 71
     5
 72
     1
  1
\A1;\U+220513
 11
6.123233995736766e-017
 21
1.000000000000000
 31
0.0000000000000000
  7
STANDARD
  0
ENDBLK
  5
2ED
100
AcDbEntity
  8
MAIN0
  6
CONTINUOUS
 62
3
100
AcDbBlockEnd
  0
BLOCK
  5
2EF
100
AcDbEntity
  8
MAIN0
  6
CONTINUOUS
 62
3
100
AcDbBlockBegin
  2
*D43
 70
    65
 10
0.0
 20
0.0
 30
0.0
  0
LINE
  5
2F0
100
AcDbEntity
  8
MAIN0
  6
BYBLOCK
 62
0
100
AcDbLine
 10
76.84127655458752
 20
303.2681892139389
 30
0.0000000000000000
 11
77.34127655458707
 21
303.2681892139389
 31
0.0000000000000000
  0
INSERT
  5
2F1
100
AcDbEntity
  8
MAIN0
  6
BYBLOCK
 62
0
100
AcDbBlockReference
  2
_OPEN
 10
76.84127655458752
 20
303.2681892139389
 30
0.0000000000000000
 41
2.000000000000000
 42
2.000000000000000
 43
2.000000000000000
 50
0.0000000000000000
  0
INSERT
  5
2F2
100
AcDbEntity
  8
MAIN0
  6
BYBLOCK
 62
0
100
AcDbBlockReference
  2
_OPEN
 10
77.34127655458707
 20
303.2681892139389
 30
0.0000000000000000
 41
2.000000000000000
 42
2.000000000000000
 43
2.000000000000000
 50
180.0000000000000
  0
LINE
  5
2F3
100
AcDbEntity
  8
MAIN0
  6
BYBLOCK
 62
0
100
AcDbLine
 10
74.84127655458752
 20
303.2681892139389
 30
0.0000000000000000
 11
73.84127655458752
 21
303.2681892139389
 31
0.0000000000000000
  0
LINE
  5
2F4
100
AcDbEntity
  8
MAIN0
  6
BYBLOCK
 62
0
100
AcDbLine
 10
79.34127655458707
 20
303.2681892139389
 30
0.0000000000000000
 11
86.07873478365201
 21
303.2681892139389
 31
0.0000000000000000
  0
MTEXT
  5
2F5
100
AcDbEntity
  8
MAIN0
  6
BYBLOCK
 62
0
100
AcDbMText
 10
83.42873461860046
 20
305.3181891662551
 30
0.0000000000000000
 40
3.099999904632568
 41
0.0000000000000000
 71
     5
 72
     1
  1
\A1;0.5
 11
1.000000000000000
 21
0.0000000000000000
 31
0.0000000000000000
  7
STANDARD
  0
ENDBLK
  5
2F6
100
AcDbEntity
  8
MAIN0
  6
CONTINUOUS
 62
3
100
AcDbBlockEnd
  0
BLOCK
  5
2F8
100
AcDbEntity
  8
MAIN0
  6
CONTINUOUS
 62
3
100
AcDbBlockBegin
  2
D44
 70
    64
 10
0.0
 20
0.0
 30
0.0
  0
LINE
  5
2F9
100
AcDbEntity
  8
MAIN0
  6
BYBLOCK
 62
0
100
AcDbLine
 10
-37.87760229979463
 20
-60.97249148953759
 30
0.0000000000000000
 11
-37.87760229979463
 21
-82.50000000000004
 31
0.0000000000000000
  0
LINE
  5
2FA
100
AcDbEntity
  8
MAIN0
  6
BYBLOCK
 62
0
100
AcDbLine
 10
-37.27760227595277
 20
-80.50000000000004
 30
0.0000000000000000
 11
-37.87760229979463
 21
-82.50000000000004
 31
0.0000000000000000
  0
LINE
  5
2FB
100
AcDbEntity
  8
MAIN0
  6
BYBLOCK
 62
0
100
AcDbLine
 10
-37.87760229979463
 20
-82.50000000000004
 30
0.0000000000000000
 11
-38.47760232363649
 21
-80.50000000000004
 31
0.0000000000000000
  0
MTEXT
  5
2FC
100
AcDbEntity
  8
MAIN0
  6
BYBLOCK
 62
0
100
AcDbMText
 10
-39.92760225211092
 20
-67.42249149251782
 30
0.0000000000000000
 40
3.099999904632568
 41
0.0000000000000000
 71
     5
 72
     1
  1
\A1;\U+2205165
 11
6.123233995736766e-017
 21
1.000000000000000
 31
0.0000000000000000
  7
STANDARD
  0
ENDBLK
  5
2FD
100
AcDbEntity
  8
MAIN0
  6
CONTINUOUS
 62
3
100
AcDbBlockEnd
  0
BLOCK
  5
302
100
AcDbEntity
  8
MAIN0
  6
CONTINUOUS
 62
3
100
AcDbBlockBegin
  2
*D45
 70
    65
 10
0.0
 20
0.0
 30
0.0
  0
LINE
  5
303
100
AcDbEntity
  8
MAIN0
  6
BYBLOCK
 62
0
100
AcDbLine
 10
94.34127655458698
 20
282.9072471284439
 30
0.0000000000000000
 11
94.34127655458698
 21
306.8112210478267
 31
0.0000000000000000
  0
LINE
  5
304
100
AcDbEntity
  8
MAIN0
  6
BYBLOCK
 62
0
100
AcDbLine
 10
96.34127655458698
 20
304.8112210478267
 30
0.0000000000000000
 11
117.3412765545870
 21
304.8112210478267
 31
0.0000000000000000
  0
INSERT
  5
305
100
AcDbEntity
  8
MAIN0
  6
BYBLOCK
 62
0
100
AcDbBlockReference
  2
_OPEN
 10
94.34127655458698
 20
304.8112210478267
 30
0.0000000000000000
 41
2.000000000000000
 42
2.000000000000000
 43
2.000000000000000
 50
180.0000000000000
  0
INSERT
  5
306
100
AcDbEntity
  8
MAIN0
  6
BYBLOCK
 62
0
100
AcDbBlockReference
  2
_OPEN
 10
119.3412765545870
 20
304.8112210478267
 30
0.0000000000000000
 41
2.000000000000000
 42
2.000000000000000
 43
2.000000000000000
 50
0.0000000000000000
  0
LINE
  5
307
100
AcDbEntity
  8
MAIN0
  6
BYBLOCK
 62
0
100
AcDbLine
 10
119.3412765545870
 20
287.8298968592605
 30
0.0000000000000000
 11
119.3412765545870
 21
306.8112210478267
 31
0.0000000000000000
  0
MTEXT
  5
308
100
AcDbEntity
  8
MAIN0
  6
BYBLOCK
 62
0
100
AcDbMText
 10
106.8412765545870
 20
306.8612210001430
 30
0.0000000000000000
 40
3.099999904632568
 41
0.0000000000000000
 71
     5
 72
     1
  1
\A1;25
 11
1.000000000000000
 21
0.0000000000000000
 31
0.0000000000000000
  7
STANDARD
  0
ENDBLK
  5
309
100
AcDbEntity
  8
MAIN0
  6
CONTINUOUS
 62
3
100
AcDbBlockEnd
  0
BLOCK
  5
30B
100
AcDbEntity
  8
MAIN0
  6
CONTINUOUS
 62
3
100
AcDbBlockBegin
  2
*D46
 70
    65
 10
0.0
 20
0.0
 30
0.0
  0
LINE
  5
30C
100
AcDbEntity
  8
MAIN0
  6
BYBLOCK
 62
0
100
AcDbLine
 10
119.3412765545870
 20
287.8298968592605
 30
0.0000000000000000
 11
119.3412765545870
 21
306.8112210478267
 31
0.0000000000000000
  0
LINE
  5
30D
100
AcDbEntity
  8
MAIN0
  6
BYBLOCK
 62
0
100
AcDbLine
 10
121.3412765545870
 20
304.8112210478267
 30
0.0000000000000000
 11
184.3413837373893
 21
304.8112210478267
 31
0.0000000000000000
  0
INSERT
  5
30E
100
AcDbEntity
  8
MAIN0
  6
BYBLOCK
 62
0
100
AcDbBlockReference
  2
_OPEN
 10
119.3412765545870
 20
304.8112210478267
 30
0.0000000000000000
 41
2.000000000000000
 42
2.000000000000000
 43
2.000000000000000
 50
180.0000000000000
  0
INSERT
  5
30F
100
AcDbEntity
  8
MAIN0
  6
BYBLOCK
 62
0
100
AcDbBlockReference
  2
_OPEN
 10
186.3413837373893
 20
304.8112210478267
 30
0.0000000000000000
 41
2.000000000000000
 42
2.000000000000000
 43
2.000000000000000
 50
0.0000000000000000
  0
LINE
  5
310
100
AcDbEntity
  8
MAIN0
  6
BYBLOCK
 62
0
100
AcDbLine
 10
186.3413837373894
 20
291.3298968594216
 30
0.0000000000000000
 11
186.3413837373893
 21
306.8112210478267
 31
0.0000000000000000
  0
MTEXT
  5
311
100
AcDbEntity
  8
MAIN0
  6
BYBLOCK
 62
0
100
AcDbMText
 10
152.8413301459881
 20
306.8612210001430
 30
0.0000000000000000
 40
3.099999904632568
 41
0.0000000000000000
 71
     5
 72
     1
  1
\A1;67
 11
1.000000000000000
 21
0.0000000000000000
 31
0.0000000000000000
  7
STANDARD
  0
ENDBLK
  5
312
100
AcDbEntity
  8
MAIN0
  6
CONTINUOUS
 62
3
100
AcDbBlockEnd
  0
BLOCK
  5
314
100
AcDbEntity
  8
MAIN0
  6
CONTINUOUS
 62
3
100
AcDbBlockBegin
  2
*D47
 70
    65
 10
0.0
 20
0.0
 30
0.0
  0
LINE
  5
315
100
AcDbEntity
  8
MAIN0
  6
BYBLOCK
 62
0
100
AcDbLine
 10
186.3413837373894
 20
261.8845973736113
 30
0.0000000000000000
 11
186.3413837373894
 21
247.9581381313273
 31
0.0000000000000000
  0
LINE
  5
316
100
AcDbEntity
  8
MAIN0
  6
BYBLOCK
 62
0
100
AcDbLine
 10
184.3413837373894
 20
249.9581381313273
 30
0.0000000000000000
 11
131.3413837373894
 21
249.9581381313273
 31
0.0000000000000000
  0
INSERT
  5
317
100
AcDbEntity
  8
MAIN0
  6
BYBLOCK
 62
0
100
AcDbBlockReference
  2
_OPEN
 10
186.3413837373894
 20
249.9581381313273
 30
0.0000000000000000
 41
2.000000000000000
 42
2.000000000000000
 43
2.000000000000000
 50
360.0000000000000
  0
INSERT
  5
318
100
AcDbEntity
  8
MAIN0
  6
BYBLOCK
 62
0
100
AcDbBlockReference
  2
_OPEN
 10
129.3413837373894
 20
249.9581381313273
 30
0.0000000000000000
 41
2.000000000000000
 42
2.000000000000000
 43
2.000000000000000
 50
180.0000000000000
  0
LINE
  5
319
100
AcDbEntity
  8
MAIN0
  6
BYBLOCK
 62
0
100
AcDbLine
 10
129.3413837373894
 20
264.7072471045988
 30
0.0000000000000000
 11
129.3413837373894
 21
247.9581381313273
 31
0.0000000000000000
  0
MTEXT
  5
31A
100
AcDbEntity
  8
MAIN0
  6
BYBLOCK
 62
0
100
AcDbMText
 10
159.2727332643716
 20
252.0081380836436
 30
0.0000000000000000
 40
3.099999904632568
 41
0.0000000000000000
 71
     5
 72
     1
  1
\A1;57
 11
1.000000000000000
 21
0.0000000000000000
 31
0.0000000000000000
  7
STANDARD
  0
ENDBLK
  5
31B
100
AcDbEntity
  8
MAIN0
  6
CONTINUOUS
 62
3
100
AcDbBlockEnd
  0
BLOCK
  5
363
100
AcDbEntity
  8
MAIN0
  6
BYBLOCK
 62
3
100
AcDbBlockBegin
  2
M0
 70
    64
 10
0.0
 20
0.0
 30
0.0
  0
LINE
  5
364
100
AcDbEntity
  8
MAIN0
  6
BYBLOCK
 62
0
100
AcDbLine
 10
339.5023776852886
 20
104.6344080164545
 30
0.0000000000000000
 11
479.5023776855055
 21
104.6344080164545
 31
0.0000000000000000
  0
LINE
  5
365
100
AcDbEntity
  8
MAIN0
  6
BYBLOCK
 62
0
100
AcDbLine
 10
339.5023776852886
 20
99.63440801645450
 30
0.0000000000000000
 11
479.5023776854888
 21
99.63440801645450
 31
0.0000000000000000
  0
MTEXT
  5
366
100
AcDbEntity
  8
MAIN0
  6
BYBLOCK
 62
0
100
AcDbMText
 10
340.5023776852886
 20
108.2344079210870
 30
0.0000000000000000
 40
3.099999904632568
 41
0.0000000000000000
 71
     1
 72
     1
  1
{\H0.88x;1.}
 11
1.000000000000000
 21
0.0000000000000000
 31
0.0000000000000000
  7
STANDARD
  0
MTEXT
  5
367
100
AcDbEntity
  8
MAIN0
  6
BYBLOCK
 62
0
100
AcDbMText
 10
341.0023776852886
 20
118.6344080164547
 30
0.0000000000000000
 40
6.000000000000000
 41
0.0000000000000000
 71
     1
 72
     1
  1
{\H0.80x;注　記}
 11
1.000000000000000
 21
0.0000000000000000
 31
0.0000000000000000
  7
KNJYOKO
  0
LINE
  5
368
100
AcDbEntity
  8
MAIN0
  6
BYBLOCK
 62
0
100
AcDbLine
 10
359.5023776852886
 20
120.1344080164548
 30
0.0000000000000000
 11
359.5023776852886
 21
111.1344080164547
 31
0.0000000000000000
  0
LINE
  5
369
100
AcDbEntity
  8
MAIN0
  6
BYBLOCK
 62
0
100
AcDbLine
 10
339.5023776852886
 20
111.1344080164547
 30
0.0000000000000000
 11
359.5023776852886
 21
111.1344080164547
 31
0.0000000000000000
  0
LINE
  5
36A
100
AcDbEntity
  8
MAIN0
  6
BYBLOCK
 62
0
100
AcDbLine
 10
339.5023776852886
 20
120.1344080164548
 30
0.0000000000000000
 11
339.5023776852886
 21
111.1344080164547
 31
0.0000000000000000
  0
LINE
  5
36B
100
AcDbEntity
  8
MAIN0
  6
BYBLOCK
 62
0
100
AcDbLine
 10
339.5023776852886
 20
120.1344080164548
 30
0.0000000000000000
 11
359.5023776852886
 21
120.1344080164548
 31
0.0000000000000000
  0
ENDBLK
  5
36C
100
AcDbEntity
  8
MAIN0
  6
BYBLOCK
 62
3
100
AcDbBlockEnd
  0
BLOCK
  5
36E
100
AcDbEntity
  8
MAIN0
  6
BYBLOCK
 62
3
100
AcDbBlockBegin
  2
M1
 70
    64
 10
0.0
 20
0.0
 30
0.0
  0
LINE
  5
36F
100
AcDbEntity
  8
MAIN0
  6
BYBLOCK
 62
0
100
AcDbLine
 10
339.5023776852886
 20
74.63440801645439
 30
0.0000000000000000
 11
479.5023776855055
 21
74.63440801645439
 31
0.0000000000000000
  0
LINE
  5
370
100
AcDbEntity
  8
MAIN0
  6
BYBLOCK
 62
0
100
AcDbLine
 10
339.5023776852886
 20
69.63440801645439
 30
0.0000000000000000
 11
479.5023776854888
 21
69.63440801645439
 31
0.0000000000000000
  0
LINE
  5
371
100
AcDbEntity
  8
MAIN0
  6
BYBLOCK
 62
0
100
AcDbLine
 10
339.5023776852886
 20
64.63440801645450
 30
0.0000000000000000
 11
479.5023776854721
 21
64.63440801645450
 31
0.0000000000000000
  0
MTEXT
  5
372
100
AcDbEntity
  8
MAIN0
  6
BYBLOCK
 62
0
100
AcDbMText
 10
340.5023776852886
 20
78.23440792108701
 30
0.0000000000000000
 40
3.099999904632568
 41
0.0000000000000000
 71
     1
 72
     1
  1
{\H0.88x;1.}
 11
1.000000000000000
 21
0.0000000000000000
 31
0.0000000000000000
  7
STANDARD
  0
MTEXT
  5
373
100
AcDbEntity
  8
MAIN0
  6
BYBLOCK
 62
0
100
AcDbMText
 10
340.4483075822148
 20
88.04655135403755
 30
0.0000000000000000
 40
5.000000000000000
 41
0.0000000000000000
 71
     1
 72
     1
  1
{\H0.63x;NOTICE}
 11
1.000000000000000
 21
0.0000000000000000
 31
0.0000000000000000
  7
STANDARD
  0
LINE
  5
374
100
AcDbEntity
  8
MAIN0
  6
BYBLOCK
 62
0
100
AcDbLine
 10
359.5023776852886
 20
90.13440801645473
 30
0.0000000000000000
 11
359.5023776852886
 21
81.13440801645473
 31
0.0000000000000000
  0
LINE
  5
375
100
AcDbEntity
  8
MAIN0
  6
BYBLOCK
 62
0
100
AcDbLine
 10
339.5023776852886
 20
81.13440801645473
 30
0.0000000000000000
 11
359.5023776852886
 21
81.13440801645473
 31
0.0000000000000000
  0
LINE
  5
376
100
AcDbEntity
  8
MAIN0
  6
BYBLOCK
 62
0
100
AcDbLine
 10
339.5023776852886
 20
90.13440801645473
 30
0.0000000000000000
 11
339.5023776852886
 21
81.13440801645473
 31
0.0000000000000000
  0
LINE
  5
377
100
AcDbEntity
  8
MAIN0
  6
BYBLOCK
 62
0
100
AcDbLine
 10
339.5023776852886
 20
90.13440801645473
 30
0.0000000000000000
 11
359.5023776852886
 21
90.13440801645473
 31
0.0000000000000000
  0
ENDBLK
  5
378
100
AcDbEntity
  8
MAIN0
  6
BYBLOCK
 62
3
100
AcDbBlockEnd
  0
BLOCK
  5
38C
100
AcDbEntity
  8
MAIN0
  6
CONTINUOUS
 62
3
100
AcDbBlockBegin
  2
*D48
 70
    65
 10
0.0
 20
0.0
 30
0.0
  0
LINE
  5
38D
100
AcDbEntity
  8
MAIN0
  6
BYBLOCK
 62
0
100
AcDbLine
 10
238.8412765545863
 20
297.3335681977213
 30
0.0000000000000000
 11
238.8412765545874
 21
238.8951632216214
 31
0.0000000000000000
  0
LINE
  5
38E
100
AcDbEntity
  8
MAIN0
  6
BYBLOCK
 62
0
100
AcDbLine
 10
238.8412765545874
 20
240.8951632216214
 30
0.0000000000000000
 11
233.8412765545863
 21
240.8951632216214
 31
0.0000000000000000
  0
INSERT
  5
38F
100
AcDbEntity
  8
MAIN0
  6
BYBLOCK
 62
0
100
AcDbBlockReference
  2
_OPEN
 10
238.8412765545874
 20
240.8951632216214
 30
0.0000000000000000
 41
2.000000000000000
 42
2.000000000000000
 43
2.000000000000000
 50
180.0000000000000
  0
INSERT
  5
390
100
AcDbEntity
  8
MAIN0
  6
BYBLOCK
 62
0
100
AcDbBlockReference
  2
_OPEN
 10
233.8412765545863
 20
240.8951632216214
 30
0.0000000000000000
 41
2.000000000000000
 42
2.000000000000000
 43
2.000000000000000
 50
360.0000000000000
  0
LINE
  5
391
100
AcDbEntity
  8
MAIN0
  6
BYBLOCK
 62
0
100
AcDbLine
 10
240.8412765545874
 20
240.8951632216214
 30
0.0000000000000000
 11
254.0594562573461
 21
240.8951632216214
 31
0.0000000000000000
  0
LINE
  5
392
100
AcDbEntity
  8
MAIN0
  6
BYBLOCK
 62
0
100
AcDbLine
 10
231.8412765545863
 20
240.8951632216214
 30
0.0000000000000000
 11
230.8412765545863
 21
240.8951632216214
 31
0.0000000000000000
  0
LINE
  5
393
100
AcDbEntity
  8
MAIN0
  6
BYBLOCK
 62
0
100
AcDbLine
 10
233.8412765545863
 20
262.8072471046020
 30
0.0000000000000000
 11
233.8412765545863
 21
238.8951632216214
 31
0.0000000000000000
  0
MTEXT
  5
394
100
AcDbEntity
  8
MAIN0
  6
BYBLOCK
 62
0
100
AcDbMText
 10
248.8094560932954
 20
242.9451631739376
 30
0.0000000000000000
 40
3.099999904632568
 41
0.0000000000000000
 71
     5
 72
     1
  1
\A1;MAX 5
 11
1.000000000000000
 21
0.0000000000000000
 31
0.0000000000000000
  7
STANDARD
  0
ENDBLK
  5
395
100
AcDbEntity
  8
MAIN0
  6
CONTINUOUS
 62
3
100
AcDbBlockEnd
  0
BLOCK
  5
398
100
AcDbEntity
  8
MAIN0
  6
CONTINUOUS
 62
3
100
AcDbBlockBegin
  2
*D49
 70
    65
 10
0.0
 20
0.0
 30
0.0
  0
LINE
  5
399
100
AcDbEntity
  8
MAIN0
  6
BYBLOCK
 62
0
100
AcDbLine
 10
234.1339075727729
 20
282.3148409700771
 30
0.0000000000000000
 11
234.1339075727729
 21
246.3186165940202
 31
0.0000000000000000
  0
LINE
  5
39A
100
AcDbEntity
  8
MAIN0
  6
BYBLOCK
 62
0
100
AcDbLine
 10
234.1339075727729
 20
248.3186165940202
 30
0.0000000000000000
 11
233.8412765545863
 21
248.3186165940202
 31
0.0000000000000000
  0
INSERT
  5
39B
100
AcDbEntity
  8
MAIN0
  6
BYBLOCK
 62
0
100
AcDbBlockReference
  2
_OPEN
 10
234.1339075727729
 20
248.3186165940202
 30
0.0000000000000000
 41
2.000000000000000
 42
2.000000000000000
 43
2.000000000000000
 50
180.0000000000000
  0
INSERT
  5
39C
100
AcDbEntity
  8
MAIN0
  6
BYBLOCK
 62
0
100
AcDbBlockReference
  2
_OPEN
 10
233.8412765545863
 20
248.3186165940202
 30
0.0000000000000000
 41
2.000000000000000
 42
2.000000000000000
 43
2.000000000000000
 50
360.0000000000000
  0
LINE
  5
39D
100
AcDbEntity
  8
MAIN0
  6
BYBLOCK
 62
0
100
AcDbLine
 10
236.1339075727729
 20
248.3186165940202
 30
0.0000000000000000
 11
237.1339075727729
 21
248.3186165940202
 31
0.0000000000000000
  0
LINE
  5
39E
100
AcDbEntity
  8
MAIN0
  6
BYBLOCK
 62
0
100
AcDbLine
 10
231.8412765545863
 20
248.3186165940202
 30
0.0000000000000000
 11
225.5011648221034
 21
248.3186165940202
 31
0.0000000000000000
  0
LINE
  5
39F
100
AcDbEntity
  8
MAIN0
  6
BYBLOCK
 62
0
100
AcDbLine
 10
233.8412765545863
 20
262.8072471046020
 30
0.0000000000000000
 11
233.8412765545863
 21
246.3186165940202
 31
0.0000000000000000
  0
MTEXT
  5
3A0
100
AcDbEntity
  8
MAIN0
  6
BYBLOCK
 62
0
100
AcDbMText
 10
228.1511645262859
 20
250.3686165463365
 30
0.0000000000000000
 40
3.099999904632568
 41
0.0000000000000000
 71
     5
 72
     1
  1
\A1;0.3
 11
1.000000000000000
 21
0.0000000000000000
 31
0.0000000000000000
  7
STANDARD
  0
ENDBLK
  5
3A1
100
AcDbEntity
  8
MAIN0
  6
CONTINUOUS
 62
3
100
AcDbBlockEnd
  0
ENDSEC
  0
SECTION
  2
ENTITIES
  0
LINE
  5
46
100
AcDbEntity
  8
MAIN0
  6
CONTINUOUS
 62
3
100
AcDbLine
 10
198.8262112946907
 20
281.6072471165230
 30
0.0000000000000000
 11
218.7412765546222
 21
281.6072471165230
 31
0.0000000000000000
  0
LINE
  5
47
100
AcDbEntity
  8
MAIN0
  6
CONTINUOUS
 62
3
100
AcDbLine
 10
233.8412765545863
 20
276.6072471165230
 30
0.0000000000000000
 11
233.8412765545863
 21
263.6072471165229
 31
0.0000000000000000
  0
LINE
  5
48
100
AcDbEntity
  8
MAIN0
  6
CONTINUOUS
 62
3
100
AcDbLine
 10
201.8412765545862
 20
252.5072471165230
 30
0.0000000000000000
 11
201.8412765545862
 21
195.1072471165230
 31
0.0000000000000000
  0
LINE
  5
49
100
AcDbEntity
  8
MAIN0
  6
CONTINUOUS
 62
3
100
AcDbLine
 10
193.3413837373911
 20
261.1072471165230
 30
0.0000000000000000
 11
193.3413837373911
 21
276.6072471165230
 31
0.0000000000000000
  0
LINE
  5
4A
100
AcDbEntity
  8
MAIN0
  6
CONTINUOUS
 62
3
100
AcDbLine
 10
193.3413837373911
 20
262.1072471165228
 30
0.0000000000000000
 11
198.8262112946907
 21
271.6072471165229
 31
0.0000000000000000
  0
LINE
  5
4B
100
AcDbEntity
  8
MAIN0
  6
CONTINUOUS
 62
3
100
AcDbLine
 10
198.8262112946907
 20
271.6072471165230
 30
0.0000000000000000
 11
218.7412765546222
 21
271.6072471165230
 31
0.0000000000000000
  0
LINE
  5
4C
100
AcDbEntity
  8
MAIN0
  6
CONTINUOUS
 62
3
100
AcDbLine
 10
175.3414579111019
 20
259.1072471165230
 30
0.0000000000000000
 11
179.3414579111019
 21
259.1072471165230
 31
0.0000000000000000
  0
LINE
  5
4D
100
AcDbEntity
  8
MAIN0
  6
CONTINUOUS
 62
3
100
AcDbLine
 10
175.3414579111019
 20
294.1072471165229
 30
0.0000000000000000
 11
179.3414579111019
 21
294.1072471165229
 31
0.0000000000000000
  0
LINE
  5
4E
100
AcDbEntity
  8
MAIN0
  6
CONTINUOUS
 62
3
100
AcDbLine
 10
200.8412765545863
 20
359.1072471165230
 30
0.0000000000000000
 11
201.8412765545863
 21
358.1072471165230
 31
0.0000000000000000
  0
LINE
  5
4F
100
AcDbEntity
  8
MAIN0
  6
CONTINUOUS
 62
3
100
AcDbLine
 10
201.8412765545862
 20
195.1072471165230
 30
0.0000000000000000
 11
200.8412765545862
 21
194.1072471165230
 31
0.0000000000000000
  0
LINE
  5
50
100
AcDbEntity
  8
MAIN0
  6
CONTINUOUS
 62
3
100
AcDbLine
 10
173.3414579111019
 20
291.6072471165230
 30
0.0000000000000000
 11
175.3414579111019
 21
291.6072471165230
 31
0.0000000000000000
  0
LINE
  5
51
100
AcDbEntity
  8
MAIN0
  6
CONTINUOUS
 62
3
100
AcDbLine
 10
174.3287605498102
 20
261.6072471165230
 30
0.0000000000000000
 11
175.3414579111019
 21
261.6072471165230
 31
0.0000000000000000
  0
LINE
  5
52
100
AcDbEntity
  8
MAIN0
  6
CONTINUOUS
 62
3
100
AcDbLine
 10
179.3414579111019
 20
261.6072471165230
 30
0.0000000000000000
 11
188.3413837373911
 21
261.6072471165230
 31
0.0000000000000000
  0
LINE
  5
53
100
AcDbEntity
  8
MAIN0
  6
CONTINUOUS
 62
3
100
AcDbLine
 10
179.3414579111019
 20
291.6072471165229
 30
0.0000000000000000
 11
188.3413837373911
 21
291.6072471165230
 31
0.0000000000000000
  0
LINE
  5
54
100
AcDbEntity
  8
MAIN0
  6
CONTINUOUS
 62
3
100
AcDbLine
 10
193.3413837373911
 20
292.1072471165230
 30
0.0000000000000000
 11
193.3413837373911
 21
276.6072471165230
 31
0.0000000000000000
  0
LINE
  5
55
100
AcDbEntity
  8
MAIN0
  6
CONTINUOUS
 62
3
100
AcDbLine
 10
193.3413837373911
 20
291.1072471165230
 30
0.0000000000000000
 11
198.8262112946907
 21
281.6072471165229
 31
0.0000000000000000
  0
LINE
  5
56
100
AcDbEntity
  8
MAIN0
  6
CONTINUOUS
 62
3
100
AcDbLine
 10
198.8262112946907
 20
281.6072471165228
 30
0.0000000000000000
 11
198.8262112946907
 21
271.6072471165228
 31
0.0000000000000000
  0
LINE
  5
57
100
AcDbEntity
  8
MAIN0
  6
CONTINUOUS
 62
3
100
AcDbLine
 10
177.2689578535548
 20
297.2928653272636
 30
0.0000000000000000
 11
233.8412765545863
 21
283.1878020893322
 31
0.0000000000000000
  0
LINE
  5
58
100
AcDbEntity
  8
MAIN0
  6
CONTINUOUS
 62
3
100
AcDbLine
 10
131.8412765545863
 20
358.5072471165229
 30
0.0000000000000000
 11
132.4412765545863
 21
359.1072471165230
 31
0.0000000000000000
  0
LINE
  5
59
100
AcDbEntity
  8
MAIN0
  6
CONTINUOUS
 62
3
100
AcDbLine
 10
132.4412765545862
 20
194.1072471165229
 30
0.0000000000000000
 11
131.8412765545863
 21
194.7072471165229
 31
0.0000000000000000
  0
LINE
  5
5A
100
AcDbEntity
  8
MAIN0
  6
CENTER
 62
3
100
AcDbLine
 10
169.3412765545863
 20
192.1394930241511
 30
0.0000000000000000
 11
169.3412765545863
 21
235.0481104423222
 31
0.0000000000000000
  0
LINE
  5
5B
100
AcDbEntity
  8
MAIN0
  6
HIDDEN
 62
3
100
AcDbLine
 10
161.8412765545863
 20
204.1072471165229
 30
0.0000000000000000
 11
176.8412765545863
 21
204.1072471165229
 31
0.0000000000000000
  0
LINE
  5
5C
100
AcDbEntity
  8
MAIN0
  6
HIDDEN
 62
3
100
AcDbLine
 10
161.8412765545863
 20
194.7072471165229
 30
0.0000000000000000
 11
161.8412765545863
 21
204.1072471165228
 31
0.0000000000000000
  0
LINE
  5
5D
100
AcDbEntity
  8
MAIN0
  6
HIDDEN
 62
3
100
AcDbLine
 10
176.8412765545863
 20
194.7072471165229
 30
0.0000000000000000
 11
176.8412765545863
 21
204.1072471165229
 31
0.0000000000000000
  0
LINE
  5
5E
100
AcDbEntity
  8
MAIN0
  6
HIDDEN
 62
3
100
AcDbLine
 10
161.8412765545863
 20
194.7072471165229
 30
0.0000000000000000
 11
161.2412765545863
 21
194.1072471165228
 31
0.0000000000000000
  0
LINE
  5
5F
100
AcDbEntity
  8
MAIN0
  6
HIDDEN
 62
3
100
AcDbLine
 10
176.8412765545863
 20
194.7072471165229
 30
0.0000000000000000
 11
177.4412765545863
 21
194.1072471165229
 31
0.0000000000000000
  0
LINE
  5
60
100
AcDbEntity
  8
MAIN0
  6
HIDDEN
 62
3
100
AcDbLine
 10
166.0412765545863
 20
204.1072471165230
 30
0.0000000000000000
 11
166.3412765545863
 21
204.4072471165230
 31
0.0000000000000000
  0
LINE
  5
61
100
AcDbEntity
  8
MAIN0
  6
HIDDEN
 62
3
100
AcDbLine
 10
172.3412765545862
 20
204.4072471165228
 30
0.0000000000000000
 11
172.6412765545863
 21
204.1072471165228
 31
0.0000000000000000
  0
LINE
  5
62
100
AcDbEntity
  8
MAIN0
  6
HIDDEN
 62
3
100
AcDbLine
 10
166.3412765545864
 20
209.0072471165229
 30
0.0000000000000000
 11
166.3412765545866
 21
212.1072471165230
 31
0.0000000000000000
  0
LINE
  5
63
100
AcDbEntity
  8
MAIN0
  6
HIDDEN
 62
3
100
AcDbLine
 10
166.3412765545865
 20
212.1072471165230
 30
0.0000000000000000
 11
172.3412765545865
 21
212.1072471165228
 31
0.0000000000000000
  0
LINE
  5
64
100
AcDbEntity
  8
MAIN0
  6
HIDDEN
 62
3
100
AcDbLine
 10
172.3412765545865
 20
212.1072471165228
 30
0.0000000000000000
 11
172.3412765545864
 21
209.0072471165229
 31
0.0000000000000000
  0
LINE
  5
65
100
AcDbEntity
  8
MAIN0
  6
HIDDEN
 62
3
100
AcDbLine
 10
166.8412765545864
 20
209.5072471165229
 30
0.0000000000000000
 11
166.8412765545872
 21
231.3198601909104
 31
0.0000000000000000
  0
LINE
  5
66
100
AcDbEntity
  8
MAIN0
  6
HIDDEN
 62
3
100
AcDbLine
 10
171.8412765545873
 20
235.1072471164909
 30
0.0000000000000000
 11
171.8412765545864
 21
209.5072471165229
 31
0.0000000000000000
  0
LINE
  5
67
100
AcDbEntity
  8
MAIN0
  6
CONTINUOUS
 62
3
100
AcDbLine
 10
188.3413837373911
 20
292.1072471165230
 30
0.0000000000000000
 11
193.3413837373911
 21
292.1072471165230
 31
0.0000000000000000
  0
LINE
  5
68
100
AcDbEntity
  8
MAIN0
  6
CONTINUOUS
 62
3
100
AcDbLine
 10
188.3413837373911
 20
261.1072471165230
 30
0.0000000000000000
 11
193.3413837373911
 21
261.1072471165230
 31
0.0000000000000000
  0
LINE
  5
69
100
AcDbEntity
  8
MAIN0
  6
CONTINUOUS
 62
3
100
AcDbLine
 10
221.8412765545857
 20
271.5072471165237
 30
0.0000000000000000
 11
218.8412765545860
 21
271.5072471165239
 31
0.0000000000000000
  0
LINE
  5
6A
100
AcDbEntity
  8
MAIN0
  6
CONTINUOUS
 62
3
100
AcDbLine
 10
218.8412765545866
 20
281.7072471165239
 30
0.0000000000000000
 11
221.8412765545866
 21
281.7072471165237
 31
0.0000000000000000
  0
LINE
  5
6B
100
AcDbEntity
  8
MAIN0
  6
CONTINUOUS
 62
3
100
AcDbLine
 10
232.1796740142058
 20
281.8479204425529
 30
0.0000000000000000
 11
233.8412765545863
 21
282.8072471165275
 31
0.0000000000000000
  0
LINE
  5
6C
100
AcDbEntity
  8
MAIN0
  6
CONTINUOUS
 62
3
100
AcDbLine
 10
232.1796740142055
 20
271.3665737904932
 30
0.0000000000000000
 11
233.8412765545863
 21
270.4072471165184
 31
0.0000000000000000
  0
LINE
  5
6D
100
AcDbEntity
  8
MAIN0
  6
CONTINUOUS
 62
3
100
AcDbLine
 10
207.7169209014166
 20
256.6072471165230
 30
0.0000000000000000
 11
233.8412765545862
 21
263.6072471165228
 31
0.0000000000000000
  0
LINE
  5
6E
100
AcDbEntity
  8
MAIN0
  6
HIDDEN
 62
3
100
AcDbLine
 10
207.7169209014167
 20
296.6072471165230
 30
0.0000000000000000
 11
233.8412765545863
 21
289.6072471165231
 31
0.0000000000000000
  0
LINE
  5
6F
100
AcDbEntity
  8
MAIN0
  6
CONTINUOUS
 62
3
100
AcDbLine
 10
173.3414579111019
 20
291.6072471165229
 30
0.0000000000000000
 11
173.1040558369549
 21
291.8446491906699
 31
0.0000000000000000
  0
LINE
  5
70
100
AcDbEntity
  8
MAIN0
  6
CONTINUOUS
 62
3
100
AcDbLine
 10
203.6412765545863
 20
256.6072471165230
 30
0.0000000000000000
 11
207.7169209014166
 21
256.6072471165230
 31
0.0000000000000000
  0
LINE
  5
71
100
AcDbEntity
  8
MAIN0
  6
CONTINUOUS
 62
3
100
AcDbLine
 10
203.6412765545863
 20
256.6072471165230
 30
0.0000000000000000
 11
202.8728837037978
 21
257.0072471165229
 31
0.0000000000000000
  0
LINE
  5
72
100
AcDbEntity
  8
MAIN0
  6
CONTINUOUS
 62
3
100
AcDbLine
 10
202.8728837037978
 20
257.0072471165229
 30
0.0000000000000000
 11
201.8412765545862
 21
257.0072471165229
 31
0.0000000000000000
  0
LINE
  5
73
100
AcDbEntity
  8
MAIN0
  6
CONTINUOUS
 62
3
100
AcDbLine
 10
201.4412765545862
 20
256.6072471165230
 30
0.0000000000000000
 11
201.4412765545862
 21
253.2756399673114
 31
0.0000000000000000
  0
LINE
  5
74
100
AcDbEntity
  8
MAIN0
  6
CONTINUOUS
 62
3
100
AcDbLine
 10
201.4412765545862
 20
253.2756399673114
 30
0.0000000000000000
 11
201.8412765545862
 21
252.5072471165230
 31
0.0000000000000000
  0
ARC
  5
75
100
AcDbEntity
  8
MAIN0
  6
CONTINUOUS
 62
3
100
AcDbCircle
 10
201.8412765545862
 20
256.6072471165230
 30
0.0000000000000000
 40
0.4000000000000000
100
AcDbArc
 50
90.00000000000000
 51
180.0000000000000
  0
LINE
  5
76
100
AcDbEntity
  8
MAIN0
  6
HIDDEN
 62
3
100
AcDbLine
 10
203.6412765545863
 20
296.6072471165230
 30
0.0000000000000000
 11
207.7169209014166
 21
296.6072471165230
 31
0.0000000000000000
  0
LINE
  5
77
100
AcDbEntity
  8
MAIN0
  6
CENTER
 62
3
100
AcDbLine
 10
190.8412765545862
 20
263.6596351697311
 30
0.0000000000000000
 11
190.8412765545862
 21
192.1394930241511
 31
0.0000000000000000
  0
LINE
  5
78
100
AcDbEntity
  8
MAIN0
  6
HIDDEN
 62
3
100
AcDbLine
 10
169.3799877428418
 20
235.1072471164913
 30
0.0000000000000000
 11
172.3414579111018
 21
235.1072471164909
 31
0.0000000000000000
  0
LINE
  5
79
100
AcDbEntity
  8
MAIN0
  6
CONTINUOUS
 62
3
100
AcDbLine
 10
218.7412765546221
 20
281.6072471165230
 30
0.0000000000000000
 11
218.8412765546231
 21
281.7072471165239
 31
0.0000000000000000
  0
LINE
  5
7A
100
AcDbEntity
  8
MAIN0
  6
CONTINUOUS
 62
3
100
AcDbLine
 10
218.7412765546222
 20
271.6072471165230
 30
0.0000000000000000
 11
218.8412765546231
 21
271.5072471165220
 31
0.0000000000000000
  0
LINE
  5
7B
100
AcDbEntity
  8
MAIN0
  6
CONTINUOUS
 62
3
100
AcDbLine
 10
187.9412765545862
 20
194.1072471165229
 30
0.0000000000000000
 11
188.7412765545863
 21
194.9072471165229
 31
0.0000000000000000
  0
LINE
  5
7C
100
AcDbEntity
  8
MAIN0
  6
CONTINUOUS
 62
3
100
AcDbLine
 10
188.7412765545863
 20
194.9072471165229
 30
0.0000000000000000
 11
192.9412765545862
 21
194.9072471165229
 31
0.0000000000000000
  0
LINE
  5
7D
100
AcDbEntity
  8
MAIN0
  6
CONTINUOUS
 62
3
100
AcDbLine
 10
192.9412765545862
 20
194.9072471165229
 30
0.0000000000000000
 11
193.7412765545862
 21
194.1072471165229
 31
0.0000000000000000
  0
LINE
  5
7E
100
AcDbEntity
  8
MAIN0
  6
CONTINUOUS
 62
3
100
AcDbLine
 10
201.8412765545864
 20
324.6459343194965
 30
0.0000000000000000
 11
200.9085684392053
 21
324.3784845711515
 31
0.0000000000000000
  0
LINE
  5
7F
100
AcDbEntity
  8
MAIN0
  6
HIDDEN
 62
3
100
AcDbLine
 10
201.4412765545862
 20
296.6072471165230
 30
0.0000000000000000
 11
201.4412765545862
 21
299.9388542657345
 31
0.0000000000000000
  0
LINE
  5
80
100
AcDbEntity
  8
MAIN0
  6
HIDDEN
 62
3
100
AcDbLine
 10
202.8728837037978
 20
296.2072471165229
 30
0.0000000000000000
 11
201.8412765545862
 21
296.2072471165229
 31
0.0000000000000000
  0
ARC
  5
81
100
AcDbEntity
  8
MAIN0
  6
HIDDEN
 62
3
100
AcDbCircle
 10
201.8412765545862
 20
296.6072471165230
 30
0.0000000000000000
 40
0.4000000000000000
100
AcDbArc
 50
180.0000000000000
 51
270.0000000000000
  0
LINE
  5
82
100
AcDbEntity
  8
MAIN0
  6
HIDDEN
 62
3
100
AcDbLine
 10
203.6412765545863
 20
296.6072471165230
 30
0.0000000000000000
 11
202.8728837037978
 21
296.2072471165229
 31
0.0000000000000000
  0
LINE
  5
83
100
AcDbEntity
  8
MAIN0
  6
HIDDEN
 62
3
100
AcDbLine
 10
201.4412765545862
 20
299.9388542657345
 30
0.0000000000000000
 11
201.8412765545862
 21
300.7072471165229
 31
0.0000000000000000
  0
CIRCLE
  5
84
100
AcDbEntity
  8
MAIN0
  6
CONTINUOUS
 62
3
100
AcDbCircle
 10
433.8412765545862
 20
276.6072471165230
 30
0.0000000000000000
 40
82.50000000000000
  0
LINE
  5
85
100
AcDbEntity
  8
MAIN0
  6
HIDDEN
 62
3
100
AcDbLine
 10
426.3412765545862
 20
204.1072471165229
 30
0.0000000000000000
 11
441.3412765545862
 21
204.1072471165229
 31
0.0000000000000000
  0
LINE
  5
86
100
AcDbEntity
  8
MAIN0
  6
HIDDEN
 62
3
100
AcDbLine
 10
426.3412765545862
 20
194.7072471165229
 30
0.0000000000000000
 11
426.3412765545862
 21
204.1072471165229
 31
0.0000000000000000
  0
LINE
  5
87
100
AcDbEntity
  8
MAIN0
  6
HIDDEN
 62
3
100
AcDbLine
 10
441.3412765545862
 20
194.7072471165229
 30
0.0000000000000000
 11
441.3412765545862
 21
204.1072471165229
 31
0.0000000000000000
  0
LINE
  5
88
100
AcDbEntity
  8
MAIN0
  6
HIDDEN
 62
3
100
AcDbLine
 10
426.3412765545862
 20
194.7072471165229
 30
0.0000000000000000
 11
425.7412765545863
 21
194.1072471165229
 31
0.0000000000000000
  0
LINE
  5
89
100
AcDbEntity
  8
MAIN0
  6
HIDDEN
 62
3
100
AcDbLine
 10
441.3412765545862
 20
194.7072471165229
 30
0.0000000000000000
 11
441.9412765545862
 21
194.1072471165229
 31
0.0000000000000000
  0
LINE
  5
8A
100
AcDbEntity
  8
MAIN0
  6
HIDDEN
 62
3
100
AcDbLine
 10
430.5412765545863
 20
204.1072471165230
 30
0.0000000000000000
 11
431.3412765545863
 21
204.9072471165230
 31
0.0000000000000000
  0
LINE
  5
8B
100
AcDbEntity
  8
MAIN0
  6
HIDDEN
 62
3
100
AcDbLine
 10
431.3412765545862
 20
204.9072471165230
 30
0.0000000000000000
 11
436.3412765545862
 21
204.9072471165229
 31
0.0000000000000000
  0
LINE
  5
8C
100
AcDbEntity
  8
MAIN0
  6
HIDDEN
 62
3
100
AcDbLine
 10
436.3412765545862
 20
204.9072471165228
 30
0.0000000000000000
 11
437.1412765545862
 21
204.1072471165228
 31
0.0000000000000000
  0
LINE
  5
8D
100
AcDbEntity
  8
MAIN0
  6
HIDDEN
 62
3
100
AcDbLine
 10
430.8412765545863
 20
204.4072471165230
 30
0.0000000000000000
 11
430.8412765545865
 21
212.1072471165230
 31
0.0000000000000000
  0
LINE
  5
8E
100
AcDbEntity
  8
MAIN0
  6
HIDDEN
 62
3
100
AcDbLine
 10
430.8412765545865
 20
212.1072471165230
 30
0.0000000000000000
 11
436.8412765545865
 21
212.1072471165228
 31
0.0000000000000000
  0
LINE
  5
8F
100
AcDbEntity
  8
MAIN0
  6
HIDDEN
 62
3
100
AcDbLine
 10
436.8412765545865
 20
212.1072471165228
 30
0.0000000000000000
 11
436.8412765545862
 21
204.4072471165229
 31
0.0000000000000000
  0
LINE
  5
90
100
AcDbEntity
  8
MAIN0
  6
HIDDEN
 62
3
100
AcDbLine
 10
431.3412765545863
 20
204.9072471165230
 30
0.0000000000000000
 11
431.3412765545871
 21
231.6072471165230
 31
0.0000000000000000
  0
LINE
  5
91
100
AcDbEntity
  8
MAIN0
  6
HIDDEN
 62
3
100
AcDbLine
 10
436.3412765545871
 20
231.6072471165230
 30
0.0000000000000000
 11
436.3412765545863
 21
204.9072471165228
 31
0.0000000000000000
  0
ARC
  5
92
100
AcDbEntity
  8
MAIN0
  6
CONTINUOUS
 62
3
100
AcDbCircle
 10
433.8412765545866
 20
276.6072471165230
 30
0.0000000000000000
 40
13.00000000000000
100
AcDbArc
 50
253.9211189193294
 51
286.0788810806704
  0
ARC
  5
93
100
AcDbEntity
  8
MAIN0
  6
CONTINUOUS
 62
3
100
AcDbCircle
 10
433.8412765545866
 20
276.6072471165230
 30
0.0000000000000000
 40
13.00000000000000
100
AcDbArc
 50
133.9211189193299
 51
166.0788810806704
  0
ARC
  5
94
100
AcDbEntity
  8
MAIN0
  6
CONTINUOUS
 62
3
100
AcDbCircle
 10
433.8412765545866
 20
276.6072471165230
 30
0.0000000000000000
 40
13.00000000000000
100
AcDbArc
 50
13.92111891933018
 51
46.07888108067023
  0
ARC
  5
95
100
AcDbEntity
  8
MAIN0
  6
CONTINUOUS
 62
3
100
AcDbCircle
 10
433.8412765545861
 20
276.6072471165230
 30
0.0000000000000000
 40
20.00000000000000
100
AcDbArc
 50
11.80586411752252
 51
48.19413588247701
  0
ARC
  5
96
100
AcDbEntity
  8
MAIN0
  6
CONTINUOUS
 62
3
100
AcDbCircle
 10
433.8412765545861
 20
276.6072471165230
 30
0.0000000000000000
 40
20.00000000000000
100
AcDbArc
 50
131.8058641175222
 51
168.1941358824779
  0
ARC
  5
97
100
AcDbEntity
  8
MAIN0
  6
CONTINUOUS
 62
3
100
AcDbCircle
 10
433.8412765545861
 20
276.6072471165230
 30
0.0000000000000000
 40
20.00000000000000
100
AcDbArc
 50
251.8058641175233
 51
288.1941358824781
  0
CIRCLE
  5
98
100
AcDbEntity
  8
MAIN0
  6
CONTINUOUS
 62
3
100
AcDbCircle
 10
433.8412765545863
 20
341.6072471165230
 30
0.0000000000000000
 40
3.000000000000000
  0
CIRCLE
  5
99
100
AcDbEntity
  8
MAIN0
  6
CONTINUOUS
 62
3
100
AcDbCircle
 10
433.8412765545863
 20
341.6072471165230
 30
0.0000000000000000
 40
2.500000000000000
  0
CIRCLE
  5
9A
100
AcDbEntity
  8
MAIN0
  6
CONTINUOUS
 62
3
100
AcDbCircle
 10
418.8412765545862
 20
206.6072471165230
 30
0.0000000000000000
 40
3.000000000000000
  0
CIRCLE
  5
9B
100
AcDbEntity
  8
MAIN0
  6
CONTINUOUS
 62
3
100
AcDbCircle
 10
418.8412765545862
 20
206.6072471165230
 30
0.0000000000000000
 40
2.500000000000000
  0
CIRCLE
  5
9C
100
AcDbEntity
  8
MAIN0
  6
CONTINUOUS
 62
3
100
AcDbCircle
 10
448.8412765545863
 20
206.6072471165230
 30
0.0000000000000000
 40
3.000000000000000
  0
CIRCLE
  5
9D
100
AcDbEntity
  8
MAIN0
  6
CONTINUOUS
 62
3
100
AcDbCircle
 10
448.8412765545863
 20
206.6072471165230
 30
0.0000000000000000
 40
2.500000000000000
  0
CIRCLE
  5
9E
100
AcDbEntity
  8
MAIN0
  6
CONTINUOUS
 62
3
100
AcDbCircle
 10
448.8412765545863
 20
239.6072471165230
 30
0.0000000000000000
 40
3.000000000000000
  0
CIRCLE
  5
9F
100
AcDbEntity
  8
MAIN0
  6
CONTINUOUS
 62
3
100
AcDbCircle
 10
448.8412765545863
 20
239.6072471165230
 30
0.0000000000000000
 40
2.500000000000000
  0
CIRCLE
  5
A0
100
AcDbEntity
  8
MAIN0
  6
CONTINUOUS
 62
3
100
AcDbCircle
 10
418.8412765545863
 20
239.6072471165230
 30
0.0000000000000000
 40
3.000000000000000
  0
CIRCLE
  5
A1
100
AcDbEntity
  8
MAIN0
  6
CONTINUOUS
 62
3
100
AcDbCircle
 10
418.8412765545863
 20
239.6072471165230
 30
0.0000000000000000
 40
2.500000000000000
  0
CIRCLE
  5
A2
100
AcDbEntity
  8
MAIN0
  6
CONTINUOUS
 62
3
100
AcDbCircle
 10
490.1329278005747
 20
244.1072471165229
 30
0.0000000000000000
 40
3.000000000000000
  0
CIRCLE
  5
A3
100
AcDbEntity
  8
MAIN0
  6
CONTINUOUS
 62
3
100
AcDbCircle
 10
490.1329278005747
 20
244.1072471165229
 30
0.0000000000000000
 40
2.500000000000000
  0
CIRCLE
  5
A4
100
AcDbEntity
  8
MAIN0
  6
CONTINUOUS
 62
3
100
AcDbCircle
 10
377.5496253085978
 20
244.1072471165230
 30
0.0000000000000000
 40
3.000000000000000
  0
CIRCLE
  5
A5
100
AcDbEntity
  8
MAIN0
  6
CONTINUOUS
 62
3
100
AcDbCircle
 10
377.5496253085978
 20
244.1072471165230
 30
0.0000000000000000
 40
2.500000000000000
  0
CIRCLE
  5
A6
100
AcDbEntity
  8
MAIN0
  6
CONTINUOUS
 62
3
100
AcDbCircle
 10
501.9630548194969
 20
298.6168660597563
 30
0.0000000000000000
 40
3.000000000000000
  0
CIRCLE
  5
A7
100
AcDbEntity
  8
MAIN0
  6
CONTINUOUS
 62
3
100
AcDbCircle
 10
501.9630548194969
 20
298.6168660597563
 30
0.0000000000000000
 40
2.500000000000000
  0
CIRCLE
  5
A8
100
AcDbEntity
  8
MAIN0
  6
CONTINUOUS
 62
3
100
AcDbCircle
 10
486.9630548194970
 20
324.5976281732895
 30
0.0000000000000000
 40
3.000000000000000
  0
CIRCLE
  5
A9
100
AcDbEntity
  8
MAIN0
  6
CONTINUOUS
 62
3
100
AcDbCircle
 10
486.9630548194970
 20
324.5976281732895
 30
0.0000000000000000
 40
2.500000000000000
  0
CIRCLE
  5
AA
100
AcDbEntity
  8
MAIN0
  6
CONTINUOUS
 62
3
100
AcDbCircle
 10
458.3842164946105
 20
308.0976281732895
 30
0.0000000000000000
 40
3.000000000000000
  0
CIRCLE
  5
AB
100
AcDbEntity
  8
MAIN0
  6
CONTINUOUS
 62
3
100
AcDbCircle
 10
458.3842164946105
 20
308.0976281732895
 30
0.0000000000000000
 40
2.500000000000000
  0
CIRCLE
  5
AC
100
AcDbEntity
  8
MAIN0
  6
CONTINUOUS
 62
3
100
AcDbCircle
 10
473.3842164946105
 20
282.1168660597564
 30
0.0000000000000000
 40
3.000000000000000
  0
CIRCLE
  5
AD
100
AcDbEntity
  8
MAIN0
  6
CONTINUOUS
 62
3
100
AcDbCircle
 10
473.3842164946105
 20
282.1168660597564
 30
0.0000000000000000
 40
2.500000000000000
  0
CIRCLE
  5
AE
100
AcDbEntity
  8
MAIN0
  6
CONTINUOUS
 62
3
100
AcDbCircle
 10
380.7194982896756
 20
324.5976281732895
 30
0.0000000000000000
 40
3.000000000000000
  0
CIRCLE
  5
AF
100
AcDbEntity
  8
MAIN0
  6
CONTINUOUS
 62
3
100
AcDbCircle
 10
380.7194982896756
 20
324.5976281732895
 30
0.0000000000000000
 40
2.500000000000000
  0
CIRCLE
  5
B0
100
AcDbEntity
  8
MAIN0
  6
CONTINUOUS
 62
3
100
AcDbCircle
 10
365.7194982896756
 20
298.6168660597563
 30
0.0000000000000000
 40
3.000000000000000
  0
CIRCLE
  5
B1
100
AcDbEntity
  8
MAIN0
  6
CONTINUOUS
 62
3
100
AcDbCircle
 10
365.7194982896756
 20
298.6168660597563
 30
0.0000000000000000
 40
2.500000000000000
  0
CIRCLE
  5
B2
100
AcDbEntity
  8
MAIN0
  6
CONTINUOUS
 62
3
100
AcDbCircle
 10
394.2983366145620
 20
282.1168660597563
 30
0.0000000000000000
 40
3.000000000000000
  0
CIRCLE
  5
B3
100
AcDbEntity
  8
MAIN0
  6
CONTINUOUS
 62
3
100
AcDbCircle
 10
394.2983366145620
 20
282.1168660597563
 30
0.0000000000000000
 40
2.500000000000000
  0
CIRCLE
  5
B4
100
AcDbEntity
  8
MAIN0
  6
CONTINUOUS
 62
3
100
AcDbCircle
 10
409.2983366145620
 20
308.0976281732894
 30
0.0000000000000000
 40
3.000000000000000
  0
CIRCLE
  5
B5
100
AcDbEntity
  8
MAIN0
  6
CONTINUOUS
 62
3
100
AcDbCircle
 10
409.2983366145620
 20
308.0976281732894
 30
0.0000000000000000
 40
2.500000000000000
  0
ARC
  5
B6
100
AcDbEntity
  8
MAIN0
  6
CENTER
 62
3
100
AcDbCircle
 10
433.8412765545863
 20
276.6072471165230
 30
0.0000000000000000
 40
65.00000000000000
100
AcDbArc
 50
83.16315962203571
 51
96.74076548186145
  0
ARC
  5
B7
100
AcDbEntity
  8
MAIN0
  6
CENTER
 62
3
100
AcDbCircle
 10
433.8412765545863
 20
276.6072471165230
 30
0.0000000000000000
 40
65.00000000000000
100
AcDbArc
 50
197.7213689810097
 51
216.0832807364626
  0
ARC
  5
B8
100
AcDbEntity
  8
MAIN0
  6
CENTER
 62
3
100
AcDbCircle
 10
433.8412765545863
 20
276.6072471165230
 30
0.0000000000000000
 40
65.00000000000000
100
AcDbArc
 50
324.2653746418395
 51
335.8999194027795
  0
LINE
  5
B9
100
AcDbEntity
  8
MAIN0
  6
HIDDEN
 62
3
100
AcDbLine
 10
430.9412765545867
 20
194.1072471165234
 30
0.0000000000000000
 11
431.7412765545867
 21
194.9072471165234
 31
0.0000000000000000
  0
LINE
  5
BA
100
AcDbEntity
  8
MAIN0
  6
HIDDEN
 62
3
100
AcDbLine
 10
431.7412765545867
 20
194.9072471165234
 30
0.0000000000000000
 11
435.9412765545866
 21
194.9072471165234
 31
0.0000000000000000
  0
LINE
  5
BB
100
AcDbEntity
  8
MAIN0
  6
HIDDEN
 62
3
100
AcDbLine
 10
435.9412765545866
 20
194.9072471165235
 30
0.0000000000000000
 11
436.7412765545867
 21
194.1072471165235
 31
0.0000000000000000
  0
LINE
  5
BC
100
AcDbEntity
  8
MAIN0
  6
HIDDEN
 62
3
100
AcDbLine
 10
431.3412765545867
 20
194.5072471165234
 30
0.0000000000000000
 11
431.3412765545867
 21
200.1072471165234
 31
0.0000000000000000
  0
LINE
  5
BD
100
AcDbEntity
  8
MAIN0
  6
HIDDEN
 62
3
100
AcDbLine
 10
431.3412765545867
 20
200.1072471165234
 30
0.0000000000000000
 11
436.3412765545867
 21
200.1072471165234
 31
0.0000000000000000
  0
LINE
  5
BE
100
AcDbEntity
  8
MAIN0
  6
HIDDEN
 62
3
100
AcDbLine
 10
436.3412765545867
 20
200.1072471165234
 30
0.0000000000000000
 11
436.3412765545867
 21
194.5072471165234
 31
0.0000000000000000
  0
LINE
  5
BF
100
AcDbEntity
  8
MAIN0
  6
HIDDEN
 62
3
100
AcDbLine
 10
505.6455520437744
 20
315.6385937685758
 30
0.0000000000000000
 11
451.1063498143427
 21
284.1503706800260
 31
0.0000000000000000
  0
LINE
  5
C0
100
AcDbEntity
  8
MAIN0
  6
HIDDEN
 62
3
100
AcDbLine
 10
449.0063498143427
 20
287.7876773759206
 30
0.0000000000000000
 11
503.5455520437744
 21
319.2759004644704
 31
0.0000000000000000
  0
LINE
  5
C1
100
AcDbEntity
  8
MAIN0
  6
HIDDEN
 62
3
100
AcDbLine
 10
505.6455520437744
 20
315.6385937685758
 30
0.0000000000000000
 11
503.5455520437744
 21
319.2759004644704
 31
0.0000000000000000
  0
LINE
  5
C2
100
AcDbEntity
  8
MAIN0
  6
HIDDEN
 62
3
100
AcDbLine
 10
503.5455520437743
 20
319.2759004644703
 30
0.0000000000000000
 11
503.8383723668019
 21
320.3687207874979
 31
0.0000000000000000
  0
LINE
  5
C3
100
AcDbEntity
  8
MAIN0
  6
HIDDEN
 62
3
100
AcDbLine
 10
498.8422199440953
 20
317.0223106259842
 30
0.0000000000000000
 11
503.6919622052881
 21
319.8223106259842
 31
0.0000000000000000
  0
LINE
  5
C4
100
AcDbEntity
  8
MAIN0
  6
HIDDEN
 62
3
100
AcDbLine
 10
501.3422199440953
 20
312.6921836070620
 30
0.0000000000000000
 11
498.8422199440953
 21
317.0223106259842
 31
0.0000000000000000
  0
LINE
  5
C5
100
AcDbEntity
  8
MAIN0
  6
HIDDEN
 62
3
100
AcDbLine
 10
506.1919622052881
 20
315.4921836070620
 30
0.0000000000000000
 11
501.3422199440953
 21
312.6921836070620
 31
0.0000000000000000
  0
LINE
  5
C6
100
AcDbEntity
  8
MAIN0
  6
HIDDEN
 62
3
100
AcDbLine
 10
506.7383723668019
 20
315.3457734455482
 30
0.0000000000000000
 11
505.6455520437743
 21
315.6385937685758
 31
0.0000000000000000
  0
LINE
  5
C7
100
AcDbEntity
  8
MAIN0
  6
HIDDEN
 62
3
100
AcDbLine
 10
364.1370010653978
 20
319.2759004644698
 30
0.0000000000000000
 11
418.6762032948295
 21
287.7876773759199
 31
0.0000000000000000
  0
LINE
  5
C8
100
AcDbEntity
  8
MAIN0
  6
HIDDEN
 62
3
100
AcDbLine
 10
416.5762032948295
 20
284.1503706800253
 30
0.0000000000000000
 11
362.0370010653978
 21
315.6385937685752
 31
0.0000000000000000
  0
LINE
  5
C9
100
AcDbEntity
  8
MAIN0
  6
HIDDEN
 62
3
100
AcDbLine
 10
364.1370010653978
 20
319.2759004644698
 30
0.0000000000000000
 11
362.0370010653978
 21
315.6385937685752
 31
0.0000000000000000
  0
LINE
  5
CA
100
AcDbEntity
  8
MAIN0
  6
HIDDEN
 62
3
100
AcDbLine
 10
362.0370010653980
 20
315.6385937685752
 30
0.0000000000000000
 11
360.9441807423704
 21
315.3457734455476
 31
0.0000000000000000
  0
LINE
  5
CB
100
AcDbEntity
  8
MAIN0
  6
HIDDEN
 62
3
100
AcDbLine
 10
366.3403331650769
 20
312.6921836070613
 30
0.0000000000000000
 11
361.4905909038840
 21
315.4921836070614
 31
0.0000000000000000
  0
LINE
  5
CC
100
AcDbEntity
  8
MAIN0
  6
HIDDEN
 62
3
100
AcDbLine
 10
368.8403331650769
 20
317.0223106259836
 30
0.0000000000000000
 11
366.3403331650769
 21
312.6921836070613
 31
0.0000000000000000
  0
LINE
  5
CD
100
AcDbEntity
  8
MAIN0
  6
HIDDEN
 62
3
100
AcDbLine
 10
363.9905909038840
 20
319.8223106259835
 30
0.0000000000000000
 11
368.8403331650769
 21
317.0223106259836
 31
0.0000000000000000
  0
LINE
  5
CE
100
AcDbEntity
  8
MAIN0
  6
HIDDEN
 62
3
100
AcDbLine
 10
363.8441807423703
 20
320.3687207874974
 30
0.0000000000000000
 11
364.1370010653978
 21
319.2759004644698
 31
0.0000000000000000
  0
MTEXT
  5
CF
100
AcDbEntity
  8
MAIN0
  6
CONTINUOUS
 62
3
100
AcDbMText
 10
435.8412765545863
 20
326.1072471160273
 30
0.0000000000000000
 40
4.000000000000000
 41
0.0000000000000000
 71
     1
 72
     1
  1
{\H0.84x;{３}}
 11
-1.000000000000000
 21
1.898821519314986e-015
 31
0.0000000000000000
  7
KNJYOKO
  0
MTEXT
  5
D0
100
AcDbEntity
  8
MAIN0
  6
CONTINUOUS
 62
3
100
AcDbMText
 10
389.9730190676858
 20
253.5892979243398
 30
0.0000000000000000
 40
4.000000000000000
 41
0.0000000000000000
 71
     1
 72
     1
  1
{\H0.84x;{２}}
 11
0.4999999999999962
 21
-0.8660254037844408
 31
0.0000000000000000
  7
KNJYOKO
  0
MTEXT
  5
D1
100
AcDbEntity
  8
MAIN0
  6
CONTINUOUS
 62
3
100
AcDbMText
 10
475.8595340414879
 20
250.3850039303366
 30
0.0000000000000000
 40
4.000000000000000
 41
0.0000000000000000
 71
     1
 72
     1
  1
{\H0.84x;{１}}
 11
0.4999999999999999
 21
0.8660254037844387
 31
0.0000000000000000
  7
KNJYOKO
  0
ELLIPSE
  5
D2
100
AcDbEntity
  8
MAIN0
  6
CONTINUOUS
 62
3
100
AcDbEllipse
 10
433.8412765545863
 20
299.6776201589515
 30
0.0000000000000000
 11
0.0000000000000000
 21
16.48981806942831
 31
0.0000000000000000
210
0.0000000000000000
220
0.0000000000000000
230
1.000000000000000
 40
0.9702957262860031
 41
2.546732617441265
 42
3.736452689738309
  0
LINE
  5
D3
100
AcDbEntity
  8
MAIN0
  6
CONTINUOUS
 62
3
100
AcDbLine
 10
424.8749911440998
 20
287.1098499291546
 30
0.0000000000000000
 11
424.8749911440985
 21
286.0203085702561
 31
0.0000000000000000
  0
LINE
  5
D4
100
AcDbEntity
  8
MAIN0
  6
CONTINUOUS
 62
3
100
AcDbLine
 10
442.8075619650728
 20
287.1098499291546
 30
0.0000000000000000
 11
442.8075619650739
 21
286.0203085702561
 31
0.0000000000000000
  0
LINE
  5
D5
100
AcDbEntity
  8
MAIN0
  6
CONTINUOUS
 62
3
100
AcDbLine
 10
429.2288984182326
 20
263.5909147671441
 30
0.0000000000000000
 11
430.1724689135131
 21
264.1356854465923
 31
0.0000000000000000
  0
LINE
  5
D6
100
AcDbEntity
  8
MAIN0
  6
CONTINUOUS
 62
3
100
AcDbLine
 10
420.2626130077460
 20
279.1209766532702
 30
0.0000000000000000
 11
421.2061835030254
 21
279.6657473327206
 31
0.0000000000000000
  0
LINE
  5
D7
100
AcDbEntity
  8
MAIN0
  6
CONTINUOUS
 62
3
100
AcDbLine
 10
447.4199401014263
 20
279.1209766532703
 30
0.0000000000000000
 11
446.4763696061472
 21
279.6657473327205
 31
0.0000000000000000
  0
LINE
  5
D8
100
AcDbEntity
  8
MAIN0
  6
CONTINUOUS
 62
3
100
AcDbLine
 10
438.4536546909399
 20
263.5909147671441
 30
0.0000000000000000
 11
437.5100841956594
 21
264.1356854465923
 31
0.0000000000000000
  0
ELLIPSE
  5
D9
100
AcDbEntity
  8
MAIN0
  6
CONTINUOUS
 62
3
100
AcDbEllipse
 10
413.8617474250594
 20
265.0720605953088
 30
0.0000000000000000
 11
-14.28060135190859
 21
-8.244909034714150
 31
0.0000000000000000
210
0.0000000000000000
220
0.0000000000000000
230
1.000000000000000
 40
0.9702957262860031
 41
2.545749343581622
 42
3.737435963597991
  0
ELLIPSE
  5
DA
100
AcDbEntity
  8
MAIN0
  6
CONTINUOUS
 62
3
100
AcDbEllipse
 10
453.8208056841131
 20
265.0720605953086
 30
0.0000000000000000
 11
14.28060135190859
 21
-8.244909034714150
 31
0.0000000000000000
210
0.0000000000000000
220
0.0000000000000000
230
1.000000000000000
 40
0.9702957262860031
 41
2.545749343581616
 42
3.737435963597991
  0
LINE
  5
DB
100
AcDbEntity
  8
MAIN0
  6
CONTINUOUS
 62
3
100
AcDbLine
 10
131.8412765545863
 20
194.7072471165229
 30
0.0000000000000000
 11
131.8412765545863
 21
257.9520435794440
 31
0.0000000000000000
  0
LINE
  5
DC
100
AcDbEntity
  8
MAIN0
  6
CONTINUOUS
 62
3
100
AcDbLine
 10
131.8412765545863
 20
294.2102652657846
 30
0.0000000000000000
 11
131.8412765545863
 21
358.5072471165230
 31
0.0000000000000000
  0
LINE
  5
DD
100
AcDbEntity
  8
MAIN0
  6
CENTER
 62
3
100
AcDbLine
 10
537.3412765545863
 20
276.6072471165230
 30
0.0000000000000000
 11
330.3412765545862
 21
276.6072471165230
 31
0.0000000000000000
  0
LINE
  5
DE
100
AcDbEntity
  8
MAIN0
  6
CONTINUOUS
 62
3
100
AcDbLine
 10
192.1862882502985
 20
326.5531932708891
 30
0.0000000000000000
 11
200.9085684392045
 21
324.3784845711513
 31
0.0000000000000000
  0
LINE
  5
DF
100
AcDbEntity
  8
MAIN0
  6
CONTINUOUS
 62
3
100
AcDbLine
 10
218.8412765545860
 20
271.5072471165239
 30
0.0000000000000000
 11
218.8412765545860
 21
271.6072471165230
 31
0.0000000000000000
  0
LINE
  5
E0
100
AcDbEntity
  8
MAIN0
  6
CONTINUOUS
 62
3
100
AcDbLine
 10
218.8412765545866
 20
281.6072471165230
 30
0.0000000000000000
 11
218.8412765545866
 21
281.7072471165239
 31
0.0000000000000000
  0
LINE
  5
E1
100
AcDbEntity
  8
MAIN0
  6
CONTINUOUS
 62
3
100
AcDbLine
 10
221.8412765545867
 20
282.6072471165237
 30
0.0000000000000000
 11
222.7412765545865
 21
282.6072471165236
 31
0.0000000000000000
  0
LINE
  5
E2
100
AcDbEntity
  8
MAIN0
  6
CONTINUOUS
 62
3
100
AcDbLine
 10
231.7412765545862
 20
282.6072471165231
 30
0.0000000000000000
 11
233.4948663930646
 21
282.6072471165230
 31
0.0000000000000000
  0
LINE
  5
E3
100
AcDbEntity
  8
MAIN0
  6
CONTINUOUS
 62
3
100
AcDbLine
 10
222.7412765545856
 20
270.6072471165236
 30
0.0000000000000000
 11
221.8412765545859
 21
270.6072471165237
 31
0.0000000000000000
  0
LINE
  5
E4
100
AcDbEntity
  8
MAIN0
  6
CONTINUOUS
 62
3
100
AcDbLine
 10
233.4948663930645
 20
270.6072471165230
 30
0.0000000000000000
 11
231.7412765545860
 21
270.6072471165231
 31
0.0000000000000000
  0
LINE
  5
E5
100
AcDbEntity
  8
MAIN0
  6
CONTINUOUS
 62
3
100
AcDbLine
 10
221.8412765545859
 20
270.6072471165237
 30
0.0000000000000000
 11
221.8412765545859
 21
271.5072471165234
 31
0.0000000000000000
  0
LINE
  5
E6
100
AcDbEntity
  8
MAIN0
  6
CONTINUOUS
 62
3
100
AcDbLine
 10
221.8412765545866
 20
281.7072471165237
 30
0.0000000000000000
 11
221.8412765545867
 21
282.6072471165237
 31
0.0000000000000000
  0
LINE
  5
E7
100
AcDbEntity
  8
MAIN0
  6
CONTINUOUS
 62
3
100
AcDbLine
 10
188.3412765545862
 20
200.1072471165229
 30
0.0000000000000000
 11
188.7412765545863
 21
200.1072471165229
 31
0.0000000000000000
  0
LINE
  5
E8
100
AcDbEntity
  8
MAIN0
  6
CONTINUOUS
 62
3
100
AcDbLine
 10
192.9412765545862
 20
200.1072471165229
 30
0.0000000000000000
 11
193.3412765545862
 21
200.1072471165229
 31
0.0000000000000000
  0
LINE
  5
E9
100
AcDbEntity
  8
MAIN0
  6
CONTINUOUS
 62
3
100
AcDbLine
 10
188.3412765545862
 20
194.5072471165229
 30
0.0000000000000000
 11
188.3412765545862
 21
196.4072471165228
 31
0.0000000000000000
  0
LINE
  5
EA
100
AcDbEntity
  8
MAIN0
  6
CONTINUOUS
 62
3
100
AcDbLine
 10
188.3412765545862
 20
199.7072471165229
 30
0.0000000000000000
 11
188.3412765545862
 21
200.1072471165229
 31
0.0000000000000000
  0
LINE
  5
EB
100
AcDbEntity
  8
MAIN0
  6
CONTINUOUS
 62
3
100
AcDbLine
 10
193.3412765545862
 20
196.4072471165229
 30
0.0000000000000000
 11
193.3412765545862
 21
194.5072471165229
 31
0.0000000000000000
  0
LINE
  5
EC
100
AcDbEntity
  8
MAIN0
  6
CONTINUOUS
 62
3
100
AcDbLine
 10
193.3412765545862
 20
200.1072471165229
 30
0.0000000000000000
 11
193.3412765545862
 21
199.7072471165229
 31
0.0000000000000000
  0
LINE
  5
ED
100
AcDbEntity
  8
MAIN0
  6
CONTINUOUS
 62
3
100
AcDbLine
 10
192.9412765545862
 20
196.1763070088470
 30
0.0000000000000000
 11
192.9412765545862
 21
194.9072471165229
 31
0.0000000000000000
  0
LINE
  5
EE
100
AcDbEntity
  8
MAIN0
  6
CONTINUOUS
 62
3
100
AcDbLine
 10
192.9412765545862
 20
261.1072471165230
 30
0.0000000000000000
 11
192.9412765545862
 21
200.1072471165229
 31
0.0000000000000000
  0
LINE
  5
EF
100
AcDbEntity
  8
MAIN0
  6
CONTINUOUS
 62
3
100
AcDbLine
 10
188.7412765545863
 20
194.9072471165229
 30
0.0000000000000000
 11
188.7412765545863
 21
196.1763070088470
 31
0.0000000000000000
  0
LINE
  5
F0
100
AcDbEntity
  8
MAIN0
  6
CONTINUOUS
 62
3
100
AcDbLine
 10
188.7412765545863
 20
200.1072471165229
 30
0.0000000000000000
 11
188.7412765545863
 21
261.1072471165230
 31
0.0000000000000000
  0
LINE
  5
F1
100
AcDbEntity
  8
MAIN0
  6
CONTINUOUS
 62
3
100
AcDbLine
 10
175.3414579111019
 20
259.1072471165230
 30
0.0000000000000000
 11
175.3414579111019
 21
261.6072471165230
 31
0.0000000000000000
  0
LINE
  5
F2
100
AcDbEntity
  8
MAIN0
  6
CONTINUOUS
 62
3
100
AcDbLine
 10
175.3414579111019
 20
291.6072471165229
 30
0.0000000000000000
 11
175.3414579111019
 21
294.1072471165229
 31
0.0000000000000000
  0
LINE
  5
F3
100
AcDbEntity
  8
MAIN0
  6
CONTINUOUS
 62
3
100
AcDbLine
 10
179.3414579111019
 20
259.1072471165230
 30
0.0000000000000000
 11
179.3414579111019
 21
261.6072471165230
 31
0.0000000000000000
  0
LINE
  5
F4
100
AcDbEntity
  8
MAIN0
  6
CONTINUOUS
 62
3
100
AcDbLine
 10
179.3414579111019
 20
291.6072471165229
 30
0.0000000000000000
 11
179.3414579111019
 21
294.1072471165230
 31
0.0000000000000000
  0
LINE
  5
F5
100
AcDbEntity
  8
MAIN0
  6
CONTINUOUS
 62
3
100
AcDbLine
 10
233.8412765545863
 20
276.6072471165230
 30
0.0000000000000000
 11
233.8412765545863
 21
283.1878020893324
 31
0.0000000000000000
  0
LINE
  5
F6
100
AcDbEntity
  8
MAIN0
  6
HIDDEN
 62
3
100
AcDbLine
 10
233.8412765545863
 20
283.1878020893324
 30
0.0000000000000000
 11
233.8412765545863
 21
289.6072471165230
 31
0.0000000000000000
  0
LINE
  5
F7
100
AcDbEntity
  8
MAIN0
  6
HIDDEN
 62
3
100
AcDbLine
 10
201.8412765545862
 20
300.7072471165229
 30
0.0000000000000000
 11
201.8412765545863
 21
324.1459343195076
 31
0.0000000000000000
  0
LINE
  5
F8
100
AcDbEntity
  8
MAIN0
  6
CONTINUOUS
 62
3
100
AcDbLine
 10
201.8412765545863
 20
324.1459343195076
 30
0.0000000000000000
 11
201.8412765545863
 21
358.1072471165230
 31
0.0000000000000000
  0
ELLIPSE
  5
F9
100
AcDbEntity
  8
MAIN0
  6
CONTINUOUS
 62
3
100
AcDbEllipse
 10
177.3414579111019
 20
292.8572471165229
 30
0.0000000000000000
 11
-2.000000000000000
 21
0.0000000000000000
 31
0.0000000000000000
210
0.0000000000000000
220
0.0000000000000000
230
1.000000000000000
 40
0.6250000000000000
 41
0.0000000000000000
 42
6.283185307179586
  0
ELLIPSE
  5
FA
100
AcDbEntity
  8
MAIN0
  6
CONTINUOUS
 62
3
100
AcDbEllipse
 10
177.3414579111019
 20
260.3572471165230
 30
0.0000000000000000
 11
-2.000000000000000
 21
0.0000000000000000
 31
0.0000000000000000
210
0.0000000000000000
220
0.0000000000000000
230
1.000000000000000
 40
0.6250000000000000
 41
0.0000000000000000
 42
6.283185307179586
  0
DIMENSION
  5
105
100
AcDbEntity
  8
MAIN0
  6
CONTINUOUS
 62
3
100
AcDbDimension
  2
*D0
 10
244.4973192537327
 20
299.3072471165229
 30
0.0000000000000000
 11
243.9973192537327
 21
301.3072471165227
 31
0.0000000000000000
 70
32
  3
MAIN001
100
AcDbAlignedDimension
 13
226.6339075727672
 23
303.3072471165224
 33
0.0000000000000000
 14
234.1339075727705
 24
299.3072471165229
 34
0.0000000000000000
 50
90.00000000000000
100
AcDbRotatedDimension
1001
ACAD
1000
DSTYLE
1002
{
1070
   173
1070
     1
1070
     6
1000
_OPEN
1070
     7
1000
_OPEN
1070
    41
1040
2.000000
1070
   287
1070
     0
1002
}
  0
DIMENSION
  5
10E
100
AcDbEntity
  8
MAIN0
  6
CONTINUOUS
 62
3
100
AcDbDimension
  2
*D1
 10
250.6384817408414
 20
299.3072471165230
 30
0.0000000000000000
 11
250.1384817408414
 21
306.3072471165230
 31
0.0000000000000000
 70
32
  3
MAIN001
100
AcDbAlignedDimension
 13
213.0621122687393
 23
313.3072471165230
 33
0.0000000000000000
 14
234.1339075727729
 24
299.3072471165230
 34
0.0000000000000000
 50
90.00000000000000
100
AcDbRotatedDimension
1001
ACAD
1000
DSTYLE
1002
{
1070
   173
1070
     1
1070
     6
1000
_OPEN
1070
     7
1000
_OPEN
1070
    41
1040
2.000000
1002
}
  0
INSERT
  5
116
100
AcDbEntity
  8
MAIN0
  6
CONTINUOUS
 62
3
100
AcDbBlockReference
  2
D2
 10
236.9325978344573
 20
276.6072471165230
 30
0.0000000000000000
 50
0.0000000000000000
  0
INSERT
  5
11E
100
AcDbEntity
  8
MAIN0
  6
CONTINUOUS
 62
3
100
AcDbBlockReference
  2
D3
 10
236.9325978344573
 20
276.6072471165230
 30
0.0000000000000000
 50
0.0000000000000000
  0
DIMENSION
  5
127
100
AcDbEntity
  8
MAIN0
  6
CONTINUOUS
 62
3
100
AcDbDimension
  2
*D4
 10
268.8845097758206
 20
276.6072471165230
 30
0.0000000000000000
 11
268.3845097758206
 21
299.4572471165229
 31
0.0000000000000000
 70
32
  1
\A1;MAX.46.9
  3
MAIN001
100
AcDbAlignedDimension
 13
234.1339075727754
 23
322.3072471165229
 33
0.0000000000000000
 14
236.9325978344573
 24
276.6072471165230
 34
0.0000000000000000
 50
90.00000000000000
100
AcDbRotatedDimension
1001
ACAD
1000
DSTYLE
1002
{
1070
   173
1070
     1
1070
     6
1000
_OPEN
1070
     7
1000
_OPEN
1070
    41
1040
2.000000
1002
}
  0
LINE
  5
128
100
AcDbEntity
  8
MAIN0
  6
PHANTOM
 62
3
100
AcDbLine
 10
234.4471365343436
 20
321.1335682096423
 30
0.0000000000000000
 11
238.8412765545873
 21
321.1335682096423
 31
0.0000000000000000
  0
LINE
  5
129
100
AcDbEntity
  8
MAIN0
  6
PHANTOM
 62
3
100
AcDbLine
 10
238.8412765545874
 20
321.1335682096423
 30
0.0000000000000000
 11
238.8412765545863
 21
298.1335682096423
 31
0.0000000000000000
  0
DIMENSION
  5
132
100
AcDbEntity
  8
MAIN0
  6
CONTINUOUS
 62
3
100
AcDbDimension
  2
*D5
 10
221.1339075727672
 20
343.1002766075509
 30
0.0000000000000000
 11
227.6339075727714
 21
343.6002766075509
 31
0.0000000000000000
 70
32
  3
MAIN001
100
AcDbAlignedDimension
 13
234.1339075727755
 23
322.3072471165229
 33
0.0000000000000000
 14
221.1339075727672
 24
323.8043616646633
 34
0.0000000000000000
100
AcDbRotatedDimension
1001
ACAD
1000
DSTYLE
1002
{
1070
   173
1070
     1
1070
     6
1000
_OPEN
1070
     7
1000
_OPEN
1070
    41
1040
2.000000
1002
}
  0
LEADER
  5
133
100
AcDbEntity
  8
MAIN0
  6
CONTINUOUS
 62
3
100
AcDbLeader
  3
MAIN001
 73
     0
 74
     0
 75
     1
 40
3.099999904632568
 41
15.60100000894070
 76
     3
 10
206.4866900285529
 20
316.3072471165233
 30
0.0000000000000000
 10
215.1673425960883
 20
352.4021802786640
 30
0.0000000000000000
 10
216.9523425434276
 20
352.4021802786640
 30
0.0000000000000000
340
134
213
-0.001000000000004775
223
-0.5000000000000000
233
0.0000000000000000
1001
ACAD
1000
DSTYLE
1002
{
1070
   147
1040
0.0
1070
    77
1070
     1
1070
   173
1070
     1
1070
     6
1000
_OPEN
1070
     7
1000
_OPEN
1002
}
  0
MTEXT
  5
134
102
{ACAD_REACTORS
330
133
102
}
100
AcDbEntity
  8
MAIN0
  6
CONTINUOUS
 62
3
100
AcDbMText
 10
216.9533425434276
 20
356.0021801832966
 30
0.0000000000000000
 40
3.099999904632568
 41
0.0000000000000000
 71
     1
 72
     1
  1
{\H0.70x;{M6 深さ12}}
 11
1.000000000000000
 21
0.0000000000000000
 31
0.0000000000000000
  7
KNJYOKO
  0
MTEXT
  5
135
100
AcDbEntity
  8
MAIN0
  6
CONTINUOUS
 62
3
100
AcDbMText
 10
269.2284548365154
 20
292.0222574972724
 30
0.0000000000000000
 40
3.099999904632568
 41
0.0000000000000000
 71
     1
 72
     1
  1
{\H0.62x;{MIN.44.5}}
 11
6.123233995736766e-017
 21
1.000000000000000
 31
0.0000000000000000
  7
STANDARD
  0
INSERT
  5
13D
100
AcDbEntity
  8
MAIN0
  6
CONTINUOUS
 62
3
100
AcDbBlockReference
  2
D6
 10
236.9325978344573
 20
276.6072471165230
 30
0.0000000000000000
 50
0.0000000000000000
  0
LINE
  5
13E
100
AcDbEntity
  8
MAIN0
  6
HIDDEN
 62
3
100
AcDbLine
 10
508.5187571245318
 20
311.0620565881396
 30
0.0000000000000000
 11
500.3781183289581
 21
306.3620565881396
 31
0.0000000000000000
  0
LINE
  5
13F
100
AcDbEntity
  8
MAIN0
  6
HIDDEN
 62
3
100
AcDbLine
 10
508.5187571245319
 20
311.0620565881396
 30
0.0000000000000000
 11
509.3383723668025
 21
310.8424413458689
 31
0.0000000000000000
  0
LINE
  5
140
100
AcDbEntity
  8
MAIN0
  6
HIDDEN
 62
3
100
AcDbLine
 10
501.0187571245319
 20
324.0524376449062
 30
0.0000000000000000
 11
501.2383723668025
 21
324.8720528871768
 31
0.0000000000000000
  0
LINE
  5
141
100
AcDbEntity
  8
MAIN0
  6
HIDDEN
 62
3
100
AcDbLine
 10
501.0187571245318
 20
324.0524376449062
 30
0.0000000000000000
 11
492.8781183289581
 21
319.3524376449062
 31
0.0000000000000000
  0
LINE
  5
142
100
AcDbEntity
  8
MAIN0
  6
HIDDEN
 62
3
100
AcDbLine
 10
500.3781183289580
 20
306.3620565881396
 30
0.0000000000000000
 11
492.8781183289580
 21
319.3524376449062
 31
0.0000000000000000
  0
LINE
  5
143
100
AcDbEntity
  8
MAIN0
  6
HIDDEN
 62
3
100
AcDbLine
 10
494.6852980059305
 20
314.6223106259840
 30
0.0000000000000000
 11
494.9781183289581
 21
315.7151309490116
 31
0.0000000000000000
  0
LINE
  5
144
100
AcDbEntity
  8
MAIN0
  6
HIDDEN
 62
3
100
AcDbLine
 10
471.5624197248856
 20
301.2723106259847
 30
0.0000000000000000
 11
494.6852980059306
 21
314.6223106259840
 31
0.0000000000000000
  0
LINE
  5
145
100
AcDbEntity
  8
MAIN0
  6
HIDDEN
 62
3
100
AcDbLine
 10
497.1852980059305
 20
310.2921836070618
 30
0.0000000000000000
 11
474.0624197248856
 21
296.9421836070625
 31
0.0000000000000000
  0
LINE
  5
146
100
AcDbEntity
  8
MAIN0
  6
HIDDEN
 62
3
100
AcDbLine
 10
497.1852980059305
 20
310.2921836070618
 30
0.0000000000000000
 11
494.6852980059306
 21
314.6223106259840
 31
0.0000000000000000
  0
LINE
  5
147
100
AcDbEntity
  8
MAIN0
  6
HIDDEN
 62
3
100
AcDbLine
 10
498.2781183289579
 20
309.9993632840342
 30
0.0000000000000000
 11
497.1852980059304
 21
310.2921836070618
 31
0.0000000000000000
  0
LINE
  5
148
100
AcDbEntity
  8
MAIN0
  6
HIDDEN
 62
3
100
AcDbLine
 10
497.8683107078227
 20
310.1091709051696
 30
0.0000000000000000
 11
491.1999150986823
 21
306.2591709051698
 31
0.0000000000000000
  0
LINE
  5
149
100
AcDbEntity
  8
MAIN0
  6
HIDDEN
 62
3
100
AcDbLine
 10
488.1999150986825
 20
311.4553233278765
 30
0.0000000000000000
 11
494.8683107078228
 21
315.3053233278763
 31
0.0000000000000000
  0
LINE
  5
14A
100
AcDbEntity
  8
MAIN0
  6
HIDDEN
 62
3
100
AcDbLine
 10
491.1999150986824
 20
306.2591709051698
 30
0.0000000000000000
 11
488.1999150986825
 21
311.4553233278765
 31
0.0000000000000000
  0
LINE
  5
14B
100
AcDbEntity
  8
MAIN0
  6
HIDDEN
 62
3
100
AcDbLine
 10
366.6637959846408
 20
324.0524376449063
 30
0.0000000000000000
 11
374.8044347802145
 21
319.3524376449063
 31
0.0000000000000000
  0
LINE
  5
14C
100
AcDbEntity
  8
MAIN0
  6
HIDDEN
 62
3
100
AcDbLine
 10
366.6637959846407
 20
324.0524376449063
 30
0.0000000000000000
 11
366.4441807423700
 21
324.8720528871770
 31
0.0000000000000000
  0
LINE
  5
14D
100
AcDbEntity
  8
MAIN0
  6
HIDDEN
 62
3
100
AcDbLine
 10
359.1637959846408
 20
311.0620565881397
 30
0.0000000000000000
 11
358.3441807423701
 21
310.8424413458691
 31
0.0000000000000000
  0
LINE
  5
14E
100
AcDbEntity
  8
MAIN0
  6
HIDDEN
 62
3
100
AcDbLine
 10
359.1637959846408
 20
311.0620565881397
 30
0.0000000000000000
 11
367.3044347802145
 21
306.3620565881397
 31
0.0000000000000000
  0
LINE
  5
14F
100
AcDbEntity
  8
MAIN0
  6
HIDDEN
 62
3
100
AcDbLine
 10
374.8044347802145
 20
319.3524376449062
 30
0.0000000000000000
 11
367.3044347802145
 21
306.3620565881396
 31
0.0000000000000000
  0
LINE
  5
150
100
AcDbEntity
  8
MAIN0
  6
HIDDEN
 62
3
100
AcDbLine
 10
370.4972551032420
 20
310.2921836070619
 30
0.0000000000000000
 11
369.4044347802144
 21
309.9993632840344
 31
0.0000000000000000
  0
LINE
  5
151
100
AcDbEntity
  8
MAIN0
  6
HIDDEN
 62
3
100
AcDbLine
 10
393.6201333842862
 20
296.9421836070611
 30
0.0000000000000000
 11
370.4972551032420
 21
310.2921836070619
 31
0.0000000000000000
  0
LINE
  5
152
100
AcDbEntity
  8
MAIN0
  6
HIDDEN
 62
3
100
AcDbLine
 10
372.9972551032421
 20
314.6223106259840
 30
0.0000000000000000
 11
396.1201333842862
 21
301.2723106259833
 31
0.0000000000000000
  0
LINE
  5
153
100
AcDbEntity
  8
MAIN0
  6
HIDDEN
 62
3
100
AcDbLine
 10
372.9972551032421
 20
314.6223106259840
 30
0.0000000000000000
 11
370.4972551032420
 21
310.2921836070619
 31
0.0000000000000000
  0
LINE
  5
154
100
AcDbEntity
  8
MAIN0
  6
HIDDEN
 62
3
100
AcDbLine
 10
372.7044347802146
 20
315.7151309490115
 30
0.0000000000000000
 11
372.9972551032421
 21
314.6223106259840
 31
0.0000000000000000
  0
LINE
  5
155
100
AcDbEntity
  8
MAIN0
  6
HIDDEN
 62
3
100
AcDbLine
 10
372.8142424013499
 20
315.3053233278763
 30
0.0000000000000000
 11
379.4826380104900
 21
311.4553233278760
 31
0.0000000000000000
  0
LINE
  5
156
100
AcDbEntity
  8
MAIN0
  6
HIDDEN
 62
3
100
AcDbLine
 10
376.4826380104898
 20
306.2591709051695
 30
0.0000000000000000
 11
369.8142424013498
 21
310.1091709051697
 31
0.0000000000000000
  0
LINE
  5
157
100
AcDbEntity
  8
MAIN0
  6
HIDDEN
 62
3
100
AcDbLine
 10
379.4826380104900
 20
311.4553233278760
 30
0.0000000000000000
 11
376.4826380104898
 21
306.2591709051695
 31
0.0000000000000000
  0
LINE
  5
158
100
AcDbEntity
  8
MAIN0
  6
CONTINUOUS
 62
3
100
AcDbLine
 10
142.3412765545863
 20
194.6072471165229
 30
0.0000000000000000
 11
156.3412765545863
 21
194.6072471165229
 31
0.0000000000000000
  0
LINE
  5
159
100
AcDbEntity
  8
MAIN0
  6
CONTINUOUS
 62
3
100
AcDbLine
 10
142.3412765545863
 20
358.6072471165230
 30
0.0000000000000000
 11
156.3412765545863
 21
358.6072471165230
 31
0.0000000000000000
  0
LINE
  5
15A
100
AcDbEntity
  8
MAIN0
  6
CONTINUOUS
 62
3
100
AcDbLine
 10
156.3412765545863
 20
358.6072471165229
 30
0.0000000000000000
 11
156.8412765545863
 21
359.1072471165229
 31
0.0000000000000000
  0
LINE
  5
15B
100
AcDbEntity
  8
MAIN0
  6
CONTINUOUS
 62
3
100
AcDbLine
 10
132.4412765545863
 20
359.1072471165230
 30
0.0000000000000000
 11
141.8412765545863
 21
359.1072471165230
 31
0.0000000000000000
  0
LINE
  5
15C
100
AcDbEntity
  8
MAIN0
  6
CONTINUOUS
 62
3
100
AcDbLine
 10
141.8412765545863
 20
359.1072471165229
 30
0.0000000000000000
 11
142.3412765545863
 21
358.6072471165229
 31
0.0000000000000000
  0
LINE
  5
15D
100
AcDbEntity
  8
MAIN0
  6
CONTINUOUS
 62
3
100
AcDbLine
 10
156.3412765545863
 20
194.6072471165229
 30
0.0000000000000000
 11
156.8412765545863
 21
194.1072471165229
 31
0.0000000000000000
  0
LINE
  5
15E
100
AcDbEntity
  8
MAIN0
  6
CONTINUOUS
 62
3
100
AcDbLine
 10
132.4412765545862
 20
194.1072471165229
 30
0.0000000000000000
 11
141.8412765545863
 21
194.1072471165229
 31
0.0000000000000000
  0
LINE
  5
15F
100
AcDbEntity
  8
MAIN0
  6
CONTINUOUS
 62
3
100
AcDbLine
 10
141.8412765545863
 20
194.1072471165229
 30
0.0000000000000000
 11
142.3412765545863
 21
194.6072471165229
 31
0.0000000000000000
  0
LINE
  5
160
100
AcDbEntity
  8
MAIN0
  6
CONTINUOUS
 62
3
100
AcDbLine
 10
142.8412765545863
 20
194.1072471165229
 30
0.0000000000000000
 11
155.8412765545863
 21
194.1072471165229
 31
0.0000000000000000
  0
LINE
  5
161
100
AcDbEntity
  8
MAIN0
  6
CONTINUOUS
 62
3
100
AcDbLine
 10
156.8412765545863
 20
194.1072471165229
 30
0.0000000000000000
 11
200.8412765545862
 21
194.1072471165229
 31
0.0000000000000000
  0
LINE
  5
162
100
AcDbEntity
  8
MAIN0
  6
CONTINUOUS
 62
3
100
AcDbLine
 10
142.8412765545863
 20
359.1072471165230
 30
0.0000000000000000
 11
155.8412765545863
 21
359.1072471165230
 31
0.0000000000000000
  0
LINE
  5
163
100
AcDbEntity
  8
MAIN0
  6
CONTINUOUS
 62
3
100
AcDbLine
 10
156.8412765545863
 20
359.1072471165230
 30
0.0000000000000000
 11
200.8412765545863
 21
359.1072471165230
 31
0.0000000000000000
  0
DIMENSION
  5
16C
100
AcDbEntity
  8
MAIN0
  6
CONTINUOUS
 62
3
100
AcDbDimension
  2
*D7
 10
204.1339075727729
 20
343.1002766075509
 30
0.0000000000000000
 11
207.6339075727729
 21
343.6002766075509
 31
0.0000000000000000
 70
32
  3
MAIN001
100
AcDbAlignedDimension
 13
211.1339075727729
 23
321.1072471165230
 33
0.0000000000000000
 14
204.1339075727729
 24
323.5743172064869
 34
0.0000000000000000
100
AcDbRotatedDimension
1001
ACAD
1000
DSTYLE
1002
{
1070
   173
1070
     1
1070
     6
1000
_OPEN
1070
     7
1000
_OPEN
1070
    41
1040
2.000000
1002
}
  0
DIMENSION
  5
175
100
AcDbEntity
  8
MAIN0
  6
CONTINUOUS
 62
3
100
AcDbDimension
  2
*D8
 10
211.1339075727729
 20
343.1002766075509
 30
0.0000000000000000
 11
216.1339075727701
 21
343.6002766075509
 31
0.0000000000000000
 70
32
  3
MAIN001
100
AcDbAlignedDimension
 13
221.1339075727672
 23
323.8043616646633
 33
0.0000000000000000
 14
211.1339075727729
 24
321.1072471165230
 34
0.0000000000000000
100
AcDbRotatedDimension
1001
ACAD
1000
DSTYLE
1002
{
1070
   173
1070
     1
1070
     6
1000
_OPEN
1070
     7
1000
_OPEN
1070
    41
1040
2.000000
1002
}
  0
LINE
  5
176
100
AcDbEntity
  8
MAIN0
  6
HIDDEN
 62
3
100
AcDbLine
 10
172.3414579111018
 20
235.1072471164908
 30
0.0000000000000000
 11
172.3414579111018
 21
240.5462231804844
 31
0.0000000000000000
  0
LINE
  5
177
100
AcDbEntity
  8
MAIN0
  6
CENTER
 62
3
100
AcDbLine
 10
523.4749058462758
 20
224.8572471165230
 30
0.0000000000000000
 11
344.2076472628968
 21
328.3572471165229
 31
0.0000000000000000
  0
LINE
  5
178
100
AcDbEntity
  8
MAIN0
  6
CENTER
 62
3
100
AcDbLine
 10
523.4749058462758
 20
328.3572471165229
 30
0.0000000000000000
 11
344.2076472628968
 21
224.8572471165230
 31
0.0000000000000000
  0
LINE
  5
179
100
AcDbEntity
  8
MAIN0
  6
CENTER
 62
3
100
AcDbLine
 10
433.8412765545861
 20
170.3693357753518
 30
0.0000000000000000
 11
433.8412765545863
 21
380.1072471165229
 31
0.0000000000000000
  0
DIMENSION
  5
184
100
AcDbEntity
  8
MAIN0
  6
CONTINUOUS
 62
3
100
AcDbDimension
  2
*D9
 10
85.34127655458551
 20
165.0241081431610
 30
0.0000000000000000
 11
88.59127655458551
 21
165.5241081431610
 31
0.0000000000000000
 70
32
  3
MAIN001
100
AcDbAlignedDimension
 13
91.84127655458551
 23
173.6072471165312
 33
0.0000000000000000
 14
85.34127655458551
 24
172.4406709083664
 34
0.0000000000000000
100
AcDbRotatedDimension
1001
ACAD
1000
DSTYLE
1002
{
1070
   173
1070
     1
1070
     6
1000
_OPEN
1070
     7
1000
_OPEN
1070
    41
1040
2.000000
1070
   287
1070
     0
1002
}
  0
DIMENSION
  5
18D
100
AcDbEntity
  8
MAIN0
  6
CONTINUOUS
 62
3
100
AcDbDimension
  2
*D10
 10
91.84127655458551
 20
165.0241081431610
 30
0.0000000000000000
 11
99.34127655453671
 21
165.5241081431610
 31
0.0000000000000000
 70
32
  3
MAIN001
100
AcDbAlignedDimension
 13
106.8412765544879
 23
167.5951747579050
 33
0.0000000000000000
 14
91.84127655458551
 24
173.6072471165312
 34
0.0000000000000000
100
AcDbRotatedDimension
1001
ACAD
1000
DSTYLE
1002
{
1070
   173
1070
     1
1070
     6
1000
_OPEN
1070
     7
1000
_OPEN
1070
    41
1040
2.000000
1002
}
  0
DIMENSION
  5
196
100
AcDbEntity
  8
MAIN0
  6
CONTINUOUS
 62
3
100
AcDbDimension
  2
*D11
 10
91.84127655458551
 20
158.2953729253463
 30
0.0000000000000000
 11
106.8412765545855
 21
158.7953729253463
 31
0.0000000000000000
 70
32
  3
MAIN001
100
AcDbAlignedDimension
 13
121.8412765545855
 23
173.6072471165355
 33
0.0000000000000000
 14
91.84127655458551
 24
173.6072471165312
 34
0.0000000000000000
100
AcDbRotatedDimension
1001
ACAD
1000
DSTYLE
1002
{
1070
   173
1070
     1
1070
     6
1000
_OPEN
1070
     7
1000
_OPEN
1070
    41
1040
2.000000
1002
}
  0
DIMENSION
  5
19F
100
AcDbEntity
  8
MAIN0
  6
CONTINUOUS
 62
3
100
AcDbDimension
  2
*D12
 10
76.84127655458639
 20
151.0872366771540
 30
0.0000000000000000
 11
84.34127655458593
 21
151.5872366771540
 31
0.0000000000000000
 70
32
  3
MAIN001
100
AcDbAlignedDimension
 13
91.84127655458551
 23
173.6072471165312
 33
0.0000000000000000
 14
76.84127655458639
 24
175.7072471165233
 34
0.0000000000000000
100
AcDbRotatedDimension
1001
ACAD
1000
DSTYLE
1002
{
1070
   173
1070
     1
1070
     6
1000
_OPEN
1070
     7
1000
_OPEN
1070
    41
1040
2.000000
1002
}
  0
DIMENSION
  5
1A8
100
AcDbEntity
  8
MAIN0
  6
CONTINUOUS
 62
3
100
AcDbDimension
  2
*D13
 10
91.84127655458551
 20
151.0872366771540
 30
0.0000000000000000
 11
111.8412765545859
 21
151.5872366771540
 31
0.0000000000000000
 70
32
  3
MAIN001
100
AcDbAlignedDimension
 13
131.8412765545863
 23
194.7072471165229
 33
0.0000000000000000
 14
91.84127655458551
 24
173.6072471165312
 34
0.0000000000000000
100
AcDbRotatedDimension
1001
ACAD
1000
DSTYLE
1002
{
1070
   173
1070
     1
1070
     6
1000
_OPEN
1070
     7
1000
_OPEN
1070
    41
1040
2.000000
1002
}
  0
DIMENSION
  5
1B1
100
AcDbEntity
  8
MAIN0
  6
CONTINUOUS
 62
3
100
AcDbDimension
  2
*D14
 10
131.8412765545863
 20
151.0872366771540
 30
0.0000000000000000
 11
166.8412765545863
 21
151.5872366771540
 31
0.0000000000000000
 70
32
  3
MAIN001
100
AcDbAlignedDimension
 13
201.8412765545862
 23
195.1072471165230
 33
0.0000000000000000
 14
131.8412765545863
 24
194.7072471165229
 34
0.0000000000000000
100
AcDbRotatedDimension
1001
ACAD
1000
DSTYLE
1002
{
1070
   173
1070
     1
1070
     6
1000
_OPEN
1070
     7
1000
_OPEN
1070
    41
1040
2.000000
1002
}
  0
DIMENSION
  5
1BA
100
AcDbEntity
  8
MAIN0
  6
CONTINUOUS
 62
3
100
AcDbDimension
  2
*D15
 10
201.8412765545862
 20
151.0872366771540
 30
0.0000000000000000
 11
217.8412765545863
 21
151.5872366771540
 31
0.0000000000000000
 70
32
  3
MAIN001
100
AcDbAlignedDimension
 13
233.8412765545863
 23
263.6072471165229
 33
0.0000000000000000
 14
201.8412765545862
 24
195.1072471165230
 34
0.0000000000000000
100
AcDbRotatedDimension
1001
ACAD
1000
DSTYLE
1002
{
1070
   173
1070
     1
1070
     6
1000
_OPEN
1070
     7
1000
_OPEN
1070
    41
1040
2.000000
1002
}
  0
DIMENSION
  5
1C3
100
AcDbEntity
  8
MAIN0
  6
CONTINUOUS
 62
3
100
AcDbDimension
  2
*D16
 10
76.84127655458639
 20
143.3350980840782
 30
0.0000000000000000
 11
155.3412765545863
 21
143.8350980840782
 31
0.0000000000000000
 70
32
  3
MAIN001
100
AcDbAlignedDimension
 13
233.8412765545863
 23
263.6072471165229
 33
0.0000000000000000
 14
76.84127655458639
 24
175.7072471165233
 34
0.0000000000000000
100
AcDbRotatedDimension
1001
ACAD
1000
DSTYLE
1002
{
1070
   173
1070
     1
1070
     6
1000
_OPEN
1070
     7
1000
_OPEN
1070
    41
1040
2.000000
1002
}
  0
DIMENSION
  5
1CC
100
AcDbEntity
  8
MAIN0
  6
CONTINUOUS
 62
3
100
AcDbDimension
  2
*D17
 10
393.8412765546178
 20
145.9732598783326
 30
0.0000000000000000
 11
433.8412765546178
 21
146.4732598783326
 31
0.0000000000000000
 70
32
  3
MAIN001
100
AcDbAlignedDimension
 13
473.8412765546179
 23
173.6072471165229
 33
0.0000000000000000
 14
393.8412765546178
 24
173.6072471165229
 34
0.0000000000000000
100
AcDbRotatedDimension
1001
ACAD
1000
DSTYLE
1002
{
1070
   173
1070
     1
1070
     6
1000
_OPEN
1070
     7
1000
_OPEN
1070
    41
1040
2.000000
1002
}
  0
DIMENSION
  5
1D5
100
AcDbEntity
  8
MAIN0
  6
CONTINUOUS
 62
3
100
AcDbDimension
  2
*D18
 10
410.3412765545750
 20
151.4529873101533
 30
0.0000000000000000
 11
433.8412765545749
 21
151.9529873101533
 31
0.0000000000000000
 70
32
  3
MAIN001
100
AcDbAlignedDimension
 13
457.3412765545748
 23
170.3693357753446
 33
0.0000000000000000
 14
410.3412765545750
 24
170.3693357753519
 34
0.0000000000000000
100
AcDbRotatedDimension
1001
ACAD
1000
DSTYLE
1002
{
1070
   173
1070
     1
1070
     6
1000
_OPEN
1070
     7
1000
_OPEN
1070
    41
1040
2.000000
1002
}
  0
MTEXT
  5
1D6
100
AcDbEntity
  8
MAIN0
  6
CONTINUOUS
 62
3
100
AcDbMText
 10
405.1192800723082
 20
171.8203873437002
 30
0.0000000000000000
 40
4.000000000000000
 41
0.0000000000000000
 71
     1
 72
     1
  1
{\H0.84x;{閉}}
 11
1.000000000000000
 21
0.0000000000000000
 31
0.0000000000000000
  7
KNJYOKO
  0
MTEXT
  5
1D7
100
AcDbEntity
  8
MAIN0
  6
CONTINUOUS
 62
3
100
AcDbMText
 10
452.1192800723080
 20
171.8203873437002
 30
0.0000000000000000
 40
4.000000000000000
 41
0.0000000000000000
 71
     1
 72
     1
  1
{\H0.84x;{開}}
 11
1.000000000000000
 21
0.0000000000000000
 31
0.0000000000000000
  7
KNJYOKO
  0
LEADER
  5
1D8
100
AcDbEntity
  8
MAIN0
  6
CONTINUOUS
 62
3
100
AcDbLeader
  3
MAIN001
 73
     0
 75
     1
 40
3.099999904632568
 41
14.59900000894072
 76
     3
 10
410.3412765545755
 20
173.6072471165228
 30
0.0000000000000000
 10
389.6739769132431
 20
160.4823841002333
 30
0.0000000000000000
 10
387.8869769659038
 20
160.4823841002333
 30
0.0000000000000000
340
1D9
213
0.0000000000000000
223
-0.5000000000000000
233
0.0000000000000000
1001
ACAD
1000
DSTYLE
1002
{
1070
   147
1040
0.0
1070
    77
1070
     1
1070
   173
1070
     1
1070
     6
1000
_OPEN
1070
     7
1000
_OPEN
1002
}
  0
MTEXT
  5
1D9
102
{ACAD_REACTORS
330
1D8
102
}
100
AcDbEntity
  8
MAIN0
  6
CONTINUOUS
 62
3
100
AcDbMText
 10
373.2879769569631
 20
164.0823840048659
 30
0.0000000000000000
 40
3.099999904632568
 41
0.0000000000000000
 71
     1
 72
     1
  1
{\H0.70x;{2-Rc1/4}}
 11
1.000000000000000
 21
0.0000000000000000
 31
0.0000000000000000
  7
STANDARD
  0
DIMENSION
  5
1E2
100
AcDbEntity
  8
MAIN0
  6
CONTINUOUS
 62
3
100
AcDbDimension
  2
*D19
 10
201.8412765545863
 20
363.2835677899190
 30
0.0000000000000000
 11
217.9875920636809
 21
363.7835677899190
 31
0.0000000000000000
 70
32
  3
MAIN001
100
AcDbAlignedDimension
 13
234.1339075727755
 23
322.3072471165229
 33
0.0000000000000000
 14
201.8412765545863
 24
358.1072471165230
 34
0.0000000000000000
100
AcDbRotatedDimension
1001
ACAD
1000
DSTYLE
1002
{
1070
   173
1070
     1
1070
     6
1000
_OPEN
1070
     7
1000
_OPEN
1070
    41
1040
2.000000
1002
}
  0
LEADER
  5
1E3
100
AcDbEntity
  8
MAIN0
  6
CONTINUOUS
 62
3
100
AcDbLeader
  3
MAIN001
 73
     0
 74
     0
 75
     1
 40
3.099999904632568
 41
31.40100002086166
 76
     3
 10
450.4416376265597
 20
204.0697592959981
 30
0.0000000000000000
 10
479.1492675380280
 20
158.5517430606610
 30
0.0000000000000000
 10
480.9342674853673
 20
158.5517430606610
 30
0.0000000000000000
340
1E4
213
0.0000000000000000
223
-0.5000000000000000
233
0.0000000000000000
1001
ACAD
1000
DSTYLE
1002
{
1070
   147
1040
0.0
1070
    77
1070
     1
1070
   173
1070
     1
1070
     6
1000
_OPEN
1070
     7
1000
_OPEN
1002
}
  0
MTEXT
  5
1E4
102
{ACAD_REACTORS
330
1E3
102
}
100
AcDbEntity
  8
MAIN0
  6
CONTINUOUS
 62
3
100
AcDbMText
 10
480.9352674853673
 20
162.1517429652936
 30
0.0000000000000000
 40
3.099999904632568
 41
0.0000000000000000
 71
     1
 72
     1
  1
{\H0.71x;{3×4-M6 ネジ深11\P3x4-M6 DEPTH 11}}
 11
1.000000000000000
 21
0.0000000000000000
 31
0.0000000000000000
  7
KNJYOKO
  0
LEADER
  5
1E5
100
AcDbEntity
  8
MAIN0
  6
CONTINUOUS
 62
3
100
AcDbLeader
  3
MAIN001
 73
     0
 75
     1
 40
3.099999904632568
 41
27.19900001788142
 76
     3
 10
432.8322087745571
 20
344.4324519259672
 30
0.0000000000000000
 10
416.5720467156324
 20
389.9579250016095
 30
0.0000000000000000
 10
414.7850467682931
 20
389.9579250016095
 30
0.0000000000000000
340
1E6
213
0.0000000000000000
223
-0.5000000000000000
233
0.0000000000000000
1001
ACAD
1000
DSTYLE
1002
{
1070
   147
1040
0.0
1070
    77
1070
     1
1070
   173
1070
     1
1070
     6
1000
_OPEN
1070
     7
1000
_OPEN
1002
}
  0
MTEXT
  5
1E6
102
{ACAD_REACTORS
330
1E5
102
}
100
AcDbEntity
  8
MAIN0
  6
CONTINUOUS
 62
3
100
AcDbMText
 10
387.5860467504117
 20
393.5579249062420
 30
0.0000000000000000
 40
3.099999904632568
 41
0.0000000000000000
 71
     1
 72
     1
  1
{\H0.71x;{3-M6 ネジ深11\P3-M6 DEPTH 11}}
 11
1.000000000000000
 21
0.0000000000000000
 31
0.0000000000000000
  7
KNJYOKO
  0
DIMENSION
  5
1EF
100
AcDbEntity
  8
MAIN0
  6
CONTINUOUS
 62
3
100
AcDbDimension
  2
*D20
 10
418.3412765545863
 20
396.1165013138003
 30
0.0000000000000000
 11
433.8412765545863
 21
396.6165013138003
 31
0.0000000000000000
 70
32
  3
MAIN001
100
AcDbAlignedDimension
 13
449.3412765545863
 23
322.2809260233609
 33
0.0000000000000000
 14
418.3412765545863
 24
322.2809260233609
 34
0.0000000000000000
100
AcDbRotatedDimension
1001
ACAD
1000
DSTYLE
1002
{
1070
   173
1070
     1
1070
     6
1000
_OPEN
1070
     7
1000
_OPEN
1070
    41
1040
2.000000
1002
}
  0
DIMENSION
  5
1F8
100
AcDbEntity
  8
MAIN0
  6
CONTINUOUS
 62
3
100
AcDbDimension
  2
*D21
 10
324.0125252174145
 20
276.6072471165230
 30
0.0000000000000000
 11
323.5125252174145
 21
258.1072471165230
 31
0.0000000000000000
 70
32
  3
MAIN001
100
AcDbAlignedDimension
 13
413.0424510677572
 23
239.6072471165230
 33
0.0000000000000000
 14
330.3412765545862
 24
276.6072471165230
 34
0.0000000000000000
 50
90.00000000000000
100
AcDbRotatedDimension
1001
ACAD
1000
DSTYLE
1002
{
1070
   173
1070
     1
1070
     6
1000
_OPEN
1070
     7
1000
_OPEN
1070
    41
1040
2.000000
1002
}
  0
DIMENSION
  5
201
100
AcDbEntity
  8
MAIN0
  6
CONTINUOUS
 62
3
100
AcDbDimension
  2
*D22
 10
324.0125252174145
 20
239.6072471165230
 30
0.0000000000000000
 11
323.5125252174145
 21
223.1072471165230
 31
0.0000000000000000
 70
32
  3
MAIN001
100
AcDbAlignedDimension
 13
413.6939221926630
 23
206.6072471165230
 33
0.0000000000000000
 14
413.0424510677572
 24
239.6072471165230
 34
0.0000000000000000
 50
90.00000000000000
100
AcDbRotatedDimension
1001
ACAD
1000
DSTYLE
1002
{
1070
   173
1070
     1
1070
     6
1000
_OPEN
1070
     7
1000
_OPEN
1070
    41
1040
2.000000
1002
}
  0
DIMENSION
  5
207
100
AcDbEntity
  8
MAIN0
  6
CONTINUOUS
 62
3
100
AcDbDimension
  2
*D23
 10
433.8412765545863
 20
276.6072471165230
 30
0.0000000000000000
 11
378.4192513402533
 21
257.7422708689456
 31
0.0000000000000000
 70
164
  3
MAIN001
100
AcDbRadialDimension
 15
372.4894476155425
 25
255.1374290960014
 35
0.0000000000000000
1001
ACAD
1000
DSTYLE
1002
{
1070
   173
1070
     1
1070
     6
1000
_OPEN
1070
     7
1000
_OPEN
1070
    41
1040
2.000000
1070
   340
1005
208
1002
}
  0
LINE
  5
209
100
AcDbEntity
  8
MAIN0
  6
CENTER
 62
3
100
AcDbLine
 10
375.2665424478296
 20
327.7458936964585
 30
0.0000000000000000
 11
413.9134494378247
 21
305.4330915424383
 31
0.0000000000000000
  0
LINE
  5
20A
100
AcDbEntity
  8
MAIN0
  6
CENTER
 62
3
100
AcDbLine
 10
359.9844525563490
 20
301.9279962577072
 30
0.0000000000000000
 11
399.1955393293052
 21
279.2894647541232
 31
0.0000000000000000
  0
LINE
  5
20B
100
AcDbEntity
  8
MAIN0
  6
CENTER
 62
3
100
AcDbLine
 10
391.6764834781137
 20
277.5756832174438
 30
0.0000000000000000
 11
412.1977493579767
 21
313.1195583569961
 31
0.0000000000000000
  0
LINE
  5
20C
100
AcDbEntity
  8
MAIN0
  6
CENTER
 62
3
100
AcDbLine
 10
362.7719158036634
 20
293.5115034344830
 30
0.0000000000000000
 11
383.2931754706373
 21
329.0553678129957
 31
0.0000000000000000
  0
LINE
  5
20D
100
AcDbEntity
  8
MAIN0
  6
CENTER
 62
3
100
AcDbLine
 10
413.0424510677572
 20
239.6072471165230
 30
0.0000000000000000
 11
454.0849828274830
 21
239.6072471165230
 31
0.0000000000000000
  0
LINE
  5
20E
100
AcDbEntity
  8
MAIN0
  6
CENTER
 62
3
100
AcDbLine
 10
413.6939221926630
 20
206.6072471165230
 30
0.0000000000000000
 11
454.7364415266106
 21
206.6072471165230
 31
0.0000000000000000
  0
LINE
  5
20F
100
AcDbEntity
  8
MAIN0
  6
CENTER
 62
3
100
AcDbLine
 10
418.8412765545862
 20
200.3107160701850
 30
0.0000000000000000
 11
418.8412765545863
 21
244.9363203782254
 31
0.0000000000000000
  0
LINE
  5
210
100
AcDbEntity
  8
MAIN0
  6
CENTER
 62
3
100
AcDbLine
 10
448.8412765545863
 20
199.9849867206211
 30
0.0000000000000000
 11
448.8412765545863
 21
245.2620497277891
 31
0.0000000000000000
  0
LINE
  5
211
100
AcDbEntity
  8
MAIN0
  6
CENTER
 62
3
100
AcDbLine
 10
468.7691036713478
 20
279.4523294289052
 30
0.0000000000000000
 11
507.4160106613431
 21
301.7651315829253
 31
0.0000000000000000
  0
LINE
  5
212
100
AcDbEntity
  8
MAIN0
  6
CENTER
 62
3
100
AcDbLine
 10
453.4870137798674
 20
305.2702268676565
 30
0.0000000000000000
 11
492.6981005528236
 21
327.9087583712404
 31
0.0000000000000000
  0
LINE
  5
213
100
AcDbEntity
  8
MAIN0
  6
CENTER
 62
3
100
AcDbLine
 10
455.7623633581621
 20
312.6388110156020
 30
0.0000000000000000
 11
476.2836292380251
 21
277.0949358760497
 31
0.0000000000000000
  0
LINE
  5
214
100
AcDbEntity
  8
MAIN0
  6
CENTER
 62
3
100
AcDbLine
 10
484.0154723334849
 20
329.7029907985628
 30
0.0000000000000000
 11
504.5367320004587
 21
294.1591264200501
 31
0.0000000000000000
  0
DIMENSION
  5
21D
100
AcDbEntity
  8
MAIN0
  6
CONTINUOUS
 62
3
100
AcDbDimension
  2
*D24
 10
418.8412765545863
 20
156.5183769482009
 30
0.0000000000000000
 11
433.8412765545863
 21
157.0183769482009
 31
0.0000000000000000
 70
32
  3
MAIN001
100
AcDbAlignedDimension
 13
448.8412765545863
 23
199.9849867206211
 33
0.0000000000000000
 14
418.8412765545862
 24
200.3107160701850
 34
0.0000000000000000
100
AcDbRotatedDimension
1001
ACAD
1000
DSTYLE
1002
{
1070
   173
1070
     1
1070
     6
1000
_OPEN
1070
     7
1000
_OPEN
1070
    41
1040
2.000000
1002
}
  0
LEADER
  5
21E
100
AcDbEntity
  8
MAIN0
  6
CONTINUOUS
 62
3
100
AcDbLeader
  3
MAIN001
 73
     0
 75
     1
 40
3.099999904632568
 41
10.39900000596049
 76
     3
 10
386.2371879373287
 20
361.5277501967036
 30
0.0000000000000000
 10
382.8836751919029
 20
373.4479232911211
 30
0.0000000000000000
 10
381.0966752445636
 20
373.4479232911211
 30
0.0000000000000000
340
21F
213
0.0000000000000000
223
-0.5000000000000000
233
0.0000000000000000
1001
ACAD
1000
DSTYLE
1002
{
1070
   147
1040
0.0
1070
    77
1070
     1
1070
   173
1070
     1
1070
     6
1000
_OPEN
1070
     7
1000
_OPEN
1002
}
  0
MTEXT
  5
21F
102
{ACAD_REACTORS
330
21E
102
}
100
AcDbEntity
  8
MAIN0
  6
CONTINUOUS
 62
3
100
AcDbMText
 10
370.6976752386032
 20
377.0479231957536
 30
0.0000000000000000
 40
3.099999904632568
 41
0.0000000000000000
 71
     1
 72
     1
  1
{\H0.70x;{6-M10}}
 11
1.000000000000000
 21
0.0000000000000000
 31
0.0000000000000000
  7
STANDARD
  0
LEADER
  5
220
100
AcDbEntity
  8
MAIN0
  6
CONTINUOUS
 62
3
100
AcDbLeader
  3
MAIN001
 73
     0
 74
     0
 75
     1
 40
3.099999904632568
 41
10.90100000596044
 76
     3
 10
504.0369522768738
 20
344.7205803688660
 30
0.0000000000000000
 10
522.2016452945363
 20
354.9857842424325
 30
0.0000000000000000
 10
523.9866452418756
 20
354.9857842424325
 30
0.0000000000000000
340
221
213
0.0000000000000000
223
-0.5000000000000000
233
0.0000000000000000
1001
ACAD
1000
DSTYLE
1002
{
1070
   147
1040
0.0
1070
    77
1070
     1
1070
   173
1070
     1
1070
     6
1000
_OPEN
1070
     7
1000
_OPEN
1002
}
  0
MTEXT
  5
221
102
{ACAD_REACTORS
330
220
102
}
100
AcDbEntity
  8
MAIN0
  6
CONTINUOUS
 62
3
100
AcDbMText
 10
523.9876452418756
 20
358.5857841470651
 30
0.0000000000000000
 40
3.099999904632568
 41
0.0000000000000000
 71
     1
 72
     1
  1
{\H0.70x;{4-\U+220511}}
 11
1.000000000000000
 21
0.0000000000000000
 31
0.0000000000000000
  7
STANDARD
  0
LEADER
  5
222
100
AcDbEntity
  8
MAIN0
  6
CONTINUOUS
 62
3
100
AcDbLeader
  3
MAIN001
 73
     0
 74
     0
 75
     1
 40
3.099999904632568
 41
15.10100000894079
 76
     3
 10
518.8276325204163
 20
231.4505445702263
 30
0.0000000000000000
 10
545.1198978441107
 20
237.3421679968869
 30
0.0000000000000000
 10
546.9048977914500
 20
237.3421679968869
 30
0.0000000000000000
340
223
213
-0.001000000000090040
223
-0.5000000000000000
233
0.0000000000000000
1001
ACAD
1000
DSTYLE
1002
{
1070
   147
1040
0.0
1070
    77
1070
     1
1070
   173
1070
     1
1070
     6
1000
_OPEN
1070
     7
1000
_OPEN
1002
}
  0
MTEXT
  5
223
102
{ACAD_REACTORS
330
222
102
}
100
AcDbEntity
  8
MAIN0
  6
CONTINUOUS
 62
3
100
AcDbMText
 10
546.9058977914501
 20
240.9421679015195
 30
0.0000000000000000
 40
3.099999904632568
 41
0.0000000000000000
 71
     1
 72
     1
  1
{\H0.70x;{2-\U+220510H7}}
 11
1.000000000000000
 21
0.0000000000000000
 31
0.0000000000000000
  7
STANDARD
  0
LINE
  5
224
100
AcDbEntity
  8
MAIN0
  6
CONTINUOUS
 62
3
100
AcDbLine
 10
188.3413837373911
 20
261.1072471165230
 30
0.0000000000000000
 11
188.3413837373911
 21
292.1072471165230
 31
0.0000000000000000
  0
MTEXT
  5
225
100
AcDbEntity
  8
MAIN0
  6
CONTINUOUS
 62
3
100
AcDbMText
 10
154.4546758518910
 20
91.01259767048532
 30
0.0000000000000000
 40
5.000000000000000
 41
0.0000000000000000
 71
     1
 72
     1
  1
{\H0.92x;{把握範囲}}
 11
1.000000000000000
 21
0.0000000000000000
 31
0.0000000000000000
  7
KNJYOKO
  0
MTEXT
  5
226
100
AcDbEntity
  8
MAIN0
  6
CONTINUOUS
 62
3
100
AcDbMText
 10
154.4546758518910
 20
84.01259767048532
 30
0.0000000000000000
 40
4.000000000000000
 41
0.0000000000000000
 71
     1
 72
     1
  1
{\H0.94x;{マスタージョーのみで対応する場合：\U+2205４４～\U+2205７０}}
 11
1.000000000000000
 21
0.0000000000000000
 31
0.0000000000000000
  7
KNJYOKO
  0
MTEXT
  5
227
100
AcDbEntity
  8
MAIN0
  6
CONTINUOUS
 62
3
100
AcDbMText
 10
176.9772767739574
 20
79.01259767048538
 30
0.0000000000000000
 40
4.000000000000000
 41
0.0000000000000000
 71
     1
 72
     1
  1
{\H0.94x;{ジョー付で対応する場合：\U+2205７０～\U+2205１０８}}
 11
1.000000000000000
 21
0.0000000000000000
 31
0.0000000000000000
  7
KNJYOKO
  0
MTEXT
  5
228
100
AcDbEntity
  8
MAIN0
  6
CONTINUOUS
 62
3
100
AcDbMText
 10
179.5542300461085
 20
73.11259757511795
 30
0.0000000000000000
 40
3.099999904632568
 41
0.0000000000000000
 71
     1
 72
     1
  1
{\H0.94x;{ジョー型式；ＳＢＥ０６；\U+2205７０～\U+2205８７}}
 11
1.000000000000000
 21
0.0000000000000000
 31
0.0000000000000000
  7
KNJYOKO
  0
MTEXT
  5
229
100
AcDbEntity
  8
MAIN0
  6
CONTINUOUS
 62
3
100
AcDbMText
 10
179.5542300461085
 20
69.11259757511795
 30
0.0000000000000000
 40
3.099999904632568
 41
0.0000000000000000
 71
     1
 72
     1
  1
{\H0.94x;{ジョー型式；ＳＢＥ０６Ａ；\U+2205８９～\U+2205１０８（オプション）}}
 11
1.000000000000000
 21
0.0000000000000000
 31
0.0000000000000000
  7
KNJYOKO
  0
LINE
  5
22A
100
AcDbEntity
  8
MAIN0
  6
PHANTOM
 62
3
100
AcDbLine
 10
91.84127655448788
 20
138.6072471165337
 30
0.0000000000000000
 11
91.84127655448785
 21
173.6072471165340
 31
0.0000000000000000
  0
LINE
  5
22B
100
AcDbEntity
  8
MAIN0
  6
PHANTOM
 62
3
100
AcDbLine
 10
136.8412765544719
 20
138.6072471165334
 30
0.0000000000000000
 11
91.84127655447190
 21
138.6072471165337
 31
0.0000000000000000
  0
LINE
  5
22C
100
AcDbEntity
  8
MAIN0
  6
PHANTOM
 62
3
100
AcDbLine
 10
136.8412765544878
 20
193.6072471165559
 30
0.0000000000000000
 11
136.8412765544879
 21
138.6072471165558
 31
0.0000000000000000
  0
LINE
  5
22D
100
AcDbEntity
  8
MAIN0
  6
PHANTOM
 62
3
100
AcDbLine
 10
121.8412765544881
 20
193.6072471165335
 30
0.0000000000000000
 11
136.8412765544719
 21
193.6072471165334
 31
0.0000000000000000
  0
DIMENSION
  5
236
100
AcDbEntity
  8
MAIN0
  6
CONTINUOUS
 62
3
100
AcDbDimension
  2
*D25
 10
91.84127655448788
 20
132.0589477235403
 30
0.0000000000000000
 11
114.3412765544879
 21
132.5589477235403
 31
0.0000000000000000
 70
32
  1
\A1;（45）
  3
MAIN001
100
AcDbAlignedDimension
 13
136.8412765544879
 23
138.6072471165558
 33
0.0000000000000000
 14
91.84127655448788
 24
138.6072471165337
 34
0.0000000000000000
100
AcDbRotatedDimension
1001
ACAD
1000
DSTYLE
1002
{
1070
   173
1070
     1
1070
     6
1000
_OPEN
1070
     7
1000
_OPEN
1070
    41
1040
2.000000
1070
   340
1005
208
1002
}
  0
LINE
  5
237
100
AcDbEntity
  8
MAIN0
  6
PHANTOM
 62
3
100
AcDbLine
 10
393.8412765545866
 20
138.6072471165228
 30
0.0000000000000000
 11
393.8412765545866
 21
173.6072471165228
 31
0.0000000000000000
  0
LINE
  5
238
100
AcDbEntity
  8
MAIN0
  6
PHANTOM
 62
3
100
AcDbLine
 10
393.8412765545864
 20
138.6072471165228
 30
0.0000000000000000
 11
473.8412765545864
 21
138.6072471165228
 31
0.0000000000000000
  0
LINE
  5
239
100
AcDbEntity
  8
MAIN0
  6
PHANTOM
 62
3
100
AcDbLine
 10
473.8412765545864
 20
138.6072471165228
 30
0.0000000000000000
 11
473.8412765545864
 21
173.6072471165228
 31
0.0000000000000000
  0
MTEXT
  5
23A
100
AcDbEntity
  8
MAIN0
  6
CONTINUOUS
 62
3
100
AcDbMText
 10
405.1815998562088
 20
167.3474088954624
 30
0.0000000000000000
 40
3.099999904632568
 41
0.0000000000000000
 71
     1
 72
     1
  1
{\H0.70x;{CLOSE}}
 11
1.000000000000000
 21
0.0000000000000000
 31
0.0000000000000000
  7
STANDARD
  0
MTEXT
  5
23B
100
AcDbEntity
  8
MAIN0
  6
CONTINUOUS
 62
3
100
AcDbMText
 10
452.2467713007906
 20
166.9718881988684
 30
0.0000000000000000
 40
3.099999904632568
 41
0.0000000000000000
 71
     1
 72
     1
  1
{\H0.70x;{OPEN}}
 11
1.000000000000000
 21
0.0000000000000000
 31
0.0000000000000000
  7
STANDARD
  0
MTEXT
  5
23C
100
AcDbEntity
  8
MAIN0
  6
CONTINUOUS
 62
3
100
AcDbMText
 10
399.3003068133489
 20
131.6016266342731
 30
0.0000000000000000
 40
3.099999904632568
 41
0.0000000000000000
 71
     1
 72
     1
  1
{\H0.70x;{着座確認}}
 11
1.000000000000000
 21
0.0000000000000000
 31
0.0000000000000000
  7
KNJYOKO
  0
MTEXT
  5
23D
100
AcDbEntity
  8
MAIN0
  6
CONTINUOUS
 62
3
100
AcDbMText
 10
336.6279253993229
 20
162.3727032561276
 30
0.0000000000000000
 40
3.099999904632568
 41
0.0000000000000000
 71
     1
 72
     1
  1
{\H0.70x;{開閉底面配管}}
 11
1.000000000000000
 21
0.0000000000000000
 31
0.0000000000000000
  7
KNJYOKO
  0
LEADER
  5
23E
100
AcDbEntity
  8
MAIN0
  6
CONTINUOUS
 62
3
100
AcDbLeader
  3
MAIN001
 73
     0
 75
     1
 40
3.099999904632568
 41
10.39900000596049
 76
     3
 10
433.8412765545861
 20
173.6072471165228
 30
0.0000000000000000
 10
411.0920813978422
 20
132.1501957842075
 30
0.0000000000000000
 10
409.3050814505029
 20
132.1501957842075
 30
0.0000000000000000
340
23F
213
0.0000000000000000
223
-0.5000000000000000
233
0.0000000000000000
1001
ACAD
1000
DSTYLE
1002
{
1070
   147
1040
0.0
1070
    77
1070
     1
1070
   173
1070
     1
1070
     6
1000
_OPEN
1070
     7
1000
_OPEN
1002
}
  0
MTEXT
  5
23F
102
{ACAD_REACTORS
330
23E
102
}
100
AcDbEntity
  8
MAIN0
  6
CONTINUOUS
 62
3
100
AcDbMText
 10
398.9060814445425
 20
135.7501956888401
 30
0.0000000000000000
 40
3.099999904632568
 41
0.0000000000000000
 71
     1
 72
     1
  1
{\H0.70x;{Rc1/8}}
 11
1.000000000000000
 21
0.0000000000000000
 31
0.0000000000000000
  7
STANDARD
  0
LEADER
  5
240
100
AcDbEntity
  8
MAIN0
  6
CONTINUOUS
 62
3
100
AcDbLeader
  3
MAIN001
 73
     0
 75
     1
 40
3.099999904632568
 41
14.59900000894072
 76
     3
 10
406.9256429737200
 20
217.9378778047710
 30
0.0000000000000000
 10
352.7339740132997
 20
162.9956792818630
 30
0.0000000000000000
 10
350.9469740659604
 20
162.9956792818630
 30
0.0000000000000000
340
241
213
0.0000000000000000
223
-0.5000000000000000
233
0.0000000000000000
1001
ACAD
1000
DSTYLE
1002
{
1070
   147
1040
0.0
1070
    77
1070
     1
1070
   173
1070
     1
1070
     6
1000
_OPEN
1070
     7
1000
_OPEN
1002
}
  0
MTEXT
  5
241
102
{ACAD_REACTORS
330
240
102
}
100
AcDbEntity
  8
MAIN0
  6
CONTINUOUS
 62
3
100
AcDbMText
 10
336.3479740570197
 20
166.5956791864955
 30
0.0000000000000000
 40
3.099999904632568
 41
0.0000000000000000
 71
     1
 72
     1
  1
{\H0.70x;{2-Rc1/8}}
 11
1.000000000000000
 21
0.0000000000000000
 31
0.0000000000000000
  7
STANDARD
  0
MTEXT
  5
242
100
AcDbEntity
  8
MAIN0
  6
CONTINUOUS
 62
3
100
AcDbMText
 10
36.60934534281381
 20
240.5360261915828
 30
0.0000000000000000
 40
3.099999904632568
 41
0.0000000000000000
 71
     1
 72
     1
  1
{\H0.70x;{着座確認底面配管}}
 11
1.000000000000000
 21
0.0000000000000000
 31
0.0000000000000000
  7
KNJYOKO
  0
LEADER
  5
243
100
AcDbEntity
  8
MAIN0
  6
CONTINUOUS
 62
3
100
AcDbLeader
  3
MAIN001
 73
     0
 75
     1
 40
3.099999904632568
 41
10.39900000596048
 76
     3
 10
79.87318086693495
 20
271.8379941262839
 30
0.0000000000000000
 10
58.32683287341519
 20
241.0880855956492
 30
0.0000000000000000
 10
56.53983292607589
 20
241.0880855956492
 30
0.0000000000000000
340
244
213
0.0000000000000000
223
-0.5000000000000000
233
0.0000000000000000
1001
ACAD
1000
DSTYLE
1002
{
1070
   147
1040
0.0
1070
    77
1070
     1
1070
   173
1070
     1
1070
     6
1000
_OPEN
1070
     7
1000
_OPEN
1002
}
  0
MTEXT
  5
244
102
{ACAD_REACTORS
330
243
102
}
100
AcDbEntity
  8
MAIN0
  6
CONTINUOUS
 62
3
100
AcDbMText
 10
46.14083292011541
 20
244.6880855002818
 30
0.0000000000000000
 40
3.099999904632568
 41
0.0000000000000000
 71
     1
 72
     1
  1
{\H0.70x;{Rc1/8}}
 11
1.000000000000000
 21
0.0000000000000000
 31
0.0000000000000000
  7
STANDARD
  0
DIMENSION
  5
24D
100
AcDbEntity
  8
MAIN0
  6
CONTINUOUS
 62
3
100
AcDbDimension
  2
*D26
 10
65.91545871942475
 20
378.1072471165232
 30
0.0000000000000000
 11
65.41545871942475
 21
269.5322469794326
 31
0.0000000000000000
 70
32
  1
\A1;\U+2205203h7\H0.903226x;\S　0^ －0.046;
  3
MAIN001
100
AcDbAlignedDimension
 13
77.44127655458644
 23
175.1072471165233
 33
0.0000000000000000
 14
77.44127655458757
 24
378.1072471165232
 34
0.0000000000000000
 50
90.00000000000000
100
AcDbRotatedDimension
1001
ACAD
1000
DSTYLE
1002
{
1070
   173
1070
     1
1070
     6
1000
_OPEN
1070
     7
1000
_OPEN
1070
    41
1040
2.000000
1070
   272
1070
     3
1070
    47
1040
0.000000
1070
    48
1040
0.046000
1070
    71
1070
     1
1070
   340
1005
208
1002
}
  0
DIMENSION
  5
256
100
AcDbEntity
  8
MAIN0
  6
CONTINUOUS
 62
3
100
AcDbDimension
  2
*D27
 10
304.1662813074893
 20
276.6072471165230
 30
0.0000000000000000
 11
303.6662813074893
 21
207.6072471165229
 31
0.0000000000000000
 70
32
  1
\A1;（138）
  3
MAIN001
100
AcDbAlignedDimension
 13
393.8412765545864
 23
138.6072471165228
 33
0.0000000000000000
 14
330.3412765545862
 24
276.6072471165230
 34
0.0000000000000000
 50
90.00000000000000
100
AcDbRotatedDimension
1001
ACAD
1000
DSTYLE
1002
{
1070
   173
1070
     1
1070
     6
1000
_OPEN
1070
     7
1000
_OPEN
1070
    41
1040
2.000000
1070
   340
1005
208
1002
}
  0
DIMENSION
  5
25F
100
AcDbEntity
  8
MAIN0
  6
CONTINUOUS
 62
3
100
AcDbDimension
  2
*D28
 10
313.6579916930502
 20
276.6072471165230
 30
0.0000000000000000
 11
313.1579916930502
 21
225.1072471165229
 31
0.0000000000000000
 70
32
  1
\A1;（103）
  3
MAIN001
100
AcDbAlignedDimension
 13
393.8412765546178
 23
173.6072471165228
 33
0.0000000000000000
 14
330.3412765545862
 24
276.6072471165230
 34
0.0000000000000000
 50
90.00000000000000
100
AcDbRotatedDimension
1001
ACAD
1000
DSTYLE
1002
{
1070
   173
1070
     1
1070
     6
1000
_OPEN
1070
     7
1000
_OPEN
1070
    41
1040
2.000000
1070
   340
1005
208
1002
}
  0
LEADER
  5
260
100
AcDbEntity
  8
MAIN0
  6
CONTINUOUS
 62
3
100
AcDbLeader
  3
MAIN001
 73
     0
 75
     1
 40
3.099999904632568
 41
31.09900001639130
 76
     3
 10
299.5709485690686
 20
204.6568397239813
 30
0.0000000000000000
 10
291.4634744068893
 20
193.8468670420934
 30
0.0000000000000000
 10
289.6764744595500
 20
193.8468670420934
 30
0.0000000000000000
340
261
213
0.0000000000000000
223
-0.5000000000000000
233
0.0000000000000000
1001
ACAD
1000
DSTYLE
1002
{
1070
   147
1040
0.0
1070
    77
1070
     1
1070
   173
1070
     1
1070
     6
1000
_OPEN
1070
     7
1000
_OPEN
1002
}
  0
MTEXT
  5
261
102
{ACAD_REACTORS
330
260
102
}
100
AcDbEntity
  8
MAIN0
  6
CONTINUOUS
 62
3
100
AcDbMText
 10
258.5774744431587
 20
197.4468669467260
 30
0.0000000000000000
 40
3.099999904632568
 41
0.0000000000000000
 71
     1
 72
     1
  1
{\H0.70x;{ロックバルブユニット使用\P（エア専用）}}
 11
1.000000000000000
 21
0.0000000000000000
 31
0.0000000000000000
  7
KNJYOKO
  0
SPLINE
  5
262
100
AcDbEntity
  8
MAIN0
  6
CONTINUOUS
 62
3
100
AcDbSpline
210
0.0000000000000000
220
0.0000000000000000
230
1.000000000000000
 70
     8
 71
     3
 72
    22
 73
    18
 74
     0
 42
1.000000000000000e-007
 43
1.000000000000000e-007
 12
0.9594719747454299
 22
-0.3336319640449901
 32
0.0000000000000000
 13
0.3447767049400738
 23
0.9473737833941414
 33
0.0000000000000000
 40
0.0000000000000000
 40
0.0000000000000000
 40
0.0000000000000000
 40
0.0000000000000000
 40
15.41519869990344
 40
26.12816228127882
 40
35.16734018885201
 40
46.73839568285870
 40
61.38637966422422
 40
89.38146096065567
 40
97.23448225358122
 40
103.4244995010544
 40
105.9910268361788
 40
111.8642886855849
 40
126.9954742444040
 40
140.2905977599483
 40
143.4406042468388
 40
156.2790470897382
 40
160.5088691263584
 40
160.5088691263584
 40
160.5088691263584
 40
160.5088691263584
 10
76.84127655458696
 20
288.9370154365526
 30
0.0000000000000000
 10
81.77142693381680
 20
287.2226810970884
 30
0.0000000000000000
 10
90.12784008731262
 20
284.3169510641586
 30
0.0000000000000000
 10
102.1854797987848
 20
286.5516981683209
 30
0.0000000000000000
 10
110.5612622472646
 20
293.6591308840690
 30
0.0000000000000000
 10
122.9366592818534
 20
292.0970435716565
 30
0.0000000000000000
 10
140.8474759863263
 20
296.9094948162028
 30
0.0000000000000000
 10
156.0244562641082
 20
291.2687406968186
 30
0.0000000000000000
 10
172.1823825580648
 20
288.7752335510800
 30
0.0000000000000000
 10
174.5389612207431
 20
294.6527479621369
 30
0.0000000000000000
 10
178.4258767222658
 20
297.8657300617184
 30
0.0000000000000000
 10
176.2813447492375
 20
307.6738443962799
 30
0.0000000000000000
 10
197.1139728330553
 20
306.4611038242188
 30
0.0000000000000000
 10
190.3794773272654
 20
320.2757836700091
 30
0.0000000000000000
 10
192.8583564391229
 20
329.7745325466433
 30
0.0000000000000000
 10
199.3935818118667
 20
333.7692052627260
 30
0.0000000000000000
 10
201.3551618532686
 20
339.1592141543539
 30
0.0000000000000000
 10
201.8412765546916
 20
340.4949549896595
 30
0.0000000000000000
  0
SPLINE
  5
263
100
AcDbEntity
  8
MAIN0
  6
CONTINUOUS
 62
3
100
AcDbSpline
210
0.0000000000000000
220
0.0000000000000000
230
1.000000000000000
 70
     8
 71
     3
 72
    33
 73
    29
 74
     0
 42
1.000000000000000e-007
 43
1.000000000000000e-007
 12
0.9907557704350438
 22
-0.2458162213113155
 32
0.0000000000000000
 13
-0.02733427880469463
 23
-0.9994732051613511
 33
0.0000000000000000
 40
0.0000000000000000
 40
0.0000000000000000
 40
0.0000000000000000
 40
0.0000000000000000
 40
3.581174052887798
 40
9.915395582603690
 40
14.37957303305849
 40
18.54616033658336
 40
23.49456655427166
 40
29.78383253419029
 40
34.29851239190308
 40
40.79002500599703
 40
47.82655081184863
 40
53.99246992977248
 40
60.29492549751546
 40
68.62694020859334
 40
75.56683258127701
 40
84.77831090458849
 40
90.34510240403439
 40
96.39966096788932
 40
100.1304450128967
 40
104.4223475794268
 40
111.9262271583225
 40
116.3552372200395
 40
127.7842985967844
 40
136.0284355299905
 40
144.7689073441730
 40
154.1234192608495
 40
161.9300364448612
 40
171.7312158793589
 40
171.7312158793589
 40
171.7312158793589
 40
171.7312158793589
 10
76.84127655459452
 20
267.7018935487591
 30
0.0000000000000000
 10
78.02396617387146
 20
267.4084566575795
 30
0.0000000000000000
 10
81.29854463707503
 20
266.5960016326054
 30
0.0000000000000000
 10
85.91650774460297
 20
268.9210924742059
 30
0.0000000000000000
 10
90.95557227431647
 20
268.2105305198052
 30
0.0000000000000000
 10
95.42367716137346
 20
268.4573625269450
 30
0.0000000000000000
 10
100.8008808220075
 20
268.1282149707416
 30
0.0000000000000000
 10
104.6232910970497
 20
264.1423238178627
 30
0.0000000000000000
 10
109.8617925384082
 20
261.5726287980020
 30
0.0000000000000000
 10
115.9092746434265
 20
260.9503531400870
 30
0.0000000000000000
 10
122.4983802978441
 20
260.4826578108005
 30
0.0000000000000000
 10
128.5217358430811
 20
257.7480419608290
 30
0.0000000000000000
 10
135.7050669636755
 20
257.9696897721937
 30
0.0000000000000000
 10
142.2729265789604
 20
260.9197595672699
 30
0.0000000000000000
 10
150.4715425205105
 20
262.6496363033572
 30
0.0000000000000000
 10
157.5893144510774
 20
259.8560765341415
 30
0.0000000000000000
 10
164.5346768209774
 20
261.7494691384804
 30
0.0000000000000000
 10
168.9593437503925
 20
263.9797654634212
 30
0.0000000000000000
 10
174.5888745020521
 20
263.3328606822322
 30
0.0000000000000000
 10
174.6535033176796
 20
257.0950869392216
 30
0.0000000000000000
 10
173.7429542522162
 20
252.1631318825531
 30
0.0000000000000000
 10
174.2408148391106
 20
244.2234896369273
 30
0.0000000000000000
 10
170.7604924391058
 20
236.5764651960853
 30
0.0000000000000000
 10
164.9444883089487
 20
229.0727058241644
 30
0.0000000000000000
 10
162.1591916818785
 20
220.6729847716144
 30
0.0000000000000000
 10
159.6751045721694
 20
212.2454583155926
 30
0.0000000000000000
 10
161.1371251298562
 20
203.2387594984861
 30
0.0000000000000000
 10
160.9766929892206
 20
197.3725858577759
 30
0.0000000000000000
 10
160.8873902654615
 20
194.1072471165229
 30
0.0000000000000000
  0
LINE
  5
264
100
AcDbEntity
  8
MAIN0
  6
CONTINUOUS
 62
3
100
AcDbLine
 10
131.8412765545863
 20
204.6072471165230
 30
0.0000000000000000
 11
131.6412765545863
 21
204.6072471165230
 31
0.0000000000000000
  0
LINE
  5
265
100
AcDbEntity
  8
MAIN0
  6
CONTINUOUS
 62
3
100
AcDbLine
 10
131.8412765545863
 20
348.6072471165230
 30
0.0000000000000000
 11
131.6412765545863
 21
348.6072471165230
 31
0.0000000000000000
  0
LINE
  5
266
100
AcDbEntity
  8
MAIN0
  6
CONTINUOUS
 62
3
100
AcDbLine
 10
142.3412765545863
 20
194.6072471165229
 30
0.0000000000000000
 11
142.3412765545863
 21
260.6511487443714
 31
0.0000000000000000
  0
LINE
  5
267
100
AcDbEntity
  8
MAIN0
  6
CONTINUOUS
 62
3
100
AcDbLine
 10
156.3412765545863
 20
194.6072471165229
 30
0.0000000000000000
 11
156.3412765545863
 21
260.8180030932849
 31
0.0000000000000000
  0
LINE
  5
268
100
AcDbEntity
  8
MAIN0
  6
CONTINUOUS
 62
3
100
AcDbLine
 10
142.3412765545863
 20
358.6072471165230
 30
0.0000000000000000
 11
142.3412765545863
 21
294.5817014527512
 31
0.0000000000000000
  0
LINE
  5
269
100
AcDbEntity
  8
MAIN0
  6
CONTINUOUS
 62
3
100
AcDbLine
 10
156.3412765545863
 20
358.6072471165230
 30
0.0000000000000000
 11
156.3412765545863
 21
291.8351915750113
 31
0.0000000000000000
  0
LINE
  5
26A
100
AcDbEntity
  8
MAIN0
  6
HIDDEN
 62
3
100
AcDbLine
 10
164.3412765545863
 20
353.1072471165230
 30
0.0000000000000000
 11
164.3412765545863
 21
347.1916751544249
 31
0.0000000000000000
  0
LINE
  5
26B
100
AcDbEntity
  8
MAIN0
  6
HIDDEN
 62
3
100
AcDbLine
 10
159.3412765545863
 20
347.1916751544249
 30
0.0000000000000000
 11
159.3412765545863
 21
353.1072471165230
 31
0.0000000000000000
  0
LINE
  5
26C
100
AcDbEntity
  8
MAIN0
  6
HIDDEN
 62
3
100
AcDbLine
 10
159.3412765545863
 20
358.3072471165230
 30
0.0000000000000000
 11
158.5412765545863
 21
359.1072471165230
 31
0.0000000000000000
  0
LINE
  5
26D
100
AcDbEntity
  8
MAIN0
  6
HIDDEN
 62
3
100
AcDbLine
 10
158.8412765545863
 20
357.6072471165230
 30
0.0000000000000000
 11
158.8412765545863
 21
358.8072471165229
 31
0.0000000000000000
  0
LINE
  5
26E
100
AcDbEntity
  8
MAIN0
  6
CENTER
 62
3
100
AcDbLine
 10
161.8412765545863
 20
345.0921280417377
 30
0.0000000000000000
 11
161.8412765545863
 21
361.7797141669947
 31
0.0000000000000000
  0
LINE
  5
26F
100
AcDbEntity
  8
MAIN0
  6
HIDDEN
 62
3
100
AcDbLine
 10
165.1412765545863
 20
359.1072471165230
 30
0.0000000000000000
 11
164.3412765545862
 21
358.3072471165229
 31
0.0000000000000000
  0
LINE
  5
270
100
AcDbEntity
  8
MAIN0
  6
HIDDEN
 62
3
100
AcDbLine
 10
164.3412765545863
 20
358.3072471165229
 30
0.0000000000000000
 11
159.3412765545863
 21
358.3072471165229
 31
0.0000000000000000
  0
LINE
  5
271
100
AcDbEntity
  8
MAIN0
  6
HIDDEN
 62
3
100
AcDbLine
 10
164.8412765545863
 20
358.8072471165229
 30
0.0000000000000000
 11
164.8412765545863
 21
357.6072471165230
 31
0.0000000000000000
  0
LINE
  5
272
100
AcDbEntity
  8
MAIN0
  6
HIDDEN
 62
3
100
AcDbLine
 10
164.3412765545863
 20
358.3072471165229
 30
0.0000000000000000
 11
164.3412765545863
 21
357.8959222511178
 31
0.0000000000000000
  0
LINE
  5
273
100
AcDbEntity
  8
MAIN0
  6
HIDDEN
 62
3
100
AcDbLine
 10
159.3412765545863
 20
357.8959222511178
 30
0.0000000000000000
 11
159.3412765545863
 21
358.3072471165229
 31
0.0000000000000000
  0
LINE
  5
274
100
AcDbEntity
  8
MAIN0
  6
HIDDEN
 62
3
100
AcDbLine
 10
159.3412765545863
 20
353.1072471165230
 30
0.0000000000000000
 11
158.8412765545863
 21
353.1072471165230
 31
0.0000000000000000
  0
LINE
  5
275
100
AcDbEntity
  8
MAIN0
  6
HIDDEN
 62
3
100
AcDbLine
 10
158.8412765545863
 20
353.1072471165230
 30
0.0000000000000000
 11
158.8412765545863
 21
353.6072471165230
 31
0.0000000000000000
  0
LINE
  5
276
100
AcDbEntity
  8
MAIN0
  6
HIDDEN
 62
3
100
AcDbLine
 10
164.8412765545863
 20
353.6072471165230
 30
0.0000000000000000
 11
164.8412765545863
 21
353.1072471165230
 31
0.0000000000000000
  0
LINE
  5
277
100
AcDbEntity
  8
MAIN0
  6
HIDDEN
 62
3
100
AcDbLine
 10
164.8412765545863
 20
353.1072471165230
 30
0.0000000000000000
 11
164.3412765545863
 21
353.1072471165230
 31
0.0000000000000000
  0
DIMENSION
  5
280
100
AcDbEntity
  8
MAIN0
  6
CONTINUOUS
 62
3
100
AcDbDimension
  2
*D29
 10
71.81946476992778
 20
324.1072471165233
 30
0.0000000000000000
 11
71.31946476992778
 21
276.6072471165233
 31
0.0000000000000000
 70
32
  1
\A1;\U+220595
  3
MAIN001
100
AcDbAlignedDimension
 13
76.84127655458661
 23
229.1072471165233
 33
0.0000000000000000
 14
76.84127655458784
 24
324.1072471165233
 34
0.0000000000000000
 50
90.00000000000000
100
AcDbRotatedDimension
1001
ACAD
1000
DSTYLE
1002
{
1070
   173
1070
     1
1070
     6
1000
_OPEN
1070
     7
1000
_OPEN
1070
    41
1040
2.000000
1002
}
  0
DIMENSION
  5
289
100
AcDbEntity
  8
MAIN0
  6
CONTINUOUS
 62
3
100
AcDbDimension
  2
*D30
 10
71.81946476992778
 20
225.6429046223526
 30
0.0000000000000000
 11
71.31946476992778
 21
218.6429046223525
 31
0.0000000000000000
 70
32
  1
\A1;\U+220514
  3
MAIN001
100
AcDbAlignedDimension
 13
76.84127655458661
 23
211.6429046223525
 33
0.0000000000000000
 14
76.84127655458678
 24
225.6429046223526
 34
0.0000000000000000
 50
90.00000000000000
100
AcDbRotatedDimension
1001
ACAD
1000
DSTYLE
1002
{
1070
   173
1070
     1
1070
     6
1000
_OPEN
1070
     7
1000
_OPEN
1070
    41
1040
2.000000
1002
}
  0
DIMENSION
  5
28F
100
AcDbEntity
  8
MAIN0
  6
CONTINUOUS
 62
3
100
AcDbDimension
  2
*D31
 10
433.8412765545862
 20
276.6072471165229
 30
0.0000000000000000
 11
407.1699854121647
 21
232.4949206530758
 31
0.0000000000000000
 70
164
  3
MAIN001
100
AcDbRadialDimension
 15
403.2966875407269
 25
224.9639698969813
 35
0.0000000000000000
1001
ACAD
1000
DSTYLE
1002
{
1070
   173
1070
     1
1070
     6
1000
_OPEN
1070
     7
1000
_OPEN
1070
    41
1040
2.000000
1070
   340
1005
208
1002
}
  0
DIMENSION
  5
296
100
AcDbEntity
  8
MAIN0
  6
CONTINUOUS
 62
3
100
AcDbDimension
  2
*D32
 10
519.7407270878691
 20
242.2920260319941
 30
0.0000000000000000
 11
491.4101162265073
 21
254.1479944793451
 31
0.0000000000000000
 70
163
  3
MAIN001
100
AcDbDiametricDimension
 15
347.9418260213034
 25
310.9224682010517
 35
0.0000000000000000
1001
ACAD
1000
DSTYLE
1002
{
1070
   287
1070
     2
1070
   173
1070
     1
1070
     6
1000
_OPEN
1070
     7
1000
_OPEN
1070
    41
1040
2.000000
1070
   272
1070
     1
1070
    47
1040
0.200000
1070
    48
1040
0.200000
1070
    71
1070
     1
1002
}
  0
DIMENSION
  5
29F
100
AcDbEntity
  8
MAIN0
  6
CONTINUOUS
 62
3
100
AcDbDimension
  2
*D33
 10
485.2788145225076
 20
187.5148179398290
 30
0.0000000000000000
 11
463.2029196818263
 21
167.0281031719565
 31
0.0000000000000000
 70
162
  3
MAIN001
100
AcDb2LineAngularDimension
 13
433.8412765545861
 23
170.3693357753518
 33
0.0000000000000000
 14
433.8412765545861
 24
171.3693357753518
 34
0.0000000000000000
 15
484.7788145225076
 25
188.3808433436134
 35
0.0000000000000000
 16
463.3323292043775
 26
166.5451402588119
 36
0.0000000000000000
1001
ACAD
1000
DSTYLE
1002
{
1070
   173
1070
     1
1070
     6
1000
_OPEN
1070
     7
1000
_OPEN
1070
    41
1040
2.000000
1002
}
  0
DIMENSION
  5
2A8
100
AcDbEntity
  8
MAIN0
  6
CONTINUOUS
 62
3
100
AcDbDimension
  2
*D34
 10
506.2839852864573
 20
204.1645383845957
 30
0.0000000000000000
 11
502.9020206010616
 21
186.6055332078276
 31
0.0000000000000000
 70
162
  3
MAIN001
100
AcDb2LineAngularDimension
 13
485.2788145225076
 23
187.5148179398290
 33
0.0000000000000000
 14
484.7788145225076
 24
188.3808433436134
 34
0.0000000000000000
 15
505.5768785052711
 25
204.8716451657826
 35
0.0000000000000000
 16
503.2064013155658
 26
186.2088565376819
 36
0.0000000000000000
1001
ACAD
1000
DSTYLE
1002
{
1070
   173
1070
     1
1070
     6
1000
_OPEN
1070
     7
1000
_OPEN
1070
    41
1040
2.000000
1002
}
  0
DIMENSION
  5
2B1
100
AcDbEntity
  8
MAIN0
  6
CONTINUOUS
 62
3
100
AcDbDimension
  2
*D35
 10
523.4749058462758
 20
224.8572471165229
 30
0.0000000000000000
 11
523.8429904632548
 21
207.5465030700127
 31
0.0000000000000000
 70
162
  3
MAIN001
100
AcDb2LineAngularDimension
 13
506.2839852864573
 23
204.1645383845957
 33
0.0000000000000000
 14
505.5768785052711
 24
204.8716451657826
 34
0.0000000000000000
 15
522.6088804424912
 25
225.3572471165229
 35
0.0000000000000000
 16
524.2396671334003
 26
207.2421223555083
 36
0.0000000000000000
1001
ACAD
1000
DSTYLE
1002
{
1070
   173
1070
     1
1070
     6
1000
_OPEN
1070
     7
1000
_OPEN
1070
    41
1040
2.000000
1002
}
  0
DIMENSION
  5
2BA
100
AcDbEntity
  8
MAIN0
  6
CONTINUOUS
 62
3
100
AcDbDimension
  2
*D36
 10
537.3412765545863
 20
276.6072471165230
 30
0.0000000000000000
 11
543.4204204991524
 21
247.2456039892826
 31
0.0000000000000000
 70
162
  3
MAIN001
100
AcDb2LineAngularDimension
 13
523.4749058462758
 23
224.8572471165229
 33
0.0000000000000000
 14
522.6088804424912
 24
225.3572471165229
 34
0.0000000000000000
 15
536.3412765545863
 25
276.6072471165230
 35
0.0000000000000000
 16
543.9033834122971
 26
247.1161944667313
 36
0.0000000000000000
1001
ACAD
1000
DSTYLE
1002
{
1070
   173
1070
     1
1070
     6
1000
_OPEN
1070
     7
1000
_OPEN
1070
    41
1040
2.000000
1002
}
  0
DIMENSION
  5
2C3
100
AcDbEntity
  8
MAIN0
  6
CONTINUOUS
 62
3
100
AcDbDimension
  2
*D37
 10
523.4749058462758
 20
328.3572471165229
 30
0.0000000000000000
 11
543.4204204991524
 21
305.9688902437632
 31
0.0000000000000000
 70
162
  3
MAIN001
100
AcDb2LineAngularDimension
 13
537.3412765545863
 23
276.6072471165230
 33
0.0000000000000000
 14
536.3412765545863
 24
276.6072471165230
 34
0.0000000000000000
 15
522.6088804424912
 25
327.8572471165229
 35
0.0000000000000000
 16
543.9033834122971
 26
306.0982997663144
 36
0.0000000000000000
1001
ACAD
1000
DSTYLE
1002
{
1070
   173
1070
     1
1070
     6
1000
_OPEN
1070
     7
1000
_OPEN
1070
    41
1040
2.000000
1002
}
  0
DIMENSION
  5
2CC
100
AcDbEntity
  8
MAIN0
  6
CONTINUOUS
 62
3
100
AcDbDimension
  2
*D38
 10
504.9852696840783
 20
347.7512402459599
 30
0.0000000000000000
 11
524.6363438035728
 21
346.2767525920069
 31
0.0000000000000000
 70
162
  3
MAIN001
100
AcDb2LineAngularDimension
 13
523.4749058462758
 23
328.3572471165229
 33
0.0000000000000000
 14
522.6088804424912
 24
327.8572471165229
 34
0.0000000000000000
 15
504.2781629028916
 25
347.0441334647737
 35
0.0000000000000000
 16
524.2396671334270
 26
345.9723718775026
 36
0.0000000000000000
1001
ACAD
1000
DSTYLE
1002
{
1070
   173
1070
     1
1070
     6
1000
_OPEN
1070
     7
1000
_OPEN
1070
    41
1040
2.000000
1002
}
  0
DIMENSION
  5
2D5
100
AcDbEntity
  8
MAIN0
  6
CONTINUOUS
 62
3
100
AcDbDimension
  2
*D39
 10
483.8043230866847
 20
363.1457822110447
 30
0.0000000000000000
 11
503.5107820301055
 21
367.4023143654823
 31
0.0000000000000000
 70
162
  3
MAIN001
100
AcDb2LineAngularDimension
 13
504.9852696840783
 23
347.7512402459599
 33
0.0000000000000000
 14
504.2781629028916
 24
347.0441334647737
 34
0.0000000000000000
 15
483.3043230866847
 25
362.2797568072603
 35
0.0000000000000000
 16
503.2064013156011
 26
367.0056376953368
 36
0.0000000000000000
1001
ACAD
1000
DSTYLE
1002
{
1070
   173
1070
     1
1070
     6
1000
_OPEN
1070
     7
1000
_OPEN
1070
    41
1040
2.000000
1002
}
  0
DIMENSION
  5
2DE
100
AcDbEntity
  8
MAIN0
  6
CONTINUOUS
 62
3
100
AcDbDimension
  2
*D40
 10
433.8412765545863
 20
380.1072471165229
 30
0.0000000000000000
 11
463.4617387269292
 21
387.1523168873782
 31
0.0000000000000000
 70
162
  3
MAIN001
100
AcDb2LineAngularDimension
 13
483.8043230866847
 23
363.1457822110447
 33
0.0000000000000000
 14
483.3043230866847
 24
362.2797568072603
 34
0.0000000000000000
 15
433.8412765545863
 25
379.1072471165229
 35
0.0000000000000000
 16
463.3323292043780
 26
386.6693539742337
 36
0.0000000000000000
1001
ACAD
1000
DSTYLE
1002
{
1070
   173
1070
     1
1070
     6
1000
_OPEN
1070
     7
1000
_OPEN
1070
    41
1040
2.000000
1002
}
  0
LEADER
  5
2DF
100
AcDbEntity
  8
MAIN0
  6
CONTINUOUS
 62
3
100
AcDbLeader
  3
MAIN001
 73
     0
 74
     0
 75
     1
 40
3.099999904632568
 41
26.50100001490114
 76
     3
 10
223.6650941907359
 20
305.8799011847916
 30
0.0000000000000000
 10
263.8412765545863
 20
351.6072471165230
 30
0.0000000000000000
 10
265.6262765019256
 20
351.6072471165230
 30
0.0000000000000000
340
2E0
213
1.784999947339315
223
0.0000000000000000
233
0.0000000000000000
1001
ACAD
1000
DSTYLE
1002
{
1070
   147
1040
0.0
1070
    77
1070
     1
1070
   173
1070
     1
1070
     6
1000
_DOT
1070
     7
1000
_DOT
1002
}
  0
MTEXT
  5
2E0
102
{ACAD_REACTORS
330
2DF
102
}
100
AcDbEntity
  8
MAIN0
  6
CONTINUOUS
 62
3
100
AcDbMText
 10
263.8412765545863
 20
354.7072470211555
 30
0.0000000000000000
 40
3.099999904632568
 41
0.0000000000000000
 71
     1
 72
     1
  1
{\H0.70x;{Ｂアナツキ　M6×12}}
 11
1.000000000000000
 21
0.0000000000000000
 31
0.0000000000000000
  7
KNJYOKO
  0
DIMENSION
  5
2E7
100
AcDbEntity
  8
MAIN0
  6
CONTINUOUS
 62
3
100
AcDbDimension
  2
*D41
 10
157.8869394160319
 20
285.6072471165198
 30
0.0000000000000000
 11
157.3869394160319
 21
276.6072471165198
 31
0.0000000000000000
 70
32
  1
\A1;\U+220518
  3
MAIN001
100
AcDbAlignedDimension
 13
129.3413837373894
 23
267.6072471165198
 33
0.0000000000000000
 14
129.3413837373894
 24
285.6072471165198
 34
0.0000000000000000
 50
90.00000000000000
100
AcDbRotatedDimension
1001
ACAD
1000
DSTYLE
1002
{
1070
   173
1070
     1
1070
     6
1000
_OPEN
1070
     7
1000
_OPEN
1070
    41
1040
2.000000
1002
}
  0
DIMENSION
  5
2EE
100
AcDbEntity
  8
MAIN0
  6
CONTINUOUS
 62
3
100
AcDbDimension
  2
*D42
 10
109.5164459615674
 20
283.1072471165227
 30
0.0000000000000000
 11
109.0164459615674
 21
276.6072471165227
 31
0.0000000000000000
 70
32
  1
\A1;\U+220513
  3
MAIN001
100
AcDbAlignedDimension
 13
118.3412765545870
 23
270.1072471165227
 33
0.0000000000000000
 14
118.3412765545990
 24
283.1072471165227
 34
0.0000000000000000
 50
90.00000000000000
100
AcDbRotatedDimension
1001
ACAD
1000
DSTYLE
1002
{
1070
   173
1070
     1
1070
     6
1000
_OPEN
1070
     7
1000
_OPEN
1070
    41
1040
2.000000
1002
}
  0
DIMENSION
  5
2F7
100
AcDbEntity
  8
MAIN0
  6
CONTINUOUS
 62
3
100
AcDbDimension
  2
*D43
 10
76.84127655458752
 20
303.2681892139389
 30
0.0000000000000000
 11
83.42873461860046
 21
303.7681892139389
 31
0.0000000000000000
 70
160
  3
MAIN001
100
AcDbAlignedDimension
 13
77.34127655458707
 23
288.7632173746493
 33
0.0000000000000000
 14
76.84127655458752
 24
377.5072471165232
 34
0.0000000000000000
100
AcDbRotatedDimension
1001
ACAD
1000
DSTYLE
1002
{
1070
   173
1070
     1
1070
     6
1000
_OPEN
1070
     7
1000
_OPEN
1070
    41
1040
2.000000
1070
   287
1070
     0
1002
}
  0
INSERT
  5
2FE
100
AcDbEntity
  8
MAIN0
  6
CONTINUOUS
 62
3
100
AcDbBlockReference
  2
D44
 10
236.9325978344573
 20
276.6072471165230
 30
0.0000000000000000
 50
0.0000000000000000
  0
LINE
  5
2FF
100
AcDbEntity
  8
MAIN0
  6
CENTER
 62
3
100
AcDbLine
 10
158.8869394160319
 20
276.6072471165230
 30
0.0000000000000000
 11
236.9325978344573
 21
276.6072471165230
 31
0.0000000000000000
  0
LINE
  5
300
100
AcDbEntity
  8
MAIN0
  6
CENTER
 62
3
100
AcDbLine
 10
73.89112329543485
 20
276.6072471165230
 30
0.0000000000000000
 11
105.9164460569348
 21
276.6072471165230
 31
0.0000000000000000
  0
LINE
  5
301
100
AcDbEntity
  8
MAIN0
  6
CENTER
 62
3
100
AcDbLine
 10
109.0164459615674
 20
276.6072471165230
 30
0.0000000000000000
 11
152.7869395113993
 21
276.6072471165230
 31
0.0000000000000000
  0
DIMENSION
  5
30A
100
AcDbEntity
  8
MAIN0
  6
CONTINUOUS
 62
3
100
AcDbDimension
  2
*D45
 10
94.34127655458698
 20
304.8112210478267
 30
0.0000000000000000
 11
106.8412765545870
 21
305.3112210478267
 31
0.0000000000000000
 70
32
  3
MAIN001
100
AcDbAlignedDimension
 13
119.3412765545870
 23
287.0298968473396
 33
0.0000000000000000
 14
94.34127655458698
 24
282.1072471165230
 34
0.0000000000000000
100
AcDbRotatedDimension
1001
ACAD
1000
DSTYLE
1002
{
1070
   173
1070
     1
1070
     6
1000
_OPEN
1070
     7
1000
_OPEN
1070
    41
1040
2.000000
1002
}
  0
DIMENSION
  5
313
100
AcDbEntity
  8
MAIN0
  6
CONTINUOUS
 62
3
100
AcDbDimension
  2
*D46
 10
119.3412765545870
 20
304.8112210478267
 30
0.0000000000000000
 11
152.8413301459881
 21
305.3112210478267
 31
0.0000000000000000
 70
32
  3
MAIN001
100
AcDbAlignedDimension
 13
186.3413837373894
 23
290.5298968475007
 33
0.0000000000000000
 14
119.3412765545870
 24
287.0298968473396
 34
0.0000000000000000
100
AcDbRotatedDimension
1001
ACAD
1000
DSTYLE
1002
{
1070
   173
1070
     1
1070
     6
1000
_OPEN
1070
     7
1000
_OPEN
1070
    41
1040
2.000000
1002
}
  0
DIMENSION
  5
31C
100
AcDbEntity
  8
MAIN0
  6
CONTINUOUS
 62
3
100
AcDbDimension
  2
*D47
 10
186.3413837373894
 20
249.9581381313273
 30
0.0000000000000000
 11
159.2727332643716
 21
250.4581381313273
 31
0.0000000000000000
 70
160
  3
MAIN001
100
AcDbAlignedDimension
 13
129.3413837373894
 23
265.5072471165198
 33
0.0000000000000000
 14
186.3413837373894
 24
262.6845973855322
 34
0.0000000000000000
100
AcDbRotatedDimension
1001
ACAD
1000
DSTYLE
1002
{
1070
   173
1070
     1
1070
     6
1000
_OPEN
1070
     7
1000
_OPEN
1070
    41
1040
2.000000
1002
}
  0
LINE
  5
31D
100
AcDbEntity
  8
MAIN0
  6
CONTINUOUS
 62
3
100
AcDbLine
 10
34.79615235151130
 20
122.9951308527780
 30
0.0000000000000000
 11
140.7961523515113
 21
122.9951308527780
 31
0.0000000000000000
  0
MTEXT
  5
31E
100
AcDbEntity
  8
MAIN0
  6
CONTINUOUS
 62
3
100
AcDbMText
 10
80.66759304748123
 20
117.3107198978920
 30
0.0000000000000000
 40
3.100000381469727
 41
0.0000000000000000
 71
     1
 72
     1
  1
{\H0.93x;{仕　　　様}}
 11
1.000000000000000
 21
0.0000000000000000
 31
0.0000000000000000
  7
KNJYOKO
  0
MTEXT
  5
31F
100
AcDbEntity
  8
MAIN0
  6
CONTINUOUS
 62
3
100
AcDbMText
 10
70.86439995845771
 20
121.3552554053602
 30
0.0000000000000000
 40
3.100000381469727
 41
0.0000000000000000
 71
     1
 72
     1
  1
{\H0.94x;{SPECIFICATIONS}}
 11
1.000000000000000
 21
0.0000000000000000
 31
0.0000000000000000
  7
STANDARD
  0
LINE
  5
320
100
AcDbEntity
  8
MAIN0
  6
CONTINUOUS
 62
3
100
AcDbLine
 10
34.79615235151127
 20
122.9951308527780
 30
0.0000000000000000
 11
34.79615235151135
 21
27.99513085277792
 31
0.0000000000000000
  0
LINE
  5
321
100
AcDbEntity
  8
MAIN0
  6
CONTINUOUS
 62
3
100
AcDbLine
 10
34.79615235151130
 20
112.9951308527780
 30
0.0000000000000000
 11
140.7961523515113
 21
112.9951308527780
 31
0.0000000000000000
  0
MTEXT
  5
322
100
AcDbEntity
  8
MAIN0
  6
CONTINUOUS
 62
3
100
AcDbMText
 10
38.00162888119891
 20
112.3584247402620
 30
0.0000000000000000
 40
2.499999046325684
 41
0.0000000000000000
 71
     1
 72
     1
  1
{\H0.75x;{PLUNGER STROKE}}
 11
1.000000000000000
 21
0.0000000000000000
 31
0.0000000000000000
  7
STANDARD
  0
LINE
  5
323
100
AcDbEntity
  8
MAIN0
  6
CONTINUOUS
 62
3
100
AcDbLine
 10
34.79615235151127
 20
105.9951308527780
 30
0.0000000000000000
 11
140.7961523515113
 21
105.9951308527780
 31
0.0000000000000000
  0
LINE
  5
324
100
AcDbEntity
  8
MAIN0
  6
CONTINUOUS
 62
3
100
AcDbLine
 10
34.79615235151127
 20
98.99513085277798
 30
0.0000000000000000
 11
140.7961523515113
 21
98.99513085277795
 31
0.0000000000000000
  0
LINE
  5
325
100
AcDbEntity
  8
MAIN0
  6
CONTINUOUS
 62
3
100
AcDbLine
 10
140.7961523515113
 20
122.9951308527779
 30
0.0000000000000000
 11
140.7961523515113
 21
27.99513085277786
 31
0.0000000000000000
  0
MTEXT
  5
326
100
AcDbEntity
  8
MAIN0
  6
CONTINUOUS
 62
3
100
AcDbMText
 10
114.8888704183938
 20
111.0030379015928
 30
0.0000000000000000
 40
3.099999904632568
 41
0.0000000000000000
 71
     1
 72
     1
  1
{\H0.87x;{10.3　mm}}
 11
1.000000000000000
 21
0.0000000000000000
 31
0.0000000000000000
  7
KNJYOKO
  0
MTEXT
  5
327
100
AcDbEntity
  8
MAIN0
  6
CONTINUOUS
 62
3
100
AcDbMText
 10
114.8888704183938
 20
104.0030379015928
 30
0.0000000000000000
 40
3.099999904632568
 41
0.0000000000000000
 71
     1
 72
     1
  1
{\H0.87x;{ 4.8　mm}}
 11
1.000000000000000
 21
0.0000000000000000
 31
0.0000000000000000
  7
KNJYOKO
  0
LINE
  5
328
100
AcDbEntity
  8
MAIN0
  6
CONTINUOUS
 62
3
100
AcDbLine
 10
55.79615235151127
 20
84.99513085277792
 30
0.0000000000000000
 11
140.7961523515113
 21
84.99513085277792
 31
0.0000000000000000
  0
LINE
  5
329
100
AcDbEntity
  8
MAIN0
  6
CONTINUOUS
 62
3
100
AcDbLine
 10
34.79615235151121
 20
70.99513085277792
 30
0.0000000000000000
 11
140.7961523515113
 21
70.99513085277792
 31
0.0000000000000000
  0
LINE
  5
32A
100
AcDbEntity
  8
MAIN0
  6
CONTINUOUS
 62
3
100
AcDbLine
 10
34.79615235151121
 20
56.99513085277792
 30
0.0000000000000000
 11
140.7961523515113
 21
56.99513085277792
 31
0.0000000000000000
  0
LINE
  5
32B
100
AcDbEntity
  8
MAIN0
  6
CONTINUOUS
 62
3
100
AcDbLine
 10
34.79615235151121
 20
49.99513085277792
 30
0.0000000000000000
 11
140.7961523515113
 21
49.99513085277792
 31
0.0000000000000000
  0
MTEXT
  5
32C
100
AcDbEntity
  8
MAIN0
  6
CONTINUOUS
 62
3
100
AcDbMText
 10
88.29615235151132
 20
53.79513075741042
 30
0.0000000000000000
 40
3.099999904632568
 41
0.0000000000000000
 71
     1
 72
     1
  1
{\H0.71x;{0.2 MPa　(　2kgf/cm )}}
 11
1.000000000000000
 21
0.0000000000000000
 31
0.0000000000000000
  7
KNJYOKO
  0
LINE
  5
32D
100
AcDbEntity
  8
MAIN0
  6
CONTINUOUS
 62
3
100
AcDbLine
 10
34.79615235151121
 20
34.99513085277792
 30
0.0000000000000000
 11
140.7961523515113
 21
34.99513085277792
 31
0.0000000000000000
  0
MTEXT
  5
32E
100
AcDbEntity
  8
MAIN0
  6
CONTINUOUS
 62
3
100
AcDbMText
 10
34.74457476490315
 20
27.22716193478922
 30
0.0000000000000000
 40
3.099999904632568
 41
0.0000000000000000
 71
     1
 72
     1
  1
{\H0.71x;{○把握力はジョーおよびワークの把握部状態により変化します。\P　THE GRIPPING FORCE IS DIFFERENT DEPENDING ON\P　THE GRIPPING STATE.}}
 11
1.000000000000000
 21
0.0000000000000000
 31
0.0000000000000000
  7
KNJYOKO
  0
LINE
  5
32F
100
AcDbEntity
  8
MAIN0
  6
CONTINUOUS
 62
3
100
AcDbLine
 10
34.79615235151127
 20
27.99513085277792
 30
0.0000000000000000
 11
140.7961523515113
 21
27.99513085277792
 31
0.0000000000000000
  0
MTEXT
  5
330
100
AcDbEntity
  8
MAIN0
  6
CONTINUOUS
 62
3
100
AcDbMText
 10
48.00162888119886
 20
33.99517495035715
 30
0.0000000000000000
 40
2.000000000000000
 41
0.0000000000000000
 71
     1
 72
     1
  1
{\H0.63x;{(INCLUDE STANDARD SOFT JAW)}}
 11
1.000000000000000
 21
0.0000000000000000
 31
0.0000000000000000
  7
STANDARD
  0
MTEXT
  5
331
100
AcDbEntity
  8
MAIN0
  6
CONTINUOUS
 62
3
100
AcDbMText
 10
38.00162888119886
 20
31.39517456888743
 30
0.0000000000000000
 40
2.399999618530273
 41
0.0000000000000000
 71
     1
 72
     1
  1
{\H0.94x;{質量 (標準ソフトジョー付)}}
 11
1.000000000000000
 21
0.0000000000000000
 31
0.0000000000000000
  7
KNJYOKO
  0
MTEXT
  5
332
100
AcDbEntity
  8
MAIN0
  6
CONTINUOUS
 62
3
100
AcDbMText
 10
114.2961523514930
 20
30.99513085277792
 30
0.0000000000000000
 40
3.099999904632568
 41
0.0000000000000000
 71
     4
 72
     1
  1
{\H0.92x;{21 kg}}
 11
1.000000000000000
 21
0.0000000000000000
 31
0.0000000000000000
  7
STANDARD
  0
MTEXT
  5
333
100
AcDbEntity
  8
MAIN0
  6
CONTINUOUS
 62
4
100
AcDbMText
 10
110.8888704183937
 20
43.50303790159282
 30
0.0000000000000000
 40
3.099999904632568
 41
0.0000000000000000
 71
     1
 72
     1
  1
{\H0.92x;{0.54　N}}
 11
1.000000000000000
 21
0.0000000000000000
 31
0.0000000000000000
  7
KNJYOKO
  0
SPLINE
  5
334
100
AcDbEntity
  8
MAIN0
  6
CONTINUOUS
 62
3
100
AcDbSpline
210
0.0000000000000000
220
0.0000000000000000
230
1.000000000000000
 70
     8
 71
     3
 72
    14
 73
    10
 74
     0
 42
1.000000000000000e-007
 43
1.000000000000000e-007
 12
1.205313937519463
 22
0.3012197250379813
 32
0.0000000000000000
 13
0.9118704780836424
 23
0.7328372388452067
 33
0.0000000000000000
 40
0.0000000000000000
 40
0.0000000000000000
 40
0.0000000000000000
 40
0.0000000000000000
 40
0.5828484074954654
 40
2.017389827489209
 40
3.123506893394179
 40
4.885508420049012
 40
6.048697447303496
 40
6.384151807376483
 40
6.831490023551860
 40
6.831490023551860
 40
6.831490023551860
 40
6.831490023551860
 10
128.6498404110922
 20
40.68731821584296
 30
0.0000000000000000
 10
128.8840121807640
 20
40.74584002819117
 30
0.0000000000000000
 10
129.6945415395912
 20
40.94839923123524
 30
0.0000000000000000
 10
130.2262681800541
 20
42.10804053253818
 30
0.0000000000000000
 10
130.3650753073796
 20
44.61622001966575
 30
0.0000000000000000
 10
129.1168297514468
 20
42.19007154925245
 30
0.0000000000000000
 10
129.0258222167479
 20
40.28547961076615
 30
0.0000000000000000
 10
129.8794547660617
 20
40.58035135917052
 30
0.0000000000000000
 10
130.1173899129762
 20
40.77157120922627
 30
0.0000000000000000
 10
130.2533614173258
 20
40.88084657695023
 30
0.0000000000000000
  0
MTEXT
  5
335
100
AcDbEntity
  8
MAIN0
  6
CONTINUOUS
 62
3
100
AcDbMText
 10
124.6178411672915
 20
54.62907941500814
 30
0.0000000000000000
 40
2.000000000000000
 41
0.0000000000000000
 71
     1
 72
     1
  1
{\H0.82x;{2}}
 11
1.000000000000000
 21
0.0000000000000000
 31
0.0000000000000000
  7
STANDARD
  0
MTEXT
  5
336
100
AcDbEntity
  8
MAIN0
  6
CONTINUOUS
 62
3
100
AcDbMText
 10
124.7513888557681
 20
61.48592123881028
 30
0.0000000000000000
 40
2.000000000000000
 41
0.0000000000000000
 71
     1
 72
     1
  1
{\H0.82x;{2}}
 11
1.000000000000000
 21
0.0000000000000000
 31
0.0000000000000000
  7
STANDARD
  0
MTEXT
  5
337
100
AcDbEntity
  8
MAIN0
  6
CONTINUOUS
 62
3
100
AcDbMText
 10
88.29615235151132
 20
60.79513075741042
 30
0.0000000000000000
 40
3.099999904632568
 41
0.0000000000000000
 71
     1
 72
     1
  1
{\H0.71x;{1.3 MPa　(13kgf/cm )}}
 11
1.000000000000000
 21
0.0000000000000000
 31
0.0000000000000000
  7
KNJYOKO
  0
MTEXT
  5
338
100
AcDbEntity
  8
MAIN0
  6
CONTINUOUS
 62
3
100
AcDbMText
 10
88.29615235151127
 20
67.79513075741042
 30
0.0000000000000000
 40
3.099999904632568
 41
0.0000000000000000
 71
     1
 72
     1
  1
{\H0.71x;{0.7 MPa　( 7kgf/cm )}}
 11
1.000000000000000
 21
0.0000000000000000
 31
0.0000000000000000
  7
KNJYOKO
  0
MTEXT
  5
339
100
AcDbEntity
  8
MAIN0
  6
CONTINUOUS
 62
3
100
AcDbMText
 10
124.6178411672914
 20
68.62907941500814
 30
0.0000000000000000
 40
2.000000000000000
 41
0.0000000000000000
 71
     1
 72
     1
  1
{\H0.82x;{2}}
 11
1.000000000000000
 21
0.0000000000000000
 31
0.0000000000000000
  7
STANDARD
  0
LINE
  5
33A
100
AcDbEntity
  8
MAIN0
  6
CONTINUOUS
 62
3
100
AcDbLine
 10
85.79615235151130
 20
27.99513085277795
 30
0.0000000000000000
 11
85.79615235151121
 21
112.9951308527604
 31
0.0000000000000000
  0
MTEXT
  5
33B
100
AcDbEntity
  8
MAIN0
  6
CONTINUOUS
 62
3
100
AcDbMText
 10
63.79615235151121
 20
70.19512989910353
 30
0.0000000000000000
 40
2.499999046325684
 41
0.0000000000000000
 71
     1
 72
     1
  1
{\H0.74x;{AIR PRESSURE}}
 11
1.000000000000000
 21
0.0000000000000000
 31
0.0000000000000000
  7
STANDARD
  0
MTEXT
  5
33C
100
AcDbEntity
  8
MAIN0
  6
CONTINUOUS
 62
3
100
AcDbMText
 10
63.79615235151121
 20
67.09513047130812
 30
0.0000000000000000
 40
2.399999618530273
 41
0.0000000000000000
 71
     1
 72
     1
  1
{\H0.92x;{エア圧力}}
 11
1.000000000000000
 21
0.0000000000000000
 31
0.0000000000000000
  7
KNJYOKO
  0
MTEXT
  5
33D
100
AcDbEntity
  8
MAIN0
  6
CONTINUOUS
 62
3
100
AcDbMText
 10
63.79615235151127
 20
63.19512989910353
 30
0.0000000000000000
 40
2.499999046325684
 41
0.0000000000000000
 71
     1
 72
     1
  1
{\H0.74x;{OIL PRESSURE}}
 11
1.000000000000000
 21
0.0000000000000000
 31
0.0000000000000000
  7
STANDARD
  0
MTEXT
  5
33E
100
AcDbEntity
  8
MAIN0
  6
CONTINUOUS
 62
3
100
AcDbMText
 10
63.79615235151127
 20
60.09513047130812
 30
0.0000000000000000
 40
2.399999618530273
 41
0.0000000000000000
 71
     1
 72
     1
  1
{\H0.91x;{油圧力}}
 11
1.000000000000000
 21
0.0000000000000000
 31
0.0000000000000000
  7
KNJYOKO
  0
LINE
  5
33F
100
AcDbEntity
  8
MAIN0
  6
CONTINUOUS
 62
3
100
AcDbLine
 10
61.79615235151127
 20
70.99513085277792
 30
0.0000000000000000
 11
61.79615235151127
 21
56.99513085277803
 31
0.0000000000000000
  0
LINE
  5
340
100
AcDbEntity
  8
MAIN0
  6
CONTINUOUS
 62
3
100
AcDbLine
 10
61.79615235151127
 20
63.99513085277792
 30
0.0000000000000000
 11
140.7961523515113
 21
63.99513085277792
 31
0.0000000000000000
  0
MTEXT
  5
341
100
AcDbEntity
  8
MAIN0
  6
CONTINUOUS
 62
3
100
AcDbMText
 10
38.00162888119886
 20
68.86063162812272
 30
0.0000000000000000
 40
2.500000000000000
 41
0.0000000000000000
 71
     1
 72
     1
  1
{\H0.63x;{MAX PERMISSIBLE\PPRESS}}
 11
1.000000000000000
 21
0.0000000000000000
 31
0.0000000000000000
  7
STANDARD
  0
MTEXT
  5
342
100
AcDbEntity
  8
MAIN0
  6
CONTINUOUS
 62
3
100
AcDbMText
 10
38.00162888119886
 20
61.76063124665299
 30
0.0000000000000000
 40
2.399999618530273
 41
0.0000000000000000
 71
     1
 72
     1
  1
{\H0.93x;{最高使用圧力}}
 11
1.000000000000000
 21
0.0000000000000000
 31
0.0000000000000000
  7
KNJYOKO
  0
MTEXT
  5
343
100
AcDbEntity
  8
MAIN0
  6
CONTINUOUS
 62
3
100
AcDbMText
 10
38.00162888119886
 20
56.35842569393626
 30
0.0000000000000000
 40
2.500000000000000
 41
0.0000000000000000
 71
     1
 72
     1
  1
{\H0.63x;{MIN PERMISSIBLE PRESS}}
 11
1.000000000000000
 21
0.0000000000000000
 31
0.0000000000000000
  7
STANDARD
  0
MTEXT
  5
344
100
AcDbEntity
  8
MAIN0
  6
CONTINUOUS
 62
3
100
AcDbMText
 10
38.00162888119886
 20
53.25842531246653
 30
0.0000000000000000
 40
2.399999618530273
 41
0.0000000000000000
 71
     1
 72
     1
  1
{\H0.93x;{最低使用圧力}}
 11
1.000000000000000
 21
0.0000000000000000
 31
0.0000000000000000
  7
KNJYOKO
  0
MTEXT
  5
345
100
AcDbEntity
  8
MAIN0
  6
CONTINUOUS
 62
3
100
AcDbMText
 10
38.00162888119891
 20
47.99509236060325
 30
0.0000000000000000
 40
2.000000000000000
 41
0.0000000000000000
 71
     1
 72
     1
  1
{\H0.63x;{AIR CONSUMPTION (PER 5mm OF PLUNGER }}
 11
1.000000000000000
 21
0.0000000000000000
 31
0.0000000000000000
  7
STANDARD
  0
MTEXT
  5
346
100
AcDbEntity
  8
MAIN0
  6
CONTINUOUS
 62
3
100
AcDbMText
 10
38.00162888119891
 20
44.99509236060325
 30
0.0000000000000000
 40
2.000000000000000
 41
0.0000000000000000
 71
     1
 72
     1
  1
{\H0.62x;{STROKE ON PRESSURE OF 0.6MPa)}}
 11
1.000000000000000
 21
0.0000000000000000
 31
0.0000000000000000
  7
STANDARD
  0
MTEXT
  5
347
100
AcDbEntity
  8
MAIN0
  6
CONTINUOUS
 62
3
100
AcDbMText
 10
38.00162888119914
 20
41.39509197913353
 30
0.0000000000000000
 40
2.399999618530273
 41
0.0000000000000000
 71
     1
 72
     1
  1
{\H0.92x;{空気消費量}}
 11
1.000000000000000
 21
0.0000000000000000
 31
0.0000000000000000
  7
KNJYOKO
  0
MTEXT
  5
348
100
AcDbEntity
  8
MAIN0
  6
CONTINUOUS
 62
3
100
AcDbMText
 10
38.00162888119891
 20
38.49509236060325
 30
0.0000000000000000
 40
2.500000000000000
 41
0.0000000000000000
 71
     1
 72
     1
  1
{\H0.59x;{(プランジャストローク5mm当り圧力0.6MPa時)}}
 11
1.000000000000000
 21
0.0000000000000000
 31
0.0000000000000000
  7
KNJYOKO
  0
MTEXT
  5
349
100
AcDbEntity
  8
MAIN0
  6
CONTINUOUS
 62
3
100
AcDbMText
 10
38.00162888119886
 20
34.49517399668284
 30
0.0000000000000000
 40
2.499999046325684
 41
0.0000000000000000
 71
     1
 72
     1
  1
{\H0.73x;{MASS}}
 11
1.000000000000000
 21
0.0000000000000000
 31
0.0000000000000000
  7
STANDARD
  0
MTEXT
  5
34A
100
AcDbEntity
  8
MAIN0
  6
CONTINUOUS
 62
3
100
AcDbMText
 10
38.00162888119891
 20
109.2584253124666
 30
0.0000000000000000
 40
2.399999618530273
 41
0.0000000000000000
 71
     1
 72
     1
  1
{\H0.93x;{プランジャストロ－ク}}
 11
1.000000000000000
 21
0.0000000000000000
 31
0.0000000000000000
  7
KNJYOKO
  0
MTEXT
  5
34B
100
AcDbEntity
  8
MAIN0
  6
CONTINUOUS
 62
3
100
AcDbMText
 10
38.00162888119891
 20
105.3584247402620
 30
0.0000000000000000
 40
2.499999046325684
 41
0.0000000000000000
 71
     1
 72
     1
  1
{\H0.75x;{JAW STROKE (IN DIA)}}
 11
1.000000000000000
 21
0.0000000000000000
 31
0.0000000000000000
  7
STANDARD
  0
MTEXT
  5
34C
100
AcDbEntity
  8
MAIN0
  6
CONTINUOUS
 62
3
100
AcDbMText
 10
38.00162888119891
 20
102.2584253124666
 30
0.0000000000000000
 40
2.399999618530273
 41
0.0000000000000000
 71
     1
 72
     1
  1
{\H0.94x;{ジョーストローク(直径で)}}
 11
1.000000000000000
 21
0.0000000000000000
 31
0.0000000000000000
  7
KNJYOKO
  0
MTEXT
  5
34D
100
AcDbEntity
  8
MAIN0
  6
CONTINUOUS
 62
3
100
AcDbMText
 10
36.79615235151121
 20
90.99512989910366
 30
0.0000000000000000
 40
2.499999046325684
 41
0.0000000000000000
 71
     1
 72
     1
  1
{\H0.74x;{GRIPPING\PFORCE}}
 11
1.000000000000000
 21
0.0000000000000000
 31
0.0000000000000000
  7
STANDARD
  0
MTEXT
  5
34E
100
AcDbEntity
  8
MAIN0
  6
CONTINUOUS
 62
3
100
AcDbMText
 10
36.79615235151121
 20
82.49513085277792
 30
0.0000000000000000
 40
3.099999904632568
 41
0.0000000000000000
 71
     4
 72
     1
  1
{\H0.70x;{把握力}}
 11
1.000000000000000
 21
0.0000000000000000
 31
0.0000000000000000
  7
KNJYOKO
  0
MTEXT
  5
34F
100
AcDbEntity
  8
MAIN0
  6
CONTINUOUS
 62
3
100
AcDbMText
 10
57.79615235151121
 20
92.09513047130818
 30
0.0000000000000000
 40
2.399999618530273
 41
0.0000000000000000
 71
     1
 72
     1
  1
{\H0.93x;{0.6 MPa\P( 6kgf/cm )}}
 11
1.000000000000000
 21
0.0000000000000000
 31
0.0000000000000000
  7
STANDARD
  0
MTEXT
  5
350
100
AcDbEntity
  8
MAIN0
  6
CONTINUOUS
 62
3
100
AcDbMText
 10
57.79615235151121
 20
98.19512989910359
 30
0.0000000000000000
 40
2.499999046325684
 41
0.0000000000000000
 71
     1
 72
     1
  1
{\H0.74x;{AIR PRESSURE}}
 11
1.000000000000000
 21
0.0000000000000000
 31
0.0000000000000000
  7
STANDARD
  0
MTEXT
  5
351
100
AcDbEntity
  8
MAIN0
  6
CONTINUOUS
 62
3
100
AcDbMText
 10
57.79615235151121
 20
95.09513047130818
 30
0.0000000000000000
 40
2.399999618530273
 41
0.0000000000000000
 71
     1
 72
     1
  1
{\H0.92x;{エア圧力}}
 11
1.000000000000000
 21
0.0000000000000000
 31
0.0000000000000000
  7
KNJYOKO
  0
MTEXT
  5
352
100
AcDbEntity
  8
MAIN0
  6
CONTINUOUS
 62
3
100
AcDbMText
 10
77.63432922602638
 20
90.28123216495047
 30
0.0000000000000000
 40
2.000000000000000
 41
0.0000000000000000
 71
     1
 72
     1
  1
{\H0.82x;{2}}
 11
1.000000000000000
 21
0.0000000000000000
 31
0.0000000000000000
  7
STANDARD
  0
MTEXT
  5
353
100
AcDbEntity
  8
MAIN0
  6
CONTINUOUS
 62
3
100
AcDbMText
 10
77.63432922602661
 20
76.28123216495041
 30
0.0000000000000000
 40
2.000000000000000
 41
0.0000000000000000
 71
     1
 72
     1
  1
{\H0.82x;{2}}
 11
1.000000000000000
 21
0.0000000000000000
 31
0.0000000000000000
  7
STANDARD
  0
MTEXT
  5
354
100
AcDbEntity
  8
MAIN0
  6
CONTINUOUS
 62
3
100
AcDbMText
 10
57.79615235151121
 20
78.09513047130824
 30
0.0000000000000000
 40
2.399999618530273
 41
0.0000000000000000
 71
     1
 72
     1
  1
{\H0.93x;{1.3 MPa\P(13kgf/cm )}}
 11
1.000000000000000
 21
0.0000000000000000
 31
0.0000000000000000
  7
STANDARD
  0
MTEXT
  5
355
100
AcDbEntity
  8
MAIN0
  6
CONTINUOUS
 62
3
100
AcDbMText
 10
57.79615235151121
 20
84.19512989910353
 30
0.0000000000000000
 40
2.499999046325684
 41
0.0000000000000000
 71
     1
 72
     1
  1
{\H0.74x;{OIL PRESSURE}}
 11
1.000000000000000
 21
0.0000000000000000
 31
0.0000000000000000
  7
STANDARD
  0
MTEXT
  5
356
100
AcDbEntity
  8
MAIN0
  6
CONTINUOUS
 62
3
100
AcDbMText
 10
57.79615235151121
 20
81.09513047130812
 30
0.0000000000000000
 40
2.399999618530273
 41
0.0000000000000000
 71
     1
 72
     1
  1
{\H0.91x;{油圧力}}
 11
1.000000000000000
 21
0.0000000000000000
 31
0.0000000000000000
  7
KNJYOKO
  0
LINE
  5
357
100
AcDbEntity
  8
MAIN0
  6
CONTINUOUS
 62
3
100
AcDbLine
 10
55.79615235151127
 20
98.99513085277798
 30
0.0000000000000000
 11
55.79615235151127
 21
70.99513085277803
 31
0.0000000000000000
  0
MTEXT
  5
358
100
AcDbEntity
  8
MAIN0
  6
CONTINUOUS
 62
3
100
AcDbMText
 10
120.5631058184754
 20
90.68460088936124
 30
0.0000000000000000
 40
2.799999237060547
 41
0.0000000000000000
 71
     1
 72
     1
  1
{\H0.60x;{　　　ｋｇｆ)}}
 11
1.000000000000000
 21
0.0000000000000000
 31
0.0000000000000000
  7
KNJYOKO
  0
MTEXT
  5
359
100
AcDbEntity
  8
MAIN0
  6
CONTINUOUS
 62
3
100
AcDbMText
 10
121.5631058184754
 20
94.68460088936124
 30
0.0000000000000000
 40
2.799999237060547
 41
0.0000000000000000
 71
     1
 72
     1
  1
{\H0.58x;{　　　　ｋＮ}}
 11
1.000000000000000
 21
0.0000000000000000
 31
0.0000000000000000
  7
KNJYOKO
  0
MTEXT
  5
35A
100
AcDbEntity
  8
MAIN0
  6
CONTINUOUS
 62
3
100
AcDbMText
 10
111.5631058184754
 20
91.18460160461720
 30
0.0000000000000000
 40
2.799999952316284
 41
0.0000000000000000
 71
     1
 72
     1
  1
{\H0.91x;{2039}}
 11
1.000000000000000
 21
0.0000000000000000
 31
0.0000000000000000
  7
STANDARD
  0
MTEXT
  5
35B
100
AcDbEntity
  8
MAIN0
  6
CONTINUOUS
 62
3
100
AcDbMText
 10
108.5631058184754
 20
95.98460155693348
 30
0.0000000000000000
 40
3.099999904632568
 41
0.0000000000000000
 71
     1
 72
     1
  1
{\H0.88x;{20}}
 11
1.000000000000000
 21
0.0000000000000000
 31
0.0000000000000000
  7
STANDARD
  0
MTEXT
  5
35C
100
AcDbEntity
  8
MAIN0
  6
CONTINUOUS
 62
3
100
AcDbMText
 10
120.5631058184754
 20
76.68460088936118
 30
0.0000000000000000
 40
2.799999237060547
 41
0.0000000000000000
 71
     1
 72
     1
  1
{\H0.60x;{　　　ｋｇｆ)}}
 11
1.000000000000000
 21
0.0000000000000000
 31
0.0000000000000000
  7
KNJYOKO
  0
MTEXT
  5
35D
100
AcDbEntity
  8
MAIN0
  6
CONTINUOUS
 62
3
100
AcDbMText
 10
121.5631058184754
 20
80.68460088936118
 30
0.0000000000000000
 40
2.799999237060547
 41
0.0000000000000000
 71
     1
 72
     1
  1
{\H0.58x;{　　　　ｋＮ}}
 11
1.000000000000000
 21
0.0000000000000000
 31
0.0000000000000000
  7
KNJYOKO
  0
MTEXT
  5
35E
100
AcDbEntity
  8
MAIN0
  6
CONTINUOUS
 62
3
100
AcDbMText
 10
111.5631058184754
 20
77.18460160461714
 30
0.0000000000000000
 40
2.799999952316284
 41
0.0000000000000000
 71
     1
 72
     1
  1
{\H0.91x;{5812}}
 11
1.000000000000000
 21
0.0000000000000000
 31
0.0000000000000000
  7
STANDARD
  0
MTEXT
  5
35F
100
AcDbEntity
  8
MAIN0
  6
CONTINUOUS
 62
3
100
AcDbMText
 10
108.5631058184754
 20
81.98460155693343
 30
0.0000000000000000
 40
3.099999904632568
 41
0.0000000000000000
 71
     1
 72
     1
  1
{\H0.88x;{57}}
 11
1.000000000000000
 21
0.0000000000000000
 31
0.0000000000000000
  7
STANDARD
  0
MTEXT
  5
360
100
AcDbEntity
  8
MAIN0
  6
CONTINUOUS
 62
3
100
AcDbMText
 10
349.5023776852886
 20
108.2344079210871
 30
0.0000000000000000
 40
3.099999904632568
 41
0.0000000000000000
 71
     1
 72
     1
  1
{\H0.94x;{北川チャック専用グリスを取扱説明書にしたがってグリスアップしてください。}}
 11
1.000000000000000
 21
0.0000000000000000
 31
0.0000000000000000
  7
KNJYOKO
  0
MTEXT
  5
361
100
AcDbEntity
  8
MAIN0
  6
CONTINUOUS
 62
3
100
AcDbMText
 10
349.5023776852886
 20
78.13440801645439
 30
0.0000000000000000
 40
3.000000000000000
 41
0.0000000000000000
 71
     1
 72
     1
  1
{\H0.63x;{KITAGAWA CHUCK GREASE SHOULD BE LUBRICATED INTO THE CHUCK BODY }}
 11
1.000000000000000
 21
0.0000000000000000
 31
0.0000000000000000
  7
STANDARD
  0
MTEXT
  5
362
100
AcDbEntity
  8
MAIN0
  6
CONTINUOUS
 62
3
100
AcDbMText
 10
349.5023776852886
 20
73.13440801645439
 30
0.0000000000000000
 40
3.000000000000000
 41
0.0000000000000000
 71
     1
 72
     1
  1
{\H0.62x;{AT APPROPRIATE INTERVAL REFERRED TO THE INSTRUCTION MANUAL.}}
 11
1.000000000000000
 21
0.0000000000000000
 31
0.0000000000000000
  7
STANDARD
  0
INSERT
  5
36D
100
AcDbEntity
  8
MAIN0
  6
CONTINUOUS
 62
3
100
AcDbBlockReference
  2
M0
 10
0.0000000000000000
 20
0.0000000000000000
 30
0.0000000000000000
 50
0.0000000000000000
  0
INSERT
  5
379
100
AcDbEntity
  8
MAIN0
  6
CONTINUOUS
 62
3
100
AcDbBlockReference
  2
M1
 10
0.0000000000000000
 20
0.0000000000000000
 30
0.0000000000000000
 50
0.0000000000000000
  0
MTEXT
  5
37A
100
AcDbEntity
  8
MAIN0
  6
CONTINUOUS
 62
3
100
AcDbMText
 10
154.4546758518910
 20
56.01259767048532
 30
0.0000000000000000
 40
5.000000000000000
 41
0.0000000000000000
 71
     1
 72
     1
  1
{\H0.63x;{GRIPPING RANGE}}
 11
1.000000000000000
 21
0.0000000000000000
 31
0.0000000000000000
  7
STANDARD
  0
MTEXT
  5
37B
100
AcDbEntity
  8
MAIN0
  6
CONTINUOUS
 62
3
100
AcDbMText
 10
154.4546758518910
 20
49.01259767048532
 30
0.0000000000000000
 40
4.000000000000000
 41
0.0000000000000000
 71
     1
 72
     1
  1
{\H0.62x;{WHEN GRIPPING BY MASTER JAW：\U+220544～\U+220570}}
 11
1.000000000000000
 21
0.0000000000000000
 31
0.0000000000000000
  7
KNJYOKO
  0
MTEXT
  5
37C
100
AcDbEntity
  8
MAIN0
  6
CONTINUOUS
 62
3
100
AcDbMText
 10
171.3090495046706
 20
44.01259767048538
 30
0.0000000000000000
 40
4.000000000000000
 41
0.0000000000000000
 71
     1
 72
     1
  1
{\H0.62x;{WHEN GRIPPING BY JAW：\U+220570～\U+2205108}}
 11
1.000000000000000
 21
0.0000000000000000
 31
0.0000000000000000
  7
KNJYOKO
  0
MTEXT
  5
37D
100
AcDbEntity
  8
MAIN0
  6
CONTINUOUS
 62
3
100
AcDbMText
 10
179.5542300461085
 20
38.11259757511795
 30
0.0000000000000000
 40
3.099999904632568
 41
0.0000000000000000
 71
     1
 72
     1
  1
{\H0.71x;{JAW TYPE：SBE06 ：\U+220570～\U+220587}}
 11
1.000000000000000
 21
0.0000000000000000
 31
0.0000000000000000
  7
KNJYOKO
  0
MTEXT
  5
37E
100
AcDbEntity
  8
MAIN0
  6
CONTINUOUS
 62
3
100
AcDbMText
 10
179.5542300461085
 20
34.11259757511795
 30
0.0000000000000000
 40
3.099999904632568
 41
0.0000000000000000
 71
     1
 72
     1
  1
{\H0.71x;{JAW TYPE：SBE06A ：\U+220589～\U+2205108（OPTION）}}
 11
1.000000000000000
 21
0.0000000000000000
 31
0.0000000000000000
  7
KNJYOKO
  0
MTEXT
  5
37F
100
AcDbEntity
  8
MAIN0
  6
CONTINUOUS
 62
3
100
AcDbMText
 10
28.28075242368823
 20
235.2260342721369
 30
0.0000000000000000
 40
2.799999952316284
 41
0.0000000000000000
 71
     1
 72
     1
  1
{\H0.67x;{THE BOTTOM PIPING\PBECAUSE OF THE\PAIR CONFIRMATION\PFOR THE JAW LIFTING}}
 11
1.000000000000000
 21
0.0000000000000000
 31
0.0000000000000000
  7
STANDARD
  0
MTEXT
  5
380
100
AcDbEntity
  8
MAIN0
  6
CONTINUOUS
 62
3
100
AcDbMText
 10
214.9701461060142
 20
351.7442008942688
 30
0.0000000000000000
 40
2.799999952316284
 41
0.0000000000000000
 71
     1
 72
     1
  1
{\H0.67x;{M6 DEPTH 12}}
 11
1.000000000000000
 21
0.0000000000000000
 31
0.0000000000000000
  7
STANDARD
  0
MTEXT
  5
381
100
AcDbEntity
  8
MAIN0
  6
CONTINUOUS
 62
3
100
AcDbMText
 10
263.8163593403343
 20
350.4957474598477
 30
0.0000000000000000
 40
2.799999952316284
 41
0.0000000000000000
 71
     1
 72
     1
  1
{\H0.66x;{HEX. SOCKET HEAD SET SCREW M6x12}}
 11
1.000000000000000
 21
0.0000000000000000
 31
0.0000000000000000
  7
STANDARD
  0
MTEXT
  5
382
100
AcDbEntity
  8
MAIN0
  6
CONTINUOUS
 62
3
100
AcDbMText
 10
258.7160720437148
 20
188.1159888388498
 30
0.0000000000000000
 40
2.799999952316284
 41
0.0000000000000000
 71
     1
 72
     1
  1
{\H0.67x;{LOCK VALVE UNIT \P(FOR AIR)}}
 11
1.000000000000000
 21
0.0000000000000000
 31
0.0000000000000000
  7
STANDARD
  0
MTEXT
  5
383
100
AcDbEntity
  8
MAIN0
  6
CONTINUOUS
 62
3
100
AcDbMText
 10
336.1771019604720
 20
157.4452055708417
 30
0.0000000000000000
 40
2.799999952316284
 41
0.0000000000000000
 71
     1
 72
     1
  1
{\H0.67x;{THE BOTTOM PIPING\PFOR OPEN / CLOSE}}
 11
1.000000000000000
 21
0.0000000000000000
 31
0.0000000000000000
  7
STANDARD
  0
MTEXT
  5
384
100
AcDbEntity
  8
MAIN0
  6
CONTINUOUS
 62
3
100
AcDbMText
 10
398.6831679643813
 20
126.7124499636974
 30
0.0000000000000000
 40
2.799999952316284
 41
0.0000000000000000
 71
     1
 72
     1
  1
{\H0.67x;{THE AIR CONFIRMATION\PFOR THE JAW LIFTING}}
 11
1.000000000000000
 21
0.0000000000000000
 31
0.0000000000000000
  7
STANDARD
  0
MTEXT
  5
385
100
AcDbEntity
  8
MAIN0
  6
CONTINUOUS
 62
3
100
AcDbMText
 10
108.5631058184754
 20
90.68460088936124
 30
0.0000000000000000
 40
2.799999237060547
 41
0.0000000000000000
 71
     1
 72
     1
  1
{\H0.60x;{(}}
 11
1.000000000000000
 21
0.0000000000000000
 31
0.0000000000000000
  7
STANDARD
  0
MTEXT
  5
386
100
AcDbEntity
  8
MAIN0
  6
CONTINUOUS
 62
3
100
AcDbMText
 10
108.5631058184754
 20
76.68460088936118
 30
0.0000000000000000
 40
2.799999237060547
 41
0.0000000000000000
 71
     1
 72
     1
  1
{\H0.60x;{(}}
 11
1.000000000000000
 21
0.0000000000000000
 31
0.0000000000000000
  7
STANDARD
  0
LINE
  5
387
100
AcDbEntity
  8
MAIN0
  6
CONTINUOUS
 62
3
100
AcDbLine
 10
165.3413837373893
 20
289.1072471165165
 30
0.0000000000000000
 11
186.3413837373893
 21
289.1072471165165
 31
0.0000000000000000
  0
LINE
  5
388
100
AcDbEntity
  8
MAIN0
  6
CONTINUOUS
 62
3
100
AcDbLine
 10
165.3413837373893
 20
264.1072471165165
 30
0.0000000000000000
 11
186.3413837373893
 21
264.1072471165165
 31
0.0000000000000000
  0
LINE
  5
389
100
AcDbEntity
  8
MAIN0
  6
CONTINUOUS
 62
3
100
AcDbLine
 10
165.3413837373893
 20
264.1072471165165
 30
0.0000000000000000
 11
165.3413837373893
 21
289.1072471165165
 31
0.0000000000000000
  0
LINE
  5
38A
100
AcDbEntity
  8
MAIN0
  6
PHANTOM
 62
3
100
AcDbLine
 10
229.1442765545874
 20
323.5513018532117
 30
0.0000000000000000
 11
229.1442765545863
 21
300.5513018532117
 31
0.0000000000000000
  0
LINE
  5
38B
100
AcDbEntity
  8
MAIN0
  6
PHANTOM
 62
3
100
AcDbLine
 10
224.7501365343436
 20
323.5513018532117
 30
0.0000000000000000
 11
229.1442765545873
 21
323.5513018532117
 31
0.0000000000000000
  0
DIMENSION
  5
396
100
AcDbEntity
  8
MAIN0
  6
CONTINUOUS
 62
3
100
AcDbDimension
  2
*D48
 10
238.8412765545874
 20
240.8951632216214
 30
0.0000000000000000
 11
248.8094560932954
 21
241.3951632216214
 31
0.0000000000000000
 70
160
  1
\A1;MAX 5
  3
MAIN001
100
AcDbAlignedDimension
 13
233.8412765545863
 23
263.6072471165229
 33
0.0000000000000000
 14
238.8412765545863
 24
298.1335682096423
 34
0.0000000000000000
100
AcDbRotatedDimension
1001
ACAD
1000
DSTYLE
1002
{
1070
   173
1070
     1
1070
     6
1000
_OPEN
1070
     7
1000
_OPEN
1070
    41
1040
2.000000
1070
   287
1070
     0
1002
}
  0
MTEXT
  5
397
100
AcDbEntity
  8
MAIN0
  6
CONTINUOUS
 62
3
100
AcDbMText
 10
243.6952386649746
 20
240.2356438586829
 30
0.0000000000000000
 40
3.099999904632568
 41
0.0000000000000000
 71
     1
 72
     1
  1
{\H0.66x;{MIN -4.7}}
 11
1.000000000000000
 21
0.0000000000000000
 31
0.0000000000000000
  7
STANDARD
  0
DIMENSION
  5
3A2
100
AcDbEntity
  8
MAIN0
  6
CONTINUOUS
 62
3
100
AcDbDimension
  2
*D49
 10
234.1339075727729
 20
248.3186165940202
 30
0.0000000000000000
 11
228.1511645262859
 21
248.8186165940202
 31
0.0000000000000000
 70
160
  3
MAIN001
100
AcDbAlignedDimension
 13
233.8412765545863
 23
263.6072471165229
 33
0.0000000000000000
 14
234.1339075727729
 24
283.1148409819980
 34
0.0000000000000000
100
AcDbRotatedDimension
1001
ACAD
1000
DSTYLE
1002
{
1070
   173
1070
     1
1070
     6
1000
_OPEN
1070
     7
1000
_OPEN
1070
    41
1040
2.000000
1070
   287
1070
     0
1002
}
  0
LINE
  5
3A3
100
AcDbEntity
  8
MAIN0
  6
CONTINUOUS
 62
3
100
AcDbLine
 10
91.24127655458753
 20
378.1072471165231
 30
0.0000000000000000
 11
77.44127655458757
 21
378.1072471165232
 31
0.0000000000000000
  0
LINE
  5
3A4
100
AcDbEntity
  8
MAIN0
  6
CONTINUOUS
 62
3
100
AcDbLine
 10
91.24127655458551
 20
175.1072471165232
 30
0.0000000000000000
 11
77.44127655458644
 21
175.1072471165233
 31
0.0000000000000000
  0
LINE
  5
3A5
100
AcDbEntity
  8
MAIN0
  6
CONTINUOUS
 62
3
100
AcDbLine
 10
91.84127655458548
 20
175.7072471165232
 30
0.0000000000000000
 11
91.84127655458582
 21
206.6072471165230
 31
0.0000000000000000
  0
LINE
  5
3A6
100
AcDbEntity
  8
MAIN0
  6
CONTINUOUS
 62
3
100
AcDbLine
 10
91.24127655458554
 20
175.1072471165232
 30
0.0000000000000000
 11
91.84127655458553
 21
175.7072471165232
 31
0.0000000000000000
  0
LINE
  5
3A7
100
AcDbEntity
  8
MAIN0
  6
CONTINUOUS
 62
3
100
AcDbLine
 10
77.44127655458638
 20
175.1072471165233
 30
0.0000000000000000
 11
76.84127655458636
 21
175.7072471165233
 31
0.0000000000000000
  0
LINE
  5
3A8
100
AcDbEntity
  8
MAIN0
  6
CONTINUOUS
 62
3
100
AcDbLine
 10
76.84127655458761
 20
377.5072471165232
 30
0.0000000000000000
 11
77.44127655458760
 21
378.1072471165232
 31
0.0000000000000000
  0
LINE
  5
3A9
100
AcDbEntity
  8
MAIN0
  6
CONTINUOUS
 62
3
100
AcDbLine
 10
91.24127655458750
 20
378.1072471165231
 30
0.0000000000000000
 11
91.84127655458752
 21
377.5072471165232
 31
0.0000000000000000
  0
LINE
  5
3AA
100
AcDbEntity
  8
MAIN0
  6
CONTINUOUS
 62
3
100
AcDbLine
 10
94.34127655458693
 20
271.1072471165230
 30
0.0000000000000000
 11
94.34127655458698
 21
282.1072471165230
 31
0.0000000000000000
  0
LINE
  5
3AB
100
AcDbEntity
  8
MAIN0
  6
CONTINUOUS
 62
3
100
AcDbLine
 10
119.3412765545869
 20
266.1845973857059
 30
0.0000000000000000
 11
119.3412765545870
 21
287.0298968473396
 31
0.0000000000000000
  0
LINE
  5
3AC
100
AcDbEntity
  8
MAIN0
  6
CONTINUOUS
 62
3
100
AcDbLine
 10
118.3412765545990
 20
283.1072471165227
 30
0.0000000000000000
 11
95.34127655458701
 21
283.1072471165231
 31
0.0000000000000000
  0
LINE
  5
3AD
100
AcDbEntity
  8
MAIN0
  6
CONTINUOUS
 62
3
100
AcDbLine
 10
118.3412765545870
 20
270.1072471165227
 30
0.0000000000000000
 11
95.34127655458696
 21
270.1072471165231
 31
0.0000000000000000
  0
LINE
  5
3AE
100
AcDbEntity
  8
MAIN0
  6
CENTER
 62
3
100
AcDbLine
 10
85.34127655458639
 20
268.2225131758478
 30
0.0000000000000000
 11
85.34127655458647
 21
277.6091321530801
 31
0.0000000000000000
  0
LINE
  5
3AF
100
AcDbEntity
  8
MAIN0
  6
CONTINUOUS
 62
3
100
AcDbLine
 10
82.24127655458517
 20
271.9119971165230
 30
0.0000000000000000
 11
82.24127655458514
 21
267.3914359737211
 31
0.0000000000000000
  0
LINE
  5
3B0
100
AcDbEntity
  8
MAIN0
  6
CONTINUOUS
 62
3
100
AcDbLine
 10
88.44127655458584
 20
272.5072471165231
 30
0.0000000000000000
 11
88.44127655458581
 21
268.5012530825152
 31
0.0000000000000000
  0
LINE
  5
3B1
100
AcDbEntity
  8
MAIN0
  6
CONTINUOUS
 62
3
100
AcDbLine
 10
102.3208752184206
 20
287.6072471165232
 30
0.0000000000000000
 11
118.3412765545870
 21
287.6072471165231
 31
0.0000000000000000
  0
LINE
  5
3B2
100
AcDbEntity
  8
MAIN0
  6
CONTINUOUS
 62
3
100
AcDbLine
 10
103.2790950124051
 20
265.6072471165232
 30
0.0000000000000000
 11
118.3412765545869
 21
265.6072471165232
 31
0.0000000000000000
  0
LINE
  5
3B3
100
AcDbEntity
  8
MAIN0
  6
CONTINUOUS
 62
3
100
AcDbLine
 10
118.3412765545991
 20
265.6072471165232
 30
0.0000000000000000
 11
119.3412765545870
 21
266.1845973857060
 31
0.0000000000000000
  0
LINE
  5
3B4
100
AcDbEntity
  8
MAIN0
  6
CONTINUOUS
 62
3
100
AcDbLine
 10
118.3412765545992
 20
287.6072471165223
 30
0.0000000000000000
 11
119.3412765545872
 21
287.0298968473396
 31
0.0000000000000000
  0
LINE
  5
3B5
100
AcDbEntity
  8
MAIN0
  6
HIDDEN
 62
3
100
AcDbLine
 10
76.84127655458661
 20
229.1072471165233
 30
0.0000000000000000
 11
77.34127655458661
 21
230.0677381800076
 31
0.0000000000000000
  0
LINE
  5
3B6
100
AcDbEntity
  8
MAIN0
  6
HIDDEN
 62
3
100
AcDbLine
 10
76.84127655458784
 20
324.1072471165233
 30
0.0000000000000000
 11
77.34127655458735
 21
323.1467560530399
 31
0.0000000000000000
  0
LINE
  5
3B7
100
AcDbEntity
  8
MAIN0
  6
CONTINUOUS
 62
3
100
AcDbLine
 10
77.84127655458670
 20
281.4399971165234
 30
0.0000000000000000
 11
83.04127655458666
 21
281.2774971165235
 31
0.0000000000000000
  0
LINE
  5
3B8
100
AcDbEntity
  8
MAIN0
  6
CONTINUOUS
 62
3
100
AcDbLine
 10
77.84127655458690
 20
280.8589971165231
 30
0.0000000000000000
 11
83.04127655458686
 21
280.6964971165231
 31
0.0000000000000000
  0
LINE
  5
3B9
100
AcDbEntity
  8
MAIN0
  6
CONTINUOUS
 62
3
100
AcDbLine
 10
77.84127655458670
 20
283.6072471165060
 30
0.0000000000000000
 11
77.84127655458670
 21
269.6072471165060
 31
0.0000000000000000
  0
LINE
  5
3BA
100
AcDbEntity
  8
MAIN0
  6
CONTINUOUS
 62
3
100
AcDbLine
 10
77.34127655458678
 20
283.6072471165232
 30
0.0000000000000000
 11
77.84127655459724
 21
283.6072471165232
 31
0.0000000000000000
  0
LINE
  5
3BB
100
AcDbEntity
  8
MAIN0
  6
CONTINUOUS
 62
3
100
AcDbLine
 10
77.34127655458678
 20
269.6072471165231
 30
0.0000000000000000
 11
77.84127655459724
 21
269.6072471165231
 31
0.0000000000000000
  0
LINE
  5
3BC
100
AcDbEntity
  8
MAIN0
  6
CONTINUOUS
 62
3
100
AcDbLine
 10
83.04127655458683
 20
271.9369971165230
 30
0.0000000000000000
 11
77.84127655458664
 21
271.7744971165230
 31
0.0000000000000000
  0
LINE
  5
3BD
100
AcDbEntity
  8
MAIN0
  6
CONTINUOUS
 62
3
100
AcDbLine
 10
77.84127655458696
 20
272.3554971165229
 30
0.0000000000000000
 11
83.04127655458692
 21
272.5179971165229
 31
0.0000000000000000
  0
LINE
  5
3BE
100
AcDbEntity
  8
MAIN0
  6
CONTINUOUS
 62
3
100
AcDbLine
 10
82.24127655458787
 20
267.3914359737217
 30
0.0000000000000000
 11
82.24127655458790
 21
271.8807471165232
 31
0.0000000000000000
  0
LINE
  5
3BF
100
AcDbEntity
  8
MAIN0
  6
CONTINUOUS
 62
3
100
AcDbLine
 10
83.04127655458677
 20
281.2774971165231
 30
0.0000000000000000
 11
83.04127655458677
 21
271.9369971165231
 31
0.0000000000000000
  0
LINE
  5
3C0
100
AcDbEntity
  8
MAIN0
  6
CONTINUOUS
 62
3
100
AcDbLine
 10
83.04127655458683
 20
280.7072471165231
 30
0.0000000000000000
 11
93.34127655467847
 21
280.7072471165231
 31
0.0000000000000000
  0
LINE
  5
3C1
100
AcDbEntity
  8
MAIN0
  6
CONTINUOUS
 62
3
100
AcDbLine
 10
93.34127655467847
 20
280.7072471165409
 30
0.0000000000000000
 11
93.34127655467847
 21
272.5072471165292
 31
0.0000000000000000
  0
LINE
  5
3C2
100
AcDbEntity
  8
MAIN0
  6
CONTINUOUS
 62
3
100
AcDbLine
 10
87.12531745975625
 20
273.9877010982089
 30
0.0000000000000000
 11
88.44127655458766
 21
272.5072471165236
 31
0.0000000000000000
  0
LINE
  5
3C3
100
AcDbEntity
  8
MAIN0
  6
CONTINUOUS
 62
3
100
AcDbLine
 10
93.34127655467822
 20
272.5072471165231
 30
0.0000000000000000
 11
88.44127655458581
 21
272.5072471165230
 31
0.0000000000000000
  0
LINE
  5
3C4
100
AcDbEntity
  8
MAIN0
  6
CONTINUOUS
 62
3
100
AcDbLine
 10
94.34127655467825
 20
271.5072471165238
 30
0.0000000000000000
 11
93.34127655467842
 21
272.5072471165236
 31
0.0000000000000000
  0
LINE
  5
3C5
100
AcDbEntity
  8
MAIN0
  6
CONTINUOUS
 62
3
100
AcDbLine
 10
94.34127655467827
 20
281.7072471165232
 30
0.0000000000000000
 11
93.34127655467822
 21
280.7072471165232
 31
0.0000000000000000
  0
LINE
  5
3C6
100
AcDbEntity
  8
MAIN0
  6
CONTINUOUS
 62
3
100
AcDbLine
 10
118.3412765546782
 20
283.1072471165236
 30
0.0000000000000000
 11
119.3412765546782
 21
284.1072471165236
 31
0.0000000000000000
  0
LINE
  5
3C7
100
AcDbEntity
  8
MAIN0
  6
CONTINUOUS
 62
3
100
AcDbLine
 10
118.3412765546783
 20
283.1072471165074
 30
0.0000000000000000
 11
118.3412765546783
 21
270.1072471165074
 31
0.0000000000000000
  0
LINE
  5
3C8
100
AcDbEntity
  8
MAIN0
  6
CONTINUOUS
 62
3
100
AcDbLine
 10
118.3412765546782
 20
270.1072471165236
 30
0.0000000000000000
 11
119.3412765546782
 21
269.1072471165236
 31
0.0000000000000000
  0
ARC
  5
3C9
100
AcDbEntity
  8
MAIN0
  6
CONTINUOUS
 62
3
100
AcDbCircle
 10
95.34127655458698
 20
282.1072471165231
 30
0.0000000000000000
 40
1.000000000000000
100
AcDbArc
 50
90.00000000000000
 51
180.0000000000000
  0
ARC
  5
3CA
100
AcDbEntity
  8
MAIN0
  6
CONTINUOUS
 62
3
100
AcDbCircle
 10
95.34127655458696
 20
271.1072471165231
 30
0.0000000000000000
 40
1.000000000000000
100
AcDbArc
 50
180.0000000000000
 51
270.0000000000000
  0
LINE
  5
3CB
100
AcDbEntity
  8
MAIN0
  6
CONTINUOUS
 62
3
100
AcDbLine
 10
76.84127655458639
 20
175.7072471165233
 30
0.0000000000000000
 11
76.84127655458752
 21
377.5072471165232
 31
0.0000000000000000
  0
LINE
  5
3CC
100
AcDbEntity
  8
MAIN0
  6
HIDDEN
 62
3
100
AcDbLine
 10
77.84127655458678
 20
225.6429046223526
 30
0.0000000000000000
 11
76.84127655458678
 21
225.6429046223526
 31
0.0000000000000000
  0
LINE
  5
3CD
100
AcDbEntity
  8
MAIN0
  6
HIDDEN
 62
3
100
AcDbLine
 10
77.84127655458656
 20
211.6429046223525
 30
0.0000000000000000
 11
77.84127655458664
 21
225.6429046223526
 31
0.0000000000000000
  0
LINE
  5
3CE
100
AcDbEntity
  8
MAIN0
  6
HIDDEN
 62
3
100
AcDbLine
 10
77.84127655458661
 20
211.6429046223525
 30
0.0000000000000000
 11
76.84127655458661
 21
211.6429046223525
 31
0.0000000000000000
  0
LINE
  5
3CF
100
AcDbEntity
  8
MAIN0
  6
HIDDEN
 62
3
100
AcDbLine
 10
84.54127655458669
 20
213.9726546223525
 30
0.0000000000000000
 11
77.84127655458670
 21
213.7632796223525
 31
0.0000000000000000
  0
LINE
  5
3D0
100
AcDbEntity
  8
MAIN0
  6
HIDDEN
 62
3
100
AcDbLine
 10
77.84127655458667
 20
214.3442796223524
 30
0.0000000000000000
 11
84.54127655458669
 21
214.5536546223524
 31
0.0000000000000000
  0
LINE
  5
3D1
100
AcDbEntity
  8
MAIN0
  6
HIDDEN
 62
3
100
AcDbLine
 10
84.54127655458663
 20
223.3131546223525
 30
0.0000000000000000
 11
84.54127655458663
 21
213.9726546223525
 31
0.0000000000000000
  0
LINE
  5
3D2
100
AcDbEntity
  8
MAIN0
  6
CENTER
 62
3
100
AcDbLine
 10
85.34127655458551
 20
172.4406709083664
 30
0.0000000000000000
 11
85.34127655458602
 21
226.7306103315396
 31
0.0000000000000000
  0
LINE
  5
3D3
100
AcDbEntity
  8
MAIN0
  6
HIDDEN
 62
3
100
AcDbLine
 10
77.84127655458661
 20
222.9415296223525
 30
0.0000000000000000
 11
84.54127655458657
 21
222.7321546223525
 31
0.0000000000000000
  0
LINE
  5
3D4
100
AcDbEntity
  8
MAIN0
  6
HIDDEN
 62
3
100
AcDbLine
 10
77.84127655458664
 20
223.5225296223525
 30
0.0000000000000000
 11
84.54127655458666
 21
223.3131546223525
 31
0.0000000000000000
  0
LINE
  5
3D5
100
AcDbEntity
  8
MAIN0
  6
CENTER
 62
3
100
AcDbLine
 10
97.71660084138441
 20
218.6429046223525
 30
0.0000000000000000
 11
74.00821197788915
 21
218.6429046223527
 31
0.0000000000000000
  0
LINE
  5
3D6
100
AcDbEntity
  8
MAIN0
  6
CONTINUOUS
 62
3
100
AcDbLine
 10
91.84127655458667
 20
285.3833763218551
 30
0.0000000000000000
 11
91.84127655458750
 21
377.5072471165232
 31
0.0000000000000000
  0
LINE
  5
3D7
100
AcDbEntity
  8
MAIN0
  6
CENTER
 62
3
100
AcDbLine
 10
83.90730737955852
 20
200.3572834821439
 30
0.0000000000000000
 11
94.19091371908650
 21
200.3572834821438
 31
0.0000000000000000
  0
LINE
  5
3D8
100
AcDbEntity
  8
MAIN0
  6
HIDDEN
 62
3
100
AcDbLine
 10
77.34127655458707
 20
288.7632173746493
 30
0.0000000000000000
 11
77.34127655458732
 21
323.1467560530398
 31
0.0000000000000000
  0
LINE
  5
3D9
100
AcDbEntity
  8
MAIN0
  6
HIDDEN
 62
3
100
AcDbLine
 10
77.34127655458664
 20
230.0677381800076
 30
0.0000000000000000
 11
77.34127655458693
 21
267.5787125240876
 31
0.0000000000000000
  0
LINE
  5
3DA
100
AcDbEntity
  8
MAIN0
  6
CONTINUOUS
 62
3
100
AcDbLine
 10
77.34127655458693
 20
267.5787125240876
 30
0.0000000000000000
 11
77.34127655458707
 21
288.7632173746493
 31
0.0000000000000000
  0
LINE
  5
3DB
100
AcDbEntity
  8
MAIN0
  6
CONTINUOUS
 62
3
100
AcDbLine
 10
121.8412765545855
 20
173.6072471165355
 30
0.0000000000000000
 11
121.8412765545855
 21
193.6072471165476
 31
0.0000000000000000
  0
LINE
  5
3DC
100
AcDbEntity
  8
MAIN0
  6
CONTINUOUS
 62
3
100
AcDbLine
 10
91.84127655458551
 20
173.6072471165312
 30
0.0000000000000000
 11
91.84127655458553
 21
193.6072471165477
 31
0.0000000000000000
  0
LINE
  5
3DD
100
AcDbEntity
  8
MAIN0
  6
CENTER
 62
3
100
AcDbLine
 10
83.90730737955852
 20
186.1072471165228
 30
0.0000000000000000
 11
109.7529873539725
 21
186.1072471165228
 31
0.0000000000000000
  0
LINE
  5
3DE
100
AcDbEntity
  8
MAIN0
  6
CONTINUOUS
 62
3
100
AcDbLine
 10
91.84127655458548
 20
193.6072471165477
 30
0.0000000000000000
 11
121.8412765545855
 21
193.6072471165477
 31
0.0000000000000000
  0
LINE
  5
3DF
100
AcDbEntity
  8
MAIN0
  6
CONTINUOUS
 62
3
100
AcDbLine
 10
91.84127655458548
 20
173.6072471165312
 30
0.0000000000000000
 11
121.8412765545855
 21
173.6072471165355
 31
0.0000000000000000
  0
LINE
  5
3E0
100
AcDbEntity
  8
MAIN0
  6
CENTER
 62
3
100
AcDbLine
 10
106.8412765544879
 20
167.5951747579050
 30
0.0000000000000000
 11
106.8412765544880
 21
192.9843314048754
 31
0.0000000000000000
  0
LINE
  5
3E1
100
AcDbEntity
  8
MAIN0
  6
HIDDEN
 62
3
100
AcDbLine
 10
100.2627765544879
 20
173.6072471165334
 30
0.0000000000000000
 11
100.5565265544879
 21
183.0072471165334
 31
0.0000000000000000
  0
LINE
  5
3E2
100
AcDbEntity
  8
MAIN0
  6
HIDDEN
 62
3
100
AcDbLine
 10
100.5565265544879
 20
183.0072471165333
 30
0.0000000000000000
 11
113.1260265544879
 21
183.0072471165333
 31
0.0000000000000000
  0
LINE
  5
3E3
100
AcDbEntity
  8
MAIN0
  6
HIDDEN
 62
3
100
AcDbLine
 10
113.1260265544878
 20
183.0072471165333
 30
0.0000000000000000
 11
113.4197765544878
 21
173.6072471165333
 31
0.0000000000000000
  0
LINE
  5
3E4
100
AcDbEntity
  8
MAIN0
  6
HIDDEN
 62
3
100
AcDbLine
 10
101.1187765544879
 20
173.6072471165334
 30
0.0000000000000000
 11
101.4125265544879
 21
183.0072471165334
 31
0.0000000000000000
  0
LINE
  5
3E5
100
AcDbEntity
  8
MAIN0
  6
HIDDEN
 62
3
100
AcDbLine
 10
112.5637765544878
 20
173.6072471165333
 30
0.0000000000000000
 11
112.2700265544878
 21
183.0072471165333
 31
0.0000000000000000
  0
ARC
  5
3E6
100
AcDbEntity
  8
MAIN0
  6
CENTER
 62
3
100
AcDbCircle
 10
433.8412765545862
 20
276.6072471165230
 30
0.0000000000000000
 40
92.50000000000000
100
AcDbArc
 50
294.9333262012172
 51
605.6949408125853
  0
CIRCLE
  5
3E7
100
AcDbEntity
  8
MAIN0
  6
CONTINUOUS
 62
3
100
AcDbCircle
 10
499.2486538143672
 20
342.0146243762532
 30
0.0000000000000000
 40
5.500000000000000
  0
LINE
  5
3E8
100
AcDbEntity
  8
MAIN0
  6
CENTER
 62
3
100
AcDbLine
 10
381.9523988656100
 20
186.7330746114899
 30
0.0000000000000000
 11
391.8336995981878
 21
203.8479895251820
 31
0.0000000000000000
  0
LINE
  5
3E9
100
AcDbEntity
  8
MAIN0
  6
CENTER
 62
3
100
AcDbLine
 10
476.2351457290279
 20
350.0355824560833
 30
0.0000000000000000
 11
483.8043230866847
 21
363.1457822110447
 31
0.0000000000000000
  0
CIRCLE
  5
3EA
100
AcDbEntity
  8
MAIN0
  6
CONTINUOUS
 62
3
100
AcDbCircle
 10
368.4338992948560
 20
342.0146243763039
 30
0.0000000000000000
 40
5.500000000000000
  0
LINE
  5
3EB
100
AcDbEntity
  8
MAIN0
  6
CENTER
 62
3
100
AcDbLine
 10
374.5455783049373
 20
217.3115488669202
 30
0.0000000000000000
 11
361.3985678226590
 21
204.1645383846520
 31
0.0000000000000000
  0
CIRCLE
  5
3EC
100
AcDbEntity
  8
MAIN0
  6
CONTINUOUS
 62
3
100
AcDbCircle
 10
368.4338992948053
 20
211.1998698567927
 30
0.0000000000000000
 40
5.500000000000000
  0
LINE
  5
3ED
100
AcDbEntity
  8
MAIN0
  6
CENTER
 62
3
100
AcDbLine
 10
493.1369748041891
 20
217.3115488668741
 30
0.0000000000000000
 11
506.2839852864573
 21
204.1645383845957
 31
0.0000000000000000
  0
CIRCLE
  5
3EE
100
AcDbEntity
  8
MAIN0
  6
CONTINUOUS
 62
3
100
AcDbCircle
 10
499.2486538143166
 20
211.1998698567420
 30
0.0000000000000000
 40
5.500000000000000
  0
LINE
  5
3EF
100
AcDbEntity
  8
MAIN0
  6
CENTER
 62
3
100
AcDbLine
 10
485.2788145225076
 20
187.5148179398290
 30
0.0000000000000000
 11
475.8488535109840
 21
203.8479895251816
 31
0.0000000000000000
  0
CIRCLE
  5
3F0
100
AcDbEntity
  8
MAIN0
  6
CONTINUOUS
 62
3
100
AcDbCircle
 10
480.0912765545858
 20
196.4998972664622
 30
0.0000000000000000
 40
5.000000000000000
  0
LINE
  5
3F1
100
AcDbEntity
  8
MAIN0
  6
CENTER
 62
3
100
AcDbLine
 10
391.9909495083584
 20
349.0941398739641
 30
0.0000000000000000
 11
383.4990179777224
 21
363.8025967394219
 31
0.0000000000000000
  0
CIRCLE
  5
3F2
100
AcDbEntity
  8
MAIN0
  6
CONTINUOUS
 62
3
100
AcDbCircle
 10
387.5912765545866
 20
356.7145969665837
 30
0.0000000000000000
 40
5.000000000000000
  0
CIRCLE
  5
3F3
100
AcDbEntity
  8
MAIN0
  6
CONTINUOUS
 62
3
100
AcDbCircle
 10
387.5912765545866
 20
356.7145969665837
 30
0.0000000000000000
 40
4.250000000000000
  0
CIRCLE
  5
3F4
100
AcDbEntity
  8
MAIN0
  6
CONTINUOUS
 62
3
100
AcDbCircle
 10
480.0912765545858
 20
196.4998972664622
 30
0.0000000000000000
 40
4.250000000000000
  0
CIRCLE
  5
3F5
100
AcDbEntity
  8
MAIN0
  6
CONTINUOUS
 62
3
100
AcDbCircle
 10
526.3412765545861
 20
276.6072471165224
 30
0.0000000000000000
 40
5.000000000000000
  0
CIRCLE
  5
3F6
100
AcDbEntity
  8
MAIN0
  6
CONTINUOUS
 62
3
100
AcDbCircle
 10
341.3412765545862
 20
276.6072471165234
 30
0.0000000000000000
 40
5.000000000000000
  0
CIRCLE
  5
3F7
100
AcDbEntity
  8
MAIN0
  6
CONTINUOUS
 62
3
100
AcDbCircle
 10
341.3412765545862
 20
276.6072471165234
 30
0.0000000000000000
 40
4.250000000000000
  0
CIRCLE
  5
3F8
100
AcDbEntity
  8
MAIN0
  6
CONTINUOUS
 62
3
100
AcDbCircle
 10
526.3412765545861
 20
276.6072471165224
 30
0.0000000000000000
 40
4.250000000000000
  0
CIRCLE
  5
3F9
100
AcDbEntity
  8
MAIN0
  6
HIDDEN
 62
3
100
AcDbCircle
 10
410.3412765545862
 20
186.1072471165232
 30
0.0000000000000000
 40
2.500000000000000
  0
CIRCLE
  5
3FA
100
AcDbEntity
  8
MAIN0
  6
CONTINUOUS
 62
3
100
AcDbCircle
 10
480.0912765545866
 20
356.7145969665833
 30
0.0000000000000000
 40
5.000000000000000
  0
CIRCLE
  5
3FB
100
AcDbEntity
  8
MAIN0
  6
CONTINUOUS
 62
3
100
AcDbCircle
 10
480.0912765545866
 20
356.7145969665833
 30
0.0000000000000000
 40
4.250000000000000
  0
CIRCLE
  5
3FC
100
AcDbEntity
  8
MAIN0
  6
CONTINUOUS
 62
3
100
AcDbCircle
 10
387.5912765545859
 20
196.4998972664626
 30
0.0000000000000000
 40
5.000000000000000
  0
CIRCLE
  5
3FD
100
AcDbEntity
  8
MAIN0
  6
CONTINUOUS
 62
3
100
AcDbCircle
 10
387.5912765545859
 20
196.4998972664626
 30
0.0000000000000000
 40
4.250000000000000
  0
CIRCLE
  5
3FE
100
AcDbEntity
  8
MAIN0
  6
HIDDEN
 62
3
100
AcDbCircle
 10
410.3412765545874
 20
221.4008163316945
 30
0.0000000000000000
 40
4.864000000000000
  0
CIRCLE
  5
3FF
100
AcDbEntity
  8
MAIN0
  6
HIDDEN
 62
3
100
AcDbCircle
 10
410.3412765545874
 20
221.4008163316945
 30
0.0000000000000000
 40
4.283000000000000
  0
CIRCLE
  5
400
100
AcDbEntity
  8
MAIN0
  6
HIDDEN
 62
3
100
AcDbCircle
 10
433.8412765545862
 20
186.1072471165230
 30
0.0000000000000000
 40
2.500000000000000
  0
LINE
  5
401
100
AcDbEntity
  8
MAIN0
  6
CENTER
 62
3
100
AcDbLine
 10
493.1931936602489
 20
335.9591642221396
 30
0.0000000000000000
 11
504.9852696840783
 21
347.7512402459599
 31
0.0000000000000000
  0
CIRCLE
  5
402
100
AcDbEntity
  8
MAIN0
  6
HIDDEN
 62
3
100
AcDbCircle
 10
457.3412765545862
 20
186.1072471165232
 30
0.0000000000000000
 40
2.500000000000000
  0
LINE
  5
403
100
AcDbEntity
  8
MAIN0
  6
CENTER
 62
3
100
AcDbLine
 10
374.2987763787246
 20
336.1497472924310
 30
0.0000000000000000
 11
362.7559821589117
 21
347.6925415122527
 31
0.0000000000000000
  0
ARC
  5
404
100
AcDbEntity
  8
MAIN0
  6
CENTER
 62
3
100
AcDbCircle
 10
433.8412765545862
 20
276.6072471165230
 30
0.0000000000000000
 40
60.00000000000000
100
AcDbArc
 50
237.7737847776746
 51
301.2399845531554
  0
LINE
  5
405
100
AcDbEntity
  8
MAIN0
  6
CENTER
 62
3
100
AcDbLine
 10
461.8412765545858
 20
243.0103722618609
 30
0.0000000000000000
 11
452.8412765545858
 21
243.0103722618609
 31
0.0000000000000000
  0
CIRCLE
  5
406
100
AcDbEntity
  8
MAIN0
  6
HIDDEN
 62
3
100
AcDbCircle
 10
457.3412765545852
 20
221.4008163316945
 30
0.0000000000000000
 40
4.864000000000000
  0
CIRCLE
  5
407
100
AcDbEntity
  8
MAIN0
  6
HIDDEN
 62
3
100
AcDbCircle
 10
457.3412765545852
 20
221.4008163316945
 30
0.0000000000000000
 40
4.283000000000000
  0
LINE
  5
408
100
AcDbEntity
  8
MAIN0
  6
CENTER
 62
3
100
AcDbLine
 10
402.2005250412971
 20
221.4008163316946
 30
0.0000000000000000
 11
465.4820280678754
 21
221.4008163316946
 31
0.0000000000000000
  0
CIRCLE
  5
409
100
AcDbEntity
  8
MAIN0
  6
CONTINUOUS
 62
3
100
AcDbCircle
 10
353.7339267045262
 20
322.8572471165239
 30
0.0000000000000000
 40
5.000000000000000
  0
CIRCLE
  5
40A
100
AcDbEntity
  8
MAIN0
  6
CONTINUOUS
 62
3
100
AcDbCircle
 10
513.9486264046461
 20
230.3572471165217
 30
0.0000000000000000
 40
5.000000000000000
  0
ARC
  5
40B
100
AcDbEntity
  8
MAIN0
  6
CENTER
 62
3
100
AcDbCircle
 10
433.8412765545862
 20
276.6072471165230
 30
0.0000000000000000
 40
41.00000000000000
100
AcDbArc
 50
294.0003728948692
 51
316.1883825985094
  0
CIRCLE
  5
40C
100
AcDbEntity
  8
MAIN0
  6
HIDDEN
 62
3
100
AcDbCircle
 10
457.3412765545863
 20
243.0103722618584
 30
0.0000000000000000
 40
3.100000000000000
  0
LINE
  5
40D
100
AcDbEntity
  8
MAIN0
  6
HIDDEN
 62
3
100
AcDbLine
 10
405.3412765545866
 20
179.1906160928624
 30
0.0000000000000000
 11
405.3412765545866
 21
179.3382900952916
 31
0.0000000000000000
  0
LINE
  5
40E
100
AcDbEntity
  8
MAIN0
  6
HIDDEN
 62
3
100
AcDbLine
 10
462.3412765539750
 20
179.1906160926836
 30
0.0000000000000000
 11
462.3412765539753
 21
179.3382900952665
 31
0.0000000000000000
  0
CIRCLE
  5
40F
100
AcDbEntity
  8
MAIN0
  6
HIDDEN
 62
3
100
AcDbCircle
 10
433.8412765545862
 20
276.6072471165230
 30
0.0000000000000000
 40
4.283000000000000
  0
CIRCLE
  5
410
100
AcDbEntity
  8
MAIN0
  6
HIDDEN
 62
3
100
AcDbCircle
 10
433.8412765545862
 20
276.6072471165230
 30
0.0000000000000000
 40
4.864000000000001
  0
ARC
  5
411
100
AcDbEntity
  8
MAIN0
  6
CONTINUOUS
 62
3
100
AcDbCircle
 10
433.8412765545862
 20
276.6072471165230
 30
0.0000000000000000
 40
101.5000000000000
100
AcDbArc
 50
293.2091488561660
 51
606.7908511438689
  0
ARC
  5
412
100
AcDbEntity
  8
MAIN0
  6
HIDDEN
 62
3
100
AcDbCircle
 10
433.8412765545862
 20
276.6072471165230
 30
0.0000000000000000
 40
101.5000000000000
100
AcDbArc
 50
246.7908511438689
 51
293.2091488561659
  0
LINE
  5
413
100
AcDbEntity
  8
MAIN0
  6
CENTER
 62
3
100
AcDbLine
 10
457.3412765545748
 20
170.3693357753446
 30
0.0000000000000000
 11
457.3412765545852
 21
249.7095783211376
 31
0.0000000000000000
  0
LINE
  5
414
100
AcDbEntity
  8
MAIN0
  6
CENTER
 62
3
100
AcDbLine
 10
410.3412765545750
 20
170.3693357753519
 30
0.0000000000000000
 11
410.3412765545855
 21
230.5124089797603
 31
0.0000000000000000
  0
LINE
  5
415
100
AcDbEntity
  8
MAIN0
  6
CENTER
 62
3
100
AcDbLine
 10
399.6453975528503
 20
186.1072471165228
 30
0.0000000000000000
 11
467.3161030782252
 21
186.1072471165228
 31
0.0000000000000000
  0
LINE
  5
416
100
AcDbEntity
  8
MAIN0
  6
CENTER
 62
3
100
AcDbLine
 10
444.8412765545745
 20
178.6072471165229
 30
0.0000000000000000
 11
444.8412765545745
 21
193.6072471165229
 31
0.0000000000000000
  0
LINE
  5
417
100
AcDbEntity
  8
MAIN0
  6
CONTINUOUS
 62
3
100
AcDbLine
 10
393.8412765546111
 20
193.6072471165228
 30
0.0000000000000000
 11
473.8412765546111
 21
193.6072471165228
 31
0.0000000000000000
  0
LINE
  5
418
100
AcDbEntity
  8
MAIN0
  6
CONTINUOUS
 62
3
100
AcDbLine
 10
393.8412765546178
 20
173.6072471165228
 30
0.0000000000000000
 11
473.8412765546178
 21
173.6072471165228
 31
0.0000000000000000
  0
LINE
  5
419
100
AcDbEntity
  8
MAIN0
  6
CONTINUOUS
 62
3
100
AcDbLine
 10
473.8412765546179
 20
173.6072471165229
 30
0.0000000000000000
 11
473.8412765546111
 21
193.6072471165229
 31
0.0000000000000000
  0
CIRCLE
  5
41A
100
AcDbEntity
  8
MAIN0
  6
HIDDEN
 62
3
100
AcDbCircle
 10
410.3412765545745
 20
186.1072471165228
 30
0.0000000000000000
 40
2.500000000000000
  0
CIRCLE
  5
41B
100
AcDbEntity
  8
MAIN0
  6
CONTINUOUS
 62
3
100
AcDbCircle
 10
422.8412765545745
 20
186.1072471165228
 30
0.0000000000000000
 40
5.500000000000000
  0
LINE
  5
41C
100
AcDbEntity
  8
MAIN0
  6
HIDDEN
 62
3
100
AcDbLine
 10
403.7627765545744
 20
173.6072471165229
 30
0.0000000000000000
 11
404.0565265545745
 21
183.0072471165229
 31
0.0000000000000000
  0
LINE
  5
41D
100
AcDbEntity
  8
MAIN0
  6
HIDDEN
 62
3
100
AcDbLine
 10
404.0565265545745
 20
183.0072471165229
 30
0.0000000000000000
 11
416.6260265545745
 21
183.0072471165229
 31
0.0000000000000000
  0
LINE
  5
41E
100
AcDbEntity
  8
MAIN0
  6
HIDDEN
 62
3
100
AcDbLine
 10
416.6260265545745
 20
183.0072471165229
 30
0.0000000000000000
 11
416.9197765545745
 21
173.6072471165228
 31
0.0000000000000000
  0
LINE
  5
41F
100
AcDbEntity
  8
MAIN0
  6
HIDDEN
 62
3
100
AcDbLine
 10
404.6187765545745
 20
173.6072471165229
 30
0.0000000000000000
 11
404.9125265545745
 21
183.0072471165229
 31
0.0000000000000000
  0
LINE
  5
420
100
AcDbEntity
  8
MAIN0
  6
HIDDEN
 62
3
100
AcDbLine
 10
416.0637765545745
 20
173.6072471165228
 30
0.0000000000000000
 11
415.7700265545744
 21
183.0072471165229
 31
0.0000000000000000
  0
CIRCLE
  5
421
100
AcDbEntity
  8
MAIN0
  6
HIDDEN
 62
3
100
AcDbCircle
 10
457.3412765545745
 20
186.1072471165228
 30
0.0000000000000000
 40
2.500000000000000
  0
CIRCLE
  5
422
100
AcDbEntity
  8
MAIN0
  6
CONTINUOUS
 62
3
100
AcDbCircle
 10
444.8412765545745
 20
186.1072471165228
 30
0.0000000000000000
 40
5.500000000000000
  0
LINE
  5
423
100
AcDbEntity
  8
MAIN0
  6
HIDDEN
 62
3
100
AcDbLine
 10
463.9197765545745
 20
173.6072471165228
 30
0.0000000000000000
 11
463.6260265545744
 21
183.0072471165229
 31
0.0000000000000000
  0
LINE
  5
424
100
AcDbEntity
  8
MAIN0
  6
HIDDEN
 62
3
100
AcDbLine
 10
463.6260265545745
 20
183.0072471165229
 30
0.0000000000000000
 11
451.0565265545745
 21
183.0072471165229
 31
0.0000000000000000
  0
LINE
  5
425
100
AcDbEntity
  8
MAIN0
  6
HIDDEN
 62
3
100
AcDbLine
 10
451.0565265545745
 20
183.0072471165229
 30
0.0000000000000000
 11
450.7627765545744
 21
173.6072471165228
 31
0.0000000000000000
  0
LINE
  5
426
100
AcDbEntity
  8
MAIN0
  6
HIDDEN
 62
3
100
AcDbLine
 10
463.0637765545745
 20
173.6072471165228
 30
0.0000000000000000
 11
462.7700265545745
 21
183.0072471165229
 31
0.0000000000000000
  0
LINE
  5
427
100
AcDbEntity
  8
MAIN0
  6
HIDDEN
 62
3
100
AcDbLine
 10
451.6187765545744
 20
173.6072471165228
 30
0.0000000000000000
 11
451.9125265545745
 21
183.0072471165229
 31
0.0000000000000000
  0
CIRCLE
  5
428
100
AcDbEntity
  8
MAIN0
  6
HIDDEN
 62
3
100
AcDbCircle
 10
433.8412765545745
 20
186.1072471165228
 30
0.0000000000000000
 40
2.500000000000000
  0
LINE
  5
429
100
AcDbEntity
  8
MAIN0
  6
HIDDEN
 62
3
100
AcDbLine
 10
428.9772765545745
 20
173.6072471165228
 30
0.0000000000000000
 11
429.1710265545745
 21
179.8072471165228
 31
0.0000000000000000
  0
LINE
  5
42A
100
AcDbEntity
  8
MAIN0
  6
HIDDEN
 62
3
100
AcDbLine
 10
429.1710265545745
 20
179.8072471165228
 30
0.0000000000000000
 11
438.5115265545745
 21
179.8072471165228
 31
0.0000000000000000
  0
LINE
  5
42B
100
AcDbEntity
  8
MAIN0
  6
HIDDEN
 62
3
100
AcDbLine
 10
438.5115265545745
 20
179.8072471165228
 30
0.0000000000000000
 11
438.7052765545745
 21
173.6072471165229
 31
0.0000000000000000
  0
LINE
  5
42C
100
AcDbEntity
  8
MAIN0
  6
HIDDEN
 62
3
100
AcDbLine
 10
429.5582765545744
 20
173.6072471165228
 30
0.0000000000000000
 11
429.7520265545744
 21
179.8072471165229
 31
0.0000000000000000
  0
LINE
  5
42D
100
AcDbEntity
  8
MAIN0
  6
HIDDEN
 62
3
100
AcDbLine
 10
438.1242765545745
 20
173.6072471165229
 30
0.0000000000000000
 11
437.9305265545745
 21
179.8072471165229
 31
0.0000000000000000
  0
LINE
  5
42E
100
AcDbEntity
  8
MAIN0
  6
CONTINUOUS
 62
3
100
AcDbLine
 10
393.8412765546178
 20
173.6072471165229
 30
0.0000000000000000
 11
393.8412765546111
 21
193.6072471165228
 31
0.0000000000000000
  0
LINE
  5
42F
100
AcDbEntity
  8
MAIN0
  6
CENTER
 62
3
100
AcDbLine
 10
422.8412765545745
 20
178.6072471165228
 30
0.0000000000000000
 11
422.8412765545745
 21
193.6072471165228
 31
0.0000000000000000
  0
LINE
  5
430
100
AcDbEntity
  8
MAIN0
  6
CONTINUOUS
 62
3
100
AcDbLine
 10
207.7412765545862
 20
280.6072471165233
 30
0.0000000000000000
 11
207.7412765545861
 21
272.6072471165233
 31
0.0000000000000000
  0
LINE
  5
431
100
AcDbEntity
  8
MAIN0
  6
CONTINUOUS
 62
3
100
AcDbLine
 10
207.7412765545862
 20
280.6072471165233
 30
0.0000000000000000
 11
208.7412765545862
 21
281.6072471165233
 31
0.0000000000000000
  0
LINE
  5
432
100
AcDbEntity
  8
MAIN0
  6
CONTINUOUS
 62
3
100
AcDbLine
 10
207.7412765545861
 20
272.6072471165233
 30
0.0000000000000000
 11
208.7412765545861
 21
271.6072471165233
 31
0.0000000000000000
  0
LINE
  5
433
100
AcDbEntity
  8
MAIN0
  6
CONTINUOUS
 62
3
100
AcDbLine
 10
210.7412765545862
 20
280.1072471165233
 30
0.0000000000000000
 11
213.2412765545862
 21
280.1072471165233
 31
0.0000000000000000
  0
LINE
  5
434
100
AcDbEntity
  8
MAIN0
  6
CONTINUOUS
 62
3
100
AcDbLine
 10
210.7412765545862
 20
273.1072471165233
 30
0.0000000000000000
 11
213.2412765545861
 21
273.1072471165233
 31
0.0000000000000000
  0
LINE
  5
435
100
AcDbEntity
  8
MAIN0
  6
CONTINUOUS
 62
3
100
AcDbLine
 10
208.7412765545861
 20
271.6072471165233
 30
0.0000000000000000
 11
210.7412765545861
 21
271.6072471165233
 31
0.0000000000000000
  0
LINE
  5
436
100
AcDbEntity
  8
MAIN0
  6
CONTINUOUS
 62
3
100
AcDbLine
 10
208.7412765545862
 20
281.6072471165233
 30
0.0000000000000000
 11
210.7412765545862
 21
281.6072471165233
 31
0.0000000000000000
  0
LINE
  5
437
100
AcDbEntity
  8
MAIN0
  6
CONTINUOUS
 62
3
100
AcDbLine
 10
222.7412765545860
 20
270.6072471165233
 30
0.0000000000000000
 11
231.7412765545861
 21
270.6072471165232
 31
0.0000000000000000
  0
LINE
  5
438
100
AcDbEntity
  8
MAIN0
  6
CONTINUOUS
 62
3
100
AcDbLine
 10
231.7412765545861
 20
270.6072471165232
 30
0.0000000000000000
 11
232.7412765545861
 21
272.3392979240921
 31
0.0000000000000000
  0
LINE
  5
439
100
AcDbEntity
  8
MAIN0
  6
CONTINUOUS
 62
3
100
AcDbLine
 10
232.7412765545861
 20
272.3392979240921
 30
0.0000000000000000
 11
232.7412765545862
 21
280.8751963089543
 31
0.0000000000000000
  0
LINE
  5
43A
100
AcDbEntity
  8
MAIN0
  6
CONTINUOUS
 62
3
100
AcDbLine
 10
232.7412765545862
 20
280.8751963089543
 30
0.0000000000000000
 11
231.7412765545862
 21
282.6072471165232
 31
0.0000000000000000
  0
LINE
  5
43B
100
AcDbEntity
  8
MAIN0
  6
CONTINUOUS
 62
3
100
AcDbLine
 10
231.7412765545862
 20
282.6072471165232
 30
0.0000000000000000
 11
222.7412765545861
 21
282.6072471165233
 31
0.0000000000000000
  0
LINE
  5
43C
100
AcDbEntity
  8
MAIN0
  6
CONTINUOUS
 62
3
100
AcDbLine
 10
207.7412765545861
 20
280.6072471165233
 30
0.0000000000000000
 11
207.7412765545861
 21
272.6072471165233
 31
0.0000000000000000
  0
LINE
  5
43D
100
AcDbEntity
  8
MAIN0
  6
CONTINUOUS
 62
3
100
AcDbLine
 10
231.7412765545861
 20
270.6072471165232
 30
0.0000000000000000
 11
231.7412765545862
 21
282.6072471165232
 31
0.0000000000000000
  0
LINE
  5
43E
100
AcDbEntity
  8
MAIN0
  6
CONTINUOUS
 62
3
100
AcDbLine
 10
221.7940610545861
 20
271.5544626165233
 30
0.0000000000000000
 11
232.2881516784917
 21
271.5544626165233
 31
0.0000000000000000
  0
LINE
  5
43F
100
AcDbEntity
  8
MAIN0
  6
CONTINUOUS
 62
3
100
AcDbLine
 10
221.7940610545862
 20
281.6600316165233
 30
0.0000000000000000
 11
232.2881516784917
 21
281.6600316165233
 31
0.0000000000000000
  0
LINE
  5
440
100
AcDbEntity
  8
MAIN0
  6
HIDDEN
 62
3
100
AcDbLine
 10
207.7412765545861
 20
272.6072471165233
 30
0.0000000000000000
 11
211.7412765545862
 21
276.6072471165233
 31
0.0000000000000000
  0
LINE
  5
441
100
AcDbEntity
  8
MAIN0
  6
HIDDEN
 62
3
100
AcDbLine
 10
211.7412765545862
 20
276.6072471165233
 30
0.0000000000000000
 11
207.7412765545862
 21
280.6072471165233
 31
0.0000000000000000
  0
LINE
  5
442
100
AcDbEntity
  8
MAIN0
  6
CONTINUOUS
 62
3
100
AcDbLine
 10
221.7412765545861
 20
271.6072471165232
 30
0.0000000000000000
 11
221.7412765545862
 21
281.6072471165232
 31
0.0000000000000000
  0
LINE
  5
443
100
AcDbEntity
  8
MAIN0
  6
CONTINUOUS
 62
3
100
AcDbLine
 10
213.2412765545861
 20
271.6072471165233
 30
0.0000000000000000
 11
221.7412765545861
 21
271.6072471165233
 31
0.0000000000000000
  0
LINE
  5
444
100
AcDbEntity
  8
MAIN0
  6
CONTINUOUS
 62
3
100
AcDbLine
 10
213.2412765545862
 20
281.6072471165233
 30
0.0000000000000000
 11
221.7412765545862
 21
281.6072471165233
 31
0.0000000000000000
  0
LINE
  5
445
100
AcDbEntity
  8
MAIN0
  6
CONTINUOUS
 62
3
100
AcDbLine
 10
222.7412765545860
 20
270.6072471165232
 30
0.0000000000000000
 11
221.7412765545861
 21
271.6072471165232
 31
0.0000000000000000
  0
LINE
  5
446
100
AcDbEntity
  8
MAIN0
  6
CONTINUOUS
 62
3
100
AcDbLine
 10
222.7412765545861
 20
282.6072471165232
 30
0.0000000000000000
 11
221.7412765545862
 21
281.6072471165232
 31
0.0000000000000000
  0
LINE
  5
447
100
AcDbEntity
  8
MAIN0
  6
CONTINUOUS
 62
3
100
AcDbLine
 10
222.7412765545860
 20
270.6072471165232
 30
0.0000000000000000
 11
222.7412765545860
 21
282.6072471165232
 31
0.0000000000000000
  0
LINE
  5
448
100
AcDbEntity
  8
MAIN0
  6
CONTINUOUS
 62
3
100
AcDbLine
 10
213.2412765545862
 20
281.6072471165232
 30
0.0000000000000000
 11
213.2412765545861
 21
271.6072471165232
 31
0.0000000000000000
  0
LINE
  5
449
100
AcDbEntity
  8
MAIN0
  6
CONTINUOUS
 62
3
100
AcDbLine
 10
210.7412765545862
 20
281.6072471165233
 30
0.0000000000000000
 11
210.7412765545861
 21
271.6072471165233
 31
0.0000000000000000
  0
ELLIPSE
  5
44A
100
AcDbEntity
  8
MAIN0
  6
CONTINUOUS
 62
3
100
AcDbEllipse
 10
211.9912765545862
 20
280.8572471165233
 30
0.0000000000000000
 11
1.250000000000000
 21
0.0000000000000000
 31
0.0000000000000000
210
0.0000000000000000
220
0.0000000000000000
230
1.000000000000000
 40
0.6000000000000000
 41
0.0000000000000000
 42
6.283185307179586
  0
ELLIPSE
  5
44B
100
AcDbEntity
  8
MAIN0
  6
CONTINUOUS
 62
3
100
AcDbEllipse
 10
211.9912765545861
 20
272.3572471165233
 30
0.0000000000000000
 11
1.250000000000000
 21
0.0000000000000000
 31
0.0000000000000000
210
0.0000000000000000
220
0.0000000000000000
230
1.000000000000000
 40
0.6000000000000000
 41
0.0000000000000000
 42
6.283185307179586
  0
LINE
  5
44C
100
AcDbEntity
  8
MAIN0
  6
CONTINUOUS
 62
3
100
AcDbLine
 10
189.5412765545863
 20
200.9072471165229
 30
0.0000000000000000
 11
188.3412765545862
 21
199.7072471165229
 31
0.0000000000000000
  0
LINE
  5
44D
100
AcDbEntity
  8
MAIN0
  6
CONTINUOUS
 62
3
100
AcDbLine
 10
188.3412765545862
 20
199.7072471165229
 30
0.0000000000000000
 11
188.3412765545862
 21
196.4072471165229
 31
0.0000000000000000
  0
LINE
  5
44E
100
AcDbEntity
  8
MAIN0
  6
CONTINUOUS
 62
3
100
AcDbLine
 10
188.3412765545862
 20
196.4072471165229
 30
0.0000000000000000
 11
189.2073019583707
 21
195.9072471165229
 31
0.0000000000000000
  0
LINE
  5
44F
100
AcDbEntity
  8
MAIN0
  6
CONTINUOUS
 62
3
100
AcDbLine
 10
189.2073019583707
 20
195.9072471165229
 30
0.0000000000000000
 11
192.4752511508018
 21
195.9072471165229
 31
0.0000000000000000
  0
LINE
  5
450
100
AcDbEntity
  8
MAIN0
  6
CONTINUOUS
 62
3
100
AcDbLine
 10
192.4752511508018
 20
195.9072471165229
 30
0.0000000000000000
 11
193.3412765545862
 21
196.4072471165229
 31
0.0000000000000000
  0
LINE
  5
451
100
AcDbEntity
  8
MAIN0
  6
CONTINUOUS
 62
3
100
AcDbLine
 10
193.3412765545862
 20
196.4072471165229
 30
0.0000000000000000
 11
193.3412765545862
 21
199.7072471165229
 31
0.0000000000000000
  0
LINE
  5
452
100
AcDbEntity
  8
MAIN0
  6
CONTINUOUS
 62
3
100
AcDbLine
 10
193.3412765545862
 20
199.7072471165229
 30
0.0000000000000000
 11
192.1412765545862
 21
200.9072471165229
 31
0.0000000000000000
  0
LINE
  5
453
100
AcDbEntity
  8
MAIN0
  6
CONTINUOUS
 62
3
100
AcDbLine
 10
192.1412765545862
 20
200.9072471165229
 30
0.0000000000000000
 11
189.5412765545863
 21
200.9072471165229
 31
0.0000000000000000
  0
LINE
  5
454
100
AcDbEntity
  8
MAIN0
  6
CONTINUOUS
 62
3
100
AcDbLine
 10
188.3412765545862
 20
199.7072471165229
 30
0.0000000000000000
 11
193.3412765545862
 21
199.7072471165229
 31
0.0000000000000000
  0
LINE
  5
455
100
AcDbEntity
  8
MAIN0
  6
CONTINUOUS
 62
3
100
AcDbLine
 10
188.3412765545862
 20
196.4072471165229
 30
0.0000000000000000
 11
193.3412765545862
 21
196.4072471165229
 31
0.0000000000000000
  0
LINE
  5
456
100
AcDbEntity
  8
MAIN0
  6
CONTINUOUS
 62
3
100
AcDbLine
 10
188.7742893545862
 20
200.1402599165229
 30
0.0000000000000000
 11
188.7742893545862
 21
196.1572470598803
 31
0.0000000000000000
  0
LINE
  5
457
100
AcDbEntity
  8
MAIN0
  6
CONTINUOUS
 62
3
100
AcDbLine
 10
192.9082637545862
 20
200.1402599165229
 30
0.0000000000000000
 11
192.9082637545862
 21
196.1572470598803
 31
0.0000000000000000
  0
LINE
  5
458
100
AcDbEntity
  8
MAIN0
  6
HIDDEN
 62
3
100
AcDbLine
 10
189.5912765545862
 20
200.9072471165229
 30
0.0000000000000000
 11
190.8412765545862
 21
199.6572471165229
 31
0.0000000000000000
  0
LINE
  5
459
100
AcDbEntity
  8
MAIN0
  6
HIDDEN
 62
3
100
AcDbLine
 10
190.8412765545862
 20
199.6572471165229
 30
0.0000000000000000
 11
192.0912765545862
 21
200.9072471165229
 31
0.0000000000000000
  0
LINE
  5
45A
100
AcDbEntity
  8
MAIN0
  6
HIDDEN
 62
12
100
AcDbLine
 10
173.3827284389133
 20
201.8072471165229
 30
0.0000000000000000
 11
165.2998246702585
 21
201.8072471165229
 31
0.0000000000000000
  0
ARC
  5
45B
100
AcDbEntity
  8
MAIN0
  6
HIDDEN
 62
12
100
AcDbCircle
 10
165.5986722226468
 20
200.8072471165229
 30
0.0000000000000000
 40
1.000000000000000
100
AcDbArc
 50
340.2282007512279
 51
449.9999999999999
  0
LINE
  5
45C
100
AcDbEntity
  8
MAIN0
  6
HIDDEN
 62
12
100
AcDbLine
 10
166.2358197307163
 20
199.6235525922253
 30
0.0000000000000000
 11
166.5397196030629
 21
200.4689723350035
 31
0.0000000000000000
  0
ARC
  5
45D
100
AcDbEntity
  8
MAIN0
  6
HIDDEN
 62
12
100
AcDbCircle
 10
169.3412765545862
 20
198.5072471165229
 30
0.0000000000000000
 40
3.299999999999997
100
AcDbArc
 50
160.2282116100356
 51
229.2509456225276
  0
LINE
  5
45E
100
AcDbEntity
  8
MAIN0
  6
HIDDEN
 62
12
100
AcDbLine
 10
171.4953424774397
 20
196.0072471165229
 30
0.0000000000000000
 11
167.1872106317326
 21
196.0072471165229
 31
0.0000000000000000
  0
ARC
  5
45F
100
AcDbEntity
  8
MAIN0
  6
HIDDEN
 62
12
100
AcDbCircle
 10
169.3412765545862
 20
196.1378983669316
 30
0.0000000000000000
 40
1.000000000000000
100
AcDbArc
 50
187.5072271955753
 51
352.4927728044244
  0
ARC
  5
460
100
AcDbEntity
  8
MAIN0
  6
HIDDEN
 62
12
100
AcDbCircle
 10
169.3412765545862
 20
198.5072471165229
 30
0.0000000000000000
 40
3.299999999999997
100
AcDbArc
 50
310.7490543774720
 51
379.7718095177823
  0
LINE
  5
461
100
AcDbEntity
  8
MAIN0
  6
HIDDEN
 62
12
100
AcDbLine
 10
172.1428335061092
 20
200.4689723350035
 30
0.0000000000000000
 11
172.4467327102891
 21
199.6235544509996
 31
0.0000000000000000
  0
ARC
  5
462
100
AcDbEntity
  8
MAIN0
  6
HIDDEN
 62
12
100
AcDbCircle
 10
173.0838808865254
 20
200.8072471165229
 30
0.0000000000000000
 40
1.000000000000000
100
AcDbArc
 50
89.99999999999970
 51
199.7717992487710
  0
LINE
  5
463
100
AcDbEntity
  8
MAIN0
  6
HIDDEN
 62
12
100
AcDbLine
 10
173.3827284389133
 20
201.8072471165229
 30
0.0000000000000000
 11
173.3827284389133
 21
204.1072471165230
 31
0.0000000000000000
  0
LINE
  5
464
100
AcDbEntity
  8
MAIN0
  6
HIDDEN
 62
12
100
AcDbLine
 10
171.3620024967497
 20
201.8072471165229
 30
0.0000000000000000
 11
171.3620024967497
 21
204.1072471165229
 31
0.0000000000000000
  0
LINE
  5
465
100
AcDbEntity
  8
MAIN0
  6
HIDDEN
 62
12
100
AcDbLine
 10
167.3205506124223
 20
201.8072471165229
 30
0.0000000000000000
 11
167.3205506124223
 21
204.1072471165229
 31
0.0000000000000000
  0
LINE
  5
466
100
AcDbEntity
  8
MAIN0
  6
HIDDEN
 62
12
100
AcDbLine
 10
165.2998246702585
 20
201.8072471165229
 30
0.0000000000000000
 11
165.2998246702585
 21
204.1072471165230
 31
0.0000000000000000
  0
LINE
  5
467
100
AcDbEntity
  8
MAIN0
  6
HIDDEN
 62
12
100
AcDbLine
 10
172.3412765545862
 20
209.0072471165229
 30
0.0000000000000000
 11
166.3412765545859
 21
209.0072471165229
 31
0.0000000000000000
  0
LINE
  5
468
100
AcDbEntity
  8
MAIN0
  6
HIDDEN
 62
12
100
AcDbLine
 10
171.8412765545861
 20
209.5072471165229
 30
0.0000000000000000
 11
166.8412765545861
 21
209.5072471165229
 31
0.0000000000000000
  0
LINE
  5
469
100
AcDbEntity
  8
MAIN0
  6
HIDDEN
 62
12
100
AcDbLine
 10
172.0412765545862
 20
209.3072471165229
 30
0.0000000000000000
 11
172.0412765545862
 21
205.1802707790508
 31
0.0000000000000000
  0
LINE
  5
46A
100
AcDbEntity
  8
MAIN0
  6
HIDDEN
 62
12
100
AcDbLine
 10
171.8412765545861
 20
209.5072471165230
 30
0.0000000000000000
 11
172.3412765545860
 21
209.0072471165231
 31
0.0000000000000000
  0
LINE
  5
46B
100
AcDbEntity
  8
MAIN0
  6
HIDDEN
 62
12
100
AcDbLine
 10
166.6412765545861
 20
209.3072471165231
 30
0.0000000000000000
 11
166.6412765545861
 21
205.1802707790498
 31
0.0000000000000000
  0
LINE
  5
46C
100
AcDbEntity
  8
MAIN0
  6
HIDDEN
 62
12
100
AcDbLine
 10
166.3412765545861
 20
204.1072471165230
 30
0.0000000000000000
 11
166.3412765545861
 21
209.0072471165229
 31
0.0000000000000000
  0
LINE
  5
46D
100
AcDbEntity
  8
MAIN0
  6
HIDDEN
 62
12
100
AcDbLine
 10
172.3412765545862
 20
204.1072471165229
 30
0.0000000000000000
 11
172.3412765545862
 21
209.0072471165229
 31
0.0000000000000000
  0
LINE
  5
46E
100
AcDbEntity
  8
MAIN0
  6
HIDDEN
 62
12
100
AcDbLine
 10
172.3412765545862
 20
205.1802707790507
 30
0.0000000000000000
 11
166.3412765545859
 21
205.1802707790507
 31
0.0000000000000000
  0
LINE
  5
46F
100
AcDbEntity
  8
MAIN0
  6
HIDDEN
 62
12
100
AcDbLine
 10
173.3827284389133
 20
204.1072471165229
 30
0.0000000000000000
 11
165.2998246702585
 21
204.1072471165229
 31
0.0000000000000000
  0
LINE
  5
470
100
AcDbEntity
  8
MAIN0
  6
HIDDEN
 62
12
100
AcDbLine
 10
166.8412765545865
 20
209.5072471165230
 30
0.0000000000000000
 11
166.3412765545866
 21
209.0072471165231
 31
0.0000000000000000
  0
CIRCLE
  5
471
100
AcDbEntity
  8
MAIN0
  6
CONTINUOUS
 62
3
100
AcDbCircle
 10
433.8412765545863
 20
276.6072471165229
 30
0.0000000000000000
 40
6.000000000000000
  0
CIRCLE
  5
472
100
AcDbEntity
  8
MAIN0
  6
CONTINUOUS
 62
3
100
AcDbCircle
 10
433.8412765545863
 20
276.6072471165229
 30
0.0000000000000000
 40
5.052784500000000
  0
LINE
  5
473
100
AcDbEntity
  8
MAIN0
  6
CONTINUOUS
 62
3
100
AcDbLine
 10
433.8412765545863
 20
280.0713487316607
 30
0.0000000000000000
 11
430.8412765545863
 21
278.3392979240918
 31
0.0000000000000000
  0
LINE
  5
474
100
AcDbEntity
  8
MAIN0
  6
CONTINUOUS
 62
3
100
AcDbLine
 10
430.8412765545863
 20
278.3392979240918
 30
0.0000000000000000
 11
430.8412765545863
 21
274.8751963089541
 31
0.0000000000000000
  0
LINE
  5
475
100
AcDbEntity
  8
MAIN0
  6
CONTINUOUS
 62
3
100
AcDbLine
 10
430.8412765545863
 20
274.8751963089541
 30
0.0000000000000000
 11
433.8412765545863
 21
273.1431455013852
 31
0.0000000000000000
  0
LINE
  5
476
100
AcDbEntity
  8
MAIN0
  6
CONTINUOUS
 62
3
100
AcDbLine
 10
433.8412765545863
 20
273.1431455013852
 30
0.0000000000000000
 11
436.8412765545863
 21
274.8751963089541
 31
0.0000000000000000
  0
LINE
  5
477
100
AcDbEntity
  8
MAIN0
  6
CONTINUOUS
 62
3
100
AcDbLine
 10
436.8412765545863
 20
274.8751963089541
 30
0.0000000000000000
 11
436.8412765545863
 21
278.3392979240918
 31
0.0000000000000000
  0
LINE
  5
478
100
AcDbEntity
  8
MAIN0
  6
CONTINUOUS
 62
3
100
AcDbLine
 10
436.8412765545863
 20
278.3392979240918
 30
0.0000000000000000
 11
433.8412765545863
 21
280.0713487316607
 31
0.0000000000000000
  0
LINE
  5
479
100
AcDbEntity
  8
MAIN0
  6
CONTINUOUS
 62
3
100
AcDbLine
 10
191.4180314067623
 20
323.4983082829064
 30
0.0000000000000000
 11
193.9590153506691
 21
322.8647698309158
 31
0.0000000000000000
  0
ELLIPSE
  5
47A
100
AcDbEntity
  8
MAIN0
  6
CONTINUOUS
 62
3
100
AcDbEllipse
 10
192.3994508836864
 20
324.8768293909997
 30
0.0000000000000000
 11
-1.940591452552031
 21
0.4838437911991821
 31
0.0000000000000000
210
0.0000000000000000
220
0.0000000000000000
230
1.000000000000000
 40
0.7875000000000000
 41
1.249370848324422
 42
5.030528561987616
  0
LINE
  5
47B
100
AcDbEntity
  8
MAIN0
  6
CONTINUOUS
 62
3
100
AcDbLine
 10
193.9590153506691
 20
322.8647698309158
 30
0.0000000000000000
 11
194.7210693218078
 21
325.9212013686852
 31
0.0000000000000000
  0
LINE
  5
47C
100
AcDbEntity
  8
MAIN0
  6
CONTINUOUS
 62
3
100
AcDbLine
 10
204.1339075727729
 20
321.1072471165230
 30
0.0000000000000000
 11
204.1339075727729
 21
323.5743172064869
 31
0.0000000000000000
  0
LINE
  5
47D
100
AcDbEntity
  8
MAIN0
  6
CONTINUOUS
 62
3
100
AcDbLine
 10
204.1339075727729
 20
321.1072471165230
 30
0.0000000000000000
 11
211.1339075727729
 21
321.1072471165230
 31
0.0000000000000000
  0
LINE
  5
47E
100
AcDbEntity
  8
MAIN0
  6
CONTINUOUS
 62
3
100
AcDbLine
 10
211.1339075727729
 20
321.1072471165230
 30
0.0000000000000000
 11
211.1339075727729
 21
306.1866965882934
 31
0.0000000000000000
  0
ARC
  5
47F
100
AcDbEntity
  8
MAIN0
  6
CONTINUOUS
 62
3
100
AcDbCircle
 10
215.6339075727729
 20
304.0072471165229
 30
0.0000000000000000
 40
5.000000000000000
100
AcDbArc
 50
154.1580672368330
 51
289.9484435888026
  0
LINE
  5
480
100
AcDbEntity
  8
MAIN0
  6
CONTINUOUS
 62
3
100
AcDbLine
 10
217.3397797836961
 20
299.3072471165230
 30
0.0000000000000000
 11
218.1339075727692
 21
299.3072471165230
 31
0.0000000000000000
  0
LINE
  5
481
100
AcDbEntity
  8
MAIN0
  6
CONTINUOUS
 62
3
100
AcDbLine
 10
224.1339075727692
 20
299.3072471165230
 30
0.0000000000000000
 11
234.1339075727729
 21
299.3072471165230
 31
0.0000000000000000
  0
LINE
  5
482
100
AcDbEntity
  8
MAIN0
  6
CONTINUOUS
 62
3
100
AcDbLine
 10
234.1339075727729
 20
283.1148409819980
 30
0.0000000000000000
 11
234.1339075727729
 21
299.3072471165230
 31
0.0000000000000000
  0
LINE
  5
483
100
AcDbEntity
  8
MAIN0
  6
CONTINUOUS
 62
3
100
AcDbLine
 10
183.8604397286555
 20
298.8958572480205
 30
0.0000000000000000
 11
187.7416226337596
 21
297.9281696656221
 31
0.0000000000000000
  0
LINE
  5
484
100
AcDbEntity
  8
MAIN0
  6
CONTINUOUS
 62
3
100
AcDbLine
 10
186.9795686626209
 20
294.8717381278528
 30
0.0000000000000000
 11
187.7416226337596
 21
297.9281696656222
 31
0.0000000000000000
  0
ELLIPSE
  5
485
100
AcDbEntity
  8
MAIN0
  6
CONTINUOUS
 62
3
100
AcDbEllipse
 10
185.4200041956382
 20
296.8837976879366
 30
0.0000000000000000
 11
-1.940591452552031
 21
0.4838437911991821
 31
0.0000000000000000
210
0.0000000000000000
220
0.0000000000000000
230
1.000000000000000
 40
0.7875000000000000
 41
0.0000000000000000
 42
6.283185307179586
  0
LINE
  5
486
100
AcDbEntity
  8
MAIN0
  6
CONTINUOUS
 62
3
100
AcDbLine
 10
183.0983857575168
 20
295.8394257102511
 30
0.0000000000000000
 11
183.8604397286555
 21
298.8958572480206
 31
0.0000000000000000
  0
LINE
  5
487
100
AcDbEntity
  8
MAIN0
  6
CONTINUOUS
 62
3
100
AcDbLine
 10
177.2689578535549
 20
297.2928653272638
 30
0.0000000000000000
 11
183.0983857575168
 21
295.8394257102511
 31
0.0000000000000000
  0
LINE
  5
488
100
AcDbEntity
  8
MAIN0
  6
CONTINUOUS
 62
3
100
AcDbLine
 10
186.9795686626209
 20
294.8717381278527
 30
0.0000000000000000
 11
234.1339075727729
 21
283.1148409819980
 31
0.0000000000000000
  0
LINE
  5
489
100
AcDbEntity
  8
MAIN0
  6
CONTINUOUS
 62
3
100
AcDbLine
 10
204.1339075727729
 20
323.5743172064869
 30
0.0000000000000000
 11
194.7210693218078
 21
325.9212013686852
 31
0.0000000000000000
  0
LINE
  5
48A
100
AcDbEntity
  8
MAIN0
  6
CENTER
 62
3
100
AcDbLine
 10
191.6194259079227
 20
310.2047098570025
 30
0.0000000000000000
 11
244.5594567591957
 21
297.0052776944027
 31
0.0000000000000000
  0
LINE
  5
48B
100
AcDbEntity
  8
MAIN0
  6
CONTINUOUS
 62
3
100
AcDbLine
 10
210.3339075727727
 20
310.8072471165230
 30
0.0000000000000000
 11
210.3339075727731
 21
315.8072471165230
 31
0.0000000000000000
  0
LINE
  5
48C
100
AcDbEntity
  8
MAIN0
  6
CONTINUOUS
 62
3
100
AcDbLine
 10
199.1339075727731
 20
316.3072471165237
 30
0.0000000000000000
 11
210.8339075727731
 21
316.3072471165230
 31
0.0000000000000000
  0
LINE
  5
48D
100
AcDbEntity
  8
MAIN0
  6
CONTINUOUS
 62
3
100
AcDbLine
 10
210.3339075727731
 20
315.8072471165230
 30
0.0000000000000000
 11
211.1339075727731
 21
316.6072471165230
 31
0.0000000000000000
  0
LINE
  5
48E
100
AcDbEntity
  8
MAIN0
  6
CONTINUOUS
 62
3
100
AcDbLine
 10
192.2926119509407
 20
315.8072471165241
 30
0.0000000000000000
 11
210.3339075727731
 21
315.8072471165230
 31
0.0000000000000000
  0
LINE
  5
48F
100
AcDbEntity
  8
MAIN0
  6
CENTER
 62
3
100
AcDbLine
 10
191.9636979039575
 20
313.3072471165230
 30
0.0000000000000000
 11
213.0621122687393
 21
313.3072471165230
 31
0.0000000000000000
  0
LINE
  5
490
100
AcDbEntity
  8
MAIN0
  6
CONTINUOUS
 62
3
100
AcDbLine
 10
210.8339075727727
 20
310.3072471165230
 30
0.0000000000000000
 11
199.1339075727727
 21
310.3072471165237
 31
0.0000000000000000
  0
LINE
  5
491
100
AcDbEntity
  8
MAIN0
  6
CONTINUOUS
 62
3
100
AcDbLine
 10
211.1339075727727
 20
310.0072471165230
 30
0.0000000000000000
 11
210.3339075727727
 21
310.8072471165231
 31
0.0000000000000000
  0
LINE
  5
492
100
AcDbEntity
  8
MAIN0
  6
CONTINUOUS
 62
3
100
AcDbLine
 10
210.3339075727727
 20
310.8072471165230
 30
0.0000000000000000
 11
192.0019852157522
 21
310.8072471165242
 31
0.0000000000000000
  0
LINE
  5
493
100
AcDbEntity
  8
MAIN0
  6
CONTINUOUS
 62
3
100
AcDbLine
 10
199.1339075727727
 20
310.3072471165237
 30
0.0000000000000000
 11
199.1339075727731
 21
316.3072471165237
 31
0.0000000000000000
  0
LINE
  5
494
100
AcDbEntity
  8
MAIN0
  6
CONTINUOUS
 62
3
100
AcDbLine
 10
218.1339075727661
 20
291.3072471165232
 30
0.0000000000000000
 11
218.1339075727672
 21
303.3072471165232
 31
0.0000000000000000
  0
LINE
  5
495
100
AcDbEntity
  8
MAIN0
  6
CONTINUOUS
 62
3
100
AcDbLine
 10
218.6751735727673
 20
303.3072471165232
 30
0.0000000000000000
 11
218.6751735727661
 21
291.3072471165232
 31
0.0000000000000000
  0
LINE
  5
496
100
AcDbEntity
  8
MAIN0
  6
CONTINUOUS
 62
3
100
AcDbLine
 10
224.1339075727672
 20
303.3072471165227
 30
0.0000000000000000
 11
224.1339075727661
 21
291.3072471165227
 31
0.0000000000000000
  0
LINE
  5
497
100
AcDbEntity
  8
MAIN0
  6
CONTINUOUS
 62
3
100
AcDbLine
 10
223.5926415727672
 20
303.3072471165227
 30
0.0000000000000000
 11
223.5926415727661
 21
291.3072471165227
 31
0.0000000000000000
  0
LINE
  5
498
100
AcDbEntity
  8
MAIN0
  6
CONTINUOUS
 62
3
100
AcDbLine
 10
224.1339075727661
 20
291.3072471165227
 30
0.0000000000000000
 11
218.1339075727661
 21
291.3072471165232
 31
0.0000000000000000
  0
LINE
  5
499
100
AcDbEntity
  8
MAIN0
  6
CONTINUOUS
 62
3
100
AcDbLine
 10
226.1339075727678
 20
308.7072471165225
 30
0.0000000000000000
 11
216.1339075727678
 21
308.7072471165234
 31
0.0000000000000000
  0
LINE
  5
49A
100
AcDbEntity
  8
MAIN0
  6
CONTINUOUS
 62
3
100
AcDbLine
 10
225.0946770882265
 20
309.3072471165226
 30
0.0000000000000000
 11
217.1731380573092
 21
309.3072471165233
 31
0.0000000000000000
  0
LINE
  5
49B
100
AcDbEntity
  8
MAIN0
  6
CONTINUOUS
 62
3
100
AcDbLine
 10
217.1731380573092
 20
309.3072471165233
 30
0.0000000000000000
 11
216.1339075727678
 21
308.7072471165234
 31
0.0000000000000000
  0
LINE
  5
49C
100
AcDbEntity
  8
MAIN0
  6
CONTINUOUS
 62
3
100
AcDbLine
 10
216.1339075727678
 20
308.7072471165234
 30
0.0000000000000000
 11
216.1339075727672
 21
303.3072471165234
 31
0.0000000000000000
  0
LINE
  5
49D
100
AcDbEntity
  8
MAIN0
  6
CONTINUOUS
 62
3
100
AcDbLine
 10
215.6339075727705
 20
303.3072471165235
 30
0.0000000000000000
 11
215.6339075727705
 21
321.9072471165234
 31
0.0000000000000000
  0
LINE
  5
49E
100
AcDbEntity
  8
MAIN0
  6
CONTINUOUS
 62
3
100
AcDbLine
 10
226.6339075727689
 20
321.9072471165208
 30
0.0000000000000000
 11
226.6339075727672
 21
303.3072471165224
 31
0.0000000000000000
  0
LINE
  5
49F
100
AcDbEntity
  8
MAIN0
  6
CONTINUOUS
 62
3
100
AcDbLine
 10
226.1339075727678
 20
308.7072471165225
 30
0.0000000000000000
 11
225.0946770882265
 21
309.3072471165226
 31
0.0000000000000000
  0
LINE
  5
4A0
100
AcDbEntity
  8
MAIN0
  6
CONTINUOUS
 62
3
100
AcDbLine
 10
226.1339075727672
 20
303.3072471165225
 30
0.0000000000000000
 11
226.1339075727678
 21
308.7072471165225
 31
0.0000000000000000
  0
LINE
  5
4A1
100
AcDbEntity
  8
MAIN0
  6
CONTINUOUS
 62
3
100
AcDbLine
 10
226.6339075727672
 20
303.3072471165224
 30
0.0000000000000000
 11
215.6339075727672
 21
303.3072471165235
 31
0.0000000000000000
  0
LINE
  5
4A2
100
AcDbEntity
  8
MAIN0
  6
CONTINUOUS
 62
3
100
AcDbLine
 10
217.8339075727672
 20
303.2112471165232
 30
0.0000000000000000
 11
217.8339075727669
 21
299.6809260234040
 31
0.0000000000000000
  0
LINE
  5
4A3
100
AcDbEntity
  8
MAIN0
  6
CONTINUOUS
 62
3
100
AcDbLine
 10
217.8339075727669
 20
299.6809260234040
 30
0.0000000000000000
 11
217.4339075727669
 21
299.2809260234041
 31
0.0000000000000000
  0
LINE
  5
4A4
100
AcDbEntity
  8
MAIN0
  6
CONTINUOUS
 62
3
100
AcDbLine
 10
224.4339075727672
 20
303.2112471165226
 30
0.0000000000000000
 11
224.4339075727669
 21
299.6809260234041
 31
0.0000000000000000
  0
LINE
  5
4A5
100
AcDbEntity
  8
MAIN0
  6
CONTINUOUS
 62
3
100
AcDbLine
 10
224.4339075727669
 20
299.6809260234040
 30
0.0000000000000000
 11
224.8339075727669
 21
299.2809260234041
 31
0.0000000000000000
  0
LINE
  5
4A6
100
AcDbEntity
  8
MAIN0
  6
CONTINUOUS
 62
3
100
AcDbLine
 10
216.1339075727705
 20
299.3072471165229
 30
0.0000000000000000
 11
218.1339075727669
 21
299.3072471165229
 31
0.0000000000000000
  0
LINE
  5
4A7
100
AcDbEntity
  8
MAIN0
  6
CONTINUOUS
 62
3
100
AcDbLine
 10
216.1339075727705
 20
299.3072471165229
 30
0.0000000000000000
 11
211.1339075727705
 21
304.3072471165229
 31
0.0000000000000000
  0
LINE
  5
4A8
100
AcDbEntity
  8
MAIN0
  6
CONTINUOUS
 62
3
100
AcDbLine
 10
211.1339075727705
 20
322.3072471165229
 30
0.0000000000000000
 11
211.1339075727705
 21
304.3072471165229
 31
0.0000000000000000
  0
LINE
  5
4A9
100
AcDbEntity
  8
MAIN0
  6
CONTINUOUS
 62
3
100
AcDbLine
 10
211.1339075727708
 20
322.3072471165229
 30
0.0000000000000000
 11
234.1339075727754
 21
322.3072471165229
 31
0.0000000000000000
  0
LINE
  5
4AA
100
AcDbEntity
  8
MAIN0
  6
CONTINUOUS
 62
3
100
AcDbLine
 10
215.6339075727705
 20
321.9072471165235
 30
0.0000000000000000
 11
215.2339075727705
 21
322.3072471165235
 31
0.0000000000000000
  0
LINE
  5
4AB
100
AcDbEntity
  8
MAIN0
  6
CONTINUOUS
 62
3
100
AcDbLine
 10
227.0339075727705
 20
322.3072471165224
 30
0.0000000000000000
 11
226.6339075727705
 21
321.9072471165224
 31
0.0000000000000000
  0
LINE
  5
4AC
100
AcDbEntity
  8
MAIN0
  6
CONTINUOUS
 62
3
100
AcDbLine
 10
234.1339075727755
 20
322.3072471165229
 30
0.0000000000000000
 11
234.1339075727744
 21
299.3072471165229
 31
0.0000000000000000
  0
LINE
  5
4AD
100
AcDbEntity
  8
MAIN0
  6
CONTINUOUS
 62
3
100
AcDbLine
 10
224.1339075727669
 20
299.3072471165229
 30
0.0000000000000000
 11
234.1339075727705
 21
299.3072471165229
 31
0.0000000000000000
  0
LINE
  5
4AE
100
AcDbEntity
  8
MAIN0
  6
CENTER
 62
3
100
AcDbLine
 10
221.1339075727672
 20
285.0368149036416
 30
0.0000000000000000
 11
221.1339075727672
 21
323.8043616646633
 31
0.0000000000000000
  0
LINE
  5
4AF
100
AcDbEntity
  8
MAIN0
  6
CONTINUOUS
 62
3
100
AcDbLine
 10
186.3413837373894
 20
290.5298968475007
 30
0.0000000000000000
 11
186.3413837373893
 21
276.6072471165165
 31
0.0000000000000000
  0
LINE
  5
4B0
100
AcDbEntity
  8
MAIN0
  6
CONTINUOUS
 62
3
100
AcDbLine
 10
186.3413837373894
 20
262.6845973855322
 30
0.0000000000000000
 11
186.3413837373894
 21
276.6072471165165
 31
0.0000000000000000
  0
LINE
  5
4B1
100
AcDbEntity
  8
MAIN0
  6
CONTINUOUS
 62
3
100
AcDbLine
 10
172.9175154811160
 20
291.6072471165163
 30
0.0000000000000000
 11
183.9753583335581
 21
291.6072471165164
 31
0.0000000000000000
  0
LINE
  5
4B2
100
AcDbEntity
  8
MAIN0
  6
CONTINUOUS
 62
3
100
AcDbLine
 10
174.3287605498134
 20
261.6072471165164
 30
0.0000000000000000
 11
183.9753583335581
 21
261.6072471165164
 31
0.0000000000000000
  0
LINE
  5
4B3
100
AcDbEntity
  8
MAIN0
  6
CONTINUOUS
 62
3
100
AcDbLine
 10
184.8413837373432
 20
291.1072471165165
 30
0.0000000000000000
 11
185.3413837373894
 21
291.1072471165165
 31
0.0000000000000000
  0
LINE
  5
4B4
100
AcDbEntity
  8
MAIN0
  6
CONTINUOUS
 62
3
100
AcDbLine
 10
183.9753583335581
 20
291.6072471165164
 30
0.0000000000000000
 11
184.8413837373431
 21
291.1072471165164
 31
0.0000000000000000
  0
LINE
  5
4B5
100
AcDbEntity
  8
MAIN0
  6
CONTINUOUS
 62
3
100
AcDbLine
 10
185.3413837376890
 20
291.1072471165164
 30
0.0000000000000000
 11
186.3413837373894
 21
290.5298968475007
 31
0.0000000000000000
  0
LINE
  5
4B6
100
AcDbEntity
  8
MAIN0
  6
CONTINUOUS
 62
3
100
AcDbLine
 10
184.8413837373432
 20
262.1072471165165
 30
0.0000000000000000
 11
185.3413837373894
 21
262.1072471165165
 31
0.0000000000000000
  0
LINE
  5
4B7
100
AcDbEntity
  8
MAIN0
  6
CONTINUOUS
 62
3
100
AcDbLine
 10
183.9753583335582
 20
261.6072471165164
 30
0.0000000000000000
 11
184.8413837373432
 21
262.1072471165164
 31
0.0000000000000000
  0
LINE
  5
4B8
100
AcDbEntity
  8
MAIN0
  6
CONTINUOUS
 62
3
100
AcDbLine
 10
185.3413837376889
 20
262.1072471165164
 30
0.0000000000000000
 11
186.3413837373894
 21
262.6845973855322
 31
0.0000000000000000
  0
LINE
  5
4B9
100
AcDbEntity
  8
MAIN0
  6
CONTINUOUS
 62
3
100
AcDbLine
 10
164.3413837373403
 20
285.6072471165179
 30
0.0000000000000000
 11
165.3413837373894
 21
286.1845973857358
 31
0.0000000000000000
  0
LINE
  5
4BA
100
AcDbEntity
  8
MAIN0
  6
CONTINUOUS
 62
3
100
AcDbLine
 10
164.3413837373402
 20
267.6072471165149
 30
0.0000000000000000
 11
165.3413837373894
 21
267.0298968472970
 31
0.0000000000000000
  0
LINE
  5
4BB
100
AcDbEntity
  8
MAIN0
  6
CONTINUOUS
 62
3
100
AcDbLine
 10
129.3413837373894
 20
285.6072471165198
 30
0.0000000000000000
 11
164.3413837373414
 21
285.6072471165186
 31
0.0000000000000000
  0
LINE
  5
4BC
100
AcDbEntity
  8
MAIN0
  6
CONTINUOUS
 62
3
100
AcDbLine
 10
129.3413837373894
 20
267.6072471165198
 30
0.0000000000000000
 11
164.3413837373338
 21
267.6072471165186
 31
0.0000000000000000
  0
LINE
  5
4BD
100
AcDbEntity
  8
MAIN0
  6
CONTINUOUS
 62
3
100
AcDbLine
 10
129.3413837373894
 20
265.5072471165198
 30
0.0000000000000000
 11
129.3413837373894
 21
287.7072471165198
 31
0.0000000000000000
  0
ARC
  5
4BE
100
AcDbEntity
  8
MAIN0
  6
CONTINUOUS
 62
3
100
AcDbCircle
 10
108.0413837373895
 20
289.4072471165155
 30
0.0000000000000000
 40
0.2000000000000000
100
AcDbArc
 50
90.00000000000000
 51
180.0000000000000
  0
LINE
  5
4BF
100
AcDbEntity
  8
MAIN0
  6
CONTINUOUS
 62
3
100
AcDbLine
 10
108.0413837373894
 20
289.6072471165155
 30
0.0000000000000000
 11
110.8413837373893
 21
289.6072471165154
 31
0.0000000000000000
  0
ARC
  5
4C0
100
AcDbEntity
  8
MAIN0
  6
CONTINUOUS
 62
3
100
AcDbCircle
 10
110.8413837373894
 20
289.4072471165154
 30
0.0000000000000000
 40
0.2000000000000000
100
AcDbArc
 50
0.0000000000000000
 51
90.00000000000000
  0
LINE
  5
4C1
100
AcDbEntity
  8
MAIN0
  6
CONTINUOUS
 62
3
100
AcDbLine
 10
108.0413837373895
 20
263.6072471165173
 30
0.0000000000000000
 11
110.8413837373894
 21
263.6072471165174
 31
0.0000000000000000
  0
ARC
  5
4C2
100
AcDbEntity
  8
MAIN0
  6
CONTINUOUS
 62
3
100
AcDbCircle
 10
108.0413837373895
 20
263.8072471165173
 30
0.0000000000000000
 40
0.2000000000000000
100
AcDbArc
 50
180.0000000000000
 51
270.0000000000000
  0
ARC
  5
4C3
100
AcDbEntity
  8
MAIN0
  6
CONTINUOUS
 62
3
100
AcDbCircle
 10
110.8413837373895
 20
263.8072471165174
 30
0.0000000000000000
 40
0.2000000000000000
100
AcDbArc
 50
270.0000000000000
 51
360.0000000000000
  0
LINE
  5
4C4
100
AcDbEntity
  8
MAIN0
  6
CONTINUOUS
 62
3
100
AcDbLine
 10
102.3208752184171
 20
287.6072471165214
 30
0.0000000000000000
 11
107.8413837373894
 21
287.6072471165211
 31
0.0000000000000000
  0
LINE
  5
4C5
100
AcDbEntity
  8
MAIN0
  6
CONTINUOUS
 62
3
100
AcDbLine
 10
103.2790950124051
 20
265.6072471165214
 30
0.0000000000000000
 11
107.8413837373894
 21
265.6072471165211
 31
0.0000000000000000
  0
ELLIPSE
  5
4C6
100
AcDbEntity
  8
MAIN0
  6
CONTINUOUS
 62
3
100
AcDbEllipse
 10
109.4413837373895
 20
288.6072471165182
 30
0.0000000000000000
 11
-1.600000000000000
 21
0.0000000000000000
 31
0.0000000000000000
210
0.0000000000000000
220
0.0000000000000000
230
1.000000000000000
 40
0.6250000000000000
 41
0.0000000000000000
 42
6.283185307179586
  0
ELLIPSE
  5
4C7
100
AcDbEntity
  8
MAIN0
  6
CONTINUOUS
 62
3
100
AcDbEllipse
 10
109.4413837373895
 20
264.6072471165147
 30
0.0000000000000000
 11
1.600000000000000
 21
0.0000000000000000
 31
0.0000000000000000
210
0.0000000000000000
220
0.0000000000000000
230
1.000000000000000
 40
0.6250000000000000
 41
0.0000000000000000
 42
6.283185307179586
  0
LINE
  5
4C8
100
AcDbEntity
  8
MAIN0
  6
CONTINUOUS
 62
3
100
AcDbLine
 10
111.0413837373894
 20
263.8072471165174
 30
0.0000000000000000
 11
111.0413837373894
 21
265.6072471165209
 31
0.0000000000000000
  0
LINE
  5
4C9
100
AcDbEntity
  8
MAIN0
  6
CONTINUOUS
 62
3
100
AcDbLine
 10
111.0413837373894
 20
287.6072471165209
 30
0.0000000000000000
 11
111.0413837373894
 21
289.4072471165154
 31
0.0000000000000000
  0
LINE
  5
4CA
100
AcDbEntity
  8
MAIN0
  6
CONTINUOUS
 62
3
100
AcDbLine
 10
107.8413837373894
 20
263.8072471165173
 30
0.0000000000000000
 11
107.8413837373894
 21
265.6072471165232
 31
0.0000000000000000
  0
LINE
  5
4CB
100
AcDbEntity
  8
MAIN0
  6
CONTINUOUS
 62
3
100
AcDbLine
 10
107.8413837373894
 20
287.6072471165211
 30
0.0000000000000000
 11
107.8413837373894
 21
289.4072471165155
 31
0.0000000000000000
  0
LINE
  5
4CC
100
AcDbEntity
  8
MAIN0
  6
CONTINUOUS
 62
3
100
AcDbLine
 10
125.3018748008750
 20
288.1072471165200
 30
0.0000000000000000
 11
128.9413837373894
 21
288.1072471165198
 31
0.0000000000000000
  0
LINE
  5
4CD
100
AcDbEntity
  8
MAIN0
  6
CONTINUOUS
 62
3
100
AcDbLine
 10
125.3018748008749
 20
265.1072471165201
 30
0.0000000000000000
 11
128.9413837373893
 21
265.1072471165198
 31
0.0000000000000000
  0
ARC
  5
4CE
100
AcDbEntity
  8
MAIN0
  6
CONTINUOUS
 62
3
100
AcDbCircle
 10
128.9413837373894
 20
287.7072471165198
 30
0.0000000000000000
 40
0.4000000000000000
100
AcDbArc
 50
0.0000000000000000
 51
90.00000000000000
  0
ARC
  5
4CF
100
AcDbEntity
  8
MAIN0
  6
CONTINUOUS
 62
3
100
AcDbCircle
 10
128.9413837373893
 20
265.5072471165198
 30
0.0000000000000000
 40
0.4000000000000000
100
AcDbArc
 50
270.0000000000000
 51
360.0000000000000
  0
LINE
  5
4D0
100
AcDbEntity
  8
MAIN0
  6
CONTINUOUS
 62
3
100
AcDbLine
 10
124.3413837373894
 20
287.6072471165201
 30
0.0000000000000000
 11
125.3018748008750
 21
288.1072471165200
 31
0.0000000000000000
  0
LINE
  5
4D1
100
AcDbEntity
  8
MAIN0
  6
CONTINUOUS
 62
3
100
AcDbLine
 10
111.0413837373894
 20
265.6072471165210
 30
0.0000000000000000
 11
124.3413837373894
 21
265.6072471165201
 31
0.0000000000000000
  0
LINE
  5
4D2
100
AcDbEntity
  8
MAIN0
  6
CONTINUOUS
 62
3
100
AcDbLine
 10
124.3413837373893
 20
265.6072471165201
 30
0.0000000000000000
 11
125.3018748008749
 21
265.1072471165201
 31
0.0000000000000000
  0
LINE
  5
4D3
100
AcDbEntity
  8
MAIN0
  6
CONTINUOUS
 62
3
100
AcDbLine
 10
111.0413837373894
 20
287.6072471165209
 30
0.0000000000000000
 11
124.3413837373894
 21
287.6072471165200
 31
0.0000000000000000
  0
LINE
  5
4D4
100
AcDbEntity
  8
MAIN0
  6
CONTINUOUS
 62
3
100
AcDbLine
 10
124.3413837373894
 20
287.6072471165201
 30
0.0000000000000000
 11
124.3413837373880
 21
265.6072471165201
 31
0.0000000000000000
  0
LINE
  5
4D5
100
AcDbEntity
  8
MAIN0
  6
CONTINUOUS
 62
3
100
AcDbLine
 10
131.6412765545863
 20
348.6072471165190
 30
0.0000000000000000
 11
131.6412765545863
 21
358.7072471165191
 31
0.0000000000000000
  0
LINE
  5
4D6
100
AcDbEntity
  8
MAIN0
  6
CONTINUOUS
 62
3
100
AcDbLine
 10
131.6412765545863
 20
204.6072471165187
 30
0.0000000000000000
 11
131.6412765545863
 21
194.5072471165189
 31
0.0000000000000000
  0
LINE
  5
4D7
100
AcDbEntity
  8
MAIN0
  6
CONTINUOUS
 62
3
100
AcDbLine
 10
91.84127655458647
 20
358.1072471165190
 30
0.0000000000000000
 11
92.84127655458647
 21
359.1072471165190
 31
0.0000000000000000
  0
LINE
  5
4D8
100
AcDbEntity
  8
MAIN0
  6
CONTINUOUS
 62
3
100
AcDbLine
 10
91.84127655458627
 20
195.1072471165188
 30
0.0000000000000000
 11
92.84127655458624
 21
194.1072471165189
 31
0.0000000000000000
  0
LINE
  5
4D9
100
AcDbEntity
  8
MAIN0
  6
CONTINUOUS
 62
3
100
AcDbLine
 10
92.84127655458627
 20
194.1072471165189
 30
0.0000000000000000
 11
131.2412765545864
 21
194.1072471165189
 31
0.0000000000000000
  0
LINE
  5
4DA
100
AcDbEntity
  8
MAIN0
  6
CONTINUOUS
 62
3
100
AcDbLine
 10
92.84127655458627
 20
359.1072471165190
 30
0.0000000000000000
 11
131.2412765545863
 21
359.1072471165190
 31
0.0000000000000000
  0
LINE
  5
4DB
100
AcDbEntity
  8
MAIN0
  6
CONTINUOUS
 62
3
100
AcDbLine
 10
131.6412765545863
 20
194.5072471165189
 30
0.0000000000000000
 11
131.2412765545863
 21
194.1072471165190
 31
0.0000000000000000
  0
LINE
  5
4DC
100
AcDbEntity
  8
MAIN0
  6
CONTINUOUS
 62
3
100
AcDbLine
 10
131.2412765545863
 20
359.1072471165190
 30
0.0000000000000000
 11
131.6412765545863
 21
358.7072471165189
 31
0.0000000000000000
  0
LINE
  5
4DD
100
AcDbEntity
  8
MAIN0
  6
CONTINUOUS
 62
3
100
AcDbLine
 10
91.84127655458627
 20
195.1072471165189
 30
0.0000000000000000
 11
91.84127655458627
 21
268.3286435034109
 31
0.0000000000000000
  0
LINE
  5
4DE
100
AcDbEntity
  8
MAIN0
  6
CONTINUOUS
 62
3
100
AcDbLine
 10
91.84127655458633
 20
355.3572471165222
 30
0.0000000000000000
 11
91.84127655458633
 21
358.1072471165190
 31
0.0000000000000000
  0
LINE
  5
4DF
100
AcDbEntity
  8
MAIN0
  6
CONTINUOUS
 62
3
100
AcDbLine
 10
402.3412765545755
 20
173.6072471165228
 30
0.0000000000000000
 11
418.3412765545755
 21
173.6072471165228
 31
0.0000000000000000
  0
LINE
  5
4E0
100
AcDbEntity
  8
MAIN0
  6
CONTINUOUS
 62
3
100
AcDbLine
 10
402.3412765545750
 20
172.6072471165228
 30
0.0000000000000000
 11
418.3412765545750
 21
172.6072471165228
 31
0.0000000000000000
  0
LINE
  5
4E1
100
AcDbEntity
  8
MAIN0
  6
CONTINUOUS
 62
3
100
AcDbLine
 10
402.3412765545750
 20
172.6072471165228
 30
0.0000000000000000
 11
402.3412765545755
 21
173.6072471165228
 31
0.0000000000000000
  0
LINE
  5
4E2
100
AcDbEntity
  8
MAIN0
  6
CONTINUOUS
 62
3
100
AcDbLine
 10
418.3412765545750
 20
172.6072471165228
 30
0.0000000000000000
 11
418.3412765545755
 21
173.6072471165228
 31
0.0000000000000000
  0
LINE
  5
4E3
100
AcDbEntity
  8
MAIN0
  6
CONTINUOUS
 62
3
100
AcDbLine
 10
449.3412765545752
 20
173.6072471165229
 30
0.0000000000000000
 11
465.3412765545752
 21
173.6072471165229
 31
0.0000000000000000
  0
LINE
  5
4E4
100
AcDbEntity
  8
MAIN0
  6
CONTINUOUS
 62
3
100
AcDbLine
 10
449.3412765545747
 20
172.6072471165229
 30
0.0000000000000000
 11
465.3412765545747
 21
172.6072471165229
 31
0.0000000000000000
  0
LINE
  5
4E5
100
AcDbEntity
  8
MAIN0
  6
CONTINUOUS
 62
3
100
AcDbLine
 10
449.3412765545746
 20
172.6072471165228
 30
0.0000000000000000
 11
449.3412765545752
 21
173.6072471165228
 31
0.0000000000000000
  0
LINE
  5
4E6
100
AcDbEntity
  8
MAIN0
  6
CONTINUOUS
 62
3
100
AcDbLine
 10
465.3412765545746
 20
172.6072471165228
 30
0.0000000000000000
 11
465.3412765545752
 21
173.6072471165228
 31
0.0000000000000000
  0
LINE
  5
4E7
100
AcDbEntity
  8
MAIN0
  6
CONTINUOUS
 62
3
100
AcDbLine
 10
98.84127655448793
 20
173.6072471165334
 30
0.0000000000000000
 11
114.8412765544879
 21
173.6072471165334
 31
0.0000000000000000
  0
LINE
  5
4E8
100
AcDbEntity
  8
MAIN0
  6
CONTINUOUS
 62
3
100
AcDbLine
 10
98.84127655448742
 20
172.6072471165334
 30
0.0000000000000000
 11
114.8412765544874
 21
172.6072471165334
 31
0.0000000000000000
  0
LINE
  5
4E9
100
AcDbEntity
  8
MAIN0
  6
CONTINUOUS
 62
3
100
AcDbLine
 10
98.84127655448739
 20
172.6072471165334
 30
0.0000000000000000
 11
98.84127655448793
 21
173.6072471165334
 31
0.0000000000000000
  0
LINE
  5
4EA
100
AcDbEntity
  8
MAIN0
  6
CONTINUOUS
 62
3
100
AcDbLine
 10
114.8412765544874
 20
172.6072471165334
 30
0.0000000000000000
 11
114.8412765544880
 21
173.6072471165334
 31
0.0000000000000000
  0
LINE
  5
4EB
100
AcDbEntity
  8
MAIN0
  6
CONTINUOUS
 62
3
100
AcDbLine
 10
418.3412765545863
 20
322.2809260233609
 30
0.0000000000000000
 11
418.3412765545863
 21
293.7809260233608
 31
0.0000000000000000
  0
LINE
  5
4EC
100
AcDbEntity
  8
MAIN0
  6
CONTINUOUS
 62
3
100
AcDbLine
 10
418.3412765545863
 20
293.7809260233609
 30
0.0000000000000000
 11
419.0372072499922
 21
293.7809260233609
 31
0.0000000000000000
  0
ARC
  5
4ED
100
AcDbEntity
  8
MAIN0
  6
CONTINUOUS
 62
3
100
AcDbCircle
 10
433.8412765545863
 20
276.6072471165228
 30
0.0000000000000000
 40
22.67367890683813
100
AcDbArc
 50
49.23797630891168
 51
130.7620236910883
  0
LINE
  5
4EE
100
AcDbEntity
  8
MAIN0
  6
CONTINUOUS
 62
3
100
AcDbLine
 10
448.6453458591803
 20
293.7809260233609
 30
0.0000000000000000
 11
449.3412765545863
 21
293.7809260233609
 31
0.0000000000000000
  0
LINE
  5
4EF
100
AcDbEntity
  8
MAIN0
  6
CONTINUOUS
 62
3
100
AcDbLine
 10
449.3412765545863
 20
322.2809260233609
 30
0.0000000000000000
 11
449.3412765545863
 21
293.7809260233609
 31
0.0000000000000000
  0
LINE
  5
4F0
100
AcDbEntity
  8
MAIN0
  6
CONTINUOUS
 62
3
100
AcDbLine
 10
418.3412765545863
 20
322.2809260233609
 30
0.0000000000000000
 11
449.3412765545863
 21
322.2809260233609
 31
0.0000000000000000
  0
ARC
  5
4F1
100
AcDbEntity
  8
MAIN0
  6
CONTINUOUS
 62
3
100
AcDbCircle
 10
433.8412765545858
 20
308.4129381945800
 30
0.0000000000000000
 40
16.00000000000000
100
AcDbArc
 50
60.08304972112381
 51
119.9169502788763
  0
ARC
  5
4F2
100
AcDbEntity
  8
MAIN0
  6
CONTINUOUS
 62
3
100
AcDbCircle
 10
433.8412765545863
 20
306.5946810673006
 30
0.0000000000000000
 40
16.00000000000000
100
AcDbArc
 50
165.6384884370835
 51
174.6351231832337
  0
ARC
  5
4F3
100
AcDbEntity
  8
MAIN0
  6
CONTINUOUS
 62
3
100
AcDbCircle
 10
433.8412765545863
 20
308.4129381945799
 30
0.0000000000000000
 40
16.00000000000000
100
AcDbArc
 50
165.6384884370835
 51
185.3648768167529
  0
LINE
  5
4F4
100
AcDbEntity
  8
MAIN0
  6
CONTINUOUS
 62
3
100
AcDbLine
 10
417.8421430825626
 20
309.4200994015370
 30
0.0000000000000000
 11
417.9563629051788
 21
298.4458823036841
 31
0.0000000000000000
  0
ARC
  5
4F5
100
AcDbEntity
  8
MAIN0
  6
CONTINUOUS
 62
3
100
AcDbCircle
 10
433.8412765545862
 20
300.3614809962232
 30
0.0000000000000000
 40
16.00000000000000
100
AcDbArc
 50
186.8762271038118
 51
194.3615115629173
  0
ARC
  5
4F6
100
AcDbEntity
  8
MAIN0
  6
CONTINUOUS
 62
3
100
AcDbCircle
 10
433.8412765545862
 20
300.3614809962232
 30
0.0000000000000000
 40
16.00000000000000
100
AcDbArc
 50
203.7521297450938
 51
336.2478702549063
  0
LINE
  5
4F7
100
AcDbEntity
  8
MAIN0
  6
CONTINUOUS
 62
3
100
AcDbLine
 10
449.7261902046717
 20
298.4458823092979
 30
0.0000000000000000
 11
449.8404099990172
 21
309.4200967504261
 31
0.0000000000000000
  0
ARC
  5
4F8
100
AcDbEntity
  8
MAIN0
  6
CONTINUOUS
 62
3
100
AcDbCircle
 10
433.8412765545862
 20
300.3614809962232
 30
0.0000000000000000
 40
16.00000000000000
100
AcDbArc
 50
345.6384884370844
 51
353.1237729164702
  0
ARC
  5
4F9
100
AcDbEntity
  8
MAIN0
  6
CONTINUOUS
 62
3
100
AcDbCircle
 10
433.8412765545863
 20
308.4129381945799
 30
0.0000000000000000
 40
16.00000000000000
100
AcDbArc
 50
354.6351231832368
 51
374.3615115629166
  0
ARC
  5
4FA
100
AcDbEntity
  8
MAIN0
  6
CONTINUOUS
 62
3
100
AcDbCircle
 10
433.8412765545863
 20
306.5946810673006
 30
0.0000000000000000
 40
16.00000000000000
100
AcDbArc
 50
5.364876816759537
 51
14.36151156291652
  0
LINE
  5
4FB
100
AcDbEntity
  8
MAIN0
  6
CENTER
 62
3
100
AcDbLine
 10
429.4786220939468
 20
313.2809260232974
 30
0.0000000000000000
 11
438.6310693857049
 21
313.2809260232974
 31
0.0000000000000000
  0
CIRCLE
  5
4FC
100
AcDbEntity
  8
MAIN0
  6
DASHED
 62
3
100
AcDbCircle
 10
433.8412765545862
 20
313.2809260232974
 30
0.0000000000000000
 40
3.000000000000000
  0
CIRCLE
  5
4FD
100
AcDbEntity
  8
MAIN0
  6
DASHED
 62
3
100
AcDbCircle
 10
433.8412765545862
 20
313.2809260232974
 30
0.0000000000000000
 40
2.500000000000000
  0
ARC
  5
4FE
100
AcDbEntity
  8
MAIN0
  6
CONTINUOUS
 62
3
100
AcDbCircle
 10
413.2695065673287
 20
264.7301301766725
 30
0.0000000000000000
 40
16.00000000000000
100
AcDbArc
 50
294.7298444019010
 51
485.2701555853947
  0
LINE
  5
4FF
100
AcDbEntity
  8
MAIN0
  6
CONTINUOUS
 62
3
100
AcDbLine
 10
404.0305876301921
 20
277.7931457884300
 30
0.0000000000000000
 11
398.4413842280592
 21
274.6433177544047
 31
0.0000000000000000
  0
ARC
  5
500
100
AcDbEntity
  8
MAIN0
  6
CONTINUOUS
 62
3
100
AcDbCircle
 10
408.8878327081123
 20
262.2003695945530
 30
0.0000000000000000
 40
16.00000000000000
100
AcDbArc
 50
115.8285181656337
 51
195.8380405250671
  0
ARC
  5
501
100
AcDbEntity
  8
MAIN0
  6
CONTINUOUS
 62
3
100
AcDbCircle
 10
406.2967400960689
 20
260.7044015774945
 30
0.0000000000000000
 40
16.00000000000000
100
AcDbArc
 50
114.6351231832368
 51
305.3648768167529
  0
ARC
  5
502
100
AcDbEntity
  8
MAIN0
  6
CONTINUOUS
 62
3
100
AcDbCircle
 10
408.0218073043279
 20
261.7003695945530
 30
0.0000000000000000
 40
16.00000000000000
100
AcDbArc
 50
181.1200992715519
 51
238.8799007284484
  0
ARC
  5
503
100
AcDbEntity
  8
MAIN0
  6
CONTINUOUS
 62
3
100
AcDbCircle
 10
433.8412765545861
 20
276.6072471165230
 30
0.0000000000000000
 40
44.50000000000000
100
AcDbArc
 50
199.9996601202475
 51
220.0003398797527
  0
ARC
  5
504
100
AcDbEntity
  8
MAIN0
  6
CONTINUOUS
 62
3
100
AcDbCircle
 10
408.8878327081123
 20
262.2003695945530
 30
0.0000000000000000
 40
16.00000000000000
100
AcDbArc
 50
224.1619594749331
 51
304.1714818472998
  0
LINE
  5
505
100
AcDbEntity
  8
MAIN0
  6
CENTER
 62
3
100
AcDbLine
 10
404.2622662014056
 20
254.4922380722882
 30
0.0000000000000000
 11
399.6860425555266
 21
262.4184899337487
 31
0.0000000000000000
  0
CIRCLE
  5
506
100
AcDbEntity
  8
MAIN0
  6
CONTINUOUS
 62
3
100
AcDbCircle
 10
402.0809389710859
 20
258.2704076631354
 30
0.0000000000000000
 40
2.500000000000000
  0
CIRCLE
  5
507
100
AcDbEntity
  8
MAIN0
  6
CONTINUOUS
 62
3
100
AcDbCircle
 10
402.0809389710859
 20
258.2704076631354
 30
0.0000000000000000
 40
3.000000000000000
  0
ARC
  5
508
100
AcDbEntity
  8
MAIN0
  6
CONTINUOUS
 62
3
100
AcDbCircle
 10
433.8412765545862
 20
276.6072471165227
 30
0.0000000000000000
 40
22.67367890683813
100
AcDbArc
 50
169.7674246581943
 51
250.2325753418060
  0
LINE
  5
509
100
AcDbEntity
  8
MAIN0
  6
CONTINUOUS
 62
3
100
AcDbLine
 10
414.4405153903572
 20
246.9320044021244
 30
0.0000000000000000
 11
419.9629504653527
 21
250.1974838662442
 31
0.0000000000000000
  0
ARC
  5
50A
100
AcDbEntity
  8
MAIN0
  6
CONTINUOUS
 62
3
100
AcDbCircle
 10
454.4130465418436
 20
264.7301301766725
 30
0.0000000000000000
 40
16.00000000000000
100
AcDbArc
 50
54.72984441460520
 51
245.2701555980990
  0
LINE
  5
50B
100
AcDbEntity
  8
MAIN0
  6
CONTINUOUS
 62
3
100
AcDbLine
 10
463.6519654789803
 20
277.7931457884300
 30
0.0000000000000000
 11
469.2411688811133
 21
274.6433177544047
 31
0.0000000000000000
  0
ARC
  5
50C
100
AcDbEntity
  8
MAIN0
  6
CONTINUOUS
 62
3
100
AcDbCircle
 10
458.7947204010601
 20
262.2003695945530
 30
0.0000000000000000
 40
16.00000000000000
100
AcDbArc
 50
344.1619594749329
 51
424.1714818343663
  0
ARC
  5
50D
100
AcDbEntity
  8
MAIN0
  6
CONTINUOUS
 62
3
100
AcDbCircle
 10
461.3858130131035
 20
260.7044015774944
 30
0.0000000000000000
 40
16.00000000000000
100
AcDbArc
 50
234.6351231832470
 51
425.3648768167632
  0
ARC
  5
50E
100
AcDbEntity
  8
MAIN0
  6
CONTINUOUS
 62
3
100
AcDbCircle
 10
459.6607458048445
 20
261.7003695945530
 30
0.0000000000000000
 40
16.00000000000000
100
AcDbArc
 50
301.1200992715516
 51
358.8799007284480
  0
ARC
  5
50F
100
AcDbEntity
  8
MAIN0
  6
CONTINUOUS
 62
3
100
AcDbCircle
 10
433.8412765545863
 20
276.6072471165230
 30
0.0000000000000000
 40
44.50000000000000
100
AcDbArc
 50
319.9996601202472
 51
340.0003398797524
  0
ARC
  5
510
100
AcDbEntity
  8
MAIN0
  6
CONTINUOUS
 62
3
100
AcDbCircle
 10
458.7947204010601
 20
262.2003695945530
 30
0.0000000000000000
 40
16.00000000000000
100
AcDbArc
 50
235.8285181527002
 51
315.8380405250668
  0
LINE
  5
511
100
AcDbEntity
  8
MAIN0
  6
CENTER
 62
3
100
AcDbLine
 10
463.4202869077668
 20
254.4922380722882
 30
0.0000000000000000
 11
467.9965105536458
 21
262.4184899337487
 31
0.0000000000000000
  0
CIRCLE
  5
512
100
AcDbEntity
  8
MAIN0
  6
CONTINUOUS
 62
3
100
AcDbCircle
 10
465.6016141380865
 20
258.2704076631354
 30
0.0000000000000000
 40
2.500000000000000
  0
CIRCLE
  5
513
100
AcDbEntity
  8
MAIN0
  6
CONTINUOUS
 62
3
100
AcDbCircle
 10
465.6016141380865
 20
258.2704076631354
 30
0.0000000000000000
 40
3.000000000000000
  0
ARC
  5
514
100
AcDbEntity
  8
MAIN0
  6
CONTINUOUS
 62
3
100
AcDbCircle
 10
433.8412765545862
 20
276.6072471165227
 30
0.0000000000000000
 40
22.67367890683813
100
AcDbArc
 50
289.7674246581939
 51
370.2325753418057
  0
LINE
  5
515
100
AcDbEntity
  8
MAIN0
  6
CONTINUOUS
 62
3
100
AcDbLine
 10
453.2420377188152
 20
246.9320044021244
 30
0.0000000000000000
 11
447.7196026438197
 21
250.1974838662442
 31
0.0000000000000000
  0
LINE
  5
516
100
AcDbEntity
  8
MAIN0
  6
HIDDEN
 62
3
100
AcDbLine
 10
160.3412765545863
 20
352.1072471165230
 30
0.0000000000000000
 11
158.8412765545863
 21
353.6072471165230
 31
0.0000000000000000
  0
LINE
  5
517
100
AcDbEntity
  8
MAIN0
  6
HIDDEN
 62
3
100
AcDbLine
 10
158.8412765545863
 20
353.6072471165230
 30
0.0000000000000000
 11
158.8412765545863
 21
357.6072471165230
 31
0.0000000000000000
  0
LINE
  5
518
100
AcDbEntity
  8
MAIN0
  6
HIDDEN
 62
3
100
AcDbLine
 10
158.8412765545863
 20
357.6072471165230
 30
0.0000000000000000
 11
159.7073019583707
 21
358.1072471165230
 31
0.0000000000000000
  0
LINE
  5
519
100
AcDbEntity
  8
MAIN0
  6
HIDDEN
 62
3
100
AcDbLine
 10
159.7073019583707
 20
358.1072471165230
 30
0.0000000000000000
 11
163.9752511508018
 21
358.1072471165230
 31
0.0000000000000000
  0
LINE
  5
51A
100
AcDbEntity
  8
MAIN0
  6
HIDDEN
 62
3
100
AcDbLine
 10
163.9752511508019
 20
358.1072471165230
 30
0.0000000000000000
 11
164.8412765545863
 21
357.6072471165230
 31
0.0000000000000000
  0
LINE
  5
51B
100
AcDbEntity
  8
MAIN0
  6
HIDDEN
 62
3
100
AcDbLine
 10
164.8412765545863
 20
357.6072471165230
 30
0.0000000000000000
 11
164.8412765545863
 21
353.6072471165230
 31
0.0000000000000000
  0
LINE
  5
51C
100
AcDbEntity
  8
MAIN0
  6
HIDDEN
 62
3
100
AcDbLine
 10
164.8412765545863
 20
353.6072471165230
 30
0.0000000000000000
 11
163.3412765545863
 21
352.1072471165230
 31
0.0000000000000000
  0
LINE
  5
51D
100
AcDbEntity
  8
MAIN0
  6
HIDDEN
 62
3
100
AcDbLine
 10
163.3412765545863
 20
352.1072471165230
 30
0.0000000000000000
 11
160.3412765545863
 21
352.1072471165230
 31
0.0000000000000000
  0
LINE
  5
51E
100
AcDbEntity
  8
MAIN0
  6
HIDDEN
 62
3
100
AcDbLine
 10
158.8412765545863
 20
353.6072471165230
 30
0.0000000000000000
 11
164.8412765545863
 21
353.6072471165230
 31
0.0000000000000000
  0
LINE
  5
51F
100
AcDbEntity
  8
MAIN0
  6
HIDDEN
 62
3
100
AcDbLine
 10
158.8412765545863
 20
357.6072471165230
 30
0.0000000000000000
 11
164.8412765545863
 21
357.6072471165230
 31
0.0000000000000000
  0
LINE
  5
520
100
AcDbEntity
  8
MAIN0
  6
HIDDEN
 62
3
100
AcDbLine
 10
159.3825425545863
 20
353.0659811165230
 30
0.0000000000000000
 11
159.3825425545863
 21
357.9197471873262
 31
0.0000000000000000
  0
LINE
  5
521
100
AcDbEntity
  8
MAIN0
  6
HIDDEN
 62
3
100
AcDbLine
 10
164.3000105545863
 20
353.0659811165230
 30
0.0000000000000000
 11
164.3000105545863
 21
357.9197471873262
 31
0.0000000000000000
  0
LINE
  5
522
100
AcDbEntity
  8
MAIN0
  6
HIDDEN
 62
3
100
AcDbLine
 10
160.3412765545863
 20
352.1072471165230
 30
0.0000000000000000
 11
161.8412765545863
 21
353.6072471165230
 31
0.0000000000000000
  0
LINE
  5
523
100
AcDbEntity
  8
MAIN0
  6
HIDDEN
 62
3
100
AcDbLine
 10
161.8412765545863
 20
353.6072471165230
 30
0.0000000000000000
 11
163.3412765545863
 21
352.1072471165230
 31
0.0000000000000000
  0
CIRCLE
  5
524
100
AcDbEntity
  8
MAIN0
  6
CONTINUOUS
 62
3
100
AcDbCircle
 10
444.8412765545745
 20
186.1072471165228
 30
0.0000000000000000
 40
5.000000000000000
  0
LINE
  5
525
100
AcDbEntity
  8
MAIN0
  6
CONTINUOUS
 62
3
100
AcDbLine
 10
444.8412765545745
 20
188.9939984624711
 30
0.0000000000000000
 11
442.3412765545745
 21
187.5506227894970
 31
0.0000000000000000
  0
LINE
  5
526
100
AcDbEntity
  8
MAIN0
  6
CONTINUOUS
 62
3
100
AcDbLine
 10
442.3412765545745
 20
187.5506227894969
 30
0.0000000000000000
 11
442.3412765545745
 21
184.6638714435488
 31
0.0000000000000000
  0
LINE
  5
527
100
AcDbEntity
  8
MAIN0
  6
CONTINUOUS
 62
3
100
AcDbLine
 10
442.3412765545744
 20
184.6638714435488
 30
0.0000000000000000
 11
444.8412765545745
 21
183.2204957705748
 31
0.0000000000000000
  0
LINE
  5
528
100
AcDbEntity
  8
MAIN0
  6
CONTINUOUS
 62
3
100
AcDbLine
 10
444.8412765545745
 20
183.2204957705748
 30
0.0000000000000000
 11
447.3412765545745
 21
184.6638714435489
 31
0.0000000000000000
  0
LINE
  5
529
100
AcDbEntity
  8
MAIN0
  6
CONTINUOUS
 62
3
100
AcDbLine
 10
447.3412765545745
 20
184.6638714435488
 30
0.0000000000000000
 11
447.3412765545745
 21
187.5506227894969
 31
0.0000000000000000
  0
LINE
  5
52A
100
AcDbEntity
  8
MAIN0
  6
CONTINUOUS
 62
3
100
AcDbLine
 10
447.3412765545745
 20
187.5506227894969
 30
0.0000000000000000
 11
444.8412765545744
 21
188.9939984624710
 31
0.0000000000000000
  0
CIRCLE
  5
52B
100
AcDbEntity
  8
MAIN0
  6
CONTINUOUS
 62
3
100
AcDbCircle
 10
422.8412765545745
 20
186.1072471165228
 30
0.0000000000000000
 40
5.000000000000000
  0
LINE
  5
52C
100
AcDbEntity
  8
MAIN0
  6
CONTINUOUS
 62
3
100
AcDbLine
 10
422.8412765545745
 20
188.9939984624711
 30
0.0000000000000000
 11
420.3412765545745
 21
187.5506227894970
 31
0.0000000000000000
  0
LINE
  5
52D
100
AcDbEntity
  8
MAIN0
  6
CONTINUOUS
 62
3
100
AcDbLine
 10
420.3412765545745
 20
187.5506227894969
 30
0.0000000000000000
 11
420.3412765545745
 21
184.6638714435488
 31
0.0000000000000000
  0
LINE
  5
52E
100
AcDbEntity
  8
MAIN0
  6
CONTINUOUS
 62
3
100
AcDbLine
 10
420.3412765545745
 20
184.6638714435488
 30
0.0000000000000000
 11
422.8412765545745
 21
183.2204957705747
 31
0.0000000000000000
  0
LINE
  5
52F
100
AcDbEntity
  8
MAIN0
  6
CONTINUOUS
 62
3
100
AcDbLine
 10
422.8412765545745
 20
183.2204957705748
 30
0.0000000000000000
 11
425.3412765545745
 21
184.6638714435489
 31
0.0000000000000000
  0
LINE
  5
530
100
AcDbEntity
  8
MAIN0
  6
CONTINUOUS
 62
3
100
AcDbLine
 10
425.3412765545745
 20
184.6638714435488
 30
0.0000000000000000
 11
425.3412765545745
 21
187.5506227894969
 31
0.0000000000000000
  0
LINE
  5
531
100
AcDbEntity
  8
MAIN0
  6
CONTINUOUS
 62
3
100
AcDbLine
 10
425.3412765545745
 20
187.5506227894969
 30
0.0000000000000000
 11
422.8412765545745
 21
188.9939984624710
 31
0.0000000000000000
  0
LINE
  5
532
100
AcDbEntity
  8
WAKU0
  6
CONTINUOUS
 62
3
100
AcDbLine
 10
412.0000000000000
 20
51.00000000000000
 30
0.0000000000000000
 11
582.0000000000000
 21
51.00000000000000
 31
0.0000000000000000
  0
LINE
  5
533
100
AcDbEntity
  8
WAKU0
  6
CONTINUOUS
 62
3
100
AcDbLine
 10
412.0000000000000
 20
51.00000000000000
 30
0.0000000000000000
 11
412.0000000000000
 21
12.00000000000000
 31
0.0000000000000000
  0
LINE
  5
534
100
AcDbEntity
  8
WAKU0
  6
CONTINUOUS
 62
3
100
AcDbLine
 10
484.0000000000000
 20
51.00000000000000
 30
0.0000000000000000
 11
484.0000000000000
 21
12.00000000000000
 31
0.0000000000000000
  0
LINE
  5
535
100
AcDbEntity
  8
WAKU0
  6
CONTINUOUS
 62
3
100
AcDbLine
 10
504.0000000000000
 20
51.00000000000000
 30
0.0000000000000000
 11
504.0000000000000
 21
12.00000000000000
 31
0.0000000000000000
  0
LINE
  5
536
100
AcDbEntity
  8
WAKU0
  6
CONTINUOUS
 62
3
100
AcDbLine
 10
516.0000000000000
 20
51.00000000000000
 30
0.0000000000000000
 11
516.0000000000000
 21
12.00000000000000
 31
0.0000000000000000
  0
LINE
  5
537
100
AcDbEntity
  8
WAKU0
  6
CONTINUOUS
 62
3
100
AcDbLine
 10
516.0000000000000
 20
37.00000000000000
 30
0.0000000000000000
 11
582.0000000000000
 21
37.00000000000000
 31
0.0000000000000000
  0
LINE
  5
538
100
AcDbEntity
  8
WAKU0
  6
CONTINUOUS
 62
3
100
AcDbLine
 10
504.0000000000000
 20
23.00000000000000
 30
0.0000000000000000
 11
582.0000000000000
 21
23.00000000000000
 31
0.0000000000000000
  0
LINE
  5
539
100
AcDbEntity
  8
WAKU0
  6
CONTINUOUS
 62
3
100
AcDbLine
 10
547.0000000000000
 20
51.00000000000000
 30
0.0000000000000000
 11
547.0000000000000
 21
44.00000000000000
 31
0.0000000000000000
  0
LINE
  5
53A
100
AcDbEntity
  8
WAKU0
  6
CONTINUOUS
 62
3
100
AcDbLine
 10
559.0000000000000
 20
51.00000000000000
 30
0.0000000000000000
 11
559.0000000000000
 21
44.00000000000000
 31
0.0000000000000000
  0
LINE
  5
53B
100
AcDbEntity
  8
WAKU0
  6
CONTINUOUS
 62
3
100
AcDbLine
 10
484.0000000000000
 20
31.50000000000000
 30
0.0000000000000000
 11
504.0000000000000
 21
31.50000000000000
 31
0.0000000000000000
  0
LINE
  5
53C
100
AcDbEntity
  8
WAKU0
  6
CONTINUOUS
 62
3
100
AcDbLine
 10
504.0000000000000
 20
44.00000000000000
 30
0.0000000000000000
 11
582.0000000000000
 21
44.00000000000000
 31
0.0000000000000000
  0
LINE
  5
53D
100
AcDbEntity
  8
WAKU0
  6
CONTINUOUS
 62
3
100
AcDbLine
 10
412.0000000000000
 20
37.00000000000000
 30
0.0000000000000000
 11
484.0000000000000
 21
37.00000000000000
 31
0.0000000000000000
  0
LINE
  5
53E
100
AcDbEntity
  8
WAKU0
  6
CONTINUOUS
 62
3
100
AcDbLine
 10
412.0000000000000
 20
23.00000000000000
 30
0.0000000000000000
 11
484.0000000000000
 21
23.00000000000000
 31
0.0000000000000000
  0
LINE
  5
53F
100
AcDbEntity
  8
WAKU0
  6
CONTINUOUS
 62
3
100
AcDbLine
 10
460.0000000000000
 20
37.00000000000000
 30
0.0000000000000000
 11
460.0000000000000
 21
12.00000000000000
 31
0.0000000000000000
  0
LINE
  5
540
100
AcDbEntity
  8
WAKU0
  6
CONTINUOUS
 62
3
100
AcDbLine
 10
436.0000000000000
 20
37.00000000000000
 30
0.0000000000000000
 11
436.0000000000000
 21
23.00000000000000
 31
0.0000000000000000
  0
LINE
  5
541
100
AcDbEntity
  8
WAKU0
  6
CONTINUOUS
 62
3
100
AcDbLine
 10
472.0000000000000
 20
26.00000000000000
 30
0.0000000000000000
 11
472.0000000000000
 21
23.00000000000000
 31
0.0000000000000000
  0
LINE
  5
542
100
AcDbEntity
  8
WAKU0
  6
CONTINUOUS
 62
3
100
AcDbLine
 10
448.0000000000000
 20
26.00000000000000
 30
0.0000000000000000
 11
448.0000000000000
 21
23.00000000000000
 31
0.0000000000000000
  0
LINE
  5
543
100
AcDbEntity
  8
WAKU0
  6
CONTINUOUS
 62
3
100
AcDbLine
 10
424.0000000000000
 20
26.00000000000000
 30
0.0000000000000000
 11
424.0000000000000
 21
23.00000000000000
 31
0.0000000000000000
  0
LINE
  5
544
100
AcDbEntity
  8
WAKU0
  6
CONTINUOUS
 62
3
100
AcDbLine
 10
430.0000000000000
 20
51.00000000000000
 30
0.0000000000000000
 11
430.0000000000000
 21
37.00000000000000
 31
0.0000000000000000
  0
LINE
  5
545
100
AcDbEntity
  8
WAKU0
  6
CONTINUOUS
 62
3
100
AcDbLine
 10
412.0000000000000
 20
45.00000000000000
 30
0.0000000000000000
 11
484.0000000000000
 21
45.00000000000000
 31
0.0000000000000000
  0
LINE
  5
546
100
AcDbEntity
  8
WAKU0
  6
HIDDEN
 62
3
100
AcDbLine
 10
532.5000000000000
 20
23.00000000000000
 30
0.0000000000000000
 11
532.5000000000000
 21
12.00000000000000
 31
0.0000000000000000
  0
LINE
  5
547
100
AcDbEntity
  8
WAKU0
  6
HIDDEN
 62
3
100
AcDbLine
 10
544.9000000000000
 20
23.00000000000000
 30
0.0000000000000000
 11
544.9000000000000
 21
12.00000000000000
 31
0.0000000000000000
  0
MTEXT
  5
548
100
AcDbEntity
  8
WAKU0
  6
CONTINUOUS
 62
3
100
AcDbMText
 10
516.4820000243485
 20
49.04999995231628
 30
0.0000000000000000
 40
3.099999904632568
 41
0.0000000000000000
 71
     1
 72
     1
  1
{\H0.92x;{PUES06}}
 11
1.000000000000000
 21
0.0000000000000000
 31
0.0000000000000000
  7
STANDARD
  0
MTEXT
  5
549
100
AcDbEntity
  8
WAKU0
  6
CONTINUOUS
 62
3
100
AcDbMText
 10
516.4659999916852
 20
43.50000000000000
 30
0.0000000000000000
 40
3.000000000000000
 41
0.0000000000000000
 71
     1
 72
     1
  1
{\H0.94x;{ワークグリッパ　６\PＷＯＲＫ　ＧＲＩＰＰＥＲ　６}}
 11
1.000000000000000
 21
0.0000000000000000
 31
0.0000000000000000
  7
KNJYOKO
  0
MTEXT
  5
54A
100
AcDbEntity
  8
WAKU0
  6
CONTINUOUS
 62
3
100
AcDbMText
 10
516.4820000243485
 20
34.23333326975504
 30
0.0000000000000000
 40
3.099999904632568
 41
0.0000000000000000
 71
     1
 72
     1
  1
{\H0.94x;{ＰＵＥＳ０６　ガイケイ\PＯＵＴＳＩＤＥ　ＶＩＥＷ}}
 11
1.000000000000000
 21
0.0000000000000000
 31
0.0000000000000000
  7
KNJYOKO
  0
MTEXT
  5
54B
100
AcDbEntity
  8
WAKU0
  6
CONTINUOUS
 62
3
100
AcDbMText
 10
490.0049998760223
 20
39.29999995231628
 30
0.0000000000000000
 40
3.099999904632568
 41
0.0000000000000000
 71
     1
 72
     1
  1
{\H0.90x;{1:1}}
 11
1.000000000000000
 21
0.0000000000000000
 31
0.0000000000000000
  7
STANDARD
  0
MTEXT
  5
54C
100
AcDbEntity
  8
WAKU0
  6
CONTINUOUS
 62
3
100
AcDbMText
 10
546.4000001549721
 20
20.15000009536743
 30
0.0000000000000000
 40
5.300000190734863
 41
0.0000000000000000
 71
     1
 72
     1
  1
{\H0.90x;{5916}}
 11
1.000000000000000
 21
0.0000000000000000
 31
0.0000000000000000
  7
STANDARD
  0
MTEXT
  5
54D
100
AcDbEntity
  8
WAKU0
  6
CONTINUOUS
 62
3
100
AcDbMText
 10
534.3000000834466
 20
20.15000009536743
 30
0.0000000000000000
 40
5.300000190734863
 41
0.0000000000000000
 71
     1
 72
     1
  1
{\H0.87x;{26}}
 11
1.000000000000000
 21
0.0000000000000000
 31
0.0000000000000000
  7
STANDARD
  0
MTEXT
  5
54E
100
AcDbEntity
  8
WAKU0
  6
CONTINUOUS
 62
3
100
AcDbMText
 10
517.5000001192093
 20
20.15000009536743
 30
0.0000000000000000
 40
5.300000190734863
 41
0.0000000000000000
 71
     1
 72
     1
  1
{\H0.89x;{61P}}
 11
1.000000000000000
 21
0.0000000000000000
 31
0.0000000000000000
  7
STANDARD
  0
MTEXT
  5
54F
100
AcDbEntity
  8
WAKU0
  6
CONTINUOUS
 62
3
100
AcDbMText
 10
572.0000000476837
 20
20.15000009536743
 30
0.0000000000000000
 40
5.300000190734863
 41
0.0000000000000000
 71
     1
 72
     1
  1
{\H0.81x;{4}}
 11
1.000000000000000
 21
0.0000000000000000
 31
0.0000000000000000
  7
STANDARD
  0
MTEXT
  5
550
100
AcDbEntity
  8
WAKU0
  6
CONTINUOUS
 62
3
100
AcDbMText
 10
572.0000000819564
 20
44.84999990463257
 30
0.0000000000000000
 40
5.300000190734863
 41
0.0000000000000000
 71
     7
 72
     1
  1
{\H0.81x;{ }}
 11
1.000000000000000
 21
0.0000000000000000
 31
0.0000000000000000
  7
STANDARD
  0
MTEXT
  5
551
100
AcDbEntity
  8
WAKU0
  6
CONTINUOUS
 62
3
100
AcDbMText
 10
461.3850002884865
 20
33.00000000000000
 30
0.0000000000000000
 40
3.000000000000000
 41
0.0000000000000000
 71
     7
 72
     1
  1
{\H0.93x;{DRAWN BY}}
 11
1.000000000000000
 21
0.0000000000000000
 31
0.0000000000000000
  7
STANDARD
  0
MTEXT
  5
552
100
AcDbEntity
  8
WAKU0
  6
CONTINUOUS
 62
3
100
AcDbMText
 10
441.2149997949600
 20
32.95000004768372
 30
0.0000000000000000
 40
3.099999904632568
 41
0.0000000000000000
 71
     7
 72
     1
  1
{\H0.92x;{CHIEF}}
 11
1.000000000000000
 21
0.0000000000000000
 31
0.0000000000000000
  7
STANDARD
  0
MTEXT
  5
553
100
AcDbEntity
  8
WAKU0
  6
CONTINUOUS
 62
3
100
AcDbMText
 10
414.4249997138977
 20
32.95000004768372
 30
0.0000000000000000
 40
3.099999904632568
 41
0.0000000000000000
 71
     7
 72
     1
  1
{\H0.92x;{MANAGER}}
 11
1.000000000000000
 21
0.0000000000000000
 31
0.0000000000000000
  7
STANDARD
  0
MTEXT
  5
554
100
AcDbEntity
  8
WAKU0
  6
CONTINUOUS
 62
3
100
AcDbMText
 10
416.6599994301796
 20
18.13333336512248
 30
0.0000000000000000
 40
3.099999904632568
 41
0.0000000000000000
 71
     7
 72
     1
  1
{\H0.93x;{KITAGAWA IRON\PWORKS CO.,LTD.}}
 11
1.000000000000000
 21
0.0000000000000000
 31
0.0000000000000000
  7
STANDARD
  0
MTEXT
  5
555
100
AcDbEntity
  8
WAKU0
  6
CONTINUOUS
 62
3
100
AcDbMText
 10
413.0850002169609
 20
46.50000000000000
 30
0.0000000000000000
 40
3.000000000000000
 41
0.0000000000000000
 71
     7
 72
     1
  1
{\H0.92x;{CAREER}}
 11
1.000000000000000
 21
0.0000000000000000
 31
0.0000000000000000
  7
STANDARD
  0
MTEXT
  5
556
100
AcDbEntity
  8
WAKU0
  6
CONTINUOUS
 62
3
100
AcDbMText
 10
466.6099998354912
 20
18.95000004768372
 30
0.0000000000000000
 40
3.099999904632568
 41
0.0000000000000000
 71
     7
 72
     1
  1
{\H0.91x;{DATE}}
 11
1.000000000000000
 21
0.0000000000000000
 31
0.0000000000000000
  7
STANDARD
  0
MTEXT
  5
557
100
AcDbEntity
  8
WAKU0
  6
CONTINUOUS
 62
3
100
AcDbMText
 10
485.9000002145767
 20
26.50000000000000
 30
0.0000000000000000
 40
3.000000000000000
 41
0.0000000000000000
 71
     7
 72
     1
  1
{\H0.63x;{3RD ANGLE}}
 11
1.000000000000000
 21
0.0000000000000000
 31
0.0000000000000000
  7
STANDARD
  0
MTEXT
  5
558
100
AcDbEntity
  8
WAKU0
  6
CONTINUOUS
 62
3
100
AcDbMText
 10
487.2149997949600
 20
45.95000004768372
 30
0.0000000000000000
 40
3.099999904632568
 41
0.0000000000000000
 71
     7
 72
     1
  1
{\H0.92x;{SCALE}}
 11
1.000000000000000
 21
0.0000000000000000
 31
0.0000000000000000
  7
STANDARD
  0
MTEXT
  5
559
100
AcDbEntity
  8
WAKU0
  6
CONTINUOUS
 62
3
100
AcDbMText
 10
577.7000000476837
 20
46.00000000000000
 30
0.0000000000000000
 40
3.000000000000000
 41
0.0000000000000000
 71
     7
 72
     1
  1
{\H0.63x;{kg}}
 11
1.000000000000000
 21
0.0000000000000000
 31
0.0000000000000000
  7
STANDARD
  0
MTEXT
  5
55A
100
AcDbEntity
  8
WAKU0
  6
CONTINUOUS
 62
3
100
AcDbMText
 10
547.6000001430512
 20
46.00000000000000
 30
0.0000000000000000
 40
3.000000000000000
 41
0.0000000000000000
 71
     7
 72
     1
  1
{\H0.63x;{WEIGHT}}
 11
1.000000000000000
 21
0.0000000000000000
 31
0.0000000000000000
  7
STANDARD
  0
MTEXT
  5
55B
100
AcDbEntity
  8
WAKU0
  6
CONTINUOUS
 62
3
100
AcDbMText
 10
506.0049998760223
 20
18.13333336512248
 30
0.0000000000000000
 40
3.099999904632568
 41
0.0000000000000000
 71
     7
 72
     1
  1
{\H0.90x;{DRW\PNO.}}
 11
1.000000000000000
 21
0.0000000000000000
 31
0.0000000000000000
  7
STANDARD
  0
MTEXT
  5
55C
100
AcDbEntity
  8
WAKU0
  6
CONTINUOUS
 62
3
100
AcDbMText
 10
504.6099998354912
 20
31.95000004768372
 30
0.0000000000000000
 40
3.099999904632568
 41
0.0000000000000000
 71
     7
 72
     1
  1
{\H0.91x;{NAME}}
 11
1.000000000000000
 21
0.0000000000000000
 31
0.0000000000000000
  7
STANDARD
  0
MTEXT
  5
55D
100
AcDbEntity
  8
WAKU0
  6
CONTINUOUS
 62
3
100
AcDbMText
 10
504.6099998354912
 20
45.95000004768372
 30
0.0000000000000000
 40
3.099999904632568
 41
0.0000000000000000
 71
     7
 72
     1
  1
{\H0.91x;{TYPE}}
 11
1.000000000000000
 21
0.0000000000000000
 31
0.0000000000000000
  7
STANDARD
  0
LINE
  5
55E
100
AcDbEntity
  8
WAKU0
  6
HIDDEN
 62
3
100
AcDbLine
 10
579.1599564743885
 20
13.84999990463257
 30
0.0000000000000000
 11
568.9400436209789
 21
13.84999990463257
 31
0.0000000000000000
  0
LINE
  5
55F
100
AcDbEntity
  8
WAKU0
  6
HIDDEN
 62
3
100
AcDbLine
 10
579.1599564743885
 20
13.84999990463250
 30
0.0000000000000000
 11
574.0500000476851
 21
22.70070406014901
 31
0.0000000000000000
  0
LINE
  5
560
100
AcDbEntity
  8
WAKU0
  6
HIDDEN
 62
3
100
AcDbLine
 10
574.0500000476851
 20
22.70070406014902
 30
0.0000000000000000
 11
568.9400436209789
 21
13.84999990463248
 31
0.0000000000000000
  0
LINE
  5
561
100
AcDbEntity
  8
WAKU0
  6
CONTINUOUS
 62
3
100
AcDbLine
 10
502.4713877753800
 20
15.78041421262812
 30
0.0000000000000000
 11
502.4713877753800
 21
21.78041421262815
 31
0.0000000000000000
  0
LINE
  5
562
100
AcDbEntity
  8
WAKU0
  6
CONTINUOUS
 62
3
100
AcDbLine
 10
495.9336941228225
 20
17.28041421262811
 30
0.0000000000000000
 11
495.9336941228225
 21
20.28041421262824
 31
0.0000000000000000
  0
LINE
  5
563
100
AcDbEntity
  8
WAKU0
  6
CENTER
 62
12
100
AcDbLine
 10
485.4321805514995
 20
18.78041421262813
 30
0.0000000000000000
 11
503.2765788964694
 21
18.78041421262813
 31
0.0000000000000000
  0
LINE
  5
564
100
AcDbEntity
  8
WAKU0
  6
CENTER
 62
12
100
AcDbLine
 10
489.4474565857986
 20
14.55921662918448
 30
0.0000000000000000
 11
489.4474565857986
 21
22.89865102149943
 31
0.0000000000000000
  0
LINE
  5
565
100
AcDbEntity
  8
WAKU0
  6
CONTINUOUS
 62
3
100
AcDbLine
 10
495.9336941228225
 20
20.28041421262797
 30
0.0000000000000000
 11
502.4713877753800
 21
21.78041421262795
 31
0.0000000000000000
  0
LINE
  5
566
100
AcDbEntity
  8
WAKU0
  6
CONTINUOUS
 62
3
100
AcDbLine
 10
495.9336941228225
 20
17.28041421262811
 30
0.0000000000000000
 11
502.4713877753799
 21
15.78041421262812
 31
0.0000000000000000
  0
CIRCLE
  5
567
100
AcDbEntity
  8
WAKU0
  6
CONTINUOUS
 62
3
100
AcDbCircle
 10
489.4474565857986
 20
18.78041421262813
 30
0.0000000000000000
 40
1.499999999999972
  0
CIRCLE
  5
568
100
AcDbEntity
  8
WAKU0
  6
CONTINUOUS
 62
3
100
AcDbCircle
 10
489.4474565857986
 20
18.78041421262813
 30
0.0000000000000000
 40
2.999999999999979
  0
ENDSEC
  0
SECTION
  2
OBJECTS
  0
DICTIONARY
  5
5C8
100
AcDbDictionary
  3
ACAD_GROUP
350
5C9
  3
ACAD_MLINESTYLE
350
5CA
  0
DICTIONARY
  5
5C9
102
{ACAD_REACTORS
330
5C8
102
}
100
AcDbDictionary
  0
DICTIONARY
  5
5CA
102
{ACAD_REACTORS
330
5C8
102
}
100
AcDbDictionary
  3
STANDARD
350
5CB
  0
MLINESTYLE
  5
5CB
102
{ACAD_REACTORS
330
5CA
102
}
100
AcDbMlineStyle
  2
STANDARD
 70
     0
  3

 62
   256
 51
90.00
 52
90.00
 71
     2
 49
0.50
 62
   256
  6
BYLAYER
 49
-0.50
 62
   256
  6
BYLAYER
  0
ENDSEC
  0
EOF
