  0
SECTION
  2
HEADER
  9
$ACADVER
  1
AC1014
  9
$DWGCODEPAGE
  3
ANSI_932
  9
$LTSCALE
 40
20.0
  9
$FILLMODE
 70
     1
  9
$CLAYER
  8
0
  9
$PDMODE
 70
     0
  9
$SPLFRAME
 70
     0
  9
$SPLINETYPE
 70
     6
  9
$SPLINESEGS
 70
     8
  9
$DIMASZ
 40
2.000000
  9
$DIMEXE
 40
2.000000
  9
$DIMEXO
 40
0.800000
  9
$DIMTAD
 70
     1
  9
$DIMTIH
 70
     0
  9
$DIMTOH
 70
     0
  9
$DIMTVP
 40
0.500000
  9
$DIMTXT
 40
3.100000
  9
$EXTMIN
 10
0.000000
 20
0.000000
 30
0.000000
  9
$EXTMAX
 10
420.000000
 20
594.000000
 30
0.000000
  9
$MEASUREMENT
 70
  1
  9
$LIMMIN
 10
0.000000
 20
0.000000
  9
$LIMMAX
 10
420.000000
 20
594.000000
  9
$HANDLING
 70
     1
  9
$HANDSEED
  5
442
  9
$DIMBLK
  1
_OPEN
  9
$DIMDEC
 70
     3
  9
$DIMAUNIT
 70
     1
  9
$DIMZIN
 70
     8
  9
$DIMTOFL
 70
     1
  0
ENDSEC
  0
SECTION
  2
CLASSES
  0
ENDSEC
  0
SECTION
  2
TABLES
  0
TABLE
  2
VPORT
  5
3EF
100
AcDbSymbolTable
 70
     1
  0
VPORT
  5
3F0
100
AcDbSymbolTableRecord
100
AcDbViewportTableRecord
  2
*ACTIVE
 70
     0
 12
297.000000
 22
210.000000
 40
420.000000
 41
1.414286
  0
ENDTAB
  0
TABLE
  2
LTYPE
  5
3F1
100
AcDbSymbolTable
 70
     4
  0
LTYPE
  5
3F2
100
AcDbSymbolTableRecord
100
AcDbLinetypeTableRecord
  2
BYBLOCK
 70
     0
  3

 72
    65
 73
     0
 40
0.0
  0
LTYPE
  5
3F3
100
AcDbSymbolTableRecord
100
AcDbLinetypeTableRecord
  2
BYLAYER
 70
     0
  3

 72
    65
 73
     0
 40
0.0
  0
LTYPE
  5
3F4
100
AcDbSymbolTableRecord
100
AcDbLinetypeTableRecord
  2
CONTINUOUS
 70
     0
  3
Solid line (NEC CAE2D for Win R12.1 : 2018.11.16)
 72
    65
 73
     0
 40
0.0
  0
LTYPE
  5
3F5
100
AcDbSymbolTableRecord
100
AcDbLinetypeTableRecord
  2
HIDDEN
 70
     0
  3
__ __ __ __ __ __ __ __ __ __ __ __ __ __
 72
    65
 73
     2
 40
0.375
 49
0.25
 74
     0
 49
-0.125
 74
     0
  0
LTYPE
  5
3F6
100
AcDbSymbolTableRecord
100
AcDbLinetypeTableRecord
  2
CENTER
 70
     0
  3
____ _ ____ _ ____ _ ____ _ ____ _ ____
 72
    65
 73
     4
 40
2.0
 49
1.25
 74
     0
 49
-0.25
 74
     0
 49
0.25
 74
     0
 49
-0.25
 74
     0
  0
LTYPE
  5
3F7
100
AcDbSymbolTableRecord
100
AcDbLinetypeTableRecord
  2
PHANTOM
 70
     0
  3
______  __  __  ______  __  __  ______ 
 72
    65
 73
     6
 40
2.5
 49
1.25
 74
     0
 49
-0.25
 74
     0
 49
0.25
 74
     0
 49
-0.25
 74
     0
 49
0.25
 74
     0
 49
-0.25
 74
     0
  0
ENDTAB
  0
TABLE
  2
LAYER
  5
3F8
100
AcDbSymbolTable
 70
    14
  0
LAYER
  5
3F9
100
AcDbSymbolTableRecord
100
AcDbLayerTableRecord
  2
0
 70
     0
 62
     7
  6
CONTINUOUS
  0
LAYER
  5
3FA
100
AcDbSymbolTableRecord
100
AcDbLayerTableRecord
  2
MAIN0
 70
     0
 62
     7
  6
CONTINUOUS
  0
LAYER
  5
3FB
100
AcDbSymbolTableRecord
100
AcDbLayerTableRecord
  2
MAIN1
 70
     0
 62
     7
  6
CONTINUOUS
  0
LAYER
  5
3FC
100
AcDbSymbolTableRecord
100
AcDbLayerTableRecord
  2
MAIN2
 70
     0
 62
     7
  6
CONTINUOUS
  0
LAYER
  5
3FD
100
AcDbSymbolTableRecord
100
AcDbLayerTableRecord
  2
MAIN3
 70
     0
 62
     7
  6
CONTINUOUS
  0
LAYER
  5
3FE
100
AcDbSymbolTableRecord
100
AcDbLayerTableRecord
  2
MAIN4
 70
     0
 62
     7
  6
CONTINUOUS
  0
LAYER
  5
3FF
100
AcDbSymbolTableRecord
100
AcDbLayerTableRecord
  2
MAIN5
 70
     0
 62
     7
  6
CONTINUOUS
  0
LAYER
  5
400
100
AcDbSymbolTableRecord
100
AcDbLayerTableRecord
  2
MAIN6
 70
     0
 62
     7
  6
CONTINUOUS
  0
LAYER
  5
401
100
AcDbSymbolTableRecord
100
AcDbLayerTableRecord
  2
MAIN7
 70
     0
 62
     7
  6
CONTINUOUS
  0
LAYER
  5
402
100
AcDbSymbolTableRecord
100
AcDbLayerTableRecord
  2
MAIN8
 70
     0
 62
     7
  6
CONTINUOUS
  0
LAYER
  5
403
100
AcDbSymbolTableRecord
100
AcDbLayerTableRecord
  2
MAIN9
 70
     0
 62
     7
  6
CONTINUOUS
  0
LAYER
  5
404
100
AcDbSymbolTableRecord
100
AcDbLayerTableRecord
  2
MAIN1023
 70
     0
 62
    16
  6
CONTINUOUS
  0
LAYER
  5
405
100
AcDbSymbolTableRecord
100
AcDbLayerTableRecord
  2
WAKU0
 70
     0
 62
     7
  6
CONTINUOUS
  0
LAYER
  5
406
100
AcDbSymbolTableRecord
100
AcDbLayerTableRecord
  2
WAKU1023
 70
     0
 62
    16
  6
CONTINUOUS
  0
ENDTAB
  0
TABLE
  2
STYLE
  5
407
100
AcDbSymbolTable
 70
     4
  0
STYLE
  5
408
100
AcDbSymbolTableRecord
100
AcDbTextStyleTableRecord
  2
STANDARD
 70
    64
 40
0.0
 41
1.0
 50
0.0
 71
     0
 42
3.099999904632568
  3
TXT
  4

  0
STYLE
  5
409
100
AcDbSymbolTableRecord
100
AcDbTextStyleTableRecord
  2
ANKTATE
 70
    68
 40
0.0
 41
1.0
 50
0.0
 71
     0
 42
3.099999904632568
  3
TXT
  4

  0
STYLE
  5
114
100
AcDbSymbolTableRecord
100
AcDbTextStyleTableRecord
  2
KNJYOKO
 70
    64
 40
0.0
 41
1.0
 50
0.0
 71
     0
 42
3.099999904632568
  3
TXT
  4
BIGFONT
  0
STYLE
  5
40A
100
AcDbSymbolTableRecord
100
AcDbTextStyleTableRecord
  2
KNJTATE
 70
    68
 40
0.0
 41
1.0
 50
0.0
 71
     0
 42
3.099999904632568
  3
TXT
  4
BIGFONT
  0
ENDTAB
  0
TABLE
  2
VIEW
  5
40B
100
AcDbSymbolTable
 70
     0
  0
ENDTAB
  0
TABLE
  2
UCS
  5
40C
100
AcDbSymbolTable
 70
     0
  0
ENDTAB
  0
TABLE
  2
APPID
  5
40D
100
AcDbSymbolTable
 70
     1
  0
APPID
  5
40E
100
AcDbSymbolTableRecord
100
AcDbRegAppTableRecord
  2
ACAD
 70
     0
  0
ENDTAB
  0
TABLE
  2
DIMSTYLE
  5
40F
100
AcDbSymbolTable
 70
     1
  0
DIMSTYLE
105
410
100
AcDbSymbolTableRecord
100
AcDbDimStyleTableRecord
  2
STANDARD
 70
     0
 41
2.000000
 44
2.000000
 42
0.800000
145
0.661290
140
3.100000
144
1.000000
146
0.903226
340
408
  0
DIMSTYLE
105
411
100
AcDbSymbolTableRecord
100
AcDbDimStyleTableRecord
  2
MAIN001
 70
     0
 41
2.000000
 44
2.000000
 42
0.800000
145
0.661290
140
3.100000
144
1.000000
146
0.903226
 77
     1
 73
     0
 74
     0
271
     3
275
     1
 78
     8
172
     1
340
408
  0
DIMSTYLE
105
412
100
AcDbSymbolTableRecord
100
AcDbDimStyleTableRecord
  2
WAKU002
 70
     0
 41
2.000000
 44
2.000000
 42
0.800000
145
0.661290
140
3.100000
144
1.000000
146
0.903226
 77
     1
 73
     0
 74
     0
271
     3
275
     1
 78
     8
172
     1
340
408
  0
ENDTAB
  0
TABLE
  2
BLOCK_RECORD
  5
413
100
AcDbSymbolTable
 70
    48
  0
BLOCK_RECORD
  5
414
100
AcDbSymbolTableRecord
100
AcDbBlockTableRecord
  2
*MODEL_SPACE
  0
BLOCK_RECORD
  5
415
100
AcDbSymbolTableRecord
100
AcDbBlockTableRecord
  2
*PAPER_SPACE
  0
BLOCK_RECORD
  5
1
100
AcDbSymbolTableRecord
100
AcDbBlockTableRecord
  2
_NONE
  0
BLOCK_RECORD
  5
4
100
AcDbSymbolTableRecord
100
AcDbBlockTableRecord
  2
_CLOSED
  0
BLOCK_RECORD
  5
B
100
AcDbSymbolTableRecord
100
AcDbBlockTableRecord
  2
_DOT
  0
BLOCK_RECORD
  5
13
100
AcDbSymbolTableRecord
100
AcDbBlockTableRecord
  2
_OPEN
  0
BLOCK_RECORD
  5
19
100
AcDbSymbolTableRecord
100
AcDbBlockTableRecord
  2
_ORIGIN
  0
BLOCK_RECORD
  5
1E
100
AcDbSymbolTableRecord
100
AcDbBlockTableRecord
  2
_OPEN30
  0
BLOCK_RECORD
  5
24
100
AcDbSymbolTableRecord
100
AcDbBlockTableRecord
  2
_BOXFILLED
  0
BLOCK_RECORD
  5
29
100
AcDbSymbolTableRecord
100
AcDbBlockTableRecord
  2
_BOXBLANK
  0
BLOCK_RECORD
  5
31
100
AcDbSymbolTableRecord
100
AcDbBlockTableRecord
  2
_OBLIQUE
  0
BLOCK_RECORD
  5
35
100
AcDbSymbolTableRecord
100
AcDbBlockTableRecord
  2
_OPEN90
  0
BLOCK_RECORD
  5
3B
100
AcDbSymbolTableRecord
100
AcDbBlockTableRecord
  2
_CLOSEDBLANK
  0
BLOCK_RECORD
  5
41
100
AcDbSymbolTableRecord
100
AcDbBlockTableRecord
  2
_DOTBLANK
  0
BLOCK_RECORD
  5
416
100
AcDbSymbolTableRecord
100
AcDbBlockTableRecord
  2
*D0
  0
BLOCK_RECORD
  5
417
100
AcDbSymbolTableRecord
100
AcDbBlockTableRecord
  2
*D1
  0
BLOCK_RECORD
  5
418
100
AcDbSymbolTableRecord
100
AcDbBlockTableRecord
  2
*D2
  0
BLOCK_RECORD
  5
419
100
AcDbSymbolTableRecord
100
AcDbBlockTableRecord
  2
*D3
  0
BLOCK_RECORD
  5
41A
100
AcDbSymbolTableRecord
100
AcDbBlockTableRecord
  2
*D4
  0
BLOCK_RECORD
  5
41B
100
AcDbSymbolTableRecord
100
AcDbBlockTableRecord
  2
*D5
  0
BLOCK_RECORD
  5
41C
100
AcDbSymbolTableRecord
100
AcDbBlockTableRecord
  2
*D6
  0
BLOCK_RECORD
  5
41D
100
AcDbSymbolTableRecord
100
AcDbBlockTableRecord
  2
*D7
  0
BLOCK_RECORD
  5
41E
100
AcDbSymbolTableRecord
100
AcDbBlockTableRecord
  2
*D8
  0
BLOCK_RECORD
  5
41F
100
AcDbSymbolTableRecord
100
AcDbBlockTableRecord
  2
*D9
  0
BLOCK_RECORD
  5
420
100
AcDbSymbolTableRecord
100
AcDbBlockTableRecord
  2
*D10
  0
BLOCK_RECORD
  5
421
100
AcDbSymbolTableRecord
100
AcDbBlockTableRecord
  2
*D11
  0
BLOCK_RECORD
  5
422
100
AcDbSymbolTableRecord
100
AcDbBlockTableRecord
  2
*D12
  0
BLOCK_RECORD
  5
423
100
AcDbSymbolTableRecord
100
AcDbBlockTableRecord
  2
*D13
  0
BLOCK_RECORD
  5
424
100
AcDbSymbolTableRecord
100
AcDbBlockTableRecord
  2
*D14
  0
BLOCK_RECORD
  5
425
100
AcDbSymbolTableRecord
100
AcDbBlockTableRecord
  2
*D15
  0
BLOCK_RECORD
  5
426
100
AcDbSymbolTableRecord
100
AcDbBlockTableRecord
  2
*D16
  0
BLOCK_RECORD
  5
427
100
AcDbSymbolTableRecord
100
AcDbBlockTableRecord
  2
*D17
  0
BLOCK_RECORD
  5
428
100
AcDbSymbolTableRecord
100
AcDbBlockTableRecord
  2
*D18
  0
BLOCK_RECORD
  5
429
100
AcDbSymbolTableRecord
100
AcDbBlockTableRecord
  2
D19
  0
BLOCK_RECORD
  5
42A
100
AcDbSymbolTableRecord
100
AcDbBlockTableRecord
  2
D20
  0
BLOCK_RECORD
  5
42B
100
AcDbSymbolTableRecord
100
AcDbBlockTableRecord
  2
D21
  0
BLOCK_RECORD
  5
42C
100
AcDbSymbolTableRecord
100
AcDbBlockTableRecord
  2
M0
  0
BLOCK_RECORD
  5
42D
100
AcDbSymbolTableRecord
100
AcDbBlockTableRecord
  2
M1
  0
BLOCK_RECORD
  5
42E
100
AcDbSymbolTableRecord
100
AcDbBlockTableRecord
  2
*D22
  0
BLOCK_RECORD
  5
42F
100
AcDbSymbolTableRecord
100
AcDbBlockTableRecord
  2
*D23
  0
BLOCK_RECORD
  5
430
100
AcDbSymbolTableRecord
100
AcDbBlockTableRecord
  2
*D24
  0
BLOCK_RECORD
  5
431
100
AcDbSymbolTableRecord
100
AcDbBlockTableRecord
  2
*D25
  0
BLOCK_RECORD
  5
432
100
AcDbSymbolTableRecord
100
AcDbBlockTableRecord
  2
*D26
  0
BLOCK_RECORD
  5
433
100
AcDbSymbolTableRecord
100
AcDbBlockTableRecord
  2
*D27
  0
BLOCK_RECORD
  5
434
100
AcDbSymbolTableRecord
100
AcDbBlockTableRecord
  2
*D28
  0
BLOCK_RECORD
  5
435
100
AcDbSymbolTableRecord
100
AcDbBlockTableRecord
  2
*D29
  0
BLOCK_RECORD
  5
436
100
AcDbSymbolTableRecord
100
AcDbBlockTableRecord
  2
*D30
  0
BLOCK_RECORD
  5
437
100
AcDbSymbolTableRecord
100
AcDbBlockTableRecord
  2
*D31
  0
BLOCK_RECORD
  5
438
100
AcDbSymbolTableRecord
100
AcDbBlockTableRecord
  2
*D32
  0
BLOCK_RECORD
  5
439
100
AcDbSymbolTableRecord
100
AcDbBlockTableRecord
  2
*D33
  0
ENDTAB
  0
ENDSEC
  0
SECTION
  2
BLOCKS
  0
BLOCK
  5
43A
100
AcDbEntity
  8
0
100
AcDbBlockBegin
  2
*MODEL_SPACE
 70
     0
 10
0.0
 20
0.0
 30
0.0
  3
*MODEL_SPACE
  1

  0
ENDBLK
  5
43B
100
AcDbEntity
  8
0
100
AcDbBlockEnd
  0
BLOCK
  5
43C
100
AcDbEntity
  8
0
100
AcDbBlockBegin
  2
*PAPER_SPACE
 70
     0
 10
0.0
 20
0.0
 30
0.0
  3
*PAPER_SPACE
  1

  0
ENDBLK
  5
43D
100
AcDbEntity
  8
0
100
AcDbBlockEnd
  0
BLOCK
  5
2
100
AcDbEntity
  8
0
100
AcDbBlockBegin
  2
_NONE
 70
     0
 10
0.0
 20
0.0
 30
0.0
  3
_NONE
  1

  0
ENDBLK
  5
3
100
AcDbEntity
  8
0
100
AcDbBlockEnd
  0
BLOCK
  5
5
100
AcDbEntity
  8
0
100
AcDbBlockBegin
  2
_CLOSED
 70
     0
 10
0.0
 20
0.0
 30
0.0
  3
_CLOSED
  1

  0
LINE
  5
6
100
AcDbEntity
  8
0
  6
BYBLOCK
 62
     0
100
AcDbLine
 10
-1.0
 20
0.166667
 30
0.0
 11
0.0
 21
0.0
 31
0.0
  0
LINE
  5
7
100
AcDbEntity
  8
0
  6
BYBLOCK
 62
     0
100
AcDbLine
 10
0.0
 20
0.0
 30
0.0
 11
-1.0
 21
-0.166667
 31
0.0
  0
LINE
  5
8
100
AcDbEntity
  8
0
  6
BYBLOCK
 62
     0
100
AcDbLine
 10
-1.0
 20
0.166667
 30
0.0
 11
-1.0
 21
-0.166667
 31
0.0
  0
LINE
  5
9
100
AcDbEntity
  8
0
  6
BYBLOCK
 62
     0
100
AcDbLine
 10
0.0
 20
0.0
 30
0.0
 11
-1.0
 21
0.0
 31
0.0
  0
ENDBLK
  5
A
100
AcDbEntity
  8
0
100
AcDbBlockEnd
  0
BLOCK
  5
C
100
AcDbEntity
  8
0
100
AcDbBlockBegin
  2
_DOT
 70
     0
 10
0.0
 20
0.0
 30
0.0
  3
_DOT
  1

  0
POLYLINE
  5
D
100
AcDbEntity
  8
0
  6
BYBLOCK
 62
     0
100
AcDb2dPolyline
 66
     1
 10
0.0
 20
0.0
 30
0.0
 70
     1
 40
0.5
 41
0.5
  0
VERTEX
  5
E
100
AcDbEntity
  8
0
  6
BYBLOCK
 62
     0
100
AcDbVertex
100
AcDb2dVertex
 10
-0.25
 20
0.0
 30
0.0
 42
1.0
  0
VERTEX
  5
F
100
AcDbEntity
  8
0
  6
BYBLOCK
 62
     0
100
AcDbVertex
100
AcDb2dVertex
 10
0.25
 20
0.0
 30
0.0
 42
1.0
  0
SEQEND
  5
10
100
AcDbEntity
  8
0
  6
BYBLOCK
 62
     0
  0
LINE
  5
11
100
AcDbEntity
  8
0
  6
BYBLOCK
 62
     0
100
AcDbLine
 10
-0.5
 20
0.0
 30
0.0
 11
-1.0
 21
0.0
 31
0.0
  0
ENDBLK
  5
12
100
AcDbEntity
  8
0
100
AcDbBlockEnd
  0
BLOCK
  5
14
100
AcDbEntity
  8
0
100
AcDbBlockBegin
  2
_OPEN
 70
     0
 10
0.0
 20
0.0
 30
0.0
  3
_OPEN
  1

  0
LINE
  5
15
100
AcDbEntity
  8
0
  6
BYBLOCK
 62
     0
100
AcDbLine
 10
-1.0
 20
0.166667
 30
0.0
 11
0.0
 21
0.0
 31
0.0
  0
LINE
  5
16
100
AcDbEntity
  8
0
  6
BYBLOCK
 62
     0
100
AcDbLine
 10
0.0
 20
0.0
 30
0.0
 11
-1.0
 21
-0.166667
 31
0.0
  0
LINE
  5
17
100
AcDbEntity
  8
0
  6
BYBLOCK
 62
     0
100
AcDbLine
 10
0.0
 20
0.0
 30
0.0
 11
-1.0
 21
0.0
 31
0.0
  0
ENDBLK
  5
18
100
AcDbEntity
  8
0
100
AcDbBlockEnd
  0
BLOCK
  5
1A
100
AcDbEntity
  8
0
100
AcDbBlockBegin
  2
_ORIGIN
 70
     0
 10
0.0
 20
0.0
 30
0.0
  3
_ORIGIN
  1

  0
CIRCLE
  5
1B
100
AcDbEntity
  8
0
  6
BYBLOCK
 62
     0
100
AcDbCircle
 10
0.0
 20
0.0
 30
0.0
 40
0.5
  0
LINE
  5
1C
100
AcDbEntity
  8
0
  6
BYBLOCK
 62
     0
100
AcDbLine
 10
0.0
 20
0.0
 30
0.0
 11
-1.0
 21
0.0
 31
0.0
  0
ENDBLK
  5
1D
100
AcDbEntity
  8
0
100
AcDbBlockEnd
  0
BLOCK
  5
1F
100
AcDbEntity
  8
0
100
AcDbBlockBegin
  2
_OPEN30
 70
     0
 10
0.0
 20
0.0
 30
0.0
  3
_OPEN30
  1

  0
LINE
  5
20
100
AcDbEntity
  8
0
  6
BYBLOCK
 62
     0
100
AcDbLine
 10
-1.0
 20
0.267949
 30
0.0
 11
0.0
 21
0.0
 31
0.0
  0
LINE
  5
21
100
AcDbEntity
  8
0
  6
BYBLOCK
 62
     0
100
AcDbLine
 10
0.0
 20
0.0
 30
0.0
 11
-1.0
 21
-0.267949
 31
0.0
  0
LINE
  5
22
100
AcDbEntity
  8
0
  6
BYBLOCK
 62
     0
100
AcDbLine
 10
0.0
 20
0.0
 30
0.0
 11
-1.0
 21
0.0
 31
0.0
  0
ENDBLK
  5
23
100
AcDbEntity
  8
0
100
AcDbBlockEnd
  0
BLOCK
  5
25
100
AcDbEntity
  8
0
100
AcDbBlockBegin
  2
_BOXFILLED
 70
     0
 10
0.0
 20
0.0
 30
0.0
  3
_BOXFILLED
  1

  0
SOLID
  5
26
100
AcDbEntity
  8
0
  6
BYBLOCK
 62
     0
100
AcDbTrace
 10
-0.5
 20
0.5
 30
0.0
 11
0.5
 21
0.5
 31
0.0
 12
-0.5
 22
-0.5
 32
0.0
 13
0.5
 23
-0.5
 33
0.0
  0
LINE
  5
27
100
AcDbEntity
  8
0
  6
BYBLOCK
 62
     0
100
AcDbLine
 10
-0.5
 20
0.0
 30
0.0
 11
-1.0
 21
0.0
 31
0.0
  0
ENDBLK
  5
28
100
AcDbEntity
  8
0
100
AcDbBlockEnd
  0
BLOCK
  5
2A
100
AcDbEntity
  8
0
100
AcDbBlockBegin
  2
_BOXBLANK
 70
     0
 10
0.0
 20
0.0
 30
0.0
  3
_BOXBLANK
  1

  0
LINE
  5
2B
100
AcDbEntity
  8
0
  6
BYBLOCK
 62
     0
100
AcDbLine
 10
-0.5
 20
-0.5
 30
0.0
 11
0.5
 21
-0.5
 31
0.0
  0
LINE
  5
2C
100
AcDbEntity
  8
0
  6
BYBLOCK
 62
     0
100
AcDbLine
 10
0.5
 20
-0.5
 30
0.0
 11
0.5
 21
0.5
 31
0.0
  0
LINE
  5
2D
100
AcDbEntity
  8
0
  6
BYBLOCK
 62
     0
100
AcDbLine
 10
0.5
 20
0.5
 30
0.0
 11
-0.5
 21
0.5
 31
0.0
  0
LINE
  5
2E
100
AcDbEntity
  8
0
  6
BYBLOCK
 62
     0
100
AcDbLine
 10
-0.5
 20
0.5
 30
0.0
 11
-0.5
 21
-0.5
 31
0.0
  0
LINE
  5
2F
100
AcDbEntity
  8
0
  6
BYBLOCK
 62
     0
100
AcDbLine
 10
-0.5
 20
0.0
 30
0.0
 11
-1.0
 21
0.0
 31
0.0
  0
ENDBLK
  5
30
100
AcDbEntity
  8
0
100
AcDbBlockEnd
  0
BLOCK
  5
32
100
AcDbEntity
  8
0
100
AcDbBlockBegin
  2
_OBLIQUE
 70
     0
 10
0.0
 20
0.0
 30
0.0
  3
_OBLIQUE
  1

  0
LINE
  5
33
100
AcDbEntity
  8
0
  6
BYBLOCK
 62
     0
100
AcDbLine
 10
-0.5
 20
-0.5
 30
0.0
 11
0.5
 21
0.5
 31
0.0
  0
ENDBLK
  5
34
100
AcDbEntity
  8
0
100
AcDbBlockEnd
  0
BLOCK
  5
36
100
AcDbEntity
  8
0
100
AcDbBlockBegin
  2
_OPEN90
 70
     0
 10
0.0
 20
0.0
 30
0.0
  3
_OPEN90
  1

  0
LINE
  5
37
100
AcDbEntity
  8
0
  6
BYBLOCK
 62
     0
100
AcDbLine
 10
-0.5
 20
0.5
 30
0.0
 11
0.0
 21
0.0
 31
0.0
  0
LINE
  5
38
100
AcDbEntity
  8
0
  6
BYBLOCK
 62
     0
100
AcDbLine
 10
0.0
 20
0.0
 30
0.0
 11
-0.5
 21
-0.5
 31
0.0
  0
LINE
  5
39
100
AcDbEntity
  8
0
  6
BYBLOCK
 62
     0
100
AcDbLine
 10
0.0
 20
0.0
 30
0.0
 11
-1.0
 21
0.0
 31
0.0
  0
ENDBLK
  5
3A
100
AcDbEntity
  8
0
100
AcDbBlockEnd
  0
BLOCK
  5
3C
100
AcDbEntity
  8
0
100
AcDbBlockBegin
  2
_CLOSEDBLANK
 70
     0
 10
0.0
 20
0.0
 30
0.0
  3
_CLOSEDBLANK
  1

  0
LINE
  5
3D
100
AcDbEntity
  8
0
  6
BYBLOCK
 62
     0
100
AcDbLine
 10
-1.0
 20
0.1666666666666666
 30
0.0
 11
0.0
 21
0.0
 31
0.0
  0
LINE
  5
3E
100
AcDbEntity
  8
0
  6
BYBLOCK
 62
     0
100
AcDbLine
 10
0.0
 20
0.0
 30
0.0
 11
-1.0
 21
-0.1666666666666666
 31
0.0
  0
LINE
  5
3F
100
AcDbEntity
  8
0
  6
BYBLOCK
 62
     0
100
AcDbLine
 10
-1.0
 20
0.1666666666666666
 30
0.0
 11
-1.0
 21
-0.1666666666666666
 31
0.0
  0
ENDBLK
  5
40
100
AcDbEntity
  8
0
100
AcDbBlockEnd
  0
BLOCK
  5
42
100
AcDbEntity
  8
0
100
AcDbBlockBegin
  2
_DOTBLANK
 70
     0
 10
0.0
 20
0.0
 30
0.0
  3
_DOTBLANK
  1

  0
CIRCLE
  5
43
100
AcDbEntity
  8
0
  6
BYBLOCK
 62
     0
100
AcDbCircle
 10
0.0
 20
0.0
 30
0.0
 40
0.5
  0
LINE
  5
44
100
AcDbEntity
  8
0
  6
BYBLOCK
 62
     0
100
AcDbLine
 10
-0.5
 20
0.0
 30
0.0
 11
-1.0
 21
0.0
 31
0.0
  0
ENDBLK
  5
45
100
AcDbEntity
  8
0
100
AcDbBlockEnd
  0
BLOCK
  5
7E
100
AcDbEntity
  8
MAIN0
  6
CONTINUOUS
 62
3
100
AcDbBlockBegin
  2
*D0
 70
    65
 10
0.0
 20
0.0
 30
0.0
  0
LINE
  5
7F
100
AcDbEntity
  8
MAIN0
  6
BYBLOCK
 62
0
100
AcDbLine
 10
148.4343509257368
 20
199.5555342032436
 30
0.0000000000000000
 11
53.16660853498814
 21
199.5555342032436
 31
0.0000000000000000
  0
LINE
  5
80
100
AcDbEntity
  8
MAIN0
  6
BYBLOCK
 62
0
100
AcDbLine
 10
55.16660853498814
 20
201.5555342032436
 30
0.0000000000000000
 11
55.16660853498814
 21
332.5555342032437
 31
0.0000000000000000
  0
INSERT
  5
81
100
AcDbEntity
  8
MAIN0
  6
BYBLOCK
 62
0
100
AcDbBlockReference
  2
_OPEN
 10
55.16660853498814
 20
199.5555342032436
 30
0.0000000000000000
 41
2.000000000000000
 42
2.000000000000000
 43
2.000000000000000
 50
270.0000000000000
  0
INSERT
  5
82
100
AcDbEntity
  8
MAIN0
  6
BYBLOCK
 62
0
100
AcDbBlockReference
  2
_OPEN
 10
55.16660853498814
 20
334.5555342032437
 30
0.0000000000000000
 41
2.000000000000000
 42
2.000000000000000
 43
2.000000000000000
 50
90.00000000000000
  0
LINE
  5
83
100
AcDbEntity
  8
MAIN0
  6
BYBLOCK
 62
0
100
AcDbLine
 10
148.4343509257368
 20
334.5555342032437
 30
0.0000000000000000
 11
53.16660853498814
 21
334.5555342032437
 31
0.0000000000000000
  0
MTEXT
  5
84
100
AcDbEntity
  8
MAIN0
  6
BYBLOCK
 62
0
100
AcDbMText
 10
53.11660858267186
 20
267.0555342032436
 30
0.0000000000000000
 40
3.099999904632568
 41
0.0000000000000000
 71
     5
 72
     1
  1
\A1;\U+2205135
 11
6.123233995736766e-017
 21
1.000000000000000
 31
0.0000000000000000
  7
STANDARD
  0
ENDBLK
  5
85
100
AcDbEntity
  8
MAIN0
  6
CONTINUOUS
 62
3
100
AcDbBlockEnd
  0
BLOCK
  5
87
100
AcDbEntity
  8
MAIN0
  6
CONTINUOUS
 62
3
100
AcDbBlockBegin
  2
*D1
 70
    65
 10
0.0
 20
0.0
 30
0.0
  0
LINE
  5
88
100
AcDbEntity
  8
MAIN0
  6
BYBLOCK
 62
0
100
AcDbLine
 10
138.9343509256667
 20
279.5555342032437
 30
0.0000000000000000
 11
83.02611369172112
 21
279.5555342032437
 31
0.0000000000000000
  0
LINE
  5
89
100
AcDbEntity
  8
MAIN0
  6
BYBLOCK
 62
0
100
AcDbLine
 10
85.02611369172112
 20
277.5555342032437
 30
0.0000000000000000
 11
85.02611369172112
 21
256.5555342032437
 31
0.0000000000000000
  0
INSERT
  5
8A
100
AcDbEntity
  8
MAIN0
  6
BYBLOCK
 62
0
100
AcDbBlockReference
  2
_OPEN
 10
85.02611369172112
 20
279.5555342032437
 30
0.0000000000000000
 41
2.000000000000000
 42
2.000000000000000
 43
2.000000000000000
 50
90.00000000000000
  0
INSERT
  5
8B
100
AcDbEntity
  8
MAIN0
  6
BYBLOCK
 62
0
100
AcDbBlockReference
  2
_OPEN
 10
85.02611369172112
 20
254.5555342032436
 30
0.0000000000000000
 41
2.000000000000000
 42
2.000000000000000
 43
2.000000000000000
 50
270.0000000000000
  0
LINE
  5
8C
100
AcDbEntity
  8
MAIN0
  6
BYBLOCK
 62
0
100
AcDbLine
 10
138.9343509256667
 20
254.5555342032436
 30
0.0000000000000000
 11
83.02611369172112
 21
254.5555342032436
 31
0.0000000000000000
  0
MTEXT
  5
8D
100
AcDbEntity
  8
MAIN0
  6
BYBLOCK
 62
0
100
AcDbMText
 10
82.97611373940484
 20
267.0555342032437
 30
0.0000000000000000
 40
3.099999904632568
 41
0.0000000000000000
 71
     5
 72
     1
  1
\A1;\U+220525
 11
6.123233995736766e-017
 21
1.000000000000000
 31
0.0000000000000000
  7
STANDARD
  0
ENDBLK
  5
8E
100
AcDbEntity
  8
MAIN0
  6
CONTINUOUS
 62
3
100
AcDbBlockEnd
  0
BLOCK
  5
90
100
AcDbEntity
  8
MAIN0
  6
CONTINUOUS
 62
3
100
AcDbBlockBegin
  2
*D2
 70
    65
 10
0.0
 20
0.0
 30
0.0
  0
LINE
  5
91
100
AcDbEntity
  8
MAIN0
  6
BYBLOCK
 62
0
100
AcDbLine
 10
147.4343509257367
 20
322.0555342032437
 30
0.0000000000000000
 11
69.47283572931448
 21
322.0555342032437
 31
0.0000000000000000
  0
LINE
  5
92
100
AcDbEntity
  8
MAIN0
  6
BYBLOCK
 62
0
100
AcDbLine
 10
71.47283572931448
 20
320.0555342032437
 30
0.0000000000000000
 11
71.47283572931448
 21
214.0555342032437
 31
0.0000000000000000
  0
INSERT
  5
93
100
AcDbEntity
  8
MAIN0
  6
BYBLOCK
 62
0
100
AcDbBlockReference
  2
_OPEN
 10
71.47283572931448
 20
322.0555342032437
 30
0.0000000000000000
 41
2.000000000000000
 42
2.000000000000000
 43
2.000000000000000
 50
90.00000000000000
  0
INSERT
  5
94
100
AcDbEntity
  8
MAIN0
  6
BYBLOCK
 62
0
100
AcDbBlockReference
  2
_OPEN
 10
71.47283572931448
 20
212.0555342032437
 30
0.0000000000000000
 41
2.000000000000000
 42
2.000000000000000
 43
2.000000000000000
 50
270.0000000000000
  0
LINE
  5
95
100
AcDbEntity
  8
MAIN0
  6
BYBLOCK
 62
0
100
AcDbLine
 10
147.4343509257367
 20
212.0555342032437
 30
0.0000000000000000
 11
69.47283572931448
 21
212.0555342032437
 31
0.0000000000000000
  0
MTEXT
  5
96
100
AcDbEntity
  8
MAIN0
  6
BYBLOCK
 62
0
100
AcDbMText
 10
69.42283577699820
 20
267.0555342032437
 30
0.0000000000000000
 40
3.099999904632568
 41
0.0000000000000000
 71
     5
 72
     1
  1
\A1;\U+2205110G7
 11
6.123233995736766e-017
 21
1.000000000000000
 31
0.0000000000000000
  7
STANDARD
  0
ENDBLK
  5
97
100
AcDbEntity
  8
MAIN0
  6
CONTINUOUS
 62
3
100
AcDbBlockEnd
  0
BLOCK
  5
99
100
AcDbEntity
  8
MAIN0
  6
CONTINUOUS
 62
3
100
AcDbBlockBegin
  2
*D3
 70
    65
 10
0.0
 20
0.0
 30
0.0
  0
LINE
  5
9A
100
AcDbEntity
  8
MAIN0
  6
BYBLOCK
 62
0
100
AcDbLine
 10
246.2343509376576
 20
260.2555341913209
 30
0.0000000000000000
 11
246.2343509376576
 21
145.4888847789241
 31
0.0000000000000000
  0
LINE
  5
9B
100
AcDbEntity
  8
MAIN0
  6
BYBLOCK
 62
0
100
AcDbLine
 10
244.2343509376576
 20
147.4888847789241
 30
0.0000000000000000
 11
222.2343509376576
 21
147.4888847789241
 31
0.0000000000000000
  0
INSERT
  5
9C
100
AcDbEntity
  8
MAIN0
  6
BYBLOCK
 62
0
100
AcDbBlockReference
  2
_OPEN
 10
246.2343509376576
 20
147.4888847789241
 30
0.0000000000000000
 41
2.000000000000000
 42
2.000000000000000
 43
2.000000000000000
 50
360.0000000000000
  0
INSERT
  5
9D
100
AcDbEntity
  8
MAIN0
  6
BYBLOCK
 62
0
100
AcDbBlockReference
  2
_OPEN
 10
220.2343509376576
 20
147.4888847789241
 30
0.0000000000000000
 41
2.000000000000000
 42
2.000000000000000
 43
2.000000000000000
 50
180.0000000000000
  0
LINE
  5
9E
100
AcDbEntity
  8
MAIN0
  6
BYBLOCK
 62
0
100
AcDbLine
 10
220.2343509376576
 20
199.7555341913228
 30
0.0000000000000000
 11
220.2343509376576
 21
145.4888847789241
 31
0.0000000000000000
  0
MTEXT
  5
9F
100
AcDbEntity
  8
MAIN0
  6
BYBLOCK
 62
0
100
AcDbMText
 10
233.2343509376576
 20
149.5388847312404
 30
0.0000000000000000
 40
3.099999904632568
 41
0.0000000000000000
 71
     5
 72
     1
  1
\A1;26
 11
1.000000000000000
 21
0.0000000000000000
 31
0.0000000000000000
  7
STANDARD
  0
ENDBLK
  5
A0
100
AcDbEntity
  8
MAIN0
  6
CONTINUOUS
 62
3
100
AcDbBlockEnd
  0
BLOCK
  5
A2
100
AcDbEntity
  8
MAIN0
  6
CONTINUOUS
 62
3
100
AcDbBlockBegin
  2
*D4
 70
    65
 10
0.0
 20
0.0
 30
0.0
  0
LINE
  5
A3
100
AcDbEntity
  8
MAIN0
  6
BYBLOCK
 62
0
100
AcDbLine
 10
220.2343509376576
 20
199.7555341913228
 30
0.0000000000000000
 11
220.2343509376576
 21
145.4888847789241
 31
0.0000000000000000
  0
LINE
  5
A4
100
AcDbEntity
  8
MAIN0
  6
BYBLOCK
 62
0
100
AcDbLine
 10
218.2343509376576
 20
147.4888847789241
 30
0.0000000000000000
 11
150.2343509376576
 21
147.4888847789241
 31
0.0000000000000000
  0
INSERT
  5
A5
100
AcDbEntity
  8
MAIN0
  6
BYBLOCK
 62
0
100
AcDbBlockReference
  2
_OPEN
 10
220.2343509376576
 20
147.4888847789241
 30
0.0000000000000000
 41
2.000000000000000
 42
2.000000000000000
 43
2.000000000000000
 50
360.0000000000000
  0
INSERT
  5
A6
100
AcDbEntity
  8
MAIN0
  6
BYBLOCK
 62
0
100
AcDbBlockReference
  2
_OPEN
 10
148.2343509376576
 20
147.4888847789241
 30
0.0000000000000000
 41
2.000000000000000
 42
2.000000000000000
 43
2.000000000000000
 50
180.0000000000000
  0
LINE
  5
A7
100
AcDbEntity
  8
MAIN0
  6
BYBLOCK
 62
0
100
AcDbLine
 10
148.2343509376576
 20
199.7555341913227
 30
0.0000000000000000
 11
148.2343509376576
 21
145.4888847789241
 31
0.0000000000000000
  0
MTEXT
  5
A8
100
AcDbEntity
  8
MAIN0
  6
BYBLOCK
 62
0
100
AcDbMText
 10
184.2343509376576
 20
149.5388847312404
 30
0.0000000000000000
 40
3.099999904632568
 41
0.0000000000000000
 71
     5
 72
     1
  1
\A1;72
 11
1.000000000000000
 21
0.0000000000000000
 31
0.0000000000000000
  7
STANDARD
  0
ENDBLK
  5
A9
100
AcDbEntity
  8
MAIN0
  6
CONTINUOUS
 62
3
100
AcDbBlockEnd
  0
BLOCK
  5
AB
100
AcDbEntity
  8
MAIN0
  6
CONTINUOUS
 62
3
100
AcDbBlockBegin
  2
*D5
 70
    65
 10
0.0
 20
0.0
 30
0.0
  0
LINE
  5
AC
100
AcDbEntity
  8
MAIN0
  6
BYBLOCK
 62
0
100
AcDbLine
 10
148.2343509376576
 20
199.7555341913227
 30
0.0000000000000000
 11
148.2343509376576
 21
166.0290015296767
 31
0.0000000000000000
  0
LINE
  5
AD
100
AcDbEntity
  8
MAIN0
  6
BYBLOCK
 62
0
100
AcDbLine
 10
148.2343509376576
 20
168.0290015296767
 30
0.0000000000000000
 11
153.2343509376577
 21
168.0290015296767
 31
0.0000000000000000
  0
INSERT
  5
AE
100
AcDbEntity
  8
MAIN0
  6
BYBLOCK
 62
0
100
AcDbBlockReference
  2
_OPEN
 10
148.2343509376576
 20
168.0290015296767
 30
0.0000000000000000
 41
2.000000000000000
 42
2.000000000000000
 43
2.000000000000000
 50
0.0000000000000000
  0
INSERT
  5
AF
100
AcDbEntity
  8
MAIN0
  6
BYBLOCK
 62
0
100
AcDbBlockReference
  2
_OPEN
 10
153.2343509376577
 20
168.0290015296767
 30
0.0000000000000000
 41
2.000000000000000
 42
2.000000000000000
 43
2.000000000000000
 50
180.0000000000000
  0
LINE
  5
B0
100
AcDbEntity
  8
MAIN0
  6
BYBLOCK
 62
0
100
AcDbLine
 10
146.2343509376576
 20
168.0290015296767
 30
0.0000000000000000
 11
145.2343509376576
 21
168.0290015296767
 31
0.0000000000000000
  0
LINE
  5
B1
100
AcDbEntity
  8
MAIN0
  6
BYBLOCK
 62
0
100
AcDbLine
 10
155.2343509376577
 20
168.0290015296767
 30
0.0000000000000000
 11
156.2343509376577
 21
168.0290015296767
 31
0.0000000000000000
  0
LINE
  5
B2
100
AcDbEntity
  8
MAIN0
  6
BYBLOCK
 62
0
100
AcDbLine
 10
153.2343509376577
 20
211.2555341913227
 30
0.0000000000000000
 11
153.2343509376577
 21
166.0290015296767
 31
0.0000000000000000
  0
MTEXT
  5
B3
100
AcDbEntity
  8
MAIN0
  6
BYBLOCK
 62
0
100
AcDbMText
 10
150.7343509376577
 20
170.0790014819930
 30
0.0000000000000000
 40
3.099999904632568
 41
0.0000000000000000
 71
     5
 72
     1
  1
\A1;5
 11
1.000000000000000
 21
0.0000000000000000
 31
0.0000000000000000
  7
STANDARD
  0
ENDBLK
  5
B4
100
AcDbEntity
  8
MAIN0
  6
CONTINUOUS
 62
3
100
AcDbBlockEnd
  0
BLOCK
  5
BD
100
AcDbEntity
  8
MAIN0
  6
CONTINUOUS
 62
3
100
AcDbBlockBegin
  2
*D6
 70
    65
 10
0.0
 20
0.0
 30
0.0
  0
LINE
  5
BE
100
AcDbEntity
  8
MAIN0
  6
BYBLOCK
 62
0
100
AcDbLine
 10
494.9955460802046
 20
227.8857677009518
 30
0.0000000000000000
 11
504.5377569910503
 21
222.3765696629109
 31
0.0000000000000000
  0
ARC
  5
BF
100
AcDbEntity
  8
MAIN0
  6
BYBLOCK
 62
0
100
AcDbCircle
 10
427.1515203776258
 20
267.0555342032436
 30
0.0000000000000000
 40
87.35792908066530
100
AcDbArc
 50
271.3117476596813
 51
328.6882523403187
  0
INSERT
  5
C0
100
AcDbEntity
  8
MAIN0
  6
BYBLOCK
 62
0
100
AcDbBlockReference
  2
_OPEN
 10
427.1515203776258
 20
179.6976051225783
 30
0.0000000000000000
 41
2.000000000000000
 42
2.000000000000000
 43
2.000000000000000
 50
180.0000000000000
  0
INSERT
  5
C1
100
AcDbEntity
  8
MAIN0
  6
BYBLOCK
 62
0
100
AcDbBlockReference
  2
_OPEN
 10
502.8057061834813
 20
223.3765696629109
 30
0.0000000000000000
 41
2.000000000000000
 42
2.000000000000000
 43
2.000000000000000
 50
59.99999999999994
  0
MTEXT
  5
C2
100
AcDbEntity
  8
MAIN0
  6
BYBLOCK
 62
0
100
AcDbMText
 10
469.8054849418003
 20
193.1767004338508
 30
0.0000000000000000
 40
3.099999904632568
 41
0.0000000000000000
 71
     5
 72
     1
  1
\A1;60\U+00B0
 11
0.8660254037844389
 21
0.4999999999999994
 31
0.0000000000000000
  7
STANDARD
  0
ENDBLK
  5
C3
100
AcDbEntity
  8
MAIN0
  6
CONTINUOUS
 62
3
100
AcDbBlockEnd
  0
BLOCK
  5
C5
100
AcDbEntity
  8
MAIN0
  6
CONTINUOUS
 62
3
100
AcDbBlockBegin
  2
*D7
 70
    65
 10
0.0
 20
0.0
 30
0.0
  0
LINE
  5
C6
100
AcDbEntity
  8
MAIN0
  6
BYBLOCK
 62
0
100
AcDbLine
 10
494.9955460802046
 20
227.8857677009518
 30
0.0000000000000000
 11
504.5377569910503
 21
222.3765696629109
 31
0.0000000000000000
  0
LINE
  5
C7
100
AcDbEntity
  8
MAIN0
  6
BYBLOCK
 62
0
100
AcDbLine
 10
477.1337591230706
 20
295.9127931976264
 30
0.0000000000000000
 11
504.5377569910502
 21
311.7344987435763
 31
0.0000000000000000
  0
ARC
  5
C8
100
AcDbEntity
  8
MAIN0
  6
BYBLOCK
 62
0
100
AcDbCircle
 10
427.1515203776257
 20
267.0555342032436
 30
0.0000000000000000
 40
87.35792908066534
100
AcDbArc
 50
331.3117476596813
 51
388.6882523403187
  0
INSERT
  5
C9
100
AcDbEntity
  8
MAIN0
  6
BYBLOCK
 62
0
100
AcDbBlockReference
  2
_OPEN
 10
502.8057061834813
 20
223.3765696629109
 30
0.0000000000000000
 41
2.000000000000000
 42
2.000000000000000
 43
2.000000000000000
 50
240.0000000000000
  0
INSERT
  5
CA
100
AcDbEntity
  8
MAIN0
  6
BYBLOCK
 62
0
100
AcDbBlockReference
  2
_OPEN
 10
502.8057061834813
 20
310.7344987435763
 30
0.0000000000000000
 41
2.000000000000000
 42
2.000000000000000
 43
2.000000000000000
 50
120.0000000000001
  0
MTEXT
  5
CB
100
AcDbEntity
  8
MAIN0
  6
BYBLOCK
 62
0
100
AcDbMText
 10
512.4594495059747
 20
267.0555342032437
 30
0.0000000000000000
 40
3.099999904632568
 41
0.0000000000000000
 71
     5
 72
     1
  1
\A1;60\U+00B0
 11
6.123233995736766e-017
 21
1.000000000000000
 31
0.0000000000000000
  7
STANDARD
  0
ENDBLK
  5
CC
100
AcDbEntity
  8
MAIN0
  6
CONTINUOUS
 62
3
100
AcDbBlockEnd
  0
BLOCK
  5
CE
100
AcDbEntity
  8
MAIN0
  6
CONTINUOUS
 62
3
100
AcDbBlockBegin
  2
*D8
 70
    65
 10
0.0
 20
0.0
 30
0.0
  0
LINE
  5
CF
100
AcDbEntity
  8
MAIN0
  6
BYBLOCK
 62
0
100
AcDbLine
 10
477.1337591230706
 20
295.9127931976264
 30
0.0000000000000000
 11
504.5377569910502
 21
311.7344987435763
 31
0.0000000000000000
  0
LINE
  5
D0
100
AcDbEntity
  8
MAIN0
  6
BYBLOCK
 62
0
100
AcDbLine
 10
427.1515203776258
 20
349.0087298794678
 30
0.0000000000000000
 11
427.1515203776258
 21
356.4134632839090
 31
0.0000000000000000
  0
ARC
  5
D1
100
AcDbEntity
  8
MAIN0
  6
BYBLOCK
 62
0
100
AcDbCircle
 10
427.1515203776258
 20
267.0555342032437
 30
0.0000000000000000
 40
87.35792908066536
100
AcDbArc
 50
31.31174765968127
 51
88.68825234031871
  0
INSERT
  5
D2
100
AcDbEntity
  8
MAIN0
  6
BYBLOCK
 62
0
100
AcDbBlockReference
  2
_OPEN
 10
502.8057061834813
 20
310.7344987435764
 30
0.0000000000000000
 41
2.000000000000000
 42
2.000000000000000
 43
2.000000000000000
 50
300.0000000000000
  0
INSERT
  5
D3
100
AcDbEntity
  8
MAIN0
  6
BYBLOCK
 62
0
100
AcDbBlockReference
  2
_OPEN
 10
427.1515203776258
 20
354.4134632839090
 30
0.0000000000000000
 41
2.000000000000000
 42
2.000000000000000
 43
2.000000000000000
 50
180.0000000000000
  0
MTEXT
  5
D4
100
AcDbEntity
  8
MAIN0
  6
BYBLOCK
 62
0
100
AcDbMText
 10
471.8554848941167
 20
344.4850720455620
 30
0.0000000000000000
 40
3.099999904632568
 41
0.0000000000000000
 71
     5
 72
     1
  1
\A1;60\U+00B0
 11
0.8660254037844384
 21
-0.5000000000000004
 31
0.0000000000000000
  7
STANDARD
  0
ENDBLK
  5
D5
100
AcDbEntity
  8
MAIN0
  6
CONTINUOUS
 62
3
100
AcDbBlockEnd
  0
BLOCK
  5
D7
100
AcDbEntity
  8
MAIN0
  6
CONTINUOUS
 62
3
100
AcDbBlockBegin
  2
*D9
 70
    65
 10
0.0
 20
0.0
 30
0.0
  0
LINE
  5
D8
100
AcDbEntity
  8
MAIN0
  6
BYBLOCK
 62
0
100
AcDbLine
 10
138.2343509376576
 20
231.5805342151646
 30
0.0000000000000000
 11
138.2343509376576
 21
243.1066199244395
 31
0.0000000000000000
  0
LINE
  5
D9
100
AcDbEntity
  8
MAIN0
  6
BYBLOCK
 62
0
100
AcDbLine
 10
140.2343509376576
 20
241.1066199244395
 30
0.0000000000000000
 11
151.2343509376577
 21
241.1066199244395
 31
0.0000000000000000
  0
INSERT
  5
DA
100
AcDbEntity
  8
MAIN0
  6
BYBLOCK
 62
0
100
AcDbBlockReference
  2
_OPEN
 10
138.2343509376576
 20
241.1066199244395
 30
0.0000000000000000
 41
2.000000000000000
 42
2.000000000000000
 43
2.000000000000000
 50
180.0000000000000
  0
INSERT
  5
DB
100
AcDbEntity
  8
MAIN0
  6
BYBLOCK
 62
0
100
AcDbBlockReference
  2
_OPEN
 10
153.2343509376577
 20
241.1066199244395
 30
0.0000000000000000
 41
2.000000000000000
 42
2.000000000000000
 43
2.000000000000000
 50
0.0000000000000000
  0
MTEXT
  5
DC
100
AcDbEntity
  8
MAIN0
  6
BYBLOCK
 62
0
100
AcDbMText
 10
144.2582376814028
 20
243.1566198767558
 30
0.0000000000000000
 40
3.099999904632568
 41
0.0000000000000000
 71
     5
 72
     1
  1
\A1;15
 11
1.000000000000000
 21
0.0000000000000000
 31
0.0000000000000000
  7
STANDARD
  0
ENDBLK
  5
DD
100
AcDbEntity
  8
MAIN0
  6
CONTINUOUS
 62
3
100
AcDbBlockEnd
  0
BLOCK
  5
E0
100
AcDbEntity
  8
MAIN0
  6
CONTINUOUS
 62
3
100
AcDbBlockBegin
  2
*D10
 70
    65
 10
0.0
 20
0.0
 30
0.0
  0
LINE
  5
E1
100
AcDbEntity
  8
MAIN0
  6
BYBLOCK
 62
0
100
AcDbLine
 10
247.0343509495785
 20
281.7555342032437
 30
0.0000000000000000
 11
269.7593734949773
 21
281.7555342032437
 31
0.0000000000000000
  0
LINE
  5
E2
100
AcDbEntity
  8
MAIN0
  6
BYBLOCK
 62
0
100
AcDbLine
 10
267.7593734949773
 20
283.7555342032437
 30
0.0000000000000000
 11
267.7593734949773
 21
291.7555342032437
 31
0.0000000000000000
  0
INSERT
  5
E3
100
AcDbEntity
  8
MAIN0
  6
BYBLOCK
 62
0
100
AcDbBlockReference
  2
_OPEN
 10
267.7593734949773
 20
281.7555342032437
 30
0.0000000000000000
 41
2.000000000000000
 42
2.000000000000000
 43
2.000000000000000
 50
270.0000000000000
  0
INSERT
  5
E4
100
AcDbEntity
  8
MAIN0
  6
BYBLOCK
 62
0
100
AcDbBlockReference
  2
_OPEN
 10
267.7593734949773
 20
293.7555342032437
 30
0.0000000000000000
 41
2.000000000000000
 42
2.000000000000000
 43
2.000000000000000
 50
90.00000000000000
  0
LINE
  5
E5
100
AcDbEntity
  8
MAIN0
  6
BYBLOCK
 62
0
100
AcDbLine
 10
228.2782299032050
 20
293.7555342032437
 30
0.0000000000000000
 11
269.7593734949773
 21
293.7555342032437
 31
0.0000000000000000
  0
MTEXT
  5
E6
100
AcDbEntity
  8
MAIN0
  6
BYBLOCK
 62
0
100
AcDbMText
 10
265.7093735426610
 20
287.7555342032437
 30
0.0000000000000000
 40
3.099999904632568
 41
0.0000000000000000
 71
     5
 72
     1
  1
\A1;12
 11
6.123233995736766e-017
 21
1.000000000000000
 31
0.0000000000000000
  7
STANDARD
  0
ENDBLK
  5
E7
100
AcDbEntity
  8
MAIN0
  6
CONTINUOUS
 62
3
100
AcDbBlockEnd
  0
BLOCK
  5
E9
100
AcDbEntity
  8
MAIN0
  6
CONTINUOUS
 62
3
100
AcDbBlockBegin
  2
*D11
 70
    65
 10
0.0
 20
0.0
 30
0.0
  0
LINE
  5
EA
100
AcDbEntity
  8
MAIN0
  6
BYBLOCK
 62
0
100
AcDbLine
 10
220.2343509376576
 20
199.7555341913228
 30
0.0000000000000000
 11
220.2343509376576
 21
166.4119530456566
 31
0.0000000000000000
  0
LINE
  5
EB
100
AcDbEntity
  8
MAIN0
  6
BYBLOCK
 62
0
100
AcDbLine
 10
218.2343509376576
 20
168.4119530456566
 30
0.0000000000000000
 11
205.2343509376576
 21
168.4119530456566
 31
0.0000000000000000
  0
INSERT
  5
EC
100
AcDbEntity
  8
MAIN0
  6
BYBLOCK
 62
0
100
AcDbBlockReference
  2
_OPEN
 10
220.2343509376576
 20
168.4119530456566
 30
0.0000000000000000
 41
2.000000000000000
 42
2.000000000000000
 43
2.000000000000000
 50
360.0000000000000
  0
INSERT
  5
ED
100
AcDbEntity
  8
MAIN0
  6
BYBLOCK
 62
0
100
AcDbBlockReference
  2
_OPEN
 10
203.2343509376576
 20
168.4119530456566
 30
0.0000000000000000
 41
2.000000000000000
 42
2.000000000000000
 43
2.000000000000000
 50
180.0000000000000
  0
LINE
  5
EE
100
AcDbEntity
  8
MAIN0
  6
BYBLOCK
 62
0
100
AcDbLine
 10
203.2343509376576
 20
219.9805341913228
 30
0.0000000000000000
 11
203.2343509376576
 21
166.4119530456566
 31
0.0000000000000000
  0
MTEXT
  5
EF
100
AcDbEntity
  8
MAIN0
  6
BYBLOCK
 62
0
100
AcDbMText
 10
211.7343509376576
 20
170.4619529979729
 30
0.0000000000000000
 40
3.099999904632568
 41
0.0000000000000000
 71
     5
 72
     1
  1
\A1;17
 11
1.000000000000000
 21
0.0000000000000000
 31
0.0000000000000000
  7
STANDARD
  0
ENDBLK
  5
F0
100
AcDbEntity
  8
MAIN0
  6
CONTINUOUS
 62
3
100
AcDbBlockEnd
  0
BLOCK
  5
F2
100
AcDbEntity
  8
MAIN0
  6
CONTINUOUS
 62
3
100
AcDbBlockBegin
  2
*D12
 70
    65
 10
0.0
 20
0.0
 30
0.0
  0
LINE
  5
F3
100
AcDbEntity
  8
MAIN0
  6
BYBLOCK
 62
0
100
AcDbLine
 10
247.0343509495785
 20
281.7555342032437
 30
0.0000000000000000
 11
259.7718326264369
 21
281.7555342032437
 31
0.0000000000000000
  0
LINE
  5
F4
100
AcDbEntity
  8
MAIN0
  6
BYBLOCK
 62
0
100
AcDbLine
 10
257.7718326264369
 20
281.7555342032437
 30
0.0000000000000000
 11
257.7718326264369
 21
285.2555342032431
 31
0.0000000000000000
  0
INSERT
  5
F5
100
AcDbEntity
  8
MAIN0
  6
BYBLOCK
 62
0
100
AcDbBlockReference
  2
_OPEN
 10
257.7718326264369
 20
281.7555342032437
 30
0.0000000000000000
 41
2.000000000000000
 42
2.000000000000000
 43
2.000000000000000
 50
90.00000000000000
  0
INSERT
  5
F6
100
AcDbEntity
  8
MAIN0
  6
BYBLOCK
 62
0
100
AcDbBlockReference
  2
_OPEN
 10
257.7718326264369
 20
285.2555342032431
 30
0.0000000000000000
 41
2.000000000000000
 42
2.000000000000000
 43
2.000000000000000
 50
270.0000000000000
  0
LINE
  5
F7
100
AcDbEntity
  8
MAIN0
  6
BYBLOCK
 62
0
100
AcDbLine
 10
257.7718326264369
 20
279.7555342032437
 30
0.0000000000000000
 11
257.7718326264369
 21
274.8895502402310
 31
0.0000000000000000
  0
LINE
  5
F8
100
AcDbEntity
  8
MAIN0
  6
BYBLOCK
 62
0
100
AcDbLine
 10
257.7718326264369
 20
287.2555342032431
 30
0.0000000000000000
 11
257.7718326264369
 21
288.2555342032431
 31
0.0000000000000000
  0
LINE
  5
F9
100
AcDbEntity
  8
MAIN0
  6
BYBLOCK
 62
0
100
AcDbLine
 10
242.5343509495752
 20
285.2555342032431
 30
0.0000000000000000
 11
259.7718326264369
 21
285.2555342032431
 31
0.0000000000000000
  0
MTEXT
  5
FA
100
AcDbEntity
  8
MAIN0
  6
BYBLOCK
 62
0
100
AcDbMText
 10
255.7218326741206
 20
277.5395502624457
 30
0.0000000000000000
 40
3.099999904632568
 41
0.0000000000000000
 71
     5
 72
     1
  1
\A1;3.5
 11
6.123233995736766e-017
 21
1.000000000000000
 31
0.0000000000000000
  7
STANDARD
  0
ENDBLK
  5
FB
100
AcDbEntity
  8
MAIN0
  6
CONTINUOUS
 62
3
100
AcDbBlockEnd
  0
BLOCK
  5
10B
100
AcDbEntity
  8
MAIN0
  6
CONTINUOUS
 62
3
100
AcDbBlockBegin
  2
*D13
 70
    65
 10
0.0
 20
0.0
 30
0.0
  0
LINE
  5
10C
100
AcDbEntity
  8
MAIN0
  6
BYBLOCK
 62
0
100
AcDbLine
 10
137.9343509256721
 20
275.5555342032437
 30
0.0000000000000000
 11
100.5752881124348
 21
275.5555342032437
 31
0.0000000000000000
  0
LINE
  5
10D
100
AcDbEntity
  8
MAIN0
  6
BYBLOCK
 62
0
100
AcDbLine
 10
102.5752881124348
 20
273.5555342032437
 30
0.0000000000000000
 11
102.5752881124348
 21
260.5555342032437
 31
0.0000000000000000
  0
INSERT
  5
10E
100
AcDbEntity
  8
MAIN0
  6
BYBLOCK
 62
0
100
AcDbBlockReference
  2
_OPEN
 10
102.5752881124348
 20
275.5555342032437
 30
0.0000000000000000
 41
2.000000000000000
 42
2.000000000000000
 43
2.000000000000000
 50
90.00000000000000
  0
INSERT
  5
10F
100
AcDbEntity
  8
MAIN0
  6
BYBLOCK
 62
0
100
AcDbBlockReference
  2
_OPEN
 10
102.5752881124348
 20
258.5555342032437
 30
0.0000000000000000
 41
2.000000000000000
 42
2.000000000000000
 43
2.000000000000000
 50
270.0000000000000
  0
LINE
  5
110
100
AcDbEntity
  8
MAIN0
  6
BYBLOCK
 62
0
100
AcDbLine
 10
137.9343509259369
 20
258.5555342032437
 30
0.0000000000000000
 11
100.5752881124348
 21
258.5555342032437
 31
0.0000000000000000
  0
MTEXT
  5
111
100
AcDbEntity
  8
MAIN0
  6
BYBLOCK
 62
0
100
AcDbMText
 10
100.5252881601185
 20
267.0555342088316
 30
0.0000000000000000
 40
3.099999904632568
 41
0.0000000000000000
 71
     5
 72
     1
  1
\A1;\U+220517\H0.903226x;\S＋0.1^  0;
 11
6.123233995736766e-017
 21
1.000000000000000
 31
0.0000000000000000
  7
KNJYOKO
  0
ENDBLK
  5
112
100
AcDbEntity
  8
MAIN0
  6
CONTINUOUS
 62
3
100
AcDbBlockEnd
  0
BLOCK
  5
115
100
AcDbEntity
  8
MAIN0
  6
CONTINUOUS
 62
3
100
AcDbBlockBegin
  2
*D14
 70
    65
 10
0.0
 20
0.0
 30
0.0
  0
LINE
  5
116
100
AcDbEntity
  8
MAIN0
  6
BYBLOCK
 62
0
100
AcDbLine
 10
140.2343509376577
 20
269.5060055971476
 30
0.0000000000000000
 11
143.2343509376577
 21
269.5060055971476
 31
0.0000000000000000
  0
INSERT
  5
117
100
AcDbEntity
  8
MAIN0
  6
BYBLOCK
 62
0
100
AcDbBlockReference
  2
_OPEN
 10
138.2343509376577
 20
269.5060055971476
 30
0.0000000000000000
 41
2.000000000000000
 42
2.000000000000000
 43
2.000000000000000
 50
180.0000000000000
  0
INSERT
  5
118
100
AcDbEntity
  8
MAIN0
  6
BYBLOCK
 62
0
100
AcDbBlockReference
  2
_OPEN
 10
145.2343509376577
 20
269.5060055971476
 30
0.0000000000000000
 41
2.000000000000000
 42
2.000000000000000
 43
2.000000000000000
 50
0.0000000000000000
  0
MTEXT
  5
119
100
AcDbEntity
  8
MAIN0
  6
BYBLOCK
 62
0
100
AcDbMText
 10
141.7343509376577
 20
271.5560055494639
 30
0.0000000000000000
 40
3.099999904632568
 41
0.0000000000000000
 71
     5
 72
     1
  1
\A1;7
 11
1.000000000000000
 21
0.0000000000000000
 31
0.0000000000000000
  7
STANDARD
  0
ENDBLK
  5
11A
100
AcDbEntity
  8
MAIN0
  6
CONTINUOUS
 62
3
100
AcDbBlockEnd
  0
BLOCK
  5
11C
100
AcDbEntity
  8
MAIN0
  6
CONTINUOUS
 62
3
100
AcDbBlockBegin
  2
*D15
 70
    65
 10
0.0
 20
0.0
 30
0.0
  0
LINE
  5
11D
100
AcDbEntity
  8
MAIN0
  6
BYBLOCK
 62
0
100
AcDbLine
 10
147.2343509376577
 20
269.5060055971476
 30
0.0000000000000000
 11
169.2343509376577
 21
269.5060055971476
 31
0.0000000000000000
  0
INSERT
  5
11E
100
AcDbEntity
  8
MAIN0
  6
BYBLOCK
 62
0
100
AcDbBlockReference
  2
_OPEN
 10
145.2343509376577
 20
269.5060055971476
 30
0.0000000000000000
 41
2.000000000000000
 42
2.000000000000000
 43
2.000000000000000
 50
180.0000000000000
  0
INSERT
  5
11F
100
AcDbEntity
  8
MAIN0
  6
BYBLOCK
 62
0
100
AcDbBlockReference
  2
_OPEN
 10
171.2343509376577
 20
269.5060055971476
 30
0.0000000000000000
 41
2.000000000000000
 42
2.000000000000000
 43
2.000000000000000
 50
0.0000000000000000
  0
MTEXT
  5
120
100
AcDbEntity
  8
MAIN0
  6
BYBLOCK
 62
0
100
AcDbMText
 10
158.2343509376577
 20
271.5560055494639
 30
0.0000000000000000
 40
3.099999904632568
 41
0.0000000000000000
 71
     5
 72
     1
  1
\A1;26
 11
1.000000000000000
 21
0.0000000000000000
 31
0.0000000000000000
  7
STANDARD
  0
ENDBLK
  5
121
100
AcDbEntity
  8
MAIN0
  6
CONTINUOUS
 62
3
100
AcDbBlockEnd
  0
BLOCK
  5
175
100
AcDbEntity
  8
MAIN0
  6
CONTINUOUS
 62
3
100
AcDbBlockBegin
  2
*D16
 70
    65
 10
0.0
 20
0.0
 30
0.0
  0
LINE
  5
176
100
AcDbEntity
  8
MAIN0
  6
BYBLOCK
 62
0
100
AcDbLine
 10
247.0343509495765
 20
300.7555342032437
 30
0.0000000000000000
 11
291.0455003867274
 21
300.7555342032438
 31
0.0000000000000000
  0
LINE
  5
177
100
AcDbEntity
  8
MAIN0
  6
BYBLOCK
 62
0
100
AcDbLine
 10
289.0455003867274
 20
298.7555342032438
 30
0.0000000000000000
 11
289.0455003867276
 21
269.0555342032436
 31
0.0000000000000000
  0
INSERT
  5
178
100
AcDbEntity
  8
MAIN0
  6
BYBLOCK
 62
0
100
AcDbBlockReference
  2
_OPEN
 10
289.0455003867274
 20
300.7555342032438
 30
0.0000000000000000
 41
2.000000000000000
 42
2.000000000000000
 43
2.000000000000000
 50
90.00000000000023
  0
INSERT
  5
179
100
AcDbEntity
  8
MAIN0
  6
BYBLOCK
 62
0
100
AcDbBlockReference
  2
_OPEN
 10
289.0455003867276
 20
267.0555342032436
 30
0.0000000000000000
 41
2.000000000000000
 42
2.000000000000000
 43
2.000000000000000
 50
270.0000000000002
  0
MTEXT
  5
17A
100
AcDbEntity
  8
MAIN0
  6
BYBLOCK
 62
0
100
AcDbMText
 10
286.9570000259939
 20
284.2081878354916
 30
0.0000000000000000
 40
3.099999904632568
 41
0.0000000000000000
 71
     5
 72
     1
  1
\A1;MAX 34.4
 11
6.123233995736766e-017
 21
1.000000000000000
 31
0.0000000000000000
  7
STANDARD
  0
ENDBLK
  5
17B
100
AcDbEntity
  8
MAIN0
  6
CONTINUOUS
 62
3
100
AcDbBlockEnd
  0
BLOCK
  5
180
100
AcDbEntity
  8
MAIN0
  6
CONTINUOUS
 62
3
100
AcDbBlockBegin
  2
*D17
 70
    65
 10
0.0
 20
0.0
 30
0.0
  0
LINE
  5
181
100
AcDbEntity
  8
MAIN0
  6
BYBLOCK
 62
0
100
AcDbLine
 10
138.2343509376577
 20
279.4895088114213
 30
0.0000000000000000
 11
138.2343509376577
 21
297.3810829972546
 31
0.0000000000000000
  0
LINE
  5
182
100
AcDbEntity
  8
MAIN0
  6
BYBLOCK
 62
0
100
AcDbLine
 10
140.2343509376577
 20
295.3810829972546
 30
0.0000000000000000
 11
151.2343509376577
 21
295.3810829972546
 31
0.0000000000000000
  0
INSERT
  5
183
100
AcDbEntity
  8
MAIN0
  6
BYBLOCK
 62
0
100
AcDbBlockReference
  2
_OPEN
 10
138.2343509376577
 20
295.3810829972546
 30
0.0000000000000000
 41
2.000000000000000
 42
2.000000000000000
 43
2.000000000000000
 50
180.0000000000000
  0
INSERT
  5
184
100
AcDbEntity
  8
MAIN0
  6
BYBLOCK
 62
0
100
AcDbBlockReference
  2
_OPEN
 10
153.2343509376577
 20
295.3810829972546
 30
0.0000000000000000
 41
2.000000000000000
 42
2.000000000000000
 43
2.000000000000000
 50
0.0000000000000000
  0
LINE
  5
185
100
AcDbEntity
  8
MAIN0
  6
BYBLOCK
 62
0
100
AcDbLine
 10
138.2343509376577
 20
295.3810829972546
 30
0.0000000000000000
 11
125.0932614982656
 21
295.3810829972546
 31
0.0000000000000000
  0
MTEXT
  5
186
100
AcDbEntity
  8
MAIN0
  6
BYBLOCK
 62
0
100
AcDbMText
 10
131.3932619617447
 20
297.4310829495709
 30
0.0000000000000000
 40
3.099999904632568
 41
0.0000000000000000
 71
     5
 72
     1
  1
\A1;MAX 18
 11
1.000000000000000
 21
0.0000000000000000
 31
0.0000000000000000
  7
STANDARD
  0
ENDBLK
  5
187
100
AcDbEntity
  8
MAIN0
  6
CONTINUOUS
 62
3
100
AcDbBlockEnd
  0
BLOCK
  5
1B3
100
AcDbEntity
  8
MAIN0
  6
CONTINUOUS
 62
3
100
AcDbBlockBegin
  2
*D18
 70
    65
 10
0.0
 20
0.0
 30
0.0
  0
LINE
  5
1B4
100
AcDbEntity
  8
MAIN0
  6
BYBLOCK
 62
0
100
AcDbLine
 10
247.0343509495765
 20
300.7555342032437
 30
0.0000000000000000
 11
291.0455003867274
 21
300.7555342032437
 31
0.0000000000000000
  0
LINE
  5
1B5
100
AcDbEntity
  8
MAIN0
  6
BYBLOCK
 62
0
100
AcDbLine
 10
289.0455003867274
 20
298.7555342032437
 30
0.0000000000000000
 11
289.0455003867274
 21
269.0555342032437
 31
0.0000000000000000
  0
INSERT
  5
1B6
100
AcDbEntity
  8
MAIN0
  6
BYBLOCK
 62
0
100
AcDbBlockReference
  2
_OPEN
 10
289.0455003867274
 20
300.7555342032437
 30
0.0000000000000000
 41
2.000000000000000
 42
2.000000000000000
 43
2.000000000000000
 50
90.00000000000000
  0
INSERT
  5
1B7
100
AcDbEntity
  8
MAIN0
  6
BYBLOCK
 62
0
100
AcDbBlockReference
  2
_OPEN
 10
289.0455003867274
 20
267.0555342032437
 30
0.0000000000000000
 41
2.000000000000000
 42
2.000000000000000
 43
2.000000000000000
 50
270.0000000000000
  0
MTEXT
  5
1B8
100
AcDbEntity
  8
MAIN0
  6
BYBLOCK
 62
0
100
AcDbMText
 10
291.1407167623413
 20
282.6066014383219
 30
0.0000000000000000
 40
3.099999904632568
 41
0.0000000000000000
 71
     5
 72
     1
  1
\A1;MIN 33
 11
6.123233995736766e-017
 21
1.000000000000000
 31
0.0000000000000000
  7
STANDARD
  0
ENDBLK
  5
1B9
100
AcDbEntity
  8
MAIN0
  6
CONTINUOUS
 62
3
100
AcDbBlockEnd
  0
BLOCK
  5
1BB
100
AcDbEntity
  8
MAIN0
  6
CONTINUOUS
 62
3
100
AcDbBlockBegin
  2
D19
 70
    64
 10
0.0
 20
0.0
 30
0.0
  0
LINE
  5
1BC
100
AcDbEntity
  8
MAIN0
  6
BYBLOCK
 62
0
100
AcDbLine
 10
-31.41583332089242
 20
2.022072117001420
 30
0.0000000000000000
 11
-31.41583332089242
 21
14.70000000000001
 31
0.0000000000000000
  0
LINE
  5
1BD
100
AcDbEntity
  8
MAIN0
  6
BYBLOCK
 62
0
100
AcDbLine
 10
-32.01583334473428
 20
12.70000000000001
 30
0.0000000000000000
 11
-31.41583332089242
 21
14.70000000000001
 31
0.0000000000000000
  0
LINE
  5
1BE
100
AcDbEntity
  8
MAIN0
  6
BYBLOCK
 62
0
100
AcDbLine
 10
-31.41583332089242
 20
14.70000000000001
 30
0.0000000000000000
 11
-30.81583329705056
 21
12.70000000000001
 31
0.0000000000000000
  0
LINE
  5
1BF
100
AcDbEntity
  8
MAIN0
  6
BYBLOCK
 62
0
100
AcDbLine
 10
-52.14085586629118
 20
14.70000000000000
 30
0.0000000000000000
 11
-29.41583332089242
 21
14.70000000000001
 31
0.0000000000000000
  0
MTEXT
  5
1C0
100
AcDbEntity
  8
MAIN0
  6
BYBLOCK
 62
0
100
AcDbMText
 10
-33.46583327320870
 20
7.725781961501246
 30
0.0000000000000000
 40
3.099999904632568
 41
0.0000000000000000
 71
     5
 72
     1
  1
\A1;\U+220529.4
 11
6.123233995736766e-017
 21
1.000000000000000
 31
0.0000000000000000
  7
STANDARD
  0
ENDBLK
  5
1C1
100
AcDbEntity
  8
MAIN0
  6
CONTINUOUS
 62
3
100
AcDbBlockEnd
  0
BLOCK
  5
1C3
100
AcDbEntity
  8
MAIN0
  6
CONTINUOUS
 62
3
100
AcDbBlockBegin
  2
D20
 70
    64
 10
0.0
 20
0.0
 30
0.0
  0
LINE
  5
1C4
100
AcDbEntity
  8
MAIN0
  6
BYBLOCK
 62
0
100
AcDbLine
 10
-41.40337418943281
 20
-1.127744793891906
 30
0.0000000000000000
 11
-41.40337418943280
 21
-11.99999999999998
 31
0.0000000000000000
  0
LINE
  5
1C5
100
AcDbEntity
  8
MAIN0
  6
BYBLOCK
 62
0
100
AcDbLine
 10
-40.80337416559095
 20
-9.999999999999981
 30
0.0000000000000000
 11
-41.40337418943280
 21
-11.99999999999998
 31
0.0000000000000000
  0
LINE
  5
1C6
100
AcDbEntity
  8
MAIN0
  6
BYBLOCK
 62
0
100
AcDbLine
 10
-41.40337418943280
 20
-11.99999999999998
 30
0.0000000000000000
 11
-42.00337421327466
 21
-9.999999999999981
 31
0.0000000000000000
  0
LINE
  5
1C7
100
AcDbEntity
  8
MAIN0
  6
BYBLOCK
 62
0
100
AcDbLine
 10
-74.53316071185850
 20
-11.99999999999999
 30
0.0000000000000000
 11
-39.40337418943280
 21
-11.99999999999998
 31
0.0000000000000000
  0
MTEXT
  5
1C8
100
AcDbEntity
  8
MAIN0
  6
BYBLOCK
 62
0
100
AcDbMText
 10
-43.45337414174909
 20
-5.210962304997730
 30
0.0000000000000000
 40
3.099999904632568
 41
0.0000000000000000
 71
     5
 72
     1
  1
\A1;\U+220524
 11
6.123233995736766e-017
 21
1.000000000000000
 31
0.0000000000000000
  7
STANDARD
  0
ENDBLK
  5
1C9
100
AcDbEntity
  8
MAIN0
  6
CONTINUOUS
 62
3
100
AcDbBlockEnd
  0
BLOCK
  5
1CB
100
AcDbEntity
  8
MAIN0
  6
CONTINUOUS
 62
3
100
AcDbBlockBegin
  2
D21
 70
    64
 10
0.0
 20
0.0
 30
0.0
  0
LINE
  5
1CC
100
AcDbEntity
  8
MAIN0
  6
BYBLOCK
 62
0
100
AcDbLine
 10
-20.60724960650842
 20
16.59869359385283
 30
0.0000000000000000
 11
-20.60724960650841
 21
32.70000000000000
 31
0.0000000000000000
  0
LINE
  5
1CD
100
AcDbEntity
  8
MAIN0
  6
BYBLOCK
 62
0
100
AcDbLine
 10
-21.20724963035027
 20
30.70000000000000
 30
0.0000000000000000
 11
-20.60724960650841
 21
32.70000000000000
 31
0.0000000000000000
  0
LINE
  5
1CE
100
AcDbEntity
  8
MAIN0
  6
BYBLOCK
 62
0
100
AcDbLine
 10
-20.60724960650841
 20
32.70000000000000
 30
0.0000000000000000
 11
-20.00724958266655
 21
30.70000000000000
 31
0.0000000000000000
  0
LINE
  5
1CF
100
AcDbEntity
  8
MAIN0
  6
BYBLOCK
 62
0
100
AcDbLine
 10
-72.14085586629048
 20
32.70000000000000
 30
0.0000000000000000
 11
-18.60724960650841
 21
32.70000000000000
 31
0.0000000000000000
  0
MTEXT
  5
1D0
100
AcDbEntity
  8
MAIN0
  6
BYBLOCK
 62
0
100
AcDbMText
 10
-22.65724955882470
 20
21.59869357082170
 30
0.0000000000000000
 40
3.099999904632568
 41
0.0000000000000000
 71
     5
 72
     1
  1
\A1;\U+220565.4
 11
6.123233995736766e-017
 21
1.000000000000000
 31
0.0000000000000000
  7
STANDARD
  0
ENDBLK
  5
1D1
100
AcDbEntity
  8
MAIN0
  6
CONTINUOUS
 62
3
100
AcDbBlockEnd
  0
BLOCK
  5
217
100
AcDbEntity
  8
MAIN0
  6
BYBLOCK
 62
3
100
AcDbBlockBegin
  2
M0
 70
    64
 10
0.0
 20
0.0
 30
0.0
  0
LINE
  5
218
100
AcDbEntity
  8
MAIN0
  6
BYBLOCK
 62
0
100
AcDbLine
 10
378.9808050612589
 20
131.4845859440058
 30
0.0000000000000000
 11
473.9808050612588
 21
131.4845859440058
 31
0.0000000000000000
  0
LINE
  5
219
100
AcDbEntity
  8
MAIN0
  6
BYBLOCK
 62
0
100
AcDbLine
 10
378.9808050612589
 20
126.4845859440059
 30
0.0000000000000000
 11
473.9808050612588
 21
126.4845859440059
 31
0.0000000000000000
  0
LINE
  5
21A
100
AcDbEntity
  8
MAIN0
  6
BYBLOCK
 62
0
100
AcDbLine
 10
378.9808050612589
 20
121.4845859440059
 30
0.0000000000000000
 11
473.9808050612588
 21
121.4845859440059
 31
0.0000000000000000
  0
MTEXT
  5
21B
100
AcDbEntity
  8
MAIN0
  6
BYBLOCK
 62
0
100
AcDbMText
 10
379.9808050612589
 20
135.0845858486383
 30
0.0000000000000000
 40
3.099999904632568
 41
0.0000000000000000
 71
     1
 72
     1
  1
{\H0.88x;1.}
 11
1.000000000000000
 21
0.0000000000000000
 31
0.0000000000000000
  7
STANDARD
  0
MTEXT
  5
21C
100
AcDbEntity
  8
MAIN0
  6
BYBLOCK
 62
0
100
AcDbMText
 10
379.9808050612589
 20
125.0845858486383
 30
0.0000000000000000
 40
3.099999904632568
 41
0.0000000000000000
 71
     1
 72
     1
  1
{\H0.88x;2.}
 11
1.000000000000000
 21
0.0000000000000000
 31
0.0000000000000000
  7
STANDARD
  0
MTEXT
  5
21D
100
AcDbEntity
  8
MAIN0
  6
BYBLOCK
 62
0
100
AcDbMText
 10
380.4808050612589
 20
145.4845859440060
 30
0.0000000000000000
 40
6.000000000000000
 41
0.0000000000000000
 71
     1
 72
     1
  1
{\H0.80x;注　記}
 11
1.000000000000000
 21
0.0000000000000000
 31
0.0000000000000000
  7
KNJYOKO
  0
LINE
  5
21E
100
AcDbEntity
  8
MAIN0
  6
BYBLOCK
 62
0
100
AcDbLine
 10
398.9808050612589
 20
146.9845859440061
 30
0.0000000000000000
 11
398.9808050612589
 21
137.9845859440061
 31
0.0000000000000000
  0
LINE
  5
21F
100
AcDbEntity
  8
MAIN0
  6
BYBLOCK
 62
0
100
AcDbLine
 10
378.9808050612589
 20
137.9845859440061
 30
0.0000000000000000
 11
398.9808050612589
 21
137.9845859440061
 31
0.0000000000000000
  0
LINE
  5
220
100
AcDbEntity
  8
MAIN0
  6
BYBLOCK
 62
0
100
AcDbLine
 10
378.9808050612589
 20
146.9845859440061
 30
0.0000000000000000
 11
378.9808050612589
 21
137.9845859440061
 31
0.0000000000000000
  0
LINE
  5
221
100
AcDbEntity
  8
MAIN0
  6
BYBLOCK
 62
0
100
AcDbLine
 10
378.9808050612589
 20
146.9845859440061
 30
0.0000000000000000
 11
398.9808050612589
 21
146.9845859440061
 31
0.0000000000000000
  0
ENDBLK
  5
222
100
AcDbEntity
  8
MAIN0
  6
BYBLOCK
 62
3
100
AcDbBlockEnd
  0
BLOCK
  5
225
100
AcDbEntity
  8
MAIN0
  6
BYBLOCK
 62
3
100
AcDbBlockBegin
  2
M1
 70
    64
 10
0.0
 20
0.0
 30
0.0
  0
LINE
  5
226
100
AcDbEntity
  8
MAIN0
  6
BYBLOCK
 62
0
100
AcDbLine
 10
378.9808050612592
 20
91.05037483030543
 30
0.0000000000000000
 11
505.4954286024084
 21
91.05037483030543
 31
0.0000000000000000
  0
LINE
  5
227
100
AcDbEntity
  8
MAIN0
  6
BYBLOCK
 62
0
100
AcDbLine
 10
378.9808050612592
 20
86.05037483030543
 30
0.0000000000000000
 11
505.4954286024084
 21
86.05037483030543
 31
0.0000000000000000
  0
LINE
  5
228
100
AcDbEntity
  8
MAIN0
  6
BYBLOCK
 62
0
100
AcDbLine
 10
378.9808050612592
 20
81.05037483030543
 30
0.0000000000000000
 11
505.4954286024084
 21
81.05037483030543
 31
0.0000000000000000
  0
LINE
  5
229
100
AcDbEntity
  8
MAIN0
  6
BYBLOCK
 62
0
100
AcDbLine
 10
378.9808050612592
 20
76.05037483030543
 30
0.0000000000000000
 11
505.4954286024084
 21
76.05037483030543
 31
0.0000000000000000
  0
MTEXT
  5
22A
100
AcDbEntity
  8
MAIN0
  6
BYBLOCK
 62
0
100
AcDbMText
 10
379.9808050612592
 20
94.65037473493791
 30
0.0000000000000000
 40
3.099999904632568
 41
0.0000000000000000
 71
     1
 72
     1
  1
{\H0.88x;1.}
 11
1.000000000000000
 21
0.0000000000000000
 31
0.0000000000000000
  7
STANDARD
  0
MTEXT
  5
22B
100
AcDbEntity
  8
MAIN0
  6
BYBLOCK
 62
0
100
AcDbMText
 10
379.9808050612592
 20
84.65037473493800
 30
0.0000000000000000
 40
3.099999904632568
 41
0.0000000000000000
 71
     1
 72
     1
  1
{\H0.88x;2.}
 11
1.000000000000000
 21
0.0000000000000000
 31
0.0000000000000000
  7
STANDARD
  0
MTEXT
  5
22C
100
AcDbEntity
  8
MAIN0
  6
BYBLOCK
 62
0
100
AcDbMText
 10
380.4808050612592
 20
104.0503748303056
 30
0.0000000000000000
 40
5.000000000000000
 41
0.0000000000000000
 71
     1
 72
     1
  1
{\H0.63x;NOTICE}
 11
1.000000000000000
 21
0.0000000000000000
 31
0.0000000000000000
  7
STANDARD
  0
LINE
  5
22D
100
AcDbEntity
  8
MAIN0
  6
BYBLOCK
 62
0
100
AcDbLine
 10
398.9808050612592
 20
106.5503748303057
 30
0.0000000000000000
 11
398.9808050612592
 21
97.55037483030566
 31
0.0000000000000000
  0
LINE
  5
22E
100
AcDbEntity
  8
MAIN0
  6
BYBLOCK
 62
0
100
AcDbLine
 10
378.9808050612592
 20
97.55037483030566
 30
0.0000000000000000
 11
398.9808050612592
 21
97.55037483030566
 31
0.0000000000000000
  0
LINE
  5
22F
100
AcDbEntity
  8
MAIN0
  6
BYBLOCK
 62
0
100
AcDbLine
 10
378.9808050612592
 20
106.5503748303057
 30
0.0000000000000000
 11
378.9808050612592
 21
97.55037483030566
 31
0.0000000000000000
  0
LINE
  5
230
100
AcDbEntity
  8
MAIN0
  6
BYBLOCK
 62
0
100
AcDbLine
 10
378.9808050612592
 20
106.5503748303057
 30
0.0000000000000000
 11
398.9808050612592
 21
106.5503748303057
 31
0.0000000000000000
  0
ENDBLK
  5
231
100
AcDbEntity
  8
MAIN0
  6
BYBLOCK
 62
3
100
AcDbBlockEnd
  0
BLOCK
  5
243
100
AcDbEntity
  8
MAIN0
  6
CONTINUOUS
 62
3
100
AcDbBlockBegin
  2
*D22
 70
    65
 10
0.0
 20
0.0
 30
0.0
  0
LINE
  5
244
100
AcDbEntity
  8
MAIN0
  6
BYBLOCK
 62
0
100
AcDbLine
 10
246.4099295484547
 20
301.5597587710389
 30
0.0000000000000000
 11
246.4099295484547
 21
365.5258008174639
 31
0.0000000000000000
  0
LINE
  5
245
100
AcDbEntity
  8
MAIN0
  6
BYBLOCK
 62
0
100
AcDbLine
 10
244.4099295484547
 20
363.5258008174639
 30
0.0000000000000000
 11
238.4099295484502
 21
363.5258008174639
 31
0.0000000000000000
  0
INSERT
  5
246
100
AcDbEntity
  8
MAIN0
  6
BYBLOCK
 62
0
100
AcDbBlockReference
  2
_OPEN
 10
246.4099295484547
 20
363.5258008174639
 30
0.0000000000000000
 41
2.000000000000000
 42
2.000000000000000
 43
2.000000000000000
 50
360.0000000000000
  0
INSERT
  5
247
100
AcDbEntity
  8
MAIN0
  6
BYBLOCK
 62
0
100
AcDbBlockReference
  2
_OPEN
 10
236.4099295484502
 20
363.5258008174639
 30
0.0000000000000000
 41
2.000000000000000
 42
2.000000000000000
 43
2.000000000000000
 50
180.0000000000000
  0
LINE
  5
248
100
AcDbEntity
  8
MAIN0
  6
BYBLOCK
 62
0
100
AcDbLine
 10
236.4099295484530
 20
303.0950093050585
 30
0.0000000000000000
 11
236.4099295484501
 21
365.5258008174639
 31
0.0000000000000000
  0
MTEXT
  5
249
100
AcDbEntity
  8
MAIN0
  6
BYBLOCK
 62
0
100
AcDbMText
 10
241.4099295484525
 20
365.5758007697801
 30
0.0000000000000000
 40
3.099999904632568
 41
0.0000000000000000
 71
     5
 72
     1
  1
\A1;10
 11
1.000000000000000
 21
0.0000000000000000
 31
0.0000000000000000
  7
STANDARD
  0
ENDBLK
  5
24A
100
AcDbEntity
  8
MAIN0
  6
CONTINUOUS
 62
3
100
AcDbBlockEnd
  0
BLOCK
  5
24C
100
AcDbEntity
  8
MAIN0
  6
CONTINUOUS
 62
3
100
AcDbBlockBegin
  2
*D23
 70
    65
 10
0.0
 20
0.0
 30
0.0
  0
LINE
  5
24D
100
AcDbEntity
  8
MAIN0
  6
BYBLOCK
 62
0
100
AcDbLine
 10
220.2343509376577
 20
334.3555342151645
 30
0.0000000000000000
 11
220.2343509376577
 21
377.3606787894768
 31
0.0000000000000000
  0
LINE
  5
24E
100
AcDbEntity
  8
MAIN0
  6
BYBLOCK
 62
0
100
AcDbLine
 10
220.2343509376577
 20
375.3606787894768
 30
0.0000000000000000
 11
226.4099295484573
 21
375.3606787894768
 31
0.0000000000000000
  0
INSERT
  5
24F
100
AcDbEntity
  8
MAIN0
  6
BYBLOCK
 62
0
100
AcDbBlockReference
  2
_OPEN
 10
220.2343509376577
 20
375.3606787894768
 30
0.0000000000000000
 41
2.000000000000000
 42
2.000000000000000
 43
2.000000000000000
 50
0.0000000000000000
  0
INSERT
  5
250
100
AcDbEntity
  8
MAIN0
  6
BYBLOCK
 62
0
100
AcDbBlockReference
  2
_OPEN
 10
226.4099295484573
 20
375.3606787894768
 30
0.0000000000000000
 41
2.000000000000000
 42
2.000000000000000
 43
2.000000000000000
 50
180.0000000000000
  0
LINE
  5
251
100
AcDbEntity
  8
MAIN0
  6
BYBLOCK
 62
0
100
AcDbLine
 10
218.2343509376577
 20
375.3606787894768
 30
0.0000000000000000
 11
217.2343509376577
 21
375.3606787894768
 31
0.0000000000000000
  0
LINE
  5
252
100
AcDbEntity
  8
MAIN0
  6
BYBLOCK
 62
0
100
AcDbLine
 10
228.4099295484573
 20
375.3606787894768
 30
0.0000000000000000
 11
229.4099295484573
 21
375.3606787894768
 31
0.0000000000000000
  0
LINE
  5
253
100
AcDbEntity
  8
MAIN0
  6
BYBLOCK
 62
0
100
AcDbLine
 10
226.4099295484573
 20
301.5597587710390
 30
0.0000000000000000
 11
226.4099295484573
 21
377.3606787894768
 31
0.0000000000000000
  0
MTEXT
  5
254
100
AcDbEntity
  8
MAIN0
  6
BYBLOCK
 62
0
100
AcDbMText
 10
223.3221402430575
 20
377.4106787417931
 30
0.0000000000000000
 40
3.099999904632568
 41
0.0000000000000000
 71
     5
 72
     1
  1
\A1;6.2
 11
1.000000000000000
 21
0.0000000000000000
 31
0.0000000000000000
  7
STANDARD
  0
ENDBLK
  5
255
100
AcDbEntity
  8
MAIN0
  6
CONTINUOUS
 62
3
100
AcDbBlockEnd
  0
BLOCK
  5
257
100
AcDbEntity
  8
MAIN0
  6
CONTINUOUS
 62
3
100
AcDbBlockBegin
  2
*D24
 70
    65
 10
0.0
 20
0.0
 30
0.0
  0
LINE
  5
258
100
AcDbEntity
  8
MAIN0
  6
BYBLOCK
 62
0
100
AcDbLine
 10
226.4099295484573
 20
301.5597587710390
 30
0.0000000000000000
 11
226.4099295484573
 21
377.3606787894768
 31
0.0000000000000000
  0
LINE
  5
259
100
AcDbEntity
  8
MAIN0
  6
BYBLOCK
 62
0
100
AcDbLine
 10
228.4099295484573
 20
375.3606787894768
 30
0.0000000000000000
 11
244.4099295484547
 21
375.3606787894768
 31
0.0000000000000000
  0
INSERT
  5
25A
100
AcDbEntity
  8
MAIN0
  6
BYBLOCK
 62
0
100
AcDbBlockReference
  2
_OPEN
 10
226.4099295484573
 20
375.3606787894768
 30
0.0000000000000000
 41
2.000000000000000
 42
2.000000000000000
 43
2.000000000000000
 50
180.0000000000000
  0
INSERT
  5
25B
100
AcDbEntity
  8
MAIN0
  6
BYBLOCK
 62
0
100
AcDbBlockReference
  2
_OPEN
 10
246.4099295484547
 20
375.3606787894768
 30
0.0000000000000000
 41
2.000000000000000
 42
2.000000000000000
 43
2.000000000000000
 50
0.0000000000000000
  0
LINE
  5
25C
100
AcDbEntity
  8
MAIN0
  6
BYBLOCK
 62
0
100
AcDbLine
 10
246.4099295484547
 20
301.5597587710389
 30
0.0000000000000000
 11
246.4099295484547
 21
377.3606787894768
 31
0.0000000000000000
  0
MTEXT
  5
25D
100
AcDbEntity
  8
MAIN0
  6
BYBLOCK
 62
0
100
AcDbMText
 10
236.4099295484560
 20
377.4106787417931
 30
0.0000000000000000
 40
3.099999904632568
 41
0.0000000000000000
 71
     5
 72
     1
  1
\A1;20
 11
1.000000000000000
 21
0.0000000000000000
 31
0.0000000000000000
  7
STANDARD
  0
ENDBLK
  5
25E
100
AcDbEntity
  8
MAIN0
  6
CONTINUOUS
 62
3
100
AcDbBlockEnd
  0
BLOCK
  5
260
100
AcDbEntity
  8
MAIN0
  6
CONTINUOUS
 62
3
100
AcDbBlockBegin
  2
*D25
 70
    65
 10
0.0
 20
0.0
 30
0.0
  0
LINE
  5
261
100
AcDbEntity
  8
MAIN0
  6
BYBLOCK
 62
0
100
AcDbLine
 10
249.2343508544089
 20
271.7134925992848
 30
0.0000000000000000
 11
249.2343508544088
 21
209.7215349773792
 31
0.0000000000000000
  0
LINE
  5
262
100
AcDbEntity
  8
MAIN0
  6
BYBLOCK
 62
0
100
AcDbLine
 10
249.2343508544088
 20
211.7215349773792
 30
0.0000000000000000
 11
246.2343509376576
 21
211.7215349773792
 31
0.0000000000000000
  0
INSERT
  5
263
100
AcDbEntity
  8
MAIN0
  6
BYBLOCK
 62
0
100
AcDbBlockReference
  2
_OPEN
 10
249.2343508544088
 20
211.7215349773792
 30
0.0000000000000000
 41
2.000000000000000
 42
2.000000000000000
 43
2.000000000000000
 50
180.0000000000000
  0
INSERT
  5
264
100
AcDbEntity
  8
MAIN0
  6
BYBLOCK
 62
0
100
AcDbBlockReference
  2
_OPEN
 10
246.2343509376576
 20
211.7215349773792
 30
0.0000000000000000
 41
2.000000000000000
 42
2.000000000000000
 43
2.000000000000000
 50
360.0000000000000
  0
LINE
  5
265
100
AcDbEntity
  8
MAIN0
  6
BYBLOCK
 62
0
100
AcDbLine
 10
251.2343508544088
 20
211.7215349773792
 30
0.0000000000000000
 11
262.8331229033590
 21
211.7215349773792
 31
0.0000000000000000
  0
LINE
  5
266
100
AcDbEntity
  8
MAIN0
  6
BYBLOCK
 62
0
100
AcDbLine
 10
244.2343509376576
 20
211.7215349773792
 30
0.0000000000000000
 11
243.2343509376576
 21
211.7215349773792
 31
0.0000000000000000
  0
LINE
  5
267
100
AcDbEntity
  8
MAIN0
  6
BYBLOCK
 62
0
100
AcDbLine
 10
246.2343509376576
 20
260.2555341913209
 30
0.0000000000000000
 11
246.2343509376576
 21
209.7215349773792
 31
0.0000000000000000
  0
MTEXT
  5
268
100
AcDbEntity
  8
MAIN0
  6
BYBLOCK
 62
0
100
AcDbMText
 10
257.5831230212439
 20
213.7715349296955
 30
0.0000000000000000
 40
3.099999904632568
 41
0.0000000000000000
 71
     5
 72
     1
  1
\A1;MAX 3
 11
1.000000000000000
 21
0.0000000000000000
 31
0.0000000000000000
  7
STANDARD
  0
ENDBLK
  5
269
100
AcDbEntity
  8
MAIN0
  6
CONTINUOUS
 62
3
100
AcDbBlockEnd
  0
BLOCK
  5
26B
100
AcDbEntity
  8
MAIN0
  6
CONTINUOUS
 62
3
100
AcDbBlockBegin
  2
*D26
 70
    65
 10
0.0
 20
0.0
 30
0.0
  0
LINE
  5
26C
100
AcDbEntity
  8
MAIN0
  6
BYBLOCK
 62
0
100
AcDbLine
 10
246.2343509376576
 20
260.2555341913209
 30
0.0000000000000000
 11
246.2343509376576
 21
234.6099704134686
 31
0.0000000000000000
  0
LINE
  5
26D
100
AcDbEntity
  8
MAIN0
  6
BYBLOCK
 62
0
100
AcDbLine
 10
246.2343509376576
 20
236.6099704134686
 30
0.0000000000000000
 11
246.4099295484548
 21
236.6099704134686
 31
0.0000000000000000
  0
INSERT
  5
26E
100
AcDbEntity
  8
MAIN0
  6
BYBLOCK
 62
0
100
AcDbBlockReference
  2
_OPEN
 10
246.2343509376576
 20
236.6099704134686
 30
0.0000000000000000
 41
2.000000000000000
 42
2.000000000000000
 43
2.000000000000000
 50
0.0000000000000000
  0
INSERT
  5
26F
100
AcDbEntity
  8
MAIN0
  6
BYBLOCK
 62
0
100
AcDbBlockReference
  2
_OPEN
 10
246.4099295484548
 20
236.6099704134686
 30
0.0000000000000000
 41
2.000000000000000
 42
2.000000000000000
 43
2.000000000000000
 50
180.0000000000000
  0
LINE
  5
270
100
AcDbEntity
  8
MAIN0
  6
BYBLOCK
 62
0
100
AcDbLine
 10
244.2343509376576
 20
236.6099704134686
 30
0.0000000000000000
 11
237.7088830650380
 21
236.6099704134686
 31
0.0000000000000000
  0
LINE
  5
271
100
AcDbEntity
  8
MAIN0
  6
BYBLOCK
 62
0
100
AcDbLine
 10
248.4099295484548
 20
236.6099704134686
 30
0.0000000000000000
 11
249.4099295484548
 21
236.6099704134686
 31
0.0000000000000000
  0
LINE
  5
272
100
AcDbEntity
  8
MAIN0
  6
BYBLOCK
 62
0
100
AcDbLine
 10
246.4099295484548
 20
269.9967470736356
 30
0.0000000000000000
 11
246.4099295484548
 21
234.6099704134686
 31
0.0000000000000000
  0
MTEXT
  5
273
100
AcDbEntity
  8
MAIN0
  6
BYBLOCK
 62
0
100
AcDbMText
 10
240.3588829893118
 20
238.6599703657849
 30
0.0000000000000000
 40
3.099999904632568
 41
0.0000000000000000
 71
     5
 72
     1
  1
\A1;0.2
 11
1.000000000000000
 21
0.0000000000000000
 31
0.0000000000000000
  7
STANDARD
  0
ENDBLK
  5
274
100
AcDbEntity
  8
MAIN0
  6
CONTINUOUS
 62
3
100
AcDbBlockEnd
  0
BLOCK
  5
2A0
100
AcDbEntity
  8
MAIN0
  6
CONTINUOUS
 62
3
100
AcDbBlockBegin
  2
*D27
 70
    65
 10
0.0
 20
0.0
 30
0.0
  0
LINE
  5
2A1
100
AcDbEntity
  8
MAIN0
  6
BYBLOCK
 62
0
100
AcDbLine
 10
439.1515203776257
 20
297.9564327637997
 30
0.0000000000000000
 11
439.1515203776257
 21
348.1173204891265
 31
0.0000000000000000
  0
LINE
  5
2A2
100
AcDbEntity
  8
MAIN0
  6
BYBLOCK
 62
0
100
AcDbLine
 10
437.1515203776257
 20
346.1173204891265
 30
0.0000000000000000
 11
417.1515203776257
 21
346.1173204891265
 31
0.0000000000000000
  0
INSERT
  5
2A3
100
AcDbEntity
  8
MAIN0
  6
BYBLOCK
 62
0
100
AcDbBlockReference
  2
_OPEN
 10
439.1515203776257
 20
346.1173204891265
 30
0.0000000000000000
 41
2.000000000000000
 42
2.000000000000000
 43
2.000000000000000
 50
360.0000000000000
  0
INSERT
  5
2A4
100
AcDbEntity
  8
MAIN0
  6
BYBLOCK
 62
0
100
AcDbBlockReference
  2
_OPEN
 10
415.1515203776257
 20
346.1173204891265
 30
0.0000000000000000
 41
2.000000000000000
 42
2.000000000000000
 43
2.000000000000000
 50
180.0000000000000
  0
LINE
  5
2A5
100
AcDbEntity
  8
MAIN0
  6
BYBLOCK
 62
0
100
AcDbLine
 10
415.1515203776257
 20
298.2184826772061
 30
0.0000000000000000
 11
415.1515203776257
 21
348.1173204891265
 31
0.0000000000000000
  0
MTEXT
  5
2A6
100
AcDbEntity
  8
MAIN0
  6
BYBLOCK
 62
0
100
AcDbMText
 10
427.1515203776257
 20
348.1673204414428
 30
0.0000000000000000
 40
3.099999904632568
 41
0.0000000000000000
 71
     5
 72
     1
  1
\A1;24
 11
1.000000000000000
 21
0.0000000000000000
 31
0.0000000000000000
  7
STANDARD
  0
ENDBLK
  5
2A7
100
AcDbEntity
  8
MAIN0
  6
CONTINUOUS
 62
3
100
AcDbBlockEnd
  0
BLOCK
  5
346
100
AcDbEntity
  8
MAIN0
  6
CONTINUOUS
 62
3
100
AcDbBlockBegin
  2
*D28
 70
    65
 10
0.0
 20
0.0
 30
0.0
  0
LINE
  5
347
100
AcDbEntity
  8
MAIN0
  6
BYBLOCK
 62
0
100
AcDbLine
 10
439.1515203776257
 20
298.3037504594174
 30
0.0000000000000000
 11
439.1515203776257
 21
348.1173204891265
 31
0.0000000000000000
  0
LINE
  5
348
100
AcDbEntity
  8
MAIN0
  6
BYBLOCK
 62
0
100
AcDbLine
 10
437.1515203776257
 20
346.1173204891265
 30
0.0000000000000000
 11
417.1515203776257
 21
346.1173204891265
 31
0.0000000000000000
  0
INSERT
  5
349
100
AcDbEntity
  8
MAIN0
  6
BYBLOCK
 62
0
100
AcDbBlockReference
  2
_OPEN
 10
439.1515203776257
 20
346.1173204891265
 30
0.0000000000000000
 41
2.000000000000000
 42
2.000000000000000
 43
2.000000000000000
 50
360.0000000000000
  0
INSERT
  5
34A
100
AcDbEntity
  8
MAIN0
  6
BYBLOCK
 62
0
100
AcDbBlockReference
  2
_OPEN
 10
415.1515203776257
 20
346.1173204891265
 30
0.0000000000000000
 41
2.000000000000000
 42
2.000000000000000
 43
2.000000000000000
 50
180.0000000000000
  0
LINE
  5
34B
100
AcDbEntity
  8
MAIN0
  6
BYBLOCK
 62
0
100
AcDbLine
 10
415.1515203776257
 20
297.7671460549679
 30
0.0000000000000000
 11
415.1515203776257
 21
348.1173204891265
 31
0.0000000000000000
  0
MTEXT
  5
34C
100
AcDbEntity
  8
MAIN0
  6
BYBLOCK
 62
0
100
AcDbMText
 10
427.1515203776257
 20
348.1673204414428
 30
0.0000000000000000
 40
3.099999904632568
 41
0.0000000000000000
 71
     5
 72
     1
  1
\A1;24
 11
1.000000000000000
 21
0.0000000000000000
 31
0.0000000000000000
  7
STANDARD
  0
ENDBLK
  5
34D
100
AcDbEntity
  8
MAIN0
  6
CONTINUOUS
 62
3
100
AcDbBlockEnd
  0
BLOCK
  5
34F
100
AcDbEntity
  8
MAIN0
  6
CONTINUOUS
 62
3
100
AcDbBlockBegin
  2
*D29
 70
    65
 10
0.0
 20
0.0
 30
0.0
  0
LINE
  5
350
100
AcDbEntity
  8
MAIN0
  6
BYBLOCK
 62
0
100
AcDbLine
 10
404.3855542602457
 20
235.0518404829510
 30
0.0000000000000000
 11
449.9174864950059
 21
299.0592279235364
 31
0.0000000000000000
  0
INSERT
  5
351
100
AcDbEntity
  8
MAIN0
  6
BYBLOCK
 62
0
100
AcDbBlockReference
  2
_OPEN
 10
403.2262434458660
 20
233.4221170598934
 30
0.0000000000000000
 41
2.000000000000000
 42
2.000000000000000
 43
2.000000000000000
 50
234.5736905338156
  0
INSERT
  5
352
100
AcDbEntity
  8
MAIN0
  6
BYBLOCK
 62
0
100
AcDbBlockReference
  2
_OPEN
 10
451.0767973093855
 20
300.6889513465939
 30
0.0000000000000000
 41
2.000000000000000
 42
2.000000000000000
 43
2.000000000000000
 50
54.57369053381564
  0
LINE
  5
353
100
AcDbEntity
  8
MAIN0
  6
BYBLOCK
 62
0
100
AcDbLine
 10
451.0767973093855
 20
300.6889513465939
 30
0.0000000000000000
 11
459.2556635943057
 21
312.1865495689679
 31
0.0000000000000000
  0
MTEXT
  5
354
100
AcDbEntity
  8
MAIN0
  6
BYBLOCK
 62
0
100
AcDbMText
 10
454.0782817156322
 20
308.4449294966350
 30
0.0000000000000000
 40
3.099999904632568
 41
0.0000000000000000
 71
     5
 72
     1
  1
\A1;\U+220582.55
 11
0.5796554071898178
 21
0.8148617115287763
 31
0.0000000000000000
  7
STANDARD
  0
ENDBLK
  5
355
100
AcDbEntity
  8
MAIN0
  6
CONTINUOUS
 62
3
100
AcDbBlockEnd
  0
BLOCK
  5
357
100
AcDbEntity
  8
MAIN0
  6
CONTINUOUS
 62
3
100
AcDbBlockBegin
  2
*D30
 70
    65
 10
0.0
 20
0.0
 30
0.0
  0
LINE
  5
358
100
AcDbEntity
  8
MAIN0
  6
BYBLOCK
 62
0
100
AcDbLine
 10
412.1515203776257
 20
211.2600092593409
 30
0.0000000000000000
 11
412.1515203776257
 21
185.7615824923411
 31
0.0000000000000000
  0
LINE
  5
359
100
AcDbEntity
  8
MAIN0
  6
BYBLOCK
 62
0
100
AcDbLine
 10
414.1515203776257
 20
187.7615824923411
 30
0.0000000000000000
 11
440.1515203776257
 21
187.7615824923411
 31
0.0000000000000000
  0
INSERT
  5
35A
100
AcDbEntity
  8
MAIN0
  6
BYBLOCK
 62
0
100
AcDbBlockReference
  2
_OPEN
 10
412.1515203776257
 20
187.7615824923411
 30
0.0000000000000000
 41
2.000000000000000
 42
2.000000000000000
 43
2.000000000000000
 50
180.0000000000000
  0
INSERT
  5
35B
100
AcDbEntity
  8
MAIN0
  6
BYBLOCK
 62
0
100
AcDbBlockReference
  2
_OPEN
 10
442.1515203776257
 20
187.7615824923411
 30
0.0000000000000000
 41
2.000000000000000
 42
2.000000000000000
 43
2.000000000000000
 50
0.0000000000000000
  0
LINE
  5
35C
100
AcDbEntity
  8
MAIN0
  6
BYBLOCK
 62
0
100
AcDbLine
 10
442.1515203776257
 20
211.2600092593409
 30
0.0000000000000000
 11
442.1515203776257
 21
185.7615824923411
 31
0.0000000000000000
  0
MTEXT
  5
35D
100
AcDbEntity
  8
MAIN0
  6
BYBLOCK
 62
0
100
AcDbMText
 10
427.1515203776257
 20
189.8115824446574
 30
0.0000000000000000
 40
3.099999904632568
 41
0.0000000000000000
 71
     5
 72
     1
  1
\A1;30
 11
1.000000000000000
 21
0.0000000000000000
 31
0.0000000000000000
  7
STANDARD
  0
ENDBLK
  5
35E
100
AcDbEntity
  8
MAIN0
  6
CONTINUOUS
 62
3
100
AcDbBlockEnd
  0
BLOCK
  5
360
100
AcDbEntity
  8
MAIN0
  6
CONTINUOUS
 62
3
100
AcDbBlockBegin
  2
*D31
 70
    65
 10
0.0
 20
0.0
 30
0.0
  0
LINE
  5
361
100
AcDbEntity
  8
MAIN0
  6
BYBLOCK
 62
0
100
AcDbLine
 10
348.3314290689924
 20
265.0555342032437
 30
0.0000000000000000
 11
348.3314290689924
 21
238.0555342032437
 31
0.0000000000000000
  0
INSERT
  5
362
100
AcDbEntity
  8
MAIN0
  6
BYBLOCK
 62
0
100
AcDbBlockReference
  2
_OPEN
 10
348.3314290689924
 20
267.0555342032437
 30
0.0000000000000000
 41
2.000000000000000
 42
2.000000000000000
 43
2.000000000000000
 50
90.00000000000000
  0
INSERT
  5
363
100
AcDbEntity
  8
MAIN0
  6
BYBLOCK
 62
0
100
AcDbBlockReference
  2
_OPEN
 10
348.3314290689924
 20
236.0555342032437
 30
0.0000000000000000
 41
2.000000000000000
 42
2.000000000000000
 43
2.000000000000000
 50
270.0000000000000
  0
LINE
  5
364
100
AcDbEntity
  8
MAIN0
  6
BYBLOCK
 62
0
100
AcDbLine
 10
406.1896271945917
 20
236.0555342032437
 30
0.0000000000000000
 11
346.3314290689924
 21
236.0555342032437
 31
0.0000000000000000
  0
MTEXT
  5
365
100
AcDbEntity
  8
MAIN0
  6
BYBLOCK
 62
0
100
AcDbMText
 10
346.2814291166761
 20
251.5555342032437
 30
0.0000000000000000
 40
3.099999904632568
 41
0.0000000000000000
 71
     5
 72
     1
  1
\A1;31
 11
6.123233995736766e-017
 21
1.000000000000000
 31
0.0000000000000000
  7
STANDARD
  0
ENDBLK
  5
366
100
AcDbEntity
  8
MAIN0
  6
CONTINUOUS
 62
3
100
AcDbBlockEnd
  0
BLOCK
  5
368
100
AcDbEntity
  8
MAIN0
  6
CONTINUOUS
 62
3
100
AcDbBlockBegin
  2
*D32
 70
    65
 10
0.0
 20
0.0
 30
0.0
  0
LINE
  5
369
100
AcDbEntity
  8
MAIN0
  6
BYBLOCK
 62
0
100
AcDbLine
 10
406.1896271945917
 20
236.0555342032437
 30
0.0000000000000000
 11
346.3314290689924
 21
236.0555342032437
 31
0.0000000000000000
  0
LINE
  5
36A
100
AcDbEntity
  8
MAIN0
  6
BYBLOCK
 62
0
100
AcDbLine
 10
348.3314290689924
 20
234.0555342032437
 30
0.0000000000000000
 11
348.3314290689924
 21
218.0555342032437
 31
0.0000000000000000
  0
INSERT
  5
36B
100
AcDbEntity
  8
MAIN0
  6
BYBLOCK
 62
0
100
AcDbBlockReference
  2
_OPEN
 10
348.3314290689924
 20
236.0555342032437
 30
0.0000000000000000
 41
2.000000000000000
 42
2.000000000000000
 43
2.000000000000000
 50
90.00000000000000
  0
INSERT
  5
36C
100
AcDbEntity
  8
MAIN0
  6
BYBLOCK
 62
0
100
AcDbBlockReference
  2
_OPEN
 10
348.3314290689924
 20
216.0555342032437
 30
0.0000000000000000
 41
2.000000000000000
 42
2.000000000000000
 43
2.000000000000000
 50
270.0000000000000
  0
LINE
  5
36D
100
AcDbEntity
  8
MAIN0
  6
BYBLOCK
 62
0
100
AcDbLine
 10
403.0311056225365
 20
216.0555342032437
 30
0.0000000000000000
 11
346.3314290689924
 21
216.0555342032437
 31
0.0000000000000000
  0
MTEXT
  5
36E
100
AcDbEntity
  8
MAIN0
  6
BYBLOCK
 62
0
100
AcDbMText
 10
346.2814291166761
 20
226.0555342032437
 30
0.0000000000000000
 40
3.099999904632568
 41
0.0000000000000000
 71
     5
 72
     1
  1
\A1;20
 11
6.123233995736766e-017
 21
1.000000000000000
 31
0.0000000000000000
  7
STANDARD
  0
ENDBLK
  5
36F
100
AcDbEntity
  8
MAIN0
  6
CONTINUOUS
 62
3
100
AcDbBlockEnd
  0
BLOCK
  5
371
100
AcDbEntity
  8
MAIN0
  6
CONTINUOUS
 62
3
100
AcDbBlockBegin
  2
*D33
 70
    65
 10
0.0
 20
0.0
 30
0.0
  0
LINE
  5
372
100
AcDbEntity
  8
MAIN0
  6
BYBLOCK
 62
0
100
AcDbLine
 10
427.1515203776256
 20
267.0555342032437
 30
0.0000000000000000
 11
376.6424049846667
 21
250.9984715135498
 31
0.0000000000000000
  0
INSERT
  5
373
100
AcDbEntity
  8
MAIN0
  6
BYBLOCK
 62
0
100
AcDbBlockReference
  2
_OPEN
 10
374.7364006302154
 20
250.3925446195991
 30
0.0000000000000000
 41
2.000000000000000
 42
2.000000000000000
 43
2.000000000000000
 50
197.6356818729867
  0
MTEXT
  5
374
100
AcDbEntity
  8
MAIN0
  6
BYBLOCK
 62
0
100
AcDbMText
 10
383.5501676161090
 20
255.3455754646510
 30
0.0000000000000000
 40
3.099999904632568
 41
0.0000000000000000
 71
     5
 72
     1
  1
\A1;Ｒ55
 11
0.9530021772256400
 21
0.3029634469753570
 31
0.0000000000000000
  7
KNJYOKO
  0
ENDBLK
  5
375
100
AcDbEntity
  8
MAIN0
  6
CONTINUOUS
 62
3
100
AcDbBlockEnd
  0
ENDSEC
  0
SECTION
  2
ENTITIES
  0
LINE
  5
46
100
AcDbEntity
  8
MAIN0
  6
CONTINUOUS
 62
3
100
AcDbLine
 10
189.7345322941734
 20
274.5555342032437
 30
0.0000000000000000
 11
207.7344581204625
 21
274.5555342032437
 31
0.0000000000000000
  0
LINE
  5
47
100
AcDbEntity
  8
MAIN0
  6
CONTINUOUS
 62
3
100
AcDbLine
 10
212.7344581204625
 20
275.0555342032437
 30
0.0000000000000000
 11
212.7344581204625
 21
267.0555342032437
 31
0.0000000000000000
  0
LINE
  5
48
100
AcDbEntity
  8
MAIN0
  6
CONTINUOUS
 62
3
100
AcDbLine
 10
208.7344581204625
 20
273.9781839340542
 30
0.0000000000000000
 11
208.7344581204625
 21
267.0555342032437
 31
0.0000000000000000
  0
LINE
  5
49
100
AcDbEntity
  8
MAIN0
  6
CONTINUOUS
 62
3
100
AcDbLine
 10
207.7344581204625
 20
274.5555342032437
 30
0.0000000000000000
 11
208.7344581204625
 21
273.9781839340542
 31
0.0000000000000000
  0
LINE
  5
4A
100
AcDbEntity
  8
MAIN0
  6
CONTINUOUS
 62
3
100
AcDbLine
 10
169.2343509376577
 20
282.0555342032438
 30
0.0000000000000000
 11
169.2343509376577
 21
283.8157404896705
 31
0.0000000000000000
  0
LINE
  5
4B
100
AcDbEntity
  8
MAIN0
  6
CONTINUOUS
 62
3
100
AcDbLine
 10
220.2343509376576
 20
253.0555342032437
 30
0.0000000000000000
 11
220.2343509376576
 21
200.5555342032437
 31
0.0000000000000000
  0
LINE
  5
4C
100
AcDbEntity
  8
MAIN0
  6
CONTINUOUS
 62
3
100
AcDbLine
 10
220.2343509376577
 20
299.8035182117729
 30
0.0000000000000000
 11
220.2343509376577
 21
333.5555342032436
 31
0.0000000000000000
  0
LINE
  5
4D
100
AcDbEntity
  8
MAIN0
  6
CONTINUOUS
 62
3
100
AcDbLine
 10
212.7344581204625
 20
259.0555342032437
 30
0.0000000000000000
 11
212.7344581204625
 21
267.0555342032437
 31
0.0000000000000000
  0
LINE
  5
4E
100
AcDbEntity
  8
MAIN0
  6
CONTINUOUS
 62
3
100
AcDbLine
 10
208.7344581204625
 20
260.1328844724331
 30
0.0000000000000000
 11
208.7344581204625
 21
267.0555342032437
 31
0.0000000000000000
  0
LINE
  5
4F
100
AcDbEntity
  8
MAIN0
  6
CONTINUOUS
 62
3
100
AcDbLine
 10
207.7344581204625
 20
259.5555342032436
 30
0.0000000000000000
 11
208.7344581204625
 21
260.1328844724331
 31
0.0000000000000000
  0
LINE
  5
50
100
AcDbEntity
  8
MAIN0
  6
CONTINUOUS
 62
3
100
AcDbLine
 10
223.8420460920903
 20
255.0555342032437
 30
0.0000000000000000
 11
246.2343509376577
 21
261.0555342032419
 31
0.0000000000000000
  0
LINE
  5
51
100
AcDbEntity
  8
MAIN0
  6
CONTINUOUS
 62
3
100
AcDbLine
 10
189.7345322941734
 20
259.5555342032437
 30
0.0000000000000000
 11
207.7344581204625
 21
259.5555342032437
 31
0.0000000000000000
  0
LINE
  5
52
100
AcDbEntity
  8
MAIN0
  6
CONTINUOUS
 62
3
100
AcDbLine
 10
169.2343509376577
 20
252.0555342032440
 30
0.0000000000000000
 11
169.2343509376577
 21
250.7205284031807
 31
0.0000000000000000
  0
LINE
  5
53
100
AcDbEntity
  8
MAIN0
  6
CONTINUOUS
 62
3
100
AcDbLine
 10
191.7345322941734
 20
275.5555342032436
 30
0.0000000000000000
 11
191.7345322941734
 21
279.0935435120160
 31
0.0000000000000000
  0
LINE
  5
54
100
AcDbEntity
  8
MAIN0
  6
CONTINUOUS
 62
3
100
AcDbLine
 10
148.2343509376576
 20
212.0555342032437
 30
0.0000000000000000
 11
153.2343509376577
 21
212.0555342032437
 31
0.0000000000000000
  0
LINE
  5
55
100
AcDbEntity
  8
MAIN0
  6
CONTINUOUS
 62
3
100
AcDbLine
 10
148.2343509376576
 20
322.0555342032437
 30
0.0000000000000000
 11
153.2343509376577
 21
322.0555342032437
 31
0.0000000000000000
  0
LINE
  5
56
100
AcDbEntity
  8
MAIN0
  6
CONTINUOUS
 62
3
100
AcDbLine
 10
194.7345322941733
 20
257.0555342032437
 30
0.0000000000000000
 11
194.7345322941733
 21
259.5555342032437
 31
0.0000000000000000
  0
LINE
  5
57
100
AcDbEntity
  8
MAIN0
  6
CONTINUOUS
 62
3
100
AcDbLine
 10
198.7345322941733
 20
257.0555342032437
 30
0.0000000000000000
 11
198.7345322941733
 21
259.5555342032437
 31
0.0000000000000000
  0
LINE
  5
58
100
AcDbEntity
  8
MAIN0
  6
CONTINUOUS
 62
3
100
AcDbLine
 10
194.7345322941733
 20
257.0555342032437
 30
0.0000000000000000
 11
198.7345322941733
 21
257.0555342032437
 31
0.0000000000000000
  0
ELLIPSE
  5
59
100
AcDbEntity
  8
MAIN0
  6
CONTINUOUS
 62
3
100
AcDbEllipse
 10
196.7345322941733
 20
258.3055342032437
 30
0.0000000000000000
 11
-2.000000000000000
 21
0.0000000000000000
 31
0.0000000000000000
210
0.0000000000000000
220
0.0000000000000000
230
1.000000000000000
 40
0.6250000000000000
 41
0.0000000000000000
 42
6.283185307179586
  0
LINE
  5
5A
100
AcDbEntity
  8
MAIN0
  6
CONTINUOUS
 62
3
100
AcDbLine
 10
194.7345322941733
 20
277.0555342032436
 30
0.0000000000000000
 11
194.7345322941733
 21
274.5555342032436
 31
0.0000000000000000
  0
LINE
  5
5B
100
AcDbEntity
  8
MAIN0
  6
CONTINUOUS
 62
3
100
AcDbLine
 10
198.7345322941733
 20
277.0555342032437
 30
0.0000000000000000
 11
198.7345322941733
 21
274.5555342032437
 31
0.0000000000000000
  0
LINE
  5
5C
100
AcDbEntity
  8
MAIN0
  6
CONTINUOUS
 62
3
100
AcDbLine
 10
194.7345322941733
 20
277.0555342032436
 30
0.0000000000000000
 11
198.7345322941733
 21
277.0555342032436
 31
0.0000000000000000
  0
ELLIPSE
  5
5D
100
AcDbEntity
  8
MAIN0
  6
CONTINUOUS
 62
3
100
AcDbEllipse
 10
196.7345322941733
 20
275.8055342032436
 30
0.0000000000000000
 11
2.000000000000000
 21
0.0000000000000000
 31
0.0000000000000000
210
0.0000000000000000
220
0.0000000000000000
230
1.000000000000000
 40
0.6250000000000000
 41
0.0000000000000000
 42
6.283185307179586
  0
LINE
  5
5E
100
AcDbEntity
  8
MAIN0
  6
CONTINUOUS
 62
3
100
AcDbLine
 10
219.2343509376577
 20
334.5555342032436
 30
0.0000000000000000
 11
220.2343509376577
 21
333.5555342032436
 31
0.0000000000000000
  0
LINE
  5
5F
100
AcDbEntity
  8
MAIN0
  6
CONTINUOUS
 62
3
100
AcDbLine
 10
148.2343509376577
 20
333.5555342032437
 30
0.0000000000000000
 11
149.2343509376577
 21
334.5555342032437
 31
0.0000000000000000
  0
LINE
  5
60
100
AcDbEntity
  8
MAIN0
  6
CONTINUOUS
 62
3
100
AcDbLine
 10
148.2343509376577
 20
200.5555342032436
 30
0.0000000000000000
 11
149.2343509376577
 21
199.5555342032436
 31
0.0000000000000000
  0
LINE
  5
61
100
AcDbEntity
  8
MAIN0
  6
CONTINUOUS
 62
3
100
AcDbLine
 10
220.2343509376576
 20
200.5555342032437
 30
0.0000000000000000
 11
219.2343509376576
 21
199.5555342032437
 31
0.0000000000000000
  0
LINE
  5
62
100
AcDbEntity
  8
MAIN0
  6
CONTINUOUS
 62
3
100
AcDbLine
 10
191.7345322941733
 20
251.1614915034999
 30
0.0000000000000000
 11
191.7345322941733
 21
257.5555342032436
 31
0.0000000000000000
  0
LINE
  5
63
100
AcDbEntity
  8
MAIN0
  6
CONTINUOUS
 62
3
100
AcDbLine
 10
206.7344581204625
 20
275.0555342032437
 30
0.0000000000000000
 11
212.7344581204626
 21
275.0555342032437
 31
0.0000000000000000
  0
LINE
  5
64
100
AcDbEntity
  8
MAIN0
  6
CONTINUOUS
 62
3
100
AcDbLine
 10
206.7344581204625
 20
259.0555342032437
 30
0.0000000000000000
 11
212.7344581204625
 21
259.0555342032437
 31
0.0000000000000000
  0
LINE
  5
65
100
AcDbEntity
  8
MAIN0
  6
CONTINUOUS
 62
3
100
AcDbLine
 10
206.7344581204625
 20
275.0555342032437
 30
0.0000000000000000
 11
206.7344581204625
 21
274.5555342032437
 31
0.0000000000000000
  0
LINE
  5
66
100
AcDbEntity
  8
MAIN0
  6
CONTINUOUS
 62
3
100
AcDbLine
 10
206.7344581204625
 20
259.0555342032437
 30
0.0000000000000000
 11
206.7344581204625
 21
259.5555342032437
 31
0.0000000000000000
  0
LINE
  5
67
100
AcDbEntity
  8
MAIN0
  6
CONTINUOUS
 62
3
100
AcDbLine
 10
192.7345322941734
 20
259.5555342032437
 30
0.0000000000000000
 11
191.7345322941734
 21
258.5555342032437
 31
0.0000000000000000
  0
LINE
  5
68
100
AcDbEntity
  8
MAIN0
  6
CONTINUOUS
 62
3
100
AcDbLine
 10
191.7345322941734
 20
275.5555342032437
 30
0.0000000000000000
 11
192.7345322941734
 21
274.5555342032437
 31
0.0000000000000000
  0
LINE
  5
69
100
AcDbEntity
  8
MAIN0
  6
CONTINUOUS
 62
3
100
AcDbLine
 10
139.7343509375876
 20
279.5555342032437
 30
0.0000000000000000
 11
167.2343509376578
 21
279.5555342032437
 31
0.0000000000000000
  0
LINE
  5
6A
100
AcDbEntity
  8
MAIN0
  6
CONTINUOUS
 62
3
100
AcDbLine
 10
139.7343509375876
 20
254.5555342032436
 30
0.0000000000000000
 11
167.2343509376575
 21
254.5555342032437
 31
0.0000000000000000
  0
LINE
  5
6B
100
AcDbEntity
  8
MAIN0
  6
CONTINUOUS
 62
3
100
AcDbLine
 10
153.2343509376577
 20
212.0555342032437
 30
0.0000000000000000
 11
153.2343509376577
 21
254.5555342032436
 31
0.0000000000000000
  0
LINE
  5
6C
100
AcDbEntity
  8
MAIN0
  6
CONTINUOUS
 62
3
100
AcDbLine
 10
212.7344581204625
 20
274.0555342032436
 30
0.0000000000000000
 11
216.7759100047884
 21
267.0555342032437
 31
0.0000000000000000
  0
LINE
  5
6D
100
AcDbEntity
  8
MAIN0
  6
CONTINUOUS
 62
3
100
AcDbLine
 10
212.7344581204625
 20
260.0555342032437
 30
0.0000000000000000
 11
216.7759100047884
 21
267.0555342032437
 31
0.0000000000000000
  0
LINE
  5
6E
100
AcDbEntity
  8
MAIN0
  6
CENTER
 62
3
100
AcDbLine
 10
127.9814705281702
 20
267.0555342032437
 30
0.0000000000000000
 11
299.1752068158697
 21
267.0555342032437
 31
0.0000000000000000
  0
LINE
  5
6F
100
AcDbEntity
  8
MAIN0
  6
CONTINUOUS
 62
3
100
AcDbLine
 10
246.2343509376576
 20
270.0284699870845
 30
0.0000000000000000
 11
246.2343509376576
 21
261.0555342032419
 31
0.0000000000000000
  0
LINE
  5
70
100
AcDbEntity
  8
MAIN0
  6
CENTER
 62
3
100
AcDbLine
 10
205.4411514356107
 20
293.6380755400718
 30
0.0000000000000000
 11
249.3202730519067
 21
282.6977817809714
 31
0.0000000000000000
  0
LINE
  5
71
100
AcDbEntity
  8
MAIN0
  6
CONTINUOUS
 62
3
100
AcDbLine
 10
190.2345322941733
 20
259.5555342032437
 30
0.0000000000000000
 11
189.6582376560819
 21
259.8555342032437
 31
0.0000000000000000
  0
LINE
  5
72
100
AcDbEntity
  8
MAIN0
  6
CENTER
 62
3
100
AcDbLine
 10
134.4787519870637
 20
225.7805342032437
 30
0.0000000000000000
 11
222.9393267363664
 21
225.7805342032437
 31
0.0000000000000000
  0
LINE
  5
73
100
AcDbEntity
  8
MAIN0
  6
CONTINUOUS
 62
3
100
AcDbLine
 10
138.2343509376577
 20
255.4215596069870
 30
0.0000000000000000
 11
138.2343509376577
 21
278.6895087995004
 31
0.0000000000000000
  0
LINE
  5
74
100
AcDbEntity
  8
MAIN0
  6
CONTINUOUS
 62
3
100
AcDbLine
 10
138.2343509376576
 20
278.6895087995004
 30
0.0000000000000000
 11
139.7343509375879
 21
279.5555342032438
 31
0.0000000000000000
  0
LINE
  5
75
100
AcDbEntity
  8
MAIN0
  6
CONTINUOUS
 62
3
100
AcDbLine
 10
138.2343509376576
 20
255.4215596069870
 30
0.0000000000000000
 11
139.7343509375879
 21
254.5555342032435
 31
0.0000000000000000
  0
LINE
  5
76
100
AcDbEntity
  8
MAIN0
  6
CONTINUOUS
 62
3
100
AcDbLine
 10
207.7344581204625
 20
270.0555342032437
 30
0.0000000000000000
 11
207.7344581204625
 21
267.0555342032437
 31
0.0000000000000000
  0
LINE
  5
77
100
AcDbEntity
  8
MAIN0
  6
CONTINUOUS
 62
3
100
AcDbLine
 10
207.7344581202842
 20
270.0555342032437
 30
0.0000000000000000
 11
208.7344581204625
 21
270.6328844725358
 31
0.0000000000000000
  0
LINE
  5
78
100
AcDbEntity
  8
MAIN0
  6
CONTINUOUS
 62
3
100
AcDbLine
 10
207.7344581202842
 20
264.0555342032436
 30
0.0000000000000000
 11
208.7344581204625
 21
263.4781839339515
 31
0.0000000000000000
  0
LINE
  5
79
100
AcDbEntity
  8
MAIN0
  6
CONTINUOUS
 62
3
100
AcDbLine
 10
207.7344581204625
 20
264.0555342032437
 30
0.0000000000000000
 11
207.7344581204625
 21
267.0555342032437
 31
0.0000000000000000
  0
LINE
  5
7A
100
AcDbEntity
  8
MAIN0
  6
CONTINUOUS
 62
3
100
AcDbLine
 10
180.5437520143882
 20
270.0555342032437
 30
0.0000000000000000
 11
180.5437520143876
 21
264.0555342032437
 31
0.0000000000000000
  0
MTEXT
  5
7B
100
AcDbEntity
  8
MAIN0
  6
CONTINUOUS
 62
3
100
AcDbMText
 10
182.4405961176128
 20
105.0378718576725
 30
0.0000000000000000
 40
4.000000000000000
 41
0.0000000000000000
 71
     1
 72
     1
  1
{\H0.94x;{マスタージョーのみで対応する場合：\U+220529～\U+220553}}
 11
1.000000000000000
 21
0.0000000000000000
 31
0.0000000000000000
  7
KNJYOKO
  0
MTEXT
  5
7C
100
AcDbEntity
  8
MAIN0
  6
CONTINUOUS
 62
3
100
AcDbMText
 10
205.1155111480138
 20
98.27118024577078
 30
0.0000000000000000
 40
4.000000000000000
 41
0.0000000000000000
 71
     1
 72
     1
  1
{\H0.94x;{ジョー付で対応する場合：\U+220553～\U+220578}}
 11
1.000000000000000
 21
0.0000000000000000
 31
0.0000000000000000
  7
KNJYOKO
  0
LINE
  5
7D
100
AcDbEntity
  8
MAIN0
  6
CONTINUOUS
 62
3
100
AcDbLine
 10
148.2343509376577
 20
282.0347430937557
 30
0.0000000000000000
 11
148.2343509376577
 21
333.5555342032437
 31
0.0000000000000000
  0
DIMENSION
  5
86
100
AcDbEntity
  8
MAIN0
  6
CONTINUOUS
 62
3
100
AcDbDimension
  2
*D0
 10
55.16660853498814
 20
199.5555342032436
 30
0.0000000000000000
 11
54.66660853498814
 21
267.0555342032436
 31
0.0000000000000000
 70
32
  1
\A1;\U+2205135
  3
MAIN001
100
AcDbAlignedDimension
 13
149.2343509376577
 23
334.5555342032437
 33
0.0000000000000000
 14
149.2343509376577
 24
199.5555342032436
 34
0.0000000000000000
 50
90.00000000000000
100
AcDbRotatedDimension
1001
ACAD
1000
DSTYLE
1002
{
1070
   173
1070
     1
1070
     6
1000
_OPEN
1070
     7
1000
_OPEN
1070
    41
1040
2.000000
1002
}
  0
DIMENSION
  5
8F
100
AcDbEntity
  8
MAIN0
  6
CONTINUOUS
 62
3
100
AcDbDimension
  2
*D1
 10
85.02611369172112
 20
279.5555342032437
 30
0.0000000000000000
 11
84.52611369172112
 21
267.0555342032437
 31
0.0000000000000000
 70
32
  1
\A1;\U+220525
  3
MAIN001
100
AcDbAlignedDimension
 13
139.7343509375876
 23
254.5555342032436
 33
0.0000000000000000
 14
139.7343509375876
 24
279.5555342032437
 34
0.0000000000000000
 50
90.00000000000000
100
AcDbRotatedDimension
1001
ACAD
1000
DSTYLE
1002
{
1070
   173
1070
     1
1070
     6
1000
_OPEN
1070
     7
1000
_OPEN
1070
    41
1040
2.000000
1002
}
  0
DIMENSION
  5
98
100
AcDbEntity
  8
MAIN0
  6
CONTINUOUS
 62
3
100
AcDbDimension
  2
*D2
 10
71.47283572931448
 20
322.0555342032437
 30
0.0000000000000000
 11
70.97283572931448
 21
267.0555342032437
 31
0.0000000000000000
 70
32
  1
\A1;\U+2205110G7
  3
MAIN001
100
AcDbAlignedDimension
 13
148.2343509376576
 23
212.0555342032437
 33
0.0000000000000000
 14
148.2343509376576
 24
322.0555342032437
 34
0.0000000000000000
 50
90.00000000000000
100
AcDbRotatedDimension
1001
ACAD
1000
DSTYLE
1002
{
1070
   173
1070
     1
1070
     6
1000
_OPEN
1070
     7
1000
_OPEN
1070
    41
1040
2.000000
1002
}
  0
DIMENSION
  5
A1
100
AcDbEntity
  8
MAIN0
  6
CONTINUOUS
 62
3
100
AcDbDimension
  2
*D3
 10
246.2343509376576
 20
147.4888847789241
 30
0.0000000000000000
 11
233.2343509376576
 21
147.9888847789241
 31
0.0000000000000000
 70
32
  3
MAIN001
100
AcDbAlignedDimension
 13
220.2343509376576
 23
200.5555342032437
 33
0.0000000000000000
 14
246.2343509376576
 24
261.0555342032419
 34
0.0000000000000000
100
AcDbRotatedDimension
1001
ACAD
1000
DSTYLE
1002
{
1070
   173
1070
     1
1070
     6
1000
_OPEN
1070
     7
1000
_OPEN
1070
    41
1040
2.000000
1002
}
  0
DIMENSION
  5
AA
100
AcDbEntity
  8
MAIN0
  6
CONTINUOUS
 62
3
100
AcDbDimension
  2
*D4
 10
220.2343509376576
 20
147.4888847789241
 30
0.0000000000000000
 11
184.2343509376576
 21
147.9888847789241
 31
0.0000000000000000
 70
32
  3
MAIN001
100
AcDbAlignedDimension
 13
148.2343509376576
 23
200.5555342032437
 33
0.0000000000000000
 14
220.2343509376576
 24
200.5555342032437
 34
0.0000000000000000
100
AcDbRotatedDimension
1001
ACAD
1000
DSTYLE
1002
{
1070
   173
1070
     1
1070
     6
1000
_OPEN
1070
     7
1000
_OPEN
1070
    41
1040
2.000000
1002
}
  0
DIMENSION
  5
B5
100
AcDbEntity
  8
MAIN0
  6
CONTINUOUS
 62
3
100
AcDbDimension
  2
*D5
 10
148.2343509376576
 20
168.0290015296767
 30
0.0000000000000000
 11
150.7343509376577
 21
168.5290015296767
 31
0.0000000000000000
 70
32
  3
MAIN001
100
AcDbAlignedDimension
 13
153.2343509376577
 23
212.0555342032437
 33
0.0000000000000000
 14
148.2343509376576
 24
200.5555342032437
 34
0.0000000000000000
100
AcDbRotatedDimension
1001
ACAD
1000
DSTYLE
1002
{
1070
   173
1070
     1
1070
     6
1000
_OPEN
1070
     7
1000
_OPEN
1070
    41
1040
2.000000
1070
   287
1070
     0
1002
}
  0
MTEXT
  5
B6
100
AcDbEntity
  8
MAIN0
  6
CONTINUOUS
 62
3
100
AcDbMText
 10
180.6369751523657
 20
114.6303307051601
 30
0.0000000000000000
 40
6.000000000000000
 41
0.0000000000000000
 71
     1
 72
     1
  1
{\H0.92x;{把握範囲}}
 11
1.000000000000000
 21
0.0000000000000000
 31
0.0000000000000000
  7
KNJYOKO
  0
SPLINE
  5
B7
100
AcDbEntity
  8
MAIN0
  6
CONTINUOUS
 62
3
100
AcDbSpline
210
0.0000000000000000
220
0.0000000000000000
230
1.000000000000000
 70
     8
 71
     3
 72
    10
 73
     6
 74
     0
 42
1.000000000000000e-007
 43
1.000000000000000e-007
 12
1.038181561158979
 22
0.1799329905136915
 32
0.0000000000000000
 13
0.9984482859069033
 23
0.3404671040892708
 33
0.0000000000000000
 40
0.0000000000000000
 40
0.0000000000000000
 40
0.0000000000000000
 40
0.0000000000000000
 40
9.423162805269829
 40
13.91484556174574
 40
17.04773097959322
 40
17.04773097959322
 40
17.04773097959322
 40
17.04773097959322
 10
157.4065177774361
 20
285.3215002833151
 30
0.0000000000000000
 10
160.6675024015129
 20
285.8866795711983
 30
0.0000000000000000
 10
165.4828810977059
 20
286.7212594960187
 30
0.0000000000000000
 10
170.4153077213683
 20
282.6670321837318
 30
0.0000000000000000
 10
172.9528867295128
 20
283.5323370658128
 30
0.0000000000000000
 10
173.9955614213103
 20
283.8878852076989
 30
0.0000000000000000
  0
SPLINE
  5
B8
100
AcDbEntity
  8
MAIN0
  6
CONTINUOUS
 62
3
100
AcDbSpline
210
0.0000000000000000
220
0.0000000000000000
230
1.000000000000000
 70
     8
 71
     3
 72
    15
 73
    11
 74
     0
 42
1.000000000000000e-007
 43
1.000000000000000e-007
 12
0.9511593424763447
 22
0.3475831962159930
 32
0.0000000000000000
 13
0.5960483392432394
 23
-0.7980026823836397
 33
0.0000000000000000
 40
0.0000000000000000
 40
0.0000000000000000
 40
0.0000000000000000
 40
0.0000000000000000
 40
5.963962464236163
 40
11.90324612603310
 40
17.63772986634662
 40
26.45378739692460
 40
35.05550910108677
 40
45.02166138944684
 40
49.82034897243752
 40
55.06586442477940
 40
55.06586442477940
 40
55.06586442477940
 40
55.06586442477940
 10
160.8161176204029
 20
249.0713594850023
 30
0.0000000000000000
 10
162.7070104924151
 20
249.7623505301461
 30
0.0000000000000000
 10
166.4809717452724
 20
251.1414733080903
 30
0.0000000000000000
 10
172.4379217199017
 20
250.6200987036259
 30
0.0000000000000000
 10
179.2415205540822
 20
250.6636458710270
 30
0.0000000000000000
 10
186.9915171708425
 20
251.2526618889697
 30
0.0000000000000000
 10
195.9594983425133
 20
251.0980133487052
 30
0.0000000000000000
 10
204.3153518377714
 20
251.0462184232094
 30
0.0000000000000000
 10
209.3886831377656
 20
246.3799393007244
 30
0.0000000000000000
 10
211.3842933171761
 20
243.7081723125239
 30
0.0000000000000000
 10
212.4264869084571
 20
242.3128605120394
 30
0.0000000000000000
  0
LINE
  5
B9
100
AcDbEntity
  8
MAIN0
  6
CONTINUOUS
 62
3
100
AcDbLine
 10
172.8900378451807
 20
199.5555342032436
 30
0.0000000000000000
 11
172.8995004907126
 21
199.5555342032436
 31
0.0000000000000000
  0
LINE
  5
BA
100
AcDbEntity
  8
MAIN0
  6
CONTINUOUS
 62
3
100
AcDbLine
 10
191.7345322941734
 20
251.1614915034999
 30
0.0000000000000000
 11
191.7345322941734
 21
258.5555342032437
 31
0.0000000000000000
  0
LINE
  5
BB
100
AcDbEntity
  8
MAIN0
  6
CONTINUOUS
 62
3
100
AcDbLine
 10
149.2343509376577
 20
334.5555342032437
 30
0.0000000000000000
 11
219.2343509376577
 21
334.5555342032437
 31
0.0000000000000000
  0
LINE
  5
BC
100
AcDbEntity
  8
MAIN0
  6
CONTINUOUS
 62
3
100
AcDbLine
 10
149.2343509376577
 20
199.5555342032436
 30
0.0000000000000000
 11
219.2343509376576
 21
199.5555342032437
 31
0.0000000000000000
  0
DIMENSION
  5
C4
100
AcDbEntity
  8
MAIN0
  6
CONTINUOUS
 62
3
100
AcDbDimension
  2
*D6
 10
494.3027257468532
 20
228.2857677069123
 30
0.0000000000000000
 11
470.5804849179584
 21
191.8343610992803
 31
0.0000000000000000
 70
162
  3
MAIN001
100
AcDb2LineAngularDimension
 13
427.1515203776257
 23
179.6976051225783
 33
0.0000000000000000
 14
427.1515203776258
 24
267.0555342032436
 34
0.0000000000000000
 15
493.4367003430688
 25
228.7857677069123
 35
0.0000000000000000
 16
470.8304849179584
 26
191.4013483973880
 36
0.0000000000000000
1001
ACAD
1000
DSTYLE
1002
{
1070
   173
1070
     1
1070
     6
1000
_OPEN
1070
     7
1000
_OPEN
1070
    41
1040
2.000000
1002
}
  0
DIMENSION
  5
CD
100
AcDbEntity
  8
MAIN0
  6
CONTINUOUS
 62
3
100
AcDbDimension
  2
*D7
 10
476.4409387897192
 20
295.5127931916659
 30
0.0000000000000000
 11
514.0094494582910
 21
267.0555342032437
 31
0.0000000000000000
 70
162
  3
MAIN001
100
AcDb2LineAngularDimension
 13
494.3027257468532
 23
228.2857677069123
 33
0.0000000000000000
 14
493.4367003430688
 24
228.7857677069123
 34
0.0000000000000000
 15
475.5749133859347
 25
295.0127931916659
 35
0.0000000000000000
 16
514.5094494582911
 26
267.0555342032436
 36
0.0000000000000000
1001
ACAD
1000
DSTYLE
1002
{
1070
   173
1070
     1
1070
     6
1000
_OPEN
1070
     7
1000
_OPEN
1070
    41
1040
2.000000
1002
}
  0
DIMENSION
  5
D6
100
AcDbEntity
  8
MAIN0
  6
CONTINUOUS
 62
3
100
AcDbDimension
  2
*D8
 10
427.1515203776258
 20
348.2087298675469
 30
0.0000000000000000
 11
471.0804849179585
 21
343.1427327109914
 31
0.0000000000000000
 70
162
  3
MAIN001
100
AcDb2LineAngularDimension
 13
476.4409387897192
 23
295.5127931916659
 33
0.0000000000000000
 14
475.5749133859348
 24
295.0127931916659
 34
0.0000000000000000
 15
427.1515203776258
 25
347.2087298675468
 35
0.0000000000000000
 16
470.8304849179585
 26
342.7097200090992
 36
0.0000000000000000
1001
ACAD
1000
DSTYLE
1002
{
1070
   173
1070
     1
1070
     6
1000
_OPEN
1070
     7
1000
_OPEN
1070
    41
1040
2.000000
1002
}
  0
DIMENSION
  5
DE
100
AcDbEntity
  8
MAIN0
  6
CONTINUOUS
 62
3
100
AcDbDimension
  2
*D9
 10
138.2343509376576
 20
241.1066199244395
 30
0.0000000000000000
 11
144.2582376814028
 21
241.6066199244395
 31
0.0000000000000000
 70
160
  3
MAIN001
100
AcDbAlignedDimension
 13
153.2343509376577
 23
212.0555342032437
 33
0.0000000000000000
 14
138.2343509376576
 24
230.7805342032437
 34
0.0000000000000000
100
AcDbRotatedDimension
1001
ACAD
1000
DSTYLE
1002
{
1070
   173
1070
     1
1070
     6
1000
_OPEN
1070
     7
1000
_OPEN
1070
    41
1040
2.000000
1002
}
  0
LINE
  5
DF
100
AcDbEntity
  8
MAIN0
  6
CONTINUOUS
 62
3
100
AcDbLine
 10
153.2343509376577
 20
279.5555342032437
 30
0.0000000000000000
 11
153.2343509376577
 21
322.0555342032437
 31
0.0000000000000000
  0
DIMENSION
  5
E8
100
AcDbEntity
  8
MAIN0
  6
CONTINUOUS
 62
3
100
AcDbDimension
  2
*D10
 10
267.7593734949773
 20
281.7555342032437
 30
0.0000000000000000
 11
267.2593734949773
 21
287.7555342032437
 31
0.0000000000000000
 70
32
  3
MAIN001
100
AcDbAlignedDimension
 13
227.4782298912841
 23
293.7555342032437
 33
0.0000000000000000
 14
246.2343509376576
 24
281.7555342032437
 34
0.0000000000000000
 50
90.00000000000000
100
AcDbRotatedDimension
1001
ACAD
1000
DSTYLE
1002
{
1070
   173
1070
     1
1070
     6
1000
_OPEN
1070
     7
1000
_OPEN
1070
    41
1040
2.000000
1002
}
  0
DIMENSION
  5
F1
100
AcDbEntity
  8
MAIN0
  6
CONTINUOUS
 62
3
100
AcDbDimension
  2
*D11
 10
220.2343509376576
 20
168.4119530456566
 30
0.0000000000000000
 11
211.7343509376576
 21
168.9119530456566
 31
0.0000000000000000
 70
32
  3
MAIN001
100
AcDbAlignedDimension
 13
203.2343509376576
 23
220.7805342032437
 33
0.0000000000000000
 14
220.2343509376576
 24
200.5555342032437
 34
0.0000000000000000
100
AcDbRotatedDimension
1001
ACAD
1000
DSTYLE
1002
{
1070
   173
1070
     1
1070
     6
1000
_OPEN
1070
     7
1000
_OPEN
1070
    41
1040
2.000000
1002
}
  0
DIMENSION
  5
FC
100
AcDbEntity
  8
MAIN0
  6
CONTINUOUS
 62
3
100
AcDbDimension
  2
*D12
 10
257.7718326264369
 20
281.7555342032437
 30
0.0000000000000000
 11
257.2718326264369
 21
277.5395502624457
 31
0.0000000000000000
 70
160
  3
MAIN001
100
AcDbAlignedDimension
 13
241.7343509376543
 23
285.2555342032431
 33
0.0000000000000000
 14
246.2343509376576
 24
281.7555342032437
 34
0.0000000000000000
 50
90.00000000000000
100
AcDbRotatedDimension
1001
ACAD
1000
DSTYLE
1002
{
1070
   173
1070
     1
1070
     6
1000
_OPEN
1070
     7
1000
_OPEN
1070
    41
1040
2.000000
1070
   287
1070
     0
1002
}
  0
LINE
  5
FD
100
AcDbEntity
  8
MAIN0
  6
CONTINUOUS
 62
3
100
AcDbLine
 10
138.2343509376577
 20
275.8442093378011
 30
0.0000000000000000
 11
138.7343509375930
 21
275.5555342032436
 31
0.0000000000000000
  0
LINE
  5
FE
100
AcDbEntity
  8
MAIN0
  6
CONTINUOUS
 62
3
100
AcDbLine
 10
138.7343509375930
 20
275.5555342032437
 30
0.0000000000000000
 11
145.2343509375373
 21
275.5555342032437
 31
0.0000000000000000
  0
LINE
  5
FF
100
AcDbEntity
  8
MAIN0
  6
CONTINUOUS
 62
3
100
AcDbLine
 10
138.7343509376577
 20
258.5555342032437
 30
0.0000000000000000
 11
138.7343509376577
 21
275.5555342032437
 31
0.0000000000000000
  0
LINE
  5
100
100
AcDbEntity
  8
MAIN0
  6
CONTINUOUS
 62
3
100
AcDbLine
 10
138.2343509376576
 20
258.2668590685331
 30
0.0000000000000000
 11
138.7343509378578
 21
258.5555342032435
 31
0.0000000000000000
  0
LINE
  5
101
100
AcDbEntity
  8
MAIN0
  6
CONTINUOUS
 62
3
100
AcDbLine
 10
138.7343509378578
 20
258.5555342032437
 30
0.0000000000000000
 11
145.2343509376577
 21
258.5555342032437
 31
0.0000000000000000
  0
LINE
  5
102
100
AcDbEntity
  8
MAIN0
  6
CONTINUOUS
 62
3
100
AcDbLine
 10
145.2343509376577
 20
258.5555342032437
 30
0.0000000000000000
 11
145.2343509376577
 21
275.5555342032437
 31
0.0000000000000000
  0
LINE
  5
103
100
AcDbEntity
  8
MAIN0
  6
CONTINUOUS
 62
3
100
AcDbLine
 10
145.2343509375918
 20
258.5555342032437
 30
0.0000000000000000
 11
146.1003763412122
 21
260.0555342029617
 31
0.0000000000000000
  0
LINE
  5
104
100
AcDbEntity
  8
MAIN0
  6
CONTINUOUS
 62
3
100
AcDbLine
 10
146.1003763412145
 20
274.0555342032437
 30
0.0000000000000000
 11
146.1003763412124
 21
260.0555342032437
 31
0.0000000000000000
  0
LINE
  5
105
100
AcDbEntity
  8
MAIN0
  6
CONTINUOUS
 62
3
100
AcDbLine
 10
145.2343509375373
 20
275.5555342032436
 30
0.0000000000000000
 11
146.1003763413224
 21
274.0555342032437
 31
0.0000000000000000
  0
LINE
  5
106
100
AcDbEntity
  8
MAIN0
  6
CONTINUOUS
 62
3
100
AcDbLine
 10
145.5230260721323
 20
275.0555342032437
 30
0.0000000000000000
 11
171.2343509376577
 21
275.0555342032437
 31
0.0000000000000000
  0
LINE
  5
107
100
AcDbEntity
  8
MAIN0
  6
CONTINUOUS
 62
3
100
AcDbLine
 10
146.1003763412145
 20
274.0555342032437
 30
0.0000000000000000
 11
178.2343509376577
 21
274.0555342032437
 31
0.0000000000000000
  0
LINE
  5
108
100
AcDbEntity
  8
MAIN0
  6
CONTINUOUS
 62
3
100
AcDbLine
 10
171.2343509376577
 20
275.0555342032437
 30
0.0000000000000000
 11
171.2343509376577
 21
259.0555342032437
 31
0.0000000000000000
  0
LINE
  5
109
100
AcDbEntity
  8
MAIN0
  6
CONTINUOUS
 62
3
100
AcDbLine
 10
178.2343509376577
 20
260.0555342032437
 30
0.0000000000000000
 11
146.1003763412124
 21
260.0555342032437
 31
0.0000000000000000
  0
LINE
  5
10A
100
AcDbEntity
  8
MAIN0
  6
CONTINUOUS
 62
3
100
AcDbLine
 10
171.2343509376577
 20
259.0555342032437
 30
0.0000000000000000
 11
145.5230260721862
 21
259.0555342032437
 31
0.0000000000000000
  0
DIMENSION
  5
113
100
AcDbEntity
  8
MAIN0
  6
CONTINUOUS
 62
3
100
AcDbDimension
  2
*D13
 10
102.5752881124348
 20
275.5555342032437
 30
0.0000000000000000
 11
102.0752881124348
 21
263.8805341168169
 31
0.0000000000000000
 70
32
  1
\A1;\U+220517\H0.903226x;\S＋0.1^  0;
  3
MAIN001
100
AcDbAlignedDimension
 13
138.7343509378578
 23
258.5555342032437
 33
0.0000000000000000
 14
138.7343509375930
 24
275.5555342032437
 34
0.0000000000000000
 50
90.00000000000000
100
AcDbRotatedDimension
1001
ACAD
1000
DSTYLE
1002
{
1070
   173
1070
     1
1070
     6
1000
_OPEN
1070
     7
1000
_OPEN
1070
    41
1040
2.000000
1070
   272
1070
     1
1070
    47
1040
0.100000
1070
    48
1040
0.000000
1070
    71
1070
     1
1070
   340
1005
114
1002
}
  0
DIMENSION
  5
11B
100
AcDbEntity
  8
MAIN0
  6
CONTINUOUS
 62
3
100
AcDbDimension
  2
*D14
 10
138.2343509376577
 20
269.5060055971476
 30
0.0000000000000000
 11
141.7343509376577
 21
270.0060055971476
 31
0.0000000000000000
 70
32
  3
MAIN001
100
AcDbAlignedDimension
 13
145.2343509376577
 23
275.5555342032437
 33
0.0000000000000000
 14
138.2343509376577
 24
278.6895087995004
 34
0.0000000000000000
100
AcDbRotatedDimension
1001
ACAD
1000
DSTYLE
1002
{
1070
   173
1070
     1
1070
     6
1000
_OPEN
1070
     7
1000
_OPEN
1070
    41
1040
2.000000
1002
}
  0
DIMENSION
  5
122
100
AcDbEntity
  8
MAIN0
  6
CONTINUOUS
 62
3
100
AcDbDimension
  2
*D15
 10
145.2343509376577
 20
269.5060055971476
 30
0.0000000000000000
 11
158.2343509376577
 21
270.0060055971476
 31
0.0000000000000000
 70
32
  3
MAIN001
100
AcDbAlignedDimension
 13
171.2343509376577
 23
275.0555342032437
 33
0.0000000000000000
 14
145.2343509376577
 24
275.5555342032437
 34
0.0000000000000000
100
AcDbRotatedDimension
1001
ACAD
1000
DSTYLE
1002
{
1070
   173
1070
     1
1070
     6
1000
_OPEN
1070
     7
1000
_OPEN
1070
    41
1040
2.000000
1002
}
  0
LINE
  5
123
100
AcDbEntity
  8
MAIN0
  6
CONTINUOUS
 62
3
100
AcDbLine
 10
188.2345322941734
 20
274.6555342032436
 30
0.0000000000000000
 11
188.2345322941734
 21
279.0935435120160
 31
0.0000000000000000
  0
LINE
  5
124
100
AcDbEntity
  8
MAIN0
  6
CONTINUOUS
 62
3
100
AcDbLine
 10
188.2345322941734
 20
251.1614915034999
 30
0.0000000000000000
 11
188.2345322941734
 21
259.4555342032436
 31
0.0000000000000000
  0
LINE
  5
125
100
AcDbEntity
  8
MAIN0
  6
HIDDEN
 62
3
100
AcDbLine
 10
209.2343509376576
 20
240.2805342032437
 30
0.0000000000000000
 11
208.2343509376576
 21
239.2805342032437
 31
0.0000000000000000
  0
LINE
  5
126
100
AcDbEntity
  8
MAIN0
  6
HIDDEN
 62
3
100
AcDbLine
 10
208.2343509376576
 20
239.2805342032437
 30
0.0000000000000000
 11
208.2343509376576
 21
236.5805342032437
 31
0.0000000000000000
  0
LINE
  5
127
100
AcDbEntity
  8
MAIN0
  6
HIDDEN
 62
3
100
AcDbLine
 10
208.2343509376576
 20
236.5805342032437
 30
0.0000000000000000
 11
208.7539661799283
 21
236.2805342032437
 31
0.0000000000000000
  0
LINE
  5
128
100
AcDbEntity
  8
MAIN0
  6
HIDDEN
 62
3
100
AcDbLine
 10
208.7539661799283
 20
236.2805342032437
 30
0.0000000000000000
 11
211.7147356953870
 21
236.2805342032437
 31
0.0000000000000000
  0
LINE
  5
129
100
AcDbEntity
  8
MAIN0
  6
HIDDEN
 62
3
100
AcDbLine
 10
211.7147356953870
 20
236.2805342032437
 30
0.0000000000000000
 11
212.2343509376576
 21
236.5805342032437
 31
0.0000000000000000
  0
LINE
  5
12A
100
AcDbEntity
  8
MAIN0
  6
HIDDEN
 62
3
100
AcDbLine
 10
212.2343509376576
 20
236.5805342032437
 30
0.0000000000000000
 11
212.2343509376576
 21
239.2805342032437
 31
0.0000000000000000
  0
LINE
  5
12B
100
AcDbEntity
  8
MAIN0
  6
HIDDEN
 62
3
100
AcDbLine
 10
212.2343509376576
 20
239.2805342032437
 30
0.0000000000000000
 11
211.2343509376576
 21
240.2805342032437
 31
0.0000000000000000
  0
LINE
  5
12C
100
AcDbEntity
  8
MAIN0
  6
HIDDEN
 62
3
100
AcDbLine
 10
211.2343509376576
 20
240.2805342032437
 30
0.0000000000000000
 11
209.2343509376576
 21
240.2805342032437
 31
0.0000000000000000
  0
LINE
  5
12D
100
AcDbEntity
  8
MAIN0
  6
HIDDEN
 62
3
100
AcDbLine
 10
208.2343509376576
 20
239.2805342032437
 30
0.0000000000000000
 11
212.2343509376576
 21
239.2805342032437
 31
0.0000000000000000
  0
LINE
  5
12E
100
AcDbEntity
  8
MAIN0
  6
HIDDEN
 62
3
100
AcDbLine
 10
208.2343509376576
 20
236.5805342032437
 30
0.0000000000000000
 11
212.2343509376576
 21
236.5805342032437
 31
0.0000000000000000
  0
LINE
  5
12F
100
AcDbEntity
  8
MAIN0
  6
HIDDEN
 62
3
100
AcDbLine
 10
208.6132371376576
 20
239.6594204032437
 30
0.0000000000000000
 11
208.6132371376576
 21
236.3617841536814
 31
0.0000000000000000
  0
LINE
  5
130
100
AcDbEntity
  8
MAIN0
  6
HIDDEN
 62
3
100
AcDbLine
 10
211.8554647376577
 20
239.6594204032437
 30
0.0000000000000000
 11
211.8554647376577
 21
236.3617841536814
 31
0.0000000000000000
  0
LINE
  5
131
100
AcDbEntity
  8
MAIN0
  6
HIDDEN
 62
3
100
AcDbLine
 10
209.2343509376576
 20
240.2805342032437
 30
0.0000000000000000
 11
210.2343509376576
 21
239.2805342032437
 31
0.0000000000000000
  0
LINE
  5
132
100
AcDbEntity
  8
MAIN0
  6
HIDDEN
 62
3
100
AcDbLine
 10
210.2343509376576
 20
239.2805342032437
 30
0.0000000000000000
 11
211.2343509376576
 21
240.2805342032437
 31
0.0000000000000000
  0
LINE
  5
133
100
AcDbEntity
  8
MAIN0
  6
HIDDEN
 62
3
100
AcDbLine
 10
429.6515203776257
 20
217.2805342032436
 30
0.0000000000000000
 11
429.6515203776257
 21
199.5555342032436
 31
0.0000000000000000
  0
LINE
  5
134
100
AcDbEntity
  8
MAIN0
  6
HIDDEN
 62
3
100
AcDbLine
 10
424.6515203776257
 20
217.2805342032436
 30
0.0000000000000000
 11
424.6515203776257
 21
199.5555342032436
 31
0.0000000000000000
  0
LINE
  5
135
100
AcDbEntity
  8
MAIN0
  6
HIDDEN
 62
3
100
AcDbLine
 10
424.9015203776257
 20
234.2805342032436
 30
0.0000000000000000
 11
425.5015203776258
 21
234.8805342032436
 31
0.0000000000000000
  0
LINE
  5
136
100
AcDbEntity
  8
MAIN0
  6
HIDDEN
 62
3
100
AcDbLine
 10
425.5015203776258
 20
234.8805342032436
 30
0.0000000000000000
 11
428.8015203776257
 21
234.8805342032436
 31
0.0000000000000000
  0
LINE
  5
137
100
AcDbEntity
  8
MAIN0
  6
HIDDEN
 62
3
100
AcDbLine
 10
428.8015203776257
 20
234.8805342032436
 30
0.0000000000000000
 11
429.4015203776257
 21
234.2805342032436
 31
0.0000000000000000
  0
LINE
  5
138
100
AcDbEntity
  8
MAIN0
  6
HIDDEN
 62
3
100
AcDbLine
 10
425.1515203776257
 20
234.5305342032436
 30
0.0000000000000000
 11
425.1515203776257
 21
240.2805342032436
 31
0.0000000000000000
  0
LINE
  5
139
100
AcDbEntity
  8
MAIN0
  6
HIDDEN
 62
3
100
AcDbLine
 10
425.1515203776257
 20
240.2805342032436
 30
0.0000000000000000
 11
429.1515203776257
 21
240.2805342032436
 31
0.0000000000000000
  0
LINE
  5
13A
100
AcDbEntity
  8
MAIN0
  6
HIDDEN
 62
3
100
AcDbLine
 10
429.1515203776257
 20
240.2805342032436
 30
0.0000000000000000
 11
429.1515203776257
 21
234.5305342032436
 31
0.0000000000000000
  0
LINE
  5
13B
100
AcDbEntity
  8
MAIN0
  6
HIDDEN
 62
3
100
AcDbLine
 10
426.1515203776257
 20
240.2805342032436
 30
0.0000000000000000
 11
425.1515203776257
 21
239.2805342032436
 31
0.0000000000000000
  0
LINE
  5
13C
100
AcDbEntity
  8
MAIN0
  6
HIDDEN
 62
3
100
AcDbLine
 10
425.1515203776257
 20
239.2805342032436
 30
0.0000000000000000
 11
425.1515203776257
 21
236.5805342032436
 31
0.0000000000000000
  0
LINE
  5
13D
100
AcDbEntity
  8
MAIN0
  6
HIDDEN
 62
3
100
AcDbLine
 10
425.1515203776257
 20
236.5805342032436
 30
0.0000000000000000
 11
425.6711356198964
 21
236.2805342032436
 31
0.0000000000000000
  0
LINE
  5
13E
100
AcDbEntity
  8
MAIN0
  6
HIDDEN
 62
3
100
AcDbLine
 10
425.6711356198964
 20
236.2805342032436
 30
0.0000000000000000
 11
428.6319051353551
 21
236.2805342032436
 31
0.0000000000000000
  0
LINE
  5
13F
100
AcDbEntity
  8
MAIN0
  6
HIDDEN
 62
3
100
AcDbLine
 10
428.6319051353551
 20
236.2805342032436
 30
0.0000000000000000
 11
429.1515203776257
 21
236.5805342032436
 31
0.0000000000000000
  0
LINE
  5
140
100
AcDbEntity
  8
MAIN0
  6
HIDDEN
 62
3
100
AcDbLine
 10
429.1515203776257
 20
236.5805342032436
 30
0.0000000000000000
 11
429.1515203776257
 21
239.2805342032436
 31
0.0000000000000000
  0
LINE
  5
141
100
AcDbEntity
  8
MAIN0
  6
HIDDEN
 62
3
100
AcDbLine
 10
429.1515203776257
 20
239.2805342032436
 30
0.0000000000000000
 11
428.1515203776257
 21
240.2805342032436
 31
0.0000000000000000
  0
LINE
  5
142
100
AcDbEntity
  8
MAIN0
  6
HIDDEN
 62
3
100
AcDbLine
 10
428.1515203776257
 20
240.2805342032436
 30
0.0000000000000000
 11
426.1515203776257
 21
240.2805342032436
 31
0.0000000000000000
  0
LINE
  5
143
100
AcDbEntity
  8
MAIN0
  6
HIDDEN
 62
3
100
AcDbLine
 10
425.1515203776257
 20
239.2805342032436
 30
0.0000000000000000
 11
429.1515203776257
 21
239.2805342032436
 31
0.0000000000000000
  0
LINE
  5
144
100
AcDbEntity
  8
MAIN0
  6
HIDDEN
 62
3
100
AcDbLine
 10
425.1515203776257
 20
236.5805342032436
 30
0.0000000000000000
 11
429.1515203776257
 21
236.5805342032436
 31
0.0000000000000000
  0
LINE
  5
145
100
AcDbEntity
  8
MAIN0
  6
HIDDEN
 62
3
100
AcDbLine
 10
425.5304065776257
 20
239.6594204032436
 30
0.0000000000000000
 11
425.5304065776257
 21
236.3617841536814
 31
0.0000000000000000
  0
LINE
  5
146
100
AcDbEntity
  8
MAIN0
  6
HIDDEN
 62
3
100
AcDbLine
 10
428.7726341776257
 20
239.6594204032436
 30
0.0000000000000000
 11
428.7726341776257
 21
236.3617841536814
 31
0.0000000000000000
  0
LINE
  5
147
100
AcDbEntity
  8
MAIN0
  6
HIDDEN
 62
3
100
AcDbLine
 10
426.1515203776257
 20
240.2805342032436
 30
0.0000000000000000
 11
427.1515203776257
 21
239.2805342032436
 31
0.0000000000000000
  0
LINE
  5
148
100
AcDbEntity
  8
MAIN0
  6
HIDDEN
 62
3
100
AcDbLine
 10
427.1515203776257
 20
239.2805342032436
 30
0.0000000000000000
 11
428.1515203776257
 21
240.2805342032436
 31
0.0000000000000000
  0
LINE
  5
149
100
AcDbEntity
  8
MAIN0
  6
HIDDEN
 62
3
100
AcDbLine
 10
450.0666939933952
 20
282.1575168364691
 30
0.0000000000000000
 11
452.9225307579566
 21
283.8063349612503
 31
0.0000000000000000
  0
LINE
  5
14A
100
AcDbEntity
  8
MAIN0
  6
HIDDEN
 62
3
100
AcDbLine
 10
451.6878077933952
 20
279.3496653700181
 30
0.0000000000000000
 11
454.5436445579566
 21
280.9984834947993
 31
0.0000000000000000
  0
LINE
  5
14B
100
AcDbEntity
  8
MAIN0
  6
HIDDEN
 62
3
100
AcDbLine
 10
454.5436445579566
 20
280.5609833956748
 30
0.0000000000000000
 11
452.5436445579566
 21
284.0250850108125
 31
0.0000000000000000
  0
LINE
  5
14C
100
AcDbEntity
  8
MAIN0
  6
HIDDEN
 62
3
100
AcDbLine
 10
451.2053759677386
 20
280.9430342032437
 30
0.0000000000000000
 11
449.8393505639542
 21
281.3090596070281
 31
0.0000000000000000
  0
LINE
  5
14D
100
AcDbEntity
  8
MAIN0
  6
HIDDEN
 62
3
100
AcDbLine
 10
450.8393505639542
 20
279.5770087994592
 30
0.0000000000000000
 11
451.2053759677386
 21
280.9430342032437
 31
0.0000000000000000
  0
LINE
  5
14E
100
AcDbEntity
  8
MAIN0
  6
HIDDEN
 62
3
100
AcDbLine
 10
469.0079348509962
 20
294.1080977127047
 30
0.0000000000000000
 11
484.3582351330755
 21
302.9705977127047
 31
0.0000000000000000
  0
LINE
  5
14F
100
AcDbEntity
  8
MAIN0
  6
HIDDEN
 62
3
100
AcDbLine
 10
471.5079348509962
 20
289.7779706937826
 30
0.0000000000000000
 11
486.8582351330755
 21
298.6404706937826
 31
0.0000000000000000
  0
LINE
  5
150
100
AcDbEntity
  8
MAIN0
  6
HIDDEN
 62
3
100
AcDbLine
 10
456.6605029866608
 20
281.4944770447287
 30
0.0000000000000000
 11
455.8408877443901
 21
281.7140922869994
 31
0.0000000000000000
  0
LINE
  5
151
100
AcDbEntity
  8
MAIN0
  6
HIDDEN
 62
3
100
AcDbLine
 10
455.8408877443901
 20
281.7140922869994
 30
0.0000000000000000
 11
454.1908877443901
 21
284.5719761194879
 31
0.0000000000000000
  0
LINE
  5
152
100
AcDbEntity
  8
MAIN0
  6
HIDDEN
 62
3
100
AcDbLine
 10
454.1908877443901
 20
284.5719761194880
 30
0.0000000000000000
 11
454.4105029866607
 21
285.3915913617586
 31
0.0000000000000000
  0
LINE
  5
153
100
AcDbEntity
  8
MAIN0
  6
HIDDEN
 62
3
100
AcDbLine
 10
456.3189966357147
 20
281.5859833956748
 30
0.0000000000000000
 11
451.3393505639542
 21
278.7109833956748
 31
0.0000000000000000
  0
LINE
  5
154
100
AcDbEntity
  8
MAIN0
  6
HIDDEN
 62
3
100
AcDbLine
 10
451.3393505639542
 20
278.7109833956748
 30
0.0000000000000000
 11
449.3393505639542
 21
282.1750850108125
 31
0.0000000000000000
  0
LINE
  5
155
100
AcDbEntity
  8
MAIN0
  6
HIDDEN
 62
3
100
AcDbLine
 10
449.3393505639542
 20
282.1750850108125
 30
0.0000000000000000
 11
454.3189966357147
 21
285.0500850108125
 31
0.0000000000000000
  0
LINE
  5
156
100
AcDbEntity
  8
MAIN0
  6
HIDDEN
 62
3
100
AcDbLine
 10
450.8393505639542
 20
279.5770087994592
 30
0.0000000000000000
 11
452.2053759677386
 21
279.2109833956748
 31
0.0000000000000000
  0
LINE
  5
157
100
AcDbEntity
  8
MAIN0
  6
HIDDEN
 62
3
100
AcDbLine
 10
452.2053759677386
 20
279.2109833956748
 30
0.0000000000000000
 11
454.5436445579566
 21
280.5609833956748
 31
0.0000000000000000
  0
LINE
  5
158
100
AcDbEntity
  8
MAIN0
  6
HIDDEN
 62
3
100
AcDbLine
 10
454.5436445579566
 20
280.5609833956748
 30
0.0000000000000000
 11
454.5436445579566
 21
281.1609833956748
 31
0.0000000000000000
  0
LINE
  5
159
100
AcDbEntity
  8
MAIN0
  6
HIDDEN
 62
3
100
AcDbLine
 10
454.5436445579566
 20
281.1609833956748
 30
0.0000000000000000
 11
453.0632598002272
 21
283.7250850108125
 31
0.0000000000000000
  0
LINE
  5
15A
100
AcDbEntity
  8
MAIN0
  6
HIDDEN
 62
3
100
AcDbLine
 10
453.0632598002272
 20
283.7250850108126
 30
0.0000000000000000
 11
452.5436445579566
 21
284.0250850108125
 31
0.0000000000000000
  0
LINE
  5
15B
100
AcDbEntity
  8
MAIN0
  6
HIDDEN
 62
3
100
AcDbLine
 10
452.5436445579566
 20
284.0250850108125
 30
0.0000000000000000
 11
450.2053759677386
 21
282.6750850108125
 31
0.0000000000000000
  0
LINE
  5
15C
100
AcDbEntity
  8
MAIN0
  6
HIDDEN
 62
3
100
AcDbLine
 10
450.2053759677386
 20
282.6750850108125
 30
0.0000000000000000
 11
449.8393505639542
 21
281.3090596070281
 31
0.0000000000000000
  0
LINE
  5
15D
100
AcDbEntity
  8
MAIN0
  6
HIDDEN
 62
3
100
AcDbLine
 10
449.8393505639542
 20
281.3090596070281
 30
0.0000000000000000
 11
450.8393505639542
 21
279.5770087994592
 31
0.0000000000000000
  0
LINE
  5
15E
100
AcDbEntity
  8
MAIN0
  6
HIDDEN
 62
3
100
AcDbLine
 10
452.2053759677386
 20
279.2109833956748
 30
0.0000000000000000
 11
450.2053759677386
 21
282.6750850108125
 31
0.0000000000000000
  0
LINE
  5
15F
100
AcDbEntity
  8
MAIN0
  6
HIDDEN
 62
3
100
AcDbLine
 10
402.6152329618564
 20
279.3496653700183
 30
0.0000000000000000
 11
399.7593961972950
 21
280.9984834947994
 31
0.0000000000000000
  0
LINE
  5
160
100
AcDbEntity
  8
MAIN0
  6
HIDDEN
 62
3
100
AcDbLine
 10
404.2363467618563
 20
282.1575168364693
 30
0.0000000000000000
 11
401.3805099972950
 21
283.8063349612504
 31
0.0000000000000000
  0
LINE
  5
161
100
AcDbEntity
  8
MAIN0
  6
HIDDEN
 62
3
100
AcDbLine
 10
401.7593961972950
 20
284.0250850108126
 30
0.0000000000000000
 11
399.7593961972950
 21
280.5609833956749
 31
0.0000000000000000
  0
LINE
  5
162
100
AcDbEntity
  8
MAIN0
  6
HIDDEN
 62
3
100
AcDbLine
 10
403.0976647875129
 20
280.9430342032438
 30
0.0000000000000000
 11
403.4636901912974
 21
279.5770087994594
 31
0.0000000000000000
  0
LINE
  5
163
100
AcDbEntity
  8
MAIN0
  6
HIDDEN
 62
3
100
AcDbLine
 10
404.4636901912974
 20
281.3090596070283
 30
0.0000000000000000
 11
403.0976647875129
 21
280.9430342032438
 31
0.0000000000000000
  0
LINE
  5
164
100
AcDbEntity
  8
MAIN0
  6
HIDDEN
 62
3
100
AcDbLine
 10
382.7951059042554
 20
289.7779706937827
 30
0.0000000000000000
 11
367.4448056221762
 21
298.6404706937827
 31
0.0000000000000000
  0
LINE
  5
165
100
AcDbEntity
  8
MAIN0
  6
HIDDEN
 62
3
100
AcDbLine
 10
385.2951059042554
 20
294.1080977127049
 30
0.0000000000000000
 11
369.9448056221762
 21
302.9705977127049
 31
0.0000000000000000
  0
LINE
  5
166
100
AcDbEntity
  8
MAIN0
  6
HIDDEN
 62
3
100
AcDbLine
 10
399.8925377685907
 20
285.3915913617587
 30
0.0000000000000000
 11
400.1121530108615
 21
284.5719761194881
 31
0.0000000000000000
  0
LINE
  5
167
100
AcDbEntity
  8
MAIN0
  6
HIDDEN
 62
3
100
AcDbLine
 10
400.1121530108615
 20
284.5719761194881
 30
0.0000000000000000
 11
398.4621530108615
 21
281.7140922869995
 31
0.0000000000000000
  0
LINE
  5
168
100
AcDbEntity
  8
MAIN0
  6
HIDDEN
 62
3
100
AcDbLine
 10
398.4621530108614
 20
281.7140922869995
 30
0.0000000000000000
 11
397.6425377685907
 21
281.4944770447288
 31
0.0000000000000000
  0
LINE
  5
169
100
AcDbEntity
  8
MAIN0
  6
HIDDEN
 62
3
100
AcDbLine
 10
399.9840441195369
 20
285.0500850108127
 30
0.0000000000000000
 11
404.9636901912974
 21
282.1750850108127
 31
0.0000000000000000
  0
LINE
  5
16A
100
AcDbEntity
  8
MAIN0
  6
HIDDEN
 62
3
100
AcDbLine
 10
404.9636901912974
 20
282.1750850108127
 30
0.0000000000000000
 11
402.9636901912974
 21
278.7109833956749
 31
0.0000000000000000
  0
LINE
  5
16B
100
AcDbEntity
  8
MAIN0
  6
HIDDEN
 62
3
100
AcDbLine
 10
402.9636901912974
 20
278.7109833956749
 30
0.0000000000000000
 11
397.9840441195369
 21
281.5859833956749
 31
0.0000000000000000
  0
LINE
  5
16C
100
AcDbEntity
  8
MAIN0
  6
HIDDEN
 62
3
100
AcDbLine
 10
404.4636901912974
 20
281.3090596070283
 30
0.0000000000000000
 11
404.0976647875129
 21
282.6750850108127
 31
0.0000000000000000
  0
LINE
  5
16D
100
AcDbEntity
  8
MAIN0
  6
HIDDEN
 62
3
100
AcDbLine
 10
404.0976647875129
 20
282.6750850108127
 30
0.0000000000000000
 11
401.7593961972950
 21
284.0250850108126
 31
0.0000000000000000
  0
LINE
  5
16E
100
AcDbEntity
  8
MAIN0
  6
HIDDEN
 62
3
100
AcDbLine
 10
401.7593961972949
 20
284.0250850108126
 30
0.0000000000000000
 11
401.2397809550242
 21
283.7250850108127
 31
0.0000000000000000
  0
LINE
  5
16F
100
AcDbEntity
  8
MAIN0
  6
HIDDEN
 62
3
100
AcDbLine
 10
401.2397809550243
 20
283.7250850108127
 30
0.0000000000000000
 11
399.7593961972950
 21
281.1609833956749
 31
0.0000000000000000
  0
LINE
  5
170
100
AcDbEntity
  8
MAIN0
  6
HIDDEN
 62
3
100
AcDbLine
 10
399.7593961972949
 20
281.1609833956749
 30
0.0000000000000000
 11
399.7593961972949
 21
280.5609833956749
 31
0.0000000000000000
  0
LINE
  5
171
100
AcDbEntity
  8
MAIN0
  6
HIDDEN
 62
3
100
AcDbLine
 10
399.7593961972950
 20
280.5609833956749
 30
0.0000000000000000
 11
402.0976647875129
 21
279.2109833956749
 31
0.0000000000000000
  0
LINE
  5
172
100
AcDbEntity
  8
MAIN0
  6
HIDDEN
 62
3
100
AcDbLine
 10
402.0976647875129
 20
279.2109833956749
 30
0.0000000000000000
 11
403.4636901912974
 21
279.5770087994594
 31
0.0000000000000000
  0
LINE
  5
173
100
AcDbEntity
  8
MAIN0
  6
HIDDEN
 62
3
100
AcDbLine
 10
403.4636901912974
 20
279.5770087994594
 30
0.0000000000000000
 11
404.4636901912974
 21
281.3090596070282
 31
0.0000000000000000
  0
LINE
  5
174
100
AcDbEntity
  8
MAIN0
  6
HIDDEN
 62
3
100
AcDbLine
 10
404.0976647875129
 20
282.6750850108127
 30
0.0000000000000000
 11
402.0976647875129
 21
279.2109833956749
 31
0.0000000000000000
  0
DIMENSION
  5
17C
100
AcDbEntity
  8
MAIN0
  6
CONTINUOUS
 62
3
100
AcDbDimension
  2
*D16
 10
289.0455003867274
 20
300.7555342032438
 30
0.0000000000000000
 11
288.5069999783102
 21
284.2081878354916
 31
0.0000000000000000
 70
160
  1
\A1;MAX 34.4
  3
MAIN001
100
AcDbAlignedDimension
 13
127.9814705281702
 23
267.0555342032437
 33
0.0000000000000000
 14
246.2343509376556
 24
300.7555342032437
 34
0.0000000000000000
 50
90.00000000000020
100
AcDbRotatedDimension
1001
ACAD
1000
DSTYLE
1002
{
1070
   173
1070
     1
1070
     6
1000
_OPEN
1070
     7
1000
_OPEN
1070
    41
1040
2.000000
1002
}
  0
LINE
  5
17D
100
AcDbEntity
  8
MAIN0
  6
CONTINUOUS
 62
3
100
AcDbLine
 10
148.2343509376576
 20
200.5555342032437
 30
0.0000000000000000
 11
148.2343509376576
 21
220.7805342032437
 31
0.0000000000000000
  0
LINE
  5
17E
100
AcDbEntity
  8
MAIN0
  6
CONTINUOUS
 62
3
100
AcDbLine
 10
148.2343509376576
 20
230.7805342032437
 30
0.0000000000000000
 11
148.2343509376576
 21
252.5195936236704
 31
0.0000000000000000
  0
MTEXT
  5
17F
100
AcDbEntity
  8
MAIN0
  6
CONTINUOUS
 62
3
100
AcDbMText
 10
125.0932614982656
 20
294.8810829018872
 30
0.0000000000000000
 40
3.099999904632568
 41
0.0000000000000000
 71
     1
 72
     1
  1
{\H0.70x;{MIN 12}}
 11
1.000000000000000
 21
0.0000000000000000
 31
0.0000000000000000
  7
STANDARD
  0
DIMENSION
  5
188
100
AcDbEntity
  8
MAIN0
  6
CONTINUOUS
 62
3
100
AcDbDimension
  2
*D17
 10
138.2343509376577
 20
295.3810829972546
 30
0.0000000000000000
 11
131.3932619617447
 21
295.8810829972546
 31
0.0000000000000000
 70
160
  1
\A1;MAX 18
  3
MAIN001
100
AcDbAlignedDimension
 13
153.2343509376577
 23
279.5555342032437
 33
0.0000000000000000
 14
138.2343509376577
 24
278.6895087995004
 34
0.0000000000000000
100
AcDbRotatedDimension
1001
ACAD
1000
DSTYLE
1002
{
1070
   173
1070
     1
1070
     6
1000
_OPEN
1070
     7
1000
_OPEN
1070
    41
1040
2.000000
1002
}
  0
MTEXT
  5
189
100
AcDbEntity
  8
MAIN0
  6
CONTINUOUS
 62
3
100
AcDbMText
 10
252.4042976289121
 20
211.1798734149708
 30
0.0000000000000000
 40
3.099999904632568
 41
0.0000000000000000
 71
     1
 72
     1
  1
{\H0.70x;{MIN -2.65}}
 11
1.000000000000000
 21
0.0000000000000000
 31
0.0000000000000000
  7
STANDARD
  0
MTEXT
  5
18A
100
AcDbEntity
  8
MAIN0
  6
CONTINUOUS
 62
3
100
AcDbMText
 10
219.6500496408144
 20
91.55224178328385
 30
0.0000000000000000
 40
3.099999904632568
 41
0.0000000000000000
 71
     1
 72
     1
  1
{\H0.94x;{ジョー型式：SBE05：\U+220553～\U+220563}}
 11
1.000000000000000
 21
0.0000000000000000
 31
0.0000000000000000
  7
KNJYOKO
  0
MTEXT
  5
18B
100
AcDbEntity
  8
MAIN0
  6
CONTINUOUS
 62
3
100
AcDbMText
 10
219.4628160746917
 20
81.68419049119487
 30
0.0000000000000000
 40
3.099999904632568
 41
0.0000000000000000
 71
     1
 72
     1
  1
{\H0.94x;{ジョー型式：SBE05A；\U+220569～\U+220578（オプション）}}
 11
1.000000000000000
 21
0.0000000000000000
 31
0.0000000000000000
  7
KNJYOKO
  0
LINE
  5
18C
100
AcDbEntity
  8
MAIN0
  6
HIDDEN
 62
3
100
AcDbLine
 10
428.8015203776257
 20
234.8805342032436
 30
0.0000000000000000
 11
428.8015164888201
 21
246.6431845112890
 31
0.0000000000000000
  0
LINE
  5
18D
100
AcDbEntity
  8
MAIN0
  6
HIDDEN
 62
3
100
AcDbLine
 10
425.5015203776257
 20
234.8805342032436
 30
0.0000000000000000
 11
425.5015203774983
 21
246.6431845112890
 31
0.0000000000000000
  0
LINE
  5
18E
100
AcDbEntity
  8
MAIN0
  6
HIDDEN
 62
3
100
AcDbLine
 10
441.2674329918322
 20
277.1106103424712
 30
0.0000000000000000
 11
454.1908877443901
 21
284.5719761194880
 31
0.0000000000000000
  0
LINE
  5
18F
100
AcDbEntity
  8
MAIN0
  6
HIDDEN
 62
3
100
AcDbLine
 10
441.2674329918322
 20
273.3001042623768
 30
0.0000000000000000
 11
455.8408877443901
 21
281.7140922869994
 31
0.0000000000000000
  0
LINE
  5
190
100
AcDbEntity
  8
MAIN0
  6
HIDDEN
 62
3
100
AcDbLine
 10
398.4621530108615
 20
281.7140922869995
 30
0.0000000000000000
 11
411.4637194489835
 21
274.2076401352605
 31
0.0000000000000000
  0
LINE
  5
191
100
AcDbEntity
  8
MAIN0
  6
HIDDEN
 62
3
100
AcDbLine
 10
400.1121530108615
 20
284.5719761194881
 30
0.0000000000000000
 11
411.4637194489835
 21
278.0181461808783
 31
0.0000000000000000
  0
LINE
  5
192
100
AcDbEntity
  8
MAIN0
  6
CONTINUOUS
 62
3
100
AcDbLine
 10
155.2343509376577
 20
252.0555342032436
 30
0.0000000000000000
 11
155.2343509376577
 21
254.5555342032436
 31
0.0000000000000000
  0
LINE
  5
193
100
AcDbEntity
  8
MAIN0
  6
CONTINUOUS
 62
3
100
AcDbLine
 10
159.2343509376577
 20
252.0555342032437
 30
0.0000000000000000
 11
159.2343509376577
 21
254.5555342032436
 31
0.0000000000000000
  0
LINE
  5
194
100
AcDbEntity
  8
MAIN0
  6
CONTINUOUS
 62
3
100
AcDbLine
 10
155.2343509376577
 20
252.0555342032437
 30
0.0000000000000000
 11
159.2343509376577
 21
252.0555342032437
 31
0.0000000000000000
  0
ELLIPSE
  5
195
100
AcDbEntity
  8
MAIN0
  6
CONTINUOUS
 62
3
100
AcDbEllipse
 10
157.2343509376577
 20
253.3055342032437
 30
0.0000000000000000
 11
-2.000000000000000
 21
0.0000000000000000
 31
0.0000000000000000
210
0.0000000000000000
220
0.0000000000000000
230
1.000000000000000
 40
0.6250000000000000
 41
0.0000000000000000
 42
6.283185307179586
  0
LINE
  5
196
100
AcDbEntity
  8
MAIN0
  6
CONTINUOUS
 62
3
100
AcDbLine
 10
155.2343509376577
 20
282.0555342032437
 30
0.0000000000000000
 11
155.2343509376577
 21
279.5555342032437
 31
0.0000000000000000
  0
LINE
  5
197
100
AcDbEntity
  8
MAIN0
  6
CONTINUOUS
 62
3
100
AcDbLine
 10
159.2343509376577
 20
282.0555342032437
 30
0.0000000000000000
 11
159.2343509376577
 21
279.5555342032437
 31
0.0000000000000000
  0
LINE
  5
198
100
AcDbEntity
  8
MAIN0
  6
CONTINUOUS
 62
3
100
AcDbLine
 10
155.2343509376577
 20
282.0555342032437
 30
0.0000000000000000
 11
159.2343509376577
 21
282.0555342032437
 31
0.0000000000000000
  0
ELLIPSE
  5
199
100
AcDbEntity
  8
MAIN0
  6
CONTINUOUS
 62
3
100
AcDbEllipse
 10
157.2343509376577
 20
280.8055342032437
 30
0.0000000000000000
 11
2.000000000000000
 21
0.0000000000000000
 31
0.0000000000000000
210
0.0000000000000000
220
0.0000000000000000
230
1.000000000000000
 40
0.6250000000000000
 41
0.0000000000000000
 42
6.283185307179586
  0
CIRCLE
  5
19A
100
AcDbEntity
  8
MAIN0
  6
HIDDEN
 62
3
100
AcDbCircle
 10
427.1515203776257
 20
293.7596672190620
 30
0.0000000000000000
 40
3.000000000000000
  0
CIRCLE
  5
19B
100
AcDbEntity
  8
MAIN0
  6
HIDDEN
 62
3
100
AcDbCircle
 10
427.1515203776257
 20
293.7596672190620
 30
0.0000000000000000
 40
2.500000000000000
  0
LINE
  5
19C
100
AcDbEntity
  8
MAIN0
  6
CONTINUOUS
 62
3
100
AcDbLine
 10
166.2343509376577
 20
279.5555342032437
 30
0.0000000000000000
 11
166.2343509376577
 21
285.3621314595776
 31
0.0000000000000000
  0
LINE
  5
19D
100
AcDbEntity
  8
MAIN0
  6
CONTINUOUS
 62
3
100
AcDbLine
 10
166.2343509376577
 20
250.6644424907659
 30
0.0000000000000000
 11
166.2343509376577
 21
254.5555342032437
 31
0.0000000000000000
  0
SPLINE
  5
19E
100
AcDbEntity
  8
MAIN0
  6
CONTINUOUS
 62
3
100
AcDbSpline
210
0.0000000000000000
220
0.0000000000000000
230
1.000000000000000
 70
     8
 71
     3
 72
    12
 73
     8
 74
     0
 42
1.000000000000000e-007
 43
1.000000000000000e-007
 12
0.8667067074354975
 22
-0.5587365180610391
 32
0.0000000000000000
 13
0.6010511223958517
 23
0.7996262070374200
 33
0.0000000000000000
 40
0.0000000000000000
 40
0.0000000000000000
 40
0.0000000000000000
 40
0.0000000000000000
 40
8.319493299368384
 40
11.81949329936838
 40
19.38328306506976
 40
45.05021139170980
 40
55.13987127354616
 40
55.13987127354616
 40
55.13987127354616
 40
55.13987127354616
 10
180.7140431002549
 20
282.6511004043779
 30
0.0000000000000000
 10
183.1175633152640
 20
281.1016321650041
 30
0.0000000000000000
 10
186.5322413556145
 20
278.9003046545591
 30
0.0000000000000000
 10
193.1579891800024
 20
278.9009985962728
 30
0.0000000000000000
 10
204.5743821467259
 20
285.2946162820077
 30
0.0000000000000000
 10
206.6260302760389
 20
301.4922585386859
 30
0.0000000000000000
 10
213.7898761012892
 20
311.0228935406004
 30
0.0000000000000000
 10
215.8113432334793
 20
313.7122123611372
 30
0.0000000000000000
  0
LINE
  5
19F
100
AcDbEntity
  8
MAIN0
  6
CONTINUOUS
 62
3
100
AcDbLine
 10
418.9509106441266
 20
279.2555342031961
 30
0.0000000000000000
 11
415.1515203776258
 21
279.2555342031961
 31
0.0000000000000000
  0
LINE
  5
1A0
100
AcDbEntity
  8
MAIN0
  6
CONTINUOUS
 62
3
100
AcDbLine
 10
435.3521301111249
 20
279.2555342031960
 30
0.0000000000000000
 11
439.1515203776258
 21
279.2555342031960
 31
0.0000000000000000
  0
LINE
  5
1A1
100
AcDbEntity
  8
MAIN0
  6
CONTINUOUS
 62
3
100
AcDbLine
 10
415.1515203776258
 20
300.7555342032358
 30
0.0000000000000000
 11
439.1515203776258
 21
300.7555342032396
 31
0.0000000000000000
  0
LEADER
  5
1A2
100
AcDbEntity
  8
MAIN0
  6
CONTINUOUS
 62
3
100
AcDbLeader
  3
MAIN001
 73
     0
 75
     1
 40
3.099999904632568
 41
7.989000247955318
 76
     3
 10
155.7216432467362
 20
259.0555342032437
 30
0.0000000000000000
 10
111.9913199604523
 20
230.4695314432018
 30
0.0000000000000000
 10
110.0643200162422
 20
230.4695314432018
 30
0.0000000000000000
340
1A3
213
0.0000000000000000
223
-0.5000000000000000
233
0.0000000000000000
1001
ACAD
1000
DSTYLE
1002
{
1070
   147
1040
0.0
1070
    77
1070
     1
1070
   173
1070
     1
1070
     6
1000
_OPEN
1070
     7
1000
_OPEN
1002
}
  0
MTEXT
  5
1A3
102
{ACAD_REACTORS
330
1A2
102
}
100
AcDbEntity
  8
MAIN0
  6
CONTINUOUS
 62
3
100
AcDbMText
 10
102.0753197682869
 20
234.0695313478344
 30
0.0000000000000000
 40
3.099999904632568
 41
0.0000000000000000
 71
     1
 72
     1
  1
{\H0.90x;{M16}}
 11
1.000000000000000
 21
0.0000000000000000
 31
0.0000000000000000
  7
STANDARD
  0
LEADER
  5
1A4
100
AcDbEntity
  8
MAIN0
  6
CONTINUOUS
 62
3
100
AcDbLeader
  3
MAIN001
 73
     0
 75
     1
 40
3.099999904632568
 41
7.989000247955318
 76
     3
 10
144.0485808296454
 20
220.7805342032437
 30
0.0000000000000000
 10
95.26579798166944
 20
180.8665756118847
 30
0.0000000000000000
 10
93.33879803745938
 20
180.8665756118847
 30
0.0000000000000000
340
1A5
213
0.0000000000000000
223
-0.5000000000000000
233
0.0000000000000000
1001
ACAD
1000
DSTYLE
1002
{
1070
   147
1040
0.0
1070
    77
1070
     1
1070
   173
1070
     1
1070
     6
1000
_OPEN
1070
     7
1000
_OPEN
1002
}
  0
MTEXT
  5
1A5
102
{ACAD_REACTORS
330
1A4
102
}
100
AcDbEntity
  8
MAIN0
  6
CONTINUOUS
 62
3
100
AcDbMText
 10
85.34979778950407
 20
184.4665755165173
 30
0.0000000000000000
 40
3.099999904632568
 41
0.0000000000000000
 71
     1
 72
     1
  1
{\H0.90x;{M10}}
 11
1.000000000000000
 21
0.0000000000000000
 31
0.0000000000000000
  7
STANDARD
  0
LEADER
  5
1A6
100
AcDbEntity
  8
MAIN0
  6
CONTINUOUS
 62
3
100
AcDbLeader
  3
MAIN001
 73
     0
 75
     1
 40
3.099999904632568
 41
42.15900121831896
 76
     3
 10
410.1162901947804
 20
213.8514838175140
 30
0.0000000000000000
 10
373.5630753159286
 20
174.2662182134239
 30
0.0000000000000000
 10
371.6360753717186
 20
174.2662182134239
 30
0.0000000000000000
340
1A7
213
0.0000000000000000
223
-0.5000000000000000
233
0.0000000000000000
1001
ACAD
1000
DSTYLE
1002
{
1070
   147
1040
0.0
1070
    77
1070
     1
1070
   173
1070
     1
1070
     6
1000
_OPEN
1070
     7
1000
_OPEN
1002
}
  0
MTEXT
  5
1A7
102
{ACAD_REACTORS
330
1A6
102
}
100
AcDbEntity
  8
MAIN0
  6
CONTINUOUS
 62
3
100
AcDbMText
 10
329.4770741533997
 20
177.8662181180565
 30
0.0000000000000000
 40
3.099999904632568
 41
0.0000000000000000
 71
     1
 72
     1
  1
{\H0.93x;{3×4-M6 ネジ深11\P3×4-M6 DEPTH 11}}
 11
1.000000000000000
 21
0.0000000000000000
 31
0.0000000000000000
  7
KNJYOKO
  0
LEADER
  5
1A8
100
AcDbEntity
  8
MAIN0
  6
CONTINUOUS
 62
3
100
AcDbLeader
  3
MAIN001
 73
     0
 74
     0
 75
     1
 40
3.099999904632568
 41
27.52100081539152
 76
     3
 10
224.8800263336659
 20
296.0556672190618
 30
0.0000000000000000
 10
270.1863315540913
 20
351.2056893562132
 30
0.0000000000000000
 10
272.1113314983014
 20
351.2056893562132
 30
0.0000000000000000
340
1A9
213
0.0000000000000000
223
-0.5000000000000000
233
0.0000000000000000
1001
ACAD
1000
DSTYLE
1002
{
1070
   147
1040
0.0
1070
    77
1070
     1
1070
   173
1070
     1
1070
     6
1000
_OPEN
1070
     7
1000
_OPEN
1002
}
  0
MTEXT
  5
1A9
102
{ACAD_REACTORS
330
1A8
102
}
100
AcDbEntity
  8
MAIN0
  6
CONTINUOUS
 62
3
100
AcDbMText
 10
272.1123314983014
 20
354.8056892608458
 30
0.0000000000000000
 40
3.099999904632568
 41
0.0000000000000000
 71
     1
 72
     1
  1
{\H0.93x;{M6 深さ9\PM6 DEPTH 9}}
 11
1.000000000000000
 21
0.0000000000000000
 31
0.0000000000000000
  7
KNJYOKO
  0
LEADER
  5
1AA
100
AcDbEntity
  8
MAIN0
  6
CONTINUOUS
 62
3
100
AcDbLeader
  3
MAIN001
 73
     0
 74
     0
 75
     1
 40
3.099999904632568
 41
86.80100251531599
 76
     3
 10
241.8482713399558
 20
288.2678324077593
 30
0.0000000000000000
 10
277.4182378507112
 20
335.6961099165146
 30
0.0000000000000000
 10
279.3432377949213
 20
335.6961099165146
 30
0.0000000000000000
340
1AB
213
0.0000000000000000
223
-0.5000000000000000
233
0.0000000000000000
1001
ACAD
1000
DSTYLE
1002
{
1070
   147
1040
0.0
1070
    77
1070
     1
1070
   173
1070
     1
1070
     6
1000
_OPEN
1070
     7
1000
_OPEN
1002
}
  0
MTEXT
  5
1AB
102
{ACAD_REACTORS
330
1AA
102
}
100
AcDbEntity
  8
MAIN0
  6
CONTINUOUS
 62
3
100
AcDbMText
 10
279.3442377949212
 20
339.2961098211472
 30
0.0000000000000000
 40
3.099999904632568
 41
0.0000000000000000
 71
     1
 72
     1
  1
{\H0.94x;{Bアナツキ M6×10\PHEX SOCKET HEAD CAP SCREW M6×10}}
 11
1.000000000000000
 21
0.0000000000000000
 31
0.0000000000000000
  7
KNJYOKO
  0
LEADER
  5
1AC
100
AcDbEntity
  8
MAIN0
  6
CONTINUOUS
 62
3
100
AcDbLeader
  3
MAIN001
 73
     0
 75
     1
 40
3.099999904632568
 41
35.88900105857852
 76
     3
 10
424.8727000641788
 20
324.0066820651500
 30
0.0000000000000000
 10
393.9812370421284
 20
350.4562497080963
 30
0.0000000000000000
 10
392.0542370979184
 20
350.4562497080963
 30
0.0000000000000000
340
1AD
213
0.0000000000000000
223
-0.5000000000000000
233
0.0000000000000000
1001
ACAD
1000
DSTYLE
1002
{
1070
   147
1040
0.0
1070
    77
1070
     1
1070
   173
1070
     1
1070
     6
1000
_OPEN
1070
     7
1000
_OPEN
1002
}
  0
MTEXT
  5
1AD
102
{ACAD_REACTORS
330
1AC
102
}
100
AcDbEntity
  8
MAIN0
  6
CONTINUOUS
 62
3
100
AcDbMText
 10
356.1652360393399
 20
354.0562496127288
 30
0.0000000000000000
 40
3.099999904632568
 41
0.0000000000000000
 71
     1
 72
     1
  1
{\H0.93x;{3-M6 ネジ深11\P3-M6 DEPTH 11}}
 11
1.000000000000000
 21
0.0000000000000000
 31
0.0000000000000000
  7
KNJYOKO
  0
MTEXT
  5
1AE
100
AcDbEntity
  8
MAIN0
  6
CONTINUOUS
 62
3
100
AcDbMText
 10
460.7095238270928
 20
246.1797011783353
 30
0.0000000000000000
 40
4.000000000000000
 41
0.0000000000000000
 71
     1
 72
     1
  1
{\H0.81x;{1}}
 11
0.5000000000001518
 21
0.8660254037843510
 31
0.0000000000000000
  7
STANDARD
  0
MTEXT
  5
1AF
100
AcDbEntity
  8
MAIN0
  6
CONTINUOUS
 62
3
100
AcDbMText
 10
392.1435169281591
 20
248.6911748493091
 30
0.0000000000000000
 40
4.000000000000000
 41
0.0000000000000000
 71
     1
 72
     1
  1
{\H0.81x;{2}}
 11
0.4999999999998447
 21
-0.8660254037845283
 31
0.0000000000000000
  7
STANDARD
  0
MTEXT
  5
1B0
100
AcDbEntity
  8
MAIN0
  6
CONTINUOUS
 62
3
100
AcDbMText
 10
428.7515203776259
 20
306.5555342032223
 30
0.0000000000000000
 40
4.000000000000000
 41
0.0000000000000000
 71
     1
 72
     1
  1
{\H0.81x;{3}}
 11
-1.000000000000000
 21
1.773140594100897e-013
 31
0.0000000000000000
  7
STANDARD
  0
MTEXT
  5
1B1
100
AcDbEntity
  8
MAIN0
  6
CONTINUOUS
 62
3
100
AcDbMText
 10
457.1226635480188
 20
228.9670769349852
 30
0.0000000000000000
 40
4.500000000000000
 41
0.0000000000000000
 71
     5
 72
     1
  1
{\H0.70x;{KITAGAWA}}
 11
0.5000000000006618
 21
0.8660254037840566
 31
0.0000000000000000
  7
STANDARD
  0
MTEXT
  5
1B2
100
AcDbEntity
  8
MAIN0
  6
CONTINUOUS
 62
4
100
AcDbMText
 10
463.0018286726621
 20
226.1500896369599
 30
0.0000000000000000
 40
4.000000000000000
 41
0.0000000000000000
 71
     5
 72
     1
  1
{\H0.78x;{JAPAN}}
 11
0.5000000000001511
 21
0.8660254037843514
 31
0.0000000000000000
  7
STANDARD
  0
DIMENSION
  5
1BA
100
AcDbEntity
  8
MAIN0
  6
CONTINUOUS
 62
3
100
AcDbDimension
  2
*D18
 10
289.0455003867274
 20
300.7555342032437
 30
0.0000000000000000
 11
292.6907167146576
 21
282.6066014383219
 31
0.0000000000000000
 70
160
  1
\A1;MIN 33
  3
MAIN001
100
AcDbAlignedDimension
 13
127.9814705281702
 23
267.0555342032437
 33
0.0000000000000000
 14
246.2343509376556
 24
300.7555342032437
 34
0.0000000000000000
 50
90.00000000000000
100
AcDbRotatedDimension
1001
ACAD
1000
DSTYLE
1002
{
1070
   173
1070
     1
1070
     6
1000
_OPEN
1070
     7
1000
_OPEN
1070
    41
1040
2.000000
1002
}
  0
INSERT
  5
1C2
100
AcDbEntity
  8
MAIN0
  6
CONTINUOUS
 62
3
100
AcDbBlockReference
  2
D19
 10
299.1752068158697
 20
267.0555342032437
 30
0.0000000000000000
 50
0.0000000000000000
  0
INSERT
  5
1CA
100
AcDbEntity
  8
MAIN0
  6
CONTINUOUS
 62
3
100
AcDbBlockReference
  2
D20
 10
299.1752068158697
 20
267.0555342032437
 30
0.0000000000000000
 50
0.0000000000000000
  0
INSERT
  5
1D2
100
AcDbEntity
  8
MAIN0
  6
CONTINUOUS
 62
3
100
AcDbBlockReference
  2
D21
 10
299.1752068158697
 20
267.0555342032437
 30
0.0000000000000000
 50
0.0000000000000000
  0
ARC
  5
1D3
100
AcDbEntity
  8
MAIN0
  6
CONTINUOUS
 62
3
100
AcDbCircle
 10
188.6345322941734
 20
259.4555342032436
 30
0.0000000000000000
 40
0.4000000000000000
100
AcDbArc
 50
90.00000000000000
 51
180.0000000000000
  0
ARC
  5
1D4
100
AcDbEntity
  8
MAIN0
  6
CONTINUOUS
 62
3
100
AcDbCircle
 10
188.6345322941734
 20
274.6555342032436
 30
0.0000000000000000
 40
0.4000000000000000
100
AcDbArc
 50
180.0000000000000
 51
270.0000000000000
  0
LINE
  5
1D5
100
AcDbEntity
  8
MAIN0
  6
CONTINUOUS
 62
3
100
AcDbLine
 10
49.42181273653699
 20
71.39224469001121
 30
0.0000000000000000
 11
49.42181273653927
 21
163.3922446905463
 31
0.0000000000000000
  0
LINE
  5
1D6
100
AcDbEntity
  8
MAIN0
  6
CONTINUOUS
 62
3
100
AcDbLine
 10
96.42181273653924
 20
71.39224468986382
 30
0.0000000000000000
 11
96.42181273653924
 21
153.3922446905464
 31
0.0000000000000000
  0
LINE
  5
1D7
100
AcDbEntity
  8
MAIN0
  6
CONTINUOUS
 62
3
100
AcDbLine
 10
126.4218127365373
 20
71.39224468976997
 30
0.0000000000000000
 11
126.4218127365394
 21
163.3922446905465
 31
0.0000000000000000
  0
LINE
  5
1D8
100
AcDbEntity
  8
MAIN0
  6
CONTINUOUS
 62
3
100
AcDbLine
 10
126.4218127365397
 20
163.3922446905464
 30
0.0000000000000000
 11
49.42181273653924
 21
163.3922446905464
 31
0.0000000000000000
  0
LINE
  5
1D9
100
AcDbEntity
  8
MAIN0
  6
CONTINUOUS
 62
3
100
AcDbLine
 10
126.4218127365395
 20
153.3922446905464
 30
0.0000000000000000
 11
49.42181273653890
 21
153.3922446905464
 31
0.0000000000000000
  0
LINE
  5
1DA
100
AcDbEntity
  8
MAIN0
  6
CONTINUOUS
 62
3
100
AcDbLine
 10
126.4218127365392
 20
146.3922446905464
 30
0.0000000000000000
 11
49.42181273653878
 21
146.3922446905464
 31
0.0000000000000000
  0
LINE
  5
1DB
100
AcDbEntity
  8
MAIN0
  6
CONTINUOUS
 62
3
100
AcDbLine
 10
126.4218127365392
 20
139.3922446900035
 30
0.0000000000000000
 11
49.42181273653876
 21
139.3922446898827
 31
0.0000000000000000
  0
LINE
  5
1DC
100
AcDbEntity
  8
MAIN0
  6
CONTINUOUS
 62
3
100
AcDbLine
 10
126.4218127365387
 20
129.3922446892267
 30
0.0000000000000000
 11
49.42181273653824
 21
129.3922446893475
 31
0.0000000000000000
  0
LINE
  5
1DD
100
AcDbEntity
  8
MAIN0
  6
CONTINUOUS
 62
3
100
AcDbLine
 10
126.4218127365386
 20
119.3922446905464
 30
0.0000000000000000
 11
49.42181273653810
 21
119.3922446905464
 31
0.0000000000000000
  0
LINE
  5
1DE
100
AcDbEntity
  8
MAIN0
  6
CONTINUOUS
 62
3
100
AcDbLine
 10
126.4218127365383
 20
112.3922446905464
 30
0.0000000000000000
 11
49.42181273653799
 21
112.3922446905464
 31
0.0000000000000000
  0
LINE
  5
1DF
100
AcDbEntity
  8
MAIN0
  6
CONTINUOUS
 62
3
100
AcDbLine
 10
126.4218127365381
 20
105.3922446886838
 30
0.0000000000000000
 11
49.42181273653776
 21
105.3922446886838
 31
0.0000000000000000
  0
LINE
  5
1E0
100
AcDbEntity
  8
MAIN0
  6
CONTINUOUS
 62
3
100
AcDbLine
 10
126.4218127365381
 20
98.39224469054639
 30
0.0000000000000000
 11
49.42181273653765
 21
98.39224469054639
 31
0.0000000000000000
  0
LINE
  5
1E1
100
AcDbEntity
  8
MAIN0
  6
CONTINUOUS
 62
3
100
AcDbLine
 10
126.4218127365377
 20
88.39224468868375
 30
0.0000000000000000
 11
49.42181273653742
 21
88.39224468868375
 31
0.0000000000000000
  0
LINE
  5
1E2
100
AcDbEntity
  8
MAIN0
  6
CONTINUOUS
 62
3
100
AcDbLine
 10
126.4218127365377
 20
81.39224469054639
 30
0.0000000000000000
 11
49.42181273653719
 21
81.39224469054639
 31
0.0000000000000000
  0
LINE
  5
1E3
100
AcDbEntity
  8
MAIN0
  6
CONTINUOUS
 62
3
100
AcDbLine
 10
126.4218127365374
 20
71.39224468976985
 30
0.0000000000000000
 11
49.42181273653685
 21
71.39224469001132
 31
0.0000000000000000
  0
MTEXT
  5
1E4
100
AcDbEntity
  8
MAIN0
  6
CONTINUOUS
 62
3
100
AcDbMText
 10
66.49006034348489
 20
161.7523692428614
 30
0.0000000000000000
 40
3.100000381469727
 41
0.0000000000000000
 71
     1
 72
     1
  1
{\H0.94x;{SPECIFICATIONS}}
 11
1.000000000000000
 21
0.0000000000000000
 31
0.0000000000000000
  7
STANDARD
  0
MTEXT
  5
1E5
100
AcDbEntity
  8
MAIN0
  6
CONTINUOUS
 62
3
100
AcDbMText
 10
76.29325343250835
 20
157.7078337353932
 30
0.0000000000000000
 40
3.100000381469727
 41
0.0000000000000000
 71
     1
 72
     1
  1
{\H0.93x;{仕　　　様}}
 11
1.000000000000000
 21
0.0000000000000000
 31
0.0000000000000000
  7
KNJYOKO
  0
MTEXT
  5
1E6
100
AcDbEntity
  8
MAIN0
  6
CONTINUOUS
 62
3
100
AcDbMText
 10
52.49532119065432
 20
152.7555385780831
 30
0.0000000000000000
 40
2.499999046325684
 41
0.0000000000000000
 71
     1
 72
     1
  1
{\H0.75x;{PLUNGER STROKE}}
 11
1.000000000000000
 21
0.0000000000000000
 31
0.0000000000000000
  7
STANDARD
  0
MTEXT
  5
1E7
100
AcDbEntity
  8
MAIN0
  6
CONTINUOUS
 62
3
100
AcDbMText
 10
52.49532119065432
 20
149.6555391502876
 30
0.0000000000000000
 40
2.399999618530273
 41
0.0000000000000000
 71
     1
 72
     1
  1
{\H0.93x;{プランジャストロ－ク}}
 11
1.000000000000000
 21
0.0000000000000000
 31
0.0000000000000000
  7
KNJYOKO
  0
MTEXT
  5
1E8
100
AcDbEntity
  8
MAIN0
  6
CONTINUOUS
 62
3
100
AcDbMText
 10
52.49532119065432
 20
145.7555385780832
 30
0.0000000000000000
 40
2.499999046325684
 41
0.0000000000000000
 71
     1
 72
     1
  1
{\H0.75x;{JAW STROKE (IN DIA)}}
 11
1.000000000000000
 21
0.0000000000000000
 31
0.0000000000000000
  7
STANDARD
  0
MTEXT
  5
1E9
100
AcDbEntity
  8
MAIN0
  6
CONTINUOUS
 62
3
100
AcDbMText
 10
52.49532119065432
 20
142.6555391502878
 30
0.0000000000000000
 40
2.399999618530273
 41
0.0000000000000000
 71
     1
 72
     1
  1
{\H0.94x;{ジョーストローク(直径で)}}
 11
1.000000000000000
 21
0.0000000000000000
 31
0.0000000000000000
  7
KNJYOKO
  0
MTEXT
  5
1EA
100
AcDbEntity
  8
MAIN0
  6
CONTINUOUS
 62
3
100
AcDbMText
 10
52.49532119065432
 20
136.7555395317575
 30
0.0000000000000000
 40
2.500000000000000
 41
0.0000000000000000
 71
     1
 72
     1
  1
{\H0.63x;{MAX PERMISSIBLE INPUT FORCE}}
 11
1.000000000000000
 21
0.0000000000000000
 31
0.0000000000000000
  7
STANDARD
  0
MTEXT
  5
1EB
100
AcDbEntity
  8
MAIN0
  6
CONTINUOUS
 62
3
100
AcDbMText
 10
52.49532119065432
 20
133.6555391502878
 30
0.0000000000000000
 40
2.399999618530273
 41
0.0000000000000000
 71
     1
 72
     1
  1
{\H0.93x;{許容最大入力　}}
 11
1.000000000000000
 21
0.0000000000000000
 31
0.0000000000000000
  7
KNJYOKO
  0
MTEXT
  5
1EC
100
AcDbEntity
  8
MAIN0
  6
CONTINUOUS
 62
3
100
AcDbMText
 10
52.49532119065398
 20
126.7555395312224
 30
0.0000000000000000
 40
2.500000000000000
 41
0.0000000000000000
 71
     1
 72
     1
  1
{\H0.63x;{MAX STATIC GRIPPING FORCE}}
 11
1.000000000000000
 21
0.0000000000000000
 31
0.0000000000000000
  7
STANDARD
  0
MTEXT
  5
1ED
100
AcDbEntity
  8
MAIN0
  6
CONTINUOUS
 62
3
100
AcDbMText
 10
52.49532119065398
 20
123.6555391497526
 30
0.0000000000000000
 40
2.399999618530273
 41
0.0000000000000000
 71
     1
 72
     1
  1
{\H0.93x;{最大静的把握力　　}}
 11
1.000000000000000
 21
0.0000000000000000
 31
0.0000000000000000
  7
KNJYOKO
  0
MTEXT
  5
1EE
100
AcDbEntity
  8
MAIN0
  6
CONTINUOUS
 62
3
100
AcDbMText
 10
52.49532119065432
 20
118.7555385780831
 30
0.0000000000000000
 40
2.499999046325684
 41
0.0000000000000000
 71
     1
 72
     1
  1
{\H0.75x;{MAX PERMISSIBLE SPEED}}
 11
1.000000000000000
 21
0.0000000000000000
 31
0.0000000000000000
  7
STANDARD
  0
MTEXT
  5
1EF
100
AcDbEntity
  8
MAIN0
  6
CONTINUOUS
 62
3
100
AcDbMText
 10
52.49532119065432
 20
115.6555391502876
 30
0.0000000000000000
 40
2.399999618530273
 41
0.0000000000000000
 71
     1
 72
     1
  1
{\H0.93x;{許容最高回転速度　}}
 11
1.000000000000000
 21
0.0000000000000000
 31
0.0000000000000000
  7
KNJYOKO
  0
MTEXT
  5
1F0
100
AcDbEntity
  8
MAIN0
  6
CONTINUOUS
 62
3
100
AcDbMText
 10
52.49532119065432
 20
111.7555385780831
 30
0.0000000000000000
 40
2.499999046325684
 41
0.0000000000000000
 71
     1
 72
     1
  1
{\H0.73x;{MASS}}
 11
1.000000000000000
 21
0.0000000000000000
 31
0.0000000000000000
  7
STANDARD
  0
MTEXT
  5
1F1
100
AcDbEntity
  8
MAIN0
  6
CONTINUOUS
 62
3
100
AcDbMText
 10
52.49532119065432
 20
108.6555391502876
 30
0.0000000000000000
 40
2.399999618530273
 41
0.0000000000000000
 71
     1
 72
     1
  1
{\H0.89x;{質量\P}
 11
1.000000000000000
 21
0.0000000000000000
 31
0.0000000000000000
  7
KNJYOKO
  0
MTEXT
  5
1F2
100
AcDbEntity
  8
MAIN0
  6
CONTINUOUS
 62
3
100
AcDbMText
 10
52.56935688235799
 20
87.77924508505603
 30
0.0000000000000000
 40
2.499999046325684
 41
0.0000000000000000
 71
     1
 72
     1
  1
{\H0.75x;{OPERATING CYLINDER}}
 11
1.000000000000000
 21
0.0000000000000000
 31
0.0000000000000000
  7
STANDARD
  0
MTEXT
  5
1F3
100
AcDbEntity
  8
MAIN0
  6
CONTINUOUS
 62
3
100
AcDbMText
 10
52.49532119065444
 20
84.65553915028764
 30
0.0000000000000000
 40
2.399999618530273
 41
0.0000000000000000
 71
     1
 72
     1
  1
{\H0.93x;{使用シリンダ}}
 11
1.000000000000000
 21
0.0000000000000000
 31
0.0000000000000000
  7
KNJYOKO
  0
MTEXT
  5
1F4
100
AcDbEntity
  8
MAIN0
  6
CONTINUOUS
 62
3
100
AcDbMText
 10
52.17340287812627
 20
79.43630600373118
 30
0.0000000000000000
 40
2.500000000000000
 41
0.0000000000000000
 71
     1
 72
     1
  1
{\H0.63x;{MAX PERMISSIBLE OIL PRESS}}
 11
1.000000000000000
 21
0.0000000000000000
 31
0.0000000000000000
  7
STANDARD
  0
MTEXT
  5
1F5
100
AcDbEntity
  8
MAIN0
  6
CONTINUOUS
 62
3
100
AcDbMText
 10
52.30538754620355
 20
75.77273468856495
 30
0.0000000000000000
 40
2.399999618530273
 41
0.0000000000000000
 71
     1
 72
     1
  1
{\H0.93x;{許容最大油圧力}}
 11
1.000000000000000
 21
0.0000000000000000
 31
0.0000000000000000
  7
KNJYOKO
  0
MTEXT
  5
1F6
100
AcDbEntity
  8
MAIN0
  6
CONTINUOUS
 62
3
100
AcDbMText
 10
111.4218127365392
 20
150.1922439273398
 30
0.0000000000000000
 40
2.799999237060547
 41
0.0000000000000000
 71
     1
 72
     1
  1
{\H0.58x;{　　　　ｍｍ}}
 11
1.000000000000000
 21
0.0000000000000000
 31
0.0000000000000000
  7
KNJYOKO
  0
MTEXT
  5
1F7
100
AcDbEntity
  8
MAIN0
  6
CONTINUOUS
 62
3
100
AcDbMText
 10
111.4218127365392
 20
143.1922439273398
 30
0.0000000000000000
 40
2.799999237060547
 41
0.0000000000000000
 71
     1
 72
     1
  1
{\H0.58x;{　　　　ｍｍ}}
 11
1.000000000000000
 21
0.0000000000000000
 31
0.0000000000000000
  7
KNJYOKO
  0
MTEXT
  5
1F8
100
AcDbEntity
  8
MAIN0
  6
CONTINUOUS
 62
3
100
AcDbMText
 10
111.4218127365392
 20
136.6922439273398
 30
0.0000000000000000
 40
2.799999237060547
 41
0.0000000000000000
 71
     1
 72
     1
  1
{\H0.58x;{　　　　ｋＮ}}
 11
1.000000000000000
 21
0.0000000000000000
 31
0.0000000000000000
  7
KNJYOKO
  0
MTEXT
  5
1F9
100
AcDbEntity
  8
MAIN0
  6
CONTINUOUS
 62
3
100
AcDbMText
 10
110.4218127365392
 20
132.6922439273398
 30
0.0000000000000000
 40
2.799999237060547
 41
0.0000000000000000
 71
     1
 72
     1
  1
{\H0.60x;{　　　ｋｇｆ)}}
 11
1.000000000000000
 21
0.0000000000000000
 31
0.0000000000000000
  7
KNJYOKO
  0
MTEXT
  5
1FA
100
AcDbEntity
  8
MAIN0
  6
CONTINUOUS
 62
3
100
AcDbMText
 10
98.42181273653924
 20
132.6922439273398
 30
0.0000000000000000
 40
2.799999237060547
 41
0.0000000000000000
 71
     1
 72
     1
  1
{\H0.60x;{(}}
 11
1.000000000000000
 21
0.0000000000000000
 31
0.0000000000000000
  7
STANDARD
  0
MTEXT
  5
1FB
100
AcDbEntity
  8
MAIN0
  6
CONTINUOUS
 62
3
100
AcDbMText
 10
111.4218127365392
 20
126.6922439273398
 30
0.0000000000000000
 40
2.799999237060547
 41
0.0000000000000000
 71
     1
 72
     1
  1
{\H0.58x;{　　　　ｋＮ}}
 11
1.000000000000000
 21
0.0000000000000000
 31
0.0000000000000000
  7
KNJYOKO
  0
MTEXT
  5
1FC
100
AcDbEntity
  8
MAIN0
  6
CONTINUOUS
 62
3
100
AcDbMText
 10
98.42181273653924
 20
122.6922439273398
 30
0.0000000000000000
 40
2.799999237060547
 41
0.0000000000000000
 71
     1
 72
     1
  1
{\H0.60x;{(}}
 11
1.000000000000000
 21
0.0000000000000000
 31
0.0000000000000000
  7
STANDARD
  0
MTEXT
  5
1FD
100
AcDbEntity
  8
MAIN0
  6
CONTINUOUS
 62
3
100
AcDbMText
 10
110.4218127365392
 20
122.6922439273398
 30
0.0000000000000000
 40
2.799999237060547
 41
0.0000000000000000
 71
     1
 72
     1
  1
{\H0.60x;{　　　ｋｇｆ)}}
 11
1.000000000000000
 21
0.0000000000000000
 31
0.0000000000000000
  7
KNJYOKO
  0
MTEXT
  5
1FE
100
AcDbEntity
  8
MAIN0
  6
CONTINUOUS
 62
3
100
AcDbMText
 10
121.5764809848592
 20
116.8617884802344
 30
0.0000000000000000
 40
2.000000000000000
 41
0.0000000000000000
 71
     1
 72
     1
  1
{\H0.88x;{-1}}
 11
1.000000000000000
 21
0.0000000000000000
 31
0.0000000000000000
  7
STANDARD
  0
MTEXT
  5
1FF
100
AcDbEntity
  8
MAIN0
  6
CONTINUOUS
 62
3
100
AcDbMText
 10
111.4218127365392
 20
116.1922439273398
 30
0.0000000000000000
 40
2.799999237060547
 41
0.0000000000000000
 71
     1
 72
     1
  1
{\H0.58x;{　　ｍｉｎ}}
 11
1.000000000000000
 21
0.0000000000000000
 31
0.0000000000000000
  7
KNJYOKO
  0
MTEXT
  5
200
100
AcDbEntity
  8
MAIN0
  6
CONTINUOUS
 62
3
100
AcDbMText
 10
111.4218127365392
 20
109.1922439273398
 30
0.0000000000000000
 40
2.799999237060547
 41
0.0000000000000000
 71
     1
 72
     1
  1
{\H0.58x;{　　　　ｋｇ}}
 11
1.000000000000000
 21
0.0000000000000000
 31
0.0000000000000000
  7
KNJYOKO
  0
MTEXT
  5
201
100
AcDbEntity
  8
MAIN0
  6
CONTINUOUS
 62
3
100
AcDbMText
 10
111.4218127365392
 20
78.69224392733955
 30
0.0000000000000000
 40
2.799999237060547
 41
0.0000000000000000
 71
     1
 72
     1
  1
{\H0.58x;{　　　ＭＰａ}}
 11
1.000000000000000
 21
0.0000000000000000
 31
0.0000000000000000
  7
KNJYOKO
  0
MTEXT
  5
202
100
AcDbEntity
  8
MAIN0
  6
CONTINUOUS
 62
3
100
AcDbMText
 10
122.4751085699051
 20
75.10264871850146
 30
0.0000000000000000
 40
2.000000000000000
 41
0.0000000000000000
 71
     1
 72
     1
  1
{\H0.81x;{2}}
 11
1.000000000000000
 21
0.0000000000000000
 31
0.0000000000000000
  7
STANDARD
  0
MTEXT
  5
203
100
AcDbEntity
  8
MAIN0
  6
CONTINUOUS
 62
3
100
AcDbMText
 10
98.42181273653924
 20
74.69224392733955
 30
0.0000000000000000
 40
2.799999237060547
 41
0.0000000000000000
 71
     1
 72
     1
  1
{\H0.60x;{(}}
 11
1.000000000000000
 21
0.0000000000000000
 31
0.0000000000000000
  7
STANDARD
  0
MTEXT
  5
204
100
AcDbEntity
  8
MAIN0
  6
CONTINUOUS
 62
3
100
AcDbMText
 10
110.4218127365392
 20
74.69224392733955
 30
0.0000000000000000
 40
2.799999237060547
 41
0.0000000000000000
 71
     1
 72
     1
  1
{\H0.62x;{ｋｇｆ／ｃｍ )}}
 11
1.000000000000000
 21
0.0000000000000000
 31
0.0000000000000000
  7
KNJYOKO
  0
MTEXT
  5
205
100
AcDbEntity
  8
MAIN0
  6
CONTINUOUS
 62
3
100
AcDbMText
 10
52.49532119065444
 20
101.6555391521503
 30
0.0000000000000000
 40
2.399999618530273
 41
0.0000000000000000
 71
     1
 72
     1
  1
{\H0.93x;{慣性モーメント}}
 11
1.000000000000000
 21
0.0000000000000000
 31
0.0000000000000000
  7
KNJYOKO
  0
MTEXT
  5
206
100
AcDbEntity
  8
MAIN0
  6
CONTINUOUS
 62
4
100
AcDbMText
 10
116.0371917509328
 20
102.4642851321177
 30
0.0000000000000000
 40
2.799999237060547
 41
0.0000000000000000
 71
     1
 72
     1
  1
{\H0.57x;{ｋｇ・ｍ}}
 11
1.000000000000000
 21
0.0000000000000000
 31
0.0000000000000000
  7
KNJYOKO
  0
MTEXT
  5
207
100
AcDbEntity
  8
MAIN0
  6
CONTINUOUS
 62
4
100
AcDbMText
 10
123.9686129110256
 20
103.8445683354045
 30
0.0000000000000000
 40
1.714285731315613
 41
0.0000000000000000
 71
     1
 72
     1
  1
{\H0.81x;{2}}
 11
1.000000000000000
 21
0.0000000000000000
 31
0.0000000000000000
  7
STANDARD
  0
MTEXT
  5
208
100
AcDbEntity
  8
MAIN0
  6
CONTINUOUS
 62
3
100
AcDbMText
 10
52.49532119065444
 20
104.7555385799457
 30
0.0000000000000000
 40
2.499999046325684
 41
0.0000000000000000
 71
     1
 72
     1
  1
{\H0.75x;{MOMENT OF INERTIA}}
 11
1.000000000000000
 21
0.0000000000000000
 31
0.0000000000000000
  7
STANDARD
  0
MTEXT
  5
209
100
AcDbEntity
  8
MAIN0
  6
CONTINUOUS
 62
3
100
AcDbMText
 10
98.42181273653924
 20
151.4922445949120
 30
0.0000000000000000
 40
3.099999904632568
 41
0.0000000000000000
 71
     1
 72
     1
  1
{\H0.81x;{6}}
 11
1.000000000000000
 21
0.0000000000000000
 31
0.0000000000000000
  7
STANDARD
  0
MTEXT
  5
20A
100
AcDbEntity
  8
MAIN0
  6
CONTINUOUS
 62
3
100
AcDbMText
 10
98.42181273653924
 20
144.4922445949120
 30
0.0000000000000000
 40
3.099999904632568
 41
0.0000000000000000
 71
     1
 72
     1
  1
{\H0.76x;{2.8}}
 11
1.000000000000000
 21
0.0000000000000000
 31
0.0000000000000000
  7
STANDARD
  0
MTEXT
  5
20B
100
AcDbEntity
  8
MAIN0
  6
CONTINUOUS
 62
3
100
AcDbMText
 10
98.42181273653924
 20
137.9922445949120
 30
0.0000000000000000
 40
3.099999904632568
 41
0.0000000000000000
 71
     1
 72
     1
  1
{\H0.88x;{13}}
 11
1.000000000000000
 21
0.0000000000000000
 31
0.0000000000000000
  7
STANDARD
  0
MTEXT
  5
20C
100
AcDbEntity
  8
MAIN0
  6
CONTINUOUS
 62
3
100
AcDbMText
 10
101.4218127365392
 20
133.1922446425957
 30
0.0000000000000000
 40
2.799999952316284
 41
0.0000000000000000
 71
     1
 72
     1
  1
{\H0.91x;{1325}}
 11
1.000000000000000
 21
0.0000000000000000
 31
0.0000000000000000
  7
STANDARD
  0
MTEXT
  5
20D
100
AcDbEntity
  8
MAIN0
  6
CONTINUOUS
 62
3
100
AcDbMText
 10
98.42181273653924
 20
127.9922445949120
 30
0.0000000000000000
 40
3.099999904632568
 41
0.0000000000000000
 71
     1
 72
     1
  1
{\H0.88x;{42}}
 11
1.000000000000000
 21
0.0000000000000000
 31
0.0000000000000000
  7
STANDARD
  0
MTEXT
  5
20E
100
AcDbEntity
  8
MAIN0
  6
CONTINUOUS
 62
3
100
AcDbMText
 10
101.4218127365392
 20
123.1922446425957
 30
0.0000000000000000
 40
2.799999952316284
 41
0.0000000000000000
 71
     1
 72
     1
  1
{\H0.91x;{4280}}
 11
1.000000000000000
 21
0.0000000000000000
 31
0.0000000000000000
  7
STANDARD
  0
MTEXT
  5
20F
100
AcDbEntity
  8
MAIN0
  6
CONTINUOUS
 62
3
100
AcDbMText
 10
98.42181273653924
 20
117.4922445967749
 30
0.0000000000000000
 40
3.099999904632568
 41
0.0000000000000000
 71
     1
 72
     1
  1
{\H0.91x;{7000}}
 11
1.000000000000000
 21
0.0000000000000000
 31
0.0000000000000000
  7
STANDARD
  0
MTEXT
  5
210
100
AcDbEntity
  8
MAIN0
  6
CONTINUOUS
 62
3
100
AcDbMText
 10
98.42181273653924
 20
110.4922445949123
 30
0.0000000000000000
 40
3.099999904632568
 41
0.0000000000000000
 71
     1
 72
     1
  1
{\H0.76x;{7.6}}
 11
1.000000000000000
 21
0.0000000000000000
 31
0.0000000000000000
  7
STANDARD
  0
MTEXT
  5
211
100
AcDbEntity
  8
MAIN0
  6
CONTINUOUS
 62
3
100
AcDbMText
 10
98.42181273653924
 20
103.4922445967749
 30
0.0000000000000000
 40
3.099999904632568
 41
0.0000000000000000
 71
     1
 72
     1
  1
{\H0.84x;{0.018}}
 11
1.000000000000000
 21
0.0000000000000000
 31
0.0000000000000000
  7
STANDARD
  0
MTEXT
  5
212
100
AcDbEntity
  8
MAIN0
  6
CONTINUOUS
 62
3
100
AcDbMText
 10
98.42181273653924
 20
86.49224459491191
 30
0.0000000000000000
 40
3.099999904632568
 41
0.0000000000000000
 71
     1
 72
     1
  1
{\H0.92x;{Y1020R}}
 11
1.000000000000000
 21
0.0000000000000000
 31
0.0000000000000000
  7
STANDARD
  0
MTEXT
  5
213
100
AcDbEntity
  8
MAIN0
  6
CONTINUOUS
 62
3
100
AcDbMText
 10
98.42181273653924
 20
79.99224459491168
 30
0.0000000000000000
 40
3.099999904632568
 41
0.0000000000000000
 71
     1
 72
     1
  1
{\H0.76x;{1.9}}
 11
1.000000000000000
 21
0.0000000000000000
 31
0.0000000000000000
  7
STANDARD
  0
MTEXT
  5
214
100
AcDbEntity
  8
MAIN0
  6
CONTINUOUS
 62
3
100
AcDbMText
 10
101.4218127365392
 20
75.19224464259540
 30
0.0000000000000000
 40
2.799999952316284
 41
0.0000000000000000
 71
     1
 72
     1
  1
{\H0.58x;{19.5}}
 11
1.000000000000000
 21
0.0000000000000000
 31
0.0000000000000000
  7
STANDARD
  0
MTEXT
  5
215
100
AcDbEntity
  8
MAIN0
  6
CONTINUOUS
 62
3
100
AcDbMText
 10
388.9808050612589
 20
135.0845858486383
 30
0.0000000000000000
 40
3.099999904632568
 41
0.0000000000000000
 71
     1
 72
     1
  1
{\H0.94x;{チャックへの給油は北川が指定するグリスを使用して}}
 11
1.000000000000000
 21
0.0000000000000000
 31
0.0000000000000000
  7
KNJYOKO
  0
MTEXT
  5
216
100
AcDbEntity
  8
MAIN0
  6
CONTINUOUS
 62
3
100
AcDbMText
 10
388.9808050612589
 20
125.0845858486383
 30
0.0000000000000000
 40
3.099999904632568
 41
0.0000000000000000
 71
     1
 72
     1
  1
{\H0.94x;{給油期間は使用条件に合わせて短縮して下さい。}}
 11
1.000000000000000
 21
0.0000000000000000
 31
0.0000000000000000
  7
KNJYOKO
  0
INSERT
  5
223
100
AcDbEntity
  8
MAIN0
  6
CONTINUOUS
 62
3
100
AcDbBlockReference
  2
M0
 10
0.0000000000000000
 20
0.0000000000000000
 30
0.0000000000000000
 50
0.0000000000000000
  0
MTEXT
  5
224
100
AcDbEntity
  8
MAIN0
  6
CONTINUOUS
 62
3
100
AcDbMText
 10
388.9808050612589
 20
130.0845858486383
 30
0.0000000000000000
 40
3.099999904632568
 41
0.0000000000000000
 71
     1
 72
     1
  1
{\H0.92x;{下さい。}}
 11
1.000000000000000
 21
0.0000000000000000
 31
0.0000000000000000
  7
KNJYOKO
  0
INSERT
  5
232
100
AcDbEntity
  8
MAIN0
  6
CONTINUOUS
 62
3
100
AcDbBlockReference
  2
M1
 10
0.0000000000000000
 20
0.0000000000000000
 30
0.0000000000000000
 50
0.0000000000000000
  0
MTEXT
  5
233
100
AcDbEntity
  8
MAIN0
  6
CONTINUOUS
 62
3
100
AcDbMText
 10
388.9808050612592
 20
84.65037473493797
 30
0.0000000000000000
 40
3.099999904632568
 41
0.0000000000000000
 71
     1
 72
     1
  1
{\H0.71x;{PERIOD OF LUBRICATION SHOULD BE SHORTENED IN ACCORDANCE}}
 11
1.000000000000000
 21
0.0000000000000000
 31
0.0000000000000000
  7
STANDARD
  0
MTEXT
  5
234
100
AcDbEntity
  8
MAIN0
  6
CONTINUOUS
 62
3
100
AcDbMText
 10
388.9808050612592
 20
79.65037473493797
 30
0.0000000000000000
 40
3.099999904632568
 41
0.0000000000000000
 71
     1
 72
     1
  1
{\H0.70x;{WITH THE APPLICATION OF COOLANT ETC.}}
 11
1.000000000000000
 21
0.0000000000000000
 31
0.0000000000000000
  7
STANDARD
  0
MTEXT
  5
235
100
AcDbEntity
  8
MAIN0
  6
CONTINUOUS
 62
3
100
AcDbMText
 10
388.9808050612592
 20
94.65037473493797
 30
0.0000000000000000
 40
3.099999904632568
 41
0.0000000000000000
 71
     1
 72
     1
  1
{\H0.71x;{LUBRICATE THE CHUCK WITH GREASE GUN USING LUBRICATION}}
 11
1.000000000000000
 21
0.0000000000000000
 31
0.0000000000000000
  7
STANDARD
  0
MTEXT
  5
236
100
AcDbEntity
  8
MAIN0
  6
CONTINUOUS
 62
3
100
AcDbMText
 10
388.9808050612592
 20
89.65037473493797
 30
0.0000000000000000
 40
3.099999904632568
 41
0.0000000000000000
 71
     1
 72
     1
  1
{\H0.70x;{GREASE SPECIIFIED BY KITAGAWA.}}
 11
1.000000000000000
 21
0.0000000000000000
 31
0.0000000000000000
  7
STANDARD
  0
MTEXT
  5
237
100
AcDbEntity
  8
MAIN0
  6
CONTINUOUS
 62
3
100
AcDbMText
 10
182.4405961176128
 20
60.03787185767246
 30
0.0000000000000000
 40
4.000000000000000
 41
0.0000000000000000
 71
     1
 72
     1
  1
{\H0.94x;{WHEN GRIPPING BY MASTER JAW：\U+220529～\U+220553}}
 11
1.000000000000000
 21
0.0000000000000000
 31
0.0000000000000000
  7
KNJYOKO
  0
MTEXT
  5
238
100
AcDbEntity
  8
MAIN0
  6
CONTINUOUS
 62
3
100
AcDbMText
 10
207.7077774999108
 20
53.27118024576265
 30
0.0000000000000000
 40
4.000000000000000
 41
0.0000000000000000
 71
     1
 72
     1
  1
{\H0.94x;{WHEN GRIPPING BY JAW：\U+220553～\U+220578}}
 11
1.000000000000000
 21
0.0000000000000000
 31
0.0000000000000000
  7
KNJYOKO
  0
MTEXT
  5
239
100
AcDbEntity
  8
MAIN0
  6
CONTINUOUS
 62
3
100
AcDbMText
 10
180.6369751523657
 20
69.63033070516005
 30
0.0000000000000000
 40
6.000000000000000
 41
0.0000000000000000
 71
     1
 72
     1
  1
{\H0.93x;{GRIPPING RANGE}}
 11
1.000000000000000
 21
0.0000000000000000
 31
0.0000000000000000
  7
STANDARD
  0
MTEXT
  5
23A
100
AcDbEntity
  8
MAIN0
  6
CONTINUOUS
 62
3
100
AcDbMText
 10
219.6500496408144
 20
46.55224178328385
 30
0.0000000000000000
 40
3.099999904632568
 41
0.0000000000000000
 71
     1
 72
     1
  1
{\H0.94x;{JAW TYPE：SBE05：\U+220553～\U+220563}}
 11
1.000000000000000
 21
0.0000000000000000
 31
0.0000000000000000
  7
KNJYOKO
  0
MTEXT
  5
23B
100
AcDbEntity
  8
MAIN0
  6
CONTINUOUS
 62
3
100
AcDbMText
 10
219.4628160746917
 20
36.68419049119487
 30
0.0000000000000000
 40
3.099999904632568
 41
0.0000000000000000
 71
     1
 72
     1
  1
{\H0.94x;{JAW TYPE：SBE05A：\U+220569～\U+220578（OPTION）}}
 11
1.000000000000000
 21
0.0000000000000000
 31
0.0000000000000000
  7
KNJYOKO
  0
MTEXT
  5
23C
100
AcDbEntity
  8
MAIN0
  6
CONTINUOUS
 62
3
100
AcDbMText
 10
471.3703114789564
 20
223.0857751545411
 30
0.0000000000000000
 40
3.103448390960693
 41
0.0000000000000000
 71
     1
 72
     1
  1
{PUE05}
 11
0.5000000000023852
 21
0.8660254037830616
 31
0.0000000000000000
  7
STANDARD
  0
LINE
  5
23D
100
AcDbEntity
  8
MAIN0
  6
PHANTOM
 62
3
100
AcDbLine
 10
398.7909573322873
 20
314.2832117936788
 30
0.0000000000000000
 11
417.5848097479920
 21
321.1236146602286
 31
0.0000000000000000
  0
LINE
  5
23E
100
AcDbEntity
  8
MAIN0
  6
PHANTOM
 62
3
100
AcDbLine
 10
397.0808566156497
 20
318.9816748976048
 30
0.0000000000000000
 11
415.8747090313547
 21
325.8220777641546
 31
0.0000000000000000
  0
LINE
  5
23F
100
AcDbEntity
  8
MAIN0
  6
PHANTOM
 62
3
100
AcDbLine
 10
397.0808566156500
 20
318.9816748976048
 30
0.0000000000000000
 11
398.7909573322872
 21
314.2832117936787
 31
0.0000000000000000
  0
LINE
  5
240
100
AcDbEntity
  8
MAIN0
  6
PHANTOM
 62
3
100
AcDbLine
 10
405.5934319897808
 20
324.8316102773246
 30
0.0000000000000000
 11
409.2963396695386
 21
314.6579550409120
 31
0.0000000000000000
  0
LINE
  5
241
100
AcDbEntity
  8
MAIN0
  6
PHANTOM
 62
3
100
AcDbLine
 10
415.8747090313547
 20
325.8220777641549
 30
0.0000000000000000
 11
417.5848097479919
 21
321.1236146602286
 31
0.0000000000000000
  0
LINE
  5
242
100
AcDbEntity
  8
MAIN0
  6
CONTINUOUS
 62
3
100
AcDbLine
 10
246.2343509376576
 20
270.0284699870845
 30
0.0000000000000000
 11
245.4581143566366
 21
270.7780729399698
 31
0.0000000000000000
  0
DIMENSION
  5
24B
100
AcDbEntity
  8
MAIN0
  6
CONTINUOUS
 62
3
100
AcDbDimension
  2
*D22
 10
246.4099295484547
 20
363.5258008174639
 30
0.0000000000000000
 11
241.4099295484525
 21
364.0258008174639
 31
0.0000000000000000
 70
32
  3
MAIN001
100
AcDbAlignedDimension
 13
236.4099295484530
 23
302.2950092931376
 33
0.0000000000000000
 14
246.4099295484547
 24
300.7597587591180
 34
0.0000000000000000
100
AcDbRotatedDimension
1001
ACAD
1000
DSTYLE
1002
{
1070
   173
1070
     1
1070
     6
1000
_OPEN
1070
     7
1000
_OPEN
1070
    41
1040
2.000000
1002
}
  0
DIMENSION
  5
256
100
AcDbEntity
  8
MAIN0
  6
CONTINUOUS
 62
3
100
AcDbDimension
  2
*D23
 10
220.2343509376577
 20
375.3606787894768
 30
0.0000000000000000
 11
223.3221402430575
 21
375.8606787894768
 31
0.0000000000000000
 70
32
  3
MAIN001
100
AcDbAlignedDimension
 13
226.4099295484573
 23
300.7597587591180
 33
0.0000000000000000
 14
220.2343509376577
 24
333.5555342032436
 34
0.0000000000000000
100
AcDbRotatedDimension
1001
ACAD
1000
DSTYLE
1002
{
1070
   173
1070
     1
1070
     6
1000
_OPEN
1070
     7
1000
_OPEN
1070
    41
1040
2.000000
1070
   287
1070
     0
1002
}
  0
DIMENSION
  5
25F
100
AcDbEntity
  8
MAIN0
  6
CONTINUOUS
 62
3
100
AcDbDimension
  2
*D24
 10
226.4099295484573
 20
375.3606787894768
 30
0.0000000000000000
 11
236.4099295484560
 21
375.8606787894768
 31
0.0000000000000000
 70
32
  3
MAIN001
100
AcDbAlignedDimension
 13
246.4099295484547
 23
300.7597587591180
 33
0.0000000000000000
 14
226.4099295484573
 24
300.7597587591180
 34
0.0000000000000000
100
AcDbRotatedDimension
1001
ACAD
1000
DSTYLE
1002
{
1070
   173
1070
     1
1070
     6
1000
_OPEN
1070
     7
1000
_OPEN
1070
    41
1040
2.000000
1002
}
  0
DIMENSION
  5
26A
100
AcDbEntity
  8
MAIN0
  6
CONTINUOUS
 62
3
100
AcDbDimension
  2
*D25
 10
249.2343508544088
 20
211.7215349773792
 30
0.0000000000000000
 11
257.5831230212439
 21
212.2215349773792
 31
0.0000000000000000
 70
160
  1
\A1;MAX 3
  3
MAIN001
100
AcDbAlignedDimension
 13
246.2343509376576
 23
261.0555342032419
 33
0.0000000000000000
 14
249.2343508544089
 24
272.5134926112057
 34
0.0000000000000000
100
AcDbRotatedDimension
1001
ACAD
1000
DSTYLE
1002
{
1070
   173
1070
     1
1070
     6
1000
_OPEN
1070
     7
1000
_OPEN
1070
    41
1040
2.000000
1070
   287
1070
     0
1002
}
  0
DIMENSION
  5
275
100
AcDbEntity
  8
MAIN0
  6
CONTINUOUS
 62
3
100
AcDbDimension
  2
*D26
 10
246.2343509376576
 20
236.6099704134686
 30
0.0000000000000000
 11
240.3588829893118
 21
237.1099704134686
 31
0.0000000000000000
 70
160
  3
MAIN001
100
AcDbAlignedDimension
 13
246.4099295484548
 23
270.7967470855566
 33
0.0000000000000000
 14
246.2343509376576
 24
261.0555342032419
 34
0.0000000000000000
100
AcDbRotatedDimension
1001
ACAD
1000
DSTYLE
1002
{
1070
   173
1070
     1
1070
     6
1000
_OPEN
1070
     7
1000
_OPEN
1070
    41
1040
2.000000
1070
   287
1070
     0
1002
}
  0
LINE
  5
276
100
AcDbEntity
  8
MAIN0
  6
CONTINUOUS
 62
3
100
AcDbLine
 10
189.6582376560820
 20
259.8555342032436
 30
0.0000000000000000
 11
188.6345322941734
 21
259.8555342032437
 31
0.0000000000000000
  0
LINE
  5
277
100
AcDbEntity
  8
MAIN0
  6
CONTINUOUS
 62
3
100
AcDbLine
 10
190.2345322941733
 20
274.5555342032436
 30
0.0000000000000000
 11
189.6582376560819
 21
274.2555342032437
 31
0.0000000000000000
  0
LINE
  5
278
100
AcDbEntity
  8
MAIN0
  6
CONTINUOUS
 62
3
100
AcDbLine
 10
189.6582376560819
 20
274.2555342032437
 30
0.0000000000000000
 11
188.6345322941734
 21
274.2555342032437
 31
0.0000000000000000
  0
LINE
  5
279
100
AcDbEntity
  8
MAIN0
  6
CONTINUOUS
 62
3
100
AcDbLine
 10
167.2343509376577
 20
279.5555342032437
 30
0.0000000000000000
 11
167.8106455757491
 21
279.2555342032437
 31
0.0000000000000000
  0
LINE
  5
27A
100
AcDbEntity
  8
MAIN0
  6
CONTINUOUS
 62
3
100
AcDbLine
 10
167.8106455757491
 20
279.2555342032437
 30
0.0000000000000000
 11
169.3343509376577
 21
279.2555342032437
 31
0.0000000000000000
  0
LINE
  5
27B
100
AcDbEntity
  8
MAIN0
  6
CONTINUOUS
 62
3
100
AcDbLine
 10
169.5343509376577
 20
279.4555342032436
 30
0.0000000000000000
 11
169.5343509376578
 21
281.4792395651523
 31
0.0000000000000000
  0
LINE
  5
27C
100
AcDbEntity
  8
MAIN0
  6
CONTINUOUS
 62
3
100
AcDbLine
 10
169.5343509376578
 20
281.4792395651523
 30
0.0000000000000000
 11
169.2343509376578
 21
282.0555342032437
 31
0.0000000000000000
  0
ARC
  5
27D
100
AcDbEntity
  8
MAIN0
  6
CONTINUOUS
 62
3
100
AcDbCircle
 10
169.3343509376577
 20
279.4555342032436
 30
0.0000000000000000
 40
0.2000000000000000
100
AcDbArc
 50
270.0000000005678
 51
359.9999999999934
  0
LINE
  5
27E
100
AcDbEntity
  8
MAIN0
  6
CONTINUOUS
 62
3
100
AcDbLine
 10
167.2343509376577
 20
254.5555342032438
 30
0.0000000000000000
 11
167.8106455757491
 21
254.8555342032437
 31
0.0000000000000000
  0
LINE
  5
27F
100
AcDbEntity
  8
MAIN0
  6
CONTINUOUS
 62
3
100
AcDbLine
 10
167.8106455757491
 20
254.8555342032437
 30
0.0000000000000000
 11
169.3343509376578
 21
254.8555342032437
 31
0.0000000000000000
  0
LINE
  5
280
100
AcDbEntity
  8
MAIN0
  6
CONTINUOUS
 62
3
100
AcDbLine
 10
169.5343509376577
 20
254.6555342032436
 30
0.0000000000000000
 11
169.5343509376576
 21
252.6318288413351
 31
0.0000000000000000
  0
LINE
  5
281
100
AcDbEntity
  8
MAIN0
  6
CONTINUOUS
 62
3
100
AcDbLine
 10
169.5343509376575
 20
252.6318288413350
 30
0.0000000000000000
 11
169.2343509376575
 21
252.0555342032437
 31
0.0000000000000000
  0
ARC
  5
282
100
AcDbEntity
  8
MAIN0
  6
CONTINUOUS
 62
3
100
AcDbCircle
 10
169.3343509376577
 20
254.6555342032437
 30
0.0000000000000000
 40
0.2000000000000000
100
AcDbArc
 50
0.0000000000000000
 51
89.99999999999594
  0
LINE
  5
283
100
AcDbEntity
  8
MAIN0
  6
CONTINUOUS
 62
3
100
AcDbLine
 10
198.4941187623117
 20
282.4874949553177
 30
0.0000000000000000
 11
245.4581383832414
 21
270.7780497377473
 31
0.0000000000000000
  0
LINE
  5
284
100
AcDbEntity
  8
MAIN0
  6
CONTINUOUS
 62
3
100
AcDbLine
 10
180.5437520144162
 20
270.0555342032437
 30
0.0000000000000000
 11
207.7344581202842
 21
270.0555342032437
 31
0.0000000000000000
  0
LINE
  5
285
100
AcDbEntity
  8
MAIN0
  6
CONTINUOUS
 62
3
100
AcDbLine
 10
208.7344581204639
 20
270.0555342032437
 30
0.0000000000000000
 11
208.7344581204639
 21
264.0555342032437
 31
0.0000000000000000
  0
LINE
  5
286
100
AcDbEntity
  8
MAIN0
  6
CONTINUOUS
 62
3
100
AcDbLine
 10
207.7344581202842
 20
264.0555342032437
 30
0.0000000000000000
 11
180.5437520144162
 21
264.0555342032437
 31
0.0000000000000000
  0
LINE
  5
287
100
AcDbEntity
  8
MAIN0
  6
CONTINUOUS
 62
3
100
AcDbLine
 10
178.2343509376577
 20
274.0555342032437
 30
0.0000000000000000
 11
178.2343509376577
 21
260.0555342032437
 31
0.0000000000000000
  0
LINE
  5
288
100
AcDbEntity
  8
MAIN0
  6
CONTINUOUS
 62
3
100
AcDbLine
 10
178.2343509376577
 20
274.0555342032437
 30
0.0000000000000000
 11
180.5437520144162
 21
270.0555342032437
 31
0.0000000000000000
  0
LINE
  5
289
100
AcDbEntity
  8
MAIN0
  6
CONTINUOUS
 62
3
100
AcDbLine
 10
180.5437520144162
 20
264.0555342032437
 30
0.0000000000000000
 11
178.2343509376577
 21
260.0555342032437
 31
0.0000000000000000
  0
LINE
  5
28A
100
AcDbEntity
  8
MAIN0
  6
HIDDEN
 62
3
100
AcDbLine
 10
220.2343509376576
 20
216.6805342032437
 30
0.0000000000000000
 11
219.6343509376576
 21
217.2805342032437
 31
0.0000000000000000
  0
LINE
  5
28B
100
AcDbEntity
  8
MAIN0
  6
HIDDEN
 62
3
100
AcDbLine
 10
219.6343509376576
 20
217.2805342032437
 30
0.0000000000000000
 11
203.2343509376576
 21
217.2805342032437
 31
0.0000000000000000
  0
LINE
  5
28C
100
AcDbEntity
  8
MAIN0
  6
HIDDEN
 62
3
100
AcDbLine
 10
203.2343509376576
 20
217.2805342032437
 30
0.0000000000000000
 11
203.2343509376576
 21
234.2805342032437
 31
0.0000000000000000
  0
LINE
  5
28D
100
AcDbEntity
  8
MAIN0
  6
HIDDEN
 62
3
100
AcDbLine
 10
203.2343509376576
 20
234.2805342032437
 30
0.0000000000000000
 11
219.6343509376576
 21
234.2805342032437
 31
0.0000000000000000
  0
LINE
  5
28E
100
AcDbEntity
  8
MAIN0
  6
HIDDEN
 62
3
100
AcDbLine
 10
219.6343509376576
 20
234.2805342032437
 30
0.0000000000000000
 11
220.2343509376576
 21
234.8805342032437
 31
0.0000000000000000
  0
LINE
  5
28F
100
AcDbEntity
  8
MAIN0
  6
HIDDEN
 62
3
100
AcDbLine
 10
203.2343509376576
 20
217.7805342032437
 30
0.0000000000000000
 11
212.2343509376576
 21
217.7805342032437
 31
0.0000000000000000
  0
LINE
  5
290
100
AcDbEntity
  8
MAIN0
  6
HIDDEN
 62
3
100
AcDbLine
 10
212.2343509376576
 20
217.7805342032437
 30
0.0000000000000000
 11
213.2343509376576
 21
219.5125850108126
 31
0.0000000000000000
  0
LINE
  5
291
100
AcDbEntity
  8
MAIN0
  6
HIDDEN
 62
3
100
AcDbLine
 10
213.2343509376576
 20
219.5125850108126
 30
0.0000000000000000
 11
213.2343509376576
 21
232.0484833956748
 31
0.0000000000000000
  0
LINE
  5
292
100
AcDbEntity
  8
MAIN0
  6
HIDDEN
 62
3
100
AcDbLine
 10
213.2343509376576
 20
232.0484833956748
 30
0.0000000000000000
 11
212.2343509376576
 21
233.7805342032437
 31
0.0000000000000000
  0
LINE
  5
293
100
AcDbEntity
  8
MAIN0
  6
HIDDEN
 62
3
100
AcDbLine
 10
212.2343509376576
 20
233.7805342032437
 30
0.0000000000000000
 11
203.2343509376576
 21
233.7805342032437
 31
0.0000000000000000
  0
LINE
  5
294
100
AcDbEntity
  8
MAIN0
  6
HIDDEN
 62
3
100
AcDbLine
 10
212.2343509376576
 20
217.7805342032437
 30
0.0000000000000000
 11
212.2343509376576
 21
233.7805342032437
 31
0.0000000000000000
  0
LINE
  5
295
100
AcDbEntity
  8
MAIN0
  6
CONTINUOUS
 62
3
100
AcDbLine
 10
138.2343509376576
 20
220.7805342032437
 30
0.0000000000000000
 11
138.2343509376576
 21
230.7805342032437
 31
0.0000000000000000
  0
LINE
  5
296
100
AcDbEntity
  8
MAIN0
  6
HIDDEN
 62
3
100
AcDbLine
 10
170.2343509376576
 20
220.7805342032437
 30
0.0000000000000000
 11
170.2343509376576
 21
230.7805342032437
 31
0.0000000000000000
  0
LINE
  5
297
100
AcDbEntity
  8
MAIN0
  6
HIDDEN
 62
3
100
AcDbLine
 10
203.2343509376576
 20
230.7805342032437
 30
0.0000000000000000
 11
153.2343509376577
 21
230.7805342032437
 31
0.0000000000000000
  0
LINE
  5
298
100
AcDbEntity
  8
MAIN0
  6
CONTINUOUS
 62
3
100
AcDbLine
 10
153.2343509376577
 20
230.7805342032437
 30
0.0000000000000000
 11
138.2343509376576
 21
230.7805342032437
 31
0.0000000000000000
  0
LINE
  5
299
100
AcDbEntity
  8
MAIN0
  6
HIDDEN
 62
3
100
AcDbLine
 10
170.2343509376576
 20
229.9686352032437
 30
0.0000000000000000
 11
153.2343509376577
 21
229.9686352032437
 31
0.0000000000000000
  0
LINE
  5
29A
100
AcDbEntity
  8
MAIN0
  6
CONTINUOUS
 62
3
100
AcDbLine
 10
153.2343509376577
 20
229.9686352032437
 30
0.0000000000000000
 11
138.2343509376576
 21
229.9686352032437
 31
0.0000000000000000
  0
LINE
  5
29B
100
AcDbEntity
  8
MAIN0
  6
HIDDEN
 62
3
100
AcDbLine
 10
170.2343509376576
 20
221.5924332032437
 30
0.0000000000000000
 11
153.2343509376577
 21
221.5924332032437
 31
0.0000000000000000
  0
LINE
  5
29C
100
AcDbEntity
  8
MAIN0
  6
CONTINUOUS
 62
3
100
AcDbLine
 10
153.2343509376577
 20
221.5924332032437
 30
0.0000000000000000
 11
138.2343509376576
 21
221.5924332032437
 31
0.0000000000000000
  0
LINE
  5
29D
100
AcDbEntity
  8
MAIN0
  6
HIDDEN
 62
3
100
AcDbLine
 10
203.2343509376576
 20
220.7805342032437
 30
0.0000000000000000
 11
153.2343509376577
 21
220.7805342032437
 31
0.0000000000000000
  0
LINE
  5
29E
100
AcDbEntity
  8
MAIN0
  6
CONTINUOUS
 62
3
100
AcDbLine
 10
153.2343509376577
 20
220.7805342032437
 30
0.0000000000000000
 11
138.2343509376576
 21
220.7805342032437
 31
0.0000000000000000
  0
LINE
  5
29F
100
AcDbEntity
  8
MAIN0
  6
CENTER
 62
3
100
AcDbLine
 10
205.4704371723829
 20
293.7555342147426
 30
0.0000000000000000
 11
227.4782298912841
 21
293.7555342032437
 31
0.0000000000000000
  0
DIMENSION
  5
2A8
100
AcDbEntity
  8
MAIN0
  6
CONTINUOUS
 62
3
100
AcDbDimension
  2
*D27
 10
439.1515203776257
 20
346.1173204891265
 30
0.0000000000000000
 11
427.1515203776257
 21
346.6173204891265
 31
0.0000000000000000
 70
32
  3
MAIN001
100
AcDbAlignedDimension
 13
415.1515203776257
 23
300.9966597001400
 33
0.0000000000000000
 14
439.1515203776257
 24
300.9966597001400
 34
0.0000000000000000
100
AcDbRotatedDimension
1001
ACAD
1000
DSTYLE
1002
{
1070
   173
1070
     1
1070
     6
1000
_OPEN
1070
     7
1000
_OPEN
1070
    41
1040
2.000000
1002
}
  0
LINE
  5
2A9
100
AcDbEntity
  8
MAIN0
  6
CENTER
 62
3
100
AcDbLine
 10
427.1515203776257
 20
163.6140402085651
 30
0.0000000000000000
 11
427.1515203776257
 21
306.2612223480307
 31
0.0000000000000000
  0
LINE
  5
2AA
100
AcDbEntity
  8
MAIN0
  6
CENTER
 62
3
100
AcDbLine
 10
427.1515203776257
 20
311.4512816555913
 30
0.0000000000000000
 11
427.1515203776257
 21
358.9409799803997
 31
0.0000000000000000
  0
LINE
  5
2AB
100
AcDbEntity
  8
MAIN0
  6
CENTER
 62
3
100
AcDbLine
 10
210.2343509376576
 20
260.5640944764619
 30
0.0000000000000000
 11
210.2343509376576
 21
195.3235962975184
 31
0.0000000000000000
  0
LINE
  5
2AC
100
AcDbEntity
  8
MAIN0
  6
HIDDEN
 62
3
100
AcDbLine
 10
212.7343509376576
 20
217.2805342032437
 30
0.0000000000000000
 11
212.7343509376576
 21
199.5555342032437
 31
0.0000000000000000
  0
LINE
  5
2AD
100
AcDbEntity
  8
MAIN0
  6
HIDDEN
 62
3
100
AcDbLine
 10
207.7343509376576
 20
217.2805342032437
 30
0.0000000000000000
 11
207.7343509376576
 21
199.5555342032437
 31
0.0000000000000000
  0
LINE
  5
2AE
100
AcDbEntity
  8
MAIN0
  6
CONTINUOUS
 62
3
100
AcDbLine
 10
222.2343509376576
 20
255.0555342032437
 30
0.0000000000000000
 11
223.8420460920903
 21
255.0555342032437
 31
0.0000000000000000
  0
CIRCLE
  5
2AF
100
AcDbEntity
  8
MAIN0
  6
CONTINUOUS
 62
3
100
AcDbCircle
 10
412.1515203776257
 20
216.0555342032437
 30
0.0000000000000000
 40
3.000000000000000
  0
CIRCLE
  5
2B0
100
AcDbEntity
  8
MAIN0
  6
CONTINUOUS
 62
3
100
AcDbCircle
 10
412.1515203776257
 20
216.0555342032437
 30
0.0000000000000000
 40
2.500000000000000
  0
LINE
  5
2B1
100
AcDbEntity
  8
MAIN0
  6
CONTINUOUS
 62
3
100
AcDbLine
 10
439.6515203776258
 20
290.6537166525819
 30
0.0000000000000000
 11
439.6515203776258
 21
283.4232045701290
 31
0.0000000000000000
  0
LINE
  5
2B2
100
AcDbEntity
  8
MAIN0
  6
CONTINUOUS
 62
3
100
AcDbLine
 10
414.6515203776258
 20
290.6537166525819
 30
0.0000000000000000
 11
414.6515203776258
 21
283.4232045701290
 31
0.0000000000000000
  0
LINE
  5
2B3
100
AcDbEntity
  8
MAIN0
  6
CONTINUOUS
 62
3
100
AcDbLine
 10
400.4646001330813
 20
266.0815903459546
 30
0.0000000000000000
 11
406.7264072788559
 21
269.6968463871810
 31
0.0000000000000000
  0
LINE
  5
2B4
100
AcDbEntity
  8
MAIN0
  6
CONTINUOUS
 62
3
100
AcDbLine
 10
412.9646001330814
 20
244.4309552513436
 30
0.0000000000000000
 11
419.2264072788559
 21
248.0462112925700
 31
0.0000000000000000
  0
ELLIPSE
  5
2B5
100
AcDbEntity
  8
MAIN0
  6
CONTINUOUS
 62
3
100
AcDbEllipse
 10
407.3245767776230
 20
255.6084429785747
 30
0.0000000000000000
 11
-11.15671980622980
 21
-6.441335183399992
 31
0.0000000000000000
210
0.0000000000000000
220
0.0000000000000000
230
1.000000000000000
 40
0.9702957262815494
 41
4.712388980384690
 42
1.570796326794898
  0
ARC
  5
2B6
100
AcDbEntity
  8
MAIN0
  6
CONTINUOUS
 62
3
100
AcDbCircle
 10
407.3247243196311
 20
255.6085281619928
 30
0.0000000000000000
 40
12.38418472802163
100
AcDbArc
 50
163.7032340508026
 51
256.2967659491972
  0
LINE
  5
2B7
100
AcDbEntity
  8
MAIN0
  6
HIDDEN
 62
3
100
AcDbLine
 10
413.2051322901074
 20
262.4438036840870
 30
0.0000000000000000
 11
413.8598932080731
 21
262.2683610248826
 31
0.0000000000000000
  0
LINE
  5
2B8
100
AcDbEntity
  8
MAIN0
  6
HIDDEN
 62
3
100
AcDbLine
 10
413.8598932080732
 20
262.2683610248826
 30
0.0000000000000000
 11
416.3598932080732
 21
257.9382340059603
 31
0.0000000000000000
  0
LINE
  5
2B9
100
AcDbEntity
  8
MAIN0
  6
HIDDEN
 62
3
100
AcDbLine
 10
416.3598932080732
 20
257.9382340059604
 30
0.0000000000000000
 11
416.1844505488688
 21
257.2834730879946
 31
0.0000000000000000
  0
LINE
  5
2BA
100
AcDbEntity
  8
MAIN0
  6
HIDDEN
 62
3
100
AcDbLine
 10
413.1768805061810
 20
262.4513737267748
 30
0.0000000000000000
 11
418.1374463333031
 21
265.3153577423965
 31
0.0000000000000000
  0
LINE
  5
2BB
100
AcDbEntity
  8
MAIN0
  6
HIDDEN
 62
3
100
AcDbLine
 10
421.1374463333031
 20
260.1192053196899
 30
0.0000000000000000
 11
416.1768805061810
 21
257.2552213040681
 31
0.0000000000000000
  0
LINE
  5
2BC
100
AcDbEntity
  8
MAIN0
  6
HIDDEN
 62
3
100
AcDbLine
 10
413.8598932080732
 20
262.2683610248826
 30
0.0000000000000000
 11
419.2523107582155
 21
265.3816747490400
 31
0.0000000000000000
  0
LINE
  5
2BD
100
AcDbEntity
  8
MAIN0
  6
HIDDEN
 62
3
100
AcDbLine
 10
421.7523107582155
 20
261.0515477301178
 30
0.0000000000000000
 11
416.3598932080732
 21
257.9382340059603
 31
0.0000000000000000
  0
ARC
  5
2BE
100
AcDbEntity
  8
MAIN0
  6
CONTINUOUS
 62
3
100
AcDbCircle
 10
427.1515203776257
 20
267.0555342032432
 30
0.0000000000000000
 40
6.000000000013161
100
AcDbArc
 50
21.59678019455821
 51
45.06991849860836
  0
ARC
  5
2BF
100
AcDbEntity
  8
MAIN0
  6
CONTINUOUS
 62
3
100
AcDbCircle
 10
427.1515203776257
 20
267.0555342032432
 30
0.0000000000000000
 40
6.000000000013161
100
AcDbArc
 50
134.9300815013916
 51
165.0732722047135
  0
ARC
  5
2C0
100
AcDbEntity
  8
MAIN0
  6
CONTINUOUS
 62
3
100
AcDbCircle
 10
427.1515203776257
 20
267.0555342032432
 30
0.0000000000000000
 40
6.000000000013161
100
AcDbArc
 50
254.9267277952830
 51
285.0732722047201
  0
LINE
  5
2C1
100
AcDbEntity
  8
MAIN0
  6
CONTINUOUS
 62
3
100
AcDbLine
 10
439.1515203776258
 20
300.7555342032396
 30
0.0000000000000000
 11
439.1515203776258
 21
279.2555342031960
 31
0.0000000000000000
  0
LINE
  5
2C2
100
AcDbEntity
  8
MAIN0
  6
CONTINUOUS
 62
3
100
AcDbLine
 10
415.1515203776258
 20
300.7555342032358
 30
0.0000000000000000
 11
415.1515203776258
 21
279.2555342031961
 31
0.0000000000000000
  0
ELLIPSE
  5
2C3
100
AcDbEntity
  8
MAIN0
  6
CONTINUOUS
 62
3
100
AcDbEllipse
 10
427.1515203776258
 20
283.4232045701290
 30
0.0000000000000000
 11
0.0000000000000000
 21
12.88267036690000
 31
0.0000000000000000
210
0.0000000000000000
220
0.0000000000000000
230
1.000000000000000
 40
0.9702957262740177
 41
1.570796326794897
 42
4.712388980384690
  0
ELLIPSE
  5
2C4
100
AcDbEntity
  8
MAIN0
  6
CONTINUOUS
 62
3
100
AcDbEllipse
 10
427.1515203776258
 20
290.6537166525819
 30
0.0000000000000000
 11
0.0000000000000000
 21
12.88267036680000
 31
0.0000000000000000
210
0.0000000000000000
220
0.0000000000000000
230
1.000000000000000
 40
0.9702957262815494
 41
4.712388980384690
 42
4.996183089593025
  0
ELLIPSE
  5
2C5
100
AcDbEntity
  8
MAIN0
  6
CONTINUOUS
 62
3
100
AcDbEllipse
 10
427.1515203776258
 20
290.6537166525819
 30
0.0000000000000000
 11
0.0000000000000000
 21
12.88267036680000
 31
0.0000000000000000
210
0.0000000000000000
220
0.0000000000000000
230
1.000000000000000
 40
0.9702957262815494
 41
1.287002217586576
 42
1.570796326794897
  0
ELLIPSE
  5
2C6
100
AcDbEntity
  8
MAIN0
  6
CONTINUOUS
 62
3
100
AcDbEllipse
 10
408.2260708233673
 20
256.1289208085581
 30
0.0000000000000000
 11
-11.15671980631640
 21
-6.441335183449991
 31
0.0000000000000000
210
0.0000000000000000
220
0.0000000000000000
230
1.000000000000000
 40
0.9702957262740177
 41
0.7054630234950752
 42
1.570796326794895
  0
ELLIPSE
  5
2C7
100
AcDbEntity
  8
MAIN0
  6
CONTINUOUS
 62
3
100
AcDbEllipse
 10
408.2260708233673
 20
256.1289208085581
 30
0.0000000000000000
 11
-11.15671980631640
 21
-6.441335183449991
 31
0.0000000000000000
210
0.0000000000000000
220
0.0000000000000000
230
1.000000000000000
 40
0.9702957262740177
 41
4.712388980384691
 42
5.577722283684509
  0
ELLIPSE
  5
2C8
100
AcDbEntity
  8
MAIN0
  6
CONTINUOUS
 62
3
100
AcDbEllipse
 10
412.9764072788556
 20
258.8715288398755
 30
0.0000000000000000
 11
-11.15671980631640
 21
-6.441335183449991
 31
0.0000000000000000
210
0.0000000000000000
220
0.0000000000000000
230
1.000000000000000
 40
0.9702957262740177
 41
1.570796326794898
 42
4.712388980384691
  0
ARC
  5
2C9
100
AcDbEntity
  8
MAIN0
  6
CONTINUOUS
 62
3
100
AcDbCircle
 10
427.1515203776257
 20
267.0555342032437
 30
0.0000000000000000
 40
12.00000000000000
100
AcDbArc
 50
20.24118640732318
 51
39.75772263622704
  0
ARC
  5
2CA
100
AcDbEntity
  8
MAIN0
  6
CONTINUOUS
 62
3
100
AcDbCircle
 10
427.1515203776257
 20
267.0555342032437
 30
0.0000000000000000
 40
12.00000000000000
100
AcDbArc
 50
140.2422773637730
 51
159.7588135926759
  0
ARC
  5
2CB
100
AcDbEntity
  8
MAIN0
  6
CONTINUOUS
 62
3
100
AcDbCircle
 10
427.1515203776257
 20
267.0555342032437
 30
0.0000000000000000
 40
12.00000000000000
100
AcDbArc
 50
260.2411864073237
 51
279.7588135926777
  0
CIRCLE
  5
2CC
100
AcDbEntity
  8
MAIN0
  6
CONTINUOUS
 62
3
100
AcDbCircle
 10
404.0247680396114
 20
253.7032975154092
 30
0.0000000000000000
 40
3.000000000000000
  0
CIRCLE
  5
2CD
100
AcDbEntity
  8
MAIN0
  6
CONTINUOUS
 62
3
100
AcDbCircle
 10
404.0247680396114
 20
253.7032975154092
 30
0.0000000000000000
 40
2.500000000000000
  0
ARC
  5
2CE
100
AcDbEntity
  8
MAIN0
  6
CENTER
 62
3
100
AcDbCircle
 10
426.5415437330840
 20
266.7033640233182
 30
0.0000000000000000
 40
26.00000000000000
100
AcDbArc
 50
200.7864522090252
 51
219.9609700042921
  0
ARC
  5
2CF
100
AcDbEntity
  8
MAIN0
  6
CENTER
 62
3
100
AcDbCircle
 10
427.1515203776257
 20
267.7595342032438
 30
0.0000000000000000
 40
26.00000000000000
100
AcDbArc
 50
73.27506825877325
 51
100.0563423160376
  0
ARC
  5
2D0
100
AcDbEntity
  8
MAIN0
  6
CONTINUOUS
 62
3
100
AcDbCircle
 10
427.1515203776257
 20
267.0555342032437
 30
0.0000000000000000
 40
14.70000000000000
100
AcDbArc
 50
42.53564001860626
 51
137.4643599813938
  0
ARC
  5
2D1
100
AcDbEntity
  8
MAIN0
  6
CONTINUOUS
 62
3
100
AcDbCircle
 10
427.1515203776258
 20
267.0555342032438
 30
0.0000000000000000
 40
14.70000000000000
100
AcDbArc
 50
162.5363215450313
 51
257.4636784549687
  0
ARC
  5
2D2
100
AcDbEntity
  8
MAIN0
  6
CONTINUOUS
 62
3
100
AcDbCircle
 10
427.1515203776257
 20
267.0555342032437
 30
0.0000000000000000
 40
32.70000000000000
100
AcDbArc
 50
194.1101852911177
 51
225.8898147088820
  0
LINE
  5
2D3
100
AcDbEntity
  8
MAIN0
  6
CONTINUOUS
 62
3
100
AcDbLine
 10
441.3384406221707
 20
244.4309552513435
 30
0.0000000000000000
 11
435.0766334763961
 21
248.0462112925699
 31
0.0000000000000000
  0
LINE
  5
2D4
100
AcDbEntity
  8
MAIN0
  6
CONTINUOUS
 62
3
100
AcDbLine
 10
453.8384406221707
 20
266.0815903459545
 30
0.0000000000000000
 11
447.5766334763962
 21
269.6968463871809
 31
0.0000000000000000
  0
ELLIPSE
  5
2D5
100
AcDbEntity
  8
MAIN0
  6
CONTINUOUS
 62
3
100
AcDbEllipse
 10
446.9784639776287
 20
255.6084429785745
 30
0.0000000000000000
 11
11.15671980622978
 21
-6.441335183400016
 31
0.0000000000000000
210
0.0000000000000000
220
0.0000000000000000
230
1.000000000000000
 40
0.9702957262815494
 41
4.712388980384691
 42
1.570796326794898
  0
ARC
  5
2D6
100
AcDbEntity
  8
MAIN0
  6
CONTINUOUS
 62
3
100
AcDbCircle
 10
446.9783164356206
 20
255.6085281619926
 30
0.0000000000000000
 40
12.38418472802163
100
AcDbArc
 50
283.7032340508025
 51
376.2967659491971
  0
LINE
  5
2D7
100
AcDbEntity
  8
MAIN0
  6
HIDDEN
 62
3
100
AcDbLine
 10
438.1185902063830
 20
257.2834730879944
 30
0.0000000000000000
 11
437.9431475471787
 21
257.9382340059602
 31
0.0000000000000000
  0
LINE
  5
2D8
100
AcDbEntity
  8
MAIN0
  6
HIDDEN
 62
3
100
AcDbLine
 10
437.9431475471788
 20
257.9382340059602
 30
0.0000000000000000
 11
440.4431475471788
 21
262.2683610248824
 31
0.0000000000000000
  0
LINE
  5
2D9
100
AcDbEntity
  8
MAIN0
  6
HIDDEN
 62
3
100
AcDbLine
 10
440.4431475471787
 20
262.2683610248824
 30
0.0000000000000000
 11
441.0979084651445
 21
262.4438036840868
 31
0.0000000000000000
  0
LINE
  5
2DA
100
AcDbEntity
  8
MAIN0
  6
HIDDEN
 62
3
100
AcDbLine
 10
438.1261602490711
 20
257.2552213040680
 30
0.0000000000000000
 11
433.1655944219490
 21
260.1192053196898
 31
0.0000000000000000
  0
LINE
  5
2DB
100
AcDbEntity
  8
MAIN0
  6
HIDDEN
 62
3
100
AcDbLine
 10
436.1655944219490
 20
265.3153577423964
 30
0.0000000000000000
 11
441.1261602490711
 21
262.4513737267747
 31
0.0000000000000000
  0
LINE
  5
2DC
100
AcDbEntity
  8
MAIN0
  6
HIDDEN
 62
3
100
AcDbLine
 10
437.9431475471788
 20
257.9382340059602
 30
0.0000000000000000
 11
432.5507299970366
 21
261.0515477301177
 31
0.0000000000000000
  0
LINE
  5
2DD
100
AcDbEntity
  8
MAIN0
  6
HIDDEN
 62
3
100
AcDbLine
 10
435.0507299970366
 20
265.3816747490399
 30
0.0000000000000000
 11
440.4431475471788
 21
262.2683610248824
 31
0.0000000000000000
  0
ELLIPSE
  5
2DE
100
AcDbEntity
  8
MAIN0
  6
CONTINUOUS
 62
3
100
AcDbEllipse
 10
446.0769699318844
 20
256.1289208085578
 30
0.0000000000000000
 11
11.15671980631638
 21
-6.441335183450015
 31
0.0000000000000000
210
0.0000000000000000
220
0.0000000000000000
230
1.000000000000000
 40
0.9702957262740177
 41
0.7054630234950789
 42
1.570796326794898
  0
ELLIPSE
  5
2DF
100
AcDbEntity
  8
MAIN0
  6
CONTINUOUS
 62
3
100
AcDbEllipse
 10
446.0769699318844
 20
256.1289208085578
 30
0.0000000000000000
 11
11.15671980631638
 21
-6.441335183450015
 31
0.0000000000000000
210
0.0000000000000000
220
0.0000000000000000
230
1.000000000000000
 40
0.9702957262740177
 41
4.712388980384687
 42
5.577722283684508
  0
ELLIPSE
  5
2E0
100
AcDbEntity
  8
MAIN0
  6
CONTINUOUS
 62
3
100
AcDbEllipse
 10
441.3266334763962
 20
258.8715288398753
 30
0.0000000000000000
 11
11.15671980631638
 21
-6.441335183450015
 31
0.0000000000000000
210
0.0000000000000000
220
0.0000000000000000
230
1.000000000000000
 40
0.9702957262740177
 41
1.570796326794898
 42
4.712388980384688
  0
CIRCLE
  5
2E1
100
AcDbEntity
  8
MAIN0
  6
CONTINUOUS
 62
3
100
AcDbCircle
 10
450.2782727156406
 20
253.7032975154094
 30
0.0000000000000000
 40
3.000000000000000
  0
CIRCLE
  5
2E2
100
AcDbEntity
  8
MAIN0
  6
CONTINUOUS
 62
3
100
AcDbCircle
 10
450.2782727156406
 20
253.7032975154094
 30
0.0000000000000000
 40
2.500000000000000
  0
ARC
  5
2E3
100
AcDbEntity
  8
MAIN0
  6
CENTER
 62
3
100
AcDbCircle
 10
427.7614970221678
 20
266.7033640233182
 30
0.0000000000000000
 40
26.00000000000000
100
AcDbArc
 50
320.7864522090252
 51
339.9609700042920
  0
ARC
  5
2E4
100
AcDbEntity
  8
MAIN0
  6
CONTINUOUS
 62
3
100
AcDbCircle
 10
427.1515203776260
 20
267.0555342032437
 30
0.0000000000000000
 40
14.70000000000000
100
AcDbArc
 50
282.5363215450313
 51
377.4636784549687
  0
ARC
  5
2E5
100
AcDbEntity
  8
MAIN0
  6
CONTINUOUS
 62
3
100
AcDbCircle
 10
427.1515203776261
 20
267.0555342032437
 30
0.0000000000000000
 40
32.70000000000000
100
AcDbArc
 50
314.1101852911177
 51
345.8898147088820
  0
LINE
  5
2E6
100
AcDbEntity
  8
MAIN0
  6
CONTINUOUS
 62
3
100
AcDbLine
 10
219.4099295484548
 20
299.6597587591180
 30
0.0000000000000000
 11
219.4099295484548
 21
303.0379555696285
 31
0.0000000000000000
  0
LINE
  5
2E7
100
AcDbEntity
  8
MAIN0
  6
CONTINUOUS
 62
3
100
AcDbLine
 10
226.4099295484554
 20
299.7597587591180
 30
0.0000000000000000
 11
226.4099295484554
 21
288.4393412467281
 31
0.0000000000000000
  0
LINE
  5
2E8
100
AcDbEntity
  8
MAIN0
  6
CONTINUOUS
 62
3
100
AcDbLine
 10
246.4099295484548
 20
281.7598917749362
 30
0.0000000000000000
 11
246.4099295484548
 21
270.7967470855566
 31
0.0000000000000000
  0
LINE
  5
2E9
100
AcDbEntity
  8
MAIN0
  6
CONTINUOUS
 62
3
100
AcDbLine
 10
205.8298513226127
 20
280.6585086183839
 30
0.0000000000000000
 11
206.3378873033719
 21
282.6961296435635
 31
0.0000000000000000
  0
LINE
  5
2EA
100
AcDbEntity
  8
MAIN0
  6
CONTINUOUS
 62
3
100
AcDbLine
 10
211.3698627318433
 20
302.8782807501046
 30
0.0000000000000000
 11
211.8778987126024
 21
304.9159017752842
 31
0.0000000000000000
  0
LINE
  5
2EB
100
AcDbEntity
  8
MAIN0
  6
CONTINUOUS
 62
3
100
AcDbLine
 10
208.7407385014407
 20
279.9327429315850
 30
0.0000000000000000
 11
209.2487744821999
 21
281.9703639567647
 31
0.0000000000000000
  0
LINE
  5
2EC
100
AcDbEntity
  8
MAIN0
  6
CONTINUOUS
 62
3
100
AcDbLine
 10
214.2807499106714
 20
302.1525150633058
 30
0.0000000000000000
 11
214.7887858914305
 21
304.1901360884855
 31
0.0000000000000000
  0
LINE
  5
2ED
100
AcDbEntity
  8
MAIN0
  6
CONTINUOUS
 62
3
100
AcDbLine
 10
211.3698627318433
 20
302.8782807501045
 30
0.0000000000000000
 11
214.2807499106713
 21
302.1525150633058
 31
0.0000000000000000
  0
LINE
  5
2EE
100
AcDbEntity
  8
MAIN0
  6
CONTINUOUS
 62
3
100
AcDbLine
 10
206.3378873033719
 20
282.6961296435634
 30
0.0000000000000000
 11
209.2487744821999
 21
281.9703639567646
 31
0.0000000000000000
  0
LINE
  5
2EF
100
AcDbEntity
  8
MAIN0
  6
CONTINUOUS
 62
3
100
AcDbLine
 10
221.4099295484548
 20
299.7597587591180
 30
0.0000000000000000
 11
226.4099295484554
 21
299.7597587591180
 31
0.0000000000000000
  0
LINE
  5
2F0
100
AcDbEntity
  8
MAIN0
  6
CENTER
 62
3
100
AcDbLine
 10
209.5812208053436
 20
293.7598917749362
 30
0.0000000000000000
 11
228.6352712780715
 21
293.7598917749362
 31
0.0000000000000000
  0
LINE
  5
2F1
100
AcDbEntity
  8
MAIN0
  6
CONTINUOUS
 62
3
100
AcDbLine
 10
208.7407385014408
 20
279.9327429315850
 30
0.0000000000000000
 11
246.1615451693348
 21
270.6026879403014
 31
0.0000000000000000
  0
LINE
  5
2F2
100
AcDbEntity
  8
MAIN0
  6
CONTINUOUS
 62
3
100
AcDbLine
 10
214.7887858914305
 20
304.1901360884854
 30
0.0000000000000000
 11
220.2343509376577
 21
302.8324042311575
 31
0.0000000000000000
  0
LINE
  5
2F3
100
AcDbEntity
  8
MAIN0
  6
CENTER
 62
3
100
AcDbLine
 10
236.4099295484502
 20
272.1605313620203
 30
0.0000000000000000
 11
236.4099295484530
 21
302.2950092931376
 31
0.0000000000000000
  0
ARC
  5
2F4
100
AcDbEntity
  8
MAIN0
  6
CONTINUOUS
 62
3
100
AcDbCircle
 10
246.2099295484548
 20
270.7967470855566
 30
0.0000000000000000
 40
0.2000000000000000
100
AcDbArc
 50
256.0000000000028
 51
360.0000000000000
  0
LINE
  5
2F5
100
AcDbEntity
  8
MAIN0
  6
CONTINUOUS
 62
3
100
AcDbLine
 10
219.8099295484548
 20
299.2597587591180
 30
0.0000000000000000
 11
220.4494384849693
 21
299.2597587591180
 31
0.0000000000000000
  0
LINE
  5
2F6
100
AcDbEntity
  8
MAIN0
  6
CONTINUOUS
 62
3
100
AcDbLine
 10
221.4099295484548
 20
299.7597587591180
 30
0.0000000000000000
 11
220.4494384849693
 21
299.2597587591180
 31
0.0000000000000000
  0
ARC
  5
2F7
100
AcDbEntity
  8
MAIN0
  6
CONTINUOUS
 62
3
100
AcDbCircle
 10
219.8099295484548
 20
299.6597587591180
 30
0.0000000000000000
 40
0.4000000000000000
100
AcDbArc
 50
180.0000000000000
 51
270.0000000000000
  0
ARC
  5
2F8
100
AcDbEntity
  8
MAIN0
  6
CONTINUOUS
 62
3
100
AcDbCircle
 10
230.9099295484559
 20
286.2598917749587
 30
0.0000000000000000
 40
5.000000000000000
100
AcDbArc
 50
154.1580672368438
 51
295.8419327625752
  0
LINE
  5
2F9
100
AcDbEntity
  8
MAIN0
  6
CONTINUOUS
 62
3
100
AcDbLine
 10
241.4099295484534
 20
285.2598917749357
 30
0.0000000000000000
 11
241.4099295484539
 21
290.6598917749357
 31
0.0000000000000000
  0
LINE
  5
2FA
100
AcDbEntity
  8
MAIN0
  6
CONTINUOUS
 62
3
100
AcDbLine
 10
241.4099295484539
 20
290.6598917749357
 30
0.0000000000000000
 11
240.3706990639126
 21
291.2598917749359
 31
0.0000000000000000
  0
LINE
  5
2FB
100
AcDbEntity
  8
MAIN0
  6
CONTINUOUS
 62
3
100
AcDbLine
 10
240.3706990639126
 20
291.2598917749357
 30
0.0000000000000000
 11
232.4491600329953
 21
291.2598917749365
 31
0.0000000000000000
  0
LINE
  5
2FC
100
AcDbEntity
  8
MAIN0
  6
CONTINUOUS
 62
3
100
AcDbLine
 10
232.4491600329952
 20
291.2598917749366
 30
0.0000000000000000
 11
231.4099295484538
 21
290.6598917749367
 31
0.0000000000000000
  0
LINE
  5
2FD
100
AcDbEntity
  8
MAIN0
  6
CONTINUOUS
 62
3
100
AcDbLine
 10
231.4099295484539
 20
290.6598917749366
 30
0.0000000000000000
 11
231.4099295484534
 21
285.2598917749367
 31
0.0000000000000000
  0
LINE
  5
2FE
100
AcDbEntity
  8
MAIN0
  6
CONTINUOUS
 62
3
100
AcDbLine
 10
241.4099295484539
 20
290.6598917749357
 30
0.0000000000000000
 11
231.4099295484539
 21
290.6598917749367
 31
0.0000000000000000
  0
LINE
  5
2FF
100
AcDbEntity
  8
MAIN0
  6
CONTINUOUS
 62
3
100
AcDbLine
 10
239.4099295484534
 20
285.2598917749359
 30
0.0000000000000000
 11
239.4099295484524
 21
275.2598917749359
 31
0.0000000000000000
  0
LINE
  5
300
100
AcDbEntity
  8
MAIN0
  6
CONTINUOUS
 62
3
100
AcDbLine
 10
233.4099295484525
 20
275.2598917749364
 30
0.0000000000000000
 11
233.4099295484534
 21
285.2598917749365
 31
0.0000000000000000
  0
LINE
  5
301
100
AcDbEntity
  8
MAIN0
  6
CONTINUOUS
 62
3
100
AcDbLine
 10
238.8686635484534
 20
285.2598917749360
 30
0.0000000000000000
 11
238.8686635484524
 21
275.2598917749359
 31
0.0000000000000000
  0
LINE
  5
302
100
AcDbEntity
  8
MAIN0
  6
CONTINUOUS
 62
3
100
AcDbLine
 10
233.9511955484534
 20
285.2598917749364
 30
0.0000000000000000
 11
233.9511955484525
 21
275.2598917749364
 31
0.0000000000000000
  0
LINE
  5
303
100
AcDbEntity
  8
MAIN0
  6
CONTINUOUS
 62
3
100
AcDbLine
 10
239.4099295484524
 20
275.2598917749359
 30
0.0000000000000000
 11
233.4099295484524
 21
275.2598917749365
 31
0.0000000000000000
  0
LINE
  5
304
100
AcDbEntity
  8
MAIN0
  6
CONTINUOUS
 62
3
100
AcDbLine
 10
233.0893790201797
 20
281.7598917749362
 30
0.0000000000000000
 11
233.4099295484531
 21
281.7598917749362
 31
0.0000000000000000
  0
LINE
  5
305
100
AcDbEntity
  8
MAIN0
  6
CONTINUOUS
 62
3
100
AcDbLine
 10
239.4099295484531
 20
281.7598917749362
 30
0.0000000000000000
 11
246.4099295484548
 21
281.7598917749362
 31
0.0000000000000000
  0
LINE
  5
306
100
AcDbEntity
  8
MAIN0
  6
CONTINUOUS
 62
3
100
AcDbLine
 10
210.1825233507631
 20
305.3386063282991
 30
0.0000000000000000
 11
214.7887858914305
 21
304.1901360884854
 31
0.0000000000000000
  0
LINE
  5
307
100
AcDbEntity
  8
MAIN0
  6
CONTINUOUS
 62
3
100
AcDbLine
 10
198.4941341549010
 20
282.4875084276171
 30
0.0000000000000000
 11
208.7407385014408
 21
279.9327429315850
 31
0.0000000000000000
  0
LINE
  5
308
100
AcDbEntity
  8
MAIN0
  6
HIDDEN
 62
3
100
AcDbLine
 10
207.9843509376576
 20
234.2805342032437
 30
0.0000000000000000
 11
208.5843509376576
 21
234.8805342032437
 31
0.0000000000000000
  0
LINE
  5
309
100
AcDbEntity
  8
MAIN0
  6
HIDDEN
 62
3
100
AcDbLine
 10
208.5843509376576
 20
234.8805342032437
 30
0.0000000000000000
 11
211.8843509376576
 21
234.8805342032437
 31
0.0000000000000000
  0
LINE
  5
30A
100
AcDbEntity
  8
MAIN0
  6
HIDDEN
 62
3
100
AcDbLine
 10
211.8843509376576
 20
234.8805342032437
 30
0.0000000000000000
 11
212.4843509376576
 21
234.2805342032437
 31
0.0000000000000000
  0
LINE
  5
30B
100
AcDbEntity
  8
MAIN0
  6
HIDDEN
 62
3
100
AcDbLine
 10
208.2343509376576
 20
234.5305342032437
 30
0.0000000000000000
 11
208.2343509376576
 21
240.2805342032437
 31
0.0000000000000000
  0
LINE
  5
30C
100
AcDbEntity
  8
MAIN0
  6
HIDDEN
 62
3
100
AcDbLine
 10
208.2343509376576
 20
240.2805342032437
 30
0.0000000000000000
 11
212.2343509376576
 21
240.2805342032437
 31
0.0000000000000000
  0
LINE
  5
30D
100
AcDbEntity
  8
MAIN0
  6
HIDDEN
 62
3
100
AcDbLine
 10
212.2343509376576
 20
240.2805342032437
 30
0.0000000000000000
 11
212.2343509376576
 21
234.5305342032437
 31
0.0000000000000000
  0
LINE
  5
30E
100
AcDbEntity
  8
MAIN0
  6
CONTINUOUS
 62
3
100
AcDbLine
 10
211.8843509376576
 20
259.0555342032437
 30
0.0000000000000000
 11
211.8843482410207
 21
243.0371768986995
 31
0.0000000000000000
  0
LINE
  5
30F
100
AcDbEntity
  8
MAIN0
  6
HIDDEN
 62
3
100
AcDbLine
 10
211.8843482410207
 20
243.0371768986995
 30
0.0000000000000000
 11
211.8843509376576
 21
234.8805342032437
 31
0.0000000000000000
  0
LINE
  5
310
100
AcDbEntity
  8
MAIN0
  6
HIDDEN
 62
3
100
AcDbLine
 10
208.5843509376576
 20
234.8805342032437
 30
0.0000000000000000
 11
208.5843509375263
 21
247.0078700262719
 31
0.0000000000000000
  0
LINE
  5
311
100
AcDbEntity
  8
MAIN0
  6
CONTINUOUS
 62
3
100
AcDbLine
 10
208.5843509375263
 20
247.0078700262719
 30
0.0000000000000000
 11
208.5843509376576
 21
259.0555342032437
 31
0.0000000000000000
  0
LINE
  5
312
100
AcDbEntity
  8
MAIN0
  6
CONTINUOUS
 62
3
100
AcDbLine
 10
222.2343509376576
 20
255.0555342032437
 30
0.0000000000000000
 11
221.6580562995663
 21
255.3555342032437
 31
0.0000000000000000
  0
LINE
  5
313
100
AcDbEntity
  8
MAIN0
  6
CONTINUOUS
 62
3
100
AcDbLine
 10
221.6580562995663
 20
255.3555342032437
 30
0.0000000000000000
 11
220.3343509376576
 21
255.3555342032437
 31
0.0000000000000000
  0
LINE
  5
314
100
AcDbEntity
  8
MAIN0
  6
CONTINUOUS
 62
3
100
AcDbLine
 10
219.9343509376577
 20
254.9555342032437
 30
0.0000000000000000
 11
219.9343509376577
 21
253.6318288413350
 31
0.0000000000000000
  0
LINE
  5
315
100
AcDbEntity
  8
MAIN0
  6
CONTINUOUS
 62
3
100
AcDbLine
 10
219.9343509376577
 20
253.6318288413350
 30
0.0000000000000000
 11
220.2343509376576
 21
253.0555342032437
 31
0.0000000000000000
  0
ARC
  5
316
100
AcDbEntity
  8
MAIN0
  6
CONTINUOUS
 62
3
100
AcDbCircle
 10
220.3343509376576
 20
254.9555342032437
 30
0.0000000000000000
 40
0.4000000000000000
100
AcDbArc
 50
90.00000000000000
 51
180.0000000000000
  0
LINE
  5
317
100
AcDbEntity
  8
MAIN0
  6
CENTER
 62
3
100
AcDbLine
 10
338.5682427451326
 20
267.0555342032437
 30
0.0000000000000000
 11
521.0587088650873
 21
267.0555342032437
 31
0.0000000000000000
  0
LINE
  5
318
100
AcDbEntity
  8
MAIN0
  6
CENTER
 62
12
100
AcDbLine
 10
483.7998381321316
 20
267.0555342032438
 30
0.0000000000000000
 11
493.8546812337964
 21
267.0555342032438
 31
0.0000000000000000
  0
CIRCLE
  5
319
100
AcDbEntity
  8
MAIN0
  6
CONTINUOUS
 62
3
100
AcDbCircle
 10
427.1515203776257
 20
267.0555342032436
 30
0.0000000000000000
 40
67.50000000000000
  0
ARC
  5
31A
100
AcDbEntity
  8
MAIN0
  6
CENTER
 62
3
100
AcDbCircle
 10
427.1515203776257
 20
267.0555342032437
 30
0.0000000000000000
 40
41.27500000000000
100
AcDbArc
 50
133.0805690054854
 51
167.3474670279146
  0
ARC
  5
31B
100
AcDbEntity
  8
MAIN0
  6
CENTER
 62
3
100
AcDbCircle
 10
427.1515203776257
 20
267.0555342032437
 30
0.0000000000000000
 40
41.27500000000000
100
AcDbArc
 50
231.8845155604350
 51
286.8731405145846
  0
ARC
  5
31C
100
AcDbEntity
  8
MAIN0
  6
CENTER
 62
3
100
AcDbCircle
 10
427.1515203776257
 20
267.0555342032437
 30
0.0000000000000000
 40
41.27500000000000
100
AcDbArc
 50
13.25916051892900
 51
58.04463611086484
  0
CIRCLE
  5
31D
100
AcDbEntity
  8
MAIN0
  6
CONTINUOUS
 62
3
100
AcDbCircle
 10
379.5201231694816
 20
239.5555342032437
 30
0.0000000000000000
 40
3.000000000000000
  0
CIRCLE
  5
31E
100
AcDbEntity
  8
MAIN0
  6
CONTINUOUS
 62
3
100
AcDbCircle
 10
379.5201231694816
 20
239.5555342032437
 30
0.0000000000000000
 40
2.500000000000000
  0
LINE
  5
31F
100
AcDbEntity
  8
MAIN0
  6
CENTER
 62
3
100
AcDbLine
 10
442.1515203776257
 20
241.9146019813651
 30
0.0000000000000000
 11
442.1515203776257
 21
212.0600092712618
 31
0.0000000000000000
  0
LINE
  5
320
100
AcDbEntity
  8
MAIN0
  6
CENTER
 62
3
100
AcDbLine
 10
412.1515203776257
 20
241.9472667419655
 30
0.0000000000000000
 11
412.1515203776257
 21
212.0600092712618
 31
0.0000000000000000
  0
CIRCLE
  5
321
100
AcDbEntity
  8
MAIN0
  6
CONTINUOUS
 62
3
100
AcDbCircle
 10
474.7829175857698
 20
239.5555342032438
 30
0.0000000000000000
 40
3.000000000000000
  0
CIRCLE
  5
322
100
AcDbEntity
  8
MAIN0
  6
CONTINUOUS
 62
3
100
AcDbCircle
 10
474.7829175857698
 20
239.5555342032438
 30
0.0000000000000000
 40
2.500000000000000
  0
ARC
  5
323
100
AcDbEntity
  8
MAIN0
  6
CENTER
 62
3
100
AcDbCircle
 10
427.1515203776256
 20
267.0555342032437
 30
0.0000000000000000
 40
54.99999999999996
100
AcDbArc
 50
323.8505263683714
 51
336.7527747314406
  0
LINE
  5
324
100
AcDbEntity
  8
MAIN0
  6
CENTER
 62
3
100
AcDbLine
 10
403.8311056344575
 20
216.0555342032437
 30
0.0000000000000000
 11
418.7212590883656
 21
216.0555342032437
 31
0.0000000000000000
  0
LINE
  5
325
100
AcDbEntity
  8
MAIN0
  6
CENTER
 62
3
100
AcDbLine
 10
435.4162869298933
 20
216.0555342032437
 30
0.0000000000000000
 11
448.2759696071479
 21
216.0555342032437
 31
0.0000000000000000
  0
LINE
  5
326
100
AcDbEntity
  8
MAIN0
  6
CENTER
 62
3
100
AcDbLine
 10
406.9896272065126
 20
236.0555342032437
 30
0.0000000000000000
 11
417.8188305008348
 21
236.0555342032437
 31
0.0000000000000000
  0
LINE
  5
327
100
AcDbEntity
  8
MAIN0
  6
CENTER
 62
3
100
AcDbLine
 10
436.5443291190160
 20
236.0555342032437
 30
0.0000000000000000
 11
446.6967088211203
 21
236.0555342032437
 31
0.0000000000000000
  0
LINE
  5
328
100
AcDbEntity
  8
MAIN0
  6
CENTER
 62
3
100
AcDbLine
 10
441.4242063565954
 20
292.6163813709496
 30
0.0000000000000000
 11
467.2790420631825
 21
307.5436777260011
 31
0.0000000000000000
  0
LINE
  5
329
100
AcDbEntity
  8
MAIN0
  6
CENTER
 62
3
100
AcDbLine
 10
456.3959178441070
 20
266.6192868771162
 30
0.0000000000000000
 11
482.2790420631825
 21
281.5629156124679
 31
0.0000000000000000
  0
CIRCLE
  5
32A
100
AcDbEntity
  8
MAIN0
  6
CONTINUOUS
 62
3
100
AcDbCircle
 10
446.4983078949433
 20
295.5459152600103
 30
0.0000000000000000
 40
3.000000000000000
  0
CIRCLE
  5
32B
100
AcDbEntity
  8
MAIN0
  6
CONTINUOUS
 62
3
100
AcDbCircle
 10
446.4983078949433
 20
295.5459152600103
 30
0.0000000000000000
 40
2.500000000000000
  0
CIRCLE
  5
32C
100
AcDbEntity
  8
MAIN0
  6
CONTINUOUS
 62
3
100
AcDbCircle
 10
461.4983078949433
 20
269.5651531464770
 30
0.0000000000000000
 40
3.000000000000000
  0
CIRCLE
  5
32D
100
AcDbEntity
  8
MAIN0
  6
CONTINUOUS
 62
3
100
AcDbCircle
 10
461.4983078949433
 20
269.5651531464770
 30
0.0000000000000000
 40
2.500000000000000
  0
CIRCLE
  5
32E
100
AcDbEntity
  8
MAIN0
  6
CONTINUOUS
 62
3
100
AcDbCircle
 10
463.8188159706321
 20
305.5459152600102
 30
0.0000000000000000
 40
3.000000000000000
  0
CIRCLE
  5
32F
100
AcDbEntity
  8
MAIN0
  6
CONTINUOUS
 62
3
100
AcDbCircle
 10
463.8188159706321
 20
305.5459152600102
 30
0.0000000000000000
 40
2.500000000000000
  0
CIRCLE
  5
330
100
AcDbEntity
  8
MAIN0
  6
CONTINUOUS
 62
3
100
AcDbCircle
 10
478.8188159706320
 20
279.5651531464770
 30
0.0000000000000000
 40
3.000000000000000
  0
CIRCLE
  5
331
100
AcDbEntity
  8
MAIN0
  6
CONTINUOUS
 62
3
100
AcDbCircle
 10
478.8188159706320
 20
279.5651531464770
 30
0.0000000000000000
 40
2.500000000000000
  0
LINE
  5
332
100
AcDbEntity
  8
MAIN0
  6
CENTER
 62
3
100
AcDbLine
 10
482.9790233422162
 20
272.3594626088708
 30
0.0000000000000000
 11
475.5339466152622
 21
285.2547137662039
 31
0.0000000000000000
  0
LINE
  5
333
100
AcDbEntity
  8
MAIN0
  6
CENTER
 62
3
100
AcDbLine
 10
467.1864326944983
 20
299.7130319938552
 30
0.0000000000000000
 11
460.7565913558710
 21
310.8498438769644
 31
0.0000000000000000
  0
LINE
  5
334
100
AcDbEntity
  8
MAIN0
  6
CENTER
 62
3
100
AcDbLine
 10
464.0792544804999
 20
265.0948225286717
 30
0.0000000000000000
 11
458.6646528333388
 21
274.4731876843009
 31
0.0000000000000000
  0
LINE
  5
335
100
AcDbEntity
  8
MAIN0
  6
CENTER
 62
3
100
AcDbLine
 10
449.3019035242483
 20
290.6899451861761
 30
0.0000000000000000
 11
444.2257136731961
 21
299.4821639170640
 31
0.0000000000000000
  0
LINE
  5
336
100
AcDbEntity
  8
MAIN0
  6
CENTER
 62
3
100
AcDbLine
 10
397.8788343986561
 20
266.6356192574164
 30
0.0000000000000000
 11
372.0239986920690
 21
281.5629156124680
 31
0.0000000000000000
  0
LINE
  5
337
100
AcDbEntity
  8
MAIN0
  6
CENTER
 62
3
100
AcDbLine
 10
412.9071229111447
 20
292.6000489906494
 30
0.0000000000000000
 11
387.0239986920691
 21
307.5436777260012
 31
0.0000000000000000
  0
CIRCLE
  5
338
100
AcDbEntity
  8
MAIN0
  6
CONTINUOUS
 62
3
100
AcDbCircle
 10
392.8047328603082
 20
269.5651531464771
 30
0.0000000000000000
 40
3.000000000000000
  0
CIRCLE
  5
339
100
AcDbEntity
  8
MAIN0
  6
CONTINUOUS
 62
3
100
AcDbCircle
 10
392.8047328603082
 20
269.5651531464771
 30
0.0000000000000000
 40
2.500000000000000
  0
CIRCLE
  5
33A
100
AcDbEntity
  8
MAIN0
  6
CONTINUOUS
 62
3
100
AcDbCircle
 10
407.8047328603082
 20
295.5459152600103
 30
0.0000000000000000
 40
3.000000000000000
  0
CIRCLE
  5
33B
100
AcDbEntity
  8
MAIN0
  6
CONTINUOUS
 62
3
100
AcDbCircle
 10
407.8047328603082
 20
295.5459152600103
 30
0.0000000000000000
 40
2.500000000000000
  0
CIRCLE
  5
33C
100
AcDbEntity
  8
MAIN0
  6
CONTINUOUS
 62
3
100
AcDbCircle
 10
375.4842247846194
 20
279.5651531464771
 30
0.0000000000000000
 40
3.000000000000000
  0
CIRCLE
  5
33D
100
AcDbEntity
  8
MAIN0
  6
CONTINUOUS
 62
3
100
AcDbCircle
 10
375.4842247846194
 20
279.5651531464771
 30
0.0000000000000000
 40
2.500000000000000
  0
CIRCLE
  5
33E
100
AcDbEntity
  8
MAIN0
  6
CONTINUOUS
 62
3
100
AcDbCircle
 10
390.4842247846194
 20
305.5459152600103
 30
0.0000000000000000
 40
3.000000000000000
  0
CIRCLE
  5
33F
100
AcDbEntity
  8
MAIN0
  6
CONTINUOUS
 62
3
100
AcDbCircle
 10
390.4842247846194
 20
305.5459152600103
 30
0.0000000000000000
 40
2.500000000000000
  0
LINE
  5
340
100
AcDbEntity
  8
MAIN0
  6
CENTER
 62
3
100
AcDbLine
 10
394.6444321562036
 20
312.7516057976166
 30
0.0000000000000000
 11
387.1993554292495
 21
299.8563546402834
 31
0.0000000000000000
  0
LINE
  5
341
100
AcDbEntity
  8
MAIN0
  6
CENTER
 62
3
100
AcDbLine
 10
378.8518415084857
 20
285.3980364126321
 30
0.0000000000000000
 11
372.4220001698584
 21
274.2612245295229
 31
0.0000000000000000
  0
LINE
  5
342
100
AcDbEntity
  8
MAIN0
  6
CENTER
 62
3
100
AcDbLine
 10
410.3856794458648
 20
300.0162458778156
 30
0.0000000000000000
 11
404.9710777987037
 21
290.6378807221864
 31
0.0000000000000000
  0
LINE
  5
343
100
AcDbEntity
  8
MAIN0
  6
CENTER
 62
3
100
AcDbLine
 10
395.6083284896131
 20
274.4211232203112
 30
0.0000000000000000
 11
390.5321386385609
 21
265.6289044894234
 31
0.0000000000000000
  0
ARC
  5
344
100
AcDbEntity
  8
MAIN0
  6
CENTER
 62
3
100
AcDbCircle
 10
427.1515203776256
 20
267.0555342032437
 30
0.0000000000000000
 40
54.99999999999996
100
AcDbArc
 50
82.32634666725545
 51
95.15213039306845
  0
ARC
  5
345
100
AcDbEntity
  8
MAIN0
  6
CENTER
 62
3
100
AcDbCircle
 10
427.1515203776256
 20
267.0555342032437
 30
0.0000000000000000
 40
54.99999999999996
100
AcDbArc
 50
195.8243032008203
 51
217.8234015502355
  0
DIMENSION
  5
34E
100
AcDbEntity
  8
MAIN0
  6
CONTINUOUS
 62
3
100
AcDbDimension
  2
*D28
 10
439.1515203776257
 20
346.1173204891265
 30
0.0000000000000000
 11
427.1515203776257
 21
346.6173204891265
 31
0.0000000000000000
 70
32
  3
MAIN001
100
AcDbAlignedDimension
 13
415.1515203776257
 23
300.9966597001400
 33
0.0000000000000000
 14
439.1515203776257
 24
300.9966597001400
 34
0.0000000000000000
100
AcDbRotatedDimension
1001
ACAD
1000
DSTYLE
1002
{
1070
   173
1070
     1
1070
     6
1000
_OPEN
1070
     7
1000
_OPEN
1070
    41
1040
2.000000
1002
}
  0
DIMENSION
  5
356
100
AcDbEntity
  8
MAIN0
  6
CONTINUOUS
 62
3
100
AcDbDimension
  2
*D29
 10
403.2262434458660
 20
233.4221170598934
 30
0.0000000000000000
 11
455.3413173296462
 21
307.5464636431309
 31
0.0000000000000000
 70
163
  3
MAIN001
100
AcDbDiametricDimension
 15
451.0767973093855
 25
300.6889513465939
 35
0.0000000000000000
1001
ACAD
1000
DSTYLE
1002
{
1070
   287
1070
     2
1070
   173
1070
     1
1070
     6
1000
_OPEN
1070
     7
1000
_OPEN
1070
    41
1040
2.000000
1002
}
  0
DIMENSION
  5
35F
100
AcDbEntity
  8
MAIN0
  6
CONTINUOUS
 62
3
100
AcDbDimension
  2
*D30
 10
412.1515203776257
 20
187.7615824923411
 30
0.0000000000000000
 11
427.1515203776257
 21
188.2615824923411
 31
0.0000000000000000
 70
32
  3
MAIN001
100
AcDbAlignedDimension
 13
442.1515203776257
 23
212.0600092712618
 33
0.0000000000000000
 14
412.1515203776257
 24
212.0600092712618
 34
0.0000000000000000
100
AcDbRotatedDimension
1001
ACAD
1000
DSTYLE
1002
{
1070
   173
1070
     1
1070
     6
1000
_OPEN
1070
     7
1000
_OPEN
1070
    41
1040
2.000000
1002
}
  0
DIMENSION
  5
367
100
AcDbEntity
  8
MAIN0
  6
CONTINUOUS
 62
3
100
AcDbDimension
  2
*D31
 10
348.3314290689924
 20
267.0555342032437
 30
0.0000000000000000
 11
347.8314290689924
 21
251.5555342032437
 31
0.0000000000000000
 70
32
  3
MAIN001
100
AcDbAlignedDimension
 13
406.9896272065126
 23
236.0555342032437
 33
0.0000000000000000
 14
338.5682427451326
 24
267.0555342032437
 34
0.0000000000000000
 50
90.00000000000000
100
AcDbRotatedDimension
1001
ACAD
1000
DSTYLE
1002
{
1070
   173
1070
     1
1070
     6
1000
_OPEN
1070
     7
1000
_OPEN
1070
    41
1040
2.000000
1002
}
  0
DIMENSION
  5
370
100
AcDbEntity
  8
MAIN0
  6
CONTINUOUS
 62
3
100
AcDbDimension
  2
*D32
 10
348.3314290689924
 20
236.0555342032437
 30
0.0000000000000000
 11
347.8314290689924
 21
226.0555342032437
 31
0.0000000000000000
 70
32
  3
MAIN001
100
AcDbAlignedDimension
 13
403.8311056344575
 23
216.0555342032437
 33
0.0000000000000000
 14
406.9896272065126
 24
236.0555342032437
 34
0.0000000000000000
 50
90.00000000000000
100
AcDbRotatedDimension
1001
ACAD
1000
DSTYLE
1002
{
1070
   173
1070
     1
1070
     6
1000
_OPEN
1070
     7
1000
_OPEN
1070
    41
1040
2.000000
1002
}
  0
DIMENSION
  5
376
100
AcDbEntity
  8
MAIN0
  6
CONTINUOUS
 62
3
100
AcDbDimension
  2
*D33
 10
427.1515203776256
 20
267.0555342032437
 30
0.0000000000000000
 11
384.0197609444743
 21
253.8684221353939
 31
0.0000000000000000
 70
164
  3
MAIN001
100
AcDbRadialDimension
 15
374.7364006302154
 25
250.3925446195991
 35
0.0000000000000000
1001
ACAD
1000
DSTYLE
1002
{
1070
   173
1070
     1
1070
     6
1000
_OPEN
1070
     7
1000
_OPEN
1070
    41
1040
2.000000
1070
   340
1005
114
1002
}
  0
LINE
  5
377
100
AcDbEntity
  8
MAIN0
  6
CENTER
 62
3
100
AcDbLine
 10
363.3883818384880
 20
230.2418690032972
 30
0.0000000000000000
 11
388.3192865936466
 21
244.6357335748289
 31
0.0000000000000000
  0
LINE
  5
378
100
AcDbEntity
  8
MAIN0
  6
CENTER
 62
3
100
AcDbLine
 10
393.6228881863723
 20
247.6977693820636
 30
0.0000000000000000
 11
476.4409387897191
 21
295.5127931916660
 31
0.0000000000000000
  0
LINE
  5
379
100
AcDbEntity
  8
MAIN0
  6
CENTER
 62
3
100
AcDbLine
 10
460.5510529402575
 20
247.7723050874005
 30
0.0000000000000000
 11
360.2232050802223
 21
305.6966150566077
 31
0.0000000000000000
  0
LINE
  5
37A
100
AcDbEntity
  8
MAIN0
  6
CENTER
 62
3
100
AcDbLine
 10
465.6035166331747
 20
244.8552638142240
 30
0.0000000000000000
 11
478.0560397652137
 21
237.6657962318512
 31
0.0000000000000000
  0
LINE
  5
37B
100
AcDbEntity
  8
MAIN0
  6
CENTER
 62
3
100
AcDbLine
 10
483.3417811224730
 20
234.6140720363708
 30
0.0000000000000000
 11
494.3027257468532
 21
228.2857677069123
 31
0.0000000000000000
  0
LINE
  5
37C
100
AcDbEntity
  8
MAIN0
  6
HIDDEN
 62
3
100
AcDbLine
 10
432.6515203776258
 20
300.7555342032385
 30
0.0000000000000000
 11
432.6515203776258
 21
285.2595342031891
 31
0.0000000000000000
  0
LINE
  5
37D
100
AcDbEntity
  8
MAIN0
  6
HIDDEN
 62
3
100
AcDbLine
 10
432.6515203776258
 20
285.2595342031891
 30
0.0000000000000000
 11
421.6515203776258
 21
285.2595342031891
 31
0.0000000000000000
  0
LINE
  5
37E
100
AcDbEntity
  8
MAIN0
  6
HIDDEN
 62
3
100
AcDbLine
 10
421.6515203776258
 20
285.2595342031891
 30
0.0000000000000000
 11
421.6515203776258
 21
300.7555342032368
 31
0.0000000000000000
  0
LINE
  5
37F
100
AcDbEntity
  8
MAIN0
  6
HIDDEN
 62
3
100
AcDbLine
 10
430.4515203776259
 20
285.2595342031891
 30
0.0000000000000000
 11
430.4515203776259
 21
281.3651846639865
 31
0.0000000000000000
  0
LINE
  5
380
100
AcDbEntity
  8
MAIN0
  6
HIDDEN
 62
3
100
AcDbLine
 10
423.8515203776259
 20
285.2595342031891
 30
0.0000000000000000
 11
423.8515203776259
 21
281.3651846639865
 31
0.0000000000000000
  0
LINE
  5
381
100
AcDbEntity
  8
MAIN0
  6
HIDDEN
 62
3
100
AcDbLine
 10
432.1515203776258
 20
285.2595342031891
 30
0.0000000000000000
 11
432.1515203776258
 21
290.6595342031891
 31
0.0000000000000000
  0
LINE
  5
382
100
AcDbEntity
  8
MAIN0
  6
HIDDEN
 62
3
100
AcDbLine
 10
432.1515203776258
 20
290.6595342031891
 30
0.0000000000000000
 11
431.1122898930845
 21
291.2595342031891
 31
0.0000000000000000
  0
LINE
  5
383
100
AcDbEntity
  8
MAIN0
  6
HIDDEN
 62
3
100
AcDbLine
 10
431.1122898930846
 20
291.2595342031891
 30
0.0000000000000000
 11
423.1907508621672
 21
291.2595342031891
 31
0.0000000000000000
  0
LINE
  5
384
100
AcDbEntity
  8
MAIN0
  6
HIDDEN
 62
3
100
AcDbLine
 10
423.1907508621671
 20
291.2595342031891
 30
0.0000000000000000
 11
422.1515203776257
 21
290.6595342031891
 31
0.0000000000000000
  0
LINE
  5
385
100
AcDbEntity
  8
MAIN0
  6
HIDDEN
 62
3
100
AcDbLine
 10
422.1515203776258
 20
290.6595342031891
 30
0.0000000000000000
 11
422.1515203776258
 21
285.2595342031891
 31
0.0000000000000000
  0
LINE
  5
386
100
AcDbEntity
  8
MAIN0
  6
HIDDEN
 62
3
100
AcDbLine
 10
432.1515203776258
 20
290.6595342031891
 30
0.0000000000000000
 11
422.1515203776258
 21
290.6595342031891
 31
0.0000000000000000
  0
LINE
  5
387
100
AcDbEntity
  8
MAIN0
  6
HIDDEN
 62
3
100
AcDbLine
 10
430.1515203776258
 20
285.2595342031891
 30
0.0000000000000000
 11
430.1515203776258
 21
275.2595342031891
 31
0.0000000000000000
  0
LINE
  5
388
100
AcDbEntity
  8
MAIN0
  6
HIDDEN
 62
3
100
AcDbLine
 10
430.1515203776258
 20
275.2595342031891
 30
0.0000000000000000
 11
424.1515203776258
 21
275.2595342031891
 31
0.0000000000000000
  0
LINE
  5
389
100
AcDbEntity
  8
MAIN0
  6
HIDDEN
 62
3
100
AcDbLine
 10
424.1515203776258
 20
275.2595342031891
 30
0.0000000000000000
 11
424.1515203776258
 21
285.2595342031891
 31
0.0000000000000000
  0
LINE
  5
38A
100
AcDbEntity
  8
MAIN0
  6
HIDDEN
 62
3
100
AcDbLine
 10
429.6102543776259
 20
285.2595342031891
 30
0.0000000000000000
 11
429.6102543776259
 21
275.2595342031891
 31
0.0000000000000000
  0
LINE
  5
38B
100
AcDbEntity
  8
MAIN0
  6
HIDDEN
 62
3
100
AcDbLine
 10
424.6927863776259
 20
285.2595342031891
 30
0.0000000000000000
 11
424.6927863776259
 21
275.2595342031891
 31
0.0000000000000000
  0
LINE
  5
38C
100
AcDbEntity
  8
MAIN0
  6
CONTINUOUS
 62
3
100
AcDbLine
 10
226.4099295484555
 20
290.4598917749362
 30
0.0000000000000000
 11
225.6099295484555
 21
291.2598917749361
 31
0.0000000000000000
  0
LINE
  5
38D
100
AcDbEntity
  8
MAIN0
  6
CONTINUOUS
 62
3
100
AcDbLine
 10
225.6099295484554
 20
291.2598917749362
 30
0.0000000000000000
 11
225.6099295484554
 21
296.2598917749362
 31
0.0000000000000000
  0
LINE
  5
38E
100
AcDbEntity
  8
MAIN0
  6
CONTINUOUS
 62
3
100
AcDbLine
 10
225.6099295484554
 20
296.2598917749362
 30
0.0000000000000000
 11
226.4099295484554
 21
297.0598917749362
 31
0.0000000000000000
  0
LINE
  5
38F
100
AcDbEntity
  8
MAIN0
  6
CONTINUOUS
 62
3
100
AcDbLine
 10
226.1099295484554
 20
290.7598917749362
 30
0.0000000000000000
 11
217.4099295484554
 21
290.7598917749362
 31
0.0000000000000000
  0
LINE
  5
390
100
AcDbEntity
  8
MAIN0
  6
CONTINUOUS
 62
3
100
AcDbLine
 10
217.4099295484554
 20
290.7598917749362
 30
0.0000000000000000
 11
217.4099295484554
 21
296.7598917749362
 31
0.0000000000000000
  0
LINE
  5
391
100
AcDbEntity
  8
MAIN0
  6
CONTINUOUS
 62
3
100
AcDbLine
 10
217.4099295484554
 20
296.7598917749362
 30
0.0000000000000000
 11
226.1099295484554
 21
296.7598917749362
 31
0.0000000000000000
  0
LINE
  5
392
100
AcDbEntity
  8
MAIN0
  6
CONTINUOUS
 62
3
100
AcDbLine
 10
225.6099295484554
 20
291.2598917749362
 30
0.0000000000000000
 11
212.4099295484554
 21
291.2598917749362
 31
0.0000000000000000
  0
LINE
  5
393
100
AcDbEntity
  8
MAIN0
  6
CONTINUOUS
 62
3
100
AcDbLine
 10
212.4099295484554
 20
291.2598917749362
 30
0.0000000000000000
 11
212.4099295484554
 21
296.2598917749362
 31
0.0000000000000000
  0
LINE
  5
394
100
AcDbEntity
  8
MAIN0
  6
CONTINUOUS
 62
3
100
AcDbLine
 10
212.4099295484554
 20
296.2598917749362
 30
0.0000000000000000
 11
225.6099295484554
 21
296.2598917749362
 31
0.0000000000000000
  0
LINE
  5
395
100
AcDbEntity
  8
MAIN0
  6
CONTINUOUS
 62
3
100
AcDbLine
 10
212.4099295484554
 20
291.2598917749362
 30
0.0000000000000000
 11
210.9665538754813
 21
293.7598917749362
 31
0.0000000000000000
  0
LINE
  5
396
100
AcDbEntity
  8
MAIN0
  6
CONTINUOUS
 62
3
100
AcDbLine
 10
210.9665538754813
 20
293.7598917749362
 30
0.0000000000000000
 11
212.4099295484554
 21
296.2598917749362
 31
0.0000000000000000
  0
LINE
  5
397
100
AcDbEntity
  8
MAIN6
  6
HIDDEN
 62
3
100
AcDbLine
 10
239.4099295484548
 20
275.7734291259692
 30
0.0000000000000000
 11
239.4099295484548
 21
279.0734291259692
 31
0.0000000000000000
  0
LINE
  5
398
100
AcDbEntity
  8
MAIN0
  6
CONTINUOUS
 62
3
100
AcDbLine
 10
226.4099295484574
 20
300.7597587591180
 30
0.0000000000000000
 11
246.4099295484547
 21
300.7597587591180
 31
0.0000000000000000
  0
LINE
  5
399
100
AcDbEntity
  8
MAIN0
  6
CONTINUOUS
 62
3
100
AcDbLine
 10
226.4099295484573
 20
300.7597587591180
 30
0.0000000000000000
 11
226.4099295484573
 21
286.7598917749355
 31
0.0000000000000000
  0
LINE
  5
39A
100
AcDbEntity
  8
MAIN0
  6
CONTINUOUS
 62
3
100
AcDbLine
 10
226.4099295484573
 20
286.7598917749355
 30
0.0000000000000000
 11
231.4099295484567
 21
281.7598917749362
 31
0.0000000000000000
  0
LINE
  5
39B
100
AcDbEntity
  8
MAIN0
  6
CONTINUOUS
 62
3
100
AcDbLine
 10
231.4099295484567
 20
281.7598917749362
 30
0.0000000000000000
 11
233.4099295484531
 21
281.7598917749362
 31
0.0000000000000000
  0
LINE
  5
39C
100
AcDbEntity
  8
MAIN0
  6
CONTINUOUS
 62
3
100
AcDbLine
 10
246.4099295484547
 20
300.7597587591180
 30
0.0000000000000000
 11
246.4099295484548
 21
281.7598917749362
 31
0.0000000000000000
  0
LINE
  5
39D
100
AcDbEntity
  8
MAIN0
  6
CONTINUOUS
 62
3
100
AcDbLine
 10
242.3099295484574
 20
300.7597587591175
 30
0.0000000000000000
 11
241.9099295484573
 21
300.3597587591175
 31
0.0000000000000000
  0
LINE
  5
39E
100
AcDbEntity
  8
MAIN0
  6
CONTINUOUS
 62
3
100
AcDbLine
 10
241.9099295484558
 20
300.3597587591159
 30
0.0000000000000000
 11
241.9099295484543
 21
285.2598917749357
 31
0.0000000000000000
  0
LINE
  5
39F
100
AcDbEntity
  8
MAIN0
  6
CONTINUOUS
 62
3
100
AcDbLine
 10
241.9099295484534
 20
285.2598917749357
 30
0.0000000000000000
 11
230.9099295484534
 21
285.2598917749367
 31
0.0000000000000000
  0
LINE
  5
3A0
100
AcDbEntity
  8
MAIN0
  6
CONTINUOUS
 62
3
100
AcDbLine
 10
230.9099295484573
 20
300.3597587591185
 30
0.0000000000000000
 11
230.5099295484573
 21
300.7597587591186
 31
0.0000000000000000
  0
LINE
  5
3A1
100
AcDbEntity
  8
MAIN0
  6
CONTINUOUS
 62
3
100
AcDbLine
 10
239.7099295484533
 20
285.2598917749359
 30
0.0000000000000000
 11
239.7099295484530
 21
282.1598917749362
 31
0.0000000000000000
  0
LINE
  5
3A2
100
AcDbEntity
  8
MAIN0
  6
CONTINUOUS
 62
3
100
AcDbLine
 10
233.1099295484534
 20
285.2598917749365
 30
0.0000000000000000
 11
233.1099295484531
 21
282.1598917749362
 31
0.0000000000000000
  0
LINE
  5
3A3
100
AcDbEntity
  8
MAIN0
  6
CONTINUOUS
 62
3
100
AcDbLine
 10
230.9099295484574
 20
285.2598917749367
 30
0.0000000000000000
 11
230.9099295484574
 21
300.3597587591185
 31
0.0000000000000000
  0
LINE
  5
3A4
100
AcDbEntity
  8
MAIN0
  6
CONTINUOUS
 62
3
100
AcDbLine
 10
239.7099295484530
 20
282.1598917749362
 30
0.0000000000000000
 11
240.1099295484530
 21
281.7598917749361
 31
0.0000000000000000
  0
LINE
  5
3A5
100
AcDbEntity
  8
MAIN0
  6
CONTINUOUS
 62
3
100
AcDbLine
 10
233.1099295484530
 20
282.1598917749362
 30
0.0000000000000000
 11
232.7099295484530
 21
281.7598917749362
 31
0.0000000000000000
  0
ELLIPSE
  5
3A6
100
AcDbEntity
  8
MAIN0
  6
CONTINUOUS
 62
3
100
AcDbEllipse
 10
207.5393129024063
 20
281.3144362875743
 30
0.0000000000000000
 11
-1.455443589414023
 21
0.3628828433993891
 31
0.0000000000000000
210
0.0000000000000000
220
0.0000000000000000
230
1.000000000000000
 40
0.7000000000000001
 41
0.0000000000000000
 42
6.283185307179586
  0
ELLIPSE
  5
3A7
100
AcDbEntity
  8
MAIN0
  6
CONTINUOUS
 62
3
100
AcDbEllipse
 10
213.0793243116369
 20
303.5342084192950
 30
0.0000000000000000
 11
-1.455443589414023
 21
0.3628828433993891
 31
0.0000000000000000
210
0.0000000000000000
220
0.0000000000000000
230
1.000000000000000
 40
0.7000000000000001
 41
0.0000000000000000
 42
6.283185307179586
  0
CIRCLE
  5
3A8
100
AcDbEntity
  8
MAIN0
  6
CONTINUOUS
 62
3
100
AcDbCircle
 10
427.1515203776257
 20
225.7805342032437
 30
0.0000000000000000
 40
8.500000000000000
  0
CIRCLE
  5
3A9
100
AcDbEntity
  8
MAIN0
  6
CONTINUOUS
 62
3
100
AcDbCircle
 10
427.1515203776257
 20
225.7805342032437
 30
0.0000000000000000
 40
5.500000000000000
  0
CIRCLE
  5
3AA
100
AcDbEntity
  8
MAIN0
  6
CONTINUOUS
 62
3
100
AcDbCircle
 10
462.8967189188284
 20
287.6930342032437
 30
0.0000000000000000
 40
8.500000000000000
  0
CIRCLE
  5
3AB
100
AcDbEntity
  8
MAIN0
  6
CONTINUOUS
 62
3
100
AcDbCircle
 10
462.8967189188284
 20
287.6930342032437
 30
0.0000000000000000
 40
5.500000000000000
  0
CIRCLE
  5
3AC
100
AcDbEntity
  8
MAIN0
  6
CONTINUOUS
 62
3
100
AcDbCircle
 10
391.4063218364230
 20
287.6930342032437
 30
0.0000000000000000
 40
8.500000000000000
  0
CIRCLE
  5
3AD
100
AcDbEntity
  8
MAIN0
  6
CONTINUOUS
 62
3
100
AcDbCircle
 10
391.4063218364230
 20
287.6930342032437
 30
0.0000000000000000
 40
5.500000000000000
  0
CIRCLE
  5
3AE
100
AcDbEntity
  8
MAIN0
  6
CONTINUOUS
 62
3
100
AcDbCircle
 10
427.1515203776257
 20
322.0555342032437
 30
0.0000000000000000
 40
3.000000000000000
  0
CIRCLE
  5
3AF
100
AcDbEntity
  8
MAIN0
  6
CONTINUOUS
 62
3
100
AcDbCircle
 10
427.1515203776257
 20
322.0555342032437
 30
0.0000000000000000
 40
2.500000000000000
  0
CIRCLE
  5
3B0
100
AcDbEntity
  8
MAIN0
  6
CONTINUOUS
 62
3
100
AcDbCircle
 10
442.1515203776257
 20
236.0555342032437
 30
0.0000000000000000
 40
3.000000000000000
  0
CIRCLE
  5
3B1
100
AcDbEntity
  8
MAIN0
  6
CONTINUOUS
 62
3
100
AcDbCircle
 10
442.1515203776257
 20
236.0555342032437
 30
0.0000000000000000
 40
2.500000000000000
  0
CIRCLE
  5
3B2
100
AcDbEntity
  8
MAIN0
  6
CONTINUOUS
 62
3
100
AcDbCircle
 10
412.1515203776257
 20
236.0555342032437
 30
0.0000000000000000
 40
3.000000000000000
  0
CIRCLE
  5
3B3
100
AcDbEntity
  8
MAIN0
  6
CONTINUOUS
 62
3
100
AcDbCircle
 10
412.1515203776257
 20
236.0555342032437
 30
0.0000000000000000
 40
2.500000000000000
  0
CIRCLE
  5
3B4
100
AcDbEntity
  8
MAIN0
  6
CONTINUOUS
 62
3
100
AcDbCircle
 10
442.1515203776257
 20
216.0555342032437
 30
0.0000000000000000
 40
3.000000000000000
  0
CIRCLE
  5
3B5
100
AcDbEntity
  8
MAIN0
  6
CONTINUOUS
 62
3
100
AcDbCircle
 10
442.1515203776257
 20
216.0555342032437
 30
0.0000000000000000
 40
2.500000000000000
  0
LINE
  5
3B6
100
AcDbEntity
  8
MAIN0
  6
PHANTOM
 62
3
100
AcDbLine
 10
244.0856911098418
 20
300.0555510807031
 30
0.0000000000000000
 11
249.2343508544088
 21
300.0555510807031
 31
0.0000000000000000
  0
LINE
  5
3B7
100
AcDbEntity
  8
MAIN0
  6
PHANTOM
 62
3
100
AcDbLine
 10
249.2343508544088
 20
300.0555510807031
 30
0.0000000000000000
 11
249.2343508544089
 21
272.5134926112057
 31
0.0000000000000000
  0
LINE
  5
3B8
100
AcDbEntity
  8
WAKU0
  6
CONTINUOUS
 62
3
100
AcDbLine
 10
412.0000000000000
 20
51.00000000000000
 30
0.0000000000000000
 11
582.0000000000000
 21
51.00000000000000
 31
0.0000000000000000
  0
LINE
  5
3B9
100
AcDbEntity
  8
WAKU0
  6
CONTINUOUS
 62
3
100
AcDbLine
 10
412.0000000000000
 20
51.00000000000000
 30
0.0000000000000000
 11
412.0000000000000
 21
12.00000000000000
 31
0.0000000000000000
  0
LINE
  5
3BA
100
AcDbEntity
  8
WAKU0
  6
CONTINUOUS
 62
3
100
AcDbLine
 10
484.0000000000000
 20
51.00000000000000
 30
0.0000000000000000
 11
484.0000000000000
 21
12.00000000000000
 31
0.0000000000000000
  0
LINE
  5
3BB
100
AcDbEntity
  8
WAKU0
  6
CONTINUOUS
 62
3
100
AcDbLine
 10
504.0000000000000
 20
51.00000000000000
 30
0.0000000000000000
 11
504.0000000000000
 21
12.00000000000000
 31
0.0000000000000000
  0
LINE
  5
3BC
100
AcDbEntity
  8
WAKU0
  6
CONTINUOUS
 62
3
100
AcDbLine
 10
516.0000000000000
 20
51.00000000000000
 30
0.0000000000000000
 11
516.0000000000000
 21
12.00000000000000
 31
0.0000000000000000
  0
LINE
  5
3BD
100
AcDbEntity
  8
WAKU0
  6
CONTINUOUS
 62
3
100
AcDbLine
 10
516.0000000000000
 20
37.00000000000000
 30
0.0000000000000000
 11
582.0000000000000
 21
37.00000000000000
 31
0.0000000000000000
  0
LINE
  5
3BE
100
AcDbEntity
  8
WAKU0
  6
CONTINUOUS
 62
3
100
AcDbLine
 10
504.0000000000000
 20
23.00000000000000
 30
0.0000000000000000
 11
582.0000000000000
 21
23.00000000000000
 31
0.0000000000000000
  0
LINE
  5
3BF
100
AcDbEntity
  8
WAKU0
  6
CONTINUOUS
 62
3
100
AcDbLine
 10
547.0000000000000
 20
51.00000000000000
 30
0.0000000000000000
 11
547.0000000000000
 21
44.00000000000000
 31
0.0000000000000000
  0
LINE
  5
3C0
100
AcDbEntity
  8
WAKU0
  6
CONTINUOUS
 62
3
100
AcDbLine
 10
559.0000000000000
 20
51.00000000000000
 30
0.0000000000000000
 11
559.0000000000000
 21
44.00000000000000
 31
0.0000000000000000
  0
LINE
  5
3C1
100
AcDbEntity
  8
WAKU0
  6
CONTINUOUS
 62
3
100
AcDbLine
 10
484.0000000000000
 20
31.50000000000000
 30
0.0000000000000000
 11
504.0000000000000
 21
31.50000000000000
 31
0.0000000000000000
  0
LINE
  5
3C2
100
AcDbEntity
  8
WAKU0
  6
CONTINUOUS
 62
3
100
AcDbLine
 10
504.0000000000000
 20
44.00000000000000
 30
0.0000000000000000
 11
582.0000000000000
 21
44.00000000000000
 31
0.0000000000000000
  0
LINE
  5
3C3
100
AcDbEntity
  8
WAKU0
  6
CONTINUOUS
 62
3
100
AcDbLine
 10
412.0000000000000
 20
37.00000000000000
 30
0.0000000000000000
 11
484.0000000000000
 21
37.00000000000000
 31
0.0000000000000000
  0
LINE
  5
3C4
100
AcDbEntity
  8
WAKU0
  6
CONTINUOUS
 62
3
100
AcDbLine
 10
412.0000000000000
 20
23.00000000000000
 30
0.0000000000000000
 11
484.0000000000000
 21
23.00000000000000
 31
0.0000000000000000
  0
LINE
  5
3C5
100
AcDbEntity
  8
WAKU0
  6
CONTINUOUS
 62
3
100
AcDbLine
 10
460.0000000000000
 20
37.00000000000000
 30
0.0000000000000000
 11
460.0000000000000
 21
12.00000000000000
 31
0.0000000000000000
  0
LINE
  5
3C6
100
AcDbEntity
  8
WAKU0
  6
CONTINUOUS
 62
3
100
AcDbLine
 10
436.0000000000000
 20
37.00000000000000
 30
0.0000000000000000
 11
436.0000000000000
 21
23.00000000000000
 31
0.0000000000000000
  0
LINE
  5
3C7
100
AcDbEntity
  8
WAKU0
  6
CONTINUOUS
 62
3
100
AcDbLine
 10
472.0000000000000
 20
26.00000000000000
 30
0.0000000000000000
 11
472.0000000000000
 21
23.00000000000000
 31
0.0000000000000000
  0
LINE
  5
3C8
100
AcDbEntity
  8
WAKU0
  6
CONTINUOUS
 62
3
100
AcDbLine
 10
448.0000000000000
 20
26.00000000000000
 30
0.0000000000000000
 11
448.0000000000000
 21
23.00000000000000
 31
0.0000000000000000
  0
LINE
  5
3C9
100
AcDbEntity
  8
WAKU0
  6
CONTINUOUS
 62
3
100
AcDbLine
 10
424.0000000000000
 20
26.00000000000000
 30
0.0000000000000000
 11
424.0000000000000
 21
23.00000000000000
 31
0.0000000000000000
  0
LINE
  5
3CA
100
AcDbEntity
  8
WAKU0
  6
CONTINUOUS
 62
3
100
AcDbLine
 10
430.0000000000000
 20
51.00000000000000
 30
0.0000000000000000
 11
430.0000000000000
 21
37.00000000000000
 31
0.0000000000000000
  0
LINE
  5
3CB
100
AcDbEntity
  8
WAKU0
  6
CONTINUOUS
 62
3
100
AcDbLine
 10
412.0000000000000
 20
45.00000000000000
 30
0.0000000000000000
 11
484.0000000000000
 21
45.00000000000000
 31
0.0000000000000000
  0
LINE
  5
3CC
100
AcDbEntity
  8
WAKU0
  6
HIDDEN
 62
3
100
AcDbLine
 10
532.5000000000000
 20
23.00000000000000
 30
0.0000000000000000
 11
532.5000000000000
 21
12.00000000000000
 31
0.0000000000000000
  0
LINE
  5
3CD
100
AcDbEntity
  8
WAKU0
  6
HIDDEN
 62
3
100
AcDbLine
 10
544.9000000000000
 20
23.00000000000000
 30
0.0000000000000000
 11
544.9000000000000
 21
12.00000000000000
 31
0.0000000000000000
  0
MTEXT
  5
3CE
100
AcDbEntity
  8
WAKU0
  6
CONTINUOUS
 62
3
100
AcDbMText
 10
516.4820000243485
 20
49.04999995231628
 30
0.0000000000000000
 40
3.099999904632568
 41
0.0000000000000000
 71
     1
 72
     1
  1
{\H0.92x;{PUE05}}
 11
1.000000000000000
 21
0.0000000000000000
 31
0.0000000000000000
  7
STANDARD
  0
MTEXT
  5
3CF
100
AcDbEntity
  8
WAKU0
  6
CONTINUOUS
 62
3
100
AcDbMText
 10
516.4659999916852
 20
43.50000000000000
 30
0.0000000000000000
 40
3.000000000000000
 41
0.0000000000000000
 71
     1
 72
     1
  1
{\H0.94x;{プルロック　５\PＰＵＬＬ　ＬＯＣＫ　５}}
 11
1.000000000000000
 21
0.0000000000000000
 31
0.0000000000000000
  7
KNJYOKO
  0
MTEXT
  5
3D0
100
AcDbEntity
  8
WAKU0
  6
CONTINUOUS
 62
3
100
AcDbMText
 10
516.4820000243485
 20
34.23333326975504
 30
0.0000000000000000
 40
3.099999904632568
 41
0.0000000000000000
 71
     1
 72
     1
  1
{\H0.94x;{ＰＵＥ０５　ガイケイ\PＰＵＥ０５　ＯＵＴＳＩＤＥ　ＶＩＥＷ}}
 11
1.000000000000000
 21
0.0000000000000000
 31
0.0000000000000000
  7
KNJYOKO
  0
MTEXT
  5
3D1
100
AcDbEntity
  8
WAKU0
  6
CONTINUOUS
 62
3
100
AcDbMText
 10
490.0049998760223
 20
39.29999995231628
 30
0.0000000000000000
 40
3.099999904632568
 41
0.0000000000000000
 71
     1
 72
     1
  1
{\H0.90x;{1:1}}
 11
1.000000000000000
 21
0.0000000000000000
 31
0.0000000000000000
  7
STANDARD
  0
MTEXT
  5
3D2
100
AcDbEntity
  8
WAKU0
  6
CONTINUOUS
 62
3
100
AcDbMText
 10
546.4000001549721
 20
20.15000009536743
 30
0.0000000000000000
 40
5.300000190734863
 41
0.0000000000000000
 71
     1
 72
     1
  1
{\H0.90x;{5746}}
 11
1.000000000000000
 21
0.0000000000000000
 31
0.0000000000000000
  7
STANDARD
  0
MTEXT
  5
3D3
100
AcDbEntity
  8
WAKU0
  6
CONTINUOUS
 62
3
100
AcDbMText
 10
534.3000000834466
 20
20.15000009536743
 30
0.0000000000000000
 40
5.300000190734863
 41
0.0000000000000000
 71
     1
 72
     1
  1
{\H0.87x;{28}}
 11
1.000000000000000
 21
0.0000000000000000
 31
0.0000000000000000
  7
STANDARD
  0
MTEXT
  5
3D4
100
AcDbEntity
  8
WAKU0
  6
CONTINUOUS
 62
3
100
AcDbMText
 10
517.5000001192093
 20
20.15000009536743
 30
0.0000000000000000
 40
5.300000190734863
 41
0.0000000000000000
 71
     1
 72
     1
  1
{\H0.89x;{61P}}
 11
1.000000000000000
 21
0.0000000000000000
 31
0.0000000000000000
  7
STANDARD
  0
MTEXT
  5
3D5
100
AcDbEntity
  8
WAKU0
  6
CONTINUOUS
 62
3
100
AcDbMText
 10
572.0000000476837
 20
20.15000009536743
 30
0.0000000000000000
 40
5.300000190734863
 41
0.0000000000000000
 71
     1
 72
     1
  1
{\H0.81x;{0}}
 11
1.000000000000000
 21
0.0000000000000000
 31
0.0000000000000000
  7
STANDARD
  0
MTEXT
  5
3D6
100
AcDbEntity
  8
WAKU0
  6
CONTINUOUS
 62
3
100
AcDbMText
 10
572.0000000819564
 20
44.84999990463257
 30
0.0000000000000000
 40
5.300000190734863
 41
0.0000000000000000
 71
     7
 72
     1
  1
{\H0.81x;{ }}
 11
1.000000000000000
 21
0.0000000000000000
 31
0.0000000000000000
  7
STANDARD
  0
MTEXT
  5
3D7
100
AcDbEntity
  8
WAKU0
  6
CONTINUOUS
 62
3
100
AcDbMText
 10
461.3850002884865
 20
33.00000000000000
 30
0.0000000000000000
 40
3.000000000000000
 41
0.0000000000000000
 71
     7
 72
     1
  1
{\H0.93x;{DRAWN BY}}
 11
1.000000000000000
 21
0.0000000000000000
 31
0.0000000000000000
  7
STANDARD
  0
MTEXT
  5
3D8
100
AcDbEntity
  8
WAKU0
  6
CONTINUOUS
 62
3
100
AcDbMText
 10
441.2149997949600
 20
32.95000004768372
 30
0.0000000000000000
 40
3.099999904632568
 41
0.0000000000000000
 71
     7
 72
     1
  1
{\H0.92x;{CHIEF}}
 11
1.000000000000000
 21
0.0000000000000000
 31
0.0000000000000000
  7
STANDARD
  0
MTEXT
  5
3D9
100
AcDbEntity
  8
WAKU0
  6
CONTINUOUS
 62
3
100
AcDbMText
 10
414.4249997138977
 20
32.95000004768372
 30
0.0000000000000000
 40
3.099999904632568
 41
0.0000000000000000
 71
     7
 72
     1
  1
{\H0.92x;{MANAGER}}
 11
1.000000000000000
 21
0.0000000000000000
 31
0.0000000000000000
  7
STANDARD
  0
MTEXT
  5
3DA
100
AcDbEntity
  8
WAKU0
  6
CONTINUOUS
 62
3
100
AcDbMText
 10
416.6599994301796
 20
18.13333336512248
 30
0.0000000000000000
 40
3.099999904632568
 41
0.0000000000000000
 71
     7
 72
     1
  1
{\H0.93x;{KITAGAWA IRON\PWORKS CO.,LTD.}}
 11
1.000000000000000
 21
0.0000000000000000
 31
0.0000000000000000
  7
STANDARD
  0
MTEXT
  5
3DB
100
AcDbEntity
  8
WAKU0
  6
CONTINUOUS
 62
3
100
AcDbMText
 10
413.0850002169609
 20
46.50000000000000
 30
0.0000000000000000
 40
3.000000000000000
 41
0.0000000000000000
 71
     7
 72
     1
  1
{\H0.92x;{CAREER}}
 11
1.000000000000000
 21
0.0000000000000000
 31
0.0000000000000000
  7
STANDARD
  0
MTEXT
  5
3DC
100
AcDbEntity
  8
WAKU0
  6
CONTINUOUS
 62
3
100
AcDbMText
 10
466.6099998354912
 20
18.95000004768372
 30
0.0000000000000000
 40
3.099999904632568
 41
0.0000000000000000
 71
     7
 72
     1
  1
{\H0.91x;{DATE}}
 11
1.000000000000000
 21
0.0000000000000000
 31
0.0000000000000000
  7
STANDARD
  0
MTEXT
  5
3DD
100
AcDbEntity
  8
WAKU0
  6
CONTINUOUS
 62
3
100
AcDbMText
 10
485.9000002145767
 20
26.50000000000000
 30
0.0000000000000000
 40
3.000000000000000
 41
0.0000000000000000
 71
     7
 72
     1
  1
{\H0.63x;{3RD ANGLE}}
 11
1.000000000000000
 21
0.0000000000000000
 31
0.0000000000000000
  7
STANDARD
  0
MTEXT
  5
3DE
100
AcDbEntity
  8
WAKU0
  6
CONTINUOUS
 62
3
100
AcDbMText
 10
487.2149997949600
 20
45.95000004768372
 30
0.0000000000000000
 40
3.099999904632568
 41
0.0000000000000000
 71
     7
 72
     1
  1
{\H0.92x;{SCALE}}
 11
1.000000000000000
 21
0.0000000000000000
 31
0.0000000000000000
  7
STANDARD
  0
MTEXT
  5
3DF
100
AcDbEntity
  8
WAKU0
  6
CONTINUOUS
 62
3
100
AcDbMText
 10
577.7000000476837
 20
46.00000000000000
 30
0.0000000000000000
 40
3.000000000000000
 41
0.0000000000000000
 71
     7
 72
     1
  1
{\H0.63x;{kg}}
 11
1.000000000000000
 21
0.0000000000000000
 31
0.0000000000000000
  7
STANDARD
  0
MTEXT
  5
3E0
100
AcDbEntity
  8
WAKU0
  6
CONTINUOUS
 62
3
100
AcDbMText
 10
547.6000001430512
 20
46.00000000000000
 30
0.0000000000000000
 40
3.000000000000000
 41
0.0000000000000000
 71
     7
 72
     1
  1
{\H0.63x;{WEIGHT}}
 11
1.000000000000000
 21
0.0000000000000000
 31
0.0000000000000000
  7
STANDARD
  0
MTEXT
  5
3E1
100
AcDbEntity
  8
WAKU0
  6
CONTINUOUS
 62
3
100
AcDbMText
 10
506.0049998760223
 20
18.13333336512248
 30
0.0000000000000000
 40
3.099999904632568
 41
0.0000000000000000
 71
     7
 72
     1
  1
{\H0.90x;{DRW\PNO.}}
 11
1.000000000000000
 21
0.0000000000000000
 31
0.0000000000000000
  7
STANDARD
  0
MTEXT
  5
3E2
100
AcDbEntity
  8
WAKU0
  6
CONTINUOUS
 62
3
100
AcDbMText
 10
504.6099998354912
 20
31.95000004768372
 30
0.0000000000000000
 40
3.099999904632568
 41
0.0000000000000000
 71
     7
 72
     1
  1
{\H0.91x;{NAME}}
 11
1.000000000000000
 21
0.0000000000000000
 31
0.0000000000000000
  7
STANDARD
  0
MTEXT
  5
3E3
100
AcDbEntity
  8
WAKU0
  6
CONTINUOUS
 62
3
100
AcDbMText
 10
504.6099998354912
 20
45.95000004768372
 30
0.0000000000000000
 40
3.099999904632568
 41
0.0000000000000000
 71
     7
 72
     1
  1
{\H0.91x;{TYPE}}
 11
1.000000000000000
 21
0.0000000000000000
 31
0.0000000000000000
  7
STANDARD
  0
LINE
  5
3E4
100
AcDbEntity
  8
WAKU0
  6
HIDDEN
 62
3
100
AcDbLine
 10
579.1599564743885
 20
13.84999990463257
 30
0.0000000000000000
 11
568.9400436209789
 21
13.84999990463257
 31
0.0000000000000000
  0
LINE
  5
3E5
100
AcDbEntity
  8
WAKU0
  6
HIDDEN
 62
3
100
AcDbLine
 10
579.1599564743885
 20
13.84999990463250
 30
0.0000000000000000
 11
574.0500000476851
 21
22.70070406014901
 31
0.0000000000000000
  0
LINE
  5
3E6
100
AcDbEntity
  8
WAKU0
  6
HIDDEN
 62
3
100
AcDbLine
 10
574.0500000476851
 20
22.70070406014902
 30
0.0000000000000000
 11
568.9400436209789
 21
13.84999990463248
 31
0.0000000000000000
  0
LINE
  5
3E7
100
AcDbEntity
  8
WAKU0
  6
CONTINUOUS
 62
3
100
AcDbLine
 10
502.4713877753800
 20
15.78041421262812
 30
0.0000000000000000
 11
502.4713877753800
 21
21.78041421262815
 31
0.0000000000000000
  0
LINE
  5
3E8
100
AcDbEntity
  8
WAKU0
  6
CONTINUOUS
 62
3
100
AcDbLine
 10
495.9336941228225
 20
17.28041421262811
 30
0.0000000000000000
 11
495.9336941228225
 21
20.28041421262824
 31
0.0000000000000000
  0
LINE
  5
3E9
100
AcDbEntity
  8
WAKU0
  6
CENTER
 62
12
100
AcDbLine
 10
485.4321805514995
 20
18.78041421262813
 30
0.0000000000000000
 11
503.2765788964694
 21
18.78041421262813
 31
0.0000000000000000
  0
LINE
  5
3EA
100
AcDbEntity
  8
WAKU0
  6
CENTER
 62
12
100
AcDbLine
 10
489.4474565857986
 20
14.55921662918448
 30
0.0000000000000000
 11
489.4474565857986
 21
22.89865102149943
 31
0.0000000000000000
  0
LINE
  5
3EB
100
AcDbEntity
  8
WAKU0
  6
CONTINUOUS
 62
3
100
AcDbLine
 10
495.9336941228225
 20
20.28041421262797
 30
0.0000000000000000
 11
502.4713877753800
 21
21.78041421262795
 31
0.0000000000000000
  0
LINE
  5
3EC
100
AcDbEntity
  8
WAKU0
  6
CONTINUOUS
 62
3
100
AcDbLine
 10
495.9336941228225
 20
17.28041421262811
 30
0.0000000000000000
 11
502.4713877753799
 21
15.78041421262812
 31
0.0000000000000000
  0
CIRCLE
  5
3ED
100
AcDbEntity
  8
WAKU0
  6
CONTINUOUS
 62
3
100
AcDbCircle
 10
489.4474565857986
 20
18.78041421262813
 30
0.0000000000000000
 40
1.499999999999972
  0
CIRCLE
  5
3EE
100
AcDbEntity
  8
WAKU0
  6
CONTINUOUS
 62
3
100
AcDbCircle
 10
489.4474565857986
 20
18.78041421262813
 30
0.0000000000000000
 40
2.999999999999979
  0
ENDSEC
  0
SECTION
  2
OBJECTS
  0
DICTIONARY
  5
43E
100
AcDbDictionary
  3
ACAD_GROUP
350
43F
  3
ACAD_MLINESTYLE
350
440
  0
DICTIONARY
  5
43F
102
{ACAD_REACTORS
330
43E
102
}
100
AcDbDictionary
  0
DICTIONARY
  5
440
102
{ACAD_REACTORS
330
43E
102
}
100
AcDbDictionary
  3
STANDARD
350
441
  0
MLINESTYLE
  5
441
102
{ACAD_REACTORS
330
440
102
}
100
AcDbMlineStyle
  2
STANDARD
 70
     0
  3

 62
   256
 51
90.00
 52
90.00
 71
     2
 49
0.50
 62
   256
  6
BYLAYER
 49
-0.50
 62
   256
  6
BYLAYER
  0
ENDSEC
  0
EOF
