  0
SECTION
  2
HEADER
  9
$ACADVER
  1
AC1014
  9
$DWGCODEPAGE
  3
ANSI_932
  9
$LTSCALE
 40
20.0
  9
$FILLMODE
 70
     1
  9
$CLAYER
  8
0
  9
$PDMODE
 70
     0
  9
$SPLFRAME
 70
     0
  9
$SPLINETYPE
 70
     6
  9
$SPLINESEGS
 70
     8
  9
$DIMASZ
 40
2.000000
  9
$DIMEXE
 40
2.000000
  9
$DIMEXO
 40
0.800000
  9
$DIMTAD
 70
     1
  9
$DIMTIH
 70
     0
  9
$DIMTOH
 70
     0
  9
$DIMTVP
 40
0.500000
  9
$DIMTXT
 40
3.100000
  9
$EXTMIN
 10
0.000000
 20
0.000000
 30
0.000000
  9
$EXTMAX
 10
297.000000
 20
420.000000
 30
0.000000
  9
$MEASUREMENT
 70
  1
  9
$LIMMIN
 10
0.000000
 20
0.000000
  9
$LIMMAX
 10
297.000000
 20
420.000000
  9
$HANDLING
 70
     1
  9
$HANDSEED
  5
451
  9
$DIMBLK
  1
_OPEN
  9
$DIMDEC
 70
     3
  9
$DIMAUNIT
 70
     1
  9
$DIMZIN
 70
     8
  9
$DIMTOFL
 70
     1
  0
ENDSEC
  0
SECTION
  2
CLASSES
  0
ENDSEC
  0
SECTION
  2
TABLES
  0
TABLE
  2
VPORT
  5
3FA
100
AcDbSymbolTable
 70
     1
  0
VPORT
  5
3FB
100
AcDbSymbolTableRecord
100
AcDbViewportTableRecord
  2
*ACTIVE
 70
     0
 12
210.120582
 22
148.500000
 40
297.000000
 41
1.414953
  0
ENDTAB
  0
TABLE
  2
LTYPE
  5
3FC
100
AcDbSymbolTable
 70
     4
  0
LTYPE
  5
3FD
100
AcDbSymbolTableRecord
100
AcDbLinetypeTableRecord
  2
BYBLOCK
 70
     0
  3

 72
    65
 73
     0
 40
0.0
  0
LTYPE
  5
3FE
100
AcDbSymbolTableRecord
100
AcDbLinetypeTableRecord
  2
BYLAYER
 70
     0
  3

 72
    65
 73
     0
 40
0.0
  0
LTYPE
  5
3FF
100
AcDbSymbolTableRecord
100
AcDbLinetypeTableRecord
  2
CONTINUOUS
 70
     0
  3
Solid line (NEC CAE2D for Win R12.1 : 2018.06.07)
 72
    65
 73
     0
 40
0.0
  0
LTYPE
  5
400
100
AcDbSymbolTableRecord
100
AcDbLinetypeTableRecord
  2
HIDDEN
 70
     0
  3
__ __ __ __ __ __ __ __ __ __ __ __ __ __
 72
    65
 73
     2
 40
0.375
 49
0.25
 74
     0
 49
-0.125
 74
     0
  0
LTYPE
  5
401
100
AcDbSymbolTableRecord
100
AcDbLinetypeTableRecord
  2
CENTER
 70
     0
  3
____ _ ____ _ ____ _ ____ _ ____ _ ____
 72
    65
 73
     4
 40
2.0
 49
1.25
 74
     0
 49
-0.25
 74
     0
 49
0.25
 74
     0
 49
-0.25
 74
     0
  0
LTYPE
  5
402
100
AcDbSymbolTableRecord
100
AcDbLinetypeTableRecord
  2
PHANTOM
 70
     0
  3
______  __  __  ______  __  __  ______ 
 72
    65
 73
     6
 40
2.5
 49
1.25
 74
     0
 49
-0.25
 74
     0
 49
0.25
 74
     0
 49
-0.25
 74
     0
 49
0.25
 74
     0
 49
-0.25
 74
     0
  0
ENDTAB
  0
TABLE
  2
LAYER
  5
403
100
AcDbSymbolTable
 70
    11
  0
LAYER
  5
404
100
AcDbSymbolTableRecord
100
AcDbLayerTableRecord
  2
0
 70
     0
 62
     7
  6
CONTINUOUS
  0
LAYER
  5
405
100
AcDbSymbolTableRecord
100
AcDbLayerTableRecord
  2
MAIN0
 70
     0
 62
     7
  6
CONTINUOUS
  0
LAYER
  5
406
100
AcDbSymbolTableRecord
100
AcDbLayerTableRecord
  2
MAIN1
 70
     0
 62
     7
  6
CONTINUOUS
  0
LAYER
  5
407
100
AcDbSymbolTableRecord
100
AcDbLayerTableRecord
  2
MAIN2
 70
     0
 62
     7
  6
CONTINUOUS
  0
LAYER
  5
408
100
AcDbSymbolTableRecord
100
AcDbLayerTableRecord
  2
MAIN5
 70
     0
 62
     7
  6
CONTINUOUS
  0
LAYER
  5
409
100
AcDbSymbolTableRecord
100
AcDbLayerTableRecord
  2
MAIN10
 70
     0
 62
     7
  6
CONTINUOUS
  0
LAYER
  5
40A
100
AcDbSymbolTableRecord
100
AcDbLayerTableRecord
  2
MAIN1023
 70
     0
 62
    16
  6
CONTINUOUS
  0
LAYER
  5
40B
100
AcDbSymbolTableRecord
100
AcDbLayerTableRecord
  2
TYU0
 70
     0
 62
     7
  6
CONTINUOUS
  0
LAYER
  5
40C
100
AcDbSymbolTableRecord
100
AcDbLayerTableRecord
  2
TYU1023
 70
     0
 62
    16
  6
CONTINUOUS
  0
LAYER
  5
40D
100
AcDbSymbolTableRecord
100
AcDbLayerTableRecord
  2
WAKU0
 70
     0
 62
     7
  6
CONTINUOUS
  0
LAYER
  5
40E
100
AcDbSymbolTableRecord
100
AcDbLayerTableRecord
  2
WAKU1023
 70
     0
 62
    16
  6
CONTINUOUS
  0
ENDTAB
  0
TABLE
  2
STYLE
  5
40F
100
AcDbSymbolTable
 70
     4
  0
STYLE
  5
410
100
AcDbSymbolTableRecord
100
AcDbTextStyleTableRecord
  2
STANDARD
 70
    64
 40
0.0
 41
1.0
 50
0.0
 71
     0
 42
3.099999904632568
  3
TXT
  4

  0
STYLE
  5
411
100
AcDbSymbolTableRecord
100
AcDbTextStyleTableRecord
  2
ANKTATE
 70
    68
 40
0.0
 41
1.0
 50
0.0
 71
     0
 42
3.099999904632568
  3
TXT
  4

  0
STYLE
  5
146
100
AcDbSymbolTableRecord
100
AcDbTextStyleTableRecord
  2
KNJYOKO
 70
    64
 40
0.0
 41
1.0
 50
0.0
 71
     0
 42
3.099999904632568
  3
TXT
  4
BIGFONT
  0
STYLE
  5
412
100
AcDbSymbolTableRecord
100
AcDbTextStyleTableRecord
  2
KNJTATE
 70
    68
 40
0.0
 41
1.0
 50
0.0
 71
     0
 42
3.099999904632568
  3
TXT
  4
BIGFONT
  0
ENDTAB
  0
TABLE
  2
VIEW
  5
413
100
AcDbSymbolTable
 70
     0
  0
ENDTAB
  0
TABLE
  2
UCS
  5
414
100
AcDbSymbolTable
 70
     0
  0
ENDTAB
  0
TABLE
  2
APPID
  5
415
100
AcDbSymbolTable
 70
     1
  0
APPID
  5
416
100
AcDbSymbolTableRecord
100
AcDbRegAppTableRecord
  2
ACAD
 70
     0
  0
ENDTAB
  0
TABLE
  2
DIMSTYLE
  5
417
100
AcDbSymbolTable
 70
     1
  0
DIMSTYLE
105
418
100
AcDbSymbolTableRecord
100
AcDbDimStyleTableRecord
  2
STANDARD
 70
     0
 41
2.000000
 44
2.000000
 42
0.800000
145
0.661290
140
3.100000
144
1.000000
146
0.903226
340
410
  0
DIMSTYLE
105
419
100
AcDbSymbolTableRecord
100
AcDbDimStyleTableRecord
  2
MAIN001
 70
     0
 41
2.000000
 44
2.000000
 42
0.800000
145
0.661290
140
3.100000
144
1.000000
146
0.903226
 77
     1
 73
     0
 74
     0
271
     3
275
     1
 78
     8
172
     1
340
410
  0
DIMSTYLE
105
41A
100
AcDbSymbolTableRecord
100
AcDbDimStyleTableRecord
  2
TYU002
 70
     0
 41
2.000000
 44
2.000000
 42
0.800000
145
0.661290
140
3.100000
144
1.000000
146
0.903226
 77
     1
 73
     0
 74
     0
271
     3
275
     1
 78
     8
172
     1
340
410
  0
DIMSTYLE
105
41B
100
AcDbSymbolTableRecord
100
AcDbDimStyleTableRecord
  2
WAKU003
 70
     0
 41
2.000000
 44
2.000000
 42
0.800000
145
0.661290
140
3.100000
144
1.000000
146
0.903226
 77
     1
 73
     0
 74
     0
271
     3
275
     1
 78
     8
172
     1
340
410
  0
ENDTAB
  0
TABLE
  2
BLOCK_RECORD
  5
41C
100
AcDbSymbolTable
 70
    53
  0
BLOCK_RECORD
  5
41D
100
AcDbSymbolTableRecord
100
AcDbBlockTableRecord
  2
*MODEL_SPACE
  0
BLOCK_RECORD
  5
41E
100
AcDbSymbolTableRecord
100
AcDbBlockTableRecord
  2
*PAPER_SPACE
  0
BLOCK_RECORD
  5
1
100
AcDbSymbolTableRecord
100
AcDbBlockTableRecord
  2
_NONE
  0
BLOCK_RECORD
  5
4
100
AcDbSymbolTableRecord
100
AcDbBlockTableRecord
  2
_CLOSED
  0
BLOCK_RECORD
  5
B
100
AcDbSymbolTableRecord
100
AcDbBlockTableRecord
  2
_DOT
  0
BLOCK_RECORD
  5
13
100
AcDbSymbolTableRecord
100
AcDbBlockTableRecord
  2
_OPEN
  0
BLOCK_RECORD
  5
19
100
AcDbSymbolTableRecord
100
AcDbBlockTableRecord
  2
_ORIGIN
  0
BLOCK_RECORD
  5
1E
100
AcDbSymbolTableRecord
100
AcDbBlockTableRecord
  2
_OPEN30
  0
BLOCK_RECORD
  5
24
100
AcDbSymbolTableRecord
100
AcDbBlockTableRecord
  2
_BOXFILLED
  0
BLOCK_RECORD
  5
29
100
AcDbSymbolTableRecord
100
AcDbBlockTableRecord
  2
_BOXBLANK
  0
BLOCK_RECORD
  5
31
100
AcDbSymbolTableRecord
100
AcDbBlockTableRecord
  2
_OBLIQUE
  0
BLOCK_RECORD
  5
35
100
AcDbSymbolTableRecord
100
AcDbBlockTableRecord
  2
_OPEN90
  0
BLOCK_RECORD
  5
3B
100
AcDbSymbolTableRecord
100
AcDbBlockTableRecord
  2
_CLOSEDBLANK
  0
BLOCK_RECORD
  5
41
100
AcDbSymbolTableRecord
100
AcDbBlockTableRecord
  2
_DOTBLANK
  0
BLOCK_RECORD
  5
41F
100
AcDbSymbolTableRecord
100
AcDbBlockTableRecord
  2
*D0
  0
BLOCK_RECORD
  5
420
100
AcDbSymbolTableRecord
100
AcDbBlockTableRecord
  2
*D1
  0
BLOCK_RECORD
  5
421
100
AcDbSymbolTableRecord
100
AcDbBlockTableRecord
  2
*D2
  0
BLOCK_RECORD
  5
422
100
AcDbSymbolTableRecord
100
AcDbBlockTableRecord
  2
*D3
  0
BLOCK_RECORD
  5
423
100
AcDbSymbolTableRecord
100
AcDbBlockTableRecord
  2
*D4
  0
BLOCK_RECORD
  5
424
100
AcDbSymbolTableRecord
100
AcDbBlockTableRecord
  2
M0
  0
BLOCK_RECORD
  5
425
100
AcDbSymbolTableRecord
100
AcDbBlockTableRecord
  2
*D5
  0
BLOCK_RECORD
  5
426
100
AcDbSymbolTableRecord
100
AcDbBlockTableRecord
  2
*D6
  0
BLOCK_RECORD
  5
427
100
AcDbSymbolTableRecord
100
AcDbBlockTableRecord
  2
*D7
  0
BLOCK_RECORD
  5
428
100
AcDbSymbolTableRecord
100
AcDbBlockTableRecord
  2
*D8
  0
BLOCK_RECORD
  5
429
100
AcDbSymbolTableRecord
100
AcDbBlockTableRecord
  2
*D9
  0
BLOCK_RECORD
  5
42A
100
AcDbSymbolTableRecord
100
AcDbBlockTableRecord
  2
*D10
  0
BLOCK_RECORD
  5
42B
100
AcDbSymbolTableRecord
100
AcDbBlockTableRecord
  2
*D11
  0
BLOCK_RECORD
  5
42C
100
AcDbSymbolTableRecord
100
AcDbBlockTableRecord
  2
*D12
  0
BLOCK_RECORD
  5
42D
100
AcDbSymbolTableRecord
100
AcDbBlockTableRecord
  2
*D13
  0
BLOCK_RECORD
  5
42E
100
AcDbSymbolTableRecord
100
AcDbBlockTableRecord
  2
*D14
  0
BLOCK_RECORD
  5
42F
100
AcDbSymbolTableRecord
100
AcDbBlockTableRecord
  2
*D15
  0
BLOCK_RECORD
  5
430
100
AcDbSymbolTableRecord
100
AcDbBlockTableRecord
  2
*D16
  0
BLOCK_RECORD
  5
431
100
AcDbSymbolTableRecord
100
AcDbBlockTableRecord
  2
*D17
  0
BLOCK_RECORD
  5
432
100
AcDbSymbolTableRecord
100
AcDbBlockTableRecord
  2
*D18
  0
BLOCK_RECORD
  5
433
100
AcDbSymbolTableRecord
100
AcDbBlockTableRecord
  2
*D19
  0
BLOCK_RECORD
  5
434
100
AcDbSymbolTableRecord
100
AcDbBlockTableRecord
  2
*D20
  0
BLOCK_RECORD
  5
435
100
AcDbSymbolTableRecord
100
AcDbBlockTableRecord
  2
*D21
  0
BLOCK_RECORD
  5
436
100
AcDbSymbolTableRecord
100
AcDbBlockTableRecord
  2
*D22
  0
BLOCK_RECORD
  5
437
100
AcDbSymbolTableRecord
100
AcDbBlockTableRecord
  2
*D23
  0
BLOCK_RECORD
  5
438
100
AcDbSymbolTableRecord
100
AcDbBlockTableRecord
  2
*D24
  0
BLOCK_RECORD
  5
439
100
AcDbSymbolTableRecord
100
AcDbBlockTableRecord
  2
*D25
  0
BLOCK_RECORD
  5
43A
100
AcDbSymbolTableRecord
100
AcDbBlockTableRecord
  2
*D26
  0
BLOCK_RECORD
  5
43B
100
AcDbSymbolTableRecord
100
AcDbBlockTableRecord
  2
*D27
  0
BLOCK_RECORD
  5
43C
100
AcDbSymbolTableRecord
100
AcDbBlockTableRecord
  2
*D28
  0
BLOCK_RECORD
  5
43D
100
AcDbSymbolTableRecord
100
AcDbBlockTableRecord
  2
*D29
  0
BLOCK_RECORD
  5
43E
100
AcDbSymbolTableRecord
100
AcDbBlockTableRecord
  2
*D30
  0
BLOCK_RECORD
  5
43F
100
AcDbSymbolTableRecord
100
AcDbBlockTableRecord
  2
*D31
  0
BLOCK_RECORD
  5
440
100
AcDbSymbolTableRecord
100
AcDbBlockTableRecord
  2
*D32
  0
BLOCK_RECORD
  5
441
100
AcDbSymbolTableRecord
100
AcDbBlockTableRecord
  2
*D33
  0
BLOCK_RECORD
  5
442
100
AcDbSymbolTableRecord
100
AcDbBlockTableRecord
  2
*D34
  0
BLOCK_RECORD
  5
443
100
AcDbSymbolTableRecord
100
AcDbBlockTableRecord
  2
*D35
  0
BLOCK_RECORD
  5
444
100
AcDbSymbolTableRecord
100
AcDbBlockTableRecord
  2
*D36
  0
BLOCK_RECORD
  5
445
100
AcDbSymbolTableRecord
100
AcDbBlockTableRecord
  2
*D37
  0
BLOCK_RECORD
  5
446
100
AcDbSymbolTableRecord
100
AcDbBlockTableRecord
  2
D38
  0
BLOCK_RECORD
  5
447
100
AcDbSymbolTableRecord
100
AcDbBlockTableRecord
  2
D39
  0
ENDTAB
  0
ENDSEC
  0
SECTION
  2
BLOCKS
  0
BLOCK
  5
448
100
AcDbEntity
  8
0
100
AcDbBlockBegin
  2
*MODEL_SPACE
 70
     0
 10
0.0
 20
0.0
 30
0.0
  3
*MODEL_SPACE
  1

  0
ENDBLK
  5
449
100
AcDbEntity
  8
0
100
AcDbBlockEnd
  0
BLOCK
  5
44A
100
AcDbEntity
  8
0
100
AcDbBlockBegin
  2
*PAPER_SPACE
 70
     0
 10
0.0
 20
0.0
 30
0.0
  3
*PAPER_SPACE
  1

  0
ENDBLK
  5
44B
100
AcDbEntity
  8
0
100
AcDbBlockEnd
  0
BLOCK
  5
2
100
AcDbEntity
  8
0
100
AcDbBlockBegin
  2
_NONE
 70
     0
 10
0.0
 20
0.0
 30
0.0
  3
_NONE
  1

  0
ENDBLK
  5
3
100
AcDbEntity
  8
0
100
AcDbBlockEnd
  0
BLOCK
  5
5
100
AcDbEntity
  8
0
100
AcDbBlockBegin
  2
_CLOSED
 70
     0
 10
0.0
 20
0.0
 30
0.0
  3
_CLOSED
  1

  0
LINE
  5
6
100
AcDbEntity
  8
0
  6
BYBLOCK
 62
     0
100
AcDbLine
 10
-1.0
 20
0.166667
 30
0.0
 11
0.0
 21
0.0
 31
0.0
  0
LINE
  5
7
100
AcDbEntity
  8
0
  6
BYBLOCK
 62
     0
100
AcDbLine
 10
0.0
 20
0.0
 30
0.0
 11
-1.0
 21
-0.166667
 31
0.0
  0
LINE
  5
8
100
AcDbEntity
  8
0
  6
BYBLOCK
 62
     0
100
AcDbLine
 10
-1.0
 20
0.166667
 30
0.0
 11
-1.0
 21
-0.166667
 31
0.0
  0
LINE
  5
9
100
AcDbEntity
  8
0
  6
BYBLOCK
 62
     0
100
AcDbLine
 10
0.0
 20
0.0
 30
0.0
 11
-1.0
 21
0.0
 31
0.0
  0
ENDBLK
  5
A
100
AcDbEntity
  8
0
100
AcDbBlockEnd
  0
BLOCK
  5
C
100
AcDbEntity
  8
0
100
AcDbBlockBegin
  2
_DOT
 70
     0
 10
0.0
 20
0.0
 30
0.0
  3
_DOT
  1

  0
POLYLINE
  5
D
100
AcDbEntity
  8
0
  6
BYBLOCK
 62
     0
100
AcDb2dPolyline
 66
     1
 10
0.0
 20
0.0
 30
0.0
 70
     1
 40
0.5
 41
0.5
  0
VERTEX
  5
E
100
AcDbEntity
  8
0
  6
BYBLOCK
 62
     0
100
AcDbVertex
100
AcDb2dVertex
 10
-0.25
 20
0.0
 30
0.0
 42
1.0
  0
VERTEX
  5
F
100
AcDbEntity
  8
0
  6
BYBLOCK
 62
     0
100
AcDbVertex
100
AcDb2dVertex
 10
0.25
 20
0.0
 30
0.0
 42
1.0
  0
SEQEND
  5
10
100
AcDbEntity
  8
0
  6
BYBLOCK
 62
     0
  0
LINE
  5
11
100
AcDbEntity
  8
0
  6
BYBLOCK
 62
     0
100
AcDbLine
 10
-0.5
 20
0.0
 30
0.0
 11
-1.0
 21
0.0
 31
0.0
  0
ENDBLK
  5
12
100
AcDbEntity
  8
0
100
AcDbBlockEnd
  0
BLOCK
  5
14
100
AcDbEntity
  8
0
100
AcDbBlockBegin
  2
_OPEN
 70
     0
 10
0.0
 20
0.0
 30
0.0
  3
_OPEN
  1

  0
LINE
  5
15
100
AcDbEntity
  8
0
  6
BYBLOCK
 62
     0
100
AcDbLine
 10
-1.0
 20
0.166667
 30
0.0
 11
0.0
 21
0.0
 31
0.0
  0
LINE
  5
16
100
AcDbEntity
  8
0
  6
BYBLOCK
 62
     0
100
AcDbLine
 10
0.0
 20
0.0
 30
0.0
 11
-1.0
 21
-0.166667
 31
0.0
  0
LINE
  5
17
100
AcDbEntity
  8
0
  6
BYBLOCK
 62
     0
100
AcDbLine
 10
0.0
 20
0.0
 30
0.0
 11
-1.0
 21
0.0
 31
0.0
  0
ENDBLK
  5
18
100
AcDbEntity
  8
0
100
AcDbBlockEnd
  0
BLOCK
  5
1A
100
AcDbEntity
  8
0
100
AcDbBlockBegin
  2
_ORIGIN
 70
     0
 10
0.0
 20
0.0
 30
0.0
  3
_ORIGIN
  1

  0
CIRCLE
  5
1B
100
AcDbEntity
  8
0
  6
BYBLOCK
 62
     0
100
AcDbCircle
 10
0.0
 20
0.0
 30
0.0
 40
0.5
  0
LINE
  5
1C
100
AcDbEntity
  8
0
  6
BYBLOCK
 62
     0
100
AcDbLine
 10
0.0
 20
0.0
 30
0.0
 11
-1.0
 21
0.0
 31
0.0
  0
ENDBLK
  5
1D
100
AcDbEntity
  8
0
100
AcDbBlockEnd
  0
BLOCK
  5
1F
100
AcDbEntity
  8
0
100
AcDbBlockBegin
  2
_OPEN30
 70
     0
 10
0.0
 20
0.0
 30
0.0
  3
_OPEN30
  1

  0
LINE
  5
20
100
AcDbEntity
  8
0
  6
BYBLOCK
 62
     0
100
AcDbLine
 10
-1.0
 20
0.267949
 30
0.0
 11
0.0
 21
0.0
 31
0.0
  0
LINE
  5
21
100
AcDbEntity
  8
0
  6
BYBLOCK
 62
     0
100
AcDbLine
 10
0.0
 20
0.0
 30
0.0
 11
-1.0
 21
-0.267949
 31
0.0
  0
LINE
  5
22
100
AcDbEntity
  8
0
  6
BYBLOCK
 62
     0
100
AcDbLine
 10
0.0
 20
0.0
 30
0.0
 11
-1.0
 21
0.0
 31
0.0
  0
ENDBLK
  5
23
100
AcDbEntity
  8
0
100
AcDbBlockEnd
  0
BLOCK
  5
25
100
AcDbEntity
  8
0
100
AcDbBlockBegin
  2
_BOXFILLED
 70
     0
 10
0.0
 20
0.0
 30
0.0
  3
_BOXFILLED
  1

  0
SOLID
  5
26
100
AcDbEntity
  8
0
  6
BYBLOCK
 62
     0
100
AcDbTrace
 10
-0.5
 20
0.5
 30
0.0
 11
0.5
 21
0.5
 31
0.0
 12
-0.5
 22
-0.5
 32
0.0
 13
0.5
 23
-0.5
 33
0.0
  0
LINE
  5
27
100
AcDbEntity
  8
0
  6
BYBLOCK
 62
     0
100
AcDbLine
 10
-0.5
 20
0.0
 30
0.0
 11
-1.0
 21
0.0
 31
0.0
  0
ENDBLK
  5
28
100
AcDbEntity
  8
0
100
AcDbBlockEnd
  0
BLOCK
  5
2A
100
AcDbEntity
  8
0
100
AcDbBlockBegin
  2
_BOXBLANK
 70
     0
 10
0.0
 20
0.0
 30
0.0
  3
_BOXBLANK
  1

  0
LINE
  5
2B
100
AcDbEntity
  8
0
  6
BYBLOCK
 62
     0
100
AcDbLine
 10
-0.5
 20
-0.5
 30
0.0
 11
0.5
 21
-0.5
 31
0.0
  0
LINE
  5
2C
100
AcDbEntity
  8
0
  6
BYBLOCK
 62
     0
100
AcDbLine
 10
0.5
 20
-0.5
 30
0.0
 11
0.5
 21
0.5
 31
0.0
  0
LINE
  5
2D
100
AcDbEntity
  8
0
  6
BYBLOCK
 62
     0
100
AcDbLine
 10
0.5
 20
0.5
 30
0.0
 11
-0.5
 21
0.5
 31
0.0
  0
LINE
  5
2E
100
AcDbEntity
  8
0
  6
BYBLOCK
 62
     0
100
AcDbLine
 10
-0.5
 20
0.5
 30
0.0
 11
-0.5
 21
-0.5
 31
0.0
  0
LINE
  5
2F
100
AcDbEntity
  8
0
  6
BYBLOCK
 62
     0
100
AcDbLine
 10
-0.5
 20
0.0
 30
0.0
 11
-1.0
 21
0.0
 31
0.0
  0
ENDBLK
  5
30
100
AcDbEntity
  8
0
100
AcDbBlockEnd
  0
BLOCK
  5
32
100
AcDbEntity
  8
0
100
AcDbBlockBegin
  2
_OBLIQUE
 70
     0
 10
0.0
 20
0.0
 30
0.0
  3
_OBLIQUE
  1

  0
LINE
  5
33
100
AcDbEntity
  8
0
  6
BYBLOCK
 62
     0
100
AcDbLine
 10
-0.5
 20
-0.5
 30
0.0
 11
0.5
 21
0.5
 31
0.0
  0
ENDBLK
  5
34
100
AcDbEntity
  8
0
100
AcDbBlockEnd
  0
BLOCK
  5
36
100
AcDbEntity
  8
0
100
AcDbBlockBegin
  2
_OPEN90
 70
     0
 10
0.0
 20
0.0
 30
0.0
  3
_OPEN90
  1

  0
LINE
  5
37
100
AcDbEntity
  8
0
  6
BYBLOCK
 62
     0
100
AcDbLine
 10
-0.5
 20
0.5
 30
0.0
 11
0.0
 21
0.0
 31
0.0
  0
LINE
  5
38
100
AcDbEntity
  8
0
  6
BYBLOCK
 62
     0
100
AcDbLine
 10
0.0
 20
0.0
 30
0.0
 11
-0.5
 21
-0.5
 31
0.0
  0
LINE
  5
39
100
AcDbEntity
  8
0
  6
BYBLOCK
 62
     0
100
AcDbLine
 10
0.0
 20
0.0
 30
0.0
 11
-1.0
 21
0.0
 31
0.0
  0
ENDBLK
  5
3A
100
AcDbEntity
  8
0
100
AcDbBlockEnd
  0
BLOCK
  5
3C
100
AcDbEntity
  8
0
100
AcDbBlockBegin
  2
_CLOSEDBLANK
 70
     0
 10
0.0
 20
0.0
 30
0.0
  3
_CLOSEDBLANK
  1

  0
LINE
  5
3D
100
AcDbEntity
  8
0
  6
BYBLOCK
 62
     0
100
AcDbLine
 10
-1.0
 20
0.1666666666666666
 30
0.0
 11
0.0
 21
0.0
 31
0.0
  0
LINE
  5
3E
100
AcDbEntity
  8
0
  6
BYBLOCK
 62
     0
100
AcDbLine
 10
0.0
 20
0.0
 30
0.0
 11
-1.0
 21
-0.1666666666666666
 31
0.0
  0
LINE
  5
3F
100
AcDbEntity
  8
0
  6
BYBLOCK
 62
     0
100
AcDbLine
 10
-1.0
 20
0.1666666666666666
 30
0.0
 11
-1.0
 21
-0.1666666666666666
 31
0.0
  0
ENDBLK
  5
40
100
AcDbEntity
  8
0
100
AcDbBlockEnd
  0
BLOCK
  5
42
100
AcDbEntity
  8
0
100
AcDbBlockBegin
  2
_DOTBLANK
 70
     0
 10
0.0
 20
0.0
 30
0.0
  3
_DOTBLANK
  1

  0
CIRCLE
  5
43
100
AcDbEntity
  8
0
  6
BYBLOCK
 62
     0
100
AcDbCircle
 10
0.0
 20
0.0
 30
0.0
 40
0.5
  0
LINE
  5
44
100
AcDbEntity
  8
0
  6
BYBLOCK
 62
     0
100
AcDbLine
 10
-0.5
 20
0.0
 30
0.0
 11
-1.0
 21
0.0
 31
0.0
  0
ENDBLK
  5
45
100
AcDbEntity
  8
0
100
AcDbBlockEnd
  0
BLOCK
  5
46
100
AcDbEntity
  8
MAIN0
  6
CONTINUOUS
 62
3
100
AcDbBlockBegin
  2
*D0
 70
    65
 10
0.0
 20
0.0
 30
0.0
  0
LINE
  5
47
100
AcDbEntity
  8
MAIN0
  6
BYBLOCK
 62
0
100
AcDbLine
 10
43.03346535559311
 20
263.3199068442935
 30
0.0000000000000000
 11
24.38431971894229
 21
263.3199068442935
 31
0.0000000000000000
  0
LINE
  5
48
100
AcDbEntity
  8
MAIN0
  6
BYBLOCK
 62
0
100
AcDbLine
 10
26.38431971894229
 20
261.3199068442935
 30
0.0000000000000000
 11
26.38431971894229
 21
117.3199068445100
 31
0.0000000000000000
  0
INSERT
  5
49
100
AcDbEntity
  8
MAIN0
  6
BYBLOCK
 62
0
100
AcDbBlockReference
  2
_OPEN
 10
26.38431971894229
 20
263.3199068442935
 30
0.0000000000000000
 41
2.000000000000000
 42
2.000000000000000
 43
2.000000000000000
 50
90.00000000000000
  0
INSERT
  5
4A
100
AcDbEntity
  8
MAIN0
  6
BYBLOCK
 62
0
100
AcDbBlockReference
  2
_OPEN
 10
26.38431971894229
 20
115.3199068445100
 30
0.0000000000000000
 41
2.000000000000000
 42
2.000000000000000
 43
2.000000000000000
 50
270.0000000000000
  0
LINE
  5
4B
100
AcDbEntity
  8
MAIN0
  6
BYBLOCK
 62
0
100
AcDbLine
 10
43.03346535559196
 20
115.3199068445099
 30
0.0000000000000000
 11
24.38431971894229
 21
115.3199068445100
 31
0.0000000000000000
  0
MTEXT
  5
4C
100
AcDbEntity
  8
MAIN0
  6
BYBLOCK
 62
0
100
AcDbMText
 10
24.33431976662601
 20
189.3199067736213
 30
0.0000000000000000
 40
3.099999904632568
 41
0.0000000000000000
 71
     5
 72
     1
  1
\A1;\U+2205148h7
 11
6.123233995736766e-017
 21
1.000000000000000
 31
0.0000000000000000
  7
STANDARD
  0
ENDBLK
  5
4D
100
AcDbEntity
  8
MAIN0
  6
CONTINUOUS
 62
3
100
AcDbBlockEnd
  0
BLOCK
  5
89
100
AcDbEntity
  8
MAIN0
  6
CONTINUOUS
 62
3
100
AcDbBlockBegin
  2
*D1
 70
    65
 10
0.0
 20
0.0
 30
0.0
  0
LINE
  5
8A
100
AcDbEntity
  8
MAIN0
  6
BYBLOCK
 62
0
100
AcDbLine
 10
375.9888463586472
 20
96.75752072553038
 30
0.0000000000000000
 11
405.8334653675134
 21
96.75752072553038
 31
0.0000000000000000
  0
LINE
  5
8B
100
AcDbEntity
  8
MAIN0
  6
BYBLOCK
 62
0
100
AcDbLine
 10
403.8334653675134
 20
98.75752072553038
 30
0.0000000000000000
 11
403.8334653675134
 21
117.7575207255303
 31
0.0000000000000000
  0
INSERT
  5
8C
100
AcDbEntity
  8
MAIN0
  6
BYBLOCK
 62
0
100
AcDbBlockReference
  2
_OPEN
 10
403.8334653675134
 20
96.75752072553038
 30
0.0000000000000000
 41
2.000000000000000
 42
2.000000000000000
 43
2.000000000000000
 50
270.0000000000000
  0
INSERT
  5
8D
100
AcDbEntity
  8
MAIN0
  6
BYBLOCK
 62
0
100
AcDbBlockReference
  2
_OPEN
 10
403.8334653675134
 20
119.7575207255303
 30
0.0000000000000000
 41
2.000000000000000
 42
2.000000000000000
 43
2.000000000000000
 50
90.00000000000000
  0
LINE
  5
8E
100
AcDbEntity
  8
MAIN0
  6
BYBLOCK
 62
0
100
AcDbLine
 10
367.9888499824550
 20
119.7575207255303
 30
0.0000000000000000
 11
405.8334653675134
 21
119.7575207255303
 31
0.0000000000000000
  0
MTEXT
  5
8F
100
AcDbEntity
  8
MAIN0
  6
BYBLOCK
 62
0
100
AcDbMText
 10
401.7834654151972
 20
108.2575207255303
 30
0.0000000000000000
 40
3.099999904632568
 41
0.0000000000000000
 71
     5
 72
     1
  1
\A1;23
 11
6.123233995736766e-017
 21
1.000000000000000
 31
0.0000000000000000
  7
STANDARD
  0
ENDBLK
  5
90
100
AcDbEntity
  8
MAIN0
  6
CONTINUOUS
 62
3
100
AcDbBlockEnd
  0
BLOCK
  5
92
100
AcDbEntity
  8
MAIN0
  6
CONTINUOUS
 62
3
100
AcDbBlockBegin
  2
*D2
 70
    65
 10
0.0
 20
0.0
 30
0.0
  0
LINE
  5
93
100
AcDbEntity
  8
MAIN0
  6
BYBLOCK
 62
0
100
AcDbLine
 10
381.4888463586461
 20
103.2575207255287
 30
0.0000000000000000
 11
395.8334653675134
 21
103.2575207255287
 31
0.0000000000000000
  0
LINE
  5
94
100
AcDbEntity
  8
MAIN0
  6
BYBLOCK
 62
0
100
AcDbLine
 10
393.8334653675134
 20
105.2575207255287
 30
0.0000000000000000
 11
393.8334653675134
 21
111.2575207255287
 31
0.0000000000000000
  0
INSERT
  5
95
100
AcDbEntity
  8
MAIN0
  6
BYBLOCK
 62
0
100
AcDbBlockReference
  2
_OPEN
 10
393.8334653675134
 20
103.2575207255287
 30
0.0000000000000000
 41
2.000000000000000
 42
2.000000000000000
 43
2.000000000000000
 50
270.0000000000000
  0
INSERT
  5
96
100
AcDbEntity
  8
MAIN0
  6
BYBLOCK
 62
0
100
AcDbBlockReference
  2
_OPEN
 10
393.8334653675134
 20
113.2575207255287
 30
0.0000000000000000
 41
2.000000000000000
 42
2.000000000000000
 43
2.000000000000000
 50
90.00000000000000
  0
LINE
  5
97
100
AcDbEntity
  8
MAIN0
  6
BYBLOCK
 62
0
100
AcDbLine
 10
381.4888463586467
 20
113.2575207255287
 30
0.0000000000000000
 11
395.8334653675134
 21
113.2575207255287
 31
0.0000000000000000
  0
MTEXT
  5
98
100
AcDbEntity
  8
MAIN0
  6
BYBLOCK
 62
0
100
AcDbMText
 10
391.7834654151972
 20
108.2575207255287
 30
0.0000000000000000
 40
3.099999904632568
 41
0.0000000000000000
 71
     5
 72
     1
  1
\A1;10
 11
6.123233995736766e-017
 21
1.000000000000000
 31
0.0000000000000000
  7
STANDARD
  0
ENDBLK
  5
99
100
AcDbEntity
  8
MAIN0
  6
CONTINUOUS
 62
3
100
AcDbBlockEnd
  0
BLOCK
  5
9C
100
AcDbEntity
  8
MAIN0
  6
CONTINUOUS
 62
3
100
AcDbBlockBegin
  2
*D3
 70
    65
 10
0.0
 20
0.0
 30
0.0
  0
LINE
  5
9D
100
AcDbEntity
  8
MAIN0
  6
BYBLOCK
 62
0
100
AcDbLine
 10
380.6888463467266
 20
102.4575207136078
 30
0.0000000000000000
 11
380.6888463467257
 21
77.31990684464800
 31
0.0000000000000000
  0
LINE
  5
9E
100
AcDbEntity
  8
MAIN0
  6
BYBLOCK
 62
0
100
AcDbLine
 10
380.6888463467258
 20
79.31990684464799
 30
0.0000000000000000
 11
379.1888463467262
 21
79.31990684464799
 31
0.0000000000000000
  0
INSERT
  5
9F
100
AcDbEntity
  8
MAIN0
  6
BYBLOCK
 62
0
100
AcDbBlockReference
  2
_OPEN
 10
380.6888463467258
 20
79.31990684464799
 30
0.0000000000000000
 41
2.000000000000000
 42
2.000000000000000
 43
2.000000000000000
 50
180.0000000000000
  0
INSERT
  5
A0
100
AcDbEntity
  8
MAIN0
  6
BYBLOCK
 62
0
100
AcDbBlockReference
  2
_DOT
 10
378.1888463467262
 20
79.31990684464799
 30
0.0000000000000000
 41
1.000000000000000
 42
1.000000000000000
 43
1.000000000000000
 50
180.0000000000000
  0
LINE
  5
A1
100
AcDbEntity
  8
MAIN0
  6
BYBLOCK
 62
0
100
AcDbLine
 10
382.6888463467258
 20
79.31990684464799
 30
0.0000000000000000
 11
389.3073117703098
 21
79.31990684464799
 31
0.0000000000000000
  0
LINE
  5
A2
100
AcDbEntity
  8
MAIN0
  6
BYBLOCK
 62
0
100
AcDbLine
 10
378.1888463467262
 20
94.01951443659750
 30
0.0000000000000000
 11
378.1888463467262
 21
77.31990684464799
 31
0.0000000000000000
  0
MTEXT
  5
A3
100
AcDbEntity
  8
MAIN0
  6
BYBLOCK
 62
0
100
AcDbMText
 10
386.6573122417849
 20
81.36990679696427
 30
0.0000000000000000
 40
3.099999904632568
 41
0.0000000000000000
 71
     5
 72
     1
  1
\A1;2.5
 11
1.000000000000000
 21
0.0000000000000000
 31
0.0000000000000000
  7
STANDARD
  0
ENDBLK
  5
A4
100
AcDbEntity
  8
MAIN0
  6
CONTINUOUS
 62
3
100
AcDbBlockEnd
  0
BLOCK
  5
A6
100
AcDbEntity
  8
MAIN0
  6
CONTINUOUS
 62
3
100
AcDbBlockBegin
  2
*D4
 70
    65
 10
0.0
 20
0.0
 30
0.0
  0
LINE
  5
A7
100
AcDbEntity
  8
MAIN0
  6
BYBLOCK
 62
0
100
AcDbLine
 10
378.1888463467262
 20
94.01951443659750
 30
0.0000000000000000
 11
378.1888463467262
 21
77.31990684464799
 31
0.0000000000000000
  0
LINE
  5
A8
100
AcDbEntity
  8
MAIN0
  6
BYBLOCK
 62
0
100
AcDbLine
 10
377.1888463467262
 20
79.31990684464799
 30
0.0000000000000000
 11
375.1888463467262
 21
79.31990684464799
 31
0.0000000000000000
  0
INSERT
  5
A9
100
AcDbEntity
  8
MAIN0
  6
BYBLOCK
 62
0
100
AcDbBlockReference
  2
_DOT
 10
378.1888463467262
 20
79.31990684464799
 30
0.0000000000000000
 41
1.000000000000000
 42
1.000000000000000
 43
1.000000000000000
 50
360.0000000000000
  0
INSERT
  5
AA
100
AcDbEntity
  8
MAIN0
  6
BYBLOCK
 62
0
100
AcDbBlockReference
  2
_OPEN
 10
375.1888463467262
 20
79.31990684464799
 30
0.0000000000000000
 41
2.000000000000000
 42
2.000000000000000
 43
2.000000000000000
 50
360.0000000000000
  0
LINE
  5
AB
100
AcDbEntity
  8
MAIN0
  6
BYBLOCK
 62
0
100
AcDbLine
 10
373.1888463467262
 20
79.31990684464799
 30
0.0000000000000000
 11
369.6912891834877
 21
79.31990684464799
 31
0.0000000000000000
  0
LINE
  5
AC
100
AcDbEntity
  8
MAIN0
  6
BYBLOCK
 62
0
100
AcDbLine
 10
375.1888463467262
 20
86.81840657253456
 30
0.0000000000000000
 11
375.1888463467262
 21
77.31990684464799
 31
0.0000000000000000
  0
MTEXT
  5
AD
100
AcDbEntity
  8
MAIN0
  6
BYBLOCK
 62
0
100
AcDbMText
 10
370.7412891686655
 20
81.36990679696427
 30
0.0000000000000000
 40
3.099999904632568
 41
0.0000000000000000
 71
     5
 72
     1
  1
\A1;3
 11
1.000000000000000
 21
0.0000000000000000
 31
0.0000000000000000
  7
STANDARD
  0
ENDBLK
  5
AE
100
AcDbEntity
  8
MAIN0
  6
CONTINUOUS
 62
3
100
AcDbBlockEnd
  0
BLOCK
  5
B3
100
AcDbEntity
  8
MAIN0
  6
BYBLOCK
 62
2
100
AcDbBlockBegin
  2
M0
 70
    64
 10
0.0
 20
0.0
 30
0.0
  0
LINE
  5
B4
100
AcDbEntity
  8
MAIN0
  6
BYBLOCK
 62
0
100
AcDbLine
 10
108.8334653675134
 20
249.3199068446480
 30
0.0000000000000000
 11
108.8334653675134
 21
261.3199068446480
 31
0.0000000000000000
  0
LINE
  5
B5
100
AcDbEntity
  8
MAIN0
  6
BYBLOCK
 62
0
100
AcDbLine
 10
108.8334653675134
 20
249.3199068446480
 30
0.0000000000000000
 11
107.5393701420008
 21
254.1495359760934
 31
0.0000000000000000
  0
LINE
  5
B6
100
AcDbEntity
  8
MAIN0
  6
BYBLOCK
 62
0
100
AcDbLine
 10
108.8334653675135
 20
249.3199068446480
 30
0.0000000000000000
 11
110.1275605930261
 21
254.1495359760934
 31
0.0000000000000000
  0
ENDBLK
  5
B7
100
AcDbEntity
  8
MAIN0
  6
BYBLOCK
 62
2
100
AcDbBlockEnd
  0
BLOCK
  5
BA
100
AcDbEntity
  8
MAIN0
  6
CONTINUOUS
 62
3
100
AcDbBlockBegin
  2
*D5
 70
    65
 10
0.0
 20
0.0
 30
0.0
  0
LINE
  5
BB
100
AcDbEntity
  8
MAIN0
  6
BYBLOCK
 62
0
100
AcDbLine
 10
43.83346536751286
 20
114.5199068325890
 30
0.0000000000000000
 11
43.83346536751284
 21
87.31990684464799
 31
0.0000000000000000
  0
LINE
  5
BC
100
AcDbEntity
  8
MAIN0
  6
BYBLOCK
 62
0
100
AcDbLine
 10
45.83346536751284
 20
89.31990684464799
 30
0.0000000000000000
 11
56.83346536751341
 21
89.31990684464799
 31
0.0000000000000000
  0
INSERT
  5
BD
100
AcDbEntity
  8
MAIN0
  6
BYBLOCK
 62
0
100
AcDbBlockReference
  2
_OPEN
 10
43.83346536751284
 20
89.31990684464799
 30
0.0000000000000000
 41
2.000000000000000
 42
2.000000000000000
 43
2.000000000000000
 50
180.0000000000000
  0
INSERT
  5
BE
100
AcDbEntity
  8
MAIN0
  6
BYBLOCK
 62
0
100
AcDbBlockReference
  2
_OPEN
 10
58.83346536751341
 20
89.31990684464799
 30
0.0000000000000000
 41
2.000000000000000
 42
2.000000000000000
 43
2.000000000000000
 50
0.0000000000000000
  0
LINE
  5
BF
100
AcDbEntity
  8
MAIN0
  6
BYBLOCK
 62
0
100
AcDbLine
 10
58.83346536751343
 20
113.0199068327355
 30
0.0000000000000000
 11
58.83346536751341
 21
87.31990684464799
 31
0.0000000000000000
  0
MTEXT
  5
C0
100
AcDbEntity
  8
MAIN0
  6
BYBLOCK
 62
0
100
AcDbMText
 10
51.33346536751313
 20
91.36990679696427
 30
0.0000000000000000
 40
3.099999904632568
 41
0.0000000000000000
 71
     5
 72
     1
  1
\A1;15
 11
1.000000000000000
 21
0.0000000000000000
 31
0.0000000000000000
  7
STANDARD
  0
ENDBLK
  5
C1
100
AcDbEntity
  8
MAIN0
  6
CONTINUOUS
 62
3
100
AcDbBlockEnd
  0
BLOCK
  5
C3
100
AcDbEntity
  8
MAIN0
  6
CONTINUOUS
 62
3
100
AcDbBlockBegin
  2
*D6
 70
    65
 10
0.0
 20
0.0
 30
0.0
  0
LINE
  5
C4
100
AcDbEntity
  8
MAIN0
  6
BYBLOCK
 62
0
100
AcDbLine
 10
58.83346536751343
 20
113.0199068327355
 30
0.0000000000000000
 11
58.83346536751341
 21
87.31990684464799
 31
0.0000000000000000
  0
LINE
  5
C5
100
AcDbEntity
  8
MAIN0
  6
BYBLOCK
 62
0
100
AcDbLine
 10
60.83346536751343
 20
89.31990684464799
 30
0.0000000000000000
 11
86.83346536751343
 21
89.31990684464799
 31
0.0000000000000000
  0
INSERT
  5
C6
100
AcDbEntity
  8
MAIN0
  6
BYBLOCK
 62
0
100
AcDbBlockReference
  2
_OPEN
 10
58.83346536751343
 20
89.31990684464799
 30
0.0000000000000000
 41
2.000000000000000
 42
2.000000000000000
 43
2.000000000000000
 50
180.0000000000000
  0
INSERT
  5
C7
100
AcDbEntity
  8
MAIN0
  6
BYBLOCK
 62
0
100
AcDbBlockReference
  2
_OPEN
 10
88.83346536751343
 20
89.31990684464799
 30
0.0000000000000000
 41
2.000000000000000
 42
2.000000000000000
 43
2.000000000000000
 50
0.0000000000000000
  0
LINE
  5
C8
100
AcDbEntity
  8
MAIN0
  6
BYBLOCK
 62
0
100
AcDbLine
 10
88.83346536751341
 20
113.0199068327398
 30
0.0000000000000000
 11
88.83346536751343
 21
87.31990684464799
 31
0.0000000000000000
  0
MTEXT
  5
C9
100
AcDbEntity
  8
MAIN0
  6
BYBLOCK
 62
0
100
AcDbMText
 10
73.83346536751343
 20
91.36990679696427
 30
0.0000000000000000
 40
3.099999904632568
 41
0.0000000000000000
 71
     5
 72
     1
  1
\A1;30
 11
1.000000000000000
 21
0.0000000000000000
 31
0.0000000000000000
  7
STANDARD
  0
ENDBLK
  5
CA
100
AcDbEntity
  8
MAIN0
  6
CONTINUOUS
 62
3
100
AcDbBlockEnd
  0
BLOCK
  5
CC
100
AcDbEntity
  8
MAIN0
  6
CONTINUOUS
 62
3
100
AcDbBlockBegin
  2
*D7
 70
    65
 10
0.0
 20
0.0
 30
0.0
  0
LINE
  5
CD
100
AcDbEntity
  8
MAIN0
  6
BYBLOCK
 62
0
100
AcDbLine
 10
88.83346536751341
 20
113.0199068327398
 30
0.0000000000000000
 11
88.83346536751343
 21
87.31990684464799
 31
0.0000000000000000
  0
LINE
  5
CE
100
AcDbEntity
  8
MAIN0
  6
BYBLOCK
 62
0
100
AcDbLine
 10
90.83346536751343
 20
89.31990684464799
 30
0.0000000000000000
 11
131.8334653675134
 21
89.31990684464799
 31
0.0000000000000000
  0
INSERT
  5
CF
100
AcDbEntity
  8
MAIN0
  6
BYBLOCK
 62
0
100
AcDbBlockReference
  2
_OPEN
 10
88.83346536751343
 20
89.31990684464799
 30
0.0000000000000000
 41
2.000000000000000
 42
2.000000000000000
 43
2.000000000000000
 50
180.0000000000000
  0
INSERT
  5
D0
100
AcDbEntity
  8
MAIN0
  6
BYBLOCK
 62
0
100
AcDbBlockReference
  2
_OPEN
 10
133.8334653675134
 20
89.31990684464799
 30
0.0000000000000000
 41
2.000000000000000
 42
2.000000000000000
 43
2.000000000000000
 50
0.0000000000000000
  0
LINE
  5
D1
100
AcDbEntity
  8
MAIN0
  6
BYBLOCK
 62
0
100
AcDbLine
 10
133.8334653675134
 20
135.1199068326147
 30
0.0000000000000000
 11
133.8334653675134
 21
87.31990684464799
 31
0.0000000000000000
  0
MTEXT
  5
D2
100
AcDbEntity
  8
MAIN0
  6
BYBLOCK
 62
0
100
AcDbMText
 10
111.3334653675134
 20
91.36990679696427
 30
0.0000000000000000
 40
3.099999904632568
 41
0.0000000000000000
 71
     5
 72
     1
  1
\A1;45
 11
1.000000000000000
 21
0.0000000000000000
 31
0.0000000000000000
  7
STANDARD
  0
ENDBLK
  5
D3
100
AcDbEntity
  8
MAIN0
  6
CONTINUOUS
 62
3
100
AcDbBlockEnd
  0
BLOCK
  5
D5
100
AcDbEntity
  8
MAIN0
  6
CONTINUOUS
 62
3
100
AcDbBlockBegin
  2
*D8
 70
    65
 10
0.0
 20
0.0
 30
0.0
  0
LINE
  5
D6
100
AcDbEntity
  8
MAIN0
  6
BYBLOCK
 62
0
100
AcDbLine
 10
43.83346536751286
 20
114.5199068325890
 30
0.0000000000000000
 11
43.83346536751284
 21
57.31990684464799
 31
0.0000000000000000
  0
LINE
  5
D7
100
AcDbEntity
  8
MAIN0
  6
BYBLOCK
 62
0
100
AcDbLine
 10
45.83346536751284
 20
59.31990684464799
 30
0.0000000000000000
 11
131.8334653675134
 21
59.31990684464799
 31
0.0000000000000000
  0
INSERT
  5
D8
100
AcDbEntity
  8
MAIN0
  6
BYBLOCK
 62
0
100
AcDbBlockReference
  2
_OPEN
 10
43.83346536751284
 20
59.31990684464799
 30
0.0000000000000000
 41
2.000000000000000
 42
2.000000000000000
 43
2.000000000000000
 50
180.0000000000000
  0
INSERT
  5
D9
100
AcDbEntity
  8
MAIN0
  6
BYBLOCK
 62
0
100
AcDbBlockReference
  2
_OPEN
 10
133.8334653675134
 20
59.31990684464799
 30
0.0000000000000000
 41
2.000000000000000
 42
2.000000000000000
 43
2.000000000000000
 50
0.0000000000000000
  0
LINE
  5
DA
100
AcDbEntity
  8
MAIN0
  6
BYBLOCK
 62
0
100
AcDbLine
 10
133.8334653675134
 20
135.1199068326147
 30
0.0000000000000000
 11
133.8334653675134
 21
57.31990684464799
 31
0.0000000000000000
  0
MTEXT
  5
DB
100
AcDbEntity
  8
MAIN0
  6
BYBLOCK
 62
0
100
AcDbMText
 10
88.83346536751314
 20
61.36990679696427
 30
0.0000000000000000
 40
3.099999904632568
 41
0.0000000000000000
 71
     5
 72
     1
  1
\A1;90
 11
1.000000000000000
 21
0.0000000000000000
 31
0.0000000000000000
  7
STANDARD
  0
ENDBLK
  5
DC
100
AcDbEntity
  8
MAIN0
  6
CONTINUOUS
 62
3
100
AcDbBlockEnd
  0
BLOCK
  5
DE
100
AcDbEntity
  8
MAIN0
  6
CONTINUOUS
 62
3
100
AcDbBlockBegin
  2
*D9
 70
    65
 10
0.0
 20
0.0
 30
0.0
  0
LINE
  5
DF
100
AcDbEntity
  8
MAIN0
  6
BYBLOCK
 62
0
100
AcDbLine
 10
43.83346536751286
 20
114.5199068325890
 30
0.0000000000000000
 11
43.83346536751284
 21
97.31990684464799
 31
0.0000000000000000
  0
LINE
  5
E0
100
AcDbEntity
  8
MAIN0
  6
BYBLOCK
 62
0
100
AcDbLine
 10
45.83346536751284
 20
99.31990684464799
 30
0.0000000000000000
 11
71.83346536741587
 21
99.31990684464799
 31
0.0000000000000000
  0
INSERT
  5
E1
100
AcDbEntity
  8
MAIN0
  6
BYBLOCK
 62
0
100
AcDbBlockReference
  2
_OPEN
 10
43.83346536751284
 20
99.31990684464799
 30
0.0000000000000000
 41
2.000000000000000
 42
2.000000000000000
 43
2.000000000000000
 50
180.0000000000000
  0
INSERT
  5
E2
100
AcDbEntity
  8
MAIN0
  6
BYBLOCK
 62
0
100
AcDbBlockReference
  2
_OPEN
 10
73.83346536741587
 20
99.31990684464799
 30
0.0000000000000000
 41
2.000000000000000
 42
2.000000000000000
 43
2.000000000000000
 50
0.0000000000000000
  0
LINE
  5
E3
100
AcDbEntity
  8
MAIN0
  6
BYBLOCK
 62
0
100
AcDbLine
 10
73.83346536741586
 20
107.0078344741094
 30
0.0000000000000000
 11
73.83346536741587
 21
97.31990684464799
 31
0.0000000000000000
  0
MTEXT
  5
E4
100
AcDbEntity
  8
MAIN0
  6
BYBLOCK
 62
0
100
AcDbMText
 10
65.00589665814283
 20
101.3699067969643
 30
0.0000000000000000
 40
3.099999904632568
 41
0.0000000000000000
 71
     5
 72
     1
  1
\A1;30
 11
1.000000000000000
 21
0.0000000000000000
 31
0.0000000000000000
  7
STANDARD
  0
ENDBLK
  5
E5
100
AcDbEntity
  8
MAIN0
  6
CONTINUOUS
 62
3
100
AcDbBlockEnd
  0
BLOCK
  5
E7
100
AcDbEntity
  8
MAIN0
  6
CONTINUOUS
 62
3
100
AcDbBlockBegin
  2
*D10
 70
    65
 10
0.0
 20
0.0
 30
0.0
  0
LINE
  5
E8
100
AcDbEntity
  8
MAIN0
  6
BYBLOCK
 62
0
100
AcDbLine
 10
133.8334653675135
 20
243.5199068570979
 30
0.0000000000000000
 11
133.8334653675135
 21
266.3199068446480
 31
0.0000000000000000
  0
LINE
  5
E9
100
AcDbEntity
  8
MAIN0
  6
BYBLOCK
 62
0
100
AcDbLine
 10
135.8334653675135
 20
264.3199068446480
 30
0.0000000000000000
 11
159.0344272618123
 21
264.3199068446480
 31
0.0000000000000000
  0
INSERT
  5
EA
100
AcDbEntity
  8
MAIN0
  6
BYBLOCK
 62
0
100
AcDbBlockReference
  2
_OPEN
 10
133.8334653675135
 20
264.3199068446480
 30
0.0000000000000000
 41
2.000000000000000
 42
2.000000000000000
 43
2.000000000000000
 50
180.0000000000000
  0
INSERT
  5
EB
100
AcDbEntity
  8
MAIN0
  6
BYBLOCK
 62
0
100
AcDbBlockReference
  2
_OPEN
 10
161.0344272618123
 20
264.3199068446480
 30
0.0000000000000000
 41
2.000000000000000
 42
2.000000000000000
 43
2.000000000000000
 50
0.0000000000000000
  0
LINE
  5
EC
100
AcDbEntity
  8
MAIN0
  6
BYBLOCK
 62
0
100
AcDbLine
 10
161.0344272618123
 20
250.4711798753922
 30
0.0000000000000000
 11
161.0344272618123
 21
266.3199068446480
 31
0.0000000000000000
  0
MTEXT
  5
ED
100
AcDbEntity
  8
MAIN0
  6
BYBLOCK
 62
0
100
AcDbMText
 10
147.4339463146629
 20
266.3699067969643
 30
0.0000000000000000
 40
3.099999904632568
 41
0.0000000000000000
 71
     5
 72
     1
  1
\A1;27
 11
1.000000000000000
 21
0.0000000000000000
 31
0.0000000000000000
  7
STANDARD
  0
ENDBLK
  5
EE
100
AcDbEntity
  8
MAIN0
  6
CONTINUOUS
 62
3
100
AcDbBlockEnd
  0
BLOCK
  5
F0
100
AcDbEntity
  8
MAIN0
  6
CONTINUOUS
 62
3
100
AcDbBlockBegin
  2
*D11
 70
    65
 10
0.0
 20
0.0
 30
0.0
  0
LINE
  5
F1
100
AcDbEntity
  8
MAIN0
  6
BYBLOCK
 62
0
100
AcDbLine
 10
48.83346536751351
 20
200.1199068565689
 30
0.0000000000000000
 11
48.83346536751333
 21
216.3199068446480
 31
0.0000000000000000
  0
LINE
  5
F2
100
AcDbEntity
  8
MAIN0
  6
BYBLOCK
 62
0
100
AcDbLine
 10
48.83346536751336
 20
214.3199068446480
 30
0.0000000000000000
 11
43.83346536751284
 21
214.3199068446480
 31
0.0000000000000000
  0
INSERT
  5
F3
100
AcDbEntity
  8
MAIN0
  6
BYBLOCK
 62
0
100
AcDbBlockReference
  2
_OPEN
 10
48.83346536751336
 20
214.3199068446480
 30
0.0000000000000000
 41
2.000000000000000
 42
2.000000000000000
 43
2.000000000000000
 50
180.0000000000000
  0
INSERT
  5
F4
100
AcDbEntity
  8
MAIN0
  6
BYBLOCK
 62
0
100
AcDbBlockReference
  2
_OPEN
 10
43.83346536751284
 20
214.3199068446480
 30
0.0000000000000000
 41
2.000000000000000
 42
2.000000000000000
 43
2.000000000000000
 50
360.0000000000000
  0
LINE
  5
F5
100
AcDbEntity
  8
MAIN0
  6
BYBLOCK
 62
0
100
AcDbLine
 10
50.83346536751336
 20
214.3199068446480
 30
0.0000000000000000
 11
51.83346536751336
 21
214.3199068446480
 31
0.0000000000000000
  0
LINE
  5
F6
100
AcDbEntity
  8
MAIN0
  6
BYBLOCK
 62
0
100
AcDbLine
 10
41.83346536751284
 20
214.3199068446480
 30
0.0000000000000000
 11
40.83346536751284
 21
214.3199068446480
 31
0.0000000000000000
  0
MTEXT
  5
F7
100
AcDbEntity
  8
MAIN0
  6
BYBLOCK
 62
0
100
AcDbMText
 10
46.33346536751310
 20
216.3699067969643
 30
0.0000000000000000
 40
3.099999904632568
 41
0.0000000000000000
 71
     5
 72
     1
  1
\A1;5
 11
1.000000000000000
 21
0.0000000000000000
 31
0.0000000000000000
  7
STANDARD
  0
ENDBLK
  5
F8
100
AcDbEntity
  8
MAIN0
  6
CONTINUOUS
 62
3
100
AcDbBlockEnd
  0
BLOCK
  5
FA
100
AcDbEntity
  8
MAIN0
  6
CONTINUOUS
 62
3
100
AcDbBlockBegin
  2
*D12
 70
    65
 10
0.0
 20
0.0
 30
0.0
  0
LINE
  5
FB
100
AcDbEntity
  8
MAIN0
  6
BYBLOCK
 62
0
100
AcDbLine
 10
43.03346535559257
 20
199.3199068446479
 30
0.0000000000000000
 11
33.56147170433754
 21
199.3199068446479
 31
0.0000000000000000
  0
LINE
  5
FC
100
AcDbEntity
  8
MAIN0
  6
BYBLOCK
 62
0
100
AcDbLine
 10
35.56147170433754
 20
197.3199068446479
 30
0.0000000000000000
 11
35.56147170433754
 21
181.3199068446479
 31
0.0000000000000000
  0
INSERT
  5
FD
100
AcDbEntity
  8
MAIN0
  6
BYBLOCK
 62
0
100
AcDbBlockReference
  2
_OPEN
 10
35.56147170433754
 20
199.3199068446479
 30
0.0000000000000000
 41
2.000000000000000
 42
2.000000000000000
 43
2.000000000000000
 50
90.00000000000000
  0
INSERT
  5
FE
100
AcDbEntity
  8
MAIN0
  6
BYBLOCK
 62
0
100
AcDbBlockReference
  2
_OPEN
 10
35.56147170433754
 20
179.3199068446479
 30
0.0000000000000000
 41
2.000000000000000
 42
2.000000000000000
 43
2.000000000000000
 50
270.0000000000000
  0
LINE
  5
FF
100
AcDbEntity
  8
MAIN0
  6
BYBLOCK
 62
0
100
AcDbLine
 10
43.03346535559243
 20
179.3199068446479
 30
0.0000000000000000
 11
33.56147170433754
 21
179.3199068446479
 31
0.0000000000000000
  0
MTEXT
  5
100
100
AcDbEntity
  8
MAIN0
  6
BYBLOCK
 62
0
100
AcDbMText
 10
33.51147175202125
 20
189.3199068688623
 30
0.0000000000000000
 40
3.099999904632568
 41
0.0000000000000000
 71
     5
 72
     1
  1
\A1;\U+220520H7
 11
6.123233995736766e-017
 21
1.000000000000000
 31
0.0000000000000000
  7
STANDARD
  0
ENDBLK
  5
101
100
AcDbEntity
  8
MAIN0
  6
CONTINUOUS
 62
3
100
AcDbBlockEnd
  0
BLOCK
  5
103
100
AcDbEntity
  8
MAIN0
  6
CONTINUOUS
 62
3
100
AcDbBlockBegin
  2
*D13
 70
    65
 10
0.0
 20
0.0
 30
0.0
  0
LINE
  5
104
100
AcDbEntity
  8
MAIN0
  6
BYBLOCK
 62
0
100
AcDbLine
 10
161.4344272737193
 20
195.0711798634688
 30
0.0000000000000000
 11
180.8334653675135
 21
195.0711798634688
 31
0.0000000000000000
  0
LINE
  5
105
100
AcDbEntity
  8
MAIN0
  6
BYBLOCK
 62
0
100
AcDbLine
 10
178.8334653675135
 20
197.0711798634688
 30
0.0000000000000000
 11
178.8334653675135
 21
221.0711798634871
 31
0.0000000000000000
  0
INSERT
  5
106
100
AcDbEntity
  8
MAIN0
  6
BYBLOCK
 62
0
100
AcDbBlockReference
  2
_OPEN
 10
178.8334653675135
 20
195.0711798634688
 30
0.0000000000000000
 41
2.000000000000000
 42
2.000000000000000
 43
2.000000000000000
 50
270.0000000000000
  0
INSERT
  5
107
100
AcDbEntity
  8
MAIN0
  6
BYBLOCK
 62
0
100
AcDbBlockReference
  2
_OPEN
 10
178.8334653675135
 20
223.0711798634871
 30
0.0000000000000000
 41
2.000000000000000
 42
2.000000000000000
 43
2.000000000000000
 50
90.00000000000000
  0
LINE
  5
108
100
AcDbEntity
  8
MAIN0
  6
BYBLOCK
 62
0
100
AcDbLine
 10
168.3041971565142
 20
223.0711798634871
 30
0.0000000000000000
 11
180.8334653675135
 21
223.0711798634871
 31
0.0000000000000000
  0
MTEXT
  5
109
100
AcDbEntity
  8
MAIN0
  6
BYBLOCK
 62
0
100
AcDbMText
 10
176.7834654151972
 20
209.0711798634780
 30
0.0000000000000000
 40
3.099999904632568
 41
0.0000000000000000
 71
     5
 72
     1
  1
\A1;28
 11
6.123233995736766e-017
 21
1.000000000000000
 31
0.0000000000000000
  7
STANDARD
  0
ENDBLK
  5
10A
100
AcDbEntity
  8
MAIN0
  6
CONTINUOUS
 62
3
100
AcDbBlockEnd
  0
BLOCK
  5
10C
100
AcDbEntity
  8
MAIN0
  6
CONTINUOUS
 62
3
100
AcDbBlockBegin
  2
*D14
 70
    65
 10
0.0
 20
0.0
 30
0.0
  0
LINE
  5
10D
100
AcDbEntity
  8
MAIN0
  6
BYBLOCK
 62
0
100
AcDbLine
 10
168.3041971565142
 20
223.0711798634871
 30
0.0000000000000000
 11
180.8334653675135
 21
223.0711798634871
 31
0.0000000000000000
  0
LINE
  5
10E
100
AcDbEntity
  8
MAIN0
  6
BYBLOCK
 62
0
100
AcDbLine
 10
178.8334653675135
 20
225.0711798634871
 30
0.0000000000000000
 11
178.8334653675135
 21
235.0711798634872
 31
0.0000000000000000
  0
INSERT
  5
10F
100
AcDbEntity
  8
MAIN0
  6
BYBLOCK
 62
0
100
AcDbBlockReference
  2
_OPEN
 10
178.8334653675135
 20
223.0711798634871
 30
0.0000000000000000
 41
2.000000000000000
 42
2.000000000000000
 43
2.000000000000000
 50
270.0000000000000
  0
INSERT
  5
110
100
AcDbEntity
  8
MAIN0
  6
BYBLOCK
 62
0
100
AcDbBlockReference
  2
_OPEN
 10
178.8334653675135
 20
237.0711798634872
 30
0.0000000000000000
 41
2.000000000000000
 42
2.000000000000000
 43
2.000000000000000
 50
90.00000000000000
  0
LINE
  5
111
100
AcDbEntity
  8
MAIN0
  6
BYBLOCK
 62
0
100
AcDbLine
 10
168.3041971565142
 20
237.0711798634872
 30
0.0000000000000000
 11
180.8334653675135
 21
237.0711798634872
 31
0.0000000000000000
  0
MTEXT
  5
112
100
AcDbEntity
  8
MAIN0
  6
BYBLOCK
 62
0
100
AcDbMText
 10
176.7834654151972
 20
230.0711798634872
 30
0.0000000000000000
 40
3.099999904632568
 41
0.0000000000000000
 71
     5
 72
     1
  1
\A1;14
 11
6.123233995736766e-017
 21
1.000000000000000
 31
0.0000000000000000
  7
STANDARD
  0
ENDBLK
  5
113
100
AcDbEntity
  8
MAIN0
  6
CONTINUOUS
 62
3
100
AcDbBlockEnd
  0
BLOCK
  5
115
100
AcDbEntity
  8
MAIN0
  6
CONTINUOUS
 62
3
100
AcDbBlockBegin
  2
*D15
 70
    65
 10
0.0
 20
0.0
 30
0.0
  0
LINE
  5
116
100
AcDbEntity
  8
MAIN0
  6
BYBLOCK
 62
0
100
AcDbLine
 10
161.4344272737193
 20
195.0711798634683
 30
0.0000000000000000
 11
190.8334653675135
 21
195.0711798634497
 31
0.0000000000000000
  0
LINE
  5
117
100
AcDbEntity
  8
MAIN0
  6
BYBLOCK
 62
0
100
AcDbLine
 10
188.8334653675135
 20
197.0711798634510
 30
0.0000000000000000
 11
188.8334653675135
 21
248.0711798634714
 31
0.0000000000000000
  0
INSERT
  5
118
100
AcDbEntity
  8
MAIN0
  6
BYBLOCK
 62
0
100
AcDbBlockReference
  2
_OPEN
 10
188.8334653675135
 20
195.0711798634510
 30
0.0000000000000000
 41
2.000000000000000
 42
2.000000000000000
 43
2.000000000000000
 50
270.0000000000000
  0
INSERT
  5
119
100
AcDbEntity
  8
MAIN0
  6
BYBLOCK
 62
0
100
AcDbBlockReference
  2
_OPEN
 10
188.8334653675135
 20
250.0711798634714
 30
0.0000000000000000
 41
2.000000000000000
 42
2.000000000000000
 43
2.000000000000000
 50
90.00000000000000
  0
LINE
  5
11A
100
AcDbEntity
  8
MAIN0
  6
BYBLOCK
 62
0
100
AcDbLine
 10
161.4344272737333
 20
250.0711798634714
 30
0.0000000000000000
 11
190.8334653675135
 21
250.0711798634714
 31
0.0000000000000000
  0
MTEXT
  5
11B
100
AcDbEntity
  8
MAIN0
  6
BYBLOCK
 62
0
100
AcDbMText
 10
186.7834654151972
 20
222.5711798634612
 30
0.0000000000000000
 40
3.099999904632568
 41
0.0000000000000000
 71
     5
 72
     1
  1
\A1;55
 11
6.123233995736766e-017
 21
1.000000000000000
 31
0.0000000000000000
  7
STANDARD
  0
ENDBLK
  5
11C
100
AcDbEntity
  8
MAIN0
  6
CONTINUOUS
 62
3
100
AcDbBlockEnd
  0
BLOCK
  5
11E
100
AcDbEntity
  8
MAIN0
  6
CONTINUOUS
 62
3
100
AcDbBlockBegin
  2
*D16
 70
    65
 10
0.0
 20
0.0
 30
0.0
  0
LINE
  5
11F
100
AcDbEntity
  8
MAIN0
  6
BYBLOCK
 62
0
100
AcDbLine
 10
210.4625018162252
 20
189.3199068446480
 30
0.0000000000000000
 11
196.8334653675135
 21
189.3199068446482
 31
0.0000000000000000
  0
LINE
  5
120
100
AcDbEntity
  8
MAIN0
  6
BYBLOCK
 62
0
100
AcDbLine
 10
198.8334653675135
 20
187.3199068446481
 30
0.0000000000000000
 11
198.8334653675135
 21
115.8199068446480
 31
0.0000000000000000
  0
INSERT
  5
121
100
AcDbEntity
  8
MAIN0
  6
BYBLOCK
 62
0
100
AcDbBlockReference
  2
_OPEN
 10
198.8334653675135
 20
189.3199068446481
 30
0.0000000000000000
 41
2.000000000000000
 42
2.000000000000000
 43
2.000000000000000
 50
90.00000000000000
  0
INSERT
  5
122
100
AcDbEntity
  8
MAIN0
  6
BYBLOCK
 62
0
100
AcDbBlockReference
  2
_OPEN
 10
198.8334653675135
 20
113.8199068446480
 30
0.0000000000000000
 41
2.000000000000000
 42
2.000000000000000
 43
2.000000000000000
 50
270.0000000000000
  0
LINE
  5
123
100
AcDbEntity
  8
MAIN0
  6
BYBLOCK
 62
0
100
AcDbLine
 10
246.7647948576327
 20
113.8199068446480
 30
0.0000000000000000
 11
196.8334653675135
 21
113.8199068446480
 31
0.0000000000000000
  0
MTEXT
  5
124
100
AcDbEntity
  8
MAIN0
  6
BYBLOCK
 62
0
100
AcDbMText
 10
196.7834654151972
 20
151.5699068446481
 30
0.0000000000000000
 40
3.099999904632568
 41
0.0000000000000000
 71
     5
 72
     1
  1
\A1;75.5
 11
6.123233995736766e-017
 21
1.000000000000000
 31
0.0000000000000000
  7
STANDARD
  0
ENDBLK
  5
125
100
AcDbEntity
  8
MAIN0
  6
CONTINUOUS
 62
3
100
AcDbBlockEnd
  0
BLOCK
  5
127
100
AcDbEntity
  8
MAIN0
  6
CONTINUOUS
 62
3
100
AcDbBlockBegin
  2
*D17
 70
    65
 10
0.0
 20
0.0
 30
0.0
  0
LINE
  5
128
100
AcDbEntity
  8
MAIN0
  6
BYBLOCK
 62
0
100
AcDbLine
 10
247.5647948695537
 20
113.0199068327271
 30
0.0000000000000000
 11
247.5647948695537
 21
87.31990684464799
 31
0.0000000000000000
  0
LINE
  5
129
100
AcDbEntity
  8
MAIN0
  6
BYBLOCK
 62
0
100
AcDbLine
 10
249.5647948695537
 20
89.31990684464799
 30
0.0000000000000000
 11
325.5647948695537
 21
89.31990684464799
 31
0.0000000000000000
  0
INSERT
  5
12A
100
AcDbEntity
  8
MAIN0
  6
BYBLOCK
 62
0
100
AcDbBlockReference
  2
_OPEN
 10
247.5647948695537
 20
89.31990684464799
 30
0.0000000000000000
 41
2.000000000000000
 42
2.000000000000000
 43
2.000000000000000
 50
180.0000000000000
  0
INSERT
  5
12B
100
AcDbEntity
  8
MAIN0
  6
BYBLOCK
 62
0
100
AcDbBlockReference
  2
_OPEN
 10
327.5647948695537
 20
89.31990684464799
 30
0.0000000000000000
 41
2.000000000000000
 42
2.000000000000000
 43
2.000000000000000
 50
0.0000000000000000
  0
LINE
  5
12C
100
AcDbEntity
  8
MAIN0
  6
BYBLOCK
 62
0
100
AcDbLine
 10
327.5647948695536
 20
113.0199068327269
 30
0.0000000000000000
 11
327.5647948695537
 21
87.31990684464800
 31
0.0000000000000000
  0
MTEXT
  5
12D
100
AcDbEntity
  8
MAIN0
  6
BYBLOCK
 62
0
100
AcDbMText
 10
287.5647948695537
 20
91.36990679696427
 30
0.0000000000000000
 40
3.099999904632568
 41
0.0000000000000000
 71
     5
 72
     1
  1
\A1;80
 11
1.000000000000000
 21
0.0000000000000000
 31
0.0000000000000000
  7
STANDARD
  0
ENDBLK
  5
12E
100
AcDbEntity
  8
MAIN0
  6
CONTINUOUS
 62
3
100
AcDbBlockEnd
  0
BLOCK
  5
130
100
AcDbEntity
  8
MAIN0
  6
CONTINUOUS
 62
3
100
AcDbBlockBegin
  2
*D18
 70
    65
 10
0.0
 20
0.0
 30
0.0
  0
LINE
  5
131
100
AcDbEntity
  8
MAIN0
  6
BYBLOCK
 62
0
100
AcDbLine
 10
264.0647948695970
 20
107.0078344741093
 30
0.0000000000000000
 11
264.0647948695970
 21
97.31990684464799
 31
0.0000000000000000
  0
LINE
  5
132
100
AcDbEntity
  8
MAIN0
  6
BYBLOCK
 62
0
100
AcDbLine
 10
266.0647948695970
 20
99.31990684464799
 30
0.0000000000000000
 11
309.0647948695970
 21
99.31990684464799
 31
0.0000000000000000
  0
INSERT
  5
133
100
AcDbEntity
  8
MAIN0
  6
BYBLOCK
 62
0
100
AcDbBlockReference
  2
_OPEN
 10
264.0647948695970
 20
99.31990684464799
 30
0.0000000000000000
 41
2.000000000000000
 42
2.000000000000000
 43
2.000000000000000
 50
180.0000000000000
  0
INSERT
  5
134
100
AcDbEntity
  8
MAIN0
  6
BYBLOCK
 62
0
100
AcDbBlockReference
  2
_OPEN
 10
311.0647948695970
 20
99.31990684464799
 30
0.0000000000000000
 41
2.000000000000000
 42
2.000000000000000
 43
2.000000000000000
 50
0.0000000000000000
  0
LINE
  5
135
100
AcDbEntity
  8
MAIN0
  6
BYBLOCK
 62
0
100
AcDbLine
 10
311.0647948695971
 20
107.0078344741093
 30
0.0000000000000000
 11
311.0647948695970
 21
97.31990684464799
 31
0.0000000000000000
  0
MTEXT
  5
136
100
AcDbEntity
  8
MAIN0
  6
BYBLOCK
 62
0
100
AcDbMText
 10
287.5647948695970
 20
101.3699067969643
 30
0.0000000000000000
 40
3.099999904632568
 41
0.0000000000000000
 71
     5
 72
     1
  1
\A1;47
 11
1.000000000000000
 21
0.0000000000000000
 31
0.0000000000000000
  7
STANDARD
  0
ENDBLK
  5
137
100
AcDbEntity
  8
MAIN0
  6
CONTINUOUS
 62
3
100
AcDbBlockEnd
  0
BLOCK
  5
139
100
AcDbEntity
  8
MAIN0
  6
CONTINUOUS
 62
3
100
AcDbBlockBegin
  2
*D19
 70
    65
 10
0.0
 20
0.0
 30
0.0
  0
LINE
  5
13A
100
AcDbEntity
  8
MAIN0
  6
BYBLOCK
 62
0
100
AcDbLine
 10
325.8619279367499
 20
239.3431974085123
 30
0.0000000000000000
 11
249.2676618024441
 21
139.2966162807837
 31
0.0000000000000000
  0
INSERT
  5
13B
100
AcDbEntity
  8
MAIN0
  6
BYBLOCK
 62
0
100
AcDbBlockReference
  2
_OPEN
 10
327.0777099388818
 20
240.9312383787936
 30
0.0000000000000000
 41
2.000000000000000
 42
2.000000000000000
 43
2.000000000000000
 50
52.56283566189046
  0
INSERT
  5
13C
100
AcDbEntity
  8
MAIN0
  6
BYBLOCK
 62
0
100
AcDbBlockReference
  2
_OPEN
 10
248.0518798003123
 20
137.7085753105023
 30
0.0000000000000000
 41
2.000000000000000
 42
2.000000000000000
 43
2.000000000000000
 50
232.5628356618905
  0
MTEXT
  5
13D
100
AcDbEntity
  8
MAIN0
  6
BYBLOCK
 62
0
100
AcDbMText
 10
310.6185323726265
 20
222.8047581635292
 30
0.0000000000000000
 40
3.099999904632568
 41
0.0000000000000000
 71
     5
 72
     1
  1
\A1;\U+2205130\H0.903226x;\U+00B10.2
 11
0.6078910010659185
 21
0.7940204851407018
 31
0.0000000000000000
  7
STANDARD
  0
ENDBLK
  5
13E
100
AcDbEntity
  8
MAIN0
  6
CONTINUOUS
 62
3
100
AcDbBlockEnd
  0
BLOCK
  5
140
100
AcDbEntity
  8
MAIN0
  6
CONTINUOUS
 62
3
100
AcDbBlockBegin
  2
*D20
 70
    65
 10
0.0
 20
0.0
 30
0.0
  0
LINE
  5
141
100
AcDbEntity
  8
MAIN0
  6
BYBLOCK
 62
0
100
AcDbLine
 10
287.5647948695971
 20
189.3199068446480
 30
0.0000000000000000
 11
281.7324785991631
 21
157.8558942759747
 31
0.0000000000000000
  0
INSERT
  5
142
100
AcDbEntity
  8
MAIN0
  6
BYBLOCK
 62
0
100
AcDbBlockReference
  2
_OPEN
 10
281.3679588322609
 20
155.8893934904326
 30
0.0000000000000000
 41
2.000000000000000
 42
2.000000000000000
 43
2.000000000000000
 50
259.4985806209187
  0
MTEXT
  5
143
100
AcDbEntity
  8
MAIN0
  6
BYBLOCK
 62
0
100
AcDbMText
 10
281.6494759415091
 20
168.6557890158696
 30
0.0000000000000000
 40
3.099999904632568
 41
0.0000000000000000
 71
     5
 72
     1
  1
\A1;Ｒ34
 11
0.1822598834510629
 21
0.9832503927710403
 31
0.0000000000000000
  7
KNJYOKO
  0
ENDBLK
  5
144
100
AcDbEntity
  8
MAIN0
  6
CONTINUOUS
 62
3
100
AcDbBlockEnd
  0
BLOCK
  5
147
100
AcDbEntity
  8
MAIN0
  6
CONTINUOUS
 62
3
100
AcDbBlockBegin
  2
*D21
 70
    65
 10
0.0
 20
0.0
 30
0.0
  0
LINE
  5
148
100
AcDbEntity
  8
MAIN0
  6
BYBLOCK
 62
0
100
AcDbLine
 10
271.0647948695970
 20
167.2559738641795
 30
0.0000000000000000
 11
271.0647948695970
 21
176.3199068446480
 31
0.0000000000000000
  0
LINE
  5
149
100
AcDbEntity
  8
MAIN0
  6
BYBLOCK
 62
0
100
AcDbLine
 10
273.0647948695970
 20
174.3199068446480
 30
0.0000000000000000
 11
302.0647948695970
 21
174.3199068446480
 31
0.0000000000000000
  0
INSERT
  5
14A
100
AcDbEntity
  8
MAIN0
  6
BYBLOCK
 62
0
100
AcDbBlockReference
  2
_OPEN
 10
271.0647948695970
 20
174.3199068446480
 30
0.0000000000000000
 41
2.000000000000000
 42
2.000000000000000
 43
2.000000000000000
 50
180.0000000000000
  0
INSERT
  5
14B
100
AcDbEntity
  8
MAIN0
  6
BYBLOCK
 62
0
100
AcDbBlockReference
  2
_OPEN
 10
304.0647948695970
 20
174.3199068446480
 30
0.0000000000000000
 41
2.000000000000000
 42
2.000000000000000
 43
2.000000000000000
 50
0.0000000000000000
  0
LINE
  5
14C
100
AcDbEntity
  8
MAIN0
  6
BYBLOCK
 62
0
100
AcDbLine
 10
304.0647948695970
 20
167.2559738641795
 30
0.0000000000000000
 11
304.0647948695970
 21
176.3199068446480
 31
0.0000000000000000
  0
MTEXT
  5
14D
100
AcDbEntity
  8
MAIN0
  6
BYBLOCK
 62
0
100
AcDbMText
 10
291.1575044688934
 20
176.3699067969643
 30
0.0000000000000000
 40
3.099999904632568
 41
0.0000000000000000
 71
     5
 72
     1
  1
\A1;33
 11
1.000000000000000
 21
0.0000000000000000
 31
0.0000000000000000
  7
STANDARD
  0
ENDBLK
  5
14E
100
AcDbEntity
  8
MAIN0
  6
CONTINUOUS
 62
3
100
AcDbBlockEnd
  0
BLOCK
  5
155
100
AcDbEntity
  8
MAIN0
  6
CONTINUOUS
 62
3
100
AcDbBlockBegin
  2
*D22
 70
    65
 10
0.0
 20
0.0
 30
0.0
  0
LINE
  5
156
100
AcDbEntity
  8
MAIN0
  6
BYBLOCK
 62
0
100
AcDbLine
 10
58.83346536751341
 20
113.0199068327356
 30
0.0000000000000000
 11
58.83346536751344
 21
67.31990684464799
 31
0.0000000000000000
  0
LINE
  5
157
100
AcDbEntity
  8
MAIN0
  6
BYBLOCK
 62
0
100
AcDbLine
 10
60.83346536751344
 20
69.31990684464799
 30
0.0000000000000000
 11
101.8334653675134
 21
69.31990684464799
 31
0.0000000000000000
  0
INSERT
  5
158
100
AcDbEntity
  8
MAIN0
  6
BYBLOCK
 62
0
100
AcDbBlockReference
  2
_OPEN
 10
58.83346536751344
 20
69.31990684464799
 30
0.0000000000000000
 41
2.000000000000000
 42
2.000000000000000
 43
2.000000000000000
 50
180.0000000000000
  0
INSERT
  5
159
100
AcDbEntity
  8
MAIN0
  6
BYBLOCK
 62
0
100
AcDbBlockReference
  2
_OPEN
 10
103.8334653675134
 20
69.31990684464799
 30
0.0000000000000000
 41
2.000000000000000
 42
2.000000000000000
 43
2.000000000000000
 50
0.0000000000000000
  0
LINE
  5
15A
100
AcDbEntity
  8
MAIN0
  6
BYBLOCK
 62
0
100
AcDbLine
 10
103.8334653675134
 20
78.01990683275201
 30
0.0000000000000000
 11
103.8334653675134
 21
67.31990684464799
 31
0.0000000000000000
  0
MTEXT
  5
15B
100
AcDbEntity
  8
MAIN0
  6
BYBLOCK
 62
0
100
AcDbMText
 10
81.33346536751341
 20
71.36990679696427
 30
0.0000000000000000
 40
3.099999904632568
 41
0.0000000000000000
 71
     5
 72
     1
  1
\A1;45
 11
1.000000000000000
 21
0.0000000000000000
 31
0.0000000000000000
  7
STANDARD
  0
ENDBLK
  5
15C
100
AcDbEntity
  8
MAIN0
  6
CONTINUOUS
 62
3
100
AcDbBlockEnd
  0
BLOCK
  5
165
100
AcDbEntity
  8
MAIN0
  6
CONTINUOUS
 62
3
100
AcDbBlockBegin
  2
*D23
 70
    65
 10
0.0
 20
0.0
 30
0.0
  0
LINE
  5
166
100
AcDbEntity
  8
MAIN0
  6
BYBLOCK
 62
0
100
AcDbLine
 10
246.7647948576211
 20
78.81990684464799
 30
0.0000000000000000
 11
186.8334653675135
 21
78.81990684464799
 31
0.0000000000000000
  0
LINE
  5
167
100
AcDbEntity
  8
MAIN0
  6
BYBLOCK
 62
0
100
AcDbLine
 10
188.8334653675135
 20
80.81990684464799
 30
0.0000000000000000
 11
188.8334653675135
 21
187.3199068446480
 31
0.0000000000000000
  0
INSERT
  5
168
100
AcDbEntity
  8
MAIN0
  6
BYBLOCK
 62
0
100
AcDbBlockReference
  2
_OPEN
 10
188.8334653675135
 20
78.81990684464799
 30
0.0000000000000000
 41
2.000000000000000
 42
2.000000000000000
 43
2.000000000000000
 50
270.0000000000000
  0
INSERT
  5
169
100
AcDbEntity
  8
MAIN0
  6
BYBLOCK
 62
0
100
AcDbBlockReference
  2
_OPEN
 10
188.8334653675135
 20
189.3199068446480
 30
0.0000000000000000
 41
2.000000000000000
 42
2.000000000000000
 43
2.000000000000000
 50
90.00000000000000
  0
LINE
  5
16A
100
AcDbEntity
  8
MAIN0
  6
BYBLOCK
 62
0
100
AcDbLine
 10
210.4625018162252
 20
189.3199068446480
 30
0.0000000000000000
 11
186.8334653675135
 21
189.3199068446480
 31
0.0000000000000000
  0
MTEXT
  5
16B
100
AcDbEntity
  8
MAIN0
  6
BYBLOCK
 62
0
100
AcDbMText
 10
186.7834654151972
 20
134.0699068446480
 30
0.0000000000000000
 40
3.099999904632568
 41
0.0000000000000000
 71
     5
 72
     1
  1
\A1;110.5
 11
6.123233995736766e-017
 21
1.000000000000000
 31
0.0000000000000000
  7
STANDARD
  0
ENDBLK
  5
16C
100
AcDbEntity
  8
MAIN0
  6
CONTINUOUS
 62
3
100
AcDbBlockEnd
  0
BLOCK
  5
176
100
AcDbEntity
  8
MAIN0
  6
CONTINUOUS
 62
3
100
AcDbBlockBegin
  2
*D24
 70
    65
 10
0.0
 20
0.0
 30
0.0
  0
LINE
  5
177
100
AcDbEntity
  8
MAIN0
  6
BYBLOCK
 62
0
100
AcDbLine
 10
89.63346537943431
 20
133.8199068446730
 30
0.0000000000000000
 11
125.8334653675135
 21
133.8199068446730
 31
0.0000000000000000
  0
LINE
  5
178
100
AcDbEntity
  8
MAIN0
  6
BYBLOCK
 62
0
100
AcDbLine
 10
123.8334653675135
 20
131.8199068446730
 30
0.0000000000000000
 11
123.8334653675135
 21
80.81990684467297
 31
0.0000000000000000
  0
INSERT
  5
179
100
AcDbEntity
  8
MAIN0
  6
BYBLOCK
 62
0
100
AcDbBlockReference
  2
_OPEN
 10
123.8334653675135
 20
133.8199068446730
 30
0.0000000000000000
 41
2.000000000000000
 42
2.000000000000000
 43
2.000000000000000
 50
90.00000000000000
  0
INSERT
  5
17A
100
AcDbEntity
  8
MAIN0
  6
BYBLOCK
 62
0
100
AcDbBlockReference
  2
_OPEN
 10
123.8334653675135
 20
78.81990684467297
 30
0.0000000000000000
 41
2.000000000000000
 42
2.000000000000000
 43
2.000000000000000
 50
270.0000000000000
  0
LINE
  5
17B
100
AcDbEntity
  8
MAIN0
  6
BYBLOCK
 62
0
100
AcDbLine
 10
104.6334653794343
 20
78.81990684467294
 30
0.0000000000000000
 11
125.8334653675135
 21
78.81990684467297
 31
0.0000000000000000
  0
MTEXT
  5
17C
100
AcDbEntity
  8
MAIN0
  6
BYBLOCK
 62
0
100
AcDbMText
 10
121.6287148453690
 20
96.34110966577291
 30
0.0000000000000000
 40
3.099999904632568
 41
0.0000000000000000
 71
     5
 72
     1
  1
\A1;55
 11
6.123233995736766e-017
 21
1.000000000000000
 31
0.0000000000000000
  7
STANDARD
  0
ENDBLK
  5
17D
100
AcDbEntity
  8
MAIN0
  6
CONTINUOUS
 62
3
100
AcDbBlockEnd
  0
BLOCK
  5
188
100
AcDbEntity
  8
MAIN0
  6
CONTINUOUS
 62
3
100
AcDbBlockBegin
  2
*D25
 70
    65
 10
0.0
 20
0.0
 30
0.0
  0
LINE
  5
189
100
AcDbEntity
  8
MAIN0
  6
BYBLOCK
 62
0
100
AcDbLine
 10
149.0385490871231
 20
189.3199068446478
 30
0.0000000000000000
 11
170.8334653675135
 21
189.3199068446478
 31
0.0000000000000000
  0
LINE
  5
18A
100
AcDbEntity
  8
MAIN0
  6
BYBLOCK
 62
0
100
AcDbLine
 10
168.8334653675135
 20
191.3199068446478
 30
0.0000000000000000
 11
168.8334653675135
 21
212.8209068446478
 31
0.0000000000000000
  0
INSERT
  5
18B
100
AcDbEntity
  8
MAIN0
  6
BYBLOCK
 62
0
100
AcDbBlockReference
  2
_OPEN
 10
168.8334653675135
 20
189.3199068446478
 30
0.0000000000000000
 41
2.000000000000000
 42
2.000000000000000
 43
2.000000000000000
 50
270.0000000000000
  0
INSERT
  5
18C
100
AcDbEntity
  8
MAIN0
  6
BYBLOCK
 62
0
100
AcDbBlockReference
  2
_OPEN
 10
168.8334653675135
 20
214.8209068446478
 30
0.0000000000000000
 41
2.000000000000000
 42
2.000000000000000
 43
2.000000000000000
 50
90.00000000000000
  0
LINE
  5
18D
100
AcDbEntity
  8
MAIN0
  6
BYBLOCK
 62
0
100
AcDbLine
 10
136.5334653794344
 20
214.8209068446478
 30
0.0000000000000000
 11
170.8334653675135
 21
214.8209068446478
 31
0.0000000000000000
  0
MTEXT
  5
18E
100
AcDbEntity
  8
MAIN0
  6
BYBLOCK
 62
0
100
AcDbMText
 10
166.7834654151972
 20
204.5063173074948
 30
0.0000000000000000
 40
3.099999904632568
 41
0.0000000000000000
 71
     5
 72
     1
  1
\A1;MAX 25.5
 11
6.123233995736766e-017
 21
1.000000000000000
 31
0.0000000000000000
  7
STANDARD
  0
ENDBLK
  5
18F
100
AcDbEntity
  8
MAIN0
  6
CONTINUOUS
 62
3
100
AcDbBlockEnd
  0
BLOCK
  5
191
100
AcDbEntity
  8
MAIN0
  6
CONTINUOUS
 62
3
100
AcDbBlockBegin
  2
*D26
 70
    65
 10
0.0
 20
0.0
 30
0.0
  0
LINE
  5
192
100
AcDbEntity
  8
MAIN0
  6
BYBLOCK
 62
0
100
AcDbLine
 10
136.5334653794344
 20
214.8209068446478
 30
0.0000000000000000
 11
170.8334653675135
 21
214.8209068446478
 31
0.0000000000000000
  0
LINE
  5
193
100
AcDbEntity
  8
MAIN0
  6
BYBLOCK
 62
0
100
AcDbLine
 10
168.8334653675135
 20
214.8209068446478
 30
0.0000000000000000
 11
168.8334653675135
 21
223.0711798634871
 31
0.0000000000000000
  0
INSERT
  5
194
100
AcDbEntity
  8
MAIN0
  6
BYBLOCK
 62
0
100
AcDbBlockReference
  2
_OPEN
 10
168.8334653675135
 20
214.8209068446478
 30
0.0000000000000000
 41
2.000000000000000
 42
2.000000000000000
 43
2.000000000000000
 50
90.00000000000000
  0
INSERT
  5
195
100
AcDbEntity
  8
MAIN0
  6
BYBLOCK
 62
0
100
AcDbBlockReference
  2
_OPEN
 10
168.8334653675135
 20
223.0711798634871
 30
0.0000000000000000
 41
2.000000000000000
 42
2.000000000000000
 43
2.000000000000000
 50
270.0000000000000
  0
LINE
  5
196
100
AcDbEntity
  8
MAIN0
  6
BYBLOCK
 62
0
100
AcDbLine
 10
168.8334653675135
 20
212.8209068446478
 30
0.0000000000000000
 11
168.8334653675135
 21
211.8209068446478
 31
0.0000000000000000
  0
LINE
  5
197
100
AcDbEntity
  8
MAIN0
  6
BYBLOCK
 62
0
100
AcDbLine
 10
168.8334653675135
 20
225.0711798634871
 30
0.0000000000000000
 11
168.8334653675135
 21
234.0140233006819
 31
0.0000000000000000
  0
LINE
  5
198
100
AcDbEntity
  8
MAIN0
  6
BYBLOCK
 62
0
100
AcDbLine
 10
168.3041971565142
 20
223.0711798634871
 30
0.0000000000000000
 11
170.8334653675135
 21
223.0711798634871
 31
0.0000000000000000
  0
MTEXT
  5
199
100
AcDbEntity
  8
MAIN0
  6
BYBLOCK
 62
0
100
AcDbMText
 10
166.7834654151972
 20
225.0640233145386
 30
0.0000000000000000
 40
3.099999904632568
 41
0.0000000000000000
 71
     5
 72
     1
  1
\A1;MAX  9.75
 11
6.123233995736766e-017
 21
1.000000000000000
 31
0.0000000000000000
  7
STANDARD
  0
ENDBLK
  5
19A
100
AcDbEntity
  8
MAIN0
  6
CONTINUOUS
 62
3
100
AcDbBlockEnd
  0
BLOCK
  5
19C
100
AcDbEntity
  8
MAIN0
  6
CONTINUOUS
 62
3
100
AcDbBlockBegin
  2
*D27
 70
    65
 10
0.0
 20
0.0
 30
0.0
  0
LINE
  5
19D
100
AcDbEntity
  8
MAIN0
  6
BYBLOCK
 62
0
100
AcDbLine
 10
276.0647948695818
 20
250.4711798754084
 30
0.0000000000000000
 11
276.0647948695818
 21
266.3199068446480
 31
0.0000000000000000
  0
LINE
  5
19E
100
AcDbEntity
  8
MAIN0
  6
BYBLOCK
 62
0
100
AcDbLine
 10
278.0647948695818
 20
264.3199068446480
 30
0.0000000000000000
 11
297.0647948695818
 21
264.3199068446480
 31
0.0000000000000000
  0
INSERT
  5
19F
100
AcDbEntity
  8
MAIN0
  6
BYBLOCK
 62
0
100
AcDbBlockReference
  2
_OPEN
 10
276.0647948695818
 20
264.3199068446480
 30
0.0000000000000000
 41
2.000000000000000
 42
2.000000000000000
 43
2.000000000000000
 50
180.0000000000000
  0
INSERT
  5
1A0
100
AcDbEntity
  8
MAIN0
  6
BYBLOCK
 62
0
100
AcDbBlockReference
  2
_OPEN
 10
299.0647948695818
 20
264.3199068446480
 30
0.0000000000000000
 41
2.000000000000000
 42
2.000000000000000
 43
2.000000000000000
 50
0.0000000000000000
  0
LINE
  5
1A1
100
AcDbEntity
  8
MAIN0
  6
BYBLOCK
 62
0
100
AcDbLine
 10
299.0647948695818
 20
250.4711798754076
 30
0.0000000000000000
 11
299.0647948695818
 21
266.3199068446480
 31
0.0000000000000000
  0
MTEXT
  5
1A2
100
AcDbEntity
  8
MAIN0
  6
BYBLOCK
 62
0
100
AcDbMText
 10
283.4234497110993
 20
266.3699067969643
 30
0.0000000000000000
 40
3.099999904632568
 41
0.0000000000000000
 71
     5
 72
     1
  1
\A1;23
 11
1.000000000000000
 21
0.0000000000000000
 31
0.0000000000000000
  7
STANDARD
  0
ENDBLK
  5
1A3
100
AcDbEntity
  8
MAIN0
  6
CONTINUOUS
 62
3
100
AcDbBlockEnd
  0
BLOCK
  5
1A5
100
AcDbEntity
  8
MAIN0
  6
CONTINUOUS
 62
3
100
AcDbBlockBegin
  2
*D28
 70
    65
 10
0.0
 20
0.0
 30
0.0
  0
ARC
  5
1A6
100
AcDbEntity
  8
MAIN0
  6
BYBLOCK
 62
0
100
AcDbCircle
 10
287.5647948695972
 20
189.3199068446480
 30
0.0000000000000000
 40
80.00000000005475
100
AcDbArc
 50
331.4323944878260
 51
358.5676055121739
  0
INSERT
  5
1A7
100
AcDbEntity
  8
MAIN0
  6
BYBLOCK
 62
0
100
AcDbBlockReference
  2
_OPEN
 10
356.8468271723997
 20
149.3199068446206
 30
0.0000000000000000
 41
2.000000000000000
 42
2.000000000000000
 43
2.000000000000000
 50
240.0000000000000
  0
INSERT
  5
1A8
100
AcDbEntity
  8
MAIN0
  6
BYBLOCK
 62
0
100
AcDbBlockReference
  2
_OPEN
 10
367.5647948696520
 20
189.3199068446479
 30
0.0000000000000000
 41
2.000000000000000
 42
2.000000000000000
 43
2.000000000000000
 50
90.00000000000000
  0
MTEXT
  5
1A9
100
AcDbEntity
  8
MAIN0
  6
BYBLOCK
 62
0
100
AcDbMText
 10
362.8587130749420
 20
169.1449622665509
 30
0.0000000000000000
 40
3.099999904632568
 41
0.0000000000000000
 71
     5
 72
     1
  1
\A1;30\U+00B0
 11
0.2588190451025205
 21
0.9659258262890683
 31
0.0000000000000000
  7
STANDARD
  0
ENDBLK
  5
1AA
100
AcDbEntity
  8
MAIN0
  6
CONTINUOUS
 62
3
100
AcDbBlockEnd
  0
BLOCK
  5
1AC
100
AcDbEntity
  8
MAIN0
  6
CONTINUOUS
 62
3
100
AcDbBlockBegin
  2
*D29
 70
    65
 10
0.0
 20
0.0
 30
0.0
  0
LINE
  5
1AD
100
AcDbEntity
  8
MAIN0
  6
BYBLOCK
 62
0
100
AcDbLine
 10
315.7972230432939
 20
205.6199068506083
 30
0.0000000000000000
 11
358.5788779799688
 21
230.3199068446751
 31
0.0000000000000000
  0
ARC
  5
1AE
100
AcDbEntity
  8
MAIN0
  6
BYBLOCK
 62
0
100
AcDbCircle
 10
287.5647948695972
 20
189.3199068446480
 30
0.0000000000000000
 40
80.00000000005474
100
AcDbArc
 50
1.432394487826078
 51
28.56760551217370
  0
INSERT
  5
1AF
100
AcDbEntity
  8
MAIN0
  6
BYBLOCK
 62
0
100
AcDbBlockReference
  2
_OPEN
 10
367.5647948696520
 20
189.3199068446480
 30
0.0000000000000000
 41
2.000000000000000
 42
2.000000000000000
 43
2.000000000000000
 50
270.0000000000000
  0
INSERT
  5
1B0
100
AcDbEntity
  8
MAIN0
  6
BYBLOCK
 62
0
100
AcDbBlockReference
  2
_OPEN
 10
356.8468271723999
 20
229.3199068446751
 30
0.0000000000000000
 41
2.000000000000000
 42
2.000000000000000
 43
2.000000000000000
 50
119.9999999999998
  0
MTEXT
  5
1B1
100
AcDbEntity
  8
MAIN0
  6
BYBLOCK
 62
0
100
AcDbMText
 10
362.8587130749421
 20
209.4948514227450
 30
0.0000000000000000
 40
3.099999904632568
 41
0.0000000000000000
 71
     5
 72
     1
  1
\A1;30\U+00B0
 11
-0.2588190451025187
 21
0.9659258262890689
 31
0.0000000000000000
  7
STANDARD
  0
ENDBLK
  5
1B2
100
AcDbEntity
  8
MAIN0
  6
CONTINUOUS
 62
3
100
AcDbBlockEnd
  0
BLOCK
  5
1B4
100
AcDbEntity
  8
MAIN0
  6
CONTINUOUS
 62
3
100
AcDbBlockBegin
  2
*D30
 70
    65
 10
0.0
 20
0.0
 30
0.0
  0
LINE
  5
1B5
100
AcDbEntity
  8
MAIN0
  6
BYBLOCK
 62
0
100
AcDbLine
 10
315.7972230432939
 20
205.6199068506083
 30
0.0000000000000000
 11
358.5788779799688
 21
230.3199068446751
 31
0.0000000000000000
  0
LINE
  5
1B6
100
AcDbEntity
  8
MAIN0
  6
BYBLOCK
 62
0
100
AcDbLine
 10
341.8705956731532
 20
243.6257076482042
 30
0.0000000000000000
 11
345.5475509269327
 21
247.3026629019838
 31
0.0000000000000000
  0
ARC
  5
1B7
100
AcDbEntity
  8
MAIN0
  6
BYBLOCK
 62
0
100
AcDbCircle
 10
287.5647948695972
 20
189.3199068446480
 30
0.0000000000000000
 40
80.00000000005474
100
AcDbArc
 50
31.43239448782586
 51
43.56760551217414
  0
INSERT
  5
1B8
100
AcDbEntity
  8
MAIN0
  6
BYBLOCK
 62
0
100
AcDbBlockReference
  2
_OPEN
 10
356.8468271723999
 20
229.3199068446751
 30
0.0000000000000000
 41
2.000000000000000
 42
2.000000000000000
 43
2.000000000000000
 50
299.9999999999998
  0
INSERT
  5
1B9
100
AcDbEntity
  8
MAIN0
  6
BYBLOCK
 62
0
100
AcDbBlockReference
  2
_OPEN
 10
344.1333373645595
 20
245.8884493396107
 30
0.0000000000000000
 41
2.000000000000000
 42
2.000000000000000
 43
2.000000000000000
 50
135.0000000000002
  0
MTEXT
  5
1BA
100
AcDbEntity
  8
MAIN0
  6
BYBLOCK
 62
0
100
AcDbMText
 10
352.6594364027065
 20
239.2687820658188
 30
0.0000000000000000
 40
3.099999904632568
 41
0.0000000000000000
 71
     5
 72
     1
  1
\A1;15\U+00B0
 11
0.6087614290087205
 21
-0.7933533402912352
 31
0.0000000000000000
  7
STANDARD
  0
ENDBLK
  5
1BB
100
AcDbEntity
  8
MAIN0
  6
CONTINUOUS
 62
3
100
AcDbBlockEnd
  0
BLOCK
  5
1BD
100
AcDbEntity
  8
MAIN0
  6
CONTINUOUS
 62
3
100
AcDbBlockBegin
  2
*D31
 70
    65
 10
0.0
 20
0.0
 30
0.0
  0
LINE
  5
1BE
100
AcDbEntity
  8
MAIN0
  6
BYBLOCK
 62
0
100
AcDbLine
 10
341.8705956731532
 20
243.6257076482042
 30
0.0000000000000000
 11
345.5475509269327
 21
247.3026629019838
 31
0.0000000000000000
  0
ARC
  5
1BF
100
AcDbEntity
  8
MAIN0
  6
BYBLOCK
 62
0
100
AcDbCircle
 10
287.5647948695972
 20
189.3199068446480
 30
0.0000000000000000
 40
80.00000000005474
100
AcDbArc
 50
46.43239448782630
 51
88.56760551217408
  0
INSERT
  5
1C0
100
AcDbEntity
  8
MAIN0
  6
BYBLOCK
 62
0
100
AcDbBlockReference
  2
_OPEN
 10
344.1333373645595
 20
245.8884493396107
 30
0.0000000000000000
 41
2.000000000000000
 42
2.000000000000000
 43
2.000000000000000
 50
315.0000000000002
  0
INSERT
  5
1C1
100
AcDbEntity
  8
MAIN0
  6
BYBLOCK
 62
0
100
AcDbBlockReference
  2
_OPEN
 10
287.5647948695970
 20
269.3199068447027
 30
0.0000000000000000
 41
2.000000000000000
 42
2.000000000000000
 43
2.000000000000000
 50
180.0000000000002
  0
MTEXT
  5
1C2
100
AcDbEntity
  8
MAIN0
  6
BYBLOCK
 62
0
100
AcDbMText
 10
318.9639704769259
 20
265.1242224431957
 30
0.0000000000000000
 40
3.099999904632568
 41
0.0000000000000000
 71
     5
 72
     1
  1
\A1;45\U+00B0
 11
0.9238795325112879
 21
-0.3826834323650871
 31
0.0000000000000000
  7
STANDARD
  0
ENDBLK
  5
1C3
100
AcDbEntity
  8
MAIN0
  6
CONTINUOUS
 62
3
100
AcDbBlockEnd
  0
BLOCK
  5
1C5
100
AcDbEntity
  8
MAIN0
  6
CONTINUOUS
 62
3
100
AcDbBlockBegin
  2
*D32
 70
    65
 10
0.0
 20
0.0
 30
0.0
  0
LINE
  5
1C6
100
AcDbEntity
  8
MAIN0
  6
BYBLOCK
 62
0
100
AcDbLine
 10
251.9647948636366
 20
250.9809156044239
 30
0.0000000000000000
 11
246.5647948695697
 21
260.3339899550193
 31
0.0000000000000000
  0
ARC
  5
1C7
100
AcDbEntity
  8
MAIN0
  6
BYBLOCK
 62
0
100
AcDbCircle
 10
287.5647948695972
 20
189.3199068446480
 30
0.0000000000000000
 40
80.00000000005474
100
AcDbArc
 50
91.43239448782623
 51
118.5676055121740
  0
INSERT
  5
1C8
100
AcDbEntity
  8
MAIN0
  6
BYBLOCK
 62
0
100
AcDbBlockReference
  2
_OPEN
 10
287.5647948695970
 20
269.3199068447027
 30
0.0000000000000000
 41
2.000000000000000
 42
2.000000000000000
 43
2.000000000000000
 50
1.705302565824240e-013
  0
INSERT
  5
1C9
100
AcDbEntity
  8
MAIN0
  6
BYBLOCK
 62
0
100
AcDbBlockReference
  2
_OPEN
 10
247.5647948695697
 20
258.6019391474504
 30
0.0000000000000000
 41
2.000000000000000
 42
2.000000000000000
 43
2.000000000000000
 50
210.0000000000001
  0
MTEXT
  5
1CA
100
AcDbEntity
  8
MAIN0
  6
BYBLOCK
 62
0
100
AcDbMText
 10
266.3286922312625
 20
268.5741208456599
 30
0.0000000000000000
 40
3.099999904632568
 41
0.0000000000000000
 71
     5
 72
     1
  1
\A1;30\U+00B0
 11
0.9659258262890677
 21
0.2588190451025230
 31
0.0000000000000000
  7
STANDARD
  0
ENDBLK
  5
1CB
100
AcDbEntity
  8
MAIN0
  6
CONTINUOUS
 62
3
100
AcDbBlockEnd
  0
BLOCK
  5
1DE
100
AcDbEntity
  8
MAIN1
  6
CONTINUOUS
 62
3
100
AcDbBlockBegin
  2
*D33
 70
    65
 10
0.0
 20
0.0
 30
0.0
  0
LINE
  5
1DF
100
AcDbEntity
  8
MAIN1
  6
BYBLOCK
 62
0
100
AcDbLine
 10
301.0647948695835
 20
206.4211798515398
 30
0.0000000000000000
 11
301.0647948695835
 21
199.7921416663599
 31
0.0000000000000000
  0
LINE
  5
1E0
100
AcDbEntity
  8
MAIN1
  6
BYBLOCK
 62
0
100
AcDbLine
 10
299.0647948695835
 20
201.7921416663599
 30
0.0000000000000000
 11
276.0647948695835
 21
201.7921416663599
 31
0.0000000000000000
  0
INSERT
  5
1E1
100
AcDbEntity
  8
MAIN1
  6
BYBLOCK
 62
0
100
AcDbBlockReference
  2
_OPEN
 10
301.0647948695835
 20
201.7921416663599
 30
0.0000000000000000
 41
2.000000000000000
 42
2.000000000000000
 43
2.000000000000000
 50
360.0000000000000
  0
INSERT
  5
1E2
100
AcDbEntity
  8
MAIN1
  6
BYBLOCK
 62
0
100
AcDbBlockReference
  2
_OPEN
 10
274.0647948695835
 20
201.7921416663599
 30
0.0000000000000000
 41
2.000000000000000
 42
2.000000000000000
 43
2.000000000000000
 50
180.0000000000000
  0
LINE
  5
1E3
100
AcDbEntity
  8
MAIN1
  6
BYBLOCK
 62
0
100
AcDbLine
 10
274.0647948695835
 20
206.4211798515541
 30
0.0000000000000000
 11
274.0647948695835
 21
199.7921416663599
 31
0.0000000000000000
  0
MTEXT
  5
1E4
100
AcDbEntity
  8
MAIN1
  6
BYBLOCK
 62
0
100
AcDbMText
 10
290.0067990071035
 20
203.8421416186762
 30
0.0000000000000000
 40
3.099999904632568
 41
0.0000000000000000
 71
     5
 72
     1
  1
\A1;27
 11
1.000000000000000
 21
0.0000000000000000
 31
0.0000000000000000
  7
STANDARD
  0
ENDBLK
  5
1E5
100
AcDbEntity
  8
MAIN1
  6
CONTINUOUS
 62
3
100
AcDbBlockEnd
  0
BLOCK
  5
1E7
100
AcDbEntity
  8
MAIN1
  6
CONTINUOUS
 62
3
100
AcDbBlockBegin
  2
*D34
 70
    65
 10
0.0
 20
0.0
 30
0.0
  0
LINE
  5
1E8
100
AcDbEntity
  8
MAIN1
  6
BYBLOCK
 62
0
100
AcDbLine
 10
135.6334653675133
 20
206.4211798515639
 30
0.0000000000000000
 11
135.6334653675133
 21
194.8528827591982
 31
0.0000000000000000
  0
LINE
  5
1E9
100
AcDbEntity
  8
MAIN1
  6
BYBLOCK
 62
0
100
AcDbLine
 10
135.6334653675133
 20
196.8528827591982
 30
0.0000000000000000
 11
133.8334653675135
 21
196.8528827591982
 31
0.0000000000000000
  0
INSERT
  5
1EA
100
AcDbEntity
  8
MAIN1
  6
BYBLOCK
 62
0
100
AcDbBlockReference
  2
_OPEN
 10
135.6334653675133
 20
196.8528827591982
 30
0.0000000000000000
 41
2.000000000000000
 42
2.000000000000000
 43
2.000000000000000
 50
180.0000000000000
  0
INSERT
  5
1EB
100
AcDbEntity
  8
MAIN1
  6
BYBLOCK
 62
0
100
AcDbBlockReference
  2
_OPEN
 10
133.8334653675135
 20
196.8528827591982
 30
0.0000000000000000
 41
2.000000000000000
 42
2.000000000000000
 43
2.000000000000000
 50
360.0000000000000
  0
LINE
  5
1EC
100
AcDbEntity
  8
MAIN1
  6
BYBLOCK
 62
0
100
AcDbLine
 10
137.6334653675133
 20
196.8528827591982
 30
0.0000000000000000
 11
138.6334653675133
 21
196.8528827591982
 31
0.0000000000000000
  0
LINE
  5
1ED
100
AcDbEntity
  8
MAIN1
  6
BYBLOCK
 62
0
100
AcDbLine
 10
131.8334653675135
 20
196.8528827591982
 30
0.0000000000000000
 11
126.5970809757288
 21
196.8528827591982
 31
0.0000000000000000
  0
MTEXT
  5
1EE
100
AcDbEntity
  8
MAIN1
  6
BYBLOCK
 62
0
100
AcDbMText
 10
129.2470811182603
 20
198.9028827115145
 30
0.0000000000000000
 40
3.099999904632568
 41
0.0000000000000000
 71
     5
 72
     1
  1
\A1;1.8
 11
1.000000000000000
 21
0.0000000000000000
 31
0.0000000000000000
  7
STANDARD
  0
ENDBLK
  5
1EF
100
AcDbEntity
  8
MAIN1
  6
CONTINUOUS
 62
3
100
AcDbBlockEnd
  0
BLOCK
  5
1F1
100
AcDbEntity
  8
MAIN1
  6
CONTINUOUS
 62
3
100
AcDbBlockBegin
  2
*D35
 70
    65
 10
0.0
 20
0.0
 30
0.0
  0
LINE
  5
1F2
100
AcDbEntity
  8
MAIN1
  6
BYBLOCK
 62
0
100
AcDbLine
 10
133.4334653555927
 20
222.2211798634856
 30
0.0000000000000000
 11
110.5180058018343
 21
222.2211798634856
 31
0.0000000000000000
  0
LINE
  5
1F3
100
AcDbEntity
  8
MAIN1
  6
BYBLOCK
 62
0
100
AcDbLine
 10
112.5180058018343
 20
220.2211798634856
 30
0.0000000000000000
 11
112.5180058018343
 21
209.2211798634858
 31
0.0000000000000000
  0
INSERT
  5
1F4
100
AcDbEntity
  8
MAIN1
  6
BYBLOCK
 62
0
100
AcDbBlockReference
  2
_OPEN
 10
112.5180058018343
 20
222.2211798634856
 30
0.0000000000000000
 41
2.000000000000000
 42
2.000000000000000
 43
2.000000000000000
 50
90.00000000000000
  0
INSERT
  5
1F5
100
AcDbEntity
  8
MAIN1
  6
BYBLOCK
 62
0
100
AcDbBlockReference
  2
_OPEN
 10
112.5180058018343
 20
207.2211798634858
 30
0.0000000000000000
 41
2.000000000000000
 42
2.000000000000000
 43
2.000000000000000
 50
270.0000000000000
  0
LINE
  5
1F6
100
AcDbEntity
  8
MAIN1
  6
BYBLOCK
 62
0
100
AcDbLine
 10
133.0334653555924
 20
207.2211798634858
 30
0.0000000000000000
 11
110.5180058018343
 21
207.2211798634858
 31
0.0000000000000000
  0
MTEXT
  5
1F7
100
AcDbEntity
  8
MAIN1
  6
BYBLOCK
 62
0
100
AcDbMText
 10
110.4680058495180
 20
214.7211798634857
 30
0.0000000000000000
 40
3.099999904632568
 41
0.0000000000000000
 71
     5
 72
     1
  1
\A1;15
 11
6.123233995736766e-017
 21
1.000000000000000
 31
0.0000000000000000
  7
STANDARD
  0
ENDBLK
  5
1F8
100
AcDbEntity
  8
MAIN1
  6
CONTINUOUS
 62
3
100
AcDbBlockEnd
  0
BLOCK
  5
1FA
100
AcDbEntity
  8
MAIN1
  6
CONTINUOUS
 62
3
100
AcDbBlockBegin
  2
*D36
 70
    65
 10
0.0
 20
0.0
 30
0.0
  0
LINE
  5
1FB
100
AcDbEntity
  8
MAIN1
  6
BYBLOCK
 62
0
100
AcDbLine
 10
133.0334653555924
 20
207.2211798634858
 30
0.0000000000000000
 11
110.5180058018343
 21
207.2211798634848
 31
0.0000000000000000
  0
LINE
  5
1FC
100
AcDbEntity
  8
MAIN1
  6
BYBLOCK
 62
0
100
AcDbLine
 10
112.5180058018343
 20
205.2211798634849
 30
0.0000000000000000
 11
112.5180058018343
 21
191.3199068446478
 31
0.0000000000000000
  0
INSERT
  5
1FD
100
AcDbEntity
  8
MAIN1
  6
BYBLOCK
 62
0
100
AcDbBlockReference
  2
_OPEN
 10
112.5180058018343
 20
207.2211798634849
 30
0.0000000000000000
 41
2.000000000000000
 42
2.000000000000000
 43
2.000000000000000
 50
90.00000000000000
  0
INSERT
  5
1FE
100
AcDbEntity
  8
MAIN1
  6
BYBLOCK
 62
0
100
AcDbBlockReference
  2
_OPEN
 10
112.5180058018343
 20
189.3199068446478
 30
0.0000000000000000
 41
2.000000000000000
 42
2.000000000000000
 43
2.000000000000000
 50
270.0000000000000
  0
MTEXT
  5
1FF
100
AcDbEntity
  8
MAIN1
  6
BYBLOCK
 62
0
100
AcDbMText
 10
110.4680058495180
 20
198.2705433540663
 30
0.0000000000000000
 40
3.099999904632568
 41
0.0000000000000000
 71
     5
 72
     1
  1
\A1;MAX 17.9
 11
6.123233995736766e-017
 21
1.000000000000000
 31
0.0000000000000000
  7
STANDARD
  0
ENDBLK
  5
200
100
AcDbEntity
  8
MAIN1
  6
CONTINUOUS
 62
3
100
AcDbBlockEnd
  0
BLOCK
  5
206
100
AcDbEntity
  8
MAIN1
  6
CONTINUOUS
 62
3
100
AcDbBlockBegin
  2
*D37
 70
    65
 10
0.0
 20
0.0
 30
0.0
  0
LINE
  5
207
100
AcDbEntity
  8
MAIN1
  6
BYBLOCK
 62
0
100
AcDbLine
 10
134.8334653675134
 20
158.0699068327268
 30
0.0000000000000000
 11
134.8334653675134
 21
146.8330743256540
 31
0.0000000000000000
  0
LINE
  5
208
100
AcDbEntity
  8
MAIN1
  6
BYBLOCK
 62
0
100
AcDbLine
 10
134.8334653675134
 20
148.8330743256540
 30
0.0000000000000000
 11
133.8334653675134
 21
148.8330743256540
 31
0.0000000000000000
  0
INSERT
  5
209
100
AcDbEntity
  8
MAIN1
  6
BYBLOCK
 62
0
100
AcDbBlockReference
  2
_OPEN
 10
134.8334653675134
 20
148.8330743256540
 30
0.0000000000000000
 41
2.000000000000000
 42
2.000000000000000
 43
2.000000000000000
 50
180.0000000000000
  0
INSERT
  5
20A
100
AcDbEntity
  8
MAIN1
  6
BYBLOCK
 62
0
100
AcDbBlockReference
  2
_OPEN
 10
133.8334653675134
 20
148.8330743256540
 30
0.0000000000000000
 41
2.000000000000000
 42
2.000000000000000
 43
2.000000000000000
 50
360.0000000000000
  0
LINE
  5
20B
100
AcDbEntity
  8
MAIN1
  6
BYBLOCK
 62
0
100
AcDbLine
 10
136.8334653675134
 20
148.8330743256540
 30
0.0000000000000000
 11
142.1484592258508
 21
148.8330743256540
 31
0.0000000000000000
  0
LINE
  5
20C
100
AcDbEntity
  8
MAIN1
  6
BYBLOCK
 62
0
100
AcDbLine
 10
131.8334653675134
 20
148.8330743256540
 30
0.0000000000000000
 11
130.8334653675134
 21
148.8330743256540
 31
0.0000000000000000
  0
MTEXT
  5
20D
100
AcDbEntity
  8
MAIN1
  6
BYBLOCK
 62
0
100
AcDbMText
 10
139.4984591543741
 20
150.8830742779703
 30
0.0000000000000000
 40
3.099999904632568
 41
0.0000000000000000
 71
     5
 72
     1
  1
\A1;0.1
 11
1.000000000000000
 21
0.0000000000000000
 31
0.0000000000000000
  7
STANDARD
  0
ENDBLK
  5
20E
100
AcDbEntity
  8
MAIN1
  6
CONTINUOUS
 62
3
100
AcDbBlockEnd
  0
BLOCK
  5
216
100
AcDbEntity
  8
MAIN0
  6
CONTINUOUS
 62
3
100
AcDbBlockBegin
  2
D38
 70
    64
 10
0.0
 20
0.0
 30
0.0
  0
LINE
  5
217
100
AcDbEntity
  8
MAIN0
  6
BYBLOCK
 62
0
100
AcDbLine
 10
14.92378277931183
 20
-40.08210582288074
 30
0.0000000000000000
 11
14.92378277931181
 21
-55.00000000011112
 31
0.0000000000000000
  0
LINE
  5
218
100
AcDbEntity
  8
MAIN0
  6
BYBLOCK
 62
0
100
AcDbLine
 10
15.52378280315367
 20
-53.00000000011112
 30
0.0000000000000000
 11
14.92378277931181
 21
-55.00000000011112
 31
0.0000000000000000
  0
LINE
  5
219
100
AcDbEntity
  8
MAIN0
  6
BYBLOCK
 62
0
100
AcDbLine
 10
14.92378277931181
 20
-55.00000000011112
 30
0.0000000000000000
 11
14.32378275546995
 21
-53.00000000011112
 31
0.0000000000000000
  0
LINE
  5
21A
100
AcDbEntity
  8
MAIN0
  6
BYBLOCK
 62
0
100
AcDbLine
 10
-15.20508369576778
 20
-55.00000000011109
 30
0.0000000000000000
 11
16.92378277931181
 21
-55.00000000011112
 31
0.0000000000000000
  0
MTEXT
  5
21B
100
AcDbEntity
  8
MAIN0
  6
BYBLOCK
 62
0
100
AcDbMText
 10
12.87378282699554
 20
-44.53210577701852
 30
0.0000000000000000
 40
3.099999904632568
 41
0.0000000000000000
 71
     5
 72
     1
  1
\A1;\U+2205110
 11
6.123233995736766e-017
 21
1.000000000000000
 31
0.0000000000000000
  7
STANDARD
  0
ENDBLK
  5
21C
100
AcDbEntity
  8
MAIN0
  6
CONTINUOUS
 62
3
100
AcDbBlockEnd
  0
BLOCK
  5
21E
100
AcDbEntity
  8
MAIN0
  6
CONTINUOUS
 62
3
100
AcDbBlockBegin
  2
D39
 70
    64
 10
0.0
 20
0.0
 30
0.0
  0
LINE
  5
21F
100
AcDbEntity
  8
MAIN0
  6
BYBLOCK
 62
0
100
AcDbLine
 10
1.576403573381462
 20
-16.84155859249810
 30
0.0000000000000000
 11
1.576403573381443
 21
-30.45000000000001
 31
0.0000000000000000
  0
LINE
  5
220
100
AcDbEntity
  8
MAIN0
  6
BYBLOCK
 62
0
100
AcDbLine
 10
2.176403597223304
 20
-28.45000000000001
 30
0.0000000000000000
 11
1.576403573381443
 21
-30.45000000000001
 31
0.0000000000000000
  0
LINE
  5
221
100
AcDbEntity
  8
MAIN0
  6
BYBLOCK
 62
0
100
AcDbLine
 10
1.576403573381443
 20
-30.45000000000001
 30
0.0000000000000000
 11
0.9764035495395879
 21
-28.45000000000001
 31
0.0000000000000000
  0
LINE
  5
222
100
AcDbEntity
  8
MAIN0
  6
BYBLOCK
 62
0
100
AcDbLine
 10
-12.60508369576781
 20
-30.44999999999999
 30
0.0000000000000000
 11
3.576403573381443
 21
-30.45000000000001
 31
0.0000000000000000
  0
MTEXT
  5
223
100
AcDbEntity
  8
MAIN0
  6
BYBLOCK
 62
0
100
AcDbMText
 10
-0.4735963789348308
 20
-21.84155859305902
 30
0.0000000000000000
 40
3.099999904632568
 41
0.0000000000000000
 71
     5
 72
     1
  1
\A1;\U+220560.9
 11
6.123233995736766e-017
 21
1.000000000000000
 31
0.0000000000000000
  7
STANDARD
  0
ENDBLK
  5
224
100
AcDbEntity
  8
MAIN0
  6
CONTINUOUS
 62
3
100
AcDbBlockEnd
  0
ENDSEC
  0
SECTION
  2
ENTITIES
  0
DIMENSION
  5
4E
100
AcDbEntity
  8
MAIN0
  6
CONTINUOUS
 62
3
100
AcDbDimension
  2
*D0
 10
26.38431971894229
 20
263.3199068442935
 30
0.0000000000000000
 11
25.88431971894229
 21
187.2199068429117
 31
0.0000000000000000
 70
32
  1
\A1;\U+2205148h7
  3
MAIN001
100
AcDbAlignedDimension
 13
43.83346536751289
 23
115.3199068445099
 33
0.0000000000000000
 14
43.83346536751404
 24
263.3199068442935
 34
0.0000000000000000
 50
90.00000000000000
100
AcDbRotatedDimension
1001
ACAD
1000
DSTYLE
1002
{
1070
   173
1070
     1
1070
     6
1000
_OPEN
1070
     7
1000
_OPEN
1070
    41
1040
2.000000
1002
}
  0
LINE
  5
4F
100
AcDbEntity
  8
MAIN0
  6
CENTER
 62
3
100
AcDbLine
 10
215.8722787691513
 20
147.9282133751739
 30
0.0000000000000000
 11
287.5647948695971
 21
189.3199068446480
 31
0.0000000000000000
  0
LINE
  5
50
100
AcDbEntity
  8
MAIN0
  6
CENTER
 62
3
100
AcDbLine
 10
315.1044027099424
 20
205.2199068446479
 30
0.0000000000000000
 11
305.9245334298273
 21
199.9199068446479
 31
0.0000000000000000
  0
SPLINE
  5
51
100
AcDbEntity
  8
MAIN0
  6
CONTINUOUS
 62
3
100
AcDbSpline
210
0.0000000000000000
220
0.0000000000000000
230
1.000000000000000
 70
     8
 71
     3
 72
    11
 73
     7
 74
     0
 42
1.000000000000000e-007
 43
1.000000000000000e-007
 12
-0.9880145513695879
 22
-0.5911366755551626
 32
0.0000000000000000
 13
-0.9373497164492619
 23
0.5073454215166180
 33
0.0000000000000000
 40
0.0000000000000000
 40
0.0000000000000000
 40
0.0000000000000000
 40
0.0000000000000000
 40
2.491425316431445
 40
3.857823262200836
 40
5.747473376828415
 40
7.196766471035819
 40
7.196766471035819
 40
7.196766471035819
 40
7.196766471035819
 10
375.1888463467263
 20
128.8966348666051
 30
0.0000000000000000
 10
374.3683248579647
 20
128.4057105736220
 30
0.0000000000000000
 10
373.0977963514093
 20
127.6455436342564
 30
0.0000000000000000
 10
371.4565509007125
 20
129.2741615411805
 30
0.0000000000000000
 10
369.8635160523609
 20
127.9981468815288
 30
0.0000000000000000
 10
368.8202635623467
 20
128.5628127314310
 30
0.0000000000000000
 10
368.3674320720443
 20
128.8079101366916
 30
0.0000000000000000
  0
LINE
  5
52
100
AcDbEntity
  8
MAIN0
  6
CONTINUOUS
 62
3
100
AcDbLine
 10
345.9888463467263
 20
96.75752072553038
 30
0.0000000000000000
 11
345.9888463467263
 21
119.7575207255303
 31
0.0000000000000000
  0
LINE
  5
53
100
AcDbEntity
  8
MAIN0
  6
CENTER
 62
3
100
AcDbLine
 10
340.4967547029076
 20
108.2575207255303
 30
0.0000000000000000
 11
384.2790062871728
 21
108.2575207255303
 31
0.0000000000000000
  0
LINE
  5
54
100
AcDbEntity
  8
MAIN0
  6
CONTINUOUS
 62
3
100
AcDbLine
 10
350.1888463467262
 20
125.7575207255303
 30
0.0000000000000000
 11
362.1888463467262
 21
125.7575207255303
 31
0.0000000000000000
  0
LINE
  5
55
100
AcDbEntity
  8
MAIN0
  6
CONTINUOUS
 62
3
100
AcDbLine
 10
345.9888463467263
 20
119.7575207255303
 30
0.0000000000000000
 11
350.1888463467262
 21
119.7575207255303
 31
0.0000000000000000
  0
LINE
  5
56
100
AcDbEntity
  8
MAIN0
  6
CONTINUOUS
 62
3
100
AcDbLine
 10
362.1888463467262
 20
119.7575207255303
 30
0.0000000000000000
 11
367.1888499705341
 21
119.7575207255303
 31
0.0000000000000000
  0
LINE
  5
57
100
AcDbEntity
  8
MAIN0
  6
CONTINUOUS
 62
3
100
AcDbLine
 10
350.1888463467262
 20
90.75752072553038
 30
0.0000000000000000
 11
362.1888463467262
 21
90.75752072553038
 31
0.0000000000000000
  0
LINE
  5
58
100
AcDbEntity
  8
MAIN0
  6
CONTINUOUS
 62
3
100
AcDbLine
 10
362.1888463467262
 20
96.75752072553038
 30
0.0000000000000000
 11
375.1888463467262
 21
96.75752072553038
 31
0.0000000000000000
  0
LINE
  5
59
100
AcDbEntity
  8
MAIN0
  6
CONTINUOUS
 62
3
100
AcDbLine
 10
375.1888463467262
 20
87.61840658445549
 30
0.0000000000000000
 11
375.1888463467262
 21
96.75752072553038
 31
0.0000000000000000
  0
LINE
  5
5A
100
AcDbEntity
  8
MAIN0
  6
CONTINUOUS
 62
3
100
AcDbLine
 10
375.1888463467263
 20
119.7575207255303
 30
0.0000000000000000
 11
375.1888463467263
 21
128.8966348666051
 31
0.0000000000000000
  0
LINE
  5
5B
100
AcDbEntity
  8
MAIN0
  6
CONTINUOUS
 62
3
100
AcDbLine
 10
362.1888463467262
 20
90.75752072553038
 30
0.0000000000000000
 11
362.1888463467262
 21
96.75752072553038
 31
0.0000000000000000
  0
LINE
  5
5C
100
AcDbEntity
  8
MAIN0
  6
CONTINUOUS
 62
3
100
AcDbLine
 10
362.1888463467262
 20
119.7575207255303
 30
0.0000000000000000
 11
362.1888463467262
 21
125.7575207255303
 31
0.0000000000000000
  0
LINE
  5
5D
100
AcDbEntity
  8
MAIN0
  6
CONTINUOUS
 62
3
100
AcDbLine
 10
350.1888463467262
 20
90.75752072553038
 30
0.0000000000000000
 11
350.1888463467262
 21
96.75752072553038
 31
0.0000000000000000
  0
LINE
  5
5E
100
AcDbEntity
  8
MAIN0
  6
CONTINUOUS
 62
3
100
AcDbLine
 10
350.1888463467262
 20
119.7575207255303
 30
0.0000000000000000
 11
350.1888463467262
 21
125.7575207255303
 31
0.0000000000000000
  0
LINE
  5
5F
100
AcDbEntity
  8
MAIN0
  6
CONTINUOUS
 62
3
100
AcDbLine
 10
378.1888463467262
 20
96.78952490794150
 30
0.0000000000000000
 11
378.1888463467262
 21
102.7575207255303
 31
0.0000000000000000
  0
LINE
  5
60
100
AcDbEntity
  8
MAIN0
  6
CONTINUOUS
 62
3
100
AcDbLine
 10
374.6888463467262
 20
103.2575207255303
 30
0.0000000000000000
 11
377.3228209429418
 21
103.2575207255303
 31
0.0000000000000000
  0
LINE
  5
61
100
AcDbEntity
  8
MAIN0
  6
CONTINUOUS
 62
3
100
AcDbLine
 10
375.6888463467262
 20
102.8075207255303
 30
0.0000000000000000
 11
375.6888463467262
 21
103.2575207255303
 31
0.0000000000000000
  0
LINE
  5
62
100
AcDbEntity
  8
MAIN0
  6
CONTINUOUS
 62
3
100
AcDbLine
 10
346.1888463467262
 20
96.75752072553038
 30
0.0000000000000000
 11
346.1888463467262
 21
119.7575207255303
 31
0.0000000000000000
  0
LINE
  5
63
100
AcDbEntity
  8
MAIN0
  6
CONTINUOUS
 62
3
100
AcDbLine
 10
368.1888463467262
 20
101.5075207255303
 30
0.0000000000000000
 11
368.1888463467262
 21
102.4575207255303
 31
0.0000000000000000
  0
LINE
  5
64
100
AcDbEntity
  8
MAIN0
  6
CONTINUOUS
 62
3
100
AcDbLine
 10
362.1888463467262
 20
103.0060488629543
 30
0.0000000000000000
 11
362.1888463467262
 21
113.5089925881064
 31
0.0000000000000000
  0
LINE
  5
65
100
AcDbEntity
  8
MAIN0
  6
CONTINUOUS
 62
3
100
AcDbLine
 10
364.6873744841500
 20
100.5075207255303
 30
0.0000000000000000
 11
367.1888463467262
 21
100.5075207255303
 31
0.0000000000000000
  0
LINE
  5
66
100
AcDbEntity
  8
MAIN0
  6
CONTINUOUS
 62
3
100
AcDbLine
 10
362.3645822780142
 20
102.5817847942423
 30
0.0000000000000000
 11
364.2631104154381
 21
100.6832566568184
 31
0.0000000000000000
  0
LINE
  5
67
100
AcDbEntity
  8
MAIN0
  6
CONTINUOUS
 62
3
100
AcDbLine
 10
368.1888463467262
 20
102.4575207255302
 30
0.0000000000000000
 11
368.5388463467263
 21
102.8075207255303
 31
0.0000000000000000
  0
LINE
  5
68
100
AcDbEntity
  8
MAIN0
  6
CONTINUOUS
 62
3
100
AcDbLine
 10
368.5388463467263
 20
102.8075207255303
 30
0.0000000000000000
 11
375.6888463467262
 21
102.8075207255303
 31
0.0000000000000000
  0
LINE
  5
69
100
AcDbEntity
  8
MAIN0
  6
CONTINUOUS
 62
3
100
AcDbLine
 10
378.1888463467262
 20
102.7575207255302
 30
0.0000000000000000
 11
377.3228209429418
 21
103.2575207255302
 31
0.0000000000000000
  0
LINE
  5
6A
100
AcDbEntity
  8
MAIN0
  6
CONTINUOUS
 62
3
100
AcDbLine
 10
378.1888463467262
 20
119.7255165431190
 30
0.0000000000000000
 11
378.1888463467262
 21
113.7575207255303
 31
0.0000000000000000
  0
LINE
  5
6B
100
AcDbEntity
  8
MAIN0
  6
CONTINUOUS
 62
3
100
AcDbLine
 10
374.6888463467262
 20
113.2575207255303
 30
0.0000000000000000
 11
377.3228209429418
 21
113.2575207255303
 31
0.0000000000000000
  0
LINE
  5
6C
100
AcDbEntity
  8
MAIN0
  6
CONTINUOUS
 62
3
100
AcDbLine
 10
375.6888463467262
 20
113.7075207255303
 30
0.0000000000000000
 11
375.6888463467262
 21
113.2575207255303
 31
0.0000000000000000
  0
LINE
  5
6D
100
AcDbEntity
  8
MAIN0
  6
CONTINUOUS
 62
3
100
AcDbLine
 10
368.1888463467262
 20
115.0075207255303
 30
0.0000000000000000
 11
368.1888463467262
 21
114.0575207255303
 31
0.0000000000000000
  0
LINE
  5
6E
100
AcDbEntity
  8
MAIN0
  6
CONTINUOUS
 62
3
100
AcDbLine
 10
364.6873744841500
 20
116.0075207255303
 30
0.0000000000000000
 11
367.1888463467262
 21
116.0075207255303
 31
0.0000000000000000
  0
LINE
  5
6F
100
AcDbEntity
  8
MAIN0
  6
CONTINUOUS
 62
3
100
AcDbLine
 10
362.3645822780142
 20
113.9332566568183
 30
0.0000000000000000
 11
364.2631104154381
 21
115.8317847942422
 31
0.0000000000000000
  0
LINE
  5
70
100
AcDbEntity
  8
MAIN0
  6
CONTINUOUS
 62
3
100
AcDbLine
 10
368.1888463467262
 20
114.0575207255303
 30
0.0000000000000000
 11
368.5388463467263
 21
113.7075207255302
 31
0.0000000000000000
  0
LINE
  5
71
100
AcDbEntity
  8
MAIN0
  6
CONTINUOUS
 62
3
100
AcDbLine
 10
368.5388463467263
 20
113.7075207255303
 30
0.0000000000000000
 11
375.6888463467262
 21
113.7075207255303
 31
0.0000000000000000
  0
LINE
  5
72
100
AcDbEntity
  8
MAIN0
  6
CONTINUOUS
 62
3
100
AcDbLine
 10
378.1888463467262
 20
113.7575207255302
 30
0.0000000000000000
 11
377.3228209429417
 21
113.2575207255302
 31
0.0000000000000000
  0
ARC
  5
73
100
AcDbEntity
  8
MAIN0
  6
CONTINUOUS
 62
3
100
AcDbCircle
 10
362.7888463467263
 20
113.5089925881064
 30
0.0000000000000000
 40
0.6000000000000000
100
AcDbArc
 50
135.0000000000000
 51
180.0000000000000
  0
ARC
  5
74
100
AcDbEntity
  8
MAIN0
  6
CONTINUOUS
 62
3
100
AcDbCircle
 10
362.7888463467263
 20
103.0060488629543
 30
0.0000000000000000
 40
0.6000000000000000
100
AcDbArc
 50
180.0000000000000
 51
224.9999999999981
  0
ARC
  5
75
100
AcDbEntity
  8
MAIN0
  6
CONTINUOUS
 62
3
100
AcDbCircle
 10
364.6873744841500
 20
101.1075207255303
 30
0.0000000000000000
 40
0.6000000000000000
100
AcDbArc
 50
225.0000000000000
 51
270.0000000000000
  0
ARC
  5
76
100
AcDbEntity
  8
MAIN0
  6
CONTINUOUS
 62
3
100
AcDbCircle
 10
364.6873744841500
 20
115.4075207255303
 30
0.0000000000000000
 40
0.6000000000000000
100
AcDbArc
 50
90.00000000000000
 51
135.0000000000000
  0
ARC
  5
77
100
AcDbEntity
  8
MAIN0
  6
CONTINUOUS
 62
3
100
AcDbCircle
 10
367.1888463467262
 20
115.0075207255303
 30
0.0000000000000000
 40
1.000000000000000
100
AcDbArc
 50
0.0000000000000000
 51
90.00000000000000
  0
ARC
  5
78
100
AcDbEntity
  8
MAIN0
  6
CONTINUOUS
 62
3
100
AcDbCircle
 10
367.1888463467262
 20
101.5075207255303
 30
0.0000000000000000
 40
1.000000000000000
100
AcDbArc
 50
270.0000000000000
 51
360.0000000000000
  0
LINE
  5
79
100
AcDbEntity
  8
MAIN0
  6
CONTINUOUS
 62
3
100
AcDbLine
 10
365.1888463467270
 20
101.0075207255355
 30
0.0000000000000000
 11
367.5888463467312
 21
101.0075207255354
 31
0.0000000000000000
  0
LINE
  5
7A
100
AcDbEntity
  8
MAIN0
  6
CONTINUOUS
 62
3
100
AcDbLine
 10
365.1888463467257
 20
115.5075207255355
 30
0.0000000000000000
 11
367.5888463467209
 21
115.5075207255354
 31
0.0000000000000000
  0
LINE
  5
7B
100
AcDbEntity
  8
MAIN0
  6
CONTINUOUS
 62
3
100
AcDbLine
 10
380.6888463467257
 20
113.2575207255287
 30
0.0000000000000000
 11
380.6888463467266
 21
103.2575207255287
 31
0.0000000000000000
  0
LINE
  5
7C
100
AcDbEntity
  8
MAIN0
  6
CONTINUOUS
 62
3
100
AcDbLine
 10
362.6888463467258
 20
113.0075207255357
 30
0.0000000000000000
 11
362.6888463467266
 21
103.5075207255358
 31
0.0000000000000000
  0
LINE
  5
7D
100
AcDbEntity
  8
MAIN0
  6
HIDDEN
 62
3
100
AcDbLine
 10
380.6888463467259
 20
112.2575207255273
 30
0.0000000000000000
 11
362.6888463467259
 21
112.2575207255273
 31
0.0000000000000000
  0
LINE
  5
7E
100
AcDbEntity
  8
MAIN0
  6
HIDDEN
 62
3
100
AcDbLine
 10
380.6888463467266
 20
104.2575207255271
 30
0.0000000000000000
 11
362.6888463467266
 21
104.2575207255271
 31
0.0000000000000000
  0
LINE
  5
7F
100
AcDbEntity
  8
MAIN0
  6
HIDDEN
 62
3
100
AcDbLine
 10
362.6888463467259
 20
111.6575207254901
 30
0.0000000000000000
 11
380.6888463467259
 21
111.6575207254976
 31
0.0000000000000000
  0
LINE
  5
80
100
AcDbEntity
  8
MAIN0
  6
HIDDEN
 62
3
100
AcDbLine
 10
362.6888463467266
 20
104.8575207255046
 30
0.0000000000000000
 11
380.6888463467266
 21
104.8575207255127
 31
0.0000000000000000
  0
LINE
  5
81
100
AcDbEntity
  8
MAIN0
  6
CONTINUOUS
 62
3
100
AcDbLine
 10
368.1888463467255
 20
115.0075207255304
 30
0.0000000000000000
 11
368.1888463467257
 21
113.2575207255294
 31
0.0000000000000000
  0
LINE
  5
82
100
AcDbEntity
  8
MAIN0
  6
CONTINUOUS
 62
3
100
AcDbLine
 10
368.1888463467258
 20
113.2575207255295
 30
0.0000000000000000
 11
380.6888463467258
 21
113.2575207255287
 31
0.0000000000000000
  0
LINE
  5
83
100
AcDbEntity
  8
MAIN0
  6
CONTINUOUS
 62
3
100
AcDbLine
 10
368.1888463467252
 20
103.2575207255295
 30
0.0000000000000000
 11
380.6888463467252
 21
103.2575207255287
 31
0.0000000000000000
  0
LINE
  5
84
100
AcDbEntity
  8
MAIN0
  6
CONTINUOUS
 62
3
100
AcDbLine
 10
368.1888463467249
 20
101.5075207255300
 30
0.0000000000000000
 11
368.1888463467252
 21
103.2575207255295
 31
0.0000000000000000
  0
LINE
  5
85
100
AcDbEntity
  8
MAIN0
  6
CONTINUOUS
 62
3
100
AcDbLine
 10
365.1888463467255
 20
115.5075207255355
 30
0.0000000000000000
 11
362.6888463467258
 21
113.0075207255357
 31
0.0000000000000000
  0
LINE
  5
86
100
AcDbEntity
  8
MAIN0
  6
CONTINUOUS
 62
3
100
AcDbLine
 10
365.1888463467268
 20
101.0075207255355
 30
0.0000000000000000
 11
362.6888463467266
 21
103.5075207255357
 31
0.0000000000000000
  0
LINE
  5
87
100
AcDbEntity
  8
MAIN0
  6
CONTINUOUS
 62
3
100
AcDbLine
 10
367.5888463467260
 20
115.5075207255303
 30
0.0000000000000000
 11
368.1888463467255
 21
114.9075207255307
 31
0.0000000000000000
  0
LINE
  5
88
100
AcDbEntity
  8
MAIN0
  6
CONTINUOUS
 62
3
100
AcDbLine
 10
368.1888463467262
 20
101.6075207255301
 30
0.0000000000000000
 11
367.5888463467260
 21
101.0075207255302
 31
0.0000000000000000
  0
DIMENSION
  5
91
100
AcDbEntity
  8
MAIN0
  6
CONTINUOUS
 62
3
100
AcDbDimension
  2
*D1
 10
403.8334653675134
 20
96.75752072553038
 30
0.0000000000000000
 11
403.3334653675134
 21
108.2575207255303
 31
0.0000000000000000
 70
32
  3
MAIN001
100
AcDbAlignedDimension
 13
367.1888499705341
 23
119.7575207255303
 33
0.0000000000000000
 14
375.1888463467262
 24
96.75752072553038
 34
0.0000000000000000
 50
90.00000000000000
100
AcDbRotatedDimension
1001
ACAD
1000
DSTYLE
1002
{
1070
   173
1070
     1
1070
     6
1000
_OPEN
1070
     7
1000
_OPEN
1070
    41
1040
2.000000
1002
}
  0
DIMENSION
  5
9A
100
AcDbEntity
  8
MAIN0
  6
CONTINUOUS
 62
3
100
AcDbDimension
  2
*D2
 10
393.8334653675134
 20
103.2575207255287
 30
0.0000000000000000
 11
393.3334653675134
 21
108.2575207255287
 31
0.0000000000000000
 70
32
  3
MAIN001
100
AcDbAlignedDimension
 13
380.6888463467258
 23
113.2575207255287
 33
0.0000000000000000
 14
380.6888463467252
 24
103.2575207255287
 34
0.0000000000000000
 50
90.00000000000000
100
AcDbRotatedDimension
1001
ACAD
1000
DSTYLE
1002
{
1070
   173
1070
     1
1070
     6
1000
_OPEN
1070
     7
1000
_OPEN
1070
    41
1040
2.000000
1002
}
  0
SPLINE
  5
9B
100
AcDbEntity
  8
MAIN0
  6
CONTINUOUS
 62
3
100
AcDbSpline
210
0.0000000000000000
220
0.0000000000000000
230
1.000000000000000
 70
     8
 71
     3
 72
    11
 73
     7
 74
     0
 42
1.000000000000000e-007
 43
1.000000000000000e-007
 12
-0.9880145513695879
 22
0.5911366755551768
 32
0.0000000000000000
 13
-0.9373497164492619
 23
-0.5073454215166180
 33
0.0000000000000000
 40
0.0000000000000000
 40
0.0000000000000000
 40
0.0000000000000000
 40
0.0000000000000000
 40
2.491425316431445
 40
3.857823262200836
 40
5.747473376828415
 40
7.196766471035819
 40
7.196766471035819
 40
7.196766471035819
 40
7.196766471035819
 10
375.1888463467263
 20
87.61840658445539
 30
0.0000000000000000
 10
374.3683248579647
 20
88.10933087743848
 30
0.0000000000000000
 10
373.0977963514093
 20
88.86949781680409
 30
0.0000000000000000
 10
371.4565509007125
 20
87.24087990987999
 30
0.0000000000000000
 10
369.8635160523609
 20
88.51689456953176
 30
0.0000000000000000
 10
368.8202635623467
 20
87.95222871962955
 30
0.0000000000000000
 10
368.3674320720443
 20
87.70713131436895
 30
0.0000000000000000
  0
DIMENSION
  5
A5
100
AcDbEntity
  8
MAIN0
  6
CONTINUOUS
 62
3
100
AcDbDimension
  2
*D3
 10
380.6888463467258
 20
79.31990684464799
 30
0.0000000000000000
 11
386.6573122417849
 21
79.81990684464799
 31
0.0000000000000000
 70
160
  3
MAIN001
100
AcDbAlignedDimension
 13
378.1888463467262
 23
96.78952490794150
 33
0.0000000000000000
 14
380.6888463467266
 24
103.2575207255287
 34
0.0000000000000000
100
AcDbRotatedDimension
1001
ACAD
1000
DSTYLE
1002
{
1070
   173
1070
     1
1070
     6
1000
_DOT
1070
     7
1000
_OPEN
1070
    41
1040
2.000000
1070
   287
1070
     0
1002
}
  0
DIMENSION
  5
AF
100
AcDbEntity
  8
MAIN0
  6
CONTINUOUS
 62
3
100
AcDbDimension
  2
*D4
 10
378.1888463467262
 20
79.31990684464799
 30
0.0000000000000000
 11
370.7412891686655
 21
79.81990684464799
 31
0.0000000000000000
 70
160
  3
MAIN001
100
AcDbAlignedDimension
 13
375.1888463467262
 23
87.61840658445549
 33
0.0000000000000000
 14
378.1888463467262
 24
96.78952490794150
 34
0.0000000000000000
100
AcDbRotatedDimension
1001
ACAD
1000
DSTYLE
1002
{
1070
   173
1070
     1
1070
     6
1000
_OPEN
1070
     7
1000
_DOT
1070
    41
1040
2.000000
1070
   287
1070
     0
1002
}
  0
MTEXT
  5
B0
100
AcDbEntity
  8
MAIN0
  6
CONTINUOUS
 62
3
100
AcDbMText
 10
352.6493656180357
 20
71.34357669000328
 30
0.0000000000000000
 40
5.000000000000000
 41
0.0000000000000000
 71
     1
 72
     1
  1
{\H0.92x;{Ａ矢視図}}
 11
1.000000000000000
 21
0.0000000000000000
 31
0.0000000000000000
  7
KNJYOKO
  0
LINE
  5
B1
100
AcDbEntity
  8
MAIN0
  6
CONTINUOUS
 62
3
100
AcDbLine
 10
345.7704548014482
 20
65.34357669000328
 30
0.0000000000000000
 11
379.6590245340613
 21
65.34357669000328
 31
0.0000000000000000
  0
LINE
  5
B2
100
AcDbEntity
  8
MAIN0
  6
CONTINUOUS
 62
3
100
AcDbLine
 10
345.7704548014482
 20
64.34357669000328
 30
0.0000000000000000
 11
379.6590245340613
 21
64.34357669000328
 31
0.0000000000000000
  0
INSERT
  5
B8
100
AcDbEntity
  8
MAIN0
  6
CONTINUOUS
 62
2
100
AcDbBlockReference
  2
M0
 10
0.0000000000000000
 20
0.0000000000000000
 30
0.0000000000000000
 50
0.0000000000000000
  0
MTEXT
  5
B9
100
AcDbEntity
  8
MAIN0
  6
CONTINUOUS
 62
3
100
AcDbMText
 10
102.3292268897193
 20
261.1258485957142
 30
0.0000000000000000
 40
5.000000000000000
 41
0.0000000000000000
 71
     1
 72
     1
  1
{\H0.82x;{A}}
 11
1.000000000000000
 21
0.0000000000000000
 31
0.0000000000000000
  7
STANDARD
  0
DIMENSION
  5
C2
100
AcDbEntity
  8
MAIN0
  6
CONTINUOUS
 62
3
100
AcDbDimension
  2
*D5
 10
43.83346536751284
 20
89.31990684464799
 30
0.0000000000000000
 11
51.33346536751313
 21
89.81990684464799
 31
0.0000000000000000
 70
32
  3
MAIN001
100
AcDbAlignedDimension
 13
58.83346536751343
 23
113.8199068446565
 33
0.0000000000000000
 14
43.83346536751286
 24
115.3199068445100
 34
0.0000000000000000
100
AcDbRotatedDimension
1001
ACAD
1000
DSTYLE
1002
{
1070
   173
1070
     1
1070
     6
1000
_OPEN
1070
     7
1000
_OPEN
1070
    41
1040
2.000000
1002
}
  0
DIMENSION
  5
CB
100
AcDbEntity
  8
MAIN0
  6
CONTINUOUS
 62
3
100
AcDbDimension
  2
*D6
 10
58.83346536751343
 20
89.31990684464799
 30
0.0000000000000000
 11
73.83346536751343
 21
89.81990684464799
 31
0.0000000000000000
 70
32
  3
MAIN001
100
AcDbAlignedDimension
 13
88.83346536751341
 23
113.8199068446608
 33
0.0000000000000000
 14
58.83346536751343
 24
113.8199068446565
 34
0.0000000000000000
100
AcDbRotatedDimension
1001
ACAD
1000
DSTYLE
1002
{
1070
   173
1070
     1
1070
     6
1000
_OPEN
1070
     7
1000
_OPEN
1070
    41
1040
2.000000
1002
}
  0
DIMENSION
  5
D4
100
AcDbEntity
  8
MAIN0
  6
CONTINUOUS
 62
3
100
AcDbDimension
  2
*D7
 10
88.83346536751343
 20
89.31990684464799
 30
0.0000000000000000
 11
111.3334653675134
 21
89.81990684464799
 31
0.0000000000000000
 70
32
  3
MAIN001
100
AcDbAlignedDimension
 13
133.8334653675134
 23
135.9199068445357
 33
0.0000000000000000
 14
88.83346536751341
 24
113.8199068446608
 34
0.0000000000000000
100
AcDbRotatedDimension
1001
ACAD
1000
DSTYLE
1002
{
1070
   173
1070
     1
1070
     6
1000
_OPEN
1070
     7
1000
_OPEN
1070
    41
1040
2.000000
1002
}
  0
DIMENSION
  5
DD
100
AcDbEntity
  8
MAIN0
  6
CONTINUOUS
 62
3
100
AcDbDimension
  2
*D8
 10
43.83346536751284
 20
59.31990684464799
 30
0.0000000000000000
 11
88.83346536751314
 21
59.81990684464799
 31
0.0000000000000000
 70
32
  3
MAIN001
100
AcDbAlignedDimension
 13
133.8334653675134
 23
135.9199068445357
 33
0.0000000000000000
 14
43.83346536751286
 24
115.3199068445100
 34
0.0000000000000000
100
AcDbRotatedDimension
1001
ACAD
1000
DSTYLE
1002
{
1070
   173
1070
     1
1070
     6
1000
_OPEN
1070
     7
1000
_OPEN
1070
    41
1040
2.000000
1002
}
  0
DIMENSION
  5
E6
100
AcDbEntity
  8
MAIN0
  6
CONTINUOUS
 62
3
100
AcDbDimension
  2
*D9
 10
43.83346536751284
 20
99.31990684464799
 30
0.0000000000000000
 11
65.00589665814283
 21
99.81990684464799
 31
0.0000000000000000
 70
160
  3
MAIN001
100
AcDbAlignedDimension
 13
73.83346536741586
 23
107.8078344860303
 33
0.0000000000000000
 14
43.83346536751286
 24
115.3199068445100
 34
0.0000000000000000
100
AcDbRotatedDimension
1001
ACAD
1000
DSTYLE
1002
{
1070
   173
1070
     1
1070
     6
1000
_OPEN
1070
     7
1000
_OPEN
1070
    41
1040
2.000000
1002
}
  0
DIMENSION
  5
EF
100
AcDbEntity
  8
MAIN0
  6
CONTINUOUS
 62
3
100
AcDbDimension
  2
*D10
 10
133.8334653675135
 20
264.3199068446480
 30
0.0000000000000000
 11
147.4339463146629
 21
264.8199068446480
 31
0.0000000000000000
 70
32
  3
MAIN001
100
AcDbAlignedDimension
 13
161.0344272618123
 23
249.6711798634713
 33
0.0000000000000000
 14
133.8334653675135
 24
242.7199068451770
 34
0.0000000000000000
100
AcDbRotatedDimension
1001
ACAD
1000
DSTYLE
1002
{
1070
   173
1070
     1
1070
     6
1000
_OPEN
1070
     7
1000
_OPEN
1070
    41
1040
2.000000
1002
}
  0
DIMENSION
  5
F9
100
AcDbEntity
  8
MAIN0
  6
CONTINUOUS
 62
3
100
AcDbDimension
  2
*D11
 10
48.83346536751336
 20
214.3199068446480
 30
0.0000000000000000
 11
46.33346536751310
 21
214.8199068446480
 31
0.0000000000000000
 70
32
  3
MAIN001
100
AcDbAlignedDimension
 13
43.83346536751286
 23
115.3199068445100
 33
0.0000000000000000
 14
48.83346536751353
 24
199.3199068446480
 34
0.0000000000000000
100
AcDbRotatedDimension
1001
ACAD
1000
DSTYLE
1002
{
1070
   173
1070
     1
1070
     6
1000
_OPEN
1070
     7
1000
_OPEN
1070
    41
1040
2.000000
1070
   287
1070
     0
1002
}
  0
DIMENSION
  5
102
100
AcDbEntity
  8
MAIN0
  6
CONTINUOUS
 62
3
100
AcDbDimension
  2
*D12
 10
35.56147170433754
 20
199.3199068446479
 30
0.0000000000000000
 11
35.06147170433754
 21
187.2199068431578
 31
0.0000000000000000
 70
32
  1
\A1;\U+220520H7
  3
MAIN001
100
AcDbAlignedDimension
 13
43.83346536751336
 23
179.3199068446479
 33
0.0000000000000000
 14
43.83346536751350
 24
199.3199068446479
 34
0.0000000000000000
 50
90.00000000000000
100
AcDbRotatedDimension
1001
ACAD
1000
DSTYLE
1002
{
1070
   173
1070
     1
1070
     6
1000
_OPEN
1070
     7
1000
_OPEN
1070
    41
1040
2.000000
1002
}
  0
DIMENSION
  5
10B
100
AcDbEntity
  8
MAIN0
  6
CONTINUOUS
 62
3
100
AcDbDimension
  2
*D13
 10
178.8334653675135
 20
195.0711798634688
 30
0.0000000000000000
 11
178.3334653675135
 21
209.0711798634780
 31
0.0000000000000000
 70
32
  3
MAIN001
100
AcDbAlignedDimension
 13
167.5041971445932
 23
223.0711798634871
 33
0.0000000000000000
 14
160.6344272617983
 24
195.0711798634688
 34
0.0000000000000000
 50
90.00000000000000
100
AcDbRotatedDimension
1001
ACAD
1000
DSTYLE
1002
{
1070
   173
1070
     1
1070
     6
1000
_OPEN
1070
     7
1000
_OPEN
1070
    41
1040
2.000000
1002
}
  0
DIMENSION
  5
114
100
AcDbEntity
  8
MAIN0
  6
CONTINUOUS
 62
3
100
AcDbDimension
  2
*D14
 10
178.8334653675135
 20
223.0711798634871
 30
0.0000000000000000
 11
178.3334653675135
 21
230.0711798634872
 31
0.0000000000000000
 70
32
  3
MAIN001
100
AcDbAlignedDimension
 13
167.5041971445932
 23
237.0711798634872
 33
0.0000000000000000
 14
167.5041971445932
 24
223.0711798634871
 34
0.0000000000000000
 50
90.00000000000000
100
AcDbRotatedDimension
1001
ACAD
1000
DSTYLE
1002
{
1070
   173
1070
     1
1070
     6
1000
_OPEN
1070
     7
1000
_OPEN
1070
    41
1040
2.000000
1002
}
  0
DIMENSION
  5
11D
100
AcDbEntity
  8
MAIN0
  6
CONTINUOUS
 62
3
100
AcDbDimension
  2
*D15
 10
188.8334653675135
 20
195.0711798634510
 30
0.0000000000000000
 11
188.3334653675135
 21
222.5711798634612
 31
0.0000000000000000
 70
32
  3
MAIN001
100
AcDbAlignedDimension
 13
160.6344272618124
 23
250.0711798634714
 33
0.0000000000000000
 14
160.6344272617983
 24
195.0711798634688
 34
0.0000000000000000
 50
90.00000000000000
100
AcDbRotatedDimension
1001
ACAD
1000
DSTYLE
1002
{
1070
   173
1070
     1
1070
     6
1000
_OPEN
1070
     7
1000
_OPEN
1070
    41
1040
2.000000
1002
}
  0
DIMENSION
  5
126
100
AcDbEntity
  8
MAIN0
  6
CONTINUOUS
 62
3
100
AcDbDimension
  2
*D16
 10
198.8334653675135
 20
189.3199068446481
 30
0.0000000000000000
 11
198.3334653675135
 21
151.5699068446481
 31
0.0000000000000000
 70
32
  3
MAIN001
100
AcDbAlignedDimension
 13
247.5647948695537
 23
113.8199068446480
 33
0.0000000000000000
 14
211.2625018281462
 24
189.3199068446480
 34
0.0000000000000000
 50
90.00000000000000
100
AcDbRotatedDimension
1001
ACAD
1000
DSTYLE
1002
{
1070
   173
1070
     1
1070
     6
1000
_OPEN
1070
     7
1000
_OPEN
1070
    41
1040
2.000000
1002
}
  0
DIMENSION
  5
12F
100
AcDbEntity
  8
MAIN0
  6
CONTINUOUS
 62
3
100
AcDbDimension
  2
*D17
 10
247.5647948695537
 20
89.31990684464799
 30
0.0000000000000000
 11
287.5647948695537
 21
89.81990684464799
 31
0.0000000000000000
 70
32
  3
MAIN001
100
AcDbAlignedDimension
 13
327.5647948695536
 23
113.8199068446479
 33
0.0000000000000000
 14
247.5647948695537
 24
113.8199068446481
 34
0.0000000000000000
100
AcDbRotatedDimension
1001
ACAD
1000
DSTYLE
1002
{
1070
   173
1070
     1
1070
     6
1000
_OPEN
1070
     7
1000
_OPEN
1070
    41
1040
2.000000
1002
}
  0
DIMENSION
  5
138
100
AcDbEntity
  8
MAIN0
  6
CONTINUOUS
 62
3
100
AcDbDimension
  2
*D18
 10
264.0647948695970
 20
99.31990684464799
 30
0.0000000000000000
 11
287.5647948695970
 21
99.81990684464799
 31
0.0000000000000000
 70
32
  3
MAIN001
100
AcDbAlignedDimension
 13
311.0647948695971
 23
107.8078344860302
 33
0.0000000000000000
 14
264.0647948695970
 24
107.8078344860303
 34
0.0000000000000000
100
AcDbRotatedDimension
1001
ACAD
1000
DSTYLE
1002
{
1070
   173
1070
     1
1070
     6
1000
_OPEN
1070
     7
1000
_OPEN
1070
    41
1040
2.000000
1002
}
  0
DIMENSION
  5
13F
100
AcDbEntity
  8
MAIN0
  6
CONTINUOUS
 62
3
100
AcDbDimension
  2
*D19
 10
327.0777099388818
 20
240.9312383787936
 30
0.0000000000000000
 11
309.9192101601601
 21
219.3415121029081
 31
0.0000000000000000
 70
163
  3
MAIN001
100
AcDbDiametricDimension
 15
248.0518798003123
 25
137.7085753105023
 35
0.0000000000000000
1001
ACAD
1000
DSTYLE
1002
{
1070
   287
1070
     2
1070
   173
1070
     1
1070
     6
1000
_OPEN
1070
     7
1000
_OPEN
1070
    41
1040
2.000000
1070
   272
1070
     1
1070
    47
1040
0.200000
1070
    48
1040
0.200000
1070
    71
1070
     1
1002
}
  0
DIMENSION
  5
145
100
AcDbEntity
  8
MAIN0
  6
CONTINUOUS
 62
3
100
AcDbDimension
  2
*D20
 10
287.5647948695971
 20
189.3199068446480
 30
0.0000000000000000
 11
283.1735140034192
 21
168.3732862052113
 31
0.0000000000000000
 70
164
  3
MAIN001
100
AcDbRadialDimension
 15
281.3679588322609
 25
155.8893934904326
 35
0.0000000000000000
1001
ACAD
1000
DSTYLE
1002
{
1070
   173
1070
     1
1070
     6
1000
_OPEN
1070
     7
1000
_OPEN
1070
    41
1040
2.000000
1070
   340
1005
146
1002
}
  0
DIMENSION
  5
14F
100
AcDbEntity
  8
MAIN0
  6
CONTINUOUS
 62
3
100
AcDbDimension
  2
*D21
 10
271.0647948695970
 20
174.3199068446480
 30
0.0000000000000000
 11
291.1575044688934
 21
174.8199068446480
 31
0.0000000000000000
 70
160
  3
MAIN001
100
AcDbAlignedDimension
 13
304.0647948695970
 23
166.4559738522586
 33
0.0000000000000000
 14
271.0647948695970
 24
166.4559738522586
 34
0.0000000000000000
100
AcDbRotatedDimension
1001
ACAD
1000
DSTYLE
1002
{
1070
   173
1070
     1
1070
     6
1000
_OPEN
1070
     7
1000
_OPEN
1070
    41
1040
2.000000
1002
}
  0
LEADER
  5
150
100
AcDbEntity
  8
MAIN0
  6
CONTINUOUS
 62
3
100
AcDbLeader
  3
MAIN001
 73
     0
 75
     1
 40
3.099999904632568
 41
10.77900032901763
 76
     3
 10
252.3416295070387
 20
248.5414677152090
 30
0.0000000000000000
 10
243.8334653675135
 20
254.3199068446480
 30
0.0000000000000000
 10
241.9064654233034
 20
254.3199068446480
 30
0.0000000000000000
340
151
213
0.0000000000000000
223
-0.5000000000000000
233
0.0000000000000000
1001
ACAD
1000
DSTYLE
1002
{
1070
   147
1040
0.0
1070
    77
1070
     1
1070
   173
1070
     1
1070
     6
1000
_OPEN
1070
     7
1000
_OPEN
1002
}
  0
MTEXT
  5
151
102
{ACAD_REACTORS
330
150
102
}
100
AcDbEntity
  8
MAIN0
  6
CONTINUOUS
 62
3
100
AcDbMText
 10
231.1274650942858
 20
257.9199067492806
 30
0.0000000000000000
 40
3.099999904632568
 41
0.0000000000000000
 71
     1
 72
     1
  1
{\H0.91x;{6-M8}}
 11
1.000000000000000
 21
0.0000000000000000
 31
0.0000000000000000
  7
STANDARD
  0
LEADER
  5
152
100
AcDbEntity
  8
MAIN0
  6
CONTINUOUS
 62
3
100
AcDbLeader
  3
MAIN001
 73
     0
 74
     0
 75
     1
 40
3.099999904632568
 41
30.70100001788140
 76
     3
 10
137.0844272618124
 20
246.3211798634717
 30
0.0000000000000000
 10
164.0521622026652
 20
282.9332109009860
 30
0.0000000000000000
 10
165.8371621500045
 20
282.9332109009860
 30
0.0000000000000000
340
153
213
-0.001000000000004775
223
-0.5000000000000000
233
0.0000000000000000
1001
ACAD
1000
DSTYLE
1002
{
1070
   147
1040
0.0
1070
    77
1070
     1
1070
   173
1070
     1
1070
     6
1000
_OPEN
1070
     7
1000
_OPEN
1002
}
  0
MTEXT
  5
153
102
{ACAD_REACTORS
330
152
102
}
100
AcDbEntity
  8
MAIN0
  6
CONTINUOUS
 62
3
100
AcDbMText
 10
165.8381621500045
 20
286.5332108056185
 30
0.0000000000000000
 40
3.099999904632568
 41
0.0000000000000000
 71
     1
 72
     1
  1
{\H0.68x;{セレーションピッチ 1.5}}
 11
1.000000000000000
 21
0.0000000000000000
 31
0.0000000000000000
  7
KNJYOKO
  0
LINE
  5
154
100
AcDbEntity
  8
MAIN0
  6
PHANTOM
 62
3
100
AcDbLine
 10
103.8334653675134
 20
78.81990684467294
 30
0.0000000000000000
 11
103.8334653675135
 21
133.8199068446729
 31
0.0000000000000000
  0
DIMENSION
  5
15D
100
AcDbEntity
  8
MAIN0
  6
CONTINUOUS
 62
3
100
AcDbDimension
  2
*D22
 10
58.83346536751344
 20
69.31990684464799
 30
0.0000000000000000
 11
81.33346536751341
 21
69.81990684464799
 31
0.0000000000000000
 70
32
  3
MAIN001
100
AcDbAlignedDimension
 13
103.8334653675134
 23
78.81990684467294
 33
0.0000000000000000
 14
58.83346536751341
 24
113.8199068446565
 34
0.0000000000000000
100
AcDbRotatedDimension
1001
ACAD
1000
DSTYLE
1002
{
1070
   173
1070
     1
1070
     6
1000
_OPEN
1070
     7
1000
_OPEN
1070
    41
1040
2.000000
1002
}
  0
LEADER
  5
15E
100
AcDbEntity
  8
MAIN0
  6
CONTINUOUS
 62
3
100
AcDbLeader
  3
MAIN001
 73
     0
 74
     0
 75
     1
 40
3.099999904632568
 41
10.78100032901764
 76
     3
 10
103.8334653675134
 20
99.67897931077359
 30
0.0000000000000000
 10
138.8334653675135
 20
114.3199068446480
 30
0.0000000000000000
 10
140.7584653117235
 20
114.3199068446480
 30
0.0000000000000000
340
15F
213
-0.001000000000004775
223
-0.5000000000000000
233
0.0000000000000000
1001
ACAD
1000
DSTYLE
1002
{
1070
   147
1040
0.0
1070
    77
1070
     1
1070
   173
1070
     1
1070
     6
1000
_OPEN
1070
     7
1000
_OPEN
1002
}
  0
MTEXT
  5
15F
102
{ACAD_REACTORS
330
15E
102
}
100
AcDbEntity
  8
MAIN0
  6
CONTINUOUS
 62
3
100
AcDbMText
 10
140.7594653117235
 20
117.9199067492806
 30
0.0000000000000000
 40
3.099999904632568
 41
0.0000000000000000
 71
     1
 72
     1
  1
{\H0.91x;{LV-3}}
 11
1.000000000000000
 21
0.0000000000000000
 31
0.0000000000000000
  7
STANDARD
  0
MTEXT
  5
160
100
AcDbEntity
  8
MAIN0
  6
CONTINUOUS
 62
3
100
AcDbMText
 10
169.3863225122178
 20
196.4710713273874
 30
0.0000000000000000
 40
3.099999904632568
 41
0.0000000000000000
 71
     1
 72
     1
  1
{\H0.66x;{MIN 22.9}}
 11
6.123233995736766e-017
 21
1.000000000000000
 31
0.0000000000000000
  7
STANDARD
  0
MTEXT
  5
161
100
AcDbEntity
  8
MAIN0
  6
CONTINUOUS
 62
3
100
AcDbMText
 10
169.2819702709732
 20
215.8808867576085
 30
0.0000000000000000
 40
3.099999904632568
 41
0.0000000000000000
 71
     1
 72
     1
  1
{\H0.67x;{MIN  6.75}}
 11
6.123233995736766e-017
 21
1.000000000000000
 31
0.0000000000000000
  7
STANDARD
  0
LINE
  5
162
100
AcDbEntity
  8
MAIN0
  6
PHANTOM
 62
3
100
AcDbLine
 10
327.5647948695420
 20
78.81990684464799
 30
0.0000000000000000
 11
247.5647948695420
 21
78.81990684464799
 31
0.0000000000000000
  0
LINE
  5
163
100
AcDbEntity
  8
MAIN0
  6
PHANTOM
 62
3
100
AcDbLine
 10
327.5647948695420
 20
78.81990684464799
 30
0.0000000000000000
 11
327.5647948695420
 21
93.25971456429065
 31
0.0000000000000000
  0
LINE
  5
164
100
AcDbEntity
  8
MAIN0
  6
PHANTOM
 62
3
100
AcDbLine
 10
247.5647948695420
 20
78.81990684464799
 30
0.0000000000000000
 11
247.5647948695420
 21
94.32702513064608
 31
0.0000000000000000
  0
DIMENSION
  5
16D
100
AcDbEntity
  8
MAIN0
  6
CONTINUOUS
 62
3
100
AcDbDimension
  2
*D23
 10
188.8334653675135
 20
78.81990684464799
 30
0.0000000000000000
 11
188.3334653675135
 21
134.0699068446480
 31
0.0000000000000000
 70
32
  3
MAIN001
100
AcDbAlignedDimension
 13
211.2625018281462
 23
189.3199068446480
 33
0.0000000000000000
 14
247.5647948695420
 24
78.81990684464799
 34
0.0000000000000000
 50
90.00000000000000
100
AcDbRotatedDimension
1001
ACAD
1000
DSTYLE
1002
{
1070
   173
1070
     1
1070
     6
1000
_OPEN
1070
     7
1000
_OPEN
1070
    41
1040
2.000000
1002
}
  0
LEADER
  5
16E
100
AcDbEntity
  8
MAIN0
  6
CONTINUOUS
 62
3
100
AcDbLeader
  3
MAIN001
 73
     0
 75
     1
 40
3.099999904632568
 41
19.14900057220459
 76
     3
 10
257.5839287626193
 20
116.9441914213608
 30
0.0000000000000000
 10
240.9037327283348
 20
90.70258233967587
 30
0.0000000000000000
 10
238.9767327841247
 20
90.70258233967587
 30
0.0000000000000000
340
16F
213
0.0000000000000000
223
-0.5000000000000000
233
0.0000000000000000
1001
ACAD
1000
DSTYLE
1002
{
1070
   147
1040
0.0
1070
    77
1070
     1
1070
   173
1070
     1
1070
     6
1000
_OPEN
1070
     7
1000
_OPEN
1002
}
  0
MTEXT
  5
16F
102
{ACAD_REACTORS
330
16E
102
}
100
AcDbEntity
  8
MAIN0
  6
CONTINUOUS
 62
3
100
AcDbMText
 10
219.8277322119201
 20
94.30258224430844
 30
0.0000000000000000
 40
3.099999904632568
 41
0.0000000000000000
 71
     1
 72
     1
  1
{\H0.92x;{2-Rc1/4}}
 11
1.000000000000000
 21
0.0000000000000000
 31
0.0000000000000000
  7
STANDARD
  0
LEADER
  5
170
100
AcDbEntity
  8
MAIN0
  6
CONTINUOUS
 62
3
100
AcDbLeader
  3
MAIN001
 73
     0
 75
     1
 40
3.099999904632568
 41
19.14900057220459
 76
     3
 10
267.6267084103612
 20
156.1513260209891
 30
0.0000000000000000
 10
236.0118168735700
 20
123.8413903552641
 30
0.0000000000000000
 10
234.0848169293599
 20
123.8413903552641
 30
0.0000000000000000
340
171
213
0.0000000000000000
223
-0.5000000000000000
233
0.0000000000000000
1001
ACAD
1000
DSTYLE
1002
{
1070
   147
1040
0.0
1070
    77
1070
     1
1070
   173
1070
     1
1070
     6
1000
_OPEN
1070
     7
1000
_OPEN
1002
}
  0
MTEXT
  5
171
102
{ACAD_REACTORS
330
170
102
}
100
AcDbEntity
  8
MAIN0
  6
CONTINUOUS
 62
3
100
AcDbMText
 10
214.9358163571553
 20
127.4413902598967
 30
0.0000000000000000
 40
3.099999904632568
 41
0.0000000000000000
 71
     1
 72
     1
  1
{\H0.92x;{2-Rc1/8}}
 11
1.000000000000000
 21
0.0000000000000000
 31
0.0000000000000000
  7
STANDARD
  0
MTEXT
  5
172
100
AcDbEntity
  8
MAIN0
  6
CONTINUOUS
 62
3
100
AcDbMText
 10
211.7360074102634
 20
122.0877241062744
 30
0.0000000000000000
 40
3.000000000000000
 41
0.0000000000000000
 71
     1
 72
     1
  1
{\H0.59x;{マルチプレートに取付\P以外は止栓とする}}
 11
1.000000000000000
 21
0.0000000000000000
 31
0.0000000000000000
  7
KNJYOKO
  0
MTEXT
  5
173
100
AcDbEntity
  8
MAIN0
  6
CONTINUOUS
 62
3
100
AcDbMText
 10
207.8191638811992
 20
122.4745535027798
 30
0.0000000000000000
 40
8.000000000000000
 41
0.0000000000000000
 71
     1
 72
     1
  1
{\H0.91x;{( 　)}}
 11
1.000000000000000
 21
0.0000000000000000
 31
0.0000000000000000
  7
KNJYOKO
  0
SPLINE
  5
174
100
AcDbEntity
  8
MAIN0
  6
CONTINUOUS
 62
3
100
AcDbSpline
210
0.0000000000000000
220
0.0000000000000000
230
1.000000000000000
 70
     8
 71
     3
 72
    17
 73
    13
 74
     0
 42
1.000000000000000e-007
 43
1.000000000000000e-007
 12
0.5336805754941665
 22
-1.040888036662039
 32
0.0000000000000000
 13
-0.6849523504290644
 23
-1.044894761954765
 33
0.0000000000000000
 40
0.0000000000000000
 40
0.0000000000000000
 40
0.0000000000000000
 40
0.0000000000000000
 40
3.767420269836711
 40
7.619130078382374
 40
12.77682163564436
 40
19.82116234264544
 40
23.63617312941549
 40
31.03644245094208
 40
38.16919480207640
 40
42.69279618047337
 40
44.98270337220323
 40
47.83523013662663
 40
47.83523013662663
 40
47.83523013662663
 40
47.83523013662663
 10
43.83346536751358
 20
208.4774598018049
 30
0.0000000000000000
 10
44.50366504009186
 20
207.1703055724879
 30
0.0000000000000000
 10
45.85905894842388
 20
204.5267517897011
 30
0.0000000000000000
 10
51.00995300857892
 20
207.2449044903606
 30
0.0000000000000000
 10
53.76386726307401
 20
200.4377203048939
 30
0.0000000000000000
 10
50.78671029560780
 20
195.1351573452629
 30
0.0000000000000000
 10
56.00263080208730
 20
190.4377787553067
 30
0.0000000000000000
 10
53.35155859431248
 20
183.5196150495657
 30
0.0000000000000000
 10
52.15426022553854
 20
178.5035816988383
 30
0.0000000000000000
 10
48.82179651352107
 20
172.6397255204182
 30
0.0000000000000000
 10
45.65885441322899
 20
175.7568551087395
 30
0.0000000000000000
 10
44.48474700483118
 20
173.9657543405785
 30
0.0000000000000000
 10
43.83346536751330
 20
172.9722242490846
 30
0.0000000000000000
  0
LINE
  5
175
100
AcDbEntity
  8
MAIN0
  6
PHANTOM
 62
3
100
AcDbLine
 10
58.83346536751337
 20
78.81990684467299
 30
0.0000000000000000
 11
103.8334653675134
 21
78.81990684467294
 31
0.0000000000000000
  0
DIMENSION
  5
17E
100
AcDbEntity
  8
MAIN0
  6
CONTINUOUS
 62
3
100
AcDbDimension
  2
*D24
 10
123.8334653675135
 20
133.8199068446730
 30
0.0000000000000000
 11
123.1787147976853
 21
96.34110966577291
 31
0.0000000000000000
 70
160
  3
MAIN001
100
AcDbAlignedDimension
 13
103.8334653675134
 23
78.81990684467294
 33
0.0000000000000000
 14
88.83346536751338
 24
133.8199068446730
 34
0.0000000000000000
 50
90.00000000000000
100
AcDbRotatedDimension
1001
ACAD
1000
DSTYLE
1002
{
1070
   173
1070
     1
1070
     6
1000
_OPEN
1070
     7
1000
_OPEN
1070
    41
1040
2.000000
1002
}
  0
LINE
  5
17F
100
AcDbEntity
  8
MAIN0
  6
CONTINUOUS
 62
3
100
AcDbLine
 10
367.1888499705345
 20
96.75752072568768
 30
0.0000000000000000
 11
378.1888463467332
 21
96.78952490794151
 31
0.0000000000000000
  0
LINE
  5
180
100
AcDbEntity
  8
MAIN0
  6
CONTINUOUS
 62
3
100
AcDbLine
 10
345.9888463467263
 20
96.75752072553038
 30
0.0000000000000000
 11
350.1888463467262
 21
96.75752072553038
 31
0.0000000000000000
  0
LINE
  5
181
100
AcDbEntity
  8
MAIN0
  6
CONTINUOUS
 62
3
100
AcDbLine
 10
362.1888463467262
 20
96.75752072553038
 30
0.0000000000000000
 11
367.1888499705341
 21
96.75752072553038
 31
0.0000000000000000
  0
LINE
  5
182
100
AcDbEntity
  8
MAIN0
  6
CONTINUOUS
 62
3
100
AcDbLine
 10
362.1888463467262
 20
96.75752072553024
 30
0.0000000000000000
 11
367.1888499705341
 21
96.75752072553024
 31
0.0000000000000000
  0
LINE
  5
183
100
AcDbEntity
  8
MAIN0
  6
CONTINUOUS
 62
3
100
AcDbLine
 10
362.1888463467262
 20
119.7575207255301
 30
0.0000000000000000
 11
375.1888463467262
 21
119.7575207255301
 31
0.0000000000000000
  0
LINE
  5
184
100
AcDbEntity
  8
MAIN0
  6
CONTINUOUS
 62
3
100
AcDbLine
 10
367.1888499705345
 20
119.7575207253728
 30
0.0000000000000000
 11
378.1888463467332
 21
119.7255165431190
 31
0.0000000000000000
  0
LINE
  5
185
100
AcDbEntity
  8
MAIN0
  6
PHANTOM
 62
3
100
AcDbLine
 10
58.83346536751338
 20
78.81990684467294
 30
0.0000000000000000
 11
58.83346536751343
 21
113.2791124058335
 31
0.0000000000000000
  0
LINE
  5
186
100
AcDbEntity
  8
MAIN0
  6
HIDDEN
 62
3
100
AcDbLine
 10
135.7334653675135
 20
214.8209068446478
 30
0.0000000000000000
 11
131.8334653675076
 21
214.8209068446478
 31
0.0000000000000000
  0
LINE
  5
187
100
AcDbEntity
  8
MAIN0
  6
HIDDEN
 62
3
100
AcDbLine
 10
131.8334653675063
 20
208.2165174306918
 30
0.0000000000000000
 11
131.8334653675076
 21
214.8209068446478
 31
0.0000000000000000
  0
DIMENSION
  5
190
100
AcDbEntity
  8
MAIN0
  6
CONTINUOUS
 62
3
100
AcDbDimension
  2
*D25
 10
168.8334653675135
 20
189.3199068446478
 30
0.0000000000000000
 11
168.3334653675135
 21
204.5063173074948
 31
0.0000000000000000
 70
160
  1
\A1;MAX 25.5
  3
MAIN001
100
AcDbAlignedDimension
 13
135.7334653675135
 23
214.8209068446478
 33
0.0000000000000000
 14
148.2385490752022
 24
189.3199068446478
 34
0.0000000000000000
 50
90.00000000000000
100
AcDbRotatedDimension
1001
ACAD
1000
DSTYLE
1002
{
1070
   173
1070
     1
1070
     6
1000
_OPEN
1070
     7
1000
_OPEN
1070
    41
1040
2.000000
1002
}
  0
DIMENSION
  5
19B
100
AcDbEntity
  8
MAIN0
  6
CONTINUOUS
 62
3
100
AcDbDimension
  2
*D26
 10
168.8334653675135
 20
214.8209068446478
 30
0.0000000000000000
 11
168.3334653675135
 21
225.0640233145386
 31
0.0000000000000000
 70
160
  1
\A1;MAX  9.75
  3
MAIN001
100
AcDbAlignedDimension
 13
167.5041971445932
 23
223.0711798634871
 33
0.0000000000000000
 14
135.7334653675135
 24
214.8209068446478
 34
0.0000000000000000
 50
90.00000000000000
100
AcDbRotatedDimension
1001
ACAD
1000
DSTYLE
1002
{
1070
   173
1070
     1
1070
     6
1000
_OPEN
1070
     7
1000
_OPEN
1070
    41
1040
2.000000
1070
   287
1070
     0
1002
}
  0
DIMENSION
  5
1A4
100
AcDbEntity
  8
MAIN0
  6
CONTINUOUS
 62
3
100
AcDbDimension
  2
*D27
 10
276.0647948695818
 20
264.3199068446480
 30
0.0000000000000000
 11
283.4234497110993
 21
264.8199068446480
 31
0.0000000000000000
 70
160
  3
MAIN001
100
AcDbAlignedDimension
 13
299.0647948695818
 23
249.6711798634867
 33
0.0000000000000000
 14
276.0647948695818
 24
249.6711798634875
 34
0.0000000000000000
100
AcDbRotatedDimension
1001
ACAD
1000
DSTYLE
1002
{
1070
   173
1070
     1
1070
     6
1000
_OPEN
1070
     7
1000
_OPEN
1070
    41
1040
2.000000
1002
}
  0
DIMENSION
  5
1AB
100
AcDbEntity
  8
MAIN0
  6
CONTINUOUS
 62
3
100
AcDbDimension
  2
*D28
 10
367.5647948696520
 20
189.3199068446480
 30
0.0000000000000000
 11
364.3558980596310
 21
168.7437927589834
 31
0.0000000000000000
 70
162
  3
MAIN001
100
AcDb2LineAngularDimension
 13
356.8468271723997
 23
149.3199068446206
 33
0.0000000000000000
 14
287.5647948695972
 24
189.3199068446480
 34
0.0000000000000000
 15
287.5647948695972
 25
189.3199068446480
 35
0.0000000000000000
 16
364.8388609727756
 26
168.6143832364321
 36
0.0000000000000000
1001
ACAD
1000
DSTYLE
1002
{
1070
   173
1070
     1
1070
     6
1000
_OPEN
1070
     7
1000
_OPEN
1070
    41
1040
2.000000
1002
}
  0
DIMENSION
  5
1B3
100
AcDbEntity
  8
MAIN0
  6
CONTINUOUS
 62
3
100
AcDbDimension
  2
*D29
 10
315.1044027099425
 20
205.2199068446479
 30
0.0000000000000000
 11
364.3558980596312
 21
209.8960209303124
 31
0.0000000000000000
 70
162
  3
MAIN001
100
AcDb2LineAngularDimension
 13
367.5647948696520
 23
189.3199068446480
 33
0.0000000000000000
 14
287.5647948695972
 24
189.3199068446480
 34
0.0000000000000000
 15
314.2383773061580
 25
204.7199068446479
 35
0.0000000000000000
 16
364.8388609727756
 26
210.0254304528637
 36
0.0000000000000000
1001
ACAD
1000
DSTYLE
1002
{
1070
   173
1070
     1
1070
     6
1000
_OPEN
1070
     7
1000
_OPEN
1070
    41
1040
2.000000
1002
}
  0
DIMENSION
  5
1BC
100
AcDbEntity
  8
MAIN0
  6
CONTINUOUS
 62
3
100
AcDbDimension
  2
*D30
 10
341.3049102397746
 20
243.0600222148256
 30
0.0000000000000000
 11
351.4297387630851
 21
238.3252018798833
 31
0.0000000000000000
 70
162
  3
MAIN001
100
AcDb2LineAngularDimension
 13
315.1044027099425
 23
205.2199068446479
 33
0.0000000000000000
 14
314.2383773061580
 24
204.7199068446479
 34
0.0000000000000000
 15
340.5978034585880
 25
242.3529154336391
 35
0.0000000000000000
 16
351.0330620929395
 26
238.0208211653790
 36
0.0000000000000000
1001
ACAD
1000
DSTYLE
1002
{
1070
   173
1070
     1
1070
     6
1000
_OPEN
1070
     7
1000
_OPEN
1070
    41
1040
2.000000
1002
}
  0
DIMENSION
  5
1C4
100
AcDbEntity
  8
MAIN0
  6
CONTINUOUS
 62
3
100
AcDbDimension
  2
*D31
 10
287.5647948695971
 20
269.3199068447027
 30
0.0000000000000000
 11
318.3708111750077
 21
263.6922092118572
 31
0.0000000000000000
 70
162
  3
MAIN001
100
AcDb2LineAngularDimension
 13
341.3049102397746
 23
243.0600222148256
 33
0.0000000000000000
 14
340.5978034585880
 24
242.3529154336391
 34
0.0000000000000000
 15
287.5647948695972
 25
189.3199068446480
 35
0.0000000000000000
 16
318.1794694588251
 26
263.2302694456016
 36
0.0000000000000000
1001
ACAD
1000
DSTYLE
1002
{
1070
   173
1070
     1
1070
     6
1000
_OPEN
1070
     7
1000
_OPEN
1070
    41
1040
2.000000
1002
}
  0
DIMENSION
  5
1CC
100
AcDbEntity
  8
MAIN0
  6
CONTINUOUS
 62
3
100
AcDbDimension
  2
*D32
 10
252.3647948695971
 20
250.2880952710725
 30
0.0000000000000000
 11
266.7298617388300
 21
267.0769358609708
 31
0.0000000000000000
 70
162
  3
MAIN001
100
AcDb2LineAngularDimension
 13
287.5647948695971
 23
269.3199068447027
 33
0.0000000000000000
 14
287.5647948695972
 24
189.3199068446480
 34
0.0000000000000000
 15
252.8647948695971
 25
249.4220698672881
 35
0.0000000000000000
 16
266.8592712613813
 26
266.5939729478263
 36
0.0000000000000000
1001
ACAD
1000
DSTYLE
1002
{
1070
   173
1070
     1
1070
     6
1000
_OPEN
1070
     7
1000
_OPEN
1070
    41
1040
2.000000
1002
}
  0
LEADER
  5
1CD
100
AcDbEntity
  8
MAIN0
  6
CONTINUOUS
 62
3
100
AcDbLeader
  3
MAIN001
 73
     0
 74
     0
 75
     1
 40
3.099999904632568
 41
11.47100032663349
 76
     3
 10
334.5171471628379
 20
239.6715042175389
 30
0.0000000000000000
 10
339.1159129513641
 20
260.0539434839574
 30
0.0000000000000000
 10
341.0409128955741
 20
260.0539434839574
 30
0.0000000000000000
340
1CE
213
-0.001000000000033197
223
-0.5000000000000000
233
0.0000000000000000
1001
ACAD
1000
DSTYLE
1002
{
1070
   147
1040
0.0
1070
    77
1070
     1
1070
   173
1070
     1
1070
     6
1000
_OPEN
1070
     7
1000
_OPEN
1002
}
  0
MTEXT
  5
1CE
102
{ACAD_REACTORS
330
1CD
102
}
100
AcDbEntity
  8
MAIN0
  6
CONTINUOUS
 62
3
100
AcDbMText
 10
341.0419128955742
 20
263.6539433885899
 30
0.0000000000000000
 40
3.099999904632568
 41
0.0000000000000000
 71
     1
 72
     1
  1
{\H0.91x;{4-\U+22059}}
 11
1.000000000000000
 21
0.0000000000000000
 31
0.0000000000000000
  7
STANDARD
  0
LEADER
  5
1CF
100
AcDbEntity
  8
MAIN0
  6
CONTINUOUS
 62
3
100
AcDbLeader
  3
MAIN001
 73
     0
 74
     0
 75
     1
 40
3.099999904632568
 41
19.84100056982038
 76
     3
 10
348.4713072155768
 20
158.7442397232807
 30
0.0000000000000000
 10
373.8334653675134
 20
169.3199068446480
 30
0.0000000000000000
 10
375.7584653117235
 20
169.3199068446480
 30
0.0000000000000000
340
1D0
213
-0.001000000000033197
223
-0.5000000000000000
233
0.0000000000000000
1001
ACAD
1000
DSTYLE
1002
{
1070
   147
1040
0.0
1070
    77
1070
     1
1070
   173
1070
     1
1070
     6
1000
_OPEN
1070
     7
1000
_OPEN
1002
}
  0
MTEXT
  5
1D0
102
{ACAD_REACTORS
330
1CF
102
}
100
AcDbEntity
  8
MAIN0
  6
CONTINUOUS
 62
3
100
AcDbMText
 10
375.7594653117236
 20
172.9199067492805
 30
0.0000000000000000
 40
3.099999904632568
 41
0.0000000000000000
 71
     1
 72
     1
  1
{\H0.93x;{2-\U+220510H7}}
 11
1.000000000000000
 21
0.0000000000000000
 31
0.0000000000000000
  7
STANDARD
  0
MTEXT
  5
1D1
100
AcDbEntity
  8
MAIN0
  6
CONTINUOUS
 62
3
100
AcDbMText
 10
394.7452340217342
 20
103.3141625276639
 30
0.0000000000000000
 40
3.099999904632568
 41
0.0000000000000000
 71
     1
 72
     1
  1
{\H0.70x;{H8/h8}}
 11
6.123233995736766e-017
 21
1.000000000000000
 31
0.0000000000000000
  7
STANDARD
  0
MTEXT
  5
1D2
100
AcDbEntity
  8
MAIN0
  6
CONTINUOUS
 62
3
100
AcDbMText
 10
191.1378071351267
 20
112.9656806298887
 30
0.0000000000000000
 40
3.000000000000000
 41
0.0000000000000000
 71
     1
 72
     1
  1
{\H0.63x;{(WHEN SETTING ON MULTI-PLATE,\P THIS SOCKET SET SCREW MUST BE\P TAKEN OFF.)}}
 11
1.000000000000000
 21
0.0000000000000000
 31
0.0000000000000000
  7
STANDARD
  0
MTEXT
  5
1D3
100
AcDbEntity
  8
MAIN0
  6
CONTINUOUS
 62
3
100
AcDbMText
 10
166.0629367305014
 20
282.2430211218043
 30
0.0000000000000000
 40
3.000000000000000
 41
0.0000000000000000
 71
     1
 72
     1
  1
{\H0.61x;{SERRATION PITCH 1.5}}
 11
1.000000000000000
 21
0.0000000000000000
 31
0.0000000000000000
  7
STANDARD
  0
MTEXT
  5
1D4
100
AcDbEntity
  8
MAIN0
  6
CONTINUOUS
 62
3
100
AcDbMText
 10
347.1095351792612
 20
62.63076769086098
 30
0.0000000000000000
 40
4.000000000000000
 41
0.0000000000000000
 71
     1
 72
     1
  1
{\H0.93x;{VIEW OF A}}
 11
1.000000000000000
 21
0.0000000000000000
 31
0.0000000000000000
  7
STANDARD
  0
MTEXT
  5
1D5
100
AcDbEntity
  8
MAIN0
  6
CONTINUOUS
 62
3
100
AcDbMText
 10
265.0204768639480
 20
111.8298427332549
 30
0.0000000000000000
 40
3.000000000000000
 41
0.0000000000000000
 71
     1
 72
     1
  1
{\H0.93x;{閉\PＣＬＯＳＥ}}
 11
1.000000000000000
 21
0.0000000000000000
 31
0.0000000000000000
  7
KNJYOKO
  0
MTEXT
  5
1D6
100
AcDbEntity
  8
MAIN0
  6
CONTINUOUS
 62
3
100
AcDbMText
 10
312.2397161951020
 20
111.3877159766698
 30
0.0000000000000000
 40
3.000000000000000
 41
0.0000000000000000
 71
     1
 72
     1
  1
{\H0.92x;{開\PＯＰＥＮ}}
 11
1.000000000000000
 21
0.0000000000000000
 31
0.0000000000000000
  7
KNJYOKO
  0
SPLINE
  5
1D7
100
AcDbEntity
  8
MAIN0
  6
CONTINUOUS
 62
3
100
AcDbSpline
210
0.0000000000000000
220
0.0000000000000000
230
1.000000000000000
 70
     8
 71
     3
 72
    14
 73
    10
 74
     0
 42
1.000000000000000e-007
 43
1.000000000000000e-007
 12
1.205313937519350
 22
0.3012197250381234
 32
0.0000000000000000
 13
0.9118704780839835
 23
0.7328372388452067
 33
0.0000000000000000
 40
0.0000000000000000
 40
0.0000000000000000
 40
0.0000000000000000
 40
0.0000000000000000
 40
0.5828484074954654
 40
2.017389827489209
 40
3.123506893394179
 40
4.885508420049012
 40
6.048697447303496
 40
6.384151807376483
 40
6.831490023551860
 40
6.831490023551860
 40
6.831490023551860
 40
6.831490023551860
 10
227.9898832394335
 20
26.13736509050139
 30
0.0000000000000000
 10
228.2240550091052
 20
26.19588690284962
 30
0.0000000000000000
 10
229.0345843679324
 20
26.39844610589370
 30
0.0000000000000000
 10
229.5663110083953
 20
27.55808740719658
 30
0.0000000000000000
 10
229.7051181357208
 20
30.06626689432423
 30
0.0000000000000000
 10
228.4568725797880
 20
27.64011842391091
 30
0.0000000000000000
 10
228.3658650450891
 20
25.73552648542454
 30
0.0000000000000000
 10
229.2194975944030
 20
26.03039823382895
 30
0.0000000000000000
 10
229.4574327413174
 20
26.22161808388472
 30
0.0000000000000000
 10
229.5934042456671
 20
26.33089345160869
 30
0.0000000000000000
  0
LEADER
  5
1D8
100
AcDbEntity
  8
MAIN0
  6
CONTINUOUS
 62
3
100
AcDbLeader
  3
MAIN001
 73
     0
 74
     0
 75
     1
 40
3.099999904632568
 41
23.98100055551529
 76
     3
 10
150.0004919053367
 20
239.9401355763148
 30
0.0000000000000000
 10
168.9462037787175
 20
268.6960097931641
 30
0.0000000000000000
 10
170.8712037229276
 20
268.6960097931641
 30
0.0000000000000000
340
1D9
213
-0.001000000000004775
223
-0.5000000000000000
233
0.0000000000000000
1001
ACAD
1000
DSTYLE
1002
{
1070
   147
1040
0.0
1070
    77
1070
     1
1070
   173
1070
     1
1070
     6
1000
_DOT
1070
     7
1000
_DOT
1002
}
  0
MTEXT
  5
1D9
102
{ACAD_REACTORS
330
1D8
102
}
100
AcDbEntity
  8
MAIN0
  6
CONTINUOUS
 62
3
100
AcDbMText
 10
170.8722037229276
 20
272.2960096977967
 30
0.0000000000000000
 40
3.099999904632568
 41
0.0000000000000000
 71
     1
 72
     1
  1
{\H0.93x;{六角穴付ボルト\PM8×22}}
 11
1.000000000000000
 21
0.0000000000000000
 31
0.0000000000000000
  7
KNJYOKO
  0
LEADER
  5
1DA
100
AcDbEntity
  8
MAIN0
  6
CONTINUOUS
 62
3
100
AcDbLeader
  3
MAIN001
 73
     0
 74
     0
 75
     1
 40
3.099999904632568
 41
20.50100047683716
 76
     3
 10
158.4907478654994
 20
245.5605389888694
 30
0.0000000000000000
 10
168.5012886046419
 20
255.7935373150497
 30
0.0000000000000000
 10
170.4262885488520
 20
255.7935373150497
 30
0.0000000000000000
340
1DB
213
-0.001000000000004775
223
-0.4999999999999716
233
0.0000000000000000
1001
ACAD
1000
DSTYLE
1002
{
1070
   147
1040
0.0
1070
    77
1070
     1
1070
   173
1070
     1
1070
     6
1000
_DOT
1070
     7
1000
_DOT
1002
}
  0
MTEXT
  5
1DB
102
{ACAD_REACTORS
330
1DA
102
}
100
AcDbEntity
  8
MAIN0
  6
CONTINUOUS
 62
3
100
AcDbMText
 10
170.4272885488520
 20
259.3935372196822
 30
0.0000000000000000
 40
3.099999904632568
 41
0.0000000000000000
 71
     1
 72
     1
  1
{\H0.93x;{ソフトジョー\PSB04B1}}
 11
1.000000000000000
 21
0.0000000000000000
 31
0.0000000000000000
  7
KNJYOKO
  0
MTEXT
  5
1DC
100
AcDbEntity
  8
MAIN0
  6
CONTINUOUS
 62
3
100
AcDbMText
 10
169.7210845906212
 20
263.0952962794609
 30
0.0000000000000000
 40
3.000000000000000
 41
0.0000000000000000
 71
     1
 72
     1
  1
{\H0.63x;{SOFT JAW}}
 11
1.000000000000000
 21
0.0000000000000000
 31
0.0000000000000000
  7
STANDARD
  0
MTEXT
  5
1DD
100
AcDbEntity
  8
MAIN0
  6
CONTINUOUS
 62
3
100
AcDbMText
 10
170.4592176429187
 20
275.6529333376207
 30
0.0000000000000000
 40
3.000000000000000
 41
0.0000000000000000
 71
     1
 72
     1
  1
{\H0.63x;{HEX SOCKET HEAD CAP SCREW}}
 11
1.000000000000000
 21
0.0000000000000000
 31
0.0000000000000000
  7
STANDARD
  0
DIMENSION
  5
1E6
100
AcDbEntity
  8
MAIN1
  6
CONTINUOUS
 62
3
100
AcDbDimension
  2
*D33
 10
301.0647948695835
 20
201.7921416663599
 30
0.0000000000000000
 11
290.0067990071035
 21
202.2921416663599
 31
0.0000000000000000
 70
160
  3
MAIN001
100
AcDbAlignedDimension
 13
274.0647948695835
 23
207.2211798634750
 33
0.0000000000000000
 14
301.0647948695835
 24
207.2211798634608
 34
0.0000000000000000
100
AcDbRotatedDimension
1001
ACAD
1000
DSTYLE
1002
{
1070
   173
1070
     1
1070
     6
1000
_OPEN
1070
     7
1000
_OPEN
1070
    41
1040
2.000000
1002
}
  0
DIMENSION
  5
1F0
100
AcDbEntity
  8
MAIN1
  6
CONTINUOUS
 62
3
100
AcDbDimension
  2
*D34
 10
135.6334653675133
 20
196.8528827591982
 30
0.0000000000000000
 11
129.2470811182603
 21
197.3528827591982
 31
0.0000000000000000
 70
160
  3
MAIN001
100
AcDbAlignedDimension
 13
133.8334653675135
 23
212.2199068446480
 33
0.0000000000000000
 14
135.6334653675133
 24
207.2211798634849
 34
0.0000000000000000
100
AcDbRotatedDimension
1001
ACAD
1000
DSTYLE
1002
{
1070
   173
1070
     1
1070
     6
1000
_OPEN
1070
     7
1000
_OPEN
1070
    41
1040
2.000000
1070
   287
1070
     0
1002
}
  0
DIMENSION
  5
1F9
100
AcDbEntity
  8
MAIN1
  6
CONTINUOUS
 62
3
100
AcDbDimension
  2
*D35
 10
112.5180058018343
 20
222.2211798634856
 30
0.0000000000000000
 11
112.0180058018343
 21
214.7211798634857
 31
0.0000000000000000
 70
32
  3
MAIN001
100
AcDbAlignedDimension
 13
133.8334653675133
 23
207.2211798634858
 33
0.0000000000000000
 14
134.2334653675136
 24
222.2211798634856
 34
0.0000000000000000
 50
90.00000000000000
100
AcDbRotatedDimension
1001
ACAD
1000
DSTYLE
1002
{
1070
   173
1070
     1
1070
     6
1000
_OPEN
1070
     7
1000
_OPEN
1070
    41
1040
2.000000
1002
}
  0
DIMENSION
  5
201
100
AcDbEntity
  8
MAIN1
  6
CONTINUOUS
 62
3
100
AcDbDimension
  2
*D36
 10
112.5180058018343
 20
207.2211798634849
 30
0.0000000000000000
 11
112.0180058018343
 21
198.2705433540663
 31
0.0000000000000000
 70
32
  1
\A1;MAX 17.9
  3
MAIN001
100
AcDbAlignedDimension
 13
148.2385490752022
 23
189.3199068446478
 33
0.0000000000000000
 14
133.8334653675133
 24
207.2211798634858
 34
0.0000000000000000
 50
90.00000000000000
100
AcDbRotatedDimension
1001
ACAD
1000
DSTYLE
1002
{
1070
   173
1070
     1
1070
     6
1000
_OPEN
1070
     7
1000
_OPEN
1070
    41
1040
2.000000
1002
}
  0
MTEXT
  5
202
100
AcDbEntity
  8
MAIN1
  6
CONTINUOUS
 62
3
100
AcDbMText
 10
113.5483494841294
 20
190.2419598196849
 30
0.0000000000000000
 40
3.099999904632568
 41
0.0000000000000000
 71
     1
 72
     1
  1
{\H0.66x;{MIN 15.3}}
 11
6.123233995736766e-017
 21
1.000000000000000
 31
0.0000000000000000
  7
STANDARD
  0
LINE
  5
203
100
AcDbEntity
  8
MAIN1
  6
PHANTOM
 62
3
100
AcDbLine
 10
134.8334653675134
 20
158.8699068446478
 30
0.0000000000000000
 11
134.8334653675134
 21
189.3199068446478
 31
0.0000000000000000
  0
LINE
  5
204
100
AcDbEntity
  8
MAIN1
  6
PHANTOM
 62
3
100
AcDbLine
 10
131.9334653675134
 20
158.8699068446478
 30
0.0000000000000000
 11
131.9334653675135
 21
189.3199068446478
 31
0.0000000000000000
  0
LINE
  5
205
100
AcDbEntity
  8
MAIN1
  6
PHANTOM
 62
3
100
AcDbLine
 10
134.8334653675134
 20
158.8699068446478
 30
0.0000000000000000
 11
131.9334653675134
 21
158.8699068446478
 31
0.0000000000000000
  0
DIMENSION
  5
20F
100
AcDbEntity
  8
MAIN1
  6
CONTINUOUS
 62
3
100
AcDbDimension
  2
*D37
 10
134.8334653675134
 20
148.8330743256540
 30
0.0000000000000000
 11
139.4984591543741
 21
149.3330743256540
 31
0.0000000000000000
 70
160
  1
\A1;0.1
  3
MAIN001
100
AcDbAlignedDimension
 13
133.8334653675134
 23
135.9199068445357
 33
0.0000000000000000
 14
134.8334653675134
 24
158.8699068446478
 34
0.0000000000000000
100
AcDbRotatedDimension
1001
ACAD
1000
DSTYLE
1002
{
1070
   173
1070
     1
1070
     6
1000
_OPEN
1070
     7
1000
_OPEN
1070
    41
1040
2.000000
1070
   287
1070
     0
1002
}
  0
MTEXT
  5
210
100
AcDbEntity
  8
MAIN0
  6
CONTINUOUS
 62
3
100
AcDbMText
 10
140.0872072540406
 20
182.1033899804311
 30
0.0000000000000000
 40
3.000000000000000
 41
0.0000000000000000
 71
     1
 72
     1
  1
{\H0.63x;{COVER SURFACE}}
 11
1.000000000000000
 21
0.0000000000000000
 31
0.0000000000000000
  7
STANDARD
  0
MTEXT
  5
211
100
AcDbEntity
  8
MAIN0
  6
CONTINUOUS
 62
3
100
AcDbMText
 10
152.5427484972709
 20
125.6708595145576
 30
0.0000000000000000
 40
3.000000000000000
 41
0.0000000000000000
 71
     1
 72
     1
  1
{\H0.63x;{BODY SURFACE}}
 11
1.000000000000000
 21
0.0000000000000000
 31
0.0000000000000000
  7
STANDARD
  0
LEADER
  5
212
100
AcDbEntity
  8
MAIN0
  6
CONTINUOUS
 62
3
100
AcDbLeader
  3
MAIN001
 73
     0
 74
     0
 75
     1
 40
3.099999904632568
 41
17.02100039815903
 76
     3
 10
134.8334653675134
 20
179.5686645086701
 30
0.0000000000000000
 10
138.2472172464363
 20
182.6053881538214
 30
0.0000000000000000
 10
140.1722171906463
 20
182.6053881538214
 30
0.0000000000000000
340
213
213
-0.001000000000004775
223
-0.5000000000000000
233
0.0000000000000000
1001
ACAD
1000
DSTYLE
1002
{
1070
   147
1040
0.0
1070
    77
1070
     1
1070
   173
1070
     1
1070
     6
1000
_OPEN
1070
     7
1000
_OPEN
1002
}
  0
MTEXT
  5
213
102
{ACAD_REACTORS
330
212
102
}
100
AcDbEntity
  8
MAIN0
  6
CONTINUOUS
 62
3
100
AcDbMText
 10
140.1732171906463
 20
186.2053880584540
 30
0.0000000000000000
 40
3.099999904632568
 41
0.0000000000000000
 71
     1
 72
     1
  1
{\H0.93x;{カバー端面}}
 11
1.000000000000000
 21
0.0000000000000000
 31
0.0000000000000000
  7
KNJYOKO
  0
LEADER
  5
214
100
AcDbEntity
  8
MAIN0
  6
CONTINUOUS
 62
3
100
AcDbLeader
  3
MAIN001
 73
     0
 74
     0
 75
     1
 40
3.099999904632568
 41
17.02100039815903
 76
     3
 10
133.8334653675134
 20
143.0030693010653
 30
0.0000000000000000
 10
151.3891472042405
 20
126.8526621486633
 30
0.0000000000000000
 10
153.3141471484506
 20
126.8526621486633
 30
0.0000000000000000
340
215
213
-0.001000000000004775
223
-0.5000000000000000
233
0.0000000000000000
1001
ACAD
1000
DSTYLE
1002
{
1070
   147
1040
0.0
1070
    77
1070
     1
1070
   173
1070
     1
1070
     6
1000
_OPEN
1070
     7
1000
_OPEN
1002
}
  0
MTEXT
  5
215
102
{ACAD_REACTORS
330
214
102
}
100
AcDbEntity
  8
MAIN0
  6
CONTINUOUS
 62
3
100
AcDbMText
 10
153.3151471484506
 20
130.4526620532959
 30
0.0000000000000000
 40
3.099999904632568
 41
0.0000000000000000
 71
     1
 72
     1
  1
{\H0.93x;{ボデー端面}}
 11
1.000000000000000
 21
0.0000000000000000
 31
0.0000000000000000
  7
KNJYOKO
  0
INSERT
  5
21D
100
AcDbEntity
  8
MAIN0
  6
CONTINUOUS
 62
3
100
AcDbBlockReference
  2
D38
 10
148.2385490752022
 20
189.3199068446478
 30
0.0000000000000000
 50
0.0000000000000000
  0
INSERT
  5
225
100
AcDbEntity
  8
MAIN0
  6
CONTINUOUS
 62
3
100
AcDbBlockReference
  2
D39
 10
148.2385490752022
 20
189.3199068446478
 30
0.0000000000000000
 50
0.0000000000000000
  0
ARC
  5
226
100
AcDbEntity
  8
MAIN0
  6
CONTINUOUS
 62
3
100
AcDbCircle
 10
261.8860391807509
 20
174.4942703352379
 30
0.0000000000000000
 40
5.249999999997083
100
AcDbArc
 50
299.9999999999691
 51
480.0000000000308
  0
LINE
  5
227
100
AcDbEntity
  8
MAIN0
  6
CENTER
 62
3
100
AcDbLine
 10
148.2385490752022
 20
189.3199068446478
 30
0.0000000000000000
 11
39.20118185018276
 21
189.3199068446479
 31
0.0000000000000000
  0
LINE
  5
228
100
AcDbEntity
  8
MAIN0
  6
CONTINUOUS
 62
3
100
AcDbLine
 10
43.83346536751289
 20
115.3199068445099
 30
0.0000000000000000
 11
58.83346536751287
 21
115.3199068445147
 31
0.0000000000000000
  0
LINE
  5
229
100
AcDbEntity
  8
MAIN0
  6
CONTINUOUS
 62
3
100
AcDbLine
 10
43.83346536751404
 20
263.3199068442935
 30
0.0000000000000000
 11
58.83346536751401
 21
263.3199068443058
 31
0.0000000000000000
  0
LINE
  5
22A
100
AcDbEntity
  8
MAIN0
  6
CONTINUOUS
 62
3
100
AcDbLine
 10
43.83346536751286
 20
115.3199068445100
 30
0.0000000000000000
 11
43.83346536751402
 21
263.3199068442935
 31
0.0000000000000000
  0
LINE
  5
22B
100
AcDbEntity
  8
MAIN0
  6
CENTER
 62
3
100
AcDbLine
 10
62.57526930162132
 20
254.3199068446479
 30
0.0000000000000000
 11
39.42267560519883
 21
254.3199068446479
 31
0.0000000000000000
  0
LINE
  5
22C
100
AcDbEntity
  8
MAIN0
  6
CENTER
 62
3
100
AcDbLine
 10
72.60198551653724
 20
238.0699068446480
 30
0.0000000000000000
 11
40.53580798622002
 21
238.0699068446480
 31
0.0000000000000000
  0
LINE
  5
22D
100
AcDbEntity
  8
MAIN0
  6
CONTINUOUS
 62
3
100
AcDbLine
 10
48.83346536751336
 20
179.3199068446480
 30
0.0000000000000000
 11
48.83346536751351
 21
199.3199068446480
 31
0.0000000000000000
  0
LINE
  5
22E
100
AcDbEntity
  8
MAIN0
  6
CONTINUOUS
 62
3
100
AcDbLine
 10
48.83346536751353
 20
199.3199068446479
 30
0.0000000000000000
 11
43.83346536751350
 21
199.3199068446479
 31
0.0000000000000000
  0
LINE
  5
22F
100
AcDbEntity
  8
MAIN0
  6
CONTINUOUS
 62
3
100
AcDbLine
 10
48.83346536751336
 20
179.3199068446479
 30
0.0000000000000000
 11
43.83346536751336
 21
179.3199068446479
 31
0.0000000000000000
  0
LINE
  5
230
100
AcDbEntity
  8
MAIN0
  6
CENTER
 62
3
100
AcDbLine
 10
51.33346536751310
 20
113.2808531988362
 30
0.0000000000000000
 11
51.33346536751310
 21
162.5032686208185
 31
0.0000000000000000
  0
LINE
  5
231
100
AcDbEntity
  8
MAIN0
  6
HIDDEN
 62
3
100
AcDbLine
 10
58.83346536751400
 20
258.8199068446479
 30
0.0000000000000000
 11
43.83346536751400
 21
258.8199068446479
 31
0.0000000000000000
  0
LINE
  5
232
100
AcDbEntity
  8
MAIN0
  6
HIDDEN
 62
3
100
AcDbLine
 10
58.83346536751392
 20
249.8199068446479
 30
0.0000000000000000
 11
43.83346536751391
 21
249.8199068446479
 31
0.0000000000000000
  0
LINE
  5
233
100
AcDbEntity
  8
MAIN0
  6
CENTER
 62
3
100
AcDbLine
 10
56.99111308637301
 20
155.3199068446479
 30
0.0000000000000000
 11
40.22253806721371
 21
155.3199068446479
 31
0.0000000000000000
  0
LINE
  5
234
100
AcDbEntity
  8
MAIN0
  6
HIDDEN
 62
3
100
AcDbLine
 10
43.83346536751323
 20
159.5716568446480
 30
0.0000000000000000
 11
47.78997619511810
 21
159.4480158812854
 31
0.0000000000000000
  0
LINE
  5
235
100
AcDbEntity
  8
MAIN0
  6
HIDDEN
 62
3
100
AcDbLine
 10
43.83346536751313
 20
151.0681568446479
 30
0.0000000000000000
 11
47.58277110331203
 21
151.1853226488917
 31
0.0000000000000000
  0
LINE
  5
236
100
AcDbEntity
  8
MAIN0
  6
HIDDEN
 62
3
100
AcDbLine
 10
43.83346536751319
 20
160.1526568446479
 30
0.0000000000000000
 11
47.78726133791646
 21
160.0291007205728
 31
0.0000000000000000
  0
LINE
  5
237
100
AcDbEntity
  8
MAIN0
  6
HIDDEN
 62
3
100
AcDbLine
 10
43.83346536751313
 20
150.4871568446478
 30
0.0000000000000000
 11
47.26957183308505
 21
150.5945351716970
 31
0.0000000000000000
  0
LINE
  5
238
100
AcDbEntity
  8
MAIN0
  6
CONTINUOUS
 62
3
100
AcDbLine
 10
58.83346536751343
 20
113.8199068446565
 30
0.0000000000000000
 11
58.83346536751402
 21
263.3199068443058
 31
0.0000000000000000
  0
LINE
  5
239
100
AcDbEntity
  8
MAIN0
  6
CENTER
 62
3
100
AcDbLine
 10
287.5647948695970
 20
189.3199068446480
 30
0.0000000000000000
 11
211.2625018281462
 21
189.3199068446480
 31
0.0000000000000000
  0
LINE
  5
23A
100
AcDbEntity
  8
MAIN0
  6
CENTER
 62
3
100
AcDbLine
 10
287.5647948695970
 20
272.9475024242873
 30
0.0000000000000000
 11
287.5647948695970
 21
189.3199068446479
 31
0.0000000000000000
  0
LINE
  5
23B
100
AcDbEntity
  8
MAIN0
  6
CENTER
 62
3
100
AcDbLine
 10
252.3647948695971
 20
250.2880952710725
 30
0.0000000000000000
 11
257.7647948695970
 21
240.9350209102007
 31
0.0000000000000000
  0
LINE
  5
23C
100
AcDbEntity
  8
MAIN0
  6
CENTER
 62
3
100
AcDbLine
 10
323.0647948695970
 20
250.8077105133432
 30
0.0000000000000000
 11
317.0647948695970
 21
240.4154056679299
 31
0.0000000000000000
  0
LINE
  5
23D
100
AcDbEntity
  8
MAIN0
  6
CENTER
 62
3
100
AcDbLine
 10
252.0647948695971
 20
127.8321031759529
 30
0.0000000000000000
 11
258.0647948695971
 21
138.2244080213662
 31
0.0000000000000000
  0
LINE
  5
23E
100
AcDbEntity
  8
MAIN0
  6
CENTER
 62
3
100
AcDbLine
 10
323.0647948695970
 20
127.8321031759529
 30
0.0000000000000000
 11
317.0647948695971
 21
138.2244080213661
 31
0.0000000000000000
  0
LINE
  5
23F
100
AcDbEntity
  8
MAIN0
  6
CENTER
 62
3
100
AcDbLine
 10
271.0647948695970
 20
166.4559738522586
 30
0.0000000000000000
 11
271.0647948695970
 21
152.7279738522585
 31
0.0000000000000000
  0
LINE
  5
240
100
AcDbEntity
  8
MAIN0
  6
CENTER
 62
3
100
AcDbLine
 10
267.7337360460676
 20
153.5904287916773
 30
0.0000000000000000
 11
274.3958536931265
 21
165.5935189128397
 31
0.0000000000000000
  0
ARC
  5
241
100
AcDbEntity
  8
MAIN0
  6
CENTER
 62
3
100
AcDbCircle
 10
287.5647948695970
 20
189.3199068446480
 30
0.0000000000000000
 40
33.99999999999998
100
AcDbArc
 50
229.3942434356471
 51
313.0128098246902
  0
LINE
  5
242
100
AcDbEntity
  8
MAIN0
  6
CENTER
 62
3
100
AcDbLine
 10
307.3958536931265
 20
153.5904287916774
 30
0.0000000000000000
 11
300.7337360460676
 21
165.5935189128398
 31
0.0000000000000000
  0
LINE
  5
243
100
AcDbEntity
  8
MAIN0
  6
CENTER
 62
3
100
AcDbLine
 10
304.0647948695970
 20
166.4559738522586
 30
0.0000000000000000
 11
304.0647948695970
 21
152.7279738522585
 31
0.0000000000000000
  0
CIRCLE
  5
244
100
AcDbEntity
  8
MAIN0
  6
CONTINUOUS
 62
3
100
AcDbCircle
 10
241.6028540924715
 20
235.2818476217736
 30
0.0000000000000000
 40
4.500000000000000
  0
CIRCLE
  5
245
100
AcDbEntity
  8
MAIN0
  6
CONTINUOUS
 62
3
100
AcDbCircle
 10
333.5267356467226
 20
235.2818476217736
 30
0.0000000000000000
 40
4.500000000000000
  0
CIRCLE
  5
246
100
AcDbEntity
  8
MAIN0
  6
CONTINUOUS
 62
3
100
AcDbCircle
 10
241.6028540924714
 20
143.3579660675225
 30
0.0000000000000000
 40
4.500000000000000
  0
CIRCLE
  5
247
100
AcDbEntity
  8
MAIN0
  6
CONTINUOUS
 62
3
100
AcDbCircle
 10
333.5267356467226
 20
143.3579660675225
 30
0.0000000000000000
 40
4.500000000000000
  0
CIRCLE
  5
248
100
AcDbEntity
  8
MAIN0
  6
CONTINUOUS
 62
3
100
AcDbCircle
 10
343.8564461155854
 20
156.8199068446479
 30
0.0000000000000000
 40
5.000000000000000
  0
CIRCLE
  5
249
100
AcDbEntity
  8
MAIN0
  6
CONTINUOUS
 62
3
100
AcDbCircle
 10
231.2731436236085
 20
221.8199068446481
 30
0.0000000000000000
 40
5.000000000000000
  0
LINE
  5
24A
100
AcDbEntity
  8
MAIN0
  6
CENTER
 62
3
100
AcDbLine
 10
247.9850526482846
 20
149.7401646233357
 30
0.0000000000000000
 11
231.2397676007284
 21
132.9948795757795
 31
0.0000000000000000
  0
LINE
  5
24B
100
AcDbEntity
  8
MAIN0
  6
CENTER
 62
3
100
AcDbLine
 10
341.3049102397745
 20
243.0600222148256
 30
0.0000000000000000
 11
324.4582303468258
 21
226.2133423218768
 31
0.0000000000000000
  0
LINE
  5
24C
100
AcDbEntity
  8
MAIN0
  6
CENTER
 62
3
100
AcDbLine
 10
233.8246794994195
 20
243.0600222148256
 30
0.0000000000000000
 11
250.0782023909046
 21
226.8064993233405
 31
0.0000000000000000
  0
LINE
  5
24D
100
AcDbEntity
  8
MAIN0
  6
CENTER
 62
3
100
AcDbLine
 10
326.5736840092811
 20
150.3110177049640
 30
0.0000000000000000
 11
345.9829791399686
 21
130.9017225742765
 31
0.0000000000000000
  0
ARC
  5
24E
100
AcDbEntity
  8
MAIN0
  6
HIDDEN
 62
3
100
AcDbCircle
 10
287.5647948695970
 20
189.3199068446480
 30
0.0000000000000000
 40
74.00000000000000
100
AcDbArc
 50
237.2795566335884
 51
302.7204433663400
  0
ARC
  5
24F
100
AcDbEntity
  8
MAIN0
  6
CENTER
 62
3
100
AcDbCircle
 10
287.5647948695970
 20
189.3199068446480
 30
0.0000000000000000
 40
65.00000000000001
100
AcDbArc
 50
111.0710066696438
 51
187.6676541446061
  0
ARC
  5
250
100
AcDbEntity
  8
MAIN0
  6
CENTER
 62
3
100
AcDbCircle
 10
287.5647948695970
 20
189.3199068446480
 30
0.0000000000000000
 40
65.00000000000001
100
AcDbArc
 50
215.4154698930936
 51
245.2384758464259
  0
ARC
  5
251
100
AcDbEntity
  8
MAIN0
  6
CENTER
 62
3
100
AcDbCircle
 10
287.5647948695970
 20
189.3199068446480
 30
0.0000000000000000
 40
65.00000000000001
100
AcDbArc
 50
294.9809663298596
 51
369.6089713317402
  0
ARC
  5
252
100
AcDbEntity
  8
MAIN0
  6
CENTER
 62
3
100
AcDbCircle
 10
287.5647948695970
 20
189.3199068446480
 30
0.0000000000000000
 40
65.00000000000001
100
AcDbArc
 50
35.96883265060104
 51
66.81248748422276
  0
ARC
  5
253
100
AcDbEntity
  8
MAIN0
  6
CONTINUOUS
 62
3
100
AcDbCircle
 10
287.5647948695970
 20
189.3199068446480
 30
0.0000000000000000
 40
74.00000000000000
100
AcDbArc
 50
302.7204433663400
 51
540.0000000000000
  0
ARC
  5
254
100
AcDbEntity
  8
MAIN0
  6
CONTINUOUS
 62
3
100
AcDbCircle
 10
287.5647948695970
 20
189.3199068446480
 30
0.0000000000000000
 40
74.00000000000000
100
AcDbArc
 50
180.0000000000000
 51
237.2795566335884
  0
LINE
  5
255
100
AcDbEntity
  8
MAIN0
  6
CENTER
 62
3
100
AcDbLine
 10
321.7606738713213
 20
126.3199068446479
 30
0.0000000000000000
 11
254.0899683459463
 21
126.3199068446480
 31
0.0000000000000000
  0
LINE
  5
256
100
AcDbEntity
  8
MAIN0
  6
CONTINUOUS
 62
3
100
AcDbLine
 10
327.5647948695604
 20
133.8199068446479
 30
0.0000000000000000
 11
247.5647948695604
 21
133.8199068446481
 31
0.0000000000000000
  0
LINE
  5
257
100
AcDbEntity
  8
MAIN0
  6
CONTINUOUS
 62
3
100
AcDbLine
 10
327.5647948695537
 20
113.8199068446479
 30
0.0000000000000000
 11
247.5647948695537
 21
113.8199068446480
 31
0.0000000000000000
  0
LINE
  5
258
100
AcDbEntity
  8
MAIN0
  6
CONTINUOUS
 62
3
100
AcDbLine
 10
327.5647948695536
 20
113.8199068446479
 30
0.0000000000000000
 11
327.5647948695604
 21
133.8199068446479
 31
0.0000000000000000
  0
LINE
  5
259
100
AcDbEntity
  8
MAIN0
  6
CONTINUOUS
 62
3
100
AcDbLine
 10
247.5647948695537
 20
113.8199068446481
 30
0.0000000000000000
 11
247.5647948695604
 21
133.8199068446480
 31
0.0000000000000000
  0
LINE
  5
25A
100
AcDbEntity
  8
MAIN0
  6
CENTER
 62
3
100
AcDbLine
 10
287.5647948695970
 20
106.0267927365601
 30
0.0000000000000000
 11
287.5647948695971
 21
189.3199068446480
 31
0.0000000000000000
  0
CIRCLE
  5
25B
100
AcDbEntity
  8
MAIN0
  6
CONTINUOUS
 62
3
100
AcDbCircle
 10
298.5647948695971
 20
126.3199068446479
 30
0.0000000000000000
 40
5.500000000000000
  0
LINE
  5
25C
100
AcDbEntity
  8
MAIN0
  6
CENTER
 62
3
100
AcDbLine
 10
298.5647948695971
 20
133.8199068446480
 30
0.0000000000000000
 11
298.5647948695971
 21
118.8199068446480
 31
0.0000000000000000
  0
LINE
  5
25D
100
AcDbEntity
  8
MAIN0
  6
CENTER
 62
3
100
AcDbLine
 10
311.0647948695971
 20
136.4114705551120
 30
0.0000000000000000
 11
311.0647948695971
 21
107.8078344860302
 31
0.0000000000000000
  0
LINE
  5
25E
100
AcDbEntity
  8
MAIN0
  6
HIDDEN
 62
3
100
AcDbLine
 10
317.6432948695971
 20
113.8199068446479
 30
0.0000000000000000
 11
317.3495448695971
 21
123.2199068446479
 31
0.0000000000000000
  0
LINE
  5
25F
100
AcDbEntity
  8
MAIN0
  6
HIDDEN
 62
3
100
AcDbLine
 10
304.7800448695971
 20
123.2199068446479
 30
0.0000000000000000
 11
304.4862948695970
 21
113.8199068446479
 31
0.0000000000000000
  0
LINE
  5
260
100
AcDbEntity
  8
MAIN0
  6
HIDDEN
 62
3
100
AcDbLine
 10
316.7872948695971
 20
113.8199068446479
 30
0.0000000000000000
 11
316.4935448695971
 21
123.2199068446479
 31
0.0000000000000000
  0
LINE
  5
261
100
AcDbEntity
  8
MAIN0
  6
HIDDEN
 62
3
100
AcDbLine
 10
305.3422948695970
 20
113.8199068446479
 30
0.0000000000000000
 11
305.6360448695971
 21
123.2199068446479
 31
0.0000000000000000
  0
CIRCLE
  5
262
100
AcDbEntity
  8
MAIN0
  6
CONTINUOUS
 62
3
100
AcDbCircle
 10
276.5647948695971
 20
126.3199068446480
 30
0.0000000000000000
 40
5.500000000000000
  0
LINE
  5
263
100
AcDbEntity
  8
MAIN0
  6
CENTER
 62
3
100
AcDbLine
 10
276.5647948695971
 20
133.8199068446480
 30
0.0000000000000000
 11
276.5647948695970
 21
118.8199068446480
 31
0.0000000000000000
  0
LINE
  5
264
100
AcDbEntity
  8
MAIN0
  6
CENTER
 62
3
100
AcDbLine
 10
264.0647948695971
 20
136.4114705551120
 30
0.0000000000000000
 11
264.0647948695970
 21
107.8078344860303
 31
0.0000000000000000
  0
LINE
  5
265
100
AcDbEntity
  8
MAIN0
  6
HIDDEN
 62
3
100
AcDbLine
 10
257.4862948695970
 20
113.8199068446480
 30
0.0000000000000000
 11
257.7800448695970
 21
123.2199068446480
 31
0.0000000000000000
  0
LINE
  5
266
100
AcDbEntity
  8
MAIN0
  6
HIDDEN
 62
3
100
AcDbLine
 10
270.3495448695971
 20
123.2199068446479
 30
0.0000000000000000
 11
270.6432948695971
 21
113.8199068446479
 31
0.0000000000000000
  0
LINE
  5
267
100
AcDbEntity
  8
MAIN0
  6
HIDDEN
 62
3
100
AcDbLine
 10
258.3422948695970
 20
113.8199068446480
 30
0.0000000000000000
 11
258.6360448695970
 21
123.2199068446480
 31
0.0000000000000000
  0
LINE
  5
268
100
AcDbEntity
  8
MAIN0
  6
HIDDEN
 62
3
100
AcDbLine
 10
269.7872948695971
 20
113.8199068446479
 30
0.0000000000000000
 11
269.4935448695970
 21
123.2199068446480
 31
0.0000000000000000
  0
LINE
  5
269
100
AcDbEntity
  8
MAIN0
  6
CONTINUOUS
 62
3
100
AcDbLine
 10
88.83346536751341
 20
113.8199068446608
 30
0.0000000000000000
 11
88.83346536751344
 21
133.8199068446730
 31
0.0000000000000000
  0
LINE
  5
26A
100
AcDbEntity
  8
MAIN0
  6
CENTER
 62
3
100
AcDbLine
 10
45.85409439564188
 20
126.3199068446481
 30
0.0000000000000000
 11
91.22232118940259
 21
126.3199068446481
 31
0.0000000000000000
  0
LINE
  5
26B
100
AcDbEntity
  8
MAIN0
  6
CONTINUOUS
 62
3
100
AcDbLine
 10
58.83346536751341
 20
133.8199068446730
 30
0.0000000000000000
 11
88.83346536751338
 21
133.8199068446730
 31
0.0000000000000000
  0
LINE
  5
26C
100
AcDbEntity
  8
MAIN0
  6
CONTINUOUS
 62
3
100
AcDbLine
 10
58.83346536751340
 20
113.8199068446565
 30
0.0000000000000000
 11
88.83346536751338
 21
113.8199068446608
 31
0.0000000000000000
  0
LINE
  5
26D
100
AcDbEntity
  8
MAIN0
  6
CENTER
 62
3
100
AcDbLine
 10
73.83346536741586
 20
107.8078344860303
 30
0.0000000000000000
 11
73.83346536741588
 21
132.9476331014913
 31
0.0000000000000000
  0
LINE
  5
26E
100
AcDbEntity
  8
MAIN0
  6
HIDDEN
 62
3
100
AcDbLine
 10
67.25496536741582
 20
113.8199068446586
 30
0.0000000000000000
 11
67.54871536741582
 21
123.2199068446587
 31
0.0000000000000000
  0
LINE
  5
26F
100
AcDbEntity
  8
MAIN0
  6
HIDDEN
 62
3
100
AcDbLine
 10
80.11821536741584
 20
123.2199068446586
 30
0.0000000000000000
 11
80.41196536741583
 21
113.8199068446586
 31
0.0000000000000000
  0
LINE
  5
270
100
AcDbEntity
  8
MAIN0
  6
HIDDEN
 62
3
100
AcDbLine
 10
68.11096536741583
 20
113.8199068446586
 30
0.0000000000000000
 11
68.40471536741583
 21
123.2199068446587
 31
0.0000000000000000
  0
LINE
  5
271
100
AcDbEntity
  8
MAIN0
  6
HIDDEN
 62
3
100
AcDbLine
 10
79.55596536741582
 20
113.8199068446586
 30
0.0000000000000000
 11
79.26221536741582
 21
123.2199068446586
 31
0.0000000000000000
  0
LINE
  5
272
100
AcDbEntity
  8
MAIN0
  6
CONTINUOUS
 62
3
100
AcDbLine
 10
59.23346536751342
 20
134.3199068445820
 30
0.0000000000000000
 11
132.2334653675135
 21
134.3199068445367
 31
0.0000000000000000
  0
LINE
  5
273
100
AcDbEntity
  8
MAIN0
  6
CONTINUOUS
 62
3
100
AcDbLine
 10
58.83346536751344
 20
134.7199068445823
 30
0.0000000000000000
 11
59.23346536751345
 21
134.3199068445821
 31
0.0000000000000000
  0
LINE
  5
274
100
AcDbEntity
  8
MAIN0
  6
CONTINUOUS
 62
3
100
AcDbLine
 10
59.23346536751350
 20
244.3199068450911
 30
0.0000000000000000
 11
58.83346536751351
 21
243.9199068450906
 31
0.0000000000000000
  0
LINE
  5
275
100
AcDbEntity
  8
MAIN0
  6
CONTINUOUS
 62
3
100
AcDbLine
 10
133.8334653675134
 20
135.9199068445357
 30
0.0000000000000000
 11
132.2334653675134
 21
134.3199068445367
 31
0.0000000000000000
  0
LINE
  5
276
100
AcDbEntity
  8
MAIN0
  6
CONTINUOUS
 62
3
100
AcDbLine
 10
132.2334653675135
 20
244.3199068451751
 30
0.0000000000000000
 11
133.8334653675135
 21
242.7199068451769
 31
0.0000000000000000
  0
LINE
  5
277
100
AcDbEntity
  8
MAIN0
  6
CONTINUOUS
 62
3
100
AcDbLine
 10
133.8334653675134
 20
135.9199068445357
 30
0.0000000000000000
 11
133.8334653675135
 21
212.2199068446480
 31
0.0000000000000000
  0
LINE
  5
278
100
AcDbEntity
  8
MAIN0
  6
CONTINUOUS
 62
3
100
AcDbLine
 10
59.23346536751353
 20
244.3199068450911
 30
0.0000000000000000
 11
104.7334653675136
 21
244.3199068451434
 31
0.0000000000000000
  0
LINE
  5
279
100
AcDbEntity
  8
MAIN0
  6
CONTINUOUS
 62
3
100
AcDbLine
 10
104.7334653675136
 20
244.3199068451434
 30
0.0000000000000000
 11
132.2334653675136
 21
244.3199068451751
 31
0.0000000000000000
  0
LINE
  5
27A
100
AcDbEntity
  8
MAIN0
  6
CONTINUOUS
 62
3
100
AcDbLine
 10
104.7334653675136
 20
244.8211798634724
 30
0.0000000000000000
 11
104.7334653675136
 21
244.3199068451434
 31
0.0000000000000000
  0
LINE
  5
27B
100
AcDbEntity
  8
MAIN0
  6
CONTINUOUS
 62
3
100
AcDbLine
 10
134.3334653675135
 20
222.3211798634724
 30
0.0000000000000000
 11
135.8844272618336
 21
222.3211798634724
 31
0.0000000000000000
  0
ARC
  5
27C
100
AcDbEntity
  8
MAIN0
  6
CONTINUOUS
 62
3
100
AcDbCircle
 10
134.3334653675135
 20
221.9211798634724
 30
0.0000000000000000
 40
0.4000000000000000
100
AcDbArc
 50
90.00000000000000
 51
180.0000000000000
  0
LINE
  5
27D
100
AcDbEntity
  8
MAIN0
  6
CONTINUOUS
 62
3
100
AcDbLine
 10
104.7334653675135
 20
244.8211798634724
 30
0.0000000000000000
 11
135.8844272618365
 21
244.8211798634724
 31
0.0000000000000000
  0
LINE
  5
27E
100
AcDbEntity
  8
MAIN0
  6
PHANTOM
 62
3
100
AcDbLine
 10
136.8334653675134
 20
244.2155174307548
 30
0.0000000000000000
 11
135.9344272618365
 21
244.7345773230791
 31
0.0000000000000000
  0
ARC
  5
27F
100
AcDbEntity
  8
MAIN0
  6
CONTINUOUS
 62
3
100
AcDbCircle
 10
135.9844272618365
 20
244.8211798634575
 30
0.0000000000000000
 40
0.1000000000000000
100
AcDbArc
 50
180.0000000000000
 51
239.9999999999922
  0
LINE
  5
280
100
AcDbEntity
  8
MAIN0
  6
CONTINUOUS
 62
3
100
AcDbLine
 10
136.8334653675063
 20
208.2155174306908
 30
0.0000000000000000
 11
136.8334653675134
 21
244.2155174307547
 31
0.0000000000000000
  0
LINE
  5
281
100
AcDbEntity
  8
MAIN0
  6
PHANTOM
 62
3
100
AcDbLine
 10
136.8335116124303
 20
223.2154907312381
 30
0.0000000000000000
 11
135.9344272618342
 21
223.7345773230792
 31
0.0000000000000000
  0
LINE
  5
282
100
AcDbEntity
  8
MAIN0
  6
CONTINUOUS
 62
3
100
AcDbLine
 10
136.8335116124302
 20
222.9268689956769
 30
0.0000000000000000
 11
136.8335116124303
 21
223.2154907312379
 31
0.0000000000000000
  0
LINE
  5
283
100
AcDbEntity
  8
MAIN0
  6
PHANTOM
 62
3
100
AcDbLine
 10
136.8335116124302
 20
222.9268689956767
 30
0.0000000000000000
 11
135.9344272618338
 21
222.4077824038361
 31
0.0000000000000000
  0
ARC
  5
284
100
AcDbEntity
  8
MAIN0
  6
CONTINUOUS
 62
3
100
AcDbCircle
 10
135.9844272618336
 20
222.3211798634575
 30
0.0000000000000000
 40
0.1000000000000000
100
AcDbArc
 50
119.9999999999921
 51
180.0000000000000
  0
LINE
  5
285
100
AcDbEntity
  8
MAIN0
  6
CONTINUOUS
 62
3
100
AcDbLine
 10
161.0344272618123
 20
249.6711798634713
 30
0.0000000000000000
 11
161.0344272617985
 21
195.4711798634691
 31
0.0000000000000000
  0
LINE
  5
286
100
AcDbEntity
  8
MAIN0
  6
CONTINUOUS
 62
3
100
AcDbLine
 10
138.5344272617983
 20
195.0711798634518
 30
0.0000000000000000
 11
160.6344272617983
 21
195.0711798634688
 31
0.0000000000000000
  0
LINE
  5
287
100
AcDbEntity
  8
MAIN0
  6
CONTINUOUS
 62
3
100
AcDbLine
 10
136.9844272618124
 20
250.0711798634722
 30
0.0000000000000000
 11
160.6344272618124
 21
250.0711798634714
 31
0.0000000000000000
  0
LINE
  5
288
100
AcDbEntity
  8
MAIN0
  6
CENTER
 62
3
100
AcDbLine
 10
167.5041971445932
 20
237.0711798634872
 30
0.0000000000000000
 11
120.2392365690459
 21
237.0711798634872
 31
0.0000000000000000
  0
LINE
  5
289
100
AcDbEntity
  8
MAIN0
  6
CENTER
 62
3
100
AcDbLine
 10
167.5041971445932
 20
223.0711798634871
 30
0.0000000000000000
 11
120.3686967907568
 21
223.0711798634871
 31
0.0000000000000000
  0
LINE
  5
28A
100
AcDbEntity
  8
MAIN0
  6
CONTINUOUS
 62
3
100
AcDbLine
 10
136.9843161815385
 20
208.0711798634507
 30
0.0000000000000000
 11
138.5344272618016
 21
208.0711798634519
 31
0.0000000000000000
  0
LINE
  5
28B
100
AcDbEntity
  8
MAIN0
  6
CONTINUOUS
 62
3
100
AcDbLine
 10
138.5344272618016
 20
208.0711798634518
 30
0.0000000000000000
 11
138.5344272617983
 21
195.0711798634492
 31
0.0000000000000000
  0
LINE
  5
28C
100
AcDbEntity
  8
MAIN0
  6
HIDDEN
 62
3
100
AcDbLine
 10
145.0344272618072
 20
229.8211798634703
 30
0.0000000000000000
 11
145.0344272618037
 21
216.3211798635041
 31
0.0000000000000000
  0
LINE
  5
28D
100
AcDbEntity
  8
MAIN0
  6
HIDDEN
 62
3
100
AcDbLine
 10
145.0344272618037
 20
216.3211798635041
 30
0.0000000000000000
 11
161.0344272618037
 21
216.3211798635002
 31
0.0000000000000000
  0
LINE
  5
28E
100
AcDbEntity
  8
MAIN0
  6
HIDDEN
 62
3
100
AcDbLine
 10
145.0344272618038
 20
229.8211798634702
 30
0.0000000000000000
 11
161.0344272618038
 21
229.8211798634742
 31
0.0000000000000000
  0
LINE
  5
28F
100
AcDbEntity
  8
MAIN0
  6
HIDDEN
 62
3
100
AcDbLine
 10
145.0344272618107
 20
243.8211798634703
 30
0.0000000000000000
 11
145.0344272618073
 21
230.3211798635041
 31
0.0000000000000000
  0
LINE
  5
290
100
AcDbEntity
  8
MAIN0
  6
HIDDEN
 62
3
100
AcDbLine
 10
145.0344272618073
 20
230.3211798635041
 30
0.0000000000000000
 11
161.0344272618073
 21
230.3211798635002
 31
0.0000000000000000
  0
LINE
  5
291
100
AcDbEntity
  8
MAIN0
  6
HIDDEN
 62
3
100
AcDbLine
 10
145.0344272618073
 20
243.8211798634702
 30
0.0000000000000000
 11
161.0344272618073
 21
243.8211798634742
 31
0.0000000000000000
  0
LINE
  5
292
100
AcDbEntity
  8
MAIN0
  6
CONTINUOUS
 62
3
100
AcDbLine
 10
161.0344272618123
 20
249.6711798634714
 30
0.0000000000000000
 11
160.6344272618125
 21
250.0711798634714
 31
0.0000000000000000
  0
LINE
  5
293
100
AcDbEntity
  8
MAIN0
  6
CONTINUOUS
 62
3
100
AcDbLine
 10
161.0344272617985
 20
195.4711798634692
 30
0.0000000000000000
 11
160.6344272617984
 21
195.0711798634688
 31
0.0000000000000000
  0
LINE
  5
294
100
AcDbEntity
  8
MAIN0
  6
CONTINUOUS
 62
3
100
AcDbLine
 10
136.0344272618122
 20
249.4655174307698
 30
0.0000000000000000
 11
136.0344272618121
 21
249.1769490942425
 31
0.0000000000000000
  0
LINE
  5
295
100
AcDbEntity
  8
MAIN0
  6
CONTINUOUS
 62
3
100
AcDbLine
 10
136.0344272618118
 20
247.9655174307696
 30
0.0000000000000000
 11
136.0344272618117
 21
247.6768422961749
 31
0.0000000000000000
  0
LINE
  5
296
100
AcDbEntity
  8
MAIN0
  6
CONTINUOUS
 62
3
100
AcDbLine
 10
136.0344272618118
 20
247.9655174307696
 30
0.0000000000000000
 11
136.9334653674886
 21
248.4845773230938
 31
0.0000000000000000
  0
LINE
  5
297
100
AcDbEntity
  8
MAIN0
  6
CONTINUOUS
 62
3
100
AcDbLine
 10
136.0343810168924
 20
249.1768689956917
 30
0.0000000000000000
 11
136.9334653674887
 21
248.6577824038508
 31
0.0000000000000000
  0
LINE
  5
298
100
AcDbEntity
  8
MAIN0
  6
CONTINUOUS
 62
3
100
AcDbLine
 10
136.0344272618117
 20
247.6768422961748
 30
0.0000000000000000
 11
136.9334653674887
 21
247.1577824038505
 31
0.0000000000000000
  0
LINE
  5
299
100
AcDbEntity
  8
MAIN0
  6
CONTINUOUS
 62
3
100
AcDbLine
 10
136.0343810168922
 20
246.4654907312526
 30
0.0000000000000000
 11
136.9334653674887
 21
246.9845773230936
 31
0.0000000000000000
  0
ARC
  5
29A
100
AcDbEntity
  8
MAIN0
  6
CONTINUOUS
 62
3
100
AcDbCircle
 10
136.8834653674886
 20
248.5711798634723
 30
0.0000000000000000
 40
0.1000000000000000
100
AcDbArc
 50
300.0000000000005
 51
420.0000000000004
  0
ARC
  5
29B
100
AcDbEntity
  8
MAIN0
  6
CONTINUOUS
 62
3
100
AcDbCircle
 10
136.8834653674887
 20
247.0711798634721
 30
0.0000000000000000
 40
0.1000000000000000
100
AcDbArc
 50
300.0000000000001
 51
419.9999999999999
  0
ARC
  5
29C
100
AcDbEntity
  8
MAIN0
  6
CONTINUOUS
 62
3
100
AcDbCircle
 10
136.8834653674887
 20
250.0711798634720
 30
0.0000000000000000
 40
0.1000000000000000
100
AcDbArc
 50
299.9999999999959
 51
360.0000000000000
  0
LINE
  5
29D
100
AcDbEntity
  8
MAIN0
  6
CONTINUOUS
 62
3
100
AcDbLine
 10
136.0343810168924
 20
249.4654907312527
 30
0.0000000000000000
 11
136.9334653674887
 21
249.9845773230936
 31
0.0000000000000000
  0
LINE
  5
29E
100
AcDbEntity
  8
MAIN0
  6
CONTINUOUS
 62
3
100
AcDbLine
 10
136.0344272618114
 20
246.4655174307691
 30
0.0000000000000000
 11
136.0344272618114
 21
246.1768422961751
 31
0.0000000000000000
  0
LINE
  5
29F
100
AcDbEntity
  8
MAIN0
  6
CONTINUOUS
 62
3
100
AcDbLine
 10
136.0343810168922
 20
246.1768689956919
 30
0.0000000000000000
 11
136.9334653674881
 21
245.6577824038500
 31
0.0000000000000000
  0
ARC
  5
2A0
100
AcDbEntity
  8
MAIN0
  6
CONTINUOUS
 62
3
100
AcDbCircle
 10
136.8834653674880
 20
245.5711798634717
 30
0.0000000000000000
 40
0.1000000000000000
100
AcDbArc
 50
299.9999999999499
 51
419.9999999999498
  0
LINE
  5
2A1
100
AcDbEntity
  8
MAIN0
  6
CONTINUOUS
 62
3
100
AcDbLine
 10
136.0344272618106
 20
244.9655174307696
 30
0.0000000000000000
 11
136.9334653674880
 21
245.4845773230931
 31
0.0000000000000000
  0
LINE
  5
2A2
100
AcDbEntity
  8
MAIN0
  6
CONTINUOUS
 62
3
100
AcDbLine
 10
136.0344272618104
 20
244.6768422961748
 30
0.0000000000000000
 11
136.0344272618106
 21
244.9655174307696
 31
0.0000000000000000
  0
LINE
  5
2A3
100
AcDbEntity
  8
MAIN0
  6
CONTINUOUS
 62
3
100
AcDbLine
 10
136.0344272618095
 20
243.1768422961747
 30
0.0000000000000000
 11
136.0344272618096
 21
243.4654106327020
 31
0.0000000000000000
  0
LINE
  5
2A4
100
AcDbEntity
  8
MAIN0
  6
CONTINUOUS
 62
3
100
AcDbLine
 10
136.0344272618108
 20
244.6768422961749
 30
0.0000000000000000
 11
136.0344272617754
 21
208.6768422961332
 31
0.0000000000000000
  0
LINE
  5
2A5
100
AcDbEntity
  8
MAIN0
  6
PHANTOM
 62
3
100
AcDbLine
 10
136.0343810167926
 20
210.1768689956915
 30
0.0000000000000000
 11
136.9334653673862
 21
209.6577824038455
 31
0.0000000000000000
  0
ARC
  5
2A6
100
AcDbEntity
  8
MAIN0
  6
PHANTOM
 62
3
100
AcDbCircle
 10
136.8834653673856
 20
209.5711798634674
 30
0.0000000000000000
 40
0.1000000000000000
100
AcDbArc
 50
299.9999999996844
 51
419.9999999996842
  0
LINE
  5
2A7
100
AcDbEntity
  8
MAIN0
  6
PHANTOM
 62
3
100
AcDbLine
 10
136.0344272617054
 20
208.9655174307692
 30
0.0000000000000000
 11
136.9334653673852
 21
209.4845773230886
 31
0.0000000000000000
  0
LINE
  5
2A8
100
AcDbEntity
  8
MAIN0
  6
CONTINUOUS
 62
3
100
AcDbLine
 10
136.0344272617039
 20
208.6768422961744
 30
0.0000000000000000
 11
136.9334653673778
 21
208.1577824038453
 31
0.0000000000000000
  0
ARC
  5
2A9
100
AcDbEntity
  8
MAIN0
  6
CONTINUOUS
 62
3
100
AcDbCircle
 10
136.8834653673773
 20
208.0711798634672
 30
0.0000000000000000
 40
0.1000000000000000
100
AcDbArc
 50
0.0000000000000000
 51
59.99999999968386
  0
LINE
  5
2AA
100
AcDbEntity
  8
MAIN0
  6
PHANTOM
 62
3
100
AcDbLine
 10
136.0343810168899
 20
243.4654907312526
 30
0.0000000000000000
 11
136.8334653675133
 21
243.9268422961894
 31
0.0000000000000000
  0
LINE
  5
2AB
100
AcDbEntity
  8
MAIN0
  6
PHANTOM
 62
3
100
AcDbLine
 10
136.0343810168897
 20
243.1768689956917
 30
0.0000000000000000
 11
136.8334653675133
 21
242.7155174307530
 31
0.0000000000000000
  0
LINE
  5
2AC
100
AcDbEntity
  8
MAIN0
  6
CONTINUOUS
 62
3
100
AcDbLine
 10
276.4647948695818
 20
250.0711798634875
 30
0.0000000000000000
 11
298.6647948695818
 21
250.0711798634867
 31
0.0000000000000000
  0
LINE
  5
2AD
100
AcDbEntity
  8
MAIN0
  6
CONTINUOUS
 62
3
100
AcDbLine
 10
286.0647948696123
 20
195.0711798634872
 30
0.0000000000000000
 11
289.0647948696123
 21
195.0711798634871
 31
0.0000000000000000
  0
LINE
  5
2AE
100
AcDbEntity
  8
MAIN0
  6
CONTINUOUS
 62
3
100
AcDbLine
 10
276.0647948695818
 20
249.6711798634875
 30
0.0000000000000000
 11
276.0647948695824
 21
200.8446825554006
 31
0.0000000000000000
  0
LINE
  5
2AF
100
AcDbEntity
  8
MAIN0
  6
CONTINUOUS
 62
3
100
AcDbLine
 10
299.0647948695818
 20
249.6711798634867
 30
0.0000000000000000
 11
299.0647948695824
 21
200.8446825553806
 31
0.0000000000000000
  0
CIRCLE
  5
2B0
100
AcDbEntity
  8
MAIN0
  6
CONTINUOUS
 62
3
100
AcDbCircle
 10
287.5647948695894
 20
237.0711798634871
 30
0.0000000000000000
 40
6.750000000000000
  0
CIRCLE
  5
2B1
100
AcDbEntity
  8
MAIN0
  6
CONTINUOUS
 62
3
100
AcDbCircle
 10
287.5647948695970
 20
223.0711798634871
 30
0.0000000000000000
 40
6.750000000000000
  0
LINE
  5
2B2
100
AcDbEntity
  8
MAIN0
  6
CENTER
 62
3
100
AcDbLine
 10
295.3147948695971
 20
223.0711798634871
 30
0.0000000000000000
 11
279.8147948695971
 21
223.0711798634871
 31
0.0000000000000000
  0
LINE
  5
2B3
100
AcDbEntity
  8
MAIN0
  6
CENTER
 62
3
100
AcDbLine
 10
295.3147948695894
 20
237.0711798634871
 30
0.0000000000000000
 11
279.8147948695894
 21
237.0711798634871
 31
0.0000000000000000
  0
LINE
  5
2B4
100
AcDbEntity
  8
MAIN0
  6
CONTINUOUS
 62
3
100
AcDbLine
 10
286.0647948696123
 20
195.0711798634871
 30
0.0000000000000000
 11
276.0647948695824
 21
200.8446825554007
 31
0.0000000000000000
  0
LINE
  5
2B5
100
AcDbEntity
  8
MAIN0
  6
CONTINUOUS
 62
3
100
AcDbLine
 10
289.0647948696183
 20
195.0711798634905
 30
0.0000000000000000
 11
299.0647948695825
 21
200.8446825553806
 31
0.0000000000000000
  0
LINE
  5
2B6
100
AcDbEntity
  8
MAIN0
  6
CONTINUOUS
 62
3
100
AcDbLine
 10
299.0647948695818
 20
249.6711798634867
 30
0.0000000000000000
 11
298.6647948695817
 21
250.0711798634867
 31
0.0000000000000000
  0
LINE
  5
2B7
100
AcDbEntity
  8
MAIN0
  6
CONTINUOUS
 62
3
100
AcDbLine
 10
276.4647948695818
 20
250.0711798634875
 30
0.0000000000000000
 11
276.0647948695818
 21
249.6711798634875
 31
0.0000000000000000
  0
LINE
  5
2B8
100
AcDbEntity
  8
MAIN0
  6
HIDDEN
 62
3
100
AcDbLine
 10
275.8147948695970
 20
244.8211798634724
 30
0.0000000000000000
 11
299.3147948695972
 21
244.8211798634724
 31
0.0000000000000000
  0
LINE
  5
2B9
100
AcDbEntity
  8
MAIN0
  6
CONTINUOUS
 62
3
100
AcDbLine
 10
270.4147948695970
 20
242.8557405984350
 30
0.0000000000000000
 11
270.4147948695970
 21
241.5777053057389
 31
0.0000000000000000
  0
LINE
  5
2BA
100
AcDbEntity
  8
MAIN0
  6
CONTINUOUS
 62
3
100
AcDbLine
 10
275.8147948695970
 20
244.8211798634724
 30
0.0000000000000000
 11
270.4147948695970
 21
242.8557405984350
 31
0.0000000000000000
  0
LINE
  5
2BB
100
AcDbEntity
  8
MAIN0
  6
CONTINUOUS
 62
3
100
AcDbLine
 10
304.7147948695971
 20
242.8557405984349
 30
0.0000000000000000
 11
304.7147948695971
 21
241.5777053057389
 31
0.0000000000000000
  0
LINE
  5
2BC
100
AcDbEntity
  8
MAIN0
  6
CONTINUOUS
 62
3
100
AcDbLine
 10
299.3147948695970
 20
244.8211798634724
 30
0.0000000000000000
 11
304.7147948695971
 21
242.8557405984350
 31
0.0000000000000000
  0
LINE
  5
2BD
100
AcDbEntity
  8
MAIN0
  6
HIDDEN
 62
3
100
AcDbLine
 10
276.0647948695970
 20
222.3211798634724
 30
0.0000000000000000
 11
282.5647948695970
 21
222.3211798634724
 31
0.0000000000000000
  0
LINE
  5
2BE
100
AcDbEntity
  8
MAIN0
  6
HIDDEN
 62
3
100
AcDbLine
 10
299.0647948695821
 20
222.3211798634724
 30
0.0000000000000000
 11
292.5647948695970
 21
222.3211798634724
 31
0.0000000000000000
  0
LINE
  5
2BF
100
AcDbEntity
  8
MAIN0
  6
CONTINUOUS
 62
3
100
AcDbLine
 10
341.5053072462748
 20
171.7450688297029
 30
0.0000000000000000
 11
329.7553072462747
 21
151.3934718407685
 31
0.0000000000000000
  0
LINE
  5
2C0
100
AcDbEntity
  8
MAIN0
  6
CONTINUOUS
 62
3
100
AcDbLine
 10
342.5031869131570
 20
177.4043256426577
 30
0.0000000000000000
 11
341.3963758827491
 21
178.0433432890057
 31
0.0000000000000000
  0
LINE
  5
2C1
100
AcDbEntity
  8
MAIN0
  6
CONTINUOUS
 62
3
100
AcDbLine
 10
341.5053072462749
 20
171.7450688297030
 30
0.0000000000000000
 11
342.5031869131570
 21
177.4043256426577
 31
0.0000000000000000
  0
LINE
  5
2C2
100
AcDbEntity
  8
MAIN0
  6
CONTINUOUS
 62
3
100
AcDbLine
 10
325.3531869131570
 20
147.6996542928514
 30
0.0000000000000000
 11
324.2463758827491
 21
148.3386719391994
 31
0.0000000000000000
  0
LINE
  5
2C3
100
AcDbEntity
  8
MAIN0
  6
CONTINUOUS
 62
3
100
AcDbLine
 10
329.7553072462748
 20
151.3934718407686
 30
0.0000000000000000
 11
325.3531869131570
 21
147.6996542928513
 31
0.0000000000000000
  0
LINE
  5
2C4
100
AcDbEntity
  8
MAIN0
  6
HIDDEN
 62
3
100
AcDbLine
 10
315.3995451327417
 20
186.5285624787568
 30
0.0000000000000000
 11
311.5270434682935
 21
179.8211928435375
 31
0.0000000000000000
  0
LINE
  5
2C5
100
AcDbEntity
  8
MAIN0
  6
HIDDEN
 62
3
100
AcDbLine
 10
307.7720467971902
 20
173.3173478269345
 30
0.0000000000000000
 11
303.8995451327417
 21
166.6099781917147
 31
0.0000000000000000
  0
LINE
  5
2C6
100
AcDbEntity
  8
MAIN0
  6
CONTINUOUS
 62
3
100
AcDbLine
 10
321.8947356611250
 20
182.7785624787568
 30
0.0000000000000000
 11
318.6447356611250
 21
177.1493973541580
 31
0.0000000000000000
  0
LINE
  5
2C7
100
AcDbEntity
  8
MAIN0
  6
CONTINUOUS
 62
3
100
AcDbLine
 10
310.3947356611250
 20
162.8599781917148
 30
0.0000000000000000
 11
313.6447356611250
 21
168.4891433163136
 31
0.0000000000000000
  0
LINE
  5
2C8
100
AcDbEntity
  8
MAIN0
  6
HIDDEN
 62
3
100
AcDbLine
 10
307.1495451327418
 20
172.2391433163137
 30
0.0000000000000000
 11
309.3572334951504
 21
170.9645338459901
 31
0.0000000000000000
  0
LINE
  5
2C9
100
AcDbEntity
  8
MAIN0
  6
CONTINUOUS
 62
3
100
AcDbLine
 10
309.3572334951504
 20
170.9645338459902
 30
0.0000000000000000
 11
333.1303072462748
 21
157.2391433163137
 31
0.0000000000000000
  0
LINE
  5
2CA
100
AcDbEntity
  8
MAIN0
  6
CONTINUOUS
 62
3
100
AcDbLine
 10
133.8334653675135
 20
158.8699068446480
 30
0.0000000000000000
 11
133.8334653675135
 21
242.7199068451769
 31
0.0000000000000000
  0
LINE
  5
2CB
100
AcDbEntity
  8
MAIN0
  6
CONTINUOUS
 62
3
100
AcDbLine
 10
299.0647948695970
 20
217.5148088661127
 30
0.0000000000000000
 11
299.0647948695970
 21
210.3199068446479
 31
0.0000000000000000
  0
CIRCLE
  5
2CC
100
AcDbEntity
  8
MAIN0
  6
CONTINUOUS
 62
3
100
AcDbCircle
 10
287.5647948695970
 20
162.8199068446479
 30
0.0000000000000000
 40
3.300000000000000
  0
ARC
  5
2CD
100
AcDbEntity
  8
MAIN0
  6
CENTER
 62
3
100
AcDbCircle
 10
287.5647948695970
 20
189.3199068446479
 30
0.0000000000000000
 40
26.50000000000000
100
AcDbArc
 50
256.6850942167348
 51
281.4637741196198
  0
CIRCLE
  5
2CE
100
AcDbEntity
  8
MAIN0
  6
CONTINUOUS
 62
3
100
AcDbCircle
 10
310.5144680698846
 20
202.5699068446479
 30
0.0000000000000000
 40
3.300000000000000
  0
ARC
  5
2CF
100
AcDbEntity
  8
MAIN0
  6
CENTER
 62
3
100
AcDbCircle
 10
287.5647948695970
 20
189.3199068446479
 30
0.0000000000000000
 40
26.50000000000000
100
AcDbArc
 50
18.53622588038016
 51
42.64673759355434
  0
LINE
  5
2D0
100
AcDbEntity
  8
MAIN0
  6
HIDDEN
 62
3
100
AcDbLine
 10
300.8673537528547
 20
168.3606147011269
 30
0.0000000000000000
 11
312.3673537528547
 21
188.2791989881690
 31
0.0000000000000000
  0
ARC
  5
2D1
100
AcDbEntity
  8
MAIN0
  6
CONTINUOUS
 62
3
100
AcDbCircle
 10
287.5647948695970
 20
189.3199068446479
 30
0.0000000000000000
 40
30.44999999999999
100
AcDbArc
 50
236.3178047344221
 51
303.6821952656324
  0
ARC
  5
2D2
100
AcDbEntity
  8
MAIN0
  6
CONTINUOUS
 62
3
100
AcDbCircle
 10
287.5647948695970
 20
189.3199068446479
 30
0.0000000000000000
 40
30.44999999999999
100
AcDbArc
 50
356.3178047344224
 51
423.6821952656323
  0
LINE
  5
2D3
100
AcDbEntity
  8
MAIN0
  6
CONTINUOUS
 62
3
100
AcDbLine
 10
276.0647948695969
 20
217.5148088661127
 30
0.0000000000000000
 11
276.0647948695969
 21
210.3199068446479
 31
0.0000000000000000
  0
CIRCLE
  5
2D4
100
AcDbEntity
  8
MAIN0
  6
CONTINUOUS
 62
3
100
AcDbCircle
 10
264.6151216693094
 20
202.5699068446479
 30
0.0000000000000000
 40
3.300000000000000
  0
ARC
  5
2D5
100
AcDbEntity
  8
MAIN0
  6
CENTER
 62
3
100
AcDbCircle
 10
287.5647948695970
 20
189.3199068446479
 30
0.0000000000000000
 40
26.50000000000000
100
AcDbArc
 50
138.0150675196707
 51
161.4637741196198
  0
LINE
  5
2D6
100
AcDbEntity
  8
MAIN0
  6
HIDDEN
 62
3
100
AcDbLine
 10
274.2622359863393
 20
168.3606147011270
 30
0.0000000000000000
 11
262.7622359863393
 21
188.2791989881690
 31
0.0000000000000000
  0
ARC
  5
2D7
100
AcDbEntity
  8
MAIN0
  6
CONTINUOUS
 62
3
100
AcDbCircle
 10
287.5647948695970
 20
189.3199068446479
 30
0.0000000000000000
 40
30.44999999999999
100
AcDbArc
 50
116.3178047344222
 51
183.6821952656320
  0
LINE
  5
2D8
100
AcDbEntity
  8
MAIN0
  6
CONTINUOUS
 62
3
100
AcDbLine
 10
312.8481022912692
 20
177.6093338446894
 30
0.0000000000000000
 11
310.3481022912697
 21
173.2792068257674
 31
0.0000000000000000
  0
LINE
  5
2D9
100
AcDbEntity
  8
MAIN0
  6
CENTER
 62
3
100
AcDbLine
 10
314.5942547139761
 20
168.6337585585768
 30
0.0000000000000000
 11
318.9942547139760
 21
176.2547821118800
 31
0.0000000000000000
  0
LINE
  5
2DA
100
AcDbEntity
  8
MAIN0
  6
CENTER
 62
3
100
AcDbLine
 10
326.7186103669583
 20
161.6337585585771
 30
0.0000000000000000
 11
331.1186103669583
 21
169.2547821118801
 31
0.0000000000000000
  0
CIRCLE
  5
2DB
100
AcDbEntity
  8
MAIN0
  6
CONTINUOUS
 62
3
100
AcDbCircle
 10
316.7942547139760
 20
172.4442703352284
 30
0.0000000000000000
 40
4.000000000000000
  0
CIRCLE
  5
2DC
100
AcDbEntity
  8
MAIN0
  6
CONTINUOUS
 62
3
100
AcDbCircle
 10
316.7942547139760
 20
172.4442703352284
 30
0.0000000000000000
 40
3.400000000000000
  0
CIRCLE
  5
2DD
100
AcDbEntity
  8
MAIN0
  6
CONTINUOUS
 62
3
100
AcDbCircle
 10
328.9186103669582
 20
165.4442703352286
 30
0.0000000000000000
 40
4.000000000000000
  0
CIRCLE
  5
2DE
100
AcDbEntity
  8
MAIN0
  6
CONTINUOUS
 62
3
100
AcDbCircle
 10
328.9186103669582
 20
165.4442703352286
 30
0.0000000000000000
 40
3.400000000000000
  0
LINE
  5
2DF
100
AcDbEntity
  8
MAIN0
  6
CONTINUOUS
 62
3
100
AcDbLine
 10
312.8481022912698
 20
177.6093338446896
 30
0.0000000000000000
 11
316.2631658007308
 21
178.5243973541507
 31
0.0000000000000000
  0
LINE
  5
2E0
100
AcDbEntity
  8
MAIN0
  6
CONTINUOUS
 62
3
100
AcDbLine
 10
310.3481022912697
 20
173.2792068257674
 30
0.0000000000000000
 11
311.2631658007309
 21
169.8641433163062
 31
0.0000000000000000
  0
LINE
  5
2E1
100
AcDbEntity
  8
MAIN0
  6
CONTINUOUS
 62
3
100
AcDbLine
 10
331.6147627896651
 20
158.1141433163061
 30
0.0000000000000000
 11
336.6147627896646
 21
166.7743973541510
 31
0.0000000000000000
  0
LINE
  5
2E2
100
AcDbEntity
  8
MAIN0
  6
HIDDEN
 62
3
100
AcDbLine
 10
312.1495451327417
 20
180.8993973541580
 30
0.0000000000000000
 11
314.3572334951504
 21
179.6247878838346
 31
0.0000000000000000
  0
LINE
  5
2E3
100
AcDbEntity
  8
MAIN0
  6
CONTINUOUS
 62
3
100
AcDbLine
 10
314.3572334951504
 20
179.6247878838346
 30
0.0000000000000000
 11
338.1303072462748
 21
165.8993973541580
 31
0.0000000000000000
  0
LINE
  5
2E4
100
AcDbEntity
  8
MAIN0
  6
CONTINUOUS
 62
3
100
AcDbLine
 10
301.0647948695835
 20
207.2211798634608
 30
0.0000000000000000
 11
301.0647948695844
 21
222.2211798634608
 31
0.0000000000000000
  0
LINE
  5
2E5
100
AcDbEntity
  8
MAIN0
  6
CONTINUOUS
 62
3
100
AcDbLine
 10
274.0647948695835
 20
207.2211798634750
 30
0.0000000000000000
 11
274.0647948695844
 21
222.2211798634751
 31
0.0000000000000000
  0
LINE
  5
2E6
100
AcDbEntity
  8
MAIN0
  6
CENTER
 62
3
100
AcDbLine
 10
283.2147948695970
 20
217.8211798634724
 30
0.0000000000000000
 11
274.9147948695970
 21
217.8211798634724
 31
0.0000000000000000
  0
LINE
  5
2E7
100
AcDbEntity
  8
MAIN0
  6
CENTER
 62
3
100
AcDbLine
 10
279.0647948695970
 20
221.3834106272271
 30
0.0000000000000000
 11
279.0647948695970
 21
213.6711798634724
 31
0.0000000000000000
  0
LINE
  5
2E8
100
AcDbEntity
  8
MAIN0
  6
CENTER
 62
3
100
AcDbLine
 10
291.9147948695971
 20
217.8211798634724
 30
0.0000000000000000
 11
300.2147948695971
 21
217.8211798634724
 31
0.0000000000000000
  0
LINE
  5
2E9
100
AcDbEntity
  8
MAIN0
  6
CENTER
 62
3
100
AcDbLine
 10
296.0647948695971
 20
221.3834106272271
 30
0.0000000000000000
 11
296.0647948695971
 21
213.6711798634724
 31
0.0000000000000000
  0
LINE
  5
2EA
100
AcDbEntity
  8
MAIN0
  6
CONTINUOUS
 62
3
100
AcDbLine
 10
274.0647948695835
 20
207.2211798634750
 30
0.0000000000000000
 11
276.0647948695824
 21
207.2211798634740
 31
0.0000000000000000
  0
LINE
  5
2EB
100
AcDbEntity
  8
MAIN0
  6
HIDDEN
 62
3
100
AcDbLine
 10
276.0647948695824
 20
207.2211798634739
 30
0.0000000000000000
 11
299.0647948695823
 21
207.2211798634618
 31
0.0000000000000000
  0
LINE
  5
2EC
100
AcDbEntity
  8
MAIN0
  6
CONTINUOUS
 62
3
100
AcDbLine
 10
299.0647948695823
 20
207.2211798634618
 30
0.0000000000000000
 11
301.0647948695835
 21
207.2211798634607
 31
0.0000000000000000
  0
LINE
  5
2ED
100
AcDbEntity
  8
MAIN0
  6
CONTINUOUS
 62
3
100
AcDbLine
 10
299.0647948695969
 20
222.2211798634619
 30
0.0000000000000000
 11
301.0647948695844
 21
222.2211798634608
 31
0.0000000000000000
  0
LINE
  5
2EE
100
AcDbEntity
  8
MAIN0
  6
CONTINUOUS
 62
3
100
AcDbLine
 10
274.0647948695844
 20
222.2211798634751
 30
0.0000000000000000
 11
276.0647948695822
 21
222.2211798634740
 31
0.0000000000000000
  0
LINE
  5
2EF
100
AcDbEntity
  8
MAIN0
  6
CONTINUOUS
 62
3
100
AcDbLine
 10
264.7814874479248
 20
173.2792068257676
 30
0.0000000000000000
 11
262.2814874479246
 21
177.6093338446893
 31
0.0000000000000000
  0
LINE
  5
2F0
100
AcDbEntity
  8
MAIN0
  6
CENTER
 62
3
100
AcDbLine
 10
256.1353350252180
 20
176.2547821118799
 30
0.0000000000000000
 11
260.5353350252181
 21
168.6337585585769
 31
0.0000000000000000
  0
LINE
  5
2F1
100
AcDbEntity
  8
MAIN0
  6
CENTER
 62
3
100
AcDbLine
 10
244.0109793722360
 20
169.2547821118797
 30
0.0000000000000000
 11
248.4109793722360
 21
161.6337585585767
 31
0.0000000000000000
  0
CIRCLE
  5
2F2
100
AcDbEntity
  8
MAIN0
  6
CONTINUOUS
 62
3
100
AcDbCircle
 10
258.3353350252180
 20
172.4442703352284
 30
0.0000000000000000
 40
4.000000000000000
  0
CIRCLE
  5
2F3
100
AcDbEntity
  8
MAIN0
  6
CONTINUOUS
 62
3
100
AcDbCircle
 10
258.3353350252180
 20
172.4442703352284
 30
0.0000000000000000
 40
3.400000000000000
  0
CIRCLE
  5
2F4
100
AcDbEntity
  8
MAIN0
  6
CONTINUOUS
 62
3
100
AcDbCircle
 10
246.2109793722360
 20
165.4442703352283
 30
0.0000000000000000
 40
4.000000000000000
  0
CIRCLE
  5
2F5
100
AcDbEntity
  8
MAIN0
  6
CONTINUOUS
 62
3
100
AcDbCircle
 10
246.2109793722360
 20
165.4442703352283
 30
0.0000000000000000
 40
3.400000000000000
  0
LINE
  5
2F6
100
AcDbEntity
  8
MAIN0
  6
CONTINUOUS
 62
3
100
AcDbLine
 10
264.7814874479246
 20
173.2792068257670
 30
0.0000000000000000
 11
263.8664239384635
 21
169.8641433163060
 31
0.0000000000000000
  0
LINE
  5
2F7
100
AcDbEntity
  8
MAIN0
  6
CONTINUOUS
 62
3
100
AcDbLine
 10
262.2814874479246
 20
177.6093338446893
 30
0.0000000000000000
 11
258.8664239384634
 21
178.5243973541503
 31
0.0000000000000000
  0
LINE
  5
2F8
100
AcDbEntity
  8
MAIN0
  6
CONTINUOUS
 62
3
100
AcDbLine
 10
238.5148269495290
 20
166.7743973541504
 30
0.0000000000000000
 11
243.5148269495297
 21
158.1141433163062
 31
0.0000000000000000
  0
LINE
  5
2F9
100
AcDbEntity
  8
MAIN0
  6
CONTINUOUS
 62
3
100
AcDbLine
 10
241.9992824929192
 20
157.2391433163136
 30
0.0000000000000000
 11
265.7723562440435
 21
170.9645338459900
 31
0.0000000000000000
  0
LINE
  5
2FA
100
AcDbEntity
  8
MAIN0
  6
CENTER
 62
3
100
AcDbLine
 10
373.2802429416119
 20
189.3199068446480
 30
0.0000000000000000
 11
287.5647948695970
 21
189.3199068446480
 31
0.0000000000000000
  0
CIRCLE
  5
2FB
100
AcDbEntity
  8
MAIN0
  6
CONTINUOUS
 62
3
100
AcDbCircle
 10
287.5647948695970
 20
146.3199068446480
 30
0.0000000000000000
 40
7.500000000000000
  0
LINE
  5
2FC
100
AcDbEntity
  8
MAIN0
  6
CENTER
 62
3
100
AcDbLine
 10
297.0647948695970
 20
146.3199068446480
 30
0.0000000000000000
 11
278.0647948695970
 21
146.3199068446480
 31
0.0000000000000000
  0
LINE
  5
2FD
100
AcDbEntity
  8
MAIN0
  6
CONTINUOUS
 62
3
100
AcDbLine
 10
299.0647948695970
 20
243.1041982316320
 30
0.0000000000000000
 11
299.0647948695970
 21
209.2384911316901
 31
0.0000000000000000
  0
ARC
  5
2FE
100
AcDbEntity
  8
MAIN0
  6
CONTINUOUS
 62
3
100
AcDbCircle
 10
287.5647948695970
 20
189.3199068446480
 30
0.0000000000000000
 40
55.00000000000000
100
AcDbArc
 50
222.0690825243510
 51
317.9309174756489
  0
LINE
  5
2FF
100
AcDbEntity
  8
MAIN0
  6
CONTINUOUS
 62
3
100
AcDbLine
 10
276.0647948695970
 20
243.1041982316320
 30
0.0000000000000000
 11
276.0647948695970
 21
209.2384911316901
 31
0.0000000000000000
  0
LINE
  5
300
100
AcDbEntity
  8
MAIN0
  6
HIDDEN
 62
3
100
AcDbLine
 10
312.3673537528547
 20
188.2791989881690
 30
0.0000000000000000
 11
321.8081331207478
 21
182.8285624787560
 31
0.0000000000000000
  0
LINE
  5
301
100
AcDbEntity
  8
MAIN0
  6
CONTINUOUS
 62
3
100
AcDbLine
 10
321.8081331207478
 20
182.8285624787560
 30
0.0000000000000000
 11
341.3803072462748
 21
171.5285624787568
 31
0.0000000000000000
  0
LINE
  5
302
100
AcDbEntity
  8
MAIN0
  6
HIDDEN
 62
3
100
AcDbLine
 10
300.8673537528547
 20
168.3606147011269
 30
0.0000000000000000
 11
310.3081331207374
 21
162.9099781917200
 31
0.0000000000000000
  0
LINE
  5
303
100
AcDbEntity
  8
MAIN0
  6
CONTINUOUS
 62
3
100
AcDbLine
 10
310.3081331207374
 20
162.9099781917200
 30
0.0000000000000000
 11
329.8803072462749
 21
151.6099781917147
 31
0.0000000000000000
  0
LINE
  5
304
100
AcDbEntity
  8
MAIN0
  6
CONTINUOUS
 62
3
100
AcDbLine
 10
245.2492824929191
 20
151.6099781917147
 30
0.0000000000000000
 11
264.8214566184462
 21
162.9099781917141
 31
0.0000000000000000
  0
LINE
  5
305
100
AcDbEntity
  8
MAIN0
  6
HIDDEN
 62
3
100
AcDbLine
 10
264.8214566184462
 20
162.9099781917141
 30
0.0000000000000000
 11
274.2622359863392
 21
168.3606147011270
 31
0.0000000000000000
  0
LINE
  5
306
100
AcDbEntity
  8
MAIN0
  6
CONTINUOUS
 62
3
100
AcDbLine
 10
233.7492824929191
 20
171.5285624787568
 30
0.0000000000000000
 11
253.3214566184567
 21
182.8285624787622
 31
0.0000000000000000
  0
LINE
  5
307
100
AcDbEntity
  8
MAIN0
  6
HIDDEN
 62
3
100
AcDbLine
 10
253.3214566184568
 20
182.8285624787622
 30
0.0000000000000000
 11
262.7622359863393
 21
188.2791989881690
 31
0.0000000000000000
  0
ARC
  5
308
100
AcDbEntity
  8
MAIN0
  6
CONTINUOUS
 62
3
100
AcDbCircle
 10
287.5647948695970
 20
189.3199068446480
 30
0.0000000000000000
 40
55.00000000000000
100
AcDbArc
 50
342.0690825243510
 51
437.9309174756651
  0
ARC
  5
309
100
AcDbEntity
  8
MAIN0
  6
CONTINUOUS
 62
3
100
AcDbCircle
 10
287.5647948695970
 20
189.3199068446480
 30
0.0000000000000000
 40
55.00000000000000
100
AcDbArc
 50
102.0690825243672
 51
197.9309174756488
  0
LINE
  5
30A
100
AcDbEntity
  8
MAIN0
  6
CENTER
 62
3
100
AcDbLine
 10
221.3202765691612
 20
227.5661973177419
 30
0.0000000000000000
 11
361.4602856726401
 21
146.6563253376117
 31
0.0000000000000000
  0
LINE
  5
30B
100
AcDbEntity
  8
MAIN0
  6
CONTINUOUS
 62
3
100
AcDbLine
 10
245.3742824929193
 20
151.3934718407686
 30
0.0000000000000000
 11
233.6242824929192
 21
171.7450688297031
 31
0.0000000000000000
  0
LINE
  5
30C
100
AcDbEntity
  8
MAIN0
  6
CONTINUOUS
 62
3
100
AcDbLine
 10
249.7764028260371
 20
147.6996542928513
 30
0.0000000000000000
 11
250.8832138564450
 21
148.3386719391993
 31
0.0000000000000000
  0
LINE
  5
30D
100
AcDbEntity
  8
MAIN0
  6
CONTINUOUS
 62
3
100
AcDbLine
 10
245.3742824929193
 20
151.3934718407685
 30
0.0000000000000000
 11
249.7764028260372
 21
147.6996542928513
 31
0.0000000000000000
  0
LINE
  5
30E
100
AcDbEntity
  8
MAIN0
  6
CONTINUOUS
 62
3
100
AcDbLine
 10
232.6264028260372
 20
177.4043256426576
 30
0.0000000000000000
 11
233.7332138564449
 21
178.0433432890056
 31
0.0000000000000000
  0
LINE
  5
30F
100
AcDbEntity
  8
MAIN0
  6
CONTINUOUS
 62
3
100
AcDbLine
 10
233.6242824929192
 20
171.7450688297029
 30
0.0000000000000000
 11
232.6264028260370
 21
177.4043256426576
 31
0.0000000000000000
  0
LINE
  5
310
100
AcDbEntity
  8
MAIN0
  6
HIDDEN
 62
3
100
AcDbLine
 10
271.2300446064523
 20
166.6099781917148
 30
0.0000000000000000
 11
267.3575429420041
 21
173.3173478269343
 31
0.0000000000000000
  0
LINE
  5
311
100
AcDbEntity
  8
MAIN0
  6
HIDDEN
 62
3
100
AcDbLine
 10
263.6025462709006
 20
179.8211928435376
 30
0.0000000000000000
 11
259.7300446064525
 21
186.5285624787568
 31
0.0000000000000000
  0
LINE
  5
312
100
AcDbEntity
  8
MAIN0
  6
CONTINUOUS
 62
3
100
AcDbLine
 10
264.7348540780691
 20
162.8599781917148
 30
0.0000000000000000
 11
261.4848540780691
 21
168.4891433163135
 31
0.0000000000000000
  0
LINE
  5
313
100
AcDbEntity
  8
MAIN0
  6
CONTINUOUS
 62
3
100
AcDbLine
 10
253.2348540780691
 20
182.7785624787568
 30
0.0000000000000000
 11
256.4848540780691
 21
177.1493973541580
 31
0.0000000000000000
  0
LINE
  5
314
100
AcDbEntity
  8
MAIN0
  6
CONTINUOUS
 62
3
100
AcDbLine
 10
236.9992824929194
 20
165.8993973541580
 30
0.0000000000000000
 11
260.7723562440435
 21
179.6247878838344
 31
0.0000000000000000
  0
LINE
  5
315
100
AcDbEntity
  8
MAIN0
  6
CONTINUOUS
 62
3
100
AcDbLine
 10
276.5647948695970
 20
129.2066581905961
 30
0.0000000000000000
 11
274.0647948695971
 21
127.7632825176221
 31
0.0000000000000000
  0
LINE
  5
316
100
AcDbEntity
  8
MAIN0
  6
CONTINUOUS
 62
3
100
AcDbLine
 10
274.0647948695970
 20
127.7632825176221
 30
0.0000000000000000
 11
274.0647948695970
 21
124.8765311716739
 31
0.0000000000000000
  0
LINE
  5
317
100
AcDbEntity
  8
MAIN0
  6
CONTINUOUS
 62
3
100
AcDbLine
 10
274.0647948695970
 20
124.8765311716739
 30
0.0000000000000000
 11
276.5647948695970
 21
123.4331554986999
 31
0.0000000000000000
  0
LINE
  5
318
100
AcDbEntity
  8
MAIN0
  6
CONTINUOUS
 62
3
100
AcDbLine
 10
276.5647948695970
 20
123.4331554986999
 30
0.0000000000000000
 11
279.0647948695970
 21
124.8765311716740
 31
0.0000000000000000
  0
LINE
  5
319
100
AcDbEntity
  8
MAIN0
  6
CONTINUOUS
 62
3
100
AcDbLine
 10
279.0647948695970
 20
124.8765311716739
 30
0.0000000000000000
 11
279.0647948695970
 21
127.7632825176221
 31
0.0000000000000000
  0
LINE
  5
31A
100
AcDbEntity
  8
MAIN0
  6
CONTINUOUS
 62
3
100
AcDbLine
 10
279.0647948695970
 20
127.7632825176221
 30
0.0000000000000000
 11
276.5647948695970
 21
129.2066581905961
 31
0.0000000000000000
  0
LINE
  5
31B
100
AcDbEntity
  8
MAIN0
  6
CONTINUOUS
 62
3
100
AcDbLine
 10
135.6334653675133
 20
207.2211798634849
 30
0.0000000000000000
 11
135.6334653675136
 21
222.2211798634848
 31
0.0000000000000000
  0
LINE
  5
31C
100
AcDbEntity
  8
MAIN0
  6
CONTINUOUS
 62
3
100
AcDbLine
 10
134.2334653675136
 20
222.2211798634856
 30
0.0000000000000000
 11
135.6334653675136
 21
222.2211798634849
 31
0.0000000000000000
  0
LINE
  5
31D
100
AcDbEntity
  8
MAIN0
  6
CONTINUOUS
 62
3
100
AcDbLine
 10
133.8334653675133
 20
207.2211798634858
 30
0.0000000000000000
 11
135.6334653675133
 21
207.2211798634849
 31
0.0000000000000000
  0
LINE
  5
31E
100
AcDbEntity
  8
MAIN0
  6
CONTINUOUS
 62
3
100
AcDbLine
 10
134.2334653675136
 20
222.2211798634856
 30
0.0000000000000000
 11
133.8334653675136
 21
221.8211798634858
 31
0.0000000000000000
  0
LINE
  5
31F
100
AcDbEntity
  8
MAIN0
  6
CONTINUOUS
 62
3
100
AcDbLine
 10
287.5647948695970
 20
226.5352814786249
 30
0.0000000000000000
 11
284.5647948695970
 21
224.8032306710560
 31
0.0000000000000000
  0
LINE
  5
320
100
AcDbEntity
  8
MAIN0
  6
CONTINUOUS
 62
3
100
AcDbLine
 10
284.5647948695970
 20
224.8032306710560
 30
0.0000000000000000
 11
284.5647948695970
 21
221.3391290559183
 31
0.0000000000000000
  0
LINE
  5
321
100
AcDbEntity
  8
MAIN0
  6
CONTINUOUS
 62
3
100
AcDbLine
 10
284.5647948695970
 20
221.3391290559183
 30
0.0000000000000000
 11
287.5647948695970
 21
219.6070782483494
 31
0.0000000000000000
  0
LINE
  5
322
100
AcDbEntity
  8
MAIN0
  6
CONTINUOUS
 62
3
100
AcDbLine
 10
287.5647948695970
 20
219.6070782483494
 30
0.0000000000000000
 11
290.5647948695970
 21
221.3391290559183
 31
0.0000000000000000
  0
LINE
  5
323
100
AcDbEntity
  8
MAIN0
  6
CONTINUOUS
 62
3
100
AcDbLine
 10
290.5647948695970
 20
221.3391290559183
 30
0.0000000000000000
 11
290.5647948695970
 21
224.8032306710560
 31
0.0000000000000000
  0
LINE
  5
324
100
AcDbEntity
  8
MAIN0
  6
CONTINUOUS
 62
3
100
AcDbLine
 10
290.5647948695970
 20
224.8032306710560
 30
0.0000000000000000
 11
287.5647948695970
 21
226.5352814786249
 31
0.0000000000000000
  0
LINE
  5
325
100
AcDbEntity
  8
MAIN0
  6
CONTINUOUS
 62
3
100
AcDbLine
 10
287.5647948695970
 20
240.5352814786248
 30
0.0000000000000000
 11
284.5647948695970
 21
238.8032306710560
 31
0.0000000000000000
  0
LINE
  5
326
100
AcDbEntity
  8
MAIN0
  6
CONTINUOUS
 62
3
100
AcDbLine
 10
284.5647948695970
 20
238.8032306710560
 30
0.0000000000000000
 11
284.5647948695970
 21
235.3391290559182
 31
0.0000000000000000
  0
LINE
  5
327
100
AcDbEntity
  8
MAIN0
  6
CONTINUOUS
 62
3
100
AcDbLine
 10
284.5647948695970
 20
235.3391290559183
 30
0.0000000000000000
 11
287.5647948695970
 21
233.6070782483494
 31
0.0000000000000000
  0
LINE
  5
328
100
AcDbEntity
  8
MAIN0
  6
CONTINUOUS
 62
3
100
AcDbLine
 10
287.5647948695970
 20
233.6070782483493
 30
0.0000000000000000
 11
290.5647948695970
 21
235.3391290559182
 31
0.0000000000000000
  0
LINE
  5
329
100
AcDbEntity
  8
MAIN0
  6
CONTINUOUS
 62
3
100
AcDbLine
 10
290.5647948695970
 20
235.3391290559182
 30
0.0000000000000000
 11
290.5647948695970
 21
238.8032306710560
 31
0.0000000000000000
  0
LINE
  5
32A
100
AcDbEntity
  8
MAIN0
  6
CONTINUOUS
 62
3
100
AcDbLine
 10
290.5647948695970
 20
238.8032306710560
 30
0.0000000000000000
 11
287.5647948695970
 21
240.5352814786249
 31
0.0000000000000000
  0
LINE
  5
32B
100
AcDbEntity
  8
MAIN0
  6
CONTINUOUS
 62
3
100
AcDbLine
 10
308.4505546730244
 20
166.0176842070622
 30
0.0000000000000000
 11
307.5446880151656
 21
169.3984245990739
 31
0.0000000000000000
  0
LINE
  5
32C
100
AcDbEntity
  8
MAIN0
  6
CONTINUOUS
 62
3
100
AcDbLine
 10
306.3072511480891
 20
167.2551210741386
 30
0.0000000000000000
 11
309.6879915401008
 21
168.1609877319974
 31
0.0000000000000000
  0
LINE
  5
32D
100
AcDbEntity
  8
MAIN0
  6
CONTINUOUS
 62
3
100
AcDbLine
 10
256.9415981990932
 20
182.8834195963329
 30
0.0000000000000000
 11
260.3223385911049
 21
181.9775529384741
 31
0.0000000000000000
  0
LINE
  5
32E
100
AcDbEntity
  8
MAIN0
  6
CONTINUOUS
 62
3
100
AcDbLine
 10
259.0849017240285
 20
184.1208564634094
 30
0.0000000000000000
 11
258.1790350661697
 21
180.7401160713977
 31
0.0000000000000000
  0
LINE
  5
32F
100
AcDbEntity
  8
MAIN0
  6
CONTINUOUS
 62
3
100
AcDbLine
 10
316.9505546730244
 20
180.7401160713977
 30
0.0000000000000000
 11
316.0446880151656
 21
184.1208564634094
 31
0.0000000000000000
  0
LINE
  5
330
100
AcDbEntity
  8
MAIN0
  6
CONTINUOUS
 62
3
100
AcDbLine
 10
314.8072511480891
 20
181.9775529384742
 30
0.0000000000000000
 11
318.1879915401008
 21
182.8834195963330
 31
0.0000000000000000
  0
LINE
  5
331
100
AcDbEntity
  8
MAIN0
  6
CONTINUOUS
 62
3
100
AcDbLine
 10
265.4415981990933
 20
168.1609877319974
 30
0.0000000000000000
 11
268.8223385911051
 21
167.2551210741387
 31
0.0000000000000000
  0
LINE
  5
332
100
AcDbEntity
  8
MAIN0
  6
CONTINUOUS
 62
3
100
AcDbLine
 10
267.5849017240287
 20
169.3984245990739
 30
0.0000000000000000
 11
266.6790350661698
 21
166.0176842070622
 31
0.0000000000000000
  0
LINE
  5
333
100
AcDbEntity
  8
MAIN0
  6
CONTINUOUS
 62
3
100
AcDbLine
 10
288.8022317366736
 20
164.0573437117244
 30
0.0000000000000000
 11
286.3273580025207
 21
161.5824699775715
 31
0.0000000000000000
  0
LINE
  5
334
100
AcDbEntity
  8
MAIN0
  6
CONTINUOUS
 62
3
100
AcDbLine
 10
288.8022317366736
 20
161.5824699775714
 30
0.0000000000000000
 11
286.3273580025207
 21
164.0573437117243
 31
0.0000000000000000
  0
LINE
  5
335
100
AcDbEntity
  8
MAIN0
  6
CONTINUOUS
 62
3
100
AcDbLine
 10
265.0680549982387
 20
200.8795366486421
 30
0.0000000000000000
 11
264.1621883403799
 21
204.2602770406538
 31
0.0000000000000000
  0
LINE
  5
336
100
AcDbEntity
  8
MAIN0
  6
CONTINUOUS
 62
3
100
AcDbLine
 10
262.9247514733034
 20
202.1169735157186
 30
0.0000000000000000
 11
266.3054918653152
 21
203.0228401735774
 31
0.0000000000000000
  0
LINE
  5
337
100
AcDbEntity
  8
MAIN0
  6
CONTINUOUS
 62
3
100
AcDbLine
 10
308.8240978738788
 20
203.0228401735775
 30
0.0000000000000000
 11
312.2048382658905
 21
202.1169735157187
 31
0.0000000000000000
  0
LINE
  5
338
100
AcDbEntity
  8
MAIN0
  6
CONTINUOUS
 62
3
100
AcDbLine
 10
310.9674013988142
 20
204.2602770406540
 30
0.0000000000000000
 11
310.0615347409553
 21
200.8795366486422
 31
0.0000000000000000
  0
LINE
  5
339
100
AcDbEntity
  8
MAIN0
  6
HIDDEN
 62
3
100
AcDbLine
 10
145.0344272618054
 20
216.5711798634871
 30
0.0000000000000000
 11
152.2344272618054
 21
216.5711798634871
 31
0.0000000000000000
  0
LINE
  5
33A
100
AcDbEntity
  8
MAIN0
  6
HIDDEN
 62
3
100
AcDbLine
 10
152.2344272618054
 20
216.5711798634872
 30
0.0000000000000000
 11
153.0344272618054
 21
217.9568205095422
 31
0.0000000000000000
  0
LINE
  5
33B
100
AcDbEntity
  8
MAIN0
  6
HIDDEN
 62
3
100
AcDbLine
 10
153.0344272618054
 20
217.9568205095422
 30
0.0000000000000000
 11
153.0344272618054
 21
228.1855392174320
 31
0.0000000000000000
  0
LINE
  5
33C
100
AcDbEntity
  8
MAIN0
  6
HIDDEN
 62
3
100
AcDbLine
 10
153.0344272618054
 20
228.1855392174320
 30
0.0000000000000000
 11
152.2344272618054
 21
229.5711798634871
 31
0.0000000000000000
  0
LINE
  5
33D
100
AcDbEntity
  8
MAIN0
  6
HIDDEN
 62
3
100
AcDbLine
 10
152.2344272618054
 20
229.5711798634871
 30
0.0000000000000000
 11
145.0344272618054
 21
229.5711798634871
 31
0.0000000000000000
  0
LINE
  5
33E
100
AcDbEntity
  8
MAIN0
  6
HIDDEN
 62
3
100
AcDbLine
 10
152.2344272618054
 20
216.5711798634871
 30
0.0000000000000000
 11
152.2344272618054
 21
229.5711798634871
 31
0.0000000000000000
  0
LINE
  5
33F
100
AcDbEntity
  8
MAIN0
  6
HIDDEN
 62
3
100
AcDbLine
 10
145.0344272618054
 20
219.0711798634871
 30
0.0000000000000000
 11
123.0344272618054
 21
219.0711798634871
 31
0.0000000000000000
  0
LINE
  5
340
100
AcDbEntity
  8
MAIN0
  6
HIDDEN
 62
3
100
AcDbLine
 10
123.0344272618054
 20
227.0711798634871
 30
0.0000000000000000
 11
145.0344272618054
 21
227.0711798634871
 31
0.0000000000000000
  0
LINE
  5
341
100
AcDbEntity
  8
MAIN0
  6
HIDDEN
 62
3
100
AcDbLine
 10
145.0344272618054
 20
219.7477623634871
 30
0.0000000000000000
 11
123.0344272618054
 21
219.7477623634871
 31
0.0000000000000000
  0
LINE
  5
342
100
AcDbEntity
  8
MAIN0
  6
HIDDEN
 62
3
100
AcDbLine
 10
145.0344272618054
 20
226.3945973634871
 30
0.0000000000000000
 11
123.0344272618054
 21
226.3945973634871
 31
0.0000000000000000
  0
LINE
  5
343
100
AcDbEntity
  8
MAIN0
  6
HIDDEN
 62
3
100
AcDbLine
 10
145.0344272618090
 20
230.5711798634872
 30
0.0000000000000000
 11
152.2344272618090
 21
230.5711798634872
 31
0.0000000000000000
  0
LINE
  5
344
100
AcDbEntity
  8
MAIN0
  6
HIDDEN
 62
3
100
AcDbLine
 10
152.2344272618090
 20
230.5711798634872
 30
0.0000000000000000
 11
153.0344272618090
 21
231.9568205095423
 31
0.0000000000000000
  0
LINE
  5
345
100
AcDbEntity
  8
MAIN0
  6
HIDDEN
 62
3
100
AcDbLine
 10
153.0344272618090
 20
231.9568205095423
 30
0.0000000000000000
 11
153.0344272618090
 21
242.1855392174321
 31
0.0000000000000000
  0
LINE
  5
346
100
AcDbEntity
  8
MAIN0
  6
HIDDEN
 62
3
100
AcDbLine
 10
153.0344272618090
 20
242.1855392174321
 30
0.0000000000000000
 11
152.2344272618090
 21
243.5711798634872
 31
0.0000000000000000
  0
LINE
  5
347
100
AcDbEntity
  8
MAIN0
  6
HIDDEN
 62
3
100
AcDbLine
 10
152.2344272618090
 20
243.5711798634872
 30
0.0000000000000000
 11
145.0344272618090
 21
243.5711798634872
 31
0.0000000000000000
  0
LINE
  5
348
100
AcDbEntity
  8
MAIN0
  6
HIDDEN
 62
3
100
AcDbLine
 10
152.2344272618090
 20
230.5711798634872
 30
0.0000000000000000
 11
152.2344272618090
 21
243.5711798634872
 31
0.0000000000000000
  0
LINE
  5
349
100
AcDbEntity
  8
MAIN0
  6
HIDDEN
 62
3
100
AcDbLine
 10
145.0344272618090
 20
233.0711798634872
 30
0.0000000000000000
 11
123.0344272618090
 21
233.0711798634872
 31
0.0000000000000000
  0
LINE
  5
34A
100
AcDbEntity
  8
MAIN0
  6
HIDDEN
 62
3
100
AcDbLine
 10
123.0344272618090
 20
241.0711798634872
 30
0.0000000000000000
 11
145.0344272618090
 21
241.0711798634872
 31
0.0000000000000000
  0
LINE
  5
34B
100
AcDbEntity
  8
MAIN0
  6
HIDDEN
 62
3
100
AcDbLine
 10
145.0344272618090
 20
233.7477623634872
 30
0.0000000000000000
 11
123.0344272618090
 21
233.7477623634872
 31
0.0000000000000000
  0
LINE
  5
34C
100
AcDbEntity
  8
MAIN0
  6
HIDDEN
 62
3
100
AcDbLine
 10
145.0344272618090
 20
240.3945973634872
 30
0.0000000000000000
 11
123.0344272618090
 21
240.3945973634872
 31
0.0000000000000000
  0
LINE
  5
34D
100
AcDbEntity
  8
MAIN0
  6
CONTINUOUS
 62
3
100
AcDbLine
 10
284.0647948695971
 20
144.2991809024843
 30
0.0000000000000000
 11
284.0647948695971
 21
148.3406327868117
 31
0.0000000000000000
  0
LINE
  5
34E
100
AcDbEntity
  8
MAIN0
  6
CONTINUOUS
 62
3
100
AcDbLine
 10
287.5647948695971
 20
142.2784549603206
 30
0.0000000000000000
 11
284.0647948695971
 21
144.2991809024843
 31
0.0000000000000000
  0
LINE
  5
34F
100
AcDbEntity
  8
MAIN0
  6
CONTINUOUS
 62
3
100
AcDbLine
 10
291.0647948695970
 20
144.2991809024843
 30
0.0000000000000000
 11
287.5647948695970
 21
142.2784549603206
 31
0.0000000000000000
  0
LINE
  5
350
100
AcDbEntity
  8
MAIN0
  6
CONTINUOUS
 62
3
100
AcDbLine
 10
291.0647948695971
 20
148.3406327868117
 30
0.0000000000000000
 11
291.0647948695971
 21
144.2991809024843
 31
0.0000000000000000
  0
LINE
  5
351
100
AcDbEntity
  8
MAIN0
  6
CONTINUOUS
 62
3
100
AcDbLine
 10
287.5647948695971
 20
150.3613587289754
 30
0.0000000000000000
 11
291.0647948695970
 21
148.3406327868117
 31
0.0000000000000000
  0
LINE
  5
352
100
AcDbEntity
  8
MAIN0
  6
CONTINUOUS
 62
3
100
AcDbLine
 10
284.0647948695971
 20
148.3406327868117
 30
0.0000000000000000
 11
287.5647948695971
 21
150.3613587289754
 31
0.0000000000000000
  0
CIRCLE
  5
353
100
AcDbEntity
  8
MAIN0
  6
CONTINUOUS
 62
3
100
AcDbCircle
 10
287.5647948695971
 20
146.3199068446480
 30
0.0000000000000000
 40
0.9914283891151570
  0
CIRCLE
  5
354
100
AcDbEntity
  8
MAIN0
  6
CONTINUOUS
 62
3
100
AcDbCircle
 10
287.5647948695971
 20
146.3199068446480
 30
0.0000000000000000
 40
3.299999999993588
  0
LINE
  5
355
100
AcDbEntity
  8
MAIN0
  6
CONTINUOUS
 62
3
100
AcDbLine
 10
81.83346536741587
 20
112.8199068446586
 30
0.0000000000000000
 11
65.83346536741587
 21
112.8199068446586
 31
0.0000000000000000
  0
LINE
  5
356
100
AcDbEntity
  8
MAIN0
  6
CONTINUOUS
 62
3
100
AcDbLine
 10
65.83346536741587
 20
112.8199068446586
 30
0.0000000000000000
 11
65.83346536741587
 21
113.8199068446586
 31
0.0000000000000000
  0
LINE
  5
357
100
AcDbEntity
  8
MAIN0
  6
CONTINUOUS
 62
3
100
AcDbLine
 10
81.83346536741587
 20
112.8199068446586
 30
0.0000000000000000
 11
81.83346536741587
 21
113.8199068446586
 31
0.0000000000000000
  0
LINE
  5
358
100
AcDbEntity
  8
MAIN0
  6
CONTINUOUS
 62
3
100
AcDbLine
 10
272.0647948695970
 20
112.8199068446480
 30
0.0000000000000000
 11
256.0647948695970
 21
112.8199068446480
 31
0.0000000000000000
  0
LINE
  5
359
100
AcDbEntity
  8
MAIN0
  6
CONTINUOUS
 62
3
100
AcDbLine
 10
256.0647948695970
 20
112.8199068446480
 30
0.0000000000000000
 11
256.0647948695970
 21
113.8199068446480
 31
0.0000000000000000
  0
LINE
  5
35A
100
AcDbEntity
  8
MAIN0
  6
CONTINUOUS
 62
3
100
AcDbLine
 10
272.0647948695970
 20
112.8199068446480
 30
0.0000000000000000
 11
272.0647948695970
 21
113.8199068446480
 31
0.0000000000000000
  0
LINE
  5
35B
100
AcDbEntity
  8
MAIN0
  6
CONTINUOUS
 62
3
100
AcDbLine
 10
319.0647948695970
 20
112.8199068446479
 30
0.0000000000000000
 11
303.0647948695970
 21
112.8199068446479
 31
0.0000000000000000
  0
LINE
  5
35C
100
AcDbEntity
  8
MAIN0
  6
CONTINUOUS
 62
3
100
AcDbLine
 10
303.0647948695970
 20
112.8199068446479
 30
0.0000000000000000
 11
303.0647948695970
 21
113.8199068446479
 31
0.0000000000000000
  0
LINE
  5
35D
100
AcDbEntity
  8
MAIN0
  6
CONTINUOUS
 62
3
100
AcDbLine
 10
319.0647948695970
 20
112.8199068446479
 30
0.0000000000000000
 11
319.0647948695970
 21
113.8199068446479
 31
0.0000000000000000
  0
MTEXT
  5
35E
100
AcDbEntity
  8
MAIN0
  6
CONTINUOUS
 62
3
100
AcDbMText
 10
155.1548948266346
 20
32.92513313448592
 30
0.0000000000000000
 40
2.000000000000000
 41
0.0000000000000000
 71
     1
 72
     1
  1
{\H0.63x;{AIR CONSUMPTION (PER 10mm OF PLUNGER }}
 11
1.000000000000000
 21
0.0000000000000000
 31
0.0000000000000000
  7
STANDARD
  0
MTEXT
  5
35F
100
AcDbEntity
  8
MAIN0
  6
CONTINUOUS
 62
3
100
AcDbMText
 10
155.1548948266348
 20
26.32513275301622
 30
0.0000000000000000
 40
2.399999618530273
 41
0.0000000000000000
 71
     1
 72
     1
  1
{\H0.92x;{空気消費量}}
 11
1.000000000000000
 21
0.0000000000000000
 31
0.0000000000000000
  7
KNJYOKO
  0
MTEXT
  5
360
100
AcDbEntity
  8
MAIN0
  6
CONTINUOUS
 62
3
100
AcDbMText
 10
155.1548948266346
 20
23.42513313448595
 30
0.0000000000000000
 40
2.500000000000000
 41
0.0000000000000000
 71
     1
 72
     1
  1
{\H0.59x;{(プランジャストローク10mm当り圧力0.6MPa時)}}
 11
1.000000000000000
 21
0.0000000000000000
 31
0.0000000000000000
  7
KNJYOKO
  0
MTEXT
  5
361
100
AcDbEntity
  8
MAIN0
  6
CONTINUOUS
 62
3
100
AcDbMText
 10
155.1548948266346
 20
29.92513313448592
 30
0.0000000000000000
 40
2.000000000000000
 41
0.0000000000000000
 71
     1
 72
     1
  1
{\H0.62x;{STROKE ON PRESSURE OF 0.6MPa)}}
 11
1.000000000000000
 21
0.0000000000000000
 31
0.0000000000000000
  7
STANDARD
  0
MTEXT
  5
362
100
AcDbEntity
  8
MAIN0
  6
CONTINUOUS
 62
4
100
AcDbMText
 10
217.2827516302800
 20
28.72517086372457
 30
0.0000000000000000
 40
2.799999237060547
 41
0.0000000000000000
 71
     1
 72
     1
  1
{\H0.58x;{　　　　Ｎ}}
 11
1.000000000000000
 21
0.0000000000000000
 31
0.0000000000000000
  7
KNJYOKO
  0
MTEXT
  5
363
100
AcDbEntity
  8
MAIN0
  6
CONTINUOUS
 62
3
100
AcDbMText
 10
210.2827516302797
 20
41.52517153129298
 30
0.0000000000000000
 40
3.099999904632568
 41
0.0000000000000000
 71
     1
 72
     1
  1
{\H0.76x;{0.7}}
 11
1.000000000000000
 21
0.0000000000000000
 31
0.0000000000000000
  7
STANDARD
  0
MTEXT
  5
364
100
AcDbEntity
  8
MAIN0
  6
CONTINUOUS
 62
3
100
AcDbMText
 10
210.2827516302801
 20
29.02517153129659
 30
0.0000000000000000
 40
3.099999904632568
 41
0.0000000000000000
 71
     1
 72
     1
  1
{\H0.76x;{0.4}}
 11
1.000000000000000
 21
0.0000000000000000
 31
0.0000000000000000
  7
STANDARD
  0
LINE
  5
365
100
AcDbEntity
  8
MAIN0
  6
CONTINUOUS
 62
3
100
AcDbLine
 10
265.3118376752310
 20
192.0606132863200
 30
0.0000000000000000
 11
252.3214566184640
 21
184.5606132863207
 31
0.0000000000000000
  0
LINE
  5
366
100
AcDbEntity
  8
MAIN0
  6
CONTINUOUS
 62
3
100
AcDbLine
 10
278.8118376752187
 20
168.6779273841330
 30
0.0000000000000000
 11
265.8214566184516
 21
161.1779273841337
 31
0.0000000000000000
  0
LINE
  5
367
100
AcDbEntity
  8
MAIN0
  6
CONTINUOUS
 62
3
100
AcDbLine
 10
278.8118376752186
 20
168.6779273841329
 30
0.0000000000000000
 11
265.3118376752310
 21
192.0606132863199
 31
0.0000000000000000
  0
CIRCLE
  5
368
100
AcDbEntity
  8
MAIN0
  6
CONTINUOUS
 62
3
100
AcDbCircle
 10
267.1319683950991
 20
167.7080544030680
 30
0.0000000000000000
 40
3.150000000000000
  0
LINE
  5
369
100
AcDbEntity
  8
MAIN0
  6
CENTER
 62
3
100
AcDbLine
 10
265.0569683950992
 20
171.3020598287735
 30
0.0000000000000000
 11
269.2069683950992
 21
164.1140489773627
 31
0.0000000000000000
  0
LINE
  5
36A
100
AcDbEntity
  8
MAIN0
  6
CENTER
 62
3
100
AcDbLine
 10
263.5379629693938
 20
165.6330544030681
 30
0.0000000000000000
 11
270.7259738208046
 21
169.7830544030681
 31
0.0000000000000000
  0
LINE
  5
36B
100
AcDbEntity
  8
MAIN0
  6
CONTINUOUS
 62
3
100
AcDbLine
 10
265.8214566184516
 20
161.1779273841337
 30
0.0000000000000000
 11
261.6964566184483
 21
168.3226369653697
 31
0.0000000000000000
  0
LINE
  5
36C
100
AcDbEntity
  8
MAIN0
  6
CONTINUOUS
 62
3
100
AcDbLine
 10
256.4464566184531
 20
177.4159037051090
 30
0.0000000000000000
 11
252.3214566184640
 21
184.5606132863206
 31
0.0000000000000000
  0
LINE
  5
36D
100
AcDbEntity
  8
MAIN0
  6
CONTINUOUS
 62
3
100
AcDbLine
 10
256.4464566184531
 20
177.4159037051091
 30
0.0000000000000000
 11
258.8280264788587
 21
178.7909037051065
 31
0.0000000000000000
  0
LINE
  5
36E
100
AcDbEntity
  8
MAIN0
  6
CONTINUOUS
 62
3
100
AcDbLine
 10
261.6964566184483
 20
168.3226369653696
 30
0.0000000000000000
 11
264.5110391807485
 21
169.9476369653680
 31
0.0000000000000000
  0
CIRCLE
  5
36F
100
AcDbEntity
  8
MAIN0
  6
CONTINUOUS
 62
3
100
AcDbCircle
 10
258.6319683950991
 20
182.4304862674036
 30
0.0000000000000000
 40
3.150000000000000
  0
LINE
  5
370
100
AcDbEntity
  8
MAIN0
  6
CENTER
 62
3
100
AcDbLine
 10
260.7069683950991
 20
178.8364808416982
 30
0.0000000000000000
 11
256.5569683950991
 21
186.0244916931091
 31
0.0000000000000000
  0
LINE
  5
371
100
AcDbEntity
  8
MAIN0
  6
CENTER
 62
3
100
AcDbLine
 10
255.0379629693937
 20
180.3554862674037
 30
0.0000000000000000
 11
262.2259738208045
 21
184.5054862674036
 31
0.0000000000000000
  0
LINE
  5
372
100
AcDbEntity
  8
MAIN0
  6
CONTINUOUS
 62
3
100
AcDbLine
 10
256.4464566184498
 20
177.4159037051038
 30
0.0000000000000000
 11
259.2610391807482
 21
179.0409037051053
 31
0.0000000000000000
  0
ARC
  5
373
100
AcDbEntity
  8
MAIN0
  6
CONTINUOUS
 62
3
100
AcDbCircle
 10
261.8860391807509
 20
174.4942703352380
 30
0.0000000000000000
 40
5.249999999997050
100
AcDbArc
 50
299.9999999999695
 51
480.0000000000305
  0
LINE
  5
374
100
AcDbEntity
  8
MAIN0
  6
CONTINUOUS
 62
3
100
AcDbLine
 10
296.3177520639765
 20
168.6779273841634
 30
0.0000000000000000
 11
309.3081331207426
 21
161.1779273841626
 31
0.0000000000000000
  0
LINE
  5
375
100
AcDbEntity
  8
MAIN0
  6
CONTINUOUS
 62
3
100
AcDbLine
 10
309.8177520639888
 20
192.0606132863361
 30
0.0000000000000000
 11
322.8081331207550
 21
184.5606132863353
 31
0.0000000000000000
  0
LINE
  5
376
100
AcDbEntity
  8
MAIN0
  6
CONTINUOUS
 62
3
100
AcDbLine
 10
309.8177520639889
 20
192.0606132863361
 30
0.0000000000000000
 11
296.3177520639765
 21
168.6779273841634
 31
0.0000000000000000
  0
CIRCLE
  5
377
100
AcDbEntity
  8
MAIN0
  6
CONTINUOUS
 62
3
100
AcDbCircle
 10
316.4976213440950
 20
182.4304862674036
 30
0.0000000000000000
 40
3.150000000000000
  0
LINE
  5
378
100
AcDbEntity
  8
MAIN0
  6
CENTER
 62
3
100
AcDbLine
 10
314.4226213440949
 20
178.8364808416982
 30
0.0000000000000000
 11
318.5726213440949
 21
186.0244916931089
 31
0.0000000000000000
  0
LINE
  5
379
100
AcDbEntity
  8
MAIN0
  6
CENTER
 62
3
100
AcDbLine
 10
320.0916267698003
 20
180.3554862674035
 30
0.0000000000000000
 11
312.9036159183895
 21
184.5054862674035
 31
0.0000000000000000
  0
LINE
  5
37A
100
AcDbEntity
  8
MAIN0
  6
CONTINUOUS
 62
3
100
AcDbLine
 10
322.8081331207550
 20
184.5606132863353
 30
0.0000000000000000
 11
318.6831331207442
 21
177.4159037051037
 31
0.0000000000000000
  0
LINE
  5
37B
100
AcDbEntity
  8
MAIN0
  6
CONTINUOUS
 62
3
100
AcDbLine
 10
313.4331331207394
 20
168.3226369653698
 30
0.0000000000000000
 11
309.3081331207427
 21
161.1779273841626
 31
0.0000000000000000
  0
LINE
  5
37C
100
AcDbEntity
  8
MAIN0
  6
CONTINUOUS
 62
3
100
AcDbLine
 10
313.4331331207394
 20
168.3226369653697
 30
0.0000000000000000
 11
311.0515632603353
 21
169.6976369653696
 31
0.0000000000000000
  0
LINE
  5
37D
100
AcDbEntity
  8
MAIN0
  6
CONTINUOUS
 62
3
100
AcDbLine
 10
318.6831331207443
 20
177.4159037051037
 30
0.0000000000000000
 11
315.8685505584458
 21
179.0409037051052
 31
0.0000000000000000
  0
CIRCLE
  5
37E
100
AcDbEntity
  8
MAIN0
  6
CONTINUOUS
 62
3
100
AcDbCircle
 10
307.9976213440949
 20
167.7080544030680
 30
0.0000000000000000
 40
3.150000000000000
  0
LINE
  5
37F
100
AcDbEntity
  8
MAIN0
  6
CENTER
 62
3
100
AcDbLine
 10
310.0726213440948
 20
171.3020598287734
 30
0.0000000000000000
 11
305.9226213440949
 21
164.1140489773626
 31
0.0000000000000000
  0
LINE
  5
380
100
AcDbEntity
  8
MAIN0
  6
CENTER
 62
3
100
AcDbLine
 10
311.5916267698003
 20
165.6330544030680
 30
0.0000000000000000
 11
304.4036159183895
 21
169.7830544030680
 31
0.0000000000000000
  0
LINE
  5
381
100
AcDbEntity
  8
MAIN0
  6
CONTINUOUS
 62
3
100
AcDbLine
 10
313.4331331207457
 20
168.3226369653696
 30
0.0000000000000000
 11
310.6185505584454
 21
169.9476369653680
 31
0.0000000000000000
  0
ARC
  5
382
100
AcDbEntity
  8
MAIN0
  6
CONTINUOUS
 62
3
100
AcDbCircle
 10
313.2435505584432
 20
174.4942703352381
 30
0.0000000000000000
 40
5.249999999997050
100
AcDbArc
 50
59.99999999996950
 51
240.0000000000304
  0
LINE
  5
383
100
AcDbEntity
  8
MAIN0
  6
HIDDEN
 62
3
100
AcDbLine
 10
262.9800446064526
 20
180.8993973541581
 30
0.0000000000000000
 11
260.7723562440439
 21
179.6247878838346
 31
0.0000000000000000
  0
LINE
  5
384
100
AcDbEntity
  8
MAIN0
  6
HIDDEN
 62
3
100
AcDbLine
 10
267.9800446064525
 20
172.2391433163137
 30
0.0000000000000000
 11
265.7723562440439
 21
170.9645338459902
 31
0.0000000000000000
  0
CIRCLE
  5
385
100
AcDbEntity
  8
MAIN0
  6
CONTINUOUS
 62
3
100
AcDbCircle
 10
222.5647948695970
 20
189.3199068446480
 30
0.0000000000000000
 40
4.000000000000000
  0
CIRCLE
  5
386
100
AcDbEntity
  8
MAIN0
  6
CONTINUOUS
 62
3
100
AcDbCircle
 10
222.5647948695970
 20
189.3199068446480
 30
0.0000000000000000
 40
3.400000000000000
  0
CIRCLE
  5
387
100
AcDbEntity
  8
MAIN0
  6
CONTINUOUS
 62
3
100
AcDbCircle
 10
352.5647948695970
 20
189.3199068446480
 30
0.0000000000000000
 40
4.000000000000000
  0
CIRCLE
  5
388
100
AcDbEntity
  8
MAIN0
  6
CONTINUOUS
 62
3
100
AcDbCircle
 10
352.5647948695970
 20
189.3199068446480
 30
0.0000000000000000
 40
3.400000000000000
  0
ARC
  5
389
100
AcDbEntity
  8
MAIN0
  6
CONTINUOUS
 62
3
100
AcDbCircle
 10
255.0647948695970
 20
133.0282555986595
 30
0.0000000000000000
 40
4.000000000000000
100
AcDbArc
 50
11.41493240034232
 51
168.5850675996575
  0
ARC
  5
38A
100
AcDbEntity
  8
MAIN0
  6
CONTINUOUS
 62
3
100
AcDbCircle
 10
255.0647948695970
 20
133.0282555986595
 30
0.0000000000000000
 40
3.400000000000000
100
AcDbArc
 50
13.46424991658021
 51
166.5357500834198
  0
ARC
  5
38B
100
AcDbEntity
  8
MAIN0
  6
CONTINUOUS
 62
3
100
AcDbCircle
 10
320.0647948695970
 20
133.0282555986595
 30
0.0000000000000000
 40
4.000000000000000
100
AcDbArc
 50
11.41493240034072
 51
168.5850675996589
  0
ARC
  5
38C
100
AcDbEntity
  8
MAIN0
  6
CONTINUOUS
 62
3
100
AcDbCircle
 10
320.0647948695970
 20
133.0282555986595
 30
0.0000000000000000
 40
3.400000000000000
100
AcDbArc
 50
13.46424991657847
 51
166.5357500834215
  0
CIRCLE
  5
38D
100
AcDbEntity
  8
MAIN0
  6
CONTINUOUS
 62
3
100
AcDbCircle
 10
320.0647948695970
 20
245.6115580906365
 30
0.0000000000000000
 40
4.000000000000000
  0
CIRCLE
  5
38E
100
AcDbEntity
  8
MAIN0
  6
CONTINUOUS
 62
3
100
AcDbCircle
 10
320.0647948695970
 20
245.6115580906365
 30
0.0000000000000000
 40
3.400000000000000
  0
CIRCLE
  5
38F
100
AcDbEntity
  8
MAIN0
  6
CONTINUOUS
 62
3
100
AcDbCircle
 10
255.0647948695970
 20
245.6115580906365
 30
0.0000000000000000
 40
4.000000000000000
  0
CIRCLE
  5
390
100
AcDbEntity
  8
MAIN0
  6
CONTINUOUS
 62
3
100
AcDbCircle
 10
255.0647948695970
 20
245.6115580906365
 30
0.0000000000000000
 40
3.400000000000000
  0
CIRCLE
  5
391
100
AcDbEntity
  8
MAIN0
  6
HIDDEN
 62
3
100
AcDbCircle
 10
271.0647948695970
 20
159.5919738522585
 30
0.0000000000000000
 40
4.864000000000000
  0
CIRCLE
  5
392
100
AcDbEntity
  8
MAIN0
  6
HIDDEN
 62
3
100
AcDbCircle
 10
271.0647948695970
 20
159.5919738522585
 30
0.0000000000000000
 40
4.283000000000000
  0
CIRCLE
  5
393
100
AcDbEntity
  8
MAIN0
  6
HIDDEN
 62
3
100
AcDbCircle
 10
304.0647948695970
 20
159.5919738522585
 30
0.0000000000000000
 40
4.864000000000000
  0
CIRCLE
  5
394
100
AcDbEntity
  8
MAIN0
  6
HIDDEN
 62
3
100
AcDbCircle
 10
304.0647948695970
 20
159.5919738522585
 30
0.0000000000000000
 40
4.283000000000000
  0
MTEXT
  5
395
100
AcDbEntity
  8
MAIN0
  6
CONTINUOUS
 62
3
100
AcDbMText
 10
206.2827516302797
 20
37.52517153129298
 30
0.0000000000000000
 40
3.099999904632568
 41
0.0000000000000000
 71
     1
 72
     1
  1
{\H0.67x;{7}}
 11
1.000000000000000
 21
0.0000000000000000
 31
0.0000000000000000
  7
STANDARD
  0
MTEXT
  5
396
100
AcDbEntity
  8
MAIN0
  6
CONTINUOUS
 62
3
100
AcDbMText
 10
210.2827516302781
 20
67.02517153129270
 30
0.0000000000000000
 40
3.099999904632568
 41
0.0000000000000000
 71
     1
 72
     1
  1
{\H0.88x;{15}}
 11
1.000000000000000
 21
0.0000000000000000
 31
0.0000000000000000
  7
STANDARD
  0
MTEXT
  5
397
100
AcDbEntity
  8
MAIN0
  6
CONTINUOUS
 62
3
100
AcDbMText
 10
210.2827516302795
 20
60.02517153129270
 30
0.0000000000000000
 40
3.099999904632568
 41
0.0000000000000000
 71
     1
 72
     1
  1
{\H0.90x;{5.2}}
 11
1.000000000000000
 21
0.0000000000000000
 31
0.0000000000000000
  7
STANDARD
  0
MTEXT
  5
398
100
AcDbEntity
  8
MAIN0
  6
CONTINUOUS
 62
3
100
AcDbMText
 10
207.2827516302820
 20
48.02520486462606
 30
0.0000000000000000
 40
3.099999904632568
 41
0.0000000000000000
 71
     1
 72
     1
  1
{\H0.90x;{765}}
 11
1.000000000000000
 21
0.0000000000000000
 31
0.0000000000000000
  7
STANDARD
  0
MTEXT
  5
399
100
AcDbEntity
  8
MAIN0
  6
CONTINUOUS
 62
3
100
AcDbMText
 10
210.2827516302820
 20
53.02520486462606
 30
0.0000000000000000
 40
3.099999904632568
 41
0.0000000000000000
 71
     1
 72
     1
  1
{\H0.76x;{7.5}}
 11
1.000000000000000
 21
0.0000000000000000
 31
0.0000000000000000
  7
STANDARD
  0
MTEXT
  5
39A
100
AcDbEntity
  8
MAIN0
  6
CONTINUOUS
 62
3
100
AcDbMText
 10
210.2827516302808
 20
17.02517153044815
 30
0.0000000000000000
 40
3.099999904632568
 41
0.0000000000000000
 71
     1
 72
     1
  1
{\H0.76x;{7.3}}
 11
1.000000000000000
 21
0.0000000000000000
 31
0.0000000000000000
  7
STANDARD
  0
LINE
  5
39B
100
AcDbEntity
  8
MAIN0
  6
CONTINUOUS
 62
3
100
AcDbLine
 10
151.8758546624351
 20
12.92522088276147
 30
0.0000000000000000
 11
232.2827516302814
 21
12.92522088276147
 31
0.0000000000000000
  0
MTEXT
  5
39C
100
AcDbEntity
  8
MAIN0
  6
CONTINUOUS
 62
3
100
AcDbMText
 10
155.1548948266321
 20
68.28846551414449
 30
0.0000000000000000
 40
2.499999046325684
 41
0.0000000000000000
 71
     1
 72
     1
  1
{\H0.75x;{PLUNGER STROKE}}
 11
1.000000000000000
 21
0.0000000000000000
 31
0.0000000000000000
  7
STANDARD
  0
MTEXT
  5
39D
100
AcDbEntity
  8
MAIN0
  6
CONTINUOUS
 62
3
100
AcDbMText
 10
155.1548948266321
 20
65.18846608634908
 30
0.0000000000000000
 40
2.399999618530273
 41
0.0000000000000000
 71
     1
 72
     1
  1
{\H0.93x;{プランジャストロ－ク}}
 11
1.000000000000000
 21
0.0000000000000000
 31
0.0000000000000000
  7
KNJYOKO
  0
MTEXT
  5
39E
100
AcDbEntity
  8
MAIN0
  6
CONTINUOUS
 62
3
100
AcDbMText
 10
155.1548948266321
 20
61.28846551414449
 30
0.0000000000000000
 40
2.499999046325684
 41
0.0000000000000000
 71
     1
 72
     1
  1
{\H0.75x;{JAW STROKE (IN DIA)}}
 11
1.000000000000000
 21
0.0000000000000000
 31
0.0000000000000000
  7
STANDARD
  0
MTEXT
  5
39F
100
AcDbEntity
  8
MAIN0
  6
CONTINUOUS
 62
3
100
AcDbMText
 10
155.1548948266321
 20
58.18846608634908
 30
0.0000000000000000
 40
2.399999618530273
 41
0.0000000000000000
 71
     1
 72
     1
  1
{\H0.94x;{ジョーストローク(直径で)}}
 11
1.000000000000000
 21
0.0000000000000000
 31
0.0000000000000000
  7
KNJYOKO
  0
MTEXT
  5
3A0
100
AcDbEntity
  8
MAIN0
  6
CONTINUOUS
 62
3
100
AcDbMText
 10
155.1548948266328
 20
40.92513313448603
 30
0.0000000000000000
 40
2.500000000000000
 41
0.0000000000000000
 71
     1
 72
     1
  1
{\H0.63x;{MAX PERMISSIBLE AIR PRESS}}
 11
1.000000000000000
 21
0.0000000000000000
 31
0.0000000000000000
  7
STANDARD
  0
MTEXT
  5
3A1
100
AcDbEntity
  8
MAIN0
  6
CONTINUOUS
 62
3
100
AcDbMText
 10
155.2868794947100
 20
37.82516181931970
 30
0.0000000000000000
 40
2.399999618530273
 41
0.0000000000000000
 71
     1
 72
     1
  1
{\H0.93x;{許容最大エア圧力}}
 11
1.000000000000000
 21
0.0000000000000000
 31
0.0000000000000000
  7
KNJYOKO
  0
MTEXT
  5
3A2
100
AcDbEntity
  8
MAIN0
  6
CONTINUOUS
 62
3
100
AcDbMText
 10
155.1548948266323
 20
19.42521477056519
 30
0.0000000000000000
 40
2.499999046325684
 41
0.0000000000000000
 71
     1
 72
     1
  1
{\H0.73x;{MASS}}
 11
1.000000000000000
 21
0.0000000000000000
 31
0.0000000000000000
  7
STANDARD
  0
MTEXT
  5
3A3
100
AcDbEntity
  8
MAIN0
  6
CONTINUOUS
 62
3
100
AcDbMText
 10
155.1548948266323
 20
16.32521534276978
 30
0.0000000000000000
 40
2.399999618530273
 41
0.0000000000000000
 71
     1
 72
     1
  1
{\H0.89x;{質量\P}
 11
1.000000000000000
 21
0.0000000000000000
 31
0.0000000000000000
  7
KNJYOKO
  0
MTEXT
  5
3A4
100
AcDbEntity
  8
MAIN0
  6
CONTINUOUS
 62
3
100
AcDbMText
 10
181.0547235958659
 20
45.92508884035880
 30
0.0000000000000000
 40
2.500000000000000
 41
0.0000000000000000
 71
     7
 72
     1
  1
{( 6 Kgf/cm}
 11
1.000000000000000
 21
0.0000000000000000
 31
0.0000000000000000
  7
STANDARD
  0
MTEXT
  5
3A5
100
AcDbEntity
  8
MAIN0
  6
CONTINUOUS
 62
3
100
AcDbMText
 10
196.0547235958659
 20
47.17508884035880
 30
0.0000000000000000
 40
1.250000000000000
 41
0.0000000000000000
 71
     7
 72
     1
  1
{2}
 11
1.000000000000000
 21
0.0000000000000000
 31
0.0000000000000000
  7
STANDARD
  0
MTEXT
  5
3A6
100
AcDbEntity
  8
MAIN0
  6
CONTINUOUS
 62
3
100
AcDbMText
 10
196.8047235958659
 20
45.92508884035880
 30
0.0000000000000000
 40
2.500000000000000
 41
0.0000000000000000
 71
     7
 72
     1
  1
{)}
 11
1.000000000000000
 21
0.0000000000000000
 31
0.0000000000000000
  7
STANDARD
  0
MTEXT
  5
3A7
100
AcDbEntity
  8
MAIN0
  6
CONTINUOUS
 62
3
100
AcDbMText
 10
155.1548554626584
 20
48.42508884035880
 30
0.0000000000000000
 40
2.500000000000000
 41
0.0000000000000000
 71
     1
 72
     1
  1
{\H0.59x;{(エア圧 0.6 MPa時)}}
 11
1.000000000000000
 21
0.0000000000000000
 31
0.0000000000000000
  7
KNJYOKO
  0
MTEXT
  5
3A8
100
AcDbEntity
  8
MAIN0
  6
CONTINUOUS
 62
3
100
AcDbMText
 10
155.1548948266321
 20
54.42513313448578
 30
0.0000000000000000
 40
2.500000000000000
 41
0.0000000000000000
 71
     1
 72
     1
  1
{\H0.63x;{MAX GRIPPING FORCE}}
 11
1.000000000000000
 21
0.0000000000000000
 31
0.0000000000000000
  7
STANDARD
  0
MTEXT
  5
3A9
100
AcDbEntity
  8
MAIN0
  6
CONTINUOUS
 62
3
100
AcDbMText
 10
155.1548948266321
 20
51.32513275301605
 30
0.0000000000000000
 40
2.399999618530273
 41
0.0000000000000000
 71
     1
 72
     1
  1
{\H0.93x;{最大把握力　　}}
 11
1.000000000000000
 21
0.0000000000000000
 31
0.0000000000000000
  7
KNJYOKO
  0
MTEXT
  5
3AA
100
AcDbEntity
  8
MAIN0
  6
CONTINUOUS
 62
3
100
AcDbMText
 10
155.1548554626584
 20
45.42512217369216
 30
0.0000000000000000
 40
2.500000000000000
 41
0.0000000000000000
 71
     1
 72
     1
  1
{\H0.62x;{(ON AIR PRESSURE OF 0.6 MPa)}}
 11
1.000000000000000
 21
0.0000000000000000
 31
0.0000000000000000
  7
STANDARD
  0
LINE
  5
3AB
100
AcDbEntity
  8
MAIN0
  6
CONTINUOUS
 62
3
100
AcDbLine
 10
232.2827516302782
 20
76.92517162666047
 30
0.0000000000000000
 11
151.9494182969451
 21
76.92517162666047
 31
0.0000000000000000
  0
LINE
  5
3AC
100
AcDbEntity
  8
MAIN0
  6
CONTINUOUS
 62
3
100
AcDbLine
 10
232.2827516302781
 20
68.92517162666047
 30
0.0000000000000000
 11
151.9494182969445
 21
68.92517162666047
 31
0.0000000000000000
  0
LINE
  5
3AD
100
AcDbEntity
  8
MAIN0
  6
CONTINUOUS
 62
3
100
AcDbLine
 10
232.2827516302776
 20
61.92517162666036
 30
0.0000000000000000
 11
151.9494182969445
 21
61.92517162666036
 31
0.0000000000000000
  0
LINE
  5
3AE
100
AcDbEntity
  8
MAIN0
  6
CONTINUOUS
 62
3
100
AcDbLine
 10
232.2827516302790
 20
54.92517162666036
 30
0.0000000000000000
 11
151.9494182969445
 21
54.92517162666036
 31
0.0000000000000000
  0
LINE
  5
3AF
100
AcDbEntity
  8
MAIN0
  6
CONTINUOUS
 62
3
100
AcDbLine
 10
232.2827516302798
 20
41.92517162666039
 30
0.0000000000000000
 11
151.9494182969464
 21
41.92517162666039
 31
0.0000000000000000
  0
LINE
  5
3B0
100
AcDbEntity
  8
MAIN0
  6
CONTINUOUS
 62
3
100
AcDbLine
 10
232.2827516302774
 20
33.92517162666053
 30
0.0000000000000000
 11
151.9494182969470
 21
33.92517162666053
 31
0.0000000000000000
  0
LINE
  5
3B1
100
AcDbEntity
  8
MAIN0
  6
CONTINUOUS
 62
3
100
AcDbLine
 10
232.2827516302810
 20
19.92517162666039
 30
0.0000000000000000
 11
151.9494182969446
 21
19.92517162666039
 31
0.0000000000000000
  0
LINE
  5
3B2
100
AcDbEntity
  8
MAIN0
  6
CONTINUOUS
 62
3
100
AcDbLine
 10
202.2827516302776
 20
68.92517162666042
 30
0.0000000000000000
 11
202.2827516302810
 21
12.92522088276152
 31
0.0000000000000000
  0
LINE
  5
3B3
100
AcDbEntity
  8
MAIN0
  6
CONTINUOUS
 62
3
100
AcDbLine
 10
232.2827516302778
 20
76.92517162666029
 30
0.0000000000000000
 11
232.2827516302818
 21
12.92522088276147
 31
0.0000000000000000
  0
LINE
  5
3B4
100
AcDbEntity
  8
MAIN0
  6
CONTINUOUS
 62
3
100
AcDbLine
 10
151.9494182969444
 20
76.92517162666029
 30
0.0000000000000000
 11
151.9494182969484
 21
12.92522088276149
 31
0.0000000000000000
  0
MTEXT
  5
3B5
100
AcDbEntity
  8
MAIN0
  6
CONTINUOUS
 62
4
100
AcDbMText
 10
217.2827516302781
 20
65.72517086372068
 30
0.0000000000000000
 40
2.799999237060547
 41
0.0000000000000000
 71
     1
 72
     1
  1
{\H0.58x;{　　　　ｍｍ}}
 11
1.000000000000000
 21
0.0000000000000000
 31
0.0000000000000000
  7
KNJYOKO
  0
MTEXT
  5
3B6
100
AcDbEntity
  8
MAIN0
  6
CONTINUOUS
 62
4
100
AcDbMText
 10
217.2827516302795
 20
58.72517086372068
 30
0.0000000000000000
 40
2.799999237060547
 41
0.0000000000000000
 71
     1
 72
     1
  1
{\H0.58x;{　　　　ｍｍ}}
 11
1.000000000000000
 21
0.0000000000000000
 31
0.0000000000000000
  7
KNJYOKO
  0
MTEXT
  5
3B7
100
AcDbEntity
  8
MAIN0
  6
CONTINUOUS
 62
4
100
AcDbMText
 10
204.2827516302820
 20
47.72520419705404
 30
0.0000000000000000
 40
2.799999237060547
 41
0.0000000000000000
 71
     1
 72
     1
  1
{\H0.60x;{(}}
 11
1.000000000000000
 21
0.0000000000000000
 31
0.0000000000000000
  7
STANDARD
  0
MTEXT
  5
3B8
100
AcDbEntity
  8
MAIN0
  6
CONTINUOUS
 62
4
100
AcDbMText
 10
216.2827516302820
 20
47.72520419705404
 30
0.0000000000000000
 40
2.799999237060547
 41
0.0000000000000000
 71
     1
 72
     1
  1
{\H0.60x;{　　　ｋｇｆ)}}
 11
1.000000000000000
 21
0.0000000000000000
 31
0.0000000000000000
  7
KNJYOKO
  0
MTEXT
  5
3B9
100
AcDbEntity
  8
MAIN0
  6
CONTINUOUS
 62
4
100
AcDbMText
 10
217.2827516302820
 20
51.72520419705404
 30
0.0000000000000000
 40
2.799999237060547
 41
0.0000000000000000
 71
     1
 72
     1
  1
{\H0.58x;{　　　　ｋＮ}}
 11
1.000000000000000
 21
0.0000000000000000
 31
0.0000000000000000
  7
KNJYOKO
  0
MTEXT
  5
3BA
100
AcDbEntity
  8
MAIN0
  6
CONTINUOUS
 62
4
100
AcDbMText
 10
204.2827516302797
 20
37.22517086372096
 30
0.0000000000000000
 40
2.799999237060547
 41
0.0000000000000000
 71
     1
 72
     1
  1
{\H0.60x;{(}}
 11
1.000000000000000
 21
0.0000000000000000
 31
0.0000000000000000
  7
STANDARD
  0
MTEXT
  5
3BB
100
AcDbEntity
  8
MAIN0
  6
CONTINUOUS
 62
4
100
AcDbMText
 10
217.2827516302797
 20
41.22517086372096
 30
0.0000000000000000
 40
2.799999237060547
 41
0.0000000000000000
 71
     1
 72
     1
  1
{\H0.58x;{　　　ＭＰａ}}
 11
1.000000000000000
 21
0.0000000000000000
 31
0.0000000000000000
  7
KNJYOKO
  0
MTEXT
  5
3BC
100
AcDbEntity
  8
MAIN0
  6
CONTINUOUS
 62
4
100
AcDbMText
 10
228.3360474636453
 20
37.63557565488287
 30
0.0000000000000000
 40
2.000000000000000
 41
0.0000000000000000
 71
     1
 72
     1
  1
{\H0.81x;{2}}
 11
1.000000000000000
 21
0.0000000000000000
 31
0.0000000000000000
  7
STANDARD
  0
MTEXT
  5
3BD
100
AcDbEntity
  8
MAIN0
  6
CONTINUOUS
 62
4
100
AcDbMText
 10
216.2827516302797
 20
37.22517086372096
 30
0.0000000000000000
 40
2.799999237060547
 41
0.0000000000000000
 71
     1
 72
     1
  1
{\H0.62x;{ｋｇｆ／ｃｍ )}}
 11
1.000000000000000
 21
0.0000000000000000
 31
0.0000000000000000
  7
KNJYOKO
  0
MTEXT
  5
3BE
100
AcDbEntity
  8
MAIN0
  6
CONTINUOUS
 62
4
100
AcDbMText
 10
217.2827516302812
 20
16.72522011982156
 30
0.0000000000000000
 40
2.799999237060547
 41
0.0000000000000000
 71
     1
 72
     1
  1
{\H0.58x;{　　　　ｋｇ}}
 11
1.000000000000000
 21
0.0000000000000000
 31
0.0000000000000000
  7
KNJYOKO
  0
MTEXT
  5
3BF
100
AcDbEntity
  8
MAIN0
  6
CONTINUOUS
 62
3
100
AcDbMText
 10
174.0176659038908
 20
76.28529617924255
 30
0.0000000000000000
 40
3.100000381469727
 41
0.0000000000000000
 71
     1
 72
     1
  1
{\H0.94x;{SPECIFICATIONS}}
 11
1.000000000000000
 21
0.0000000000000000
 31
0.0000000000000000
  7
STANDARD
  0
MTEXT
  5
3C0
100
AcDbEntity
  8
MAIN0
  6
CONTINUOUS
 62
3
100
AcDbMText
 10
183.8208589929143
 20
72.74076067177430
 30
0.0000000000000000
 40
3.100000381469727
 41
0.0000000000000000
 71
     1
 72
     1
  1
{\H0.93x;{仕　　　様}}
 11
1.000000000000000
 21
0.0000000000000000
 31
0.0000000000000000
  7
KNJYOKO
  0
ARC
  5
3C1
100
AcDbEntity
  8
MAIN0
  6
HIDDEN
 62
3
100
AcDbCircle
 10
313.0703454776907
 20
174.5942703352358
 30
0.0000000000000000
 40
5.450000000000000
100
AcDbArc
 50
83.44661725505284
 51
216.5533827449536
  0
ARC
  5
3C2
100
AcDbEntity
  8
MAIN0
  6
HIDDEN
 62
3
100
AcDbCircle
 10
262.0592442615036
 20
174.5942703352359
 30
0.0000000000000000
 40
5.450000000000000
100
AcDbArc
 50
323.4466172550463
 51
456.5533827449470
  0
LINE
  5
3C3
100
AcDbEntity
  8
WAKU0
  6
CONTINUOUS
 62
3
100
AcDbLine
 10
240.0000000000000
 20
51.00000000000000
 30
0.0000000000000000
 11
410.0000000000000
 21
51.00000000000000
 31
0.0000000000000000
  0
LINE
  5
3C4
100
AcDbEntity
  8
WAKU0
  6
CONTINUOUS
 62
3
100
AcDbLine
 10
240.0000000000000
 20
51.00000000000000
 30
0.0000000000000000
 11
240.0000000000000
 21
12.00000000000000
 31
0.0000000000000000
  0
LINE
  5
3C5
100
AcDbEntity
  8
WAKU0
  6
CONTINUOUS
 62
3
100
AcDbLine
 10
312.0000000000000
 20
51.00000000000000
 30
0.0000000000000000
 11
312.0000000000000
 21
12.00000000000000
 31
0.0000000000000000
  0
LINE
  5
3C6
100
AcDbEntity
  8
WAKU0
  6
CONTINUOUS
 62
3
100
AcDbLine
 10
332.0000000000000
 20
51.00000000000000
 30
0.0000000000000000
 11
332.0000000000000
 21
12.00000000000000
 31
0.0000000000000000
  0
LINE
  5
3C7
100
AcDbEntity
  8
WAKU0
  6
CONTINUOUS
 62
3
100
AcDbLine
 10
344.0000000000000
 20
51.00000000000000
 30
0.0000000000000000
 11
344.0000000000000
 21
12.00000000000000
 31
0.0000000000000000
  0
LINE
  5
3C8
100
AcDbEntity
  8
WAKU0
  6
CONTINUOUS
 62
3
100
AcDbLine
 10
344.0000000000000
 20
37.00000000000000
 30
0.0000000000000000
 11
410.0000000000000
 21
37.00000000000000
 31
0.0000000000000000
  0
LINE
  5
3C9
100
AcDbEntity
  8
WAKU0
  6
CONTINUOUS
 62
3
100
AcDbLine
 10
332.0000000000000
 20
23.00000000000000
 30
0.0000000000000000
 11
410.0000000000000
 21
23.00000000000000
 31
0.0000000000000000
  0
LINE
  5
3CA
100
AcDbEntity
  8
WAKU0
  6
CONTINUOUS
 62
3
100
AcDbLine
 10
375.0000000000000
 20
51.00000000000000
 30
0.0000000000000000
 11
375.0000000000000
 21
44.00000000000000
 31
0.0000000000000000
  0
LINE
  5
3CB
100
AcDbEntity
  8
WAKU0
  6
CONTINUOUS
 62
3
100
AcDbLine
 10
387.0000000000000
 20
51.00000000000000
 30
0.0000000000000000
 11
387.0000000000000
 21
44.00000000000000
 31
0.0000000000000000
  0
LINE
  5
3CC
100
AcDbEntity
  8
WAKU0
  6
CONTINUOUS
 62
3
100
AcDbLine
 10
312.0000000000000
 20
31.50000000000000
 30
0.0000000000000000
 11
332.0000000000000
 21
31.50000000000000
 31
0.0000000000000000
  0
LINE
  5
3CD
100
AcDbEntity
  8
WAKU0
  6
CONTINUOUS
 62
3
100
AcDbLine
 10
332.0000000000000
 20
44.00000000000000
 30
0.0000000000000000
 11
410.0000000000000
 21
44.00000000000000
 31
0.0000000000000000
  0
LINE
  5
3CE
100
AcDbEntity
  8
WAKU0
  6
CONTINUOUS
 62
3
100
AcDbLine
 10
240.0000000000000
 20
37.00000000000000
 30
0.0000000000000000
 11
312.0000000000000
 21
37.00000000000000
 31
0.0000000000000000
  0
LINE
  5
3CF
100
AcDbEntity
  8
WAKU0
  6
CONTINUOUS
 62
3
100
AcDbLine
 10
240.0000000000000
 20
23.00000000000000
 30
0.0000000000000000
 11
312.0000000000000
 21
23.00000000000000
 31
0.0000000000000000
  0
LINE
  5
3D0
100
AcDbEntity
  8
WAKU0
  6
CONTINUOUS
 62
3
100
AcDbLine
 10
288.0000000000000
 20
37.00000000000000
 30
0.0000000000000000
 11
288.0000000000000
 21
12.00000000000000
 31
0.0000000000000000
  0
LINE
  5
3D1
100
AcDbEntity
  8
WAKU0
  6
CONTINUOUS
 62
3
100
AcDbLine
 10
264.0000000000000
 20
37.00000000000000
 30
0.0000000000000000
 11
264.0000000000000
 21
23.00000000000000
 31
0.0000000000000000
  0
LINE
  5
3D2
100
AcDbEntity
  8
WAKU0
  6
CONTINUOUS
 62
3
100
AcDbLine
 10
300.0000000000000
 20
26.00000000000000
 30
0.0000000000000000
 11
300.0000000000000
 21
23.00000000000000
 31
0.0000000000000000
  0
LINE
  5
3D3
100
AcDbEntity
  8
WAKU0
  6
CONTINUOUS
 62
3
100
AcDbLine
 10
276.0000000000000
 20
26.00000000000000
 30
0.0000000000000000
 11
276.0000000000000
 21
23.00000000000000
 31
0.0000000000000000
  0
LINE
  5
3D4
100
AcDbEntity
  8
WAKU0
  6
CONTINUOUS
 62
3
100
AcDbLine
 10
252.0000000000000
 20
26.00000000000000
 30
0.0000000000000000
 11
252.0000000000000
 21
23.00000000000000
 31
0.0000000000000000
  0
LINE
  5
3D5
100
AcDbEntity
  8
WAKU0
  6
CONTINUOUS
 62
3
100
AcDbLine
 10
258.0000000000000
 20
51.00000000000000
 30
0.0000000000000000
 11
258.0000000000000
 21
37.00000000000000
 31
0.0000000000000000
  0
LINE
  5
3D6
100
AcDbEntity
  8
WAKU0
  6
CONTINUOUS
 62
3
100
AcDbLine
 10
240.0000000000000
 20
45.00000000000000
 30
0.0000000000000000
 11
312.0000000000000
 21
45.00000000000000
 31
0.0000000000000000
  0
LINE
  5
3D7
100
AcDbEntity
  8
WAKU0
  6
HIDDEN
 62
3
100
AcDbLine
 10
360.5000000000000
 20
23.00000000000000
 30
0.0000000000000000
 11
360.5000000000000
 21
12.00000000000000
 31
0.0000000000000000
  0
LINE
  5
3D8
100
AcDbEntity
  8
WAKU0
  6
HIDDEN
 62
3
100
AcDbLine
 10
372.9000000000000
 20
23.00000000000000
 30
0.0000000000000000
 11
372.9000000000000
 21
12.00000000000000
 31
0.0000000000000000
  0
MTEXT
  5
3D9
100
AcDbEntity
  8
WAKU0
  6
CONTINUOUS
 62
3
100
AcDbMText
 10
344.4820000243485
 20
49.04999995231628
 30
0.0000000000000000
 40
3.099999904632568
 41
0.0000000000000000
 71
     1
 72
     1
  1
{\H0.91x;{AS04}}
 11
1.000000000000000
 21
0.0000000000000000
 31
0.0000000000000000
  7
STANDARD
  0
MTEXT
  5
3DA
100
AcDbEntity
  8
WAKU0
  6
CONTINUOUS
 62
3
100
AcDbMText
 10
344.4659999916852
 20
43.50000000000000
 30
0.0000000000000000
 40
3.000000000000000
 41
0.0000000000000000
 71
     1
 72
     1
  1
{\H0.94x;{ワークグリッパ　４\PＷＯＲＫ　ＧＲＩＰＰＥＲ　４}}
 11
1.000000000000000
 21
0.0000000000000000
 31
0.0000000000000000
  7
KNJYOKO
  0
MTEXT
  5
3DB
100
AcDbEntity
  8
WAKU0
  6
CONTINUOUS
 62
3
100
AcDbMText
 10
344.4820000243485
 20
34.23333326975504
 30
0.0000000000000000
 40
3.099999904632568
 41
0.0000000000000000
 71
     1
 72
     1
  1
{\H0.94x;{ＡＳ０４　ガイケイ\PＡＳ０４　ＯＵＴＳＩＤＥ　ＶＩＥＷ}}
 11
1.000000000000000
 21
0.0000000000000000
 31
0.0000000000000000
  7
KNJYOKO
  0
MTEXT
  5
3DC
100
AcDbEntity
  8
WAKU0
  6
CONTINUOUS
 62
3
100
AcDbMText
 10
318.0049998760223
 20
39.29999995231628
 30
0.0000000000000000
 40
3.099999904632568
 41
0.0000000000000000
 71
     1
 72
     1
  1
{\H0.90x;{1:1}}
 11
1.000000000000000
 21
0.0000000000000000
 31
0.0000000000000000
  7
STANDARD
  0
MTEXT
  5
3DD
100
AcDbEntity
  8
WAKU0
  6
CONTINUOUS
 62
3
100
AcDbMText
 10
374.4000001549721
 20
20.15000009536743
 30
0.0000000000000000
 40
5.300000190734863
 41
0.0000000000000000
 71
     1
 72
     1
  1
{\H0.90x;{1915}}
 11
1.000000000000000
 21
0.0000000000000000
 31
0.0000000000000000
  7
STANDARD
  0
MTEXT
  5
3DE
100
AcDbEntity
  8
WAKU0
  6
CONTINUOUS
 62
3
100
AcDbMText
 10
362.3000000834465
 20
20.15000009536743
 30
0.0000000000000000
 40
5.300000190734863
 41
0.0000000000000000
 71
     1
 72
     1
  1
{\H0.87x;{39}}
 11
1.000000000000000
 21
0.0000000000000000
 31
0.0000000000000000
  7
STANDARD
  0
MTEXT
  5
3DF
100
AcDbEntity
  8
WAKU0
  6
CONTINUOUS
 62
3
100
AcDbMText
 10
345.5000001192093
 20
20.15000009536743
 30
0.0000000000000000
 40
5.300000190734863
 41
0.0000000000000000
 71
     1
 72
     1
  1
{\H0.89x;{61P}}
 11
1.000000000000000
 21
0.0000000000000000
 31
0.0000000000000000
  7
STANDARD
  0
MTEXT
  5
3E0
100
AcDbEntity
  8
WAKU0
  6
CONTINUOUS
 62
3
100
AcDbMText
 10
400.0000000476837
 20
20.15000009536743
 30
0.0000000000000000
 40
5.300000190734863
 41
0.0000000000000000
 71
     1
 72
     1
  1
{\H0.81x;{2}}
 11
1.000000000000000
 21
0.0000000000000000
 31
0.0000000000000000
  7
STANDARD
  0
MTEXT
  5
3E1
100
AcDbEntity
  8
WAKU0
  6
CONTINUOUS
 62
3
100
AcDbMText
 10
400.0000000819564
 20
44.84999990463257
 30
0.0000000000000000
 40
5.300000190734863
 41
0.0000000000000000
 71
     7
 72
     1
  1
{\H0.81x;{ }}
 11
1.000000000000000
 21
0.0000000000000000
 31
0.0000000000000000
  7
STANDARD
  0
MTEXT
  5
3E2
100
AcDbEntity
  8
WAKU0
  6
CONTINUOUS
 62
3
100
AcDbMText
 10
289.3850002884865
 20
33.00000000000000
 30
0.0000000000000000
 40
3.000000000000000
 41
0.0000000000000000
 71
     7
 72
     1
  1
{\H0.93x;{DRAWN BY}}
 11
1.000000000000000
 21
0.0000000000000000
 31
0.0000000000000000
  7
STANDARD
  0
MTEXT
  5
3E3
100
AcDbEntity
  8
WAKU0
  6
CONTINUOUS
 62
3
100
AcDbMText
 10
269.2149997949600
 20
32.95000004768372
 30
0.0000000000000000
 40
3.099999904632568
 41
0.0000000000000000
 71
     7
 72
     1
  1
{\H0.92x;{CHIEF}}
 11
1.000000000000000
 21
0.0000000000000000
 31
0.0000000000000000
  7
STANDARD
  0
MTEXT
  5
3E4
100
AcDbEntity
  8
WAKU0
  6
CONTINUOUS
 62
3
100
AcDbMText
 10
242.4249997138977
 20
32.95000004768372
 30
0.0000000000000000
 40
3.099999904632568
 41
0.0000000000000000
 71
     7
 72
     1
  1
{\H0.92x;{MANAGER}}
 11
1.000000000000000
 21
0.0000000000000000
 31
0.0000000000000000
  7
STANDARD
  0
MTEXT
  5
3E5
100
AcDbEntity
  8
WAKU0
  6
CONTINUOUS
 62
3
100
AcDbMText
 10
244.6599994301796
 20
18.13333336512248
 30
0.0000000000000000
 40
3.099999904632568
 41
0.0000000000000000
 71
     7
 72
     1
  1
{\H0.93x;{KITAGAWA IRON\PWORKS CO.,LTD.}}
 11
1.000000000000000
 21
0.0000000000000000
 31
0.0000000000000000
  7
STANDARD
  0
MTEXT
  5
3E6
100
AcDbEntity
  8
WAKU0
  6
CONTINUOUS
 62
3
100
AcDbMText
 10
241.0850002169609
 20
46.50000000000000
 30
0.0000000000000000
 40
3.000000000000000
 41
0.0000000000000000
 71
     7
 72
     1
  1
{\H0.92x;{CAREER}}
 11
1.000000000000000
 21
0.0000000000000000
 31
0.0000000000000000
  7
STANDARD
  0
MTEXT
  5
3E7
100
AcDbEntity
  8
WAKU0
  6
CONTINUOUS
 62
3
100
AcDbMText
 10
294.6099998354912
 20
18.95000004768372
 30
0.0000000000000000
 40
3.099999904632568
 41
0.0000000000000000
 71
     7
 72
     1
  1
{\H0.91x;{DATE}}
 11
1.000000000000000
 21
0.0000000000000000
 31
0.0000000000000000
  7
STANDARD
  0
MTEXT
  5
3E8
100
AcDbEntity
  8
WAKU0
  6
CONTINUOUS
 62
3
100
AcDbMText
 10
313.9000002145767
 20
26.50000000000000
 30
0.0000000000000000
 40
3.000000000000000
 41
0.0000000000000000
 71
     7
 72
     1
  1
{\H0.63x;{3RD ANGLE}}
 11
1.000000000000000
 21
0.0000000000000000
 31
0.0000000000000000
  7
STANDARD
  0
MTEXT
  5
3E9
100
AcDbEntity
  8
WAKU0
  6
CONTINUOUS
 62
3
100
AcDbMText
 10
315.2149997949600
 20
45.95000004768372
 30
0.0000000000000000
 40
3.099999904632568
 41
0.0000000000000000
 71
     7
 72
     1
  1
{\H0.92x;{SCALE}}
 11
1.000000000000000
 21
0.0000000000000000
 31
0.0000000000000000
  7
STANDARD
  0
MTEXT
  5
3EA
100
AcDbEntity
  8
WAKU0
  6
CONTINUOUS
 62
3
100
AcDbMText
 10
405.7000000476837
 20
46.00000000000000
 30
0.0000000000000000
 40
3.000000000000000
 41
0.0000000000000000
 71
     7
 72
     1
  1
{\H0.63x;{kg}}
 11
1.000000000000000
 21
0.0000000000000000
 31
0.0000000000000000
  7
STANDARD
  0
MTEXT
  5
3EB
100
AcDbEntity
  8
WAKU0
  6
CONTINUOUS
 62
3
100
AcDbMText
 10
375.6000001430512
 20
46.00000000000000
 30
0.0000000000000000
 40
3.000000000000000
 41
0.0000000000000000
 71
     7
 72
     1
  1
{\H0.63x;{WEIGHT}}
 11
1.000000000000000
 21
0.0000000000000000
 31
0.0000000000000000
  7
STANDARD
  0
MTEXT
  5
3EC
100
AcDbEntity
  8
WAKU0
  6
CONTINUOUS
 62
3
100
AcDbMText
 10
334.0049998760223
 20
18.13333336512248
 30
0.0000000000000000
 40
3.099999904632568
 41
0.0000000000000000
 71
     7
 72
     1
  1
{\H0.90x;{DRW\PNO.}}
 11
1.000000000000000
 21
0.0000000000000000
 31
0.0000000000000000
  7
STANDARD
  0
MTEXT
  5
3ED
100
AcDbEntity
  8
WAKU0
  6
CONTINUOUS
 62
3
100
AcDbMText
 10
332.6099998354912
 20
31.95000004768372
 30
0.0000000000000000
 40
3.099999904632568
 41
0.0000000000000000
 71
     7
 72
     1
  1
{\H0.91x;{NAME}}
 11
1.000000000000000
 21
0.0000000000000000
 31
0.0000000000000000
  7
STANDARD
  0
MTEXT
  5
3EE
100
AcDbEntity
  8
WAKU0
  6
CONTINUOUS
 62
3
100
AcDbMText
 10
332.6099998354912
 20
45.95000004768372
 30
0.0000000000000000
 40
3.099999904632568
 41
0.0000000000000000
 71
     7
 72
     1
  1
{\H0.91x;{TYPE}}
 11
1.000000000000000
 21
0.0000000000000000
 31
0.0000000000000000
  7
STANDARD
  0
LINE
  5
3EF
100
AcDbEntity
  8
WAKU0
  6
HIDDEN
 62
3
100
AcDbLine
 10
407.1599564743885
 20
13.84999990463257
 30
0.0000000000000000
 11
396.9400436209789
 21
13.84999990463257
 31
0.0000000000000000
  0
LINE
  5
3F0
100
AcDbEntity
  8
WAKU0
  6
HIDDEN
 62
3
100
AcDbLine
 10
407.1599564743885
 20
13.84999990463250
 30
0.0000000000000000
 11
402.0500000476852
 21
22.70070406014901
 31
0.0000000000000000
  0
LINE
  5
3F1
100
AcDbEntity
  8
WAKU0
  6
HIDDEN
 62
3
100
AcDbLine
 10
402.0500000476852
 20
22.70070406014902
 30
0.0000000000000000
 11
396.9400436209789
 21
13.84999990463248
 31
0.0000000000000000
  0
LINE
  5
3F2
100
AcDbEntity
  8
WAKU0
  6
CONTINUOUS
 62
3
100
AcDbLine
 10
330.4713877753800
 20
15.78041421262812
 30
0.0000000000000000
 11
330.4713877753800
 21
21.78041421262815
 31
0.0000000000000000
  0
LINE
  5
3F3
100
AcDbEntity
  8
WAKU0
  6
CONTINUOUS
 62
3
100
AcDbLine
 10
323.9336941228225
 20
17.28041421262811
 30
0.0000000000000000
 11
323.9336941228225
 21
20.28041421262824
 31
0.0000000000000000
  0
LINE
  5
3F4
100
AcDbEntity
  8
WAKU0
  6
CENTER
 62
12
100
AcDbLine
 10
313.4321805514995
 20
18.78041421262813
 30
0.0000000000000000
 11
331.2765788964694
 21
18.78041421262813
 31
0.0000000000000000
  0
LINE
  5
3F5
100
AcDbEntity
  8
WAKU0
  6
CENTER
 62
12
100
AcDbLine
 10
317.4474565857986
 20
14.55921662918448
 30
0.0000000000000000
 11
317.4474565857986
 21
22.89865102149943
 31
0.0000000000000000
  0
LINE
  5
3F6
100
AcDbEntity
  8
WAKU0
  6
CONTINUOUS
 62
3
100
AcDbLine
 10
323.9336941228225
 20
20.28041421262797
 30
0.0000000000000000
 11
330.4713877753800
 21
21.78041421262795
 31
0.0000000000000000
  0
LINE
  5
3F7
100
AcDbEntity
  8
WAKU0
  6
CONTINUOUS
 62
3
100
AcDbLine
 10
323.9336941228225
 20
17.28041421262811
 30
0.0000000000000000
 11
330.4713877753799
 21
15.78041421262812
 31
0.0000000000000000
  0
CIRCLE
  5
3F8
100
AcDbEntity
  8
WAKU0
  6
CONTINUOUS
 62
3
100
AcDbCircle
 10
317.4474565857986
 20
18.78041421262813
 30
0.0000000000000000
 40
1.499999999999972
  0
CIRCLE
  5
3F9
100
AcDbEntity
  8
WAKU0
  6
CONTINUOUS
 62
3
100
AcDbCircle
 10
317.4474565857986
 20
18.78041421262813
 30
0.0000000000000000
 40
2.999999999999979
  0
ENDSEC
  0
SECTION
  2
OBJECTS
  0
DICTIONARY
  5
44C
100
AcDbDictionary
  3
ACAD_GROUP
350
44D
  3
ACAD_MLINESTYLE
350
44E
  3
DWGPROPS
350
44F
  0
DICTIONARY
  5
44D
102
{ACAD_REACTORS
330
44C
102
}
100
AcDbDictionary
  0
DICTIONARY
  5
44E
102
{ACAD_REACTORS
330
44C
102
}
100
AcDbDictionary
  3
STANDARD
350
450
  0
MLINESTYLE
  5
450
102
{ACAD_REACTORS
330
44E
102
}
100
AcDbMlineStyle
  2
STANDARD
 70
     0
  3

 62
   256
 51
90.00
 52
90.00
 71
     2
 49
0.50
 62
   256
  6
BYLAYER
 49
-0.50
 62
   256
  6
BYLAYER
  0
XRECORD
  5
44F
102
{ACAD_REACTORS
330
44C
102
}
100
AcDbXrecord
280
     1
  1
DWGPROPS COOKIE
  2
ＡＳ０４　ガイケイ
  3

  4

  6
ワークグリッパ　４
  7

  8

  9

300
=
301
=
302
=
303
=
304
=
305
=
306
=
307
=
308
=
309
=
 40
0.000000
 41
0.000000
 42
0.000000
  1

 90
        0
  0
ENDSEC
  0
EOF
