  0
SECTION
  2
HEADER
  9
$ACADVER
  1
AC1014
  9
$DWGCODEPAGE
  3
ANSI_932
  9
$LTSCALE
 40
20.0
  9
$FILLMODE
 70
     1
  9
$CLAYER
  8
0
  9
$PDMODE
 70
     0
  9
$SPLFRAME
 70
     0
  9
$SPLINETYPE
 70
     6
  9
$SPLINESEGS
 70
     8
  9
$DIMASZ
 40
2.000000
  9
$DIMEXE
 40
2.000000
  9
$DIMEXO
 40
0.800000
  9
$DIMTAD
 70
     1
  9
$DIMTIH
 70
     0
  9
$DIMTOH
 70
     0
  9
$DIMTVP
 40
0.500000
  9
$DIMTXT
 40
3.100000
  9
$EXTMIN
 10
0.000000
 20
0.000000
 30
0.000000
  9
$EXTMAX
 10
420.000000
 20
594.000000
 30
0.000000
  9
$MEASUREMENT
 70
  1
  9
$LIMMIN
 10
0.000000
 20
0.000000
  9
$LIMMAX
 10
420.000000
 20
594.000000
  9
$HANDLING
 70
     1
  9
$HANDSEED
  5
47B
  9
$DIMBLK
  1
_OPEN
  9
$DIMDEC
 70
     3
  9
$DIMAUNIT
 70
     1
  9
$DIMZIN
 70
     8
  9
$DIMTOFL
 70
     1
  0
ENDSEC
  0
SECTION
  2
CLASSES
  0
ENDSEC
  0
SECTION
  2
TABLES
  0
TABLE
  2
VPORT
  5
424
100
AcDbSymbolTable
 70
     1
  0
VPORT
  5
425
100
AcDbSymbolTableRecord
100
AcDbViewportTableRecord
  2
*ACTIVE
 70
     0
 12
297.000000
 22
210.000000
 40
420.000000
 41
1.414286
  0
ENDTAB
  0
TABLE
  2
LTYPE
  5
426
100
AcDbSymbolTable
 70
     4
  0
LTYPE
  5
427
100
AcDbSymbolTableRecord
100
AcDbLinetypeTableRecord
  2
BYBLOCK
 70
     0
  3

 72
    65
 73
     0
 40
0.0
  0
LTYPE
  5
428
100
AcDbSymbolTableRecord
100
AcDbLinetypeTableRecord
  2
BYLAYER
 70
     0
  3

 72
    65
 73
     0
 40
0.0
  0
LTYPE
  5
429
100
AcDbSymbolTableRecord
100
AcDbLinetypeTableRecord
  2
CONTINUOUS
 70
     0
  3
Solid line (NEC CAE2D for Win R12.1 : 2015.02.18)
 72
    65
 73
     0
 40
0.0
  0
LTYPE
  5
42A
100
AcDbSymbolTableRecord
100
AcDbLinetypeTableRecord
  2
HIDDEN
 70
     0
  3
__ __ __ __ __ __ __ __ __ __ __ __ __ __
 72
    65
 73
     2
 40
0.375
 49
0.25
 74
     0
 49
-0.125
 74
     0
  0
LTYPE
  5
42B
100
AcDbSymbolTableRecord
100
AcDbLinetypeTableRecord
  2
CENTER
 70
     0
  3
____ _ ____ _ ____ _ ____ _ ____ _ ____
 72
    65
 73
     4
 40
2.0
 49
1.25
 74
     0
 49
-0.25
 74
     0
 49
0.25
 74
     0
 49
-0.25
 74
     0
  0
LTYPE
  5
42C
100
AcDbSymbolTableRecord
100
AcDbLinetypeTableRecord
  2
PHANTOM
 70
     0
  3
______  __  __  ______  __  __  ______ 
 72
    65
 73
     6
 40
2.5
 49
1.25
 74
     0
 49
-0.25
 74
     0
 49
0.25
 74
     0
 49
-0.25
 74
     0
 49
0.25
 74
     0
 49
-0.25
 74
     0
  0
ENDTAB
  0
TABLE
  2
LAYER
  5
42D
100
AcDbSymbolTable
 70
    13
  0
LAYER
  5
42E
100
AcDbSymbolTableRecord
100
AcDbLayerTableRecord
  2
0
 70
     0
 62
     7
  6
CONTINUOUS
  0
LAYER
  5
42F
100
AcDbSymbolTableRecord
100
AcDbLayerTableRecord
  2
MAIN0
 70
     0
 62
     7
  6
CONTINUOUS
  0
LAYER
  5
430
100
AcDbSymbolTableRecord
100
AcDbLayerTableRecord
  2
MAIN1
 70
     0
 62
     7
  6
CONTINUOUS
  0
LAYER
  5
431
100
AcDbSymbolTableRecord
100
AcDbLayerTableRecord
  2
MAIN2
 70
     0
 62
     7
  6
CONTINUOUS
  0
LAYER
  5
432
100
AcDbSymbolTableRecord
100
AcDbLayerTableRecord
  2
MAIN3
 70
     0
 62
     7
  6
CONTINUOUS
  0
LAYER
  5
433
100
AcDbSymbolTableRecord
100
AcDbLayerTableRecord
  2
MAIN4
 70
     0
 62
     7
  6
CONTINUOUS
  0
LAYER
  5
434
100
AcDbSymbolTableRecord
100
AcDbLayerTableRecord
  2
MAIN5
 70
     0
 62
     7
  6
CONTINUOUS
  0
LAYER
  5
435
100
AcDbSymbolTableRecord
100
AcDbLayerTableRecord
  2
MAIN6
 70
     0
 62
     7
  6
CONTINUOUS
  0
LAYER
  5
436
100
AcDbSymbolTableRecord
100
AcDbLayerTableRecord
  2
MAIN10
 70
     0
 62
     7
  6
CONTINUOUS
  0
LAYER
  5
437
100
AcDbSymbolTableRecord
100
AcDbLayerTableRecord
  2
MAIN100
 70
     0
 62
     7
  6
CONTINUOUS
  0
LAYER
  5
438
100
AcDbSymbolTableRecord
100
AcDbLayerTableRecord
  2
MAIN1023
 70
     0
 62
    16
  6
CONTINUOUS
  0
LAYER
  5
439
100
AcDbSymbolTableRecord
100
AcDbLayerTableRecord
  2
WAKU0
 70
     0
 62
     7
  6
CONTINUOUS
  0
LAYER
  5
43A
100
AcDbSymbolTableRecord
100
AcDbLayerTableRecord
  2
WAKU1023
 70
     0
 62
    16
  6
CONTINUOUS
  0
ENDTAB
  0
TABLE
  2
STYLE
  5
43B
100
AcDbSymbolTable
 70
     4
  0
STYLE
  5
43C
100
AcDbSymbolTableRecord
100
AcDbTextStyleTableRecord
  2
STANDARD
 70
    64
 40
0.0
 41
1.0
 50
0.0
 71
     0
 42
3.099999904632568
  3
TXT
  4

  0
STYLE
  5
43D
100
AcDbSymbolTableRecord
100
AcDbTextStyleTableRecord
  2
ANKTATE
 70
    68
 40
0.0
 41
1.0
 50
0.0
 71
     0
 42
3.099999904632568
  3
TXT
  4

  0
STYLE
  5
17B
100
AcDbSymbolTableRecord
100
AcDbTextStyleTableRecord
  2
KNJYOKO
 70
    64
 40
0.0
 41
1.0
 50
0.0
 71
     0
 42
3.099999904632568
  3
TXT
  4
BIGFONT
  0
STYLE
  5
43E
100
AcDbSymbolTableRecord
100
AcDbTextStyleTableRecord
  2
KNJTATE
 70
    68
 40
0.0
 41
1.0
 50
0.0
 71
     0
 42
3.099999904632568
  3
TXT
  4
BIGFONT
  0
ENDTAB
  0
TABLE
  2
VIEW
  5
43F
100
AcDbSymbolTable
 70
     0
  0
ENDTAB
  0
TABLE
  2
UCS
  5
440
100
AcDbSymbolTable
 70
     0
  0
ENDTAB
  0
TABLE
  2
APPID
  5
441
100
AcDbSymbolTable
 70
     1
  0
APPID
  5
442
100
AcDbSymbolTableRecord
100
AcDbRegAppTableRecord
  2
ACAD
 70
     0
  0
ENDTAB
  0
TABLE
  2
DIMSTYLE
  5
443
100
AcDbSymbolTable
 70
     1
  0
DIMSTYLE
105
444
100
AcDbSymbolTableRecord
100
AcDbDimStyleTableRecord
  2
STANDARD
 70
     0
 41
2.000000
 44
2.000000
 42
0.800000
145
0.661290
140
3.100000
144
1.000000
146
0.903226
340
43C
  0
DIMSTYLE
105
445
100
AcDbSymbolTableRecord
100
AcDbDimStyleTableRecord
  2
MAIN001
 70
     0
 41
2.000000
 44
2.000000
 42
0.800000
145
0.661290
140
3.100000
144
1.000000
146
0.903226
 77
     1
 73
     0
 74
     0
271
     3
275
     1
 78
     8
172
     1
340
43C
  0
DIMSTYLE
105
446
100
AcDbSymbolTableRecord
100
AcDbDimStyleTableRecord
  2
WAKU002
 70
     0
 41
2.000000
 44
2.000000
 42
0.800000
145
0.661290
140
3.100000
144
1.000000
146
0.903226
 77
     1
 73
     0
 74
     0
271
     3
275
     1
 78
     8
172
     1
340
43C
  0
ENDTAB
  0
TABLE
  2
BLOCK_RECORD
  5
447
100
AcDbSymbolTable
 70
    52
  0
BLOCK_RECORD
  5
448
100
AcDbSymbolTableRecord
100
AcDbBlockTableRecord
  2
*MODEL_SPACE
  0
BLOCK_RECORD
  5
449
100
AcDbSymbolTableRecord
100
AcDbBlockTableRecord
  2
*PAPER_SPACE
  0
BLOCK_RECORD
  5
1
100
AcDbSymbolTableRecord
100
AcDbBlockTableRecord
  2
_NONE
  0
BLOCK_RECORD
  5
4
100
AcDbSymbolTableRecord
100
AcDbBlockTableRecord
  2
_CLOSED
  0
BLOCK_RECORD
  5
B
100
AcDbSymbolTableRecord
100
AcDbBlockTableRecord
  2
_DOT
  0
BLOCK_RECORD
  5
13
100
AcDbSymbolTableRecord
100
AcDbBlockTableRecord
  2
_OPEN
  0
BLOCK_RECORD
  5
19
100
AcDbSymbolTableRecord
100
AcDbBlockTableRecord
  2
_ORIGIN
  0
BLOCK_RECORD
  5
1E
100
AcDbSymbolTableRecord
100
AcDbBlockTableRecord
  2
_OPEN30
  0
BLOCK_RECORD
  5
24
100
AcDbSymbolTableRecord
100
AcDbBlockTableRecord
  2
_BOXFILLED
  0
BLOCK_RECORD
  5
29
100
AcDbSymbolTableRecord
100
AcDbBlockTableRecord
  2
_BOXBLANK
  0
BLOCK_RECORD
  5
31
100
AcDbSymbolTableRecord
100
AcDbBlockTableRecord
  2
_OBLIQUE
  0
BLOCK_RECORD
  5
35
100
AcDbSymbolTableRecord
100
AcDbBlockTableRecord
  2
_OPEN90
  0
BLOCK_RECORD
  5
3B
100
AcDbSymbolTableRecord
100
AcDbBlockTableRecord
  2
_CLOSEDBLANK
  0
BLOCK_RECORD
  5
41
100
AcDbSymbolTableRecord
100
AcDbBlockTableRecord
  2
_DOTBLANK
  0
BLOCK_RECORD
  5
44A
100
AcDbSymbolTableRecord
100
AcDbBlockTableRecord
  2
*D0
  0
BLOCK_RECORD
  5
44B
100
AcDbSymbolTableRecord
100
AcDbBlockTableRecord
  2
*D1
  0
BLOCK_RECORD
  5
44C
100
AcDbSymbolTableRecord
100
AcDbBlockTableRecord
  2
*D2
  0
BLOCK_RECORD
  5
44D
100
AcDbSymbolTableRecord
100
AcDbBlockTableRecord
  2
*D3
  0
BLOCK_RECORD
  5
44E
100
AcDbSymbolTableRecord
100
AcDbBlockTableRecord
  2
*D4
  0
BLOCK_RECORD
  5
44F
100
AcDbSymbolTableRecord
100
AcDbBlockTableRecord
  2
*D5
  0
BLOCK_RECORD
  5
450
100
AcDbSymbolTableRecord
100
AcDbBlockTableRecord
  2
*D6
  0
BLOCK_RECORD
  5
451
100
AcDbSymbolTableRecord
100
AcDbBlockTableRecord
  2
*D7
  0
BLOCK_RECORD
  5
452
100
AcDbSymbolTableRecord
100
AcDbBlockTableRecord
  2
*D8
  0
BLOCK_RECORD
  5
453
100
AcDbSymbolTableRecord
100
AcDbBlockTableRecord
  2
*D9
  0
BLOCK_RECORD
  5
454
100
AcDbSymbolTableRecord
100
AcDbBlockTableRecord
  2
*D10
  0
BLOCK_RECORD
  5
455
100
AcDbSymbolTableRecord
100
AcDbBlockTableRecord
  2
*D11
  0
BLOCK_RECORD
  5
456
100
AcDbSymbolTableRecord
100
AcDbBlockTableRecord
  2
*D12
  0
BLOCK_RECORD
  5
457
100
AcDbSymbolTableRecord
100
AcDbBlockTableRecord
  2
*D13
  0
BLOCK_RECORD
  5
458
100
AcDbSymbolTableRecord
100
AcDbBlockTableRecord
  2
*D14
  0
BLOCK_RECORD
  5
459
100
AcDbSymbolTableRecord
100
AcDbBlockTableRecord
  2
*D15
  0
BLOCK_RECORD
  5
45A
100
AcDbSymbolTableRecord
100
AcDbBlockTableRecord
  2
*D16
  0
BLOCK_RECORD
  5
45B
100
AcDbSymbolTableRecord
100
AcDbBlockTableRecord
  2
*D17
  0
BLOCK_RECORD
  5
45C
100
AcDbSymbolTableRecord
100
AcDbBlockTableRecord
  2
*D18
  0
BLOCK_RECORD
  5
45D
100
AcDbSymbolTableRecord
100
AcDbBlockTableRecord
  2
*D19
  0
BLOCK_RECORD
  5
45E
100
AcDbSymbolTableRecord
100
AcDbBlockTableRecord
  2
*D20
  0
BLOCK_RECORD
  5
45F
100
AcDbSymbolTableRecord
100
AcDbBlockTableRecord
  2
*D21
  0
BLOCK_RECORD
  5
460
100
AcDbSymbolTableRecord
100
AcDbBlockTableRecord
  2
*D22
  0
BLOCK_RECORD
  5
461
100
AcDbSymbolTableRecord
100
AcDbBlockTableRecord
  2
*D23
  0
BLOCK_RECORD
  5
462
100
AcDbSymbolTableRecord
100
AcDbBlockTableRecord
  2
*D24
  0
BLOCK_RECORD
  5
463
100
AcDbSymbolTableRecord
100
AcDbBlockTableRecord
  2
*D25
  0
BLOCK_RECORD
  5
464
100
AcDbSymbolTableRecord
100
AcDbBlockTableRecord
  2
*D26
  0
BLOCK_RECORD
  5
465
100
AcDbSymbolTableRecord
100
AcDbBlockTableRecord
  2
*D27
  0
BLOCK_RECORD
  5
466
100
AcDbSymbolTableRecord
100
AcDbBlockTableRecord
  2
*D28
  0
BLOCK_RECORD
  5
467
100
AcDbSymbolTableRecord
100
AcDbBlockTableRecord
  2
*D29
  0
BLOCK_RECORD
  5
468
100
AcDbSymbolTableRecord
100
AcDbBlockTableRecord
  2
*D30
  0
BLOCK_RECORD
  5
469
100
AcDbSymbolTableRecord
100
AcDbBlockTableRecord
  2
M0
  0
BLOCK_RECORD
  5
46A
100
AcDbSymbolTableRecord
100
AcDbBlockTableRecord
  2
M1
  0
BLOCK_RECORD
  5
46B
100
AcDbSymbolTableRecord
100
AcDbBlockTableRecord
  2
*X0
  0
BLOCK_RECORD
  5
46C
100
AcDbSymbolTableRecord
100
AcDbBlockTableRecord
  2
*X1
  0
BLOCK_RECORD
  5
46D
100
AcDbSymbolTableRecord
100
AcDbBlockTableRecord
  2
*D31
  0
BLOCK_RECORD
  5
46E
100
AcDbSymbolTableRecord
100
AcDbBlockTableRecord
  2
*D32
  0
BLOCK_RECORD
  5
46F
100
AcDbSymbolTableRecord
100
AcDbBlockTableRecord
  2
*D33
  0
BLOCK_RECORD
  5
470
100
AcDbSymbolTableRecord
100
AcDbBlockTableRecord
  2
*D34
  0
BLOCK_RECORD
  5
471
100
AcDbSymbolTableRecord
100
AcDbBlockTableRecord
  2
*D35
  0
ENDTAB
  0
ENDSEC
  0
SECTION
  2
BLOCKS
  0
BLOCK
  5
472
100
AcDbEntity
  8
0
100
AcDbBlockBegin
  2
*MODEL_SPACE
 70
     0
 10
0.0
 20
0.0
 30
0.0
  3
*MODEL_SPACE
  1

  0
ENDBLK
  5
473
100
AcDbEntity
  8
0
100
AcDbBlockEnd
  0
BLOCK
  5
474
100
AcDbEntity
  8
0
100
AcDbBlockBegin
  2
*PAPER_SPACE
 70
     0
 10
0.0
 20
0.0
 30
0.0
  3
*PAPER_SPACE
  1

  0
ENDBLK
  5
475
100
AcDbEntity
  8
0
100
AcDbBlockEnd
  0
BLOCK
  5
2
100
AcDbEntity
  8
0
100
AcDbBlockBegin
  2
_NONE
 70
     0
 10
0.0
 20
0.0
 30
0.0
  3
_NONE
  1

  0
ENDBLK
  5
3
100
AcDbEntity
  8
0
100
AcDbBlockEnd
  0
BLOCK
  5
5
100
AcDbEntity
  8
0
100
AcDbBlockBegin
  2
_CLOSED
 70
     0
 10
0.0
 20
0.0
 30
0.0
  3
_CLOSED
  1

  0
LINE
  5
6
100
AcDbEntity
  8
0
  6
BYBLOCK
 62
     0
100
AcDbLine
 10
-1.0
 20
0.166667
 30
0.0
 11
0.0
 21
0.0
 31
0.0
  0
LINE
  5
7
100
AcDbEntity
  8
0
  6
BYBLOCK
 62
     0
100
AcDbLine
 10
0.0
 20
0.0
 30
0.0
 11
-1.0
 21
-0.166667
 31
0.0
  0
LINE
  5
8
100
AcDbEntity
  8
0
  6
BYBLOCK
 62
     0
100
AcDbLine
 10
-1.0
 20
0.166667
 30
0.0
 11
-1.0
 21
-0.166667
 31
0.0
  0
LINE
  5
9
100
AcDbEntity
  8
0
  6
BYBLOCK
 62
     0
100
AcDbLine
 10
0.0
 20
0.0
 30
0.0
 11
-1.0
 21
0.0
 31
0.0
  0
ENDBLK
  5
A
100
AcDbEntity
  8
0
100
AcDbBlockEnd
  0
BLOCK
  5
C
100
AcDbEntity
  8
0
100
AcDbBlockBegin
  2
_DOT
 70
     0
 10
0.0
 20
0.0
 30
0.0
  3
_DOT
  1

  0
POLYLINE
  5
D
100
AcDbEntity
  8
0
  6
BYBLOCK
 62
     0
100
AcDb2dPolyline
 66
     1
 10
0.0
 20
0.0
 30
0.0
 70
     1
 40
0.5
 41
0.5
  0
VERTEX
  5
E
100
AcDbEntity
  8
0
  6
BYBLOCK
 62
     0
100
AcDbVertex
100
AcDb2dVertex
 10
-0.25
 20
0.0
 30
0.0
 42
1.0
  0
VERTEX
  5
F
100
AcDbEntity
  8
0
  6
BYBLOCK
 62
     0
100
AcDbVertex
100
AcDb2dVertex
 10
0.25
 20
0.0
 30
0.0
 42
1.0
  0
SEQEND
  5
10
100
AcDbEntity
  8
0
  6
BYBLOCK
 62
     0
  0
LINE
  5
11
100
AcDbEntity
  8
0
  6
BYBLOCK
 62
     0
100
AcDbLine
 10
-0.5
 20
0.0
 30
0.0
 11
-1.0
 21
0.0
 31
0.0
  0
ENDBLK
  5
12
100
AcDbEntity
  8
0
100
AcDbBlockEnd
  0
BLOCK
  5
14
100
AcDbEntity
  8
0
100
AcDbBlockBegin
  2
_OPEN
 70
     0
 10
0.0
 20
0.0
 30
0.0
  3
_OPEN
  1

  0
LINE
  5
15
100
AcDbEntity
  8
0
  6
BYBLOCK
 62
     0
100
AcDbLine
 10
-1.0
 20
0.166667
 30
0.0
 11
0.0
 21
0.0
 31
0.0
  0
LINE
  5
16
100
AcDbEntity
  8
0
  6
BYBLOCK
 62
     0
100
AcDbLine
 10
0.0
 20
0.0
 30
0.0
 11
-1.0
 21
-0.166667
 31
0.0
  0
LINE
  5
17
100
AcDbEntity
  8
0
  6
BYBLOCK
 62
     0
100
AcDbLine
 10
0.0
 20
0.0
 30
0.0
 11
-1.0
 21
0.0
 31
0.0
  0
ENDBLK
  5
18
100
AcDbEntity
  8
0
100
AcDbBlockEnd
  0
BLOCK
  5
1A
100
AcDbEntity
  8
0
100
AcDbBlockBegin
  2
_ORIGIN
 70
     0
 10
0.0
 20
0.0
 30
0.0
  3
_ORIGIN
  1

  0
CIRCLE
  5
1B
100
AcDbEntity
  8
0
  6
BYBLOCK
 62
     0
100
AcDbCircle
 10
0.0
 20
0.0
 30
0.0
 40
0.5
  0
LINE
  5
1C
100
AcDbEntity
  8
0
  6
BYBLOCK
 62
     0
100
AcDbLine
 10
0.0
 20
0.0
 30
0.0
 11
-1.0
 21
0.0
 31
0.0
  0
ENDBLK
  5
1D
100
AcDbEntity
  8
0
100
AcDbBlockEnd
  0
BLOCK
  5
1F
100
AcDbEntity
  8
0
100
AcDbBlockBegin
  2
_OPEN30
 70
     0
 10
0.0
 20
0.0
 30
0.0
  3
_OPEN30
  1

  0
LINE
  5
20
100
AcDbEntity
  8
0
  6
BYBLOCK
 62
     0
100
AcDbLine
 10
-1.0
 20
0.267949
 30
0.0
 11
0.0
 21
0.0
 31
0.0
  0
LINE
  5
21
100
AcDbEntity
  8
0
  6
BYBLOCK
 62
     0
100
AcDbLine
 10
0.0
 20
0.0
 30
0.0
 11
-1.0
 21
-0.267949
 31
0.0
  0
LINE
  5
22
100
AcDbEntity
  8
0
  6
BYBLOCK
 62
     0
100
AcDbLine
 10
0.0
 20
0.0
 30
0.0
 11
-1.0
 21
0.0
 31
0.0
  0
ENDBLK
  5
23
100
AcDbEntity
  8
0
100
AcDbBlockEnd
  0
BLOCK
  5
25
100
AcDbEntity
  8
0
100
AcDbBlockBegin
  2
_BOXFILLED
 70
     0
 10
0.0
 20
0.0
 30
0.0
  3
_BOXFILLED
  1

  0
SOLID
  5
26
100
AcDbEntity
  8
0
  6
BYBLOCK
 62
     0
100
AcDbTrace
 10
-0.5
 20
0.5
 30
0.0
 11
0.5
 21
0.5
 31
0.0
 12
-0.5
 22
-0.5
 32
0.0
 13
0.5
 23
-0.5
 33
0.0
  0
LINE
  5
27
100
AcDbEntity
  8
0
  6
BYBLOCK
 62
     0
100
AcDbLine
 10
-0.5
 20
0.0
 30
0.0
 11
-1.0
 21
0.0
 31
0.0
  0
ENDBLK
  5
28
100
AcDbEntity
  8
0
100
AcDbBlockEnd
  0
BLOCK
  5
2A
100
AcDbEntity
  8
0
100
AcDbBlockBegin
  2
_BOXBLANK
 70
     0
 10
0.0
 20
0.0
 30
0.0
  3
_BOXBLANK
  1

  0
LINE
  5
2B
100
AcDbEntity
  8
0
  6
BYBLOCK
 62
     0
100
AcDbLine
 10
-0.5
 20
-0.5
 30
0.0
 11
0.5
 21
-0.5
 31
0.0
  0
LINE
  5
2C
100
AcDbEntity
  8
0
  6
BYBLOCK
 62
     0
100
AcDbLine
 10
0.5
 20
-0.5
 30
0.0
 11
0.5
 21
0.5
 31
0.0
  0
LINE
  5
2D
100
AcDbEntity
  8
0
  6
BYBLOCK
 62
     0
100
AcDbLine
 10
0.5
 20
0.5
 30
0.0
 11
-0.5
 21
0.5
 31
0.0
  0
LINE
  5
2E
100
AcDbEntity
  8
0
  6
BYBLOCK
 62
     0
100
AcDbLine
 10
-0.5
 20
0.5
 30
0.0
 11
-0.5
 21
-0.5
 31
0.0
  0
LINE
  5
2F
100
AcDbEntity
  8
0
  6
BYBLOCK
 62
     0
100
AcDbLine
 10
-0.5
 20
0.0
 30
0.0
 11
-1.0
 21
0.0
 31
0.0
  0
ENDBLK
  5
30
100
AcDbEntity
  8
0
100
AcDbBlockEnd
  0
BLOCK
  5
32
100
AcDbEntity
  8
0
100
AcDbBlockBegin
  2
_OBLIQUE
 70
     0
 10
0.0
 20
0.0
 30
0.0
  3
_OBLIQUE
  1

  0
LINE
  5
33
100
AcDbEntity
  8
0
  6
BYBLOCK
 62
     0
100
AcDbLine
 10
-0.5
 20
-0.5
 30
0.0
 11
0.5
 21
0.5
 31
0.0
  0
ENDBLK
  5
34
100
AcDbEntity
  8
0
100
AcDbBlockEnd
  0
BLOCK
  5
36
100
AcDbEntity
  8
0
100
AcDbBlockBegin
  2
_OPEN90
 70
     0
 10
0.0
 20
0.0
 30
0.0
  3
_OPEN90
  1

  0
LINE
  5
37
100
AcDbEntity
  8
0
  6
BYBLOCK
 62
     0
100
AcDbLine
 10
-0.5
 20
0.5
 30
0.0
 11
0.0
 21
0.0
 31
0.0
  0
LINE
  5
38
100
AcDbEntity
  8
0
  6
BYBLOCK
 62
     0
100
AcDbLine
 10
0.0
 20
0.0
 30
0.0
 11
-0.5
 21
-0.5
 31
0.0
  0
LINE
  5
39
100
AcDbEntity
  8
0
  6
BYBLOCK
 62
     0
100
AcDbLine
 10
0.0
 20
0.0
 30
0.0
 11
-1.0
 21
0.0
 31
0.0
  0
ENDBLK
  5
3A
100
AcDbEntity
  8
0
100
AcDbBlockEnd
  0
BLOCK
  5
3C
100
AcDbEntity
  8
0
100
AcDbBlockBegin
  2
_CLOSEDBLANK
 70
     0
 10
0.0
 20
0.0
 30
0.0
  3
_CLOSEDBLANK
  1

  0
LINE
  5
3D
100
AcDbEntity
  8
0
  6
BYBLOCK
 62
     0
100
AcDbLine
 10
-1.0
 20
0.1666666666666666
 30
0.0
 11
0.0
 21
0.0
 31
0.0
  0
LINE
  5
3E
100
AcDbEntity
  8
0
  6
BYBLOCK
 62
     0
100
AcDbLine
 10
0.0
 20
0.0
 30
0.0
 11
-1.0
 21
-0.1666666666666666
 31
0.0
  0
LINE
  5
3F
100
AcDbEntity
  8
0
  6
BYBLOCK
 62
     0
100
AcDbLine
 10
-1.0
 20
0.1666666666666666
 30
0.0
 11
-1.0
 21
-0.1666666666666666
 31
0.0
  0
ENDBLK
  5
40
100
AcDbEntity
  8
0
100
AcDbBlockEnd
  0
BLOCK
  5
42
100
AcDbEntity
  8
0
100
AcDbBlockBegin
  2
_DOTBLANK
 70
     0
 10
0.0
 20
0.0
 30
0.0
  3
_DOTBLANK
  1

  0
CIRCLE
  5
43
100
AcDbEntity
  8
0
  6
BYBLOCK
 62
     0
100
AcDbCircle
 10
0.0
 20
0.0
 30
0.0
 40
0.5
  0
LINE
  5
44
100
AcDbEntity
  8
0
  6
BYBLOCK
 62
     0
100
AcDbLine
 10
-0.5
 20
0.0
 30
0.0
 11
-1.0
 21
0.0
 31
0.0
  0
ENDBLK
  5
45
100
AcDbEntity
  8
0
100
AcDbBlockEnd
  0
BLOCK
  5
85
100
AcDbEntity
  8
MAIN0
  6
CONTINUOUS
 62
3
100
AcDbBlockBegin
  2
*D0
 70
    65
 10
0.0
 20
0.0
 30
0.0
  0
LINE
  5
86
100
AcDbEntity
  8
MAIN0
  6
BYBLOCK
 62
0
100
AcDbLine
 10
113.2683232689439
 20
152.4439365705306
 30
0.0000000000000000
 11
81.56832328086639
 21
152.4439365705305
 31
0.0000000000000000
  0
LINE
  5
87
100
AcDbEntity
  8
MAIN0
  6
BYBLOCK
 62
0
100
AcDbLine
 10
83.56832328086639
 20
154.4439365705305
 30
0.0000000000000000
 11
83.56832328086639
 21
353.4439365705305
 31
0.0000000000000000
  0
INSERT
  5
88
100
AcDbEntity
  8
MAIN0
  6
BYBLOCK
 62
0
100
AcDbBlockReference
  2
_OPEN
 10
83.56832328086639
 20
152.4439365705305
 30
0.0000000000000000
 41
2.000000000000000
 42
2.000000000000000
 43
2.000000000000000
 50
270.0000000000000
  0
INSERT
  5
89
100
AcDbEntity
  8
MAIN0
  6
BYBLOCK
 62
0
100
AcDbBlockReference
  2
_OPEN
 10
83.56832328086639
 20
355.4439365705305
 30
0.0000000000000000
 41
2.000000000000000
 42
2.000000000000000
 43
2.000000000000000
 50
90.00000000000000
  0
LINE
  5
8A
100
AcDbEntity
  8
MAIN0
  6
BYBLOCK
 62
0
100
AcDbLine
 10
113.2683232689459
 20
355.4439365705305
 30
0.0000000000000000
 11
81.56832328086639
 21
355.4439365705305
 31
0.0000000000000000
  0
MTEXT
  5
8B
100
AcDbEntity
  8
MAIN0
  6
BYBLOCK
 62
0
100
AcDbMText
 10
81.51832332855011
 20
253.9439365705305
 30
0.0000000000000000
 40
3.099999904632568
 41
0.0000000000000000
 71
     5
 72
     1
  1
\A1;\U+2205203h7
 11
6.123233995736766e-017
 21
1.000000000000000
 31
0.0000000000000000
  7
STANDARD
  0
ENDBLK
  5
8C
100
AcDbEntity
  8
MAIN0
  6
CONTINUOUS
 62
3
100
AcDbBlockEnd
  0
BLOCK
  5
8E
100
AcDbEntity
  8
MAIN0
  6
CONTINUOUS
 62
3
100
AcDbBlockBegin
  2
*D1
 70
    65
 10
0.0
 20
0.0
 30
0.0
  0
LINE
  5
8F
100
AcDbEntity
  8
MAIN0
  6
BYBLOCK
 62
0
100
AcDbLine
 10
114.0683232808657
 20
151.6439365586097
 30
0.0000000000000000
 11
114.0683232808657
 21
131.9439365705305
 31
0.0000000000000000
  0
LINE
  5
90
100
AcDbEntity
  8
MAIN0
  6
BYBLOCK
 62
0
100
AcDbLine
 10
116.0683232808657
 20
133.9439365705305
 30
0.0000000000000000
 11
142.0683232808647
 21
133.9439365705305
 31
0.0000000000000000
  0
INSERT
  5
91
100
AcDbEntity
  8
MAIN0
  6
BYBLOCK
 62
0
100
AcDbBlockReference
  2
_OPEN
 10
114.0683232808657
 20
133.9439365705305
 30
0.0000000000000000
 41
2.000000000000000
 42
2.000000000000000
 43
2.000000000000000
 50
180.0000000000000
  0
INSERT
  5
92
100
AcDbEntity
  8
MAIN0
  6
BYBLOCK
 62
0
100
AcDbBlockReference
  2
_OPEN
 10
144.0683232808647
 20
133.9439365705305
 30
0.0000000000000000
 41
2.000000000000000
 42
2.000000000000000
 43
2.000000000000000
 50
0.0000000000000000
  0
LINE
  5
93
100
AcDbEntity
  8
MAIN0
  6
BYBLOCK
 62
0
100
AcDbLine
 10
144.0683232808647
 20
143.7674134070149
 30
0.0000000000000000
 11
144.0683232808647
 21
131.9439365705305
 31
0.0000000000000000
  0
MTEXT
  5
94
100
AcDbEntity
  8
MAIN0
  6
BYBLOCK
 62
0
100
AcDbMText
 10
133.8035578550671
 20
135.9939365228468
 30
0.0000000000000000
 40
3.099999904632568
 41
0.0000000000000000
 71
     5
 72
     1
  1
\A1;30
 11
1.000000000000000
 21
0.0000000000000000
 31
0.0000000000000000
  7
STANDARD
  0
ENDBLK
  5
95
100
AcDbEntity
  8
MAIN0
  6
CONTINUOUS
 62
3
100
AcDbBlockEnd
  0
BLOCK
  5
9F
100
AcDbEntity
  8
MAIN0
  6
CONTINUOUS
 62
3
100
AcDbBlockBegin
  2
*D2
 70
    65
 10
0.0
 20
0.0
 30
0.0
  0
LINE
  5
A0
100
AcDbEntity
  8
MAIN0
  6
BYBLOCK
 62
0
100
AcDbLine
 10
114.0683232808657
 20
151.6439365586097
 30
0.0000000000000000
 11
114.0683232808657
 21
121.9439365705305
 31
0.0000000000000000
  0
LINE
  5
A1
100
AcDbEntity
  8
MAIN0
  6
BYBLOCK
 62
0
100
AcDbLine
 10
116.0683232808657
 20
123.9439365705305
 30
0.0000000000000000
 11
127.0683232808648
 21
123.9439365705305
 31
0.0000000000000000
  0
INSERT
  5
A2
100
AcDbEntity
  8
MAIN0
  6
BYBLOCK
 62
0
100
AcDbBlockReference
  2
_OPEN
 10
114.0683232808657
 20
123.9439365705305
 30
0.0000000000000000
 41
2.000000000000000
 42
2.000000000000000
 43
2.000000000000000
 50
180.0000000000000
  0
INSERT
  5
A3
100
AcDbEntity
  8
MAIN0
  6
BYBLOCK
 62
0
100
AcDbBlockReference
  2
_OPEN
 10
129.0683232808648
 20
123.9439365705305
 30
0.0000000000000000
 41
2.000000000000000
 42
2.000000000000000
 43
2.000000000000000
 50
0.0000000000000000
  0
LINE
  5
A4
100
AcDbEntity
  8
MAIN0
  6
BYBLOCK
 62
0
100
AcDbLine
 10
129.0683232808648
 20
150.1966984113507
 30
0.0000000000000000
 11
129.0683232808648
 21
121.9439365705305
 31
0.0000000000000000
  0
MTEXT
  5
A5
100
AcDbEntity
  8
MAIN0
  6
BYBLOCK
 62
0
100
AcDbMText
 10
121.5683232808652
 20
125.9939365228468
 30
0.0000000000000000
 40
3.099999904632568
 41
0.0000000000000000
 71
     5
 72
     1
  1
\A1;15
 11
1.000000000000000
 21
0.0000000000000000
 31
0.0000000000000000
  7
STANDARD
  0
ENDBLK
  5
A6
100
AcDbEntity
  8
MAIN0
  6
CONTINUOUS
 62
3
100
AcDbBlockEnd
  0
BLOCK
  5
A8
100
AcDbEntity
  8
MAIN0
  6
CONTINUOUS
 62
3
100
AcDbBlockBegin
  2
*D3
 70
    65
 10
0.0
 20
0.0
 30
0.0
  0
LINE
  5
A9
100
AcDbEntity
  8
MAIN0
  6
BYBLOCK
 62
0
100
AcDbLine
 10
129.0683232808648
 20
150.1966984113507
 30
0.0000000000000000
 11
129.0683232808648
 21
121.9439365705305
 31
0.0000000000000000
  0
LINE
  5
AA
100
AcDbEntity
  8
MAIN0
  6
BYBLOCK
 62
0
100
AcDbLine
 10
131.0683232808648
 20
123.9439365705305
 30
0.0000000000000000
 11
157.0683232808647
 21
123.9439365705305
 31
0.0000000000000000
  0
INSERT
  5
AB
100
AcDbEntity
  8
MAIN0
  6
BYBLOCK
 62
0
100
AcDbBlockReference
  2
_OPEN
 10
129.0683232808648
 20
123.9439365705305
 30
0.0000000000000000
 41
2.000000000000000
 42
2.000000000000000
 43
2.000000000000000
 50
180.0000000000000
  0
INSERT
  5
AC
100
AcDbEntity
  8
MAIN0
  6
BYBLOCK
 62
0
100
AcDbBlockReference
  2
_OPEN
 10
159.0683232808647
 20
123.9439365705305
 30
0.0000000000000000
 41
2.000000000000000
 42
2.000000000000000
 43
2.000000000000000
 50
0.0000000000000000
  0
LINE
  5
AD
100
AcDbEntity
  8
MAIN0
  6
BYBLOCK
 62
0
100
AcDbLine
 10
159.0683232808647
 20
150.1439365586091
 30
0.0000000000000000
 11
159.0683232808647
 21
121.9439365705305
 31
0.0000000000000000
  0
MTEXT
  5
AE
100
AcDbEntity
  8
MAIN0
  6
BYBLOCK
 62
0
100
AcDbMText
 10
144.0683232808648
 20
125.9939365228468
 30
0.0000000000000000
 40
3.099999904632568
 41
0.0000000000000000
 71
     5
 72
     1
  1
\A1;30
 11
1.000000000000000
 21
0.0000000000000000
 31
0.0000000000000000
  7
STANDARD
  0
ENDBLK
  5
AF
100
AcDbEntity
  8
MAIN0
  6
CONTINUOUS
 62
3
100
AcDbBlockEnd
  0
BLOCK
  5
B1
100
AcDbEntity
  8
MAIN0
  6
CONTINUOUS
 62
3
100
AcDbBlockBegin
  2
*D4
 70
    65
 10
0.0
 20
0.0
 30
0.0
  0
LINE
  5
B2
100
AcDbEntity
  8
MAIN0
  6
BYBLOCK
 62
0
100
AcDbLine
 10
159.0683232808647
 20
150.1439365586091
 30
0.0000000000000000
 11
159.0683232808647
 21
121.9439365705305
 31
0.0000000000000000
  0
LINE
  5
B3
100
AcDbEntity
  8
MAIN0
  6
BYBLOCK
 62
0
100
AcDbLine
 10
161.0683232808647
 20
123.9439365705305
 30
0.0000000000000000
 11
184.0683232808660
 21
123.9439365705305
 31
0.0000000000000000
  0
INSERT
  5
B4
100
AcDbEntity
  8
MAIN0
  6
BYBLOCK
 62
0
100
AcDbBlockReference
  2
_OPEN
 10
159.0683232808647
 20
123.9439365705305
 30
0.0000000000000000
 41
2.000000000000000
 42
2.000000000000000
 43
2.000000000000000
 50
180.0000000000000
  0
INSERT
  5
B5
100
AcDbEntity
  8
MAIN0
  6
BYBLOCK
 62
0
100
AcDbBlockReference
  2
_OPEN
 10
186.0683232808660
 20
123.9439365705305
 30
0.0000000000000000
 41
2.000000000000000
 42
2.000000000000000
 43
2.000000000000000
 50
0.0000000000000000
  0
LINE
  5
B6
100
AcDbEntity
  8
MAIN0
  6
BYBLOCK
 62
0
100
AcDbLine
 10
186.0683232808660
 20
183.5439365586088
 30
0.0000000000000000
 11
186.0683232808660
 21
121.9439365705305
 31
0.0000000000000000
  0
MTEXT
  5
B7
100
AcDbEntity
  8
MAIN0
  6
BYBLOCK
 62
0
100
AcDbMText
 10
172.5683232808654
 20
125.9939365228468
 30
0.0000000000000000
 40
3.099999904632568
 41
0.0000000000000000
 71
     5
 72
     1
  1
\A1;27
 11
1.000000000000000
 21
0.0000000000000000
 31
0.0000000000000000
  7
STANDARD
  0
ENDBLK
  5
B8
100
AcDbEntity
  8
MAIN0
  6
CONTINUOUS
 62
3
100
AcDbBlockEnd
  0
BLOCK
  5
C0
100
AcDbEntity
  8
MAIN0
  6
CONTINUOUS
 62
3
100
AcDbBlockBegin
  2
*D5
 70
    65
 10
0.0
 20
0.0
 30
0.0
  0
LINE
  5
C1
100
AcDbEntity
  8
MAIN0
  6
BYBLOCK
 62
0
100
AcDbLine
 10
180.5683232808667
 20
336.2439365824506
 30
0.0000000000000000
 11
180.5683232808667
 21
365.9439365705305
 31
0.0000000000000000
  0
LINE
  5
C2
100
AcDbEntity
  8
MAIN0
  6
BYBLOCK
 62
0
100
AcDbLine
 10
180.5683232808667
 20
363.9439365705305
 30
0.0000000000000000
 11
186.0683232808666
 21
363.9439365705305
 31
0.0000000000000000
  0
INSERT
  5
C3
100
AcDbEntity
  8
MAIN0
  6
BYBLOCK
 62
0
100
AcDbBlockReference
  2
_OPEN
 10
180.5683232808667
 20
363.9439365705305
 30
0.0000000000000000
 41
2.000000000000000
 42
2.000000000000000
 43
2.000000000000000
 50
0.0000000000000000
  0
INSERT
  5
C4
100
AcDbEntity
  8
MAIN0
  6
BYBLOCK
 62
0
100
AcDbBlockReference
  2
_OPEN
 10
186.0683232808666
 20
363.9439365705305
 30
0.0000000000000000
 41
2.000000000000000
 42
2.000000000000000
 43
2.000000000000000
 50
180.0000000000000
  0
LINE
  5
C5
100
AcDbEntity
  8
MAIN0
  6
BYBLOCK
 62
0
100
AcDbLine
 10
178.5683232808667
 20
363.9439365705305
 30
0.0000000000000000
 11
177.5683232808667
 21
363.9439365705305
 31
0.0000000000000000
  0
LINE
  5
C6
100
AcDbEntity
  8
MAIN0
  6
BYBLOCK
 62
0
100
AcDbLine
 10
188.0683232808666
 20
363.9439365705305
 30
0.0000000000000000
 11
192.8275119329052
 21
363.9439365705305
 31
0.0000000000000000
  0
LINE
  5
C7
100
AcDbEntity
  8
MAIN0
  6
BYBLOCK
 62
0
100
AcDbLine
 10
186.0683232808666
 20
324.3439365824506
 30
0.0000000000000000
 11
186.0683232808666
 21
365.9439365705305
 31
0.0000000000000000
  0
MTEXT
  5
C8
100
AcDbEntity
  8
MAIN0
  6
BYBLOCK
 62
0
100
AcDbMText
 10
190.1775121048236
 20
365.9939365228468
 30
0.0000000000000000
 40
3.099999904632568
 41
0.0000000000000000
 71
     5
 72
     1
  1
\A1;5.5
 11
1.000000000000000
 21
0.0000000000000000
 31
0.0000000000000000
  7
STANDARD
  0
ENDBLK
  5
C9
100
AcDbEntity
  8
MAIN0
  6
CONTINUOUS
 62
3
100
AcDbBlockEnd
  0
BLOCK
  5
CB
100
AcDbEntity
  8
MAIN0
  6
CONTINUOUS
 62
3
100
AcDbBlockBegin
  2
*D6
 70
    65
 10
0.0
 20
0.0
 30
0.0
  0
LINE
  5
CC
100
AcDbEntity
  8
MAIN0
  6
BYBLOCK
 62
0
100
AcDbLine
 10
186.4683232927861
 20
183.9439365705297
 30
0.0000000000000000
 11
235.5683232808664
 21
183.9439365705297
 31
0.0000000000000000
  0
LINE
  5
CD
100
AcDbEntity
  8
MAIN0
  6
BYBLOCK
 62
0
100
AcDbLine
 10
233.5683232808664
 20
185.9439365705297
 30
0.0000000000000000
 11
233.5683232808664
 21
321.9439365705297
 31
0.0000000000000000
  0
INSERT
  5
CE
100
AcDbEntity
  8
MAIN0
  6
BYBLOCK
 62
0
100
AcDbBlockReference
  2
_OPEN
 10
233.5683232808664
 20
183.9439365705297
 30
0.0000000000000000
 41
2.000000000000000
 42
2.000000000000000
 43
2.000000000000000
 50
270.0000000000000
  0
INSERT
  5
CF
100
AcDbEntity
  8
MAIN0
  6
BYBLOCK
 62
0
100
AcDbBlockReference
  2
_OPEN
 10
233.5683232808664
 20
323.9439365705297
 30
0.0000000000000000
 41
2.000000000000000
 42
2.000000000000000
 43
2.000000000000000
 50
90.00000000000000
  0
LINE
  5
D0
100
AcDbEntity
  8
MAIN0
  6
BYBLOCK
 62
0
100
AcDbLine
 10
186.4683232927875
 20
323.9439365705297
 30
0.0000000000000000
 11
235.5683232808664
 21
323.9439365705297
 31
0.0000000000000000
  0
MTEXT
  5
D1
100
AcDbEntity
  8
MAIN0
  6
BYBLOCK
 62
0
100
AcDbMText
 10
231.5183233285501
 20
253.3315778670671
 30
0.0000000000000000
 40
3.099999904632568
 41
0.0000000000000000
 71
     5
 72
     1
  1
\A1;\U+2205140h7
 11
6.123233995736766e-017
 21
1.000000000000000
 31
0.0000000000000000
  7
STANDARD
  0
ENDBLK
  5
D2
100
AcDbEntity
  8
MAIN0
  6
CONTINUOUS
 62
3
100
AcDbBlockEnd
  0
BLOCK
  5
D8
100
AcDbEntity
  8
MAIN0
  6
CONTINUOUS
 62
3
100
AcDbBlockBegin
  2
*D7
 70
    65
 10
0.0
 20
0.0
 30
0.0
  0
LINE
  5
D9
100
AcDbEntity
  8
MAIN0
  6
BYBLOCK
 62
0
100
AcDbLine
 10
188.0186974075953
 20
273.9439365705297
 30
0.0000000000000000
 11
225.5683232808664
 21
273.9439365705297
 31
0.0000000000000000
  0
LINE
  5
DA
100
AcDbEntity
  8
MAIN0
  6
BYBLOCK
 62
0
100
AcDbLine
 10
223.5683232808664
 20
271.9439365705297
 30
0.0000000000000000
 11
223.5683232808664
 21
235.9439365705293
 31
0.0000000000000000
  0
INSERT
  5
DB
100
AcDbEntity
  8
MAIN0
  6
BYBLOCK
 62
0
100
AcDbBlockReference
  2
_OPEN
 10
223.5683232808664
 20
273.9439365705297
 30
0.0000000000000000
 41
2.000000000000000
 42
2.000000000000000
 43
2.000000000000000
 50
90.00000000000000
  0
INSERT
  5
DC
100
AcDbEntity
  8
MAIN0
  6
BYBLOCK
 62
0
100
AcDbBlockReference
  2
_OPEN
 10
223.5683232808664
 20
233.9439365705293
 30
0.0000000000000000
 41
2.000000000000000
 42
2.000000000000000
 43
2.000000000000000
 50
270.0000000000000
  0
LINE
  5
DD
100
AcDbEntity
  8
MAIN0
  6
BYBLOCK
 62
0
100
AcDbLine
 10
188.5688911942162
 20
233.9439365705293
 30
0.0000000000000000
 11
225.5683232808664
 21
233.9439365705293
 31
0.0000000000000000
  0
MTEXT
  5
DE
100
AcDbEntity
  8
MAIN0
  6
BYBLOCK
 62
0
100
AcDbMText
 10
221.5183233285501
 20
253.9439365705295
 30
0.0000000000000000
 40
3.099999904632568
 41
0.0000000000000000
 71
     5
 72
     1
  1
\A1;\U+220540
 11
6.123233995736766e-017
 21
1.000000000000000
 31
0.0000000000000000
  7
STANDARD
  0
ENDBLK
  5
DF
100
AcDbEntity
  8
MAIN0
  6
CONTINUOUS
 62
3
100
AcDbBlockEnd
  0
BLOCK
  5
F2
100
AcDbEntity
  8
MAIN0
  6
CONTINUOUS
 62
3
100
AcDbBlockBegin
  2
*D8
 70
    65
 10
0.0
 20
0.0
 30
0.0
  0
LINE
  5
F3
100
AcDbEntity
  8
MAIN0
  6
BYBLOCK
 62
0
100
AcDbLine
 10
391.0427472602877
 20
210.1960161075152
 30
0.0000000000000000
 11
441.0938993014444
 21
297.6918570335446
 31
0.0000000000000000
  0
INSERT
  5
F4
100
AcDbEntity
  8
MAIN0
  6
BYBLOCK
 62
0
100
AcDbBlockReference
  2
_OPEN
 10
390.0496688467728
 20
208.4599875177131
 30
0.0000000000000000
 41
2.000000000000000
 42
2.000000000000000
 43
2.000000000000000
 50
240.2287013191657
  0
INSERT
  5
F5
100
AcDbEntity
  8
MAIN0
  6
BYBLOCK
 62
0
100
AcDbBlockReference
  2
_OPEN
 10
442.0869777149594
 20
299.4278856233467
 30
0.0000000000000000
 41
2.000000000000000
 42
2.000000000000000
 43
2.000000000000000
 50
60.22870131916568
  0
MTEXT
  5
F6
100
AcDbEntity
  8
MAIN0
  6
BYBLOCK
 62
0
100
AcDbMText
 10
433.2078291982311
 20
288.0345700306137
 30
0.0000000000000000
 40
3.099999904632568
 41
0.0000000000000000
 71
     5
 72
     1
  1
\A1;\U+2205104.8\H0.903226x;\U+00B10.2
 11
0.4965392067575060
 21
0.8680142949010844
 31
0.0000000000000000
  7
STANDARD
  0
ENDBLK
  5
F7
100
AcDbEntity
  8
MAIN0
  6
CONTINUOUS
 62
3
100
AcDbBlockEnd
  0
BLOCK
  5
FE
100
AcDbEntity
  8
MAIN0
  6
CONTINUOUS
 62
3
100
AcDbBlockBegin
  2
*D9
 70
    65
 10
0.0
 20
0.0
 30
0.0
  0
LINE
  5
FF
100
AcDbEntity
  8
MAIN0
  6
BYBLOCK
 62
0
100
AcDbLine
 10
114.0683232808668
 20
356.2439365824515
 30
0.0000000000000000
 11
114.0683232808668
 21
375.9439365705305
 31
0.0000000000000000
  0
LINE
  5
100
100
AcDbEntity
  8
MAIN0
  6
BYBLOCK
 62
0
100
AcDbLine
 10
116.0683232808668
 20
373.9439365705305
 30
0.0000000000000000
 11
184.0683232808666
 21
373.9439365705305
 31
0.0000000000000000
  0
INSERT
  5
101
100
AcDbEntity
  8
MAIN0
  6
BYBLOCK
 62
0
100
AcDbBlockReference
  2
_OPEN
 10
114.0683232808668
 20
373.9439365705305
 30
0.0000000000000000
 41
2.000000000000000
 42
2.000000000000000
 43
2.000000000000000
 50
180.0000000000000
  0
INSERT
  5
102
100
AcDbEntity
  8
MAIN0
  6
BYBLOCK
 62
0
100
AcDbBlockReference
  2
_OPEN
 10
186.0683232808666
 20
373.9439365705305
 30
0.0000000000000000
 41
2.000000000000000
 42
2.000000000000000
 43
2.000000000000000
 50
0.0000000000000000
  0
LINE
  5
103
100
AcDbEntity
  8
MAIN0
  6
BYBLOCK
 62
0
100
AcDbLine
 10
186.0683232808666
 20
324.3439365824506
 30
0.0000000000000000
 11
186.0683232808666
 21
375.9439365705305
 31
0.0000000000000000
  0
MTEXT
  5
104
100
AcDbEntity
  8
MAIN0
  6
BYBLOCK
 62
0
100
AcDbMText
 10
150.0683232808667
 20
375.9939365228468
 30
0.0000000000000000
 40
3.099999904632568
 41
0.0000000000000000
 71
     5
 72
     1
  1
\A1;72
 11
1.000000000000000
 21
0.0000000000000000
 31
0.0000000000000000
  7
STANDARD
  0
ENDBLK
  5
105
100
AcDbEntity
  8
MAIN0
  6
CONTINUOUS
 62
3
100
AcDbBlockEnd
  0
BLOCK
  5
107
100
AcDbEntity
  8
MAIN0
  6
CONTINUOUS
 62
3
100
AcDbBlockBegin
  2
*D10
 70
    65
 10
0.0
 20
0.0
 30
0.0
  0
LINE
  5
108
100
AcDbEntity
  8
MAIN0
  6
BYBLOCK
 62
0
100
AcDbLine
 10
186.0683232808666
 20
324.3439365824506
 30
0.0000000000000000
 11
186.0683232808666
 21
375.9439365705305
 31
0.0000000000000000
  0
LINE
  5
109
100
AcDbEntity
  8
MAIN0
  6
BYBLOCK
 62
0
100
AcDbLine
 10
188.0683232808666
 20
373.9439365705305
 30
0.0000000000000000
 11
192.0683232808661
 21
373.9439365705305
 31
0.0000000000000000
  0
INSERT
  5
10A
100
AcDbEntity
  8
MAIN0
  6
BYBLOCK
 62
0
100
AcDbBlockReference
  2
_OPEN
 10
186.0683232808666
 20
373.9439365705305
 30
0.0000000000000000
 41
2.000000000000000
 42
2.000000000000000
 43
2.000000000000000
 50
180.0000000000000
  0
INSERT
  5
10B
100
AcDbEntity
  8
MAIN0
  6
BYBLOCK
 62
0
100
AcDbBlockReference
  2
_OPEN
 10
194.0683232808661
 20
373.9439365705305
 30
0.0000000000000000
 41
2.000000000000000
 42
2.000000000000000
 43
2.000000000000000
 50
0.0000000000000000
  0
LINE
  5
10C
100
AcDbEntity
  8
MAIN0
  6
BYBLOCK
 62
0
100
AcDbLine
 10
194.0683232808661
 20
373.9439365705305
 30
0.0000000000000000
 11
211.3178483510565
 21
373.9439365705305
 31
0.0000000000000000
  0
LINE
  5
10D
100
AcDbEntity
  8
MAIN0
  6
BYBLOCK
 62
0
100
AcDbLine
 10
194.0683232808661
 20
269.9113107165144
 30
0.0000000000000000
 11
194.0683232808661
 21
375.9439365705305
 31
0.0000000000000000
  0
MTEXT
  5
10E
100
AcDbEntity
  8
MAIN0
  6
BYBLOCK
 62
0
100
AcDbMText
 10
205.0178477971803
 20
375.9939365228468
 30
0.0000000000000000
 40
3.099999904632568
 41
0.0000000000000000
 71
     5
 72
     1
  1
\A1;MAX  8
 11
1.000000000000000
 21
0.0000000000000000
 31
0.0000000000000000
  7
STANDARD
  0
ENDBLK
  5
10F
100
AcDbEntity
  8
MAIN0
  6
CONTINUOUS
 62
3
100
AcDbBlockEnd
  0
BLOCK
  5
111
100
AcDbEntity
  8
MAIN0
  6
CONTINUOUS
 62
3
100
AcDbBlockBegin
  2
*D11
 70
    65
 10
0.0
 20
0.0
 30
0.0
  0
LINE
  5
112
100
AcDbEntity
  8
MAIN0
  6
BYBLOCK
 62
0
100
AcDbLine
 10
114.0683232808668
 20
356.2439365824515
 30
0.0000000000000000
 11
114.0683232808668
 21
389.5815793520675
 31
0.0000000000000000
  0
LINE
  5
113
100
AcDbEntity
  8
MAIN0
  6
BYBLOCK
 62
0
100
AcDbLine
 10
116.0683232808668
 20
387.5815793520675
 30
0.0000000000000000
 11
192.0683232808661
 21
387.5815793520675
 31
0.0000000000000000
  0
INSERT
  5
114
100
AcDbEntity
  8
MAIN0
  6
BYBLOCK
 62
0
100
AcDbBlockReference
  2
_OPEN
 10
114.0683232808668
 20
387.5815793520675
 30
0.0000000000000000
 41
2.000000000000000
 42
2.000000000000000
 43
2.000000000000000
 50
180.0000000000000
  0
INSERT
  5
115
100
AcDbEntity
  8
MAIN0
  6
BYBLOCK
 62
0
100
AcDbBlockReference
  2
_OPEN
 10
194.0683232808661
 20
387.5815793520675
 30
0.0000000000000000
 41
2.000000000000000
 42
2.000000000000000
 43
2.000000000000000
 50
0.0000000000000000
  0
LINE
  5
116
100
AcDbEntity
  8
MAIN0
  6
BYBLOCK
 62
0
100
AcDbLine
 10
194.0683232808661
 20
269.7439365824507
 30
0.0000000000000000
 11
194.0683232808661
 21
389.5815793520675
 31
0.0000000000000000
  0
MTEXT
  5
117
100
AcDbEntity
  8
MAIN0
  6
BYBLOCK
 62
0
100
AcDbMText
 10
154.0683232808665
 20
389.6315793043838
 30
0.0000000000000000
 40
3.099999904632568
 41
0.0000000000000000
 71
     5
 72
     1
  1
\A1;80
 11
1.000000000000000
 21
0.0000000000000000
 31
0.0000000000000000
  7
STANDARD
  0
ENDBLK
  5
118
100
AcDbEntity
  8
MAIN0
  6
CONTINUOUS
 62
3
100
AcDbBlockEnd
  0
BLOCK
  5
137
100
AcDbEntity
  8
MAIN0
  6
CONTINUOUS
 62
3
100
AcDbBlockBegin
  2
*D12
 70
    65
 10
0.0
 20
0.0
 30
0.0
  0
LINE
  5
138
100
AcDbEntity
  8
MAIN0
  6
BYBLOCK
 62
0
100
AcDbLine
 10
468.3572009758020
 20
163.3769437321448
 30
0.0000000000000000
 11
478.1483793130308
 21
146.4181253860963
 31
0.0000000000000000
  0
ARC
  5
139
100
AcDbEntity
  8
MAIN0
  6
BYBLOCK
 62
0
100
AcDbCircle
 10
416.0683232808661
 20
253.9439365705299
 30
0.0000000000000000
 40
122.1601120643308
100
AcDbArc
 50
270.9380439907080
 51
299.0619560092916
  0
INSERT
  5
13A
100
AcDbEntity
  8
MAIN0
  6
BYBLOCK
 62
0
100
AcDbBlockReference
  2
_OPEN
 10
416.0683232808661
 20
131.7838245061991
 30
0.0000000000000000
 41
2.000000000000000
 42
2.000000000000000
 43
2.000000000000000
 50
180.0000000000000
  0
INSERT
  5
13B
100
AcDbEntity
  8
MAIN0
  6
BYBLOCK
 62
0
100
AcDbBlockReference
  2
_OPEN
 10
477.1483793130309
 20
148.1501761936652
 30
0.0000000000000000
 41
2.000000000000000
 42
2.000000000000000
 43
2.000000000000000
 50
29.99999999999966
  0
MTEXT
  5
13C
100
AcDbEntity
  8
MAIN0
  6
BYBLOCK
 62
0
100
AcDbMText
 10
447.1551078048541
 20
137.9264772830595
 30
0.0000000000000000
 40
3.099999904632568
 41
0.0000000000000000
 71
     5
 72
     1
  1
\A1;30\U+00B0
 11
0.9659258262890691
 21
0.2588190451025179
 31
0.0000000000000000
  7
STANDARD
  0
ENDBLK
  5
13D
100
AcDbEntity
  8
MAIN0
  6
CONTINUOUS
 62
3
100
AcDbBlockEnd
  0
BLOCK
  5
13F
100
AcDbEntity
  8
MAIN0
  6
CONTINUOUS
 62
3
100
AcDbBlockBegin
  2
*D13
 70
    65
 10
0.0
 20
0.0
 30
0.0
  0
LINE
  5
140
100
AcDbEntity
  8
MAIN0
  6
BYBLOCK
 62
0
100
AcDbLine
 10
468.3572009758020
 20
163.3769437321448
 30
0.0000000000000000
 11
478.1483793130308
 21
146.4181253860963
 31
0.0000000000000000
  0
LINE
  5
141
100
AcDbEntity
  8
MAIN0
  6
BYBLOCK
 62
0
100
AcDbLine
 10
489.0767174461155
 20
180.9355424052239
 30
0.0000000000000000
 11
503.8627804744019
 21
166.1494793769259
 31
0.0000000000000000
  0
ARC
  5
142
100
AcDbEntity
  8
MAIN0
  6
BYBLOCK
 62
0
100
AcDbCircle
 10
416.0683232808661
 20
253.9439365705299
 30
0.0000000000000000
 40
122.1601120643308
100
AcDbArc
 50
300.9380439907077
 51
314.0619560092697
  0
INSERT
  5
143
100
AcDbEntity
  8
MAIN0
  6
BYBLOCK
 62
0
100
AcDbBlockReference
  2
_OPEN
 10
477.1483793130309
 20
148.1501761936652
 30
0.0000000000000000
 41
2.000000000000000
 42
2.000000000000000
 43
2.000000000000000
 50
209.9999999999997
  0
INSERT
  5
144
100
AcDbEntity
  8
MAIN0
  6
BYBLOCK
 62
0
100
AcDbBlockReference
  2
_OPEN
 10
502.4485669120294
 20
167.5636929392995
 30
0.0000000000000000
 41
2.000000000000000
 42
2.000000000000000
 43
2.000000000000000
 50
44.99999999997777
  0
MTEXT
  5
145
100
AcDbEntity
  8
MAIN0
  6
BYBLOCK
 62
0
100
AcDbMText
 10
489.1867267685549
 20
158.6541779236940
 30
0.0000000000000000
 40
3.099999904632568
 41
0.0000000000000000
 71
     5
 72
     1
  1
\A1;15\U+00B0
 11
0.7933533402913551
 21
0.6087614290085643
 31
0.0000000000000000
  7
STANDARD
  0
ENDBLK
  5
146
100
AcDbEntity
  8
MAIN0
  6
CONTINUOUS
 62
3
100
AcDbBlockEnd
  0
BLOCK
  5
149
100
AcDbEntity
  8
MAIN0
  6
CONTINUOUS
 62
3
100
AcDbBlockBegin
  2
*D14
 70
    65
 10
0.0
 20
0.0
 30
0.0
  0
LINE
  5
14A
100
AcDbEntity
  8
MAIN0
  6
BYBLOCK
 62
0
100
AcDbLine
 10
149.2280330958428
 20
249.4439365705303
 30
0.0000000000000000
 11
149.2280330958428
 21
258.4439365705303
 31
0.0000000000000000
  0
INSERT
  5
14B
100
AcDbEntity
  8
MAIN0
  6
BYBLOCK
 62
0
100
AcDbBlockReference
  2
_OPEN
 10
149.2280330958428
 20
247.4439365705303
 30
0.0000000000000000
 41
2.000000000000000
 42
2.000000000000000
 43
2.000000000000000
 50
270.0000000000000
  0
INSERT
  5
14C
100
AcDbEntity
  8
MAIN0
  6
BYBLOCK
 62
0
100
AcDbBlockReference
  2
_OPEN
 10
149.2280330958428
 20
260.4439365705303
 30
0.0000000000000000
 41
2.000000000000000
 42
2.000000000000000
 43
2.000000000000000
 50
90.00000000000000
  0
MTEXT
  5
14D
100
AcDbEntity
  8
MAIN0
  6
BYBLOCK
 62
0
100
AcDbMText
 10
147.1780331435265
 20
252.9056618337526
 30
0.0000000000000000
 40
3.099999904632568
 41
0.0000000000000000
 71
     5
 72
     1
  1
\A1;\U+220513
 11
6.123233995736766e-017
 21
1.000000000000000
 31
0.0000000000000000
  7
STANDARD
  0
ENDBLK
  5
14E
100
AcDbEntity
  8
MAIN0
  6
CONTINUOUS
 62
3
100
AcDbBlockEnd
  0
BLOCK
  5
155
100
AcDbEntity
  8
MAIN0
  6
CONTINUOUS
 62
3
100
AcDbBlockBegin
  2
*D15
 70
    65
 10
0.0
 20
0.0
 30
0.0
  0
LINE
  5
156
100
AcDbEntity
  8
MAIN0
  6
BYBLOCK
 62
0
100
AcDbLine
 10
192.0683232808661
 20
303.9439365705305
 30
0.0000000000000000
 11
182.0683232808663
 21
303.9439365705305
 31
0.0000000000000000
  0
INSERT
  5
157
100
AcDbEntity
  8
MAIN0
  6
BYBLOCK
 62
0
100
AcDbBlockReference
  2
_OPEN
 10
194.0683232808661
 20
303.9439365705305
 30
0.0000000000000000
 41
2.000000000000000
 42
2.000000000000000
 43
2.000000000000000
 50
360.0000000000000
  0
INSERT
  5
158
100
AcDbEntity
  8
MAIN0
  6
BYBLOCK
 62
0
100
AcDbBlockReference
  2
_OPEN
 10
180.0683232808663
 20
303.9439365705305
 30
0.0000000000000000
 41
2.000000000000000
 42
2.000000000000000
 43
2.000000000000000
 50
180.0000000000000
  0
LINE
  5
159
100
AcDbEntity
  8
MAIN0
  6
BYBLOCK
 62
0
100
AcDbLine
 10
180.0683232808663
 20
267.3439365824514
 30
0.0000000000000000
 11
180.0683232808663
 21
305.9439365705305
 31
0.0000000000000000
  0
MTEXT
  5
15A
100
AcDbEntity
  8
MAIN0
  6
BYBLOCK
 62
0
100
AcDbMText
 10
190.1100924923946
 20
305.9939365228468
 30
0.0000000000000000
 40
3.099999904632568
 41
0.0000000000000000
 71
     5
 72
     1
  1
\A1;14
 11
1.000000000000000
 21
0.0000000000000000
 31
0.0000000000000000
  7
STANDARD
  0
ENDBLK
  5
15B
100
AcDbEntity
  8
MAIN0
  6
CONTINUOUS
 62
3
100
AcDbBlockEnd
  0
BLOCK
  5
167
100
AcDbEntity
  8
MAIN0
  6
CONTINUOUS
 62
3
100
AcDbBlockBegin
  2
*D16
 70
    65
 10
0.0
 20
0.0
 30
0.0
  0
LINE
  5
168
100
AcDbEntity
  8
MAIN0
  6
BYBLOCK
 62
0
100
AcDbLine
 10
165.8683232927872
 20
266.4439365705305
 30
0.0000000000000000
 11
176.0544920668382
 21
266.4439365705305
 31
0.0000000000000000
  0
LINE
  5
169
100
AcDbEntity
  8
MAIN0
  6
BYBLOCK
 62
0
100
AcDbLine
 10
174.0544920668382
 20
264.4439365705305
 30
0.0000000000000000
 11
174.0544920668382
 21
243.4439365705305
 31
0.0000000000000000
  0
INSERT
  5
16A
100
AcDbEntity
  8
MAIN0
  6
BYBLOCK
 62
0
100
AcDbBlockReference
  2
_OPEN
 10
174.0544920668382
 20
266.4439365705305
 30
0.0000000000000000
 41
2.000000000000000
 42
2.000000000000000
 43
2.000000000000000
 50
90.00000000000000
  0
INSERT
  5
16B
100
AcDbEntity
  8
MAIN0
  6
BYBLOCK
 62
0
100
AcDbBlockReference
  2
_OPEN
 10
174.0544920668382
 20
241.4439365705305
 30
0.0000000000000000
 41
2.000000000000000
 42
2.000000000000000
 43
2.000000000000000
 50
270.0000000000000
  0
LINE
  5
16C
100
AcDbEntity
  8
MAIN0
  6
BYBLOCK
 62
0
100
AcDbLine
 10
165.8683232927871
 20
241.4439365705305
 30
0.0000000000000000
 11
176.0544920668382
 21
241.4439365705305
 31
0.0000000000000000
  0
MTEXT
  5
16D
100
AcDbEntity
  8
MAIN0
  6
BYBLOCK
 62
0
100
AcDbMText
 10
172.0044921145219
 20
253.9439365705305
 30
0.0000000000000000
 40
3.099999904632568
 41
0.0000000000000000
 71
     5
 72
     1
  1
\A1;\U+220525
 11
6.123233995736766e-017
 21
1.000000000000000
 31
0.0000000000000000
  7
STANDARD
  0
ENDBLK
  5
16E
100
AcDbEntity
  8
MAIN0
  6
CONTINUOUS
 62
3
100
AcDbBlockEnd
  0
BLOCK
  5
174
100
AcDbEntity
  8
MAIN0
  6
CONTINUOUS
 62
3
100
AcDbBlockBegin
  2
*D17
 70
    65
 10
0.0
 20
0.0
 30
0.0
  0
LINE
  5
175
100
AcDbEntity
  8
MAIN0
  6
BYBLOCK
 62
0
100
AcDbLine
 10
416.0683232808660
 20
253.9439365705299
 30
0.0000000000000000
 11
377.3389679524405
 21
210.7694413697223
 31
0.0000000000000000
  0
INSERT
  5
176
100
AcDbEntity
  8
MAIN0
  6
BYBLOCK
 62
0
100
AcDbBlockReference
  2
_OPEN
 10
376.0034729411156
 20
209.2806656731427
 30
0.0000000000000000
 41
2.000000000000000
 42
2.000000000000000
 43
2.000000000000000
 50
228.1065466474834
  0
MTEXT
  5
177
100
AcDbEntity
  8
MAIN0
  6
BYBLOCK
 62
0
100
AcDbMText
 10
381.8933828495606
 20
218.9166092912331
 30
0.0000000000000000
 40
3.099999904632568
 41
0.0000000000000000
 71
     5
 72
     1
  1
\A1;Ｒ60
 11
0.6677475056625091
 21
0.7443878482897860
 31
0.0000000000000000
  7
KNJYOKO
  0
ARC
  5
178
100
AcDbEntity
  8
MAIN0
  6
BYBLOCK
 62
0
100
AcDbCircle
 10
416.0683232808661
 20
253.9439365705299
 30
0.0000000000000000
 40
60.00000000000000
100
AcDbArc
 50
226.1966873303806
 51
235.8460860926643
  0
ENDBLK
  5
179
100
AcDbEntity
  8
MAIN0
  6
CONTINUOUS
 62
3
100
AcDbBlockEnd
  0
BLOCK
  5
1C8
100
AcDbEntity
  8
MAIN0
  6
CONTINUOUS
 62
3
100
AcDbBlockBegin
  2
*D18
 70
    65
 10
0.0
 20
0.0
 30
0.0
  0
LINE
  5
1C9
100
AcDbEntity
  8
MAIN0
  6
BYBLOCK
 62
0
100
AcDbLine
 10
394.0683232808660
 20
327.0714976851118
 30
0.0000000000000000
 11
438.0683232808660
 21
327.0714976851118
 31
0.0000000000000000
  0
INSERT
  5
1CA
100
AcDbEntity
  8
MAIN0
  6
BYBLOCK
 62
0
100
AcDbBlockReference
  2
_OPEN
 10
392.0683232808660
 20
327.0714976851118
 30
0.0000000000000000
 41
2.000000000000000
 42
2.000000000000000
 43
2.000000000000000
 50
180.0000000000000
  0
INSERT
  5
1CB
100
AcDbEntity
  8
MAIN0
  6
BYBLOCK
 62
0
100
AcDbBlockReference
  2
_OPEN
 10
440.0683232808660
 20
327.0714976851118
 30
0.0000000000000000
 41
2.000000000000000
 42
2.000000000000000
 43
2.000000000000000
 50
0.0000000000000000
  0
MTEXT
  5
1CC
100
AcDbEntity
  8
MAIN0
  6
BYBLOCK
 62
0
100
AcDbMText
 10
416.0683232808660
 20
329.1214976374280
 30
0.0000000000000000
 40
3.099999904632568
 41
0.0000000000000000
 71
     5
 72
     1
  1
\A1;48
 11
1.000000000000000
 21
0.0000000000000000
 31
0.0000000000000000
  7
STANDARD
  0
ENDBLK
  5
1CD
100
AcDbEntity
  8
MAIN0
  6
CONTINUOUS
 62
3
100
AcDbBlockEnd
  0
BLOCK
  5
1D1
100
AcDbEntity
  8
MAIN0
  6
CONTINUOUS
 62
3
100
AcDbBlockBegin
  2
*D19
 70
    65
 10
0.0
 20
0.0
 30
0.0
  0
LINE
  5
1D2
100
AcDbEntity
  8
MAIN0
  6
BYBLOCK
 62
0
100
AcDbLine
 10
468.4457733964182
 20
344.6643413415696
 30
0.0000000000000000
 11
478.1483793130319
 21
361.4697477549630
 31
0.0000000000000000
  0
LINE
  5
1D3
100
AcDbEntity
  8
MAIN0
  6
BYBLOCK
 62
0
100
AcDbLine
 10
416.0683232808660
 20
372.2620835062482
 30
0.0000000000000000
 11
416.0683232808659
 21
378.1040486348606
 31
0.0000000000000000
  0
ARC
  5
1D4
100
AcDbEntity
  8
MAIN0
  6
BYBLOCK
 62
0
100
AcDbCircle
 10
416.0683232808661
 20
253.9439365705292
 30
0.0000000000000000
 40
122.1601120643314
100
AcDbArc
 50
60.93804399070802
 51
89.06195600929205
  0
INSERT
  5
1D5
100
AcDbEntity
  8
MAIN0
  6
BYBLOCK
 62
0
100
AcDbBlockReference
  2
_OPEN
 10
477.1483793130319
 20
359.7376969473941
 30
0.0000000000000000
 41
2.000000000000000
 42
2.000000000000000
 43
2.000000000000000
 50
330.0000000000000
  0
INSERT
  5
1D6
100
AcDbEntity
  8
MAIN0
  6
BYBLOCK
 62
0
100
AcDbBlockReference
  2
_OPEN
 10
416.0683232808660
 20
376.1040486348606
 30
0.0000000000000000
 41
2.000000000000000
 42
2.000000000000000
 43
2.000000000000000
 50
180.0000000000001
  0
MTEXT
  5
1D7
100
AcDbEntity
  8
MAIN0
  6
BYBLOCK
 62
0
100
AcDbMText
 10
448.2162658650918
 20
373.9216916536673
 30
0.0000000000000000
 40
3.099999904632568
 41
0.0000000000000000
 71
     5
 72
     1
  1
\A1;30\U+00B0
 11
0.9659258262890683
 21
-0.2588190451025207
 31
0.0000000000000000
  7
STANDARD
  0
ENDBLK
  5
1D8
100
AcDbEntity
  8
MAIN0
  6
CONTINUOUS
 62
3
100
AcDbBlockEnd
  0
BLOCK
  5
1DA
100
AcDbEntity
  8
MAIN0
  6
CONTINUOUS
 62
3
100
AcDbBlockBegin
  2
*D20
 70
    65
 10
0.0
 20
0.0
 30
0.0
  0
LINE
  5
1DB
100
AcDbEntity
  8
MAIN0
  6
BYBLOCK
 62
0
100
AcDbLine
 10
538.1427823202513
 20
253.9439365705297
 30
0.0000000000000000
 11
540.2284353451969
 21
253.9439365705325
 31
0.0000000000000000
  0
LINE
  5
1DC
100
AcDbEntity
  8
MAIN0
  6
BYBLOCK
 62
0
100
AcDbLine
 10
475.4502485474089
 20
269.8552754906255
 30
0.0000000000000000
 11
535.9977821187883
 21
286.0789382146916
 31
0.0000000000000000
  0
ARC
  5
1DD
100
AcDbEntity
  8
MAIN0
  6
BYBLOCK
 62
0
100
AcDbCircle
 10
416.0683232808661
 20
253.9439365705299
 30
0.0000000000000000
 40
122.1601120643308
100
AcDbArc
 50
0.9380439907080274
 51
14.06195600922015
  0
INSERT
  5
1DE
100
AcDbEntity
  8
MAIN0
  6
BYBLOCK
 62
0
100
AcDbBlockReference
  2
_OPEN
 10
538.2284353451969
 20
253.9439365705299
 30
0.0000000000000000
 41
2.000000000000000
 42
2.000000000000000
 43
2.000000000000000
 50
270.0000000000000
  0
INSERT
  5
1DF
100
AcDbEntity
  8
MAIN0
  6
BYBLOCK
 62
0
100
AcDbBlockReference
  2
_OPEN
 10
534.0659304662097
 20
285.5613001244890
 30
0.0000000000000000
 41
2.000000000000000
 42
2.000000000000000
 43
2.000000000000000
 50
104.9999999999282
  0
MTEXT
  5
1E0
100
AcDbEntity
  8
MAIN0
  6
BYBLOCK
 62
0
100
AcDbMText
 10
535.1508767333648
 20
269.6214521515600
 30
0.0000000000000000
 40
3.099999904632568
 41
0.0000000000000000
 71
     5
 72
     1
  1
\A1;15\U+00B0
 11
-0.1305261922194301
 21
0.9914448613738922
 31
0.0000000000000000
  7
STANDARD
  0
ENDBLK
  5
1E1
100
AcDbEntity
  8
MAIN0
  6
CONTINUOUS
 62
3
100
AcDbBlockEnd
  0
BLOCK
  5
1E3
100
AcDbEntity
  8
MAIN0
  6
CONTINUOUS
 62
3
100
AcDbBlockBegin
  2
*D21
 70
    65
 10
0.0
 20
0.0
 30
0.0
  0
LINE
  5
1E4
100
AcDbEntity
  8
MAIN0
  6
BYBLOCK
 62
0
100
AcDbLine
 10
475.4502485474089
 20
269.8552754906255
 30
0.0000000000000000
 11
535.9977821187883
 21
286.0789382146916
 31
0.0000000000000000
  0
LINE
  5
1E5
100
AcDbEntity
  8
MAIN0
  6
BYBLOCK
 62
0
100
AcDbLine
 10
489.0767174461720
 20
326.9523307357792
 30
0.0000000000000000
 11
503.8627804744700
 21
341.7383937640658
 31
0.0000000000000000
  0
ARC
  5
1E6
100
AcDbEntity
  8
MAIN0
  6
BYBLOCK
 62
0
100
AcDbCircle
 10
416.0683232808661
 20
253.9439365705299
 30
0.0000000000000000
 40
122.1601120643308
100
AcDbArc
 50
15.93804399063621
 51
44.06195600926978
  0
INSERT
  5
1E7
100
AcDbEntity
  8
MAIN0
  6
BYBLOCK
 62
0
100
AcDbBlockReference
  2
_OPEN
 10
534.0659304662097
 20
285.5613001244890
 30
0.0000000000000000
 41
2.000000000000000
 42
2.000000000000000
 43
2.000000000000000
 50
284.9999999999282
  0
INSERT
  5
1E8
100
AcDbEntity
  8
MAIN0
  6
BYBLOCK
 62
0
100
AcDbBlockReference
  2
_OPEN
 10
502.4485669120965
 20
340.3241802016933
 30
0.0000000000000000
 41
2.000000000000000
 42
2.000000000000000
 43
2.000000000000000
 50
134.9999999999778
  0
MTEXT
  5
1E9
100
AcDbEntity
  8
MAIN0
  6
BYBLOCK
 62
0
100
AcDbMText
 10
520.0867316213170
 20
313.9989926264518
 30
0.0000000000000000
 40
3.099999904632568
 41
0.0000000000000000
 71
     5
 72
     1
  1
\A1;30\U+00B0
 11
-0.4999999999992895
 21
0.8660254037848488
 31
0.0000000000000000
  7
STANDARD
  0
ENDBLK
  5
1EA
100
AcDbEntity
  8
MAIN0
  6
CONTINUOUS
 62
3
100
AcDbBlockEnd
  0
BLOCK
  5
1EC
100
AcDbEntity
  8
MAIN0
  6
CONTINUOUS
 62
3
100
AcDbBlockBegin
  2
*D22
 70
    65
 10
0.0
 20
0.0
 30
0.0
  0
LINE
  5
1ED
100
AcDbEntity
  8
MAIN0
  6
BYBLOCK
 62
0
100
AcDbLine
 10
489.0767174461720
 20
326.9523307357792
 30
0.0000000000000000
 11
503.8627804744700
 21
341.7383937640658
 31
0.0000000000000000
  0
LINE
  5
1EE
100
AcDbEntity
  8
MAIN0
  6
BYBLOCK
 62
0
100
AcDbLine
 10
468.4457733964182
 20
344.6643413415695
 30
0.0000000000000000
 11
478.1483793130320
 21
361.4697477549628
 31
0.0000000000000000
  0
ARC
  5
1EF
100
AcDbEntity
  8
MAIN0
  6
BYBLOCK
 62
0
100
AcDbCircle
 10
416.0683232808661
 20
253.9439365705299
 30
0.0000000000000000
 40
122.1601120643308
100
AcDbArc
 50
45.93804399068583
 51
59.06195600929173
  0
INSERT
  5
1F0
100
AcDbEntity
  8
MAIN0
  6
BYBLOCK
 62
0
100
AcDbBlockReference
  2
_OPEN
 10
502.4485669120965
 20
340.3241802016933
 30
0.0000000000000000
 41
2.000000000000000
 42
2.000000000000000
 43
2.000000000000000
 50
314.9999999999778
  0
INSERT
  5
1F1
100
AcDbEntity
  8
MAIN0
  6
BYBLOCK
 62
0
100
AcDbBlockReference
  2
_OPEN
 10
477.1483793130320
 20
359.7376969473939
 30
0.0000000000000000
 41
2.000000000000000
 42
2.000000000000000
 43
2.000000000000000
 50
149.9999999999998
  0
MTEXT
  5
1F2
100
AcDbEntity
  8
MAIN0
  6
BYBLOCK
 62
0
100
AcDbMText
 10
491.6826485694728
 20
352.4864438368705
 30
0.0000000000000000
 40
3.099999904632568
 41
0.0000000000000000
 71
     5
 72
     1
  1
\A1;15\U+00B0
 11
0.7933533402911160
 21
-0.6087614290088760
 31
0.0000000000000000
  7
STANDARD
  0
ENDBLK
  5
1F3
100
AcDbEntity
  8
MAIN0
  6
CONTINUOUS
 62
3
100
AcDbBlockEnd
  0
BLOCK
  5
1F5
100
AcDbEntity
  8
MAIN0
  6
CONTINUOUS
 62
3
100
AcDbBlockBegin
  2
*D23
 70
    65
 10
0.0
 20
0.0
 30
0.0
  0
LINE
  5
1F6
100
AcDbEntity
  8
MAIN0
  6
BYBLOCK
 62
0
100
AcDbLine
 10
489.0767174461154
 20
180.9355424052239
 30
0.0000000000000000
 11
504.0054376244956
 21
166.0068222268322
 31
0.0000000000000000
  0
LINE
  5
1F7
100
AcDbEntity
  8
MAIN0
  6
BYBLOCK
 62
0
100
AcDbLine
 10
500.8083197700678
 20
205.0192767863612
 30
0.0000000000000000
 11
523.7688530782436
 21
191.7630067001484
 31
0.0000000000000000
  0
ARC
  5
1F8
100
AcDbEntity
  8
MAIN0
  6
BYBLOCK
 62
0
100
AcDbCircle
 10
416.0683232808655
 20
253.9439365705301
 30
0.0000000000000000
 40
122.3618597407633
100
AcDbArc
 50
315.9364973633634
 51
329.0635026366145
  0
INSERT
  5
1F9
100
AcDbEntity
  8
MAIN0
  6
BYBLOCK
 62
0
100
AcDbBlockReference
  2
_OPEN
 10
502.5912240621231
 20
167.4210357892058
 30
0.0000000000000000
 41
2.000000000000000
 42
2.000000000000000
 43
2.000000000000000
 50
224.9999999999779
  0
INSERT
  5
1FA
100
AcDbEntity
  8
MAIN0
  6
BYBLOCK
 62
0
100
AcDbBlockReference
  2
_OPEN
 10
522.0368022706748
 20
192.7630067001483
 30
0.0000000000000000
 41
2.000000000000000
 42
2.000000000000000
 43
2.000000000000000
 50
59.99999999999994
  0
MTEXT
  5
1FB
100
AcDbEntity
  8
MAIN0
  6
BYBLOCK
 62
0
100
AcDbMText
 10
511.5181391206666
 20
180.7027168789998
 30
0.0000000000000000
 40
3.099999904632568
 41
0.0000000000000000
 71
     5
 72
     1
  1
\A1;15\U+00B0
 11
0.6087614290088744
 21
0.7933533402911172
 31
0.0000000000000000
  7
STANDARD
  0
ENDBLK
  5
1FC
100
AcDbEntity
  8
MAIN0
  6
CONTINUOUS
 62
3
100
AcDbBlockEnd
  0
BLOCK
  5
1FE
100
AcDbEntity
  8
MAIN0
  6
CONTINUOUS
 62
3
100
AcDbBlockBegin
  2
*D24
 70
    65
 10
0.0
 20
0.0
 30
0.0
  0
LINE
  5
1FF
100
AcDbEntity
  8
MAIN0
  6
BYBLOCK
 62
0
100
AcDbLine
 10
500.8083197700678
 20
205.0192767863612
 30
0.0000000000000000
 11
523.7688530782436
 21
191.7630067001484
 31
0.0000000000000000
  0
LINE
  5
200
100
AcDbEntity
  8
MAIN0
  6
BYBLOCK
 62
0
100
AcDbLine
 10
538.1427823202513
 20
253.9439365705297
 30
0.0000000000000000
 11
540.4301830216288
 21
253.9439365705328
 31
0.0000000000000000
  0
ARC
  5
201
100
AcDbEntity
  8
MAIN0
  6
BYBLOCK
 62
0
100
AcDbCircle
 10
416.0683232808655
 20
253.9439365705301
 30
0.0000000000000000
 40
122.3618597407633
100
AcDbArc
 50
330.9364973633854
 51
359.0635026366145
  0
INSERT
  5
202
100
AcDbEntity
  8
MAIN0
  6
BYBLOCK
 62
0
100
AcDbBlockReference
  2
_OPEN
 10
522.0368022706748
 20
192.7630067001483
 30
0.0000000000000000
 41
2.000000000000000
 42
2.000000000000000
 43
2.000000000000000
 50
240.0000000000000
  0
INSERT
  5
203
100
AcDbEntity
  8
MAIN0
  6
BYBLOCK
 62
0
100
AcDbBlockReference
  2
_OPEN
 10
538.4301830216288
 20
253.9439365705301
 30
0.0000000000000000
 41
2.000000000000000
 42
2.000000000000000
 43
2.000000000000000
 50
90.00000000000000
  0
MTEXT
  5
204
100
AcDbEntity
  8
MAIN0
  6
BYBLOCK
 62
0
100
AcDbMText
 10
532.2806558593957
 20
222.8049359055758
 30
0.0000000000000000
 40
3.099999904632568
 41
0.0000000000000000
 71
     5
 72
     1
  1
\A1;30\U+00B0
 11
0.2588190451025214
 21
0.9659258262890681
 31
0.0000000000000000
  7
STANDARD
  0
ENDBLK
  5
205
100
AcDbEntity
  8
MAIN0
  6
CONTINUOUS
 62
3
100
AcDbBlockEnd
  0
BLOCK
  5
221
100
AcDbEntity
  8
MAIN0
  6
CONTINUOUS
 62
3
100
AcDbBlockBegin
  2
*D25
 70
    65
 10
0.0
 20
0.0
 30
0.0
  0
LINE
  5
222
100
AcDbEntity
  8
MAIN0
  6
BYBLOCK
 62
0
100
AcDbLine
 10
180.3683232927876
 20
336.4439365705297
 30
0.0000000000000000
 11
245.5683232808664
 21
336.4439365705304
 31
0.0000000000000000
  0
LINE
  5
223
100
AcDbEntity
  8
MAIN0
  6
BYBLOCK
 62
0
100
AcDbLine
 10
243.5683232808664
 20
334.4439365705304
 30
0.0000000000000000
 11
243.5683232808664
 21
173.4439365705297
 31
0.0000000000000000
  0
INSERT
  5
224
100
AcDbEntity
  8
MAIN0
  6
BYBLOCK
 62
0
100
AcDbBlockReference
  2
_OPEN
 10
243.5683232808664
 20
336.4439365705304
 30
0.0000000000000000
 41
2.000000000000000
 42
2.000000000000000
 43
2.000000000000000
 50
90.00000000000000
  0
INSERT
  5
225
100
AcDbEntity
  8
MAIN0
  6
BYBLOCK
 62
0
100
AcDbBlockReference
  2
_OPEN
 10
243.5683232808664
 20
171.4439365705297
 30
0.0000000000000000
 41
2.000000000000000
 42
2.000000000000000
 43
2.000000000000000
 50
270.0000000000000
  0
LINE
  5
226
100
AcDbEntity
  8
MAIN0
  6
BYBLOCK
 62
0
100
AcDbLine
 10
180.3683232927860
 20
171.4439365705297
 30
0.0000000000000000
 11
245.5683232808664
 21
171.4439365705297
 31
0.0000000000000000
  0
MTEXT
  5
227
100
AcDbEntity
  8
MAIN0
  6
BYBLOCK
 62
0
100
AcDbMText
 10
241.5183233285501
 20
253.9439365705301
 30
0.0000000000000000
 40
3.099999904632568
 41
0.0000000000000000
 71
     5
 72
     1
  1
\A1;\U+2205165
 11
6.123233995736766e-017
 21
1.000000000000000
 31
0.0000000000000000
  7
STANDARD
  0
ENDBLK
  5
228
100
AcDbEntity
  8
MAIN0
  6
CONTINUOUS
 62
3
100
AcDbBlockEnd
  0
BLOCK
  5
231
100
AcDbEntity
  8
MAIN0
  6
CONTINUOUS
 62
3
100
AcDbBlockBegin
  2
*D26
 70
    65
 10
0.0
 20
0.0
 30
0.0
  0
LINE
  5
232
100
AcDbEntity
  8
MAIN0
  6
BYBLOCK
 62
0
100
AcDbLine
 10
184.0683232808661
 20
208.1565349062755
 30
0.0000000000000000
 11
165.0683232808662
 21
208.1565349062755
 31
0.0000000000000000
  0
INSERT
  5
233
100
AcDbEntity
  8
MAIN0
  6
BYBLOCK
 62
0
100
AcDbBlockReference
  2
_OPEN
 10
186.0683232808661
 20
208.1565349062755
 30
0.0000000000000000
 41
2.000000000000000
 42
2.000000000000000
 43
2.000000000000000
 50
360.0000000000000
  0
INSERT
  5
234
100
AcDbEntity
  8
MAIN0
  6
BYBLOCK
 62
0
100
AcDbBlockReference
  2
_OPEN
 10
163.0683232808662
 20
208.1565349062755
 30
0.0000000000000000
 41
2.000000000000000
 42
2.000000000000000
 43
2.000000000000000
 50
180.0000000000000
  0
LINE
  5
235
100
AcDbEntity
  8
MAIN0
  6
BYBLOCK
 62
0
100
AcDbLine
 10
163.0683232808662
 20
241.6439365586095
 30
0.0000000000000000
 11
163.0683232808662
 21
206.1565349062755
 31
0.0000000000000000
  0
MTEXT
  5
236
100
AcDbEntity
  8
MAIN0
  6
BYBLOCK
 62
0
100
AcDbMText
 10
174.5683232808661
 20
210.2065348585918
 30
0.0000000000000000
 40
3.099999904632568
 41
0.0000000000000000
 71
     5
 72
     1
  1
\A1;23
 11
1.000000000000000
 21
0.0000000000000000
 31
0.0000000000000000
  7
STANDARD
  0
ENDBLK
  5
237
100
AcDbEntity
  8
MAIN0
  6
CONTINUOUS
 62
3
100
AcDbBlockEnd
  0
BLOCK
  5
239
100
AcDbEntity
  8
MAIN0
  6
CONTINUOUS
 62
3
100
AcDbBlockBegin
  2
*D27
 70
    65
 10
0.0
 20
0.0
 30
0.0
  0
LINE
  5
23A
100
AcDbEntity
  8
MAIN0
  6
BYBLOCK
 62
0
100
AcDbLine
 10
163.0683232808662
 20
241.6439365586095
 30
0.0000000000000000
 11
163.0683232808662
 21
206.1565349062755
 31
0.0000000000000000
  0
LINE
  5
23B
100
AcDbEntity
  8
MAIN0
  6
BYBLOCK
 62
0
100
AcDbLine
 10
161.0683232808662
 20
208.1565349062755
 30
0.0000000000000000
 11
140.0683232808662
 21
208.1565349062755
 31
0.0000000000000000
  0
INSERT
  5
23C
100
AcDbEntity
  8
MAIN0
  6
BYBLOCK
 62
0
100
AcDbBlockReference
  2
_OPEN
 10
163.0683232808662
 20
208.1565349062755
 30
0.0000000000000000
 41
2.000000000000000
 42
2.000000000000000
 43
2.000000000000000
 50
360.0000000000000
  0
INSERT
  5
23D
100
AcDbEntity
  8
MAIN0
  6
BYBLOCK
 62
0
100
AcDbBlockReference
  2
_OPEN
 10
138.0683232808662
 20
208.1565349062755
 30
0.0000000000000000
 41
2.000000000000000
 42
2.000000000000000
 43
2.000000000000000
 50
180.0000000000000
  0
LINE
  5
23E
100
AcDbEntity
  8
MAIN0
  6
BYBLOCK
 62
0
100
AcDbLine
 10
138.0683232808662
 20
246.6439365586094
 30
0.0000000000000000
 11
138.0683232808662
 21
206.1565349062755
 31
0.0000000000000000
  0
MTEXT
  5
23F
100
AcDbEntity
  8
MAIN0
  6
BYBLOCK
 62
0
100
AcDbMText
 10
150.5683232808662
 20
210.2065348585918
 30
0.0000000000000000
 40
3.099999904632568
 41
0.0000000000000000
 71
     5
 72
     1
  1
\A1;25
 11
1.000000000000000
 21
0.0000000000000000
 31
0.0000000000000000
  7
STANDARD
  0
ENDBLK
  5
240
100
AcDbEntity
  8
MAIN0
  6
CONTINUOUS
 62
3
100
AcDbBlockEnd
  0
BLOCK
  5
24E
100
AcDbEntity
  8
MAIN0
  6
CONTINUOUS
 62
3
100
AcDbBlockBegin
  2
*D28
 70
    65
 10
0.0
 20
0.0
 30
0.0
  0
LINE
  5
24F
100
AcDbEntity
  8
MAIN0
  6
BYBLOCK
 62
0
100
AcDbLine
 10
113.2683232689456
 20
301.4439365705159
 30
0.0000000000000000
 11
92.67837025271965
 21
301.4439365705160
 31
0.0000000000000000
  0
LINE
  5
250
100
AcDbEntity
  8
MAIN0
  6
BYBLOCK
 62
0
100
AcDbLine
 10
94.67837025271965
 20
299.4439365705160
 30
0.0000000000000000
 11
94.67837025271911
 21
208.4439365705459
 31
0.0000000000000000
  0
INSERT
  5
251
100
AcDbEntity
  8
MAIN0
  6
BYBLOCK
 62
0
100
AcDbBlockReference
  2
_OPEN
 10
94.67837025271965
 20
301.4439365705160
 30
0.0000000000000000
 41
2.000000000000000
 42
2.000000000000000
 43
2.000000000000000
 50
89.99999999999966
  0
INSERT
  5
252
100
AcDbEntity
  8
MAIN0
  6
BYBLOCK
 62
0
100
AcDbBlockReference
  2
_OPEN
 10
94.67837025271911
 20
206.4439365705459
 30
0.0000000000000000
 41
2.000000000000000
 42
2.000000000000000
 43
2.000000000000000
 50
269.9999999999997
  0
LINE
  5
253
100
AcDbEntity
  8
MAIN0
  6
BYBLOCK
 62
0
100
AcDbLine
 10
113.2683232689450
 20
206.4439365705458
 30
0.0000000000000000
 11
92.67837025271911
 21
206.4439365705459
 31
0.0000000000000000
  0
MTEXT
  5
254
100
AcDbEntity
  8
MAIN0
  6
BYBLOCK
 62
0
100
AcDbMText
 10
92.62837030040309
 20
253.9439365705310
 30
0.0000000000000000
 40
3.099999904632568
 41
0.0000000000000000
 71
     5
 72
     1
  1
\A1;\U+220595
 11
6.123233995736766e-017
 21
1.000000000000000
 31
0.0000000000000000
  7
STANDARD
  0
ENDBLK
  5
255
100
AcDbEntity
  8
MAIN0
  6
CONTINUOUS
 62
3
100
AcDbBlockEnd
  0
BLOCK
  5
257
100
AcDbEntity
  8
MAIN0
  6
CONTINUOUS
 62
3
100
AcDbBlockBegin
  2
*D29
 70
    65
 10
0.0
 20
0.0
 30
0.0
  0
LINE
  5
258
100
AcDbEntity
  8
MAIN0
  6
BYBLOCK
 62
0
100
AcDbLine
 10
114.5683238621453
 20
260.3002863847566
 30
0.0000000000000000
 11
114.0683232808657
 21
260.3002863847566
 31
0.0000000000000000
  0
INSERT
  5
259
100
AcDbEntity
  8
MAIN0
  6
BYBLOCK
 62
0
100
AcDbBlockReference
  2
_OPEN
 10
114.5683238621453
 20
260.3002863847566
 30
0.0000000000000000
 41
2.000000000000000
 42
2.000000000000000
 43
2.000000000000000
 50
180.0000000000000
  0
INSERT
  5
25A
100
AcDbEntity
  8
MAIN0
  6
BYBLOCK
 62
0
100
AcDbBlockReference
  2
_OPEN
 10
114.0683232808657
 20
260.3002863847566
 30
0.0000000000000000
 41
2.000000000000000
 42
2.000000000000000
 43
2.000000000000000
 50
360.0000000000000
  0
LINE
  5
25B
100
AcDbEntity
  8
MAIN0
  6
BYBLOCK
 62
0
100
AcDbLine
 10
116.5683238621453
 20
260.3002863847566
 30
0.0000000000000000
 11
117.5683238621453
 21
260.3002863847566
 31
0.0000000000000000
  0
LINE
  5
25C
100
AcDbEntity
  8
MAIN0
  6
BYBLOCK
 62
0
100
AcDbLine
 10
112.0683232808657
 20
260.3002863847566
 30
0.0000000000000000
 11
107.3978005910463
 21
260.3002863847566
 31
0.0000000000000000
  0
MTEXT
  5
25D
100
AcDbEntity
  8
MAIN0
  6
BYBLOCK
 62
0
100
AcDbMText
 10
110.0478008032835
 20
262.3502863370729
 30
0.0000000000000000
 40
3.099999904632568
 41
0.0000000000000000
 71
     5
 72
     1
  1
\A1;0.2
 11
1.000000000000000
 21
0.0000000000000000
 31
0.0000000000000000
  7
STANDARD
  0
ENDBLK
  5
25E
100
AcDbEntity
  8
MAIN0
  6
CONTINUOUS
 62
3
100
AcDbBlockEnd
  0
BLOCK
  5
263
100
AcDbEntity
  8
MAIN0
  6
CONTINUOUS
 62
3
100
AcDbBlockBegin
  2
*D30
 70
    65
 10
0.0
 20
0.0
 30
0.0
  0
LINE
  5
264
100
AcDbEntity
  8
MAIN0
  6
BYBLOCK
 62
0
100
AcDbLine
 10
113.2683232689450
 20
200.9439365705305
 30
0.0000000000000000
 11
92.67837025271911
 21
200.9439365705305
 31
0.0000000000000000
  0
LINE
  5
265
100
AcDbEntity
  8
MAIN0
  6
BYBLOCK
 62
0
100
AcDbLine
 10
94.67837025271911
 20
198.9439365705305
 30
0.0000000000000000
 11
94.67837025271911
 21
188.9439365705305
 31
0.0000000000000000
  0
INSERT
  5
266
100
AcDbEntity
  8
MAIN0
  6
BYBLOCK
 62
0
100
AcDbBlockReference
  2
_OPEN
 10
94.67837025271911
 20
200.9439365705305
 30
0.0000000000000000
 41
2.000000000000000
 42
2.000000000000000
 43
2.000000000000000
 50
90.00000000000000
  0
INSERT
  5
267
100
AcDbEntity
  8
MAIN0
  6
BYBLOCK
 62
0
100
AcDbBlockReference
  2
_OPEN
 10
94.67837025271911
 20
186.9439365705305
 30
0.0000000000000000
 41
2.000000000000000
 42
2.000000000000000
 43
2.000000000000000
 50
270.0000000000000
  0
LINE
  5
268
100
AcDbEntity
  8
MAIN0
  6
BYBLOCK
 62
0
100
AcDbLine
 10
113.2683232689449
 20
186.9439365705305
 30
0.0000000000000000
 11
92.67837025271911
 21
186.9439365705305
 31
0.0000000000000000
  0
MTEXT
  5
269
100
AcDbEntity
  8
MAIN0
  6
BYBLOCK
 62
0
100
AcDbMText
 10
92.62837030040282
 20
193.9439365705305
 30
0.0000000000000000
 40
3.099999904632568
 41
0.0000000000000000
 71
     5
 72
     1
  1
\A1;\U+220514
 11
6.123233995736766e-017
 21
1.000000000000000
 31
0.0000000000000000
  7
STANDARD
  0
ENDBLK
  5
26A
100
AcDbEntity
  8
MAIN0
  6
CONTINUOUS
 62
3
100
AcDbBlockEnd
  0
BLOCK
  5
27A
100
AcDbEntity
  8
MAIN0
  6
BYBLOCK
 62
3
100
AcDbBlockBegin
  2
M0
 70
    64
 10
0.0
 20
0.0
 30
0.0
  0
LINE
  5
27B
100
AcDbEntity
  8
MAIN0
  6
BYBLOCK
 62
0
100
AcDbLine
 10
468.6621827538836
 20
113.6464642325005
 30
0.0000000000000000
 11
572.7528705099965
 21
113.6464642325005
 31
0.0000000000000000
  0
LINE
  5
27C
100
AcDbEntity
  8
MAIN0
  6
BYBLOCK
 62
0
100
AcDbLine
 10
468.6621827538836
 20
108.6464642325005
 30
0.0000000000000000
 11
572.7528705099965
 21
108.6464642325005
 31
0.0000000000000000
  0
MTEXT
  5
27D
100
AcDbEntity
  8
MAIN0
  6
BYBLOCK
 62
0
100
AcDbMText
 10
470.1621827538836
 20
127.6464642325007
 30
0.0000000000000000
 40
6.000000000000000
 41
0.0000000000000000
 71
     1
 72
     1
  1
{\H0.80x;要注意}
 11
1.000000000000000
 21
0.0000000000000000
 31
0.0000000000000000
  7
KNJYOKO
  0
LINE
  5
27E
100
AcDbEntity
  8
MAIN0
  6
BYBLOCK
 62
0
100
AcDbLine
 10
488.6621827538836
 20
129.1464642325007
 30
0.0000000000000000
 11
488.6621827538836
 21
120.1464642325007
 31
0.0000000000000000
  0
LINE
  5
27F
100
AcDbEntity
  8
MAIN0
  6
BYBLOCK
 62
0
100
AcDbLine
 10
468.6621827538836
 20
120.1464642325007
 30
0.0000000000000000
 11
488.6621827538836
 21
120.1464642325007
 31
0.0000000000000000
  0
LINE
  5
280
100
AcDbEntity
  8
MAIN0
  6
BYBLOCK
 62
0
100
AcDbLine
 10
468.6621827538836
 20
129.1464642325007
 30
0.0000000000000000
 11
468.6621827538836
 21
120.1464642325007
 31
0.0000000000000000
  0
LINE
  5
281
100
AcDbEntity
  8
MAIN0
  6
BYBLOCK
 62
0
100
AcDbLine
 10
468.6621827538836
 20
129.1464642325007
 30
0.0000000000000000
 11
488.6621827538836
 21
129.1464642325007
 31
0.0000000000000000
  0
ENDBLK
  5
282
100
AcDbEntity
  8
MAIN0
  6
BYBLOCK
 62
3
100
AcDbBlockEnd
  0
BLOCK
  5
284
100
AcDbEntity
  8
MAIN0
  6
BYBLOCK
 62
3
100
AcDbBlockBegin
  2
M1
 70
    64
 10
0.0
 20
0.0
 30
0.0
  0
LINE
  5
285
100
AcDbEntity
  8
MAIN0
  6
BYBLOCK
 62
0
100
AcDbLine
 10
468.6621827538836
 20
77.02314888390302
 30
0.0000000000000000
 11
572.7528705099965
 21
77.02314888390302
 31
0.0000000000000000
  0
LINE
  5
286
100
AcDbEntity
  8
MAIN0
  6
BYBLOCK
 62
0
100
AcDbLine
 10
468.6621827538836
 20
72.02314888390302
 30
0.0000000000000000
 11
572.7528705100019
 21
72.02314888390302
 31
0.0000000000000000
  0
MTEXT
  5
287
100
AcDbEntity
  8
MAIN0
  6
BYBLOCK
 62
0
100
AcDbMText
 10
469.5210537010225
 20
90.72633407459379
 30
0.0000000000000000
 40
5.000000000000000
 41
0.0000000000000000
 71
     1
 72
     1
  1
{\H0.63x;NOTICE}
 11
1.000000000000000
 21
0.0000000000000000
 31
0.0000000000000000
  7
STANDARD
  0
LINE
  5
288
100
AcDbEntity
  8
MAIN0
  6
BYBLOCK
 62
0
100
AcDbLine
 10
488.6621827538834
 20
92.52314888390336
 30
0.0000000000000000
 11
488.6621827538834
 21
83.52314888390336
 31
0.0000000000000000
  0
LINE
  5
289
100
AcDbEntity
  8
MAIN0
  6
BYBLOCK
 62
0
100
AcDbLine
 10
468.6621827538836
 20
83.52314888390336
 30
0.0000000000000000
 11
488.6621827538834
 21
83.52314888390336
 31
0.0000000000000000
  0
LINE
  5
28A
100
AcDbEntity
  8
MAIN0
  6
BYBLOCK
 62
0
100
AcDbLine
 10
468.6621827538836
 20
92.52314888390336
 30
0.0000000000000000
 11
468.6621827538836
 21
83.52314888390336
 31
0.0000000000000000
  0
LINE
  5
28B
100
AcDbEntity
  8
MAIN0
  6
BYBLOCK
 62
0
100
AcDbLine
 10
468.6621827538836
 20
92.52314888390336
 30
0.0000000000000000
 11
488.6621827538834
 21
92.52314888390336
 31
0.0000000000000000
  0
ENDBLK
  5
28C
100
AcDbEntity
  8
MAIN0
  6
BYBLOCK
 62
3
100
AcDbBlockEnd
  0
BLOCK
  5
28F
100
AcDbEntity
  8
MAIN0
  6
BYBLOCK
 62
3
100
AcDbBlockBegin
  2
*X0
 70
     1
 10
0.0
 20
0.0
 30
0.0
  0
LINE
  5
290
100
AcDbEntity
  8
MAIN0
  6
BYBLOCK
 62
0
100
AcDbLine
 10
170.4683232808665
 20
276.2368297893434
 30
0.0000000000000000
 11
171.1754300620536
 21
276.9439365705300
 31
0.0000000000000000
  0
LINE
  5
291
100
AcDbEntity
  8
MAIN0
  6
BYBLOCK
 62
0
100
AcDbLine
 10
170.4683232808651
 20
275.5297230081553
 30
0.0000000000000000
 11
171.8825368432403
 21
276.9439365705309
 31
0.0000000000000000
  0
LINE
  5
292
100
AcDbEntity
  8
MAIN0
  6
BYBLOCK
 62
0
100
AcDbLine
 10
170.4683232808656
 20
274.8226162269691
 30
0.0000000000000000
 11
172.5896436244269
 21
276.9439365705305
 31
0.0000000000000000
  0
LINE
  5
293
100
AcDbEntity
  8
MAIN0
  6
BYBLOCK
 62
0
100
AcDbLine
 10
170.4683232808665
 20
274.1155094457834
 30
0.0000000000000000
 11
173.2967504056141
 21
276.9439365705309
 31
0.0000000000000000
  0
LINE
  5
294
100
AcDbEntity
  8
MAIN0
  6
BYBLOCK
 62
0
100
AcDbLine
 10
171.0038571867989
 20
273.9439365705296
 30
0.0000000000000000
 11
174.0038571868007
 21
276.9439365705309
 31
0.0000000000000000
  0
LINE
  5
295
100
AcDbEntity
  8
MAIN0
  6
BYBLOCK
 62
0
100
AcDbLine
 10
171.7109639679865
 20
273.9439365705300
 30
0.0000000000000000
 11
174.6210285513972
 21
276.8540011545212
 31
0.0000000000000000
  0
LINE
  5
296
100
AcDbEntity
  8
MAIN0
  6
BYBLOCK
 62
0
100
AcDbLine
 10
172.4180707491727
 20
273.9439365705291
 30
0.0000000000000000
 11
174.7683232808662
 21
276.2941891022231
 31
0.0000000000000000
  0
LINE
  5
297
100
AcDbEntity
  8
MAIN0
  6
BYBLOCK
 62
0
100
AcDbLine
 10
173.1251775303594
 20
273.9439365705300
 30
0.0000000000000000
 11
174.7683232808667
 21
275.5870823210364
 31
0.0000000000000000
  0
LINE
  5
298
100
AcDbEntity
  8
MAIN0
  6
BYBLOCK
 62
0
100
AcDbLine
 10
173.8322843115456
 20
273.9439365705291
 30
0.0000000000000000
 11
175.3322843115474
 21
275.4439365705305
 31
0.0000000000000000
  0
LINE
  5
299
100
AcDbEntity
  8
MAIN0
  6
BYBLOCK
 62
0
100
AcDbLine
 10
174.5393910927327
 20
273.9439365705296
 30
0.0000000000000000
 11
176.0393910927345
 21
275.4439365705309
 31
0.0000000000000000
  0
LINE
  5
29A
100
AcDbEntity
  8
MAIN0
  6
BYBLOCK
 62
0
100
AcDbLine
 10
175.2464978739189
 20
273.9439365705291
 30
0.0000000000000000
 11
176.7464978739203
 21
275.4439365705305
 31
0.0000000000000000
  0
LINE
  5
29B
100
AcDbEntity
  8
MAIN0
  6
BYBLOCK
 62
0
100
AcDbLine
 10
175.9536046551092
 20
273.9439365705327
 30
0.0000000000000000
 11
176.9683232808646
 21
274.9586551962882
 31
0.0000000000000000
  0
LINE
  5
29C
100
AcDbEntity
  8
MAIN0
  6
BYBLOCK
 62
0
100
AcDbLine
 10
176.6607114362959
 20
273.9439365705332
 30
0.0000000000000000
 11
176.9683232808647
 21
274.2515484151015
 31
0.0000000000000000
  0
ENDBLK
  5
29D
100
AcDbEntity
  8
MAIN0
  6
BYBLOCK
 62
3
100
AcDbBlockEnd
  0
BLOCK
  5
29F
100
AcDbEntity
  8
MAIN0
  6
BYBLOCK
 62
3
100
AcDbBlockBegin
  2
*X1
 70
     1
 10
0.0
 20
0.0
 30
0.0
  0
LINE
  5
2A0
100
AcDbEntity
  8
MAIN0
  6
BYBLOCK
 62
0
100
AcDbLine
 10
174.3683233281021
 20
230.9439365705300
 30
0.0000000000000000
 11
174.7683232808658
 21
231.3439365705297
 31
0.0000000000000000
  0
LINE
  5
2A1
100
AcDbEntity
  8
MAIN0
  6
BYBLOCK
 62
0
100
AcDbLine
 10
175.8683232808643
 20
232.4439365705282
 30
0.0000000000000000
 11
176.9683232808646
 21
233.5439365705286
 31
0.0000000000000000
  0
LINE
  5
2A2
100
AcDbEntity
  8
MAIN0
  6
BYBLOCK
 62
0
100
AcDbLine
 10
173.6612164996795
 20
230.9439365705300
 30
0.0000000000000000
 11
174.7683232808658
 21
232.0510433517163
 31
0.0000000000000000
  0
LINE
  5
2A3
100
AcDbEntity
  8
MAIN0
  6
BYBLOCK
 62
0
100
AcDbLine
 10
175.1612164996781
 20
232.4439365705287
 30
0.0000000000000000
 11
176.6612164996799
 21
233.9439365705305
 31
0.0000000000000000
  0
LINE
  5
2A4
100
AcDbEntity
  8
MAIN0
  6
BYBLOCK
 62
0
100
AcDbLine
 10
172.9541097184923
 20
230.9439365705296
 30
0.0000000000000000
 11
175.9541097184942
 21
233.9439365705314
 31
0.0000000000000000
  0
LINE
  5
2A5
100
AcDbEntity
  8
MAIN0
  6
BYBLOCK
 62
0
100
AcDbLine
 10
172.2470029373056
 20
230.9439365705291
 30
0.0000000000000000
 11
175.2470029373061
 21
233.9439365705300
 31
0.0000000000000000
  0
LINE
  5
2A6
100
AcDbEntity
  8
MAIN0
  6
BYBLOCK
 62
0
100
AcDbLine
 10
171.5398961561195
 20
230.9439365705300
 30
0.0000000000000000
 11
174.5398961561203
 21
233.9439365705309
 31
0.0000000000000000
  0
LINE
  5
2A7
100
AcDbEntity
  8
MAIN0
  6
BYBLOCK
 62
0
100
AcDbLine
 10
170.8327893749332
 20
230.9439365705305
 30
0.0000000000000000
 11
173.8327893749337
 21
233.9439365705309
 31
0.0000000000000000
  0
LINE
  5
2A8
100
AcDbEntity
  8
MAIN0
  6
BYBLOCK
 62
0
100
AcDbLine
 10
170.4683232808624
 20
231.2865772576458
 30
0.0000000000000000
 11
173.1256825937479
 21
233.9439365705318
 31
0.0000000000000000
  0
LINE
  5
2A9
100
AcDbEntity
  8
MAIN0
  6
BYBLOCK
 62
0
100
AcDbLine
 10
170.4683232808638
 20
231.9936840388348
 30
0.0000000000000000
 11
172.4185758125608
 21
233.9439365705314
 31
0.0000000000000000
  0
LINE
  5
2AA
100
AcDbEntity
  8
MAIN0
  6
BYBLOCK
 62
0
100
AcDbLine
 10
170.4683232808633
 20
232.7007908200205
 30
0.0000000000000000
 11
171.7114690313705
 21
233.9439365705277
 31
0.0000000000000000
  0
LINE
  5
2AB
100
AcDbEntity
  8
MAIN0
  6
BYBLOCK
 62
0
100
AcDbLine
 10
170.4683232808628
 20
233.4078976012063
 30
0.0000000000000000
 11
171.0043622501875
 21
233.9439365705318
 31
0.0000000000000000
  0
LINE
  5
2AC
100
AcDbEntity
  8
MAIN0
  6
BYBLOCK
 62
0
100
AcDbLine
 10
176.5754300620528
 20
232.4439365705305
 30
0.0000000000000000
 11
176.9683232808656
 21
232.8368297893428
 31
0.0000000000000000
  0
ENDBLK
  5
2AD
100
AcDbEntity
  8
MAIN0
  6
BYBLOCK
 62
3
100
AcDbBlockEnd
  0
BLOCK
  5
3A3
100
AcDbEntity
  8
MAIN0
  6
CONTINUOUS
 62
3
100
AcDbBlockBegin
  2
*D31
 70
    65
 10
0.0
 20
0.0
 30
0.0
  0
LINE
  5
3A4
100
AcDbEntity
  8
MAIN0
  6
BYBLOCK
 62
0
100
AcDbLine
 10
392.5683232808661
 20
144.1507676757366
 30
0.0000000000000000
 11
392.5683232808661
 21
116.9391142842939
 31
0.0000000000000000
  0
LINE
  5
3A5
100
AcDbEntity
  8
MAIN0
  6
BYBLOCK
 62
0
100
AcDbLine
 10
394.5683232808661
 20
118.9391142842939
 30
0.0000000000000000
 11
437.5683232808663
 21
118.9391142842939
 31
0.0000000000000000
  0
INSERT
  5
3A6
100
AcDbEntity
  8
MAIN0
  6
BYBLOCK
 62
0
100
AcDbBlockReference
  2
_OPEN
 10
392.5683232808661
 20
118.9391142842939
 30
0.0000000000000000
 41
2.000000000000000
 42
2.000000000000000
 43
2.000000000000000
 50
180.0000000000000
  0
INSERT
  5
3A7
100
AcDbEntity
  8
MAIN0
  6
BYBLOCK
 62
0
100
AcDbBlockReference
  2
_OPEN
 10
439.5683232808663
 20
118.9391142842939
 30
0.0000000000000000
 41
2.000000000000000
 42
2.000000000000000
 43
2.000000000000000
 50
0.0000000000000000
  0
LINE
  5
3A8
100
AcDbEntity
  8
MAIN0
  6
BYBLOCK
 62
0
100
AcDbLine
 10
439.5683232808663
 20
144.1507676757366
 30
0.0000000000000000
 11
439.5683232808663
 21
116.9391142842939
 31
0.0000000000000000
  0
MTEXT
  5
3A9
100
AcDbEntity
  8
MAIN0
  6
BYBLOCK
 62
0
100
AcDbMText
 10
416.0683232808661
 20
120.9891142366102
 30
0.0000000000000000
 40
3.099999904632568
 41
0.0000000000000000
 71
     5
 72
     1
  1
\A1;47
 11
1.000000000000000
 21
0.0000000000000000
 31
0.0000000000000000
  7
STANDARD
  0
ENDBLK
  5
3AA
100
AcDbEntity
  8
MAIN0
  6
CONTINUOUS
 62
3
100
AcDbBlockEnd
  0
BLOCK
  5
3AC
100
AcDbEntity
  8
MAIN0
  6
CONTINUOUS
 62
3
100
AcDbBlockBegin
  2
*D32
 70
    65
 10
0.0
 20
0.0
 30
0.0
  0
LINE
  5
3AD
100
AcDbEntity
  8
MAIN0
  6
BYBLOCK
 62
0
100
AcDbLine
 10
376.0683232808661
 20
150.1439365586085
 30
0.0000000000000000
 11
376.0683232808663
 21
106.1742919154333
 31
0.0000000000000000
  0
LINE
  5
3AE
100
AcDbEntity
  8
MAIN0
  6
BYBLOCK
 62
0
100
AcDbLine
 10
378.0683232808663
 20
108.1742919154333
 30
0.0000000000000000
 11
454.0683232808663
 21
108.1742919154333
 31
0.0000000000000000
  0
INSERT
  5
3AF
100
AcDbEntity
  8
MAIN0
  6
BYBLOCK
 62
0
100
AcDbBlockReference
  2
_OPEN
 10
376.0683232808663
 20
108.1742919154333
 30
0.0000000000000000
 41
2.000000000000000
 42
2.000000000000000
 43
2.000000000000000
 50
180.0000000000000
  0
INSERT
  5
3B0
100
AcDbEntity
  8
MAIN0
  6
BYBLOCK
 62
0
100
AcDbBlockReference
  2
_OPEN
 10
456.0683232808663
 20
108.1742919154333
 30
0.0000000000000000
 41
2.000000000000000
 42
2.000000000000000
 43
2.000000000000000
 50
0.0000000000000000
  0
LINE
  5
3B1
100
AcDbEntity
  8
MAIN0
  6
BYBLOCK
 62
0
100
AcDbLine
 10
456.0683232808663
 20
150.1439365586086
 30
0.0000000000000000
 11
456.0683232808663
 21
106.1742919154333
 31
0.0000000000000000
  0
MTEXT
  5
3B2
100
AcDbEntity
  8
MAIN0
  6
BYBLOCK
 62
0
100
AcDbMText
 10
416.0683232808663
 20
110.2242918677496
 30
0.0000000000000000
 40
3.099999904632568
 41
0.0000000000000000
 71
     5
 72
     1
  1
\A1;80
 11
1.000000000000000
 21
0.0000000000000000
 31
0.0000000000000000
  7
STANDARD
  0
ENDBLK
  5
3B3
100
AcDbEntity
  8
MAIN0
  6
CONTINUOUS
 62
3
100
AcDbBlockEnd
  0
BLOCK
  5
3B5
100
AcDbEntity
  8
MAIN0
  6
CONTINUOUS
 62
3
100
AcDbBlockBegin
  2
*D33
 70
    65
 10
0.0
 20
0.0
 30
0.0
  0
LINE
  5
3B6
100
AcDbEntity
  8
MAIN0
  6
BYBLOCK
 62
0
100
AcDbLine
 10
379.2912807164717
 20
198.7375057857016
 30
0.0000000000000000
 11
291.5683232808664
 21
198.7375057857016
 31
0.0000000000000000
  0
LINE
  5
3B7
100
AcDbEntity
  8
MAIN0
  6
BYBLOCK
 62
0
100
AcDbLine
 10
293.5683232808664
 20
200.7375057857016
 30
0.0000000000000000
 11
293.5683232808664
 21
251.9439365705310
 31
0.0000000000000000
  0
INSERT
  5
3B8
100
AcDbEntity
  8
MAIN0
  6
BYBLOCK
 62
0
100
AcDbBlockReference
  2
_OPEN
 10
293.5683232808664
 20
198.7375057857016
 30
0.0000000000000000
 41
2.000000000000000
 42
2.000000000000000
 43
2.000000000000000
 50
270.0000000000000
  0
INSERT
  5
3B9
100
AcDbEntity
  8
MAIN0
  6
BYBLOCK
 62
0
100
AcDbBlockReference
  2
_OPEN
 10
293.5683232808664
 20
253.9439365705310
 30
0.0000000000000000
 41
2.000000000000000
 42
2.000000000000000
 43
2.000000000000000
 50
90.00000000000000
  0
LINE
  5
3BA
100
AcDbEntity
  8
MAIN0
  6
BYBLOCK
 62
0
100
AcDbLine
 10
303.1163218717192
 20
253.9439365705310
 30
0.0000000000000000
 11
291.5683232808664
 21
253.9439365705310
 31
0.0000000000000000
  0
MTEXT
  5
3BB
100
AcDbEntity
  8
MAIN0
  6
BYBLOCK
 62
0
100
AcDbMText
 10
291.5183233285501
 20
226.3407211781163
 30
0.0000000000000000
 40
3.099999904632568
 41
0.0000000000000000
 71
     5
 72
     1
  1
\A1;（55.2）
 11
6.123233995736766e-017
 21
1.000000000000000
 31
0.0000000000000000
  7
KNJYOKO
  0
ENDBLK
  5
3BC
100
AcDbEntity
  8
MAIN0
  6
CONTINUOUS
 62
3
100
AcDbBlockEnd
  0
BLOCK
  5
3BE
100
AcDbEntity
  8
MAIN0
  6
CONTINUOUS
 62
3
100
AcDbBlockBegin
  2
*D34
 70
    65
 10
0.0
 20
0.0
 30
0.0
  0
LINE
  5
3BF
100
AcDbEntity
  8
MAIN0
  6
BYBLOCK
 62
0
100
AcDbLine
 10
303.1163218717192
 20
253.9439365705310
 30
0.0000000000000000
 11
281.5683232808664
 21
253.9439365705310
 31
0.0000000000000000
  0
LINE
  5
3C0
100
AcDbEntity
  8
MAIN0
  6
BYBLOCK
 62
0
100
AcDbLine
 10
283.5683232808664
 20
251.9439365705310
 30
0.0000000000000000
 11
283.5683232808664
 21
152.9439365705302
 31
0.0000000000000000
  0
INSERT
  5
3C1
100
AcDbEntity
  8
MAIN0
  6
BYBLOCK
 62
0
100
AcDbBlockReference
  2
_OPEN
 10
283.5683232808664
 20
253.9439365705310
 30
0.0000000000000000
 41
2.000000000000000
 42
2.000000000000000
 43
2.000000000000000
 50
90.00000000000000
  0
INSERT
  5
3C2
100
AcDbEntity
  8
MAIN0
  6
BYBLOCK
 62
0
100
AcDbBlockReference
  2
_OPEN
 10
283.5683232808664
 20
150.9439365705302
 30
0.0000000000000000
 41
2.000000000000000
 42
2.000000000000000
 43
2.000000000000000
 50
270.0000000000000
  0
LINE
  5
3C3
100
AcDbEntity
  8
MAIN0
  6
BYBLOCK
 62
0
100
AcDbLine
 10
375.2683232689452
 20
150.9439365705302
 30
0.0000000000000000
 11
281.5683232808664
 21
150.9439365705302
 31
0.0000000000000000
  0
MTEXT
  5
3C4
100
AcDbEntity
  8
MAIN0
  6
BYBLOCK
 62
0
100
AcDbMText
 10
281.5183233285501
 20
202.4439365705306
 30
0.0000000000000000
 40
3.099999904632568
 41
0.0000000000000000
 71
     5
 72
     1
  1
\A1;103
 11
6.123233995736766e-017
 21
1.000000000000000
 31
0.0000000000000000
  7
STANDARD
  0
ENDBLK
  5
3C5
100
AcDbEntity
  8
MAIN0
  6
CONTINUOUS
 62
3
100
AcDbBlockEnd
  0
BLOCK
  5
3C7
100
AcDbEntity
  8
MAIN0
  6
CONTINUOUS
 62
3
100
AcDbBlockBegin
  2
*D35
 70
    65
 10
0.0
 20
0.0
 30
0.0
  0
LINE
  5
3C8
100
AcDbEntity
  8
MAIN0
  6
BYBLOCK
 62
0
100
AcDbLine
 10
342.1300193646139
 20
306.1299233293136
 30
0.0000000000000000
 11
490.0066271971180
 21
201.7579498117462
 31
0.0000000000000000
  0
INSERT
  5
3C9
100
AcDbEntity
  8
MAIN0
  6
BYBLOCK
 62
0
100
AcDbBlockReference
  2
_OPEN
 10
340.4960236979564
 20
307.2832048046458
 30
0.0000000000000000
 41
2.000000000000000
 42
2.000000000000000
 43
2.000000000000000
 50
144.7853847870164
  0
INSERT
  5
3CA
100
AcDbEntity
  8
MAIN0
  6
BYBLOCK
 62
0
100
AcDbBlockReference
  2
_OPEN
 10
491.6406228637754
 20
200.6046683364140
 30
0.0000000000000000
 41
2.000000000000000
 42
2.000000000000000
 43
2.000000000000000
 50
324.7853847870164
  0
MTEXT
  5
3CB
100
AcDbEntity
  8
MAIN0
  6
BYBLOCK
 62
0
100
AcDbMText
 10
367.2886457012561
 20
290.8820384648521
 30
0.0000000000000000
 40
3.099999904632568
 41
0.0000000000000000
 71
     5
 72
     1
  1
\A1;\U+2205185\H0.903226x;\U+00B10.2
 11
0.8169978333287519
 21
-0.5766407376661182
 31
0.0000000000000000
  7
STANDARD
  0
ENDBLK
  5
3CC
100
AcDbEntity
  8
MAIN0
  6
CONTINUOUS
 62
3
100
AcDbBlockEnd
  0
ENDSEC
  0
SECTION
  2
ENTITIES
  0
LINE
  5
46
100
AcDbEntity
  8
MAIN0
  6
CONTINUOUS
 62
3
100
AcDbLine
 10
159.0683232808650
 20
171.4439365705299
 30
0.0000000000000000
 11
129.0683232808649
 21
171.4439365705303
 31
0.0000000000000000
  0
LINE
  5
47
100
AcDbEntity
  8
MAIN0
  6
CONTINUOUS
 62
3
100
AcDbLine
 10
186.0683232808666
 20
323.5439365705297
 30
0.0000000000000000
 11
186.0683232808664
 21
273.9439365705297
 31
0.0000000000000000
  0
LINE
  5
48
100
AcDbEntity
  8
MAIN0
  6
CENTER
 62
3
100
AcDbLine
 10
135.3083910841244
 20
222.9439365705303
 30
0.0000000000000000
 11
118.0406123452899
 21
222.9439365705304
 31
0.0000000000000000
  0
LINE
  5
49
100
AcDbEntity
  8
MAIN0
  6
PHANTOM
 62
3
100
AcDbLine
 10
131.5683232808662
 20
225.4439365705303
 30
0.0000000000000000
 11
118.4683232808671
 21
225.4439365705304
 31
0.0000000000000000
  0
LINE
  5
4A
100
AcDbEntity
  8
MAIN0
  6
PHANTOM
 62
3
100
AcDbLine
 10
131.5683232808661
 20
220.4439365705303
 30
0.0000000000000000
 11
124.6683232808670
 21
220.4439365705304
 31
0.0000000000000000
  0
LINE
  5
4B
100
AcDbEntity
  8
MAIN0
  6
CENTER
 62
3
100
AcDbLine
 10
132.2127034517468
 20
177.6939365705303
 30
0.0000000000000000
 11
115.0016531231170
 21
177.6939365705305
 31
0.0000000000000000
  0
LINE
  5
4C
100
AcDbEntity
  8
MAIN0
  6
PHANTOM
 62
3
100
AcDbLine
 10
124.6683232808655
 20
175.1939365705787
 30
0.0000000000000000
 11
123.1873186745823
 21
176.6749411768500
 31
0.0000000000000000
  0
LINE
  5
4D
100
AcDbEntity
  8
MAIN0
  6
PHANTOM
 62
3
100
AcDbLine
 10
124.6683232808657
 20
180.1939365705303
 30
0.0000000000000000
 11
123.2267697083300
 21
178.7523829980063
 31
0.0000000000000000
  0
LINE
  5
4E
100
AcDbEntity
  8
MAIN0
  6
PHANTOM
 62
3
100
AcDbLine
 10
129.0683232808651
 20
182.6939365705303
 30
0.0000000000000000
 11
127.8683232808651
 21
182.6939365705303
 31
0.0000000000000000
  0
ELLIPSE
  5
4F
100
AcDbEntity
  8
MAIN0
  6
PHANTOM
 62
3
100
AcDbEllipse
 10
128.3683232808650
 20
181.4439365705304
 30
0.0000000000000000
 11
0.0000000000000000
 21
1.250000000000000
 31
0.0000000000000000
210
0.0000000000000000
220
0.0000000000000000
230
1.000000000000000
 40
0.5599999999999999
 41
0.0000000000000000
 42
6.283185307179586
  0
LINE
  5
50
100
AcDbEntity
  8
MAIN0
  6
PHANTOM
 62
3
100
AcDbLine
 10
127.6683232808650
 20
172.8939365705303
 30
0.0000000000000000
 11
127.6683232808651
 21
182.4939365705303
 31
0.0000000000000000
  0
ELLIPSE
  5
51
100
AcDbEntity
  8
MAIN0
  6
PHANTOM
 62
3
100
AcDbEllipse
 10
128.3683232808650
 20
173.9439365705301
 30
0.0000000000000000
 11
0.0000000000000000
 21
-1.250000000000000
 31
0.0000000000000000
210
0.0000000000000000
220
0.0000000000000000
230
1.000000000000000
 40
0.5599999999999999
 41
0.0000000000000000
 42
6.283185307179586
  0
LINE
  5
52
100
AcDbEntity
  8
MAIN0
  6
PHANTOM
 62
3
100
AcDbLine
 10
129.0683232808650
 20
172.6939365705303
 30
0.0000000000000000
 11
127.8683232808650
 21
172.6939365705303
 31
0.0000000000000000
  0
LINE
  5
53
100
AcDbEntity
  8
MAIN0
  6
PHANTOM
 62
3
100
AcDbLine
 10
127.6683232808651
 20
180.1939365705304
 30
0.0000000000000000
 11
124.6683232808657
 21
180.1939365705304
 31
0.0000000000000000
  0
LINE
  5
54
100
AcDbEntity
  8
MAIN0
  6
PHANTOM
 62
3
100
AcDbLine
 10
127.6683232808650
 20
175.1939365705304
 30
0.0000000000000000
 11
124.6683232808655
 21
175.1939365705304
 31
0.0000000000000000
  0
LINE
  5
55
100
AcDbEntity
  8
MAIN0
  6
CONTINUOUS
 62
3
100
AcDbLine
 10
129.0683232808668
 20
355.4439365705304
 30
0.0000000000000000
 11
114.0683232808668
 21
355.4439365705305
 31
0.0000000000000000
  0
LINE
  5
56
100
AcDbEntity
  8
MAIN0
  6
CONTINUOUS
 62
3
100
AcDbLine
 10
114.0683232808657
 20
152.4439365705306
 30
0.0000000000000000
 11
114.0683232808668
 21
355.4439365705305
 31
0.0000000000000000
  0
LINE
  5
57
100
AcDbEntity
  8
MAIN0
  6
CENTER
 62
3
100
AcDbLine
 10
110.3652168580941
 20
346.4439365705305
 30
0.0000000000000000
 11
135.2707295009150
 21
346.4439365705305
 31
0.0000000000000000
  0
LINE
  5
58
100
AcDbEntity
  8
MAIN0
  6
CONTINUOUS
 62
3
100
AcDbLine
 10
129.0683232808648
 20
152.4439365705304
 30
0.0000000000000000
 11
114.0683232808648
 21
152.4439365705306
 31
0.0000000000000000
  0
LINE
  5
59
100
AcDbEntity
  8
MAIN0
  6
CENTER
 62
3
100
AcDbLine
 10
144.0683232808647
 20
144.5674134189358
 30
0.0000000000000000
 11
144.0683232808649
 21
170.1560691217972
 31
0.0000000000000000
  0
LINE
  5
5A
100
AcDbEntity
  8
MAIN0
  6
CONTINUOUS
 62
3
100
AcDbLine
 10
159.0683232808647
 20
150.9439365705301
 30
0.0000000000000000
 11
159.0683232808649
 21
170.9439365705301
 31
0.0000000000000000
  0
LINE
  5
5B
100
AcDbEntity
  8
MAIN0
  6
CONTINUOUS
 62
3
100
AcDbLine
 10
179.5683232808650
 20
171.4439365705297
 30
0.0000000000000000
 11
129.0683232808650
 21
171.4439365705304
 31
0.0000000000000000
  0
LINE
  5
5C
100
AcDbEntity
  8
MAIN0
  6
CONTINUOUS
 62
3
100
AcDbLine
 10
159.0683232808648
 20
150.9439365705301
 30
0.0000000000000000
 11
129.0683232808647
 21
150.9439365705304
 31
0.0000000000000000
  0
LINE
  5
5D
100
AcDbEntity
  8
MAIN0
  6
CONTINUOUS
 62
3
100
AcDbLine
 10
159.0683232808649
 20
170.9439365705301
 30
0.0000000000000000
 11
129.0683232808649
 21
170.9439365705304
 31
0.0000000000000000
  0
LINE
  5
5E
100
AcDbEntity
  8
MAIN0
  6
CENTER
 62
3
100
AcDbLine
 10
154.5252679980207
 20
163.4439365705301
 30
0.0000000000000000
 11
115.1679244398500
 21
163.4439365705305
 31
0.0000000000000000
  0
LINE
  5
5F
100
AcDbEntity
  8
MAIN0
  6
PHANTOM
 62
3
100
AcDbLine
 10
124.6683232808654
 20
160.9439365705787
 30
0.0000000000000000
 11
123.1021888528246
 21
162.5100709986070
 31
0.0000000000000000
  0
LINE
  5
60
100
AcDbEntity
  8
MAIN0
  6
PHANTOM
 62
3
100
AcDbLine
 10
124.6683232808655
 20
165.9439365705304
 30
0.0000000000000000
 11
123.1912163482330
 21
164.4668296379098
 31
0.0000000000000000
  0
LINE
  5
61
100
AcDbEntity
  8
MAIN0
  6
PHANTOM
 62
3
100
AcDbLine
 10
129.0683232808649
 20
168.4439365705303
 30
0.0000000000000000
 11
127.8683232808650
 21
168.4439365705303
 31
0.0000000000000000
  0
ELLIPSE
  5
62
100
AcDbEntity
  8
MAIN0
  6
PHANTOM
 62
3
100
AcDbEllipse
 10
128.3683232808649
 20
167.1939365705304
 30
0.0000000000000000
 11
0.0000000000000000
 21
1.250000000000000
 31
0.0000000000000000
210
0.0000000000000000
220
0.0000000000000000
230
1.000000000000000
 40
0.5599999999999999
 41
0.0000000000000000
 42
6.283185307179586
  0
LINE
  5
63
100
AcDbEntity
  8
MAIN0
  6
PHANTOM
 62
3
100
AcDbLine
 10
127.6683232808649
 20
158.6439365705303
 30
0.0000000000000000
 11
127.6683232808650
 21
168.2439365705303
 31
0.0000000000000000
  0
ELLIPSE
  5
64
100
AcDbEntity
  8
MAIN0
  6
PHANTOM
 62
3
100
AcDbEllipse
 10
128.3683232808648
 20
159.6939365705301
 30
0.0000000000000000
 11
0.0000000000000000
 21
-1.250000000000000
 31
0.0000000000000000
210
0.0000000000000000
220
0.0000000000000000
230
1.000000000000000
 40
0.5599999999999999
 41
0.0000000000000000
 42
6.283185307179586
  0
LINE
  5
65
100
AcDbEntity
  8
MAIN0
  6
PHANTOM
 62
3
100
AcDbLine
 10
129.0683232808649
 20
158.4439365705303
 30
0.0000000000000000
 11
127.8683232808649
 21
158.4439365705303
 31
0.0000000000000000
  0
LINE
  5
66
100
AcDbEntity
  8
MAIN0
  6
HIDDEN
 62
3
100
AcDbLine
 10
137.4898232808648
 20
150.9439365705304
 30
0.0000000000000000
 11
137.7835732808650
 21
160.3439365705305
 31
0.0000000000000000
  0
LINE
  5
67
100
AcDbEntity
  8
MAIN0
  6
HIDDEN
 62
3
100
AcDbLine
 10
137.7835732808650
 20
160.3439365705305
 30
0.0000000000000000
 11
150.3530732808650
 21
160.3439365705301
 31
0.0000000000000000
  0
LINE
  5
68
100
AcDbEntity
  8
MAIN0
  6
HIDDEN
 62
3
100
AcDbLine
 10
150.3530732808650
 20
160.3439365705301
 30
0.0000000000000000
 11
150.6468232808648
 21
150.9439365705300
 31
0.0000000000000000
  0
LINE
  5
69
100
AcDbEntity
  8
MAIN0
  6
HIDDEN
 62
3
100
AcDbLine
 10
138.3458232808648
 20
150.9439365705304
 30
0.0000000000000000
 11
138.6395732808650
 21
160.3439365705304
 31
0.0000000000000000
  0
LINE
  5
6A
100
AcDbEntity
  8
MAIN0
  6
HIDDEN
 62
3
100
AcDbLine
 10
149.7908232808648
 20
150.9439365705300
 30
0.0000000000000000
 11
149.4970732808650
 21
160.3439365705301
 31
0.0000000000000000
  0
LINE
  5
6B
100
AcDbEntity
  8
MAIN0
  6
HIDDEN
 62
3
100
AcDbLine
 10
138.6683232808650
 20
160.3439365705304
 30
0.0000000000000000
 11
138.6683232808652
 21
165.9439365705304
 31
0.0000000000000000
  0
LINE
  5
6C
100
AcDbEntity
  8
MAIN0
  6
HIDDEN
 62
3
100
AcDbLine
 10
138.6683232808652
 20
165.9439365705304
 30
0.0000000000000000
 11
149.4683232808652
 21
165.9439365705300
 31
0.0000000000000000
  0
LINE
  5
6D
100
AcDbEntity
  8
MAIN0
  6
HIDDEN
 62
3
100
AcDbLine
 10
149.4683232808652
 20
165.9439365705300
 30
0.0000000000000000
 11
149.4683232808650
 21
160.3439365705301
 31
0.0000000000000000
  0
LINE
  5
6E
100
AcDbEntity
  8
MAIN0
  6
HIDDEN
 62
3
100
AcDbLine
 10
138.6683232808652
 20
165.9439365705304
 30
0.0000000000000000
 11
144.0683232808653
 21
169.0616280241541
 31
0.0000000000000000
  0
LINE
  5
6F
100
AcDbEntity
  8
MAIN0
  6
HIDDEN
 62
3
100
AcDbLine
 10
144.0683232808653
 20
169.0616280241541
 30
0.0000000000000000
 11
149.4683232808652
 21
165.9439365705300
 31
0.0000000000000000
  0
LINE
  5
70
100
AcDbEntity
  8
MAIN0
  6
PHANTOM
 62
3
100
AcDbLine
 10
144.0683232808647
 20
155.9439365705302
 30
0.0000000000000000
 11
138.5020732808649
 21
155.9439365705303
 31
0.0000000000000000
  0
LINE
  5
71
100
AcDbEntity
  8
MAIN0
  6
PHANTOM
 62
3
100
AcDbLine
 10
144.0683232808647
 20
149.9439365705302
 30
0.0000000000000000
 11
136.0683232808647
 21
149.9439365705303
 31
0.0000000000000000
  0
LINE
  5
72
100
AcDbEntity
  8
MAIN0
  6
PHANTOM
 62
3
100
AcDbLine
 10
136.0683232808648
 20
150.9439365705303
 30
0.0000000000000000
 11
136.0683232808648
 21
149.9439365705303
 31
0.0000000000000000
  0
LINE
  5
73
100
AcDbEntity
  8
MAIN0
  6
PHANTOM
 62
3
100
AcDbLine
 10
140.1690793601080
 20
155.2530823420793
 30
0.0000000000000000
 11
144.0683232808648
 21
155.2530823420793
 31
0.0000000000000000
  0
LINE
  5
74
100
AcDbEntity
  8
MAIN0
  6
PHANTOM
 62
3
100
AcDbLine
 10
139.1690793601080
 20
154.2530823420793
 30
0.0000000000000000
 11
139.1690793601080
 21
149.9439365705303
 31
0.0000000000000000
  0
ARC
  5
75
100
AcDbEntity
  8
MAIN0
  6
PHANTOM
 62
3
100
AcDbCircle
 10
140.1690793601080
 20
154.2530823420793
 30
0.0000000000000000
 40
1.000000000000000
100
AcDbArc
 50
89.99999999942553
 51
179.9999999999964
  0
LINE
  5
76
100
AcDbEntity
  8
MAIN0
  6
PHANTOM
 62
3
100
AcDbLine
 10
144.0683232808648
 20
155.9439365705302
 30
0.0000000000000000
 11
149.6345732808647
 21
155.9439365705303
 31
0.0000000000000000
  0
LINE
  5
77
100
AcDbEntity
  8
MAIN0
  6
PHANTOM
 62
3
100
AcDbLine
 10
147.9675672016215
 20
155.2530823420793
 30
0.0000000000000000
 11
144.0683232808648
 21
155.2530823420793
 31
0.0000000000000000
  0
ARC
  5
78
100
AcDbEntity
  8
MAIN0
  6
PHANTOM
 62
3
100
AcDbCircle
 10
147.9675672016215
 20
154.2530823420793
 30
0.0000000000000000
 40
1.000000000000000
100
AcDbArc
 50
3.740332305401095e-012
 51
90.00000000057460
  0
LINE
  5
79
100
AcDbEntity
  8
MAIN0
  6
PHANTOM
 62
3
100
AcDbLine
 10
148.9675672016215
 20
154.2530823420793
 30
0.0000000000000000
 11
148.9675672016215
 21
149.9439365705303
 31
0.0000000000000000
  0
LINE
  5
7A
100
AcDbEntity
  8
MAIN0
  6
PHANTOM
 62
3
100
AcDbLine
 10
152.0683232808648
 20
150.9439365705303
 30
0.0000000000000000
 11
152.0683232808648
 21
149.9439365705304
 31
0.0000000000000000
  0
LINE
  5
7B
100
AcDbEntity
  8
MAIN0
  6
PHANTOM
 62
3
100
AcDbLine
 10
144.0683232808648
 20
149.9439365705302
 30
0.0000000000000000
 11
152.0683232808649
 21
149.9439365705303
 31
0.0000000000000000
  0
LINE
  5
7C
100
AcDbEntity
  8
MAIN0
  6
PHANTOM
 62
3
100
AcDbLine
 10
127.6683232808649
 20
165.9439365705304
 30
0.0000000000000000
 11
124.6683232808652
 21
165.9439365705304
 31
0.0000000000000000
  0
LINE
  5
7D
100
AcDbEntity
  8
MAIN0
  6
HIDDEN
 62
3
100
AcDbLine
 10
138.6683232808652
 20
165.9439365705302
 30
0.0000000000000000
 11
129.0683232808649
 21
165.9439365705304
 31
0.0000000000000000
  0
LINE
  5
7E
100
AcDbEntity
  8
MAIN0
  6
HIDDEN
 62
3
100
AcDbLine
 10
138.6683232808651
 20
160.9439365705302
 30
0.0000000000000000
 11
129.0683232808648
 21
160.9439365705304
 31
0.0000000000000000
  0
LINE
  5
7F
100
AcDbEntity
  8
MAIN0
  6
CONTINUOUS
 62
3
100
AcDbLine
 10
186.0683232808661
 20
233.9439365705295
 30
0.0000000000000000
 11
186.0683232808660
 21
184.3439365705297
 31
0.0000000000000000
  0
LINE
  5
80
100
AcDbEntity
  8
MAIN0
  6
CENTER
 62
3
100
AcDbLine
 10
134.9436475676637
 20
193.9439365705303
 30
0.0000000000000000
 11
111.2352587041684
 21
193.9439365705306
 31
0.0000000000000000
  0
LINE
  5
81
100
AcDbEntity
  8
MAIN0
  6
PHANTOM
 62
3
100
AcDbLine
 10
127.6683232808649
 20
160.9439365705304
 30
0.0000000000000000
 11
124.6683232808651
 21
160.9439365705304
 31
0.0000000000000000
  0
LINE
  5
82
100
AcDbEntity
  8
MAIN0
  6
PHANTOM
 62
3
100
AcDbLine
 10
118.4683232808668
 20
225.4439365705306
 30
0.0000000000000000
 11
121.5683232808654
 21
227.2337224050161
 31
0.0000000000000000
  0
LINE
  5
83
100
AcDbEntity
  8
MAIN0
  6
PHANTOM
 62
3
100
AcDbLine
 10
122.8627601193615
 20
222.2494997320353
 30
0.0000000000000000
 11
124.6683232808666
 21
220.4439365705302
 31
0.0000000000000000
  0
LINE
  5
84
100
AcDbEntity
  8
MAIN0
  6
PHANTOM
 62
3
100
AcDbLine
 10
122.9008077834957
 20
223.6764210731595
 30
0.0000000000000000
 11
124.6683232808667
 21
225.4439365705304
 31
0.0000000000000000
  0
DIMENSION
  5
8D
100
AcDbEntity
  8
MAIN0
  6
CONTINUOUS
 62
3
100
AcDbDimension
  2
*D0
 10
83.56832328086639
 20
152.4439365705305
 30
0.0000000000000000
 11
83.06832328086639
 21
253.9439365705305
 31
0.0000000000000000
 70
32
  1
\A1;\U+2205203h7
  3
MAIN001
100
AcDbAlignedDimension
 13
114.0683232808668
 23
355.4439365705305
 33
0.0000000000000000
 14
114.0683232808648
 24
152.4439365705306
 34
0.0000000000000000
 50
90.00000000000000
100
AcDbRotatedDimension
1001
ACAD
1000
DSTYLE
1002
{
1070
   173
1070
     1
1070
     6
1000
_OPEN
1070
     7
1000
_OPEN
1070
    41
1040
2.000000
1002
}
  0
DIMENSION
  5
96
100
AcDbEntity
  8
MAIN0
  6
CONTINUOUS
 62
3
100
AcDbDimension
  2
*D1
 10
114.0683232808657
 20
133.9439365705305
 30
0.0000000000000000
 11
133.8035578550671
 21
134.4439365705305
 31
0.0000000000000000
 70
160
  3
MAIN001
100
AcDbAlignedDimension
 13
144.0683232808647
 23
144.5674134189358
 33
0.0000000000000000
 14
114.0683232808657
 24
152.4439365705306
 34
0.0000000000000000
100
AcDbRotatedDimension
1001
ACAD
1000
DSTYLE
1002
{
1070
   173
1070
     1
1070
     6
1000
_OPEN
1070
     7
1000
_OPEN
1070
    41
1040
2.000000
1002
}
  0
ARC
  5
97
100
AcDbEntity
  8
MAIN0
  6
PHANTOM
 62
3
100
AcDbCircle
 10
127.8683232808651
 20
182.4939365705303
 30
0.0000000000000000
 40
0.2000000000000000
100
AcDbArc
 50
89.99999999999950
 51
179.9999999999964
  0
ARC
  5
98
100
AcDbEntity
  8
MAIN0
  6
PHANTOM
 62
3
100
AcDbCircle
 10
127.8683232808650
 20
172.8939365705303
 30
0.0000000000000000
 40
0.2000000000000000
100
AcDbArc
 50
179.9999999999964
 51
269.9999999999959
  0
ARC
  5
99
100
AcDbEntity
  8
MAIN0
  6
PHANTOM
 62
3
100
AcDbCircle
 10
127.8683232808650
 20
168.2439365705303
 30
0.0000000000000000
 40
0.2000000000000000
100
AcDbArc
 50
89.99999999999950
 51
179.9999999999964
  0
ARC
  5
9A
100
AcDbEntity
  8
MAIN0
  6
PHANTOM
 62
3
100
AcDbCircle
 10
127.8683232808649
 20
158.6439365705303
 30
0.0000000000000000
 40
0.2000000000000000
100
AcDbArc
 50
179.9999999999964
 51
269.9999999999959
  0
LINE
  5
9B
100
AcDbEntity
  8
MAIN0
  6
CONTINUOUS
 62
3
100
AcDbLine
 10
129.0683232808668
 20
355.4439365705304
 30
0.0000000000000000
 11
129.0683232808661
 21
278.9752840806532
 31
0.0000000000000000
  0
LINE
  5
9C
100
AcDbEntity
  8
MAIN0
  6
CONTINUOUS
 62
3
100
AcDbLine
 10
129.0683232808648
 20
150.9439365705304
 30
0.0000000000000000
 11
129.0683232808648
 21
152.4439365705304
 31
0.0000000000000000
  0
LINE
  5
9D
100
AcDbEntity
  8
MAIN0
  6
CONTINUOUS
 62
3
100
AcDbLine
 10
129.0683232808648
 20
152.4439365705304
 30
0.0000000000000000
 11
129.0683232808655
 21
228.9125890604075
 31
0.0000000000000000
  0
LINE
  5
9E
100
AcDbEntity
  8
MAIN0
  6
CONTINUOUS
 62
3
100
AcDbLine
 10
129.0683232808666
 20
336.4439365705304
 30
0.0000000000000000
 11
179.5683232808667
 21
336.4439365705297
 31
0.0000000000000000
  0
DIMENSION
  5
A7
100
AcDbEntity
  8
MAIN0
  6
CONTINUOUS
 62
3
100
AcDbDimension
  2
*D2
 10
114.0683232808657
 20
123.9439365705305
 30
0.0000000000000000
 11
121.5683232808652
 21
124.4439365705305
 31
0.0000000000000000
 70
32
  3
MAIN001
100
AcDbAlignedDimension
 13
129.0683232808648
 23
152.4439365705304
 33
0.0000000000000000
 14
114.0683232808657
 24
152.4439365705306
 34
0.0000000000000000
100
AcDbRotatedDimension
1001
ACAD
1000
DSTYLE
1002
{
1070
   173
1070
     1
1070
     6
1000
_OPEN
1070
     7
1000
_OPEN
1070
    41
1040
2.000000
1002
}
  0
DIMENSION
  5
B0
100
AcDbEntity
  8
MAIN0
  6
CONTINUOUS
 62
3
100
AcDbDimension
  2
*D3
 10
129.0683232808648
 20
123.9439365705305
 30
0.0000000000000000
 11
144.0683232808648
 21
124.4439365705305
 31
0.0000000000000000
 70
32
  3
MAIN001
100
AcDbAlignedDimension
 13
159.0683232808647
 23
150.9439365705301
 33
0.0000000000000000
 14
129.0683232808648
 24
152.4439365705304
 34
0.0000000000000000
100
AcDbRotatedDimension
1001
ACAD
1000
DSTYLE
1002
{
1070
   173
1070
     1
1070
     6
1000
_OPEN
1070
     7
1000
_OPEN
1070
    41
1040
2.000000
1002
}
  0
DIMENSION
  5
B9
100
AcDbEntity
  8
MAIN0
  6
CONTINUOUS
 62
3
100
AcDbDimension
  2
*D4
 10
159.0683232808647
 20
123.9439365705305
 30
0.0000000000000000
 11
172.5683232808654
 21
124.4439365705305
 31
0.0000000000000000
 70
32
  3
MAIN001
100
AcDbAlignedDimension
 13
186.0683232808660
 23
184.3439365705297
 33
0.0000000000000000
 14
159.0683232808647
 24
150.9439365705301
 34
0.0000000000000000
100
AcDbRotatedDimension
1001
ACAD
1000
DSTYLE
1002
{
1070
   173
1070
     1
1070
     6
1000
_OPEN
1070
     7
1000
_OPEN
1070
    41
1040
2.000000
1002
}
  0
LINE
  5
BA
100
AcDbEntity
  8
MAIN0
  6
CONTINUOUS
 62
3
100
AcDbLine
 10
185.6683232808666
 20
323.9439365705297
 30
0.0000000000000000
 11
180.5683232808666
 21
323.9439365705297
 31
0.0000000000000000
  0
LINE
  5
BB
100
AcDbEntity
  8
MAIN0
  6
CONTINUOUS
 62
3
100
AcDbLine
 10
180.5683232808667
 20
335.4439365705297
 30
0.0000000000000000
 11
180.5683232808664
 21
283.8424928043685
 31
0.0000000000000000
  0
LINE
  5
BC
100
AcDbEntity
  8
MAIN0
  6
CONTINUOUS
 62
3
100
AcDbLine
 10
185.6683232808666
 20
323.9439365705297
 30
0.0000000000000000
 11
186.0683232808666
 21
323.5439365705297
 31
0.0000000000000000
  0
LINE
  5
BD
100
AcDbEntity
  8
MAIN0
  6
CONTINUOUS
 62
3
100
AcDbLine
 10
185.6683232808652
 20
183.9439365705297
 30
0.0000000000000000
 11
180.5683232808652
 21
183.9439365705297
 31
0.0000000000000000
  0
LINE
  5
BE
100
AcDbEntity
  8
MAIN0
  6
CONTINUOUS
 62
3
100
AcDbLine
 10
180.5683232808651
 20
172.4439365705297
 30
0.0000000000000000
 11
180.5683232808657
 21
224.0453803366913
 31
0.0000000000000000
  0
LINE
  5
BF
100
AcDbEntity
  8
MAIN0
  6
CONTINUOUS
 62
3
100
AcDbLine
 10
185.6683232808652
 20
183.9439365705297
 30
0.0000000000000000
 11
186.0683232808652
 21
184.3439365705297
 31
0.0000000000000000
  0
DIMENSION
  5
CA
100
AcDbEntity
  8
MAIN0
  6
CONTINUOUS
 62
3
100
AcDbDimension
  2
*D5
 10
180.5683232808667
 20
363.9439365705305
 30
0.0000000000000000
 11
190.1775121048236
 21
364.4439365705305
 31
0.0000000000000000
 70
160
  3
MAIN001
100
AcDbAlignedDimension
 13
186.0683232808666
 23
323.5439365705297
 33
0.0000000000000000
 14
180.5683232808667
 24
335.4439365705297
 34
0.0000000000000000
100
AcDbRotatedDimension
1001
ACAD
1000
DSTYLE
1002
{
1070
   173
1070
     1
1070
     6
1000
_OPEN
1070
     7
1000
_OPEN
1070
    41
1040
2.000000
1070
   287
1070
     0
1002
}
  0
DIMENSION
  5
D3
100
AcDbEntity
  8
MAIN0
  6
CONTINUOUS
 62
3
100
AcDbDimension
  2
*D6
 10
233.5683232808664
 20
183.9439365705297
 30
0.0000000000000000
 11
233.0683232808664
 21
253.3315778670671
 31
0.0000000000000000
 70
160
  1
\A1;\U+2205140h7
  3
MAIN001
100
AcDbAlignedDimension
 13
185.6683232808666
 23
323.9439365705297
 33
0.0000000000000000
 14
185.6683232808652
 24
183.9439365705297
 34
0.0000000000000000
 50
90.00000000000000
100
AcDbRotatedDimension
1001
ACAD
1000
DSTYLE
1002
{
1070
   173
1070
     1
1070
     6
1000
_OPEN
1070
     7
1000
_OPEN
1070
    41
1040
2.000000
1002
}
  0
LINE
  5
D4
100
AcDbEntity
  8
MAIN0
  6
CONTINUOUS
 62
3
100
AcDbLine
 10
145.5682821510934
 20
283.4350801963198
 30
0.0000000000000000
 11
145.5682821510940
 21
266.4439365705305
 31
0.0000000000000000
  0
LINE
  5
D5
100
AcDbEntity
  8
MAIN0
  6
CENTER
 62
3
100
AcDbLine
 10
121.5683232808648
 20
149.4337647598397
 30
0.0000000000000000
 11
121.5683232808655
 21
228.5398304258404
 31
0.0000000000000000
  0
LINE
  5
D6
100
AcDbEntity
  8
MAIN0
  6
CENTER
 62
3
100
AcDbLine
 10
121.5683232808654
 20
230.2820427637723
 30
0.0000000000000000
 11
121.5683232808657
 21
255.2490089297780
 31
0.0000000000000000
  0
CIRCLE
  5
D7
100
AcDbEntity
  8
MAIN0
  6
CONTINUOUS
 62
3
100
AcDbCircle
 10
416.0683232808660
 20
253.9439365705298
 30
0.0000000000000000
 40
19.99999999999750
  0
DIMENSION
  5
E0
100
AcDbEntity
  8
MAIN0
  6
CONTINUOUS
 62
3
100
AcDbDimension
  2
*D7
 10
223.5683232808664
 20
273.9439365705297
 30
0.0000000000000000
 11
223.0683232808664
 21
253.9439365705295
 31
0.0000000000000000
 70
32
  1
\A1;\U+220540
  3
MAIN001
100
AcDbAlignedDimension
 13
192.0683232811608
 23
233.9439365705293
 33
0.0000000000000000
 14
192.0683232811610
 24
273.9439365705297
 34
0.0000000000000000
 50
90.00000000000000
100
AcDbRotatedDimension
1001
ACAD
1000
DSTYLE
1002
{
1070
   173
1070
     1
1070
     6
1000
_OPEN
1070
     7
1000
_OPEN
1070
    41
1040
2.000000
1002
}
  0
LINE
  5
E1
100
AcDbEntity
  8
MAIN0
  6
CENTER
 62
3
100
AcDbLine
 10
456.6650821964828
 20
264.8218053372249
 30
0.0000000000000000
 11
474.6775078748627
 21
269.6482202514591
 31
0.0000000000000000
  0
CIRCLE
  5
E2
100
AcDbEntity
  8
MAIN0
  6
CONTINUOUS
 62
3
100
AcDbCircle
 10
453.1207186150908
 20
290.9963319046552
 30
0.0000000000000000
 40
5.000000000000000
  0
CIRCLE
  5
E3
100
AcDbEntity
  8
MAIN0
  6
CONTINUOUS
 62
3
100
AcDbCircle
 10
453.1207186150908
 20
290.9963319046552
 30
0.0000000000000000
 40
4.250000000000000
  0
LINE
  5
E4
100
AcDbEntity
  8
MAIN0
  6
CENTER
 62
3
100
AcDbLine
 10
386.3494331320665
 20
283.6628267194188
 30
0.0000000000000000
 11
373.1634223679456
 21
296.8488374835579
 31
0.0000000000000000
  0
CIRCLE
  5
E5
100
AcDbEntity
  8
MAIN0
  6
CONTINUOUS
 62
3
100
AcDbCircle
 10
379.0159279467407
 20
290.9963319047546
 30
0.0000000000000000
 40
5.000000000000000
  0
CIRCLE
  5
E6
100
AcDbEntity
  8
MAIN0
  6
CONTINUOUS
 62
3
100
AcDbCircle
 10
379.0159279467407
 20
290.9963319047546
 30
0.0000000000000000
 40
4.250000000000000
  0
LINE
  5
E7
100
AcDbEntity
  8
MAIN0
  6
CENTER
 62
3
100
AcDbLine
 10
375.4715643652820
 20
264.8218053373469
 30
0.0000000000000000
 11
357.4591386869088
 21
269.6482202516060
 31
0.0000000000000000
  0
CIRCLE
  5
E8
100
AcDbEntity
  8
MAIN0
  6
CONTINUOUS
 62
3
100
AcDbCircle
 10
365.4538099833371
 20
267.5060545339698
 30
0.0000000000000000
 40
5.000000000000000
  0
CIRCLE
  5
E9
100
AcDbEntity
  8
MAIN0
  6
CONTINUOUS
 62
3
100
AcDbCircle
 10
365.4538099833371
 20
267.5060545339698
 30
0.0000000000000000
 40
4.250000000000000
  0
LINE
  5
EA
100
AcDbEntity
  8
MAIN0
  6
CENTER
 62
3
100
AcDbLine
 10
404.4703437268878
 20
210.6596876101893
 30
0.0000000000000000
 11
400.3640395997899
 21
195.3347519765725
 31
0.0000000000000000
  0
CIRCLE
  5
EB
100
AcDbEntity
  8
MAIN0
  6
CONTINUOUS
 62
3
100
AcDbCircle
 10
402.5062053174260
 20
203.3294232730008
 30
0.0000000000000000
 40
5.000000000000000
  0
CIRCLE
  5
EC
100
AcDbEntity
  8
MAIN0
  6
CONTINUOUS
 62
3
100
AcDbCircle
 10
402.5062053174260
 20
203.3294232730008
 30
0.0000000000000000
 40
4.250000000000000
  0
LINE
  5
ED
100
AcDbEntity
  8
MAIN0
  6
CENTER
 62
3
100
AcDbLine
 10
427.6221615667096
 20
210.8244250650759
 30
0.0000000000000000
 11
431.7726069617953
 21
195.3347519765331
 31
0.0000000000000000
  0
CIRCLE
  5
EE
100
AcDbEntity
  8
MAIN0
  6
CONTINUOUS
 62
3
100
AcDbCircle
 10
429.6304412441701
 20
203.3294232729644
 30
0.0000000000000000
 40
5.000000000000000
  0
CIRCLE
  5
EF
100
AcDbEntity
  8
MAIN0
  6
CONTINUOUS
 62
3
100
AcDbCircle
 10
429.6304412441701
 20
203.3294232729644
 30
0.0000000000000000
 40
4.250000000000000
  0
ARC
  5
F0
100
AcDbEntity
  8
MAIN0
  6
CENTER
 62
3
100
AcDbCircle
 10
416.0683232808660
 20
253.9439365705298
 30
0.0000000000000000
 40
52.40000000000000
100
AcDbArc
 50
3.678523668846541
 51
61.38940745965414
  0
ARC
  5
F1
100
AcDbEntity
  8
MAIN0
  6
CENTER
 62
3
100
AcDbCircle
 10
416.0683232808660
 20
253.9439365705298
 30
0.0000000000000000
 40
52.40000000000000
100
AcDbArc
 50
235.5880622439543
 51
295.0225633724998
  0
DIMENSION
  5
F8
100
AcDbEntity
  8
MAIN0
  6
CONTINUOUS
 62
3
100
AcDbDimension
  2
*D8
 10
390.0496688467728
 20
208.4599875177131
 30
0.0000000000000000
 11
432.9767393099156
 21
284.5089888580555
 31
0.0000000000000000
 70
163
  3
MAIN001
100
AcDbDiametricDimension
 15
442.0869777149594
 25
299.4278856233467
 35
0.0000000000000000
1001
ACAD
1000
DSTYLE
1002
{
1070
   287
1070
     2
1070
   173
1070
     1
1070
     6
1000
_OPEN
1070
     7
1000
_OPEN
1070
    41
1040
2.000000
1070
   272
1070
     1
1070
    47
1040
0.200000
1070
    48
1040
0.200000
1070
    71
1070
     1
1002
}
  0
MTEXT
  5
F9
100
AcDbEntity
  8
MAIN0
  6
CONTINUOUS
 62
3
100
AcDbMText
 10
198.8571947775918
 20
373.4170532169796
 30
0.0000000000000000
 40
3.099999904632568
 41
0.0000000000000000
 71
     1
 72
     1
  1
{\H0.70x;{MIN -7}}
 11
1.000000000000000
 21
0.0000000000000000
 31
0.0000000000000000
  7
STANDARD
  0
LEADER
  5
FA
100
AcDbEntity
  8
MAIN0
  6
CONTINUOUS
 62
3
100
AcDbLeader
  3
MAIN001
 73
     0
 74
     0
 75
     1
 40
3.099999904632568
 41
7.991000247955356
 76
     3
 10
188.2039115667159
 20
261.9439365705299
 30
0.0000000000000000
 10
204.8947549552378
 20
296.1579885894579
 30
0.0000000000000000
 10
206.8197548994479
 20
296.1579885894579
 30
0.0000000000000000
340
FB
213
-0.001000000000033197
223
-0.5000000000000000
233
0.0000000000000000
1001
ACAD
1000
DSTYLE
1002
{
1070
   147
1040
0.0
1070
    77
1070
     1
1070
   173
1070
     1
1070
     6
1000
_OPEN
1070
     7
1000
_OPEN
1002
}
  0
MTEXT
  5
FB
102
{ACAD_REACTORS
330
FA
102
}
100
AcDbEntity
  8
MAIN0
  6
CONTINUOUS
 62
3
100
AcDbMText
 10
206.8207548994479
 20
299.7579884940905
 30
0.0000000000000000
 40
3.099999904632568
 41
0.0000000000000000
 71
     1
 72
     1
  1
{\H0.90x;{M16}}
 11
1.000000000000000
 21
0.0000000000000000
 31
0.0000000000000000
  7
STANDARD
  0
LEADER
  5
FC
100
AcDbEntity
  8
MAIN0
  6
CONTINUOUS
 62
3
100
AcDbLeader
  3
MAIN001
 73
     0
 75
     1
 40
3.099999904632568
 41
38.67900113964083
 76
     3
 10
363.1476200524172
 20
271.9424368442001
 30
0.0000000000000000
 10
303.5683232808664
 20
303.9439365705305
 30
0.0000000000000000
 10
301.6413233366563
 20
303.9439365705305
 30
0.0000000000000000
340
FD
213
0.0000000000000000
223
-0.5000000000000000
233
0.0000000000000000
1001
ACAD
1000
DSTYLE
1002
{
1070
   147
1040
0.0
1070
    77
1070
     1
1070
   173
1070
     1
1070
     6
1000
_OPEN
1070
     7
1000
_OPEN
1002
}
  0
MTEXT
  5
FD
102
{ACAD_REACTORS
330
FC
102
}
100
AcDbEntity
  8
MAIN0
  6
CONTINUOUS
 62
3
100
AcDbMText
 10
262.9623221970155
 20
307.5439364751630
 30
0.0000000000000000
 40
3.099999904632568
 41
0.0000000000000000
 71
     1
 72
     1
  1
{\H0.93x;{6-M10 ネジ深17\P6-M10 DEPTH 17}}
 11
1.000000000000000
 21
0.0000000000000000
 31
0.0000000000000000
  7
KNJYOKO
  0
DIMENSION
  5
106
100
AcDbEntity
  8
MAIN0
  6
CONTINUOUS
 62
3
100
AcDbDimension
  2
*D9
 10
114.0683232808668
 20
373.9439365705305
 30
0.0000000000000000
 11
150.0683232808667
 21
374.4439365705305
 31
0.0000000000000000
 70
32
  3
MAIN001
100
AcDbAlignedDimension
 13
186.0683232808666
 23
323.5439365705297
 33
0.0000000000000000
 14
114.0683232808668
 24
355.4439365705305
 34
0.0000000000000000
100
AcDbRotatedDimension
1001
ACAD
1000
DSTYLE
1002
{
1070
   173
1070
     1
1070
     6
1000
_OPEN
1070
     7
1000
_OPEN
1070
    41
1040
2.000000
1002
}
  0
DIMENSION
  5
110
100
AcDbEntity
  8
MAIN0
  6
CONTINUOUS
 62
3
100
AcDbDimension
  2
*D10
 10
186.0683232808666
 20
373.9439365705305
 30
0.0000000000000000
 11
205.0178477971803
 21
374.4439365705305
 31
0.0000000000000000
 70
160
  1
\A1;MAX  8
  3
MAIN001
100
AcDbAlignedDimension
 13
194.0683232808661
 23
268.9439365705297
 33
0.0000000000000000
 14
186.0683232808666
 24
323.5439365705297
 34
0.0000000000000000
100
AcDbRotatedDimension
1001
ACAD
1000
DSTYLE
1002
{
1070
   173
1070
     1
1070
     6
1000
_OPEN
1070
     7
1000
_OPEN
1070
    41
1040
2.000000
1002
}
  0
DIMENSION
  5
119
100
AcDbEntity
  8
MAIN0
  6
CONTINUOUS
 62
3
100
AcDbDimension
  2
*D11
 10
114.0683232808668
 20
387.5815793520675
 30
0.0000000000000000
 11
154.0683232808665
 21
388.0815793520675
 31
0.0000000000000000
 70
32
  3
MAIN001
100
AcDbAlignedDimension
 13
194.0683232808661
 23
268.9439365705297
 33
0.0000000000000000
 14
114.0683232808668
 24
355.4439365705305
 34
0.0000000000000000
100
AcDbRotatedDimension
1001
ACAD
1000
DSTYLE
1002
{
1070
   173
1070
     1
1070
     6
1000
_OPEN
1070
     7
1000
_OPEN
1070
    41
1040
2.000000
1002
}
  0
LINE
  5
11A
100
AcDbEntity
  8
MAIN0
  6
PHANTOM
 62
3
100
AcDbLine
 10
124.6683232808640
 20
225.4439365705305
 30
0.0000000000000000
 11
121.5683232808654
 21
227.2337224050161
 31
0.0000000000000000
  0
SPLINE
  5
11B
100
AcDbEntity
  8
MAIN0
  6
CONTINUOUS
 62
3
100
AcDbSpline
210
0.0000000000000000
220
0.0000000000000000
230
1.000000000000000
 70
     8
 71
     3
 72
    10
 73
     6
 74
     0
 42
1.000000000000000e-007
 43
1.000000000000000e-007
 12
0.9397911436402922
 22
0.4958068888202547
 32
0.0000000000000000
 13
0.8013196407641487
 23
0.7586880995126535
 33
0.0000000000000000
 40
0.0000000000000000
 40
0.0000000000000000
 40
0.0000000000000000
 40
0.0000000000000000
 40
2.576185768498780
 40
7.471076290115043
 40
9.730766906870779
 40
9.730766906870779
 40
9.730766906870779
 40
9.730766906870779
 10
116.8083398207196
 20
202.4505066841465
 30
0.0000000000000000
 10
117.6153653439221
 20
202.8762702344473
 30
0.0000000000000000
 10
119.9557824542258
 20
204.1110072649609
 30
0.0000000000000000
 10
123.2549959376497
 20
200.6515752767127
 30
0.0000000000000000
 10
125.1660314001891
 20
202.4609404656061
 30
0.0000000000000000
 10
125.7696095579414
 20
203.0324072587771
 30
0.0000000000000000
  0
LINE
  5
11C
100
AcDbEntity
  8
MAIN0
  6
CONTINUOUS
 62
3
100
AcDbLine
 10
138.0683232808662
 20
247.4439365705303
 30
0.0000000000000000
 11
138.0683232808663
 21
260.4439365705304
 31
0.0000000000000000
  0
LINE
  5
11D
100
AcDbEntity
  8
MAIN0
  6
CONTINUOUS
 62
3
100
AcDbLine
 10
138.0683232808663
 20
259.9439365705303
 30
0.0000000000000000
 11
122.0683232808707
 21
259.9439365705305
 31
0.0000000000000000
  0
LINE
  5
11E
100
AcDbEntity
  8
MAIN0
  6
CONTINUOUS
 62
3
100
AcDbLine
 10
122.0683232808662
 20
254.9439365705305
 30
0.0000000000000000
 11
122.0683232808662
 21
259.9439365705305
 31
0.0000000000000000
  0
LINE
  5
11F
100
AcDbEntity
  8
MAIN0
  6
CONTINUOUS
 62
3
100
AcDbLine
 10
118.4683232808680
 20
253.7085536632783
 30
0.0000000000000000
 11
122.0683232808663
 21
259.9439365705227
 31
0.0000000000000000
  0
LINE
  5
120
100
AcDbEntity
  8
MAIN0
  6
CONTINUOUS
 62
3
100
AcDbLine
 10
118.4683232808680
 20
253.7085536632783
 30
0.0000000000000000
 11
119.3324248960032
 21
252.2118857629619
 31
0.0000000000000000
  0
LINE
  5
121
100
AcDbEntity
  8
MAIN0
  6
CONTINUOUS
 62
3
100
AcDbLine
 10
123.3211287783211
 20
249.4595303858955
 30
0.0000000000000000
 11
124.6683232808678
 21
247.9439365705304
 31
0.0000000000000000
  0
LINE
  5
122
100
AcDbEntity
  8
MAIN0
  6
CONTINUOUS
 62
3
100
AcDbLine
 10
138.0683232808662
 20
247.9439365705303
 30
0.0000000000000000
 11
124.6683232808678
 21
247.9439365705304
 31
0.0000000000000000
  0
CIRCLE
  5
123
100
AcDbEntity
  8
MAIN0
  6
CONTINUOUS
 62
3
100
AcDbCircle
 10
416.0683232808660
 20
253.9439365705298
 30
0.0000000000000000
 40
6.500000000000000
  0
ARC
  5
124
100
AcDbEntity
  8
MAIN0
  6
CENTER
 62
3
100
AcDbCircle
 10
416.0683232808660
 20
253.9439365705298
 30
0.0000000000000000
 40
76.25000000000260
100
AcDbArc
 50
244.1658474220022
 51
259.2022510514750
  0
CIRCLE
  5
125
100
AcDbEntity
  8
MAIN0
  6
PHANTOM
 62
3
100
AcDbCircle
 10
392.5683232808667
 20
181.4055846454934
 30
0.0000000000000000
 40
2.500000000000000
  0
CIRCLE
  5
126
100
AcDbEntity
  8
MAIN0
  6
PHANTOM
 62
3
100
AcDbCircle
 10
392.5683232808667
 20
181.4057425445989
 30
0.0000000000000000
 40
5.000000000000000
  0
CIRCLE
  5
127
100
AcDbEntity
  8
MAIN0
  6
PHANTOM
 62
3
100
AcDbCircle
 10
416.0683232808660
 20
163.4439365705298
 30
0.0000000000000000
 40
2.500000000000000
  0
CIRCLE
  5
128
100
AcDbEntity
  8
MAIN0
  6
PHANTOM
 62
3
100
AcDbCircle
 10
416.0683232808660
 20
163.4439365705298
 30
0.0000000000000000
 40
5.000000000000000
  0
LINE
  5
129
100
AcDbEntity
  8
MAIN0
  6
CONTINUOUS
 62
3
100
AcDbLine
 10
136.1078322173565
 20
241.9439365705306
 30
0.0000000000000000
 11
137.0683232808422
 21
241.4439365705304
 31
0.0000000000000000
  0
LINE
  5
12A
100
AcDbEntity
  8
MAIN0
  6
CONTINUOUS
 62
3
100
AcDbLine
 10
132.0683232808659
 20
241.9439365705305
 30
0.0000000000000000
 11
136.1078322173566
 21
241.9439365705305
 31
0.0000000000000000
  0
ARC
  5
12B
100
AcDbEntity
  8
MAIN0
  6
CONTINUOUS
 62
3
100
AcDbCircle
 10
132.0683232808659
 20
239.9439365705305
 30
0.0000000000000000
 40
2.000000000000000
100
AcDbArc
 50
90.00000000000000
 51
180.0000000000000
  0
LINE
  5
12C
100
AcDbEntity
  8
MAIN0
  6
CONTINUOUS
 62
3
100
AcDbLine
 10
136.1078322173567
 20
265.9439365705299
 30
0.0000000000000000
 11
137.0683232808424
 21
266.4439365705300
 31
0.0000000000000000
  0
LINE
  5
12D
100
AcDbEntity
  8
MAIN0
  6
CONTINUOUS
 62
3
100
AcDbLine
 10
132.0683232808661
 20
265.9439365705302
 30
0.0000000000000000
 11
136.1078322173571
 21
265.9439365705301
 31
0.0000000000000000
  0
LINE
  5
12E
100
AcDbEntity
  8
MAIN0
  6
HIDDEN
 62
3
100
AcDbLine
 10
412.1788232808661
 20
152.4439365705300
 30
0.0000000000000000
 11
412.3319482808663
 21
157.3439365705300
 31
0.0000000000000000
  0
LINE
  5
12F
100
AcDbEntity
  8
MAIN0
  6
HIDDEN
 62
3
100
AcDbLine
 10
412.3319482808663
 20
157.3439365705299
 30
0.0000000000000000
 11
419.8046982808662
 21
157.3439365705297
 31
0.0000000000000000
  0
LINE
  5
130
100
AcDbEntity
  8
MAIN0
  6
HIDDEN
 62
3
100
AcDbLine
 10
419.8046982808663
 20
157.3439365705297
 30
0.0000000000000000
 11
419.9578232808661
 21
152.4439365705297
 31
0.0000000000000000
  0
LINE
  5
131
100
AcDbEntity
  8
MAIN0
  6
HIDDEN
 62
3
100
AcDbLine
 10
412.8158232808661
 20
152.4439365705299
 30
0.0000000000000000
 11
412.9689482808662
 21
157.3439365705299
 31
0.0000000000000000
  0
LINE
  5
132
100
AcDbEntity
  8
MAIN0
  6
HIDDEN
 62
3
100
AcDbLine
 10
419.3208232808662
 20
152.4439365705297
 30
0.0000000000000000
 11
419.1676982808663
 21
157.3439365705298
 31
0.0000000000000000
  0
LINE
  5
133
100
AcDbEntity
  8
MAIN0
  6
PHANTOM
 62
3
100
AcDbLine
 10
416.0683232808661
 20
255.7337224050179
 30
0.0000000000000000
 11
412.9683232808658
 21
253.9439365705299
 31
0.0000000000000000
  0
CIRCLE
  5
134
100
AcDbEntity
  8
MAIN0
  6
CONTINUOUS
 62
3
100
AcDbCircle
 10
416.0683232808660
 20
253.9439365705298
 30
0.0000000000000000
 40
6.000000000000000
  0
LINE
  5
135
100
AcDbEntity
  8
MAIN0
  6
HIDDEN
 62
3
100
AcDbLine
 10
412.9683232808657
 20
157.3439365705299
 30
0.0000000000000000
 11
412.9683232808657
 21
248.8068167549135
 31
0.0000000000000000
  0
LINE
  5
136
100
AcDbEntity
  8
MAIN0
  6
PHANTOM
 62
3
100
AcDbLine
 10
412.9683232808657
 20
248.8068167549135
 30
0.0000000000000000
 11
412.9683232808657
 21
253.9439365705299
 31
0.0000000000000000
  0
DIMENSION
  5
13E
100
AcDbEntity
  8
MAIN0
  6
CONTINUOUS
 62
3
100
AcDbDimension
  2
*D12
 10
467.9572009698416
 20
164.0697640654962
 30
0.0000000000000000
 11
447.5562773124215
 21
136.4292922983704
 31
0.0000000000000000
 70
162
  3
MAIN001
100
AcDb2LineAngularDimension
 13
416.0683232808661
 23
131.7838245061991
 33
0.0000000000000000
 14
416.0683232808661
 24
125.3980118120641
 34
0.0000000000000000
 15
467.4572009698416
 25
164.9357894692806
 35
0.0000000000000000
 16
447.6856868349728
 26
135.9463293852259
 36
0.0000000000000000
1001
ACAD
1000
DSTYLE
1002
{
1070
   173
1070
     1
1070
     6
1000
_OPEN
1070
     7
1000
_OPEN
1070
    41
1040
2.000000
1002
}
  0
DIMENSION
  5
147
100
AcDbEntity
  8
MAIN0
  6
CONTINUOUS
 62
3
100
AcDbDimension
  2
*D13
 10
488.5110320127371
 20
181.5012278386027
 30
0.0000000000000000
 11
490.1303069544902
 21
157.4244802840724
 31
0.0000000000000000
 70
162
  3
MAIN001
100
AcDb2LineAngularDimension
 13
467.9572009698416
 23
164.0697640654962
 33
0.0000000000000000
 14
467.4572009698416
 24
164.9357894692806
 34
0.0000000000000000
 15
487.8039252315508
 25
182.2083346197895
 35
0.0000000000000000
 16
490.4346876689945
 26
157.0278036139268
 36
0.0000000000000000
1001
ACAD
1000
DSTYLE
1002
{
1070
   173
1070
     1
1070
     6
1000
_OPEN
1070
     7
1000
_OPEN
1070
    41
1040
2.000000
1002
}
  0
LINE
  5
148
100
AcDbEntity
  8
MAIN0
  6
PHANTOM
 62
3
100
AcDbLine
 10
186.0683232808668
 20
291.4439365705298
 30
0.0000000000000000
 11
175.5872263229654
 21
291.4439365705300
 31
0.0000000000000000
  0
DIMENSION
  5
14F
100
AcDbEntity
  8
MAIN0
  6
CONTINUOUS
 62
3
100
AcDbDimension
  2
*D14
 10
149.2280330958428
 20
247.4439365705303
 30
0.0000000000000000
 11
148.7280330958428
 21
252.9056618337526
 31
0.0000000000000000
 70
160
  1
\A1;\U+220513
  3
MAIN001
100
AcDbAlignedDimension
 13
138.0683232808663
 23
260.4439365705303
 33
0.0000000000000000
 14
138.0683232808662
 24
247.4439365705303
 34
0.0000000000000000
 50
90.00000000000000
100
AcDbRotatedDimension
1001
ACAD
1000
DSTYLE
1002
{
1070
   173
1070
     1
1070
     6
1000
_OPEN
1070
     7
1000
_OPEN
1070
    41
1040
2.000000
1002
}
  0
CIRCLE
  5
150
100
AcDbEntity
  8
MAIN0
  6
CONTINUOUS
 62
3
100
AcDbCircle
 10
416.0683232808660
 20
253.9439365705298
 30
0.0000000000000000
 40
15.00000000000000
  0
LINE
  5
151
100
AcDbEntity
  8
MAIN0
  6
CONTINUOUS
 62
3
100
AcDbLine
 10
192.8683232808661
 20
246.9439365705297
 30
0.0000000000000000
 11
194.0683232808661
 21
245.7439365705297
 31
0.0000000000000000
  0
LINE
  5
152
100
AcDbEntity
  8
MAIN0
  6
CONTINUOUS
 62
3
100
AcDbLine
 10
192.8683232808661
 20
260.9439365705297
 30
0.0000000000000000
 11
194.0683232808661
 21
262.1439365705297
 31
0.0000000000000000
  0
LINE
  5
153
100
AcDbEntity
  8
MAIN0
  6
CONTINUOUS
 62
3
100
AcDbLine
 10
181.2683232808198
 20
246.9439365705297
 30
0.0000000000000000
 11
181.2683232808198
 21
260.9439365705297
 31
0.0000000000000000
  0
LINE
  5
154
100
AcDbEntity
  8
MAIN0
  6
CONTINUOUS
 62
3
100
AcDbLine
 10
192.8683232809130
 20
246.9439365705297
 30
0.0000000000000000
 11
192.8683232809130
 21
260.9439365705297
 31
0.0000000000000000
  0
DIMENSION
  5
15C
100
AcDbEntity
  8
MAIN0
  6
CONTINUOUS
 62
3
100
AcDbDimension
  2
*D15
 10
194.0683232808661
 20
303.9439365705305
 30
0.0000000000000000
 11
190.1100924923946
 21
304.4439365705305
 31
0.0000000000000000
 70
160
  3
MAIN001
100
AcDbAlignedDimension
 13
180.0683232808663
 23
266.5439365705305
 33
0.0000000000000000
 14
194.0683232808661
 24
268.9439365705297
 34
0.0000000000000000
100
AcDbRotatedDimension
1001
ACAD
1000
DSTYLE
1002
{
1070
   173
1070
     1
1070
     6
1000
_OPEN
1070
     7
1000
_OPEN
1070
    41
1040
2.000000
1002
}
  0
LINE
  5
15D
100
AcDbEntity
  8
MAIN0
  6
CONTINUOUS
 62
3
100
AcDbLine
 10
157.0682821510906
 20
269.4439365705298
 30
0.0000000000000000
 11
152.7682821510925
 21
269.4439365705298
 31
0.0000000000000000
  0
LINE
  5
15E
100
AcDbEntity
  8
MAIN0
  6
CONTINUOUS
 62
3
100
AcDbLine
 10
152.5682821510903
 20
266.4439365705305
 30
0.0000000000000000
 11
152.5682821510904
 21
269.2439365705298
 31
0.0000000000000000
  0
ARC
  5
15F
100
AcDbEntity
  8
MAIN0
  6
CONTINUOUS
 62
3
100
AcDbCircle
 10
152.7682821510905
 20
269.2439365705298
 30
0.0000000000000000
 40
0.2000000000000000
100
AcDbArc
 50
89.99999999943105
 51
180.0000000000025
  0
LINE
  5
160
100
AcDbEntity
  8
MAIN0
  6
CONTINUOUS
 62
3
100
AcDbLine
 10
157.2682821510904
 20
266.4439365705305
 30
0.0000000000000000
 11
157.2682821510904
 21
269.2439365705297
 31
0.0000000000000000
  0
ARC
  5
161
100
AcDbEntity
  8
MAIN0
  6
CONTINUOUS
 62
3
100
AcDbCircle
 10
157.0682821510906
 20
269.2439365705297
 30
0.0000000000000000
 40
0.2000000000000000
100
AcDbArc
 50
5.546887364472373e-012
 51
90.00000000000351
  0
LINE
  5
162
100
AcDbEntity
  8
MAIN0
  6
CONTINUOUS
 62
3
100
AcDbLine
 10
157.0682821510903
 20
238.4439365705304
 30
0.0000000000000000
 11
152.7682821510922
 21
238.4439365705304
 31
0.0000000000000000
  0
LINE
  5
163
100
AcDbEntity
  8
MAIN0
  6
CONTINUOUS
 62
3
100
AcDbLine
 10
152.5682821510901
 20
241.4439365705298
 30
0.0000000000000000
 11
152.5682821510901
 21
238.6439365705304
 31
0.0000000000000000
  0
ARC
  5
164
100
AcDbEntity
  8
MAIN0
  6
CONTINUOUS
 62
3
100
AcDbCircle
 10
152.7682821510902
 20
238.6439365705304
 30
0.0000000000000000
 40
0.2000000000000000
100
AcDbArc
 50
179.9999999999964
 51
270.0000000005678
  0
LINE
  5
165
100
AcDbEntity
  8
MAIN0
  6
CONTINUOUS
 62
3
100
AcDbLine
 10
157.2682821510902
 20
241.4439365705297
 30
0.0000000000000000
 11
157.2682821510901
 21
238.6439365705304
 31
0.0000000000000000
  0
ARC
  5
166
100
AcDbEntity
  8
MAIN0
  6
CONTINUOUS
 62
3
100
AcDbCircle
 10
157.0682821510903
 20
238.6439365705304
 30
0.0000000000000000
 40
0.2000000000000000
100
AcDbArc
 50
269.9999999999953
 51
359.9999999999934
  0
DIMENSION
  5
16F
100
AcDbEntity
  8
MAIN0
  6
CONTINUOUS
 62
3
100
AcDbDimension
  2
*D16
 10
174.0544920668382
 20
266.4439365705305
 30
0.0000000000000000
 11
173.5544920668382
 21
253.9439365705305
 31
0.0000000000000000
 70
32
  1
\A1;\U+220525
  3
MAIN001
100
AcDbAlignedDimension
 13
165.0683232808662
 23
241.4439365705305
 33
0.0000000000000000
 14
165.0683232808663
 24
266.4439365705305
 34
0.0000000000000000
 50
90.00000000000000
100
AcDbRotatedDimension
1001
ACAD
1000
DSTYLE
1002
{
1070
   173
1070
     1
1070
     6
1000
_OPEN
1070
     7
1000
_OPEN
1070
    41
1040
2.000000
1002
}
  0
LINE
  5
170
100
AcDbEntity
  8
MAIN0
  6
CENTER
 62
3
100
AcDbLine
 10
150.3465455781566
 20
253.9439365705302
 30
0.0000000000000000
 11
168.9544921622056
 21
253.9439365705300
 31
0.0000000000000000
  0
LINE
  5
171
100
AcDbEntity
  8
MAIN0
  6
CENTER
 62
3
100
AcDbLine
 10
175.0544920668382
 20
253.9439365705299
 30
0.0000000000000000
 11
209.0720811228129
 21
253.9439365705296
 31
0.0000000000000000
  0
ARC
  5
172
100
AcDbEntity
  8
MAIN0
  6
CENTER
 62
3
100
AcDbCircle
 10
416.0683232808661
 20
253.9439365705299
 30
0.0000000000000000
 40
60.00000000000000
100
AcDbArc
 50
236.6100298308890
 51
300.7500941112380
  0
CIRCLE
  5
173
100
AcDbEntity
  8
MAIN0
  6
PHANTOM
 62
3
100
AcDbCircle
 10
392.5683232808669
 20
198.7439365705301
 30
0.0000000000000000
 40
4.283000000000000
  0
DIMENSION
  5
17A
100
AcDbEntity
  8
MAIN0
  6
CONTINUOUS
 62
3
100
AcDbDimension
  2
*D17
 10
416.0683232808660
 20
253.9439365705299
 30
0.0000000000000000
 11
383.0471839789146
 21
217.8816006892969
 31
0.0000000000000000
 70
164
  3
MAIN001
100
AcDbRadialDimension
 15
376.0034729411156
 25
209.2806656731427
 35
0.0000000000000000
1001
ACAD
1000
DSTYLE
1002
{
1070
   173
1070
     1
1070
     6
1000
_OPEN
1070
     7
1000
_OPEN
1070
    41
1040
2.000000
1070
   340
1005
17B
1002
}
  0
LINE
  5
17C
100
AcDbEntity
  8
MAIN0
  6
CENTER
 62
3
100
AcDbLine
 10
439.5683232808663
 20
144.9507676876575
 30
0.0000000000000000
 11
439.5683232808646
 21
232.1990625834948
 31
0.0000000000000000
  0
LINE
  5
17D
100
AcDbEntity
  8
MAIN0
  6
HIDDEN
 62
3
100
AcDbLine
 10
439.5683232808674
 20
225.9916341143598
 30
0.0000000000000000
 11
436.4683232808668
 21
224.2018482798730
 31
0.0000000000000000
  0
LINE
  5
17E
100
AcDbEntity
  8
MAIN0
  6
HIDDEN
 62
3
100
AcDbLine
 10
436.4683232808749
 20
224.2018482798715
 30
0.0000000000000000
 11
436.4683232808538
 21
161.5749795492872
 31
0.0000000000000000
  0
LINE
  5
17F
100
AcDbEntity
  8
MAIN0
  6
HIDDEN
 62
3
100
AcDbLine
 10
442.6683232808666
 20
224.2018482798708
 30
0.0000000000000000
 11
439.5683232808673
 21
225.9916341143597
 31
0.0000000000000000
  0
LINE
  5
180
100
AcDbEntity
  8
MAIN0
  6
HIDDEN
 62
3
100
AcDbLine
 10
442.6683232808667
 20
224.2018482798708
 30
0.0000000000000000
 11
436.4683232808668
 21
224.2018482798729
 31
0.0000000000000000
  0
LINE
  5
181
100
AcDbEntity
  8
MAIN0
  6
HIDDEN
 62
3
100
AcDbLine
 10
442.6683232808539
 20
161.5749795492851
 30
0.0000000000000000
 11
442.6683232808750
 21
224.2018482798714
 31
0.0000000000000000
  0
LINE
  5
182
100
AcDbEntity
  8
MAIN0
  6
HIDDEN
 62
3
100
AcDbLine
 10
392.5683232808675
 20
205.9916341143608
 30
0.0000000000000000
 11
389.4683232808669
 21
204.2018482798740
 31
0.0000000000000000
  0
LINE
  5
183
100
AcDbEntity
  8
MAIN0
  6
HIDDEN
 62
3
100
AcDbLine
 10
395.6683232808668
 20
204.2018482798717
 30
0.0000000000000000
 11
389.4683232808668
 21
204.2018482798738
 31
0.0000000000000000
  0
LINE
  5
184
100
AcDbEntity
  8
MAIN0
  6
HIDDEN
 62
3
100
AcDbLine
 10
395.6683232808539
 20
161.5749795492851
 30
0.0000000000000000
 11
395.6683232808683
 21
204.2018482798717
 31
0.0000000000000000
  0
LINE
  5
185
100
AcDbEntity
  8
MAIN0
  6
HIDDEN
 62
3
100
AcDbLine
 10
389.4683232808683
 20
204.2018482798738
 30
0.0000000000000000
 11
389.4683232808540
 21
161.5749795492871
 31
0.0000000000000000
  0
LINE
  5
186
100
AcDbEntity
  8
MAIN0
  6
HIDDEN
 62
3
100
AcDbLine
 10
388.7700221888755
 20
161.5749795492874
 30
0.0000000000000000
 11
388.6168971888737
 21
156.6749795492874
 31
0.0000000000000000
  0
LINE
  5
187
100
AcDbEntity
  8
MAIN0
  6
HIDDEN
 62
3
100
AcDbLine
 10
389.2538971888738
 20
156.6749795492872
 30
0.0000000000000000
 11
389.4070221888754
 21
161.5749795492872
 31
0.0000000000000000
  0
LINE
  5
188
100
AcDbEntity
  8
MAIN0
  6
HIDDEN
 62
3
100
AcDbLine
 10
396.2427721888754
 20
161.5749795492849
 30
0.0000000000000000
 11
388.7700221888754
 21
161.5749795492874
 31
0.0000000000000000
  0
LINE
  5
189
100
AcDbEntity
  8
MAIN0
  6
HIDDEN
 62
3
100
AcDbLine
 10
395.7588971888738
 20
156.6749795492850
 30
0.0000000000000000
 11
395.6057721888755
 21
161.5749795492851
 31
0.0000000000000000
  0
LINE
  5
18A
100
AcDbEntity
  8
MAIN0
  6
HIDDEN
 62
3
100
AcDbLine
 10
396.3958971888740
 20
156.6749795492848
 30
0.0000000000000000
 11
396.2427721888756
 21
161.5749795492849
 31
0.0000000000000000
  0
LINE
  5
18B
100
AcDbEntity
  8
MAIN0
  6
HIDDEN
 62
3
100
AcDbLine
 10
387.0683232808302
 20
156.6749795492997
 30
0.0000000000000000
 11
398.0683232808673
 21
156.6749795492722
 31
0.0000000000000000
  0
LINE
  5
18C
100
AcDbEntity
  8
MAIN0
  6
HIDDEN
 62
3
100
AcDbLine
 10
398.0683232808663
 20
154.0527457677368
 30
0.0000000000000000
 11
398.0683232808673
 21
156.6749795492722
 31
0.0000000000000000
  0
LINE
  5
18D
100
AcDbEntity
  8
MAIN0
  6
HIDDEN
 62
3
100
AcDbLine
 10
443.2427721888753
 20
161.5749795492849
 30
0.0000000000000000
 11
435.8938743728570
 21
161.5749795492874
 31
0.0000000000000000
  0
LINE
  5
18E
100
AcDbEntity
  8
MAIN0
  6
HIDDEN
 62
3
100
AcDbLine
 10
436.2538971888738
 20
156.6749795492873
 30
0.0000000000000000
 11
436.4070221888754
 21
161.5749795492873
 31
0.0000000000000000
  0
LINE
  5
18F
100
AcDbEntity
  8
MAIN0
  6
HIDDEN
 62
3
100
AcDbLine
 10
435.7407493728587
 20
156.6749795492849
 30
0.0000000000000000
 11
435.8938743728570
 21
161.5749795492849
 31
0.0000000000000000
  0
LINE
  5
190
100
AcDbEntity
  8
MAIN0
  6
HIDDEN
 62
3
100
AcDbLine
 10
434.0683232808301
 20
156.6749795492998
 30
0.0000000000000000
 11
445.0683232808672
 21
156.6749795492723
 31
0.0000000000000000
  0
LINE
  5
191
100
AcDbEntity
  8
MAIN0
  6
HIDDEN
 62
3
100
AcDbLine
 10
434.0683232808663
 20
154.0527457677369
 30
0.0000000000000000
 11
434.0683232808652
 21
156.6749795492722
 31
0.0000000000000000
  0
LINE
  5
192
100
AcDbEntity
  8
MAIN0
  6
HIDDEN
 62
3
100
AcDbLine
 10
443.3958971888739
 20
156.6749795492849
 30
0.0000000000000000
 11
443.2427721888755
 21
161.5749795492849
 31
0.0000000000000000
  0
LINE
  5
193
100
AcDbEntity
  8
MAIN0
  6
HIDDEN
 62
3
100
AcDbLine
 10
442.7588971888738
 20
156.6749795492851
 30
0.0000000000000000
 11
442.6057721888755
 21
161.5749795492852
 31
0.0000000000000000
  0
ARC
  5
194
100
AcDbEntity
  8
MAIN0
  6
CENTER
 62
3
100
AcDbCircle
 10
416.0683232808661
 20
253.9439365705299
 30
0.0000000000000000
 40
40.00000000000000
100
AcDbArc
 50
295.2665712973785
 51
318.6357052792529
  0
CIRCLE
  5
195
100
AcDbEntity
  8
MAIN0
  6
HIDDEN
 62
3
100
AcDbCircle
 10
439.5683232808656
 20
221.5749699512534
 30
0.0000000000000000
 40
2.500000000000000
  0
LINE
  5
196
100
AcDbEntity
  8
MAIN0
  6
CENTER
 62
3
100
AcDbLine
 10
447.0265813450228
 20
221.5749699512534
 30
0.0000000000000000
 11
431.6951031262257
 21
221.5749699512534
 31
0.0000000000000000
  0
LINE
  5
197
100
AcDbEntity
  8
MAIN0
  6
HIDDEN
 62
3
100
AcDbLine
 10
392.5683232808665
 20
205.9916341143608
 30
0.0000000000000000
 11
395.6683232808670
 21
204.2018482798738
 31
0.0000000000000000
  0
CIRCLE
  5
198
100
AcDbEntity
  8
MAIN0
  6
PHANTOM
 62
3
100
AcDbCircle
 10
439.5683232808650
 20
198.7375057857015
 30
0.0000000000000000
 40
4.864000000000000
  0
CIRCLE
  5
199
100
AcDbEntity
  8
MAIN0
  6
PHANTOM
 62
3
100
AcDbCircle
 10
439.5683232808652
 20
198.7439365705301
 30
0.0000000000000000
 40
4.283000000000000
  0
LINE
  5
19A
100
AcDbEntity
  8
MAIN0
  6
CENTER
 62
3
100
AcDbLine
 10
380.0912807283926
 20
198.7375057857016
 30
0.0000000000000000
 11
452.0453658333395
 21
198.7375057857016
 31
0.0000000000000000
  0
LINE
  5
19B
100
AcDbEntity
  8
MAIN0
  6
CONTINUOUS
 62
3
100
AcDbLine
 10
145.5682821510940
 20
267.4439365705305
 30
0.0000000000000000
 11
146.5682821510940
 21
266.4439365705305
 31
0.0000000000000000
  0
LINE
  5
19C
100
AcDbEntity
  8
MAIN0
  6
CONTINUOUS
 62
3
100
AcDbLine
 10
170.0683232808660
 20
276.5439365705299
 30
0.0000000000000000
 11
170.0683232808659
 21
274.2439365705300
 31
0.0000000000000000
  0
ARC
  5
19D
100
AcDbEntity
  8
MAIN0
  6
CONTINUOUS
 62
3
100
AcDbCircle
 10
169.7683232808660
 20
274.2439365705300
 30
0.0000000000000000
 40
0.3000000000000000
100
AcDbArc
 50
270.0000000000000
 51
360.0000000000000
  0
LINE
  5
19E
100
AcDbEntity
  8
MAIN0
  6
CONTINUOUS
 62
3
100
AcDbLine
 10
174.7683232808660
 20
276.5439365705299
 30
0.0000000000000000
 11
174.7683232808660
 21
275.4439365705299
 31
0.0000000000000000
  0
LINE
  5
19F
100
AcDbEntity
  8
MAIN0
  6
CONTINUOUS
 62
3
100
AcDbLine
 10
174.7683232808660
 20
275.4439365705299
 30
0.0000000000000000
 11
176.9683232808660
 21
275.4439365705299
 31
0.0000000000000000
  0
LINE
  5
1A0
100
AcDbEntity
  8
MAIN0
  6
CONTINUOUS
 62
3
100
AcDbLine
 10
174.3683232808660
 20
276.9439365705299
 30
0.0000000000000000
 11
170.4683232808660
 21
276.9439365705300
 31
0.0000000000000000
  0
LINE
  5
1A1
100
AcDbEntity
  8
MAIN0
  6
CONTINUOUS
 62
3
100
AcDbLine
 10
170.4683232808660
 20
276.9439365705300
 30
0.0000000000000000
 11
170.4683232808660
 21
273.9439365705300
 31
0.0000000000000000
  0
LINE
  5
1A2
100
AcDbEntity
  8
MAIN0
  6
CONTINUOUS
 62
3
100
AcDbLine
 10
130.0683232808662
 20
267.9439365705302
 30
0.0000000000000000
 11
130.0683232808663
 21
279.3090563623331
 31
0.0000000000000000
  0
ARC
  5
1A3
100
AcDbEntity
  8
MAIN0
  6
CONTINUOUS
 62
3
100
AcDbCircle
 10
132.0683232808662
 20
267.9439365705302
 30
0.0000000000000000
 40
2.000000000000000
100
AcDbArc
 50
180.0000000000000
 51
270.0000000000000
  0
LINE
  5
1A4
100
AcDbEntity
  8
MAIN0
  6
CONTINUOUS
 62
3
100
AcDbLine
 10
176.7683232808660
 20
277.9439365671522
 30
0.0000000000000000
 11
176.7683232808660
 21
275.4439365705299
 31
0.0000000000000000
  0
ARC
  5
1A5
100
AcDbEntity
  8
MAIN0
  6
CONTINUOUS
 62
3
100
AcDbCircle
 10
416.0683232808660
 20
253.9439365705298
 30
0.0000000000000000
 40
69.99999999999983
100
AcDbArc
 50
110.9248324276384
 51
189.0751675723617
  0
ARC
  5
1A6
100
AcDbEntity
  8
MAIN0
  6
CONTINUOUS
 62
3
100
AcDbCircle
 10
416.0683232808660
 20
253.9439365705298
 30
0.0000000000000000
 40
69.99999999999983
100
AcDbArc
 50
230.9248324276384
 51
309.0751675723617
  0
LINE
  5
1A7
100
AcDbEntity
  8
MAIN0
  6
CONTINUOUS
 62
3
100
AcDbLine
 10
176.7683232808654
 20
223.9693411316077
 30
0.0000000000000000
 11
176.7683232808655
 21
232.4439365705299
 31
0.0000000000000000
  0
LINE
  5
1A8
100
AcDbEntity
  8
MAIN0
  6
CONTINUOUS
 62
3
100
AcDbLine
 10
170.0683232808655
 20
231.3439365705300
 30
0.0000000000000000
 11
170.0683232808655
 21
233.6439365705300
 31
0.0000000000000000
  0
ARC
  5
1A9
100
AcDbEntity
  8
MAIN0
  6
CONTINUOUS
 62
3
100
AcDbCircle
 10
169.7683232808656
 20
233.6439365705300
 30
0.0000000000000000
 40
0.3000000000000000
100
AcDbArc
 50
359.9999999999989
 51
449.9999999999989
  0
LINE
  5
1AA
100
AcDbEntity
  8
MAIN0
  6
CONTINUOUS
 62
3
100
AcDbLine
 10
174.7683232808655
 20
231.3439365705300
 30
0.0000000000000000
 11
174.7683232808655
 21
232.4439365705299
 31
0.0000000000000000
  0
LINE
  5
1AB
100
AcDbEntity
  8
MAIN0
  6
CONTINUOUS
 62
3
100
AcDbLine
 10
174.7683232808655
 20
232.4439365705299
 30
0.0000000000000000
 11
176.9683232808655
 21
232.4439365705299
 31
0.0000000000000000
  0
LINE
  5
1AC
100
AcDbEntity
  8
MAIN0
  6
CONTINUOUS
 62
3
100
AcDbLine
 10
174.3683232808655
 20
230.9439365705300
 30
0.0000000000000000
 11
170.4683232808655
 21
230.9439365705300
 31
0.0000000000000000
  0
LINE
  5
1AD
100
AcDbEntity
  8
MAIN0
  6
CONTINUOUS
 62
3
100
AcDbLine
 10
170.4683232808655
 20
230.9439365705300
 30
0.0000000000000000
 11
170.4683232808656
 21
233.9439365705300
 31
0.0000000000000000
  0
LINE
  5
1AE
100
AcDbEntity
  8
MAIN0
  6
CONTINUOUS
 62
3
100
AcDbLine
 10
130.0683232808659
 20
239.9439365705305
 30
0.0000000000000000
 11
130.0683232808658
 21
228.5788167787277
 31
0.0000000000000000
  0
ARC
  5
1AF
100
AcDbEntity
  8
MAIN0
  6
CONTINUOUS
 62
3
100
AcDbCircle
 10
170.4683232808660
 20
276.5439365705299
 30
0.0000000000000000
 40
0.4000000000000000
100
AcDbArc
 50
90.00000000000000
 51
180.0000000000000
  0
ARC
  5
1B0
100
AcDbEntity
  8
MAIN0
  6
CONTINUOUS
 62
3
100
AcDbCircle
 10
174.3683232808660
 20
276.5439365705299
 30
0.0000000000000000
 40
0.4000000000000000
100
AcDbArc
 50
0.0000000000000000
 51
90.00000000000000
  0
ARC
  5
1B1
100
AcDbEntity
  8
MAIN0
  6
CONTINUOUS
 62
3
100
AcDbCircle
 10
170.4683232808655
 20
231.3439365705300
 30
0.0000000000000000
 40
0.4000000000000000
100
AcDbArc
 50
180.0000000000000
 51
270.0000000000000
  0
ARC
  5
1B2
100
AcDbEntity
  8
MAIN0
  6
CONTINUOUS
 62
3
100
AcDbCircle
 10
174.3683232808655
 20
231.3439365705300
 30
0.0000000000000000
 40
0.4000000000000000
100
AcDbArc
 50
270.0000000000000
 51
360.0000000000000
  0
ARC
  5
1B3
100
AcDbEntity
  8
MAIN0
  6
CONTINUOUS
 62
3
100
AcDbCircle
 10
416.0683232808660
 20
253.9439365705298
 30
0.0000000000000000
 40
69.99999999999983
100
AcDbArc
 50
350.9248324276384
 51
429.0751675723617
  0
LINE
  5
1B4
100
AcDbEntity
  8
MAIN0
  6
CONTINUOUS
 62
3
100
AcDbLine
 10
155.5682821510871
 20
280.8570840731150
 30
0.0000000000000000
 11
155.5682821510868
 21
277.4439365705304
 31
0.0000000000000000
  0
LINE
  5
1B5
100
AcDbEntity
  8
MAIN0
  6
CONTINUOUS
 62
3
100
AcDbLine
 10
440.0683232808660
 20
282.7579956389776
 30
0.0000000000000000
 11
440.0683232808660
 21
332.8758692720671
 31
0.0000000000000000
  0
LINE
  5
1B6
100
AcDbEntity
  8
MAIN0
  6
CONTINUOUS
 62
3
100
AcDbLine
 10
392.0683232808660
 20
282.7579956389776
 30
0.0000000000000000
 11
392.0683232808660
 21
332.8758692720671
 31
0.0000000000000000
  0
LINE
  5
1B7
100
AcDbEntity
  8
MAIN0
  6
CONTINUOUS
 62
3
100
AcDbLine
 10
166.8683232808655
 20
230.9439365705303
 30
0.0000000000000000
 11
162.5683232808655
 21
230.9439365705304
 31
0.0000000000000000
  0
LINE
  5
1B8
100
AcDbEntity
  8
MAIN0
  6
CONTINUOUS
 62
3
100
AcDbLine
 10
162.3683232808655
 20
231.1439365705303
 30
0.0000000000000000
 11
162.3683232808655
 21
233.7439365705304
 31
0.0000000000000000
  0
LINE
  5
1B9
100
AcDbEntity
  8
MAIN0
  6
CONTINUOUS
 62
3
100
AcDbLine
 10
167.0683232808655
 20
231.1439365705303
 30
0.0000000000000000
 11
167.0683232808655
 21
233.7439365705304
 31
0.0000000000000000
  0
ELLIPSE
  5
1BA
100
AcDbEntity
  8
MAIN0
  6
CONTINUOUS
 62
3
100
AcDbEllipse
 10
164.7183232808657
 20
232.4439365705304
 30
0.0000000000000000
 11
-2.350000000000000
 21
0.0000000000000000
 31
0.0000000000000000
210
0.0000000000000000
220
0.0000000000000000
230
1.000000000000000
 40
0.6382978723404255
 41
0.0000000000000000
 42
6.283185307179586
  0
ARC
  5
1BB
100
AcDbEntity
  8
MAIN0
  6
CONTINUOUS
 62
3
100
AcDbCircle
 10
166.8683232808655
 20
231.1439365705303
 30
0.0000000000000000
 40
0.2000000000000000
100
AcDbArc
 50
270.0000000000009
 51
359.9999999999989
  0
ARC
  5
1BC
100
AcDbEntity
  8
MAIN0
  6
CONTINUOUS
 62
3
100
AcDbCircle
 10
162.5683232808655
 20
231.1439365705303
 30
0.0000000000000000
 40
0.2000000000000000
100
AcDbArc
 50
180.0000000000025
 51
270.0000000005734
  0
ARC
  5
1BD
100
AcDbEntity
  8
MAIN0
  6
CONTINUOUS
 62
3
100
AcDbCircle
 10
167.2683232808656
 20
233.7439365705304
 30
0.0000000000000000
 40
0.2000000000000000
100
AcDbArc
 50
89.99999999943105
 51
180.0000000000025
  0
ARC
  5
1BE
100
AcDbEntity
  8
MAIN0
  6
CONTINUOUS
 62
3
100
AcDbCircle
 10
162.1683232808655
 20
233.7439365705305
 30
0.0000000000000000
 40
0.2000000000000000
100
AcDbArc
 50
5.546887364472373e-012
 51
90.00000000000452
  0
ARC
  5
1BF
100
AcDbEntity
  8
MAIN0
  6
CONTINUOUS
 62
3
100
AcDbCircle
 10
404.5501854105331
 20
260.5939365705298
 30
0.0000000000000000
 40
3.000000000000000
100
AcDbArc
 50
240.0000000000000
 51
420.0000000000000
  0
LINE
  5
1C0
100
AcDbEntity
  8
MAIN0
  6
CONTINUOUS
 62
3
100
AcDbLine
 10
406.0501854105331
 20
263.1920127818830
 30
0.0000000000000000
 11
404.8404012195082
 21
263.8904820102326
 31
0.0000000000000000
  0
LINE
  5
1C1
100
AcDbEntity
  8
MAIN0
  6
CONTINUOUS
 62
3
100
AcDbLine
 10
403.0501854105331
 20
257.9958603591764
 30
0.0000000000000000
 11
401.8404012195082
 21
258.6943295875260
 31
0.0000000000000000
  0
LINE
  5
1C2
100
AcDbEntity
  8
MAIN0
  6
CENTER
 62
3
100
AcDbLine
 10
404.7340311373450
 20
257.3123667101225
 30
0.0000000000000000
 11
407.4840311373450
 21
262.0755064309369
 31
0.0000000000000000
  0
LINE
  5
1C3
100
AcDbEntity
  8
MAIN0
  6
CONTINUOUS
 62
3
100
AcDbLine
 10
176.9683232808660
 20
275.4439365705299
 30
0.0000000000000000
 11
176.9683232808653
 21
273.9439365705296
 31
0.0000000000000000
  0
LINE
  5
1C4
100
AcDbEntity
  8
MAIN0
  6
CONTINUOUS
 62
3
100
AcDbLine
 10
176.9683232808655
 20
232.4439365705299
 30
0.0000000000000000
 11
176.9683232808653
 21
233.9439365705300
 31
0.0000000000000000
  0
LINE
  5
1C5
100
AcDbEntity
  8
MAIN0
  6
CENTER
 62
3
100
AcDbLine
 10
416.0683232808661
 20
253.9439365705298
 30
0.0000000000000000
 11
332.9822396315748
 21
205.9741638096996
 31
0.0000000000000000
  0
LINE
  5
1C6
100
AcDbEntity
  8
MAIN0
  6
CENTER
 62
3
100
AcDbLine
 10
416.0683232808661
 20
253.9439365705297
 30
0.0000000000000000
 11
500.1154994367164
 21
205.4192767923216
 31
0.0000000000000000
  0
LINE
  5
1C7
100
AcDbEntity
  8
MAIN0
  6
CENTER
 62
3
100
AcDbLine
 10
103.5683232808664
 20
253.9439365705306
 30
0.0000000000000000
 11
144.1280331912102
 21
253.9439365705302
 31
0.0000000000000000
  0
DIMENSION
  5
1CE
100
AcDbEntity
  8
MAIN0
  6
CONTINUOUS
 62
3
100
AcDbDimension
  2
*D18
 10
392.0683232808660
 20
327.0714976851118
 30
0.0000000000000000
 11
416.0683232808660
 21
327.5714976851118
 31
0.0000000000000000
 70
160
  3
MAIN001
100
AcDbAlignedDimension
 13
440.0683232808660
 23
332.3024874759670
 33
0.0000000000000000
 14
392.0683232808660
 24
332.3024874759670
 34
0.0000000000000000
100
AcDbRotatedDimension
1001
ACAD
1000
DSTYLE
1002
{
1070
   173
1070
     1
1070
     6
1000
_OPEN
1070
     7
1000
_OPEN
1070
    41
1040
2.000000
1002
}
  0
ARC
  5
1CF
100
AcDbEntity
  8
MAIN0
  6
CENTER
 62
3
100
AcDbCircle
 10
416.0683232808660
 20
253.9439365705298
 30
0.0000000000000000
 40
52.40000000000000
100
AcDbArc
 50
124.6804153111433
 51
142.1061605908002
  0
ARC
  5
1D0
100
AcDbEntity
  8
MAIN0
  6
CENTER
 62
3
100
AcDbCircle
 10
416.0683232808660
 20
253.9439365705298
 30
0.0000000000000000
 40
52.40000000000000
100
AcDbArc
 50
157.2643508034192
 51
175.3812733300625
  0
DIMENSION
  5
1D9
100
AcDbEntity
  8
MAIN0
  6
CONTINUOUS
 62
3
100
AcDbDimension
  2
*D19
 10
416.0683232808660
 20
371.4620834943273
 30
0.0000000000000000
 11
447.8150963575245
 21
372.4245066689782
 31
0.0000000000000000
 70
162
  3
MAIN001
100
AcDb2LineAngularDimension
 13
468.0457733904577
 23
343.9715210082182
 33
0.0000000000000000
 14
467.5457733904577
 24
343.1054956044338
 34
0.0000000000000000
 15
416.0683232808660
 25
370.4620834943273
 35
0.0000000000000000
 16
447.6856868349732
 26
371.9415437558337
 36
0.0000000000000000
1001
ACAD
1000
DSTYLE
1002
{
1070
   173
1070
     1
1070
     6
1000
_OPEN
1070
     7
1000
_OPEN
1070
    41
1040
2.000000
1002
}
  0
DIMENSION
  5
1E2
100
AcDbEntity
  8
MAIN0
  6
CONTINUOUS
 62
3
100
AcDbDimension
  2
*D20
 10
474.6775078748627
 20
269.6482202514591
 30
0.0000000000000000
 11
536.6876162212186
 21
269.8237677432761
 31
0.0000000000000000
 70
162
  3
MAIN001
100
AcDb2LineAngularDimension
 13
537.3427823083304
 23
253.9439365705287
 33
0.0000000000000000
 14
536.3427823083304
 24
253.9439365705287
 34
0.0000000000000000
 15
473.7115820485733
 25
269.3894012063578
 35
0.0000000000000000
 16
537.1833386519056
 26
269.8890308393858
 36
0.0000000000000000
1001
ACAD
1000
DSTYLE
1002
{
1070
   173
1070
     1
1070
     6
1000
_OPEN
1070
     7
1000
_OPEN
1070
    41
1040
2.000000
1002
}
  0
DIMENSION
  5
1EB
100
AcDbEntity
  8
MAIN0
  6
CONTINUOUS
 62
3
100
AcDbDimension
  2
*D21
 10
488.5110320127932
 20
326.3866453024008
 30
0.0000000000000000
 11
521.4290709558882
 21
314.7739926026088
 31
0.0000000000000000
 70
162
  3
MAIN001
100
AcDb2LineAngularDimension
 13
474.6775078748627
 23
269.6482202514591
 33
0.0000000000000000
 14
473.7115820485733
 24
269.3894012063578
 34
0.0000000000000000
 15
487.8039252316064
 25
325.6795385212146
 35
0.0000000000000000
 16
521.8620836577805
 26
315.0239926026085
 36
0.0000000000000000
1001
ACAD
1000
DSTYLE
1002
{
1070
   173
1070
     1
1070
     6
1000
_OPEN
1070
     7
1000
_OPEN
1070
    41
1040
2.000000
1002
}
  0
DIMENSION
  5
1F4
100
AcDbEntity
  8
MAIN0
  6
CONTINUOUS
 62
3
100
AcDbDimension
  2
*D22
 10
468.0457733904577
 20
343.9715210082182
 30
0.0000000000000000
 11
490.7390683835371
 21
351.2567461972493
 31
0.0000000000000000
 70
162
  3
MAIN001
100
AcDb2LineAngularDimension
 13
488.5110320127932
 23
326.3866453024008
 33
0.0000000000000000
 14
487.8039252316064
 24
325.6795385212146
 34
0.0000000000000000
 15
467.5457733904577
 25
343.1054956044338
 35
0.0000000000000000
 16
490.4346876690325
 26
350.8600695271038
 36
0.0000000000000000
1001
ACAD
1000
DSTYLE
1002
{
1070
   173
1070
     1
1070
     6
1000
_OPEN
1070
     7
1000
_OPEN
1070
    41
1040
2.000000
1002
}
  0
DIMENSION
  5
1FD
100
AcDbEntity
  8
MAIN0
  6
CONTINUOUS
 62
3
100
AcDbDimension
  2
*D23
 10
500.1154994367164
 20
205.4192767923216
 30
0.0000000000000000
 11
512.7478367602877
 21
179.7591366930640
 31
0.0000000000000000
 70
162
  3
MAIN001
100
AcDb2LineAngularDimension
 13
488.5110320127369
 23
181.5012278386027
 33
0.0000000000000000
 14
487.8039252315507
 24
182.2083346197896
 34
0.0000000000000000
 15
499.2494740329320
 25
205.9192767923216
 35
0.0000000000000000
 16
513.1445134304332
 26
179.4547559785596
 36
0.0000000000000000
1001
ACAD
1000
DSTYLE
1002
{
1070
   173
1070
     1
1070
     6
1000
_OPEN
1070
     7
1000
_OPEN
1070
    41
1040
2.000000
1002
}
  0
DIMENSION
  5
206
100
AcDbEntity
  8
MAIN0
  6
CONTINUOUS
 62
3
100
AcDbDimension
  2
*D24
 10
537.3427823083304
 20
253.9439365705287
 30
0.0000000000000000
 11
533.7778408440847
 21
222.4037663980084
 31
0.0000000000000000
 70
162
  3
MAIN001
100
AcDb2LineAngularDimension
 13
500.1154994367164
 23
205.4192767923216
 33
0.0000000000000000
 14
499.2494740329320
 24
205.9192767923216
 34
0.0000000000000000
 15
536.3427823083304
 25
253.9439365705287
 35
0.0000000000000000
 16
534.2608037572294
 26
222.2743568754571
 36
0.0000000000000000
1001
ACAD
1000
DSTYLE
1002
{
1070
   173
1070
     1
1070
     6
1000
_OPEN
1070
     7
1000
_OPEN
1070
    41
1040
2.000000
1002
}
  0
ELLIPSE
  5
207
100
AcDbEntity
  8
MAIN0
  6
CONTINUOUS
 62
3
100
AcDbEllipse
 10
154.9182821510904
 20
267.9439365705301
 30
0.0000000000000000
 11
2.350000000000000
 21
0.0000000000000000
 31
0.0000000000000000
210
0.0000000000000000
220
0.0000000000000000
230
1.000000000000000
 40
0.6382978723404255
 41
0.0000000000000000
 42
6.283185307179586
  0
ELLIPSE
  5
208
100
AcDbEntity
  8
MAIN0
  6
CONTINUOUS
 62
3
100
AcDbEllipse
 10
154.9182821510901
 20
239.9439365705304
 30
0.0000000000000000
 11
2.350000000000000
 21
0.0000000000000000
 31
0.0000000000000000
210
0.0000000000000000
220
0.0000000000000000
230
1.000000000000000
 40
0.6382978723404255
 41
0.0000000000000000
 42
6.283185307179586
  0
ARC
  5
209
100
AcDbEntity
  8
MAIN0
  6
CONTINUOUS
 62
3
100
AcDbCircle
 10
416.0683232808660
 20
253.9439365705298
 30
0.0000000000000000
 40
37.50000000000000
100
AcDbArc
 50
127.4824705405555
 51
172.5175294594445
  0
ARC
  5
20A
100
AcDbEntity
  8
MAIN0
  6
CONTINUOUS
 62
3
100
AcDbCircle
 10
416.0683232808660
 20
253.9439365705298
 30
0.0000000000000000
 40
37.50000000000000
100
AcDbArc
 50
247.4824705405556
 51
292.5175294594446
  0
ARC
  5
20B
100
AcDbEntity
  8
MAIN0
  6
CONTINUOUS
 62
3
100
AcDbCircle
 10
416.0683232808660
 20
253.9439365705298
 30
0.0000000000000000
 40
37.50000000000000
100
AcDbArc
 50
7.482470540555511
 51
52.51752945944448
  0
ARC
  5
20C
100
AcDbEntity
  8
MAIN0
  6
CONTINUOUS
 62
3
100
AcDbCircle
 10
159.5682821510868
 20
277.4439365705301
 30
0.0000000000000000
 40
4.000000000000000
100
AcDbArc
 50
180.0000000000000
 51
298.9550243718599
  0
LINE
  5
20D
100
AcDbEntity
  8
MAIN0
  6
CONTINUOUS
 62
3
100
AcDbLine
 10
159.0682821510866
 20
274.9439365705301
 30
0.0000000000000000
 11
159.0682821510871
 21
280.0425957954863
 31
0.0000000000000000
  0
LINE
  5
20E
100
AcDbEntity
  8
MAIN0
  6
CONTINUOUS
 62
3
100
AcDbLine
 10
145.5682821510928
 20
224.4527929447406
 30
0.0000000000000000
 11
145.5682821510937
 21
241.4439365705300
 31
0.0000000000000000
  0
LINE
  5
20F
100
AcDbEntity
  8
MAIN0
  6
CONTINUOUS
 62
3
100
AcDbLine
 10
145.5682821510937
 20
240.4439365705300
 30
0.0000000000000000
 11
146.5682821510937
 21
241.4439365705300
 31
0.0000000000000000
  0
LINE
  5
210
100
AcDbEntity
  8
MAIN0
  6
CONTINUOUS
 62
3
100
AcDbLine
 10
155.5682821510866
 20
227.0307890679453
 30
0.0000000000000000
 11
155.5682821510864
 21
230.4439365705298
 31
0.0000000000000000
  0
ARC
  5
211
100
AcDbEntity
  8
MAIN0
  6
CONTINUOUS
 62
3
100
AcDbCircle
 10
159.5682821510863
 20
230.4439365705301
 30
0.0000000000000000
 40
4.000000000000000
100
AcDbArc
 50
61.04497562813901
 51
179.9999999999989
  0
LINE
  5
212
100
AcDbEntity
  8
MAIN0
  6
CONTINUOUS
 62
3
100
AcDbLine
 10
159.0682821510862
 20
232.9439365705301
 30
0.0000000000000000
 11
159.0682821510866
 21
227.8452773455739
 31
0.0000000000000000
  0
LINE
  5
213
100
AcDbEntity
  8
MAIN0
  6
CONTINUOUS
 62
3
100
AcDbLine
 10
379.1146161414448
 20
260.3215167271325
 30
0.0000000000000000
 11
335.7112643915311
 21
235.2625799105877
 31
0.0000000000000000
  0
LINE
  5
214
100
AcDbEntity
  8
MAIN0
  6
CONTINUOUS
 62
3
100
AcDbLine
 10
403.1146161414450
 20
218.7522973454794
 30
0.0000000000000000
 11
359.7112643915312
 21
193.6933605289347
 31
0.0000000000000000
  0
LINE
  5
215
100
AcDbEntity
  8
MAIN0
  6
CONTINUOUS
 62
3
100
AcDbLine
 10
429.0220304202874
 20
218.7522973454794
 30
0.0000000000000000
 11
472.4253821702012
 21
193.6933605289347
 31
0.0000000000000000
  0
LINE
  5
216
100
AcDbEntity
  8
MAIN0
  6
CONTINUOUS
 62
3
100
AcDbLine
 10
453.0220304202874
 20
260.3215167271326
 30
0.0000000000000000
 11
496.4253821702010
 21
235.2625799105878
 31
0.0000000000000000
  0
ELLIPSE
  5
217
100
AcDbEntity
  8
MAIN0
  6
CONTINUOUS
 62
3
100
AcDbEllipse
 10
404.5683232808660
 20
287.9439365705305
 30
0.0000000000000000
 11
-12.50000000000000
 21
0.0000000000000000
 31
0.0000000000000000
210
0.0000000000000000
220
0.0000000000000000
230
1.000000000000000
 40
0.8000000000000000
 41
0.0000000000000000
 42
2.024071062951010
  0
ELLIPSE
  5
218
100
AcDbEntity
  8
MAIN0
  6
CONTINUOUS
 62
3
100
AcDbEllipse
 10
427.5683232808660
 20
287.9439365705305
 30
0.0000000000000000
 11
-12.50000000000000
 21
0.0000000000000000
 31
0.0000000000000000
210
0.0000000000000000
220
0.0000000000000000
230
1.000000000000000
 40
0.8000000000000000
 41
1.117521590638794
 42
3.141592653589793
  0
ELLIPSE
  5
219
100
AcDbEntity
  8
MAIN0
  6
CONTINUOUS
 62
3
100
AcDbEllipse
 10
392.3734595521946
 20
226.9846444270084
 30
0.0000000000000000
 11
6.249999999999992
 21
-10.82531754730549
 31
0.0000000000000000
210
0.0000000000000000
220
0.0000000000000000
230
1.000000000000000
 40
0.8000000000000000
 41
0.0000000000000000
 42
2.024071062951008
  0
ELLIPSE
  5
21A
100
AcDbEntity
  8
MAIN0
  6
CONTINUOUS
 62
3
100
AcDbEllipse
 10
380.8734595521946
 20
246.9032287140505
 30
0.0000000000000000
 11
6.249999999999992
 21
-10.82531754730549
 31
0.0000000000000000
210
0.0000000000000000
220
0.0000000000000000
230
1.000000000000000
 40
0.8000000000000000
 41
1.117521590638784
 42
3.141592686909803
  0
ELLIPSE
  5
21B
100
AcDbEntity
  8
MAIN0
  6
CONTINUOUS
 62
3
100
AcDbEllipse
 10
451.2631870095376
 20
246.9032287140505
 30
0.0000000000000000
 11
6.250000000000007
 21
10.82531754730548
 31
0.0000000000000000
210
0.0000000000000000
220
0.0000000000000000
230
1.000000000000000
 40
0.8000000000000000
 41
0.0000000000000000
 42
2.024071062951012
  0
ELLIPSE
  5
21C
100
AcDbEntity
  8
MAIN0
  6
CONTINUOUS
 62
3
100
AcDbEllipse
 10
439.7631870095376
 20
226.9846444270084
 30
0.0000000000000000
 11
6.250000000000007
 21
10.82531754730548
 31
0.0000000000000000
210
0.0000000000000000
220
0.0000000000000000
230
1.000000000000000
 40
0.8000000000000000
 41
1.117521590638783
 42
3.141592693014560
  0
LEADER
  5
21D
100
AcDbEntity
  8
MAIN0
  6
CONTINUOUS
 62
3
100
AcDbLeader
  3
MAIN001
 73
     0
 75
     1
 40
3.099999904632568
 41
27.51900081539151
 76
     3
 10
387.9938313365105
 20
197.0844723767780
 30
0.0000000000000000
 10
341.4277309504583
 20
171.9333952559900
 30
0.0000000000000000
 10
339.5007310062483
 20
171.9333952559901
 30
0.0000000000000000
340
21E
213
0.0000000000000000
223
-0.5000000000000000
233
0.0000000000000000
1001
ACAD
1000
DSTYLE
1002
{
1070
   147
1040
0.0
1070
    77
1070
     1
1070
   173
1070
     1
1070
     6
1000
_OPEN
1070
     7
1000
_OPEN
1002
}
  0
MTEXT
  5
21E
102
{ACAD_REACTORS
330
21D
102
}
100
AcDbEntity
  8
MAIN0
  6
CONTINUOUS
 62
3
100
AcDbMText
 10
311.9817301908568
 20
175.5333951606226
 30
0.0000000000000000
 40
3.099999904632568
 41
0.0000000000000000
 71
     1
 72
     1
  1
{\H0.93x;{2-Rc1/8\P（裏面より）\P(FROM THE \PBACK SIDE)}}
 11
1.000000000000000
 21
0.0000000000000000
 31
0.0000000000000000
  7
KNJYOKO
  0
LINE
  5
21F
100
AcDbEntity
  8
MAIN0
  6
CONTINUOUS
 62
3
100
AcDbLine
 10
179.5683232808667
 20
336.4439365705297
 30
0.0000000000000000
 11
180.5683232808667
 21
335.4439365705297
 31
0.0000000000000000
  0
LINE
  5
220
100
AcDbEntity
  8
MAIN0
  6
CONTINUOUS
 62
3
100
AcDbLine
 10
179.5683232808650
 20
171.4439365705297
 30
0.0000000000000000
 11
180.5683232808651
 21
172.4439365705297
 31
0.0000000000000000
  0
DIMENSION
  5
229
100
AcDbEntity
  8
MAIN0
  6
CONTINUOUS
 62
3
100
AcDbDimension
  2
*D25
 10
243.5683232808664
 20
336.4439365705304
 30
0.0000000000000000
 11
243.0683232808664
 21
253.9439365705301
 31
0.0000000000000000
 70
32
  1
\A1;\U+2205165
  3
MAIN001
100
AcDbAlignedDimension
 13
179.5683232808650
 23
171.4439365705297
 33
0.0000000000000000
 14
179.5683232808667
 24
336.4439365705297
 34
0.0000000000000000
 50
90.00000000000000
100
AcDbRotatedDimension
1001
ACAD
1000
DSTYLE
1002
{
1070
   173
1070
     1
1070
     6
1000
_OPEN
1070
     7
1000
_OPEN
1070
    41
1040
2.000000
1002
}
  0
SPLINE
  5
22A
100
AcDbEntity
  8
MAIN0
  6
CONTINUOUS
 62
3
100
AcDbSpline
210
0.0000000000000000
220
0.0000000000000000
230
1.000000000000000
 70
     8
 71
     3
 72
    12
 73
     8
 74
     0
 42
1.000000000000000e-007
 43
1.000000000000000e-007
 12
-0.9187220436438963
 22
0.5024669750823563
 32
0.0000000000000000
 13
-0.8592370722650067
 23
0.6670603737366321
 33
0.0000000000000000
 40
0.0000000000000000
 40
0.0000000000000000
 40
0.0000000000000000
 40
0.0000000000000000
 40
6.756218054657434
 40
23.19900941530140
 40
45.32051555592658
 40
64.26238071646860
 40
75.42176853158070
 40
75.42176853158070
 40
75.42176853158070
 40
75.42176853158070
 10
186.0683232808664
 20
281.4164429591363
 30
0.0000000000000000
 10
183.9992944613735
 20
282.5480351087765
 30
0.0000000000000000
 10
176.8948140145267
 20
286.4336138040479
 30
0.0000000000000000
 10
162.0463497121503
 20
274.9793023091105
 30
0.0000000000000000
 10
143.1323745344392
 20
288.8352460175885
 30
0.0000000000000000
 10
125.8858806784785
 20
274.5531196375709
 30
0.0000000000000000
 10
117.2645098523753
 20
281.2462373241979
 30
0.0000000000000000
 10
114.0683232808664
 20
283.7275657930715
 30
0.0000000000000000
  0
SPLINE
  5
22B
100
AcDbEntity
  8
MAIN0
  6
CONTINUOUS
 62
3
100
AcDbSpline
210
0.0000000000000000
220
0.0000000000000000
230
1.000000000000000
 70
     8
 71
     3
 72
    12
 73
     8
 74
     0
 42
1.000000000000000e-007
 43
1.000000000000000e-007
 12
-0.9187220436439390
 22
-0.5024669750823563
 32
0.0000000000000000
 13
-0.8592370722650209
 23
-0.6670603737366321
 33
0.0000000000000000
 40
0.0000000000000000
 40
0.0000000000000000
 40
0.0000000000000000
 40
0.0000000000000000
 40
6.756218054657434
 40
23.19900941530140
 40
45.32051555592658
 40
64.26238071646860
 40
75.42176853158070
 40
75.42176853158070
 40
75.42176853158070
 40
75.42176853158070
 10
186.0683232808659
 20
226.4714301819233
 30
0.0000000000000000
 10
183.9992944613729
 20
225.3398380322832
 30
0.0000000000000000
 10
176.8948140145261
 20
221.4542593370119
 30
0.0000000000000000
 10
162.0463497121499
 20
232.9085708319496
 30
0.0000000000000000
 10
143.1323745344385
 20
219.0526271234719
 30
0.0000000000000000
 10
125.8858806784781
 20
233.3347535034899
 30
0.0000000000000000
 10
117.2645098523748
 20
226.6416358168631
 30
0.0000000000000000
 10
114.0683232808658
 20
224.1603073479895
 30
0.0000000000000000
  0
LINE
  5
22C
100
AcDbEntity
  8
MAIN0
  6
PHANTOM
 62
3
100
AcDbLine
 10
114.5683237423766
 20
283.3397060580714
 30
0.0000000000000000
 11
114.5683233583774
 21
300.4834453581327
 31
0.0000000000000000
  0
LINE
  5
22D
100
AcDbEntity
  8
MAIN0
  6
PHANTOM
 62
3
100
AcDbLine
 10
114.5683233784921
 20
207.4044278215704
 30
0.0000000000000000
 11
114.5683238621453
 21
224.5481671757481
 31
0.0000000000000000
  0
LINE
  5
22E
100
AcDbEntity
  8
MAIN0
  6
CONTINUOUS
 62
3
100
AcDbLine
 10
114.5683238621453
 20
224.5481671757481
 30
0.0000000000000000
 11
114.5683237423766
 21
283.3397060580714
 31
0.0000000000000000
  0
LINE
  5
22F
100
AcDbEntity
  8
MAIN0
  6
PHANTOM
 62
3
100
AcDbLine
 10
171.6502364642817
 20
336.4439365705298
 30
0.0000000000000000
 11
176.2538873186917
 21
283.8239665211773
 31
0.0000000000000000
  0
LINE
  5
230
100
AcDbEntity
  8
MAIN0
  6
CONTINUOUS
 62
3
100
AcDbLine
 10
176.2538873186917
 20
283.8239665211773
 30
0.0000000000000000
 11
176.7683232808618
 21
277.9439365671999
 31
0.0000000000000000
  0
DIMENSION
  5
238
100
AcDbEntity
  8
MAIN0
  6
CONTINUOUS
 62
3
100
AcDbDimension
  2
*D26
 10
186.0683232808661
 20
208.1565349062755
 30
0.0000000000000000
 11
174.5683232808661
 21
208.6565349062755
 31
0.0000000000000000
 70
32
  3
MAIN001
100
AcDbAlignedDimension
 13
163.0683232808662
 23
242.4439365705305
 33
0.0000000000000000
 14
186.0683232808661
 24
233.9439365705295
 34
0.0000000000000000
100
AcDbRotatedDimension
1001
ACAD
1000
DSTYLE
1002
{
1070
   173
1070
     1
1070
     6
1000
_OPEN
1070
     7
1000
_OPEN
1070
    41
1040
2.000000
1002
}
  0
DIMENSION
  5
241
100
AcDbEntity
  8
MAIN0
  6
CONTINUOUS
 62
3
100
AcDbDimension
  2
*D27
 10
163.0683232808662
 20
208.1565349062755
 30
0.0000000000000000
 11
150.5683232808662
 21
208.6565349062755
 31
0.0000000000000000
 70
32
  3
MAIN001
100
AcDbAlignedDimension
 13
138.0683232808662
 23
247.4439365705303
 33
0.0000000000000000
 14
163.0683232808662
 24
242.4439365705305
 34
0.0000000000000000
100
AcDbRotatedDimension
1001
ACAD
1000
DSTYLE
1002
{
1070
   173
1070
     1
1070
     6
1000
_OPEN
1070
     7
1000
_OPEN
1070
    41
1040
2.000000
1002
}
  0
LINE
  5
242
100
AcDbEntity
  8
MAIN0
  6
CONTINUOUS
 62
3
100
AcDbLine
 10
160.0682821510866
 20
273.9439365705301
 30
0.0000000000000000
 11
159.0682821510866
 21
274.9439365705301
 31
0.0000000000000000
  0
LINE
  5
243
100
AcDbEntity
  8
MAIN0
  6
CONTINUOUS
 62
3
100
AcDbLine
 10
159.0682821510862
 20
232.9439365705302
 30
0.0000000000000000
 11
160.0682821510862
 21
233.9439365705301
 31
0.0000000000000000
  0
LINE
  5
244
100
AcDbEntity
  8
MAIN0
  6
CENTER
 62
3
100
AcDbLine
 10
180.0683232808662
 20
243.4439365705299
 30
0.0000000000000000
 11
193.0683232808659
 21
243.4439365705298
 31
0.0000000000000000
  0
LINE
  5
245
100
AcDbEntity
  8
MAIN0
  6
CENTER
 62
3
100
AcDbLine
 10
180.0683232808662
 20
241.4439365705299
 30
0.0000000000000000
 11
193.0683232808658
 21
241.4439365705298
 31
0.0000000000000000
  0
ELLIPSE
  5
246
100
AcDbEntity
  8
MAIN0
  6
CONTINUOUS
 62
3
100
AcDbEllipse
 10
416.0683232808660
 20
282.9439365705305
 30
0.0000000000000000
 11
10.00000000000000
 21
0.0000000000000000
 31
0.0000000000000000
210
0.0000000000000000
220
0.0000000000000000
230
1.000000000000000
 40
0.5000000000000000
 41
4.065621244313594
 42
5.359156716455799
  0
ELLIPSE
  5
247
100
AcDbEntity
  8
MAIN0
  6
CONTINUOUS
 62
3
100
AcDbEllipse
 10
390.9535865711167
 20
239.4439365705294
 30
0.0000000000000000
 11
-4.999999999999998
 21
8.660254037844387
 31
0.0000000000000000
210
0.0000000000000000
220
0.0000000000000000
230
1.000000000000000
 40
0.5000000000000000
 41
4.065621244313585
 42
5.359156716455792
  0
ELLIPSE
  5
248
100
AcDbEntity
  8
MAIN0
  6
CONTINUOUS
 62
3
100
AcDbEllipse
 10
441.1830599906155
 20
239.4439365705294
 30
0.0000000000000000
 11
-5.000000000000004
 21
-8.660254037844384
 31
0.0000000000000000
210
0.0000000000000000
220
0.0000000000000000
230
1.000000000000000
 40
0.5000000000000000
 41
4.065621244313587
 42
5.359156716455795
  0
LINE
  5
249
100
AcDbEntity
  8
MAIN0
  6
CENTER
 62
3
100
AcDbLine
 10
400.1506099124210
 20
263.1340326686848
 30
0.0000000000000000
 11
408.5042141263000
 21
258.3110770270982
 31
0.0000000000000000
  0
MTEXT
  5
24A
100
AcDbEntity
  8
MAIN0
  6
CONTINUOUS
 62
3
100
AcDbMText
 10
143.1950520896696
 20
386.9042072425932
 30
0.0000000000000000
 40
3.099999904632568
 41
0.0000000000000000
 71
     1
 72
     1
  1
{\H0.70x;{（ピストン前進端時）}}
 11
1.000000000000000
 21
0.0000000000000000
 31
0.0000000000000000
  7
KNJYOKO
  0
CIRCLE
  5
24B
100
AcDbEntity
  8
MAIN0
  6
CONTINUOUS
 62
3
100
AcDbCircle
 10
406.1090311373451
 20
259.6939365705298
 30
0.0000000000000000
 40
1.000000000000000
  0
LINE
  5
24C
100
AcDbEntity
  8
MAIN0
  6
PHANTOM
 62
3
100
AcDbLine
 10
114.0683232808660
 20
206.4439365705458
 30
0.0000000000000000
 11
114.5683233784923
 21
207.4044278215704
 31
0.0000000000000000
  0
LINE
  5
24D
100
AcDbEntity
  8
MAIN0
  6
PHANTOM
 62
3
100
AcDbLine
 10
114.0683232808665
 20
301.4439365705159
 30
0.0000000000000000
 11
114.5683233583774
 21
300.4834453581327
 31
0.0000000000000000
  0
DIMENSION
  5
256
100
AcDbEntity
  8
MAIN0
  6
CONTINUOUS
 62
3
100
AcDbDimension
  2
*D28
 10
94.67837025271965
 20
301.4439365705160
 30
0.0000000000000000
 11
94.17837025271938
 21
253.9439365705310
 31
0.0000000000000000
 70
33
  1
\A1;\U+220595
  3
MAIN001
100
AcDbAlignedDimension
 13
114.0683232808660
 23
206.4439365705458
 33
0.0000000000000000
 14
114.0683232808665
 24
301.4439365705159
 34
0.0000000000000000
 50
89.99999999999970
1001
ACAD
1000
DSTYLE
1002
{
1070
   173
1070
     1
1070
     6
1000
_OPEN
1070
     7
1000
_OPEN
1070
    41
1040
2.000000
1002
}
  0
DIMENSION
  5
25F
100
AcDbEntity
  8
MAIN0
  6
CONTINUOUS
 62
3
100
AcDbDimension
  2
*D29
 10
114.5683238621453
 20
260.3002863847566
 30
0.0000000000000000
 11
110.0478008032835
 21
260.8002863847566
 31
0.0000000000000000
 70
160
  1
\A1;0.2
  3
MAIN001
100
AcDbAlignedDimension
 13
114.0683232808657
 23
152.4439365705306
 33
0.0000000000000000
 14
114.5683238621453
 24
224.5481671757481
 34
0.0000000000000000
100
AcDbRotatedDimension
1001
ACAD
1000
DSTYLE
1002
{
1070
   173
1070
     1
1070
     6
1000
_OPEN
1070
     7
1000
_OPEN
1070
    41
1040
2.000000
1070
   287
1070
     0
1002
}
  0
LINE
  5
260
100
AcDbEntity
  8
MAIN0
  6
PHANTOM
 62
3
100
AcDbLine
 10
115.0683232808659
 20
200.9439365705305
 30
0.0000000000000000
 11
114.0683232808659
 21
200.9439365705305
 31
0.0000000000000000
  0
LINE
  5
261
100
AcDbEntity
  8
MAIN0
  6
PHANTOM
 62
3
100
AcDbLine
 10
115.0683232808659
 20
186.9439365705305
 30
0.0000000000000000
 11
114.0683232808659
 21
186.9439365705305
 31
0.0000000000000000
  0
LINE
  5
262
100
AcDbEntity
  8
MAIN0
  6
PHANTOM
 62
3
100
AcDbLine
 10
115.0683232808659
 20
186.9439365705305
 30
0.0000000000000000
 11
115.0683232808659
 21
200.9439365705305
 31
0.0000000000000000
  0
DIMENSION
  5
26B
100
AcDbEntity
  8
MAIN0
  6
CONTINUOUS
 62
3
100
AcDbDimension
  2
*D30
 10
94.67837025271911
 20
200.9439365705305
 30
0.0000000000000000
 11
94.17837025271911
 21
193.9439365705305
 31
0.0000000000000000
 70
32
  1
\A1;\U+220514
  3
MAIN001
100
AcDbAlignedDimension
 13
114.0683232808659
 23
186.9439365705305
 33
0.0000000000000000
 14
114.0683232808659
 24
200.9439365705305
 34
0.0000000000000000
 50
90.00000000000000
100
AcDbRotatedDimension
1001
ACAD
1000
DSTYLE
1002
{
1070
   173
1070
     1
1070
     6
1000
_OPEN
1070
     7
1000
_OPEN
1070
    41
1040
2.000000
1002
}
  0
MTEXT
  5
26C
100
AcDbEntity
  8
MAIN0
  6
CONTINUOUS
 62
3
100
AcDbMText
 10
137.6266265266196
 20
379.6951913751736
 30
0.0000000000000000
 40
3.099999904632568
 41
0.0000000000000000
 71
     7
 72
     1
  1
{\H0.71x;{(PISTON ADVANCE END)}}
 11
1.000000000000000
 21
0.0000000000000000
 31
0.0000000000000000
  7
STANDARD
  0
LEADER
  5
26D
100
AcDbEntity
  8
MAIN0
  6
CONTINUOUS
 62
3
100
AcDbLeader
  3
MAIN001
 73
     0
 75
     1
 40
3.099999904632568
 41
49.83900146389010
 76
     3
 10
365.3113599516526
 20
336.2162994803946
 30
0.0000000000000000
 10
349.6284851860793
 20
354.7603698608489
 30
0.0000000000000000
 10
347.7014852418693
 20
354.7603698608489
 30
0.0000000000000000
340
26E
213
0.0000000000000000
223
-0.5000000000000000
233
0.0000000000000000
1001
ACAD
1000
DSTYLE
1002
{
1070
   147
1040
0.0
1070
    77
1070
     1
1070
   173
1070
     1
1070
     6
1000
_OPEN
1070
     7
1000
_OPEN
1002
}
  0
MTEXT
  5
26E
102
{ACAD_REACTORS
330
26D
102
}
100
AcDbEntity
  8
MAIN0
  6
CONTINUOUS
 62
3
100
AcDbMText
 10
297.8624837779792
 20
358.3603697654814
 30
0.0000000000000000
 40
3.099999904632568
 41
0.0000000000000000
 71
     1
 72
     1
  1
{\H0.94x;{6-M10貫通\P6-M10 PASS THROUGH}}
 11
1.000000000000000
 21
0.0000000000000000
 31
0.0000000000000000
  7
KNJYOKO
  0
MTEXT
  5
26F
100
AcDbEntity
  8
MAIN0
  6
CONTINUOUS
 62
3
100
AcDbMText
 10
428.1570283652993
 20
138.1974660888097
 30
0.0000000000000000
 40
3.099999904632568
 41
0.0000000000000000
 71
     7
 72
     1
  1
{\H0.91x;{PUSH}}
 11
1.000000000000000
 21
0.0000000000000000
 31
0.0000000000000000
  7
STANDARD
  0
MTEXT
  5
270
100
AcDbEntity
  8
MAIN0
  6
CONTINUOUS
 62
3
100
AcDbMText
 10
394.4730762350230
 20
137.4544429880641
 30
0.0000000000000000
 40
3.099999904632568
 41
0.0000000000000000
 71
     7
 72
     1
  1
{\H0.91x;{PULL}}
 11
1.000000000000000
 21
0.0000000000000000
 31
0.0000000000000000
  7
STANDARD
  0
LEADER
  5
271
100
AcDbEntity
  8
MAIN0
  6
CONTINUOUS
 62
3
100
AcDbLeader
  3
MAIN001
 73
     0
 75
     1
 40
3.099999904632568
 41
17.01900039815905
 76
     3
 10
416.0683232808661
 20
150.9439365705300
 30
0.0000000000000000
 10
393.9705968007784
 20
94.73504325638294
 30
0.0000000000000000
 10
392.0435968565684
 20
94.73504325638294
 30
0.0000000000000000
340
272
213
0.0000000000000000
223
-0.5000000000000000
233
0.0000000000000000
1001
ACAD
1000
DSTYLE
1002
{
1070
   147
1040
0.0
1070
    77
1070
     1
1070
   173
1070
     1
1070
     6
1000
_OPEN
1070
     7
1000
_OPEN
1002
}
  0
MTEXT
  5
272
102
{ACAD_REACTORS
330
271
102
}
100
AcDbEntity
  8
MAIN0
  6
CONTINUOUS
 62
3
100
AcDbMText
 10
375.0245964584094
 20
98.33504316101551
 30
0.0000000000000000
 40
3.099999904632568
 41
0.0000000000000000
 71
     1
 72
     1
  1
{\H0.93x;{Rc1/8\P着座確認用}}
 11
1.000000000000000
 21
0.0000000000000000
 31
0.0000000000000000
  7
KNJYOKO
  0
MTEXT
  5
273
100
AcDbEntity
  8
MAIN0
  6
CONTINUOUS
 62
3
100
AcDbMText
 10
375.0245964584093
 20
90.18235927014658
 30
0.0000000000000000
 40
2.799999952316284
 41
0.0000000000000000
 71
     1
 72
     1
  1
{\H0.67x;{FOR SEATING CONFIRMATION\P}
 11
1.000000000000000
 21
0.0000000000000000
 31
0.0000000000000000
  7
STANDARD
  0
MTEXT
  5
274
100
AcDbEntity
  8
MAIN0
  6
CONTINUOUS
 62
3
100
AcDbMText
 10
478.6621827538836
 20
117.2464641371330
 30
0.0000000000000000
 40
3.099999904632568
 41
0.0000000000000000
 71
     1
 72
     1
  1
{\H0.94x;{着座確認を行う際は、※印部のオリフィスプラグを}}
 11
1.000000000000000
 21
0.0000000000000000
 31
0.0000000000000000
  7
KNJYOKO
  0
MTEXT
  5
275
100
AcDbEntity
  8
MAIN0
  6
CONTINUOUS
 62
3
100
AcDbMText
 10
478.6621827538836
 20
112.2464641371330
 30
0.0000000000000000
 40
3.099999904632568
 41
0.0000000000000000
 71
     1
 72
     1
  1
{\H0.94x;{取外して使用してください。}}
 11
1.000000000000000
 21
0.0000000000000000
 31
0.0000000000000000
  7
KNJYOKO
  0
MTEXT
  5
276
100
AcDbEntity
  8
MAIN0
  6
CONTINUOUS
 62
3
100
AcDbMText
 10
469.6621827538836
 20
117.2464641371330
 30
0.0000000000000000
 40
3.099999904632568
 41
0.0000000000000000
 71
     1
 72
     1
  1
{\H0.67x;{1.}}
 11
1.000000000000000
 21
0.0000000000000000
 31
0.0000000000000000
  7
STANDARD
  0
MTEXT
  5
277
100
AcDbEntity
  8
MAIN0
  6
CONTINUOUS
 62
3
100
AcDbMText
 10
469.6621827538836
 20
80.62314878853559
 30
0.0000000000000000
 40
3.099999904632568
 41
0.0000000000000000
 71
     1
 72
     1
  1
{\H0.67x;{1.}}
 11
1.000000000000000
 21
0.0000000000000000
 31
0.0000000000000000
  7
STANDARD
  0
MTEXT
  5
278
100
AcDbEntity
  8
MAIN0
  6
CONTINUOUS
 62
3
100
AcDbMText
 10
478.6621827538834
 20
75.52314888390302
 30
0.0000000000000000
 40
3.000000000000000
 41
0.0000000000000000
 71
     1
 72
     1
  1
{\H0.61x;{※ MARKED ORIFICE PLUG.}}
 11
1.000000000000000
 21
0.0000000000000000
 31
0.0000000000000000
  7
KNJYOKO
  0
MTEXT
  5
279
100
AcDbEntity
  8
MAIN0
  6
CONTINUOUS
 62
3
100
AcDbMText
 10
478.6621827538834
 20
80.52314888390302
 30
0.0000000000000000
 40
3.000000000000000
 41
0.0000000000000000
 71
     1
 72
     1
  1
{\H0.62x;{IN CASE OF USING SEATING CONFIRMATION, PLEASE REMOVE}}
 11
1.000000000000000
 21
0.0000000000000000
 31
0.0000000000000000
  7
STANDARD
  0
INSERT
  5
283
100
AcDbEntity
  8
MAIN0
  6
CONTINUOUS
 62
3
100
AcDbBlockReference
  2
M0
 10
0.0000000000000000
 20
0.0000000000000000
 30
0.0000000000000000
 50
0.0000000000000000
  0
INSERT
  5
28D
100
AcDbEntity
  8
MAIN0
  6
CONTINUOUS
 62
3
100
AcDbBlockReference
  2
M1
 10
0.0000000000000000
 20
0.0000000000000000
 30
0.0000000000000000
 50
0.0000000000000000
  0
MTEXT
  5
28E
100
AcDbEntity
  8
MAIN0
  6
CONTINUOUS
 62
3
100
AcDbMText
 10
374.2191003657886
 20
104.1246002381738
 30
0.0000000000000000
 40
5.000000000000000
 41
0.0000000000000000
 71
     1
 72
     1
  1
{\H0.84x;{※}}
 11
1.000000000000000
 21
0.0000000000000000
 31
0.0000000000000000
  7
KNJYOKO
  0
INSERT
  5
29E
100
AcDbEntity
  8
MAIN0
  6
CONTINUOUS
 62
3
100
AcDbBlockReference
  2
*X0
 10
0.0000000000000000
 20
0.0000000000000000
 30
0.0000000000000000
 50
0.0000000000000000
  0
INSERT
  5
2AE
100
AcDbEntity
  8
MAIN0
  6
CONTINUOUS
 62
3
100
AcDbBlockReference
  2
*X1
 10
0.0000000000000000
 20
0.0000000000000000
 30
0.0000000000000000
 50
0.0000000000000000
  0
LINE
  5
2AF
100
AcDbEntity
  8
MAIN0
  6
PHANTOM
 62
3
100
AcDbLine
 10
117.6788232808648
 20
152.4439365705306
 30
0.0000000000000000
 11
117.8319482808650
 21
157.3439365705306
 31
0.0000000000000000
  0
LINE
  5
2B0
100
AcDbEntity
  8
MAIN0
  6
PHANTOM
 62
3
100
AcDbLine
 10
117.8319482808650
 20
157.3439365705306
 30
0.0000000000000000
 11
125.3046982808650
 21
157.3439365705304
 31
0.0000000000000000
  0
LINE
  5
2B1
100
AcDbEntity
  8
MAIN0
  6
PHANTOM
 62
3
100
AcDbLine
 10
125.3046982808650
 20
157.3439365705303
 30
0.0000000000000000
 11
125.4578232808648
 21
152.4439365705303
 31
0.0000000000000000
  0
LINE
  5
2B2
100
AcDbEntity
  8
MAIN0
  6
PHANTOM
 62
3
100
AcDbLine
 10
118.3158232808648
 20
152.4439365705306
 30
0.0000000000000000
 11
118.4689482808650
 21
157.3439365705306
 31
0.0000000000000000
  0
LINE
  5
2B3
100
AcDbEntity
  8
MAIN0
  6
PHANTOM
 62
3
100
AcDbLine
 10
124.8208232808648
 20
152.4439365705304
 30
0.0000000000000000
 11
124.6676982808650
 21
157.3439365705304
 31
0.0000000000000000
  0
LINE
  5
2B4
100
AcDbEntity
  8
MAIN0
  6
PHANTOM
 62
3
100
AcDbLine
 10
124.6683232808651
 20
160.9439365705304
 30
0.0000000000000000
 11
124.6683232808650
 21
157.3439365705304
 31
0.0000000000000000
  0
LINE
  5
2B5
100
AcDbEntity
  8
MAIN0
  6
PHANTOM
 62
3
100
AcDbLine
 10
124.6683232808655
 20
175.1939365705304
 30
0.0000000000000000
 11
124.6683232808652
 21
165.9439365705304
 31
0.0000000000000000
  0
LINE
  5
2B6
100
AcDbEntity
  8
MAIN0
  6
PHANTOM
 62
3
100
AcDbLine
 10
124.6683232808660
 20
189.8439365705306
 30
0.0000000000000000
 11
124.6683232808657
 21
180.1939365705304
 31
0.0000000000000000
  0
LINE
  5
2B7
100
AcDbEntity
  8
MAIN0
  6
PHANTOM
 62
3
100
AcDbLine
 10
118.4683232808650
 20
157.3439365705306
 30
0.0000000000000000
 11
118.4683232808660
 21
189.2018115705305
 31
0.0000000000000000
  0
LINE
  5
2B8
100
AcDbEntity
  8
MAIN0
  6
PHANTOM
 62
3
100
AcDbLine
 10
124.6683232808670
 20
220.4439365705304
 30
0.0000000000000000
 11
124.6683232808664
 21
202.0950562010537
 31
0.0000000000000000
  0
LINE
  5
2B9
100
AcDbEntity
  8
MAIN0
  6
CONTINUOUS
 62
3
100
AcDbLine
 10
124.6683232808678
 20
247.9439365705304
 30
0.0000000000000000
 11
124.6683232808669
 21
229.6183924975213
 31
0.0000000000000000
  0
LINE
  5
2BA
100
AcDbEntity
  8
MAIN0
  6
PHANTOM
 62
3
100
AcDbLine
 10
118.4683232808664
 20
203.1752646884153
 30
0.0000000000000000
 11
118.4683232808671
 21
225.4439365705304
 31
0.0000000000000000
  0
LINE
  5
2BB
100
AcDbEntity
  8
MAIN0
  6
CONTINUOUS
 62
3
100
AcDbLine
 10
118.4683232808668
 20
227.3668776489753
 30
0.0000000000000000
 11
118.4683232808680
 21
253.7085536632783
 31
0.0000000000000000
  0
LINE
  5
2BC
100
AcDbEntity
  8
MAIN0
  6
PHANTOM
 62
3
100
AcDbLine
 10
115.0864618174513
 20
198.7917447412622
 30
0.0000000000000000
 11
120.7683232808659
 21
198.6141865705305
 31
0.0000000000000000
  0
LINE
  5
2BD
100
AcDbEntity
  8
MAIN0
  6
PHANTOM
 62
3
100
AcDbLine
 10
120.7683232808659
 20
198.6141865705305
 30
0.0000000000000000
 11
120.7683232808659
 21
189.2736865705305
 31
0.0000000000000000
  0
LINE
  5
2BE
100
AcDbEntity
  8
MAIN0
  6
PHANTOM
 62
3
100
AcDbLine
 10
120.7683232808659
 20
189.2736865705305
 30
0.0000000000000000
 11
115.0683232808659
 21
189.0955615705306
 31
0.0000000000000000
  0
LINE
  5
2BF
100
AcDbEntity
  8
MAIN0
  6
PHANTOM
 62
3
100
AcDbLine
 10
115.0683232808659
 20
198.2113115705305
 30
0.0000000000000000
 11
120.7683232808659
 21
198.0331865705306
 31
0.0000000000000000
  0
LINE
  5
2C0
100
AcDbEntity
  8
MAIN0
  6
PHANTOM
 62
3
100
AcDbLine
 10
115.0683232808659
 20
189.6765615705305
 30
0.0000000000000000
 11
120.7683232808659
 21
189.8546865705305
 31
0.0000000000000000
  0
LINE
  5
2C1
100
AcDbEntity
  8
MAIN0
  6
PHANTOM
 62
3
100
AcDbLine
 10
120.7683232808659
 20
198.0439365705306
 30
0.0000000000000000
 11
131.5683232808659
 21
198.0439365705306
 31
0.0000000000000000
  0
LINE
  5
2C2
100
AcDbEntity
  8
MAIN0
  6
PHANTOM
 62
3
100
AcDbLine
 10
131.5683232808659
 20
189.8439365705306
 30
0.0000000000000000
 11
120.7683232808659
 21
189.8439365705306
 31
0.0000000000000000
  0
CIRCLE
  5
2C3
100
AcDbEntity
  8
MAIN0
  6
CONTINUOUS
 62
3
100
AcDbCircle
 10
416.0683232808660
 20
253.9439365705298
 30
0.0000000000000000
 40
8.000000000000000
  0
CIRCLE
  5
2C4
100
AcDbEntity
  8
MAIN0
  6
CONTINUOUS
 62
3
100
AcDbCircle
 10
416.0683232808660
 20
253.9439365705298
 30
0.0000000000000000
 40
7.000000000000000
  0
CIRCLE
  5
2C5
100
AcDbEntity
  8
MAIN0
  6
CONTINUOUS
 62
3
100
AcDbCircle
 10
466.6828365784314
 20
267.5060545338340
 30
0.0000000000000000
 40
5.000000000000000
  0
CIRCLE
  5
2C6
100
AcDbEntity
  8
MAIN0
  6
CONTINUOUS
 62
3
100
AcDbCircle
 10
466.6828365784314
 20
267.5060545338340
 30
0.0000000000000000
 40
4.250000000000000
  0
LINE
  5
2C7
100
AcDbEntity
  8
MAIN0
  6
PHANTOM
 62
3
100
AcDbLine
 10
412.9683232808657
 20
253.9439365705298
 30
0.0000000000000000
 11
419.1683232808665
 21
253.9439365705298
 31
0.0000000000000000
  0
LINE
  5
2C8
100
AcDbEntity
  8
MAIN0
  6
PHANTOM
 62
3
100
AcDbLine
 10
416.0683232808661
 20
255.7337224050179
 30
0.0000000000000000
 11
419.1683232808665
 21
253.9439365705299
 31
0.0000000000000000
  0
LINE
  5
2C9
100
AcDbEntity
  8
MAIN0
  6
HIDDEN
 62
3
100
AcDbLine
 10
419.1683232808665
 20
157.3439365705297
 30
0.0000000000000000
 11
419.1683232808665
 21
248.8068167549135
 31
0.0000000000000000
  0
LINE
  5
2CA
100
AcDbEntity
  8
MAIN0
  6
PHANTOM
 62
3
100
AcDbLine
 10
419.1683232808665
 20
248.8068167549135
 30
0.0000000000000000
 11
419.1683232808665
 21
253.9439365705298
 31
0.0000000000000000
  0
LINE
  5
2CB
100
AcDbEntity
  8
MAIN0
  6
CONTINUOUS
 62
3
100
AcDbLine
 10
166.1266937216488
 20
266.9439365705305
 30
0.0000000000000000
 11
179.6683232808663
 21
266.9439365705305
 31
0.0000000000000000
  0
LINE
  5
2CC
100
AcDbEntity
  8
MAIN0
  6
CONTINUOUS
 62
3
100
AcDbLine
 10
165.0683232808716
 20
266.4439365705305
 30
0.0000000000000000
 11
165.9419942763548
 21
266.8987409038019
 31
0.0000000000000000
  0
ARC
  5
2CD
100
AcDbEntity
  8
MAIN0
  6
CONTINUOUS
 62
3
100
AcDbCircle
 10
166.1266937216488
 20
266.5439365705305
 30
0.0000000000000000
 40
0.4000000000000000
100
AcDbArc
 50
90.00000000000000
 51
117.4999999999963
  0
ARC
  5
2CE
100
AcDbEntity
  8
MAIN0
  6
CONTINUOUS
 62
3
100
AcDbCircle
 10
179.6683232808663
 20
266.5439365705305
 30
0.0000000000000000
 40
0.4000000000000000
100
AcDbArc
 50
0.0000000000000000
 51
90.00000000000000
  0
LINE
  5
2CF
100
AcDbEntity
  8
MAIN0
  6
CONTINUOUS
 62
3
100
AcDbLine
 10
166.1266937216485
 20
240.9439365705296
 30
0.0000000000000000
 11
179.6683232808660
 21
240.9439365705293
 31
0.0000000000000000
  0
LINE
  5
2D0
100
AcDbEntity
  8
MAIN0
  6
CONTINUOUS
 62
3
100
AcDbLine
 10
165.0683232808713
 20
241.4439365705294
 30
0.0000000000000000
 11
165.9419942763546
 21
240.9891322372580
 31
0.0000000000000000
  0
ARC
  5
2D1
100
AcDbEntity
  8
MAIN0
  6
CONTINUOUS
 62
3
100
AcDbCircle
 10
166.1266937216485
 20
241.3439365705293
 30
0.0000000000000000
 40
0.4000000000000000
100
AcDbArc
 50
242.5000000000026
 51
269.9999999999989
  0
ARC
  5
2D2
100
AcDbEntity
  8
MAIN0
  6
CONTINUOUS
 62
3
100
AcDbCircle
 10
179.6683232808660
 20
241.3439365705293
 30
0.0000000000000000
 40
0.4000000000000000
100
AcDbArc
 50
269.9999999999989
 51
359.9999999999989
  0
LINE
  5
2D3
100
AcDbEntity
  8
MAIN0
  6
CONTINUOUS
 62
3
100
AcDbLine
 10
180.0683232808662
 20
241.3439365705293
 30
0.0000000000000000
 11
180.0683232808663
 21
266.5439365705305
 31
0.0000000000000000
  0
LINE
  5
2D4
100
AcDbEntity
  8
MAIN0
  6
CONTINUOUS
 62
3
100
AcDbLine
 10
165.0683232808662
 20
241.4439365705305
 30
0.0000000000000000
 11
165.0683232808662
 21
244.5383893173474
 31
0.0000000000000000
  0
LINE
  5
2D5
100
AcDbEntity
  8
MAIN0
  6
CONTINUOUS
 62
3
100
AcDbLine
 10
165.0683232808663
 20
262.8233954111330
 30
0.0000000000000000
 11
165.0683232808663
 21
266.4439365705305
 31
0.0000000000000000
  0
LINE
  5
2D6
100
AcDbEntity
  8
MAIN0
  6
CONTINUOUS
 62
3
100
AcDbLine
 10
193.0683232808661
 20
273.3665863015106
 30
0.0000000000000000
 11
193.0683232808661
 21
269.9439365705297
 31
0.0000000000000000
  0
LINE
  5
2D7
100
AcDbEntity
  8
MAIN0
  6
CONTINUOUS
 62
3
100
AcDbLine
 10
193.0683232808661
 20
269.9439365705297
 30
0.0000000000000000
 11
194.0683232808661
 21
268.9439365705297
 31
0.0000000000000000
  0
LINE
  5
2D8
100
AcDbEntity
  8
MAIN0
  6
CONTINUOUS
 62
3
100
AcDbLine
 10
193.0683232808657
 20
234.5212868395489
 30
0.0000000000000000
 11
193.0683232808659
 21
243.6439365705293
 31
0.0000000000000000
  0
LINE
  5
2D9
100
AcDbEntity
  8
MAIN0
  6
PHANTOM
 62
3
100
AcDbLine
 10
177.0683232811612
 20
273.9439365705296
 30
0.0000000000000000
 11
178.0683232808660
 21
273.3665863015106
 31
0.0000000000000000
  0
LINE
  5
2DA
100
AcDbEntity
  8
MAIN0
  6
PHANTOM
 62
3
100
AcDbLine
 10
178.0683232808661
 20
269.9439365705297
 30
0.0000000000000000
 11
179.0683232808661
 21
268.9439365705297
 31
0.0000000000000000
  0
LINE
  5
2DB
100
AcDbEntity
  8
MAIN0
  6
PHANTOM
 62
3
100
AcDbLine
 10
178.0683232808661
 20
273.3665863015106
 30
0.0000000000000000
 11
178.0683232808661
 21
269.9439365705297
 31
0.0000000000000000
  0
LINE
  5
2DC
100
AcDbEntity
  8
MAIN0
  6
PHANTOM
 62
3
100
AcDbLine
 10
179.0683232808661
 20
268.9439365705297
 30
0.0000000000000000
 11
179.0683232808661
 21
266.8028262742393
 31
0.0000000000000000
  0
LINE
  5
2DD
100
AcDbEntity
  8
MAIN0
  6
CONTINUOUS
 62
3
100
AcDbLine
 10
181.2683232808662
 20
260.9439365705297
 30
0.0000000000000000
 11
180.0683232808663
 21
262.1439365705297
 31
0.0000000000000000
  0
LINE
  5
2DE
100
AcDbEntity
  8
MAIN0
  6
CONTINUOUS
 62
3
100
AcDbLine
 10
181.2683232808662
 20
246.9439365705297
 30
0.0000000000000000
 11
180.0683232808662
 21
245.7439365705297
 31
0.0000000000000000
  0
LINE
  5
2DF
100
AcDbEntity
  8
MAIN0
  6
CONTINUOUS
 62
3
100
AcDbLine
 10
193.8683232808661
 20
245.9439365705297
 30
0.0000000000000000
 11
180.2683232808662
 21
245.9439365705297
 31
0.0000000000000000
  0
LINE
  5
2E0
100
AcDbEntity
  8
MAIN0
  6
CONTINUOUS
 62
3
100
AcDbLine
 10
193.8683232808661
 20
261.9439365705297
 30
0.0000000000000000
 11
180.2683232808662
 21
261.9439365705297
 31
0.0000000000000000
  0
LINE
  5
2E1
100
AcDbEntity
  8
MAIN0
  6
CONTINUOUS
 62
3
100
AcDbLine
 10
181.2683232808662
 20
260.9439365705297
 30
0.0000000000000000
 11
192.8683232809130
 21
260.9439365705297
 31
0.0000000000000000
  0
LINE
  5
2E2
100
AcDbEntity
  8
MAIN0
  6
CONTINUOUS
 62
3
100
AcDbLine
 10
192.8683232809129
 20
246.9439365705297
 30
0.0000000000000000
 11
181.2683232808662
 21
246.9439365705297
 31
0.0000000000000000
  0
LINE
  5
2E3
100
AcDbEntity
  8
MAIN0
  6
CENTER
 62
3
100
AcDbLine
 10
178.4296097442941
 20
242.4439365705300
 30
0.0000000000000000
 11
196.1203596994460
 21
242.4439365705298
 31
0.0000000000000000
  0
LINE
  5
2E4
100
AcDbEntity
  8
MAIN0
  6
CONTINUOUS
 62
3
100
AcDbLine
 10
193.0683232808659
 20
243.6439365705293
 30
0.0000000000000000
 11
194.0683232808661
 21
243.6439365705293
 31
0.0000000000000000
  0
LINE
  5
2E5
100
AcDbEntity
  8
MAIN0
  6
CONTINUOUS
 62
3
100
AcDbLine
 10
381.3532787333106
 20
349.3227375802995
 30
0.0000000000000000
 11
382.7652369097938
 21
345.4434143731977
 31
0.0000000000000000
  0
LINE
  5
2E6
100
AcDbEntity
  8
MAIN0
  6
CONTINUOUS
 62
3
100
AcDbLine
 10
454.0908925125812
 20
348.0530978090588
 30
0.0000000000000000
 11
452.5444080353951
 21
344.2254144105633
 31
0.0000000000000000
  0
ARC
  5
2E7
100
AcDbEntity
  8
MAIN0
  6
CONTINUOUS
 62
3
100
AcDbCircle
 10
416.0683232808660
 20
253.9439365705298
 30
0.0000000000000000
 40
92.50000000000000
100
AcDbArc
 50
70.93953448643434
 51
107.0604655135657
  0
ARC
  5
2E8
100
AcDbEntity
  8
MAIN0
  6
CONTINUOUS
 62
3
100
AcDbCircle
 10
387.4637000137234
 20
347.1535150898260
 30
0.0000000000000000
 40
5.000000000000000
100
AcDbArc
 50
199.9999999999998
 51
287.0604655135659
  0
ARC
  5
2E9
100
AcDbEntity
  8
MAIN0
  6
CONTINUOUS
 62
3
100
AcDbCircle
 10
447.9084887625611
 20
346.0984473776427
 30
0.0000000000000000
 40
5.000000000000000
100
AcDbArc
 50
250.9395344864343
 51
338.0000000000000
  0
MTEXT
  5
2EA
100
AcDbEntity
  8
MAIN0
  6
CONTINUOUS
 62
3
100
AcDbMText
 10
384.3570852916919
 20
347.9051569053428
 30
0.0000000000000000
 40
3.000000000000000
 41
0.0000000000000000
 71
     1
 72
     1
  1
{\H0.93x;{KITAGAWA}}
 11
0.9762960071199334
 21
0.2164396139381029
 31
0.0000000000000000
  7
STANDARD
  0
MTEXT
  5
2EB
100
AcDbEntity
  8
MAIN0
  6
CONTINUOUS
 62
3
100
AcDbMText
 10
410.8946223618113
 20
352.7017808835179
 30
0.0000000000000000
 40
3.000000000000000
 41
0.0000000000000000
 71
     1
 72
     1
  1
{\H0.92x;{YS1415K}}
 11
0.9998476951563913
 21
-0.01745240643728356
 31
0.0000000000000000
  7
STANDARD
  0
LINE
  5
2EC
100
AcDbEntity
  8
MAIN0
  6
PHANTOM
 62
3
100
AcDbLine
 10
447.4083341996729
 20
344.4032944653365
 30
0.0000000000000000
 11
432.7638940928739
 21
347.6498886744079
 31
0.0000000000000000
  0
LINE
  5
2ED
100
AcDbEntity
  8
MAIN0
  6
PHANTOM
 62
3
100
AcDbLine
 10
432.7638940928739
 20
347.6498886744078
 30
0.0000000000000000
 11
433.8460921625645
 21
352.5313687100074
 31
0.0000000000000000
  0
LINE
  5
2EE
100
AcDbEntity
  8
MAIN0
  6
PHANTOM
 62
3
100
AcDbLine
 10
448.4905322693635
 20
349.2847745009361
 30
0.0000000000000000
 11
433.8460921625645
 21
352.5313687100075
 31
0.0000000000000000
  0
LINE
  5
2EF
100
AcDbEntity
  8
MAIN0
  6
PHANTOM
 62
3
100
AcDbLine
 10
447.4083341996728
 20
344.4032944653368
 30
0.0000000000000000
 11
448.4905322693634
 21
349.2847745009365
 31
0.0000000000000000
  0
LINE
  5
2F0
100
AcDbEntity
  8
MAIN0
  6
HIDDEN
 62
3
100
AcDbLine
 10
129.0683232808667
 20
340.1439365705305
 30
0.0000000000000000
 11
128.2683232808667
 21
340.9439365705305
 31
0.0000000000000000
  0
LINE
  5
2F1
100
AcDbEntity
  8
MAIN0
  6
HIDDEN
 62
3
100
AcDbLine
 10
128.2683232808667
 20
340.9439365705305
 30
0.0000000000000000
 11
114.8683232808668
 21
340.9439365705305
 31
0.0000000000000000
  0
LINE
  5
2F2
100
AcDbEntity
  8
MAIN0
  6
HIDDEN
 62
3
100
AcDbLine
 10
114.8683232808668
 20
340.9439365705305
 30
0.0000000000000000
 11
114.0683232808668
 21
340.1439365705305
 31
0.0000000000000000
  0
LINE
  5
2F3
100
AcDbEntity
  8
MAIN0
  6
HIDDEN
 62
3
100
AcDbLine
 10
129.0683232808667
 20
352.7439365705305
 30
0.0000000000000000
 11
128.2683232808667
 21
351.9439365705305
 31
0.0000000000000000
  0
LINE
  5
2F4
100
AcDbEntity
  8
MAIN0
  6
HIDDEN
 62
3
100
AcDbLine
 10
128.2683232808667
 20
351.9439365705305
 30
0.0000000000000000
 11
114.8683232808668
 21
351.9439365705305
 31
0.0000000000000000
  0
LINE
  5
2F5
100
AcDbEntity
  8
MAIN0
  6
HIDDEN
 62
3
100
AcDbLine
 10
114.8683232808668
 20
351.9439365705305
 30
0.0000000000000000
 11
114.0683232808668
 21
352.7439365705305
 31
0.0000000000000000
  0
LINE
  5
2F6
100
AcDbEntity
  8
MAIN0
  6
CONTINUOUS
 62
3
100
AcDbLine
 10
193.0166605531416
 20
35.98239155205127
 30
0.0000000000000000
 11
193.0166605531416
 21
93.98239155205124
 31
0.0000000000000000
  0
LINE
  5
2F7
100
AcDbEntity
  8
MAIN0
  6
CONTINUOUS
 62
3
100
AcDbLine
 10
240.0166605531023
 20
35.98239155205127
 30
0.0000000000000000
 11
240.0166605530491
 21
83.98239155205124
 31
0.0000000000000000
  0
LINE
  5
2F8
100
AcDbEntity
  8
MAIN0
  6
CONTINUOUS
 62
3
100
AcDbLine
 10
270.0166605531939
 20
93.98239155205124
 30
0.0000000000000000
 11
193.0166605531416
 21
93.98239155205124
 31
0.0000000000000000
  0
LINE
  5
2F9
100
AcDbEntity
  8
MAIN0
  6
CONTINUOUS
 62
3
100
AcDbLine
 10
270.0166605531822
 20
83.98239155205124
 30
0.0000000000000000
 11
193.0166605531416
 21
83.98239155205124
 31
0.0000000000000000
  0
LINE
  5
2FA
100
AcDbEntity
  8
MAIN0
  6
CONTINUOUS
 62
3
100
AcDbLine
 10
270.0166605531589
 20
67.98239155192007
 30
0.0000000000000000
 11
193.0166605531416
 21
67.98239155205124
 31
0.0000000000000000
  0
LINE
  5
2FB
100
AcDbEntity
  8
MAIN0
  6
CONTINUOUS
 62
3
100
AcDbLine
 10
270.0166605531423
 20
59.98239155205124
 30
0.0000000000000000
 11
193.0166605531416
 21
59.98239155205124
 31
0.0000000000000000
  0
LINE
  5
2FC
100
AcDbEntity
  8
MAIN0
  6
CONTINUOUS
 62
3
100
AcDbLine
 10
270.0166605531140
 20
43.98239155205124
 30
0.0000000000000000
 11
193.0166605531416
 21
43.98239155205124
 31
0.0000000000000000
  0
LINE
  5
2FD
100
AcDbEntity
  8
MAIN0
  6
CONTINUOUS
 62
3
100
AcDbLine
 10
270.0166605531023
 20
35.98239155205124
 30
0.0000000000000000
 11
193.0166605531416
 21
35.98239155205124
 31
0.0000000000000000
  0
LINE
  5
2FE
100
AcDbEntity
  8
MAIN0
  6
CONTINUOUS
 62
3
100
AcDbLine
 10
270.0166605531589
 20
67.98239155235387
 30
0.0000000000000000
 11
347.0166605532215
 21
67.98239155235387
 31
0.0000000000000000
  0
LINE
  5
2FF
100
AcDbEntity
  8
MAIN0
  6
CONTINUOUS
 62
3
100
AcDbLine
 10
347.0166605532290
 20
43.98239155205124
 30
0.0000000000000000
 11
270.0166605531140
 21
43.98239155205124
 31
0.0000000000000000
  0
LINE
  5
300
100
AcDbEntity
  8
MAIN0
  6
CONTINUOUS
 62
3
100
AcDbLine
 10
347.0166605532290
 20
43.98239155205124
 30
0.0000000000000000
 11
347.0166605532215
 21
67.98239155235385
 31
0.0000000000000000
  0
LINE
  5
301
100
AcDbEntity
  8
MAIN0
  6
CONTINUOUS
 62
3
100
AcDbLine
 10
317.0166605532290
 20
43.98239155205124
 30
0.0000000000000000
 11
317.0166605531991
 21
67.98239155235387
 31
0.0000000000000000
  0
LINE
  5
302
100
AcDbEntity
  8
MAIN0
  6
CONTINUOUS
 62
3
100
AcDbLine
 10
270.0166605531422
 20
59.98239155205124
 30
0.0000000000000000
 11
347.0166605532243
 21
59.98239155205124
 31
0.0000000000000000
  0
LINE
  5
303
100
AcDbEntity
  8
MAIN0
  6
CONTINUOUS
 62
3
100
AcDbLine
 10
270.0166605531705
 20
75.98239155205124
 30
0.0000000000000000
 11
193.0166605531416
 21
75.98239155205124
 31
0.0000000000000000
  0
MTEXT
  5
304
100
AcDbEntity
  8
MAIN0
  6
CONTINUOUS
 62
3
100
AcDbMText
 10
195.0166605530734
 20
40.48239155205124
 30
0.0000000000000000
 40
3.000000000000000
 41
0.0000000000000000
 71
     7
 72
     1
  1
{\H0.63x;{MASS}}
 11
1.000000000000000
 21
0.0000000000000000
 31
0.0000000000000000
  7
STANDARD
  0
MTEXT
  5
305
100
AcDbEntity
  8
MAIN0
  6
CONTINUOUS
 62
3
100
AcDbMText
 10
195.0166605531416
 20
36.48239155205124
 30
0.0000000000000000
 40
3.000000000000000
 41
0.0000000000000000
 71
     7
 72
     1
  1
{\H0.59x;{質量\P}
 11
1.000000000000000
 21
0.0000000000000000
 31
0.0000000000000000
  7
KNJYOKO
  0
MTEXT
  5
306
100
AcDbEntity
  8
MAIN0
  6
CONTINUOUS
 62
3
100
AcDbMText
 10
213.9271382990652
 20
89.52664421902716
 30
0.0000000000000000
 40
3.099999904632568
 41
0.0000000000000000
 71
     7
 72
     1
  1
{\H0.93x;{SPECIFICATIONS}}
 11
1.000000000000000
 21
0.0000000000000000
 31
0.0000000000000000
  7
STANDARD
  0
MTEXT
  5
307
100
AcDbEntity
  8
MAIN0
  6
CONTINUOUS
 62
3
100
AcDbMText
 10
221.6546363374957
 20
84.96039840911595
 30
0.0000000000000000
 40
3.099999904632568
 41
0.0000000000000000
 71
     7
 72
     1
  1
{\H0.93x;{仕　　　　様}}
 11
1.000000000000000
 21
0.0000000000000000
 31
0.0000000000000000
  7
KNJYOKO
  0
MTEXT
  5
308
100
AcDbEntity
  8
MAIN0
  6
CONTINUOUS
 62
3
100
AcDbMText
 10
195.0166605531416
 20
80.48239155205124
 30
0.0000000000000000
 40
2.500000000000000
 41
0.0000000000000000
 71
     7
 72
     1
  1
{\H0.63x;{PISTON DIA}}
 11
1.000000000000000
 21
0.0000000000000000
 31
0.0000000000000000
  7
STANDARD
  0
LINE
  5
309
100
AcDbEntity
  8
MAIN0
  6
HIDDEN
 62
3
100
AcDbLine
 10
270.0166605531423
 20
51.98239155205124
 30
0.0000000000000000
 11
240.0166605530845
 21
51.98239155205124
 31
0.0000000000000000
  0
LINE
  5
30A
100
AcDbEntity
  8
MAIN0
  6
HIDDEN
 62
3
100
AcDbLine
 10
317.0166605532190
 20
51.98239155191763
 30
0.0000000000000000
 11
347.0166605532945
 21
51.98239155183234
 31
0.0000000000000000
  0
MTEXT
  5
30B
100
AcDbEntity
  8
MAIN0
  6
CONTINUOUS
 62
3
100
AcDbMText
 10
195.0166605531416
 20
76.48239155205124
 30
0.0000000000000000
 40
3.000000000000000
 41
0.0000000000000000
 71
     7
 72
     1
  1
{\H0.59x;{シリンダ内径}}
 11
1.000000000000000
 21
0.0000000000000000
 31
0.0000000000000000
  7
KNJYOKO
  0
MTEXT
  5
30C
100
AcDbEntity
  8
MAIN0
  6
CONTINUOUS
 62
3
100
AcDbMText
 10
195.0166605531416
 20
72.48239155205124
 30
0.0000000000000000
 40
2.500000000000000
 41
0.0000000000000000
 71
     7
 72
     1
  1
{\H0.63x;{PLUNGER STROKE}}
 11
1.000000000000000
 21
0.0000000000000000
 31
0.0000000000000000
  7
STANDARD
  0
MTEXT
  5
30D
100
AcDbEntity
  8
MAIN0
  6
CONTINUOUS
 62
3
100
AcDbMText
 10
195.0166605531416
 20
68.48239155205124
 30
0.0000000000000000
 40
3.000000000000000
 41
0.0000000000000000
 71
     7
 72
     1
  1
{\H0.59x;{プランジャストロ－ク}}
 11
1.000000000000000
 21
0.0000000000000000
 31
0.0000000000000000
  7
KNJYOKO
  0
MTEXT
  5
30E
100
AcDbEntity
  8
MAIN0
  6
CONTINUOUS
 62
3
100
AcDbMText
 10
272.0166605531589
 20
64.48239155235387
 30
0.0000000000000000
 40
2.500000000000000
 41
0.0000000000000000
 71
     7
 72
     1
  1
{\H0.63x;{MAX PERMISSIBLE OIL PRESS}}
 11
1.000000000000000
 21
0.0000000000000000
 31
0.0000000000000000
  7
STANDARD
  0
MTEXT
  5
30F
100
AcDbEntity
  8
MAIN0
  6
CONTINUOUS
 62
3
100
AcDbMText
 10
272.0166605531422
 20
60.48239155205124
 30
0.0000000000000000
 40
3.000000000000000
 41
0.0000000000000000
 71
     7
 72
     1
  1
{\H0.59x;{許容最大油圧力}}
 11
1.000000000000000
 21
0.0000000000000000
 31
0.0000000000000000
  7
KNJYOKO
  0
MTEXT
  5
310
100
AcDbEntity
  8
MAIN0
  6
CONTINUOUS
 62
3
100
AcDbMText
 10
195.0166605531338
 20
64.48239155205124
 30
0.0000000000000000
 40
2.500000000000000
 41
0.0000000000000000
 71
     7
 72
     1
  1
{\H0.63x;{MAX PERMISSIBLE AIR PRESS}}
 11
1.000000000000000
 21
0.0000000000000000
 31
0.0000000000000000
  7
STANDARD
  0
MTEXT
  5
311
100
AcDbEntity
  8
MAIN0
  6
CONTINUOUS
 62
3
100
AcDbMText
 10
195.0166605531416
 20
60.48239155205124
 30
0.0000000000000000
 40
3.000000000000000
 41
0.0000000000000000
 71
     7
 72
     1
  1
{\H0.59x;{許容最大エア圧力}}
 11
1.000000000000000
 21
0.0000000000000000
 31
0.0000000000000000
  7
KNJYOKO
  0
MTEXT
  5
312
100
AcDbEntity
  8
MAIN0
  6
CONTINUOUS
 62
3
100
AcDbMText
 10
195.0166605531416
 20
56.48239155205124
 30
0.0000000000000000
 40
2.500000000000000
 41
0.0000000000000000
 71
     7
 72
     1
  1
{\H0.63x;{MAX PERMISSIBLE INPUT FORCE}}
 11
1.000000000000000
 21
0.0000000000000000
 31
0.0000000000000000
  7
STANDARD
  0
MTEXT
  5
313
100
AcDbEntity
  8
MAIN0
  6
CONTINUOUS
 62
3
100
AcDbMText
 10
195.0166605531416
 20
52.48239155205124
 30
0.0000000000000000
 40
3.000000000000000
 41
0.0000000000000000
 71
     7
 72
     1
  1
{\H0.59x;{許容最大入力　}}
 11
1.000000000000000
 21
0.0000000000000000
 31
0.0000000000000000
  7
KNJYOKO
  0
MTEXT
  5
314
100
AcDbEntity
  8
MAIN0
  6
CONTINUOUS
 62
3
100
AcDbMText
 10
272.0166605531276
 20
56.48239155205124
 30
0.0000000000000000
 40
2.500000000000000
 41
0.0000000000000000
 71
     7
 72
     1
  1
{\H0.63x;{MAX PERMISSIBLE INPUT FORCE}}
 11
1.000000000000000
 21
0.0000000000000000
 31
0.0000000000000000
  7
STANDARD
  0
MTEXT
  5
315
100
AcDbEntity
  8
MAIN0
  6
CONTINUOUS
 62
3
100
AcDbMText
 10
272.0166605531423
 20
52.48239155205124
 30
0.0000000000000000
 40
3.000000000000000
 41
0.0000000000000000
 71
     7
 72
     1
  1
{\H0.59x;{許容最大入力　}}
 11
1.000000000000000
 21
0.0000000000000000
 31
0.0000000000000000
  7
KNJYOKO
  0
MTEXT
  5
316
100
AcDbEntity
  8
MAIN0
  6
CONTINUOUS
 62
3
100
AcDbMText
 10
195.0166605531416
 20
48.48239155205124
 30
0.0000000000000000
 40
3.000000000000000
 41
0.0000000000000000
 71
     7
 72
     1
  1
{\H0.60x;{(AT 0.6Mpa) }}
 11
1.000000000000000
 21
0.0000000000000000
 31
0.0000000000000000
  7
STANDARD
  0
MTEXT
  5
317
100
AcDbEntity
  8
MAIN0
  6
CONTINUOUS
 62
3
100
AcDbMText
 10
195.0166605531416
 20
44.48239155205124
 30
0.0000000000000000
 40
3.000000000000000
 41
0.0000000000000000
 71
     7
 72
     1
  1
{\H0.59x;{(エア圧　0.6MPa)}}
 11
1.000000000000000
 21
0.0000000000000000
 31
0.0000000000000000
  7
KNJYOKO
  0
MTEXT
  5
318
100
AcDbEntity
  8
MAIN0
  6
CONTINUOUS
 62
3
100
AcDbMText
 10
272.0166605531015
 20
48.48239155205124
 30
0.0000000000000000
 40
3.000000000000000
 41
0.0000000000000000
 71
     7
 72
     1
  1
{\H0.60x;{(AT 1.5MPa)}}
 11
1.000000000000000
 21
0.0000000000000000
 31
0.0000000000000000
  7
STANDARD
  0
MTEXT
  5
319
100
AcDbEntity
  8
MAIN0
  6
CONTINUOUS
 62
3
100
AcDbMText
 10
272.0166605531140
 20
44.48239155205124
 30
0.0000000000000000
 40
3.000000000000000
 41
0.0000000000000000
 71
     7
 72
     1
  1
{\H0.59x;{(油圧 1.5MPa)}}
 11
1.000000000000000
 21
0.0000000000000000
 31
0.0000000000000000
  7
KNJYOKO
  0
MTEXT
  5
31A
100
AcDbEntity
  8
MAIN0
  6
CONTINUOUS
 62
3
100
AcDbMText
 10
247.0166605530552
 20
78.48239155205124
 30
0.0000000000000000
 40
3.099999904632568
 41
0.0000000000000000
 71
     7
 72
     1
  1
{\H0.90x;{140}}
 11
1.000000000000000
 21
0.0000000000000000
 31
0.0000000000000000
  7
STANDARD
  0
MTEXT
  5
31B
100
AcDbEntity
  8
MAIN0
  6
CONTINUOUS
 62
3
100
AcDbMText
 10
263.0166605531695
 20
78.48239155218241
 30
0.0000000000000000
 40
3.099999904632568
 41
0.0000000000000000
 71
     7
 72
     1
  1
{\H0.69x;{ｍｍ}}
 11
1.000000000000000
 21
0.0000000000000000
 31
0.0000000000000000
  7
KNJYOKO
  0
MTEXT
  5
31C
100
AcDbEntity
  8
MAIN0
  6
CONTINUOUS
 62
3
100
AcDbMText
 10
247.0166605530640
 20
70.48239155197115
 30
0.0000000000000000
 40
3.099999904632568
 41
0.0000000000000000
 71
     7
 72
     1
  1
{\H0.88x;{15}}
 11
1.000000000000000
 21
0.0000000000000000
 31
0.0000000000000000
  7
STANDARD
  0
MTEXT
  5
31D
100
AcDbEntity
  8
MAIN0
  6
CONTINUOUS
 62
3
100
AcDbMText
 10
263.0166605531578
 20
70.48239155218241
 30
0.0000000000000000
 40
3.099999904632568
 41
0.0000000000000000
 71
     7
 72
     1
  1
{\H0.69x;{ｍｍ}}
 11
1.000000000000000
 21
0.0000000000000000
 31
0.0000000000000000
  7
KNJYOKO
  0
MTEXT
  5
31E
100
AcDbEntity
  8
MAIN0
  6
CONTINUOUS
 62
3
100
AcDbMText
 10
247.0166605530729
 20
62.48239155205124
 30
0.0000000000000000
 40
3.099999904632568
 41
0.0000000000000000
 71
     7
 72
     1
  1
{\H0.76x;{0.7}}
 11
1.000000000000000
 21
0.0000000000000000
 31
0.0000000000000000
  7
STANDARD
  0
MTEXT
  5
31F
100
AcDbEntity
  8
MAIN0
  6
CONTINUOUS
 62
3
100
AcDbMText
 10
263.0166605531462
 20
62.48239155248504
 30
0.0000000000000000
 40
3.099999904632568
 41
0.0000000000000000
 71
     7
 72
     1
  1
{\H0.70x;{MPa}}
 11
1.000000000000000
 21
0.0000000000000000
 31
0.0000000000000000
  7
STANDARD
  0
MTEXT
  5
320
100
AcDbEntity
  8
MAIN0
  6
CONTINUOUS
 62
3
100
AcDbMText
 10
241.0166605530846
 20
52.48239155205124
 30
0.0000000000000000
 40
3.000000000000000
 41
0.0000000000000000
 71
     7
 72
     1
  1
{\H0.59x;{押}}
 11
1.000000000000000
 21
0.0000000000000000
 31
0.0000000000000000
  7
KNJYOKO
  0
MTEXT
  5
321
100
AcDbEntity
  8
MAIN0
  6
CONTINUOUS
 62
3
100
AcDbMText
 10
241.0166605530934
 20
44.48239155205124
 30
0.0000000000000000
 40
3.000000000000000
 41
0.0000000000000000
 71
     7
 72
     1
  1
{\H0.59x;{引}}
 11
1.000000000000000
 21
0.0000000000000000
 31
0.0000000000000000
  7
KNJYOKO
  0
MTEXT
  5
322
100
AcDbEntity
  8
MAIN0
  6
CONTINUOUS
 62
3
100
AcDbMText
 10
241.0166605530801
 20
56.48239155205124
 30
0.0000000000000000
 40
2.500000000000000
 41
0.0000000000000000
 71
     7
 72
     1
  1
{\H0.63x;{PUSH}}
 11
1.000000000000000
 21
0.0000000000000000
 31
0.0000000000000000
  7
STANDARD
  0
MTEXT
  5
323
100
AcDbEntity
  8
MAIN0
  6
CONTINUOUS
 62
3
100
AcDbMText
 10
241.0166605530890
 20
48.48239155205124
 30
0.0000000000000000
 40
2.500000000000000
 41
0.0000000000000000
 71
     7
 72
     1
  1
{\H0.63x;{PULL}}
 11
1.000000000000000
 21
0.0000000000000000
 31
0.0000000000000000
  7
STANDARD
  0
MTEXT
  5
324
100
AcDbEntity
  8
MAIN0
  6
CONTINUOUS
 62
3
100
AcDbMText
 10
247.0166605530995
 20
38.48239155205127
 30
0.0000000000000000
 40
3.099999904632568
 41
0.0000000000000000
 71
     7
 72
     1
  1
{\H0.88x;{15}}
 11
1.000000000000000
 21
0.0000000000000000
 31
0.0000000000000000
  7
STANDARD
  0
MTEXT
  5
325
100
AcDbEntity
  8
MAIN0
  6
CONTINUOUS
 62
3
100
AcDbMText
 10
263.0166605531063
 20
38.48239155205124
 30
0.0000000000000000
 40
3.099999904632568
 41
0.0000000000000000
 71
     7
 72
     1
  1
{\H0.69x;{ｋｇ}}
 11
1.000000000000000
 21
0.0000000000000000
 31
0.0000000000000000
  7
KNJYOKO
  0
MTEXT
  5
326
100
AcDbEntity
  8
MAIN0
  6
CONTINUOUS
 62
3
100
AcDbMText
 10
249.9074344346315
 20
54.48239155205121
 30
0.0000000000000000
 40
3.099999904632568
 41
0.0000000000000000
 71
     7
 72
     1
  1
{\H0.76x;{8.5}}
 11
1.000000000000000
 21
0.0000000000000000
 31
0.0000000000000000
  7
STANDARD
  0
MTEXT
  5
327
100
AcDbEntity
  8
MAIN0
  6
CONTINUOUS
 62
3
100
AcDbMText
 10
249.9074344346270
 20
46.48239155205124
 30
0.0000000000000000
 40
3.099999904632568
 41
0.0000000000000000
 71
     7
 72
     1
  1
{\H0.76x;{8.1}}
 11
1.000000000000000
 21
0.0000000000000000
 31
0.0000000000000000
  7
STANDARD
  0
MTEXT
  5
328
100
AcDbEntity
  8
MAIN0
  6
CONTINUOUS
 62
3
100
AcDbMText
 10
263.0166605531462
 20
54.48239155205124
 30
0.0000000000000000
 40
3.099999904632568
 41
0.0000000000000000
 71
     7
 72
     1
  1
{\H0.69x;{ｋＮ}}
 11
1.000000000000000
 21
0.0000000000000000
 31
0.0000000000000000
  7
KNJYOKO
  0
MTEXT
  5
329
100
AcDbEntity
  8
MAIN0
  6
CONTINUOUS
 62
3
100
AcDbMText
 10
263.0166605531179
 20
46.48239155205124
 30
0.0000000000000000
 40
3.099999904632568
 41
0.0000000000000000
 71
     7
 72
     1
  1
{\H0.69x;{ＫＮ}}
 11
1.000000000000000
 21
0.0000000000000000
 31
0.0000000000000000
  7
KNJYOKO
  0
MTEXT
  5
32A
100
AcDbEntity
  8
MAIN0
  6
CONTINUOUS
 62
3
100
AcDbMText
 10
326.9074344347660
 20
54.48239155191760
 30
0.0000000000000000
 40
3.099999904632568
 41
0.0000000000000000
 71
     7
 72
     1
  1
{\H0.81x;{20.8}}
 11
1.000000000000000
 21
0.0000000000000000
 31
0.0000000000000000
  7
STANDARD
  0
MTEXT
  5
32B
100
AcDbEntity
  8
MAIN0
  6
CONTINUOUS
 62
3
100
AcDbMText
 10
326.9074344347615
 20
46.48239155191763
 30
0.0000000000000000
 40
3.099999904632568
 41
0.0000000000000000
 71
     7
 72
     1
  1
{\H0.81x;{20.1}}
 11
1.000000000000000
 21
0.0000000000000000
 31
0.0000000000000000
  7
STANDARD
  0
MTEXT
  5
32C
100
AcDbEntity
  8
MAIN0
  6
CONTINUOUS
 62
3
100
AcDbMText
 10
324.0166605532063
 20
62.48239155205124
 30
0.0000000000000000
 40
3.099999904632568
 41
0.0000000000000000
 71
     7
 72
     1
  1
{\H0.76x;{1.5}}
 11
1.000000000000000
 21
0.0000000000000000
 31
0.0000000000000000
  7
STANDARD
  0
MTEXT
  5
32D
100
AcDbEntity
  8
MAIN0
  6
CONTINUOUS
 62
3
100
AcDbMText
 10
318.0166605532146
 20
56.48239155191763
 30
0.0000000000000000
 40
2.500000000000000
 41
0.0000000000000000
 71
     7
 72
     1
  1
{\H0.63x;{PUSH}}
 11
1.000000000000000
 21
0.0000000000000000
 31
0.0000000000000000
  7
STANDARD
  0
MTEXT
  5
32E
100
AcDbEntity
  8
MAIN0
  6
CONTINUOUS
 62
3
100
AcDbMText
 10
318.0166605532190
 20
52.48239155191763
 30
0.0000000000000000
 40
3.000000000000000
 41
0.0000000000000000
 71
     7
 72
     1
  1
{\H0.59x;{押}}
 11
1.000000000000000
 21
0.0000000000000000
 31
0.0000000000000000
  7
KNJYOKO
  0
MTEXT
  5
32F
100
AcDbEntity
  8
MAIN0
  6
CONTINUOUS
 62
3
100
AcDbMText
 10
318.0166605532235
 20
48.48239155191763
 30
0.0000000000000000
 40
2.500000000000000
 41
0.0000000000000000
 71
     7
 72
     1
  1
{\H0.63x;{PULL}}
 11
1.000000000000000
 21
0.0000000000000000
 31
0.0000000000000000
  7
STANDARD
  0
MTEXT
  5
330
100
AcDbEntity
  8
MAIN0
  6
CONTINUOUS
 62
3
100
AcDbMText
 10
318.0166605532279
 20
44.48239155191763
 30
0.0000000000000000
 40
3.000000000000000
 41
0.0000000000000000
 71
     7
 72
     1
  1
{\H0.59x;{引}}
 11
1.000000000000000
 21
0.0000000000000000
 31
0.0000000000000000
  7
KNJYOKO
  0
MTEXT
  5
331
100
AcDbEntity
  8
MAIN0
  6
CONTINUOUS
 62
3
100
AcDbMText
 10
340.0166605532795
 20
62.48239155248504
 30
0.0000000000000000
 40
3.099999904632568
 41
0.0000000000000000
 71
     7
 72
     1
  1
{\H0.70x;{MPa}}
 11
1.000000000000000
 21
0.0000000000000000
 31
0.0000000000000000
  7
STANDARD
  0
MTEXT
  5
332
100
AcDbEntity
  8
MAIN0
  6
CONTINUOUS
 62
3
100
AcDbMText
 10
340.0166605532806
 20
54.48239155191763
 30
0.0000000000000000
 40
3.099999904632568
 41
0.0000000000000000
 71
     7
 72
     1
  1
{\H0.69x;{ｋＮ}}
 11
1.000000000000000
 21
0.0000000000000000
 31
0.0000000000000000
  7
KNJYOKO
  0
MTEXT
  5
333
100
AcDbEntity
  8
MAIN0
  6
CONTINUOUS
 62
3
100
AcDbMText
 10
340.0166605532523
 20
46.48239155191763
 30
0.0000000000000000
 40
3.099999904632568
 41
0.0000000000000000
 71
     7
 72
     1
  1
{\H0.69x;{ＫＮ}}
 11
1.000000000000000
 21
0.0000000000000000
 31
0.0000000000000000
  7
KNJYOKO
  0
LINE
  5
334
100
AcDbEntity
  8
MAIN0
  6
CONTINUOUS
 62
3
100
AcDbLine
 10
270.0166605531023
 20
35.98239155205127
 30
0.0000000000000000
 11
270.0166605531149
 21
43.98239155205124
 31
0.0000000000000000
  0
LINE
  5
335
100
AcDbEntity
  8
MAIN0
  6
HIDDEN
 62
3
100
AcDbLine
 10
270.0166605531149
 20
43.98239155205124
 30
0.0000000000000000
 11
270.0166605531528
 21
67.98239155235387
 31
0.0000000000000000
  0
LINE
  5
336
100
AcDbEntity
  8
MAIN0
  6
CONTINUOUS
 62
3
100
AcDbLine
 10
270.0166605531528
 20
67.98239155235387
 30
0.0000000000000000
 11
270.0166605531939
 21
93.98239155205124
 31
0.0000000000000000
  0
LINE
  5
337
100
AcDbEntity
  8
MAIN0
  6
CENTER
 62
3
100
AcDbLine
 10
381.8724442791420
 20
163.4439365705300
 30
0.0000000000000000
 11
449.5431498045168
 21
163.4439365705300
 31
0.0000000000000000
  0
LINE
  5
338
100
AcDbEntity
  8
MAIN0
  6
CONTINUOUS
 62
3
100
AcDbLine
 10
376.0683232809028
 20
170.9439365705300
 30
0.0000000000000000
 11
456.0683232809028
 21
170.9439365705300
 31
0.0000000000000000
  0
LINE
  5
339
100
AcDbEntity
  8
MAIN0
  6
CONTINUOUS
 62
3
100
AcDbLine
 10
376.0683232809095
 20
150.9439365705300
 30
0.0000000000000000
 11
456.0683232809095
 21
150.9439365705300
 31
0.0000000000000000
  0
LINE
  5
33A
100
AcDbEntity
  8
MAIN0
  6
CONTINUOUS
 62
3
100
AcDbLine
 10
456.0683232809093
 20
150.9439365705299
 30
0.0000000000000000
 11
456.0683232809026
 21
170.9439365705299
 31
0.0000000000000000
  0
CIRCLE
  5
33B
100
AcDbEntity
  8
MAIN0
  6
CONTINUOUS
 62
3
100
AcDbCircle
 10
405.0683232808661
 20
163.4439365705300
 30
0.0000000000000000
 40
5.500000000000000
  0
LINE
  5
33C
100
AcDbEntity
  8
MAIN0
  6
CENTER
 62
3
100
AcDbLine
 10
405.0683232808661
 20
170.9439365705300
 30
0.0000000000000000
 11
405.0683232808661
 21
155.9439365705300
 31
0.0000000000000000
  0
LINE
  5
33D
100
AcDbEntity
  8
MAIN0
  6
PHANTOM
 62
3
100
AcDbLine
 10
385.9898232808661
 20
150.9439365705300
 30
0.0000000000000000
 11
386.2835732808660
 21
160.3439365705300
 31
0.0000000000000000
  0
LINE
  5
33E
100
AcDbEntity
  8
MAIN0
  6
PHANTOM
 62
3
100
AcDbLine
 10
386.2835732808661
 20
160.3439365705300
 30
0.0000000000000000
 11
398.8530732808661
 21
160.3439365705300
 31
0.0000000000000000
  0
LINE
  5
33F
100
AcDbEntity
  8
MAIN0
  6
PHANTOM
 62
3
100
AcDbLine
 10
398.8530732808661
 20
160.3439365705299
 30
0.0000000000000000
 11
399.1468232808661
 21
150.9439365705299
 31
0.0000000000000000
  0
LINE
  5
340
100
AcDbEntity
  8
MAIN0
  6
PHANTOM
 62
3
100
AcDbLine
 10
386.8458232808659
 20
150.9439365705300
 30
0.0000000000000000
 11
387.1395732808660
 21
160.3439365705300
 31
0.0000000000000000
  0
LINE
  5
341
100
AcDbEntity
  8
MAIN0
  6
PHANTOM
 62
3
100
AcDbLine
 10
398.2908232808661
 20
150.9439365705299
 30
0.0000000000000000
 11
397.9970732808661
 21
160.3439365705299
 31
0.0000000000000000
  0
LINE
  5
342
100
AcDbEntity
  8
MAIN0
  6
PHANTOM
 62
3
100
AcDbLine
 10
387.1683232808661
 20
160.3439365705300
 30
0.0000000000000000
 11
387.1683232808661
 21
165.9439365705300
 31
0.0000000000000000
  0
LINE
  5
343
100
AcDbEntity
  8
MAIN0
  6
PHANTOM
 62
3
100
AcDbLine
 10
387.1683232808661
 20
165.9439365705300
 30
0.0000000000000000
 11
397.9683232808661
 21
165.9439365705300
 31
0.0000000000000000
  0
LINE
  5
344
100
AcDbEntity
  8
MAIN0
  6
PHANTOM
 62
3
100
AcDbLine
 10
397.9683232808661
 20
165.9439365705300
 30
0.0000000000000000
 11
397.9683232808661
 21
160.3439365705300
 31
0.0000000000000000
  0
LINE
  5
345
100
AcDbEntity
  8
MAIN0
  6
PHANTOM
 62
3
100
AcDbLine
 10
387.1683232808662
 20
165.9439365705300
 30
0.0000000000000000
 11
392.5683232808661
 21
169.0616280241540
 31
0.0000000000000000
  0
LINE
  5
346
100
AcDbEntity
  8
MAIN0
  6
PHANTOM
 62
3
100
AcDbLine
 10
392.5683232808661
 20
169.0616280241539
 30
0.0000000000000000
 11
397.9683232808661
 21
165.9439365705299
 31
0.0000000000000000
  0
CIRCLE
  5
347
100
AcDbEntity
  8
MAIN0
  6
CONTINUOUS
 62
3
100
AcDbCircle
 10
427.0683232808661
 20
163.4439365705300
 30
0.0000000000000000
 40
5.500000000000000
  0
LINE
  5
348
100
AcDbEntity
  8
MAIN0
  6
CENTER
 62
3
100
AcDbLine
 10
427.0683232808660
 20
170.9439365705300
 30
0.0000000000000000
 11
427.0683232808660
 21
155.9439365705300
 31
0.0000000000000000
  0
LINE
  5
349
100
AcDbEntity
  8
MAIN0
  6
PHANTOM
 62
3
100
AcDbLine
 10
446.1468232808660
 20
150.9439365705299
 30
0.0000000000000000
 11
445.8530732808659
 21
160.3439365705299
 31
0.0000000000000000
  0
LINE
  5
34A
100
AcDbEntity
  8
MAIN0
  6
PHANTOM
 62
3
100
AcDbLine
 10
445.8530732808659
 20
160.3439365705300
 30
0.0000000000000000
 11
433.2835732808660
 21
160.3439365705300
 31
0.0000000000000000
  0
LINE
  5
34B
100
AcDbEntity
  8
MAIN0
  6
PHANTOM
 62
3
100
AcDbLine
 10
433.2835732808661
 20
160.3439365705299
 30
0.0000000000000000
 11
432.9898232808661
 21
150.9439365705299
 31
0.0000000000000000
  0
LINE
  5
34C
100
AcDbEntity
  8
MAIN0
  6
PHANTOM
 62
3
100
AcDbLine
 10
445.2908232808660
 20
150.9439365705298
 30
0.0000000000000000
 11
444.9970732808661
 21
160.3439365705299
 31
0.0000000000000000
  0
LINE
  5
34D
100
AcDbEntity
  8
MAIN0
  6
PHANTOM
 62
3
100
AcDbLine
 10
433.8458232808661
 20
150.9439365705299
 30
0.0000000000000000
 11
434.1395732808661
 21
160.3439365705299
 31
0.0000000000000000
  0
LINE
  5
34E
100
AcDbEntity
  8
MAIN0
  6
PHANTOM
 62
3
100
AcDbLine
 10
444.9683232808660
 20
160.3439365705300
 30
0.0000000000000000
 11
444.9683232808660
 21
165.9439365705300
 31
0.0000000000000000
  0
LINE
  5
34F
100
AcDbEntity
  8
MAIN0
  6
PHANTOM
 62
3
100
AcDbLine
 10
444.9683232808660
 20
165.9439365705300
 30
0.0000000000000000
 11
434.1683232808661
 21
165.9439365705300
 31
0.0000000000000000
  0
LINE
  5
350
100
AcDbEntity
  8
MAIN0
  6
PHANTOM
 62
3
100
AcDbLine
 10
434.1683232808661
 20
165.9439365705300
 30
0.0000000000000000
 11
434.1683232808661
 21
160.3439365705300
 31
0.0000000000000000
  0
LINE
  5
351
100
AcDbEntity
  8
MAIN0
  6
PHANTOM
 62
3
100
AcDbLine
 10
444.9683232808662
 20
165.9439365705300
 30
0.0000000000000000
 11
439.5683232808660
 21
169.0616280241540
 31
0.0000000000000000
  0
LINE
  5
352
100
AcDbEntity
  8
MAIN0
  6
PHANTOM
 62
3
100
AcDbLine
 10
439.5683232808661
 20
169.0616280241540
 30
0.0000000000000000
 11
434.1683232808662
 21
165.9439365705300
 31
0.0000000000000000
  0
LINE
  5
353
100
AcDbEntity
  8
MAIN0
  6
PHANTOM
 62
3
100
AcDbLine
 10
411.2043232808660
 20
150.9439365705300
 30
0.0000000000000000
 11
411.3980732808660
 21
157.1439365705300
 31
0.0000000000000000
  0
LINE
  5
354
100
AcDbEntity
  8
MAIN0
  6
PHANTOM
 62
3
100
AcDbLine
 10
420.7385732808660
 20
157.1439365705299
 30
0.0000000000000000
 11
420.9323232808661
 21
150.9439365705300
 31
0.0000000000000000
  0
LINE
  5
355
100
AcDbEntity
  8
MAIN0
  6
PHANTOM
 62
3
100
AcDbLine
 10
411.7853232808659
 20
150.9439365705299
 30
0.0000000000000000
 11
411.9790732808659
 21
157.1439365705299
 31
0.0000000000000000
  0
LINE
  5
356
100
AcDbEntity
  8
MAIN0
  6
PHANTOM
 62
3
100
AcDbLine
 10
420.3513232808660
 20
150.9439365705300
 30
0.0000000000000000
 11
420.1575732808660
 21
157.1439365705299
 31
0.0000000000000000
  0
LINE
  5
357
100
AcDbEntity
  8
MAIN0
  6
PHANTOM
 62
3
100
AcDbLine
 10
411.9683232808661
 20
157.1439365705300
 30
0.0000000000000000
 11
411.9683232808661
 21
165.9439365705300
 31
0.0000000000000000
  0
LINE
  5
358
100
AcDbEntity
  8
MAIN0
  6
PHANTOM
 62
3
100
AcDbLine
 10
411.9683232808661
 20
165.9439365705300
 30
0.0000000000000000
 11
420.1683232808661
 21
165.9439365705300
 31
0.0000000000000000
  0
LINE
  5
359
100
AcDbEntity
  8
MAIN0
  6
PHANTOM
 62
3
100
AcDbLine
 10
420.1683232808661
 20
165.9439365705300
 30
0.0000000000000000
 11
420.1683232808661
 21
157.1439365705300
 31
0.0000000000000000
  0
LINE
  5
35A
100
AcDbEntity
  8
MAIN0
  6
PHANTOM
 62
3
100
AcDbLine
 10
411.9683232808660
 20
165.9439365705300
 30
0.0000000000000000
 11
416.0683232808660
 21
168.3110726742074
 31
0.0000000000000000
  0
LINE
  5
35B
100
AcDbEntity
  8
MAIN0
  6
PHANTOM
 62
3
100
AcDbLine
 10
416.0683232808660
 20
168.3110726742075
 30
0.0000000000000000
 11
420.1683232808661
 21
165.9439365705300
 31
0.0000000000000000
  0
LINE
  5
35C
100
AcDbEntity
  8
MAIN0
  6
CONTINUOUS
 62
3
100
AcDbLine
 10
376.0683232809095
 20
150.9439365705299
 30
0.0000000000000000
 11
376.0683232809028
 21
170.9439365705299
 31
0.0000000000000000
  0
CIRCLE
  5
35D
100
AcDbEntity
  8
MAIN0
  6
CONTINUOUS
 62
3
100
AcDbCircle
 10
405.0683232808661
 20
163.4439365705300
 30
0.0000000000000000
 40
5.000000000000000
  0
LINE
  5
35E
100
AcDbEntity
  8
MAIN0
  6
CONTINUOUS
 62
3
100
AcDbLine
 10
405.0683232808661
 20
166.3306879164780
 30
0.0000000000000000
 11
402.5683232808661
 21
164.8873122435039
 31
0.0000000000000000
  0
LINE
  5
35F
100
AcDbEntity
  8
MAIN0
  6
CONTINUOUS
 62
3
100
AcDbLine
 10
402.5683232808661
 20
164.8873122435040
 30
0.0000000000000000
 11
402.5683232808661
 21
162.0005608975559
 31
0.0000000000000000
  0
LINE
  5
360
100
AcDbEntity
  8
MAIN0
  6
CONTINUOUS
 62
3
100
AcDbLine
 10
402.5683232808661
 20
162.0005608975559
 30
0.0000000000000000
 11
405.0683232808661
 21
160.5571852245819
 31
0.0000000000000000
  0
LINE
  5
361
100
AcDbEntity
  8
MAIN0
  6
CONTINUOUS
 62
3
100
AcDbLine
 10
405.0683232808661
 20
160.5571852245818
 30
0.0000000000000000
 11
407.5683232808661
 21
162.0005608975559
 31
0.0000000000000000
  0
LINE
  5
362
100
AcDbEntity
  8
MAIN0
  6
CONTINUOUS
 62
3
100
AcDbLine
 10
407.5683232808661
 20
162.0005608975559
 30
0.0000000000000000
 11
407.5683232808661
 21
164.8873122435040
 31
0.0000000000000000
  0
LINE
  5
363
100
AcDbEntity
  8
MAIN0
  6
CONTINUOUS
 62
3
100
AcDbLine
 10
407.5683232808661
 20
164.8873122435040
 30
0.0000000000000000
 11
405.0683232808661
 21
166.3306879164780
 31
0.0000000000000000
  0
CIRCLE
  5
364
100
AcDbEntity
  8
MAIN0
  6
CONTINUOUS
 62
3
100
AcDbCircle
 10
427.0683232808660
 20
163.4439365705300
 30
0.0000000000000000
 40
5.000000000000000
  0
LINE
  5
365
100
AcDbEntity
  8
MAIN0
  6
CONTINUOUS
 62
3
100
AcDbLine
 10
427.0683232808660
 20
166.3306879164780
 30
0.0000000000000000
 11
424.5683232808660
 21
164.8873122435040
 31
0.0000000000000000
  0
LINE
  5
366
100
AcDbEntity
  8
MAIN0
  6
CONTINUOUS
 62
3
100
AcDbLine
 10
424.5683232808660
 20
164.8873122435040
 30
0.0000000000000000
 11
424.5683232808660
 21
162.0005608975559
 31
0.0000000000000000
  0
LINE
  5
367
100
AcDbEntity
  8
MAIN0
  6
CONTINUOUS
 62
3
100
AcDbLine
 10
424.5683232808660
 20
162.0005608975559
 30
0.0000000000000000
 11
427.0683232808660
 21
160.5571852245818
 31
0.0000000000000000
  0
LINE
  5
368
100
AcDbEntity
  8
MAIN0
  6
CONTINUOUS
 62
3
100
AcDbLine
 10
427.0683232808660
 20
160.5571852245818
 30
0.0000000000000000
 11
429.5683232808660
 21
162.0005608975558
 31
0.0000000000000000
  0
LINE
  5
369
100
AcDbEntity
  8
MAIN0
  6
CONTINUOUS
 62
3
100
AcDbLine
 10
429.5683232808660
 20
162.0005608975559
 30
0.0000000000000000
 11
429.5683232808660
 21
164.8873122435040
 31
0.0000000000000000
  0
LINE
  5
36A
100
AcDbEntity
  8
MAIN0
  6
CONTINUOUS
 62
3
100
AcDbLine
 10
429.5683232808660
 20
164.8873122435040
 30
0.0000000000000000
 11
427.0683232808660
 21
166.3306879164781
 31
0.0000000000000000
  0
LINE
  5
36B
100
AcDbEntity
  8
MAIN0
  6
PHANTOM
 62
3
100
AcDbLine
 10
447.5683232808663
 20
150.9439365705303
 30
0.0000000000000000
 11
447.5683232808663
 21
149.9439365705303
 31
0.0000000000000000
  0
LINE
  5
36C
100
AcDbEntity
  8
MAIN0
  6
PHANTOM
 62
3
100
AcDbLine
 10
444.4675672016230
 20
154.2530823420793
 30
0.0000000000000000
 11
444.4675672016230
 21
149.9439365705303
 31
0.0000000000000000
  0
ARC
  5
36D
100
AcDbEntity
  8
MAIN0
  6
PHANTOM
 62
3
100
AcDbCircle
 10
443.4675672016230
 20
154.2530823420792
 30
0.0000000000000000
 40
1.000000000000000
100
AcDbArc
 50
3.663998993045972e-012
 51
90.00000000057453
  0
LINE
  5
36E
100
AcDbEntity
  8
MAIN0
  6
PHANTOM
 62
3
100
AcDbLine
 10
443.4675672016230
 20
155.2530823420792
 30
0.0000000000000000
 11
439.5683232808663
 21
155.2530823420792
 31
0.0000000000000000
  0
LINE
  5
36F
100
AcDbEntity
  8
MAIN0
  6
PHANTOM
 62
3
100
AcDbLine
 10
434.6690793601094
 20
154.2530823420793
 30
0.0000000000000000
 11
434.6690793601094
 21
149.9439365705303
 31
0.0000000000000000
  0
LINE
  5
370
100
AcDbEntity
  8
MAIN0
  6
PHANTOM
 62
3
100
AcDbLine
 10
431.5683232808661
 20
150.9439365705303
 30
0.0000000000000000
 11
431.5683232808661
 21
149.9439365705303
 31
0.0000000000000000
  0
LINE
  5
371
100
AcDbEntity
  8
MAIN0
  6
PHANTOM
 62
3
100
AcDbLine
 10
435.6690793601094
 20
155.2530823420793
 30
0.0000000000000000
 11
439.5683232808661
 21
155.2530823420793
 31
0.0000000000000000
  0
ARC
  5
372
100
AcDbEntity
  8
MAIN0
  6
PHANTOM
 62
3
100
AcDbCircle
 10
435.6690793601094
 20
154.2530823420792
 30
0.0000000000000000
 40
1.000000000000000
100
AcDbArc
 50
89.99999999942543
 51
179.9999999999963
  0
LINE
  5
373
100
AcDbEntity
  8
MAIN0
  6
PHANTOM
 62
3
100
AcDbLine
 10
439.5683232808661
 20
155.9439365705302
 30
0.0000000000000000
 11
434.0020732808663
 21
155.9439365705302
 31
0.0000000000000000
  0
LINE
  5
374
100
AcDbEntity
  8
MAIN0
  6
PHANTOM
 62
3
100
AcDbLine
 10
439.5683232808663
 20
155.9439365705302
 30
0.0000000000000000
 11
445.1345732808660
 21
155.9439365705302
 31
0.0000000000000000
  0
LINE
  5
375
100
AcDbEntity
  8
MAIN0
  6
PHANTOM
 62
3
100
AcDbLine
 10
400.5683232808661
 20
150.9439365705302
 30
0.0000000000000000
 11
400.5683232808661
 21
149.9439365705303
 31
0.0000000000000000
  0
LINE
  5
376
100
AcDbEntity
  8
MAIN0
  6
PHANTOM
 62
3
100
AcDbLine
 10
397.4675672016228
 20
154.2530823420792
 30
0.0000000000000000
 11
397.4675672016228
 21
149.9439365705303
 31
0.0000000000000000
  0
LINE
  5
377
100
AcDbEntity
  8
MAIN0
  6
PHANTOM
 62
3
100
AcDbLine
 10
396.4675672016228
 20
155.2530823420792
 30
0.0000000000000000
 11
392.5683232808661
 21
155.2530823420792
 31
0.0000000000000000
  0
ARC
  5
378
100
AcDbEntity
  8
MAIN0
  6
PHANTOM
 62
3
100
AcDbCircle
 10
396.4675672016228
 20
154.2530823420792
 30
0.0000000000000000
 40
1.000000000000000
100
AcDbArc
 50
3.740332305401095e-012
 51
90.00000000057460
  0
LINE
  5
379
100
AcDbEntity
  8
MAIN0
  6
PHANTOM
 62
3
100
AcDbLine
 10
388.6690793601094
 20
155.2530823420792
 30
0.0000000000000000
 11
392.5683232808661
 21
155.2530823420792
 31
0.0000000000000000
  0
ARC
  5
37A
100
AcDbEntity
  8
MAIN0
  6
PHANTOM
 62
3
100
AcDbCircle
 10
388.6690793601094
 20
154.2530823420792
 30
0.0000000000000000
 40
1.000000000000000
100
AcDbArc
 50
89.99999999942553
 51
179.9999999999964
  0
LINE
  5
37B
100
AcDbEntity
  8
MAIN0
  6
PHANTOM
 62
3
100
AcDbLine
 10
387.6690793601094
 20
154.2530823420792
 30
0.0000000000000000
 11
387.6690793601094
 21
149.9439365705303
 31
0.0000000000000000
  0
LINE
  5
37C
100
AcDbEntity
  8
MAIN0
  6
PHANTOM
 62
3
100
AcDbLine
 10
384.5683232808661
 20
150.9439365705302
 30
0.0000000000000000
 11
384.5683232808661
 21
149.9439365705303
 31
0.0000000000000000
  0
LINE
  5
37D
100
AcDbEntity
  8
MAIN0
  6
PHANTOM
 62
3
100
AcDbLine
 10
392.5683232808663
 20
155.9439365705302
 30
0.0000000000000000
 11
398.1345732808660
 21
155.9439365705302
 31
0.0000000000000000
  0
LINE
  5
37E
100
AcDbEntity
  8
MAIN0
  6
PHANTOM
 62
3
100
AcDbLine
 10
392.5683232808661
 20
155.9439365705302
 30
0.0000000000000000
 11
387.0020732808663
 21
155.9439365705302
 31
0.0000000000000000
  0
LINE
  5
37F
100
AcDbEntity
  8
MAIN0
  6
PHANTOM
 62
3
100
AcDbLine
 10
384.5683232808660
 20
149.9439365705302
 30
0.0000000000000000
 11
400.5683232808663
 21
149.9439365705303
 31
0.0000000000000000
  0
LINE
  5
380
100
AcDbEntity
  8
MAIN0
  6
PHANTOM
 62
3
100
AcDbLine
 10
431.5683232808661
 20
149.9439365705303
 30
0.0000000000000000
 11
447.5683232808663
 21
149.9439365705303
 31
0.0000000000000000
  0
LINE
  5
381
100
AcDbEntity
  8
MAIN0
  6
PHANTOM
 62
3
100
AcDbLine
 10
411.3980732808661
 20
157.1439365705300
 30
0.0000000000000000
 11
420.7385732808660
 21
157.1439365705300
 31
0.0000000000000000
  0
ARC
  5
382
100
AcDbEntity
  8
MAIN0
  6
CENTER
 62
3
100
AcDbCircle
 10
416.0683232808661
 20
253.9439365705299
 30
0.0000000000000000
 40
92.50000000000000
100
AcDbArc
 50
292.4004883948562
 51
607.5518120962815
  0
LINE
  5
383
100
AcDbEntity
  8
MAIN0
  6
CENTER
 62
3
100
AcDbLine
 10
537.3427823083304
 20
253.9439365705287
 30
0.0000000000000000
 11
303.9163218836401
 21
253.9439365705310
 31
0.0000000000000000
  0
CIRCLE
  5
384
100
AcDbEntity
  8
MAIN0
  6
CONTINUOUS
 62
3
100
AcDbCircle
 10
481.4757005406470
 20
319.3513138302602
 30
0.0000000000000000
 40
5.500000000000000
  0
LINE
  5
385
100
AcDbEntity
  8
MAIN0
  6
CENTER
 62
3
100
AcDbLine
 10
364.1794455918898
 20
164.0697640654967
 30
0.0000000000000000
 11
374.0607463244676
 21
181.1846789791889
 31
0.0000000000000000
  0
LINE
  5
386
100
AcDbEntity
  8
MAIN0
  6
CENTER
 62
3
100
AcDbLine
 10
455.2916461245868
 20
321.8807245775303
 30
0.0000000000000000
 11
468.0457733904577
 21
343.9715210082182
 31
0.0000000000000000
  0
LINE
  5
387
100
AcDbEntity
  8
MAIN0
  6
CENTER
 62
3
100
AcDbLine
 10
356.7726250312633
 20
313.2396348201787
 30
0.0000000000000000
 11
343.6256145489950
 21
326.3866453024571
 31
0.0000000000000000
  0
CIRCLE
  5
388
100
AcDbEntity
  8
MAIN0
  6
CONTINUOUS
 62
3
100
AcDbCircle
 10
350.6609460211358
 20
319.3513138303108
 30
0.0000000000000000
 40
5.500000000000000
  0
LINE
  5
389
100
AcDbEntity
  8
MAIN0
  6
CENTER
 62
3
100
AcDbLine
 10
356.7726250312172
 20
194.6482383209271
 30
0.0000000000000000
 11
343.6256145489389
 21
181.5012278386589
 31
0.0000000000000000
  0
CIRCLE
  5
38A
100
AcDbEntity
  8
MAIN0
  6
CONTINUOUS
 62
3
100
AcDbCircle
 10
350.6609460210851
 20
188.5365593107996
 30
0.0000000000000000
 40
5.500000000000000
  0
LINE
  5
38B
100
AcDbEntity
  8
MAIN0
  6
CENTER
 62
3
100
AcDbLine
 10
475.3640215304689
 20
194.6482383208810
 30
0.0000000000000000
 11
488.5110320127370
 21
181.5012278386027
 31
0.0000000000000000
  0
CIRCLE
  5
38C
100
AcDbEntity
  8
MAIN0
  6
CONTINUOUS
 62
3
100
AcDbCircle
 10
481.4757005405965
 20
188.5365593107489
 30
0.0000000000000000
 40
5.500000000000000
  0
LINE
  5
38D
100
AcDbEntity
  8
MAIN0
  6
CENTER
 62
3
100
AcDbLine
 10
467.9572009698416
 20
164.0697640654962
 30
0.0000000000000000
 11
458.0759002372638
 21
181.1846789791885
 31
0.0000000000000000
  0
CIRCLE
  5
38E
100
AcDbEntity
  8
MAIN0
  6
CONTINUOUS
 62
3
100
AcDbCircle
 10
462.3183232808657
 20
173.8365867204690
 30
0.0000000000000000
 40
5.000000000000000
  0
LINE
  5
38F
100
AcDbEntity
  8
MAIN0
  6
CENTER
 62
3
100
AcDbLine
 10
374.2605761152084
 20
326.3570788114436
 30
0.0000000000000000
 11
364.0908731712752
 21
343.9715210082186
 31
0.0000000000000000
  0
CIRCLE
  5
390
100
AcDbEntity
  8
MAIN0
  6
CONTINUOUS
 62
3
100
AcDbCircle
 10
369.8183232808665
 20
334.0512864205906
 30
0.0000000000000000
 40
5.000000000000000
  0
CIRCLE
  5
391
100
AcDbEntity
  8
MAIN0
  6
CONTINUOUS
 62
3
100
AcDbCircle
 10
369.8183232808665
 20
334.0512864205906
 30
0.0000000000000000
 40
4.250000000000000
  0
CIRCLE
  5
392
100
AcDbEntity
  8
MAIN0
  6
CONTINUOUS
 62
3
100
AcDbCircle
 10
462.3183232808657
 20
173.8365867204690
 30
0.0000000000000000
 40
4.250000000000000
  0
CIRCLE
  5
393
100
AcDbEntity
  8
MAIN0
  6
CONTINUOUS
 62
3
100
AcDbCircle
 10
508.5683232808660
 20
253.9439365705293
 30
0.0000000000000000
 40
5.000000000000000
  0
CIRCLE
  5
394
100
AcDbEntity
  8
MAIN0
  6
CONTINUOUS
 62
3
100
AcDbCircle
 10
323.5683232808661
 20
253.9439365705302
 30
0.0000000000000000
 40
5.000000000000000
  0
CIRCLE
  5
395
100
AcDbEntity
  8
MAIN0
  6
CONTINUOUS
 62
3
100
AcDbCircle
 10
323.5683232808661
 20
253.9439365705302
 30
0.0000000000000000
 40
4.250000000000000
  0
CIRCLE
  5
396
100
AcDbEntity
  8
MAIN0
  6
CONTINUOUS
 62
3
100
AcDbCircle
 10
508.5683232808660
 20
253.9439365705293
 30
0.0000000000000000
 40
4.250000000000000
  0
CIRCLE
  5
397
100
AcDbEntity
  8
MAIN0
  6
PHANTOM
 62
3
100
AcDbCircle
 10
392.5683232808660
 20
163.4439365705301
 30
0.0000000000000000
 40
2.500000000000000
  0
CIRCLE
  5
398
100
AcDbEntity
  8
MAIN0
  6
PHANTOM
 62
3
100
AcDbCircle
 10
392.5683232808660
 20
163.4439365705301
 30
0.0000000000000000
 40
5.000000000000000
  0
ARC
  5
399
100
AcDbEntity
  8
MAIN0
  6
CONTINUOUS
 62
3
100
AcDbCircle
 10
416.0683232808661
 20
253.9439365705299
 30
0.0000000000000000
 40
101.5000000000000
100
AcDbArc
 50
293.2091488561420
 51
606.7908511438412
  0
ARC
  5
39A
100
AcDbEntity
  8
MAIN0
  6
HIDDEN
 62
3
100
AcDbCircle
 10
416.0683232808661
 20
253.9439365705299
 30
0.0000000000000000
 40
101.5000000000000
100
AcDbArc
 50
246.7908511438478
 51
293.2091488561487
  0
MTEXT
  5
39B
100
AcDbEntity
  8
MAIN0
  6
CONTINUOUS
 62
3
100
AcDbMText
 10
431.2319902118394
 20
147.2432704370039
 30
0.0000000000000000
 40
5.000000000000000
 41
0.0000000000000000
 71
     1
 72
     1
  1
{\H0.84x;{押}}
 11
1.000000000000000
 21
0.0000000000000000
 31
0.0000000000000000
  7
KNJYOKO
  0
MTEXT
  5
39C
100
AcDbEntity
  8
MAIN0
  6
CONTINUOUS
 62
3
100
AcDbMText
 10
396.3276028779699
 20
147.3756059215360
 30
0.0000000000000000
 40
5.000000000000000
 41
0.0000000000000000
 71
     1
 72
     1
  1
{\H0.84x;{引}}
 11
1.000000000000000
 21
0.0000000000000000
 31
0.0000000000000000
  7
KNJYOKO
  0
LINE
  5
39D
100
AcDbEntity
  8
MAIN0
  6
PHANTOM
 62
3
100
AcDbLine
 10
376.0683232808663
 20
115.9439365705302
 30
0.0000000000000000
 11
376.0683232808661
 21
150.9439365705302
 31
0.0000000000000000
  0
CIRCLE
  5
39E
100
AcDbEntity
  8
MAIN0
  6
CONTINUOUS
 62
3
100
AcDbCircle
 10
416.0683232808661
 20
253.9439365705299
 30
0.0000000000000000
 40
82.50000000000000
  0
LEADER
  5
39F
100
AcDbEntity
  8
MAIN0
  6
CONTINUOUS
 62
3
100
AcDbLeader
  3
MAIN001
 73
     0
 74
     0
 75
     1
 40
3.099999904632568
 41
14.26100040769575
 76
     3
 10
482.8608288296258
 20
324.6740405396706
 30
0.0000000000000000
 10
501.7363234135160
 20
363.4030336710509
 30
0.0000000000000000
 10
503.6613233577260
 20
363.4030336710509
 30
0.0000000000000000
340
3A0
213
0.0000000000000000
223
-0.5000000000000000
233
0.0000000000000000
1001
ACAD
1000
DSTYLE
1002
{
1070
   147
1040
0.0
1070
    77
1070
     1
1070
   173
1070
     1
1070
     6
1000
_OPEN
1070
     7
1000
_OPEN
1002
}
  0
MTEXT
  5
3A0
102
{ACAD_REACTORS
330
39F
102
}
100
AcDbEntity
  8
MAIN0
  6
CONTINUOUS
 62
3
100
AcDbMText
 10
503.6623233577260
 20
363.9030336710509
 30
0.0000000000000000
 40
3.099999904632568
 41
0.0000000000000000
 71
     7
 72
     1
  1
{\H0.92x;{4-\U+220511}}
 11
1.000000000000000
 21
0.0000000000000000
 31
0.0000000000000000
  7
STANDARD
  0
LEADER
  5
3A1
100
AcDbEntity
  8
MAIN0
  6
CONTINUOUS
 62
3
100
AcDbLeader
  3
MAIN001
 73
     0
 75
     1
 40
3.099999904632568
 41
19.14900057220461
 76
     3
 10
386.1115094978768
 20
154.8378955148709
 30
0.0000000000000000
 10
368.6017350799755
 20
129.9812683052773
 30
0.0000000000000000
 10
366.6747351357655
 20
129.9812683052773
 30
0.0000000000000000
340
3A2
213
0.0000000000000000
223
-0.5000000000000000
233
0.0000000000000000
1001
ACAD
1000
DSTYLE
1002
{
1070
   147
1040
0.0
1070
    77
1070
     1
1070
   173
1070
     1
1070
     6
1000
_OPEN
1070
     7
1000
_OPEN
1002
}
  0
MTEXT
  5
3A2
102
{ACAD_REACTORS
330
3A1
102
}
100
AcDbEntity
  8
MAIN0
  6
CONTINUOUS
 62
3
100
AcDbMText
 10
347.5257345635608
 20
130.4812683052773
 30
0.0000000000000000
 40
3.099999904632568
 41
0.0000000000000000
 71
     7
 72
     1
  1
{\H0.92x;{2-Rc1/4}}
 11
1.000000000000000
 21
0.0000000000000000
 31
0.0000000000000000
  7
STANDARD
  0
DIMENSION
  5
3AB
100
AcDbEntity
  8
MAIN0
  6
CONTINUOUS
 62
3
100
AcDbDimension
  2
*D31
 10
392.5683232808661
 20
118.9391142842939
 30
0.0000000000000000
 11
416.0683232808661
 21
119.4391142842939
 31
0.0000000000000000
 70
32
  3
MAIN001
100
AcDbAlignedDimension
 13
439.5683232808663
 23
144.9507676876575
 33
0.0000000000000000
 14
392.5683232808661
 24
144.9507676876575
 34
0.0000000000000000
100
AcDbRotatedDimension
1001
ACAD
1000
DSTYLE
1002
{
1070
   173
1070
     1
1070
     6
1000
_OPEN
1070
     7
1000
_OPEN
1070
    41
1040
2.000000
1002
}
  0
DIMENSION
  5
3B4
100
AcDbEntity
  8
MAIN0
  6
CONTINUOUS
 62
3
100
AcDbDimension
  2
*D32
 10
376.0683232808663
 20
108.1742919154333
 30
0.0000000000000000
 11
416.0683232808663
 21
108.6742919154333
 31
0.0000000000000000
 70
32
  3
MAIN001
100
AcDbAlignedDimension
 13
456.0683232808663
 23
150.9439365705295
 33
0.0000000000000000
 14
376.0683232808661
 24
150.9439365705294
 34
0.0000000000000000
100
AcDbRotatedDimension
1001
ACAD
1000
DSTYLE
1002
{
1070
   173
1070
     1
1070
     6
1000
_OPEN
1070
     7
1000
_OPEN
1070
    41
1040
2.000000
1002
}
  0
DIMENSION
  5
3BD
100
AcDbEntity
  8
MAIN0
  6
CONTINUOUS
 62
3
100
AcDbDimension
  2
*D33
 10
293.5683232808664
 20
198.7375057857016
 30
0.0000000000000000
 11
293.0683232808664
 21
226.3407211781163
 31
0.0000000000000000
 70
32
  1
\A1;（55.2）
  3
MAIN001
100
AcDbAlignedDimension
 13
303.9163218836401
 23
253.9439365705310
 33
0.0000000000000000
 14
380.0912807283926
 24
198.7375057857016
 34
0.0000000000000000
 50
90.00000000000000
100
AcDbRotatedDimension
1001
ACAD
1000
DSTYLE
1002
{
1070
   173
1070
     1
1070
     6
1000
_OPEN
1070
     7
1000
_OPEN
1070
    41
1040
2.000000
1070
   340
1005
17B
1002
}
  0
DIMENSION
  5
3C6
100
AcDbEntity
  8
MAIN0
  6
CONTINUOUS
 62
3
100
AcDbDimension
  2
*D34
 10
283.5683232808664
 20
253.9439365705310
 30
0.0000000000000000
 11
283.0683232808664
 21
202.4439365705306
 31
0.0000000000000000
 70
32
  3
MAIN001
100
AcDbAlignedDimension
 13
376.0683232808661
 23
150.9439365705302
 33
0.0000000000000000
 14
303.9163218836401
 24
253.9439365705310
 34
0.0000000000000000
 50
90.00000000000000
100
AcDbRotatedDimension
1001
ACAD
1000
DSTYLE
1002
{
1070
   173
1070
     1
1070
     6
1000
_OPEN
1070
     7
1000
_OPEN
1070
    41
1040
2.000000
1002
}
  0
DIMENSION
  5
3CD
100
AcDbEntity
  8
MAIN0
  6
CONTINUOUS
 62
3
100
AcDbDimension
  2
*D35
 10
340.4960236979564
 20
307.2832048046458
 30
0.0000000000000000
 11
363.4536603050367
 21
291.6915985744594
 31
0.0000000000000000
 70
163
  3
MAIN001
100
AcDbDiametricDimension
 15
491.6406228637754
 25
200.6046683364140
 35
0.0000000000000000
1001
ACAD
1000
DSTYLE
1002
{
1070
   287
1070
     2
1070
   173
1070
     1
1070
     6
1000
_OPEN
1070
     7
1000
_OPEN
1070
    41
1040
2.000000
1070
   272
1070
     1
1070
    47
1040
0.200000
1070
    48
1040
0.200000
1070
    71
1070
     1
1002
}
  0
LINE
  5
3CE
100
AcDbEntity
  8
MAIN0
  6
CENTER
 62
3
100
AcDbLine
 10
392.5683232808661
 20
144.9507676876575
 30
0.0000000000000000
 11
392.5683232808672
 21
211.3516294893905
 31
0.0000000000000000
  0
LINE
  5
3CF
100
AcDbEntity
  8
MAIN0
  6
CENTER
 62
3
100
AcDbLine
 10
416.0683232808660
 20
332.1714975897443
 30
0.0000000000000000
 11
416.0683232808660
 21
371.4620834943273
 31
0.0000000000000000
  0
LINE
  5
3D0
100
AcDbEntity
  8
MAIN0
  6
CENTER
 62
3
100
AcDbLine
 10
416.0683232808661
 20
125.3980118120641
 30
0.0000000000000000
 11
416.0683232808660
 21
326.0714976851118
 31
0.0000000000000000
  0
LINE
  5
3D1
100
AcDbEntity
  8
MAIN0
  6
CENTER
 62
3
100
AcDbLine
 10
445.7872134297550
 20
283.6628267193295
 30
0.0000000000000000
 11
488.5110320127931
 21
326.3866453024008
 31
0.0000000000000000
  0
CIRCLE
  5
3D2
100
AcDbEntity
  8
MAIN0
  6
PHANTOM
 62
3
100
AcDbCircle
 10
439.5683232808661
 20
163.4439365705301
 30
0.0000000000000000
 40
5.000000000000000
  0
CIRCLE
  5
3D3
100
AcDbEntity
  8
MAIN0
  6
PHANTOM
 62
3
100
AcDbCircle
 10
439.5683232808661
 20
163.4439365705301
 30
0.0000000000000000
 40
2.500000000000000
  0
CIRCLE
  5
3D4
100
AcDbEntity
  8
MAIN0
  6
CONTINUOUS
 62
3
100
AcDbCircle
 10
462.3183232808665
 20
334.0512864205902
 30
0.0000000000000000
 40
5.000000000000000
  0
CIRCLE
  5
3D5
100
AcDbEntity
  8
MAIN0
  6
CONTINUOUS
 62
3
100
AcDbCircle
 10
462.3183232808665
 20
334.0512864205902
 30
0.0000000000000000
 40
4.250000000000000
  0
CIRCLE
  5
3D6
100
AcDbEntity
  8
MAIN0
  6
CONTINUOUS
 62
3
100
AcDbCircle
 10
369.8183232808657
 20
173.8365867204695
 30
0.0000000000000000
 40
5.000000000000000
  0
CIRCLE
  5
3D7
100
AcDbEntity
  8
MAIN0
  6
CONTINUOUS
 62
3
100
AcDbCircle
 10
369.8183232808657
 20
173.8365867204695
 30
0.0000000000000000
 40
4.250000000000000
  0
CIRCLE
  5
3D8
100
AcDbEntity
  8
MAIN0
  6
PHANTOM
 62
3
100
AcDbCircle
 10
392.5683232808672
 20
198.7375057857015
 30
0.0000000000000000
 40
4.864000000000000
  0
LINE
  5
3D9
100
AcDbEntity
  8
MAIN0
  6
CONTINUOUS
 62
3
100
AcDbLine
 10
192.0683232811610
 20
273.9439365705297
 30
0.0000000000000000
 11
160.0682821510866
 21
273.9439365705301
 31
0.0000000000000000
  0
LINE
  5
3DA
100
AcDbEntity
  8
MAIN0
  6
CONTINUOUS
 62
3
100
AcDbLine
 10
192.0683232811608
 20
233.9439365705293
 30
0.0000000000000000
 11
160.0682821510861
 21
233.9439365705301
 31
0.0000000000000000
  0
LINE
  5
3DB
100
AcDbEntity
  8
MAIN0
  6
CONTINUOUS
 62
3
100
AcDbLine
 10
192.0683232811608
 20
233.9439365705292
 30
0.0000000000000000
 11
193.0683232808660
 21
234.5212868395484
 31
0.0000000000000000
  0
LINE
  5
3DC
100
AcDbEntity
  8
MAIN0
  6
CONTINUOUS
 62
3
100
AcDbLine
 10
192.0683232811612
 20
273.9439365705296
 30
0.0000000000000000
 11
193.0683232808660
 21
273.3665863015106
 31
0.0000000000000000
  0
LINE
  5
3DD
100
AcDbEntity
  8
MAIN0
  6
CONTINUOUS
 62
3
100
AcDbLine
 10
166.8683232808660
 20
276.9439365705297
 30
0.0000000000000000
 11
162.5683232808659
 21
276.9439365705297
 31
0.0000000000000000
  0
LINE
  5
3DE
100
AcDbEntity
  8
MAIN0
  6
CONTINUOUS
 62
3
100
AcDbLine
 10
162.3683232808659
 20
276.7439365705297
 30
0.0000000000000000
 11
162.3683232808659
 21
274.1439365705297
 31
0.0000000000000000
  0
LINE
  5
3DF
100
AcDbEntity
  8
MAIN0
  6
CONTINUOUS
 62
3
100
AcDbLine
 10
167.0683232808660
 20
276.7439365705297
 30
0.0000000000000000
 11
167.0683232808659
 21
274.1439365705297
 31
0.0000000000000000
  0
ELLIPSE
  5
3E0
100
AcDbEntity
  8
MAIN0
  6
CONTINUOUS
 62
3
100
AcDbEllipse
 10
164.7183232808661
 20
275.4439365705297
 30
0.0000000000000000
 11
2.350000000000000
 21
0.0000000000000000
 31
0.0000000000000000
210
0.0000000000000000
220
0.0000000000000000
230
1.000000000000000
 40
0.6382978723404255
 41
0.0000000000000000
 42
6.283185307179586
  0
ARC
  5
3E1
100
AcDbEntity
  8
MAIN0
  6
CONTINUOUS
 62
3
100
AcDbCircle
 10
166.8683232808660
 20
276.7439365705297
 30
0.0000000000000000
 40
0.2000000000000000
100
AcDbArc
 50
0.0000000000000000
 51
89.99999999999795
  0
ARC
  5
3E2
100
AcDbEntity
  8
MAIN0
  6
CONTINUOUS
 62
3
100
AcDbCircle
 10
162.5683232808659
 20
276.7439365705297
 30
0.0000000000000000
 40
0.2000000000000000
100
AcDbArc
 50
89.99999999942553
 51
179.9999999999964
  0
ARC
  5
3E3
100
AcDbEntity
  8
MAIN0
  6
CONTINUOUS
 62
3
100
AcDbCircle
 10
167.2683232808660
 20
274.1439365705296
 30
0.0000000000000000
 40
0.2000000000000000
100
AcDbArc
 50
179.9999999999964
 51
270.0000000005678
  0
ARC
  5
3E4
100
AcDbEntity
  8
MAIN0
  6
CONTINUOUS
 62
3
100
AcDbCircle
 10
162.1683232808659
 20
274.1439365705297
 30
0.0000000000000000
 40
0.2000000000000000
100
AcDbArc
 50
269.9999999999943
 51
359.9999999999934
  0
LINE
  5
3E5
100
AcDbEntity
  8
MAIN0
  6
CONTINUOUS
 62
3
100
AcDbLine
 10
137.0683232808433
 20
266.4439365705305
 30
0.0000000000000000
 11
165.0683232808663
 21
266.4439365705305
 31
0.0000000000000000
  0
LINE
  5
3E6
100
AcDbEntity
  8
MAIN0
  6
CONTINUOUS
 62
3
100
AcDbLine
 10
137.0683232808422
 20
241.4439365705305
 30
0.0000000000000000
 11
165.0683232808662
 21
241.4439365705305
 31
0.0000000000000000
  0
LINE
  5
3E7
100
AcDbEntity
  8
MAIN0
  6
CONTINUOUS
 62
3
100
AcDbLine
 10
163.0683232808662
 20
242.4439365705305
 30
0.0000000000000000
 11
163.0683232808663
 21
265.4439365705305
 31
0.0000000000000000
  0
LINE
  5
3E8
100
AcDbEntity
  8
MAIN0
  6
CONTINUOUS
 62
3
100
AcDbLine
 10
162.0683232808662
 20
241.4439365705305
 30
0.0000000000000000
 11
163.0683232808662
 21
242.4439365705305
 31
0.0000000000000000
  0
LINE
  5
3E9
100
AcDbEntity
  8
MAIN0
  6
CONTINUOUS
 62
3
100
AcDbLine
 10
163.0683232808663
 20
265.4439365705305
 30
0.0000000000000000
 11
162.0683232808663
 21
266.4439365705305
 31
0.0000000000000000
  0
LINE
  5
3EA
100
AcDbEntity
  8
MAIN0
  6
CONTINUOUS
 62
3
100
AcDbLine
 10
163.0683232808663
 20
260.4439365705301
 30
0.0000000000000000
 11
138.0683232808663
 21
260.4439365705303
 31
0.0000000000000000
  0
LINE
  5
3EB
100
AcDbEntity
  8
MAIN0
  6
CONTINUOUS
 62
3
100
AcDbLine
 10
163.0683232808662
 20
247.4439365705300
 30
0.0000000000000000
 11
138.0683232808662
 21
247.4439365705303
 31
0.0000000000000000
  0
LINE
  5
3EC
100
AcDbEntity
  8
MAIN0
  6
CONTINUOUS
 62
3
100
AcDbLine
 10
194.0683232808661
 20
243.6439365705293
 30
0.0000000000000000
 11
194.0683232808661
 21
268.9439365705297
 31
0.0000000000000000
  0
LINE
  5
3ED
100
AcDbEntity
  8
WAKU0
  6
CONTINUOUS
 62
3
100
AcDbLine
 10
412.0000000000000
 20
51.00000000000000
 30
0.0000000000000000
 11
582.0000000000000
 21
51.00000000000000
 31
0.0000000000000000
  0
LINE
  5
3EE
100
AcDbEntity
  8
WAKU0
  6
CONTINUOUS
 62
3
100
AcDbLine
 10
412.0000000000000
 20
51.00000000000000
 30
0.0000000000000000
 11
412.0000000000000
 21
12.00000000000000
 31
0.0000000000000000
  0
LINE
  5
3EF
100
AcDbEntity
  8
WAKU0
  6
CONTINUOUS
 62
3
100
AcDbLine
 10
484.0000000000000
 20
51.00000000000000
 30
0.0000000000000000
 11
484.0000000000000
 21
12.00000000000000
 31
0.0000000000000000
  0
LINE
  5
3F0
100
AcDbEntity
  8
WAKU0
  6
CONTINUOUS
 62
3
100
AcDbLine
 10
504.0000000000000
 20
51.00000000000000
 30
0.0000000000000000
 11
504.0000000000000
 21
12.00000000000000
 31
0.0000000000000000
  0
LINE
  5
3F1
100
AcDbEntity
  8
WAKU0
  6
CONTINUOUS
 62
3
100
AcDbLine
 10
516.0000000000000
 20
51.00000000000000
 30
0.0000000000000000
 11
516.0000000000000
 21
12.00000000000000
 31
0.0000000000000000
  0
LINE
  5
3F2
100
AcDbEntity
  8
WAKU0
  6
CONTINUOUS
 62
3
100
AcDbLine
 10
516.0000000000000
 20
37.00000000000000
 30
0.0000000000000000
 11
582.0000000000000
 21
37.00000000000000
 31
0.0000000000000000
  0
LINE
  5
3F3
100
AcDbEntity
  8
WAKU0
  6
CONTINUOUS
 62
3
100
AcDbLine
 10
504.0000000000000
 20
23.00000000000000
 30
0.0000000000000000
 11
582.0000000000000
 21
23.00000000000000
 31
0.0000000000000000
  0
LINE
  5
3F4
100
AcDbEntity
  8
WAKU0
  6
CONTINUOUS
 62
3
100
AcDbLine
 10
547.0000000000000
 20
51.00000000000000
 30
0.0000000000000000
 11
547.0000000000000
 21
44.00000000000000
 31
0.0000000000000000
  0
LINE
  5
3F5
100
AcDbEntity
  8
WAKU0
  6
CONTINUOUS
 62
3
100
AcDbLine
 10
559.0000000000000
 20
51.00000000000000
 30
0.0000000000000000
 11
559.0000000000000
 21
44.00000000000000
 31
0.0000000000000000
  0
LINE
  5
3F6
100
AcDbEntity
  8
WAKU0
  6
CONTINUOUS
 62
3
100
AcDbLine
 10
484.0000000000000
 20
31.50000000000000
 30
0.0000000000000000
 11
504.0000000000000
 21
31.50000000000000
 31
0.0000000000000000
  0
LINE
  5
3F7
100
AcDbEntity
  8
WAKU0
  6
CONTINUOUS
 62
3
100
AcDbLine
 10
504.0000000000000
 20
44.00000000000000
 30
0.0000000000000000
 11
582.0000000000000
 21
44.00000000000000
 31
0.0000000000000000
  0
LINE
  5
3F8
100
AcDbEntity
  8
WAKU0
  6
CONTINUOUS
 62
3
100
AcDbLine
 10
412.0000000000000
 20
37.00000000000000
 30
0.0000000000000000
 11
484.0000000000000
 21
37.00000000000000
 31
0.0000000000000000
  0
LINE
  5
3F9
100
AcDbEntity
  8
WAKU0
  6
CONTINUOUS
 62
3
100
AcDbLine
 10
412.0000000000000
 20
23.00000000000000
 30
0.0000000000000000
 11
484.0000000000000
 21
23.00000000000000
 31
0.0000000000000000
  0
LINE
  5
3FA
100
AcDbEntity
  8
WAKU0
  6
CONTINUOUS
 62
3
100
AcDbLine
 10
460.0000000000000
 20
37.00000000000000
 30
0.0000000000000000
 11
460.0000000000000
 21
12.00000000000000
 31
0.0000000000000000
  0
LINE
  5
3FB
100
AcDbEntity
  8
WAKU0
  6
CONTINUOUS
 62
3
100
AcDbLine
 10
436.0000000000000
 20
37.00000000000000
 30
0.0000000000000000
 11
436.0000000000000
 21
23.00000000000000
 31
0.0000000000000000
  0
LINE
  5
3FC
100
AcDbEntity
  8
WAKU0
  6
CONTINUOUS
 62
3
100
AcDbLine
 10
472.0000000000000
 20
26.00000000000000
 30
0.0000000000000000
 11
472.0000000000000
 21
23.00000000000000
 31
0.0000000000000000
  0
LINE
  5
3FD
100
AcDbEntity
  8
WAKU0
  6
CONTINUOUS
 62
3
100
AcDbLine
 10
448.0000000000000
 20
26.00000000000000
 30
0.0000000000000000
 11
448.0000000000000
 21
23.00000000000000
 31
0.0000000000000000
  0
LINE
  5
3FE
100
AcDbEntity
  8
WAKU0
  6
CONTINUOUS
 62
3
100
AcDbLine
 10
424.0000000000000
 20
26.00000000000000
 30
0.0000000000000000
 11
424.0000000000000
 21
23.00000000000000
 31
0.0000000000000000
  0
LINE
  5
3FF
100
AcDbEntity
  8
WAKU0
  6
CONTINUOUS
 62
3
100
AcDbLine
 10
430.0000000000000
 20
51.00000000000000
 30
0.0000000000000000
 11
430.0000000000000
 21
37.00000000000000
 31
0.0000000000000000
  0
LINE
  5
400
100
AcDbEntity
  8
WAKU0
  6
CONTINUOUS
 62
3
100
AcDbLine
 10
412.0000000000000
 20
45.00000000000000
 30
0.0000000000000000
 11
484.0000000000000
 21
45.00000000000000
 31
0.0000000000000000
  0
LINE
  5
401
100
AcDbEntity
  8
WAKU0
  6
HIDDEN
 62
3
100
AcDbLine
 10
532.5000000000000
 20
23.00000000000000
 30
0.0000000000000000
 11
532.5000000000000
 21
12.00000000000000
 31
0.0000000000000000
  0
LINE
  5
402
100
AcDbEntity
  8
WAKU0
  6
HIDDEN
 62
3
100
AcDbLine
 10
544.9000000000000
 20
23.00000000000000
 30
0.0000000000000000
 11
544.9000000000000
 21
12.00000000000000
 31
0.0000000000000000
  0
MTEXT
  5
403
100
AcDbEntity
  8
WAKU0
  6
CONTINUOUS
 62
3
100
AcDbMText
 10
516.4820000243485
 20
49.04999995231628
 30
0.0000000000000000
 40
3.099999904632568
 41
0.0000000000000000
 71
     1
 72
     1
  1
{\H0.92x;{YS1415K}}
 11
1.000000000000000
 21
0.0000000000000000
 31
0.0000000000000000
  7
STANDARD
  0
MTEXT
  5
404
100
AcDbEntity
  8
WAKU0
  6
CONTINUOUS
 62
3
100
AcDbMText
 10
517.1700005233288
 20
43.50000000000000
 30
0.0000000000000000
 40
3.000000000000000
 41
0.0000000000000000
 71
     1
 72
     1
  1
{\H0.94x;{ステーショナリシリンダ\PＳＴＡＴＩＯＮＡＲＹ　ＣＹＬＩＮＤＥＲ}}
 11
1.000000000000000
 21
0.0000000000000000
 31
0.0000000000000000
  7
KNJYOKO
  0
MTEXT
  5
405
100
AcDbEntity
  8
WAKU0
  6
CONTINUOUS
 62
3
100
AcDbMText
 10
516.4000000059605
 20
34.23333326975504
 30
0.0000000000000000
 40
3.099999904632568
 41
0.0000000000000000
 71
     1
 72
     1
  1
{\H0.70x;{ＹＳ１４１５Ｋ　ガイケイ\PＹＳ１４１５Ｋ　ＯＵＴＳＩＤＥ　ＶＩＥＷ}}
 11
1.000000000000000
 21
0.0000000000000000
 31
0.0000000000000000
  7
KNJYOKO
  0
MTEXT
  5
406
100
AcDbEntity
  8
WAKU0
  6
CONTINUOUS
 62
3
100
AcDbMText
 10
490.0049998760223
 20
39.29999995231628
 30
0.0000000000000000
 40
3.099999904632568
 41
0.0000000000000000
 71
     1
 72
     1
  1
{\H0.90x;{1:1}}
 11
1.000000000000000
 21
0.0000000000000000
 31
0.0000000000000000
  7
STANDARD
  0
MTEXT
  5
407
100
AcDbEntity
  8
WAKU0
  6
CONTINUOUS
 62
3
100
AcDbMText
 10
546.4000001549721
 20
20.15000009536743
 30
0.0000000000000000
 40
5.300000190734863
 41
0.0000000000000000
 71
     1
 72
     1
  1
{\H0.90x;{8912}}
 11
1.000000000000000
 21
0.0000000000000000
 31
0.0000000000000000
  7
STANDARD
  0
MTEXT
  5
408
100
AcDbEntity
  8
WAKU0
  6
CONTINUOUS
 62
3
100
AcDbMText
 10
534.3000000834466
 20
20.15000009536743
 30
0.0000000000000000
 40
5.300000190734863
 41
0.0000000000000000
 71
     1
 72
     1
  1
{\H0.87x;{23}}
 11
1.000000000000000
 21
0.0000000000000000
 31
0.0000000000000000
  7
STANDARD
  0
MTEXT
  5
409
100
AcDbEntity
  8
WAKU0
  6
CONTINUOUS
 62
3
100
AcDbMText
 10
517.5000001192093
 20
20.15000009536743
 30
0.0000000000000000
 40
5.300000190734863
 41
0.0000000000000000
 71
     1
 72
     1
  1
{\H0.89x;{61R}}
 11
1.000000000000000
 21
0.0000000000000000
 31
0.0000000000000000
  7
STANDARD
  0
MTEXT
  5
40A
100
AcDbEntity
  8
WAKU0
  6
CONTINUOUS
 62
3
100
AcDbMText
 10
572.0000000476837
 20
20.15000009536743
 30
0.0000000000000000
 40
5.300000190734863
 41
0.0000000000000000
 71
     1
 72
     1
  1
{\H0.81x;{4}}
 11
1.000000000000000
 21
0.0000000000000000
 31
0.0000000000000000
  7
STANDARD
  0
MTEXT
  5
40B
100
AcDbEntity
  8
WAKU0
  6
CONTINUOUS
 62
3
100
AcDbMText
 10
572.0000000819564
 20
44.84999990463257
 30
0.0000000000000000
 40
5.300000190734863
 41
0.0000000000000000
 71
     7
 72
     1
  1
{\H0.81x;{ }}
 11
1.000000000000000
 21
0.0000000000000000
 31
0.0000000000000000
  7
STANDARD
  0
MTEXT
  5
40C
100
AcDbEntity
  8
WAKU0
  6
CONTINUOUS
 62
3
100
AcDbMText
 10
461.3850002884865
 20
33.00000000000000
 30
0.0000000000000000
 40
3.000000000000000
 41
0.0000000000000000
 71
     7
 72
     1
  1
{\H0.93x;{DRAWN BY}}
 11
1.000000000000000
 21
0.0000000000000000
 31
0.0000000000000000
  7
STANDARD
  0
MTEXT
  5
40D
100
AcDbEntity
  8
WAKU0
  6
CONTINUOUS
 62
3
100
AcDbMText
 10
441.2149997949600
 20
32.95000004768372
 30
0.0000000000000000
 40
3.099999904632568
 41
0.0000000000000000
 71
     7
 72
     1
  1
{\H0.92x;{CHIEF}}
 11
1.000000000000000
 21
0.0000000000000000
 31
0.0000000000000000
  7
STANDARD
  0
MTEXT
  5
40E
100
AcDbEntity
  8
WAKU0
  6
CONTINUOUS
 62
3
100
AcDbMText
 10
414.4249997138977
 20
32.95000004768372
 30
0.0000000000000000
 40
3.099999904632568
 41
0.0000000000000000
 71
     7
 72
     1
  1
{\H0.92x;{MANAGER}}
 11
1.000000000000000
 21
0.0000000000000000
 31
0.0000000000000000
  7
STANDARD
  0
MTEXT
  5
40F
100
AcDbEntity
  8
WAKU0
  6
CONTINUOUS
 62
3
100
AcDbMText
 10
416.6599994301796
 20
18.13333336512248
 30
0.0000000000000000
 40
3.099999904632568
 41
0.0000000000000000
 71
     7
 72
     1
  1
{\H0.93x;{KITAGAWA IRON\PWORKS CO.,LTD.}}
 11
1.000000000000000
 21
0.0000000000000000
 31
0.0000000000000000
  7
STANDARD
  0
MTEXT
  5
410
100
AcDbEntity
  8
WAKU0
  6
CONTINUOUS
 62
3
100
AcDbMText
 10
413.0850002169609
 20
46.50000000000000
 30
0.0000000000000000
 40
3.000000000000000
 41
0.0000000000000000
 71
     7
 72
     1
  1
{\H0.92x;{CAREER}}
 11
1.000000000000000
 21
0.0000000000000000
 31
0.0000000000000000
  7
STANDARD
  0
MTEXT
  5
411
100
AcDbEntity
  8
WAKU0
  6
CONTINUOUS
 62
3
100
AcDbMText
 10
466.6099998354912
 20
18.95000004768372
 30
0.0000000000000000
 40
3.099999904632568
 41
0.0000000000000000
 71
     7
 72
     1
  1
{\H0.91x;{DATE}}
 11
1.000000000000000
 21
0.0000000000000000
 31
0.0000000000000000
  7
STANDARD
  0
MTEXT
  5
412
100
AcDbEntity
  8
WAKU0
  6
CONTINUOUS
 62
3
100
AcDbMText
 10
485.9000002145767
 20
26.50000000000000
 30
0.0000000000000000
 40
3.000000000000000
 41
0.0000000000000000
 71
     7
 72
     1
  1
{\H0.63x;{3RD ANGLE}}
 11
1.000000000000000
 21
0.0000000000000000
 31
0.0000000000000000
  7
STANDARD
  0
MTEXT
  5
413
100
AcDbEntity
  8
WAKU0
  6
CONTINUOUS
 62
3
100
AcDbMText
 10
487.2149997949600
 20
45.95000004768372
 30
0.0000000000000000
 40
3.099999904632568
 41
0.0000000000000000
 71
     7
 72
     1
  1
{\H0.92x;{SCALE}}
 11
1.000000000000000
 21
0.0000000000000000
 31
0.0000000000000000
  7
STANDARD
  0
MTEXT
  5
414
100
AcDbEntity
  8
WAKU0
  6
CONTINUOUS
 62
3
100
AcDbMText
 10
577.7000000476837
 20
46.00000000000000
 30
0.0000000000000000
 40
3.000000000000000
 41
0.0000000000000000
 71
     7
 72
     1
  1
{\H0.63x;{kg}}
 11
1.000000000000000
 21
0.0000000000000000
 31
0.0000000000000000
  7
STANDARD
  0
MTEXT
  5
415
100
AcDbEntity
  8
WAKU0
  6
CONTINUOUS
 62
3
100
AcDbMText
 10
547.6000001430512
 20
46.00000000000000
 30
0.0000000000000000
 40
3.000000000000000
 41
0.0000000000000000
 71
     7
 72
     1
  1
{\H0.63x;{WEIGHT}}
 11
1.000000000000000
 21
0.0000000000000000
 31
0.0000000000000000
  7
STANDARD
  0
MTEXT
  5
416
100
AcDbEntity
  8
WAKU0
  6
CONTINUOUS
 62
3
100
AcDbMText
 10
506.0049998760223
 20
18.13333336512248
 30
0.0000000000000000
 40
3.099999904632568
 41
0.0000000000000000
 71
     7
 72
     1
  1
{\H0.90x;{DRW\PNO.}}
 11
1.000000000000000
 21
0.0000000000000000
 31
0.0000000000000000
  7
STANDARD
  0
MTEXT
  5
417
100
AcDbEntity
  8
WAKU0
  6
CONTINUOUS
 62
3
100
AcDbMText
 10
504.6099998354912
 20
31.95000004768372
 30
0.0000000000000000
 40
3.099999904632568
 41
0.0000000000000000
 71
     7
 72
     1
  1
{\H0.91x;{NAME}}
 11
1.000000000000000
 21
0.0000000000000000
 31
0.0000000000000000
  7
STANDARD
  0
MTEXT
  5
418
100
AcDbEntity
  8
WAKU0
  6
CONTINUOUS
 62
3
100
AcDbMText
 10
504.6099998354912
 20
45.95000004768372
 30
0.0000000000000000
 40
3.099999904632568
 41
0.0000000000000000
 71
     7
 72
     1
  1
{\H0.91x;{TYPE}}
 11
1.000000000000000
 21
0.0000000000000000
 31
0.0000000000000000
  7
STANDARD
  0
LINE
  5
419
100
AcDbEntity
  8
WAKU0
  6
HIDDEN
 62
3
100
AcDbLine
 10
579.1599564743885
 20
13.84999990463257
 30
0.0000000000000000
 11
568.9400436209789
 21
13.84999990463257
 31
0.0000000000000000
  0
LINE
  5
41A
100
AcDbEntity
  8
WAKU0
  6
HIDDEN
 62
3
100
AcDbLine
 10
579.1599564743885
 20
13.84999990463250
 30
0.0000000000000000
 11
574.0500000476851
 21
22.70070406014901
 31
0.0000000000000000
  0
LINE
  5
41B
100
AcDbEntity
  8
WAKU0
  6
HIDDEN
 62
3
100
AcDbLine
 10
574.0500000476851
 20
22.70070406014902
 30
0.0000000000000000
 11
568.9400436209789
 21
13.84999990463248
 31
0.0000000000000000
  0
LINE
  5
41C
100
AcDbEntity
  8
WAKU0
  6
CONTINUOUS
 62
3
100
AcDbLine
 10
502.4713877753800
 20
15.78041421262812
 30
0.0000000000000000
 11
502.4713877753800
 21
21.78041421262815
 31
0.0000000000000000
  0
LINE
  5
41D
100
AcDbEntity
  8
WAKU0
  6
CONTINUOUS
 62
3
100
AcDbLine
 10
495.9336941228225
 20
17.28041421262811
 30
0.0000000000000000
 11
495.9336941228225
 21
20.28041421262824
 31
0.0000000000000000
  0
LINE
  5
41E
100
AcDbEntity
  8
WAKU0
  6
CENTER
 62
12
100
AcDbLine
 10
485.4321805514995
 20
18.78041421262813
 30
0.0000000000000000
 11
503.2765788964694
 21
18.78041421262813
 31
0.0000000000000000
  0
LINE
  5
41F
100
AcDbEntity
  8
WAKU0
  6
CENTER
 62
12
100
AcDbLine
 10
489.4474565857986
 20
14.55921662918448
 30
0.0000000000000000
 11
489.4474565857986
 21
22.89865102149943
 31
0.0000000000000000
  0
LINE
  5
420
100
AcDbEntity
  8
WAKU0
  6
CONTINUOUS
 62
3
100
AcDbLine
 10
495.9336941228225
 20
20.28041421262797
 30
0.0000000000000000
 11
502.4713877753800
 21
21.78041421262795
 31
0.0000000000000000
  0
LINE
  5
421
100
AcDbEntity
  8
WAKU0
  6
CONTINUOUS
 62
3
100
AcDbLine
 10
495.9336941228225
 20
17.28041421262811
 30
0.0000000000000000
 11
502.4713877753799
 21
15.78041421262812
 31
0.0000000000000000
  0
CIRCLE
  5
422
100
AcDbEntity
  8
WAKU0
  6
CONTINUOUS
 62
3
100
AcDbCircle
 10
489.4474565857986
 20
18.78041421262813
 30
0.0000000000000000
 40
1.499999999999972
  0
CIRCLE
  5
423
100
AcDbEntity
  8
WAKU0
  6
CONTINUOUS
 62
3
100
AcDbCircle
 10
489.4474565857986
 20
18.78041421262813
 30
0.0000000000000000
 40
2.999999999999979
  0
ENDSEC
  0
SECTION
  2
OBJECTS
  0
DICTIONARY
  5
476
100
AcDbDictionary
  3
ACAD_GROUP
350
477
  3
ACAD_MLINESTYLE
350
478
  3
DWGPROPS
350
479
  0
DICTIONARY
  5
477
102
{ACAD_REACTORS
330
476
102
}
100
AcDbDictionary
  0
DICTIONARY
  5
478
102
{ACAD_REACTORS
330
476
102
}
100
AcDbDictionary
  3
STANDARD
350
47A
  0
MLINESTYLE
  5
47A
102
{ACAD_REACTORS
330
478
102
}
100
AcDbMlineStyle
  2
STANDARD
 70
     0
  3

 62
   256
 51
90.00
 52
90.00
 71
     2
 49
0.50
 62
   256
  6
BYLAYER
 49
-0.50
 62
   256
  6
BYLAYER
  0
XRECORD
  5
479
102
{ACAD_REACTORS
330
476
102
}
100
AcDbXrecord
280
     1
  1
DWGPROPS COOKIE
  2
ＹＳ１４１５Ｋ　ガイケイ
  3

  4

  6
ステーショナリシリンダ
  7

  8

  9

300
=
301
=
302
=
303
=
304
=
305
=
306
=
307
=
308
=
309
=
 40
0.000000
 41
0.000000
 42
0.000000
  1

 90
        0
  0
ENDSEC
  0
EOF
